  0
SECTION
  2
HEADER
  9
$ACADVER
  1
AC1015
  9
$ACADMAINTVER
 70
     6
  9
$DWGCODEPAGE
  3
ANSI_1252
  9
$INSBASE
 10
0.0
 20
0.0
 30
0.0
  9
$EXTMIN
 10
0.0
 20
0.0
 30
0.0
  9
$EXTMAX
 10
297.0
 20
210.0
 30
0.0
  9
$LIMMIN
 10
0.0
 20
0.0
  9
$LIMMAX
 10
297.0
 20
210.0
  9
$ORTHOMODE
 70
     0
  9
$REGENMODE
 70
     1
  9
$FILLMODE
 70
     1
  9
$QTEXTMODE
 70
     0
  9
$MIRRTEXT
 70
     1
  9
$LTSCALE
 40
1.0
  9
$ATTMODE
 70
     1
  9
$TEXTSIZE
 40
2.0
  9
$TRACEWID
 40
1.0
  9
$TEXTSTYLE
  7
Standard
  9
$CLAYER
  8
0
  9
$CELTYPE
  6
ByLayer
  9
$CECOLOR
 62
   256
  9
$CELTSCALE
 40
1.0
  9
$DISPSILH
 70
     0
  9
$DIMSCALE
 40
1.0
  9
$DIMASZ
 40
3.0
  9
$DIMEXO
 40
0.0
  9
$DIMDLI
 40
3.75
  9
$DIMRND
 40
0.0
  9
$DIMDLE
 40
0.0
  9
$DIMEXE
 40
1.0
  9
$DIMTP
 40
0.0
  9
$DIMTM
 40
0.0
  9
$DIMTXT
 40
2.0
  9
$DIMCEN
 40
2.5
  9
$DIMTSZ
 40
0.0
  9
$DIMTOL
 70
     0
  9
$DIMLIM
 70
     0
  9
$DIMTIH
 70
     1
  9
$DIMTOH
 70
     1
  9
$DIMSE1
 70
     0
  9
$DIMSE2
 70
     0
  9
$DIMTAD
 70
     1
  9
$DIMZIN
 70
     0
  9
$DIMBLK
  1

  9
$DIMASO
 70
     1
  9
$DIMSHO
 70
     1
  9
$DIMPOST
  1

  9
$DIMAPOST
  1

  9
$DIMALT
 70
     0
  9
$DIMALTD
 70
     3
  9
$DIMALTF
 40
0.0393700787
  9
$DIMLFAC
 40
2.0
  9
$DIMTOFL
 70
     1
  9
$DIMTVP
 40
0.0
  9
$DIMTIX
 70
     0
  9
$DIMSOXD
 70
     0
  9
$DIMSAH
 70
     0
  9
$DIMBLK1
  1

  9
$DIMBLK2
  1

  9
$DIMSTYLE
  2
ISO-25
  9
$DIMCLRD
 70
     0
  9
$DIMCLRE
 70
     0
  9
$DIMCLRT
 70
     0
  9
$DIMTFAC
 40
1.0
  9
$DIMGAP
 40
1.524
  9
$DIMJUST
 70
     0
  9
$DIMSD1
 70
     0
  9
$DIMSD2
 70
     0
  9
$DIMTOLJ
 70
     0
  9
$DIMTZIN
 70
     0
  9
$DIMALTZ
 70
     0
  9
$DIMALTTZ
 70
     0
  9
$DIMUPT
 70
     0
  9
$DIMDEC
 70
     2
  9
$DIMTDEC
 70
     3
  9
$DIMALTU
 70
     2
  9
$DIMALTTD
 70
     3
  9
$DIMTXSTY
  7
Standard
  9
$DIMAUNIT
 70
     0
  9
$DIMADEC
 70
     2
  9
$DIMALTRND
 40
0.0
  9
$DIMAZIN
 70
     0
  9
$DIMDSEP
 70
    44
  9
$DIMATFIT
 70
     3
  9
$DIMFRAC
 70
     0
  9
$DIMLDRBLK
  1

  9
$DIMLUNIT
 70
     2
  9
$DIMLWD
 70
    -2
  9
$DIMLWE
 70
    -2
  9
$DIMTMOVE
 70
     0
  9
$LUNITS
 70
     2
  9
$LUPREC
 70
     2
  9
$SKETCHINC
 40
1.0
  9
$FILLETRAD
 40
10.0
  9
$AUNITS
 70
     0
  9
$AUPREC
 70
     2
  9
$MENU
  1
.
  9
$ELEVATION
 40
0.0
  9
$PELEVATION
 40
0.0
  9
$THICKNESS
 40
0.0
  9
$LIMCHECK
 70
     0
  9
$CHAMFERA
 40
0.0
  9
$CHAMFERB
 40
0.0
  9
$CHAMFERC
 40
0.0
  9
$CHAMFERD
 40
0.0
  9
$SKPOLY
 70
     0
  9
$TDCREATE
 40
2459055.556013796
  9
$TDUCREATE
 40
2459055.472680463
  9
$TDUPDATE
 40
2459055.556015243
  9
$TDUUPDATE
 40
2459055.47268191
  9
$TDINDWG
 40
0.0000000116
  9
$TDUSRTIMER
 40
0.0000000116
  9
$USRTIMER
 70
     1
  9
$ANGBASE
 50
0.0
  9
$ANGDIR
 70
     0
  9
$PDMODE
 70
     0
  9
$PDSIZE
 40
-1.0
  9
$PLINEWID
 40
0.0
  9
$SPLFRAME
 70
     0
  9
$SPLINETYPE
 70
     6
  9
$SPLINESEGS
 70
     8
  9
$HANDSEED
  5
1A8
  9
$SURFTAB1
 70
     6
  9
$SURFTAB2
 70
     6
  9
$SURFTYPE
 70
     6
  9
$SURFU
 70
     6
  9
$SURFV
 70
     6
  9
$UCSBASE
  2

  9
$UCSNAME
  2

  9
$UCSORG
 10
0.0
 20
0.0
 30
0.0
  9
$UCSXDIR
 10
1.0
 20
0.0
 30
0.0
  9
$UCSYDIR
 10
0.0
 20
1.0
 30
0.0
  9
$UCSORTHOREF
  2

  9
$UCSORTHOVIEW
 70
     0
  9
$UCSORGTOP
 10
0.0
 20
0.0
 30
0.0
  9
$UCSORGBOTTOM
 10
0.0
 20
0.0
 30
0.0
  9
$UCSORGLEFT
 10
0.0
 20
0.0
 30
0.0
  9
$UCSORGRIGHT
 10
0.0
 20
0.0
 30
0.0
  9
$UCSORGFRONT
 10
0.0
 20
0.0
 30
0.0
  9
$UCSORGBACK
 10
0.0
 20
0.0
 30
0.0
  9
$PUCSBASE
  2

  9
$PUCSNAME
  2

  9
$PUCSORG
 10
0.0
 20
0.0
 30
0.0
  9
$PUCSXDIR
 10
1.0
 20
0.0
 30
0.0
  9
$PUCSYDIR
 10
0.0
 20
1.0
 30
0.0
  9
$PUCSORTHOREF
  2

  9
$PUCSORTHOVIEW
 70
     0
  9
$PUCSORGTOP
 10
0.0
 20
0.0
 30
0.0
  9
$PUCSORGBOTTOM
 10
0.0
 20
0.0
 30
0.0
  9
$PUCSORGLEFT
 10
0.0
 20
0.0
 30
0.0
  9
$PUCSORGRIGHT
 10
0.0
 20
0.0
 30
0.0
  9
$PUCSORGFRONT
 10
0.0
 20
0.0
 30
0.0
  9
$PUCSORGBACK
 10
0.0
 20
0.0
 30
0.0
  9
$USERI1
 70
     0
  9
$USERI2
 70
     0
  9
$USERI3
 70
     0
  9
$USERI4
 70
     0
  9
$USERI5
 70
     0
  9
$USERR1
 40
0.0
  9
$USERR2
 40
0.0
  9
$USERR3
 40
0.0
  9
$USERR4
 40
0.0
  9
$USERR5
 40
0.0
  9
$WORLDVIEW
 70
     1
  9
$SHADEDGE
 70
     3
  9
$SHADEDIF
 70
    70
  9
$TILEMODE
 70
     1
  9
$MAXACTVP
 70
    64
  9
$PINSBASE
 10
0.0
 20
0.0
 30
0.0
  9
$PLIMCHECK
 70
     0
  9
$PEXTMIN
 10
1.0000000000E+20
 20
1.0000000000E+20
 30
1.0000000000E+20
  9
$PEXTMAX
 10
-1.0000000000E+20
 20
-1.0000000000E+20
 30
-1.0000000000E+20
  9
$PLIMMIN
 10
0.0
 20
0.0
  9
$PLIMMAX
 10
420.0
 20
297.0
  9
$UNITMODE
 70
     0
  9
$VISRETAIN
 70
     1
  9
$PLINEGEN
 70
     0
  9
$PSLTSCALE
 70
     1
  9
$TREEDEPTH
 70
  3020
  9
$CMLSTYLE
  2
Standard
  9
$CMLJUST
 70
     0
  9
$CMLSCALE
 40
20.0
  9
$PROXYGRAPHICS
 70
     1
  9
$MEASUREMENT
 70
     1
  9
$CELWEIGHT
370
    -1
  9
$ENDCAPS
280
     0
  9
$JOINSTYLE
280
     0
  9
$LWDISPLAY
290
     1
  9
$INSUNITS
 70
     4
  9
$HYPERLINKBASE
  1

  9
$STYLESHEET
  1

  9
$XEDIT
290
     1
  9
$CEPSNTYPE
380
     0
  9
$PSTYLEMODE
290
     1
  9
$FINGERPRINTGUID
  2
{2A6B0FFD-E208-4F4A-8280-D63589640D31}
  9
$VERSIONGUID
  2
{FAEB1C32-E019-11D5-929B-00C0DF256EC4}
  9
$EXTNAMES
290
     1
  9
$PSVPSCALE
 40
0.0
  9
$OLESTARTUP
290
     0
  0
ENDSEC
  0
SECTION
  2
CLASSES
  0
CLASS
  1
ACDBDICTIONARYWDFLT
  2
AcDbDictionaryWithDefault
  3
ObjectDBX Classes
 90
        0
280
     0
281
     0
  0
CLASS
  1
VISUALSTYLE
  2
AcDbVisualStyle
  3
ObjectDBX Classes
 90
     4095
280
     0
281
     0
  0
CLASS
  1
MATERIAL
  2
AcDbMaterial
  3
ObjectDBX Classes
 90
     1153
280
     0
281
     0
  0
CLASS
  1
SCALE
  2
AcDbScale
  3
ObjectDBX Classes
 90
     1153
280
     0
281
     0
  0
CLASS
  1
TABLESTYLE
  2
AcDbTableStyle
  3
ObjectDBX Classes
 90
     4095
280
     0
281
     0
  0
CLASS
  1
MLEADERSTYLE
  2
AcDbMLeaderStyle
  3
ACDB_MLEADERSTYLE_CLASS
 90
     4095
280
     0
281
     0
  0
CLASS
  1
SUN
  2
AcDbSun
  3
SCENEOE
 90
     1153
280
     0
281
     0
  0
CLASS
  1
ACDBPLACEHOLDER
  2
AcDbPlaceHolder
  3
ObjectDBX Classes
 90
        0
280
     0
281
     0
  0
CLASS
  1
LAYOUT
  2
AcDbLayout
  3
ObjectDBX Classes
 90
        0
280
     0
281
     0
  0
ENDSEC
  0
SECTION
  2
TABLES
  0
TABLE
  2
VPORT
  5
8
330
0
100
AcDbSymbolTable
 70
     1
  0
VPORT
  5
29
330
8
100
AcDbSymbolTableRecord
100
AcDbViewportTableRecord
  2
*Active
 70
     0
 10
0.0
 20
0.0
 11
1.0
 21
1.0
 12
148.5
 22
105.0
 13
0.0
 23
0.0
 14
10.0
 24
10.0
 15
10.0
 25
10.0
 16
0.0
 26
0.0
 36
1.0
 17
0.0
 27
0.0
 37
0.0
 40
210.0
 41
1.4142857143
 42
50.0
 43
0.0
 44
0.0
 50
0.0
 51
0.0
 71
     0
 72
  2000
 73
     1
 74
     3
 75
     0
 76
     0
 77
     0
 78
     0
281
     0
 65
     1
110
0.0
120
0.0
130
0.0
111
1.0
121
0.0
131
0.0
112
0.0
122
1.0
132
0.0
 79
     0
146
0.0
  0
ENDTAB
  0
TABLE
  2
LTYPE
  5
5
330
0
100
AcDbSymbolTable
 70
     6
  0
LTYPE
  5
14
330
5
100
AcDbSymbolTableRecord
100
AcDbLinetypeTableRecord
  2
ByBlock
 70
     0
  3

 72
    65
 73
     0
 40
0.0
  0
LTYPE
  5
15
330
5
100
AcDbSymbolTableRecord
100
AcDbLinetypeTableRecord
  2
ByLayer
 70
     0
  3

 72
    65
 73
     0
 40
0.0
  0
LTYPE
  5
16
330
5
100
AcDbSymbolTableRecord
100
AcDbLinetypeTableRecord
  2
Continuous
 70
     0
  3
Solid line
 72
    65
 73
     0
 40
0.0
  0
LTYPE
  5
6E
330
5
100
AcDbSymbolTableRecord
100
AcDbLinetypeTableRecord
  2
HIDDEN
 70
     0
  3
Hidden __ __ __ __ __ __ __ __ __ __ __ __ __ __
 72
    65
 73
     2
 40
1.905
 49
1.27
 74
     0
 49
-0.635
 74
     0
  0
LTYPE
  5
6F
330
5
100
AcDbSymbolTableRecord
100
AcDbLinetypeTableRecord
  2
PHANTOM
 70
     0
  3
Phantom ______  __  __  ______  __  __  ______
 72
    65
 73
     6
 40
12.7
 49
6.35
 74
     0
 49
-1.27
 74
     0
 49
1.27
 74
     0
 49
-1.27
 74
     0
 49
1.27
 74
     0
 49
-1.27
 74
     0
  0
LTYPE
  5
70
330
5
100
AcDbSymbolTableRecord
100
AcDbLinetypeTableRecord
  2
CENTER
 70
     0
  3
Center ____ _ ____ _ ____ _ ____ _ ____ _ ____
 72
    65
 73
     4
 40
10.16
 49
6.35
 74
     0
 49
-1.27
 74
     0
 49
1.27
 74
     0
 49
-1.27
 74
     0
  0
LTYPE
  5
71
330
5
100
AcDbSymbolTableRecord
100
AcDbLinetypeTableRecord
  2
CENTERX2
 70
     0
  3
Center (2x) ________  __  ________  __  _____
 72
    65
 73
     4
 40
20.32
 49
12.7
 74
     0
 49
-2.54
 74
     0
 49
2.54
 74
     0
 49
-2.54
 74
     0
  0
LTYPE
  5
72
330
5
100
AcDbSymbolTableRecord
100
AcDbLinetypeTableRecord
  2
DOT2
 70
     0
  3
Dot (.5x) ........................................
 72
    65
 73
     2
 40
0.635
 49
0.0
 74
     0
 49
-0.635
 74
     0
  0
ENDTAB
  0
TABLE
  2
LAYER
  5
2
330
0
100
AcDbSymbolTable
 70
     5
  0
LAYER
  5
10
330
2
100
AcDbSymbolTableRecord
100
AcDbLayerTableRecord
  2
0
 70
     0
 62
     7
  6
Continuous
370
    -3
390
F
  0
LAYER
  5
73
330
2
100
AcDbSymbolTableRecord
100
AcDbLayerTableRecord
  2
FORMAT
 70
     0
 62
     7
  6
Continuous
370
    -3
390
F
  0
LAYER
  5
74
330
2
100
AcDbSymbolTableRecord
100
AcDbLayerTableRecord
  2
VERMASSUNG
 70
     0
 62
     7
  6
Continuous
370
    -3
390
F
  0
LAYER
  5
75
330
2
100
AcDbSymbolTableRecord
100
AcDbLayerTableRecord
  2
KOPF_DÜNN
 70
     0
 62
     7
  6
Continuous
370
    -3
390
F
  0
LAYER
  5
76
330
2
100
AcDbSymbolTableRecord
100
AcDbLayerTableRecord
  2
KOPF_DICK
 70
     0
 62
     7
  6
Continuous
370
    25
390
F
  0
ENDTAB
  0
TABLE
  2
STYLE
  5
3
330
0
100
AcDbSymbolTable
 70
     2
  0
STYLE
  5
11
330
3
100
AcDbSymbolTableRecord
100
AcDbTextStyleTableRecord
  2
Standard
 70
     0
 40
0.0
 41
1.0
 50
0.0
 71
     0
 42
2.0
  3
txt
  4

  0
STYLE
  5
77
330
3
100
AcDbSymbolTableRecord
100
AcDbTextStyleTableRecord
  2
SLDTEXTSTYLE0
 70
     0
 40
0.0
 41
0.7
 50
0.0
 71
     0
 42
2.0
  3
TXT
  4

  0
ENDTAB
  0
TABLE
  2
VIEW
  5
6
330
0
100
AcDbSymbolTable
 70
     0
  0
ENDTAB
  0
TABLE
  2
UCS
  5
7
330
0
100
AcDbSymbolTable
 70
     0
  0
ENDTAB
  0
TABLE
  2
APPID
  5
9
330
0
100
AcDbSymbolTable
 70
     1
  0
APPID
  5
12
330
9
100
AcDbSymbolTableRecord
100
AcDbRegAppTableRecord
  2
ACAD
 70
     0
  0
ENDTAB
  0
TABLE
  2
DIMSTYLE
  5
A
330
0
100
AcDbSymbolTable
 70
     2
100
AcDbDimStyleTable
  0
DIMSTYLE
105
27
330
A
100
AcDbSymbolTableRecord
100
AcDbDimStyleTableRecord
  2
ISO-25
 70
     0
 41
2.5
 42
0.625
 43
3.75
 44
1.25
 73
     0
 74
     0
 77
     1
 78
     8
140
2.5
141
2.5
143
0.0393700787
147
0.625
171
     3
172
     1
178
     0
271
     2
272
     2
274
     3
278
    44
283
     0
284
     8
340
11
  0
DIMSTYLE
105
DD
102
{ACAD_REACTORS
330
DC
330
E7
102
}
330
A
100
AcDbSymbolTableRecord
100
AcDbDimStyleTableRecord
  2
SLDDIMSTYLE0
 70
     0
 41
3.0
 44
0.0
 45
0.000000001
 73
     0
 74
     0
 77
     1
 78
    12
 79
     3
140
2.0
147
0.5
173
     1
178
     0
271
     2
272
     3
276
     2
284
    12
340
77
  0
ENDTAB
  0
TABLE
  2
BLOCK_RECORD
  5
1
330
0
100
AcDbSymbolTable
 70
     3
  0
BLOCK_RECORD
  5
1F
330
1
100
AcDbSymbolTableRecord
100
AcDbBlockTableRecord
  2
*Model_Space
340
22
  0
BLOCK_RECORD
  5
1B
330
1
100
AcDbSymbolTableRecord
100
AcDbBlockTableRecord
  2
*Paper_Space
340
1E
  0
BLOCK_RECORD
  5
23
330
1
100
AcDbSymbolTableRecord
100
AcDbBlockTableRecord
  2
*Paper_Space0
340
26
  0
BLOCK_RECORD
  5
DE
330
1
100
AcDbSymbolTableRecord
100
AcDbBlockTableRecord
  2
_D
340
0
  0
BLOCK_RECORD
  5
E8
330
1
100
AcDbSymbolTableRecord
100
AcDbBlockTableRecord
  2
_D_1
340
0
  0
ENDTAB
  0
ENDSEC
  0
SECTION
  2
BLOCKS
  0
BLOCK
  5
20
330
1F
100
AcDbEntity
  8
0
100
AcDbBlockBegin
  2
*Model_Space
 70
     0
 10
0.0
 20
0.0
 30
0.0
  3
*Model_Space
  1

  0
ENDBLK
  5
21
330
1F
100
AcDbEntity
  8
0
100
AcDbBlockEnd
  0
BLOCK
  5
1C
330
1B
100
AcDbEntity
 67
     1
  8
0
100
AcDbBlockBegin
  2
*Paper_Space
 70
     0
 10
0.0
 20
0.0
 30
0.0
  3
*Paper_Space
  1

  0
ENDBLK
  5
1D
330
1B
100
AcDbEntity
 67
     1
  8
0
100
AcDbBlockEnd
  0
BLOCK
  5
24
330
23
100
AcDbEntity
  8
0
100
AcDbBlockBegin
  2
*Paper_Space0
 70
     0
 10
0.0
 20
0.0
 30
0.0
  3
*Paper_Space0
  1

  0
ENDBLK
  5
25
330
23
100
AcDbEntity
  8
0
100
AcDbBlockEnd
  0
BLOCK
  5
DF
330
DE
100
AcDbEntity
  8
0
100
AcDbBlockBegin
  2
_D
 70
     0
 10
0.0
 20
0.0
 30
0.0
  3
_D
  1

  0
SOLID
  5
E1
330
DE
100
AcDbEntity
  8
VERMASSUNG
100
AcDbTrace
 10
176.6097358177
 20
67.4729185834
 30
0.0
 11
177.0597358177
 21
70.4729185834
 31
0.0
 12
176.1597358177
 22
70.4729185834
 32
0.0
 13
176.1597358177
 23
70.4729185834
 33
0.0
  0
SOLID
  5
E2
330
DE
100
AcDbEntity
  8
VERMASSUNG
100
AcDbTrace
 10
176.6097358177
 20
139.4729185834
 30
0.0
 11
176.1597358177
 21
136.4729185834
 31
0.0
 12
177.0597358177
 22
136.4729185834
 32
0.0
 13
177.0597358177
 23
136.4729185834
 33
0.0
  0
LINE
  5
E3
330
DE
100
AcDbEntity
  8
VERMASSUNG
100
AcDbLine
 10
168.6413704227
 20
67.4729185834
 30
0.0
 11
177.6097358177
 21
67.4729185834
 31
0.0
  0
LINE
  5
E4
330
DE
100
AcDbEntity
  8
VERMASSUNG
100
AcDbLine
 10
178.5176838752
 20
139.4729185834
 30
0.0
 11
175.6097358177
 21
139.4729185834
 31
0.0
  0
LINE
  5
E5
330
DE
100
AcDbEntity
  8
VERMASSUNG
100
AcDbLine
 10
176.6097358177
 20
67.4729185834
 30
0.0
 11
176.6097358177
 21
139.4729185834
 31
0.0
  0
MTEXT
  5
E6
330
DE
100
AcDbEntity
  8
VERMASSUNG
100
AcDbMText
 10
174.0316002217
 20
102.0729186333
 30
0.0
 40
2.0
 41
0.0
 71
     1
 72
     1
  1
72
  7
SLDTEXTSTYLE0
 11
5.834392068008182E-15
 21
1.0
 31
0.0
 73
     1
 44
1.0
  0
ENDBLK
  5
E0
330
DE
100
AcDbEntity
  8
0
100
AcDbBlockEnd
  0
BLOCK
  5
E9
330
E8
100
AcDbEntity
  8
0
100
AcDbBlockBegin
  2
_D_1
 70
     0
 10
0.0
 20
0.0
 30
0.0
  3
_D_1
  1

  0
SOLID
  5
EB
330
E8
100
AcDbEntity
  8
VERMASSUNG
100
AcDbTrace
 10
178.8691146722
 20
149.8039509951
 30
0.0
 11
175.8691146722
 21
150.2539509951
 31
0.0
 12
175.8691146722
 22
149.3539509951
 32
0.0
 13
175.8691146722
 23
149.3539509951
 33
0.0
  0
SOLID
  5
EC
330
E8
100
AcDbEntity
  8
VERMASSUNG
100
AcDbTrace
 10
113.8691146722
 20
149.8039509951
 30
0.0
 11
116.8691146722
 21
149.3539509951
 31
0.0
 12
116.8691146722
 22
150.2539509951
 32
0.0
 13
116.8691146722
 23
150.2539509951
 33
0.0
  0
LINE
  5
ED
330
E8
100
AcDbEntity
  8
VERMASSUNG
100
AcDbLine
 10
178.8691146722
 20
122.9029185834
 30
0.0
 11
178.8691146722
 21
150.8039509951
 31
0.0
  0
LINE
  5
EE
330
E8
100
AcDbEntity
  8
VERMASSUNG
100
AcDbLine
 10
113.8691146722
 20
142.0499185834
 30
0.0
 11
113.8691146722
 21
150.8039509951
 31
0.0
  0
LINE
  5
EF
330
E8
100
AcDbEntity
  8
VERMASSUNG
100
AcDbLine
 10
178.8691146722
 20
149.8039509951
 30
0.0
 11
113.8691146722
 21
149.8039509951
 31
0.0
  0
MTEXT
  5
F0
330
E8
100
AcDbEntity
  8
VERMASSUNG
100
AcDbMText
 10
144.9691147221
 20
152.3820865911
 30
0.0
 40
2.0
 41
0.0
 71
     1
 72
     1
  1
65
  7
SLDTEXTSTYLE0
 73
     1
 44
1.0
  0
ENDBLK
  5
EA
330
E8
100
AcDbEntity
  8
0
100
AcDbBlockEnd
  0
ENDSEC
  0
SECTION
  2
ENTITIES
  0
MTEXT
  5
78
330
1F
100
AcDbEntity
  8
KOPF_DÜNN
100
AcDbMText
 10
13.8892156294
 20
23.8442973028
 30
0.0
 40
3.0
 41
0.0
 71
     1
 72
     1
  1
V94.070.065.072
  7
SLDTEXTSTYLE0
 73
     1
 44
1.0
  0
MTEXT
  5
79
330
1F
100
AcDbEntity
  8
VERMASSUNG
100
AcDbMText
 10
13.9329988022
 20
28.8834360957
 30
0.0
 40
3.0
 41
0.0
 71
     1
 72
     1
  1
Gegengewicht / Counterweight
  7
SLDTEXTSTYLE0
 73
     1
 44
1.0
  0
MTEXT
  5
7A
330
1F
100
AcDbEntity
  8
VERMASSUNG
100
AcDbMText
 10
98.8601118557
 20
13.8365368761
 30
0.0
 40
2.0
 41
0.0
 71
     1
 72
     1
  1
Datum: 17.11.2017
  7
SLDTEXTSTYLE0
 73
     1
 44
1.0
  0
MTEXT
  5
7B
330
1F
100
AcDbEntity
  8
VERMASSUNG
100
AcDbMText
 10
13.933048693
 20
18.0482802738
 30
0.0
 40
2.0
 41
0.0
 71
     1
 72
     1
  1
zur Verwendung für Feinbohrköpfe für Verlängerungskonsolen / for use with fine boring head foe extension bridges
  7
SLDTEXTSTYLE0
 73
     1
 44
1.0
  0
MTEXT
  5
7C
330
1F
100
AcDbEntity
  8
VERMASSUNG
100
AcDbMText
 10
13.9808475933
 20
13.9090974274
 30
0.0
 40
2.0
 41
0.0
 71
     1
 72
     1
  1
Gewicht: 1607g
  7
SLDTEXTSTYLE0
 73
     1
 44
1.0
  0
LINE
  5
7D
330
1F
100
AcDbEntity
  8
0
  6
Continuous
 62
     7
370
    25
100
AcDbLine
 10
178.8691146722
 20
68.9729185834
 30
0.0
 11
178.8691146722
 21
122.9029185834
 31
0.0
  0
LINE
  5
7E
330
1F
100
AcDbEntity
  8
0
  6
Continuous
 62
     7
370
    25
100
AcDbLine
 10
177.3691146722
 20
67.4729185834
 30
0.0
 11
178.8691146722
 21
68.9729185834
 31
0.0
  0
SPLINE
  5
7F
330
1F
100
AcDbEntity
  8
0
  6
Continuous
 62
     7
370
    25
100
AcDbSpline
210
0.0
220
0.0
230
1.0
 70
    11
 71
     3
 72
    68
 73
    64
 74
     0
 42
0.000000001
 43
0.00000001
 40
0.0
 40
0.0
 40
0.0
 40
0.0
 40
0.03125
 40
0.03125
 40
0.0625000000000001
 40
0.0625000000000001
 40
0.0937500000000001
 40
0.0937500000000001
 40
0.1250000000000002
 40
0.1250000000000002
 40
0.1562500000000002
 40
0.1562500000000002
 40
0.1875000000000003
 40
0.1875000000000003
 40
0.2187500000000003
 40
0.2187500000000003
 40
0.2500000000000004
 40
0.2500000000000004
 40
0.2812500000000004
 40
0.2812500000000004
 40
0.3125000000000005
 40
0.3125000000000005
 40
0.3437500000000006
 40
0.3437500000000006
 40
0.3750000000000006
 40
0.3750000000000006
 40
0.4062500000000006
 40
0.4062500000000006
 40
0.4375000000000007
 40
0.4375000000000007
 40
0.4687500000000007
 40
0.4687500000000007
 40
0.5000000000000008
 40
0.5000000000000008
 40
0.5312500000000008
 40
0.5312500000000008
 40
0.5625000000000009
 40
0.5625000000000009
 40
0.5937500000000009
 40
0.5937500000000009
 40
0.625000000000001
 40
0.625000000000001
 40
0.656250000000001
 40
0.656250000000001
 40
0.6875000000000011
 40
0.6875000000000011
 40
0.7187500000000011
 40
0.7187500000000011
 40
0.7500000000000011
 40
0.7500000000000011
 40
0.7812500000000012
 40
0.7812500000000012
 40
0.8125000000000012
 40
0.8125000000000012
 40
0.8437500000000013
 40
0.8437500000000013
 40
0.8750000000000013
 40
0.8750000000000013
 40
0.9062500000000014
 40
0.9062500000000014
 40
0.9375000000000014
 40
0.9375000000000014
 40
1.0
 40
1.0
 40
1.0
 40
1.0
 10
176.7136848433365
 20
132.3529185833895
 30
0.0
 10
176.7136848433366
 20
132.5834560276154
 30
0.0
 10
176.707568444981
 20
132.8098818856978
 30
0.0
 10
176.6834895531866
 20
133.2548688035174
 30
0.0
 10
176.6651913955514
 20
133.4758293473997
 30
0.0
 10
176.6173967633169
 20
133.8935367789142
 30
0.0
 10
176.58802451572
 20
134.0910866077686
 30
0.0
 10
176.5178185534525
 20
134.4637864522483
 30
0.0
 10
176.4770329575491
 20
134.6375788014815
 30
0.0
 10
176.3868803180928
 20
134.9480247885177
 30
0.0
 10
176.336880581133
 20
135.087346630579
 30
0.0
 10
176.2278250115936
 20
135.3296432910597
 30
0.0
 10
176.1699619001309
 20
135.4302500040467
 30
0.0
 10
176.047356499379
 20
135.5925042684879
 30
0.0
 10
175.9819147716696
 20
135.6543683350736
 30
0.0
 10
175.8480252919641
 20
135.7348299753816
 30
0.0
 10
175.7794347086835
 20
135.7541502502764
 30
0.0
 10
175.6388706710483
 20
135.7515665205692
 30
0.0
 10
175.5666628283415
 20
135.7290710420148
 30
0.0
 10
175.424590631588
 20
135.6441663964333
 30
0.0
 10
175.3540219730396
 20
135.5819185956101
 30
0.0
 10
175.2141923795078
 20
135.4167274029248
 30
0.0
 10
175.1455434564905
 20
135.3140454319833
 30
0.0
 10
175.0156887573594
 20
135.0752666619846
 30
0.0
 10
174.9538114495366
 20
134.9384576796855
 30
0.0
 10
174.837282588004
 20
134.6274827602477
 30
0.0
 10
174.7841170316575
 20
134.4569739253921
 30
0.0
 10
174.6901947707784
 20
134.0908994220472
 30
0.0
 10
174.6488989356622
 20
133.89301851748
 30
0.0
 10
174.5811992450765
 20
133.475114557449
 30
0.0
 10
174.5554006845715
 20
133.2596346588267
 30
0.0
 10
174.5202971379088
 20
132.8156501584419
 30
0.0
 10
174.5111046446881
 20
132.5843578249301
 30
0.0
 10
174.5109254730211
 20
132.128404255782
 30
0.0
 10
174.5196101956299
 20
131.9023070217514
 30
0.0
 10
174.5545320811611
 20
131.4539052701026
 30
0.0
 10
174.5806492041467
 20
131.2352427792885
 30
0.0
 10
174.6474522448903
 20
130.8206571703028
 30
0.0
 10
174.6888314735578
 20
130.6207949978231
 30
0.0
 10
174.7834372827919
 20
130.2509806347101
 30
0.0
 10
174.836308581447
 20
130.0814056759264
 30
0.0
 10
174.9520452542687
 20
129.7716514300529
 30
0.0
 10
175.0150432562009
 20
129.6318711989444
 30
0.0
 10
175.1452437372936
 20
129.3922299486305
 30
0.0
 10
175.2130340443208
 20
129.2906498988979
 30
0.0
 10
175.3535102196911
 20
129.1243534661591
 30
0.0
 10
175.4245322434228
 20
129.061727342679
 30
0.0
 10
175.5664933166108
 20
128.9768457838738
 30
0.0
 10
175.6381215454701
 20
128.9543578102599
 30
0.0
 10
175.7794446478125
 20
128.951613722452
 30
0.0
 10
175.8480507096264
 20
128.9710814820592
 30
0.0
 10
175.9813515382737
 20
129.0510715752731
 30
0.0
 10
176.0467059687386
 20
129.1125691361365
 30
0.0
 10
176.169881105833
 20
129.2753836748478
 30
0.0
 10
176.2275623935812
 20
129.3758749770722
 30
0.0
 10
176.3356035573109
 20
129.6153924460611
 30
0.0
 10
176.3863816751242
 20
129.756284078621
 30
0.0
 10
176.476758190362
 20
130.0671249903058
 30
0.0
 10
176.5168274177476
 20
130.2375480414588
 30
0.0
 10
176.5871359174697
 20
130.6092944057229
 30
0.0
 10
176.617159669697
 20
130.8107187634312
 30
0.0
 10
176.6886816910175
 20
131.4343323704673
 30
0.0
 10
176.7136848433366
 20
131.891843694938
 30
0.0
 10
176.7136848433366
 20
132.3529185833896
 30
0.0
  0
ARC
  5
80
330
1F
100
AcDbEntity
  8
0
  6
Continuous
 62
     7
370
    25
100
AcDbCircle
 10
113.8691146722
 20
175.0529185834
 30
0.0
 40
64.99999999999974
100
AcDbArc
 50
327.4210296072
 51
327.7343057984
  0
LINE
  5
81
330
1F
100
AcDbEntity
  8
0
  6
Continuous
 62
     7
370
    25
100
AcDbLine
 10
168.8319202774
 20
140.3529185834
 30
0.0
 11
168.8319202774
 21
141.1265338257
 31
0.0
  0
ELLIPSE
  5
82
330
1F
100
AcDbEntity
  8
0
  6
Continuous
 62
     7
370
    25
100
AcDbEllipse
 10
113.8691146722
 20
201.2286968483
 30
0.0
 11
-2.842170943040400E-14
 21
112.5833024919779
 31
0.0
210
0.0
220
0.0
230
1.0
 40
0.5773502692
 41
4.149246381125094
 42
4.158916598584814
  0
LINE
  5
83
330
1F
100
AcDbEntity
  8
0
  6
Continuous
 62
     7
370
    25
100
AcDbLine
 10
169.3697473898
 20
142.0499185834
 30
0.0
 11
169.1649017422
 21
142.0499185834
 31
0.0
  0
ELLIPSE
  5
84
330
1F
100
AcDbEntity
  8
0
  6
Continuous
 62
     7
370
    25
100
AcDbEllipse
 10
113.8691146722
 20
83.4492419336
 30
0.0
 11
-2.842170943040401E-14
 21
112.5833024919779
 31
0.0
210
0.0
220
0.0
230
1.0
 40
0.5773502692
 41
5.247121466108204
 42
5.259836508418669
  0
SPLINE
  5
85
330
1F
100
AcDbEntity
  8
0
  6
Continuous
 62
     7
370
    25
100
AcDbSpline
210
0.0
220
0.0
230
1.0
 70
     8
 71
     3
 72
    10
 73
     6
 74
     0
 42
0.000000001
 43
0.00000001
 40
0.0
 40
0.0
 40
0.0
 40
0.0
 40
0.5
 40
0.5
 40
1.0
 40
1.0
 40
1.0
 40
1.0
 10
169.942416282084
 20
140.8229185833895
 30
0.0
 10
169.9266279679315
 20
140.7762759683415
 30
0.0
 10
169.8976206752874
 20
140.7508254854542
 30
0.0
 10
169.8402829704716
 20
140.7510122116629
 30
0.0
 10
169.8114007084962
 20
140.7762411765872
 30
0.0
 10
169.7954389082688
 20
140.8229185833895
 30
0.0
  0
ELLIPSE
  5
86
330
1F
100
AcDbEntity
  8
0
  6
Continuous
 62
     7
370
    25
100
AcDbEllipse
 10
113.8691146722
 20
197.7645952332
 30
0.0
 11
-2.842170943040401E-14
 21
112.5833024919779
 31
0.0
210
0.0
220
0.0
230
1.0
 40
0.5773502692
 41
4.18211034711125
 42
4.194697852495851
  0
LINE
  5
87
330
1F
100
AcDbEntity
  8
0
  6
Continuous
 62
     7
370
    25
100
AcDbLine
 10
170.5405598436
 20
142.0499185834
 30
0.0
 11
170.351781057
 21
142.0499185834
 31
0.0
  0
ELLIPSE
  5
88
330
1F
100
AcDbEntity
  8
0
  6
Continuous
 62
     7
370
    25
100
AcDbEllipse
 10
113.8691146722
 20
86.9133435488
 30
0.0
 11
-2.842170943040401E-14
 21
112.5833024919779
 31
0.0
210
0.0
220
0.0
230
1.0
 40
0.5773502692
 41
5.211723770842417
 42
5.224180788301026
  0
SPLINE
  5
89
330
1F
100
AcDbEntity
  8
0
  6
Continuous
 62
     7
370
    25
100
AcDbSpline
210
0.0
220
0.0
230
1.0
 70
     8
 71
     3
 72
    10
 73
     6
 74
     0
 42
0.000000001
 43
0.00000001
 40
0.0
 40
0.0
 40
0.0
 40
0.0
 40
0.5
 40
0.5
 40
1.0
 40
1.0
 40
1.0
 40
1.0
 10
171.0680335675808
 20
140.8229185833895
 30
0.0
 10
171.0536347785865
 20
140.7767163109411
 30
0.0
 10
171.0269059006858
 20
140.7508174020116
 30
0.0
 10
170.9738538625315
 20
140.7510203854395
 30
0.0
 10
170.9471577618634
 20
140.777002231503
 30
0.0
 10
170.9326982714657
 20
140.8229185833895
 30
0.0
  0
ELLIPSE
  5
8A
330
1F
100
AcDbEntity
  8
0
  6
Continuous
 62
     7
370
    25
100
AcDbEllipse
 10
113.8691146722
 20
194.300493618
 30
0.0
 11
-2.842170943040401E-14
 21
112.5833024919779
 31
0.0
210
0.0
220
0.0
230
1.0
 40
0.5773502692
 41
4.217419837706666
 42
4.229764028500595
  0
LINE
  5
8B
330
1F
100
AcDbEntity
  8
0
  6
Continuous
 62
     7
370
    25
100
AcDbLine
 10
171.6184450888
 20
142.0499185834
 30
0.0
 11
171.4447964847
 21
142.0499185834
 31
0.0
  0
ELLIPSE
  5
8C
330
1F
100
AcDbEntity
  8
0
  6
Continuous
 62
     7
370
    25
100
AcDbEllipse
 10
113.8691146722
 20
90.3774451639
 30
0.0
 11
-2.842170943040401E-14
 21
112.5833024919778
 31
0.0
210
0.0
220
0.0
230
1.0
 40
0.5773502692
 41
5.1769970212822
 42
5.189225661627658
  0
SPLINE
  5
8D
330
1F
100
AcDbEntity
  8
0
  6
Continuous
 62
     7
370
    25
100
AcDbSpline
210
0.0
220
0.0
230
1.0
 70
     8
 71
     3
 72
    10
 73
     6
 74
     0
 42
0.000000001
 43
0.00000001
 40
0.0
 40
0.0
 40
0.0
 40
0.0
 40
0.5
 40
0.5
 40
1.0
 40
1.0
 40
1.0
 40
1.0
 10
172.1032755416389
 20
140.8229185833895
 30
0.0
 10
172.0901675804761
 20
140.7771310545397
 30
0.0
 10
172.0655838901551
 20
140.7508327410265
 30
0.0
 10
172.0167099510375
 20
140.7510048696555
 30
0.0
 10
171.9921255769906
 20
140.7773400974809
 30
0.0
 10
171.9789365943405
 20
140.8229185833895
 30
0.0
  0
ELLIPSE
  5
8E
330
1F
100
AcDbEntity
  8
0
  6
Continuous
 62
     7
370
    25
100
AcDbEllipse
 10
113.8691146722
 20
190.8363920029
 30
0.0
 11
-2.842170943040401E-14
 21
112.5833024919778
 31
0.0
210
0.0
220
0.0
230
1.0
 40
0.5773502692
 41
4.252068482825861
 42
4.264197141872407
  0
LINE
  5
8F
330
1F
100
AcDbEntity
  8
0
  6
Continuous
 62
     7
370
    25
100
AcDbLine
 10
172.6085190726
 20
142.0499185834
 30
0.0
 11
172.4492023337
 21
142.0499185834
 31
0.0
  0
ELLIPSE
  5
90
330
1F
100
AcDbEntity
  8
0
  6
Continuous
 62
     7
370
    25
100
AcDbEllipse
 10
113.8691146722
 20
93.841546779
 30
0.0
 11
-2.842170943040401E-14
 21
112.5833024919779
 31
0.0
210
0.0
220
0.0
230
1.0
 40
0.5773502692
 41
5.142864729338503
 42
5.154890950712479
  0
SPLINE
  5
91
330
1F
100
AcDbEntity
  8
0
  6
Continuous
 62
     7
370
    25
100
AcDbSpline
210
0.0
220
0.0
230
1.0
 70
     8
 71
     3
 72
    10
 73
     6
 74
     0
 42
0.000000001
 43
0.00000001
 40
0.0
 40
0.0
 40
0.0
 40
0.0
 40
0.5
 40
0.5
 40
1.0
 40
1.0
 40
1.0
 40
1.0
 10
173.0528849266796
 20
140.8229185833895
 30
0.0
 10
173.0409776791432
 20
140.7775012699922
 30
0.0
 10
173.0184421851808
 20
140.7508459654565
 30
0.0
 10
172.9735564085514
 20
140.7509915170721
 30
0.0
 10
172.9509931906514
 20
140.77764561576
 30
0.0
 10
172.9389905350743
 20
140.8229185833895
 30
0.0
  0
ELLIPSE
  5
92
330
1F
100
AcDbEntity
  8
0
  6
Continuous
 62
     7
370
    25
100
AcDbEllipse
 10
113.8691146722
 20
187.3722903877
 30
0.0
 11
-2.842170943040401E-14
 21
112.5833024919779
 31
0.0
210
0.0
220
0.0
230
1.0
 40
0.5773502692
 41
4.286131535976009
 42
4.298069110066578
  0
LINE
  5
93
330
1F
100
AcDbEntity
  8
0
  6
Continuous
 62
     7
370
    25
100
AcDbLine
 10
173.5151547342
 20
142.0499185834
 30
0.0
 11
173.3694861389
 21
142.0499185834
 31
0.0
  0
ELLIPSE
  5
94
330
1F
100
AcDbEntity
  8
0
  6
Continuous
 62
     7
370
    25
100
AcDbEllipse
 10
113.8691146722
 20
97.3056483942
 30
0.0
 11
-2.842170943040401E-14
 21
112.5833024919779
 31
0.0
210
0.0
220
0.0
230
1.0
 40
0.5773502692
 41
5.109259463333227
 42
5.121106227077425
  0
SPLINE
  5
95
330
1F
100
AcDbEntity
  8
0
  6
Continuous
 62
     7
370
    25
100
AcDbSpline
210
0.0
220
0.0
230
1.0
 70
     8
 71
     3
 72
    10
 73
     6
 74
     0
 42
0.000000001
 43
0.00000001
 40
0.0
 40
0.0
 40
0.0
 40
0.0
 40
0.5
 40
0.5
 40
1.0
 40
1.0
 40
1.0
 40
1.0
 10
173.9209242278027
 20
140.8229185833895
 30
0.0
 10
173.9101413570466
 20
140.7778314179893
 30
0.0
 10
173.8895695043333
 20
140.750857427946
 30
0.0
 10
173.8485106213649
 20
140.7509799614933
 30
0.0
 10
173.827889079628
 20
140.7779211101393
 30
0.0
 10
173.8170009159025
 20
140.8229185833895
 30
0.0
  0
ELLIPSE
  5
96
330
1F
100
AcDbEntity
  8
0
  6
Continuous
 62
     7
370
    25
100
AcDbEllipse
 10
113.8691146722
 20
183.9081887726
 30
0.0
 11
-2.842170943040401E-14
 21
112.5833024919778
 31
0.0
210
0.0
220
0.0
230
1.0
 40
0.5773502692
 41
4.319675423926185
 42
4.331443639016232
  0
LINE
  5
97
330
1F
100
AcDbEntity
  8
0
  6
Continuous
 62
     7
370
    25
100
AcDbLine
 10
174.3421050136
 20
142.0499185834
 30
0.0
 11
174.2094969955
 21
142.0499185834
 31
0.0
  0
ELLIPSE
  5
98
330
1F
100
AcDbEntity
  8
0
  6
Continuous
 62
     7
370
    25
100
AcDbEllipse
 10
113.8691146722
 20
100.7697500093
 30
0.0
 11
-2.842170943040401E-14
 21
112.5833024919779
 31
0.0
210
0.0
220
0.0
230
1.0
 40
0.5773502692
 41
5.076121188278911
 42
5.087809001722433
  0
SPLINE
  5
99
330
1F
100
AcDbEntity
  8
0
  6
Continuous
 62
     7
370
    25
100
AcDbSpline
210
0.0
220
0.0
230
1.0
 70
     8
 71
     3
 72
    26
 73
    22
 74
     0
 42
0.000000001
 43
0.00000001
 40
0.0000755030338923
 40
0.0000755030338923
 40
0.0000755030338923
 40
0.0000755030338923
 40
0.0000920595205714
 40
0.0000920595205714
 40
0.0000920595205714
 40
0.0001392734280953
 40
0.0001392734280953
 40
0.0001392734280953
 40
0.0001893851207521
 40
0.0001893851207521
 40
0.0001893851207521
 40
0.0002425533185187
 40
0.0002425533185187
 40
0.0002425533185187
 40
0.000297660734557
 40
0.000297660734557
 40
0.000297660734557
 40
0.0003524612774047
 40
0.0003524612774047
 40
0.0003524612774047
 40
0.0003906962887422
 40
0.0003906962887422
 40
0.0003906962887422
 40
0.0003906962887422
 10
174.7108848656266
 20
140.8229185833895
 30
0.0
 10
174.7098588502558
 20
140.8181919743329
 30
0.0
 10
174.7087330230268
 20
140.8136292379648
 30
0.0
 10
174.707520586522
 20
140.8092725376983
 30
0.0
 10
174.704080769176
 20
140.7969120940057
 30
0.0
 10
174.6998732549192
 20
140.7860403800586
 30
0.0
 10
174.6952407718994
 20
140.7773455460643
 30
0.0
 10
174.6903264724197
 20
140.7681217630539
 30
0.0
 10
174.6848103765943
 20
140.761105611737
 30
0.0
 10
174.6791154652364
 20
140.7566983053445
 30
0.0
 10
174.6730788035491
 20
140.7520265175026
 30
0.0
 10
174.6666822269497
 20
140.7501608927331
 30
0.0
 10
174.6604214815603
 20
140.7512041173636
 30
0.0
 10
174.6539396277795
 20
140.7522841851663
 30
0.0
 10
174.6474220674708
 20
140.7565200050574
 30
0.0
 10
174.6414258258491
 20
140.7636453452736
 30
0.0
 10
174.6354680011381
 20
140.7707250346346
 30
0.0
 10
174.6298500955006
 20
140.7808842646039
 30
0.0
 10
174.6251295348128
 20
140.7933646112826
 30
0.0
 10
174.6218318136734
 20
140.8020832160824
 30
0.0
 10
174.6189058884007
 20
140.8120868027373
 30
0.0
 10
174.6165252813807
 20
140.8229185833895
 30
0.0
  0
ELLIPSE
  5
9A
330
1F
100
AcDbEntity
  8
0
  6
Continuous
 62
     7
370
    25
100
AcDbEllipse
 10
113.8691146722
 20
180.4440871575
 30
0.0
 11
-2.842170943040400E-14
 21
112.5833024919779
 31
0.0
210
0.0
220
0.0
230
1.0
 40
0.5773502692
 41
4.352759357355577
 42
4.36437770403748
  0
LINE
  5
9B
330
1F
100
AcDbEntity
  8
0
  6
Continuous
 62
     7
370
    25
100
AcDbLine
 10
175.0925989456
 20
142.0499185834
 30
0.0
 11
174.9725456165
 21
142.0499185834
 31
0.0
  0
ELLIPSE
  5
9C
330
1F
100
AcDbEntity
  8
0
  6
Continuous
 62
     7
370
    25
100
AcDbEllipse
 10
113.8691146722
 20
104.2338516244
 30
0.0
 11
-2.842170943040401E-14
 21
112.5833024919779
 31
0.0
210
0.0
220
0.0
230
1.0
 40
0.5773502692
 41
5.043395952741024
 42
5.054943300766494
  0
SPLINE
  5
9D
330
1F
100
AcDbEntity
  8
0
  6
Continuous
 62
     7
370
    25
100
AcDbSpline
210
0.0
220
0.0
230
1.0
 70
     8
 71
     3
 72
    26
 73
    22
 74
     0
 42
0.000000001
 43
0.00000001
 40
0.0000754200951163
 40
0.0000754200951163
 40
0.0000754200951163
 40
0.0000754200951163
 40
0.0000928507258096
 40
0.0000928507258096
 40
0.0000928507258096
 40
0.0001402765047364
 40
0.0001402765047364
 40
0.0001402765047364
 40
0.0001901126581371
 40
0.0001901126581371
 40
0.0001901126581371
 40
0.0002424507450816
 40
0.0002424507450816
 40
0.0002424507450816
 40
0.0002963252925225
 40
0.0002963252925225
 40
0.0002963252925225
 40
0.0003499027557441
 40
0.0003499027557441
 40
0.0003499027557441
 40
0.0003878898991507
 40
0.0003878898991507
 40
0.0003878898991507
 40
0.0003878898991507
 10
175.4257728793923
 20
140.8229185833895
 30
0.0
 10
175.4247957998201
 20
140.8179282101381
 30
0.0
 10
175.4237175974773
 20
140.8131169160463
 30
0.0
 10
175.4225518861087
 20
140.808534670529
 30
0.0
 10
175.4193959184027
 20
140.7961290105491
 30
0.0
 10
175.4155315031154
 20
140.7852250836677
 30
0.0
 10
175.4112734681001
 20
140.7765468401433
 30
0.0
 10
175.4068009842579
 20
140.7674315313676
 30
0.0
 10
175.4017799544647
 20
140.7605302394627
 30
0.0
 10
175.3965996373262
 20
140.7562664146839
 30
0.0
 10
175.3911635715095
 20
140.7517920878216
 30
0.0
 10
175.3854075948566
 20
140.750101568787
 30
0.0
 10
175.3797833057467
 20
140.7512958994764
 30
0.0
 10
175.3739992759539
 20
140.7525241514661
 30
0.0
 10
175.3681929941249
 20
140.756844290551
 30
0.0
 10
175.3628596522369
 20
140.7639676011193
 30
0.0
 10
175.3575592507782
 20
140.7710469158377
 30
0.0
 10
175.3525723283249
 20
140.7811157148243
 30
0.0
 10
175.3483800642275
 20
140.7934036222103
 30
0.0
 10
175.3454041852765
 20
140.8021261940931
 30
0.0
 10
175.3427689388285
 20
140.8121187200491
 30
0.0
 10
175.3406261743009
 20
140.8229185833895
 30
0.0
  0
ELLIPSE
  5
9E
330
1F
100
AcDbEntity
  8
0
  6
Continuous
 62
     7
370
    25
100
AcDbEllipse
 10
113.8691146722
 20
176.9799855423
 30
0.0
 11
-2.842170943040401E-14
 21
112.5833024919779
 31
0.0
210
0.0
220
0.0
230
1.0
 40
0.5773502692
 41
4.385436607477992
 42
4.396922729592549
  0
LINE
  5
9F
330
1F
100
AcDbEntity
  8
0
  6
Continuous
 62
     7
370
    25
100
AcDbLine
 10
175.7694175175
 20
142.0499185834
 30
0.0
 11
175.661483193
 21
142.0499185834
 31
0.0
  0
ELLIPSE
  5
A0
330
1F
100
AcDbEntity
  8
0
  6
Continuous
 62
     7
370
    25
100
AcDbEllipse
 10
113.8691146722
 20
107.6979532396
 30
0.0
 11
-2.842170943040401E-14
 21
112.5833024919779
 31
0.0
210
0.0
220
0.0
230
1.0
 40
0.5773502692
 41
5.011034835056231
 42
5.022458528051789
  0
SPLINE
  5
A1
330
1F
100
AcDbEntity
  8
0
  6
Continuous
 62
     7
370
    25
100
AcDbSpline
210
0.0
220
0.0
230
1.0
 70
     8
 71
     3
 72
    26
 73
    22
 74
     0
 42
0.000000001
 43
0.00000001
 40
0.0000753476360911
 40
0.0000753476360911
 40
0.0000753476360911
 40
0.0000753476360911
 40
0.0000935642318066
 40
0.0000935642318066
 40
0.0000935642318066
 40
0.0001411745687635
 40
0.0001411745687635
 40
0.0001411745687635
 40
0.000190753249973
 40
0.000190753249973
 40
0.000190753249973
 40
0.0002423458019025
 40
0.0002423458019025
 40
0.0002423458019025
 40
0.0002951392056368
 40
0.0002951392056368
 40
0.0002951392056368
 40
0.0003476622192403
 40
0.0003476622192403
 40
0.0003476622192403
 40
0.0003854271387116
 40
0.0003854271387116
 40
0.0003854271387116
 40
0.0003854271387116
 10
176.0681768757772
 20
140.8229185833895
 30
0.0
 10
176.0672608281986
 20
140.8176901833601
 30
0.0
 10
176.0662447795498
 20
140.8126548725006
 30
0.0
 10
176.065142369059
 20
140.8078704644146
 30
0.0
 10
176.0622750643769
 20
140.7954265010986
 30
0.0
 10
176.058760721612
 20
140.7844959793113
 30
0.0
 10
176.0548856674721
 20
140.7758359631946
 30
0.0
 10
176.0508518977702
 20
140.7668212476914
 30
0.0
 10
176.0463226788392
 20
140.7600260962622
 30
0.0
 10
176.0416526911079
 20
140.7558934437219
 30
0.0
 10
176.0367962420547
 20
140.751595784355
 30
0.0
 10
176.0316574365793
 20
140.7500612194866
 30
0.0
 10
176.026643757104
 20
140.7513879348043
 30
0.0
 10
176.0215172589403
 20
140.7527445041012
 30
0.0
 10
176.0163786738444
 20
140.7571358696841
 30
0.0
 10
176.0116650686909
 20
140.7642537233615
 30
0.0
 10
176.0069780366533
 20
140.7713314498869
 30
0.0
 10
176.0025767305541
 20
140.7813205597344
 30
0.0
 10
175.9988751956984
 20
140.7934419227994
 30
0.0
 10
175.9962107689509
 20
140.8021670828274
 30
0.0
 10
175.9938553368098
 20
140.8121483685712
 30
0.0
 10
175.9919410485446
 20
140.8229185833895
 30
0.0
  0
ELLIPSE
  5
A2
330
1F
100
AcDbEntity
  8
0
  6
Continuous
 62
     7
370
    25
100
AcDbEllipse
 10
113.8691146722
 20
173.5158839272
 30
0.0
 11
-2.842170943040401E-14
 21
112.5833024919778
 31
0.0
210
0.0
220
0.0
230
1.0
 40
0.5773502692
 41
4.417755532289656
 42
4.429125542287386
  0
LINE
  5
A3
330
1F
100
AcDbEntity
  8
0
  6
Continuous
 62
     7
370
    25
100
AcDbLine
 10
176.3749540641
 20
142.0499185834
 30
0.0
 11
176.2787640996
 21
142.0499185834
 31
0.0
  0
ELLIPSE
  5
A4
330
1F
100
AcDbEntity
  8
0
  6
Continuous
 62
     7
370
    25
100
AcDbEllipse
 10
113.8691146722
 20
111.1620548547
 30
0.0
 11
-2.842170943040401E-14
 21
112.5833024919779
 31
0.0
210
0.0
220
0.0
230
1.0
 40
0.5773502692
 41
4.978993086078225
 42
4.990308544283694
  0
SPLINE
  5
A5
330
1F
100
AcDbEntity
  8
0
  6
Continuous
 62
     7
370
    25
100
AcDbSpline
210
0.0
220
0.0
230
1.0
 70
     8
 71
     3
 72
    26
 73
    22
 74
     0
 42
0.000000001
 43
0.00000001
 40
0.0000752846942141
 40
0.0000752846942141
 40
0.0000752846942141
 40
0.0000752846942141
 40
0.0000942016836236
 40
0.0000942016836236
 40
0.0000942016836236
 40
0.000141971698976
 40
0.000141971698976
 40
0.000141971698976
 40
0.0001913132562233
 40
0.0001913132562233
 40
0.0001913132562233
 40
0.0002422424301331
 40
0.0002422424301331
 40
0.0002422424301331
 40
0.0002940939507226
 40
0.0002940939507226
 40
0.0002940939507226
 40
0.0003457118366405
 40
0.0003457118366405
 40
0.0003457118366405
 40
0.0003832789340129
 40
0.0003832789340129
 40
0.0003832789340129
 40
0.0003832789340129
 10
176.6403223105101
 20
140.8229185833895
 30
0.0
 10
176.6394777650045
 20
140.8174774062932
 30
0.0
 10
176.6385366973747
 20
140.8122420500718
 30
0.0
 10
176.6375123951146
 20
140.8072780187971
 30
0.0
 10
176.6349379945383
 20
140.7948018138011
 30
0.0
 10
176.6317798816647
 20
140.7838494969531
 30
0.0
 10
176.6282953300397
 20
140.775208395464
 30
0.0
 10
176.6246972334719
 20
140.7662857216291
 30
0.0
 10
176.6206565670236
 20
140.7595873979707
 30
0.0
 10
176.6164926311374
 20
140.7555732756365
 30
0.0
 10
176.6121970498454
 20
140.7514322443443
 30
0.0
 10
176.6076544152349
 20
140.7500353593091
 30
0.0
 10
176.6032282370561
 20
140.7514772003724
 30
0.0
 10
176.598724613339
 20
140.7529442695564
 30
0.0
 10
176.5942162469673
 20
140.757395559047
 30
0.0
 10
176.5900854607542
 20
140.7645058558202
 30
0.0
 10
176.5859749200657
 20
140.7715813040968
 30
0.0
 10
176.5821213692757
 20
140.7815007664369
 30
0.0
 10
176.578879206728
 20
140.7934787420115
 30
0.0
 10
176.576517102439
 20
140.8022053949981
 30
0.0
 10
176.5744320014744
 20
140.8121755949404
 30
0.0
 10
176.5727380732283
 20
140.8229185833895
 30
0.0
  0
ELLIPSE
  5
A6
330
1F
100
AcDbEntity
  8
0
  6
Continuous
 62
     7
370
    25
100
AcDbEllipse
 10
113.8691146722
 20
170.0517823121
 30
0.0
 11
-2.842170943040401E-14
 21
112.5833024919778
 31
0.0
210
0.0
220
0.0
230
1.0
 40
0.5773502692
 41
4.449760412824595
 42
4.461029151130618
  0
LINE
  5
A7
330
1F
100
AcDbEntity
  8
0
  6
Continuous
 62
     7
370
    25
100
AcDbLine
 10
176.9112626673
 20
142.0499185834
 30
0.0
 11
176.8264960973
 21
142.0499185834
 31
0.0
  0
ELLIPSE
  5
A8
330
1F
100
AcDbEntity
  8
0
  6
Continuous
 62
     7
370
    25
100
AcDbEllipse
 10
113.8691146722
 20
114.6261564699
 30
0.0
 11
-2.842170943040400E-14
 21
112.5833024919778
 31
0.0
210
0.0
220
0.0
230
1.0
 40
0.5773502692
 41
4.9472294224047
 42
4.9584509114009
  0
SPLINE
  5
A9
330
1F
100
AcDbEntity
  8
0
  6
Continuous
 62
     7
370
    25
100
AcDbSpline
210
0.0
220
0.0
230
1.0
 70
     8
 71
     3
 72
    26
 73
    22
 74
     0
 42
0.000000001
 43
0.00000001
 40
0.0000752304759654
 40
0.0000752304759654
 40
0.0000752304759654
 40
0.0000752304759654
 40
0.0000947645056693
 40
0.0000947645056693
 40
0.0000947645056693
 40
0.0001426714377891
 40
0.0001426714377891
 40
0.0001426714377891
 40
0.0001917981596694
 40
0.0001917981596694
 40
0.0001917981596694
 40
0.0002421438748556
 40
0.0002421438748556
 40
0.0002421438748556
 40
0.0002931821604825
 40
0.0002931821604825
 40
0.0002931821604825
 40
0.000344028424357
 40
0.000344028424357
 40
0.000344028424357
 40
0.0003814212014012
 40
0.0003814212014012
 40
0.0003814212014012
 40
0.0003814212014012
 10
177.1441150889461
 20
140.8229185833895
 30
0.0
 10
177.1433510523615
 20
140.8172894514387
 30
0.0
 10
177.1424962012341
 20
140.8118775343336
 30
0.0
 10
177.1415631142692
 20
140.8067556877444
 30
0.0
 10
177.1392853218539
 20
140.7942525623649
 30
0.0
 10
177.136488828431
 20
140.7832825382936
 30
0.0
 10
177.133401350927
 20
140.7746602055342
 30
0.0
 10
177.1302360228883
 20
140.7658204612421
 30
0.0
 10
177.1266807479157
 20
140.7592091598777
 30
0.0
 10
177.1230187082862
 20
140.7553006810629
 30
0.0
 10
177.1192674139397
 20
140.7512969410805
 30
0.0
 10
177.115302331611
 20
140.750020271849
 30
0.0
 10
177.1114432203004
 20
140.7515612804139
 30
0.0
 10
177.1075328476132
 20
140.7531227585155
 30
0.0
 10
177.1036226768612
 20
140.7576241548723
 30
0.0
 10
177.1000433150004
 20
140.7647258302663
 30
0.0
 10
177.0964784804103
 20
140.7717986826564
 30
0.0
 10
177.0931411632466
 20
140.781657886338
 30
0.0
 10
177.0903322575196
 20
140.7935133420455
 30
0.0
 10
177.088264500024
 20
140.8022406578707
 30
0.0
 10
177.0864414986199
 20
140.8122002376467
 30
0.0
 10
177.0849609312712
 20
140.8229185833895
 30
0.0
  0
ELLIPSE
  5
AA
330
1F
100
AcDbEntity
  8
0
  6
Continuous
 62
     7
370
    25
100
AcDbEllipse
 10
113.8691146722
 20
166.5876806969
 30
0.0
 11
-2.842170943040401E-14
 21
112.5833024919779
 31
0.0
210
0.0
220
0.0
230
1.0
 40
0.5773502692
 41
4.481492143765428
 42
4.492673394966479
  0
LINE
  5
AB
330
1F
100
AcDbEntity
  8
0
  6
Continuous
 62
     7
370
    25
100
AcDbLine
 10
177.3800971051
 20
142.0499185834
 30
0.0
 11
177.3064807126
 21
142.0499185834
 31
0.0
  0
ELLIPSE
  5
AC
330
1F
100
AcDbEntity
  8
0
  6
Continuous
 62
     7
370
    25
100
AcDbEllipse
 10
113.8691146722
 20
118.090258085
 30
0.0
 11
-2.842170943040401E-14
 21
112.5833024919778
 31
0.0
210
0.0
220
0.0
230
1.0
 40
0.5773502692
 41
4.915705435778204
 42
4.92684626416947
  0
SPLINE
  5
AD
330
1F
100
AcDbEntity
  8
0
  6
Continuous
 62
     7
370
    25
100
AcDbSpline
210
0.0
220
0.0
230
1.0
 70
     8
 71
     3
 72
    17
 73
    13
 74
     0
 42
0.000000001
 43
0.00000001
 40
0.0002274594442372
 40
0.0002274594442372
 40
0.0002274594442372
 40
0.0002274594442372
 40
0.0002420527909128
 40
0.0002420527909128
 40
0.0002420527909128
 40
0.0002923975147316
 40
0.0002923975147316
 40
0.0002923975147316
 40
0.0003425927331872
 40
0.0003425927331872
 40
0.0003425927331872
 40
0.000379834044879
 40
0.000379834044879
 40
0.000379834044879
 40
0.000379834044879
 10
177.5558479845221
 20
140.7509185833895
 30
0.0
 10
177.5548684413976
 20
140.7509185833895
 30
0.0
 10
177.5538871797143
 20
140.7511590115802
 30
0.0
 10
177.5529112589752
 20
140.7516382507782
 30
0.0
 10
177.5495690445855
 20
140.7532794907678
 30
0.0
 10
177.5462299554734
 20
140.7578224012644
 30
0.0
 10
177.5431755455319
 20
140.7649151949179
 30
0.0
 10
177.5401308649151
 20
140.7719853956338
 30
0.0
 10
177.5372836775774
 20
140.7817931380237
 30
0.0
 10
177.5348863918833
 20
140.7935450369196
 30
0.0
 10
177.5331060796333
 20
140.8022724279084
 30
0.0
 10
177.5315380968144
 20
140.8122221369164
 30
0.0
 10
177.5302649043712
 20
140.8229185833895
 30
0.0
  0
LINE
  5
AE
330
1F
100
AcDbEntity
  8
0
  6
Continuous
 62
     7
370
    25
100
AcDbLine
 10
177.5558479845
 20
140.7509185834
 30
0.0
 11
177.5558479845
 21
139.4029185834
 31
0.0
  0
LINE
  5
AF
330
1F
100
AcDbEntity
  8
0
  6
Continuous
 62
     7
370
    25
100
AcDbLine
 10
177.5558479845
 20
139.4029185834
 30
0.0
 11
178.5176838752
 21
139.4029185834
 31
0.0
  0
LINE
  5
B0
330
1F
100
AcDbEntity
  8
0
  6
Continuous
 62
     7
370
    25
100
AcDbLine
 10
178.5176838752
 20
139.4029185834
 30
0.0
 11
178.5176838752
 21
131.8029185834
 31
0.0
  0
LINE
  5
B1
330
1F
100
AcDbEntity
  8
0
  6
Continuous
 62
     7
370
    25
100
AcDbLine
 10
178.5176838752
 20
131.8029185834
 30
0.0
 11
178.0154317917
 21
131.8029185834
 31
0.0
  0
LINE
  5
B2
330
1F
100
AcDbEntity
  8
0
  6
Continuous
 62
     7
370
    25
100
AcDbLine
 10
178.0154317917
 20
131.8029185834
 30
0.0
 11
178.0154317917
 21
122.9029185834
 31
0.0
  0
LINE
  5
B3
330
1F
100
AcDbEntity
  8
0
  6
Continuous
 62
     7
370
    25
100
AcDbLine
 10
178.0154317917
 20
122.9029185834
 30
0.0
 11
178.8691146722
 21
122.9029185834
 31
0.0
  0
LINE
  5
B4
330
1F
100
AcDbEntity
  8
0
  6
Continuous
 62
     7
370
    25
100
AcDbLine
 10
168.6413704227
 20
68.9729185834
 30
0.0
 11
178.8691146722
 21
68.9729185834
 31
0.0
  0
LINE
  5
B5
330
1F
100
AcDbEntity
  8
0
  6
Continuous
 62
     7
370
    25
100
AcDbLine
 10
168.6413704227
 20
140.0529185834
 30
0.0
 11
168.6413704227
 21
68.9729185834
 31
0.0
  0
CIRCLE
  5
B6
330
1F
100
AcDbEntity
  8
0
  6
Continuous
 62
     7
370
    25
100
AcDbCircle
 10
126.8691146722
 20
133.1529185834
 30
0.0
 40
4.0
  0
LINE
  5
B7
330
1F
100
AcDbEntity
  8
0
  6
Continuous
 62
     7
370
    25
100
AcDbLine
 10
114.8691146722
 20
140.0529185834
 30
0.0
 11
168.6413704227
 21
140.0529185834
 31
0.0
  0
LINE
  5
B8
330
1F
100
AcDbEntity
  8
0
  6
Continuous
 62
     7
370
    25
100
AcDbLine
 10
151.3691146722
 20
68.9729185834
 30
0.0
 11
168.6413704227
 21
68.9729185834
 31
0.0
  0
LINE
  5
B9
330
1F
100
AcDbEntity
  8
0
  6
Continuous
 62
     7
370
    25
100
AcDbLine
 10
151.3691146722
 20
96.8515694904
 30
0.0
 11
151.3691146722
 21
68.9729185834
 31
0.0
  0
ARC
  5
BA
330
1F
100
AcDbEntity
  8
0
  6
Continuous
 62
     7
370
    25
100
AcDbCircle
 10
149.0691146722
 20
96.8515694904
 30
0.0
 40
2.30000000000004
100
AcDbArc
 50
0.0
 51
71.5
  0
LINE
  5
BB
330
1F
100
AcDbEntity
  8
0
  6
Continuous
 62
     7
370
    25
100
AcDbLine
 10
114.8691146722
 20
110.720061726
 30
0.0
 11
149.7989153819
 21
99.0327138974
 31
0.0
  0
LINE
  5
BC
330
1F
100
AcDbEntity
  8
0
  6
Continuous
 62
     7
370
    25
100
AcDbLine
 10
114.8691146722
 20
140.0529185834
 30
0.0
 11
114.8691146722
 21
110.720061726
 31
0.0
  0
LINE
  5
BD
330
1F
100
AcDbEntity
  8
0
  6
Continuous
 62
     7
370
    25
100
AcDbLine
 10
151.3691146722
 20
67.4729185834
 30
0.0
 11
149.8691146722
 21
68.9729185834
 31
0.0
  0
LINE
  5
BE
330
1F
100
AcDbEntity
  8
0
  6
Continuous
 62
     7
370
    25
100
AcDbLine
 10
151.3691146722
 20
68.9729185834
 30
0.0
 11
149.8691146722
 21
68.9729185834
 31
0.0
  0
LINE
  5
BF
330
1F
100
AcDbEntity
  8
0
  6
Continuous
 62
     7
370
    25
100
AcDbLine
 10
151.3691146722
 20
67.4729185834
 30
0.0
 11
151.3691146722
 21
68.9729185834
 31
0.0
  0
LINE
  5
C0
330
1F
100
AcDbEntity
  8
0
  6
Continuous
 62
     7
370
    25
100
AcDbLine
 10
177.3691146722
 20
67.4729185834
 30
0.0
 11
167.8135305092
 21
67.4729185834
 31
0.0
  0
SPLINE
  5
C1
330
1F
100
AcDbEntity
  8
0
  6
Continuous
 62
     7
370
    25
100
AcDbSpline
210
0.0
220
0.0
230
1.0
 70
     8
 71
     3
 72
     8
 73
     4
 74
     0
 42
0.000000001
 43
0.00000001
 40
0.0
 40
0.0
 40
0.0
 40
0.0
 40
0.0022771295356956
 40
0.0022771295356956
 40
0.0022771295356956
 40
0.0022771295356956
 10
168.6413704226761
 20
68.97291858338956
 30
0.0
 10
168.3672362409346
 20
68.47242033297938
 30
0.0
 10
168.091311869204
 20
67.97241035657656
 30
0.0
 10
167.8135305092042
 20
67.47291858338954
 30
0.0
  0
LINE
  5
C2
330
1F
100
AcDbEntity
  8
0
  6
Continuous
 62
     7
370
    25
100
AcDbLine
 10
167.8135305092
 20
67.4729185834
 30
0.0
 11
151.3691146722
 21
67.4729185834
 31
0.0
  0
LINE
  5
C3
330
1F
100
AcDbEntity
  8
0
  6
Continuous
 62
     7
370
    25
100
AcDbLine
 10
149.8691146722
 20
68.9729185834
 30
0.0
 11
149.8691146722
 21
96.8515694904
 31
0.0
  0
ARC
  5
C4
330
1F
100
AcDbEntity
  8
0
  6
Continuous
 62
     7
370
    25
100
AcDbCircle
 10
149.0691146722
 20
96.8515694904
 30
0.0
 40
0.8000000000000194
100
AcDbArc
 50
0.0
 51
71.5
  0
LINE
  5
C5
330
1F
100
AcDbEntity
  8
0
  6
Continuous
 62
     7
370
    25
100
AcDbLine
 10
114.2571016645
 20
110.2794754048
 30
0.0
 11
114.8691146722
 21
110.720061726
 31
0.0
  0
LINE
  5
C6
330
1F
100
AcDbEntity
  8
0
  6
Continuous
 62
     7
370
    25
100
AcDbLine
 10
149.3229583973
 20
97.6102284146
 30
0.0
 11
114.8174383274
 21
109.155613927
 31
0.0
  0
LINE
  5
C7
330
1F
100
AcDbEntity
  8
0
  6
Continuous
 62
     7
370
    25
100
AcDbLine
 10
114.8174383274
 20
109.155613927
 30
0.0
 11
114.2571016645
 21
110.2794754048
 31
0.0
  0
LINE
  5
C8
330
1F
100
AcDbEntity
  8
0
  6
Continuous
 62
     7
370
    25
100
AcDbLine
 10
113.8691146722
 20
111.0576569223
 30
0.0
 11
113.8691146722
 21
142.0499185834
 31
0.0
  0
LINE
  5
C9
330
1F
100
AcDbEntity
  8
0
  6
Continuous
 62
     7
370
    25
100
AcDbLine
 10
113.8691146722
 20
142.0499185834
 30
0.0
 11
114.0359982337
 21
142.0499185834
 31
0.0
  0
LINE
  5
CA
330
1F
100
AcDbEntity
  8
0
  6
Continuous
 62
     7
370
    25
100
AcDbLine
 10
114.0359982337
 20
142.0499185834
 30
0.0
 11
114.5691146722
 21
141.1265338257
 31
0.0
  0
LINE
  5
CB
330
1F
100
AcDbEntity
  8
0
  6
Continuous
 62
     7
370
    25
100
AcDbLine
 10
114.5691146722
 20
141.1265338257
 30
0.0
 11
114.5691146722
 21
140.3529185834
 31
0.0
  0
LINE
  5
CC
330
1F
100
AcDbEntity
  8
0
  6
Continuous
 62
     7
370
    25
100
AcDbLine
 10
114.5691146722
 20
140.3529185834
 30
0.0
 11
114.8691146722
 21
140.0529185834
 31
0.0
  0
LINE
  5
CD
330
1F
100
AcDbEntity
  8
0
  6
Continuous
 62
     7
370
    25
100
AcDbLine
 10
113.8691146722
 20
111.0576569223
 30
0.0
 11
114.2571016645
 21
110.2794754048
 31
0.0
  0
LINE
  5
CE
330
1F
100
AcDbEntity
  8
0
  6
Continuous
 62
     7
370
    25
100
AcDbLine
 10
114.5691146722
 20
140.3529185834
 30
0.0
 11
168.8319202774
 21
140.3529185834
 31
0.0
  0
LINE
  5
CF
330
1F
100
AcDbEntity
  8
0
  6
Continuous
 62
     7
370
    25
100
AcDbLine
 10
168.8319202774
 20
141.1265338257
 30
0.0
 11
114.5691146722
 21
141.1265338257
 31
0.0
  0
LINE
  5
D0
330
1F
100
AcDbEntity
  8
0
  6
Continuous
 62
     7
370
    25
100
AcDbLine
 10
169.1649017422
 20
142.0499185834
 30
0.0
 11
114.0359982337
 21
142.0499185834
 31
0.0
  0
LINE
  5
D1
330
1F
100
AcDbEntity
  8
0
  6
Continuous
 62
     7
370
    25
100
AcDbLine
 10
170.351781057
 20
142.0499185834
 30
0.0
 11
169.3697473898
 21
142.0499185834
 31
0.0
  0
LINE
  5
D2
330
1F
100
AcDbEntity
  8
0
  6
Continuous
 62
     7
370
    25
100
AcDbLine
 10
171.4447964847
 20
142.0499185834
 30
0.0
 11
170.5405598436
 21
142.0499185834
 31
0.0
  0
LINE
  5
D3
330
1F
100
AcDbEntity
  8
0
  6
Continuous
 62
     7
370
    25
100
AcDbLine
 10
172.4492023337
 20
142.0499185834
 30
0.0
 11
171.6184450888
 21
142.0499185834
 31
0.0
  0
LINE
  5
D4
330
1F
100
AcDbEntity
  8
0
  6
Continuous
 62
     7
370
    25
100
AcDbLine
 10
173.3694861389
 20
142.0499185834
 30
0.0
 11
172.6085190726
 21
142.0499185834
 31
0.0
  0
LINE
  5
D5
330
1F
100
AcDbEntity
  8
0
  6
Continuous
 62
     7
370
    25
100
AcDbLine
 10
174.2094969955
 20
142.0499185834
 30
0.0
 11
173.5151547342
 21
142.0499185834
 31
0.0
  0
LINE
  5
D6
330
1F
100
AcDbEntity
  8
0
  6
Continuous
 62
     7
370
    25
100
AcDbLine
 10
174.9725456165
 20
142.0499185834
 30
0.0
 11
174.3421050136
 21
142.0499185834
 31
0.0
  0
LINE
  5
D7
330
1F
100
AcDbEntity
  8
0
  6
Continuous
 62
     7
370
    25
100
AcDbLine
 10
175.661483193
 20
142.0499185834
 30
0.0
 11
175.0925989456
 21
142.0499185834
 31
0.0
  0
LINE
  5
D8
330
1F
100
AcDbEntity
  8
0
  6
Continuous
 62
     7
370
    25
100
AcDbLine
 10
176.2787640996
 20
142.0499185834
 30
0.0
 11
175.7694175175
 21
142.0499185834
 31
0.0
  0
LINE
  5
D9
330
1F
100
AcDbEntity
  8
0
  6
Continuous
 62
     7
370
    25
100
AcDbLine
 10
176.8264960973
 20
142.0499185834
 30
0.0
 11
176.3749540641
 21
142.0499185834
 31
0.0
  0
LINE
  5
DA
330
1F
100
AcDbEntity
  8
0
  6
Continuous
 62
     7
370
    25
100
AcDbLine
 10
177.3064807126
 20
142.0499185834
 30
0.0
 11
176.9112626673
 21
142.0499185834
 31
0.0
  0
LINE
  5
DB
330
1F
100
AcDbEntity
  8
VERMASSUNG
  6
CENTERX2
100
AcDbLine
 10
178.5176838752
 20
139.4729185834
 30
0.0
 11
179.2417628175
 21
139.4729185834
 31
0.0
  0
DIMENSION
  5
DC
330
1F
100
AcDbEntity
  8
VERMASSUNG
100
AcDbDimension
  2
_D
 10
176.6097358177
 20
139.4729185834
 30
0.0
 11
176.6097358177
 21
103.4729185834
 31
0.0
 70
   160
  1
<>
 71
     2
 42
-1.0
  3
SLDDIMSTYLE0
100
AcDbAlignedDimension
 13
168.6413704227
 23
67.4729185834
 33
0.0
 14
178.5176838752
 24
139.4729185834
 34
0.0
 50
90.0
100
AcDbRotatedDimension
  0
DIMENSION
  5
E7
330
1F
100
AcDbEntity
  8
VERMASSUNG
100
AcDbDimension
  2
_D_1
 10
113.8691146722
 20
149.8039509951
 30
0.0
 11
146.3691146722
 21
149.8039509951
 31
0.0
 70
   160
  1
<>
 71
     2
 42
-1.0
  3
SLDDIMSTYLE0
100
AcDbAlignedDimension
 13
178.8691146722
 23
122.9029185834
 33
0.0
 14
113.8691146722
 24
142.0499185834
 34
0.0
 50
0.0
100
AcDbRotatedDimension
  0
LINE
  5
F1
330
1F
100
AcDbEntity
  8
0
  6
Continuous
 62
     7
370
    25
100
AcDbLine
 10
276.1773294109
 20
36.7070786762
 30
0.0
 11
279.227857809
 21
38.4681112358
 31
0.0
  0
LINE
  5
F2
330
1F
100
AcDbEntity
  8
0
  6
Continuous
 62
     7
370
    25
100
AcDbLine
 10
277.2280203437
 20
41.9323066853
 30
0.0
 11
276.1773294109
 21
41.3257557206
 31
0.0
  0
LINE
  5
F3
330
1F
100
AcDbEntity
  8
0
  6
Continuous
 62
     7
370
    25
100
AcDbLine
 10
241.702225857
 20
69.4012966788
 30
0.0
 11
241.1718095985
 21
69.0949943574
 31
0.0
  0
LWPOLYLINE
  5
F4
330
1F
100
AcDbEntity
  8
0
  6
Continuous
 62
     7
370
    25
100
AcDbPolyline
 90
        7
 70
   128
 43
0.0
 10
278.9585583391
 20
41.1766943363
 10
278.6596195785
 20
41.5061464537
 10
278.3374088102
 20
41.7651951429
 10
278.0092965002
 20
41.9398750218
 10
277.6929712681
 20
42.0207690531
 10
277.405486289
 20
42.0035162186
 10
277.2280203437
 20
41.9323066853
  0
LWPOLYLINE
  5
F5
330
1F
100
AcDbEntity
  8
0
  6
Continuous
 62
     7
370
    25
100
AcDbPolyline
 90
        9
 70
   128
 43
0.0
 10
279.227857809
 20
38.4681112358
 10
279.3942743479
 20
38.603331419
 10
279.5472796073
 20
38.8505011101
 10
279.629158877
 20
39.1704339008
 10
279.6354980247
 20
39.5458821316
 10
279.5659553051
 20
39.956605291
 10
279.4242797843
 20
40.3804611874
 10
279.2181092263
 20
40.7945996395
 10
278.9585583391
 20
41.1766943363
  0
LWPOLYLINE
  5
F6
330
1F
100
AcDbEntity
  8
0
  6
Continuous
 62
     7
370
    25
100
AcDbPolyline
 90
       28
 70
   128
 43
0.0
 10
247.1859513823
 20
23.5043976737
 10
246.8598112902
 20
23.7366942678
 10
246.5512534949
 20
24.0445075454
 10
246.2769124269
 20
24.4112432131
 10
246.0515778844
 20
24.8171304561
 10
245.8873977107
 20
25.240287788
 10
245.7932229016
 20
25.6579026876
 10
245.7741304454
 20
26.0474614276
 10
245.8311496214
 20
26.3879627953
 10
245.9612065109
 20
26.661050274
 10
246.1572897135
 20
26.852001647
 10
246.4088283329
 20
26.9505226764
 10
246.702261857
 20
26.9513020679
 10
247.0217712086
 20
26.8542978043
 10
247.3501315559
 20
26.6647394107
 10
247.6696409076
 20
26.392846029
 10
247.9630744317
 20
26.0532755019
 10
248.2146130511
 20
25.6643341644
 10
248.4106962537
 20
25.2469899446
 10
248.5407531432
 20
24.8237419775
 10
248.5977723191
 20
24.4174076705
 10
248.5786798629
 20
24.0498926114
 10
248.4845050538
 20
23.7410096319
 10
248.3203248802
 20
23.5074106936
 10
248.0949903376
 20
23.3616891757
 10
247.8206492697
 20
23.3117009628
 10
247.5120914744
 20
23.3601409326
 10
247.1859513823
 20
23.5043976737
  0
LINE
  5
F7
330
1F
100
AcDbEntity
  8
0
  6
Continuous
 62
     7
370
    25
100
AcDbLine
 10
251.4285920694
 20
19.871189161
 30
0.0
 11
232.417228729
 21
30.8462156074
 31
0.0
  0
LINE
  5
F8
330
1F
100
AcDbEntity
  8
0
  6
Continuous
 62
     7
370
    25
100
AcDbLine
 10
232.417228729
 20
30.8462156074
 30
0.0
 11
232.417228729
 21
59.8660760618
 31
0.0
  0
LINE
  5
F9
330
1F
100
AcDbEntity
  8
0
  6
Continuous
 62
     7
370
    25
100
AcDbLine
 10
238.5238933128
 20
56.3407736358
 30
0.0
 11
232.417228729
 21
59.8660760618
 31
0.0
  0
LINE
  5
FA
330
1F
100
AcDbEntity
  8
0
  6
Continuous
 62
     7
370
    25
100
AcDbLine
 10
238.5238933128
 20
44.9587455128
 30
0.0
 11
238.5238933128
 21
56.3407736358
 31
0.0
  0
ARC
  5
FB
330
1F
100
AcDbEntity
  8
0
  6
Continuous
 62
     7
370
    25
100
AcDbCircle
 10
240.3217625505
 20
45.0502064265
 30
0.0
 40
1.800194126932073
100
AcDbArc
 50
182.9122311494
 51
226.3441175284
  0
LINE
  5
FC
330
1F
100
AcDbEntity
  8
0
  6
Continuous
 62
     7
370
    25
100
AcDbLine
 10
251.4285920694
 20
31.8469265376
 30
0.0
 11
239.0790425957
 21
43.7477679409
 31
0.0
  0
LINE
  5
FD
330
1F
100
AcDbEntity
  8
0
  6
Continuous
 62
     7
370
    25
100
AcDbLine
 10
251.4285920694
 20
19.871189161
 30
0.0
 11
251.4285920694
 21
31.8469265376
 31
0.0
  0
LINE
  5
FE
330
1F
100
AcDbEntity
  8
0
  6
Continuous
 62
     7
370
    25
100
AcDbLine
 10
251.8613506173
 20
32.0268048938
 30
0.0
 11
251.4285920694
 21
31.8469265376
 31
0.0
  0
LINE
  5
FF
330
1F
100
AcDbEntity
  8
0
  6
Continuous
 62
     7
370
    25
100
AcDbLine
 10
239.7776488873
 20
44.5375359226
 30
0.0
 11
251.9771925022
 21
32.7812500707
 31
0.0
  0
LINE
  5
100
330
1F
100
AcDbEntity
  8
0
  6
Continuous
 62
     7
370
    25
100
AcDbLine
 10
251.9771925022
 20
32.7812500707
 30
0.0
 11
251.8613506173
 21
32.0268048938
 31
0.0
  0
LINE
  5
101
330
1F
100
AcDbEntity
  8
0
  6
Continuous
 62
     7
370
    25
100
AcDbLine
 10
275.665269672
 20
46.4560859438
 30
0.0
 11
263.4657260571
 21
58.2123717956
 31
0.0
  0
LINE
  5
102
330
1F
100
AcDbEntity
  8
0
  6
Continuous
 62
     7
370
    25
100
AcDbLine
 10
251.9771925022
 20
32.7812500707
 30
0.0
 11
275.665269672
 21
46.4560859438
 31
0.0
  0
LINE
  5
103
330
1F
100
AcDbEntity
  8
0
  6
Continuous
 62
     7
370
    25
100
AcDbLine
 10
239.0542233986
 20
57.2593322866
 30
0.0
 11
239.5845534845
 21
56.3407736358
 31
0.0
  0
LINE
  5
104
330
1F
100
AcDbEntity
  8
0
  6
Continuous
 62
     7
370
    25
100
AcDbLine
 10
238.5238933128
 20
56.3407736358
 30
0.0
 11
239.5845534845
 21
56.3407736358
 31
0.0
  0
LINE
  5
105
330
1F
100
AcDbEntity
  8
0
  6
Continuous
 62
     7
370
    25
100
AcDbLine
 10
239.0542233986
 20
57.2593322866
 30
0.0
 11
238.5238933128
 21
56.3407736358
 31
0.0
  0
LINE
  5
106
330
1F
100
AcDbEntity
  8
0
  6
Continuous
 62
     7
370
    25
100
AcDbLine
 10
239.5845534845
 20
56.3407736358
 30
0.0
 11
239.5845534845
 21
44.9587455128
 31
0.0
  0
LINE
  5
107
330
1F
100
AcDbEntity
  8
0
  6
Continuous
 62
     7
370
    25
100
AcDbLine
 10
239.0542233986
 20
57.2593322866
 30
0.0
 11
262.7423005684
 21
70.9341681597
 31
0.0
  0
LINE
  5
108
330
1F
100
AcDbEntity
  8
0
  6
Continuous
 62
     7
370
    25
100
AcDbLine
 10
262.7423005684
 20
70.9341681597
 30
0.0
 11
263.2726306543
 21
70.0156095088
 31
0.0
  0
LINE
  5
109
330
1F
100
AcDbEntity
  8
0
  6
Continuous
 62
     7
370
    25
100
AcDbLine
 10
263.2726306543
 20
70.0156095088
 30
0.0
 11
239.5845534845
 21
56.3407736358
 31
0.0
  0
LINE
  5
10A
330
1F
100
AcDbEntity
  8
0
  6
Continuous
 62
     7
370
    25
100
AcDbLine
 10
233.2402444231
 20
60.6156709075
 30
0.0
 11
239.0542233986
 21
57.2593322866
 31
0.0
  0
SPLINE
  5
10B
330
1F
100
AcDbEntity
  8
0
  6
Continuous
 62
     7
370
    25
100
AcDbSpline
210
0.0
220
0.0
230
1.0
 70
     8
 71
     3
 72
     8
 73
     4
 74
     0
 42
0.000000001
 43
0.00000001
 40
0.0
 40
0.0
 40
0.0
 40
0.0
 40
0.0022771295356956
 40
0.0022771295356956
 40
0.0022771295356956
 40
0.0022771295356956
 10
232.4172287289633
 20
59.86607606182471
 30
0.0
 10
232.691102651814
 20
60.11661605116495
 30
0.0
 10
232.9654368714744
 20
60.36649165355571
 30
0.0
 10
233.2402444231297
 20
60.61567090751029
 30
0.0
  0
LINE
  5
10C
330
1F
100
AcDbEntity
  8
0
  6
Continuous
 62
     7
370
    25
100
AcDbLine
 10
263.2726306543
 20
58.6335813858
 30
0.0
 11
263.2726306543
 21
70.0156095088
 31
0.0
  0
LINE
  5
10D
330
1F
100
AcDbEntity
  8
0
  6
Continuous
 62
     7
370
    25
100
AcDbLine
 10
262.7423005684
 20
70.9341681597
 30
0.0
 11
256.9283215929
 21
74.2905067805
 31
0.0
  0
LWPOLYLINE
  5
10E
330
1F
100
AcDbEntity
  8
0
  6
Continuous
 62
     7
370
    25
100
AcDbPolyline
 90
       20
 70
   128
 43
0.0
 10
256.9283215929
 20
74.2905067805
 10
255.1331972137
 20
74.01602346
 10
253.3689412615
 20
73.6814232293
 10
251.6415891893
 20
73.2878507433
 10
249.9570502035
 20
72.8366523987
 10
248.3210870485
 20
72.3293717279
 10
246.7392962924
 20
71.767744119
 10
245.2170891818
 20
71.1536908788
 10
243.7596731299
 20
70.4893126605
 10
242.3720339021
 20
69.7768822767
 10
241.0589185597
 20
69.018836925
 10
239.8248192209
 20
68.2177698499
 10
238.673957693
 20
67.3764214718
 10
237.6102710299
 20
66.4976700116
 10
236.6373980636
 20
65.584521645
 10
235.7586669557
 20
64.6401002182
 10
234.9770838123
 20
63.6676365612
 10
234.2953223999
 20
62.6704574355
 10
233.7157149984
 20
61.6519741533
 10
233.2402444231
 20
60.6156709075
  0
LINE
  5
10F
330
1F
100
AcDbEntity
  8
0
  6
Continuous
 62
     7
370
    25
100
AcDbLine
 10
276.1773294109
 20
45.5880343107
 30
0.0
 11
252.1356988506
 21
31.7090964098
 31
0.0
  0
LINE
  5
110
330
1F
100
AcDbEntity
  8
0
  6
Continuous
 62
     7
370
    25
100
AcDbLine
 10
252.1356988506
 20
31.7090964098
 30
0.0
 11
251.8613506173
 21
32.0268048938
 31
0.0
  0
LINE
  5
111
330
1F
100
AcDbEntity
  8
0
  6
Continuous
 62
     7
370
    25
100
AcDbLine
 10
276.1773294109
 20
46.0641206587
 30
0.0
 11
275.665269672
 21
46.4560859438
 31
0.0
  0
LINE
  5
112
330
1F
100
AcDbEntity
  8
0
  6
Continuous
 62
     7
370
    25
100
AcDbLine
 10
276.1773294109
 20
46.0641206587
 30
0.0
 11
276.1773294109
 21
45.5880343107
 31
0.0
  0
LINE
  5
113
330
1F
100
AcDbEntity
  8
0
  6
Continuous
 62
     7
370
    25
100
AcDbLine
 10
252.1356988506
 20
31.7090964098
 30
0.0
 11
252.1356988506
 21
19.0558731603
 31
0.0
  0
LINE
  5
114
330
1F
100
AcDbEntity
  8
0
  6
Continuous
 62
     7
370
    25
100
AcDbLine
 10
252.1356988506
 20
19.0558731603
 30
0.0
 11
252.0176943525
 21
19.0558731603
 31
0.0
  0
LINE
  5
115
330
1F
100
AcDbEntity
  8
0
  6
Continuous
 62
     7
370
    25
100
AcDbLine
 10
252.0176943525
 20
19.0558731603
 30
0.0
 11
251.6407241038
 21
19.4328638302
 31
0.0
  0
LINE
  5
116
330
1F
100
AcDbEntity
  8
0
  6
Continuous
 62
     7
370
    25
100
AcDbLine
 10
251.6407241038
 20
19.4328638302
 30
0.0
 11
251.6407241038
 21
19.7487080392
 31
0.0
  0
LINE
  5
117
330
1F
100
AcDbEntity
  8
0
  6
Continuous
 62
     7
370
    25
100
AcDbLine
 10
251.6407241038
 20
19.7487080392
 30
0.0
 11
251.4285920694
 21
19.871189161
 31
0.0
  0
LINE
  5
118
330
1F
100
AcDbEntity
  8
0
  6
Continuous
 62
     7
370
    25
100
AcDbLine
 10
276.1773294109
 20
32.9348110613
 30
0.0
 11
276.1183271619
 21
32.9007497879
 31
0.0
  0
LINE
  5
119
330
1F
100
AcDbEntity
  8
0
  6
Continuous
 62
     7
370
    25
100
AcDbLine
 10
276.1183271619
 20
32.9007497879
 30
0.0
 11
275.8678668357
 21
33.2571099074
 31
0.0
  0
LWPOLYLINE
  5
11A
330
1F
100
AcDbEntity
  8
0
  6
Continuous
 62
     7
370
    25
100
AcDbPolyline
 90
        9
 70
   128
 43
0.0
 10
275.8678668357
 20
33.2571099074
 10
275.8597760203
 20
33.2646151811
 10
275.8492318645
 20
33.2678711444
 10
275.8369529349
 20
33.2666559089
 10
275.8237760203
 20
33.2610522907
 10
275.8105991058
 20
33.2514421672
 10
275.7983201762
 20
33.2384804524
 10
275.7877760203
 20
33.2230504658
 10
275.779685205
 20
33.2062037355
  0
LINE
  5
11B
330
1F
100
AcDbEntity
  8
0
  6
Continuous
 62
     7
370
    25
100
AcDbLine
 10
275.779685205
 20
33.2062037355
 30
0.0
 11
275.5292248788
 21
32.5606682787
 31
0.0
  0
LINE
  5
11C
330
1F
100
AcDbEntity
  8
0
  6
Continuous
 62
     7
370
    25
100
AcDbLine
 10
275.5292248788
 20
32.5606682787
 30
0.0
 11
275.4112203807
 21
32.492545732
 31
0.0
  0
LINE
  5
11D
330
1F
100
AcDbEntity
  8
0
  6
Continuous
 62
     7
370
    25
100
AcDbLine
 10
275.4112203807
 20
32.492545732
 30
0.0
 11
275.1607600545
 21
32.8489058514
 31
0.0
  0
LWPOLYLINE
  5
11E
330
1F
100
AcDbEntity
  8
0
  6
Continuous
 62
     7
370
    25
100
AcDbPolyline
 90
        9
 70
   128
 43
0.0
 10
275.1607600545
 20
32.8489058514
 10
275.1526692392
 20
32.8564111252
 10
275.1421250833
 20
32.8596670885
 10
275.1298461537
 20
32.8584518529
 10
275.1166692392
 20
32.8528482347
 10
275.1034923246
 20
32.8432381112
 10
275.091213395
 20
32.8302763965
 10
275.0806692392
 20
32.8148464099
 10
275.0725784238
 20
32.7979996796
  0
LINE
  5
11F
330
1F
100
AcDbEntity
  8
0
  6
Continuous
 62
     7
370
    25
100
AcDbLine
 10
275.0725784238
 20
32.7979996796
 30
0.0
 11
274.8221180976
 21
32.1524642228
 31
0.0
  0
LINE
  5
120
330
1F
100
AcDbEntity
  8
0
  6
Continuous
 62
     7
370
    25
100
AcDbLine
 10
274.8221180976
 20
32.1524642228
 30
0.0
 11
274.7041135995
 21
32.0843416761
 31
0.0
  0
LINE
  5
121
330
1F
100
AcDbEntity
  8
0
  6
Continuous
 62
     7
370
    25
100
AcDbLine
 10
274.7041135995
 20
32.0843416761
 30
0.0
 11
274.4536532733
 21
32.4407017955
 31
0.0
  0
LWPOLYLINE
  5
122
330
1F
100
AcDbEntity
  8
0
  6
Continuous
 62
     7
370
    25
100
AcDbPolyline
 90
        9
 70
   128
 43
0.0
 10
274.4536532733
 20
32.4407017955
 10
274.445562458
 20
32.4482070693
 10
274.4350183021
 20
32.4514630326
 10
274.4227393725
 20
32.450247797
 10
274.409562458
 20
32.4446441788
 10
274.3963855434
 20
32.4350340553
 10
274.3841066138
 20
32.4220723406
 10
274.373562458
 20
32.406642354
 10
274.3654716426
 20
32.3897956237
  0
LINE
  5
123
330
1F
100
AcDbEntity
  8
0
  6
Continuous
 62
     7
370
    25
100
AcDbLine
 10
274.3654716426
 20
32.3897956237
 30
0.0
 11
274.1150113164
 21
31.7442601669
 31
0.0
  0
LINE
  5
124
330
1F
100
AcDbEntity
  8
0
  6
Continuous
 62
     7
370
    25
100
AcDbLine
 10
274.1150113164
 20
31.7442601669
 30
0.0
 11
273.9970068184
 21
31.6761376202
 31
0.0
  0
LINE
  5
125
330
1F
100
AcDbEntity
  8
0
  6
Continuous
 62
     7
370
    25
100
AcDbLine
 10
273.9970068184
 20
31.6761376202
 30
0.0
 11
273.7465464922
 21
32.0324977396
 31
0.0
  0
LWPOLYLINE
  5
126
330
1F
100
AcDbEntity
  8
0
  6
Continuous
 62
     7
370
    25
100
AcDbPolyline
 90
        9
 70
   128
 43
0.0
 10
273.7465464922
 20
32.0324977396
 10
273.7384556768
 20
32.0400030134
 10
273.7279115209
 20
32.0432589767
 10
273.7156325913
 20
32.0420437411
 10
273.7024556768
 20
32.0364401229
 10
273.6892787622
 20
32.0268299994
 10
273.6769998327
 20
32.0138682847
 10
273.6664556768
 20
31.9984382981
 10
273.6583648614
 20
31.9815915678
  0
LINE
  5
127
330
1F
100
AcDbEntity
  8
0
  6
Continuous
 62
     7
370
    25
100
AcDbLine
 10
273.6583648614
 20
31.9815915678
 30
0.0
 11
273.4079045352
 21
31.336056111
 31
0.0
  0
LINE
  5
128
330
1F
100
AcDbEntity
  8
0
  6
Continuous
 62
     7
370
    25
100
AcDbLine
 10
273.4079045352
 20
31.336056111
 30
0.0
 11
273.2899000372
 21
31.2679335643
 31
0.0
  0
LINE
  5
129
330
1F
100
AcDbEntity
  8
0
  6
Continuous
 62
     7
370
    25
100
AcDbLine
 10
273.2899000372
 20
31.2679335643
 30
0.0
 11
273.039439711
 21
31.6242936837
 31
0.0
  0
LWPOLYLINE
  5
12A
330
1F
100
AcDbEntity
  8
0
  6
Continuous
 62
     7
370
    25
100
AcDbPolyline
 90
        9
 70
   128
 43
0.0
 10
273.039439711
 20
31.6242936837
 10
273.0313488956
 20
31.6317989574
 10
273.0208047397
 20
31.6350549208
 10
273.0085258101
 20
31.6338396852
 10
272.9953488956
 20
31.628236067
 10
272.9821719811
 20
31.6186259435
 10
272.9698930515
 20
31.6056642288
 10
272.9593488956
 20
31.5902342422
 10
272.9512580802
 20
31.5733875119
  0
LINE
  5
12B
330
1F
100
AcDbEntity
  8
0
  6
Continuous
 62
     7
370
    25
100
AcDbLine
 10
272.9512580802
 20
31.5733875119
 30
0.0
 11
272.700797754
 21
30.9278520551
 31
0.0
  0
LINE
  5
12C
330
1F
100
AcDbEntity
  8
0
  6
Continuous
 62
     7
370
    25
100
AcDbLine
 10
272.700797754
 20
30.9278520551
 30
0.0
 11
272.582793256
 21
30.8597295084
 31
0.0
  0
LINE
  5
12D
330
1F
100
AcDbEntity
  8
0
  6
Continuous
 62
     7
370
    25
100
AcDbLine
 10
272.582793256
 20
30.8597295084
 30
0.0
 11
272.3323329298
 21
31.2160896278
 31
0.0
  0
LWPOLYLINE
  5
12E
330
1F
100
AcDbEntity
  8
0
  6
Continuous
 62
     7
370
    25
100
AcDbPolyline
 90
        9
 70
   128
 43
0.0
 10
272.3323329298
 20
31.2160896278
 10
272.3242421144
 20
31.2235949015
 10
272.3136979585
 20
31.2268508649
 10
272.3014190289
 20
31.2256356293
 10
272.2882421144
 20
31.2200320111
 10
272.2750651999
 20
31.2104218876
 10
272.2627862703
 20
31.1974601728
 10
272.2522421144
 20
31.1820301863
 10
272.244151299
 20
31.1651834559
  0
LINE
  5
12F
330
1F
100
AcDbEntity
  8
0
  6
Continuous
 62
     7
370
    25
100
AcDbLine
 10
272.244151299
 20
31.1651834559
 30
0.0
 11
271.9936909728
 21
30.5196479992
 31
0.0
  0
LINE
  5
130
330
1F
100
AcDbEntity
  8
0
  6
Continuous
 62
     7
370
    25
100
AcDbLine
 10
271.9936909728
 20
30.5196479992
 30
0.0
 11
271.8756864748
 21
30.4515254525
 31
0.0
  0
LINE
  5
131
330
1F
100
AcDbEntity
  8
0
  6
Continuous
 62
     7
370
    25
100
AcDbLine
 10
271.8756864748
 20
30.4515254525
 30
0.0
 11
271.6252261486
 21
30.8078855719
 31
0.0
  0
LWPOLYLINE
  5
132
330
1F
100
AcDbEntity
  8
0
  6
Continuous
 62
     7
370
    25
100
AcDbPolyline
 90
        9
 70
   128
 43
0.0
 10
271.6252261486
 20
30.8078855719
 10
271.6171353332
 20
30.8153908456
 10
271.6065911773
 20
30.818646809
 10
271.5943122478
 20
30.8174315734
 10
271.5811353332
 20
30.8118279552
 10
271.5679584187
 20
30.8022178317
 10
271.5556794891
 20
30.7892561169
 10
271.5451353332
 20
30.7738261304
 10
271.5370445179
 20
30.7569794
  0
LINE
  5
133
330
1F
100
AcDbEntity
  8
0
  6
Continuous
 62
     7
370
    25
100
AcDbLine
 10
271.5370445179
 20
30.7569794
 30
0.0
 11
271.2865841917
 21
30.1114439433
 31
0.0
  0
LINE
  5
134
330
1F
100
AcDbEntity
  8
0
  6
Continuous
 62
     7
370
    25
100
AcDbLine
 10
271.2865841917
 20
30.1114439433
 30
0.0
 11
271.1685796936
 21
30.0433213966
 31
0.0
  0
LINE
  5
135
330
1F
100
AcDbEntity
  8
0
  6
Continuous
 62
     7
370
    25
100
AcDbLine
 10
271.1685796936
 20
30.0433213966
 30
0.0
 11
270.9181193674
 21
30.399681516
 31
0.0
  0
LWPOLYLINE
  5
136
330
1F
100
AcDbEntity
  8
0
  6
Continuous
 62
     7
370
    25
100
AcDbPolyline
 90
        9
 70
   128
 43
0.0
 10
270.9181193674
 20
30.399681516
 10
270.910028552
 20
30.4071867897
 10
270.8994843962
 20
30.410442753
 10
270.8872054666
 20
30.4092275175
 10
270.874028552
 20
30.4036238993
 10
270.8608516375
 20
30.3940137758
 10
270.8485727079
 20
30.381052061
 10
270.838028552
 20
30.3656220744
 10
270.8299377367
 20
30.3487753441
  0
LINE
  5
137
330
1F
100
AcDbEntity
  8
0
  6
Continuous
 62
     7
370
    25
100
AcDbLine
 10
270.8299377367
 20
30.3487753441
 30
0.0
 11
270.5794774105
 21
29.7032398873
 31
0.0
  0
LINE
  5
138
330
1F
100
AcDbEntity
  8
0
  6
Continuous
 62
     7
370
    25
100
AcDbLine
 10
270.5794774105
 20
29.7032398873
 30
0.0
 11
270.4614729124
 21
29.6351173407
 31
0.0
  0
LINE
  5
139
330
1F
100
AcDbEntity
  8
0
  6
Continuous
 62
     7
370
    25
100
AcDbLine
 10
270.4614729124
 20
29.6351173407
 30
0.0
 11
270.2110125862
 21
29.9914774601
 31
0.0
  0
LWPOLYLINE
  5
13A
330
1F
100
AcDbEntity
  8
0
  6
Continuous
 62
     7
370
    25
100
AcDbPolyline
 90
        9
 70
   128
 43
0.0
 10
270.2110125862
 20
29.9914774601
 10
270.2029217709
 20
29.9989827338
 10
270.192377615
 20
30.0022386971
 10
270.1800986854
 20
30.0010234616
 10
270.1669217709
 20
29.9954198434
 10
270.1537448563
 20
29.9858097199
 10
270.1414659267
 20
29.9728480051
 10
270.1309217709
 20
29.9574180185
 10
270.1228309555
 20
29.9405712882
  0
LINE
  5
13B
330
1F
100
AcDbEntity
  8
0
  6
Continuous
 62
     7
370
    25
100
AcDbLine
 10
270.1228309555
 20
29.9405712882
 30
0.0
 11
269.8723706293
 21
29.2950358314
 31
0.0
  0
LINE
  5
13C
330
1F
100
AcDbEntity
  8
0
  6
Continuous
 62
     7
370
    25
100
AcDbLine
 10
269.8723706293
 20
29.2950358314
 30
0.0
 11
269.7543661312
 21
29.2269132847
 31
0.0
  0
LINE
  5
13D
330
1F
100
AcDbEntity
  8
0
  6
Continuous
 62
     7
370
    25
100
AcDbLine
 10
269.7543661312
 20
29.2269132847
 30
0.0
 11
269.503905805
 21
29.5832734042
 31
0.0
  0
LWPOLYLINE
  5
13E
330
1F
100
AcDbEntity
  8
0
  6
Continuous
 62
     7
370
    25
100
AcDbPolyline
 90
        9
 70
   128
 43
0.0
 10
269.503905805
 20
29.5832734042
 10
269.4958149897
 20
29.5907786779
 10
269.4852708338
 20
29.5940346412
 10
269.4729919042
 20
29.5928194056
 10
269.4598149897
 20
29.5872157875
 10
269.4466380751
 20
29.577605664
 10
269.4343591455
 20
29.5646439492
 10
269.4238149897
 20
29.5492139626
 10
269.4157241743
 20
29.5323672323
  0
LINE
  5
13F
330
1F
100
AcDbEntity
  8
0
  6
Continuous
 62
     7
370
    25
100
AcDbLine
 10
269.4157241743
 20
29.5323672323
 30
0.0
 11
269.1652638481
 21
28.8868317755
 31
0.0
  0
LINE
  5
140
330
1F
100
AcDbEntity
  8
0
  6
Continuous
 62
     7
370
    25
100
AcDbLine
 10
269.1652638481
 20
28.8868317755
 30
0.0
 11
269.04725935
 21
28.8187092288
 31
0.0
  0
LINE
  5
141
330
1F
100
AcDbEntity
  8
0
  6
Continuous
 62
     7
370
    25
100
AcDbLine
 10
269.04725935
 20
28.8187092288
 30
0.0
 11
268.7967990238
 21
29.1750693482
 31
0.0
  0
ARC
  5
142
330
1F
100
AcDbEntity
  8
0
  6
Continuous
 62
     7
370
    25
100
AcDbCircle
 10
268.7727377255
 20
29.1544952273
 30
0.0
 40
0.0316581826661431
100
AcDbArc
 50
40.5327958603
 51
129.2481680774
  0
LINE
  5
143
330
1F
100
AcDbEntity
  8
0
  6
Continuous
 62
     7
370
    25
100
AcDbLine
 10
268.7527082085
 20
29.7293602388
 30
0.0
 11
268.7527082085
 21
29.1790117315
 31
0.0
  0
LINE
  5
144
330
1F
100
AcDbEntity
  8
0
  6
Continuous
 62
     7
370
    25
100
AcDbLine
 10
266.5429995173
 20
28.453722564
 30
0.0
 11
268.7527082085
 21
29.7293602388
 31
0.0
  0
LINE
  5
145
330
1F
100
AcDbEntity
  8
0
  6
Continuous
 62
     7
370
    25
100
AcDbLine
 10
266.5429995173
 20
31.5565776492
 30
0.0
 11
266.5429995173
 21
28.453722564
 31
0.0
  0
LINE
  5
146
330
1F
100
AcDbEntity
  8
0
  6
Continuous
 62
     7
370
    25
100
AcDbLine
 10
267.868824732
 20
32.321960254
 30
0.0
 11
266.5429995173
 21
31.5565776492
 31
0.0
  0
LINE
  5
147
330
1F
100
AcDbEntity
  8
0
  6
Continuous
 62
     7
370
    25
100
AcDbLine
 10
267.868824732
 20
35.9555668669
 30
0.0
 11
267.868824732
 21
32.321960254
 31
0.0
  0
LINE
  5
148
330
1F
100
AcDbEntity
  8
0
  6
Continuous
 62
     7
370
    25
100
AcDbLine
 10
260.4442035295
 20
31.6694242799
 30
0.0
 11
267.868824732
 21
35.9555668669
 31
0.0
  0
LINE
  5
149
330
1F
100
AcDbEntity
  8
0
  6
Continuous
 62
     7
370
    25
100
AcDbLine
 10
260.4442035295
 20
28.035817667
 30
0.0
 11
260.4442035295
 21
31.6694242799
 31
0.0
  0
LINE
  5
14A
330
1F
100
AcDbEntity
  8
0
  6
Continuous
 62
     7
370
    25
100
AcDbLine
 10
261.7700287443
 20
28.8012002718
 30
0.0
 11
260.4442035295
 21
28.035817667
 31
0.0
  0
LINE
  5
14B
330
1F
100
AcDbEntity
  8
0
  6
Continuous
 62
     7
370
    25
100
AcDbLine
 10
261.7700287443
 20
25.6983451866
 30
0.0
 11
261.7700287443
 21
28.8012002718
 31
0.0
  0
LINE
  5
14C
330
1F
100
AcDbEntity
  8
0
  6
Continuous
 62
     7
370
    25
100
AcDbLine
 10
259.5603200531
 20
24.4227075119
 30
0.0
 11
261.7700287443
 21
25.6983451866
 31
0.0
  0
LINE
  5
14D
330
1F
100
AcDbEntity
  8
0
  6
Continuous
 62
     7
370
    25
100
AcDbLine
 10
259.5603200531
 20
23.8723590047
 30
0.0
 11
259.5603200531
 21
24.4227075119
 31
0.0
  0
ARC
  5
14E
330
1F
100
AcDbEntity
  8
0
  6
Continuous
 62
     7
370
    25
100
AcDbCircle
 10
259.6199176009
 20
23.7793048401
 30
0.0
 40
0.1105031459501969
100
AcDbArc
 50
122.6379705891
 51
159.7728862144
  0
LINE
  5
14F
330
1F
100
AcDbEntity
  8
0
  6
Continuous
 62
     7
370
    25
100
AcDbLine
 10
259.5162292377
 20
23.8175104495
 30
0.0
 11
259.2657689115
 21
23.1719749928
 31
0.0
  0
LINE
  5
150
330
1F
100
AcDbEntity
  8
0
  6
Continuous
 62
     7
370
    25
100
AcDbLine
 10
259.2657689115
 20
23.1719749928
 30
0.0
 11
259.1477644134
 21
23.1038524461
 31
0.0
  0
LINE
  5
151
330
1F
100
AcDbEntity
  8
0
  6
Continuous
 62
     7
370
    25
100
AcDbLine
 10
259.1477644134
 20
23.1038524461
 30
0.0
 11
258.9416016195
 21
23.3971851226
 31
0.0
  0
LINE
  5
152
330
1F
100
AcDbEntity
  8
0
  6
Continuous
 62
     7
370
    25
100
AcDbLine
 10
258.9416016195
 20
28.9851873546
 30
0.0
 11
258.9416016195
 21
23.3971851226
 31
0.0
  0
LINE
  5
153
330
1F
100
AcDbEntity
  8
0
  6
Continuous
 62
     7
370
    25
100
AcDbLine
 10
258.9416016195
 20
28.9851873546
 30
0.0
 11
255.2292910183
 21
26.8421160611
 31
0.0
  0
LINE
  5
154
330
1F
100
AcDbEntity
  8
0
  6
Continuous
 62
     7
370
    25
100
AcDbLine
 10
255.2292910183
 20
26.8421160611
 30
0.0
 11
255.2292910183
 21
21.2541138291
 31
0.0
  0
LINE
  5
155
330
1F
100
AcDbEntity
  8
0
  6
Continuous
 62
     7
370
    25
100
AcDbLine
 10
255.2292910183
 20
21.2541138291
 30
0.0
 11
255.0231282244
 21
20.7227506573
 31
0.0
  0
LINE
  5
156
330
1F
100
AcDbEntity
  8
0
  6
Continuous
 62
     7
370
    25
100
AcDbLine
 10
255.0231282244
 20
20.7227506573
 30
0.0
 11
254.9051237263
 21
20.6546281106
 31
0.0
  0
LINE
  5
157
330
1F
100
AcDbEntity
  8
0
  6
Continuous
 62
     7
370
    25
100
AcDbLine
 10
254.9051237263
 20
20.6546281106
 30
0.0
 11
254.6546634001
 21
21.01098823
 31
0.0
  0
LWPOLYLINE
  5
158
330
1F
100
AcDbEntity
  8
0
  6
Continuous
 62
     7
370
    25
100
AcDbPolyline
 90
        9
 70
   128
 43
0.0
 10
254.6546634001
 20
21.01098823
 10
254.6465725847
 20
21.0184935037
 10
254.6360284289
 20
21.0217494671
 10
254.6237494993
 20
21.0205342315
 10
254.6105725847
 20
21.0149306133
 10
254.5973956702
 20
21.0053204898
 10
254.5851167406
 20
20.9923587751
 10
254.5745725847
 20
20.9769287885
 10
254.5664817694
 20
20.9600820582
  0
LINE
  5
159
330
1F
100
AcDbEntity
  8
0
  6
Continuous
 62
     7
370
    25
100
AcDbLine
 10
254.5664817694
 20
20.9600820582
 30
0.0
 11
254.3160214432
 21
20.3145466014
 31
0.0
  0
LINE
  5
15A
330
1F
100
AcDbEntity
  8
0
  6
Continuous
 62
     7
370
    25
100
AcDbLine
 10
254.3160214432
 20
20.3145466014
 30
0.0
 11
254.1980169451
 21
20.2464240547
 31
0.0
  0
LINE
  5
15B
330
1F
100
AcDbEntity
  8
0
  6
Continuous
 62
     7
370
    25
100
AcDbLine
 10
254.1980169451
 20
20.2464240547
 30
0.0
 11
253.9475566189
 21
20.6027841741
 31
0.0
  0
LWPOLYLINE
  5
15C
330
1F
100
AcDbEntity
  8
0
  6
Continuous
 62
     7
370
    25
100
AcDbPolyline
 90
        9
 70
   128
 43
0.0
 10
253.9475566189
 20
20.6027841741
 10
253.9394658036
 20
20.6102894478
 10
253.9289216477
 20
20.6135454112
 10
253.9166427181
 20
20.6123301756
 10
253.9034658036
 20
20.6067265574
 10
253.890288889
 20
20.5971164339
 10
253.8780099594
 20
20.5841547192
 10
253.8674658036
 20
20.5687247326
 10
253.8593749882
 20
20.5518780022
  0
LINE
  5
15D
330
1F
100
AcDbEntity
  8
0
  6
Continuous
 62
     7
370
    25
100
AcDbLine
 10
253.8593749882
 20
20.5518780022
 30
0.0
 11
253.608914662
 21
19.9063425455
 31
0.0
  0
LINE
  5
15E
330
1F
100
AcDbEntity
  8
0
  6
Continuous
 62
     7
370
    25
100
AcDbLine
 10
253.608914662
 20
19.9063425455
 30
0.0
 11
253.4909101639
 21
19.8382199988
 31
0.0
  0
LINE
  5
15F
330
1F
100
AcDbEntity
  8
0
  6
Continuous
 62
     7
370
    25
100
AcDbLine
 10
253.4909101639
 20
19.8382199988
 30
0.0
 11
253.2404498377
 21
20.1945801182
 31
0.0
  0
LWPOLYLINE
  5
160
330
1F
100
AcDbEntity
  8
0
  6
Continuous
 62
     7
370
    25
100
AcDbPolyline
 90
        9
 70
   128
 43
0.0
 10
253.2404498377
 20
20.1945801182
 10
253.2323590224
 20
20.2020853919
 10
253.2218148665
 20
20.2053413553
 10
253.2095359369
 20
20.2041261197
 10
253.1963590224
 20
20.1985225015
 10
253.1831821078
 20
20.188912378
 10
253.1709031783
 20
20.1759506632
 10
253.1603590224
 20
20.1605206767
 10
253.152268207
 20
20.1436739463
  0
LINE
  5
161
330
1F
100
AcDbEntity
  8
0
  6
Continuous
 62
     7
370
    25
100
AcDbLine
 10
253.152268207
 20
20.1436739463
 30
0.0
 11
252.9018078808
 21
19.4981384896
 31
0.0
  0
LINE
  5
162
330
1F
100
AcDbEntity
  8
0
  6
Continuous
 62
     7
370
    25
100
AcDbLine
 10
252.9018078808
 20
19.4981384896
 30
0.0
 11
252.7838033828
 21
19.4300159429
 31
0.0
  0
LINE
  5
163
330
1F
100
AcDbEntity
  8
0
  6
Continuous
 62
     7
370
    25
100
AcDbLine
 10
252.7838033828
 20
19.4300159429
 30
0.0
 11
252.5333430566
 21
19.7863760623
 31
0.0
  0
LWPOLYLINE
  5
164
330
1F
100
AcDbEntity
  8
0
  6
Continuous
 62
     7
370
    25
100
AcDbPolyline
 90
        9
 70
   128
 43
0.0
 10
252.5333430566
 20
19.7863760623
 10
252.5252522412
 20
19.793881336
 10
252.5147080853
 20
19.7971372994
 10
252.5024291557
 20
19.7959220638
 10
252.4892522412
 20
19.7903184456
 10
252.4760753267
 20
19.7807083221
 10
252.4637963971
 20
19.7677466073
 10
252.4532522412
 20
19.7523166207
 10
252.4451614258
 20
19.7354698904
  0
LINE
  5
165
330
1F
100
AcDbEntity
  8
0
  6
Continuous
 62
     7
370
    25
100
AcDbLine
 10
252.4451614258
 20
19.7354698904
 30
0.0
 11
252.1947010996
 21
19.0899344337
 31
0.0
  0
LINE
  5
166
330
1F
100
AcDbEntity
  8
0
  6
Continuous
 62
     7
370
    25
100
AcDbLine
 10
252.1947010996
 20
19.0899344337
 30
0.0
 11
252.1356988506
 21
19.0558731603
 31
0.0
  0
LINE
  5
167
330
1F
100
AcDbEntity
  8
0
  6
Continuous
 62
     7
370
    25
100
AcDbLine
 10
276.1773294109
 20
32.9348110613
 30
0.0
 11
276.1773294109
 21
45.5880343107
 31
0.0
  0
LWPOLYLINE
  5
168
330
1F
100
AcDbEntity
  8
0
  6
Continuous
 62
     7
370
    25
100
AcDbPolyline
 90
       11
 70
   128
 43
0.0
 10
232.417228729
 20
59.8660760618
 10
232.865799871
 20
60.9008402257
 10
233.4155121675
 20
61.9192155599
 10
234.0645887801
 20
62.917910364
 10
234.8109316948
 20
63.8936965512
 10
235.6521285033
 20
64.8434200821
 10
236.5854602002
 20
65.7640111599
 10
237.6079099721
 20
66.652494153
 10
238.7161729488
 20
67.5059972125
 10
239.9066668857
 20
68.3217615558
 10
241.1718095985
 20
69.0949943574
  0
ARC
  5
169
330
1F
100
AcDbEntity
  8
0
  6
Continuous
 62
     7
370
    25
100
AcDbCircle
 10
240.2098993063
 20
44.9905580045
 30
0.0
 40
0.6261544789331616
100
AcDbArc
 50
182.9122311494
 51
226.3441175284
  0
ARC
  5
16A
330
1F
100
AcDbEntity
  8
0
  6
Continuous
 62
     7
370
    25
100
AcDbCircle
 10
263.8979764761
 20
58.6653938776
 30
0.0
 40
0.6261544789328428
100
AcDbArc
 50
182.9122311494
 51
226.3441175284
  0
LINE
  5
16B
330
1F
100
AcDbEntity
  8
0
  6
Continuous
 62
     7
370
    25
100
AcDbLine
 10
251.6407241038
 20
19.7487080392
 30
0.0
 11
232.4559251989
 21
30.8238567058
 31
0.0
  0
ELLIPSE
  5
16C
330
1F
100
AcDbEntity
  8
0
  6
Continuous
 62
     7
370
    25
100
AcDbEllipse
 10
264.1565141308
 20
12.5211939035
 30
0.0
 11
32.50000015867215
 21
-18.76490043452375
 31
0.0
210
0.0
220
0.0
230
1.0
 40
0.0000703729
 41
3.358421150131775
 42
3.363888851092408
  0
LINE
  5
16D
330
1F
100
AcDbEntity
  8
0
  6
Continuous
 62
     7
370
    25
100
AcDbLine
 10
232.4559251989
 20
30.5080124968
 30
0.0
 11
251.6407241038
 21
19.4328638302
 31
0.0
  0
LINE
  5
16E
330
1F
100
AcDbEntity
  8
0
  6
Continuous
 62
     7
370
    25
100
AcDbLine
 10
232.4559251989
 20
30.8238567058
 30
0.0
 11
232.4559251989
 21
30.5080124968
 31
0.0
  0
LINE
  5
16F
330
1F
100
AcDbEntity
  8
0
  6
Continuous
 62
     7
370
    25
100
AcDbLine
 10
232.5266835974
 20
30.3077941654
 30
0.0
 11
252.0176943525
 21
19.0558731603
 31
0.0
  0
ELLIPSE
  5
170
330
1F
100
AcDbEntity
  8
0
  6
Continuous
 62
     7
370
    25
100
AcDbEllipse
 10
264.1565141308
 20
1.8343982854
 30
0.0
 11
-31.73555091678475
 21
34.6997985606185
 31
0.0
210
0.0
220
0.0
230
1.0
 40
0.2019459068
 41
0.4395770001860896
 42
0.4492472176458106
  0
ELLIPSE
  5
171
330
1F
100
AcDbEntity
  8
0
  6
Continuous
 62
     7
370
    25
100
AcDbEllipse
 10
255.4060677136
 20
19.9361949487
 30
0.0
 11
1.70843601564468
 21
4.852100650204434
 31
0.0
210
0.0
220
0.0
230
1.0
 40
0.4107407456
 41
0.3033837782751013
 42
0.5772244120813066
  0
ARC
  5
172
330
1F
100
AcDbEntity
  8
0
  6
Continuous
 62
     7
370
    25
100
AcDbCircle
 10
255.4069665366
 20
19.8838304543
 30
0.0
 40
4.514324644666846
100
AcDbArc
 50
85.6401404029
 51
88.9089140576
  0
ELLIPSE
  5
173
330
1F
100
AcDbEntity
  8
0
  6
Continuous
 62
     7
370
    25
100
AcDbEllipse
 10
255.4060677136
 20
25.5933556392
 30
0.0
 11
-2.56325603558642
 21
2.802676037588415
 31
0.0
210
0.0
220
0.0
230
1.0
 40
0.2019459068
 41
1.720723253591176
 42
1.821213366760426
  0
ELLIPSE
  5
174
330
1F
100
AcDbEntity
  8
0
  6
Continuous
 62
     7
370
    25
100
AcDbEllipse
 10
255.4060677136
 20
27.0076458118
 30
0.0
 11
-2.56325603558642
 21
2.802676037588415
 31
0.0
210
0.0
220
0.0
230
1.0
 40
0.2019459068
 41
2.354606166549186
 42
2.573515926240626
  0
SPLINE
  5
175
330
1F
100
AcDbEntity
  8
0
  6
Continuous
 62
     7
370
    25
100
AcDbSpline
210
0.0
220
0.0
230
1.0
 70
     8
 71
     3
 72
    16
 73
    12
 74
     0
 42
0.000000001
 43
0.00000001
 40
0.0
 40
0.0
 40
0.0
 40
0.0
 40
0.1250000000000031
 40
0.1250000000000031
 40
0.2500000000000061
 40
0.2500000000000061
 40
0.500000000000004
 40
0.500000000000004
 40
0.750000000000002
 40
0.750000000000002
 40
1.0
 40
1.0
 40
1.0
 40
1.0
 10
256.4410835047933
 20
24.7763461821839
 30
0.0
 10
256.4552522487456
 20
24.78092684912601
 30
0.0
 10
256.47095747716
 20
24.78192793215073
 30
0.0
 10
256.5028594060952
 20
24.78146498937912
 30
0.0
 10
256.5191054790995
 20
24.7797610314253
 30
0.0
 10
256.5673944772948
 20
24.77211080004175
 30
0.0
 10
256.5994627980124
 20
24.76361647464352
 30
0.0
 10
256.6631696590071
 20
24.74228029928919
 30
0.0
 10
256.6947150332696
 20
24.72939138369452
 30
0.0
 10
256.7560247522105
 20
24.69974756625044
 30
0.0
 10
256.7860649976731
 20
24.68343158990505
 30
0.0
 10
256.8148325307034
 20
24.66239780583816
 30
0.0
  0
LINE
  5
176
330
1F
100
AcDbEntity
  8
0
  6
Continuous
 62
     7
370
    25
100
AcDbLine
 10
252.4103052833
 20
19.6456318062
 30
0.0
 11
252.7838033828
 21
19.4300159429
 31
0.0
  0
LINE
  5
177
330
1F
100
AcDbEntity
  8
0
  6
Continuous
 62
     7
370
    25
100
AcDbLine
 10
253.1174120645
 20
20.0538358621
 30
0.0
 11
253.4909101639
 21
19.8382199988
 31
0.0
  0
LINE
  5
178
330
1F
100
AcDbEntity
  8
0
  6
Continuous
 62
     7
370
    25
100
AcDbLine
 10
253.8245188457
 20
20.462039918
 30
0.0
 11
254.1980169451
 21
20.2464240547
 31
0.0
  0
LINE
  5
179
330
1F
100
AcDbEntity
  8
0
  6
Continuous
 62
     7
370
    25
100
AcDbLine
 10
257.2622230142
 20
24.3666697554
 30
0.0
 11
258.9416016195
 21
23.3971851226
 31
0.0
  0
LINE
  5
17A
330
1F
100
AcDbEntity
  8
0
  6
Continuous
 62
     7
370
    25
100
AcDbLine
 10
254.5316256269
 20
20.8702439739
 30
0.0
 11
254.9051237263
 21
20.6546281106
 31
0.0
  0
LINE
  5
17B
330
1F
100
AcDbEntity
  8
0
  6
Continuous
 62
     7
370
    25
100
AcDbLine
 10
261.7700287443
 20
28.8012002718
 30
0.0
 11
260.4442035295
 21
29.5665828766
 31
0.0
  0
LINE
  5
17C
330
1F
100
AcDbEntity
  8
0
  6
Continuous
 62
     7
370
    25
100
AcDbLine
 10
256.3246932369
 20
24.7335767466
 30
0.0
 11
259.1477644134
 21
23.1038524461
 31
0.0
  0
LINE
  5
17D
330
1F
100
AcDbEntity
  8
0
  6
Continuous
 62
     7
370
    25
100
AcDbLine
 10
276.1773294109
 20
46.1340684945
 30
0.0
 11
276.1773294109
 21
46.0641206587
 31
0.0
  0
LINE
  5
17E
330
1F
100
AcDbEntity
  8
0
  6
Continuous
 62
     7
370
    25
100
AcDbLine
 10
263.8277799373
 20
58.0349098978
 30
0.0
 11
276.1773294109
 21
46.1340684945
 31
0.0
  0
LINE
  5
17F
330
1F
100
AcDbEntity
  8
0
  6
Continuous
 62
     7
370
    25
100
AcDbLine
 10
255.2292910183
 20
24.5495308754
 30
0.0
 11
255.4929278153
 21
24.3973365921
 31
0.0
  0
LINE
  5
180
330
1F
100
AcDbEntity
  8
0
  6
Continuous
 62
     7
370
    25
100
AcDbLine
 10
267.868824732
 20
32.321960254
 30
0.0
 11
264.7216880991
 21
34.1387635605
 31
0.0
  0
LINE
  5
181
330
1F
100
AcDbEntity
  8
0
  6
Continuous
 62
     7
370
    25
100
AcDbLine
 10
263.2726306543
 20
70.6279155927
 30
0.0
 11
263.2726306543
 21
70.0156095088
 31
0.0
  0
LINE
  5
182
330
1F
100
AcDbEntity
  8
0
  6
Continuous
 62
     7
370
    25
100
AcDbLine
 10
263.2726306543
 20
70.6279155927
 30
0.0
 11
262.7423005684
 21
70.9341681597
 31
0.0
  0
LINE
  5
183
330
1F
100
AcDbEntity
  8
0
  6
Continuous
 62
     7
370
    25
100
AcDbLine
 10
266.5429995173
 20
28.453722564
 30
0.0
 11
260.7084203663
 21
31.8219534131
 31
0.0
  0
LINE
  5
184
330
1F
100
AcDbEntity
  8
0
  6
Continuous
 62
     7
370
    25
100
AcDbLine
 10
266.5429995173
 20
31.5565776492
 30
0.0
 11
263.3958628843
 21
33.3733809556
 31
0.0
  0
LINE
  5
185
330
1F
100
AcDbEntity
  8
0
  6
Continuous
 62
     7
370
    25
100
AcDbLine
 10
268.2760407724
 20
29.4541859851
 30
0.0
 11
268.7527082085
 21
29.1790117315
 31
0.0
  0
LINE
  5
186
330
1F
100
AcDbEntity
  8
0
  6
Continuous
 62
     7
370
    25
100
AcDbLine
 10
268.1112514099
 20
29.3590551111
 30
0.0
 11
269.04725935
 21
28.8187092288
 31
0.0
  0
LINE
  5
187
330
1F
100
AcDbEntity
  8
0
  6
Continuous
 62
     7
370
    25
100
AcDbLine
 10
269.3808680318
 20
29.4425291481
 30
0.0
 11
269.7543661312
 21
29.2269132847
 31
0.0
  0
LINE
  5
188
330
1F
100
AcDbEntity
  8
0
  6
Continuous
 62
     7
370
    25
100
AcDbLine
 10
270.087974813
 20
29.850733204
 30
0.0
 11
270.4614729124
 21
29.6351173407
 31
0.0
  0
LINE
  5
189
330
1F
100
AcDbEntity
  8
0
  6
Continuous
 62
     7
370
    25
100
AcDbLine
 10
270.7950815941
 20
30.2589372599
 30
0.0
 11
271.1685796936
 21
30.0433213966
 31
0.0
  0
LINE
  5
18A
330
1F
100
AcDbEntity
  8
0
  6
Continuous
 62
     7
370
    25
100
AcDbLine
 10
271.5021883753
 20
30.6671413158
 30
0.0
 11
271.8756864748
 21
30.4515254525
 31
0.0
  0
LINE
  5
18B
330
1F
100
AcDbEntity
  8
0
  6
Continuous
 62
     7
370
    25
100
AcDbLine
 10
272.2092951565
 20
31.0753453717
 30
0.0
 11
272.582793256
 21
30.8597295084
 31
0.0
  0
ARC
  5
18C
330
1F
100
AcDbEntity
  8
0
  6
Continuous
 62
     7
370
    25
100
AcDbCircle
 10
265.070499892
 20
59.3373483834
 30
0.0
 40
1.800194126931487
100
AcDbArc
 50
182.9122311494
 51
226.3441175284
  0
LINE
  5
18D
330
1F
100
AcDbEntity
  8
0
  6
Continuous
 62
     7
370
    25
100
AcDbLine
 10
272.9164019377
 20
31.4835494276
 30
0.0
 11
273.2899000372
 21
31.2679335643
 31
0.0
  0
LINE
  5
18E
330
1F
100
AcDbEntity
  8
0
  6
Continuous
 62
     7
370
    25
100
AcDbLine
 10
273.6235087189
 20
31.8917534835
 30
0.0
 11
273.9970068184
 21
31.6761376202
 31
0.0
  0
LINE
  5
18F
330
1F
100
AcDbEntity
  8
0
  6
Continuous
 62
     7
370
    25
100
AcDbLine
 10
274.3306155001
 20
32.2999575394
 30
0.0
 11
274.7041135995
 21
32.0843416761
 31
0.0
  0
LINE
  5
190
330
1F
100
AcDbEntity
  8
0
  6
Continuous
 62
     7
370
    25
100
AcDbLine
 10
275.0377222813
 20
32.7081615953
 30
0.0
 11
275.4112203807
 21
32.492545732
 31
0.0
  0
LINE
  5
191
330
1F
100
AcDbEntity
  8
0
  6
Continuous
 62
     7
370
    25
100
AcDbLine
 10
275.7448290624
 20
33.1163656513
 30
0.0
 11
276.1183271619
 21
32.9007497879
 31
0.0
  0
LINE
  5
192
330
1F
100
AcDbEntity
  8
0
  6
Continuous
 62
     7
370
    18
100
AcDbLine
 10
239.0790425957
 20
43.7477679409
 30
0.0
 11
239.7776488873
 21
44.5375359226
 31
0.0
  0
LINE
  5
193
330
1F
100
AcDbEntity
  8
0
  6
Continuous
 62
     7
370
    18
100
AcDbLine
 10
263.4657260571
 20
58.2123717956
 30
0.0
 11
239.7776488873
 21
44.5375359226
 31
0.0
  0
LINE
  5
194
330
1F
100
AcDbEntity
  8
0
  6
Continuous
 62
     7
370
    18
100
AcDbLine
 10
238.5238933128
 20
44.9587455128
 30
0.0
 11
239.5845534845
 21
44.9587455128
 31
0.0
  0
LINE
  5
195
330
1F
100
AcDbEntity
  8
0
  6
Continuous
 62
     7
370
    18
100
AcDbLine
 10
263.2726306543
 20
58.6335813858
 30
0.0
 11
239.5845534845
 21
44.9587455128
 31
0.0
  0
LINE
  5
196
330
1F
100
AcDbEntity
  8
0
  6
Continuous
 62
     7
370
    18
100
AcDbLine
 10
257.2622230142
 20
28.0157027218
 30
0.0
 11
257.2622230142
 21
24.3666697554
 31
0.0
  0
LINE
  5
197
330
1F
100
AcDbEntity
  8
0
  6
Continuous
 62
     7
370
    18
100
AcDbLine
 10
252.514700919
 20
19.7971379392
 30
0.0
 11
252.5333430566
 21
19.7863760623
 31
0.0
  0
LINE
  5
198
330
1F
100
AcDbEntity
  8
0
  6
Continuous
 62
     7
370
    18
100
AcDbLine
 10
253.2218077002
 20
20.2053419951
 30
0.0
 11
253.2404498377
 21
20.1945801182
 31
0.0
  0
LINE
  5
199
330
1F
100
AcDbEntity
  8
0
  6
Continuous
 62
     7
370
    18
100
AcDbLine
 10
253.9289144813
 20
20.6135460511
 30
0.0
 11
253.9475566189
 21
20.6027841741
 31
0.0
  0
LINE
  5
19A
330
1F
100
AcDbEntity
  8
0
  6
Continuous
 62
     7
370
    18
100
AcDbLine
 10
254.6360212625
 20
21.021750107
 30
0.0
 11
254.6546634001
 21
21.01098823
 31
0.0
  0
LINE
  5
19B
330
1F
100
AcDbEntity
  8
0
  6
Continuous
 62
     7
370
    18
100
AcDbLine
 10
263.8277799373
 20
58.0349098978
 30
0.0
 11
263.4657260571
 21
58.2123717956
 31
0.0
  0
LINE
  5
19C
330
1F
100
AcDbEntity
  8
0
  6
Continuous
 62
     7
370
    18
100
AcDbLine
 10
268.7781568863
 20
29.1858312252
 30
0.0
 11
268.7967990238
 21
29.1750693482
 31
0.0
  0
LINE
  5
19D
330
1F
100
AcDbEntity
  8
0
  6
Continuous
 62
     7
370
    18
100
AcDbLine
 10
269.4852636675
 20
29.5940352811
 30
0.0
 11
269.503905805
 21
29.5832734042
 31
0.0
  0
LINE
  5
19E
330
1F
100
AcDbEntity
  8
0
  6
Continuous
 62
     7
370
    18
100
AcDbLine
 10
270.1923704486
 20
30.002239337
 30
0.0
 11
270.2110125862
 21
29.9914774601
 31
0.0
  0
LINE
  5
19F
330
1F
100
AcDbEntity
  8
0
  6
Continuous
 62
     7
370
    18
100
AcDbLine
 10
270.8994772298
 20
30.4104433929
 30
0.0
 11
270.9181193674
 21
30.399681516
 31
0.0
  0
LINE
  5
1A0
330
1F
100
AcDbEntity
  8
0
  6
Continuous
 62
     7
370
    18
100
AcDbLine
 10
271.606584011
 20
30.8186474488
 30
0.0
 11
271.6252261486
 21
30.8078855719
 31
0.0
  0
LINE
  5
1A1
330
1F
100
AcDbEntity
  8
0
  6
Continuous
 62
     7
370
    18
100
AcDbLine
 10
272.3136907922
 20
31.2268515048
 30
0.0
 11
272.3323329298
 21
31.2160896278
 31
0.0
  0
LINE
  5
1A2
330
1F
100
AcDbEntity
  8
0
  6
Continuous
 62
     7
370
    18
100
AcDbLine
 10
273.0207975734
 20
31.6350555607
 30
0.0
 11
273.039439711
 21
31.6242936837
 31
0.0
  0
LINE
  5
1A3
330
1F
100
AcDbEntity
  8
0
  6
Continuous
 62
     7
370
    18
100
AcDbLine
 10
273.7279043546
 20
32.0432596166
 30
0.0
 11
273.7465464922
 21
32.0324977396
 31
0.0
  0
LINE
  5
1A4
330
1F
100
AcDbEntity
  8
0
  6
Continuous
 62
     7
370
    18
100
AcDbLine
 10
274.4350111358
 20
32.4514636725
 30
0.0
 11
274.4536532733
 21
32.4407017955
 31
0.0
  0
LINE
  5
1A5
330
1F
100
AcDbEntity
  8
0
  6
Continuous
 62
     7
370
    18
100
AcDbLine
 10
275.1421179169
 20
32.8596677284
 30
0.0
 11
275.1607600545
 21
32.8489058514
 31
0.0
  0
LINE
  5
1A6
330
1F
100
AcDbEntity
  8
0
  6
Continuous
 62
     7
370
    18
100
AcDbLine
 10
275.8492246981
 20
33.2678717843
 30
0.0
 11
275.8678668357
 21
33.2571099074
 31
0.0
  0
OLE2FRAME
  5
1A7
330
1F
100
AcDbEntity
  8
0
100
AcDbOle2Frame
 70
     2
  3
Paintbrush-Bild
 10
13.8511154363
 20
38.264191557
 30
0.0
 11
51.6290888628
 21
31.9806341108
 31
0.0
 71
     2
 72
     0
 73
     1
 90
    12928
310
80552BED0767C5B32B40DDAF6807D121434000000000000000006FFBDDFB85D0
310
4940DDAF6807D121434000000000000000006FFBDDFB85D04940416F4BD60AFB
310
3F4000000000000000002BED0767C5B32B40416F4BD60AFB3F40000000000000
310
0000000000000100000000010000010000000100000000000100000000320000
310
D0CF11E0A1B11AE1000000000000000000000000000000003E000300FEFF0900
310
0600000000000000000000000100000001000000000000000010000002000000
310
01000000FEFFFFFF0000000000000000FFFFFFFFFFFFFFFFFFFFFFFFFFFFFFFF
310
FFFFFFFFFFFFFFFFFFFFFFFFFFFFFFFFFFFFFFFFFFFFFFFFFFFFFFFFFFFFFFFF
310
FFFFFFFFFFFFFFFFFFFFFFFFFFFFFFFFFFFFFFFFFFFFFFFFFFFFFFFFFFFFFFFF
310
FFFFFFFFFFFFFFFFFFFFFFFFFFFFFFFFFFFFFFFFFFFFFFFFFFFFFFFFFFFFFFFF
310
FFFFFFFFFFFFFFFFFFFFFFFFFFFFFFFFFFFFFFFFFFFFFFFFFFFFFFFFFFFFFFFF
310
FFFFFFFFFFFFFFFFFFFFFFFFFFFFFFFFFFFFFFFFFFFFFFFFFFFFFFFFFFFFFFFF
310
FFFFFFFFFFFFFFFFFFFFFFFFFFFFFFFFFFFFFFFFFFFFFFFFFFFFFFFFFFFFFFFF
310
FFFFFFFFFFFFFFFFFFFFFFFFFFFFFFFFFFFFFFFFFFFFFFFFFFFFFFFFFFFFFFFF
310
FFFFFFFFFFFFFFFFFFFFFFFFFFFFFFFFFFFFFFFFFFFFFFFFFFFFFFFFFFFFFFFF
310
FFFFFFFFFFFFFFFFFFFFFFFFFFFFFFFFFFFFFFFFFFFFFFFFFFFFFFFFFFFFFFFF
310
FFFFFFFFFFFFFFFFFFFFFFFFFFFFFFFFFFFFFFFFFFFFFFFFFFFFFFFFFFFFFFFF
310
FFFFFFFFFFFFFFFFFFFFFFFFFFFFFFFFFFFFFFFFFFFFFFFFFFFFFFFFFFFFFFFF
310
FFFFFFFFFFFFFFFFFFFFFFFFFFFFFFFFFFFFFFFFFFFFFFFFFFFFFFFFFFFFFFFF
310
FFFFFFFFFFFFFFFFFFFFFFFFFFFFFFFFFFFFFFFFFFFFFFFFFFFFFFFFFFFFFFFF
310
FDFFFFFFFEFFFFFFFEFFFFFFFEFFFFFF05000000060000000700000008000000
310
090000000A0000000B0000000C0000000D0000000E0000000F00000010000000
310
11000000120000001300000014000000150000001600000017000000FEFFFFFF
310
FFFFFFFFFFFFFFFFFFFFFFFFFFFFFFFFFFFFFFFFFFFFFFFFFFFFFFFFFFFFFFFF
310
FFFFFFFFFFFFFFFFFFFFFFFFFFFFFFFFFFFFFFFFFFFFFFFFFFFFFFFFFFFFFFFF
310
FFFFFFFFFFFFFFFFFFFFFFFFFFFFFFFFFFFFFFFFFFFFFFFFFFFFFFFFFFFFFFFF
310
FFFFFFFFFFFFFFFFFFFFFFFFFFFFFFFFFFFFFFFFFFFFFFFFFFFFFFFFFFFFFFFF
310
FFFFFFFFFFFFFFFFFFFFFFFFFFFFFFFFFFFFFFFFFFFFFFFFFFFFFFFFFFFFFFFF
310
FFFFFFFFFFFFFFFFFFFFFFFFFFFFFFFFFFFFFFFFFFFFFFFFFFFFFFFFFFFFFFFF
310
FFFFFFFFFFFFFFFFFFFFFFFFFFFFFFFFFFFFFFFFFFFFFFFFFFFFFFFFFFFFFFFF
310
FFFFFFFFFFFFFFFFFFFFFFFFFFFFFFFFFFFFFFFFFFFFFFFFFFFFFFFFFFFFFFFF
310
FFFFFFFFFFFFFFFFFFFFFFFFFFFFFFFFFFFFFFFFFFFFFFFFFFFFFFFFFFFFFFFF
310
FFFFFFFFFFFFFFFFFFFFFFFFFFFFFFFFFFFFFFFFFFFFFFFFFFFFFFFFFFFFFFFF
310
FFFFFFFFFFFFFFFFFFFFFFFFFFFFFFFFFFFFFFFFFFFFFFFFFFFFFFFFFFFFFFFF
310
FFFFFFFFFFFFFFFFFFFFFFFFFFFFFFFFFFFFFFFFFFFFFFFFFFFFFFFFFFFFFFFF
310
FFFFFFFFFFFFFFFFFFFFFFFFFFFFFFFFFFFFFFFFFFFFFFFFFFFFFFFFFFFFFFFF
310
52006F006F007400200045006E00740072007900000000000000000000000000
310
0000000000000000000000000000000000000000000000000000000000000000
310
16000500FFFFFFFFFFFFFFFF020000000A00030000000000C000000000000046
310
00000000000000000000000030B71176AC61D60103000000C000000000000000
310
01004F006C006500000000000000000000000000000000000000000000000000
310
0000000000000000000000000000000000000000000000000000000000000000
310
0A000200FFFFFFFFFFFFFFFFFFFFFFFF00000000000000000000000000000000
310
0000000000000000000000000000000000000000000000001400000000000000
310
010043006F006D0070004F0062006A0000000000000000000000000000000000
310
0000000000000000000000000000000000000000000000000000000000000000
310
120002010100000003000000FFFFFFFF00000000000000000000000000000000
310
0000000000000000000000000000000000000000010000004D00000000000000
310
01004F006C006500310030004E00610074006900760065000000000000000000
310
0000000000000000000000000000000000000000000000000000000000000000
310
1A000200FFFFFFFFFFFFFFFFFFFFFFFF00000000000000000000000000000000
310
0000000000000000000000000000000000000000040000002426000000000000
310
FEFFFFFF02000000FEFFFFFFFFFFFFFFFFFFFFFFFFFFFFFFFFFFFFFFFFFFFFFF
310
FFFFFFFFFFFFFFFFFFFFFFFFFFFFFFFFFFFFFFFFFFFFFFFFFFFFFFFFFFFFFFFF
310
FFFFFFFFFFFFFFFFFFFFFFFFFFFFFFFFFFFFFFFFFFFFFFFFFFFFFFFFFFFFFFFF
310
FFFFFFFFFFFFFFFFFFFFFFFFFFFFFFFFFFFFFFFFFFFFFFFFFFFFFFFFFFFFFFFF
310
FFFFFFFFFFFFFFFFFFFFFFFFFFFFFFFFFFFFFFFFFFFFFFFFFFFFFFFFFFFFFFFF
310
FFFFFFFFFFFFFFFFFFFFFFFFFFFFFFFFFFFFFFFFFFFFFFFFFFFFFFFFFFFFFFFF
310
FFFFFFFFFFFFFFFFFFFFFFFFFFFFFFFFFFFFFFFFFFFFFFFFFFFFFFFFFFFFFFFF
310
FFFFFFFFFFFFFFFFFFFFFFFFFFFFFFFFFFFFFFFFFFFFFFFFFFFFFFFFFFFFFFFF
310
FFFFFFFFFFFFFFFFFFFFFFFFFFFFFFFFFFFFFFFFFFFFFFFFFFFFFFFFFFFFFFFF
310
FFFFFFFFFFFFFFFFFFFFFFFFFFFFFFFFFFFFFFFFFFFFFFFFFFFFFFFFFFFFFFFF
310
FFFFFFFFFFFFFFFFFFFFFFFFFFFFFFFFFFFFFFFFFFFFFFFFFFFFFFFFFFFFFFFF
310
FFFFFFFFFFFFFFFFFFFFFFFFFFFFFFFFFFFFFFFFFFFFFFFFFFFFFFFFFFFFFFFF
310
FFFFFFFFFFFFFFFFFFFFFFFFFFFFFFFFFFFFFFFFFFFFFFFFFFFFFFFFFFFFFFFF
310
FFFFFFFFFFFFFFFFFFFFFFFFFFFFFFFFFFFFFFFFFFFFFFFFFFFFFFFFFFFFFFFF
310
FFFFFFFFFFFFFFFFFFFFFFFFFFFFFFFFFFFFFFFFFFFFFFFFFFFFFFFFFFFFFFFF
310
FFFFFFFFFFFFFFFFFFFFFFFFFFFFFFFFFFFFFFFFFFFFFFFFFFFFFFFFFFFFFFFF
310
0100000200000000000000000000000000000000000000000000000000000000
310
0000000000000000000000000000000000000000000000000000000000000000
310
0100FEFF030A0000FFFFFFFF0A00030000000000C00000000000004607000000
310
5042727573680007000000504272757368000700000050427275736800F439B2
310
7100000000000000000000000000000000000000000000000000000000000000
310
0000000000000000000000000000000000000000000000000000000000000000
310
0000000000000000000000000000000000000000000000000000000000000000
310
0000000000000000000000000000000000000000000000000000000000000000
310
0000000000000000000000000000000000000000000000000000000000000000
310
0000000000000000000000000000000000000000000000000000000000000000
310
0000000000000000000000000000000000000000000000000000000000000000
310
0000000000000000000000000000000000000000000000000000000000000000
310
0000000000000000000000000000000000000000000000000000000000000000
310
0000000000000000000000000000000000000000000000000000000000000000
310
0000000000000000000000000000000000000000000000000000000000000000
310
0000000000000000000000000000000000000000000000000000000000000000
310
20260000424D0E260000000000003E00000028000000B40200006E0000000100
310
01000000000000000000130B0000130B00000200000002000000000000FFFFFF
310
FFFFFFFFFFFFFFFFFFFFFFFFFFFFFFFFFFFFFFFFFFFFFFFFFFFFFFFFFFFFFFFF
310
FFFFFFFFFFFFFFFFFFFFFFFFFFFFFFFFFFFFFFFFFFFFFFFFFFFFFFFFFFFFFFFF
310
FFFFFFFFFFFFFFFFFFFFFFFFFFFFFFFFFFFFFFFFFFFFFFFFF000FFFFFFFFFFFF
310
FFFFFFFFFFFFFFFFFFFFFFFFFFFFFFFFFFFFFFFFFFFFFFFFFFFFFFFFFFFFFFFF
310
FFFFFFFFFFFFFFFFFFFFFFFFFFFFFFFFFFFFFFFFFFFFFFFFFFFFFFFFFFFFFFFF
310
FFFFFFFFFFFFFFFFFFFFFFFFFFFFFFFFF000FFFFFFFFFFFFFFFFFFFFFFFFFFFF
310
FFFFFFFFFFFFFFFFFFFFFFFFFFFFFFFFFFFFFFFFFFFFFFFFFFFFFFFFFFFFFFFF
310
FFFFFFFFFFFFFFFFFFFFFFFFFFFFFFFFFFFFFFFFFFFFFFFFFFFFFFFFFFFFFFFF
310
FFFFFFFFFFFFFFFFF000FFFFFFFFFFFFFFFFFFFFFFFFFFFFFFFFFFFFFFFFFFFF
310
FFFFFFFFFFFFFFFFFFFFFFFFFFFFFFFFFFFFFFFFFFFFFFFFFFFFFFFFFFFFFFFF
310
FFFFFFFFFFFFFFFFFFFFFFFFFFFFFFFFFFFFFFFFFFFFFFFFFFFFFFFFFFFFFFFF
310
F000FFFFFFFFFFFFFFFFFFFFFFFFFFFFFFFFFFFFFFFFFFFFFFFFFFFFFFFFFFFF
310
FFFFFFFFFFFFFFFFFFFFFFFFFFFFFFFFFFFFFFFFFFFFFFFFFFFFFFFFFFFFFFFF
310
FFFFFFFFFFFFFFFFFFFFFFFFFFFFFFFFFFFFFFFFFFFFFFFFF000FFFFFFFFFFFF
310
FFFFFFFFFFFFFFFFFFFFFFFFFFFFFFFFFFFFFFFFFFFFFFFFFFFFFFFFFFFFFFFF
310
FFFFFFFFFFFFFFFFFFFFFFFFFFFFFFFFFFFFFFFFFFFFFFFFFFFFFFFFFFFFFFFF
310
FFFFFFFFFFFFFFFFFFFFFFFFFFFFFFFFF000FFFFFFFFFFFFFFFFFFFFFFFFFFFF
310
FFFFFFFFFFFFFFFFFFFFFFFFFFFFFFFFFFFFFFFFFFFFFFFFFFFFFFFFFFFFFFFF
310
FFFFFFFFFFFFFFFFFFFFFFFFFFFFFFFFFFFFFFFFFFFFFFFFFFFFFFFFFFFFFFFF
310
FFFFFFFFFFFFFFFFF000FFFFFFFFFFFFFFFFFFFFFFFFFFFFFFFFFFFFFFFFFFFF
310
FFFFFFFFFFFFFFFFFFFFFFFFFFFFFFFFFFFFFFFFFFFFFFFFFFFFFFFFFFFFFFFF
310
FFFFFFFFFFFFFFFFFFFFFFFFFFFFFFFFFFFFFFFFFFFFFFFFFFFFFFFFFFFFFFFF
310
F000FFFFFFFFFFFFFFFFFFFFFFFFFFFFFFFFFFFFFFFFFFFFFFFFFFFFFFFFFFFF
310
FFFFFFFFFFFFFFFFFFFFFFFFFFFFFFFFFFFFFFFFFFFFFFFFFFFFFFFFFFFFFFFF
310
FFFFFFFFFFFFFFFFFFFFFFFFFFFFFFFFFFFFFFFFFFFFFFFFF000FFFFFFFFFFFF
310
FFFFFFFFFFFFFFFFFFFFFFFFFFFFFFFFFFFFFFFFFFFFFFFFFFFFFFFFFFFFFFFF
310
FFFFFFFFFFFFFFFFFFFFFFFFFFFFFFFFFFFFFFFFFFFFFFFFFFFFFFFFFFFFFFFF
310
FFFFFFFFFFFFFFFFFFFFFFFFFFFFFFFFF000FFFFFFFFFFFFFFFFFFFFFFFFFFFF
310
FFFFFFFFFFFFFFFFFFFFFFFFFFFFFFFFFFFFFFFFFFFFFFFFFFFFFFFFFFFFFFFF
310
FFFFFFFFFFFFFFFFFFFFFFFFFFFFFFFFFFFFFFFFFFFFFFFFFFFFFFFFFFFFFFFF
310
FFFFFFFFFFFFFFFFF000FFFFFFFFFFFFFFFFFFFFFFFFFFFFFFFFFFFFFFFFFFFF
310
FFFFFFFFFFFFFFFFFFFFFFFFFFFFFFFFFFFFFFFFFFFFFFFFFFFFFFFFFFFFFFFF
310
FFFFFFFFFFFFFFFFFFFFFFFFFFFFFFFFFFFFFFFFFFFFFFFFFFFFFFFFFFFFFFFF
310
F000FFFFFFFFFFFFFFFFFFFFFFFFFFFFFFFFFFFFFFFFFFFFFFFFFFFFFFFFFFFF
310
FFFFFFFFFFFFFFFFFFFFFFFFFFFFFFFFFFFFFFFFFFFFFFFFFFFFFFFFFFFFFFFF
310
FFFFFFFFFFFFFFFFFFFFFFFFFFFFFFFFFFFFFFFFFFFFFFFFF000FFFFFFFFFFFF
310
FFFFFFFFFFFFFFFFFFFFFFFFFFFFFFFFFFFFFFFFFFFFFFFFFFFFFFFFFFFFFFFF
310
FFFFFFFFFFFFFFFFFFFFFFFFFFFFFFFFFFFFFFFFFFFFFFFFFFFFFFFFFFFFFFFF
310
FFFFFFFFFFFFFFFFFFFFFFFFFFFFFFFFF000FFFFFFFFFFFFFFFFFFFFFFFFFFFF
310
FFFFFFFFFFFFFFFFFFFFFFFFFFFFFFFFFFFFFFFFFFFFFFFFFFFFFFFFFFFFFFFF
310
FFFFFFFFFFFFFFFFFFFFFFFFFFFFFFFFFFFFFFFFFFFFFFFFFFFFFFFFFFFFFFFF
310
FFFFFFFFFFFFFFFFF000FFFFFFFFFFFFFFFFFFFFFFFFFFFFFFFFFFFFFFFFFFFF
310
FFFFFFFFFFFFFFFFFFFFFFFFFFFFFFFFFFFFFFFFFFFFFFFFFFFFFFFFFFFFFFFF
310
FFFFFFFFFFFFFFFFFFFFFFFFFFFFFFFFFFFFFFFFFFFFFFFFFFFFFFFFFFFFFFFF
310
F000FFFFFFFFFFFFFFFFFFFFFFFFFFFFFFFFFFFFFFFFFFFFFFFFFFFFFFFFFFFF
310
FFFFFFFFFFFFFFFFFFFFFFFFFFFFFFFFFFFFFFFFFFFFFFFFFFFFFFFFFFFFFFFF
310
FFFFFFFFFFFFFFFFFFFFFFFFFFFFFFFFFFFFFFFFFFFFFFFFF000FFFFFFFFFFFF
310
FFFFFFFFFFFFFFFFFFFFFFFFFFFFFFFFFFFFFFFFFFFFFFFFFFFFFFFFFFFFFFFF
310
FFFFFFFFFFFFFFFFFFFFFFFFFFFFFFFFFFFFFFFFFFFFFFFFFFFFFFFFFFFFFFFF
310
FFFFFFFFFFFFFFFFFFFFFFFFFFFFFFFFF000FFFFFFFFFFFFFFFFFFFFFFFFFFFF
310
FFFFFFFFFFFFFFFFFFFFFFFFFFFFFFFFFFFFFFFFFFFFFFFFFFFFFFFFFFFFFFFF
310
FFFFFFFFFFFFFFFFFFFFFFFFFFFFFFFFFFFFFFFFFFFFFFFFFFFFFFFFFFFFFFFF
310
FFFFFFFFFFFFFFFFF000FFFFF80003FFFFFFFFFFFFFFFFFFFFFFFFFFFFFFFFFF
310
FFFFF00007FFFFFFFFFF00007FFFFFF800000000000000007FFFFFFFFFFFFFFF
310
FFFFFFFC001FFFFFFFFFFFFFFC001FFFFFFFFFFFFFFFFFFFFFFFFFFE0007FFFF
310
F000FFFF8000007FFFFFFFF8000FFFFFC0007FFFFF80007FFFFF0000007FFFFF
310
FFF8000007FFFFF800000000000000007FFFFFF0001FFFFFFFFFFFC00001FFFF
310
FFFFFFFFC00001FFFFFFFF000000000003FFFFE000007FFFF000FFFE0000000F
310
FFFFFFF0000FFFFF80007FFFFF80007FFFFC0000001FFFFFFFC0000001FFFFF8
310
00000000000000007FFFFFF0001FFFFFFFFFFE0000003FFFFFFFFFFE0000003F
310
FFFFFF000000000003FFFF0000000FFFF000FFF800000003FFFFFFF00007FFFF
310
80007FFFFF80007FFFF000000007FFFFFF000000003FFFF80000000000000000
310
7FFFFFF0001FFFFFFFFFF80000000FFFFFFFFFF80000000FFFFFFF0000000000
310
03FFFC00000003FFF000FFE000000000FFFFFFF00007FFFF80003FFFFF80007F
310
FFC000000001FFFFFC000000001FFFF800000000000000007FFFFFF0001FFFFF
310
FFFFE000000003FFFFFFFFE000000003FFFFFF000000000003FFF000000000FF
310
F000FF80000000007FFFFFF00007FFFF80003FFFFF80007FFF8000000000FFFF
310
F80000000007FFF800000000000000007FFFFFF0001FFFFFFFFFC000000001FF
310
FFFFFFC000000001FFFFFF000000000003FFC0000000007FF000FF0000000000
310
3FFFFFE00007FFFF00003FFFFF80007FFE00000000003FFFF00000000003FFF8
310
00000000000000007FFFFFF0001FFFFFFFFF8000000000FFFFFFFF8000000000
310
FFFFFF000000000003FF80000000003FF000FE00000000001FFFFFE00003FFFF
310
00003FFFFF80007FFC00000000001FFFE00000000001FFF8000001FFFE000000
310
7FFFFFF0001FFFFFFFFE00000000003FFFFFFE00000000003FFFFF0000000000
310
03FF00000000001FF000FC00000000000FFFFFE00003FFFF00001FFFFF80007F
310
F800000000001FFFC00000000000FFF8000001FFFE0000007FFFFFF0001FFFFF
310
FFFC00000000001FFFFFFC00000000001FFFFF000000000003FE00000000000F
310
F000F8000000000007FFFFE00003FFFF00001FFFFF80007FF800000000000FFF
310
800000000000FFF8000001FFFE0000007FFFFFF0001FFFFFFFF800000000000F
310
FFFFF800000000000FFFFF000000000003FC000000000007F000F80000000000
310
03FFFFC00003FFFE00001FFFFF80007FF0000000000007FF0000000000007FF8
310
000001FFFE0000007FFFFFF0001FFFFFFFF0000000000007FFFFF00000000000
310
07FFFF000000000003F8000000000003F000F0000000000003FFFFC00001FFFE
310
00001FFFFF80007FE0000000000007FE0000000000003FF8000001FFFE000000
310
7FFFFFF0001FFFFFFFF0000000000007FFFFF0000000000007FFFF0000000000
310
03F800001F800003F000E00001FFF00001FFFFC00001FFFE00000FFFFF80007F
310
E00001FFE00003FE00001FFF00003FF8000001FFFE0000007FFFFFF0001FFFFF
310
FFE000003E000003FFFFE000003E000003FFFF000000000003F00001FFF80001
310
F000E00007FFFC0001FFFFC00001FFFE00000FFFFF80007FC0000FFFFC0003FC
310
0000FFFFC0001FF8000001FFFE0000007FFFFFF0001FFFFFFFC00003FFE00001
310
FFFFC00003FFE00001FFFF0001FFFFFFFFF00007FFFE0001F000E0000FFFFF00
310
00FFFF800001FFFC00000FFFFF80007FC0001FFFFE0001FC0001FFFFE0001FF8
310
000001FFFE0000007FFFFFF0001FFFFFFF80000FFFF80000FFFF80000FFFF800
310
00FFFF0003FFFFFFFFE0000FFFFF8000F000C0003FFFFF8000FFFF800000FFFC
310
000007FFFF80007F80003FFFFF0001FC0003FFFFF0001FF8000001FFFE000000
310
7FFFFFF0001FFFFFFF80003FFFFE0000FFFF80003FFFFE0000FFFF0003FFFFFF
310
FFE0003FFFFF8000F000C0003FFFFF8000FFFF800000FFFC000007FFFF80007F
310
80007FFFFF8001F80007FFFFF8000FF8000001FFFE0000007FFFFFF0001FFFFF
310
FF00007FFFFF00007FFF00007FFFFF00007FFF0003FFFFFFFFE0003FFFFFC000
310
F000C0007FFFFFC000FFFF000000FFFC000007FFFF80007F8000FFFFFF8000F8
310
000FFFFFF8000FF8000001FFFE0000007FFFFFF0001FFFFFFF0000FFFFFF8000
310
7FFF0000FFFFFF80007FFF0003FFFFFFFFC0007FFFFFC00070008000FFFFFFC0
310
00FFFF000000FFF8000007FFFF80007F8000FFFFFF8000F8000FFFFFF8000FF8
310
000001FFFE0000007FFFFFF0001FFFFFFE0001FFFFFFC0003FFE0001FFFFFFC0
310
003FFF0003FFFFFFFFC0007FFFFFE00070008000FFFFFFC0007FFF0000007FF8
310
000003FFFF80007F0001FFFFFF8000F8000FFFFFF8000FF8000001FFFE000000
310
7FFFFFF0001FFFFFFE0001FFFFFFC0003FFE0001FFFFFFC0003FFF0003FFFFFF
310
FFC000FFFFFFE00070008000FFFFFFC0007FFF0000007FF8000003FFFF80007F
310
0001FFFFFF8000F8001FFFFFF8000FF8000001FFFE0000007FFFFFF0001FFFFF
310
FE0003FFFFFFE0003FFE0003FFFFFFE0003FFF0003FFFFFFFFC000FFFFFFE000
310
70008000FFFFFFC0007FFE0000007FF8000003FFFF80007F0001FFFFFF8000F0
310
001FFFFFF8000FF8000001FFFE0000007FFFFFF0001FFFFFFC0003FFFFFFE000
310
1FFC0003FFFFFFE0001FFF0003FFFFFFFFC000FFFFFFC00070008000FFFFFF80
310
007FFE0000007FF0000003FFFF80007F0001FFFFFF0000F0001FFFFFF8000FF8
310
000001FFFE0000007FFFFFF0001FFFFFFC0007FFFFFFF0001FFC0007FFFFFFF0
310
001FFF0003FFFFFFFFC000FFFFFFC00070008001FFFFFF0000FFFE0000003FF0
310
000001FFFF80007F0001FFFFFF0000F8001FFFFFF0000FF8000001FFFE000000
310
7FFFFFF0001FFFFFFC0007FFFFFFF0001FFC0007FFFFFFF0001FFF0003FFFFFF
310
FFC001FFFFFF80007000FFFFFFFFFE0000FFFE0008003FF0008001FFFF80007F
310
FFFFFFFFFC0000FFFFFFFFFFE0000FF8000001FFFE0000007FFFFFF0001FFFFF
310
F8000FFFFFFFF8000FF8000FFFFFFFF8000FFF0003FFFFFFFFFFFFFFFFFF0000
310
7000FFFFFFFFFC0000FFFC0008003FF0008001FFFF80007FFFFFFFFFF80001FF
310
FFFFFFFF80000FF8000001FFFE0000007FFFFFF0001FFFFFF8000FFFFFFFF800
310
0FF8000FFFFFFFF8000FFF0003FFFFFFFFFFFFFFFFFE0000F000FFFFFFFFE000
310
00FFFC000C003FE000C001FFFF80007FFFFFFFFFC00001FFFFFFFFFE00001FF8
310
000001FFFE0000007FFFFFF0001FFFFFF8000FFFFFFFF8000FF8000FFFFFFFF8
310
000FFF0003FFFFFFFFFFFFFFFFF00000F000FFFFFFFE000001FFFC000C001FE0
310
00C000FFFF80007FFFFFFFFE000001FFFFFFFFE000001FF80FFFFFFFFFFFFFC0
310
7FFFFFF0001FFFFFF8000FFFFFFFF8000FF8000FFFFFFFF8000FFF0003FFFFFF
310
FFFFFFFFFF800000F000FFFFFFC0000001FFFC001C001FE001C000FFFF80007F
310
FFFFFF80000003FFFFFFF80000001FF80FFFFFFFFFFFFFC07FFFFFF0001FFFFF
310
F8001FFFFFFFFC000FF8001FFFFFFFFC000FFF0003FFFFFFFFFFFFFFF0000001
310
F000FFFFF800000001FFF8001C001FE001C000FFFF80007FFFFFF800000003FF
310
FFFF800000003FF80FFFFFFFFFFFFFC07FFFFFF0001FFFFFF8001FFFFFFFFC00
310
0FF8001FFFFFFFFC000FFF0003FFFFFFFFFFFFFE00000001F000FFFFC0000000
310
03FFF8001E001FC001E000FFFF80007FFFFF8000000007FFFFFC000000003FF8
310
0FFFFFFFFFFFFFC07FFFFFF0001FFFFFF8001FFFFFFFFC000FF8001FFFFFFFFC
310
000FFF0003FFFFFFFFFFFFE000000003F000FFFE0000000007FFF8001E000FC0
310
01E0007FFF80007FFFFE0000000007FFFFE0000000007FF80FFFFFFFFFFFFFC0
310
7FFFFFF0001FFFFFF0001FFFFFFFFC0007F0001FFFFFFFFC0007FF0003FFFFFF
310
FFFFFF0000000003F000FFF80000000007FFF8001E000FC003E0007FFF80007F
310
FFF0000000000FFFFF8000000000FFF80FFFFFFFFFFFFFC07FFFFFF0001FFFFF
310
F0001FFFFFFFFC0007F0001FFFFFFFFC0007FF0003FFFFFFFFFFFC0000000007
310
F000FFE0000000000FFFF0003E000FC003E0007FFF80007FFFC0000000001FFF
310
FE0000000001FFF80FFFFFFFFFFFFFC07FFFFFF0001FFFFFF0001FFFFFFFFC00
310
07F0001FFFFFFFFC0007FF0003FFFFFFFFFFF0000000000FF000FFC000000000
310
1FFFF0003F000F8003F0003FFF80007FFF80000000003FFFF80000000003FFF8
310
0FFFFFFFFFFFFFC07FFFFFF0001FFFFFF0001FFFFFFFFC0007F0001FFFFFFFFC
310
0007FF0003FFFFFFFFFFE0000000001FF000FF00000000007FFFF0003F000780
310
03F0003FFF80007FFF00000000007FFFF00000000007FFF80FFFFFFFFFFFFFC0
310
7FFFFFF0001FFFFFF0001FFFFFFFFC0007F0001FFFFFFFFC0007FF0003FFFFFF
310
FFFF80000000007FF000FE0000000000FFFFE0003F00078007F0003FFF80007F
310
FE0000000001FFFFE0000000001FFFF80FFFFFFFFFFFFFC07FFFFFF0001FFFFF
310
F0001FFFFFFFFC0007F0001FFFFFFFFC0007FF0003FFFFFFFFFF0000000000FF
310
F000FC0000000003FFFFE0007F00078007F0003FFF80007FFC0000000007FFFF
310
C0000000007FFFF80FFFFFFFFFFFFFC07FFFFFF0001FFFFFF8001FFFFFFFFC00
310
0FF8001FFFFFFFFC000FFF0003FFFFFFFFFE0000000003FFF000FC000000000F
310
FFFFE0007F80070007F8001FFF80007FF8000000001FFFFF8000000001FFFFF8
310
0FFFFFFFFFFFFFC07FFFFFF0001FFFFFF8001FFFFFFFFC000FF8001FFFFFFFFC
310
000FFF0003FFFFFFFFFC000000000FFFF000F8000000007FFFFFE0007F800700
310
07F8001FFF80007FF000000000FFFFFF800000000FFFFFF80FFFFFFFFFFFFFC0
310
7FFFFFF0001FFFFFF8000FFFFFFFF8000FF8000FFFFFFFF8000FFF0003FFFFFF
310
FFFC000000007FFFF000F800000007FFFFFFC0007F8003000FF8001FFF80007F
310
F000000007FFFFFF000000007FFFFFF80FFFFFFFFFFFFFC07FFFFFF0001FFFFF
310
F8000FFFFFFFF8000FF8000FFFFFFFF8000FFF0003FFFFFFFFF80000000FFFFF
310
F000F0000000FFFFFFFFC000FF8003000FF8001FFF80007FE0000000FFFFFFFF
310
0000000FFFFFFFF8000001FFFE0000007FFFFFF0001FFFFFF8000FFFFFFFF800
310
0FF8000FFFFFFFF8000FFF0003FFFFFFFFF8000000FFFFFFF000F000000FFFFF
310
FFFFC000FFC002000FF8000FFF80007FE000001FFFFFFFFE000001FFFFFFFFF8
310
000001FFFE0000007FFFFFF0001FFFFFF8000FFFFFFFF8000FF8000FFFFFFFF8
310
000FFF0003FFFFFFFFF000001FFFFFFFF000E00000FFFFFFFFFFC000FFC00200
310
0FFC000FFF80007FE00001FFFFFFFFFE00001FFFFFFFFFF8000001FFFE000000
310
7FFFFFF0001FFFFFFC000FFFFFFFF8001FFC000FFFFFFFF8001FFF0003FFFFFF
310
FFF00001FFFFFFFFF000E00007FFFFFFFFFF8000FFC000001FFC000FFF80007F
310
C0000FFFFFFFFFFE0000FFFFFFFFFFF8000001FFFE0000007FFFFFF0001FFFFF
310
FC0007FFFFFFF0001FFC0007FFFFFFF0001FFF0003FFFFFFFFF00007FFFFFFFF
310
F000E0001FFFFFFFFFFF8000FFC000001FFC000FFF80007FC0003FFFFFFFFFFE
310
0001FFFFFFFFFFF8000001FFFE0000007FFFFFF0001FFFFFFC0007FFFFFFF000
310
1FFC0007FFFFFFF0001FFF0003FFFFFFFFF0001FFFFFFFFFF000E0003FFFFF00
310
03FF8001FFE000001FFC0007FF80007FC0007FFFFF0007FC0003FFFFF0003FF8
310
000001FFFE0000007FFFFFF0001FFFFFFC0003FFFFFFE0001FFC0003FFFFFFE0
310
001FFF0003FFFFFFFFF0003FFFFFFFFFF000E0003FFFFF0001FF8001FFE00000
310
1FFE0007FF80007FC0007FFFFE0003FC0007FFFFE0003FF8000001FFFE000000
310
7FFFFFF0001FFFFFFE0003FFFFFFE0003FFE0003FFFFFFE0003FFF0003FFFFFF
310
FFF0003FFFFF8001F000E0003FFFFF0001FF0001FFE000001FFE0007FF80007F
310
C0007FFFFE0003FC0007FFFFE0003FF8000001FFFE0000007FFFFFF0001FFFFF
310
FE0001FFFFFFC0003FFE0001FFFFFFC0003FFF0003FFFFFFFFF0003FFFFF0001
310
F000E0003FFFFF0003FF0001FFE000003FFE0007FF80007FC0007FFFFE0003FC
310
0007FFFFE0003FF8000001FFFE0000007FFFFFF0001FFFFFFF0001FFFFFFC000
310
7FFF0001FFFFFFC0007FFF0003FFFFFFFFF0003FFFFF0001F000E0003FFFFE00
310
03FF0003FFF000003FFE0003FF80007FC0007FFFFC0003FE0007FFFFE0003FF8
310
000001FFFE0000007FFFFFF0001FFFFFFF0000FFFFFF80007FFF0000FFFFFF80
310
007FFF0003FFFFFFFFF0003FFFFF0001F000E0003FFFFE0003FF0003FFF00000
310
3FFF0003FF80007FC0007FFFFC0007FE0007FFFFC0003FF8000001FFFE000000
310
7FFFFFF0001FFFFFFF80007FFFFF0000FFFF80007FFFFF0000FFFF0003FFFFFF
310
FFF0003FFFFF0003F000E0003FFFFC0003FE0003FFF000003FFF0003FF80007F
310
E0003FFFF80007FE0003FFFFC0007FF8000001FFFE0000007FFFFFF0001FFFFF
310
FF80003FFFFE0000FFFF80003FFFFE0000FFFF0003FFFFFFFFF0001FFFFE0003
310
F000F0001FFFF80003FE0003FFF000007FFF0001FF80007FE0003FFFF00007FE
310
0001FFFF80007FF8000001FFFE0000007FFFFFF0001FFFFFFFC0000FFFF80001
310
FFFFC0000FFFF80001FFFF0003FFFFFFFFF0001FFFFC0003F000F0000FFFF000
310
07FE0007FFF800007FFF0001FF80007FE0001FFFE00007FF0000FFFE00007FF8
310
000001FFFE0000007FFFFFF0001FFFFFFFC00003FFE00001FFFFC00003FFE000
310
01FFFF0003FFFFFFFFF8000FFFF80003F000F00003FFC00007FC0007FFF80000
310
7FFF8001FF80007FF00007FF80000FFF00007FF80000FFF8000001FFFE000000
310
7F80000000000001FFE000003E000003FFFFE000003E000003FFFF0003FFFFFF
310
FFF80003FFE00007F000F800000000000FFC0007FFF800007FFF8001FF80007F
310
F000000000000FFF000000000000FFF8000001FFFE0000007F80000000000001
310
FFF0000000000007FFFFF0000000000007FFFF0003FFFFFFFFFC00007E000007
310
F000F800000000000FFC0007FFF80000FFFF8000FF80007FF800000000001FFF
310
800000000001FFF8000001FFFE0000007F80000000000001FFF800000000000F
310
FFFFF800000000000FFFFF0003FFFFFFFFFC00000000000FF000FC0000000000
310
1FFC0007FFFC0000FFFF8000FF80007FF800000000003FFFC00000000001FFF8
310
000001FFFE0000007F80000000000001FFF800000000000FFFFFF80000000000
310
0FFFFF0003FFFFFFFFFE00000000001FF000FE00000000003FF8000FFFFC0000
310
FFFF8000FF80007FFC00000000003FFFC00000000003FFF8000001FFFE000000
310
7F80000000000001FFFC00000000001FFFFFFC00000000001FFFFF0003FFFFFF
310
FFFF00000000001FF000FF00000000003FF8000FFFFC0000FFFFC000FF80007F
310
FE00000000007FFFE00000000007FFF8000001FFFE0000007F80000000000001
310
FFFE00000000003FFFFFFE00000000003FFFFF0003FFFFFFFFFF80000000003F
310
F000FF80000000007FF8000FFFFC0001FFFFC0007F80007FFF0000000000FFFF
310
F0000000000FFFF800000000000000007F80000000000001FFFF8000000000FF
310
FFFFFF8000000000FFFFFF0003FFFFFFFFFFC0000000007FF000FFC000000000
310
FFF8000FFFFE0001FFFFC0007F80007FFF8000000001FFFFF8000000001FFFF8
310
00000000000000007F80000000000001FFFFC000000001FFFFFFFFC000000001
310
FFFFFF0003FFFFFFFFFFE000000000FFF000FFE000000003FFF0001FFFFE0001
310
FFFFC0007F80007FFFC000000007FFFFFE000000003FFFF80000000000000000
310
7F80000000000001FFFFE000000003FFFFFFFFE000000003FFFFFF0003FFFFFF
310
FFFFF000000003FFF000FFF80000000FFFF0001FFFFE0001FFFFE0007F80007F
310
FFF00000000FFFFFFF00000000FFFFF800000000000000007F80000000000001
310
FFFFF80000000FFFFFFFFFF80000000FFFFFFF0003FFFFFFFFFFFC0000000FFF
310
F000FFFE0000003FFFF0001FFFFE0003FFFFE0003F80007FFFFC0000003FFFFF
310
FFC0000003FFFFF800000000000000007F80000000000001FFFFFE0000003FFF
310
FFFFFFFE0000003FFFFFFF0003FFFFFFFFFFFF0000003FFFF000FFFF800000FF
310
FFF0001FFFFF0003FFFFE0003F80007FFFFF000001FFFFFFFFF800001FFFFFF8
310
00000000000000007F80000000000001FFFFFFC00001FFFFFFFFFFFFC00001FF
310
FFFFFF0003FFFFFFFFFFFFC00000FFFFF000FFFFF8000FFFFFFFFFFFFFFFFFFF
310
FFFFFFFFFFFFFFFFFFFFF0001FFFFFFFFFFF0000FFFFFFF80000000000000000
310
7FFFFFFFFFFFFFFFFFFFFFFC001FFFFFFFFFFFFFFC001FFFFFFFFFFFFFFFFFFF
310
FFFFFFFC001FFFFFF000FFFFFFFFFFFFFFFFFFFFFFFFFFFFFFFFFFFFFFFFFFFF
310
FFFFFFFFFFFFFFFFFFFFFFFFFFFFFFFFFFFFFFFFFFFFFFFFFFFFFFFFFFFFFFFF
310
FFFFFFFFFFFFFFFFFFFFFFFFFFFFFFFFFFFFFFFFFFFFFFFFFFFFFFFFFFFFFFFF
310
F000FFFFFFFFFFFFFFFFFFFFFFFFFFFFFFFFFFFFFFFFFFFFFFFFFFFFFFFFFFFF
310
FFFFFFFFFFFFFFFFFFFFFFFFFFFFFFFFFFFFFFFFFFFFFFFFFFFFFFFFFFFFFFFF
310
FFFFFFFFFFFFFFFFFFFFFFFFFFFFFFFFFFFFFFFFFFFFFFFFF000FFFFFFFFFFFF
310
FFFFFFFFFFFFFFFFFFFFFFFFFFFFFFFFFFFFFFFFFFFFFFFFFFFFFFFFFFFFFFFF
310
FFFFFFFFFFFFFFFFFFFFFFFFFFFFFFFFFFFFFFFFFFFFFFFFFFFFFFFFFFFFFFFF
310
FFFFFFFFFFFFFFFFFFFFFFFFFFFFFFFFF000FFFFFFFFFFFFFFFFFFFFFFFFFFFF
310
FFFFFFFFFFFFFFFFFFFFFFFFFFFFFFFFFFFFFFFFFFFFFFFFFFFFFFFFFFFFFFFF
310
FFFFFFFFFFFFFFFFFFFFFFFFFFFFFFFFFFFFFFFFFFFFFFFFFFFFFFFFFFFFFFFF
310
FFFFFFFFFFFFFFFFF000FFFFFFFFFFFFFFFFFFFFFFFFFFFFFFFFFFFFFFFFFFFF
310
FFFFFFFFFFFFFFFFFFFFFFFFFFFFFFFFFFFFFFFFFFFFFFFFFFFFFFFFFFFFFFFF
310
FFFFFFFFFFFFFFFFFFFFFFFFFFFFFFFFFFFFFFFFFFFFFFFFFFFFFFFFFFFFFFFF
310
F000FFFFFFFFFFFFFFFFFFFFFFFFFFFFFFFFFFFFFFFFFFFFFFFFFFFFFFFFFFFF
310
FFFFFFFFFFFFFFFFFFFFFFFFFFFFFFFFFFFFFFFFFFFFFFFFFFFFFFFFFFFFFFFF
310
FFFFFFFFFFFFFFFFFFFFFFFFFFFFFFFFFFFFFFFFFFFFFFFFF000FFFFFFFFFFFF
310
FFFFFFFFFFFFFFFFFFFFFFFFFFFFFFFFFFFFFFFFFFFFFFFFFFFFFFFFFFFFFFFF
310
FFFFFFFFFFFFFFFFFFFFFFFFFFFFFFFFFFFFFFFFFFFFFFFFFFFFFFFFFFFFFFFF
310
FFFFFFFFFFFFFFFFFFFFFFFFFFFFFFFFF000FFFFFFFFFFFFFFFFFFFFFFFFFFFF
310
FFFFFFFFFFFFFFFFFFFFFFFFFFFFFFFFFFFFFFFFFFFFFFFFFFFFFFFFFFFFFFFF
310
FFFFFFFFFFFFFFFFFFFFFFFFFFFFFFFFFFFFFFFFFFFFFFFFFFFFFFFFFFFFFFFF
310
FFFFFFFFFFFFFFFFF000FFFFFFFFFFFFFFFFFFFFFFFFFFFFFFFFFFFFFFFFFFFF
310
FFFFFFFFFFFFFFFFFFFFFFFFFFFFFFFFFFFFFFFFFFFFFFFFFFFFFFFFFFFFFFFF
310
FFFFFFFFFFFFFFFFFFFFFFFFFFFFFFFFFFFFFFFFFFFFFFFFFFFFFFFFFFFFFFFF
310
F000FFFFFFFFFFFFFFFFFFFFFFFFFFFFFFFFFFFFFFFFFFFFFFFFFFFFFFFFFFFF
310
FFFFFFFFFFFFFFFFFFFFFFFFFFFFFFFFFFFFFFFFFFFFFFFFFFFFFFFFFFFFFFFF
310
FFFFFFFFFFFFFFFFFFFFFFFFFFFFFFFFFFFFFFFFFFFFFFFFF000FFFFFFFFFFFF
310
FFFFFFFFFFFFFFFFFFFFFFFFFFFFFFFFFFFFFFFFFFFFFFFFFFFFFFFFFFFFFFFF
310
FFFFFFFFFFFFFFFFFFFFFFFFFFFFFFFFFFFFFFFFFFFFFFFFFFFFFFFFFFFFFFFF
310
FFFFFFFFFFFFFFFFFFFFFFFFFFFFFFFFF000FFFFFFFFFFFFFFFFFFFFFFFFFFFF
310
FFFFFFFFFFFFFFFFFFFFFFFFFFFFFFFFFFFFFFFFFFFFFFFFFFFFFFFFFFFFFFFF
310
FFFFFFFFFFFFFFFFFFFFFFFFFFFFFFFFFFFFFFFFFFFFFFFFFFFFFFFFFFFFFFFF
310
FFFFFFFFFFFFFFFFF000FFFFFFFFFFFFFFFFFFFFFFFFFFFFFFFFFFFFFFFFFFFF
310
FFFFFFFFFFFFFFFFFFFFFFFFFFFFFFFFFFFFFFFFFFFFFFFFFFFFFFFFFFFFFFFF
310
FFFFFFFFFFFFFFFFFFFFFFFFFFFFFFFFFFFFFFFFFFFFFFFFFFFFFFFFFFFFFFFF
310
F000FFFFFFFFFFFFFFFFFFFFFFFFFFFFFFFFFFFFFFFFFFFFFFFFFFFFFFFFFFFF
310
FFFFFFFFFFFFFFFFFFFFFFFFFFFFFFFFFFFFFFFFFFFFFFFFFFFFFFFFFFFFFFFF
310
FFFFFFFFFFFFFFFFFFFFFFFFFFFFFFFFFFFFFFFFFFFFFFFFF000FFFFFFFFFFFF
310
FFFFFFFFFFFFFFFFFFFFFFFFFFFFFFFFFFFFFFFFFFFFFFFFFFFFFFFFFFFFFFFF
310
FFFFFFFFFFFFFFFFFFFFFFFFFFFFFFFFFFFFFFFFFFFFFFFFFFFFFFFFFFFFFFFF
310
FFFFFFFFFFFFFFFFFFFFFFFFFFFFFFFFF000FFFFFFFFFFFFFFFFFFFFFFFFFFFF
310
FFFFFFFFFFFFFFFFFFFFFFFFFFFFFFFFFFFFFFFFFFFFFFFFFFFFFFFFFFFFFFFF
310
FFFFFFFFFFFFFFFFFFFFFFFFFFFFFFFFFFFFFFFFFFFFFFFFFFFFFFFFFFFFFFFF
310
FFFFFFFFFFFFFFFFF000FFFFFFFFFFFFFFFFFFFFFFFFFFFFFFFFFFFFFFFFFFFF
310
FFFFFFFFFFFFFFFFFFFFFFFFFFFFFFFFFFFFFFFFFFFFFFFFFFFFFFFFFFFFFFFF
310
FFFFFFFFFFFFFFFFFFFFFFFFFFFFFFFFFFFFFFFFFFFFFFFFFFFFFFFFFFFFFFFF
310
F000FFFFFFFFFFFFFFFFFFFFFFFFFFFFFFFFFFFFFFFFFFFFFFFFFFFFFFFFFFFF
310
FFFFFFFFFFFFFFFFFFFFFFFFFFFFFFFFFFFFFFFFFFFFFFFFFFFFFFFFFFFFFFFF
310
FFFFFFFFFFFFFFFFFFFFFFFFFFFFFFFFFFFFFFFFFFFFFFFFF000FFFFFFFFFFFF
310
FFFFFFFFFFFFFFFFFFFFFFFFFFFFFFFFFFFFFFFFFFFFFFFFFFFFFFFFFFFFFFFF
310
FFFFFFFFFFFFFFFFFFFFFFFFFFFFFFFFFFFFFFFFFFFFFFFFFFFFFFFFFFFFFFFF
310
FFFFFFFFFFFFFFFFFFFFFFFFFFFFFFFFF000FFFFFFFFFFFFFFFFFFFFFFFFFFFF
310
FFFFFFFFFFFFFFFFFFFFFFFFFFFFFFFFFFFFFFFFFFFFFFFFFFFFFFFFFFFFFFFF
310
FFFFFFFFFFFFFFFFFFFFFFFFFFFFFFFFFFFFFFFFFFFFFFFFFFFFFFFFFFFFFFFF
310
FFFFFFFFFFFFFFFFF000FFFFFFFFFFFFFFFFFFFFFFFFFFFFFFFFFFFFFFFFFFFF
310
FFFFFFFFFFFFFFFFFFFFFFFFFFFFFFFFFFFFFFFFFFFFFFFFFFFFFFFFFFFFFFFF
310
FFFFFFFFFFFFFFFFFFFFFFFFFFFFFFFFFFFFFFFFFFFFFFFFFFFFFFFFFFFFFFFF
310
F000FFFFFFFFFFFFFFFFFFFFFFFFFFFFFFFFFFFFFFFFFFFFFFFFFFFFFFFFFFFF
310
FFFFFFFFFFFFFFFFFFFFFFFFFFFFFFFFFFFFFFFFFFFFFFFFFFFFFFFFFFFFFFFF
310
FFFFFFFFFFFFFFFFFFFFFFFFFFFFFFFFFFFFFFFFFFFFFFFFF000FFFFFFFFFFFF
310
FFFFFFFFFFFFFFFFFFFFFFFFFFFFFFFFFFFFFFFFFFFFFFFFFFFFFFFFFFFFFFFF
310
FFFFFFFFFFFFFFFFFFFFFFFFFFFFFFFFFFFFFFFFFFFFFFFFFFFFFFFFFFFFFFFF
310
FFFFFFFFFFFFFFFFFFFFFFFFFFFFFFFFF0000000000000000000000000000000
310
0000000000000000000000000000000000000000000000000000000000000000
310
0000000000000000000000000000000000000000000000000000000000000000
310
0000000000000000000000000000000000000000000000000000000000000000
310
0000000000000000000000000000000000000000000000000000000000000000
310
0000000000000000000000000000000000000000000000000000000000000000
310
0000000000000000000000000000000000000000000000000000000000000000
310
0000000000000000000000000000000000000000000000000000000000000000
310
0000000000000000000000000000000000000000000000000000000000000000
310
0000000000000000000000000000000000000000000000000000000000000000
310
0000000000000000000000000000000000000000000000000000000000000000
310
0000000000000000000000000000000000000000000000000000000000000000
310
0000000000000000000000000000000000000000000000000000000000000000
310
0000000000000000000000000000000000000000000000000000000000000000
310
0000000000000000000000000000000000000000000000000000000000000000
310
0000000000000000000000000000000000000000000000000000000000000000
  1
OLE
  0
ENDSEC
  0
SECTION
  2
OBJECTS
  0
DICTIONARY
  5
C
330
0
100
AcDbDictionary
281
     1
  3
ACAD_GROUP
350
D
  3
ACAD_LAYOUT
350
1A
  3
ACAD_MLINESTYLE
350
17
  3
ACAD_PLOTSETTINGS
350
19
  3
ACAD_PLOTSTYLENAME
350
E
  3
ACAD_SCALELIST
350
47
  0
DICTIONARY
  5
D
102
{ACAD_REACTORS
330
C
102
}
330
C
100
AcDbDictionary
281
     1
  0
DICTIONARY
  5
1A
102
{ACAD_REACTORS
330
C
102
}
330
C
100
AcDbDictionary
281
     1
  3
Layout1
350
1E
  3
Layout2
350
26
  3
Model
350
22
  0
DICTIONARY
  5
17
102
{ACAD_REACTORS
330
C
102
}
330
C
100
AcDbDictionary
281
     1
  3
Standard
350
18
  0
DICTIONARY
  5
19
102
{ACAD_REACTORS
330
C
102
}
330
C
100
AcDbDictionary
281
     1
  0
ACDBDICTIONARYWDFLT
  5
E
102
{ACAD_REACTORS
330
C
102
}
330
C
100
AcDbDictionary
281
     1
  3
Normal
350
F
100
AcDbDictionaryWithDefault
340
F
  0
DICTIONARY
  5
47
102
{ACAD_REACTORS
330
C
102
}
330
C
100
AcDbDictionary
281
     1
  3
A0
350
48
  3
A1
350
49
  3
A2
350
4A
  3
A3
350
4B
  3
A4
350
4C
  3
A5
350
4D
  3
A6
350
4E
  3
A7
350
4F
  3
A8
350
50
  3
A9
350
51
  3
B0
350
52
  3
B1
350
53
  3
B2
350
54
  3
B3
350
55
  3
B4
350
56
  3
B5
350
57
  3
B6
350
58
  3
B7
350
59
  3
B8
350
5A
  3
B9
350
5B
  3
C0
350
5C
  3
C1
350
5D
  3
C2
350
5E
  3
C3
350
5F
  3
C4
350
60
  3
C5
350
61
  3
C6
350
62
  3
C7
350
63
  3
C8
350
64
  3
C9
350
65
  3
D0
350
66
  3
D1
350
67
  3
D2
350
68
  0
LAYOUT
  5
1E
102
{ACAD_REACTORS
330
1A
102
}
330
1A
100
AcDbPlotSettings
  1

  2
none_device
  4

  6

 40
0.0
 41
0.0
 42
0.0
 43
0.0
 44
0.0
 45
0.0
 46
0.0
 47
0.0
 48
0.0
 49
0.0
140
0.0
141
0.0
142
1.0
143
1.0
 70
   688
 72
     1
 73
     0
 74
     5
  7

 75
    16
147
1.0
148
0.0
149
0.0
100
AcDbLayout
  1
Layout1
 70
     1
 71
     1
 10
0.0
 20
0.0
 11
420.0
 21
297.0
 12
0.0
 22
0.0
 32
0.0
 14
1.0000000000E+20
 24
1.0000000000E+20
 34
1.0000000000E+20
 15
-1.0000000000E+20
 25
-1.0000000000E+20
 35
-1.0000000000E+20
146
0.0
 13
0.0
 23
0.0
 33
0.0
 16
1.0
 26
0.0
 36
0.0
 17
0.0
 27
1.0
 37
0.0
 76
     0
330
1B
  0
LAYOUT
  5
26
102
{ACAD_REACTORS
330
1A
102
}
330
1A
100
AcDbPlotSettings
  1

  2
none_device
  4

  6

 40
0.0
 41
0.0
 42
0.0
 43
0.0
 44
0.0
 45
0.0
 46
0.0
 47
0.0
 48
0.0
 49
0.0
140
0.0
141
0.0
142
1.0
143
1.0
 70
   688
 72
     1
 73
     0
 74
     5
  7

 75
    16
147
1.0
148
0.0
149
0.0
100
AcDbLayout
  1
Layout2
 70
     1
 71
     2
 10
0.0
 20
0.0
 11
0.0
 21
0.0
 12
0.0
 22
0.0
 32
0.0
 14
0.0
 24
0.0
 34
0.0
 15
0.0
 25
0.0
 35
0.0
146
0.0
 13
0.0
 23
0.0
 33
0.0
 16
1.0
 26
0.0
 36
0.0
 17
0.0
 27
1.0
 37
0.0
 76
     0
330
23
  0
LAYOUT
  5
22
102
{ACAD_REACTORS
330
1A
102
}
330
1A
100
AcDbPlotSettings
  1

  2
none_device
  4
Letter_(8.50_x_11.00_Inches)
  6

 40
6.35
 41
6.35
 42
6.35000508
 43
6.35000508
 44
215.9
 45
279.4
 46
0.0
 47
0.0
 48
0.0
 49
0.0
140
0.0
141
0.0
142
1.0
143
1.0
 70
  1712
 72
     1
 73
     0
 74
     0
  7

 75
     0
147
1.0
148
0.0
149
0.0
100
AcDbLayout
  1
Model
 70
     1
 71
     0
 10
0.0
 20
0.0
 11
297.0
 21
210.0
 12
0.0
 22
0.0
 32
0.0
 14
0.0
 24
0.0
 34
0.0
 15
297.0
 25
210.0
 35
0.0
146
0.0
 13
0.0
 23
0.0
 33
0.0
 16
1.0
 26
0.0
 36
0.0
 17
0.0
 27
1.0
 37
0.0
 76
     0
330
1F
331
29
  0
MLINESTYLE
  5
18
102
{ACAD_REACTORS
330
17
102
}
330
17
100
AcDbMlineStyle
  2
Standard
 70
     0
  3

 62
   256
 51
90.0
 52
90.0
 71
     2
 49
0.5
 62
   256
  6
BYLAYER
 49
-0.5
 62
   256
  6
BYLAYER
  0
ACDBPLACEHOLDER
  5
F
102
{ACAD_REACTORS
330
E
102
}
330
E
  0
SCALE
  5
48
102
{ACAD_REACTORS
330
47
102
}
330
47
100
AcDbScale
 70
     0
300
1:1
140
1.0
141
1.0
290
     1
  0
SCALE
  5
49
102
{ACAD_REACTORS
330
47
102
}
330
47
100
AcDbScale
 70
     0
300
1:2
140
1.0
141
2.0
290
     0
  0
SCALE
  5
4A
102
{ACAD_REACTORS
330
47
102
}
330
47
100
AcDbScale
 70
     0
300
1:4
140
1.0
141
4.0
290
     0
  0
SCALE
  5
4B
102
{ACAD_REACTORS
330
47
102
}
330
47
100
AcDbScale
 70
     0
300
1:5
140
1.0
141
5.0
290
     0
  0
SCALE
  5
4C
102
{ACAD_REACTORS
330
47
102
}
330
47
100
AcDbScale
 70
     0
300
1:8
140
1.0
141
8.0
290
     0
  0
SCALE
  5
4D
102
{ACAD_REACTORS
330
47
102
}
330
47
100
AcDbScale
 70
     0
300
1:10
140
1.0
141
10.0
290
     0
  0
SCALE
  5
4E
102
{ACAD_REACTORS
330
47
102
}
330
47
100
AcDbScale
 70
     0
300
1:16
140
1.0
141
16.0
290
     0
  0
SCALE
  5
4F
102
{ACAD_REACTORS
330
47
102
}
330
47
100
AcDbScale
 70
     0
300
1:20
140
1.0
141
20.0
290
     0
  0
SCALE
  5
50
102
{ACAD_REACTORS
330
47
102
}
330
47
100
AcDbScale
 70
     0
300
1:30
140
1.0
141
30.0
290
     0
  0
SCALE
  5
51
102
{ACAD_REACTORS
330
47
102
}
330
47
100
AcDbScale
 70
     0
300
1:40
140
1.0
141
40.0
290
     0
  0
SCALE
  5
52
102
{ACAD_REACTORS
330
47
102
}
330
47
100
AcDbScale
 70
     0
300
1:50
140
1.0
141
50.0
290
     0
  0
SCALE
  5
53
102
{ACAD_REACTORS
330
47
102
}
330
47
100
AcDbScale
 70
     0
300
1:100
140
1.0
141
100.0
290
     0
  0
SCALE
  5
54
102
{ACAD_REACTORS
330
47
102
}
330
47
100
AcDbScale
 70
     0
300
2:1
140
2.0
141
1.0
290
     0
  0
SCALE
  5
55
102
{ACAD_REACTORS
330
47
102
}
330
47
100
AcDbScale
 70
     0
300
4:1
140
4.0
141
1.0
290
     0
  0
SCALE
  5
56
102
{ACAD_REACTORS
330
47
102
}
330
47
100
AcDbScale
 70
     0
300
8:1
140
8.0
141
1.0
290
     0
  0
SCALE
  5
57
102
{ACAD_REACTORS
330
47
102
}
330
47
100
AcDbScale
 70
     0
300
10:1
140
10.0
141
1.0
290
     0
  0
SCALE
  5
58
102
{ACAD_REACTORS
330
47
102
}
330
47
100
AcDbScale
 70
     0
300
100:1
140
100.0
141
1.0
290
     0
  0
SCALE
  5
59
102
{ACAD_REACTORS
330
47
102
}
330
47
100
AcDbScale
 70
     0
300
1/128" = 1'-0"
140
0.0078125
141
12.0
290
     0
  0
SCALE
  5
5A
102
{ACAD_REACTORS
330
47
102
}
330
47
100
AcDbScale
 70
     0
300
1/64" = 1'-0"
140
0.015625
141
12.0
290
     0
  0
SCALE
  5
5B
102
{ACAD_REACTORS
330
47
102
}
330
47
100
AcDbScale
 70
     0
300
1/32" = 1'-0"
140
0.03125
141
12.0
290
     0
  0
SCALE
  5
5C
102
{ACAD_REACTORS
330
47
102
}
330
47
100
AcDbScale
 70
     0
300
1/16" = 1'-0"
140
0.0625
141
12.0
290
     0
  0
SCALE
  5
5D
102
{ACAD_REACTORS
330
47
102
}
330
47
100
AcDbScale
 70
     0
300
3/32" = 1'-0"
140
0.09375
141
12.0
290
     0
  0
SCALE
  5
5E
102
{ACAD_REACTORS
330
47
102
}
330
47
100
AcDbScale
 70
     0
300
1/8" = 1'-0"
140
0.125
141
12.0
290
     0
  0
SCALE
  5
5F
102
{ACAD_REACTORS
330
47
102
}
330
47
100
AcDbScale
 70
     0
300
3/16" = 1'-0"
140
0.1875
141
12.0
290
     0
  0
SCALE
  5
60
102
{ACAD_REACTORS
330
47
102
}
330
47
100
AcDbScale
 70
     0
300
1/4" = 1'-0"
140
0.25
141
12.0
290
     0
  0
SCALE
  5
61
102
{ACAD_REACTORS
330
47
102
}
330
47
100
AcDbScale
 70
     0
300
3/8" = 1'-0"
140
0.375
141
12.0
290
     0
  0
SCALE
  5
62
102
{ACAD_REACTORS
330
47
102
}
330
47
100
AcDbScale
 70
     0
300
1/2" = 1'-0"
140
0.5
141
12.0
290
     0
  0
SCALE
  5
63
102
{ACAD_REACTORS
330
47
102
}
330
47
100
AcDbScale
 70
     0
300
3/4" = 1'-0"
140
0.75
141
12.0
290
     0
  0
SCALE
  5
64
102
{ACAD_REACTORS
330
47
102
}
330
47
100
AcDbScale
 70
     0
300
1" = 1'-0"
140
1.0
141
12.0
290
     0
  0
SCALE
  5
65
102
{ACAD_REACTORS
330
47
102
}
330
47
100
AcDbScale
 70
     0
300
1-1/2" = 1'-0"
140
1.5
141
12.0
290
     0
  0
SCALE
  5
66
102
{ACAD_REACTORS
330
47
102
}
330
47
100
AcDbScale
 70
     0
300
3" = 1'-0"
140
3.0
141
12.0
290
     0
  0
SCALE
  5
67
102
{ACAD_REACTORS
330
47
102
}
330
47
100
AcDbScale
 70
     0
300
6" = 1'-0"
140
6.0
141
12.0
290
     0
  0
SCALE
  5
68
102
{ACAD_REACTORS
330
47
102
}
330
47
100
AcDbScale
 70
     0
300
1'-0" = 1'-0"
140
12.0
141
12.0
290
     0
  0
ENDSEC
  0
EOF
