  0
SECTION
  2
HEADER
  9
$ACADVER
  1
AC1015
  9
$ACADMAINTVER
 70
     6
  9
$DWGCODEPAGE
  3
ANSI_1252
  9
$INSBASE
 10
0.0
 20
0.0
 30
0.0
  9
$EXTMIN
 10
0.0
 20
0.0
 30
0.0
  9
$EXTMAX
 10
297.0
 20
210.0
 30
0.0
  9
$LIMMIN
 10
0.0
 20
0.0
  9
$LIMMAX
 10
297.0
 20
210.0
  9
$ORTHOMODE
 70
     0
  9
$REGENMODE
 70
     1
  9
$FILLMODE
 70
     1
  9
$QTEXTMODE
 70
     0
  9
$MIRRTEXT
 70
     1
  9
$LTSCALE
 40
1.0
  9
$ATTMODE
 70
     1
  9
$TEXTSIZE
 40
2.0
  9
$TRACEWID
 40
1.0
  9
$TEXTSTYLE
  7
Standard
  9
$CLAYER
  8
0
  9
$CELTYPE
  6
ByLayer
  9
$CECOLOR
 62
   256
  9
$CELTSCALE
 40
1.0
  9
$DISPSILH
 70
     0
  9
$DIMSCALE
 40
1.0
  9
$DIMASZ
 40
3.0
  9
$DIMEXO
 40
0.0
  9
$DIMDLI
 40
3.75
  9
$DIMRND
 40
0.0
  9
$DIMDLE
 40
0.0
  9
$DIMEXE
 40
1.0
  9
$DIMTP
 40
0.0
  9
$DIMTM
 40
0.0
  9
$DIMTXT
 40
2.0
  9
$DIMCEN
 40
2.5
  9
$DIMTSZ
 40
0.0
  9
$DIMTOL
 70
     0
  9
$DIMLIM
 70
     0
  9
$DIMTIH
 70
     1
  9
$DIMTOH
 70
     1
  9
$DIMSE1
 70
     0
  9
$DIMSE2
 70
     0
  9
$DIMTAD
 70
     1
  9
$DIMZIN
 70
     0
  9
$DIMBLK
  1

  9
$DIMASO
 70
     1
  9
$DIMSHO
 70
     1
  9
$DIMPOST
  1

  9
$DIMAPOST
  1

  9
$DIMALT
 70
     0
  9
$DIMALTD
 70
     3
  9
$DIMALTF
 40
0.0393700787
  9
$DIMLFAC
 40
2.0
  9
$DIMTOFL
 70
     1
  9
$DIMTVP
 40
0.0
  9
$DIMTIX
 70
     0
  9
$DIMSOXD
 70
     0
  9
$DIMSAH
 70
     0
  9
$DIMBLK1
  1

  9
$DIMBLK2
  1

  9
$DIMSTYLE
  2
ISO-25
  9
$DIMCLRD
 70
     0
  9
$DIMCLRE
 70
     0
  9
$DIMCLRT
 70
     0
  9
$DIMTFAC
 40
1.0
  9
$DIMGAP
 40
1.524
  9
$DIMJUST
 70
     0
  9
$DIMSD1
 70
     0
  9
$DIMSD2
 70
     0
  9
$DIMTOLJ
 70
     0
  9
$DIMTZIN
 70
     0
  9
$DIMALTZ
 70
     0
  9
$DIMALTTZ
 70
     0
  9
$DIMUPT
 70
     0
  9
$DIMDEC
 70
     2
  9
$DIMTDEC
 70
     3
  9
$DIMALTU
 70
     2
  9
$DIMALTTD
 70
     3
  9
$DIMTXSTY
  7
Standard
  9
$DIMAUNIT
 70
     0
  9
$DIMADEC
 70
     2
  9
$DIMALTRND
 40
0.0
  9
$DIMAZIN
 70
     0
  9
$DIMDSEP
 70
    44
  9
$DIMATFIT
 70
     3
  9
$DIMFRAC
 70
     0
  9
$DIMLDRBLK
  1

  9
$DIMLUNIT
 70
     2
  9
$DIMLWD
 70
    -2
  9
$DIMLWE
 70
    -2
  9
$DIMTMOVE
 70
     0
  9
$LUNITS
 70
     2
  9
$LUPREC
 70
     2
  9
$SKETCHINC
 40
1.0
  9
$FILLETRAD
 40
10.0
  9
$AUNITS
 70
     0
  9
$AUPREC
 70
     2
  9
$MENU
  1
.
  9
$ELEVATION
 40
0.0
  9
$PELEVATION
 40
0.0
  9
$THICKNESS
 40
0.0
  9
$LIMCHECK
 70
     0
  9
$CHAMFERA
 40
0.0
  9
$CHAMFERB
 40
0.0
  9
$CHAMFERC
 40
0.0
  9
$CHAMFERD
 40
0.0
  9
$SKPOLY
 70
     0
  9
$TDCREATE
 40
2459055.551221574
  9
$TDUCREATE
 40
2459055.467888241
  9
$TDUPDATE
 40
2459055.551224178
  9
$TDUUPDATE
 40
2459055.467890845
  9
$TDINDWG
 40
0.0000000116
  9
$TDUSRTIMER
 40
0.0000000116
  9
$USRTIMER
 70
     1
  9
$ANGBASE
 50
0.0
  9
$ANGDIR
 70
     0
  9
$PDMODE
 70
     0
  9
$PDSIZE
 40
-1.0
  9
$PLINEWID
 40
0.0
  9
$SPLFRAME
 70
     0
  9
$SPLINETYPE
 70
     6
  9
$SPLINESEGS
 70
     8
  9
$HANDSEED
  5
326
  9
$SURFTAB1
 70
     6
  9
$SURFTAB2
 70
     6
  9
$SURFTYPE
 70
     6
  9
$SURFU
 70
     6
  9
$SURFV
 70
     6
  9
$UCSBASE
  2

  9
$UCSNAME
  2

  9
$UCSORG
 10
0.0
 20
0.0
 30
0.0
  9
$UCSXDIR
 10
1.0
 20
0.0
 30
0.0
  9
$UCSYDIR
 10
0.0
 20
1.0
 30
0.0
  9
$UCSORTHOREF
  2

  9
$UCSORTHOVIEW
 70
     0
  9
$UCSORGTOP
 10
0.0
 20
0.0
 30
0.0
  9
$UCSORGBOTTOM
 10
0.0
 20
0.0
 30
0.0
  9
$UCSORGLEFT
 10
0.0
 20
0.0
 30
0.0
  9
$UCSORGRIGHT
 10
0.0
 20
0.0
 30
0.0
  9
$UCSORGFRONT
 10
0.0
 20
0.0
 30
0.0
  9
$UCSORGBACK
 10
0.0
 20
0.0
 30
0.0
  9
$PUCSBASE
  2

  9
$PUCSNAME
  2

  9
$PUCSORG
 10
0.0
 20
0.0
 30
0.0
  9
$PUCSXDIR
 10
1.0
 20
0.0
 30
0.0
  9
$PUCSYDIR
 10
0.0
 20
1.0
 30
0.0
  9
$PUCSORTHOREF
  2

  9
$PUCSORTHOVIEW
 70
     0
  9
$PUCSORGTOP
 10
0.0
 20
0.0
 30
0.0
  9
$PUCSORGBOTTOM
 10
0.0
 20
0.0
 30
0.0
  9
$PUCSORGLEFT
 10
0.0
 20
0.0
 30
0.0
  9
$PUCSORGRIGHT
 10
0.0
 20
0.0
 30
0.0
  9
$PUCSORGFRONT
 10
0.0
 20
0.0
 30
0.0
  9
$PUCSORGBACK
 10
0.0
 20
0.0
 30
0.0
  9
$USERI1
 70
     0
  9
$USERI2
 70
     0
  9
$USERI3
 70
     0
  9
$USERI4
 70
     0
  9
$USERI5
 70
     0
  9
$USERR1
 40
0.0
  9
$USERR2
 40
0.0
  9
$USERR3
 40
0.0
  9
$USERR4
 40
0.0
  9
$USERR5
 40
0.0
  9
$WORLDVIEW
 70
     1
  9
$SHADEDGE
 70
     3
  9
$SHADEDIF
 70
    70
  9
$TILEMODE
 70
     1
  9
$MAXACTVP
 70
    64
  9
$PINSBASE
 10
0.0
 20
0.0
 30
0.0
  9
$PLIMCHECK
 70
     0
  9
$PEXTMIN
 10
1.0000000000E+20
 20
1.0000000000E+20
 30
1.0000000000E+20
  9
$PEXTMAX
 10
-1.0000000000E+20
 20
-1.0000000000E+20
 30
-1.0000000000E+20
  9
$PLIMMIN
 10
0.0
 20
0.0
  9
$PLIMMAX
 10
420.0
 20
297.0
  9
$UNITMODE
 70
     0
  9
$VISRETAIN
 70
     1
  9
$PLINEGEN
 70
     0
  9
$PSLTSCALE
 70
     1
  9
$TREEDEPTH
 70
  3020
  9
$CMLSTYLE
  2
Standard
  9
$CMLJUST
 70
     0
  9
$CMLSCALE
 40
20.0
  9
$PROXYGRAPHICS
 70
     1
  9
$MEASUREMENT
 70
     1
  9
$CELWEIGHT
370
    -1
  9
$ENDCAPS
280
     0
  9
$JOINSTYLE
280
     0
  9
$LWDISPLAY
290
     1
  9
$INSUNITS
 70
     4
  9
$HYPERLINKBASE
  1

  9
$STYLESHEET
  1

  9
$XEDIT
290
     1
  9
$CEPSNTYPE
380
     0
  9
$PSTYLEMODE
290
     1
  9
$FINGERPRINTGUID
  2
{62C4492D-68FC-4F1B-93BC-CD627FA8EDC2}
  9
$VERSIONGUID
  2
{FAEB1C32-E019-11D5-929B-00C0DF256EC4}
  9
$EXTNAMES
290
     1
  9
$PSVPSCALE
 40
0.0
  9
$OLESTARTUP
290
     0
  0
ENDSEC
  0
SECTION
  2
CLASSES
  0
CLASS
  1
ACDBDICTIONARYWDFLT
  2
AcDbDictionaryWithDefault
  3
ObjectDBX Classes
 90
        0
280
     0
281
     0
  0
CLASS
  1
VISUALSTYLE
  2
AcDbVisualStyle
  3
ObjectDBX Classes
 90
     4095
280
     0
281
     0
  0
CLASS
  1
MATERIAL
  2
AcDbMaterial
  3
ObjectDBX Classes
 90
     1153
280
     0
281
     0
  0
CLASS
  1
SCALE
  2
AcDbScale
  3
ObjectDBX Classes
 90
     1153
280
     0
281
     0
  0
CLASS
  1
TABLESTYLE
  2
AcDbTableStyle
  3
ObjectDBX Classes
 90
     4095
280
     0
281
     0
  0
CLASS
  1
MLEADERSTYLE
  2
AcDbMLeaderStyle
  3
ACDB_MLEADERSTYLE_CLASS
 90
     4095
280
     0
281
     0
  0
CLASS
  1
SUN
  2
AcDbSun
  3
SCENEOE
 90
     1153
280
     0
281
     0
  0
CLASS
  1
ACDBPLACEHOLDER
  2
AcDbPlaceHolder
  3
ObjectDBX Classes
 90
        0
280
     0
281
     0
  0
CLASS
  1
LAYOUT
  2
AcDbLayout
  3
ObjectDBX Classes
 90
        0
280
     0
281
     0
  0
ENDSEC
  0
SECTION
  2
TABLES
  0
TABLE
  2
VPORT
  5
8
330
0
100
AcDbSymbolTable
 70
     1
  0
VPORT
  5
29
330
8
100
AcDbSymbolTableRecord
100
AcDbViewportTableRecord
  2
*Active
 70
     0
 10
0.0
 20
0.0
 11
1.0
 21
1.0
 12
148.5
 22
105.0
 13
0.0
 23
0.0
 14
10.0
 24
10.0
 15
10.0
 25
10.0
 16
0.0
 26
0.0
 36
1.0
 17
0.0
 27
0.0
 37
0.0
 40
210.0
 41
1.4142857143
 42
50.0
 43
0.0
 44
0.0
 50
0.0
 51
0.0
 71
     0
 72
  2000
 73
     1
 74
     3
 75
     0
 76
     0
 77
     0
 78
     0
281
     0
 65
     1
110
0.0
120
0.0
130
0.0
111
1.0
121
0.0
131
0.0
112
0.0
122
1.0
132
0.0
 79
     0
146
0.0
  0
ENDTAB
  0
TABLE
  2
LTYPE
  5
5
330
0
100
AcDbSymbolTable
 70
     6
  0
LTYPE
  5
14
330
5
100
AcDbSymbolTableRecord
100
AcDbLinetypeTableRecord
  2
ByBlock
 70
     0
  3

 72
    65
 73
     0
 40
0.0
  0
LTYPE
  5
15
330
5
100
AcDbSymbolTableRecord
100
AcDbLinetypeTableRecord
  2
ByLayer
 70
     0
  3

 72
    65
 73
     0
 40
0.0
  0
LTYPE
  5
16
330
5
100
AcDbSymbolTableRecord
100
AcDbLinetypeTableRecord
  2
Continuous
 70
     0
  3
Solid line
 72
    65
 73
     0
 40
0.0
  0
LTYPE
  5
6E
330
5
100
AcDbSymbolTableRecord
100
AcDbLinetypeTableRecord
  2
HIDDEN
 70
     0
  3
Hidden __ __ __ __ __ __ __ __ __ __ __ __ __ __
 72
    65
 73
     2
 40
1.905
 49
1.27
 74
     0
 49
-0.635
 74
     0
  0
LTYPE
  5
6F
330
5
100
AcDbSymbolTableRecord
100
AcDbLinetypeTableRecord
  2
PHANTOM
 70
     0
  3
Phantom ______  __  __  ______  __  __  ______
 72
    65
 73
     6
 40
12.7
 49
6.35
 74
     0
 49
-1.27
 74
     0
 49
1.27
 74
     0
 49
-1.27
 74
     0
 49
1.27
 74
     0
 49
-1.27
 74
     0
  0
LTYPE
  5
70
330
5
100
AcDbSymbolTableRecord
100
AcDbLinetypeTableRecord
  2
CENTER
 70
     0
  3
Center ____ _ ____ _ ____ _ ____ _ ____ _ ____
 72
    65
 73
     4
 40
10.16
 49
6.35
 74
     0
 49
-1.27
 74
     0
 49
1.27
 74
     0
 49
-1.27
 74
     0
  0
LTYPE
  5
71
330
5
100
AcDbSymbolTableRecord
100
AcDbLinetypeTableRecord
  2
CENTERX2
 70
     0
  3
Center (2x) ________  __  ________  __  _____
 72
    65
 73
     4
 40
20.32
 49
12.7
 74
     0
 49
-2.54
 74
     0
 49
2.54
 74
     0
 49
-2.54
 74
     0
  0
LTYPE
  5
72
330
5
100
AcDbSymbolTableRecord
100
AcDbLinetypeTableRecord
  2
DOT2
 70
     0
  3
Dot (.5x) ........................................
 72
    65
 73
     2
 40
0.635
 49
0.0
 74
     0
 49
-0.635
 74
     0
  0
ENDTAB
  0
TABLE
  2
LAYER
  5
2
330
0
100
AcDbSymbolTable
 70
     5
  0
LAYER
  5
10
330
2
100
AcDbSymbolTableRecord
100
AcDbLayerTableRecord
  2
0
 70
     0
 62
     7
  6
Continuous
370
    -3
390
F
  0
LAYER
  5
73
330
2
100
AcDbSymbolTableRecord
100
AcDbLayerTableRecord
  2
FORMAT
 70
     0
 62
     7
  6
Continuous
370
    -3
390
F
  0
LAYER
  5
74
330
2
100
AcDbSymbolTableRecord
100
AcDbLayerTableRecord
  2
VERMASSUNG
 70
     0
 62
     7
  6
Continuous
370
    -3
390
F
  0
LAYER
  5
75
330
2
100
AcDbSymbolTableRecord
100
AcDbLayerTableRecord
  2
KOPF_DÜNN
 70
     0
 62
     7
  6
Continuous
370
    -3
390
F
  0
LAYER
  5
76
330
2
100
AcDbSymbolTableRecord
100
AcDbLayerTableRecord
  2
KOPF_DICK
 70
     0
 62
     7
  6
Continuous
370
    25
390
F
  0
ENDTAB
  0
TABLE
  2
STYLE
  5
3
330
0
100
AcDbSymbolTable
 70
     2
  0
STYLE
  5
11
330
3
100
AcDbSymbolTableRecord
100
AcDbTextStyleTableRecord
  2
Standard
 70
     0
 40
0.0
 41
1.0
 50
0.0
 71
     0
 42
2.0
  3
txt
  4

  0
STYLE
  5
77
330
3
100
AcDbSymbolTableRecord
100
AcDbTextStyleTableRecord
  2
SLDTEXTSTYLE0
 70
     0
 40
0.0
 41
0.7
 50
0.0
 71
     0
 42
2.0
  3
TXT
  4

  0
ENDTAB
  0
TABLE
  2
VIEW
  5
6
330
0
100
AcDbSymbolTable
 70
     0
  0
ENDTAB
  0
TABLE
  2
UCS
  5
7
330
0
100
AcDbSymbolTable
 70
     0
  0
ENDTAB
  0
TABLE
  2
APPID
  5
9
330
0
100
AcDbSymbolTable
 70
     1
  0
APPID
  5
12
330
9
100
AcDbSymbolTableRecord
100
AcDbRegAppTableRecord
  2
ACAD
 70
     0
  0
ENDTAB
  0
TABLE
  2
DIMSTYLE
  5
A
330
0
100
AcDbSymbolTable
 70
     6
100
AcDbDimStyleTable
  0
DIMSTYLE
105
27
330
A
100
AcDbSymbolTableRecord
100
AcDbDimStyleTableRecord
  2
ISO-25
 70
     0
 41
2.5
 42
0.625
 43
3.75
 44
1.25
 73
     0
 74
     0
 77
     1
 78
     8
140
2.5
141
2.5
143
0.0393700787
147
0.625
171
     3
172
     1
178
     0
271
     2
272
     2
274
     3
278
    44
283
     0
284
     8
340
11
  0
DIMSTYLE
105
13E
102
{ACAD_REACTORS
330
13D
102
}
330
A
100
AcDbSymbolTableRecord
100
AcDbDimStyleTableRecord
  2
SLDDIMSTYLE0
 70
     0
 41
3.0
 44
0.0
 45
0.000000001
 73
     0
 74
     0
 77
     1
 78
    12
 79
     3
140
2.0
147
0.5
173
     1
178
     0
271
     1
272
     3
276
     2
284
    12
340
77
  0
DIMSTYLE
105
149
102
{ACAD_REACTORS
330
148
102
}
330
A
100
AcDbSymbolTableRecord
100
AcDbDimStyleTableRecord
  2
SLDDIMSTYLE1
 70
     0
 41
3.0
 44
0.0
 73
     0
 74
     0
 77
     1
 78
    12
 79
     3
140
2.0
147
0.5
173
     1
178
     0
179
     2
272
     3
276
     2
284
    12
340
77
  0
DIMSTYLE
105
153
102
{ACAD_REACTORS
330
152
102
}
330
A
100
AcDbSymbolTableRecord
100
AcDbDimStyleTableRecord
  2
SLDDIMSTYLE2
 70
     0
 41
3.0
 44
0.0
 45
0.000000001
 73
     0
 74
     0
 77
     1
 78
    12
 79
     3
140
2.0
147
0.5
173
     1
178
     0
271
     0
272
     3
276
     2
284
    12
340
77
  0
DIMSTYLE
105
15E
102
{ACAD_REACTORS
330
15D
102
}
330
A
100
AcDbSymbolTableRecord
100
AcDbDimStyleTableRecord
  2
SLDDIMSTYLE3
 70
     0
 41
3.0
 44
0.0
 45
0.000000001
 73
     0
 74
     0
 77
     1
 78
    12
 79
     3
140
2.0
147
0.5
173
     1
178
     0
271
     2
272
     3
276
     2
284
    12
340
77
  0
DIMSTYLE
105
323
330
A
100
AcDbSymbolTableRecord
100
AcDbDimStyleTableRecord
  2
SLDDIMSTYLE4
 70
     0
 41
3.0
 44
0.0
 45
0.000000001
146
3.0
147
0.0
173
     1
178
     0
271
     0
272
     0
276
     2
340
11
  0
ENDTAB
  0
TABLE
  2
BLOCK_RECORD
  5
1
330
0
100
AcDbSymbolTable
 70
     6
  0
BLOCK_RECORD
  5
1F
330
1
100
AcDbSymbolTableRecord
100
AcDbBlockTableRecord
  2
*Model_Space
340
22
  0
BLOCK_RECORD
  5
1B
330
1
100
AcDbSymbolTableRecord
100
AcDbBlockTableRecord
  2
*Paper_Space
340
1E
  0
BLOCK_RECORD
  5
23
330
1
100
AcDbSymbolTableRecord
100
AcDbBlockTableRecord
  2
*Paper_Space0
340
26
  0
BLOCK_RECORD
  5
13F
330
1
100
AcDbSymbolTableRecord
100
AcDbBlockTableRecord
  2
_D
340
0
  0
BLOCK_RECORD
  5
14A
330
1
100
AcDbSymbolTableRecord
100
AcDbBlockTableRecord
  2
_D_1
340
0
  0
BLOCK_RECORD
  5
154
330
1
100
AcDbSymbolTableRecord
100
AcDbBlockTableRecord
  2
_D_2
340
0
  0
BLOCK_RECORD
  5
15F
330
1
100
AcDbSymbolTableRecord
100
AcDbBlockTableRecord
  2
_D_3
340
0
  0
BLOCK_RECORD
  5
31E
330
1
100
AcDbSymbolTableRecord
100
AcDbBlockTableRecord
  2
SW_NOTE_0
340
0
102
{BLKREFS
331
322
102
}
  0
ENDTAB
  0
ENDSEC
  0
SECTION
  2
BLOCKS
  0
BLOCK
  5
20
330
1F
100
AcDbEntity
  8
0
100
AcDbBlockBegin
  2
*Model_Space
 70
     0
 10
0.0
 20
0.0
 30
0.0
  3
*Model_Space
  1

  0
ENDBLK
  5
21
330
1F
100
AcDbEntity
  8
0
100
AcDbBlockEnd
  0
BLOCK
  5
1C
330
1B
100
AcDbEntity
 67
     1
  8
0
100
AcDbBlockBegin
  2
*Paper_Space
 70
     0
 10
0.0
 20
0.0
 30
0.0
  3
*Paper_Space
  1

  0
ENDBLK
  5
1D
330
1B
100
AcDbEntity
 67
     1
  8
0
100
AcDbBlockEnd
  0
BLOCK
  5
24
330
23
100
AcDbEntity
  8
0
100
AcDbBlockBegin
  2
*Paper_Space0
 70
     0
 10
0.0
 20
0.0
 30
0.0
  3
*Paper_Space0
  1

  0
ENDBLK
  5
25
330
23
100
AcDbEntity
  8
0
100
AcDbBlockEnd
  0
BLOCK
  5
140
330
13F
100
AcDbEntity
  8
0
100
AcDbBlockBegin
  2
_D
 70
     0
 10
0.0
 20
0.0
 30
0.0
  3
_D
  1

  0
SOLID
  5
142
330
13F
100
AcDbEntity
  8
VERMASSUNG
100
AcDbTrace
 10
130.7758244944
 20
76.0903271266
 30
0.0
 11
127.7758244944
 21
76.5403271266
 31
0.0
 12
127.7758244944
 22
75.6403271266
 32
0.0
 13
127.7758244944
 23
75.6403271266
 33
0.0
  0
SOLID
  5
143
330
13F
100
AcDbEntity
  8
VERMASSUNG
100
AcDbTrace
 10
56.2698836396
 20
76.0903271266
 30
0.0
 11
59.2698836396
 21
75.6403271266
 31
0.0
 12
59.2698836396
 22
76.5403271266
 32
0.0
 13
59.2698836396
 23
76.5403271266
 33
0.0
  0
LINE
  5
144
330
13F
100
AcDbEntity
  8
VERMASSUNG
100
AcDbLine
 10
130.7758244944
 20
95.580926475
 30
0.0
 11
130.7758244944
 21
75.0903271266
 31
0.0
  0
LINE
  5
145
330
13F
100
AcDbEntity
  8
VERMASSUNG
100
AcDbLine
 10
56.2698836396
 20
134.5378709575
 30
0.0
 11
56.2698836396
 21
75.0903271266
 31
0.0
  0
LINE
  5
146
330
13F
100
AcDbEntity
  8
VERMASSUNG
100
AcDbLine
 10
130.7758244944
 20
76.0903271266
 30
0.0
 11
56.2698836396
 21
76.0903271266
 31
0.0
  0
MTEXT
  5
147
330
13F
100
AcDbEntity
  8
VERMASSUNG
100
AcDbMText
 10
91.0228541229
 20
78.6684627225
 30
0.0
 40
2.0
 41
0.0
 71
     1
 72
     1
  1
74.5
  7
SLDTEXTSTYLE0
 73
     1
 44
1.0
  0
ENDBLK
  5
141
330
13F
100
AcDbEntity
  8
0
100
AcDbBlockEnd
  0
BLOCK
  5
14B
330
14A
100
AcDbEntity
  8
0
100
AcDbBlockBegin
  2
_D_1
 70
     0
 10
0.0
 20
0.0
 30
0.0
  3
_D_1
  1

  0
ARC
  5
14D
330
14A
100
AcDbEntity
  8
VERMASSUNG
100
AcDbCircle
 10
130.7758244944
 20
98.7498709575
 30
0.0
 40
10.65954383088466
100
AcDbArc
 50
180.0
 51
270.0
  0
SOLID
  5
14E
330
14A
100
AcDbEntity
  8
VERMASSUNG
100
AcDbTrace
 10
120.1162806635
 20
98.7498709575
 30
0.0
 11
120.0807307149
 21
95.716517005
 31
0.0
 12
120.97227686
 22
95.8395839421
 32
0.0
 13
120.97227686
 23
95.8395839421
 33
0.0
  0
SOLID
  5
14F
330
14A
100
AcDbEntity
  8
VERMASSUNG
100
AcDbTrace
 10
130.7758244944
 20
88.0903271266
 30
0.0
 11
127.8655374791
 21
88.9463233231
 31
0.0
 12
127.7424705419
 22
88.0547771779
 32
0.0
 13
127.7424705419
 23
88.0547771779
 33
0.0
  0
LINE
  5
150
330
14A
100
AcDbEntity
  8
VERMASSUNG
100
AcDbLine
 10
130.7758244944
 20
95.580926475
 30
0.0
 11
130.7758244944
 21
87.0903271266
 31
0.0
  0
MTEXT
  5
151
330
14A
100
AcDbEntity
  8
VERMASSUNG
100
AcDbMText
 10
123.647192465
 20
94.4496658579
 30
0.0
 40
2.0
 41
0.0
 71
     1
 72
     1
  1
90°
  7
SLDTEXTSTYLE0
 11
0.7071067811865637
 21
-0.7071067811865314
 31
0.0
 73
     1
 44
1.0
  0
ENDBLK
  5
14C
330
14A
100
AcDbEntity
  8
0
100
AcDbBlockEnd
  0
BLOCK
  5
155
330
154
100
AcDbEntity
  8
0
100
AcDbBlockBegin
  2
_D_2
 70
     0
 10
0.0
 20
0.0
 30
0.0
  3
_D_2
  1

  0
SOLID
  5
157
330
154
100
AcDbEntity
  8
VERMASSUNG
100
AcDbTrace
 10
142.4090024578
 20
174.0806785786
 30
0.0
 11
141.9590024578
 21
171.0806785786
 31
0.0
 12
142.8590024578
 22
171.0806785786
 32
0.0
 13
142.8590024578
 23
171.0806785786
 33
0.0
  0
SOLID
  5
158
330
154
100
AcDbEntity
  8
VERMASSUNG
100
AcDbTrace
 10
142.4090024578
 20
98.7498709575
 30
0.0
 11
142.8590024578
 21
101.7498709575
 31
0.0
 12
141.9590024578
 22
101.7498709575
 32
0.0
 13
141.9590024578
 23
101.7498709575
 33
0.0
  0
LINE
  5
159
330
154
100
AcDbEntity
  8
VERMASSUNG
100
AcDbLine
 10
113.3975744753
 20
174.0806785786
 30
0.0
 11
143.4090024578
 21
174.0806785786
 31
0.0
  0
LINE
  5
15A
330
154
100
AcDbEntity
  8
VERMASSUNG
100
AcDbLine
 10
130.372865179
 20
98.7498709575
 30
0.0
 11
143.4090024578
 21
98.7498709575
 31
0.0
  0
LINE
  5
15B
330
154
100
AcDbEntity
  8
VERMASSUNG
100
AcDbLine
 10
142.4090024578
 20
174.0806785786
 30
0.0
 11
142.4090024578
 21
98.7498709575
 31
0.0
  0
MTEXT
  5
15C
330
154
100
AcDbEntity
  8
VERMASSUNG
100
AcDbMText
 10
139.8308668618
 20
135.0152748179
 30
0.0
 40
2.0
 41
0.0
 71
     1
 72
     1
  1
75
  7
SLDTEXTSTYLE0
 11
-1.326144395554451E-14
 21
1.0
 31
0.0
 73
     1
 44
1.0
  0
ENDBLK
  5
156
330
154
100
AcDbEntity
  8
0
100
AcDbBlockEnd
  0
BLOCK
  5
160
330
15F
100
AcDbEntity
  8
0
100
AcDbBlockBegin
  2
_D_3
 70
     0
 10
0.0
 20
0.0
 30
0.0
  3
_D_3
  1

  0
SOLID
  5
162
330
15F
100
AcDbEntity
  8
VERMASSUNG
100
AcDbTrace
 10
56.2698836396
 20
181.1380646975
 30
0.0
 11
59.2698836396
 21
180.6880646975
 31
0.0
 12
59.2698836396
 22
181.5880646975
 32
0.0
 13
59.2698836396
 23
181.5880646975
 33
0.0
  0
SOLID
  5
163
330
15F
100
AcDbEntity
  8
VERMASSUNG
100
AcDbTrace
 10
121.2698836396
 20
181.1380646975
 30
0.0
 11
118.2698836396
 21
181.5880646975
 31
0.0
 12
118.2698836396
 22
180.6880646975
 32
0.0
 13
118.2698836396
 23
180.6880646975
 33
0.0
  0
LINE
  5
164
330
15F
100
AcDbEntity
  8
VERMASSUNG
100
AcDbLine
 10
56.2698836396
 20
174.5378709575
 30
0.0
 11
56.2698836396
 21
182.1380646975
 31
0.0
  0
LINE
  5
165
330
15F
100
AcDbEntity
  8
VERMASSUNG
100
AcDbLine
 10
121.2698836396
 20
155.2998709575
 30
0.0
 11
121.2698836396
 21
182.1380646975
 31
0.0
  0
LINE
  5
166
330
15F
100
AcDbEntity
  8
VERMASSUNG
100
AcDbLine
 10
56.2698836396
 20
181.1380646975
 30
0.0
 11
121.2698836396
 21
181.1380646975
 31
0.0
  0
MTEXT
  5
167
330
15F
100
AcDbEntity
  8
VERMASSUNG
100
AcDbMText
 10
87.3698836896
 20
183.7162002935
 30
0.0
 40
2.0
 41
0.0
 71
     1
 72
     1
  1
65
  7
SLDTEXTSTYLE0
 73
     1
 44
1.0
  0
ENDBLK
  5
161
330
15F
100
AcDbEntity
  8
0
100
AcDbBlockEnd
  0
BLOCK
  5
31F
330
31E
100
AcDbEntity
  8
0
100
AcDbBlockBegin
  2
SW_NOTE_0
 70
     0
 10
0.0
 20
0.0
 30
0.0
  3
SW_NOTE_0
  1

  0
MTEXT
  5
321
330
31E
100
AcDbEntity
  8
VERMASSUNG
 62
     0
100
AcDbMText
 10
0.5208160311
 20
0.583625509
 30
0.0
 40
2.0
 41
0.0
 71
     1
 72
     1
  1
paarweise / in pairs
  7
SLDTEXTSTYLE0
 73
     1
 44
1.0
  0
ENDBLK
  5
320
330
31E
100
AcDbEntity
  8
0
100
AcDbBlockEnd
  0
ENDSEC
  0
SECTION
  2
ENTITIES
  0
MTEXT
  5
78
330
1F
100
AcDbEntity
  8
KOPF_DÜNN
100
AcDbMText
 10
13.8892156294
 20
23.8442973028
 30
0.0
 40
3.0
 41
0.0
 71
     1
 72
     1
  1
V70.070.012.075
  7
SLDTEXTSTYLE0
 73
     1
 44
1.0
  0
MTEXT
  5
79
330
1F
100
AcDbEntity
  8
VERMASSUNG
100
AcDbMText
 10
13.9329988022
 20
28.8834360957
 30
0.0
 40
3.0
 41
0.0
 71
     1
 72
     1
  1
Wendeplattenhalter 90°_Insert holder 90°
  7
SLDTEXTSTYLE0
 73
     1
 44
1.0
  0
MTEXT
  5
7A
330
1F
100
AcDbEntity
  8
VERMASSUNG
100
AcDbMText
 10
98.8601118557
 20
13.8365368761
 30
0.0
 40
2.0
 41
0.0
 71
     1
 72
     1
  1
Datum: 07.03.2018
  7
SLDTEXTSTYLE0
 73
     1
 44
1.0
  0
MTEXT
  5
7B
330
1F
100
AcDbEntity
  8
VERMASSUNG
100
AcDbMText
 10
13.933048693
 20
18.0482802738
 30
0.0
 40
2.0
 41
0.0
 71
     1
 72
     1
  1
paarweise lieferung / will be supplied in pairs / CN..12 04..
  7
SLDTEXTSTYLE0
 73
     1
 44
1.0
  0
MTEXT
  5
7C
330
1F
100
AcDbEntity
  8
VERMASSUNG
100
AcDbMText
 10
13.9808475933
 20
13.9090974274
 30
0.0
 40
2.0
 41
0.0
 71
     1
 72
     1
  1
Gewicht: 3241g
  7
SLDTEXTSTYLE0
 73
     1
 44
1.0
  0
LINE
  5
7D
330
1F
100
AcDbEntity
  8
0
  6
Continuous
 62
     7
370
    25
100
AcDbLine
 10
128.7567945043
 20
111.2399711848
 30
0.0
 11
128.1810203879
 21
111.8200696647
 31
0.0
  0
LINE
  5
7E
330
1F
100
AcDbEntity
  8
0
  6
Continuous
 62
     7
370
    25
100
AcDbLine
 10
117.5256253998
 20
99.4452048318
 30
0.0
 11
118.101399749
 21
98.865106752
 31
0.0
  0
LINE
  5
7F
330
1F
100
AcDbEntity
  8
0
  6
Continuous
 62
     7
370
    25
100
AcDbLine
 10
120.9857839937
 20
104.2485475183
 30
0.0
 11
121.1998401056
 21
103.9471147225
 31
0.0
  0
LINE
  5
80
330
1F
100
AcDbEntity
  8
0
  6
Continuous
 62
     7
370
    25
100
AcDbLine
 10
124.8571908879
 20
106.5689824164
 30
0.0
 11
124.1897571678
 21
107.5088573262
 31
0.0
  0
LINE
  5
81
330
1F
100
AcDbEntity
  8
0
  6
Continuous
 62
     7
370
    25
100
AcDbLine
 10
121.2698839451
 20
134.4420896486
 30
0.0
 11
121.2698839451
 21
155.2998708204
 31
0.0
  0
ARC
  5
82
330
1F
100
AcDbEntity
  8
0
  6
Continuous
 62
     7
370
    25
100
AcDbCircle
 10
125.2698836396
 20
134.4420892657
 30
0.0
 40
4.000000000000012
100
AcDbArc
 50
180.0
 51
257.4362487305
  0
LINE
  5
83
330
1F
100
AcDbEntity
  8
0
  6
Continuous
 62
     7
370
    25
100
AcDbLine
 10
127.4564928687
 20
111.5948265061
 30
0.0
 11
124.3997806529
 21
130.5378699318
 31
0.0
  0
LINE
  5
84
330
1F
100
AcDbEntity
  8
0
  6
Continuous
 62
     7
370
    25
100
AcDbLine
 10
130.7708245105
 20
99.2158309374
 30
0.0
 11
128.8649141868
 21
111.0271304488
 31
0.0
  0
ARC
  5
85
330
1F
100
AcDbEntity
  8
0
  6
Continuous
 62
     7
370
    25
100
AcDbCircle
 10
130.3721221116
 20
99.1534268097
 30
0.0
 40
0.4035565363402004
100
AcDbArc
 50
270.1055003958
 51
8.8956514528
  0
LINE
  5
86
330
1F
100
AcDbEntity
  8
0
  6
Continuous
 62
     7
370
    25
100
AcDbLine
 10
118.379357628
 20
98.7498709575
 30
0.0
 11
130.3728651917
 21
98.7498709575
 31
0.0
  0
ARC
  5
87
330
1F
100
AcDbEntity
  8
0
  6
Continuous
 62
     7
370
    25
100
AcDbCircle
 10
118.3782202297
 20
99.1397374105
 30
0.0
 40
0.3898681121610993
100
AcDbArc
 50
189.1191630317
 51
270.1671545248
  0
LINE
  5
88
330
1F
100
AcDbEntity
  8
0
  6
Continuous
 62
     7
370
    25
100
AcDbLine
 10
116.087369978
 20
110.8892472103
 30
0.0
 11
117.9932797174
 21
99.0779478735
 31
0.0
  0
ARC
  5
89
330
1F
100
AcDbEntity
  8
0
  6
Continuous
 62
     7
370
    25
100
AcDbCircle
 10
116.486072678
 20
110.9516513085
 30
0.0
 40
0.403556829342403
100
AcDbArc
 50
90.1056177741
 51
188.895640696
  0
LINE
  5
8A
330
1F
100
AcDbEntity
  8
0
  6
Continuous
 62
     7
370
    25
100
AcDbLine
 10
128.4788366253
 20
111.3552074522
 30
0.0
 11
116.4853287707
 21
111.3552074522
 31
0.0
  0
ARC
  5
8B
330
1F
100
AcDbEntity
  8
0
  6
Continuous
 62
     7
370
    25
100
AcDbCircle
 10
128.4799734509
 20
110.9653407513
 30
0.0
 40
0.3898683583440398
100
AcDbArc
 50
9.1191811201
 51
90.1670702376
  0
ARC
  5
8C
330
1F
100
AcDbEntity
  8
0
  6
Continuous
 62
     7
370
    25
100
AcDbCircle
 10
116.4857388284
 20
110.9519773958
 30
0.0
 40
0.3833795679193728
100
AcDbArc
 50
90.1056830205
 51
188.8955465513
  0
LINE
  5
8D
330
1F
100
AcDbEntity
  8
0
  6
Continuous
 62
     7
370
    25
100
AcDbLine
 10
116.1069705929
 20
110.8926940352
 30
0.0
 11
118.0128812636
 21
99.0813949603
 31
0.0
  0
ARC
  5
8E
330
1F
100
AcDbEntity
  8
0
  6
Continuous
 62
     7
370
    25
100
AcDbCircle
 10
118.3785738658
 20
99.1400939694
 30
0.0
 40
0.3703736666347523
100
AcDbArc
 50
189.1190241772
 51
270.1672053831
  0
LINE
  5
8F
330
1F
100
AcDbEntity
  8
0
  6
Continuous
 62
     7
370
    25
100
AcDbLine
 10
118.37965472
 20
98.7697218799
 30
0.0
 11
130.3731622253
 21
98.7697218799
 31
0.0
  0
ARC
  5
90
330
1F
100
AcDbEntity
  8
0
  6
Continuous
 62
     7
370
    25
100
AcDbCircle
 10
130.3724562987
 20
99.1530999491
 30
0.0
 40
0.3833787192049809
100
AcDbArc
 50
270.1055004884
 51
8.8956526235
  0
LINE
  5
91
330
1F
100
AcDbEntity
  8
0
  6
Continuous
 62
     7
370
    25
100
AcDbLine
 10
130.751223586
 20
99.2123838797
 30
0.0
 11
128.845313339
 21
111.0236826927
 31
0.0
  0
ARC
  5
92
330
1F
100
AcDbEntity
  8
0
  6
Continuous
 62
     7
370
    25
100
AcDbCircle
 10
128.4796206065
 20
110.9649841712
 30
0.0
 40
0.3703737181246398
100
AcDbArc
 50
9.1189465075
 51
90.1672392132
  0
LINE
  5
93
330
1F
100
AcDbEntity
  8
0
  6
Continuous
 62
     7
370
    25
100
AcDbLine
 10
128.4785395334
 20
111.3353563115
 30
0.0
 11
116.4850316788
 21
111.3353563115
 31
0.0
  0
LINE
  5
94
330
1F
100
AcDbEntity
  8
0
  6
Continuous
 62
     7
370
    25
100
AcDbLine
 10
115.9095553527
 20
111.9353050009
 30
0.0
 11
115.8894834886
 21
111.9347974301
 31
0.0
  0
LINE
  5
95
330
1F
100
AcDbEntity
  8
0
  6
Continuous
 62
     7
370
    25
100
AcDbLine
 10
116.4528498272
 20
110.9849257037
 30
0.0
 11
116.1069705929
 21
110.8926940352
 31
0.0
  0
LINE
  5
96
330
1F
100
AcDbEntity
  8
0
  6
Continuous
 62
     7
370
    25
100
AcDbLine
 10
116.4528498272
 20
110.9849257037
 30
0.0
 11
116.4850316788
 21
111.3353563115
 31
0.0
  0
LINE
  5
97
330
1F
100
AcDbEntity
  8
0
  6
Continuous
 62
     7
370
    25
100
AcDbLine
 10
127.9030625089
 20
111.9353050009
 30
0.0
 11
127.4015520546
 21
111.9353050009
 31
0.0
  0
LINE
  5
98
330
1F
100
AcDbEntity
  8
0
  6
Continuous
 62
     7
370
    25
100
AcDbLine
 10
120.1733382265
 20
111.9353050009
 30
0.0
 11
115.9095553527
 21
111.9353050009
 31
0.0
  0
LINE
  5
99
330
1F
100
AcDbEntity
  8
0
  6
Continuous
 62
     7
370
    25
100
AcDbLine
 10
128.4463576819
 20
110.9849257037
 30
0.0
 11
128.4785395334
 21
111.3353563115
 31
0.0
  0
LINE
  5
9A
330
1F
100
AcDbEntity
  8
0
  6
Continuous
 62
     7
370
    25
100
AcDbLine
 10
127.8760993234
 20
110.4117767528
 30
0.0
 11
128.4463576819
 21
110.9849257037
 31
0.0
  0
LINE
  5
9B
330
1F
100
AcDbEntity
  8
0
  6
Continuous
 62
     7
370
    25
100
AcDbLine
 10
117.3702789317
 20
110.2145263568
 30
0.0
 11
116.4528498272
 21
110.9849257037
 31
0.0
  0
LINE
  5
9C
330
1F
100
AcDbEntity
  8
0
  6
Continuous
 62
     7
370
    25
100
AcDbLine
 10
118.358760498
 20
99.1736267161
 30
0.0
 11
118.0128812636
 21
99.0813949603
 31
0.0
  0
LINE
  5
9D
330
1F
100
AcDbEntity
  8
0
  6
Continuous
 62
     7
370
    25
100
AcDbLine
 10
118.8422100465
 20
99.8342364902
 30
0.0
 11
118.358760498
 21
99.1736267161
 31
0.0
  0
LINE
  5
9E
330
1F
100
AcDbEntity
  8
0
  6
Continuous
 62
     7
370
    25
100
AcDbLine
 10
117.32200662
 20
100.2498709705
 30
0.0
 11
117.4175062994
 21
99.6580459751
 31
0.0
  0
ARC
  5
9F
330
1F
100
AcDbEntity
  8
0
  6
Continuous
 62
     7
370
    25
100
AcDbCircle
 10
119.5563054105
 20
108.3413744407
 30
0.0
 40
1.00889093271554
100
AcDbArc
 50
90.1054670344
 51
188.8956893531
  0
SPLINE
  5
A0
330
1F
100
AcDbEntity
  8
0
  6
Continuous
 62
     7
370
    25
100
AcDbSpline
210
0.0
220
0.0
230
1.0
 70
     8
 71
     3
 72
    11
 73
     7
 74
     0
 42
0.000000001
 43
0.00000001
 40
0.0
 40
0.0
 40
0.0
 40
0.0
 40
0.0076283630523924
 40
0.3209885130145548
 40
0.6632173860828066
 40
1.0
 40
1.0
 40
1.0
 40
1.0
 10
117.8985250960012
 20
109.7642011583065
 30
0.0
 10
117.8972307324536
 20
109.7653180490651
 30
0.0
 10
117.8427661209001
 20
109.8123149081995
 30
0.0
 10
117.7249070281623
 20
109.9136536271978
 30
0.0
 10
117.5405790054627
 20
110.0709759592752
 30
0.0
 10
117.4267412639059
 20
110.1669327764876
 30
0.0
 10
117.3702789316793
 20
110.2145263567781
 30
0.0
  0
LINE
  5
A1
330
1F
100
AcDbEntity
  8
0
  6
Continuous
 62
     7
370
    25
100
AcDbLine
 10
128.2986443336
 20
101.919714186
 30
0.0
 11
127.2319752104
 21
108.5300711557
 31
0.0
  0
ARC
  5
A2
330
1F
100
AcDbEntity
  8
0
  6
Continuous
 62
     7
370
    25
100
AcDbCircle
 10
127.3018883896
 20
101.7637038593
 30
0.0
 40
1.00889128949824
100
AcDbArc
 50
270.1054927394
 51
8.8956523374
  0
LINE
  5
A3
330
1F
100
AcDbEntity
  8
0
  6
Continuous
 62
     7
370
    25
100
AcDbLine
 10
120.5914135869
 20
100.7548142798
 30
0.0
 11
127.3037459548
 21
100.7548142798
 31
0.0
  0
ARC
  5
A4
330
1F
100
AcDbEntity
  8
0
  6
Continuous
 62
     7
370
    25
100
AcDbCircle
 10
120.5885688131
 20
101.7294789115
 30
0.0
 40
0.9746687831688124
100
AcDbArc
 50
189.1190886622
 51
270.1672298975
  0
LINE
  5
A5
330
1F
100
AcDbEntity
  8
0
  6
Continuous
 62
     7
370
    25
100
AcDbLine
 10
118.5595499198
 20
108.1853635252
 30
0.0
 11
119.6262188102
 21
101.5750065554
 31
0.0
  0
LINE
  5
A6
330
1F
100
AcDbEntity
  8
0
  6
Continuous
 62
     7
370
    25
100
AcDbLine
 10
126.2667811322
 20
109.3502636641
 30
0.0
 11
119.5544482986
 21
109.3502636641
 31
0.0
  0
ARC
  5
A7
330
1F
100
AcDbEntity
  8
0
  6
Continuous
 62
     7
370
    25
100
AcDbCircle
 10
126.2696255398
 20
108.3755994651
 30
0.0
 40
0.9746683495703421
100
AcDbArc
 50
9.1190531397
 51
90.1672084481
  0
CIRCLE
  5
A8
330
1F
100
AcDbEntity
  8
0
  6
Continuous
 62
     7
370
    25
100
AcDbCircle
 10
123.4668559883
 20
105.0565910541
 30
0.0
 40
2.556716954037816
  0
ARC
  5
A9
330
1F
100
AcDbEntity
  8
0
  6
Continuous
 62
     7
370
    25
100
AcDbCircle
 10
122.8109359058
 20
105.5985259059
 30
0.0
 40
2.526520935687455
100
AcDbArc
 50
234.2240181434
 51
267.7291445902
  0
ARC
  5
AA
330
1F
100
AcDbEntity
  8
0
  6
Continuous
 62
     7
370
    25
100
AcDbCircle
 10
122.8605129535
 20
105.6651171024
 30
0.0
 40
2.55433294692508
100
AcDbArc
 50
329.9558600458
 51
35.1704130612
  0
LINE
  5
AB
330
1F
100
AcDbEntity
  8
0
  6
Continuous
 62
     7
370
    25
100
AcDbLine
 10
128.4463576819
 20
110.9849257037
 30
0.0
 11
128.845313339
 21
111.0236826927
 31
0.0
  0
LINE
  5
AC
330
1F
100
AcDbEntity
  8
0
  6
Continuous
 62
     7
370
    25
100
AcDbLine
 10
130.3522680325
 20
99.1736267161
 30
0.0
 11
130.751223586
 21
99.2123838797
 31
0.0
  0
LINE
  5
AD
330
1F
100
AcDbEntity
  8
0
  6
Continuous
 62
     7
370
    25
100
AcDbLine
 10
129.318155007
 20
100.0615871154
 30
0.0
 11
130.3522680325
 21
99.1736267161
 31
0.0
  0
SPLINE
  5
AE
330
1F
100
AcDbEntity
  8
0
  6
Continuous
 62
     7
370
    25
100
AcDbSpline
210
0.0
220
0.0
230
1.0
 70
     8
 71
     3
 72
    11
 73
     7
 74
     0
 42
0.000000001
 43
0.00000001
 40
0.0
 40
0.0
 40
0.0
 40
0.0
 40
0.0081161452919604
 40
0.326367542030082
 40
0.6627685040516347
 40
1.0
 40
1.0
 40
1.0
 40
1.0
 10
127.4315492561926
 20
109.8780963212465
 30
0.0
 10
127.4325273080872
 20
109.8794967060135
 30
0.0
 10
127.4718568643405
 20
109.9358091693628
 30
0.0
 10
127.5615857799821
 20
110.0564191112513
 30
0.0
 10
127.7158575009474
 20
110.2439831260371
 30
0.0
 10
127.8226414972465
 20
110.3557995903437
 30
0.0
 10
127.8760993233789
 20
110.4117767527913
 30
0.0
  0
ARC
  5
AF
330
1F
100
AcDbEntity
  8
0
  6
Continuous
 62
     7
370
    25
100
AcDbCircle
 10
127.9037774073
 20
111.5441821695
 30
0.0
 40
0.3911234847239546
100
AcDbArc
 50
44.8595929259
 51
90.1047257157
  0
SPLINE
  5
B0
330
1F
100
AcDbEntity
  8
0
  6
Continuous
 62
     7
370
    25
100
AcDbSpline
210
0.0
220
0.0
230
1.0
 70
     8
 71
     3
 72
    11
 73
     7
 74
     0
 42
0.000000001
 43
0.00000001
 40
0.0
 40
0.0
 40
0.0
 40
0.0
 40
0.3372312999337934
 40
0.6736325693863285
 40
0.9918836405009731
 40
1.0
 40
1.0
 40
1.0
 40
1.0
 10
118.8422100464721
 20
99.83423649018904
 30
0.0
 10
118.8895943115439
 20
99.89633278517171
 30
0.0
 10
118.9842462143628
 20
100.0203725369586
 30
0.0
 10
119.1448820655997
 20
100.201524410455
 30
0.0
 10
119.2488868911044
 20
100.3077520865866
 30
0.0
 10
119.2976381588201
 20
100.3545714637907
 30
0.0
 10
119.2988505433221
 20
100.3557358045345
 30
0.0
  0
LINE
  5
B1
330
1F
100
AcDbEntity
  8
0
  6
Continuous
 62
     7
370
    25
100
AcDbLine
 10
130.3522680325
 20
99.1736267161
 30
0.0
 11
130.3731622253
 21
98.7697218799
 31
0.0
  0
LINE
  5
B2
330
1F
100
AcDbEntity
  8
0
  6
Continuous
 62
     7
370
    25
100
AcDbLine
 10
118.358760498
 20
99.1736267161
 30
0.0
 11
118.37965472
 21
98.7697218799
 31
0.0
  0
ARC
  5
B3
330
1F
100
AcDbEntity
  8
0
  6
Continuous
 62
     7
370
    25
100
AcDbCircle
 10
117.8025593699
 20
99.7197635795
 30
0.0
 40
0.3899678573508948
100
AcDbArc
 50
189.1061069469
 51
224.7532344958
  0
SPLINE
  5
B4
330
1F
100
AcDbEntity
  8
0
  6
Continuous
 62
     7
370
    25
100
AcDbSpline
210
0.0
220
0.0
230
1.0
 70
     8
 71
     3
 72
    11
 73
     7
 74
     0
 42
0.000000001
 43
0.00000001
 40
0.0
 40
0.0
 40
0.0
 40
0.0
 40
0.3367830909483905
 40
0.6790111054078007
 40
0.9923716933299128
 40
1.0
 40
1.0
 40
1.0
 40
1.0
 10
129.3181550069619
 20
100.0615871153986
 30
0.0
 10
129.2567825556639
 20
100.1141268648441
 30
0.0
 10
129.1330454170798
 20
100.2200557974647
 30
0.0
 10
128.9575371607244
 20
100.3685014052534
 30
0.0
 10
128.8544403406427
 20
100.4549459701026
 30
0.0
 10
128.8092142801533
 20
100.4926487625348
 30
0.0
 10
128.8081394820381
 20
100.4935447700535
 30
0.0
  0
LINE
  5
B5
330
1F
100
AcDbEntity
  8
0
  6
Continuous
 62
     7
370
    25
100
AcDbLine
 10
121.1793286572
 20
103.7954115883
 30
0.0
 11
121.1836639638
 21
103.8093949311
 31
0.0
  0
LINE
  5
B6
330
1F
100
AcDbEntity
  8
0
  6
Continuous
 62
     7
370
    25
100
AcDbLine
 10
121.1836639638
 20
103.8093949311
 30
0.0
 11
121.6192053477
 21
103.3705818109
 31
0.0
  0
ARC
  5
B7
330
1F
100
AcDbEntity
  8
0
  6
Continuous
 62
     7
370
    25
100
AcDbCircle
 10
122.6026647131
 20
105.9003394531
 30
0.0
 40
2.799554172203098
100
AcDbArc
 50
340.1915027526
 51
0.4176363071
  0
LINE
  5
B8
330
1F
100
AcDbEntity
  8
0
  6
Continuous
 62
     7
370
    25
100
AcDbLine
 10
122.6868828605
 20
103.0804133617
 30
0.0
 11
122.627053767
 21
103.0787826158
 31
0.0
  0
LWPOLYLINE
  5
B9
330
1F
100
AcDbEntity
  8
0
  6
Continuous
 62
     7
370
    25
100
AcDbPolyline
 90
        3
 70
   128
 43
0.0
 10
124.6734693493
 20
107.3090783894
 10
124.7594881649
 20
106.9228933767
 10
124.7851679879
 20
106.6704043761
  0
LINE
  5
BA
330
1F
100
AcDbEntity
  8
0
  6
Continuous
 62
     7
370
    25
100
AcDbLine
 10
121.3421042855
 20
103.7675380349
 30
0.0
 11
121.1836639638
 21
103.8093949311
 31
0.0
  0
LINE
  5
BB
330
1F
100
AcDbEntity
  8
0
  6
Continuous
 62
     7
370
    25
100
AcDbLine
 10
123.8339966009
 20
107.586876081
 30
0.0
 11
124.0758084538
 21
107.246359402
 31
0.0
  0
LINE
  5
BC
330
1F
100
AcDbEntity
  8
0
  6
Continuous
 62
     7
370
    25
100
AcDbLine
 10
124.0758084538
 20
107.246359402
 30
0.0
 11
123.1746611963
 21
107.4881316737
 31
0.0
  0
LINE
  5
BD
330
1F
100
AcDbEntity
  8
0
  6
Continuous
 62
     7
370
    25
100
AcDbLine
 10
123.1746611963
 20
107.4881316737
 30
0.0
 11
123.1041232902
 21
107.5874628142
 31
0.0
  0
ELLIPSE
  5
BE
330
1F
100
AcDbEntity
  8
0
  6
Continuous
 62
     7
370
    25
100
AcDbEllipse
 10
123.0285157325
 20
105.2580484993
 30
0.0
 11
1.621734344884615
 21
1.560727006256244
 31
0.0
210
0.0
220
0.0
230
1.0
 40
0.9846411173
 41
3.888429449006821
 42
6.607600341878248
  0
ELLIPSE
  5
BF
330
1F
100
AcDbEntity
  8
0
  6
Continuous
 62
     7
370
    25
100
AcDbEllipse
 10
123.0285157325
 20
105.2580484993
 30
0.0
 11
1.621734344884615
 21
1.560727006256244
 31
0.0
210
0.0
220
0.0
230
1.0
 40
0.9846411173
 41
0.7468367954170333
 42
1.068812477588062
  0
ELLIPSE
  5
C0
330
1F
100
AcDbEntity
  8
0
  6
Continuous
 62
     7
370
    25
100
AcDbEllipse
 10
123.0285157325
 20
105.2580484993
 30
0.0
 11
1.621734344884615
 21
1.560727006256244
 31
0.0
210
0.0
220
0.0
230
1.0
 40
0.9846411173
 41
2.730351781330488
 42
3.466007688288498
  0
LINE
  5
C1
330
1F
100
AcDbEntity
  8
0
  6
Continuous
 62
     7
370
    25
100
AcDbLine
 10
121.981223471
 20
103.2697377369
 30
0.0
 11
122.8823702629
 21
103.0279649995
 31
0.0
  0
LINE
  5
C2
330
1F
100
AcDbEntity
  8
0
  6
Continuous
 62
     7
370
    25
100
AcDbLine
 10
121.06961327
 20
104.0626145542
 30
0.0
 11
121.1360556851
 21
104.0369356625
 31
0.0
  0
CIRCLE
  5
C3
330
1F
100
AcDbEntity
  8
0
  6
Continuous
 62
     7
370
    25
100
AcDbCircle
 10
111.2096204128
 20
108.3805445175
 30
0.0
 40
3.473926082274697
  0
CIRCLE
  5
C4
330
1F
100
AcDbEntity
  8
0
  6
Continuous
 62
     7
370
    25
100
AcDbCircle
 10
111.188551381
 20
108.3802406365
 30
0.0
 40
1.985283184732036
  0
SPLINE
  5
C5
330
1F
100
AcDbEntity
  8
0
  6
Continuous
 62
     7
370
    25
100
AcDbSpline
210
0.0
220
0.0
230
1.0
 70
     8
 71
     3
 72
    11
 73
     7
 74
     0
 42
0.000000001
 43
0.00000001
 40
0.0
 40
0.0
 40
0.0
 40
0.0
 40
0.1081105020462007
 40
0.4711586194564454
 40
0.813581394675133
 40
1.0
 40
1.0
 40
1.0
 40
1.0
 10
109.8936697314401
 20
107.1974696234082
 30
0.0
 10
109.9461967920703
 20
107.185837038232
 30
0.0
 10
110.1751160635769
 20
107.1351408277008
 30
0.0
 10
110.6235688899686
 20
107.025888632689
 30
0.0
 10
111.1534452951551
 20
106.8747175180854
 30
0.0
 10
111.4448518897764
 20
106.7843711749509
 30
0.0
 10
111.5475738267322
 20
106.7525237441277
 30
0.0
  0
SPLINE
  5
C6
330
1F
100
AcDbEntity
  8
0
  6
Continuous
 62
     7
370
    25
100
AcDbSpline
210
0.0
220
0.0
230
1.0
 70
     8
 71
     3
 72
    10
 73
     6
 74
     0
 42
0.000000001
 43
0.00000001
 40
0.0
 40
0.0
 40
0.0
 40
0.0
 40
0.4391162849184908
 40
0.7513665815400647
 40
1.0
 40
1.0
 40
1.0
 40
1.0
 10
111.5475738267322
 20
106.7525237441277
 30
0.0
 10
111.7117757255856
 20
106.9390686308887
 30
0.0
 10
111.9927396152461
 20
107.2582633378112
 30
0.0
 10
112.4415319584235
 20
107.6816046796045
 30
0.0
 10
112.6770002327912
 20
107.8801334786822
 30
0.0
 10
112.781380660357
 20
107.9681390539025
 30
0.0
  0
SPLINE
  5
C7
330
1F
100
AcDbEntity
  8
0
  6
Continuous
 62
     7
370
    25
100
AcDbSpline
210
0.0
220
0.0
230
1.0
 70
     8
 71
     3
 72
    10
 73
     6
 74
     0
 42
0.000000001
 43
0.00000001
 40
0.0
 40
0.0
 40
0.0
 40
0.0
 40
0.4391168107762723
 40
0.7513668810626166
 40
1.0
 40
1.0
 40
1.0
 40
1.0
 10
112.781380660357
 20
107.9681390539025
 30
0.0
 10
112.7088135383609
 20
108.218381727051
 30
0.0
 10
112.5846449099144
 20
108.6465686063007
 30
0.0
 10
112.4445047480978
 20
109.2283488340931
 30
0.0
 10
112.3868425365731
 20
109.5057378071301
 30
0.0
 10
112.3612815360446
 20
109.6287011742806
 30
0.0
  0
SPLINE
  5
C8
330
1F
100
AcDbEntity
  8
0
  6
Continuous
 62
     7
370
    25
100
AcDbSpline
210
0.0
220
0.0
230
1.0
 70
     8
 71
     3
 72
    11
 73
     7
 74
     0
 42
0.000000001
 43
0.00000001
 40
0.0
 40
0.0
 40
0.0
 40
0.0
 40
0.1864187296817721
 40
0.5288413224995813
 40
0.8918895109790577
 40
0.9999999999999999
 40
0.9999999999999999
 40
0.9999999999999999
 40
0.9999999999999999
 10
112.3612815360446
 20
109.6287011742806
 30
0.0
 10
112.2585596293814
 20
109.6605490200235
 30
0.0
 10
111.9671533470719
 20
109.7508964700366
 30
0.0
 10
111.4372762289651
 20
109.9020652179582
 30
0.0
 10
110.9888238552739
 20
110.0113192872412
 30
0.0
 10
110.7599045063476
 20
110.0620154203151
 30
0.0
 10
110.7073774407525
 20
110.0736479848837
 30
0.0
  0
SPLINE
  5
C9
330
1F
100
AcDbEntity
  8
0
  6
Continuous
 62
     7
370
    25
100
AcDbSpline
210
0.0
220
0.0
230
1.0
 70
     8
 71
     3
 72
    10
 73
     6
 74
     0
 42
0.000000001
 43
0.00000001
 40
0.0
 40
0.0
 40
0.0
 40
0.0
 40
0.4391164016142279
 40
0.7513670579663088
 40
0.9999999999999999
 40
0.9999999999999999
 40
0.9999999999999999
 40
0.9999999999999999
 10
110.7073774407525
 20
110.0736479848837
 30
0.0
 10
110.5183220907741
 20
109.9121432232089
 30
0.0
 10
110.1948316413536
 20
109.6357942706735
 30
0.0
 10
109.7649414392889
 20
109.1934088160286
 30
0.0
 10
109.5630628266599
 20
108.961038642347
 30
0.0
 10
109.4735724697728
 20
108.8580317437862
 30
0.0
  0
SPLINE
  5
CA
330
1F
100
AcDbEntity
  8
0
  6
Continuous
 62
     7
370
    25
100
AcDbSpline
210
0.0
220
0.0
230
1.0
 70
     8
 71
     3
 72
    10
 73
     6
 74
     0
 42
0.000000001
 43
0.00000001
 40
0.0
 40
0.0
 40
0.0
 40
0.0
 40
0.4391164842758584
 40
0.7513669573481245
 40
1.0
 40
1.0
 40
1.0
 40
1.0
 10
109.4735724697728
 20
108.8580317437862
 30
0.0
 10
109.5212849340437
 20
108.6328295080376
 30
0.0
 10
109.6029251602491
 20
108.2474886594892
 30
0.0
 10
109.761971525824
 20
107.6466644805923
 30
0.0
 10
109.8532202492951
 20
107.335434292481
 30
0.0
 10
109.8936697314401
 20
107.1974696234082
 30
0.0
  0
LINE
  5
CB
330
1F
100
AcDbEntity
  8
0
  6
Continuous
 62
     7
370
    25
100
AcDbLine
 10
112.3299481193
 20
108.4229616091
 30
0.0
 11
112.7813806604
 21
107.9681390539
 31
0.0
  0
LINE
  5
CC
330
1F
100
AcDbEntity
  8
0
  6
Continuous
 62
     7
370
    25
100
AcDbLine
 10
112.3299481193
 20
108.4229616091
 30
0.0
 11
112.1198994885
 21
109.2532431349
 31
0.0
  0
LINE
  5
CD
330
1F
100
AcDbEntity
  8
0
  6
Continuous
 62
     7
370
    25
100
AcDbLine
 10
112.1198994885
 20
109.2532431349
 30
0.0
 11
111.996931381
 21
109.7393050432
 31
0.0
  0
LINE
  5
CE
330
1F
100
AcDbEntity
  8
0
  6
Continuous
 62
     7
370
    25
100
AcDbLine
 10
109.7893243502
 20
107.5589168459
 30
0.0
 11
110.2691901694
 21
107.4298197046
 31
0.0
  0
LINE
  5
CF
330
1F
100
AcDbEntity
  8
0
  6
Continuous
 62
     7
370
    25
100
AcDbLine
 10
110.2691901694
 20
107.4298197046
 30
0.0
 11
111.0961412857
 21
107.2073462993
 31
0.0
  0
LINE
  5
D0
330
1F
100
AcDbEntity
  8
0
  6
Continuous
 62
     7
370
    25
100
AcDbLine
 10
111.0961412857
 20
107.2073462993
 30
0.0
 11
111.5475738267
 21
106.7525237441
 31
0.0
  0
LINE
  5
D1
330
1F
100
AcDbEntity
  8
0
  6
Continuous
 62
     7
370
    25
100
AcDbLine
 10
111.0961412857
 20
107.2073462993
 30
0.0
 11
111.7130456339
 21
107.8151544199
 31
0.0
  0
LINE
  5
D2
330
1F
100
AcDbEntity
  8
0
  6
Continuous
 62
     7
370
    25
100
AcDbLine
 10
111.7130456339
 20
107.8151544199
 30
0.0
 11
112.3299481193
 21
108.4229616091
 31
0.0
  0
ARC
  5
D3
330
1F
100
AcDbEntity
  8
0
  6
Continuous
 62
     7
370
    25
100
AcDbCircle
 10
110.6602559059
 20
108.8895986795
 30
0.0
 40
1.504259511602977
100
AcDbArc
 50
314.4167682428
 51
13.9894462407
  0
ARC
  5
D4
330
1F
100
AcDbEntity
  8
0
  6
Continuous
 62
     7
370
    25
100
AcDbCircle
 10
110.6545906951
 20
108.8834599953
 30
0.0
 40
1.503862912606044
100
AcDbArc
 50
255.150928528
 51
314.7346218029
  0
ARC
  5
D5
330
1F
100
AcDbEntity
  8
0
  6
Continuous
 62
     7
370
    25
100
AcDbCircle
 10
110.6486588302
 20
108.8425690259
 30
0.0
 40
1.462825043973668
100
AcDbArc
 50
232.2203815761
 51
254.9650563831
  0
ARC
  5
D6
330
1F
100
AcDbEntity
  8
0
  6
Continuous
 62
     7
370
    25
100
AcDbCircle
 10
110.7022683854
 20
108.895395042
 30
0.0
 40
1.462098902945503
100
AcDbArc
 50
14.1670351924
 51
38.6151058258
  0
LINE
  5
D7
330
1F
100
AcDbEntity
  8
0
  6
Continuous
 62
     7
370
    25
100
AcDbLine
 10
111.0421394776
 20
152.5378698126
 30
0.0
 11
111.0421394776
 21
172.4498742834
 31
0.0
  0
ARC
  5
D8
330
1F
100
AcDbEntity
  8
0
  6
Continuous
 62
     7
370
    25
100
AcDbCircle
 10
56.2698836396
 20
207.4498709575
 30
0.0
 40
64.99999999999945
100
AcDbArc
 50
327.4210296072
 51
327.7343057984
  0
LINE
  5
D9
330
1F
100
AcDbEntity
  8
0
  6
Continuous
 62
     7
370
    25
100
AcDbLine
 10
111.232689939
 20
172.7498719111
 30
0.0
 11
111.232689939
 21
173.623489739
 31
0.0
  0
ELLIPSE
  5
DA
330
1F
100
AcDbEntity
  8
0
  6
Continuous
 62
     7
370
    25
100
AcDbEllipse
 10
56.2698836396
 20
233.7256492224
 30
0.0
 11
-2.842170943040400E-14
 21
112.5833024919799
 31
0.0
210
0.0
220
0.0
230
1.0
 40
0.5773502692
 41
4.14924638112509
 42
4.15882262572417
  0
LINE
  5
DB
330
1F
100
AcDbEntity
  8
0
  6
Continuous
 62
     7
370
    25
100
AcDbLine
 10
111.7736840467
 20
174.5378696934
 30
0.0
 11
111.5624600868
 21
174.5378696934
 31
0.0
  0
ELLIPSE
  5
DC
330
1F
100
AcDbEntity
  8
0
  6
Continuous
 62
     7
370
    25
100
AcDbEllipse
 10
56.2698836396
 20
115.9461943077
 30
0.0
 11
-2.842170943040401E-14
 21
112.5833024919779
 31
0.0
210
0.0
220
0.0
230
1.0
 40
0.5773502692
 41
5.247121466108205
 42
5.259742887789403
  0
SPLINE
  5
DD
330
1F
100
AcDbEntity
  8
0
  6
Continuous
 62
     7
370
    25
100
AcDbSpline
210
0.0
220
0.0
230
1.0
 70
     8
 71
     3
 72
    10
 73
     6
 74
     0
 42
0.000000001
 43
0.00000001
 40
0.0
 40
0.0
 40
0.0
 40
0.0
 40
0.5
 40
0.5
 40
1.0
 40
1.0
 40
1.0
 40
1.0
 10
112.1962078757449
 20
173.3198709574555
 30
0.0
 10
112.2121749212898
 20
173.2731782116678
 30
0.0
 10
112.2416296112231
 20
173.2478269778049
 30
0.0
 10
112.2982931267505
 20
173.2479150579316
 30
0.0
 10
112.3273634706989
 20
173.2731294793173
 30
0.0
 10
112.3431852495601
 20
173.3198709574555
 30
0.0
  0
ELLIPSE
  5
DE
330
1F
100
AcDbEntity
  8
0
  6
Continuous
 62
     7
370
    25
100
AcDbEllipse
 10
56.2698836396
 20
230.2615476072
 30
0.0
 11
-2.842170943040400E-14
 21
112.583302491979
 31
0.0
210
0.0
220
0.0
230
1.0
 40
0.5773502692
 41
4.182110347111251
 42
4.194605854562914
  0
LINE
  5
DF
330
1F
100
AcDbEntity
  8
0
  6
Continuous
 62
     7
370
    25
100
AcDbLine
 10
112.9442466269
 20
174.5378696934
 30
0.0
 11
112.7495908956
 21
174.5378696934
 31
0.0
  0
ELLIPSE
  5
E0
330
1F
100
AcDbEntity
  8
0
  6
Continuous
 62
     7
370
    25
100
AcDbEllipse
 10
56.2698836396
 20
119.4102959228
 30
0.0
 11
-2.842170943040401E-14
 21
112.5833024919768
 31
0.0
210
0.0
220
0.0
230
1.0
 40
0.5773502692
 41
5.211723770842417
 42
5.22408910158627
  0
SPLINE
  5
E1
330
1F
100
AcDbEntity
  8
0
  6
Continuous
 62
     7
370
    25
100
AcDbSpline
210
0.0
220
0.0
230
1.0
 70
     8
 71
     3
 72
    10
 73
     6
 74
     0
 42
0.000000001
 43
0.00000001
 40
0.0
 40
0.0
 40
0.0
 40
0.0
 40
0.5
 40
0.5
 40
1.0
 40
1.0
 40
1.0
 40
1.0
 10
113.3334672389418
 20
173.3198709574555
 30
0.0
 10
113.3481496443327
 20
173.2732467353065
 30
0.0
 10
113.3751167185829
 20
173.2478008826226
 30
0.0
 10
113.4277317654787
 20
173.2479413343963
 30
0.0
 10
113.4542914586656
 20
173.2733083815877
 30
0.0
 10
113.4688025350569
 20
173.3198709574555
 30
0.0
  0
ELLIPSE
  5
E2
330
1F
100
AcDbEntity
  8
0
  6
Continuous
 62
     7
370
    25
100
AcDbEllipse
 10
56.2698836396
 20
226.7974459921
 30
0.0
 11
-2.842170943040401E-14
 21
112.583302491979
 31
0.0
210
0.0
220
0.0
230
1.0
 40
0.5773502692
 41
4.217419837706666
 42
4.229673777284717
  0
LINE
  5
E3
330
1F
100
AcDbEntity
  8
0
  6
Continuous
 62
     7
370
    25
100
AcDbLine
 10
114.0218986045
 20
174.5378696934
 30
0.0
 11
113.8428425263
 21
174.5378696934
 31
0.0
  0
ELLIPSE
  5
E4
330
1F
100
AcDbEntity
  8
0
  6
Continuous
 62
     7
370
    25
100
AcDbEllipse
 10
56.2698836396
 20
122.874397538
 30
0.0
 11
-2.842170943040401E-14
 21
112.5833024919779
 31
0.0
210
0.0
220
0.0
230
1.0
 40
0.5773502692
 41
5.176997021282199
 42
5.189135686010044
  0
SPLINE
  5
E5
330
1F
100
AcDbEntity
  8
0
  6
Continuous
 62
     7
370
    25
100
AcDbSpline
210
0.0
220
0.0
230
1.0
 70
     8
 71
     3
 72
    10
 73
     6
 74
     0
 42
0.000000001
 43
0.00000001
 40
0.0
 40
0.0
 40
0.0
 40
0.0
 40
0.5
 40
0.5
 40
1.0
 40
1.0
 40
1.0
 40
1.0
 10
114.3797055618166
 20
173.3198709574555
 30
0.0
 10
114.3930767798648
 20
173.273662702463
 30
0.0
 10
114.4178348313009
 20
173.2478080636486
 30
0.0
 10
114.4664346294091
 20
173.2479340919135
 30
0.0
 10
114.4908052990925
 20
173.2736249621153
 30
0.0
 10
114.504044509115
 20
173.3198709574555
 30
0.0
  0
ELLIPSE
  5
E6
330
1F
100
AcDbEntity
  8
0
  6
Continuous
 62
     7
370
    25
100
AcDbEllipse
 10
56.2698836396
 20
223.333344377
 30
0.0
 11
-2.842170943040401E-14
 21
112.5833024919777
 31
0.0
210
0.0
220
0.0
230
1.0
 40
0.5773502692
 41
4.252068482825861
 42
4.264108438296669
  0
LINE
  5
E7
330
1F
100
AcDbEntity
  8
0
  6
Continuous
 62
     7
370
    25
100
AcDbLine
 10
115.0117492149
 20
174.5378696934
 30
0.0
 11
114.847473226
 21
174.5378696934
 31
0.0
  0
ELLIPSE
  5
E8
330
1F
100
AcDbEntity
  8
0
  6
Continuous
 62
     7
370
    25
100
AcDbEllipse
 10
56.2698836396
 20
126.3384991531
 30
0.0
 11
-2.842170943040401E-14
 21
112.583302491978
 31
0.0
210
0.0
220
0.0
230
1.0
 40
0.5773502692
 41
5.142864729338502
 42
5.154802491464638
  0
SPLINE
  5
E9
330
1F
100
AcDbEntity
  8
0
  6
Continuous
 62
     7
370
    25
100
AcDbSpline
210
0.0
220
0.0
230
1.0
 70
     8
 71
     3
 72
    10
 73
     6
 74
     0
 42
0.000000001
 43
0.00000001
 40
0.0
 40
0.0
 40
0.0
 40
0.0
 40
0.5
 40
0.5
 40
1.0
 40
1.0
 40
1.0
 40
1.0
 10
115.3397595025504
 20
173.3198709574555
 30
0.0
 10
115.3519103044606
 20
173.2740391948078
 30
0.0
 10
115.3745675947572
 20
173.2478151995589
 30
0.0
 10
115.4193135952839
 20
173.2479269024775
 30
0.0
 10
115.441606169017
 20
173.2739178262492
 30
0.0
 10
115.4536538941557
 20
173.3198709574555
 30
0.0
  0
ELLIPSE
  5
EA
330
1F
100
AcDbEntity
  8
0
  6
Continuous
 62
     7
370
    25
100
AcDbEllipse
 10
56.2698836396
 20
219.8692427618
 30
0.0
 11
-2.842170943040401E-14
 21
112.583302491979
 31
0.0
210
0.0
220
0.0
230
1.0
 40
0.5773502692
 41
4.286131535976009
 42
4.29798177864182
  0
LINE
  5
EB
330
1F
100
AcDbEntity
  8
0
  6
Continuous
 62
     7
370
    25
100
AcDbLine
 10
115.9181738119
 20
174.5378696934
 30
0.0
 11
115.767970107
 21
174.5378696934
 31
0.0
  0
ELLIPSE
  5
EC
330
1F
100
AcDbEntity
  8
0
  6
Continuous
 62
     7
370
    25
100
AcDbEllipse
 10
56.2698836396
 20
129.8026007682
 30
0.0
 11
-2.842170943040401E-14
 21
112.5833024919779
 31
0.0
210
0.0
220
0.0
230
1.0
 40
0.5773502692
 41
5.109259463333228
 42
5.121019112251357
  0
SPLINE
  5
ED
330
1F
100
AcDbEntity
  8
0
  6
Continuous
 62
     7
370
    25
100
AcDbSpline
210
0.0
220
0.0
230
1.0
 70
     8
 71
     3
 72
    10
 73
     6
 74
     0
 42
0.000000001
 43
0.00000001
 40
0.0
 40
0.0
 40
0.0
 40
0.0
 40
0.5
 40
0.5
 40
1.0
 40
1.0
 40
1.0
 40
1.0
 10
116.2177698833786
 20
173.3198709574555
 30
0.0
 10
116.2287777553181
 20
173.2743787665197
 30
0.0
 10
116.2494291449755
 20
173.2478222066008
 30
0.0
 10
116.2904571290262
 20
173.2479198499087
 30
0.0
 10
116.310787329606
 20
173.2742695048793
 30
0.0
 10
116.3216931952788
 20
173.3198709574555
 30
0.0
  0
ELLIPSE
  5
EE
330
1F
100
AcDbEntity
  8
0
  6
Continuous
 62
     7
370
    25
100
AcDbEllipse
 10
56.2698836396
 20
216.4051411467
 30
0.0
 11
-2.842170943040400E-14
 21
112.583302491979
 31
0.0
210
0.0
220
0.0
230
1.0
 40
0.5773502692
 41
4.319675423926186
 42
4.331357523518809
  0
LINE
  5
EF
330
1F
100
AcDbEntity
  8
0
  6
Continuous
 62
     7
370
    25
100
AcDbLine
 10
116.7449218999
 20
174.5378696934
 30
0.0
 11
116.6081841881
 21
174.5378696934
 31
0.0
  0
ELLIPSE
  5
F0
330
1F
100
AcDbEntity
  8
0
  6
Continuous
 62
     7
370
    25
100
AcDbEllipse
 10
56.2698836396
 20
133.2667023834
 30
0.0
 11
-2.842170943040400E-14
 21
112.5833024919779
 31
0.0
210
0.0
220
0.0
230
1.0
 40
0.5773502692
 41
5.076121188278911
 42
5.087723077999772
  0
SPLINE
  5
F1
330
1F
100
AcDbEntity
  8
0
  6
Continuous
 62
     7
370
    25
100
AcDbSpline
210
0.0
220
0.0
230
1.0
 70
     8
 71
     3
 72
    29
 73
    25
 74
     0
 42
0.000000001
 43
0.00000001
 40
0.0005416600849667
 40
0.0005416600849667
 40
0.0005416600849667
 40
0.0005416600849667
 40
0.0005443640024637
 40
0.0005443640024637
 40
0.0005443640024637
 40
0.0005908636156323
 40
0.0005908636156323
 40
0.0005908636156323
 40
0.000640059491548
 40
0.000640059491548
 40
0.000640059491548
 40
0.0006924321855466
 40
0.0006924321855466
 40
0.0006924321855466
 40
0.0007471907431744
 40
0.0007471907431744
 40
0.0007471907431744
 40
0.0008022976225063
 40
0.0008022976225063
 40
0.0008022976225063
 40
0.0008553236765468
 40
0.0008553236765468
 40
0.0008553236765468
 40
0.0008566673360759
 40
0.0008566673360759
 40
0.0008566673360759
 40
0.0008566673360759
 10
117.0172942488569
 20
173.3198709574555
 30
0.0
 10
117.0174649869074
 20
173.3190940979835
 30
0.0
 10
117.0176383943307
 20
173.3183218327689
 30
0.0
 10
117.0178144133231
 20
173.317554360537
 30
0.0
 10
117.0208069535229
 20
173.3045063850041
 30
0.0
 10
117.0246095548844
 20
173.2927166069397
 30
0.0
 10
117.0288989123118
 20
173.2829562981406
 30
0.0
 10
117.0334353120416
 20
173.2726338517256
 30
0.0
 10
117.0386287608709
 20
173.2643118154567
 30
0.0
 10
117.0440720388436
 20
173.2584770949651
 30
0.0
 10
117.0498618845836
 20
173.252270883974
 30
0.0
 10
117.0560844796852
 20
173.2487134634038
 30
0.0
 10
117.0622606748364
 20
173.2480060470934
 30
0.0
 10
117.0687110464785
 20
173.2472672268334
 30
0.0
 10
117.0752882812211
 20
173.2496218324505
 30
0.0
 10
117.081450755865
 20
173.2549311864514
 30
0.0
 10
117.0876464398111
 20
173.2602691523252
 30
0.0
 10
117.0936029613526
 20
173.268764986581
 30
0.0
 10
117.0987602286712
 20
173.2798176255858
 30
0.0
 10
117.1037216944484
 20
173.2904506385325
 30
0.0
 10
117.1080901720494
 20
173.3037892124424
 30
0.0
 10
117.1114001158025
 20
173.3187146097316
 30
0.0
 10
117.1114853388284
 20
173.3190989025215
 30
0.0
 10
117.1115699135453
 20
173.3194843599918
 30
0.0
 10
117.1116538331027
 20
173.3198709574555
 30
0.0
  0
ELLIPSE
  5
F2
330
1F
100
AcDbEntity
  8
0
  6
Continuous
 62
     7
370
    25
100
AcDbEllipse
 10
56.2698836396
 20
212.9410395315
 30
0.0
 11
-2.842170943040401E-14
 21
112.583302491979
 31
0.0
210
0.0
220
0.0
230
1.0
 40
0.5773502692
 41
4.352759357355576
 42
4.36429266408961
  0
LINE
  5
F3
330
1F
100
AcDbEntity
  8
0
  6
Continuous
 62
     7
370
    25
100
AcDbLine
 10
117.4952205117
 20
174.5378696934
 30
0.0
 11
117.3714291151
 21
174.5378696934
 31
0.0
  0
ELLIPSE
  5
F4
330
1F
100
AcDbEntity
  8
0
  6
Continuous
 62
     7
370
    25
100
AcDbEllipse
 10
56.2698836396
 20
136.7308039985
 30
0.0
 11
-2.842170943040401E-14
 21
112.5833024919779
 31
0.0
210
0.0
220
0.0
230
1.0
 40
0.5773502692
 41
5.043395952741024
 42
5.054858430167272
  0
SPLINE
  5
F5
330
1F
100
AcDbEntity
  8
0
  6
Continuous
 62
     7
370
    25
100
AcDbSpline
210
0.0
220
0.0
230
1.0
 70
     8
 71
     3
 72
    29
 73
    25
 74
     0
 42
0.000000001
 43
0.00000001
 40
0.0005386973542427
 40
0.0005386973542427
 40
0.0005386973542427
 40
0.0005386973542427
 40
0.0005419792111182
 40
0.0005419792111182
 40
0.0005419792111182
 40
0.0005887996552758
 40
0.0005887996552758
 40
0.0005887996552758
 40
0.0006378736293418
 40
0.0006378736293418
 40
0.0006378736293418
 40
0.0006895668865734
 40
0.0006895668865734
 40
0.0006895668865734
 40
0.0007431746137508
 40
0.0007431746137508
 40
0.0007431746137508
 40
0.0007970141084604
 40
0.0007970141084604
 40
0.0007970141084604
 40
0.0008491493109968
 40
0.0008491493109968
 40
0.0008491493109968
 40
0.0008510139949934
 40
0.0008510139949934
 40
0.0008510139949934
 40
0.0008510139949934
 10
117.741395141777
 20
173.3198709574555
 30
0.0
 10
117.7415827463125
 20
173.3189254016936
 30
0.0
 10
117.7417739458174
 20
173.3179865246828
 30
0.0
 10
117.7419686492506
 20
173.3170546856814
 30
0.0
 10
117.7447150482272
 20
173.3039105842266
 30
0.0
 10
117.7482112847867
 20
173.292032741657
 30
0.0
 10
117.7521607075183
 20
173.2822309723689
 30
0.0
 10
117.756298905611
 20
173.2719606959945
 30
0.0
 10
117.7610391701217
 20
173.2636989212039
 30
0.0
 10
117.7660061670224
 20
173.2579614047135
 30
0.0
 10
117.7712344386272
 20
173.2519220825338
 30
0.0
 10
117.7768510176444
 20
173.2485176261802
 30
0.0
 10
117.7824175479597
 20
173.2479562636313
 30
0.0
 10
117.7881848442164
 20
173.2473746546319
 30
0.0
 10
117.7940573395751
 20
173.2498333997474
 30
0.0
 10
117.7995501514393
 20
173.2551764272766
 30
0.0
 10
117.8050624385548
 20
173.2605383989835
 30
0.0
 10
117.8103510564282
 20
173.2689726146645
 30
0.0
 10
117.8149295136504
 20
173.2798604767992
 30
0.0
 10
117.8193623804222
 20
173.2904021155936
 30
0.0
 10
117.8232589325696
 20
173.3035708744873
 30
0.0
 10
117.8262224319999
 20
173.3182637065814
 30
0.0
 10
117.8263300452199
 20
173.3187972457335
 30
0.0
 10
117.8264365221975
 20
173.3193330182381
 30
0.0
 10
117.8265418468684
 20
173.3198709574555
 30
0.0
  0
ELLIPSE
  5
F6
330
1F
100
AcDbEntity
  8
0
  6
Continuous
 62
     7
370
    25
100
AcDbEllipse
 10
56.2698836396
 20
209.4769379164
 30
0.0
 11
-2.842170943040401E-14
 21
112.583302491979
 31
0.0
210
0.0
220
0.0
230
1.0
 40
0.5773502692
 41
4.385436607477991
 42
4.396838637918167
  0
LINE
  5
F7
330
1F
100
AcDbEntity
  8
0
  6
Continuous
 62
     7
370
    25
100
AcDbLine
 10
118.1718515078
 20
174.5378696934
 30
0.0
 11
118.0605556662
 21
174.5378696934
 31
0.0
  0
ELLIPSE
  5
F8
330
1F
100
AcDbEntity
  8
0
  6
Continuous
 62
     7
370
    25
100
AcDbEllipse
 10
56.2698836396
 20
140.1949056136
 30
0.0
 11
-2.842170943040401E-14
 21
112.5833024919779
 31
0.0
210
0.0
220
0.0
230
1.0
 40
0.5773502692
 41
5.011034835056231
 42
5.02237458528715
  0
SPLINE
  5
F9
330
1F
100
AcDbEntity
  8
0
  6
Continuous
 62
     7
370
    25
100
AcDbSpline
210
0.0
220
0.0
230
1.0
 70
     8
 71
     3
 72
    29
 73
    25
 74
     0
 42
0.000000001
 43
0.00000001
 40
0.0005360961035473
 40
0.0005360961035473
 40
0.0005360961035473
 40
0.0005360961035473
 40
0.0005399249923766
 40
0.0005399249923766
 40
0.0005399249923766
 40
0.0005870330498909
 40
0.0005870330498909
 40
0.0005870330498909
 40
0.0006359911913607
 40
0.0006359911913607
 40
0.0006359911913607
 40
0.0006870721666453
 40
0.0006870721666453
 40
0.0006870721666453
 40
0.00073966543428
 40
0.00073966543428
 40
0.00073966543428
 40
0.0007924058790464
 40
0.0007924058790464
 40
0.0007924058790464
 40
0.0008437722717346
 40
0.0008437722717346
 40
0.0008437722717346
 40
0.0008460452496402
 40
0.0008460452496402
 40
0.0008460452496402
 40
0.0008460452496402
 10
118.3927100160207
 20
173.3198709574555
 30
0.0
 10
118.3929065736702
 20
173.3187650800658
 30
0.0
 10
118.3931075633747
 20
173.317668184009
 30
0.0
 10
118.3933128584961
 20
173.3165808451305
 30
0.0
 10
118.3958104631871
 20
173.3033523637849
 30
0.0
 10
118.398994889261
 20
173.2913978703638
 30
0.0
 10
118.4025964024059
 20
173.2815628281797
 30
0.0
 10
118.4063383533461
 20
173.2713442772909
 30
0.0
 10
118.4106265640792
 20
173.2631419622546
 30
0.0
 10
118.4151183262647
 20
173.2574974769337
 30
0.0
 10
118.4198019549029
 20
173.2516118863783
 30
0.0
 10
118.4248309400203
 20
173.2483486045575
 30
0.0
 10
118.4298080210222
 20
173.2479206798494
 30
0.0
 10
118.434928512562
 20
173.2474804248392
 30
0.0
 10
118.4401353064421
 20
173.2500330162617
 30
0.0
 10
118.4449977862387
 20
173.2554063703263
 30
0.0
 10
118.4498708950518
 20
173.2607914701404
 30
0.0
 10
118.4545373411482
 20
173.2691739441599
 30
0.0
 10
118.4585765024693
 20
173.2799210857914
 30
0.0
 10
118.4625100356283
 20
173.2903871787776
 30
0.0
 10
118.4659622161428
 20
173.3034128734816
 30
0.0
 10
118.468595728203
 20
173.3179087022974
 30
0.0
 10
118.4687139654232
 20
173.318559523886
 30
0.0
 10
118.4688306788952
 20
173.3192136495304
 30
0.0
 10
118.4689458432533
 20
173.3198709574555
 30
0.0
  0
ELLIPSE
  5
FA
330
1F
100
AcDbEntity
  8
0
  6
Continuous
 62
     7
370
    25
100
AcDbEllipse
 10
56.2698836396
 20
206.0128363013
 30
0.0
 11
-2.842170943040401E-14
 21
112.583302491979
 31
0.0
210
0.0
220
0.0
230
1.0
 40
0.5773502692
 41
4.417755532289656
 42
4.429042282479894
  0
LINE
  5
FB
330
1F
100
AcDbEntity
  8
0
  6
Continuous
 62
     7
370
    25
100
AcDbLine
 10
118.7772055934
 20
174.5378696934
 30
0.0
 11
118.6780206705
 21
174.5378696934
 31
0.0
  0
ELLIPSE
  5
FC
330
1F
100
AcDbEntity
  8
0
  6
Continuous
 62
     7
370
    25
100
AcDbEllipse
 10
56.2698836396
 20
143.6590072288
 30
0.0
 11
-2.842170943040401E-14
 21
112.5833024919779
 31
0.0
210
0.0
220
0.0
230
1.0
 40
0.5773502692
 41
4.978993086078225
 42
4.990225414597555
  0
SPLINE
  5
FD
330
1F
100
AcDbEntity
  8
0
  6
Continuous
 62
     7
370
    25
100
AcDbSpline
210
0.0
220
0.0
230
1.0
 70
     8
 71
     3
 72
    29
 73
    25
 74
     0
 42
0.000000001
 43
0.00000001
 40
0.0005338259982469
 40
0.0005338259982469
 40
0.0005338259982469
 40
0.0005338259982469
 40
0.00053816406151
 40
0.00053816406151
 40
0.00053816406151
 40
0.0005855273045933
 40
0.0005855273045933
 40
0.0005855273045933
 40
0.0006343764531272
 40
0.0006343764531272
 40
0.0006343764531272
 40
0.0006849100044023
 40
0.0006849100044023
 40
0.0006849100044023
 40
0.0007366148672804
 40
0.0007366148672804
 40
0.0007366148672804
 40
0.0007884072935404
 40
0.0007884072935404
 40
0.0007884072935404
 40
0.0008391138375181
 40
0.0008391138375181
 40
0.0008391138375181
 40
0.0008417051248245
 40
0.0008417051248245
 40
0.0008417051248245
 40
0.0008417051248245
 10
118.9735070407044
 20
173.3198709574555
 30
0.0
 10
118.9737050240113
 20
173.3186153361598
 30
0.0
 10
118.9739081027193
 20
173.3173711184708
 30
0.0
 10
118.9741161167048
 20
173.3161391484935
 30
0.0
 10
118.9763621015621
 20
173.3028372259992
 30
0.0
 10
118.9792294002883
 20
173.2908165560262
 30
0.0
 10
118.9824754431526
 20
173.2809552120086
 30
0.0
 10
118.9858225804794
 20
173.2707867471933
 30
0.0
 10
118.9896595184712
 20
173.262641750747
 30
0.0
 10
118.9936769060932
 20
173.2570847188573
 30
0.0
 10
118.997830706247
 20
173.2513389949963
 30
0.0
 10
119.0022883822407
 20
173.2482042907817
 30
0.0
 10
119.0066940120403
 20
173.2478967247486
 30
0.0
 10
119.0111989731092
 20
173.2475822241964
 30
0.0
 10
119.0157738496517
 20
173.2502183501704
 30
0.0
 10
119.0200399981901
 20
173.2556185088497
 30
0.0
 10
119.0243113547192
 20
173.2610252598865
 30
0.0
 10
119.028394337486
 20
173.2693643114228
 30
0.0
 10
119.0319277400788
 20
173.2799916262584
 30
0.0
 10
119.0353868334943
 20
173.2903954434877
 30
0.0
 10
119.0384181356608
 20
173.3033009888323
 30
0.0
 10
119.0407362243378
 20
173.3176305094454
 30
0.0
 10
119.0408563549418
 20
173.3183731100123
 30
0.0
 10
119.040974716988
 20
173.3191199866325
 30
0.0
 10
119.0410912779862
 20
173.3198709574555
 30
0.0
  0
ELLIPSE
  5
FE
330
1F
100
AcDbEntity
  8
0
  6
Continuous
 62
     7
370
    25
100
AcDbEllipse
 10
56.2698836396
 20
202.5487346861
 30
0.0
 11
-2.842170943040401E-14
 21
112.583302491979
 31
0.0
210
0.0
220
0.0
230
1.0
 40
0.5773502692
 41
4.449760412824596
 42
4.460946615812661
  0
LINE
  5
FF
330
1F
100
AcDbEntity
  8
0
  6
Continuous
 62
     7
370
    25
100
AcDbLine
 10
119.3133363346
 20
174.5378696934
 30
0.0
 11
119.2259307797
 21
174.5378696934
 31
0.0
  0
ELLIPSE
  5
100
330
1F
100
AcDbEntity
  8
0
  6
Continuous
 62
     7
370
    25
100
AcDbEllipse
 10
56.2698836396
 20
147.1231088439
 30
0.0
 11
-2.842170943040400E-14
 21
112.5833024919779
 31
0.0
210
0.0
220
0.0
230
1.0
 40
0.5773502692
 41
4.9472294224047
 42
4.95836848878662
  0
SPLINE
  5
101
330
1F
100
AcDbEntity
  8
0
  6
Continuous
 62
     7
370
    25
100
AcDbSpline
210
0.0
220
0.0
230
1.0
 70
     8
 71
     3
 72
    29
 73
    25
 74
     0
 42
0.000000001
 43
0.00000001
 40
0.0005318619300737
 40
0.0005318619300737
 40
0.0005318619300737
 40
0.0005318619300737
 40
0.0005366655099982
 40
0.0005366655099982
 40
0.0005366655099982
 40
0.000584252445651
 40
0.000584252445651
 40
0.000584252445651
 40
0.0006330004893073
 40
0.0006330004893073
 40
0.0006330004893073
 40
0.0006830498279237
 40
0.0006830498279237
 40
0.0006830498279237
 40
0.0007339837602156
 40
0.0007339837602156
 40
0.0007339837602156
 40
0.0007849648151218
 40
0.0007849648151218
 40
0.0007849648151218
 40
0.0008351094404938
 40
0.0008351094404938
 40
0.0008351094404938
 40
0.000837947189503
 40
0.000837947189503
 40
0.000837947189503
 40
0.000837947189503
 10
119.4857298987473
 20
173.3198709574555
 30
0.0
 10
119.485922309771
 20
173.3184780266449
 30
0.0
 10
119.4861202388897
 20
173.3170989428003
 30
0.0
 10
119.4863234989836
 20
173.3157348596269
 30
0.0
 10
119.4883150263212
 20
173.3023696737817
 30
0.0
 10
119.4908601596223
 20
173.290292432251
 30
0.0
 10
119.4937437247082
 20
173.2804106373839
 30
0.0
 10
119.4966971227793
 20
173.2702895293007
 30
0.0
 10
119.5000833563032
 20
173.2621985106174
 30
0.0
 10
119.5036271366463
 20
173.2567221296104
 30
0.0
 10
119.5072640382682
 20
173.2511018436334
 30
0.0
 10
119.5111647466556
 20
173.2480825038333
 30
0.0
 10
119.5150148606565
 20
173.2478819484178
 30
0.0
 10
119.5189311316395
 20
173.247677946834
 30
0.0
 10
119.5229031720212
 20
173.2503874288926
 30
0.0
 10
119.5266022138148
 20
173.2558108675944
 30
0.0
 10
119.5303033621145
 20
173.2612373948005
 30
0.0
 10
119.5338355028351
 20
173.2695401442815
 30
0.0
 10
119.5368914682045
 20
173.2800660142339
 30
0.0
 10
119.5398971712992
 20
173.2904187624056
 30
0.0
 10
119.5425275012507
 20
173.30322397073
 30
0.0
 10
119.5445428730485
 20
173.3174139259089
 30
0.0
 10
119.5446584815009
 20
173.3182279090955
 30
0.0
 10
119.5447722214489
 20
173.319046999763
 30
0.0
 10
119.5448840564222
 20
173.3198709574555
 30
0.0
  0
ELLIPSE
  5
102
330
1F
100
AcDbEntity
  8
0
  6
Continuous
 62
     7
370
    25
100
AcDbEllipse
 10
56.2698836396
 20
199.084633071
 30
0.0
 11
-2.842170943040400E-14
 21
112.583302491979
 31
0.0
210
0.0
220
0.0
230
1.0
 40
0.5773502692
 41
4.481492143765429
 42
4.492591484252365
  0
LINE
  5
103
330
1F
100
AcDbEntity
  8
0
  6
Continuous
 62
     7
370
    25
100
AcDbLine
 10
119.781997412
 20
174.5378696934
 30
0.0
 11
119.7060890342
 21
174.5378696934
 31
0.0
  0
ELLIPSE
  5
104
330
1F
100
AcDbEntity
  8
0
  6
Continuous
 62
     7
370
    25
100
AcDbEllipse
 10
56.2698836396
 20
150.5872104591
 30
0.0
 11
-2.842170943040401E-14
 21
112.5833024919779
 31
0.0
210
0.0
220
0.0
230
1.0
 40
0.5773502692
 41
4.915705435778204
 42
4.926764449876368
  0
SPLINE
  5
105
330
1F
100
AcDbEntity
  8
0
  6
Continuous
 62
     7
370
    25
100
AcDbSpline
210
0.0
220
0.0
230
1.0
 70
     8
 71
     3
 72
    20
 73
    16
 74
     0
 42
0.000000001
 43
0.00000001
 40
0.0005301831730603
 40
0.0005301831730603
 40
0.0005301831730603
 40
0.0005301831730603
 40
0.0005354037692559
 40
0.0005354037692559
 40
0.0005354037692559
 40
0.0005831838942233
 40
0.0005831838942233
 40
0.0005831838942233
 40
0.0006318398967749
 40
0.0006318398967749
 40
0.0006318398967749
 40
0.0006814670386902
 40
0.0006814670386902
 40
0.0006814670386902
 40
0.0006824246624812
 40
0.0006824246624812
 40
0.0006824246624812
 40
0.0006824246624812
 10
119.9310338718473
 20
173.3198709574555
 30
0.0
 10
119.9312143494853
 20
173.3183547142473
 30
0.0
 10
119.9314004819968
 20
173.3168546876513
 30
0.0
 10
119.9315920654542
 20
173.3153723669853
 30
0.0
 10
119.9333264090421
 20
173.3019533934636
 30
0.0
 10
119.9355447315622
 20
173.2898283940733
 30
0.0
 10
119.9380594676099
 20
173.2799309834251
 30
0.0
 10
119.9406199502532
 20
173.2698535249175
 30
0.0
 10
119.9435559197148
 20
173.2618120821371
 30
0.0
 10
119.9466268116938
 20
173.2564084930628
 30
0.0
 10
119.9497580188128
 20
173.2508987725345
 30
0.0
 10
119.9531142832123
 20
173.2479811199912
 30
0.0
 10
119.9564228504186
 20
173.2478740968691
 30
0.0
 10
119.9564875522956
 20
173.24787200394
 30
0.0
 10
119.9565522534992
 20
173.2478709574555
 30
0.0
 10
119.9566169519982
 20
173.2478709574555
 30
0.0
  0
LINE
  5
106
330
1F
100
AcDbEntity
  8
0
  6
Continuous
 62
     7
370
    25
100
AcDbLine
 10
119.9566166694
 20
173.2478687182
 30
0.0
 11
119.9566166694
 21
171.799870731
 31
0.0
  0
LINE
  5
107
330
1F
100
AcDbEntity
  8
0
  6
Continuous
 62
     7
370
    25
100
AcDbLine
 10
119.9566166694
 20
171.799870731
 30
0.0
 11
120.9184530969
 21
171.799870731
 31
0.0
  0
LINE
  5
108
330
1F
100
AcDbEntity
  8
0
  6
Continuous
 62
     7
370
    25
100
AcDbLine
 10
120.9184530969
 20
171.799870731
 30
0.0
 11
120.9184530969
 21
164.2998704329
 31
0.0
  0
LINE
  5
109
330
1F
100
AcDbEntity
  8
0
  6
Continuous
 62
     7
370
    25
100
AcDbLine
 10
120.9184530969
 20
164.2998704329
 30
0.0
 11
120.4162010769
 21
164.2998704329
 31
0.0
  0
LINE
  5
10A
330
1F
100
AcDbEntity
  8
0
  6
Continuous
 62
     7
370
    25
100
AcDbLine
 10
120.4162010769
 20
164.2998704329
 30
0.0
 11
120.4162010769
 21
155.2998708204
 31
0.0
  0
LINE
  5
10B
330
1F
100
AcDbEntity
  8
0
  6
Continuous
 62
     7
370
    25
100
AcDbLine
 10
120.4162010769
 20
155.2998708204
 30
0.0
 11
121.2698839451
 21
155.2998708204
 31
0.0
  0
SPLINE
  5
10C
330
1F
100
AcDbEntity
  8
0
  6
Continuous
 62
     7
370
    25
100
AcDbSpline
210
0.0
220
0.0
230
1.0
 70
     8
 71
     3
 72
     8
 73
     4
 74
     0
 42
0.000000001
 43
0.00000001
 40
0.0
 40
0.0
 40
0.0
 40
0.0
 40
1.0
 40
1.0
 40
1.0
 40
1.0
 10
120.6534969370819
 20
134.5378709574555
 30
0.0
 10
120.6951241623765
 20
134.5378709574555
 30
0.0
 10
120.734185947681
 20
134.5061034181275
 30
0.0
 10
120.7708159142218
 20
134.4420892656844
 30
0.0
  0
ELLIPSE
  5
10D
330
1F
100
AcDbEntity
  8
0
  6
Continuous
 62
     7
370
    25
100
AcDbEllipse
 10
56.2698836396
 20
122.8373133255
 30
0.0
 11
64.59819356455189
 21
10.52757858129924
 31
0.0
210
0.0
220
0.0
230
1.0
 40
0.6854557539
 41
0.0265776134609416
 42
0.4411536423358068
  0
ELLIPSE
  5
10E
330
1F
100
AcDbEntity
  8
0
  6
Continuous
 62
     7
370
    25
100
AcDbEllipse
 10
56.2698836396
 20
102.5526907215
 30
0.0
 11
-2.842170943040401E-14
 21
92.82962043823856
 31
0.0
210
0.0
220
0.0
230
1.0
 40
0.7002075382
 41
5.264790245270297
 42
5.280999280648884
  0
SPLINE
  5
10F
330
1F
100
AcDbEntity
  8
0
  6
Continuous
 62
     7
370
    25
100
AcDbSpline
210
0.0
220
0.0
230
1.0
 70
    11
 71
     3
 72
    68
 73
    64
 74
     0
 42
0.000000001
 43
0.00000001
 40
0.0
 40
0.0
 40
0.0
 40
0.0
 40
0.0312499999999999
 40
0.0312499999999999
 40
0.0624999999999999
 40
0.0624999999999999
 40
0.0937499999999998
 40
0.0937499999999998
 40
0.1249999999999998
 40
0.1249999999999998
 40
0.1562499999999997
 40
0.1562499999999997
 40
0.1874999999999997
 40
0.1874999999999997
 40
0.2187499999999996
 40
0.2187499999999996
 40
0.2499999999999996
 40
0.2499999999999996
 40
0.2812499999999995
 40
0.2812499999999995
 40
0.3124999999999994
 40
0.3124999999999994
 40
0.3437499999999994
 40
0.3437499999999994
 40
0.3749999999999993
 40
0.3749999999999993
 40
0.4062499999999993
 40
0.4062499999999993
 40
0.4374999999999992
 40
0.4374999999999992
 40
0.4687499999999992
 40
0.4687499999999992
 40
0.4999999999999991
 40
0.4999999999999991
 40
0.5312499999999991
 40
0.5312499999999991
 40
0.562499999999999
 40
0.562499999999999
 40
0.5937499999999989
 40
0.5937499999999989
 40
0.6249999999999989
 40
0.6249999999999989
 40
0.6562499999999989
 40
0.6562499999999989
 40
0.6874999999999988
 40
0.6874999999999988
 40
0.7187499999999987
 40
0.7187499999999987
 40
0.7499999999999987
 40
0.7499999999999987
 40
0.7812499999999987
 40
0.7812499999999987
 40
0.8124999999999986
 40
0.8124999999999986
 40
0.8437499999999984
 40
0.8437499999999984
 40
0.8749999999999984
 40
0.8749999999999984
 40
0.9062499999999984
 40
0.9062499999999984
 40
0.9374999999999983
 40
0.9374999999999983
 40
1.0
 40
1.0
 40
1.0
 40
1.0
 10
119.1144538108126
 20
164.7498709574556
 30
0.0
 10
119.1144538108126
 20
164.9804084016814
 30
0.0
 10
119.108337412457
 20
165.2068342597639
 30
0.0
 10
119.0842585206627
 20
165.6518211775834
 30
0.0
 10
119.0659603630275
 20
165.8727817214657
 30
0.0
 10
119.018165730793
 20
166.2904891529802
 30
0.0
 10
118.9887934831961
 20
166.4880389818346
 30
0.0
 10
118.9185875209286
 20
166.8607388263143
 30
0.0
 10
118.8778019250252
 20
167.0345311755474
 30
0.0
 10
118.7876492855689
 20
167.3449771625837
 30
0.0
 10
118.737649548609
 20
167.484299004645
 30
0.0
 10
118.6285939790697
 20
167.7265956651258
 30
0.0
 10
118.570730867607
 20
167.8272023781127
 30
0.0
 10
118.4481254668551
 20
167.9894566425539
 30
0.0
 10
118.3826837391456
 20
168.0513207091396
 30
0.0
 10
118.2487942594402
 20
168.1317823494476
 30
0.0
 10
118.1802036761595
 20
168.1511026243423
 30
0.0
 10
118.0396396385244
 20
168.1485188946352
 30
0.0
 10
117.9674317958176
 20
168.1260234160808
 30
0.0
 10
117.8253595990641
 20
168.0411187704993
 30
0.0
 10
117.7547909405157
 20
167.9788709696761
 30
0.0
 10
117.6149613469839
 20
167.8136797769909
 30
0.0
 10
117.5463124239666
 20
167.7109978060493
 30
0.0
 10
117.4164577248355
 20
167.4722190360505
 30
0.0
 10
117.3545804170127
 20
167.3354100537515
 30
0.0
 10
117.23805155548
 20
167.0244351343138
 30
0.0
 10
117.1848859991336
 20
166.8539262994581
 30
0.0
 10
117.0909637382545
 20
166.4878517961131
 30
0.0
 10
117.0496679031383
 20
166.289970891546
 30
0.0
 10
116.9819682125526
 20
165.872066931515
 30
0.0
 10
116.9561696520475
 20
165.6565870328927
 30
0.0
 10
116.9210661053849
 20
165.2126025325078
 30
0.0
 10
116.9118736121641
 20
164.9813101989961
 30
0.0
 10
116.9116944404972
 20
164.5253566298479
 30
0.0
 10
116.920379163106
 20
164.2992593958174
 30
0.0
 10
116.9553010486372
 20
163.8508576441686
 30
0.0
 10
116.9814181716228
 20
163.6321951533544
 30
0.0
 10
117.0482212123664
 20
163.2176095443688
 30
0.0
 10
117.0896004410339
 20
163.0177473718891
 30
0.0
 10
117.184206250268
 20
162.6479330087761
 30
0.0
 10
117.2370775489231
 20
162.4783580499923
 30
0.0
 10
117.3528142217448
 20
162.1686038041188
 30
0.0
 10
117.415812223677
 20
162.0288235730105
 30
0.0
 10
117.5460127047697
 20
161.7891823226966
 30
0.0
 10
117.613803011797
 20
161.6876022729639
 30
0.0
 10
117.7542791871672
 20
161.5213058402252
 30
0.0
 10
117.8253012108989
 20
161.458679716745
 30
0.0
 10
117.9672622840869
 20
161.3737981579398
 30
0.0
 10
118.0388905129463
 20
161.351310184326
 30
0.0
 10
118.1802136152886
 20
161.3485660965181
 30
0.0
 10
118.2488196771024
 20
161.3680338561251
 30
0.0
 10
118.3821205057498
 20
161.4480239493391
 30
0.0
 10
118.4474749362147
 20
161.5095215102025
 30
0.0
 10
118.5706500733091
 20
161.6723360489139
 30
0.0
 10
118.6283313610573
 20
161.7728273511381
 30
0.0
 10
118.736372524787
 20
162.0123448201271
 30
0.0
 10
118.7871506426003
 20
162.1532364526869
 30
0.0
 10
118.8775271578381
 20
162.4640773643718
 30
0.0
 10
118.9175963852237
 20
162.6345004155249
 30
0.0
 10
118.9879048849457
 20
163.0062467797889
 30
0.0
 10
119.0179286371731
 20
163.2076711374972
 30
0.0
 10
119.0894506584936
 20
163.8312847445333
 30
0.0
 10
119.1144538108126
 20
164.288796069004
 30
0.0
 10
119.1144538108126
 20
164.7498709574556
 30
0.0
  0
CIRCLE
  5
110
330
1F
100
AcDbEntity
  8
0
  6
Continuous
 62
     7
370
    25
100
AcDbCircle
 10
69.2698836396
 20
165.5498709575
 30
0.0
 40
4.0
  0
LINE
  5
111
330
1F
100
AcDbEntity
  8
0
  6
Continuous
 62
     7
370
    25
100
AcDbLine
 10
111.0421394776
 20
152.5378698126
 30
0.0
 11
56.2698816727
 21
152.5378698126
 31
0.0
  0
LINE
  5
112
330
1F
100
AcDbEntity
  8
0
  6
Continuous
 62
     7
370
    25
100
AcDbLine
 10
56.2698816727
 20
152.5378698126
 30
0.0
 11
56.2698816727
 21
172.4498742834
 31
0.0
  0
LINE
  5
113
330
1F
100
AcDbEntity
  8
0
  6
Continuous
 62
     7
370
    25
100
AcDbLine
 10
111.0421394776
 20
172.4498742834
 30
0.0
 11
56.2698816727
 21
172.4498742834
 31
0.0
  0
LINE
  5
114
330
1F
100
AcDbEntity
  8
0
  6
Continuous
 62
     7
370
    25
100
AcDbLine
 10
56.2698816727
 20
172.4498742834
 30
0.0
 11
56.2698816727
 21
172.7498719111
 31
0.0
  0
LINE
  5
115
330
1F
100
AcDbEntity
  8
0
  6
Continuous
 62
     7
370
    25
100
AcDbLine
 10
56.2698816727
 20
172.7498719111
 30
0.0
 11
111.232689939
 21
172.7498719111
 31
0.0
  0
LINE
  5
116
330
1F
100
AcDbEntity
  8
0
  6
Continuous
 62
     7
370
    25
100
AcDbLine
 10
111.6022350113
 20
151.2634442762
 30
0.0
 11
56.2698816727
 21
142.0658329144
 31
0.0
  0
LINE
  5
117
330
1F
100
AcDbEntity
  8
0
  6
Continuous
 62
     7
370
    25
100
AcDbLine
 10
56.2698816727
 20
152.5378698126
 30
0.0
 11
56.2698816727
 21
142.0658329144
 31
0.0
  0
LINE
  5
118
330
1F
100
AcDbEntity
  8
0
  6
Continuous
 62
     7
370
    25
100
AcDbLine
 10
111.232689939
 20
173.623489739
 30
0.0
 11
56.2698816727
 21
173.623489739
 31
0.0
  0
LINE
  5
119
330
1F
100
AcDbEntity
  8
0
  6
Continuous
 62
     7
370
    25
100
AcDbLine
 10
56.2698816727
 20
172.7498719111
 30
0.0
 11
56.2698816727
 21
173.623489739
 31
0.0
  0
LINE
  5
11A
330
1F
100
AcDbEntity
  8
0
  6
Continuous
 62
     7
370
    25
100
AcDbLine
 10
111.5624600868
 20
174.5378696934
 30
0.0
 11
56.2698816727
 21
174.5378696934
 31
0.0
  0
LINE
  5
11B
330
1F
100
AcDbEntity
  8
0
  6
Continuous
 62
     7
370
    25
100
AcDbLine
 10
56.2698816727
 20
173.623489739
 30
0.0
 11
56.2698816727
 21
174.5378696934
 31
0.0
  0
LINE
  5
11C
330
1F
100
AcDbEntity
  8
0
  6
Continuous
 62
     7
370
    25
100
AcDbLine
 10
56.2698816727
 20
134.5378705874
 30
0.0
 11
120.653496481
 21
134.5378705874
 31
0.0
  0
LINE
  5
11D
330
1F
100
AcDbEntity
  8
0
  6
Continuous
 62
     7
370
    25
100
AcDbLine
 10
56.2698816727
 20
134.5378705874
 30
0.0
 11
56.2698816727
 21
142.0658329144
 31
0.0
  0
LINE
  5
11E
330
1F
100
AcDbEntity
  8
0
  6
Continuous
 62
     7
370
    25
100
AcDbLine
 10
112.7495908956
 20
174.5378696934
 30
0.0
 11
111.7736840467
 21
174.5378696934
 31
0.0
  0
LINE
  5
11F
330
1F
100
AcDbEntity
  8
0
  6
Continuous
 62
     7
370
    25
100
AcDbLine
 10
113.8428425263
 20
174.5378696934
 30
0.0
 11
112.9442466269
 21
174.5378696934
 31
0.0
  0
LINE
  5
120
330
1F
100
AcDbEntity
  8
0
  6
Continuous
 62
     7
370
    25
100
AcDbLine
 10
114.847473226
 20
174.5378696934
 30
0.0
 11
114.0218986045
 21
174.5378696934
 31
0.0
  0
LINE
  5
121
330
1F
100
AcDbEntity
  8
0
  6
Continuous
 62
     7
370
    25
100
AcDbLine
 10
115.767970107
 20
174.5378696934
 30
0.0
 11
115.0117492149
 21
174.5378696934
 31
0.0
  0
LINE
  5
122
330
1F
100
AcDbEntity
  8
0
  6
Continuous
 62
     7
370
    25
100
AcDbLine
 10
116.6081841881
 20
174.5378696934
 30
0.0
 11
115.9181738119
 21
174.5378696934
 31
0.0
  0
LINE
  5
123
330
1F
100
AcDbEntity
  8
0
  6
Continuous
 62
     7
370
    25
100
AcDbLine
 10
117.3714291151
 20
174.5378696934
 30
0.0
 11
116.7449218999
 21
174.5378696934
 31
0.0
  0
LINE
  5
124
330
1F
100
AcDbEntity
  8
0
  6
Continuous
 62
     7
370
    25
100
AcDbLine
 10
118.0605556662
 20
174.5378696934
 30
0.0
 11
117.4952205117
 21
174.5378696934
 31
0.0
  0
LINE
  5
125
330
1F
100
AcDbEntity
  8
0
  6
Continuous
 62
     7
370
    25
100
AcDbLine
 10
118.6780206705
 20
174.5378696934
 30
0.0
 11
118.1718515078
 21
174.5378696934
 31
0.0
  0
LINE
  5
126
330
1F
100
AcDbEntity
  8
0
  6
Continuous
 62
     7
370
    25
100
AcDbLine
 10
119.2259307797
 20
174.5378696934
 30
0.0
 11
118.7772055934
 21
174.5378696934
 31
0.0
  0
SPLINE
  5
127
330
1F
100
AcDbEntity
  8
0
  6
Continuous
 62
     7
370
    25
100
AcDbSpline
210
0.0
220
0.0
230
1.0
 70
     8
 71
     3
 72
    18
 73
    14
 74
     0
 42
0.000000001
 43
0.00000001
 40
0.0
 40
0.0
 40
0.0
 40
0.0
 40
0.2499999999999986
 40
0.2499999999999986
 40
0.4999999999999971
 40
0.4999999999999971
 40
0.6249999999999978
 40
0.6249999999999978
 40
0.7499999999999986
 40
0.7499999999999986
 40
0.8749999999999992
 40
0.8749999999999992
 40
1.0
 40
1.0
 40
1.0
 40
1.0
 10
120.7708159142218
 20
134.4420892656844
 30
0.0
 10
120.829436941243
 20
134.3396437623307
 30
0.0
 10
120.8810323030735
 20
134.1598007452033
 30
0.0
 10
121.0339564172543
 20
133.6552857854785
 30
0.0
 10
121.1324443679916
 20
133.3436431509553
 30
0.0
 10
121.3755124699704
 20
132.8188891721669
 30
0.0
 10
121.4701155132979
 20
132.6400886997008
 30
0.0
 10
121.6928317938924
 20
132.2824502819436
 30
0.0
 10
121.8220237214538
 20
132.1022741782502
 30
0.0
 10
122.1155036459792
 20
131.75546414416
 30
0.0
 10
122.2770639154768
 20
131.5916809290002
 30
0.0
 10
122.6306054394584
 20
131.2884248561661
 30
0.0
 10
122.8238145850971
 20
131.1482758515009
 30
0.0
 10
123.0290497499049
 20
131.025348331076
 30
0.0
  0
LWPOLYLINE
  5
128
330
1F
100
AcDbEntity
  8
0
  6
Continuous
 62
     7
370
    25
100
AcDbPolyline
 90
        9
 70
   128
 43
0.0
 10
58.2978403042
 20
131.0253465191
 10
57.8896378945
 20
131.7323693648
 10
57.5039958428
 20
132.4003288165
 10
57.1535056303
 20
133.0073872224
 10
56.8496486018
 20
133.5336925104
 10
56.6023414801
 20
133.9620375648
 10
56.4196830462
 20
134.2784115687
 10
56.3076412151
 20
134.4724731162
 10
56.2698816727
 20
134.5378705874
  0
LINE
  5
129
330
1F
100
AcDbEntity
  8
0
  6
Continuous
 62
     7
370
    25
100
AcDbLine
 10
119.7060890342
 20
174.5378696934
 30
0.0
 11
119.3133363346
 21
174.5378696934
 31
0.0
  0
CIRCLE
  5
12A
330
1F
100
AcDbEntity
  8
0
  6
Continuous
 62
     7
370
    25
100
AcDbCircle
 10
111.1824543858
 20
108.4200033832
 30
0.0
 40
3.967165179920174
  0
SPLINE
  5
12B
330
1F
100
AcDbEntity
  8
0
  6
Continuous
 62
     7
370
    25
100
AcDbSpline
210
0.0
220
0.0
230
1.0
 70
     8
 71
     3
 72
     8
 73
     4
 74
     0
 42
0.000000001
 43
0.00000001
 40
0.0
 40
0.0
 40
0.0
 40
0.0
 40
1.0
 40
1.0
 40
1.0
 40
1.0
 10
124.2557522708639
 20
130.5378709574555
 30
0.0
 10
125.3472874241069
 20
124.1594817721292
 30
0.0
 10
126.4176491547777
 20
117.7772688353368
 30
0.0
 10
127.4698040347083
 20
111.3917678863219
 30
0.0
  0
LINE
  5
12C
330
1F
100
AcDbEntity
  8
0
  6
Continuous
 62
     7
370
    25
100
AcDbLine
 10
127.4698040294
 20
111.3917674512
 30
0.0
 11
120.712824523
 21
111.3917674512
 31
0.0
  0
LINE
  5
12D
330
1F
100
AcDbEntity
  8
0
  6
Continuous
 62
     7
370
    25
100
AcDbLine
 10
120.712824523
 20
111.3917674512
 30
0.0
 11
120.5063950117
 21
112.6710489035
 31
0.0
  0
ARC
  5
12E
330
1F
100
AcDbEntity
  8
0
  6
Continuous
 62
     7
370
    25
100
AcDbCircle
 10
118.2050851957
 20
112.2557894668
 30
0.0
 40
2.338475415454101
100
AcDbArc
 50
10.228658301
 51
189.7197567955
  0
LINE
  5
12F
330
1F
100
AcDbEntity
  8
0
  6
Continuous
 62
     7
370
    25
100
AcDbLine
 10
115.9001778657
 20
111.8609863907
 30
0.0
 11
117.773785613
 21
100.2498709705
 31
0.0
  0
LINE
  5
130
330
1F
100
AcDbEntity
  8
0
  6
Continuous
 62
     7
370
    25
100
AcDbLine
 10
76.0660705934
 20
100.2498709705
 30
0.0
 11
117.773785613
 21
100.2498709705
 31
0.0
  0
SPLINE
  5
131
330
1F
100
AcDbEntity
  8
0
  6
Continuous
 62
     7
370
    25
100
AcDbSpline
210
0.0
220
0.0
230
1.0
 70
     8
 71
     3
 72
     8
 73
     4
 74
     0
 42
0.000000001
 43
0.00000001
 40
0.0
 40
0.0
 40
0.0
 40
0.0
 40
1.0
 40
1.0
 40
1.0
 40
1.0
 10
123.0290497499049
 20
131.025348331076
 30
0.0
 10
123.4087811931056
 20
130.7979046335804
 30
0.0
 10
123.8194962312227
 20
130.6339424932766
 30
0.0
 10
124.2557522708639
 20
130.5378709574555
 30
0.0
  0
LINE
  5
132
330
1F
100
AcDbEntity
  8
0
  6
Continuous
 62
     7
370
    25
100
AcDbLine
 10
76.0660705934
 20
100.2498709705
 30
0.0
 11
58.2978403042
 21
131.0253465191
 31
0.0
  0
LINE
  5
133
330
1F
100
AcDbEntity
  8
0
  6
Continuous
 62
     7
370
    25
100
AcDbLine
 10
124.3997806529
 20
130.5378699318
 30
0.0
 11
124.2557520824
 21
130.5378699318
 31
0.0
  0
ELLIPSE
  5
134
330
1F
100
AcDbEntity
  8
0
  6
Continuous
 62
     7
370
    25
100
AcDbEllipse
 10
56.4414222674
 20
112.4872125872
 30
0.0
 11
71.02875086185719
 21
-1.079294537492103
 31
0.0
210
0.0
220
0.0
230
1.0
 40
0.1218648397
 41
6.281319292305681
 42
6.304751121125541
  0
LWPOLYLINE
  5
135
330
1F
100
AcDbEntity
  8
0
  6
Continuous
 62
     7
370
    25
100
AcDbPolyline
 90
        3
 70
   128
 43
0.0
 10
119.9378784592
 20
113.2438346386
 10
119.7822498004
 20
113.7817851842
 10
119.5614034156
 20
114.1825435326
  0
LINE
  5
136
330
1F
100
AcDbEntity
  8
0
  6
Continuous
 62
     7
370
    25
100
AcDbLine
 10
120.1443079705
 20
111.9645541176
 30
0.0
 11
120.712824523
 21
111.3917674512
 31
0.0
  0
LINE
  5
137
330
1F
100
AcDbEntity
  8
0
  6
Continuous
 62
     7
370
    25
100
AcDbLine
 10
120.1443079705
 20
111.9645541176
 30
0.0
 11
120.149026982
 21
111.9353050009
 31
0.0
  0
LINE
  5
138
330
1F
100
AcDbEntity
  8
0
  6
Continuous
 62
     7
370
    25
100
AcDbLine
 10
119.8512179623
 20
111.9353050009
 30
0.0
 11
119.5822538654
 21
113.6021311969
 31
0.0
  0
ARC
  5
139
330
1F
100
AcDbEntity
  8
0
  6
Continuous
 62
     7
370
    25
100
AcDbCircle
 10
117.9158062527
 20
112.919701893
 30
0.0
 40
2.0478862383496
100
AcDbArc
 50
9.1068858402
 51
39.8457316521
  0
LINE
  5
13A
330
1F
100
AcDbEntity
  8
0
  6
Continuous
 62
     7
370
    25
100
AcDbLine
 10
115.9160243194
 20
111.9353050009
 30
0.0
 11
115.8705850909
 21
112.2169015572
 31
0.0
  0
LWPOLYLINE
  5
13B
330
1F
100
AcDbEntity
  8
0
  6
Continuous
 62
     7
370
    25
100
AcDbPolyline
 90
        3
 70
   128
 43
0.0
 10
119.5822538654
 20
113.6021311969
 10
119.4263979639
 20
114.1210706547
 10
119.3156022425
 20
114.3326745942
  0
LINE
  5
13C
330
1F
100
AcDbEntity
  8
VERMASSUNG
100
AcDbLine
 10
130.7758244944
 20
99.1468894181
 30
0.0
 11
130.7758244944
 21
95.580926475
 31
0.0
  0
DIMENSION
  5
13D
330
1F
100
AcDbEntity
  8
VERMASSUNG
100
AcDbDimension
  2
_D
 10
56.2698836396
 20
76.0903271266
 30
0.0
 11
93.522854067
 21
76.0903271266
 31
0.0
 70
   160
  1
<>
 71
     2
 42
-1.0
  3
SLDDIMSTYLE0
100
AcDbAlignedDimension
 13
130.7758244944
 23
95.580926475
 33
0.0
 14
56.2698836396
 24
134.5378709575
 34
0.0
 50
0.0
100
AcDbRotatedDimension
  0
DIMENSION
  5
148
330
1F
100
AcDbEntity
  8
VERMASSUNG
100
AcDbDimension
  2
_D_1
 10
130.7758244944
 20
95.580926475
 30
0.0
 11
123.2383887672
 21
91.2124352303
 31
0.0
 70
   162
  1
<>
 71
     1
 42
-1.0
  3
SLDDIMSTYLE1
100
AcDb2LineAngularDimension
 13
118.3793576458
 23
98.7498709575
 33
0.0
 14
130.372865179
 24
98.7498709575
 34
0.0
 15
130.7758244944
 25
99.1468894181
 35
0.0
 16
123.2383887672
 26
91.2124352303
 36
0.0
  0
DIMENSION
  5
152
330
1F
100
AcDbEntity
  8
VERMASSUNG
100
AcDbDimension
  2
_D_2
 10
142.4090024578
 20
98.7498709575
 30
0.0
 11
142.4090024578
 21
136.415274768
 31
0.0
 70
   160
  1
<>
 71
     2
 42
-1.0
  3
SLDDIMSTYLE2
100
AcDbAlignedDimension
 13
113.3975744753
 23
174.0806785786
 33
0.0
 14
130.372865179
 24
98.7498709575
 34
0.0
 50
90.0
100
AcDbRotatedDimension
  0
DIMENSION
  5
15D
330
1F
100
AcDbEntity
  8
VERMASSUNG
100
AcDbDimension
  2
_D_3
 10
121.2698836396
 20
181.1380646975
 30
0.0
 11
88.7698836396
 21
181.1380646975
 31
0.0
 70
   160
  1
<>
 71
     2
 42
-1.0
  3
SLDDIMSTYLE3
100
AcDbAlignedDimension
 13
56.2698836396
 23
174.5378709575
 33
0.0
 14
121.2698836396
 24
155.2998709575
 34
0.0
 50
0.0
100
AcDbRotatedDimension
  0
LINE
  5
168
330
1F
100
AcDbEntity
  8
VERMASSUNG
  6
CENTERX2
370
    18
100
AcDbLine
 10
113.3975744753
 20
174.0806785786
 30
0.0
 11
111.4764632769
 21
174.0806785786
 31
0.0
  0
LINE
  5
169
330
1F
100
AcDbEntity
  8
0
  6
Continuous
 62
     7
370
    25
100
AcDbLine
 10
219.9399794447
 20
34.9682421138
 30
0.0
 11
216.1216027272
 21
32.7639401547
 31
0.0
  0
LINE
  5
16A
330
1F
100
AcDbEntity
  8
0
  6
Continuous
 62
     7
370
    25
100
AcDbLine
 10
218.1214417131
 20
29.2997432866
 30
0.0
 11
221.9398184306
 21
31.5040452457
 31
0.0
  0
LINE
  5
16B
330
1F
100
AcDbEntity
  8
0
  6
Continuous
 62
     7
370
    25
100
AcDbLine
 10
201.3883441221
 20
79.6108720819
 30
0.0
 11
201.5701192815
 21
79.6697302282
 31
0.0
  0
LINE
  5
16C
330
1F
100
AcDbEntity
  8
0
  6
Continuous
 62
     7
370
    25
100
AcDbLine
 10
199.3323997989
 20
88.8998145563
 30
0.0
 11
197.4709135805
 21
88.2970716325
 31
0.0
  0
LINE
  5
16D
330
1F
100
AcDbEntity
  8
0
  6
Continuous
 62
     7
370
    25
100
AcDbLine
 10
253.6089364059
 20
56.530341899
 30
0.0
 11
251.7474478665
 21
55.4539266403
 31
0.0
  0
LINE
  5
16E
330
1F
100
AcDbEntity
  8
0
  6
Continuous
 62
     7
370
    25
100
AcDbLine
 10
255.5928679611
 20
48.2719679667
 30
0.0
 11
257.4543512322
 21
49.3483860439
 31
0.0
  0
LINE
  5
16F
330
1F
100
AcDbEntity
  8
0
  6
Continuous
 62
     7
370
    25
100
AcDbLine
 10
204.0743534758
 20
86.3494842664
 30
0.0
 11
203.9799606695
 21
86.4326636276
 31
0.0
  0
LINE
  5
170
330
1F
100
AcDbEntity
  8
0
  6
Continuous
 62
     7
370
    25
100
AcDbLine
 10
200.7424945413
 20
88.7263246449
 30
0.0
 11
199.963127284
 21
88.4739681773
 31
0.0
  0
LINE
  5
171
330
1F
100
AcDbEntity
  8
0
  6
Continuous
 62
     7
370
    25
100
AcDbLine
 10
251.9337230252
 20
55.0542836485
 30
0.0
 11
250.8074432468
 21
54.4030076965
 31
0.0
  0
LINE
  5
172
330
1F
100
AcDbEntity
  8
0
  6
Continuous
 62
     7
370
    25
100
AcDbLine
 10
254.2548098179
 20
48.011332643
 30
0.0
 11
255.3810895139
 21
48.662608595
 31
0.0
  0
LINE
  5
173
330
1F
100
AcDbEntity
  8
0
  6
Continuous
 62
     7
370
    25
100
AcDbLine
 10
199.571487418
 20
85.041745397
 30
0.0
 11
199.4713896921
 21
85.0043546383
 31
0.0
  0
LINE
  5
174
330
1F
100
AcDbEntity
  8
0
  6
Continuous
 62
     7
370
    25
100
AcDbLine
 10
202.080943613
 20
80.8517904435
 30
0.0
 11
202.0439790982
 21
80.6881637626
 31
0.0
  0
LINE
  5
175
330
1F
100
AcDbEntity
  8
0
  6
Continuous
 62
     7
370
    25
100
AcDbLine
 10
202.8217898032
 20
78.2860040637
 30
0.0
 11
202.9476469606
 21
78.1750985498
 31
0.0
  0
LWPOLYLINE
  5
176
330
1F
100
AcDbEntity
  8
0
  6
Continuous
 62
     7
370
    25
100
AcDbPolyline
 90
       23
 70
   128
 43
0.0
 10
215.8983508707
 20
30.918281853
 10
215.7479182316
 20
31.4362646404
 10
215.7087638094
 20
31.9214880025
 10
215.7840644226
 20
32.3346363059
 10
215.9677166808
 20
32.642241006
 10
216.2448453806
 20
32.8193772963
 10
216.5929941544
 20
32.8517022604
 10
216.9839641263
 20
32.7365896553
 10
217.3860766712
 20
32.4833689092
 10
217.7667575437
 20
32.1125542543
 10
218.0951631531
 20
31.6541886853
 10
218.3446909355
 20
31.1454031089
 10
218.4951262087
 20
30.627415759
 10
218.534280631
 20
30.1421923969
 10
218.4589800178
 20
29.7290471354
 10
218.2753277596
 20
29.4214424352
 10
217.9981990597
 20
29.2443031031
 10
217.650050286
 20
29.2119811809
 10
217.2590803141
 20
29.3270937859
 10
216.8569677692
 20
29.5803114902
 10
216.4762868967
 20
29.9511261451
 10
216.1478812873
 20
30.4094917141
 10
215.8983508707
 20
30.918281853
  0
LINE
  5
177
330
1F
100
AcDbEntity
  8
0
  6
Continuous
 62
     7
370
    25
100
AcDbLine
 10
197.4079267783
 20
88.1667461277
 30
0.0
 11
197.4824408715
 21
82.6095578275
 31
0.0
  0
LWPOLYLINE
  5
178
330
1F
100
AcDbEntity
  8
0
  6
Continuous
 62
     7
370
    25
100
AcDbPolyline
 90
        9
 70
   128
 43
0.0
 10
197.551730522
 20
88.277551324
 10
197.5246245445
 20
88.2931958365
 10
197.497893037
 20
88.3000035928
 10
197.4728032984
 20
88.2976518413
 10
197.450544784
 20
88.286252077
 10
197.4321727222
 20
88.2663447376
 10
197.4185580959
 20
88.2388735919
 10
197.4103463478
 20
88.2051409832
 10
197.4079267783
 20
88.1667461277
  0
LINE
  5
179
330
1F
100
AcDbEntity
  8
0
  6
Continuous
 62
     7
370
    25
100
AcDbLine
 10
201.271426871
 20
85.529087887
 30
0.0
 11
197.551730522
 21
88.277551324
 31
0.0
  0
ARC
  5
17A
330
1F
100
AcDbEntity
  8
0
  6
Continuous
 62
     7
370
    25
100
AcDbCircle
 10
201.0701536154
 20
85.297718208
 30
0.0
 40
0.306664069973006
100
AcDbArc
 50
0.1246973963
 51
48.979319655
  0
LINE
  5
17B
330
1F
100
AcDbEntity
  8
0
  6
Continuous
 62
     7
370
    25
100
AcDbLine
 10
201.4513308585
 20
79.7411975228
 30
0.0
 11
201.3768169591
 21
85.298385625
 31
0.0
  0
LWPOLYLINE
  5
17C
330
1F
100
AcDbEntity
  8
0
  6
Continuous
 62
     7
370
    25
100
AcDbPolyline
 90
        9
 70
   128
 43
0.0
 10
201.3075272932
 20
79.6303921077
 10
201.3346331497
 20
79.6147477055
 10
201.3613648707
 20
79.6079399979
 10
201.3864544287
 20
79.6102918515
 10
201.4087127391
 20
79.6216914981
 10
201.4270850608
 20
79.6415986711
 10
201.440699563
 20
79.669069991
 10
201.448911366
 20
79.7028026482
 10
201.4513308585
 20
79.7411975228
  0
LINE
  5
17D
330
1F
100
AcDbEntity
  8
0
  6
Continuous
 62
     7
370
    25
100
AcDbLine
 10
197.5878308772
 20
82.378855625
 30
0.0
 11
201.3075272932
 21
79.6303921077
 31
0.0
  0
ARC
  5
17E
330
1F
100
AcDbEntity
  8
0
  6
Continuous
 62
     7
370
    25
100
AcDbCircle
 10
197.7891041068
 20
82.6102251828
 30
0.0
 40
0.306663961458701
100
AcDbArc
 50
180.1246859013
 51
228.9793084719
  0
LWPOLYLINE
  5
17F
330
1F
100
AcDbEntity
  8
0
  6
Continuous
 62
     7
370
    25
100
AcDbPolyline
 90
        9
 70
   128
 43
0.0
 10
201.308487698
 20
79.6389298968
 10
201.3342381877
 20
79.624067805
 10
201.3596333103
 20
79.6176003995
 10
201.3834682586
 20
79.6198345845
 10
201.4046138758
 20
79.630664301
 10
201.4220676102
 20
79.6495763791
 10
201.4350012597
 20
79.6756739263
 10
201.4428023779
 20
79.70772001
 10
201.4451011098
 20
79.7441949793
  0
LINE
  5
180
330
1F
100
AcDbEntity
  8
0
  6
Continuous
 62
     7
370
    25
100
AcDbLine
 10
201.4451011098
 20
79.7441949793
 30
0.0
 11
201.3705868811
 21
85.3013831647
 31
0.0
  0
ARC
  5
181
330
1F
100
AcDbEntity
  8
0
  6
Continuous
 62
     7
370
    25
100
AcDbCircle
 10
201.0792574631
 20
85.3007495451
 30
0.0
 40
0.2913301070120799
100
AcDbArc
 50
0.124613824
 51
48.9793327319
  0
LINE
  5
182
330
1F
100
AcDbEntity
  8
0
  6
Continuous
 62
     7
370
    25
100
AcDbLine
 10
201.2704665074
 20
85.5205502108
 30
0.0
 11
197.5507701814
 21
88.2690136375
 31
0.0
  0
LWPOLYLINE
  5
183
330
1F
100
AcDbEntity
  8
0
  6
Continuous
 62
     7
370
    25
100
AcDbPolyline
 90
        9
 70
   128
 43
0.0
 10
197.5507701814
 20
88.2690136375
 10
197.5250194988
 20
88.2838759268
 10
197.4996245653
 20
88.2903432944
 10
197.4757893186
 20
88.2881091287
 10
197.4546437258
 20
88.277279352
 10
197.4371902693
 20
88.2583673824
 10
197.4242563735
 20
88.2322697858
 10
197.4164552128
 20
88.2002238216
 10
197.4141566223
 20
88.1637486949
  0
LINE
  5
184
330
1F
100
AcDbEntity
  8
0
  6
Continuous
 62
     7
370
    25
100
AcDbLine
 10
197.4141566223
 20
88.1637486949
 30
0.0
 11
197.4886707025
 21
82.6065607037
 31
0.0
  0
ARC
  5
185
330
1F
100
AcDbEntity
  8
0
  6
Continuous
 62
     7
370
    25
100
AcDbCircle
 10
197.7800000003
 20
82.6071941439
 30
0.0
 40
0.2913299863899846
100
AcDbArc
 50
180.1245785918
 51
228.9793863521
  0
LINE
  5
186
330
1F
100
AcDbEntity
  8
0
  6
Continuous
 62
     7
370
    25
100
AcDbLine
 10
197.5887912409
 20
82.3873933903
 30
0.0
 11
201.308487698
 21
79.6389298968
 31
0.0
  0
LINE
  5
187
330
1F
100
AcDbEntity
  8
0
  6
Continuous
 62
     7
370
    25
100
AcDbLine
 10
203.2420368528
 20
85.6226762305
 30
0.0
 11
203.2383029055
 21
85.9011286562
 31
0.0
  0
LINE
  5
188
330
1F
100
AcDbEntity
  8
0
  6
Continuous
 62
     7
370
    25
100
AcDbLine
 10
201.3380176981
 20
85.3861151855
 30
0.0
 11
201.3705868811
 21
85.3013831647
 31
0.0
  0
LINE
  5
189
330
1F
100
AcDbEntity
  8
0
  6
Continuous
 62
     7
370
    25
100
AcDbLine
 10
201.412531968
 20
79.8289270595
 30
0.0
 11
201.4451011098
 21
79.7441949793
 31
0.0
  0
LINE
  5
18A
330
1F
100
AcDbEntity
  8
0
  6
Continuous
 62
     7
370
    25
100
AcDbLine
 10
201.3347907065
 20
80.4730775201
 30
0.0
 11
201.412531968
 21
79.8289270595
 31
0.0
  0
LINE
  5
18B
330
1F
100
AcDbEntity
  8
0
  6
Continuous
 62
     7
370
    25
100
AcDbLine
 10
201.2879646935
 20
85.2848588469
 30
0.0
 11
201.3380176981
 21
85.3861151855
 31
0.0
  0
ARC
  5
18C
330
1F
100
AcDbEntity
  8
0
  6
Continuous
 62
     7
370
    25
100
AcDbCircle
 10
202.9316417737
 20
85.9004622386
 30
0.0
 40
0.3066618559176554
100
AcDbArc
 50
0.1245115498
 51
48.9794463913
  0
LINE
  5
18D
330
1F
100
AcDbEntity
  8
0
  6
Continuous
 62
     7
370
    25
100
AcDbLine
 10
201.3380176981
 20
85.3861151855
 30
0.0
 11
201.2704665074
 21
85.5205502108
 31
0.0
  0
LINE
  5
18E
330
1F
100
AcDbEntity
  8
0
  6
Continuous
 62
     7
370
    25
100
AcDbLine
 10
203.1329130644
 20
86.1318306924
 30
0.0
 11
199.4132166279
 21
88.880294174
 31
0.0
  0
LINE
  5
18F
330
1F
100
AcDbEntity
  8
0
  6
Continuous
 62
     7
370
    25
100
AcDbLine
 10
197.6183213927
 20
88.1345786359
 30
0.0
 11
197.5507701814
 21
88.2690136375
 31
0.0
  0
LINE
  5
190
330
1F
100
AcDbEntity
  8
0
  6
Continuous
 62
     7
370
    25
100
AcDbLine
 10
198.0733047745
 20
87.6125778675
 30
0.0
 11
197.6183213927
 21
88.1345786359
 31
0.0
  0
SPLINE
  5
191
330
1F
100
AcDbEntity
  8
0
  6
Continuous
 62
     7
370
    25
100
AcDbSpline
210
0.0
220
0.0
230
1.0
 70
     8
 71
     3
 72
    11
 73
     7
 74
     0
 42
0.000000001
 43
0.00000001
 40
0.0
 40
0.0
 40
0.0
 40
0.0
 40
0.3372312999337934
 40
0.6736325693863285
 40
0.9918836405009731
 40
1.0
 40
1.0
 40
1.0
 40
1.0
 10
201.2879646934747
 20
85.28485884689874
 30
0.0
 10
201.2795627499852
 20
85.27399887779319
 30
0.0
 10
201.2627795427865
 20
85.2523056693233
 30
0.0
 10
201.1955949917077
 20
85.20513411061347
 30
0.0
 10
201.1375184543847
 20
85.17069281440526
 30
0.0
 10
201.1063708300121
 20
85.15349717266959
 30
0.0
 10
201.1055962266258
 20
85.1530695380558
 30
0.0
  0
ARC
  5
192
330
1F
100
AcDbEntity
  8
0
  6
Continuous
 62
     7
370
    25
100
AcDbCircle
 10
199.9945028795
 20
84.5884035294
 30
0.0
 40
0.7666584794761679
100
AcDbArc
 50
0.1246447506
 51
48.9793812968
  0
LINE
  5
193
330
1F
100
AcDbEntity
  8
0
  6
Continuous
 62
     7
370
    25
100
AcDbLine
 10
200.8028623285
 20
81.4799141777
 30
0.0
 11
200.7611595448
 21
84.5900713639
 31
0.0
  0
LINE
  5
194
330
1F
100
AcDbEntity
  8
0
  6
Continuous
 62
     7
370
    25
100
AcDbLine
 10
198.0563954198
 20
86.4280296194
 30
0.0
 11
198.0980982446
 21
83.3178723619
 31
0.0
  0
LWPOLYLINE
  5
195
330
1F
100
AcDbEntity
  8
0
  6
Continuous
 62
     7
370
    25
100
AcDbPolyline
 90
        9
 70
   128
 43
0.0
 10
198.4159048066
 20
86.7050425749
 10
198.3481398358
 20
86.7441538657
 10
198.2813111096
 20
86.7611732774
 10
198.218586762
 20
86.755293857
 10
198.1629404508
 20
86.7267945267
 10
198.1170103258
 20
86.6770261309
 10
198.082973741
 20
86.6083483063
 10
198.0624443363
 20
86.5240168179
 10
198.0563954198
 20
86.4280296194
  0
LINE
  5
196
330
1F
100
AcDbEntity
  8
0
  6
Continuous
 62
     7
370
    25
100
AcDbLine
 10
200.4976842836
 20
85.1668269891
 30
0.0
 11
198.4159048066
 21
86.7050425749
 31
0.0
  0
LWPOLYLINE
  5
197
330
1F
100
AcDbEntity
  8
0
  6
Continuous
 62
     7
370
    25
100
AcDbPolyline
 90
        9
 70
   128
 43
0.0
 10
200.4433529211
 20
81.2029011153
 10
200.5111178918
 20
81.1637897295
 10
200.5779467415
 20
81.146770199
 10
200.640671048
 20
81.1526496906
 10
200.6963174004
 20
81.1811491397
 10
200.7422474224
 20
81.2309175712
 10
200.7762839661
 20
81.2995954671
 10
200.7968134325
 20
81.383926706
 10
200.8028623285
 20
81.4799141777
  0
LINE
  5
198
330
1F
100
AcDbEntity
  8
0
  6
Continuous
 62
     7
370
    25
100
AcDbLine
 10
198.3615732589
 20
82.7411167843
 30
0.0
 11
200.4433529211
 21
81.2029011153
 31
0.0
  0
ARC
  5
199
330
1F
100
AcDbEntity
  8
0
  6
Continuous
 62
     7
370
    25
100
AcDbCircle
 10
198.8647548701
 20
83.3195400104
 30
0.0
 40
0.766658439229728
100
AcDbArc
 50
180.1246308558
 51
228.9793581647
  0
LWPOLYLINE
  5
19A
330
1F
100
AcDbEntity
  8
0
  6
Continuous
 62
     7
370
    25
100
AcDbPolyline
 90
       18
 70
   128
 43
0.0
 10
199.3057446132
 20
82.8526105007
 10
199.6010096288
 20
82.7149946674
 10
199.8731284513
 20
82.7447094738
 10
200.0853504282
 20
82.9377420195
 10
200.2090137269
 20
83.2680217134
 10
200.2274166297
 20
83.6909430993
 10
200.138073625
 20
84.1493880294
 10
199.9530514295
 20
84.581440727
 10
199.6973383913
 20
84.9287501377
 10
199.4054693251
 20
85.1444105921
 10
199.1168632234
 20
85.1992956774
 10
198.8704979775
 20
85.085992827
 10
198.6996462605
 20
84.8198043471
 10
198.6273828134
 20
84.436680166
 10
198.6634671835
 20
83.9883638302
 10
198.8030260179
 20
83.5354023551
 10
199.0272109086
 20
83.1389714588
 10
199.3057446132
 20
82.8526105007
  0
SPLINE
  5
19B
330
1F
100
AcDbEntity
  8
0
  6
Continuous
 62
     7
370
    25
100
AcDbSpline
210
0.0
220
0.0
230
1.0
 70
     8
 71
     3
 72
    11
 73
     7
 74
     0
 42
0.000000001
 43
0.00000001
 40
0.0
 40
0.0
 40
0.0
 40
0.0
 40
0.0076283630523924
 40
0.3209885130145548
 40
0.6632173860828066
 40
1.0
 40
1.0
 40
1.0
 40
1.0
 10
201.1636107050565
 20
80.77374408710064
 30
0.0
 10
201.1642887400864
 20
80.77315115049839
 30
0.0
 10
201.1928192982821
 20
80.74820138906716
 30
0.0
 10
201.2468558191673
 20
80.68991184895326
 30
0.0
 10
201.3102195503092
 20
80.58701745346815
 30
0.0
 10
201.3266442344986
 20
80.51085386529003
 30
0.0
 10
201.3347907065099
 20
80.4730775201124
 30
0.0
  0
LINE
  5
19C
330
1F
100
AcDbEntity
  8
0
  6
Continuous
 62
     7
370
    25
100
AcDbLine
 10
201.412531968
 20
79.8289270595
 30
0.0
 11
201.308487698
 21
79.6389298968
 31
0.0
  0
LINE
  5
19D
330
1F
100
AcDbEntity
  8
0
  6
Continuous
 62
     7
370
    25
100
AcDbLine
 10
197.6928355109
 20
82.577390553
 30
0.0
 11
197.5887912409
 21
82.3873933903
 31
0.0
  0
LINE
  5
19E
330
1F
100
AcDbEntity
  8
0
  6
Continuous
 62
     7
370
    25
100
AcDbLine
 10
198.0235428568
 20
82.7695218201
 30
0.0
 11
197.6928355109
 21
82.577390553
 31
0.0
  0
SPLINE
  5
19F
330
1F
100
AcDbEntity
  8
0
  6
Continuous
 62
     7
370
    25
100
AcDbSpline
210
0.0
220
0.0
230
1.0
 70
     8
 71
     3
 72
    11
 73
     7
 74
     0
 42
0.000000001
 43
0.00000001
 40
0.0
 40
0.0
 40
0.0
 40
0.0
 40
0.3367830909483905
 40
0.6790111054078007
 40
0.9923716933299128
 40
1.0
 40
1.0
 40
1.0
 40
1.0
 10
198.0733047744767
 20
87.6125778674577
 30
0.0
 10
198.0973243880278
 20
87.57994118683449
 30
0.0
 10
198.1457519510117
 20
87.51414017371235
 30
0.0
 10
198.1806150186794
 20
87.40201706363996
 30
0.0
 10
198.1868942680975
 20
87.32826469947868
 30
0.0
 10
198.1855768399324
 20
87.29364976869131
 30
0.0
 10
198.1855455312291
 20
87.29282714425831
 30
0.0
  0
LINE
  5
1A0
330
1F
100
AcDbEntity
  8
0
  6
Continuous
 62
     7
370
    25
100
AcDbLine
 10
197.6928355109
 20
82.577390553
 30
0.0
 11
197.4886707025
 21
82.6065607037
 31
0.0
  0
LINE
  5
1A1
330
1F
100
AcDbEntity
  8
0
  6
Continuous
 62
     7
370
    25
100
AcDbLine
 10
197.6183213927
 20
88.1345786359
 30
0.0
 11
197.4141566223
 21
88.1637486949
 31
0.0
  0
ARC
  5
1A2
330
1F
100
AcDbEntity
  8
0
  6
Continuous
 62
     7
370
    25
100
AcDbCircle
 10
199.3548501889
 20
88.8157058935
 30
0.0
 40
0.0870533582383092
100
AcDbArc
 50
47.896850613
 51
104.9450348392
  0
SPLINE
  5
1A3
330
1F
100
AcDbEntity
  8
0
  6
Continuous
 62
     7
370
    25
100
AcDbSpline
210
0.0
220
0.0
230
1.0
 70
     8
 71
     3
 72
    11
 73
     7
 74
     0
 42
0.000000001
 43
0.00000001
 40
0.0
 40
0.0
 40
0.0
 40
0.0
 40
0.0081161452919604
 40
0.326367542030082
 40
0.6627685040516347
 40
1.0
 40
1.0
 40
1.0
 40
1.0
 10
198.1668222208031
 20
82.88865402230434
 30
0.0
 10
198.1668052912192
 20
82.88847175815654
 30
0.0
 10
198.1661245164803
 20
82.88114252737358
 30
0.0
 10
198.1541949900432
 20
82.86164199571238
 30
0.0
 10
198.1075867336816
 20
82.82113312778665
 30
0.0
 10
198.0515804994931
 20
82.78673972411161
 30
0.0
 10
198.0235428568374
 20
82.76952182014209
 30
0.0
  0
LINE
  5
1A4
330
1F
100
AcDbEntity
  8
0
  6
Continuous
 62
     7
370
    25
100
AcDbLine
 10
255.5119570426
 20
48.2916770284
 30
0.0
 11
255.2517952481
 21
48.4839091478
 31
0.0
  0
LINE
  5
1A5
330
1F
100
AcDbEntity
  8
0
  6
Continuous
 62
     7
370
    25
100
AcDbLine
 10
251.7171984477
 20
55.0803744032
 30
0.0
 11
251.7229699318
 21
55.3970308532
 31
0.0
  0
LWPOLYLINE
  5
1A6
330
1F
100
AcDbEntity
  8
0
  6
Continuous
 62
     7
370
    25
100
AcDbPolyline
 90
        9
 70
   128
 43
0.0
 10
251.7229699318
 20
55.3970308532
 10
251.7252917128
 20
55.4187588714
 10
251.7313294958
 20
55.4362943426
 10
251.7408983121
 20
55.4491052355
 10
251.7537033808
 20
55.4568047556
 10
251.7693675204
 20
55.4591520619
 10
251.7874062893
 20
55.4560806634
 10
251.8072716136
 20
55.4476838567
 10
251.828358785
 20
55.4342176024
  0
LINE
  5
1A7
330
1F
100
AcDbEntity
  8
0
  6
Continuous
 62
     7
370
    25
100
AcDbLine
 10
251.828358785
 20
55.4342176024
 30
0.0
 11
255.5480568885
 21
52.6857531584
 31
0.0
  0
ARC
  5
1A8
330
1F
100
AcDbEntity
  8
0
  6
Continuous
 62
     7
370
    25
100
AcDbCircle
 10
255.3086035876
 20
52.3848897233
 30
0.0
 40
0.3845213776905819
100
AcDbArc
 50
4.6533575971
 51
51.4841734646
  0
LINE
  5
1A9
330
1F
100
AcDbEntity
  8
0
  6
Continuous
 62
     7
370
    25
100
AcDbLine
 10
255.6918574904
 20
52.4160848489
 30
0.0
 11
255.6173458135
 21
48.3288637538
 31
0.0
  0
LWPOLYLINE
  5
1AA
330
1F
100
AcDbEntity
  8
0
  6
Continuous
 62
     7
370
    25
100
AcDbPolyline
 90
        9
 70
   128
 43
0.0
 10
255.6173458135
 20
48.3288637538
 10
255.6150240325
 20
48.3071358068
 10
255.6089863319
 20
48.2896000267
 10
255.5994174332
 20
48.2767893477
 10
255.5866124468
 20
48.2690898039
 10
255.5709483072
 20
48.2667426639
 10
255.5529095383
 20
48.2698140624
 10
255.5330441317
 20
48.2782105839
 10
255.5119570426
 20
48.2916770284
  0
ARC
  5
1AB
330
1F
100
AcDbEntity
  8
0
  6
Continuous
 62
     7
370
    25
100
AcDbCircle
 10
257.1700999362
 20
53.4613078634
 30
0.0
 40
0.384513302404546
100
AcDbArc
 50
4.6530169841
 51
51.4857151011
  0
LINE
  5
1AC
330
1F
100
AcDbEntity
  8
0
  6
Continuous
 62
     7
370
    25
100
AcDbLine
 10
253.6898472833
 20
56.5106328283
 30
0.0
 11
257.4095401133
 21
53.7621714228
 31
0.0
  0
LINE
  5
1AD
330
1F
100
AcDbEntity
  8
0
  6
Continuous
 62
     7
370
    25
100
AcDbLine
 10
257.5533459759
 20
53.4925000556
 30
0.0
 11
257.4788343941
 21
49.4052788134
 31
0.0
  0
ARC
  5
1AE
330
1F
100
AcDbEntity
  8
0
  6
Continuous
 62
     7
370
    25
100
AcDbCircle
 10
253.6336997579
 20
56.4560672535
 30
0.0
 40
0.07829397525692
100
AcDbArc
 50
44.1813713044
 51
108.4385150732
  0
ARC
  5
1AF
330
1F
100
AcDbEntity
  8
0
  6
Continuous
 62
     7
370
    25
100
AcDbCircle
 10
257.4174073078
 20
49.3979988563
 30
0.0
 40
0.0618569697927173
100
AcDbArc
 50
306.6730221118
 51
6.7588142252
  0
LINE
  5
1B0
330
1F
100
AcDbEntity
  8
0
  6
Continuous
 62
     7
370
    25
100
AcDbLine
 10
203.9515520472
 20
86.4556568109
 30
0.0
 11
200.9445370664
 21
88.6775239386
 31
0.0
  0
ARC
  5
1B1
330
1F
100
AcDbEntity
  8
0
  6
Continuous
 62
     7
370
    25
100
AcDbCircle
 10
203.5448949532
 20
85.9530723197
 30
0.0
 40
0.6464991592682346
100
AcDbArc
 50
22.8448138927
 51
51.0225771618
  0
ARC
  5
1B2
330
1F
100
AcDbEntity
  8
0
  6
Continuous
 62
     7
370
    25
100
AcDbCircle
 10
203.7702585409
 20
86.0180824881
 30
0.0
 40
0.4497786879206047
100
AcDbArc
 50
26.1456826279
 51
47.4604455014
  0
ARC
  5
1B3
330
1F
100
AcDbEntity
  8
0
  6
Continuous
 62
     7
370
    25
100
AcDbCircle
 10
200.798621325
 20
88.5160541567
 30
0.0
 40
0.2176324747370187
100
AcDbArc
 50
47.8967578453
 51
104.9453199143
  0
ARC
  5
1B4
330
1F
100
AcDbEntity
  8
0
  6
Continuous
 62
     7
370
    25
100
AcDbCircle
 10
253.494770705
 20
51.4224328241
 30
0.0
 40
0.6729249498787816
100
AcDbArc
 50
4.653981268
 51
51.4845922839
  0
ARC
  5
1B5
330
1F
100
AcDbEntity
  8
0
  6
Continuous
 62
     7
370
    25
100
AcDbCircle
 10
253.4180828904
 20
51.3796897731
 30
0.0
 40
0.9613310714861782
100
AcDbArc
 50
4.6541477389
 51
51.4838759663
  0
ARC
  5
1B6
330
1F
100
AcDbEntity
  8
0
  6
Continuous
 62
     7
370
    25
100
AcDbCircle
 10
254.5443555673
 20
52.0309608964
 30
0.0
 40
0.9613384592974731
100
AcDbArc
 50
4.654400639
 51
51.4840805072
  0
LINE
  5
1B7
330
1F
100
AcDbEntity
  8
0
  6
Continuous
 62
     7
370
    25
100
AcDbLine
 10
254.1602023261
 20
51.1877788645
 30
0.0
 11
254.1654769383
 21
51.4770326118
 31
0.0
  0
LINE
  5
1B8
330
1F
100
AcDbEntity
  8
0
  6
Continuous
 62
     7
370
    25
100
AcDbLine
 10
251.009723095
 20
54.3537335215
 30
0.0
 11
254.0167372525
 21
52.1318668691
 31
0.0
  0
LINE
  5
1B9
330
1F
100
AcDbEntity
  8
0
  6
Continuous
 62
     7
370
    25
100
AcDbLine
 10
254.3762441081
 20
51.457693042
 30
0.0
 11
254.3160098407
 21
48.1535691408
 31
0.0
  0
LINE
  5
1BA
330
1F
100
AcDbEntity
  8
0
  6
Continuous
 62
     7
370
    25
100
AcDbLine
 10
252.1359975226
 20
55.0050124674
 30
0.0
 11
255.1430118449
 21
52.78314591
 31
0.0
  0
LINE
  5
1BB
330
1F
100
AcDbEntity
  8
0
  6
Continuous
 62
     7
370
    25
100
AcDbLine
 10
255.5025238041
 20
52.108968994
 30
0.0
 11
255.4422842684
 21
48.8048481342
 31
0.0
  0
LWPOLYLINE
  5
1BC
330
1F
100
AcDbEntity
  8
0
  6
Continuous
 62
     7
370
    25
100
AcDbPolyline
 90
        8
 70
   128
 43
0.0
 10
250.7654631747
 20
54.3555628861
 10
250.7671394997
 20
54.3589315856
 10
250.7910589887
 20
54.3909603502
 10
250.8230873009
 20
54.4101999195
 10
250.8622397475
 20
54.4160727591
 10
250.9073314424
 20
54.4083973282
 10
250.9569947533
 20
54.3874052876
 10
251.009723095
 20
54.3537335215
  0
ARC
  5
1BD
330
1F
100
AcDbEntity
  8
0
  6
Continuous
 62
     7
370
    25
100
AcDbCircle
 10
251.9956296039
 20
54.8685931802
 30
0.0
 40
0.1957380252299354
100
AcDbArc
 50
44.1826769037
 51
108.4376580167
  0
LWPOLYLINE
  5
1BE
330
1F
100
AcDbEntity
  8
0
  6
Continuous
 62
     7
370
    25
100
AcDbPolyline
 90
        8
 70
   128
 43
0.0
 10
254.3160098407
 20
48.1535691408
 10
254.3102027953
 20
48.0992504375
 10
254.295113565
 20
48.0554087538
 10
254.271194076
 20
48.0233800367
 10
254.2391708675
 20
48.0041375212
 10
254.2000133172
 20
47.9982676754
 10
254.1549216223
 20
48.0059431063
 10
254.1368393072
 20
48.0122476454
  0
ARC
  5
1BF
330
1F
100
AcDbEntity
  8
0
  6
Continuous
 62
     7
370
    25
100
AcDbCircle
 10
255.2886810274
 20
48.7866483451
 30
0.0
 40
0.1546776906278204
100
AcDbArc
 50
306.6857758398
 51
6.7572273903
  0
ELLIPSE
  5
1C0
330
1F
100
AcDbEntity
  8
0
  6
Continuous
 62
     7
370
    25
100
AcDbEllipse
 10
199.8285587647
 20
83.9368467668
 30
0.0
 11
-0.3398472650671351
 21
1.073480957162559
 31
0.0
210
0.0
220
0.0
230
1.0
 40
0.5652498351
 41
6.122990727048808
 42
8.282966088203612
  0
ELLIPSE
  5
1C1
330
1F
100
AcDbEntity
  8
0
  6
Continuous
 62
     7
370
    25
100
AcDbEllipse
 10
199.8285587647
 20
83.9368467668
 30
0.0
 11
-0.3398472650671351
 21
1.073480957162559
 31
0.0
210
0.0
220
0.0
230
1.0
 40
0.5652498351
 41
2.422202541742419
 42
2.903508400282079
  0
LINE
  5
1C2
330
1F
100
AcDbEntity
  8
0
  6
Continuous
 62
     7
370
    25
100
AcDbLine
 10
199.4181140382
 20
83.315642707
 30
0.0
 11
199.6843680691
 21
83.0027874583
 31
0.0
  0
LWPOLYLINE
  5
1C3
330
1F
100
AcDbEntity
  8
0
  6
Continuous
 62
     7
370
    25
100
AcDbPolyline
 90
       21
 70
   128
 43
0.0
 10
202.6480930916
 20
78.4624813001
 10
202.3615349398
 20
78.8801514682
 10
202.1462140994
 20
79.3780369192
 10
202.0232061348
 20
79.907401738
 10
202.0045539318
 20
80.4164272974
 10
202.0920815762
 20
80.8552876932
 10
202.2772222274
 20
81.1810231019
 10
202.5418530695
 20
81.3617487091
 10
202.8600694314
 20
81.3797740616
 10
203.2007228162
 20
81.2333343039
 10
203.5304677405
 20
80.9367641186
 10
203.8170258922
 20
80.5190939505
 10
204.0323467326
 20
80.0212086896
 10
204.1553546972
 20
79.4918438708
 10
204.1740069003
 20
78.9828183114
 10
204.0864792558
 20
78.5439579156
 10
203.9013385224
 20
78.2182226495
 10
203.6367076802
 20
78.0374968522
 10
203.3184914007
 20
78.0194713571
 10
202.9778380159
 20
78.1659113049
 10
202.6480930916
 20
78.4624813001
  0
LWPOLYLINE
  5
1C4
330
1F
100
AcDbEntity
  8
0
  6
Continuous
 62
     7
370
    25
100
AcDbPolyline
 90
       17
 70
   128
 43
0.0
 10
202.8371733206
 20
78.992685043
 10
202.6383001231
 20
79.2992138523
 10
202.5080845535
 20
79.6667015233
 10
202.4663508594
 20
80.0392006371
 10
202.5194527604
 20
80.3600026696
 10
202.659305635
 20
80.5802675919
 10
202.8646177513
 20
80.6664625561
 10
203.1041334347
 20
80.6054645547
 10
203.3413875115
 20
80.4065607559
 10
203.5402607089
 20
80.1000317565
 10
203.6704762785
 20
79.7325440855
 10
203.7122099727
 20
79.3600449717
 10
203.6591080716
 20
79.0392429392
 10
203.5192552794
 20
78.8189780644
 10
203.3139429984
 20
78.7327830052
 10
203.0744273974
 20
78.793780864
 10
202.8371733206
 20
78.992685043
  0
LINE
  5
1C5
330
1F
100
AcDbEntity
  8
0
  6
Continuous
 62
     7
370
    25
100
AcDbLine
 10
203.2505154488
 20
80.4799913235
 30
0.0
 11
203.1364046674
 21
80.5497084935
 31
0.0
  0
SPLINE
  5
1C6
330
1F
100
AcDbEntity
  8
0
  6
Continuous
 62
     7
370
    25
100
AcDbSpline
210
0.0
220
0.0
230
1.0
 70
     8
 71
     3
 72
    10
 73
     6
 74
     0
 42
0.000000001
 43
0.00000001
 40
0.0
 40
0.0
 40
0.0
 40
0.0
 40
0.4391162849184908
 40
0.7513665815400647
 40
1.0
 40
1.0
 40
1.0
 40
1.0
 10
203.1364046674043
 20
80.54970849348538
 30
0.0
 10
203.1141895349591
 20
80.52775109495822
 30
0.0
 10
203.0761774896373
 20
80.49018005503666
 30
0.0
 10
202.8904302022792
 20
80.39331154177233
 30
0.0
 10
202.758891164226
 20
80.33244134268917
 30
0.0
 10
202.7005813937465
 20
80.30545827066649
 30
0.0
  0
SPLINE
  5
1C7
330
1F
100
AcDbEntity
  8
0
  6
Continuous
 62
     7
370
    25
100
AcDbSpline
210
0.0
220
0.0
230
1.0
 70
     8
 71
     3
 72
    10
 73
     6
 74
     0
 42
0.000000001
 43
0.00000001
 40
0.0
 40
0.0
 40
0.0
 40
0.0
 40
0.4391168107762723
 40
0.7513668810626166
 40
1.0
 40
1.0
 40
1.0
 40
1.0
 10
202.7005813937465
 20
80.30545827066649
 30
0.0
 10
202.7490124527289
 20
80.20162805462516
 30
0.0
 10
202.8318821877087
 20
80.0239655655733
 30
0.0
 10
202.821858453226
 20
79.72344955460723
 30
0.0
 10
202.7777825530966
 20
79.56121742182037
 30
0.0
 10
202.75824420941
 20
79.48930176818403
 30
0.0
  0
SPLINE
  5
1C8
330
1F
100
AcDbEntity
  8
0
  6
Continuous
 62
     7
370
    25
100
AcDbSpline
210
0.0
220
0.0
230
1.0
 70
     8
 71
     3
 72
    11
 73
     7
 74
     0
 42
0.000000001
 43
0.00000001
 40
0.0
 40
0.0
 40
0.0
 40
0.0
 40
0.1864187296817721
 40
0.5288413224995813
 40
0.8918895109790577
 40
0.9999999999999999
 40
0.9999999999999999
 40
0.9999999999999999
 40
0.9999999999999999
 10
202.75824420941
 20
79.48930176818403
 30
0.0
 10
202.8056334793594
 20
79.46172497956985
 30
0.0
 10
202.940069564377
 20
79.38349386306182
 30
0.0
 10
203.1324212521498
 20
79.21652041398633
 30
0.0
 10
203.2209513895981
 20
79.0399624934436
 30
0.0
 10
203.2459853494502
 20
78.94027075331293
 30
0.0
 10
203.2517295578687
 20
78.91739582116894
 30
0.0
  0
SPLINE
  5
1C9
330
1F
100
AcDbEntity
  8
0
  6
Continuous
 62
     7
370
    25
100
AcDbSpline
210
0.0
220
0.0
230
1.0
 70
     8
 71
     3
 72
    10
 73
     6
 74
     0
 42
0.000000001
 43
0.00000001
 40
0.0
 40
0.0
 40
0.0
 40
0.0
 40
0.4391164016142279
 40
0.7513670579663088
 40
0.9999999999999999
 40
0.9999999999999999
 40
0.9999999999999999
 40
0.9999999999999999
 10
203.2517295578687
 20
78.91739582116894
 30
0.0
 10
203.3542970727381
 20
78.96537124111995
 30
0.0
 10
203.5297991756134
 20
79.0474614340865
 30
0.0
 10
203.6544332357576
 20
79.12454111058686
 30
0.0
 10
203.6773800460904
 20
79.1502502188846
 30
0.0
 10
203.6875520906639
 20
79.16164675686775
 30
0.0
  0
LINE
  5
1CA
330
1F
100
AcDbEntity
  8
0
  6
Continuous
 62
     7
370
    25
100
AcDbLine
 10
203.2467354444
 20
80.4823007835
 30
0.0
 11
202.7005813937
 21
80.3054582707
 31
0.0
  0
LINE
  5
1CB
330
1F
100
AcDbEntity
  8
0
  6
Continuous
 62
     7
370
    25
100
AcDbLine
 10
203.6585249716
 20
79.7808100021
 30
0.0
 11
202.7582442094
 21
79.4893017682
 31
0.0
  0
LINE
  5
1CC
330
1F
100
AcDbEntity
  8
0
  6
Continuous
 62
     7
370
    25
100
AcDbLine
 10
226.4526777469
 20
80.980366946
 30
0.0
 11
236.1426952494
 21
65.6953214943
 31
0.0
  0
LINE
  5
1CD
330
1F
100
AcDbEntity
  8
0
  6
Continuous
 62
     7
370
    25
100
AcDbLine
 10
236.1426952494
 20
65.6953214943
 30
0.0
 11
217.8160364292
 21
55.1155665538
 31
0.0
  0
ELLIPSE
  5
1CE
330
1F
100
AcDbEntity
  8
0
  6
Continuous
 62
     7
370
    25
100
AcDbEllipse
 10
217.0997925247
 20
57.2778769108
 30
0.0
 11
-0.3036907733034014
 21
2.304253090102478
 31
0.0
210
0.0
220
0.0
230
1.0
 40
0.6794150358
 41
3.415781883873046
 42
4.864405163028312
  0
LINE
  5
1CF
330
1F
100
AcDbEntity
  8
0
  6
Continuous
 62
     7
370
    25
100
AcDbLine
 10
214.4366347794
 20
75.2443396388
 30
0.0
 11
218.6012937909
 21
57.8307665454
 31
0.0
  0
LINE
  5
1D0
330
1F
100
AcDbEntity
  8
0
  6
Continuous
 62
     7
370
    25
100
AcDbLine
 10
218.5370837257
 20
77.6114784295
 30
0.0
 11
214.4366347794
 21
75.2443396388
 31
0.0
  0
LINE
  5
1D1
330
1F
100
AcDbEntity
  8
0
  6
Continuous
 62
     7
370
    25
100
AcDbLine
 10
218.5370837257
 20
77.6114784295
 30
0.0
 11
226.4526777469
 21
80.980366946
 31
0.0
  0
LWPOLYLINE
  5
1D2
330
1F
100
AcDbEntity
  8
0
  6
Continuous
 62
     7
370
    25
100
AcDbPolyline
 90
       23
 70
   128
 43
0.0
 10
203.032977042
 20
78.0166520908
 10
203.3876841782
 20
77.8372644251
 10
203.7277216593
 20
77.8118309248
 10
204.025541169
 20
77.9424128775
 10
204.2570142952
 20
78.2184314382
 10
204.4033895593
 20
78.6175247641
 10
204.4528081385
 20
79.1073605588
 10
204.4012664118
 20
79.6482553924
 10
204.2529403743
 20
80.1963893858
 10
204.0198455822
 20
80.7073559919
 10
203.7208665402
 20
81.1397596183
 10
203.3802253385
 20
81.458569088
 10
203.0255175437
 20
81.6379573239
 10
202.6854800627
 20
81.6633906342
 10
202.3876612938
 20
81.5328083488
 10
202.1561875091
 20
81.2567901682
 10
202.009812245
 20
80.8576972225
 10
201.9603936658
 20
80.3678610477
 10
202.0119353102
 20
79.8269661666
 10
202.1602620886
 20
79.2788318405
 10
202.3933562221
 20
78.7678658046
 10
202.6923352641
 20
78.3354621782
 10
203.032977042
 20
78.0166520908
  0
LINE
  5
1D3
330
1F
100
AcDbEntity
  8
0
  6
Continuous
 62
     7
370
    25
100
AcDbLine
 10
198.1662635693
 20
73.1571840739
 30
0.0
 11
198.0090693245
 21
82.0676048747
 31
0.0
  0
LINE
  5
1D4
330
1F
100
AcDbEntity
  8
0
  6
Continuous
 62
     7
370
    25
100
AcDbLine
 10
200.1041557428
 20
80.5195568066
 30
0.0
 11
200.1105380269
 21
80.043581338
 31
0.0
  0
LWPOLYLINE
  5
1D5
330
1F
100
AcDbEntity
  8
0
  6
Continuous
 62
     7
370
    25
100
AcDbPolyline
 90
        9
 70
   128
 43
0.0
 10
200.1105380269
 20
80.043581338
 10
200.1718043981
 20
79.6031844353
 10
200.3351849277
 20
79.1762153809
 10
200.5758060603
 20
78.8276763301
 10
200.8570359284
 20
78.6106284124
 10
201.1360599193
 20
78.5581157943
 10
201.3703982904
 20
78.6781329629
 10
201.5243761215
 20
78.952408548
 10
201.5745512861
 20
79.3391862324
  0
LINE
  5
1D6
330
1F
100
AcDbEntity
  8
0
  6
Continuous
 62
     7
370
    25
100
AcDbLine
 10
201.5745512861
 20
79.3391862324
 30
0.0
 11
201.5013001868
 21
84.8021883606
 31
0.0
  0
LINE
  5
1D7
330
1F
100
AcDbEntity
  8
0
  6
Continuous
 62
     7
370
    25
100
AcDbLine
 10
214.4366347794
 20
75.2443396388
 30
0.0
 11
201.5013001868
 21
84.8021883606
 31
0.0
  0
SPLINE
  5
1D8
330
1F
100
AcDbEntity
  8
0
  6
Continuous
 62
     7
370
    25
100
AcDbSpline
210
0.0
220
0.0
230
1.0
 70
     8
 71
     3
 72
     8
 73
     4
 74
     0
 42
0.000000001
 43
0.00000001
 40
0.0
 40
0.0
 40
0.0
 40
0.0
 40
1.0
 40
1.0
 40
1.0
 40
1.0
 10
198.5253953009136
 20
72.66473853809305
 30
0.0
 10
198.4175721281719
 20
72.85035999136845
 30
0.0
 10
198.2973631391627
 20
73.01556125309548
 30
0.0
 10
198.1662634752805
 20
73.1571836778044
 30
0.0
  0
LINE
  5
1D9
330
1F
100
AcDbEntity
  8
0
  6
Continuous
 62
     7
370
    25
100
AcDbLine
 10
236.1426952494
 20
65.6953214943
 30
0.0
 11
236.1426952494
 21
63.0294838479
 31
0.0
  0
LINE
  5
1DA
330
1F
100
AcDbEntity
  8
0
  6
Continuous
 62
     7
370
    25
100
AcDbLine
 10
218.8185789049
 20
39.3635061332
 30
0.0
 11
218.7577395998
 21
39.32838435
 31
0.0
  0
LINE
  5
1DB
330
1F
100
AcDbEntity
  8
0
  6
Continuous
 62
     7
370
    25
100
AcDbLine
 10
218.5534139831
 20
39.6191024399
 30
0.0
 11
218.7577395998
 21
39.32838435
 31
0.0
  0
LINE
  5
1DC
330
1F
100
AcDbEntity
  8
0
  6
Continuous
 62
     7
370
    25
100
AcDbLine
 10
218.5534139831
 20
45.2479316493
 30
0.0
 11
218.5534139831
 21
39.6191024399
 31
0.0
  0
LINE
  5
1DD
330
1F
100
AcDbEntity
  8
0
  6
Continuous
 62
     7
370
    25
100
AcDbLine
 10
218.5534139831
 20
45.2479316493
 30
0.0
 11
214.8411031027
 21
43.1048601946
 31
0.0
  0
LINE
  5
1DE
330
1F
100
AcDbEntity
  8
0
  6
Continuous
 62
     7
370
    25
100
AcDbLine
 10
214.8411031027
 20
43.1048601946
 30
0.0
 11
214.8411031027
 21
37.4760309852
 31
0.0
  0
LINE
  5
1DF
330
1F
100
AcDbEntity
  8
0
  6
Continuous
 62
     7
370
    25
100
AcDbLine
 10
214.6367778153
 20
36.9494037498
 30
0.0
 11
214.8411031027
 21
37.4760309852
 31
0.0
  0
LINE
  5
1E0
330
1F
100
AcDbEntity
  8
0
  6
Continuous
 62
     7
370
    25
100
AcDbLine
 10
214.6367778153
 20
36.9494037498
 30
0.0
 11
214.5150992051
 21
36.8791601833
 31
0.0
  0
LINE
  5
1E1
330
1F
100
AcDbEntity
  8
0
  6
Continuous
 62
     7
370
    25
100
AcDbLine
 10
214.2664756043
 20
37.2329056019
 30
0.0
 11
214.5150992051
 21
36.8791601833
 31
0.0
  0
LWPOLYLINE
  5
1E2
330
1F
100
AcDbEntity
  8
0
  6
Continuous
 62
     7
370
    25
100
AcDbPolyline
 90
        9
 70
   128
 43
0.0
 10
214.1782938605
 20
37.1819993647
 10
214.1863847383
 20
37.1988466609
 10
214.196929353
 20
37.2142754635
 10
214.2092079153
 20
37.2272375421
 10
214.2223847324
 20
37.2368489368
 10
214.235562208
 20
37.2424515514
 10
214.2478407703
 20
37.2436659992
 10
214.2583847264
 20
37.2404113693
 10
214.2664756043
 20
37.2329056019
  0
LINE
  5
1E3
330
1F
100
AcDbEntity
  8
0
  6
Continuous
 62
     7
370
    25
100
AcDbLine
 10
213.9296709182
 20
36.541199627
 30
0.0
 11
214.1782938605
 21
37.1819993647
 31
0.0
  0
LINE
  5
1E4
330
1F
100
AcDbEntity
  8
0
  6
Continuous
 62
     7
370
    25
100
AcDbLine
 10
213.9296709182
 20
36.541199627
 30
0.0
 11
213.807992308
 21
36.4709560605
 31
0.0
  0
LINE
  5
1E5
330
1F
100
AcDbEntity
  8
0
  6
Continuous
 62
     7
370
    25
100
AcDbLine
 10
213.5593687072
 20
36.824701479
 30
0.0
 11
213.807992308
 21
36.4709560605
 31
0.0
  0
LWPOLYLINE
  5
1E6
330
1F
100
AcDbEntity
  8
0
  6
Continuous
 62
     7
370
    25
100
AcDbPolyline
 90
        9
 70
   128
 43
0.0
 10
213.4711876219
 20
36.7737956221
 10
213.4792784997
 20
36.7906429182
 10
213.4898224559
 20
36.8060713407
 10
213.5021010182
 20
36.8190334192
 10
213.5152784938
 20
36.8286451942
 10
213.5284553109
 20
36.8342474286
 10
213.5407338732
 20
36.8354618764
 10
213.5512784879
 20
36.8322076267
 10
213.5593687072
 20
36.824701479
  0
LINE
  5
1E7
330
1F
100
AcDbEntity
  8
0
  6
Continuous
 62
     7
370
    25
100
AcDbLine
 10
213.2225640211
 20
36.1329955041
 30
0.0
 11
213.4711876219
 21
36.7737956221
 31
0.0
  0
LINE
  5
1E8
330
1F
100
AcDbEntity
  8
0
  6
Continuous
 62
     7
370
    25
100
AcDbLine
 10
213.2225640211
 20
36.1329955041
 30
0.0
 11
213.1008854109
 21
36.0627519376
 31
0.0
  0
LINE
  5
1E9
330
1F
100
AcDbEntity
  8
0
  6
Continuous
 62
     7
370
    25
100
AcDbLine
 10
212.8522624686
 20
36.4164977364
 30
0.0
 11
213.1008854109
 21
36.0627519376
 31
0.0
  0
LWPOLYLINE
  5
1EA
330
1F
100
AcDbEntity
  8
0
  6
Continuous
 62
     7
370
    25
100
AcDbPolyline
 90
        9
 70
   128
 43
0.0
 10
212.7640807248
 20
36.3655914993
 10
212.7721716027
 20
36.3824387954
 10
212.7827155588
 20
36.3978672179
 10
212.7949947797
 20
36.4108296766
 10
212.8081715967
 20
36.4204410713
 10
212.8213484138
 20
36.4260433057
 10
212.8336269761
 20
36.4272577535
 10
212.8441715908
 20
36.4240035039
 10
212.8522624686
 20
36.4164977364
  0
LINE
  5
1EB
330
1F
100
AcDbEntity
  8
0
  6
Continuous
 62
     7
370
    25
100
AcDbLine
 10
212.5154577826
 20
35.7247917615
 30
0.0
 11
212.7640807248
 21
36.3655914993
 31
0.0
  0
LINE
  5
1EC
330
1F
100
AcDbEntity
  8
0
  6
Continuous
 62
     7
370
    25
100
AcDbLine
 10
212.5154577826
 20
35.7247917615
 30
0.0
 11
212.3937785138
 21
35.6545478148
 31
0.0
  0
LINE
  5
1ED
330
1F
100
AcDbEntity
  8
0
  6
Continuous
 62
     7
370
    25
100
AcDbLine
 10
212.1451555715
 20
36.0082936136
 30
0.0
 11
212.3937785138
 21
35.6545478148
 31
0.0
  0
LWPOLYLINE
  5
1EE
330
1F
100
AcDbEntity
  8
0
  6
Continuous
 62
     7
370
    25
100
AcDbPolyline
 90
        9
 70
   128
 43
0.0
 10
212.0569738277
 20
35.9573873764
 10
212.0650647056
 20
35.9742346726
 10
212.0756093202
 20
35.9896634752
 10
212.087887224
 20
36.0026251736
 10
212.1010646996
 20
36.0122369485
 10
212.1142421752
 20
36.0178395631
 10
212.126520079
 20
36.0190536307
 10
212.1370646937
 20
36.015799381
 10
212.1451555715
 20
36.0082936136
  0
LINE
  5
1EF
330
1F
100
AcDbEntity
  8
0
  6
Continuous
 62
     7
370
    25
100
AcDbLine
 10
211.8083508855
 20
35.3165876387
 30
0.0
 11
212.0569738277
 21
35.9573873764
 31
0.0
  0
LINE
  5
1F0
330
1F
100
AcDbEntity
  8
0
  6
Continuous
 62
     7
370
    25
100
AcDbLine
 10
211.8083508855
 20
35.3165876387
 30
0.0
 11
211.6866716167
 21
35.246343692
 31
0.0
  0
LINE
  5
1F1
330
1F
100
AcDbEntity
  8
0
  6
Continuous
 62
     7
370
    25
100
AcDbLine
 10
211.5000242981
 20
35.5119087636
 30
0.0
 11
211.6866716167
 21
35.246343692
 31
0.0
  0
LINE
  5
1F2
330
1F
100
AcDbEntity
  8
0
  6
Continuous
 62
     7
370
    25
100
AcDbLine
 10
211.5000242981
 20
35.8685810688
 30
0.0
 11
211.5000242981
 21
35.5119087636
 31
0.0
  0
LINE
  5
1F3
330
1F
100
AcDbEntity
  8
0
  6
Continuous
 62
     7
370
    25
100
AcDbLine
 10
211.3939578025
 20
35.9298303376
 30
0.0
 11
211.5000242981
 21
35.8685810688
 31
0.0
  0
LINE
  5
1F4
330
1F
100
AcDbEntity
  8
0
  6
Continuous
 62
     7
370
    25
100
AcDbLine
 10
211.3939578025
 20
44.059312486
 30
0.0
 11
211.3939578025
 21
35.9298303376
 31
0.0
  0
LINE
  5
1F5
330
1F
100
AcDbEntity
  8
0
  6
Continuous
 62
     7
370
    25
100
AcDbLine
 10
211.3939578025
 20
44.059312486
 30
0.0
 11
213.9864236253
 21
49.8313339049
 31
0.0
  0
LINE
  5
1F6
330
1F
100
AcDbEntity
  8
0
  6
Continuous
 62
     7
370
    25
100
AcDbLine
 10
217.8160364292
 20
55.1155665538
 30
0.0
 11
213.9864236253
 21
49.8313339049
 31
0.0
  0
LINE
  5
1F7
330
1F
100
AcDbEntity
  8
0
  6
Continuous
 62
     7
370
    25
100
AcDbLine
 10
192.1465148072
 20
56.0552014428
 30
0.0
 11
213.9864236253
 21
49.8313339049
 31
0.0
  0
ELLIPSE
  5
1F8
330
1F
100
AcDbEntity
  8
0
  6
Continuous
 62
     7
370
    25
100
AcDbEllipse
 10
223.7683258306
 20
63.32874215
 30
0.0
 11
26.95385789389033
 21
29.01863330579542
 31
0.0
210
0.0
220
0.0
230
1.0
 40
0.6257611005
 41
1.901165781501148
 42
2.315741810376013
  0
LINE
  5
1F9
330
1F
100
AcDbEntity
  8
0
  6
Continuous
 62
     7
370
    25
100
AcDbLine
 10
217.8160364292
 20
55.1155665538
 30
0.0
 11
197.8479419226
 21
69.8698836604
 31
0.0
  0
LINE
  5
1FA
330
1F
100
AcDbEntity
  8
0
  6
Continuous
 62
     7
370
    25
100
AcDbLine
 10
192.0290403452
 20
55.2384413797
 30
0.0
 11
211.3939578025
 21
44.059312486
 31
0.0
  0
ELLIPSE
  5
1FB
330
1F
100
AcDbEntity
  8
0
  6
Continuous
 62
     7
370
    25
100
AcDbEllipse
 10
223.7683258306
 20
71.610353255
 30
0.0
 11
21.52769048047199
 21
51.88379044226977
 31
0.0
210
0.0
220
0.0
230
1.0
 40
0.4692729597
 41
2.061804586755633
 42
2.07801362213422
  0
LINE
  5
1FC
330
1F
100
AcDbEntity
  8
0
  6
Continuous
 62
     7
370
    25
100
AcDbLine
 10
203.3357085529
 20
85.6668281835
 30
0.0
 11
201.5013001868
 21
84.8021883606
 31
0.0
  0
LINE
  5
1FD
330
1F
100
AcDbEntity
  8
0
  6
Continuous
 62
     7
370
    25
100
AcDbLine
 10
203.240501374
 20
85.7371762492
 30
0.0
 11
203.3357085529
 21
85.6668281835
 31
0.0
  0
LINE
  5
1FE
330
1F
100
AcDbEntity
  8
0
  6
Continuous
 62
     7
370
    25
100
AcDbLine
 10
203.8421483774
 20
86.094684036
 30
0.0
 11
203.2395163561
 21
85.8106365261
 31
0.0
  0
LINE
  5
1FF
330
1F
100
AcDbEntity
  8
0
  6
Continuous
 62
     7
370
    25
100
AcDbLine
 10
203.8421483774
 20
86.094684036
 30
0.0
 11
218.5370837257
 21
77.6114784295
 31
0.0
  0
SPLINE
  5
200
330
1F
100
AcDbEntity
  8
0
  6
Continuous
 62
     7
370
    25
100
AcDbSpline
210
0.0
220
0.0
230
1.0
 70
     8
 71
     3
 72
     8
 73
     4
 74
     0
 42
0.000000001
 43
0.00000001
 40
0.0
 40
0.0
 40
0.0
 40
0.0
 40
1.0
 40
1.0
 40
1.0
 40
1.0
 10
197.8479416096246
 20
69.86988351482346
 30
0.0
 10
197.9393305551705
 20
69.93963363230912
 30
0.0
 10
198.0305386224727
 20
70.02120185417544
 30
0.0
 10
198.1214941420179
 20
70.11479694286915
 30
0.0
  0
SPLINE
  5
201
330
1F
100
AcDbEntity
  8
0
  6
Continuous
 62
     7
370
    25
100
AcDbSpline
210
0.0
220
0.0
230
1.0
 70
     8
 71
     3
 72
    18
 73
    14
 74
     0
 42
0.000000001
 43
0.00000001
 40
0.0
 40
0.0
 40
0.0
 40
0.0
 40
0.2499999999999986
 40
0.2499999999999986
 40
0.4999999999999971
 40
0.4999999999999971
 40
0.6249999999999978
 40
0.6249999999999978
 40
0.7499999999999986
 40
0.7499999999999986
 40
0.8749999999999992
 40
0.8749999999999992
 40
1.0
 40
1.0
 40
1.0
 40
1.0
 10
198.1214941420179
 20
70.11479694286915
 30
0.0
 10
198.2670554534934
 20
70.264582507572
 30
0.0
 10
198.4046240413241
 20
70.43848518046964
 30
0.0
 10
198.6381649860853
 20
70.84170826921549
 30
0.0
 10
198.7271140024039
 20
71.0604950891936
 30
0.0
 10
198.7971284152131
 20
71.41437645440767
 30
0.0
 10
198.8090401914192
 20
71.53286926390498
 30
0.0
 10
198.8098307693136
 20
71.77025252586347
 30
0.0
 10
198.7985285793951
 20
71.89002515032159
 30
0.0
 10
198.753327525356
 20
72.12532310617438
 30
0.0
 10
198.7200201640025
 20
72.23891257276594
 30
0.0
 10
198.6353802773857
 20
72.45817857025277
 30
0.0
 10
198.5836709771157
 20
72.56441487452243
 30
0.0
 10
198.5253953009136
 20
72.66473853809305
 30
0.0
  0
LWPOLYLINE
  5
202
330
1F
100
AcDbEntity
  8
0
  6
Continuous
 62
     7
370
    25
100
AcDbPolyline
 90
       23
 70
   128
 43
0.0
 10
206.79776363
 20
39.767142724
 10
206.399333666
 20
40.0633025923
 10
206.0331816024
 20
40.4677713749
 10
205.7289722353
 20
40.9477827486
 10
205.5113496172
 20
41.4644497143
 10
205.3979443017
 20
41.975910444
 10
205.3979443017
 20
42.4407327398
 10
205.5113496172
 20
42.8212615211
 10
205.7289722353
 20
43.0866637183
 10
206.0331816024
 20
43.215442433
 10
206.399333666
 20
43.1971640833
 10
206.79776363
 20
43.0333065069
 10
207.196192277
 20
42.7371473989
 10
207.5623456576
 20
42.3326748142
 10
207.8665537076
 20
41.8526642008
 10
208.0841763257
 20
41.336000277
 10
208.1975829583
 20
40.824535745
 10
208.1975829583
 20
40.3597134493
 10
208.0841763257
 20
39.9791884702
 10
207.8665537076
 20
39.7137832311
 10
207.5623456576
 20
39.5850037561
 10
207.196192277
 20
39.603285908
 10
206.79776363
 20
39.767142724
  0
LINE
  5
203
330
1F
100
AcDbEntity
  8
0
  6
Continuous
 62
     7
370
    25
100
AcDbLine
 10
192.0290403452
 20
47.1089592312
 30
0.0
 11
211.3939578025
 21
35.9298303376
 31
0.0
  0
LINE
  5
204
330
1F
100
AcDbEntity
  8
0
  6
Continuous
 62
     7
370
    25
100
AcDbLine
 10
192.0290403452
 20
55.2384413797
 30
0.0
 11
192.0290403452
 21
47.1089592312
 31
0.0
  0
LINE
  5
205
330
1F
100
AcDbEntity
  8
0
  6
Continuous
 62
     7
370
    25
100
AcDbLine
 10
204.327578821
 20
86.2725454941
 30
0.0
 11
203.8421483774
 21
86.094684036
 31
0.0
  0
LINE
  5
206
330
1F
100
AcDbEntity
  8
0
  6
Continuous
 62
     7
370
    25
100
AcDbLine
 10
201.0738888726
 20
88.6248210566
 30
0.0
 11
204.327578821
 21
86.2725454941
 31
0.0
  0
SPLINE
  5
207
330
1F
100
AcDbEntity
  8
0
  6
Continuous
 62
     7
370
    25
100
AcDbSpline
210
0.0
220
0.0
230
1.0
 70
     8
 71
     3
 72
    29
 73
    25
 74
     0
 42
0.000000001
 43
0.00000001
 40
0.0
 40
0.0
 40
0.0
 40
0.0
 40
0.0456833661245696
 40
0.0912995491593897
 40
0.1368552813435778
 40
0.1823573217482166
 40
0.2278124533959173
 40
0.2732274803276589
 40
0.3186092246230076
 40
0.3639645233800721
 40
0.4093002256617546
 40
0.4546231894150287
 40
0.4999402783701294
 40
0.5452583589266244
 40
0.5905842970334307
 40
0.6359249550698512
 40
0.6812871887347164
 40
0.7266778439506592
 40
0.7721037537904841
 40
0.8175717354324684
 40
0.8630885871512802
 40
0.9086610853510209
 40
0.9542959816466737
 40
1.0
 40
1.0
 40
1.0
 40
1.0
 10
209.4375041629385
 20
90.80301771466566
 30
0.0
 10
209.3009286695774
 20
90.77935332800911
 30
0.0
 10
209.0279785341585
 20
90.73205935612916
 30
0.0
 10
208.6215679960135
 20
90.65771960592502
 30
0.0
 10
208.2177788216799
 20
90.58096110599712
 30
0.0
 10
207.8168021208617
 20
90.50153670143368
 30
0.0
 10
207.418586821389
 20
90.41951249161139
 30
0.0
 10
207.0231466220571
 20
90.33487079753931
 30
0.0
 10
206.6304778946359
 20
90.24761635256212
 30
0.0
 10
206.2405816466334
 20
90.15774789420108
 30
0.0
 10
205.8534576443311
 20
90.06526576563871
 30
0.0
 10
205.4691059858101
 20
89.97016988108503
 30
0.0
 10
205.0875266788864
 20
89.87246027104753
 30
0.0
 10
204.7087197572121
 20
89.77213693402008
 30
0.0
 10
204.3326852371496
 20
89.66919988472722
 30
0.0
 10
203.9594231737577
 20
89.56364910926395
 30
0.0
 10
203.5889334794107
 20
89.45548469623296
 30
0.0
 10
203.2212165933867
 20
89.3447063565512
 30
0.0
 10
202.8562709821354
 20
89.23131521459723
 30
0.0
 10
202.4941024789638
 20
89.11530711594118
 30
0.0
 10
202.1346893773445
 20
88.99669763898741
 30
0.0
 10
201.7781129215076
 20
88.87542859441008
 30
0.0
 10
201.4240693885001
 20
88.75171763317405
 30
0.0
 10
201.1906743992716
 20
88.66714117373219
 30
0.0
 10
201.0738885921238
 20
88.6248209417758
 30
0.0
  0
LINE
  5
208
330
1F
100
AcDbEntity
  8
0
  6
Continuous
 62
     7
370
    25
100
AcDbLine
 10
209.4375030703
 20
90.8030182058
 30
0.0
 11
226.4526777469
 21
80.980366946
 31
0.0
  0
LINE
  5
209
330
1F
100
AcDbEntity
  8
0
  6
Continuous
 62
     7
370
    25
100
AcDbLine
 10
211.5000242981
 20
35.8685810688
 30
0.0
 11
192.067737079
 21
47.0866016981
 31
0.0
  0
ELLIPSE
  5
20A
330
1F
100
AcDbEntity
  8
0
  6
Continuous
 62
     7
370
    25
100
AcDbEllipse
 10
223.7683258306
 20
28.7839388978
 30
0.0
 11
32.49999991892216
 21
-18.76490029609652
 31
0.0
210
0.0
220
0.0
230
1.0
 40
0.0000703729
 41
3.358421148596333
 42
3.36388884967058
  0
LINE
  5
20B
330
1F
100
AcDbEntity
  8
0
  6
Continuous
 62
     7
370
    25
100
AcDbLine
 10
192.067737079
 20
47.0866016981
 30
0.0
 11
192.067737079
 21
46.7299293929
 31
0.0
  0
LINE
  5
20C
330
1F
100
AcDbEntity
  8
0
  6
Continuous
 62
     7
370
    25
100
AcDbLine
 10
192.067737079
 20
46.7299293929
 30
0.0
 11
211.5000242981
 21
35.5119087636
 31
0.0
  0
LINE
  5
20D
330
1F
100
AcDbEntity
  8
0
  6
Continuous
 62
     7
370
    25
100
AcDbLine
 10
192.1377930438
 20
46.5316710772
 30
0.0
 11
211.6866716167
 21
35.246343692
 31
0.0
  0
ELLIPSE
  5
20E
330
1F
100
AcDbEntity
  8
0
  6
Continuous
 62
     7
370
    25
100
AcDbEllipse
 10
223.7683258306
 20
18.0563162391
 30
0.0
 11
-31.73555091678469
 21
34.69979856061927
 31
0.0
210
0.0
220
0.0
230
1.0
 40
0.2019459068
 41
0.4395770001860994
 42
0.4491532447851793
  0
ELLIPSE
  5
20F
330
1F
100
AcDbEntity
  8
0
  6
Continuous
 62
     7
370
    25
100
AcDbEllipse
 10
215.0178794134
 20
43.2295637655
 30
0.0
 11
-2.563256035586448
 21
2.802676037588455
 31
0.0
210
0.0
220
0.0
230
1.0
 40
0.2019459068
 41
2.354606166549248
 42
2.573515926240647
  0
SPLINE
  5
210
330
1F
100
AcDbEntity
  8
0
  6
Continuous
 62
     7
370
    25
100
AcDbSpline
210
0.0
220
0.0
230
1.0
 70
     8
 71
     3
 72
    16
 73
    12
 74
     0
 42
0.000000001
 43
0.00000001
 40
0.0
 40
0.0
 40
0.0
 40
0.0
 40
0.2500000000000113
 40
0.2500000000000113
 40
0.5000000000000225
 40
0.5000000000000225
 40
0.7500000000000338
 40
0.7500000000000338
 40
0.8750000000000169
 40
0.8750000000000169
 40
1.0
 40
1.0
 40
1.0
 40
1.0
 10
216.4266442305233
 20
40.88431575956135
 30
0.0
 10
216.3979758807508
 20
40.90527702439213
 30
0.0
 10
216.3677501270437
 20
40.92171235538906
 30
0.0
 10
216.3064209535002
 20
40.9513553702909
 30
0.0
 10
216.274892698406
 20
40.96423091664477
 30
0.0
 10
216.2112441960255
 20
40.98554160096385
 30
0.0
 10
216.1792109800875
 20
40.99402430196317
 30
0.0
 10
216.1309887046066
 20
41.00166949478351
 30
0.0
 10
216.1147988570371
 20
41.00337467019335
 30
0.0
 10
216.0828426484587
 20
41.00385119840364
 30
0.0
 10
216.0669695141072
 20
41.00281427276401
 30
0.0
 10
216.0528952045868
 20
40.99826413588722
 30
0.0
  0
ELLIPSE
  5
211
330
1F
100
AcDbEntity
  8
0
  6
Continuous
 62
     7
370
    25
100
AcDbEllipse
 10
215.0178794134
 20
36.1581129023
 30
0.0
 11
1.708436015644708
 21
4.852100650204441
 31
0.0
210
0.0
220
0.0
230
1.0
 40
0.4107407456
 41
0.3033837782792039
 42
0.575595668945949
  0
ARC
  5
212
330
1F
100
AcDbEntity
  8
0
  6
Continuous
 62
     7
370
    25
100
AcDbCircle
 10
215.018892318
 20
36.1119431095
 30
0.0
 40
4.511802870467235
100
AcDbArc
 50
85.5851651649
 51
88.957964975
  0
ELLIPSE
  5
213
330
1F
100
AcDbEntity
  8
0
  6
Continuous
 62
     7
370
    25
100
AcDbEllipse
 10
215.0178794134
 20
41.8152735929
 30
0.0
 11
-2.563256035586448
 21
2.802676037588448
 31
0.0
210
0.0
220
0.0
230
1.0
 40
0.2019459068
 41
1.720723253591189
 42
1.819766055838423
  0
LINE
  5
214
330
1F
100
AcDbEntity
  8
0
  6
Continuous
 62
     7
370
    25
100
AcDbLine
 10
212.0226096582
 20
35.8688190343
 30
0.0
 11
212.3937785138
 21
35.6545478148
 31
0.0
  0
LINE
  5
215
330
1F
100
AcDbEntity
  8
0
  6
Continuous
 62
     7
370
    25
100
AcDbLine
 10
212.7297165553
 20
36.2770231571
 30
0.0
 11
213.1008854109
 21
36.0627519376
 31
0.0
  0
LINE
  5
216
330
1F
100
AcDbEntity
  8
0
  6
Continuous
 62
     7
370
    25
100
AcDbLine
 10
213.4368234524
 20
36.6852272799
 30
0.0
 11
213.807992308
 21
36.4709560605
 31
0.0
  0
LINE
  5
217
330
1F
100
AcDbEntity
  8
0
  6
Continuous
 62
     7
370
    25
100
AcDbLine
 10
218.5534139831
 20
39.6191024399
 30
0.0
 11
216.8740359257
 21
40.5885867564
 31
0.0
  0
LINE
  5
218
330
1F
100
AcDbEntity
  8
0
  6
Continuous
 62
     7
370
    25
100
AcDbLine
 10
214.1439303495
 20
37.0934314027
 30
0.0
 11
214.5150992051
 21
36.8791601833
 31
0.0
  0
LINE
  5
219
330
1F
100
AcDbEntity
  8
0
  6
Continuous
 62
     7
370
    25
100
AcDbLine
 10
215.9380785559
 20
40.9561400228
 30
0.0
 11
218.7577395998
 21
39.32838435
 31
0.0
  0
LINE
  5
21A
330
1F
100
AcDbEntity
  8
0
  6
Continuous
 62
     7
370
    25
100
AcDbLine
 10
214.8411031027
 20
40.773002607
 30
0.0
 11
215.1009436921
 21
40.6229998276
 31
0.0
  0
ELLIPSE
  5
21B
330
1F
100
AcDbEntity
  8
0
  6
Continuous
 62
     7
370
    25
100
AcDbEllipse
 10
231.7481687479
 20
63.7244081406
 30
0.0
 11
35.43464821744075
 21
4.704825474109819
 31
0.0
210
0.0
220
0.0
230
1.0
 40
0.6323393507
 41
5.30969926459935
 42
5.350760716684008
  0
LINE
  5
21C
330
1F
100
AcDbEntity
  8
0
  6
Continuous
 62
     7
370
    25
100
AcDbLine
 10
255.252431896
 20
48.5338601168
 30
0.0
 11
255.2502262658
 21
48.3614452479
 31
0.0
  0
ELLIPSE
  5
21D
330
1F
100
AcDbEntity
  8
0
  6
Continuous
 62
     7
370
    25
100
AcDbEllipse
 10
231.7475339357
 20
63.5183728335
 30
0.0
 11
35.39413404479512
 21
4.699446216205067
 31
0.0
210
0.0
220
0.0
230
1.0
 40
0.6323393507
 41
5.351710295286017
 42
5.355069748808347
  0
LINE
  5
21E
330
1F
100
AcDbEntity
  8
0
  6
Continuous
 62
     7
370
    25
100
AcDbLine
 10
256.7950097619
 20
42.9263386259
 30
0.0
 11
256.943064973
 21
49.0527277513
 31
0.0
  0
ARC
  5
21F
330
1F
100
AcDbEntity
  8
0
  6
Continuous
 62
     7
370
    25
100
AcDbCircle
 10
234.3154938942
 20
79.1848191107
 30
0.0
 40
42.66152881359754
100
AcDbArc
 50
277.7735175109
 51
301.7980658337
  0
ELLIPSE
  5
220
330
1F
100
AcDbEntity
  8
0
  6
Continuous
 62
     7
370
    25
100
AcDbEllipse
 10
260.7789609778
 20
252.1791640121
 30
0.0
 11
46.67969482130137
 21
241.0148415959715
 31
0.0
210
0.0
220
0.0
230
1.0
 40
0.1747025127
 41
3.643032886708463
 42
3.735616566688714
  0
SPLINE
  5
221
330
1F
100
AcDbEntity
  8
0
  6
Continuous
 62
     7
370
    25
100
AcDbSpline
210
0.0
220
0.0
230
1.0
 70
     8
 71
     3
 72
    10
 73
     6
 74
     0
 42
0.000000001
 43
0.00000001
 40
0.0
 40
0.0
 40
0.0
 40
0.0
 40
0.3706308897971265
 40
0.7039186466036568
 40
0.9999999999999999
 40
0.9999999999999999
 40
0.9999999999999999
 40
0.9999999999999999
 10
254.1620574459342
 20
51.45769779927245
 30
0.0
 10
253.1802550486976
 20
50.95114761541112
 30
0.0
 10
251.3155723314171
 20
49.98908500898436
 30
0.0
 10
248.4489943662377
 20
48.81072859703374
 30
0.0
 10
246.5539210978113
 20
48.18248673085897
 30
0.0
 10
245.6623999713294
 20
47.88693567984327
 30
0.0
  0
LINE
  5
222
330
1F
100
AcDbEntity
  8
0
  6
Continuous
 62
     7
370
    25
100
AcDbLine
 10
254.1620531654
 20
51.4576907644
 30
0.0
 11
254.1372620928
 21
47.8434700675
 31
0.0
  0
ELLIPSE
  5
223
330
1F
100
AcDbEntity
  8
0
  6
Continuous
 62
     7
370
    25
100
AcDbEllipse
 10
238.9018471579
 20
46.9762814753
 30
0.0
 11
-0.3092091326061847
 21
2.152513583261175
 31
0.0
210
0.0
220
0.0
230
1.0
 40
0.7167441738
 41
0.0
 42
6.283185307179586
  0
SPLINE
  5
224
330
1F
100
AcDbEntity
  8
0
  6
Continuous
 62
     7
370
    25
100
AcDbSpline
210
0.0
220
0.0
230
1.0
 70
     8
 71
     3
 72
    11
 73
     7
 74
     0
 42
0.000000001
 43
0.00000001
 40
0.0
 40
0.0
 40
0.0
 40
0.0
 40
0.2359746503482546
 40
0.4706383447550482
 40
0.7447383831167699
 40
0.9999999999999999
 40
0.9999999999999999
 40
0.9999999999999999
 40
0.9999999999999999
 10
238.1983616874441
 20
35.98390696181463
 30
0.0
 10
238.2897523847008
 20
36.16927508496225
 30
0.0
 10
238.4720260586714
 20
36.53898151961445
 30
0.0
 10
238.9394192662804
 20
36.87649914942252
 30
0.0
 10
239.486742742784
 20
37.03890553157706
 30
0.0
 10
239.8909025849406
 20
36.95553283619874
 30
0.0
 10
240.0857910770821
 20
36.91532998278968
 30
0.0
  0
ELLIPSE
  5
225
330
1F
100
AcDbEntity
  8
0
  6
Continuous
 62
     7
370
    25
100
AcDbEllipse
 10
231.192947033
 20
107.594614586
 30
0.0
 11
21.15180886481227
 21
112.9927160423899
 31
0.0
210
0.0
220
0.0
230
1.0
 40
0.2183760757
 41
4.067050931142118
 42
4.067519430867701
  0
LINE
  5
226
330
1F
100
AcDbEntity
  8
0
  6
Continuous
 62
     7
370
    25
100
AcDbLine
 10
238.1834930695
 20
35.9429099545
 30
0.0
 11
218.8185782464
 21
47.1220373275
 31
0.0
  0
LINE
  5
227
330
1F
100
AcDbEntity
  8
0
  6
Continuous
 62
     7
370
    25
100
AcDbLine
 10
228.5085944318
 20
58.3120435506
 30
0.0
 11
218.8185782464
 21
47.1220373275
 31
0.0
  0
LINE
  5
228
330
1F
100
AcDbEntity
  8
0
  6
Continuous
 62
     7
370
    25
100
AcDbLine
 10
245.523769767
 20
48.4893919106
 30
0.0
 11
228.5085944318
 21
58.3120435506
 31
0.0
  0
LINE
  5
229
330
1F
100
AcDbEntity
  8
0
  6
Continuous
 62
     7
370
    25
100
AcDbLine
 10
245.6624638501
 20
47.8868889172
 30
0.0
 11
245.5237691084
 21
48.4893899145
 31
0.0
  0
SPLINE
  5
22A
330
1F
100
AcDbEntity
  8
0
  6
Continuous
 62
     7
370
    25
100
AcDbSpline
210
0.0
220
0.0
230
1.0
 70
     8
 71
     3
 72
    10
 73
     6
 74
     0
 42
0.000000001
 43
0.00000001
 40
0.0
 40
0.0
 40
0.0
 40
0.0
 40
0.3337308851690484
 40
0.6661629648438616
 40
1.0
 40
1.0
 40
1.0
 40
1.0
 10
245.523769766954
 20
48.48939191062168
 30
0.0
 10
246.5114825220396
 20
48.81977923777028
 30
0.0
 10
248.4830640764667
 20
49.47926809894858
 30
0.0
 10
251.2859949206313
 20
50.6596254501645
 30
0.0
 10
253.0190354759341
 20
51.5601311873349
 30
0.0
 10
253.8873829768301
 20
52.01133349995349
 30
0.0
  0
LINE
  5
22B
330
1F
100
AcDbEntity
  8
0
  6
Continuous
 62
     7
370
    25
100
AcDbLine
 10
253.8873826476
 20
52.0113332623
 30
0.0
 11
254.1621088124
 21
51.4576491357
 31
0.0
  0
LINE
  5
22C
330
1F
100
AcDbEntity
  8
0
  6
Continuous
 62
     7
370
    25
100
AcDbLine
 10
236.424188453
 20
63.2034321978
 30
0.0
 11
228.5085944318
 21
58.3120435506
 31
0.0
  0
LINE
  5
22D
330
1F
100
AcDbEntity
  8
0
  6
Continuous
 62
     7
370
    25
100
AcDbLine
 10
251.1191244599
 20
54.7202262111
 30
0.0
 11
236.424188453
 21
63.2034321978
 31
0.0
  0
LINE
  5
22E
330
1F
100
AcDbEntity
  8
0
  6
Continuous
 62
     7
370
    25
100
AcDbLine
 10
250.6336943455
 20
54.4545076197
 30
0.0
 11
251.1191244599
 21
54.7202262111
 31
0.0
  0
LINE
  5
22F
330
1F
100
AcDbEntity
  8
0
  6
Continuous
 62
     7
370
    25
100
AcDbLine
 10
253.8873826476
 20
52.0113332623
 30
0.0
 11
250.6336943455
 21
54.4545076197
 31
0.0
  0
SPLINE
  5
230
330
1F
100
AcDbEntity
  8
0
  6
Continuous
 62
     7
370
    25
100
AcDbSpline
210
0.0
220
0.0
230
1.0
 70
     8
 71
     3
 72
     9
 73
     5
 74
     0
 42
0.000000001
 43
0.00000001
 40
0.0
 40
0.0
 40
0.0
 40
0.0
 40
0.9538811374714125
 40
0.9999999999999999
 40
0.9999999999999999
 40
0.9999999999999999
 40
0.9999999999999999
 10
256.839779757822
 20
42.78077085115422
 30
0.0
 10
256.6848464284667
 20
42.7231166124118
 30
0.0
 10
256.5224222822403
 20
42.66267486922433
 30
0.0
 10
256.4351652326904
 20
42.69457416704126
 30
0.0
 10
256.4311410368175
 20
42.69604532637204
 30
0.0
  0
LINE
  5
231
330
1F
100
AcDbEntity
  8
0
  6
Continuous
 62
     7
370
    25
100
AcDbLine
 10
251.1191244599
 20
54.7202262111
 30
0.0
 11
251.781855253
 21
55.0325997817
 31
0.0
  0
LINE
  5
232
330
1F
100
AcDbEntity
  8
0
  6
Continuous
 62
     7
370
    25
100
AcDbLine
 10
251.781855253
 20
55.0325997817
 30
0.0
 11
251.7806346407
 21
54.9657622177
 31
0.0
  0
LINE
  5
233
330
1F
100
AcDbEntity
  8
0
  6
Continuous
 62
     7
370
    25
100
AcDbLine
 10
236.424188453
 20
63.2034321978
 30
0.0
 11
240.5246373993
 21
65.5705709885
 31
0.0
  0
LINE
  5
234
330
1F
100
AcDbEntity
  8
0
  6
Continuous
 62
     7
370
    25
100
AcDbLine
 10
251.6255659307
 20
55.1480811132
 30
0.0
 11
251.7192353259
 21
55.1922343968
 31
0.0
  0
LINE
  5
235
330
1F
100
AcDbEntity
  8
0
  6
Continuous
 62
     7
370
    25
100
AcDbLine
 10
251.781855253
 20
55.0325997817
 30
0.0
 11
251.6255659307
 21
55.1480811132
 31
0.0
  0
LINE
  5
236
330
1F
100
AcDbEntity
  8
0
  6
Continuous
 62
     7
370
    25
100
AcDbLine
 10
240.5246373993
 20
65.5705709885
 30
0.0
 11
253.1323858176
 21
56.2547741222
 31
0.0
  0
LINE
  5
237
330
1F
100
AcDbEntity
  8
0
  6
Continuous
 62
     7
370
    25
100
AcDbLine
 10
255.2111670855
 20
48.564351006
 30
0.0
 11
255.252431896
 21
48.5338601168
 31
0.0
  0
LINE
  5
238
330
1F
100
AcDbEntity
  8
0
  6
Continuous
 62
     7
370
    25
100
AcDbLine
 10
262.9322305164
 20
42.8811849816
 30
0.0
 11
262.9322305164
 21
34.7517028332
 31
0.0
  0
ELLIPSE
  5
239
330
1F
100
AcDbEntity
  8
0
  6
Continuous
 62
     7
370
    25
100
AcDbEllipse
 10
231.192947033
 20
24.4977963107
 30
0.0
 11
22.98190413309469
 21
39.80366912035161
 31
0.0
210
0.0
220
0.0
230
1.0
 40
0.5773346305
 41
5.275572211675379
 42
5.281039912679945
  0
LINE
  5
23A
330
1F
100
AcDbEntity
  8
0
  6
Continuous
 62
     7
370
    25
100
AcDbLine
 10
262.8935357582
 20
34.5290989192
 30
0.0
 11
262.8935357582
 21
34.172426614
 31
0.0
  0
ELLIPSE
  5
23B
330
1F
100
AcDbEntity
  8
0
  6
Continuous
 62
     7
370
    25
100
AcDbEllipse
 10
231.192947033
 20
13.770173652
 30
0.0
 11
21.15206495560062
 21
60.07362709777021
 31
0.0
210
0.0
220
0.0
230
1.0
 40
0.4107407456
 41
5.189237964705285
 42
5.198814209304365
  0
ARC
  5
23C
330
1F
100
AcDbEntity
  8
0
  6
Continuous
 62
     7
370
    25
100
AcDbCircle
 10
251.443087851
 20
38.2762733367
 30
0.0
 40
12.29456665678128
100
AcDbArc
 50
337.1937595828
 51
337.7656344771
  0
ELLIPSE
  5
23D
330
1F
100
AcDbEntity
  8
0
  6
Continuous
 62
     7
370
    25
100
AcDbEllipse
 10
231.192947033
 20
61.8560395218
 30
0.0
 11
-31.73555091678466
 21
34.69979856061831
 31
0.0
210
0.0
220
0.0
230
1.0
 40
0.2019459068
 41
3.596958345630844
 42
3.609579767312042
  0
SPLINE
  5
23E
330
1F
100
AcDbEntity
  8
0
  6
Continuous
 62
     7
370
    25
100
AcDbSpline
210
0.0
220
0.0
230
1.0
 70
     8
 71
     3
 72
    14
 73
    10
 74
     0
 42
0.000000001
 43
0.00000001
 40
0.0
 40
0.0
 40
0.0
 40
0.0
 40
0.1039352443474863
 40
0.249687533575056
 40
0.415823995917392
 40
0.6013464888931028
 40
0.7952155959601148
 40
0.9781498266968336
 40
1.0
 40
1.0
 40
1.0
 40
1.0
 10
262.6772434000373
 20
33.77820778830781
 30
0.0
 10
262.6763498016983
 20
33.77994455244304
 30
0.0
 10
262.6742030769115
 20
33.78411684602883
 30
0.0
 10
262.6692531370578
 20
33.78344843868056
 30
0.0
 10
262.6625565082729
 20
33.77510893686875
 30
0.0
 10
262.6547897533425
 20
33.75741873759013
 30
0.0
 10
262.6472223373823
 20
33.73177444757687
 30
0.0
 10
262.6428535675976
 20
33.70981755437276
 30
0.0
 10
262.6411998962283
 20
33.6985110329599
 30
0.0
 10
262.6410234520983
 20
33.69730464493693
 30
0.0
  0
ELLIPSE
  5
23F
330
1F
100
AcDbEntity
  8
0
  6
Continuous
 62
     7
370
    25
100
AcDbEllipse
 10
231.192947033
 20
15.1844638246
 30
0.0
 11
21.15206495560063
 21
60.07362709776983
 31
0.0
210
0.0
220
0.0
230
1.0
 40
0.4107407456
 41
5.15345473586654
 42
5.165950243318205
  0
ARC
  5
240
330
1F
100
AcDbEntity
  8
0
  6
Continuous
 62
     7
370
    25
100
AcDbCircle
 10
250.5826811083
 20
38.650553906
 30
0.0
 40
13.23299409534526
100
AcDbArc
 50
334.0673778309
 51
334.5956868772
  0
ELLIPSE
  5
241
330
1F
100
AcDbEntity
  8
0
  6
Continuous
 62
     7
370
    25
100
AcDbEllipse
 10
231.192947033
 20
60.4417493491
 30
0.0
 11
-31.73555091678475
 21
34.69979856061791
 31
0.0
210
0.0
220
0.0
230
1.0
 40
0.2019459068
 41
3.632612131833971
 42
3.64497746257782
  0
SPLINE
  5
242
330
1F
100
AcDbEntity
  8
0
  6
Continuous
 62
     7
370
    25
100
AcDbSpline
210
0.0
220
0.0
230
1.0
 70
     8
 71
     3
 72
    13
 73
     9
 74
     0
 42
0.000000001
 43
0.00000001
 40
0.0
 40
0.0
 40
0.0
 40
0.0
 40
0.0193858937410811
 40
0.1914203131433375
 40
0.384264203768435
 40
0.5945728030769851
 40
0.8090045731672875
 40
1.0
 40
1.0
 40
1.0
 40
1.0
 10
262.3684466118881
 20
33.14250069113916
 30
0.0
 10
262.3682717644993
 20
33.14272930346718
 30
0.0
 10
262.3665452853192
 20
33.1449866687452
 30
0.0
 10
262.361599454809
 20
33.14212916700757
 30
0.0
 10
262.3539146747654
 20
33.13268751623859
 30
0.0
 10
262.3453037940071
 20
33.11354957465009
 30
0.0
 10
262.337240777852
 20
33.08797342769174
 30
0.0
 10
262.3335986827906
 20
33.06852264113232
 30
0.0
 10
262.3318829037159
 20
33.05935943918301
 30
0.0
  0
ELLIPSE
  5
243
330
1F
100
AcDbEntity
  8
0
  6
Continuous
 62
     7
370
    25
100
AcDbEllipse
 10
231.192947033
 20
16.5987539973
 30
0.0
 11
21.15206495560062
 21
60.07362709776984
 31
0.0
210
0.0
220
0.0
230
1.0
 40
0.4107407456
 41
5.118386813144737
 42
5.130640752722787
  0
ARC
  5
244
330
1F
100
AcDbEntity
  8
0
  6
Continuous
 62
     7
370
    25
100
AcDbCircle
 10
249.8057683149
 20
39.0556259835
 30
0.0
 40
14.10926303097476
100
AcDbArc
 50
331.0933171465
 51
331.5875333467
  0
ELLIPSE
  5
245
330
1F
100
AcDbEntity
  8
0
  6
Continuous
 62
     7
370
    25
100
AcDbEllipse
 10
231.192947033
 20
59.0274591765
 30
0.0
 11
-31.73555091678467
 21
34.69979856061831
 31
0.0
210
0.0
220
0.0
230
1.0
 40
0.2019459068
 41
3.667565547410201
 42
3.679704212138041
  0
SPLINE
  5
246
330
1F
100
AcDbEntity
  8
0
  6
Continuous
 62
     7
370
    25
100
AcDbSpline
210
0.0
220
0.0
230
1.0
 70
     8
 71
     3
 72
    14
 73
    10
 74
     0
 42
0.000000001
 43
0.00000001
 40
0.0
 40
0.0
 40
0.0
 40
0.0
 40
0.0027263180812371
 40
0.1424909453136807
 40
0.2952862128529988
 40
0.4640912060879741
 40
0.6458496942553571
 40
0.8302941940980582
 40
1.0
 40
1.0
 40
1.0
 40
1.0
 10
262.0350123566063
 20
32.51614338671554
 30
0.0
 10
262.0349858252792
 20
32.51620121084478
 30
0.0
 10
262.0335991661379
 20
32.51922338749151
 30
0.0
 10
262.0302166429247
 20
32.52296292843221
 30
0.0
 10
262.0232235954871
 20
32.5213215173054
 30
0.0
 10
262.0146568166899
 20
32.51140640945041
 30
0.0
 10
262.0053612199285
 20
32.49295695638141
 30
0.0
 10
261.9966109344002
 20
32.46795987554809
 30
0.0
 10
261.992676014436
 20
32.44896339607056
 30
0.0
 10
261.9907904343508
 20
32.4398604451293
 30
0.0
  0
ELLIPSE
  5
247
330
1F
100
AcDbEntity
  8
0
  6
Continuous
 62
     7
370
    25
100
AcDbEllipse
 10
231.192947033
 20
18.0130441699
 30
0.0
 11
21.15206495560068
 21
60.07362709776935
 31
0.0
210
0.0
220
0.0
230
1.0
 40
0.4107407456
 41
5.083952152132782
 42
5.095992107603591
  0
ARC
  5
248
330
1F
100
AcDbEntity
  8
0
  6
Continuous
 62
     7
370
    25
100
AcDbCircle
 10
249.5135812604
 20
39.2267550136
 30
0.0
 40
14.44781887877975
100
AcDbArc
 50
328.2550511298
 51
328.7377215384
  0
ELLIPSE
  5
249
330
1F
100
AcDbEntity
  8
0
  6
Continuous
 62
     7
370
    25
100
AcDbEllipse
 10
231.192947033
 20
57.6131690038
 30
0.0
 11
-31.73555091678466
 21
34.69979856061831
 31
0.0
210
0.0
220
0.0
230
1.0
 40
0.2019459068
 41
3.701898741955605
 42
3.713836504081736
  0
SPLINE
  5
24A
330
1F
100
AcDbEntity
  8
0
  6
Continuous
 62
     7
370
    25
100
AcDbSpline
210
0.0
220
0.0
230
1.0
 70
     8
 71
     3
 72
    14
 73
    10
 74
     0
 42
0.000000001
 43
0.00000001
 40
0.0
 40
0.0
 40
0.0
 40
0.0
 40
0.0047104328931934
 40
0.1473757054316374
 40
0.3015378390904094
 40
0.4694918586307115
 40
0.6483132306266907
 40
0.8291058266983855
 40
1.0
 40
1.0
 40
1.0
 40
1.0
 10
261.667335762543
 20
31.91199108118668
 30
0.0
 10
261.6672887108086
 20
31.91209099923081
 30
0.0
 10
261.6658165992864
 20
31.91521714338249
 30
0.0
 10
261.6619396290853
 20
31.91913703119809
 30
0.0
 10
261.6543236481879
 20
31.91757608357296
 30
0.0
 10
261.6449961691162
 20
31.90785037520488
 30
0.0
 10
261.6350379031132
 20
31.88985148464049
 30
0.0
 10
261.6256755828554
 20
31.86543923319408
 30
0.0
 10
261.6214657409201
 20
31.8468653205377
 30
0.0
 10
261.6194200641421
 20
31.83783975084098
 30
0.0
  0
ELLIPSE
  5
24B
330
1F
100
AcDbEntity
  8
0
  6
Continuous
 62
     7
370
    25
100
AcDbEllipse
 10
231.192947033
 20
19.4273343426
 30
0.0
 11
21.15206495560062
 21
60.07362709776987
 31
0.0
210
0.0
220
0.0
230
1.0
 40
0.4107407456
 41
5.050078811787631
 42
5.061929054453442
  0
ARC
  5
24C
330
1F
100
AcDbEntity
  8
0
  6
Continuous
 62
     7
370
    25
100
AcDbCircle
 10
248.640968264
 20
39.7851259093
 30
0.0
 40
15.48390474427434
100
AcDbArc
 50
325.5764709042
 51
326.0279008515
  0
ELLIPSE
  5
24D
330
1F
100
AcDbEntity
  8
0
  6
Continuous
 62
     7
370
    25
100
AcDbEllipse
 10
231.192947033
 20
56.1988788312
 30
0.0
 11
-31.73555091678466
 21
34.69979856061831
 31
0.0
210
0.0
220
0.0
230
1.0
 40
0.2019459068
 41
3.735682121168882
 42
3.747441770087014
  0
SPLINE
  5
24E
330
1F
100
AcDbEntity
  8
0
  6
Continuous
 62
     7
370
    25
100
AcDbSpline
210
0.0
220
0.0
230
1.0
 70
     8
 71
     3
 72
    15
 73
    11
 74
     0
 42
0.000000001
 43
0.00000001
 40
0.0
 40
0.0
 40
0.0
 40
0.0
 40
0.0066993981368781
 40
0.1520818388425151
 40
0.3074253680356926
 40
0.4745587335286953
 40
0.6507055452152422
 40
0.8282252503174432
 40
0.9978229647609094
 40
1.0
 40
1.0
 40
1.0
 40
1.0
 10
261.2706509414474
 20
31.32458410833354
 30
0.0
 10
261.2705794744833
 20
31.32472699855931
 30
0.0
 10
261.2689571157128
 20
31.3279707240169
 30
0.0
 10
261.2646951056642
 20
31.33204706454429
 30
0.0
 10
261.2564126133547
 20
31.33057544520989
 30
0.0
 10
261.2464006038578
 20
31.32103122585032
 30
0.0
 10
261.2357718541513
 20
31.3034375707377
 30
0.0
 10
261.2260368850509
 20
31.27972086197676
 30
0.0
 10
261.2211379376224
 20
31.26143918344512
 30
0.0
 10
261.2192348323755
 20
31.25257972873929
 30
0.0
 10
261.2192107128399
 20
31.25246744596708
 30
0.0
  0
ELLIPSE
  5
24F
330
1F
100
AcDbEntity
  8
0
  6
Continuous
 62
     7
370
    25
100
AcDbEllipse
 10
231.192947033
 20
20.8416245152
 30
0.0
 11
21.15206495560062
 21
60.07362709776987
 31
0.0
210
0.0
220
0.0
230
1.0
 40
0.4107407456
 41
5.01670306691064
 42
5.028385166503265
  0
ARC
  5
250
330
1F
100
AcDbEntity
  8
0
  6
Continuous
 62
     7
370
    25
100
AcDbCircle
 10
248.0880133693
 20
40.1769655436
 30
0.0
 40
16.16161122696106
100
AcDbArc
 50
323.0194182612
 51
323.4537816627
  0
ELLIPSE
  5
251
330
1F
100
AcDbEntity
  8
0
  6
Continuous
 62
     7
370
    25
100
AcDbEllipse
 10
231.192947033
 20
54.7845886586
 30
0.0
 11
-31.73555091678466
 21
34.69979856061831
 31
0.0
210
0.0
220
0.0
230
1.0
 40
0.2019459068
 41
3.768978155420464
 42
3.780580045141321
  0
SPLINE
  5
252
330
1F
100
AcDbEntity
  8
0
  6
Continuous
 62
     7
370
    25
100
AcDbSpline
210
0.0
220
0.0
230
1.0
 70
     8
 71
     3
 72
    15
 73
    11
 74
     0
 42
0.000000001
 43
0.00000001
 40
0.0
 40
0.0
 40
0.0
 40
0.0
 40
0.0087004316469513
 40
0.1565680585285229
 40
0.3129362023435103
 40
0.4792761791359827
 40
0.6529964514198568
 40
0.8276424100638293
 40
0.9956789531812701
 40
1.0
 40
1.0
 40
1.0
 40
1.0
 10
260.8462176889635
 20
30.75319596395056
 30
0.0
 10
260.8461185723506
 20
30.7533841361487
 30
0.0
 10
260.8443349257134
 20
30.7567703768467
 30
0.0
 10
260.8397152885942
 20
30.76095417262578
 30
0.0
 10
260.830769260058
 20
30.75959640221851
 30
0.0
 10
260.8201002243731
 20
30.75022144372634
 30
0.0
 10
260.8088655713333
 20
30.73302232147537
 30
0.0
 10
260.7986715425092
 20
30.70990338268862
 30
0.0
 10
260.7934234846696
 20
30.69203444246006
 30
0.0
 10
260.791449921821
 20
30.68324906316296
 30
0.0
 10
260.7914004441191
 20
30.68302881156119
 30
0.0
  0
ELLIPSE
  5
253
330
1F
100
AcDbEntity
  8
0
  6
Continuous
 62
     7
370
    25
100
AcDbEllipse
 10
231.192947033
 20
22.2559146878
 30
0.0
 11
21.15206495560062
 21
60.07362709776984
 31
0.0
210
0.0
220
0.0
230
1.0
 40
0.4107407456
 41
4.983767926339839
 42
4.995301233073873
  0
ARC
  5
254
330
1F
100
AcDbEntity
  8
0
  6
Continuous
 62
     7
370
    25
100
AcDbCircle
 10
247.4974319228
 20
40.6268821988
 30
0.0
 40
16.90401784961321
100
AcDbArc
 50
320.5838314503
 51
321.0016137938
  0
ELLIPSE
  5
255
330
1F
100
AcDbEntity
  8
0
  6
Continuous
 62
     7
370
    25
100
AcDbEllipse
 10
231.192947033
 20
53.3702984859
 30
0.0
 11
-31.73555091678469
 21
34.69979856061831
 31
0.0
210
0.0
220
0.0
230
1.0
 40
0.2019459068
 41
3.801842803252962
 42
3.813305280679209
  0
SPLINE
  5
256
330
1F
100
AcDbEntity
  8
0
  6
Continuous
 62
     7
370
    25
100
AcDbSpline
210
0.0
220
0.0
230
1.0
 70
     8
 71
     3
 72
    15
 73
    11
 74
     0
 42
0.000000001
 43
0.00000001
 40
0.0
 40
0.0
 40
0.0
 40
0.0
 40
0.010638288759063
 40
0.160754536711113
 40
0.3180347766972327
 40
0.483606002208405
 40
0.6551426734918907
 40
0.8272850711959355
 40
0.9939365305263421
 40
0.9999999999999999
 40
0.9999999999999999
 40
0.9999999999999999
 40
0.9999999999999999
 10
260.3951212864405
 20
30.1972001284507
 30
0.0
 10
260.3949921555074
 20
30.1974333095785
 30
0.0
 10
260.3930408658036
 20
30.20095689546866
 30
0.0
 10
260.3880666564256
 20
30.20525038180492
 30
0.0
 10
260.3784824512081
 20
30.20401367195491
 30
0.0
 10
260.3671764821318
 20
30.19480606739791
 30
0.0
 10
260.3553658271397
 20
30.17798585806234
 30
0.0
 10
260.3447404651872
 20
30.15541267520033
 30
0.0
 10
260.3391698792943
 20
30.1379205413305
 30
0.0
 10
260.3371150670857
 20
30.12922098965142
 30
0.0
 10
260.3370429291925
 20
30.12891557617962
 30
0.0
  0
ELLIPSE
  5
257
330
1F
100
AcDbEntity
  8
0
  6
Continuous
 62
     7
370
    25
100
AcDbEllipse
 10
231.192947033
 20
23.6702048605
 30
0.0
 11
21.15206495560063
 21
60.07362709776983
 31
0.0
210
0.0
220
0.0
230
1.0
 40
0.4107407456
 41
4.951221952511281
 42
4.962623982951457
  0
ARC
  5
258
330
1F
100
AcDbEntity
  8
0
  6
Continuous
 62
     7
370
    25
100
AcDbCircle
 10
246.8866008385
 20
41.1228405733
 30
0.0
 40
17.69067108312345
100
AcDbArc
 50
318.2693059885
 51
318.6714812283
  0
ELLIPSE
  5
259
330
1F
100
AcDbEntity
  8
0
  6
Continuous
 62
     7
370
    25
100
AcDbEllipse
 10
231.192947033
 20
51.9560083133
 30
0.0
 11
-31.73555091678469
 21
34.69979856061831
 31
0.0
210
0.0
220
0.0
230
1.0
 40
0.2019459068
 41
3.834326648133081
 42
3.845666398363999
  0
SPLINE
  5
25A
330
1F
100
AcDbEntity
  8
0
  6
Continuous
 62
     7
370
    25
100
AcDbSpline
210
0.0
220
0.0
230
1.0
 70
     8
 71
     3
 72
    15
 73
    11
 74
     0
 42
0.000000001
 43
0.00000001
 40
0.0
 40
0.0
 40
0.0
 40
0.0
 40
0.0125093240831161
 40
0.1646510656919434
 40
0.32273238090333
 40
0.4875424110730614
 40
0.6571303292860962
 40
0.8270677102464928
 40
0.9925714269348048
 40
1.0
 40
1.0
 40
1.0
 40
1.0
 10
259.9182889645455
 20
29.6560613229635
 30
0.0
 10
259.9181297211173
 20
29.65633843265321
 30
0.0
 10
259.9160337165721
 20
29.65998582442442
 30
0.0
 10
259.9106805322498
 20
29.66440375630836
 30
0.0
 10
259.9004985492078
 20
29.66328627774127
 30
0.0
 10
259.8885502949377
 20
29.65426240406283
 30
0.0
 10
259.8762087195392
 20
29.6377939896517
 30
0.0
 10
259.8651257336888
 20
29.61573321861298
 30
0.0
 10
259.8593300806729
 20
29.59856755013379
 30
0.0
 10
259.8571536234462
 20
29.58996503654047
 30
0.0
 10
259.8570601303712
 20
29.58959550230912
 30
0.0
  0
ELLIPSE
  5
25B
330
1F
100
AcDbEntity
  8
0
  6
Continuous
 62
     7
370
    25
100
AcDbEllipse
 10
231.192947033
 20
25.0844950331
 30
0.0
 11
21.15206495560062
 21
60.07362709776983
 31
0.0
210
0.0
220
0.0
230
1.0
 40
0.4107407456
 41
4.919018307949552
 42
4.930305058139791
  0
ARC
  5
25C
330
1F
100
AcDbEntity
  8
0
  6
Continuous
 62
     7
370
    25
100
AcDbCircle
 10
245.7945961025
 20
42.1125511688
 30
0.0
 40
19.16454213088946
100
AcDbArc
 50
316.0660212911
 51
316.4405030255
  0
ELLIPSE
  5
25D
330
1F
100
AcDbEntity
  8
0
  6
Continuous
 62
     7
370
    25
100
AcDbEllipse
 10
231.192947033
 20
50.5417181406
 30
0.0
 11
-31.73555091678469
 21
34.69979856061831
 31
0.0
210
0.0
220
0.0
230
1.0
 40
0.2019459068
 41
3.866475818822673
 42
3.877708147342003
  0
SPLINE
  5
25E
330
1F
100
AcDbEntity
  8
0
  6
Continuous
 62
     7
370
    25
100
AcDbSpline
210
0.0
220
0.0
230
1.0
 70
     8
 71
     3
 72
    15
 73
    11
 74
     0
 42
0.000000001
 43
0.00000001
 40
0.0
 40
0.0
 40
0.0
 40
0.0
 40
0.0142604016402545
 40
0.1682055380107592
 40
0.3269556526835353
 40
0.4910936645733652
 40
0.6589200917910377
 40
0.8269619571374579
 40
0.9914676311344984
 40
1.0
 40
1.0
 40
1.0
 40
1.0
 10
259.4165215134001
 20
29.12931726119174
 30
0.0
 10
259.4163324759119
 20
29.12963536971394
 30
0.0
 10
259.4141027243797
 20
29.13338755120704
 30
0.0
 10
259.4083723764596
 20
29.13794507684324
 30
0.0
 10
259.3975897083257
 20
29.13695779039659
 30
0.0
 10
259.3850561937194
 20
29.12811615237034
 30
0.0
 10
259.3721719231214
 20
29.11199650113448
 30
0.0
 10
259.3606630389099
 20
29.09040619863597
 30
0.0
 10
259.3546395356323
 20
29.07353931263286
 30
0.0
 10
259.3523505588842
 20
29.06503514182204
 30
0.0
 10
259.3522376912534
 20
29.06461580789378
 30
0.0
  0
ELLIPSE
  5
25F
330
1F
100
AcDbEntity
  8
0
  6
Continuous
 62
     7
370
    25
100
AcDbEllipse
 10
231.192947033
 20
26.4987852058
 30
0.0
 11
21.15206495560062
 21
60.07362709776987
 31
0.0
210
0.0
220
0.0
230
1.0
 40
0.4107407456
 41
4.887113974616785
 42
4.89830017760485
  0
ARC
  5
260
330
1F
100
AcDbEntity
  8
0
  6
Continuous
 62
     7
370
    25
100
AcDbCircle
 10
245.125941838
 20
42.7671978952
 30
0.0
 40
20.10031545654089
100
AcDbArc
 50
313.9579875115
 51
314.3185366236
  0
ELLIPSE
  5
261
330
1F
100
AcDbEntity
  8
0
  6
Continuous
 62
     7
370
    25
100
AcDbEllipse
 10
231.192947033
 20
49.127427968
 30
0.0
 11
-31.73555091678469
 21
34.69979856061831
 31
0.0
210
0.0
220
0.0
230
1.0
 40
0.2019459068
 41
3.898332744633606
 42
3.909471811015524
  0
SPLINE
  5
262
330
1F
100
AcDbEntity
  8
0
  6
Continuous
 62
     7
370
    25
100
AcDbSpline
210
0.0
220
0.0
230
1.0
 70
     8
 71
     3
 72
    15
 73
    11
 74
     0
 42
0.000000001
 43
0.00000001
 40
0.0
 40
0.0
 40
0.0
 40
0.0
 40
0.0158731121104388
 40
0.1714165145107743
 40
0.3307326198271356
 40
0.4942258381651985
 40
0.6605394568411822
 40
0.8269398872124377
 40
0.9906067017280584
 40
1.0
 40
1.0
 40
1.0
 40
1.0
 10
258.8905146852773
 20
28.6165666740674
 30
0.0
 10
258.8902947597092
 20
28.61692415813975
 30
0.0
 10
258.8879197450268
 20
28.62078469117511
 30
0.0
 10
258.8818364640017
 20
28.62547349893849
 30
0.0
 10
258.8704675072507
 20
28.62463328649257
 30
0.0
 10
258.8573407107168
 20
28.61598818840659
 30
0.0
 10
258.8439562548589
 20
28.60019467717909
 30
0.0
 10
258.832025630303
 20
28.57903954189056
 30
0.0
 10
258.8257704076242
 20
28.56245526772554
 30
0.0
 10
258.8233784729475
 20
28.55404303518317
 30
0.0
 10
258.8232486443261
 20
28.55358643887032
 30
0.0
  0
ELLIPSE
  5
263
330
1F
100
AcDbEntity
  8
0
  6
Continuous
 62
     7
370
    25
100
AcDbEllipse
 10
231.192947033
 20
27.9130753784
 30
0.0
 11
21.15206495560062
 21
60.07362709776984
 31
0.0
210
0.0
220
0.0
230
1.0
 40
0.4107407456
 41
4.855469106177081
 42
4.866568446664017
  0
ARC
  5
264
330
1F
100
AcDbEntity
  8
0
  6
Continuous
 62
     7
370
    25
100
AcDbCircle
 10
244.4507302104
 20
43.4715069436
 30
0.0
 40
21.07596409826304
100
AcDbArc
 50
311.9395728485
 51
312.2871394042
  0
ELLIPSE
  5
265
330
1F
100
AcDbEntity
  8
0
  6
Continuous
 62
     7
370
    25
100
AcDbEllipse
 10
231.192947033
 20
47.7131377954
 30
0.0
 11
-31.73555091678469
 21
34.69979856061831
 31
0.0
210
0.0
220
0.0
230
1.0
 40
0.2019459068
 41
3.929936783543854
 42
3.940995797642019
  0
SPLINE
  5
266
330
1F
100
AcDbEntity
  8
0
  6
Continuous
 62
     7
370
    25
100
AcDbSpline
210
0.0
220
0.0
230
1.0
 70
     8
 71
     3
 72
    12
 73
     8
 74
     0
 42
0.000000001
 43
0.00000001
 40
0.0
 40
0.0
 40
0.0
 40
0.0
 40
0.034664548278904
 40
0.3484267254385736
 40
0.6678836794004289
 40
0.9936301532973308
 40
1.0
 40
1.0
 40
1.0
 40
1.0
 10
258.3408476700715
 20
28.11747482221161
 30
0.0
 10
258.3405961794525
 20
28.11787032741956
 30
0.0
 10
258.3380683503822
 20
28.12184570258944
 30
0.0
 10
258.3316498239055
 20
28.12665122661969
 30
0.0
 10
258.3197177715812
 20
28.12599241014637
 30
0.0
 10
258.3105441369068
 20
28.12028747163478
 30
0.0
 10
258.3058917954226
 20
28.11627313996454
 30
0.0
 10
258.3058025655347
 20
28.11619614682759
 30
0.0
  0
LINE
  5
267
330
1F
100
AcDbEntity
  8
0
  6
Continuous
 62
     7
370
    25
100
AcDbLine
 10
258.3058025655
 20
28.1161961468
 30
0.0
 11
258.3058025655
 21
28.7073708729
 31
0.0
  0
ARC
  5
268
330
1F
100
AcDbEntity
  8
0
  6
Continuous
 62
     7
370
    25
100
AcDbCircle
 10
242.5445376723
 20
46.8036837215
 30
0.0
 40
23.99779176820298
100
AcDbArc
 50
305.3711513608
 51
311.0547420323
  0
LINE
  5
269
330
1F
100
AcDbEntity
  8
0
  6
Continuous
 62
     7
370
    25
100
AcDbLine
 10
256.4361556886
 20
27.2354196534
 30
0.0
 11
256.4361556886
 21
30.2974478197
 31
0.0
  0
ARC
  5
26A
330
1F
100
AcDbEntity
  8
0
  6
Continuous
 62
     7
370
    25
100
AcDbCircle
 10
242.0637436078
 20
50.5061015945
 30
0.0
 40
24.79830470845922
100
AcDbArc
 50
305.4204706141
 51
308.7465071621
  0
LINE
  5
26B
330
1F
100
AcDbEntity
  8
0
  6
Continuous
 62
     7
370
    25
100
AcDbLine
 10
257.5844055819
 20
31.1653423463
 30
0.0
 11
257.5844055819
 21
34.8397758416
 31
0.0
  0
ARC
  5
26C
330
1F
100
AcDbEntity
  8
0
  6
Continuous
 62
     7
370
    25
100
AcDbCircle
 10
238.753587073
 20
58.8855661119
 30
0.0
 40
30.5417706664001
100
AcDbArc
 50
291.9293003506
 51
308.0653231167
  0
LINE
  5
26D
330
1F
100
AcDbEntity
  8
0
  6
Continuous
 62
     7
370
    25
100
AcDbLine
 10
250.1597844795
 20
30.5536333123
 30
0.0
 11
250.1597844795
 21
26.879199817
 31
0.0
  0
ARC
  5
26E
330
1F
100
AcDbEntity
  8
0
  6
Continuous
 62
     7
370
    25
100
AcDbCircle
 10
236.0345434654
 20
60.9517597718
 30
0.0
 40
36.88443812204578
100
AcDbArc
 50
292.5171134576
 51
295.069614207
  0
LINE
  5
26F
330
1F
100
AcDbEntity
  8
0
  6
Continuous
 62
     7
370
    25
100
AcDbLine
 10
251.6631847918
 20
27.5420703708
 30
0.0
 11
251.6631847918
 21
24.4800422045
 31
0.0
  0
ARC
  5
270
330
1F
100
AcDbEntity
  8
0
  6
Continuous
 62
     7
370
    25
100
AcDbCircle
 10
235.6643346677
 20
58.7239357492
 30
0.0
 40
37.79692382178199
100
AcDbArc
 50
290.8439975662
 51
295.0421229326
  0
LINE
  5
271
330
1F
100
AcDbEntity
  8
0
  6
Continuous
 62
     7
370
    25
100
AcDbLine
 10
249.1134142204
 20
23.4007180366
 30
0.0
 11
249.1134142204
 21
22.8095433105
 31
0.0
  0
SPLINE
  5
272
330
1F
100
AcDbEntity
  8
0
  6
Continuous
 62
     7
370
    25
100
AcDbSpline
210
0.0
220
0.0
230
1.0
 70
     8
 71
     3
 72
    11
 73
     7
 74
     0
 42
0.000000001
 43
0.00000001
 40
0.0
 40
0.0
 40
0.0
 40
0.0
 40
0.1318538203946936
 40
0.4468897058744659
 40
0.7681085080923883
 40
1.0
 40
1.0
 40
1.0
 40
1.0
 10
249.0602775811886
 20
22.75991574875091
 30
0.0
 10
249.0618019571858
 20
22.7627952325261
 30
0.0
 10
249.0669684964563
 20
22.77255461343382
 30
0.0
 10
249.079498498509
 20
22.78801736354763
 30
0.0
 10
249.0967306320612
 20
22.80204258019069
 30
0.0
 10
249.1084858466917
 20
22.80732757599128
 30
0.0
 10
249.1134142204488
 20
22.80954331049113
 30
0.0
  0
ELLIPSE
  5
273
330
1F
100
AcDbEntity
  8
0
  6
Continuous
 62
     7
370
    25
100
AcDbEllipse
 10
231.192947033
 20
47.7131377954
 30
0.0
 11
21.15206495560068
 21
60.07362709776939
 31
0.0
210
0.0
220
0.0
230
1.0
 40
0.4107407456
 41
4.421296140553081
 42
4.432355154651246
  0
ARC
  5
274
330
1F
100
AcDbEntity
  8
0
  6
Continuous
 62
     7
370
    25
100
AcDbCircle
 10
234.8502808344
 20
59.6489470308
 30
0.0
 40
39.99571506945353
100
AcDbArc
 50
290.1232627162
 51
290.3500160956
  0
ELLIPSE
  5
275
330
1F
100
AcDbEntity
  8
0
  6
Continuous
 62
     7
370
    25
100
AcDbEllipse
 10
231.192947033
 20
27.9130753784
 30
0.0
 11
-31.73555091678469
 21
34.69979856061876
 31
0.0
210
0.0
220
0.0
230
1.0
 40
0.2019459068
 41
4.364109749167838
 42
4.375209089654775
  0
SPLINE
  5
276
330
1F
100
AcDbEntity
  8
0
  6
Continuous
 62
     7
370
    25
100
AcDbSpline
210
0.0
220
0.0
230
1.0
 70
     8
 71
     3
 72
    14
 73
    10
 74
     0
 42
0.000000001
 43
0.00000001
 40
0.0
 40
0.0
 40
0.0
 40
0.0
 40
0.0638789608060143
 40
0.2203753608704914
 40
0.3809641951192677
 40
0.545487464980494
 40
0.7120902945035463
 40
0.8778487372381302
 40
1.0
 40
1.0
 40
1.0
 40
1.0
 10
248.1957314607581
 20
22.44259973513393
 30
0.0
 10
248.1972511439563
 20
22.44536982889285
 30
0.0
 10
248.2024938831773
 20
22.45492634647016
 30
0.0
 10
248.2152029092381
 20
22.47019062987957
 30
0.0
 10
248.2347409311099
 20
22.48517795340209
 30
0.0
 10
248.2564748708874
 20
22.49448193362845
 30
0.0
 10
248.2776414946715
 20
22.4965474380584
 30
0.0
 10
248.2945407729292
 20
22.49180892128098
 30
0.0
 10
248.3017637577869
 20
22.48452285050596
 30
0.0
 10
248.3048282488563
 20
22.48143159401567
 30
0.0
  0
ELLIPSE
  5
277
330
1F
100
AcDbEntity
  8
0
  6
Continuous
 62
     7
370
    25
100
AcDbEllipse
 10
231.192947033
 20
49.127427968
 30
0.0
 11
21.15206495560068
 21
60.0736270977694
 31
0.0
210
0.0
220
0.0
230
1.0
 40
0.4107407456
 41
4.389692101642829
 42
4.400831168024749
  0
ARC
  5
278
330
1F
100
AcDbEntity
  8
0
  6
Continuous
 62
     7
370
    25
100
AcDbCircle
 10
234.2623669015
 20
61.2573178987
 30
0.0
 40
41.70815656780772
100
AcDbArc
 50
288.8436864971
 51
289.0653115146
  0
ELLIPSE
  5
279
330
1F
100
AcDbEntity
  8
0
  6
Continuous
 62
     7
370
    25
100
AcDbEllipse
 10
231.192947033
 20
26.4987852058
 30
0.0
 11
-31.73555091678469
 21
34.69979856061876
 31
0.0
210
0.0
220
0.0
230
1.0
 40
0.2019459068
 41
4.395754617607541
 42
4.406940820595606
  0
SPLINE
  5
27A
330
1F
100
AcDbEntity
  8
0
  6
Continuous
 62
     7
370
    25
100
AcDbSpline
210
0.0
220
0.0
230
1.0
 70
     8
 71
     3
 72
    14
 73
    10
 74
     0
 42
0.000000001
 43
0.00000001
 40
0.0
 40
0.0
 40
0.0
 40
0.0
 40
0.0614805616742523
 40
0.2166405982819584
 40
0.3770225981524536
 40
0.54252234969831
 40
0.7107646052930633
 40
0.8780097995439312
 40
1.0
 40
1.0
 40
1.0
 40
1.0
 10
247.3075251532447
 20
22.13894245678551
 30
0.0
 10
247.3090291431994
 20
22.14159522872661
 30
0.0
 10
247.3143287903517
 20
22.15094286779784
 30
0.0
 10
247.3272029666607
 20
22.16590554748932
 30
0.0
 10
247.3471583708541
 20
22.18066655297815
 30
0.0
 10
247.3695418649807
 20
22.18977346999645
 30
0.0
 10
247.3914493651708
 20
22.19164395707364
 30
0.0
 10
247.4089649155834
 20
22.18665286209393
 30
0.0
 10
247.4164475617578
 20
22.17919725361159
 30
0.0
 10
247.4196035016028
 20
22.17605271739671
 30
0.0
  0
ELLIPSE
  5
27B
330
1F
100
AcDbEntity
  8
0
  6
Continuous
 62
     7
370
    25
100
AcDbEllipse
 10
231.192947033
 20
50.5417181406
 30
0.0
 11
21.15206495560068
 21
60.0736270977694
 31
0.0
210
0.0
220
0.0
230
1.0
 40
0.4107407456
 41
4.357835175831894
 42
4.369067504351225
  0
ARC
  5
27C
330
1F
100
AcDbEntity
  8
0
  6
Continuous
 62
     7
370
    25
100
AcDbCircle
 10
233.7126478464
 20
62.8888266339
 30
0.0
 40
43.42981301272765
100
AcDbArc
 50
287.5837256381
 51
287.800781091
  0
ELLIPSE
  5
27D
330
1F
100
AcDbEntity
  8
0
  6
Continuous
 62
     7
370
    25
100
AcDbEllipse
 10
231.192947033
 20
25.0844950331
 30
0.0
 11
-31.73555091678469
 21
34.69979856061876
 31
0.0
210
0.0
220
0.0
230
1.0
 40
0.2019459068
 41
4.427658950940308
 42
4.438945701130546
  0
SPLINE
  5
27E
330
1F
100
AcDbEntity
  8
0
  6
Continuous
 62
     7
370
    25
100
AcDbSpline
210
0.0
220
0.0
230
1.0
 70
     8
 71
     3
 72
    14
 73
    10
 74
     0
 42
0.000000001
 43
0.00000001
 40
0.0
 40
0.0
 40
0.0
 40
0.0
 40
0.0587716998767633
 40
0.2124044777312614
 40
0.3725137790182926
 40
0.5390720516987172
 40
0.709230004624464
 40
0.8782124571069447
 40
1.0
 40
1.0
 40
1.0
 40
1.0
 10
246.3950788102093
 20
21.84927827291483
 30
0.0
 10
246.39655663919
 20
21.85180316538651
 30
0.0
 10
246.4018976025019
 20
21.86092827947889
 30
0.0
 10
246.4149114154337
 20
21.87557458829298
 30
0.0
 10
246.4352802928495
 20
21.89010465372047
 30
0.0
 10
246.4583192862338
 20
21.89904516467833
 30
0.0
 10
246.481029226562
 20
21.90071050388527
 30
0.0
 10
246.4992046322338
 20
21.89546021202138
 30
0.0
 10
246.5069636417219
 20
21.88782351743675
 30
0.0
 10
246.5102134636289
 20
21.88462492650893
 30
0.0
  0
ELLIPSE
  5
27F
330
1F
100
AcDbEntity
  8
0
  6
Continuous
 62
     7
370
    25
100
AcDbEllipse
 10
231.192947033
 20
51.9560083133
 30
0.0
 11
21.15206495560068
 21
60.07362709776939
 31
0.0
210
0.0
220
0.0
230
1.0
 40
0.4107407456
 41
4.325686005142302
 42
4.337025755373219
  0
ARC
  5
280
330
1F
100
AcDbEntity
  8
0
  6
Continuous
 62
     7
370
    25
100
AcDbCircle
 10
233.6096213465
 20
63.1683428282
 30
0.0
 40
43.72721826750266
100
AcDbArc
 50
286.3340556779
 51
286.5540492484
  0
ELLIPSE
  5
281
330
1F
100
AcDbEntity
  8
0
  6
Continuous
 62
     7
370
    25
100
AcDbEllipse
 10
231.192947033
 20
23.6702048605
 30
0.0
 11
-31.73555091678469
 21
34.69979856061876
 31
0.0
210
0.0
220
0.0
230
1.0
 40
0.2019459068
 41
4.459862595502035
 42
4.47126462594221
  0
SPLINE
  5
282
330
1F
100
AcDbEntity
  8
0
  6
Continuous
 62
     7
370
    25
100
AcDbSpline
210
0.0
220
0.0
230
1.0
 70
     8
 71
     3
 72
    14
 73
    10
 74
     0
 42
0.000000001
 43
0.00000001
 40
0.0
 40
0.0
 40
0.0
 40
0.0
 40
0.0557853103623198
 40
0.2076915712015477
 40
0.3674519771148076
 40
0.535163663353362
 40
0.7074642760710236
 40
0.8784449395291364
 40
1.0
 40
1.0
 40
1.0
 40
1.0
 10
245.4576973379235
 20
21.57400883275962
 30
0.0
 10
245.4591403907276
 20
21.5763950938128
 30
0.0
 10
245.4645129503182
 20
21.58527926608357
 30
0.0
 10
245.4776384994773
 20
21.59959885476141
 30
0.0
 10
245.4984135128805
 20
21.61389896338565
 30
0.0
 10
245.5221361616036
 20
21.62267740994186
 30
0.0
 10
245.5456892560823
 20
21.62414172181665
 30
0.0
 10
245.5645799856684
 20
21.61862950789749
 30
0.0
 10
245.572635305004
 20
21.6107929978895
 30
0.0
 10
245.5759824682694
 20
21.60753675473699
 30
0.0
  0
ELLIPSE
  5
283
330
1F
100
AcDbEntity
  8
0
  6
Continuous
 62
     7
370
    25
100
AcDbEllipse
 10
231.192947033
 20
53.3702984859
 30
0.0
 11
21.15206495560068
 21
60.07362709776938
 31
0.0
210
0.0
220
0.0
230
1.0
 40
0.4107407456
 41
4.293202160262179
 42
4.304664637688427
  0
ARC
  5
284
330
1F
100
AcDbEntity
  8
0
  6
Continuous
 62
     7
370
    25
100
AcDbCircle
 10
233.1043421381
 20
64.8602597921
 30
0.0
 40
45.49284482618918
100
AcDbArc
 50
285.1015119786
 51
285.317442631
  0
ELLIPSE
  5
285
330
1F
100
AcDbEntity
  8
0
  6
Continuous
 62
     7
370
    25
100
AcDbEllipse
 10
231.192947033
 20
22.2559146878
 30
0.0
 11
-31.73555091678469
 21
34.69979856061876
 31
0.0
210
0.0
220
0.0
230
1.0
 40
0.2019459068
 41
4.49240856933059
 42
4.503941876064625
  0
SPLINE
  5
286
330
1F
100
AcDbEntity
  8
0
  6
Continuous
 62
     7
370
    25
100
AcDbSpline
210
0.0
220
0.0
230
1.0
 70
     8
 71
     3
 72
    14
 73
    10
 74
     0
 42
0.000000001
 43
0.00000001
 40
0.0
 40
0.0
 40
0.0
 40
0.0
 40
0.0524955865593811
 40
0.2024574805870198
 40
0.3617708431000668
 40
0.5307045805754116
 40
0.7054226632611085
 40
0.8787429536530752
 40
1.0
 40
1.0
 40
1.0
 40
1.0
 10
244.4945799462659
 20
21.31359642261703
 30
0.0
 10
244.4959798246893
 20
21.31583107676888
 30
0.0
 10
244.5013786758557
 20
21.32444937173841
 30
0.0
 10
244.5145763585703
 20
21.33843713308319
 30
0.0
 10
244.5357528382996
 20
21.3525012937333
 30
0.0
 10
244.5601754212427
 20
21.36113157486803
 30
0.0
 10
244.5846376187148
 20
21.3624027308939
 30
0.0
 10
244.6042997055812
 20
21.35660805901326
 30
0.0
 10
244.6126775938336
 20
21.34855615469491
 30
0.0
 10
244.6161261890152
 20
21.34524174447615
 30
0.0
  0
ELLIPSE
  5
287
330
1F
100
AcDbEntity
  8
0
  6
Continuous
 62
     7
370
    25
100
AcDbEllipse
 10
231.192947033
 20
54.7845886586
 30
0.0
 11
21.15206495560068
 21
60.07362709776939
 31
0.0
210
0.0
220
0.0
230
1.0
 40
0.4107407456
 41
4.26033751242968
 42
4.27193940215054
  0
ARC
  5
288
330
1F
100
AcDbEntity
  8
0
  6
Continuous
 62
     7
370
    25
100
AcDbCircle
 10
232.6444825641
 20
66.5751561869
 30
0.0
 40
47.26833437001061
100
AcDbArc
 50
283.8749943755
 51
284.0873819356
  0
ELLIPSE
  5
289
330
1F
100
AcDbEntity
  8
0
  6
Continuous
 62
     7
370
    25
100
AcDbEllipse
 10
231.192947033
 20
20.8416245152
 30
0.0
 11
-31.73555091678469
 21
34.69979856061876
 31
0.0
210
0.0
220
0.0
230
1.0
 40
0.2019459068
 41
4.52534370990139
 42
4.537025809494015
  0
SPLINE
  5
28A
330
1F
100
AcDbEntity
  8
0
  6
Continuous
 62
     7
370
    25
100
AcDbSpline
210
0.0
220
0.0
230
1.0
 70
     8
 71
     3
 72
    14
 73
    10
 74
     0
 42
0.000000001
 43
0.00000001
 40
0.0
 40
0.0
 40
0.0
 40
0.0
 40
0.0489320836792355
 40
0.1967072455143403
 40
0.3554305483545508
 40
0.5256674696716491
 40
0.7030939164230848
 40
0.8790969705554715
 40
1.0
 40
1.0
 40
1.0
 40
1.0
 10
243.504799404569
 20
21.06857632135759
 30
0.0
 10
243.5061434691186
 20
21.07065092812656
 30
0.0
 10
243.5115466160001
 20
21.07899085874811
 30
0.0
 10
243.5247923182589
 20
21.09262886539632
 30
0.0
 10
243.546353930681
 20
21.1064592048492
 30
0.0
 10
243.5715042426792
 20
21.11494769614255
 30
0.0
 10
243.5969497524411
 20
21.11602382442015
 30
0.0
 10
243.6174402476862
 20
21.10993411064474
 30
0.0
 10
243.6261684536513
 20
21.10164680447978
 30
0.0
 10
243.6297226635553
 20
21.0982721332396
 30
0.0
  0
ELLIPSE
  5
28B
330
1F
100
AcDbEntity
  8
0
  6
Continuous
 62
     7
370
    25
100
AcDbEllipse
 10
231.192947033
 20
56.1988788312
 30
0.0
 11
21.15206495560068
 21
60.0736270977694
 31
0.0
210
0.0
220
0.0
230
1.0
 40
0.4107407456
 41
4.227041478178098
 42
4.238801127096226
  0
ARC
  5
28C
330
1F
100
AcDbEntity
  8
0
  6
Continuous
 62
     7
370
    25
100
AcDbCircle
 10
232.2210532446
 20
68.3431430794
 30
0.0
 40
49.08639168967312
100
AcDbArc
 50
282.6556814145
 51
282.8648691388
  0
ELLIPSE
  5
28D
330
1F
100
AcDbEntity
  8
0
  6
Continuous
 62
     7
370
    25
100
AcDbEllipse
 10
231.192947033
 20
19.4273343426
 30
0.0
 11
-31.73555091678469
 21
34.69979856061876
 31
0.0
210
0.0
220
0.0
230
1.0
 40
0.2019459068
 41
4.558719454778379
 42
4.57056969744419
  0
SPLINE
  5
28E
330
1F
100
AcDbEntity
  8
0
  6
Continuous
 62
     7
370
    25
100
AcDbSpline
210
0.0
220
0.0
230
1.0
 70
     8
 71
     3
 72
    14
 73
    10
 74
     0
 42
0.000000001
 43
0.00000001
 40
0.0
 40
0.0
 40
0.0
 40
0.0
 40
0.0450704865002598
 40
0.1904150226780658
 40
0.3484237635062892
 40
0.5200057716232966
 40
0.70043192984298
 40
0.8795183499108901
 40
1.0
 40
1.0
 40
1.0
 40
1.0
 10
242.4872704314838
 20
20.83957504856831
 30
0.0
 10
242.4885464036859
 20
20.84147922436819
 30
0.0
 10
242.4939371659047
 20
20.84952403830902
 30
0.0
 10
242.5072062059611
 20
20.86278938130035
 30
0.0
 10
242.5291371997023
 20
20.87639306493218
 30
0.0
 10
242.5550472000186
 20
20.88473242879631
 30
0.0
 10
242.5815438472935
 20
20.88562306736773
 30
0.0
 10
242.6029472440441
 20
20.87921876182701
 30
0.0
 10
242.612055158273
 20
20.87067311828898
 30
0.0
 10
242.6157182206768
 20
20.86723619247109
 30
0.0
  0
ELLIPSE
  5
28F
330
1F
100
AcDbEntity
  8
0
  6
Continuous
 62
     7
370
    25
100
AcDbEllipse
 10
231.192947033
 20
57.6131690038
 30
0.0
 11
21.15206495560068
 21
60.07362709776938
 31
0.0
210
0.0
220
0.0
230
1.0
 40
0.4107407456
 41
4.193258098964817
 42
4.205195861090953
  0
ARC
  5
290
330
1F
100
AcDbEntity
  8
0
  6
Continuous
 62
     7
370
    25
100
AcDbCircle
 10
232.1293620536
 20
68.7338200032
 30
0.0
 40
49.48760014999067
100
AcDbArc
 50
281.4377601861
 51
281.6501762964
  0
ELLIPSE
  5
291
330
1F
100
AcDbEntity
  8
0
  6
Continuous
 62
     7
370
    25
100
AcDbEllipse
 10
231.192947033
 20
18.0130441699
 30
0.0
 11
-31.73555091678469
 21
34.69979856061876
 31
0.0
210
0.0
220
0.0
230
1.0
 40
0.2019459068
 41
4.59259279512353
 42
4.604632750594338
  0
SPLINE
  5
292
330
1F
100
AcDbEntity
  8
0
  6
Continuous
 62
     7
370
    25
100
AcDbSpline
210
0.0
220
0.0
230
1.0
 70
     8
 71
     3
 72
    14
 73
    10
 74
     0
 42
0.000000001
 43
0.00000001
 40
0.0
 40
0.0
 40
0.0
 40
0.0
 40
0.040908181102036
 40
0.1835870758703178
 40
0.3407067504054052
 40
0.5136339939212279
 40
0.6973759834768231
 40
0.8799929830975449
 40
0.9999999999999999
 40
0.9999999999999999
 40
0.9999999999999999
 40
0.9999999999999999
 10
241.4407345484554
 20
20.62731986879406
 30
0.0
 10
241.4419278444178
 20
20.62904393703667
 30
0.0
 10
241.4472830988065
 20
20.6367811827106
 30
0.0
 10
241.4605429894112
 20
20.64966100995257
 30
0.0
 10
241.482843803812
 20
20.66300616321573
 30
0.0
 10
241.5095311308418
 20
20.67123183057763
 30
0.0
 10
241.5371589788957
 20
20.67191784317307
 30
0.0
 10
241.5595661361596
 20
20.66518902845214
 30
0.0
 10
241.569095773101
 20
20.65635272140069
 30
0.0
 10
241.5728747967046
 20
20.65284864111698
 30
0.0
  0
ELLIPSE
  5
293
330
1F
100
AcDbEntity
  8
0
  6
Continuous
 62
     7
370
    25
100
AcDbEllipse
 10
231.192947033
 20
59.0274591765
 30
0.0
 11
21.15206495560068
 21
60.07362709776939
 31
0.0
210
0.0
220
0.0
230
1.0
 40
0.4107407456
 41
4.158924904419412
 42
4.171063569147256
  0
ARC
  5
294
330
1F
100
AcDbEntity
  8
0
  6
Continuous
 62
     7
370
    25
100
AcDbCircle
 10
231.6481458663
 20
71.2366952142
 30
0.0
 40
52.03641888756461
100
AcDbArc
 50
280.2197098255
 51
280.426746721
  0
ELLIPSE
  5
295
330
1F
100
AcDbEntity
  8
0
  6
Continuous
 62
     7
370
    25
100
AcDbEllipse
 10
231.192947033
 20
16.5987539973
 30
0.0
 11
-31.73555091678469
 21
34.69979856061876
 31
0.0
210
0.0
220
0.0
230
1.0
 40
0.2019459068
 41
4.627027456135483
 42
4.639281395713533
  0
SPLINE
  5
296
330
1F
100
AcDbEntity
  8
0
  6
Continuous
 62
     7
370
    25
100
AcDbSpline
210
0.0
220
0.0
230
1.0
 70
     8
 71
     3
 72
    14
 73
    10
 74
     0
 42
0.000000001
 43
0.00000001
 40
0.0
 40
0.0
 40
0.0
 40
0.0
 40
0.0364806946987262
 40
0.1761985188984041
 40
0.3322038876473403
 40
0.5065124029727222
 40
0.6938728681471568
 40
0.8805378326262107
 40
1.0
 40
1.0
 40
1.0
 40
1.0
 10
240.3637258354091
 20
20.43265551900228
 30
0.0
 10
240.3648264799864
 20
20.434187038012
 30
0.0
 10
240.3701424956477
 20
20.44158413895551
 30
0.0
 10
240.3833517522416
 20
20.45406185415503
 30
0.0
 10
240.4059918640517
 20
20.46717430106535
 30
0.0
 10
240.4334981938586
 20
20.47525296360028
 30
0.0
 10
240.4623531266999
 20
20.47575751002029
 30
0.0
 10
240.4858490705158
 20
20.4686721720201
 30
0.0
 10
240.4958514782759
 20
20.45951400608095
 30
0.0
 10
240.4997547889781
 20
20.45594014986755
 30
0.0
  0
ELLIPSE
  5
297
330
1F
100
AcDbEntity
  8
0
  6
Continuous
 62
     7
370
    25
100
AcDbEllipse
 10
231.192947033
 20
60.4417493491
 30
0.0
 11
21.15206495560068
 21
60.07362709776939
 31
0.0
210
0.0
220
0.0
230
1.0
 40
0.4107407456
 41
4.123971488843187
 42
4.13633681958704
  0
ARC
  5
298
330
1F
100
AcDbEntity
  8
0
  6
Continuous
 62
     7
370
    25
100
AcDbCircle
 10
231.6091440606
 20
71.5106247222
 30
0.0
 40
52.31299588834377
100
AcDbArc
 50
278.9936668656
 51
279.2049767493
  0
ELLIPSE
  5
299
330
1F
100
AcDbEntity
  8
0
  6
Continuous
 62
     7
370
    25
100
AcDbEllipse
 10
231.192947033
 20
15.1844638246
 30
0.0
 11
-31.73555091678469
 21
34.69979856061838
 31
0.0
210
0.0
220
0.0
230
1.0
 40
0.2019459068
 41
4.662095378857281
 42
4.674590886308946
  0
SPLINE
  5
29A
330
1F
100
AcDbEntity
  8
0
  6
Continuous
 62
     7
370
    25
100
AcDbSpline
210
0.0
220
0.0
230
1.0
 70
     8
 71
     3
 72
    14
 73
    10
 74
     0
 42
0.000000001
 43
0.00000001
 40
0.0
 40
0.0
 40
0.0
 40
0.0
 40
0.0317847783590186
 40
0.168238997183761
 40
0.3229205500253522
 40
0.4985277346865055
 40
0.689851322809987
 40
0.881174282631888
 40
1.0
 40
1.0
 40
1.0
 40
1.0
 10
239.2545380035248
 20
20.25656777910148
 30
0.0
 10
239.2555297554023
 20
20.25789846966512
 30
0.0
 10
239.2607791656524
 20
20.26494190547153
 30
0.0
 10
239.2739031339044
 20
20.27700435036317
 30
0.0
 10
239.2968753167052
 20
20.28985430807273
 30
0.0
 10
239.3252258527897
 20
20.29780743557265
 30
0.0
 10
239.3554087168507
 20
20.29810682440732
 30
0.0
 10
239.3801249120042
 20
20.29064379788767
 30
0.0
 10
239.3906493627888
 20
20.28112427670031
 30
0.0
 10
239.3946815431796
 20
20.27747710997907
 30
0.0
  0
ELLIPSE
  5
29B
330
1F
100
AcDbEntity
  8
0
  6
Continuous
 62
     7
370
    25
100
AcDbEllipse
 10
231.192947033
 20
61.8560395218
 30
0.0
 11
21.15206495560068
 21
60.07362709776939
 31
0.0
210
0.0
220
0.0
230
1.0
 40
0.4107407456
 41
4.088317702640056
 42
4.100939124321254
  0
ARC
  5
29C
330
1F
100
AcDbEntity
  8
0
  6
Continuous
 62
     7
370
    25
100
AcDbCircle
 10
231.6650882581
 20
71.022040192
 30
0.0
 40
51.82144725809209
100
AcDbArc
 50
277.7577090217
 51
277.9768731523
  0
ELLIPSE
  5
29D
330
1F
100
AcDbEntity
  8
0
  6
Continuous
 62
     7
370
    25
100
AcDbEllipse
 10
231.192947033
 20
13.770173652
 30
0.0
 11
-31.73555091678492
 21
34.69979856061592
 31
0.0
210
0.0
220
0.0
230
1.0
 40
0.2019459068
 41
4.697878607695994
 42
4.707454852295078
  0
LINE
  5
29E
330
1F
100
AcDbEntity
  8
0
  6
Continuous
 62
     7
370
    25
100
AcDbLine
 10
238.3569313024
 20
20.0077463654
 30
0.0
 11
238.3569313024
 21
20.3644186706
 31
0.0
  0
ELLIPSE
  5
29F
330
1F
100
AcDbEntity
  8
0
  6
Continuous
 62
     7
370
    25
100
AcDbEllipse
 10
231.192947033
 20
24.4977963107
 30
0.0
 11
32.49999980044075
 21
-18.76490022768738
 31
0.0
210
0.0
220
0.0
230
1.0
 40
0.0000703729
 41
1.348581393545547
 42
1.354049094575837
  0
LINE
  5
2A0
330
1F
100
AcDbEntity
  8
0
  6
Continuous
 62
     7
370
    25
100
AcDbLine
 10
238.1834930695
 20
35.9429099545
 30
0.0
 11
238.1834930695
 21
20.4645608154
 31
0.0
  0
LINE
  5
2A1
330
1F
100
AcDbEntity
  8
0
  6
Continuous
 62
     7
370
    25
100
AcDbLine
 10
257.1133328903
 20
42.9474744011
 30
0.0
 11
256.8397797578
 21
42.7807708512
 31
0.0
  0
ELLIPSE
  5
2A2
330
1F
100
AcDbEntity
  8
0
  6
Continuous
 62
     7
370
    25
100
AcDbEllipse
 10
231.192947033
 20
59.042599563
 30
0.0
 11
32.37652957102009
 21
-15.22465020081543
 31
0.0
210
0.0
220
0.0
230
1.0
 40
0.1858993882
 41
5.722807541089158
 42
6.13738356996404
  0
ELLIPSE
  5
2A3
330
1F
100
AcDbEntity
  8
0
  6
Continuous
 62
     7
370
    25
100
AcDbEllipse
 10
231.192947033
 20
67.3242106679
 30
0.0
 11
32.2528572676944
 21
-27.58455755067051
 31
0.0
210
0.0
220
0.0
230
1.0
 40
0.1450231613
 41
0.3401900442381182
 42
0.3563990796167063
  0
SPLINE
  5
2A4
330
1F
100
AcDbEntity
  8
0
  6
Continuous
 62
     7
370
    25
100
AcDbSpline
210
0.0
220
0.0
230
1.0
 70
    11
 71
     3
 72
    26
 73
    22
 74
     0
 42
0.000000001
 43
0.00000001
 40
0.0
 40
0.0
 40
0.0
 40
0.0
 40
0.0509725393754136
 40
0.1019228275028739
 40
0.1535117301004441
 40
0.2067485789829826
 40
0.2621165787906767
 40
0.3194074442276159
 40
0.3772849166112072
 40
0.4334749465869624
 40
0.4862408537958571
 40
0.5359971692328507
 40
0.5849515988581908
 40
0.6355027578553148
 40
0.6890916222875231
 40
0.7456366637719902
 40
0.8035434641487533
 40
0.8606684855007508
 40
0.9156601890889697
 40
0.9684268331631627
 40
0.9999999999999999
 40
0.9999999999999999
 40
0.9999999999999999
 40
0.9999999999999999
 10
259.2808429055095
 20
32.49233286722647
 30
0.0
 10
259.2901625457131
 20
32.34950775993973
 30
0.0
 10
259.3087977577804
 20
32.0639198933857
 30
0.0
 10
259.4522265577004
 20
31.80182307701466
 30
0.0
 10
259.6604934115179
 20
31.70117474566691
 30
0.0
 10
259.9199046283275
 20
31.78597490829906
 30
0.0
 10
260.201017042026
 20
32.05714558945715
 30
0.0
 10
260.4722096118655
 20
32.49823615252124
 30
0.0
 10
260.6986031853024
 20
33.06015609441808
 30
0.0
 10
260.8511281449412
 20
33.66087294415437
 30
0.0
 10
260.9164697634984
 20
34.2092382866913
 30
0.0
 10
260.8988406504713
 20
34.64343294963835
 30
0.0
 10
260.8080255679401
 20
34.93854093338707
 30
0.0
 10
260.6496742278395
 20
35.0805634947174
 30
0.0
 10
260.4282178646358
 20
35.05056926964156
 30
0.0
 10
260.1568332031054
 20
34.83369621237985
 30
0.0
 10
259.8654519965313
 20
34.44040143465654
 30
0.0
 10
259.5969858023142
 20
33.91789736836087
 30
0.0
 10
259.3954563680006
 20
33.34262140666533
 30
0.0
 10
259.2941723620177
 20
32.85008996320425
 30
0.0
 10
259.2844736737147
 20
32.58978118317725
 30
0.0
 10
259.2808429055095
 20
32.49233286722647
 30
0.0
  0
LWPOLYLINE
  5
2A5
330
1F
100
AcDbEntity
  8
0
  6
Continuous
 62
     7
370
    25
100
AcDbPolyline
 90
       13
 70
   128
 43
0.0
 10
221.9398184306
 20
31.5040452457
 10
222.0086890152
 20
31.5497022954
 10
222.2263116333
 20
31.8151075344
 10
222.339718266
 20
32.1956325135
 10
222.339718266
 20
32.6604548093
 10
222.2263116333
 20
33.1719193412
 10
222.0086890152
 20
33.688583265
 10
221.7044809652
 20
34.1685938785
 10
221.3383275846
 20
34.5730664632
 10
220.9398976205
 20
34.8692263315
 10
220.5414676565
 20
35.0330839079
 10
220.1753169101
 20
35.0513614972
 10
219.9399794447
 20
34.9682421138
  0
LINE
  5
2A6
330
1F
100
AcDbEntity
  8
0
  6
Continuous
 62
     7
370
    25
100
AcDbLine
 10
238.1834930695
 20
20.4645608154
 30
0.0
 11
220.5001453057
 21
30.672940188
 31
0.0
  0
LINE
  5
2A7
330
1F
100
AcDbEntity
  8
0
  6
Continuous
 62
     7
370
    25
100
AcDbLine
 10
218.8185782464
 20
47.1220373275
 30
0.0
 11
218.8185782464
 21
34.3208704203
 31
0.0
  0
LINE
  5
2A8
330
1F
100
AcDbEntity
  8
0
  6
Continuous
 62
     7
370
    25
100
AcDbLine
 10
256.8010961949
 20
43.1781843464
 30
0.0
 11
257.1133328903
 21
42.9474744011
 31
0.0
  0
LINE
  5
2A9
330
1F
100
AcDbEntity
  8
0
  6
Continuous
 62
     7
370
    25
100
AcDbLine
 10
262.8147593471
 20
43.1050434798
 30
0.0
 11
256.8893800131
 21
46.8312373659
 31
0.0
  0
LINE
  5
2AA
330
1F
100
AcDbEntity
  8
0
  6
Continuous
 62
     7
370
    25
100
AcDbLine
 10
220.5001308177
 20
30.6729301676
 30
0.0
 11
238.3569313024
 21
20.3644186706
 31
0.0
  0
LINE
  5
2AB
330
1F
100
AcDbEntity
  8
0
  6
Continuous
 62
     7
370
    25
100
AcDbLine
 10
220.1912102232
 20
30.4945939256
 30
0.0
 11
238.3569313024
 21
20.0077463654
 31
0.0
  0
LINE
  5
2AC
330
1F
100
AcDbEntity
  8
0
  6
Continuous
 62
     7
370
    25
100
AcDbLine
 10
238.6601673408
 20
19.6748760585
 30
0.0
 11
220.054520091
 21
30.4156875912
 31
0.0
  0
LINE
  5
2AD
330
1F
100
AcDbEntity
  8
0
  6
Continuous
 62
     7
370
    25
100
AcDbLine
 10
239.7869883604
 20
19.8407843758
 30
0.0
 11
239.1997773935
 21
20.1797740514
 31
0.0
  0
LINE
  5
2AE
330
1F
100
AcDbEntity
  8
0
  6
Continuous
 62
     7
370
    25
100
AcDbLine
 10
240.8806187368
 20
20.0258532436
 30
0.0
 11
240.3105773423
 21
20.354931136
 31
0.0
  0
LINE
  5
2AF
330
1F
100
AcDbEntity
  8
0
  6
Continuous
 62
     7
370
    25
100
AcDbLine
 10
241.9429181997
 20
20.2290090627
 30
0.0
 11
241.3891086103
 21
20.5487165335
 31
0.0
  0
LINE
  5
2B0
330
1F
100
AcDbEntity
  8
0
  6
Continuous
 62
     7
370
    25
100
AcDbLine
 10
242.975467256
 20
20.4493394261
 30
0.0
 11
242.4370939498
 21
20.7601357203
 31
0.0
  0
LINE
  5
2B1
330
1F
100
AcDbEntity
  8
0
  6
Continuous
 62
     7
370
    25
100
AcDbLine
 10
243.9796356781
 20
20.6860535808
 30
0.0
 11
243.4560032322
 21
20.9883401574
 31
0.0
  0
LINE
  5
2B2
330
1F
100
AcDbEntity
  8
0
  6
Continuous
 62
     7
370
    25
100
AcDbLine
 10
250.159785632
 20
28.4099642321
 30
0.0
 11
251.6631847918
 21
27.5420703708
 31
0.0
  0
LINE
  5
2B3
330
1F
100
AcDbEntity
  8
0
  6
Continuous
 62
     7
370
    25
100
AcDbLine
 10
244.9565923826
 20
20.9384759653
 30
0.0
 11
244.4471054727
 21
21.2325964979
 31
0.0
  0
LINE
  5
2B4
330
1F
100
AcDbEntity
  8
0
  6
Continuous
 62
     7
370
    25
100
AcDbLine
 10
245.9073396742
 20
21.2060294822
 30
0.0
 11
245.4114925382
 21
21.4922759409
 31
0.0
  0
LINE
  5
2B5
330
1F
100
AcDbEntity
  8
0
  6
Continuous
 62
     7
370
    25
100
AcDbLine
 10
246.8327567098
 20
21.4882058446
 30
0.0
 11
246.3501068058
 21
21.7668337035
 31
0.0
  0
LINE
  5
2B6
330
1F
100
AcDbEntity
  8
0
  6
Continuous
 62
     7
370
    25
100
AcDbLine
 10
247.733575791
 20
21.7845823039
 30
0.0
 11
247.2637490656
 21
22.0558074993
 31
0.0
  0
LINE
  5
2B7
330
1F
100
AcDbEntity
  8
0
  6
Continuous
 62
     7
370
    25
100
AcDbLine
 10
248.6104445963
 20
22.094784583
 30
0.0
 11
248.1531196798
 21
22.3587926377
 31
0.0
  0
LINE
  5
2B8
330
1F
100
AcDbEntity
  8
0
  6
Continuous
 62
     7
370
    25
100
AcDbLine
 10
254.6976204134
 20
32.8318479515
 30
0.0
 11
257.5844055819
 21
31.1653423463
 31
0.0
  0
LINE
  5
2B9
330
1F
100
AcDbEntity
  8
0
  6
Continuous
 62
     7
370
    25
100
AcDbLine
 10
253.3641140475
 20
32.0708997101
 30
0.0
 11
256.4361556886
 21
30.2974478197
 31
0.0
  0
LINE
  5
2BA
330
1F
100
AcDbEntity
  8
0
  6
Continuous
 62
     7
370
    25
100
AcDbLine
 10
250.4656752754
 20
30.6821046312
 30
0.0
 11
256.4361556886
 21
27.2354196534
 31
0.0
  0
LINE
  5
2BB
330
1F
100
AcDbEntity
  8
0
  6
Continuous
 62
     7
370
    25
100
AcDbLine
 10
258.3058025655
 20
28.1161961468
 30
0.0
 11
257.8922524196
 21
28.3549335644
 31
0.0
  0
LINE
  5
2BC
330
1F
100
AcDbEntity
  8
0
  6
Continuous
 62
     7
370
    25
100
AcDbLine
 10
258.536776515
 20
27.7941486784
 30
0.0
 11
257.7577183621
 21
28.2438893771
 31
0.0
  0
LINE
  5
2BD
330
1F
100
AcDbEntity
  8
0
  6
Continuous
 62
     7
370
    25
100
AcDbLine
 10
259.0781883455
 20
28.2980065271
 30
0.0
 11
258.7969371571
 21
28.4603693822
 31
0.0
  0
LINE
  5
2BE
330
1F
100
AcDbEntity
  8
0
  6
Continuous
 62
     7
370
    25
100
AcDbLine
 10
259.5957450598
 20
28.8156356413
 30
0.0
 11
259.3270852423
 21
28.9707296526
 31
0.0
  0
LINE
  5
2BF
330
1F
100
AcDbEntity
  8
0
  6
Continuous
 62
     7
370
    25
100
AcDbLine
 10
260.0888249918
 20
29.3473949011
 30
0.0
 11
259.8330937201
 21
29.4950254218
 31
0.0
  0
LINE
  5
2C0
330
1F
100
AcDbEntity
  8
0
  6
Continuous
 62
     7
370
    25
100
AcDbLine
 10
260.5567057182
 20
29.8937005923
 30
0.0
 11
260.3143033873
 21
30.0336364793
 31
0.0
  0
LINE
  5
2C1
330
1F
100
AcDbEntity
  8
0
  6
Continuous
 62
     7
370
    25
100
AcDbLine
 10
260.9985456191
 20
30.4550400924
 30
0.0
 11
260.7699253077
 21
30.5870197889
 31
0.0
  0
LINE
  5
2C2
330
1F
100
AcDbEntity
  8
0
  6
Continuous
 62
     7
370
    25
100
AcDbLine
 10
261.4133535851
 20
31.0319847965
 30
0.0
 11
261.1990473971
 21
31.1557011254
 31
0.0
  0
LINE
  5
2C3
330
1F
100
AcDbEntity
  8
0
  6
Continuous
 62
     7
370
    25
100
AcDbLine
 10
261.7999863828
 20
31.6251946789
 30
0.0
 11
261.600626521
 21
31.7402826774
 31
0.0
  0
LINE
  5
2C4
330
1F
100
AcDbEntity
  8
0
  6
Continuous
 62
     7
370
    25
100
AcDbLine
 10
262.1571321916
 20
32.2354270377
 30
0.0
 11
261.973429884
 21
32.3414761225
 31
0.0
  0
LINE
  5
2C5
330
1F
100
AcDbEntity
  8
0
  6
Continuous
 62
     7
370
    25
100
AcDbLine
 10
262.4832309196
 20
32.8635817344
 30
0.0
 11
262.3160291032
 21
32.9601052884
 31
0.0
  0
LINE
  5
2C6
330
1F
100
AcDbEntity
  8
0
  6
Continuous
 62
     7
370
    25
100
AcDbLine
 10
262.7764768378
 20
33.5107027149
 30
0.0
 11
262.6267659635
 21
33.5971289629
 31
0.0
  0
LINE
  5
2C7
330
1F
100
AcDbEntity
  8
0
  6
Continuous
 62
     7
370
    18
100
AcDbLine
 10
203.2383029055
 20
85.9011286562
 30
0.0
 11
201.3768169591
 21
85.298385625
 31
0.0
  0
LINE
  5
2C8
330
1F
100
AcDbEntity
  8
0
  6
Continuous
 62
     7
370
    18
100
AcDbLine
 10
201.5686516328
 20
79.7791853078
 30
0.0
 11
201.4513308585
 21
79.7411975228
 31
0.0
  0
SPLINE
  5
2C9
330
1F
100
AcDbEntity
  8
0
  6
Continuous
 62
     7
370
    18
100
AcDbSpline
210
0.0
220
0.0
230
1.0
 70
     8
 71
     3
 72
     9
 73
     5
 74
     0
 42
0.000000001
 43
0.00000001
 40
0.0
 40
0.0
 40
0.0
 40
0.0
 40
0.5128918915166858
 40
1.0
 40
1.0
 40
1.0
 40
1.0
 10
201.3701361073424
 20
81.32510795535119
 30
0.0
 10
201.3698383594688
 20
81.15408259788559
 30
0.0
 10
201.369257831918
 20
80.82062956364116
 30
0.0
 10
201.3460805489676
 20
80.5869195586011
 30
0.0
 10
201.3347907065099
 20
80.4730775201124
 30
0.0
  0
LWPOLYLINE
  5
2CA
330
1F
100
AcDbEntity
  8
0
  6
Continuous
 62
     7
370
    18
100
AcDbPolyline
 90
        3
 70
   128
 43
0.0
 10
201.3284330355
 20
84.4352655456
 10
201.3517868348
 20
82.6935771848
 10
201.3701361073
 20
81.3251079554
  0
SPLINE
  5
2CB
330
1F
100
AcDbEntity
  8
0
  6
Continuous
 62
     7
370
    18
100
AcDbSpline
210
0.0
220
0.0
230
1.0
 70
     8
 71
     3
 72
     9
 73
     5
 74
     0
 42
0.000000001
 43
0.00000001
 40
0.0
 40
0.0
 40
0.0
 40
0.0
 40
0.3359402311899607
 40
1.0
 40
1.0
 40
1.0
 40
1.0
 10
201.2879646934747
 20
85.28485884689874
 30
0.0
 10
201.2950081805311
 20
85.18751291564453
 30
0.0
 10
201.315974669217
 20
84.89774133660686
 30
0.0
 10
201.3234613992782
 20
84.61982115626878
 30
0.0
 10
201.3284330355118
 20
84.43526554556584
 30
0.0
  0
LINE
  5
2CC
330
1F
100
AcDbEntity
  8
0
  6
Continuous
 62
     7
370
    18
100
AcDbLine
 10
203.1329130644
 20
86.1318306924
 30
0.0
 11
201.271426871
 21
85.529087887
 31
0.0
  0
LINE
  5
2CD
330
1F
100
AcDbEntity
  8
0
  6
Continuous
 62
     7
370
    18
100
AcDbLine
 10
199.4132166279
 20
88.880294174
 30
0.0
 11
197.551730522
 21
88.277551324
 31
0.0
  0
SPLINE
  5
2CE
330
1F
100
AcDbEntity
  8
0
  6
Continuous
 62
     7
370
    18
100
AcDbSpline
210
0.0
220
0.0
230
1.0
 70
     8
 71
     3
 72
     9
 73
     5
 74
     0
 42
0.000000001
 43
0.00000001
 40
0.0
 40
0.0
 40
0.0
 40
0.0
 40
0.6640593962790504
 40
1.0
 40
1.0
 40
1.0
 40
1.0
 10
200.7092669784055
 20
85.79064078943976
 30
0.0
 10
200.8336597195478
 20
85.6920134073762
 30
0.0
 10
201.0209814287795
 20
85.54349147904234
 30
0.0
 10
201.2208280865961
 20
85.34989557259019
 30
0.0
 10
201.2879646934747
 20
85.28485884689874
 30
0.0
  0
LINE
  5
2CF
330
1F
100
AcDbEntity
  8
0
  6
Continuous
 62
     7
370
    18
100
AcDbLine
 10
198.6274872493
 20
87.3288565149
 30
0.0
 11
200.7092669784
 21
85.7906407894
 31
0.0
  0
SPLINE
  5
2D0
330
1F
100
AcDbEntity
  8
0
  6
Continuous
 62
     7
370
    18
100
AcDbSpline
210
0.0
220
0.0
230
1.0
 70
     8
 71
     3
 72
     9
 73
     5
 74
     0
 42
0.000000001
 43
0.00000001
 40
0.0
 40
0.0
 40
0.0
 40
0.0
 40
0.5172395626458473
 40
1.0
 40
1.0
 40
1.0
 40
1.0
 10
198.0733047744767
 20
87.6125778674577
 30
0.0
 10
198.1499800138612
 20
87.59233510556835
 30
0.0
 10
198.2982193306534
 20
87.55319896179431
 30
0.0
 10
198.520283468834
 20
87.40189842715989
 30
0.0
 10
198.6274872493028
 20
87.32885651488786
 30
0.0
  0
SPLINE
  5
2D1
330
1F
100
AcDbEntity
  8
0
  6
Continuous
 62
     7
370
    18
100
AcDbSpline
210
0.0
220
0.0
230
1.0
 70
     8
 71
     3
 72
    10
 73
     6
 74
     0
 42
0.000000001
 43
0.00000001
 40
0.0
 40
0.0
 40
0.0
 40
0.0
 40
0.2765310155609388
 40
0.5626684861756672
 40
1.0
 40
1.0
 40
1.0
 40
1.0
 10
201.1103887019646
 20
84.54017528807582
 30
0.0
 10
201.1405762041672
 20
84.53463124304847
 30
0.0
 10
201.2019998970261
 20
84.52335055752935
 30
0.0
 10
201.2885039880877
 20
84.48873472062381
 30
0.0
 10
201.3133897694367
 20
84.4554100538651
 30
0.0
 10
201.3284330355118
 20
84.43526554556584
 30
0.0
  0
SPLINE
  5
2D2
330
1F
100
AcDbEntity
  8
0
  6
Continuous
 62
     7
370
    18
100
AcDbSpline
210
0.0
220
0.0
230
1.0
 70
     8
 71
     3
 72
     9
 73
     5
 74
     0
 42
0.000000001
 43
0.00000001
 40
0.0
 40
0.0
 40
0.0
 40
0.0
 40
0.7663257916349848
 40
1.0
 40
1.0
 40
1.0
 40
1.0
 10
201.1103887019646
 20
84.54017528807582
 30
0.0
 10
201.1093818526174
 20
84.69384161820312
 30
0.0
 10
201.1080679866897
 20
84.89436511852723
 30
0.0
 10
201.1060644106668
 20
85.10406750005909
 30
0.0
 10
201.1055962266258
 20
85.1530695380558
 30
0.0
  0
SPLINE
  5
2D3
330
1F
100
AcDbEntity
  8
0
  6
Continuous
 62
     7
370
    18
100
AcDbSpline
210
0.0
220
0.0
230
1.0
 70
     8
 71
     3
 72
     9
 73
     5
 74
     0
 42
0.000000001
 43
0.00000001
 40
0.0
 40
0.0
 40
0.0
 40
0.0
 40
0.2336742802082026
 40
1.0
 40
1.0
 40
1.0
 40
1.0
 10
201.1055962266258
 20
85.1530695380558
 30
0.0
 10
201.0702138719592
 20
85.1825455503685
 30
0.0
 10
200.9187964603596
 20
85.308686999425
 30
0.0
 10
200.781142647453
 20
85.41236820779936
 30
0.0
 10
200.6756549901952
 20
85.49182178443571
 30
0.0
  0
SPLINE
  5
2D4
330
1F
100
AcDbEntity
  8
0
  6
Continuous
 62
     7
370
    18
100
AcDbSpline
210
0.0
220
0.0
230
1.0
 70
     8
 71
     3
 72
    10
 73
     6
 74
     0
 42
0.000000001
 43
0.00000001
 40
0.0
 40
0.0
 40
0.0
 40
0.0
 40
0.2765306061756698
 40
0.5626682386888202
 40
1.0
 40
1.0
 40
1.0
 40
1.0
 10
200.7092669784055
 20
85.79064078943976
 30
0.0
 10
200.7174899278018
 20
85.7681724812604
 30
0.0
 10
200.7342215023555
 20
85.72245528718759
 30
0.0
 10
200.7309303751609
 20
85.61864916335828
 30
0.0
 10
200.6964799879627
 20
85.53960399137212
 30
0.0
 10
200.6756549901952
 20
85.49182178443571
 30
0.0
  0
LWPOLYLINE
  5
2D5
330
1F
100
AcDbEntity
  8
0
  6
Continuous
 62
     7
370
    18
100
AcDbPolyline
 90
        3
 70
   128
 43
0.0
 10
201.1520914445
 20
81.4300176978
 10
201.1287379745
 20
83.1717059636
 10
201.110388702
 20
84.5401752881
  0
ARC
  5
2D6
330
1F
100
AcDbEntity
  8
0
  6
Continuous
 62
     7
370
    18
100
AcDbCircle
 10
201.1533424214
 20
81.1535705824
 30
0.0
 40
0.2764499458583958
100
AcDbArc
 50
38.3527042988
 51
90.2592727646
  0
LINE
  5
2D7
330
1F
100
AcDbEntity
  8
0
  6
Continuous
 62
     7
370
    18
100
AcDbLine
 10
200.6756549902
 20
85.4918217844
 30
0.0
 11
200.4976842836
 21
85.1668269891
 31
0.0
  0
LINE
  5
2D8
330
1F
100
AcDbEntity
  8
0
  6
Continuous
 62
     7
370
    18
100
AcDbLine
 10
201.110388702
 20
84.5401752881
 30
0.0
 11
200.7611595448
 21
84.5900713639
 31
0.0
  0
LINE
  5
2D9
330
1F
100
AcDbEntity
  8
0
  6
Continuous
 62
     7
370
    18
100
AcDbLine
 10
201.1520914445
 20
81.4300176978
 30
0.0
 11
200.8028623285
 21
81.4799141777
 31
0.0
  0
LINE
  5
2DA
330
1F
100
AcDbEntity
  8
0
  6
Continuous
 62
     7
370
    18
100
AcDbLine
 10
200.6756549902
 20
85.4918217844
 30
0.0
 11
198.5938752765
 21
87.0300375188
 31
0.0
  0
ARC
  5
2DB
330
1F
100
AcDbEntity
  8
0
  6
Continuous
 62
     7
370
    18
100
AcDbCircle
 10
198.3122001518
 20
87.2130209834
 30
0.0
 40
0.3358925784002811
100
AcDbArc
 50
326.9912019353
 51
20.1731802644
  0
LINE
  5
2DC
330
1F
100
AcDbEntity
  8
0
  6
Continuous
 62
     7
370
    18
100
AcDbLine
 10
198.5938752765
 20
87.0300375188
 30
0.0
 11
198.4159048066
 21
86.7050425749
 31
0.0
  0
SPLINE
  5
2DD
330
1F
100
AcDbEntity
  8
0
  6
Continuous
 62
     7
370
    18
100
AcDbSpline
210
0.0
220
0.0
230
1.0
 70
     8
 71
     3
 72
     9
 73
     5
 74
     0
 42
0.000000001
 43
0.00000001
 40
0.0
 40
0.0
 40
0.0
 40
0.0
 40
0.4183256667978874
 40
1.0
 40
1.0
 40
1.0
 40
1.0
 10
201.1636107050565
 20
80.77374408710064
 30
0.0
 10
201.16274115383
 20
80.85243961337791
 30
0.0
 10
201.1606625072266
 20
81.04055985682282
 30
0.0
 10
201.1552435265149
 20
81.28679122875069
 30
0.0
 10
201.1520914445229
 20
81.43001769783028
 30
0.0
  0
LINE
  5
2DE
330
1F
100
AcDbEntity
  8
0
  6
Continuous
 62
     7
370
    18
100
AcDbLine
 10
200.5589011405
 20
80.9729461567
 30
0.0
 11
200.4433529211
 21
81.2029011153
 31
0.0
  0
SPLINE
  5
2DF
330
1F
100
AcDbEntity
  8
0
  6
Continuous
 62
     7
370
    18
100
AcDbSpline
210
0.0
220
0.0
230
1.0
 70
     8
 71
     3
 72
     9
 73
     5
 74
     0
 42
0.000000001
 43
0.00000001
 40
0.0
 40
0.0
 40
0.0
 40
0.0
 40
0.5466795271706469
 40
0.9999999999999999
 40
0.9999999999999999
 40
0.9999999999999999
 40
0.9999999999999999
 10
200.5589011404665
 20
80.97294615673034
 30
0.0
 10
200.6597678538576
 20
80.91350890793109
 30
0.0
 10
200.8442757938442
 20
80.80478479106706
 30
0.0
 10
201.0640035945478
 20
80.78342631952087
 30
0.0
 10
201.1636107050565
 20
80.77374408710064
 30
0.0
  0
SPLINE
  5
2E0
330
1F
100
AcDbEntity
  8
0
  6
Continuous
 62
     7
370
    18
100
AcDbSpline
210
0.0
220
0.0
230
1.0
 70
     8
 71
     3
 72
     9
 73
     5
 74
     0
 42
0.000000001
 43
0.00000001
 40
0.0
 40
0.0
 40
0.0
 40
0.0
 40
0.6640596808232354
 40
1.0
 40
1.0
 40
1.0
 40
1.0
 10
198.4435094077188
 20
82.21234327224464
 30
0.0
 10
198.3327476905155
 20
82.31538429765195
 30
0.0
 10
198.1659528670954
 20
82.4705526181854
 30
0.0
 10
198.0593537861232
 20
82.69434195792246
 30
0.0
 10
198.0235428568374
 20
82.76952182014209
 30
0.0
  0
LWPOLYLINE
  5
2E1
330
1F
100
AcDbEntity
  8
0
  6
Continuous
 62
     7
370
    18
100
AcDbPolyline
 90
        3
 70
   128
 43
0.0
 10
200.5252888641
 20
80.6741276745
 10
199.359492464
 20
81.5355283807
 10
198.4435094077
 20
82.2123432722
  0
SPLINE
  5
2E2
330
1F
100
AcDbEntity
  8
0
  6
Continuous
 62
     7
370
    18
100
AcDbSpline
210
0.0
220
0.0
230
1.0
 70
     8
 71
     3
 72
     9
 73
     5
 74
     0
 42
0.000000001
 43
0.00000001
 40
0.0
 40
0.0
 40
0.0
 40
0.0
 40
0.5172394563347624
 40
1.0
 40
1.0
 40
1.0
 40
1.0
 10
201.3347907065099
 20
80.4730775201124
 30
0.0
 10
201.1841917864248
 20
80.46938399473781
 30
0.0
 10
200.8930327918031
 20
80.46224315246573
 30
0.0
 10
200.6450197668874
 20
80.60514183084592
 30
0.0
 10
200.525288864143
 20
80.67412767450979
 30
0.0
  0
SPLINE
  5
2E3
330
1F
100
AcDbEntity
  8
0
  6
Continuous
 62
     7
370
    18
100
AcDbSpline
210
0.0
220
0.0
230
1.0
 70
     8
 71
     3
 72
    10
 73
     6
 74
     0
 42
0.000000001
 43
0.00000001
 40
0.0
 40
0.0
 40
0.0
 40
0.0
 40
0.2765306697910181
 40
0.5626683886755731
 40
1.0
 40
1.0
 40
1.0
 40
1.0
 10
200.5589011404665
 20
80.97294615673034
 30
0.0
 10
200.5671241137203
 20
80.95047789240782
 30
0.0
 10
200.5838557374289
 20
80.90476078590297
 30
0.0
 10
200.5805646236997
 20
80.80095466245128
 30
0.0
 10
200.5461139997275
 20
80.7219097265493
 30
0.0
 10
200.525288864143
 20
80.67412767450979
 30
0.0
  0
LWPOLYLINE
  5
2E4
330
1F
100
AcDbEntity
  8
0
  6
Continuous
 62
     7
370
    18
100
AcDbPolyline
 90
        3
 70
   128
 43
0.0
 10
198.4771213548
 20
82.5111619446
 10
199.6429180018
 20
81.6497611908
 10
200.5589011405
 20
80.9729461567
  0
LINE
  5
2E5
330
1F
100
AcDbEntity
  8
0
  6
Continuous
 62
     7
370
    18
100
AcDbLine
 10
198.4771213548
 20
82.5111619446
 30
0.0
 11
198.3615732589
 21
82.7411167843
 31
0.0
  0
SPLINE
  5
2E6
330
1F
100
AcDbEntity
  8
0
  6
Continuous
 62
     7
370
    18
100
AcDbSpline
210
0.0
220
0.0
230
1.0
 70
     8
 71
     3
 72
     9
 73
     5
 74
     0
 42
0.000000001
 43
0.00000001
 40
0.0
 40
0.0
 40
0.0
 40
0.0
 40
0.5466795975295271
 40
1.0
 40
1.0
 40
1.0
 40
1.0
 10
198.5938752765271
 20
87.03003751879406
 30
0.0
 10
198.5060774515717
 20
87.09370644087412
 30
0.0
 10
198.3454754730963
 20
87.21017122640441
 30
0.0
 10
198.2354309560061
 20
87.26704507040564
 30
0.0
 10
198.1855455312291
 20
87.29282714425831
 30
0.0
  0
SPLINE
  5
2E7
330
1F
100
AcDbEntity
  8
0
  6
Continuous
 62
     7
370
    18
100
AcDbSpline
210
0.0
220
0.0
230
1.0
 70
     8
 71
     3
 72
     9
 73
     5
 74
     0
 42
0.000000001
 43
0.00000001
 40
0.0
 40
0.0
 40
0.0
 40
0.0
 40
0.5128919247770305
 40
1.0
 40
1.0
 40
1.0
 40
1.0
 10
197.7826402427678
 20
86.67787591919144
 30
0.0
 10
197.7970818498237
 20
86.8534810422381
 30
0.0
 10
197.8252390625973
 20
87.19586335430705
 30
0.0
 10
197.992049878847
 20
87.47608139635362
 30
0.0
 10
198.0733047744767
 20
87.6125778674577
 30
0.0
  0
LWPOLYLINE
  5
2E8
330
1F
100
AcDbEntity
  8
0
  6
Continuous
 62
     7
370
    18
100
AcDbPolyline
 90
        3
 70
   128
 43
0.0
 10
197.8243431037
 20
83.5677183973
 10
197.8009894896
 20
85.3094066749
 10
197.7826402428
 20
86.6778759192
  0
SPLINE
  5
2E9
330
1F
100
AcDbEntity
  8
0
  6
Continuous
 62
     7
370
    18
100
AcDbSpline
210
0.0
220
0.0
230
1.0
 70
     8
 71
     3
 72
     9
 73
     5
 74
     0
 42
0.000000001
 43
0.00000001
 40
0.0
 40
0.0
 40
0.0
 40
0.0
 40
0.3359401618702819
 40
1.0
 40
1.0
 40
1.0
 40
1.0
 10
198.0235428568374
 20
82.76952182014209
 30
0.0
 10
197.9851736856452
 20
82.85672459327522
 30
0.0
 10
197.8709593833761
 20
83.11630288438408
 30
0.0
 10
197.8429457995796
 20
83.38757649038395
 30
0.0
 10
197.8243431036584
 20
83.56771839727305
 30
0.0
  0
LINE
  5
2EA
330
1F
100
AcDbEntity
  8
0
  6
Continuous
 62
     7
370
    18
100
AcDbLine
 10
198.0006847873
 20
86.5729660608
 30
0.0
 11
198.0563954198
 21
86.4280296194
 31
0.0
  0
SPLINE
  5
2EB
330
1F
100
AcDbEntity
  8
0
  6
Continuous
 62
     7
370
    18
100
AcDbSpline
210
0.0
220
0.0
230
1.0
 70
     8
 71
     3
 72
     9
 73
     5
 74
     0
 42
0.000000001
 43
0.00000001
 40
0.0
 40
0.0
 40
0.0
 40
0.0
 40
0.4183255668647688
 40
1.0
 40
1.0
 40
1.0
 40
1.0
 10
198.1855455312291
 20
87.29282714425831
 30
0.0
 10
198.1403291655971
 20
87.1992090324302
 30
0.0
 10
198.0322402290998
 20
86.9754165625371
 30
0.0
 10
198.0122895735264
 20
86.72097070866386
 30
0.0
 10
198.0006847872551
 20
86.57296606084853
 30
0.0
  0
ARC
  5
2EC
330
1F
100
AcDbEntity
  8
0
  6
Continuous
 62
     7
370
    18
100
AcDbCircle
 10
198.1618357791
 20
82.3953264159
 30
0.0
 40
0.3358911489232378
100
AcDbArc
 50
326.991108816
 51
20.1732693332
  0
LINE
  5
2ED
330
1F
100
AcDbEntity
  8
0
  6
Continuous
 62
     7
370
    18
100
AcDbLine
 10
198.0423876842
 20
83.4628087023
 30
0.0
 11
198.0980982446
 21
83.3178723619
 31
0.0
  0
LINE
  5
2EE
330
1F
100
AcDbEntity
  8
0
  6
Continuous
 62
     7
370
    18
100
AcDbLine
 10
198.0006847873
 20
86.5729660608
 30
0.0
 11
198.0423876842
 21
83.4628087023
 31
0.0
  0
SPLINE
  5
2EF
330
1F
100
AcDbEntity
  8
0
  6
Continuous
 62
     7
370
    18
100
AcDbSpline
210
0.0
220
0.0
230
1.0
 70
     8
 71
     3
 72
    10
 73
     6
 74
     0
 42
0.000000001
 43
0.00000001
 40
0.0
 40
0.0
 40
0.0
 40
0.0
 40
0.2765307224249368
 40
0.562668309744672
 40
1.0
 40
1.0
 40
1.0
 40
1.0
 10
197.7826402427678
 20
86.67787591919144
 30
0.0
 10
197.8128277398812
 20
86.67233192856243
 30
0.0
 10
197.8742514682367
 20
86.6610513453089
 30
0.0
 10
197.9607555387365
 20
86.62643539658714
 30
0.0
 10
197.9856414454341
 20
86.59311062966216
 30
0.0
 10
198.0006847872551
 20
86.57296606084853
 30
0.0
  0
ARC
  5
2F0
330
1F
100
AcDbEntity
  8
0
  6
Continuous
 62
     7
370
    18
100
AcDbCircle
 10
197.8255940377
 20
83.2912712852
 30
0.0
 40
0.2764499422725497
100
AcDbArc
 50
38.3527165496
 51
90.2592638914
  0
SPLINE
  5
2F1
330
1F
100
AcDbEntity
  8
0
  6
Continuous
 62
     7
370
    18
100
AcDbSpline
210
0.0
220
0.0
230
1.0
 70
     8
 71
     3
 72
     9
 73
     5
 74
     0
 42
0.000000001
 43
0.00000001
 40
0.0
 40
0.0
 40
0.0
 40
0.0
 40
0.2336741697253848
 40
1.0
 40
1.0
 40
1.0
 40
1.0
 10
198.1668222208031
 20
82.88865402230434
 30
0.0
 10
198.1856927864821
 20
82.85383164976021
 30
0.0
 10
198.2664486770502
 20
82.70481058943064
 30
0.0
 10
198.3857203731943
 20
82.5951769977334
 30
0.0
 10
198.4771213547701
 20
82.51116194455004
 30
0.0
  0
SPLINE
  5
2F2
330
1F
100
AcDbEntity
  8
0
  6
Continuous
 62
     7
370
    18
100
AcDbSpline
210
0.0
220
0.0
230
1.0
 70
     8
 71
     3
 72
     9
 73
     5
 74
     0
 42
0.000000001
 43
0.00000001
 40
0.0
 40
0.0
 40
0.0
 40
0.0
 40
0.7663256295946562
 40
1.0
 40
1.0
 40
1.0
 40
1.0
 10
198.0423876841598
 20
83.46280870231519
 30
0.0
 10
198.0574811152931
 20
83.3137035779658
 30
0.0
 10
198.0771769607019
 20
83.11913208173613
 30
0.0
 10
198.1498422135853
 20
82.93230963899049
 30
0.0
 10
198.1668222208031
 20
82.88865402230434
 30
0.0
  0
LINE
  5
2F3
330
1F
100
AcDbEntity
  8
0
  6
Continuous
 62
     7
370
    18
100
AcDbLine
 10
255.6918574904
 20
52.4160848489
 30
0.0
 11
257.5533459759
 21
53.4925000556
 31
0.0
  0
LINE
  5
2F4
330
1F
100
AcDbEntity
  8
0
  6
Continuous
 62
     7
370
    18
100
AcDbLine
 10
255.5480568885
 20
52.6857531584
 30
0.0
 11
257.4095401133
 21
53.7621714228
 31
0.0
  0
LINE
  5
2F5
330
1F
100
AcDbEntity
  8
0
  6
Continuous
 62
     7
370
    18
100
AcDbLine
 10
251.828358785
 20
55.4342176024
 30
0.0
 11
253.6898472833
 21
56.5106328283
 31
0.0
  0
LINE
  5
2F6
330
1F
100
AcDbEntity
  8
0
  6
Continuous
 62
     7
370
    18
100
AcDbLine
 10
255.6173458135
 20
48.3288637538
 30
0.0
 11
257.4788343941
 21
49.4052788134
 31
0.0
  0
LINE
  5
2F7
330
1F
100
AcDbEntity
  8
0
  6
Continuous
 62
     7
370
    18
100
AcDbLine
 10
200.9445370664
 20
88.6775239386
 30
0.0
 11
200.0706103911
 21
88.3945494694
 31
0.0
  0
LINE
  5
2F8
330
1F
100
AcDbEntity
  8
0
  6
Continuous
 62
     7
370
    18
100
AcDbLine
 10
203.0776254542
 20
86.1726824843
 30
0.0
 11
203.9515520472
 21
86.4556568109
 31
0.0
  0
LINE
  5
2F9
330
1F
100
AcDbEntity
  8
0
  6
Continuous
 62
     7
370
    18
100
AcDbLine
 10
253.9242550485
 20
51.9675016385
 30
0.0
 11
254.0167372525
 21
52.1318668691
 31
0.0
  0
LINE
  5
2FA
330
1F
100
AcDbEntity
  8
0
  6
Continuous
 62
     7
370
    18
100
AcDbLine
 10
254.1654769383
 20
51.4770326118
 30
0.0
 11
254.3762441081
 21
51.457693042
 31
0.0
  0
LINE
  5
2FB
330
1F
100
AcDbEntity
  8
0
  6
Continuous
 62
     7
370
    18
100
AcDbLine
 10
255.5025238041
 20
52.108968994
 30
0.0
 11
254.3762441081
 21
51.457693042
 31
0.0
  0
LINE
  5
2FC
330
1F
100
AcDbEntity
  8
0
  6
Continuous
 62
     7
370
    18
100
AcDbLine
 10
254.0167372525
 20
52.1318668691
 30
0.0
 11
255.1430118449
 21
52.78314591
 31
0.0
  0
LINE
  5
2FD
330
1F
100
AcDbEntity
  8
0
  6
Continuous
 62
     7
370
    18
100
AcDbLine
 10
250.9378992675
 20
54.2260822102
 30
0.0
 11
251.009723095
 21
54.3537335215
 31
0.0
  0
LINE
  5
2FE
330
1F
100
AcDbEntity
  8
0
  6
Continuous
 62
     7
370
    18
100
AcDbLine
 10
254.3160098407
 20
48.1535691408
 30
0.0
 11
254.1395029551
 21
48.1697656848
 31
0.0
  0
LINE
  5
2FF
330
1F
100
AcDbEntity
  8
0
  6
Continuous
 62
     7
370
    18
100
AcDbLine
 10
252.1359975226
 20
55.0050124674
 30
0.0
 11
251.009723095
 21
54.3537335215
 31
0.0
  0
LINE
  5
300
330
1F
100
AcDbEntity
  8
0
  6
Continuous
 62
     7
370
    18
100
AcDbLine
 10
254.3160098407
 20
48.1535691408
 30
0.0
 11
255.4422842684
 21
48.8048481342
 31
0.0
  0
LINE
  5
301
330
1F
100
AcDbEntity
  8
0
  6
Continuous
 62
     7
370
    18
100
AcDbLine
 10
218.6012937909
 20
57.8307665454
 30
0.0
 11
198.5253952191
 21
72.6647392687
 31
0.0
  0
LINE
  5
302
330
1F
100
AcDbEntity
  8
0
  6
Continuous
 62
     7
370
    18
100
AcDbLine
 10
216.8740359257
 20
44.2784470019
 30
0.0
 11
216.8740359257
 21
40.5885867564
 31
0.0
  0
LINE
  5
303
330
1F
100
AcDbEntity
  8
0
  6
Continuous
 62
     7
370
    18
100
AcDbLine
 10
212.1265134936
 20
36.0190554561
 30
0.0
 11
212.1451555715
 21
36.0082936136
 31
0.0
  0
LINE
  5
304
330
1F
100
AcDbEntity
  8
0
  6
Continuous
 62
     7
370
    18
100
AcDbLine
 10
212.8336203907
 20
36.4272595789
 30
0.0
 11
212.8522624686
 21
36.4164977364
 31
0.0
  0
LINE
  5
305
330
1F
100
AcDbEntity
  8
0
  6
Continuous
 62
     7
370
    18
100
AcDbLine
 10
213.5407266292
 20
36.8354633216
 30
0.0
 11
213.5593687072
 21
36.824701479
 31
0.0
  0
LINE
  5
306
330
1F
100
AcDbEntity
  8
0
  6
Continuous
 62
     7
370
    18
100
AcDbLine
 10
214.2478335263
 20
37.2436674444
 30
0.0
 11
214.2664756043
 21
37.2329056019
 31
0.0
  0
LINE
  5
307
330
1F
100
AcDbEntity
  8
0
  6
Continuous
 62
     7
370
    18
100
AcDbLine
 10
200.553997083
 20
80.1871716318
 30
0.0
 11
200.1105380269
 21
80.043581338
 31
0.0
  0
LWPOLYLINE
  5
308
330
1F
100
AcDbEntity
  8
0
  6
Continuous
 62
     7
370
    18
100
AcDbPolyline
 90
       10
 70
   128
 43
0.0
 10
238.1983616874
 20
35.9839069618
 10
240.615896357
 20
36.3487614797
 10
242.9777214538
 20
36.8197643067
 10
245.2698817613
 20
37.3941268984
 10
247.4788329947
 20
38.0684524391
 10
249.5915102893
 20
38.8387571308
 10
251.5954238546
 20
39.7004889173
 10
253.478736806
 20
40.648548084
 10
255.2303018371
 20
41.6773388424
 10
256.8397797578
 20
42.7807708512
  0
LINE
  5
309
330
1F
100
AcDbEntity
  8
0
  6
Continuous
 62
     7
370
    18
100
AcDbLine
 10
239.3946815432
 20
20.27747711
 30
0.0
 11
239.3703470065
 21
20.291525139
 31
0.0
  0
LINE
  5
30A
330
1F
100
AcDbEntity
  8
0
  6
Continuous
 62
     7
370
    18
100
AcDbLine
 10
240.499754789
 20
20.4559401499
 30
0.0
 11
240.4758944044
 21
20.4697144567
 31
0.0
  0
LINE
  5
30B
330
1F
100
AcDbEntity
  8
0
  6
Continuous
 62
     7
370
    18
100
AcDbLine
 10
241.5728747967
 20
20.6528486411
 30
0.0
 11
241.5494832958
 21
20.6663522672
 31
0.0
  0
LINE
  5
30C
330
1F
100
AcDbEntity
  8
0
  6
Continuous
 62
     7
370
    18
100
AcDbLine
 10
242.6157182207
 20
20.8672361925
 30
0.0
 11
242.5927903351
 21
20.8804721791
 31
0.0
  0
LINE
  5
30D
330
1F
100
AcDbEntity
  8
0
  6
Continuous
 62
     7
370
    18
100
AcDbLine
 10
243.6297226636
 20
21.0982721332
 30
0.0
 11
243.6072583933
 21
21.1112404804
 31
0.0
  0
LINE
  5
30E
330
1F
100
AcDbEntity
  8
0
  6
Continuous
 62
     7
370
    18
100
AcDbLine
 10
244.616126189
 20
21.3452417445
 30
0.0
 11
244.5941149974
 21
21.3579485349
 31
0.0
  0
LINE
  5
30F
330
1F
100
AcDbEntity
  8
0
  6
Continuous
 62
     7
370
    18
100
AcDbLine
 10
245.5759824683
 20
21.6075367547
 30
0.0
 11
245.5544296236
 21
21.6199789471
 31
0.0
  0
LINE
  5
310
330
1F
100
AcDbEntity
  8
0
  6
Continuous
 62
     7
370
    18
100
AcDbLine
 10
246.5102134636
 20
21.8846249265
 30
0.0
 11
246.4891189659
 21
21.8968025208
 31
0.0
  0
LINE
  5
311
330
1F
100
AcDbEntity
  8
0
  6
Continuous
 62
     7
370
    18
100
AcDbLine
 10
247.4196035016
 20
22.1760527174
 30
0.0
 11
247.3989673509
 21
22.1879657136
 31
0.0
  0
LINE
  5
312
330
1F
100
AcDbEntity
  8
0
  6
Continuous
 62
     7
370
    18
100
AcDbLine
 10
248.3048282489
 20
22.481431594
 30
0.0
 11
248.2846504451
 21
22.4930799922
 31
0.0
  0
LINE
  5
313
330
1F
100
AcDbEntity
  8
0
  6
Continuous
 62
     7
370
    18
100
AcDbLine
 10
258.3408476701
 20
28.1174748222
 30
0.0
 11
258.3275187292
 21
28.125169456
 31
0.0
  0
LINE
  5
314
330
1F
100
AcDbEntity
  8
0
  6
Continuous
 62
     7
370
    18
100
AcDbLine
 10
258.8905146853
 20
28.6165666741
 30
0.0
 11
258.8777652636
 21
28.6239267585
 31
0.0
  0
LINE
  5
315
330
1F
100
AcDbEntity
  8
0
  6
Continuous
 62
     7
370
    18
100
AcDbLine
 10
259.4165215134
 20
29.1293172612
 30
0.0
 11
259.404367416
 21
29.1363336723
 31
0.0
  0
LINE
  5
316
330
1F
100
AcDbEntity
  8
0
  6
Continuous
 62
     7
370
    18
100
AcDbLine
 10
259.9182889645
 20
29.656061323
 30
0.0
 11
259.9067301913
 21
29.6627340607
 31
0.0
  0
LINE
  5
317
330
1F
100
AcDbEntity
  8
0
  6
Continuous
 62
     7
370
    18
100
AcDbLine
 10
260.3951212864
 20
30.1972001285
 30
0.0
 11
260.3841789109
 21
30.2035170274
 31
0.0
  0
LINE
  5
318
330
1F
100
AcDbEntity
  8
0
  6
Continuous
 62
     7
370
    18
100
AcDbLine
 10
260.846217689
 20
30.753195964
 30
0.0
 11
260.8359022478
 21
30.7591509414
 31
0.0
  0
LINE
  5
319
330
1F
100
AcDbEntity
  8
0
  6
Continuous
 62
     7
370
    18
100
AcDbLine
 10
261.2706509414
 20
31.3245841083
 30
0.0
 11
261.2638863723
 21
31.328489211
 31
0.0
  0
LINE
  5
31A
330
1F
100
AcDbEntity
  8
0
  6
Continuous
 62
     7
370
    18
100
AcDbLine
 10
261.6673357625
 20
31.9119910812
 30
0.0
 11
261.6609873935
 21
31.9156559166
 31
0.0
  0
LINE
  5
31B
330
1F
100
AcDbEntity
  8
0
  6
Continuous
 62
     7
370
    18
100
AcDbLine
 10
262.0350123566
 20
32.5161433867
 30
0.0
 11
262.0290749193
 21
32.5195709963
 31
0.0
  0
LINE
  5
31C
330
1F
100
AcDbEntity
  8
0
  6
Continuous
 62
     7
370
    18
100
AcDbLine
 10
262.3722174377
 20
33.1378872826
 30
0.0
 11
262.3666962006
 21
33.1410746249
 31
0.0
  0
LINE
  5
31D
330
1F
100
AcDbEntity
  8
0
  6
Continuous
 62
     7
370
    18
100
AcDbLine
 10
262.6772434
 20
33.7782077883
 30
0.0
 11
262.6698677015
 21
33.7824656884
 31
0.0
  0
INSERT
  5
322
330
1F
100
AcDbEntity
  8
VERMASSUNG
100
AcDbBlockReference
  2
SW_NOTE_0
 10
251.5812685828
 20
86.7097125927
 30
0.0
  0
LEADER
  5
324
330
1F
100
AcDbEntity
  8
VERMASSUNG
100
AcDbLeader
  3
SLDDIMSTYLE4
 76
     2
 10
235.3865986806
 20
66.887988299
 30
0.0
 10
251.5812685828
 20
86.7097125927
 30
0.0
  0
OLE2FRAME
  5
325
330
1F
100
AcDbEntity
  8
0
100
AcDbOle2Frame
 70
     2
  3
Paintbrush-Bild
 10
13.8511154363
 20
38.264191557
 30
0.0
 11
51.6290888628
 21
31.9806341108
 31
0.0
 71
     2
 72
     0
 73
     1
 90
    12928
310
80552BED0767C5B32B40DDAF6807D121434000000000000000006FFBDDFB85D0
310
4940DDAF6807D121434000000000000000006FFBDDFB85D04940416F4BD60AFB
310
3F4000000000000000002BED0767C5B32B40416F4BD60AFB3F40000000000000
310
0000000000000100000000010000010000000100000000000100000000320000
310
D0CF11E0A1B11AE1000000000000000000000000000000003E000300FEFF0900
310
0600000000000000000000000100000001000000000000000010000002000000
310
01000000FEFFFFFF0000000000000000FFFFFFFFFFFFFFFFFFFFFFFFFFFFFFFF
310
FFFFFFFFFFFFFFFFFFFFFFFFFFFFFFFFFFFFFFFFFFFFFFFFFFFFFFFFFFFFFFFF
310
FFFFFFFFFFFFFFFFFFFFFFFFFFFFFFFFFFFFFFFFFFFFFFFFFFFFFFFFFFFFFFFF
310
FFFFFFFFFFFFFFFFFFFFFFFFFFFFFFFFFFFFFFFFFFFFFFFFFFFFFFFFFFFFFFFF
310
FFFFFFFFFFFFFFFFFFFFFFFFFFFFFFFFFFFFFFFFFFFFFFFFFFFFFFFFFFFFFFFF
310
FFFFFFFFFFFFFFFFFFFFFFFFFFFFFFFFFFFFFFFFFFFFFFFFFFFFFFFFFFFFFFFF
310
FFFFFFFFFFFFFFFFFFFFFFFFFFFFFFFFFFFFFFFFFFFFFFFFFFFFFFFFFFFFFFFF
310
FFFFFFFFFFFFFFFFFFFFFFFFFFFFFFFFFFFFFFFFFFFFFFFFFFFFFFFFFFFFFFFF
310
FFFFFFFFFFFFFFFFFFFFFFFFFFFFFFFFFFFFFFFFFFFFFFFFFFFFFFFFFFFFFFFF
310
FFFFFFFFFFFFFFFFFFFFFFFFFFFFFFFFFFFFFFFFFFFFFFFFFFFFFFFFFFFFFFFF
310
FFFFFFFFFFFFFFFFFFFFFFFFFFFFFFFFFFFFFFFFFFFFFFFFFFFFFFFFFFFFFFFF
310
FFFFFFFFFFFFFFFFFFFFFFFFFFFFFFFFFFFFFFFFFFFFFFFFFFFFFFFFFFFFFFFF
310
FFFFFFFFFFFFFFFFFFFFFFFFFFFFFFFFFFFFFFFFFFFFFFFFFFFFFFFFFFFFFFFF
310
FFFFFFFFFFFFFFFFFFFFFFFFFFFFFFFFFFFFFFFFFFFFFFFFFFFFFFFFFFFFFFFF
310
FDFFFFFFFEFFFFFFFEFFFFFFFEFFFFFF05000000060000000700000008000000
310
090000000A0000000B0000000C0000000D0000000E0000000F00000010000000
310
11000000120000001300000014000000150000001600000017000000FEFFFFFF
310
FFFFFFFFFFFFFFFFFFFFFFFFFFFFFFFFFFFFFFFFFFFFFFFFFFFFFFFFFFFFFFFF
310
FFFFFFFFFFFFFFFFFFFFFFFFFFFFFFFFFFFFFFFFFFFFFFFFFFFFFFFFFFFFFFFF
310
FFFFFFFFFFFFFFFFFFFFFFFFFFFFFFFFFFFFFFFFFFFFFFFFFFFFFFFFFFFFFFFF
310
FFFFFFFFFFFFFFFFFFFFFFFFFFFFFFFFFFFFFFFFFFFFFFFFFFFFFFFFFFFFFFFF
310
FFFFFFFFFFFFFFFFFFFFFFFFFFFFFFFFFFFFFFFFFFFFFFFFFFFFFFFFFFFFFFFF
310
FFFFFFFFFFFFFFFFFFFFFFFFFFFFFFFFFFFFFFFFFFFFFFFFFFFFFFFFFFFFFFFF
310
FFFFFFFFFFFFFFFFFFFFFFFFFFFFFFFFFFFFFFFFFFFFFFFFFFFFFFFFFFFFFFFF
310
FFFFFFFFFFFFFFFFFFFFFFFFFFFFFFFFFFFFFFFFFFFFFFFFFFFFFFFFFFFFFFFF
310
FFFFFFFFFFFFFFFFFFFFFFFFFFFFFFFFFFFFFFFFFFFFFFFFFFFFFFFFFFFFFFFF
310
FFFFFFFFFFFFFFFFFFFFFFFFFFFFFFFFFFFFFFFFFFFFFFFFFFFFFFFFFFFFFFFF
310
FFFFFFFFFFFFFFFFFFFFFFFFFFFFFFFFFFFFFFFFFFFFFFFFFFFFFFFFFFFFFFFF
310
FFFFFFFFFFFFFFFFFFFFFFFFFFFFFFFFFFFFFFFFFFFFFFFFFFFFFFFFFFFFFFFF
310
FFFFFFFFFFFFFFFFFFFFFFFFFFFFFFFFFFFFFFFFFFFFFFFFFFFFFFFFFFFFFFFF
310
52006F006F007400200045006E00740072007900000000000000000000000000
310
0000000000000000000000000000000000000000000000000000000000000000
310
16000500FFFFFFFFFFFFFFFF020000000A00030000000000C000000000000046
310
0000000000000000000000007043567FAB61D60103000000C000000000000000
310
01004F006C006500000000000000000000000000000000000000000000000000
310
0000000000000000000000000000000000000000000000000000000000000000
310
0A000200FFFFFFFFFFFFFFFFFFFFFFFF00000000000000000000000000000000
310
0000000000000000000000000000000000000000000000001400000000000000
310
010043006F006D0070004F0062006A0000000000000000000000000000000000
310
0000000000000000000000000000000000000000000000000000000000000000
310
120002010100000003000000FFFFFFFF00000000000000000000000000000000
310
0000000000000000000000000000000000000000010000004D00000000000000
310
01004F006C006500310030004E00610074006900760065000000000000000000
310
0000000000000000000000000000000000000000000000000000000000000000
310
1A000200FFFFFFFFFFFFFFFFFFFFFFFF00000000000000000000000000000000
310
0000000000000000000000000000000000000000040000002426000000000000
310
FEFFFFFF02000000FEFFFFFFFFFFFFFFFFFFFFFFFFFFFFFFFFFFFFFFFFFFFFFF
310
FFFFFFFFFFFFFFFFFFFFFFFFFFFFFFFFFFFFFFFFFFFFFFFFFFFFFFFFFFFFFFFF
310
FFFFFFFFFFFFFFFFFFFFFFFFFFFFFFFFFFFFFFFFFFFFFFFFFFFFFFFFFFFFFFFF
310
FFFFFFFFFFFFFFFFFFFFFFFFFFFFFFFFFFFFFFFFFFFFFFFFFFFFFFFFFFFFFFFF
310
FFFFFFFFFFFFFFFFFFFFFFFFFFFFFFFFFFFFFFFFFFFFFFFFFFFFFFFFFFFFFFFF
310
FFFFFFFFFFFFFFFFFFFFFFFFFFFFFFFFFFFFFFFFFFFFFFFFFFFFFFFFFFFFFFFF
310
FFFFFFFFFFFFFFFFFFFFFFFFFFFFFFFFFFFFFFFFFFFFFFFFFFFFFFFFFFFFFFFF
310
FFFFFFFFFFFFFFFFFFFFFFFFFFFFFFFFFFFFFFFFFFFFFFFFFFFFFFFFFFFFFFFF
310
FFFFFFFFFFFFFFFFFFFFFFFFFFFFFFFFFFFFFFFFFFFFFFFFFFFFFFFFFFFFFFFF
310
FFFFFFFFFFFFFFFFFFFFFFFFFFFFFFFFFFFFFFFFFFFFFFFFFFFFFFFFFFFFFFFF
310
FFFFFFFFFFFFFFFFFFFFFFFFFFFFFFFFFFFFFFFFFFFFFFFFFFFFFFFFFFFFFFFF
310
FFFFFFFFFFFFFFFFFFFFFFFFFFFFFFFFFFFFFFFFFFFFFFFFFFFFFFFFFFFFFFFF
310
FFFFFFFFFFFFFFFFFFFFFFFFFFFFFFFFFFFFFFFFFFFFFFFFFFFFFFFFFFFFFFFF
310
FFFFFFFFFFFFFFFFFFFFFFFFFFFFFFFFFFFFFFFFFFFFFFFFFFFFFFFFFFFFFFFF
310
FFFFFFFFFFFFFFFFFFFFFFFFFFFFFFFFFFFFFFFFFFFFFFFFFFFFFFFFFFFFFFFF
310
FFFFFFFFFFFFFFFFFFFFFFFFFFFFFFFFFFFFFFFFFFFFFFFFFFFFFFFFFFFFFFFF
310
0100000200000000000000000000000000000000000000000000000000000000
310
0000000000000000000000000000000000000000000000000000000000000000
310
0100FEFF030A0000FFFFFFFF0A00030000000000C00000000000004607000000
310
5042727573680007000000504272757368000700000050427275736800F439B2
310
7100000000000000000000000000000000000000000000000000000000000000
310
0000000000000000000000000000000000000000000000000000000000000000
310
0000000000000000000000000000000000000000000000000000000000000000
310
0000000000000000000000000000000000000000000000000000000000000000
310
0000000000000000000000000000000000000000000000000000000000000000
310
0000000000000000000000000000000000000000000000000000000000000000
310
0000000000000000000000000000000000000000000000000000000000000000
310
0000000000000000000000000000000000000000000000000000000000000000
310
0000000000000000000000000000000000000000000000000000000000000000
310
0000000000000000000000000000000000000000000000000000000000000000
310
0000000000000000000000000000000000000000000000000000000000000000
310
0000000000000000000000000000000000000000000000000000000000000000
310
20260000424D0E260000000000003E00000028000000B40200006E0000000100
310
01000000000000000000130B0000130B00000200000002000000000000FFFFFF
310
FFFFFFFFFFFFFFFFFFFFFFFFFFFFFFFFFFFFFFFFFFFFFFFFFFFFFFFFFFFFFFFF
310
FFFFFFFFFFFFFFFFFFFFFFFFFFFFFFFFFFFFFFFFFFFFFFFFFFFFFFFFFFFFFFFF
310
FFFFFFFFFFFFFFFFFFFFFFFFFFFFFFFFFFFFFFFFFFFFFFFFF000FFFFFFFFFFFF
310
FFFFFFFFFFFFFFFFFFFFFFFFFFFFFFFFFFFFFFFFFFFFFFFFFFFFFFFFFFFFFFFF
310
FFFFFFFFFFFFFFFFFFFFFFFFFFFFFFFFFFFFFFFFFFFFFFFFFFFFFFFFFFFFFFFF
310
FFFFFFFFFFFFFFFFFFFFFFFFFFFFFFFFF000FFFFFFFFFFFFFFFFFFFFFFFFFFFF
310
FFFFFFFFFFFFFFFFFFFFFFFFFFFFFFFFFFFFFFFFFFFFFFFFFFFFFFFFFFFFFFFF
310
FFFFFFFFFFFFFFFFFFFFFFFFFFFFFFFFFFFFFFFFFFFFFFFFFFFFFFFFFFFFFFFF
310
FFFFFFFFFFFFFFFFF000FFFFFFFFFFFFFFFFFFFFFFFFFFFFFFFFFFFFFFFFFFFF
310
FFFFFFFFFFFFFFFFFFFFFFFFFFFFFFFFFFFFFFFFFFFFFFFFFFFFFFFFFFFFFFFF
310
FFFFFFFFFFFFFFFFFFFFFFFFFFFFFFFFFFFFFFFFFFFFFFFFFFFFFFFFFFFFFFFF
310
F000FFFFFFFFFFFFFFFFFFFFFFFFFFFFFFFFFFFFFFFFFFFFFFFFFFFFFFFFFFFF
310
FFFFFFFFFFFFFFFFFFFFFFFFFFFFFFFFFFFFFFFFFFFFFFFFFFFFFFFFFFFFFFFF
310
FFFFFFFFFFFFFFFFFFFFFFFFFFFFFFFFFFFFFFFFFFFFFFFFF000FFFFFFFFFFFF
310
FFFFFFFFFFFFFFFFFFFFFFFFFFFFFFFFFFFFFFFFFFFFFFFFFFFFFFFFFFFFFFFF
310
FFFFFFFFFFFFFFFFFFFFFFFFFFFFFFFFFFFFFFFFFFFFFFFFFFFFFFFFFFFFFFFF
310
FFFFFFFFFFFFFFFFFFFFFFFFFFFFFFFFF000FFFFFFFFFFFFFFFFFFFFFFFFFFFF
310
FFFFFFFFFFFFFFFFFFFFFFFFFFFFFFFFFFFFFFFFFFFFFFFFFFFFFFFFFFFFFFFF
310
FFFFFFFFFFFFFFFFFFFFFFFFFFFFFFFFFFFFFFFFFFFFFFFFFFFFFFFFFFFFFFFF
310
FFFFFFFFFFFFFFFFF000FFFFFFFFFFFFFFFFFFFFFFFFFFFFFFFFFFFFFFFFFFFF
310
FFFFFFFFFFFFFFFFFFFFFFFFFFFFFFFFFFFFFFFFFFFFFFFFFFFFFFFFFFFFFFFF
310
FFFFFFFFFFFFFFFFFFFFFFFFFFFFFFFFFFFFFFFFFFFFFFFFFFFFFFFFFFFFFFFF
310
F000FFFFFFFFFFFFFFFFFFFFFFFFFFFFFFFFFFFFFFFFFFFFFFFFFFFFFFFFFFFF
310
FFFFFFFFFFFFFFFFFFFFFFFFFFFFFFFFFFFFFFFFFFFFFFFFFFFFFFFFFFFFFFFF
310
FFFFFFFFFFFFFFFFFFFFFFFFFFFFFFFFFFFFFFFFFFFFFFFFF000FFFFFFFFFFFF
310
FFFFFFFFFFFFFFFFFFFFFFFFFFFFFFFFFFFFFFFFFFFFFFFFFFFFFFFFFFFFFFFF
310
FFFFFFFFFFFFFFFFFFFFFFFFFFFFFFFFFFFFFFFFFFFFFFFFFFFFFFFFFFFFFFFF
310
FFFFFFFFFFFFFFFFFFFFFFFFFFFFFFFFF000FFFFFFFFFFFFFFFFFFFFFFFFFFFF
310
FFFFFFFFFFFFFFFFFFFFFFFFFFFFFFFFFFFFFFFFFFFFFFFFFFFFFFFFFFFFFFFF
310
FFFFFFFFFFFFFFFFFFFFFFFFFFFFFFFFFFFFFFFFFFFFFFFFFFFFFFFFFFFFFFFF
310
FFFFFFFFFFFFFFFFF000FFFFFFFFFFFFFFFFFFFFFFFFFFFFFFFFFFFFFFFFFFFF
310
FFFFFFFFFFFFFFFFFFFFFFFFFFFFFFFFFFFFFFFFFFFFFFFFFFFFFFFFFFFFFFFF
310
FFFFFFFFFFFFFFFFFFFFFFFFFFFFFFFFFFFFFFFFFFFFFFFFFFFFFFFFFFFFFFFF
310
F000FFFFFFFFFFFFFFFFFFFFFFFFFFFFFFFFFFFFFFFFFFFFFFFFFFFFFFFFFFFF
310
FFFFFFFFFFFFFFFFFFFFFFFFFFFFFFFFFFFFFFFFFFFFFFFFFFFFFFFFFFFFFFFF
310
FFFFFFFFFFFFFFFFFFFFFFFFFFFFFFFFFFFFFFFFFFFFFFFFF000FFFFFFFFFFFF
310
FFFFFFFFFFFFFFFFFFFFFFFFFFFFFFFFFFFFFFFFFFFFFFFFFFFFFFFFFFFFFFFF
310
FFFFFFFFFFFFFFFFFFFFFFFFFFFFFFFFFFFFFFFFFFFFFFFFFFFFFFFFFFFFFFFF
310
FFFFFFFFFFFFFFFFFFFFFFFFFFFFFFFFF000FFFFFFFFFFFFFFFFFFFFFFFFFFFF
310
FFFFFFFFFFFFFFFFFFFFFFFFFFFFFFFFFFFFFFFFFFFFFFFFFFFFFFFFFFFFFFFF
310
FFFFFFFFFFFFFFFFFFFFFFFFFFFFFFFFFFFFFFFFFFFFFFFFFFFFFFFFFFFFFFFF
310
FFFFFFFFFFFFFFFFF000FFFFFFFFFFFFFFFFFFFFFFFFFFFFFFFFFFFFFFFFFFFF
310
FFFFFFFFFFFFFFFFFFFFFFFFFFFFFFFFFFFFFFFFFFFFFFFFFFFFFFFFFFFFFFFF
310
FFFFFFFFFFFFFFFFFFFFFFFFFFFFFFFFFFFFFFFFFFFFFFFFFFFFFFFFFFFFFFFF
310
F000FFFFFFFFFFFFFFFFFFFFFFFFFFFFFFFFFFFFFFFFFFFFFFFFFFFFFFFFFFFF
310
FFFFFFFFFFFFFFFFFFFFFFFFFFFFFFFFFFFFFFFFFFFFFFFFFFFFFFFFFFFFFFFF
310
FFFFFFFFFFFFFFFFFFFFFFFFFFFFFFFFFFFFFFFFFFFFFFFFF000FFFFFFFFFFFF
310
FFFFFFFFFFFFFFFFFFFFFFFFFFFFFFFFFFFFFFFFFFFFFFFFFFFFFFFFFFFFFFFF
310
FFFFFFFFFFFFFFFFFFFFFFFFFFFFFFFFFFFFFFFFFFFFFFFFFFFFFFFFFFFFFFFF
310
FFFFFFFFFFFFFFFFFFFFFFFFFFFFFFFFF000FFFFFFFFFFFFFFFFFFFFFFFFFFFF
310
FFFFFFFFFFFFFFFFFFFFFFFFFFFFFFFFFFFFFFFFFFFFFFFFFFFFFFFFFFFFFFFF
310
FFFFFFFFFFFFFFFFFFFFFFFFFFFFFFFFFFFFFFFFFFFFFFFFFFFFFFFFFFFFFFFF
310
FFFFFFFFFFFFFFFFF000FFFFF80003FFFFFFFFFFFFFFFFFFFFFFFFFFFFFFFFFF
310
FFFFF00007FFFFFFFFFF00007FFFFFF800000000000000007FFFFFFFFFFFFFFF
310
FFFFFFFC001FFFFFFFFFFFFFFC001FFFFFFFFFFFFFFFFFFFFFFFFFFE0007FFFF
310
F000FFFF8000007FFFFFFFF8000FFFFFC0007FFFFF80007FFFFF0000007FFFFF
310
FFF8000007FFFFF800000000000000007FFFFFF0001FFFFFFFFFFFC00001FFFF
310
FFFFFFFFC00001FFFFFFFF000000000003FFFFE000007FFFF000FFFE0000000F
310
FFFFFFF0000FFFFF80007FFFFF80007FFFFC0000001FFFFFFFC0000001FFFFF8
310
00000000000000007FFFFFF0001FFFFFFFFFFE0000003FFFFFFFFFFE0000003F
310
FFFFFF000000000003FFFF0000000FFFF000FFF800000003FFFFFFF00007FFFF
310
80007FFFFF80007FFFF000000007FFFFFF000000003FFFF80000000000000000
310
7FFFFFF0001FFFFFFFFFF80000000FFFFFFFFFF80000000FFFFFFF0000000000
310
03FFFC00000003FFF000FFE000000000FFFFFFF00007FFFF80003FFFFF80007F
310
FFC000000001FFFFFC000000001FFFF800000000000000007FFFFFF0001FFFFF
310
FFFFE000000003FFFFFFFFE000000003FFFFFF000000000003FFF000000000FF
310
F000FF80000000007FFFFFF00007FFFF80003FFFFF80007FFF8000000000FFFF
310
F80000000007FFF800000000000000007FFFFFF0001FFFFFFFFFC000000001FF
310
FFFFFFC000000001FFFFFF000000000003FFC0000000007FF000FF0000000000
310
3FFFFFE00007FFFF00003FFFFF80007FFE00000000003FFFF00000000003FFF8
310
00000000000000007FFFFFF0001FFFFFFFFF8000000000FFFFFFFF8000000000
310
FFFFFF000000000003FF80000000003FF000FE00000000001FFFFFE00003FFFF
310
00003FFFFF80007FFC00000000001FFFE00000000001FFF8000001FFFE000000
310
7FFFFFF0001FFFFFFFFE00000000003FFFFFFE00000000003FFFFF0000000000
310
03FF00000000001FF000FC00000000000FFFFFE00003FFFF00001FFFFF80007F
310
F800000000001FFFC00000000000FFF8000001FFFE0000007FFFFFF0001FFFFF
310
FFFC00000000001FFFFFFC00000000001FFFFF000000000003FE00000000000F
310
F000F8000000000007FFFFE00003FFFF00001FFFFF80007FF800000000000FFF
310
800000000000FFF8000001FFFE0000007FFFFFF0001FFFFFFFF800000000000F
310
FFFFF800000000000FFFFF000000000003FC000000000007F000F80000000000
310
03FFFFC00003FFFE00001FFFFF80007FF0000000000007FF0000000000007FF8
310
000001FFFE0000007FFFFFF0001FFFFFFFF0000000000007FFFFF00000000000
310
07FFFF000000000003F8000000000003F000F0000000000003FFFFC00001FFFE
310
00001FFFFF80007FE0000000000007FE0000000000003FF8000001FFFE000000
310
7FFFFFF0001FFFFFFFF0000000000007FFFFF0000000000007FFFF0000000000
310
03F800001F800003F000E00001FFF00001FFFFC00001FFFE00000FFFFF80007F
310
E00001FFE00003FE00001FFF00003FF8000001FFFE0000007FFFFFF0001FFFFF
310
FFE000003E000003FFFFE000003E000003FFFF000000000003F00001FFF80001
310
F000E00007FFFC0001FFFFC00001FFFE00000FFFFF80007FC0000FFFFC0003FC
310
0000FFFFC0001FF8000001FFFE0000007FFFFFF0001FFFFFFFC00003FFE00001
310
FFFFC00003FFE00001FFFF0001FFFFFFFFF00007FFFE0001F000E0000FFFFF00
310
00FFFF800001FFFC00000FFFFF80007FC0001FFFFE0001FC0001FFFFE0001FF8
310
000001FFFE0000007FFFFFF0001FFFFFFF80000FFFF80000FFFF80000FFFF800
310
00FFFF0003FFFFFFFFE0000FFFFF8000F000C0003FFFFF8000FFFF800000FFFC
310
000007FFFF80007F80003FFFFF0001FC0003FFFFF0001FF8000001FFFE000000
310
7FFFFFF0001FFFFFFF80003FFFFE0000FFFF80003FFFFE0000FFFF0003FFFFFF
310
FFE0003FFFFF8000F000C0003FFFFF8000FFFF800000FFFC000007FFFF80007F
310
80007FFFFF8001F80007FFFFF8000FF8000001FFFE0000007FFFFFF0001FFFFF
310
FF00007FFFFF00007FFF00007FFFFF00007FFF0003FFFFFFFFE0003FFFFFC000
310
F000C0007FFFFFC000FFFF000000FFFC000007FFFF80007F8000FFFFFF8000F8
310
000FFFFFF8000FF8000001FFFE0000007FFFFFF0001FFFFFFF0000FFFFFF8000
310
7FFF0000FFFFFF80007FFF0003FFFFFFFFC0007FFFFFC00070008000FFFFFFC0
310
00FFFF000000FFF8000007FFFF80007F8000FFFFFF8000F8000FFFFFF8000FF8
310
000001FFFE0000007FFFFFF0001FFFFFFE0001FFFFFFC0003FFE0001FFFFFFC0
310
003FFF0003FFFFFFFFC0007FFFFFE00070008000FFFFFFC0007FFF0000007FF8
310
000003FFFF80007F0001FFFFFF8000F8000FFFFFF8000FF8000001FFFE000000
310
7FFFFFF0001FFFFFFE0001FFFFFFC0003FFE0001FFFFFFC0003FFF0003FFFFFF
310
FFC000FFFFFFE00070008000FFFFFFC0007FFF0000007FF8000003FFFF80007F
310
0001FFFFFF8000F8001FFFFFF8000FF8000001FFFE0000007FFFFFF0001FFFFF
310
FE0003FFFFFFE0003FFE0003FFFFFFE0003FFF0003FFFFFFFFC000FFFFFFE000
310
70008000FFFFFFC0007FFE0000007FF8000003FFFF80007F0001FFFFFF8000F0
310
001FFFFFF8000FF8000001FFFE0000007FFFFFF0001FFFFFFC0003FFFFFFE000
310
1FFC0003FFFFFFE0001FFF0003FFFFFFFFC000FFFFFFC00070008000FFFFFF80
310
007FFE0000007FF0000003FFFF80007F0001FFFFFF0000F0001FFFFFF8000FF8
310
000001FFFE0000007FFFFFF0001FFFFFFC0007FFFFFFF0001FFC0007FFFFFFF0
310
001FFF0003FFFFFFFFC000FFFFFFC00070008001FFFFFF0000FFFE0000003FF0
310
000001FFFF80007F0001FFFFFF0000F8001FFFFFF0000FF8000001FFFE000000
310
7FFFFFF0001FFFFFFC0007FFFFFFF0001FFC0007FFFFFFF0001FFF0003FFFFFF
310
FFC001FFFFFF80007000FFFFFFFFFE0000FFFE0008003FF0008001FFFF80007F
310
FFFFFFFFFC0000FFFFFFFFFFE0000FF8000001FFFE0000007FFFFFF0001FFFFF
310
F8000FFFFFFFF8000FF8000FFFFFFFF8000FFF0003FFFFFFFFFFFFFFFFFF0000
310
7000FFFFFFFFFC0000FFFC0008003FF0008001FFFF80007FFFFFFFFFF80001FF
310
FFFFFFFF80000FF8000001FFFE0000007FFFFFF0001FFFFFF8000FFFFFFFF800
310
0FF8000FFFFFFFF8000FFF0003FFFFFFFFFFFFFFFFFE0000F000FFFFFFFFE000
310
00FFFC000C003FE000C001FFFF80007FFFFFFFFFC00001FFFFFFFFFE00001FF8
310
000001FFFE0000007FFFFFF0001FFFFFF8000FFFFFFFF8000FF8000FFFFFFFF8
310
000FFF0003FFFFFFFFFFFFFFFFF00000F000FFFFFFFE000001FFFC000C001FE0
310
00C000FFFF80007FFFFFFFFE000001FFFFFFFFE000001FF80FFFFFFFFFFFFFC0
310
7FFFFFF0001FFFFFF8000FFFFFFFF8000FF8000FFFFFFFF8000FFF0003FFFFFF
310
FFFFFFFFFF800000F000FFFFFFC0000001FFFC001C001FE001C000FFFF80007F
310
FFFFFF80000003FFFFFFF80000001FF80FFFFFFFFFFFFFC07FFFFFF0001FFFFF
310
F8001FFFFFFFFC000FF8001FFFFFFFFC000FFF0003FFFFFFFFFFFFFFF0000001
310
F000FFFFF800000001FFF8001C001FE001C000FFFF80007FFFFFF800000003FF
310
FFFF800000003FF80FFFFFFFFFFFFFC07FFFFFF0001FFFFFF8001FFFFFFFFC00
310
0FF8001FFFFFFFFC000FFF0003FFFFFFFFFFFFFE00000001F000FFFFC0000000
310
03FFF8001E001FC001E000FFFF80007FFFFF8000000007FFFFFC000000003FF8
310
0FFFFFFFFFFFFFC07FFFFFF0001FFFFFF8001FFFFFFFFC000FF8001FFFFFFFFC
310
000FFF0003FFFFFFFFFFFFE000000003F000FFFE0000000007FFF8001E000FC0
310
01E0007FFF80007FFFFE0000000007FFFFE0000000007FF80FFFFFFFFFFFFFC0
310
7FFFFFF0001FFFFFF0001FFFFFFFFC0007F0001FFFFFFFFC0007FF0003FFFFFF
310
FFFFFF0000000003F000FFF80000000007FFF8001E000FC003E0007FFF80007F
310
FFF0000000000FFFFF8000000000FFF80FFFFFFFFFFFFFC07FFFFFF0001FFFFF
310
F0001FFFFFFFFC0007F0001FFFFFFFFC0007FF0003FFFFFFFFFFFC0000000007
310
F000FFE0000000000FFFF0003E000FC003E0007FFF80007FFFC0000000001FFF
310
FE0000000001FFF80FFFFFFFFFFFFFC07FFFFFF0001FFFFFF0001FFFFFFFFC00
310
07F0001FFFFFFFFC0007FF0003FFFFFFFFFFF0000000000FF000FFC000000000
310
1FFFF0003F000F8003F0003FFF80007FFF80000000003FFFF80000000003FFF8
310
0FFFFFFFFFFFFFC07FFFFFF0001FFFFFF0001FFFFFFFFC0007F0001FFFFFFFFC
310
0007FF0003FFFFFFFFFFE0000000001FF000FF00000000007FFFF0003F000780
310
03F0003FFF80007FFF00000000007FFFF00000000007FFF80FFFFFFFFFFFFFC0
310
7FFFFFF0001FFFFFF0001FFFFFFFFC0007F0001FFFFFFFFC0007FF0003FFFFFF
310
FFFF80000000007FF000FE0000000000FFFFE0003F00078007F0003FFF80007F
310
FE0000000001FFFFE0000000001FFFF80FFFFFFFFFFFFFC07FFFFFF0001FFFFF
310
F0001FFFFFFFFC0007F0001FFFFFFFFC0007FF0003FFFFFFFFFF0000000000FF
310
F000FC0000000003FFFFE0007F00078007F0003FFF80007FFC0000000007FFFF
310
C0000000007FFFF80FFFFFFFFFFFFFC07FFFFFF0001FFFFFF8001FFFFFFFFC00
310
0FF8001FFFFFFFFC000FFF0003FFFFFFFFFE0000000003FFF000FC000000000F
310
FFFFE0007F80070007F8001FFF80007FF8000000001FFFFF8000000001FFFFF8
310
0FFFFFFFFFFFFFC07FFFFFF0001FFFFFF8001FFFFFFFFC000FF8001FFFFFFFFC
310
000FFF0003FFFFFFFFFC000000000FFFF000F8000000007FFFFFE0007F800700
310
07F8001FFF80007FF000000000FFFFFF800000000FFFFFF80FFFFFFFFFFFFFC0
310
7FFFFFF0001FFFFFF8000FFFFFFFF8000FF8000FFFFFFFF8000FFF0003FFFFFF
310
FFFC000000007FFFF000F800000007FFFFFFC0007F8003000FF8001FFF80007F
310
F000000007FFFFFF000000007FFFFFF80FFFFFFFFFFFFFC07FFFFFF0001FFFFF
310
F8000FFFFFFFF8000FF8000FFFFFFFF8000FFF0003FFFFFFFFF80000000FFFFF
310
F000F0000000FFFFFFFFC000FF8003000FF8001FFF80007FE0000000FFFFFFFF
310
0000000FFFFFFFF8000001FFFE0000007FFFFFF0001FFFFFF8000FFFFFFFF800
310
0FF8000FFFFFFFF8000FFF0003FFFFFFFFF8000000FFFFFFF000F000000FFFFF
310
FFFFC000FFC002000FF8000FFF80007FE000001FFFFFFFFE000001FFFFFFFFF8
310
000001FFFE0000007FFFFFF0001FFFFFF8000FFFFFFFF8000FF8000FFFFFFFF8
310
000FFF0003FFFFFFFFF000001FFFFFFFF000E00000FFFFFFFFFFC000FFC00200
310
0FFC000FFF80007FE00001FFFFFFFFFE00001FFFFFFFFFF8000001FFFE000000
310
7FFFFFF0001FFFFFFC000FFFFFFFF8001FFC000FFFFFFFF8001FFF0003FFFFFF
310
FFF00001FFFFFFFFF000E00007FFFFFFFFFF8000FFC000001FFC000FFF80007F
310
C0000FFFFFFFFFFE0000FFFFFFFFFFF8000001FFFE0000007FFFFFF0001FFFFF
310
FC0007FFFFFFF0001FFC0007FFFFFFF0001FFF0003FFFFFFFFF00007FFFFFFFF
310
F000E0001FFFFFFFFFFF8000FFC000001FFC000FFF80007FC0003FFFFFFFFFFE
310
0001FFFFFFFFFFF8000001FFFE0000007FFFFFF0001FFFFFFC0007FFFFFFF000
310
1FFC0007FFFFFFF0001FFF0003FFFFFFFFF0001FFFFFFFFFF000E0003FFFFF00
310
03FF8001FFE000001FFC0007FF80007FC0007FFFFF0007FC0003FFFFF0003FF8
310
000001FFFE0000007FFFFFF0001FFFFFFC0003FFFFFFE0001FFC0003FFFFFFE0
310
001FFF0003FFFFFFFFF0003FFFFFFFFFF000E0003FFFFF0001FF8001FFE00000
310
1FFE0007FF80007FC0007FFFFE0003FC0007FFFFE0003FF8000001FFFE000000
310
7FFFFFF0001FFFFFFE0003FFFFFFE0003FFE0003FFFFFFE0003FFF0003FFFFFF
310
FFF0003FFFFF8001F000E0003FFFFF0001FF0001FFE000001FFE0007FF80007F
310
C0007FFFFE0003FC0007FFFFE0003FF8000001FFFE0000007FFFFFF0001FFFFF
310
FE0001FFFFFFC0003FFE0001FFFFFFC0003FFF0003FFFFFFFFF0003FFFFF0001
310
F000E0003FFFFF0003FF0001FFE000003FFE0007FF80007FC0007FFFFE0003FC
310
0007FFFFE0003FF8000001FFFE0000007FFFFFF0001FFFFFFF0001FFFFFFC000
310
7FFF0001FFFFFFC0007FFF0003FFFFFFFFF0003FFFFF0001F000E0003FFFFE00
310
03FF0003FFF000003FFE0003FF80007FC0007FFFFC0003FE0007FFFFE0003FF8
310
000001FFFE0000007FFFFFF0001FFFFFFF0000FFFFFF80007FFF0000FFFFFF80
310
007FFF0003FFFFFFFFF0003FFFFF0001F000E0003FFFFE0003FF0003FFF00000
310
3FFF0003FF80007FC0007FFFFC0007FE0007FFFFC0003FF8000001FFFE000000
310
7FFFFFF0001FFFFFFF80007FFFFF0000FFFF80007FFFFF0000FFFF0003FFFFFF
310
FFF0003FFFFF0003F000E0003FFFFC0003FE0003FFF000003FFF0003FF80007F
310
E0003FFFF80007FE0003FFFFC0007FF8000001FFFE0000007FFFFFF0001FFFFF
310
FF80003FFFFE0000FFFF80003FFFFE0000FFFF0003FFFFFFFFF0001FFFFE0003
310
F000F0001FFFF80003FE0003FFF000007FFF0001FF80007FE0003FFFF00007FE
310
0001FFFF80007FF8000001FFFE0000007FFFFFF0001FFFFFFFC0000FFFF80001
310
FFFFC0000FFFF80001FFFF0003FFFFFFFFF0001FFFFC0003F000F0000FFFF000
310
07FE0007FFF800007FFF0001FF80007FE0001FFFE00007FF0000FFFE00007FF8
310
000001FFFE0000007FFFFFF0001FFFFFFFC00003FFE00001FFFFC00003FFE000
310
01FFFF0003FFFFFFFFF8000FFFF80003F000F00003FFC00007FC0007FFF80000
310
7FFF8001FF80007FF00007FF80000FFF00007FF80000FFF8000001FFFE000000
310
7F80000000000001FFE000003E000003FFFFE000003E000003FFFF0003FFFFFF
310
FFF80003FFE00007F000F800000000000FFC0007FFF800007FFF8001FF80007F
310
F000000000000FFF000000000000FFF8000001FFFE0000007F80000000000001
310
FFF0000000000007FFFFF0000000000007FFFF0003FFFFFFFFFC00007E000007
310
F000F800000000000FFC0007FFF80000FFFF8000FF80007FF800000000001FFF
310
800000000001FFF8000001FFFE0000007F80000000000001FFF800000000000F
310
FFFFF800000000000FFFFF0003FFFFFFFFFC00000000000FF000FC0000000000
310
1FFC0007FFFC0000FFFF8000FF80007FF800000000003FFFC00000000001FFF8
310
000001FFFE0000007F80000000000001FFF800000000000FFFFFF80000000000
310
0FFFFF0003FFFFFFFFFE00000000001FF000FE00000000003FF8000FFFFC0000
310
FFFF8000FF80007FFC00000000003FFFC00000000003FFF8000001FFFE000000
310
7F80000000000001FFFC00000000001FFFFFFC00000000001FFFFF0003FFFFFF
310
FFFF00000000001FF000FF00000000003FF8000FFFFC0000FFFFC000FF80007F
310
FE00000000007FFFE00000000007FFF8000001FFFE0000007F80000000000001
310
FFFE00000000003FFFFFFE00000000003FFFFF0003FFFFFFFFFF80000000003F
310
F000FF80000000007FF8000FFFFC0001FFFFC0007F80007FFF0000000000FFFF
310
F0000000000FFFF800000000000000007F80000000000001FFFF8000000000FF
310
FFFFFF8000000000FFFFFF0003FFFFFFFFFFC0000000007FF000FFC000000000
310
FFF8000FFFFE0001FFFFC0007F80007FFF8000000001FFFFF8000000001FFFF8
310
00000000000000007F80000000000001FFFFC000000001FFFFFFFFC000000001
310
FFFFFF0003FFFFFFFFFFE000000000FFF000FFE000000003FFF0001FFFFE0001
310
FFFFC0007F80007FFFC000000007FFFFFE000000003FFFF80000000000000000
310
7F80000000000001FFFFE000000003FFFFFFFFE000000003FFFFFF0003FFFFFF
310
FFFFF000000003FFF000FFF80000000FFFF0001FFFFE0001FFFFE0007F80007F
310
FFF00000000FFFFFFF00000000FFFFF800000000000000007F80000000000001
310
FFFFF80000000FFFFFFFFFF80000000FFFFFFF0003FFFFFFFFFFFC0000000FFF
310
F000FFFE0000003FFFF0001FFFFE0003FFFFE0003F80007FFFFC0000003FFFFF
310
FFC0000003FFFFF800000000000000007F80000000000001FFFFFE0000003FFF
310
FFFFFFFE0000003FFFFFFF0003FFFFFFFFFFFF0000003FFFF000FFFF800000FF
310
FFF0001FFFFF0003FFFFE0003F80007FFFFF000001FFFFFFFFF800001FFFFFF8
310
00000000000000007F80000000000001FFFFFFC00001FFFFFFFFFFFFC00001FF
310
FFFFFF0003FFFFFFFFFFFFC00000FFFFF000FFFFF8000FFFFFFFFFFFFFFFFFFF
310
FFFFFFFFFFFFFFFFFFFFF0001FFFFFFFFFFF0000FFFFFFF80000000000000000
310
7FFFFFFFFFFFFFFFFFFFFFFC001FFFFFFFFFFFFFFC001FFFFFFFFFFFFFFFFFFF
310
FFFFFFFC001FFFFFF000FFFFFFFFFFFFFFFFFFFFFFFFFFFFFFFFFFFFFFFFFFFF
310
FFFFFFFFFFFFFFFFFFFFFFFFFFFFFFFFFFFFFFFFFFFFFFFFFFFFFFFFFFFFFFFF
310
FFFFFFFFFFFFFFFFFFFFFFFFFFFFFFFFFFFFFFFFFFFFFFFFFFFFFFFFFFFFFFFF
310
F000FFFFFFFFFFFFFFFFFFFFFFFFFFFFFFFFFFFFFFFFFFFFFFFFFFFFFFFFFFFF
310
FFFFFFFFFFFFFFFFFFFFFFFFFFFFFFFFFFFFFFFFFFFFFFFFFFFFFFFFFFFFFFFF
310
FFFFFFFFFFFFFFFFFFFFFFFFFFFFFFFFFFFFFFFFFFFFFFFFF000FFFFFFFFFFFF
310
FFFFFFFFFFFFFFFFFFFFFFFFFFFFFFFFFFFFFFFFFFFFFFFFFFFFFFFFFFFFFFFF
310
FFFFFFFFFFFFFFFFFFFFFFFFFFFFFFFFFFFFFFFFFFFFFFFFFFFFFFFFFFFFFFFF
310
FFFFFFFFFFFFFFFFFFFFFFFFFFFFFFFFF000FFFFFFFFFFFFFFFFFFFFFFFFFFFF
310
FFFFFFFFFFFFFFFFFFFFFFFFFFFFFFFFFFFFFFFFFFFFFFFFFFFFFFFFFFFFFFFF
310
FFFFFFFFFFFFFFFFFFFFFFFFFFFFFFFFFFFFFFFFFFFFFFFFFFFFFFFFFFFFFFFF
310
FFFFFFFFFFFFFFFFF000FFFFFFFFFFFFFFFFFFFFFFFFFFFFFFFFFFFFFFFFFFFF
310
FFFFFFFFFFFFFFFFFFFFFFFFFFFFFFFFFFFFFFFFFFFFFFFFFFFFFFFFFFFFFFFF
310
FFFFFFFFFFFFFFFFFFFFFFFFFFFFFFFFFFFFFFFFFFFFFFFFFFFFFFFFFFFFFFFF
310
F000FFFFFFFFFFFFFFFFFFFFFFFFFFFFFFFFFFFFFFFFFFFFFFFFFFFFFFFFFFFF
310
FFFFFFFFFFFFFFFFFFFFFFFFFFFFFFFFFFFFFFFFFFFFFFFFFFFFFFFFFFFFFFFF
310
FFFFFFFFFFFFFFFFFFFFFFFFFFFFFFFFFFFFFFFFFFFFFFFFF000FFFFFFFFFFFF
310
FFFFFFFFFFFFFFFFFFFFFFFFFFFFFFFFFFFFFFFFFFFFFFFFFFFFFFFFFFFFFFFF
310
FFFFFFFFFFFFFFFFFFFFFFFFFFFFFFFFFFFFFFFFFFFFFFFFFFFFFFFFFFFFFFFF
310
FFFFFFFFFFFFFFFFFFFFFFFFFFFFFFFFF000FFFFFFFFFFFFFFFFFFFFFFFFFFFF
310
FFFFFFFFFFFFFFFFFFFFFFFFFFFFFFFFFFFFFFFFFFFFFFFFFFFFFFFFFFFFFFFF
310
FFFFFFFFFFFFFFFFFFFFFFFFFFFFFFFFFFFFFFFFFFFFFFFFFFFFFFFFFFFFFFFF
310
FFFFFFFFFFFFFFFFF000FFFFFFFFFFFFFFFFFFFFFFFFFFFFFFFFFFFFFFFFFFFF
310
FFFFFFFFFFFFFFFFFFFFFFFFFFFFFFFFFFFFFFFFFFFFFFFFFFFFFFFFFFFFFFFF
310
FFFFFFFFFFFFFFFFFFFFFFFFFFFFFFFFFFFFFFFFFFFFFFFFFFFFFFFFFFFFFFFF
310
F000FFFFFFFFFFFFFFFFFFFFFFFFFFFFFFFFFFFFFFFFFFFFFFFFFFFFFFFFFFFF
310
FFFFFFFFFFFFFFFFFFFFFFFFFFFFFFFFFFFFFFFFFFFFFFFFFFFFFFFFFFFFFFFF
310
FFFFFFFFFFFFFFFFFFFFFFFFFFFFFFFFFFFFFFFFFFFFFFFFF000FFFFFFFFFFFF
310
FFFFFFFFFFFFFFFFFFFFFFFFFFFFFFFFFFFFFFFFFFFFFFFFFFFFFFFFFFFFFFFF
310
FFFFFFFFFFFFFFFFFFFFFFFFFFFFFFFFFFFFFFFFFFFFFFFFFFFFFFFFFFFFFFFF
310
FFFFFFFFFFFFFFFFFFFFFFFFFFFFFFFFF000FFFFFFFFFFFFFFFFFFFFFFFFFFFF
310
FFFFFFFFFFFFFFFFFFFFFFFFFFFFFFFFFFFFFFFFFFFFFFFFFFFFFFFFFFFFFFFF
310
FFFFFFFFFFFFFFFFFFFFFFFFFFFFFFFFFFFFFFFFFFFFFFFFFFFFFFFFFFFFFFFF
310
FFFFFFFFFFFFFFFFF000FFFFFFFFFFFFFFFFFFFFFFFFFFFFFFFFFFFFFFFFFFFF
310
FFFFFFFFFFFFFFFFFFFFFFFFFFFFFFFFFFFFFFFFFFFFFFFFFFFFFFFFFFFFFFFF
310
FFFFFFFFFFFFFFFFFFFFFFFFFFFFFFFFFFFFFFFFFFFFFFFFFFFFFFFFFFFFFFFF
310
F000FFFFFFFFFFFFFFFFFFFFFFFFFFFFFFFFFFFFFFFFFFFFFFFFFFFFFFFFFFFF
310
FFFFFFFFFFFFFFFFFFFFFFFFFFFFFFFFFFFFFFFFFFFFFFFFFFFFFFFFFFFFFFFF
310
FFFFFFFFFFFFFFFFFFFFFFFFFFFFFFFFFFFFFFFFFFFFFFFFF000FFFFFFFFFFFF
310
FFFFFFFFFFFFFFFFFFFFFFFFFFFFFFFFFFFFFFFFFFFFFFFFFFFFFFFFFFFFFFFF
310
FFFFFFFFFFFFFFFFFFFFFFFFFFFFFFFFFFFFFFFFFFFFFFFFFFFFFFFFFFFFFFFF
310
FFFFFFFFFFFFFFFFFFFFFFFFFFFFFFFFF000FFFFFFFFFFFFFFFFFFFFFFFFFFFF
310
FFFFFFFFFFFFFFFFFFFFFFFFFFFFFFFFFFFFFFFFFFFFFFFFFFFFFFFFFFFFFFFF
310
FFFFFFFFFFFFFFFFFFFFFFFFFFFFFFFFFFFFFFFFFFFFFFFFFFFFFFFFFFFFFFFF
310
FFFFFFFFFFFFFFFFF000FFFFFFFFFFFFFFFFFFFFFFFFFFFFFFFFFFFFFFFFFFFF
310
FFFFFFFFFFFFFFFFFFFFFFFFFFFFFFFFFFFFFFFFFFFFFFFFFFFFFFFFFFFFFFFF
310
FFFFFFFFFFFFFFFFFFFFFFFFFFFFFFFFFFFFFFFFFFFFFFFFFFFFFFFFFFFFFFFF
310
F000FFFFFFFFFFFFFFFFFFFFFFFFFFFFFFFFFFFFFFFFFFFFFFFFFFFFFFFFFFFF
310
FFFFFFFFFFFFFFFFFFFFFFFFFFFFFFFFFFFFFFFFFFFFFFFFFFFFFFFFFFFFFFFF
310
FFFFFFFFFFFFFFFFFFFFFFFFFFFFFFFFFFFFFFFFFFFFFFFFF000FFFFFFFFFFFF
310
FFFFFFFFFFFFFFFFFFFFFFFFFFFFFFFFFFFFFFFFFFFFFFFFFFFFFFFFFFFFFFFF
310
FFFFFFFFFFFFFFFFFFFFFFFFFFFFFFFFFFFFFFFFFFFFFFFFFFFFFFFFFFFFFFFF
310
FFFFFFFFFFFFFFFFFFFFFFFFFFFFFFFFF000FFFFFFFFFFFFFFFFFFFFFFFFFFFF
310
FFFFFFFFFFFFFFFFFFFFFFFFFFFFFFFFFFFFFFFFFFFFFFFFFFFFFFFFFFFFFFFF
310
FFFFFFFFFFFFFFFFFFFFFFFFFFFFFFFFFFFFFFFFFFFFFFFFFFFFFFFFFFFFFFFF
310
FFFFFFFFFFFFFFFFF000FFFFFFFFFFFFFFFFFFFFFFFFFFFFFFFFFFFFFFFFFFFF
310
FFFFFFFFFFFFFFFFFFFFFFFFFFFFFFFFFFFFFFFFFFFFFFFFFFFFFFFFFFFFFFFF
310
FFFFFFFFFFFFFFFFFFFFFFFFFFFFFFFFFFFFFFFFFFFFFFFFFFFFFFFFFFFFFFFF
310
F000FFFFFFFFFFFFFFFFFFFFFFFFFFFFFFFFFFFFFFFFFFFFFFFFFFFFFFFFFFFF
310
FFFFFFFFFFFFFFFFFFFFFFFFFFFFFFFFFFFFFFFFFFFFFFFFFFFFFFFFFFFFFFFF
310
FFFFFFFFFFFFFFFFFFFFFFFFFFFFFFFFFFFFFFFFFFFFFFFFF000FFFFFFFFFFFF
310
FFFFFFFFFFFFFFFFFFFFFFFFFFFFFFFFFFFFFFFFFFFFFFFFFFFFFFFFFFFFFFFF
310
FFFFFFFFFFFFFFFFFFFFFFFFFFFFFFFFFFFFFFFFFFFFFFFFFFFFFFFFFFFFFFFF
310
FFFFFFFFFFFFFFFFFFFFFFFFFFFFFFFFF0000000000000000000000000000000
310
0000000000000000000000000000000000000000000000000000000000000000
310
0000000000000000000000000000000000000000000000000000000000000000
310
0000000000000000000000000000000000000000000000000000000000000000
310
0000000000000000000000000000000000000000000000000000000000000000
310
0000000000000000000000000000000000000000000000000000000000000000
310
0000000000000000000000000000000000000000000000000000000000000000
310
0000000000000000000000000000000000000000000000000000000000000000
310
0000000000000000000000000000000000000000000000000000000000000000
310
0000000000000000000000000000000000000000000000000000000000000000
310
0000000000000000000000000000000000000000000000000000000000000000
310
0000000000000000000000000000000000000000000000000000000000000000
310
0000000000000000000000000000000000000000000000000000000000000000
310
0000000000000000000000000000000000000000000000000000000000000000
310
0000000000000000000000000000000000000000000000000000000000000000
310
0000000000000000000000000000000000000000000000000000000000000000
  1
OLE
  0
ENDSEC
  0
SECTION
  2
OBJECTS
  0
DICTIONARY
  5
C
330
0
100
AcDbDictionary
281
     1
  3
ACAD_GROUP
350
D
  3
ACAD_LAYOUT
350
1A
  3
ACAD_MLINESTYLE
350
17
  3
ACAD_PLOTSETTINGS
350
19
  3
ACAD_PLOTSTYLENAME
350
E
  3
ACAD_SCALELIST
350
47
  0
DICTIONARY
  5
D
102
{ACAD_REACTORS
330
C
102
}
330
C
100
AcDbDictionary
281
     1
  0
DICTIONARY
  5
1A
102
{ACAD_REACTORS
330
C
102
}
330
C
100
AcDbDictionary
281
     1
  3
Layout1
350
1E
  3
Layout2
350
26
  3
Model
350
22
  0
DICTIONARY
  5
17
102
{ACAD_REACTORS
330
C
102
}
330
C
100
AcDbDictionary
281
     1
  3
Standard
350
18
  0
DICTIONARY
  5
19
102
{ACAD_REACTORS
330
C
102
}
330
C
100
AcDbDictionary
281
     1
  0
ACDBDICTIONARYWDFLT
  5
E
102
{ACAD_REACTORS
330
C
102
}
330
C
100
AcDbDictionary
281
     1
  3
Normal
350
F
100
AcDbDictionaryWithDefault
340
F
  0
DICTIONARY
  5
47
102
{ACAD_REACTORS
330
C
102
}
330
C
100
AcDbDictionary
281
     1
  3
A0
350
48
  3
A1
350
49
  3
A2
350
4A
  3
A3
350
4B
  3
A4
350
4C
  3
A5
350
4D
  3
A6
350
4E
  3
A7
350
4F
  3
A8
350
50
  3
A9
350
51
  3
B0
350
52
  3
B1
350
53
  3
B2
350
54
  3
B3
350
55
  3
B4
350
56
  3
B5
350
57
  3
B6
350
58
  3
B7
350
59
  3
B8
350
5A
  3
B9
350
5B
  3
C0
350
5C
  3
C1
350
5D
  3
C2
350
5E
  3
C3
350
5F
  3
C4
350
60
  3
C5
350
61
  3
C6
350
62
  3
C7
350
63
  3
C8
350
64
  3
C9
350
65
  3
D0
350
66
  3
D1
350
67
  3
D2
350
68
  0
LAYOUT
  5
1E
102
{ACAD_REACTORS
330
1A
102
}
330
1A
100
AcDbPlotSettings
  1

  2
none_device
  4

  6

 40
0.0
 41
0.0
 42
0.0
 43
0.0
 44
0.0
 45
0.0
 46
0.0
 47
0.0
 48
0.0
 49
0.0
140
0.0
141
0.0
142
1.0
143
1.0
 70
   688
 72
     1
 73
     0
 74
     5
  7

 75
    16
147
1.0
148
0.0
149
0.0
100
AcDbLayout
  1
Layout1
 70
     1
 71
     1
 10
0.0
 20
0.0
 11
420.0
 21
297.0
 12
0.0
 22
0.0
 32
0.0
 14
1.0000000000E+20
 24
1.0000000000E+20
 34
1.0000000000E+20
 15
-1.0000000000E+20
 25
-1.0000000000E+20
 35
-1.0000000000E+20
146
0.0
 13
0.0
 23
0.0
 33
0.0
 16
1.0
 26
0.0
 36
0.0
 17
0.0
 27
1.0
 37
0.0
 76
     0
330
1B
  0
LAYOUT
  5
26
102
{ACAD_REACTORS
330
1A
102
}
330
1A
100
AcDbPlotSettings
  1

  2
none_device
  4

  6

 40
0.0
 41
0.0
 42
0.0
 43
0.0
 44
0.0
 45
0.0
 46
0.0
 47
0.0
 48
0.0
 49
0.0
140
0.0
141
0.0
142
1.0
143
1.0
 70
   688
 72
     1
 73
     0
 74
     5
  7

 75
    16
147
1.0
148
0.0
149
0.0
100
AcDbLayout
  1
Layout2
 70
     1
 71
     2
 10
0.0
 20
0.0
 11
0.0
 21
0.0
 12
0.0
 22
0.0
 32
0.0
 14
0.0
 24
0.0
 34
0.0
 15
0.0
 25
0.0
 35
0.0
146
0.0
 13
0.0
 23
0.0
 33
0.0
 16
1.0
 26
0.0
 36
0.0
 17
0.0
 27
1.0
 37
0.0
 76
     0
330
23
  0
LAYOUT
  5
22
102
{ACAD_REACTORS
330
1A
102
}
330
1A
100
AcDbPlotSettings
  1

  2
none_device
  4
Letter_(8.50_x_11.00_Inches)
  6

 40
6.35
 41
6.35
 42
6.35000508
 43
6.35000508
 44
215.9
 45
279.4
 46
0.0
 47
0.0
 48
0.0
 49
0.0
140
0.0
141
0.0
142
1.0
143
1.0
 70
  1712
 72
     1
 73
     0
 74
     0
  7

 75
     0
147
1.0
148
0.0
149
0.0
100
AcDbLayout
  1
Model
 70
     1
 71
     0
 10
0.0
 20
0.0
 11
297.0
 21
210.0
 12
0.0
 22
0.0
 32
0.0
 14
0.0
 24
0.0
 34
0.0
 15
297.0
 25
210.0
 35
0.0
146
0.0
 13
0.0
 23
0.0
 33
0.0
 16
1.0
 26
0.0
 36
0.0
 17
0.0
 27
1.0
 37
0.0
 76
     0
330
1F
331
29
  0
MLINESTYLE
  5
18
102
{ACAD_REACTORS
330
17
102
}
330
17
100
AcDbMlineStyle
  2
Standard
 70
     0
  3

 62
   256
 51
90.0
 52
90.0
 71
     2
 49
0.5
 62
   256
  6
BYLAYER
 49
-0.5
 62
   256
  6
BYLAYER
  0
ACDBPLACEHOLDER
  5
F
102
{ACAD_REACTORS
330
E
102
}
330
E
  0
SCALE
  5
48
102
{ACAD_REACTORS
330
47
102
}
330
47
100
AcDbScale
 70
     0
300
1:1
140
1.0
141
1.0
290
     1
  0
SCALE
  5
49
102
{ACAD_REACTORS
330
47
102
}
330
47
100
AcDbScale
 70
     0
300
1:2
140
1.0
141
2.0
290
     0
  0
SCALE
  5
4A
102
{ACAD_REACTORS
330
47
102
}
330
47
100
AcDbScale
 70
     0
300
1:4
140
1.0
141
4.0
290
     0
  0
SCALE
  5
4B
102
{ACAD_REACTORS
330
47
102
}
330
47
100
AcDbScale
 70
     0
300
1:5
140
1.0
141
5.0
290
     0
  0
SCALE
  5
4C
102
{ACAD_REACTORS
330
47
102
}
330
47
100
AcDbScale
 70
     0
300
1:8
140
1.0
141
8.0
290
     0
  0
SCALE
  5
4D
102
{ACAD_REACTORS
330
47
102
}
330
47
100
AcDbScale
 70
     0
300
1:10
140
1.0
141
10.0
290
     0
  0
SCALE
  5
4E
102
{ACAD_REACTORS
330
47
102
}
330
47
100
AcDbScale
 70
     0
300
1:16
140
1.0
141
16.0
290
     0
  0
SCALE
  5
4F
102
{ACAD_REACTORS
330
47
102
}
330
47
100
AcDbScale
 70
     0
300
1:20
140
1.0
141
20.0
290
     0
  0
SCALE
  5
50
102
{ACAD_REACTORS
330
47
102
}
330
47
100
AcDbScale
 70
     0
300
1:30
140
1.0
141
30.0
290
     0
  0
SCALE
  5
51
102
{ACAD_REACTORS
330
47
102
}
330
47
100
AcDbScale
 70
     0
300
1:40
140
1.0
141
40.0
290
     0
  0
SCALE
  5
52
102
{ACAD_REACTORS
330
47
102
}
330
47
100
AcDbScale
 70
     0
300
1:50
140
1.0
141
50.0
290
     0
  0
SCALE
  5
53
102
{ACAD_REACTORS
330
47
102
}
330
47
100
AcDbScale
 70
     0
300
1:100
140
1.0
141
100.0
290
     0
  0
SCALE
  5
54
102
{ACAD_REACTORS
330
47
102
}
330
47
100
AcDbScale
 70
     0
300
2:1
140
2.0
141
1.0
290
     0
  0
SCALE
  5
55
102
{ACAD_REACTORS
330
47
102
}
330
47
100
AcDbScale
 70
     0
300
4:1
140
4.0
141
1.0
290
     0
  0
SCALE
  5
56
102
{ACAD_REACTORS
330
47
102
}
330
47
100
AcDbScale
 70
     0
300
8:1
140
8.0
141
1.0
290
     0
  0
SCALE
  5
57
102
{ACAD_REACTORS
330
47
102
}
330
47
100
AcDbScale
 70
     0
300
10:1
140
10.0
141
1.0
290
     0
  0
SCALE
  5
58
102
{ACAD_REACTORS
330
47
102
}
330
47
100
AcDbScale
 70
     0
300
100:1
140
100.0
141
1.0
290
     0
  0
SCALE
  5
59
102
{ACAD_REACTORS
330
47
102
}
330
47
100
AcDbScale
 70
     0
300
1/128" = 1'-0"
140
0.0078125
141
12.0
290
     0
  0
SCALE
  5
5A
102
{ACAD_REACTORS
330
47
102
}
330
47
100
AcDbScale
 70
     0
300
1/64" = 1'-0"
140
0.015625
141
12.0
290
     0
  0
SCALE
  5
5B
102
{ACAD_REACTORS
330
47
102
}
330
47
100
AcDbScale
 70
     0
300
1/32" = 1'-0"
140
0.03125
141
12.0
290
     0
  0
SCALE
  5
5C
102
{ACAD_REACTORS
330
47
102
}
330
47
100
AcDbScale
 70
     0
300
1/16" = 1'-0"
140
0.0625
141
12.0
290
     0
  0
SCALE
  5
5D
102
{ACAD_REACTORS
330
47
102
}
330
47
100
AcDbScale
 70
     0
300
3/32" = 1'-0"
140
0.09375
141
12.0
290
     0
  0
SCALE
  5
5E
102
{ACAD_REACTORS
330
47
102
}
330
47
100
AcDbScale
 70
     0
300
1/8" = 1'-0"
140
0.125
141
12.0
290
     0
  0
SCALE
  5
5F
102
{ACAD_REACTORS
330
47
102
}
330
47
100
AcDbScale
 70
     0
300
3/16" = 1'-0"
140
0.1875
141
12.0
290
     0
  0
SCALE
  5
60
102
{ACAD_REACTORS
330
47
102
}
330
47
100
AcDbScale
 70
     0
300
1/4" = 1'-0"
140
0.25
141
12.0
290
     0
  0
SCALE
  5
61
102
{ACAD_REACTORS
330
47
102
}
330
47
100
AcDbScale
 70
     0
300
3/8" = 1'-0"
140
0.375
141
12.0
290
     0
  0
SCALE
  5
62
102
{ACAD_REACTORS
330
47
102
}
330
47
100
AcDbScale
 70
     0
300
1/2" = 1'-0"
140
0.5
141
12.0
290
     0
  0
SCALE
  5
63
102
{ACAD_REACTORS
330
47
102
}
330
47
100
AcDbScale
 70
     0
300
3/4" = 1'-0"
140
0.75
141
12.0
290
     0
  0
SCALE
  5
64
102
{ACAD_REACTORS
330
47
102
}
330
47
100
AcDbScale
 70
     0
300
1" = 1'-0"
140
1.0
141
12.0
290
     0
  0
SCALE
  5
65
102
{ACAD_REACTORS
330
47
102
}
330
47
100
AcDbScale
 70
     0
300
1-1/2" = 1'-0"
140
1.5
141
12.0
290
     0
  0
SCALE
  5
66
102
{ACAD_REACTORS
330
47
102
}
330
47
100
AcDbScale
 70
     0
300
3" = 1'-0"
140
3.0
141
12.0
290
     0
  0
SCALE
  5
67
102
{ACAD_REACTORS
330
47
102
}
330
47
100
AcDbScale
 70
     0
300
6" = 1'-0"
140
6.0
141
12.0
290
     0
  0
SCALE
  5
68
102
{ACAD_REACTORS
330
47
102
}
330
47
100
AcDbScale
 70
     0
300
1'-0" = 1'-0"
140
12.0
141
12.0
290
     0
  0
ENDSEC
  0
EOF
