  0
SECTION
  2
HEADER
  9
$ACADVER
  1
AC1027
  9
$ACADMAINTVER
 70
   105
  9
$DWGCODEPAGE
  3
ANSI_1252
  9
$REQUIREDVERSIONS
160
                 0
  9
$INSBASE
 10
0.0
 20
0.0
 30
0.0
  9
$EXTMIN
 10
0.0
 20
0.0
 30
0.0
  9
$EXTMAX
 10
297.0
 20
210.0
 30
0.0
  9
$LIMMIN
 10
0.0
 20
0.0
  9
$LIMMAX
 10
297.0
 20
210.0
  9
$ORTHOMODE
 70
     0
  9
$REGENMODE
 70
     1
  9
$FILLMODE
 70
     1
  9
$QTEXTMODE
 70
     0
  9
$MIRRTEXT
 70
     1
  9
$LTSCALE
 40
1.0
  9
$ATTMODE
 70
     1
  9
$TEXTSIZE
 40
2.0
  9
$TRACEWID
 40
1.0
  9
$TEXTSTYLE
  7
STANDARD
  9
$CLAYER
  8
0
  9
$CELTYPE
  6
ByLayer
  9
$CECOLOR
 62
   256
  9
$CELTSCALE
 40
1.0
  9
$DISPSILH
 70
     0
  9
$DIMSCALE
 40
1.0
  9
$DIMASZ
 40
3.0
  9
$DIMEXO
 40
0.0
  9
$DIMDLI
 40
3.75
  9
$DIMRND
 40
0.0
  9
$DIMDLE
 40
0.0
  9
$DIMEXE
 40
1.0
  9
$DIMTP
 40
0.0
  9
$DIMTM
 40
0.0
  9
$DIMTXT
 40
2.0
  9
$DIMCEN
 40
2.5
  9
$DIMTSZ
 40
0.0
  9
$DIMTOL
 70
     0
  9
$DIMLIM
 70
     0
  9
$DIMTIH
 70
     1
  9
$DIMTOH
 70
     1
  9
$DIMSE1
 70
     0
  9
$DIMSE2
 70
     0
  9
$DIMTAD
 70
     1
  9
$DIMZIN
 70
     0
  9
$DIMBLK
  1

  9
$DIMASO
 70
     1
  9
$DIMSHO
 70
     1
  9
$DIMPOST
  1

  9
$DIMAPOST
  1

  9
$DIMALT
 70
     0
  9
$DIMALTD
 70
     3
  9
$DIMALTF
 40
0.0393700787
  9
$DIMLFAC
 40
2.0
  9
$DIMTOFL
 70
     1
  9
$DIMTVP
 40
0.0
  9
$DIMTIX
 70
     0
  9
$DIMSOXD
 70
     0
  9
$DIMSAH
 70
     0
  9
$DIMBLK1
  1

  9
$DIMBLK2
  1

  9
$DIMSTYLE
  2
ISO-25
  9
$DIMCLRD
 70
     0
  9
$DIMCLRE
 70
     0
  9
$DIMCLRT
 70
     0
  9
$DIMTFAC
 40
1.0
  9
$DIMGAP
 40
1.524
  9
$DIMJUST
 70
     0
  9
$DIMSD1
 70
     0
  9
$DIMSD2
 70
     0
  9
$DIMTOLJ
 70
     0
  9
$DIMTZIN
 70
     0
  9
$DIMALTZ
 70
     0
  9
$DIMALTTZ
 70
     0
  9
$DIMUPT
 70
     0
  9
$DIMDEC
 70
     2
  9
$DIMTDEC
 70
     3
  9
$DIMALTU
 70
     2
  9
$DIMALTTD
 70
     3
  9
$DIMTXSTY
  7
STANDARD
  9
$DIMAUNIT
 70
     0
  9
$DIMADEC
 70
     2
  9
$DIMALTRND
 40
0.0
  9
$DIMAZIN
 70
     0
  9
$DIMDSEP
 70
    44
  9
$DIMATFIT
 70
     3
  9
$DIMFRAC
 70
     0
  9
$DIMLDRBLK
  1

  9
$DIMLUNIT
 70
     2
  9
$DIMLWD
 70
    -2
  9
$DIMLWE
 70
    -2
  9
$DIMTMOVE
 70
     0
  9
$DIMFXL
 40
1.0
  9
$DIMFXLON
 70
     0
  9
$DIMJOGANG
 40
0.7853981634
  9
$DIMTFILL
 70
     0
  9
$DIMTFILLCLR
 70
     0
  9
$DIMARCSYM
 70
     0
  9
$DIMLTYPE
  6

  9
$DIMLTEX1
  6

  9
$DIMLTEX2
  6

  9
$DIMTXTDIRECTION
 70
     0
  9
$LUNITS
 70
     2
  9
$LUPREC
 70
     2
  9
$SKETCHINC
 40
1.0
  9
$FILLETRAD
 40
10.0
  9
$AUNITS
 70
     0
  9
$AUPREC
 70
     2
  9
$MENU
  1
.
  9
$ELEVATION
 40
0.0
  9
$PELEVATION
 40
0.0
  9
$THICKNESS
 40
0.0
  9
$LIMCHECK
 70
     0
  9
$CHAMFERA
 40
0.0
  9
$CHAMFERB
 40
0.0
  9
$CHAMFERC
 40
0.0
  9
$CHAMFERD
 40
0.0
  9
$SKPOLY
 70
     0
  9
$TDCREATE
 40
2459073.525520278
  9
$TDUCREATE
 40
2459073.442186945
  9
$TDUPDATE
 40
2459073.525521539
  9
$TDUUPDATE
 40
2459073.442188206
  9
$TDINDWG
 40
0.0000000116
  9
$TDUSRTIMER
 40
0.0000000116
  9
$USRTIMER
 70
     1
  9
$ANGBASE
 50
0.0
  9
$ANGDIR
 70
     0
  9
$PDMODE
 70
     0
  9
$PDSIZE
 40
-1.0
  9
$PLINEWID
 40
0.0
  9
$SPLFRAME
 70
     0
  9
$SPLINETYPE
 70
     6
  9
$SPLINESEGS
 70
     8
  9
$HANDSEED
  5
331
  9
$SURFTAB1
 70
     6
  9
$SURFTAB2
 70
     6
  9
$SURFTYPE
 70
     6
  9
$SURFU
 70
     6
  9
$SURFV
 70
     6
  9
$UCSBASE
  2

  9
$UCSNAME
  2

  9
$UCSORG
 10
0.0
 20
0.0
 30
0.0
  9
$UCSXDIR
 10
1.0
 20
0.0
 30
0.0
  9
$UCSYDIR
 10
0.0
 20
1.0
 30
0.0
  9
$UCSORTHOREF
  2

  9
$UCSORTHOVIEW
 70
     0
  9
$UCSORGTOP
 10
0.0
 20
0.0
 30
0.0
  9
$UCSORGBOTTOM
 10
0.0
 20
0.0
 30
0.0
  9
$UCSORGLEFT
 10
0.0
 20
0.0
 30
0.0
  9
$UCSORGRIGHT
 10
0.0
 20
0.0
 30
0.0
  9
$UCSORGFRONT
 10
0.0
 20
0.0
 30
0.0
  9
$UCSORGBACK
 10
0.0
 20
0.0
 30
0.0
  9
$PUCSBASE
  2

  9
$PUCSNAME
  2

  9
$PUCSORG
 10
0.0
 20
0.0
 30
0.0
  9
$PUCSXDIR
 10
1.0
 20
0.0
 30
0.0
  9
$PUCSYDIR
 10
0.0
 20
1.0
 30
0.0
  9
$PUCSORTHOREF
  2

  9
$PUCSORTHOVIEW
 70
     0
  9
$PUCSORGTOP
 10
0.0
 20
0.0
 30
0.0
  9
$PUCSORGBOTTOM
 10
0.0
 20
0.0
 30
0.0
  9
$PUCSORGLEFT
 10
0.0
 20
0.0
 30
0.0
  9
$PUCSORGRIGHT
 10
0.0
 20
0.0
 30
0.0
  9
$PUCSORGFRONT
 10
0.0
 20
0.0
 30
0.0
  9
$PUCSORGBACK
 10
0.0
 20
0.0
 30
0.0
  9
$USERI1
 70
     0
  9
$USERI2
 70
     0
  9
$USERI3
 70
     0
  9
$USERI4
 70
     0
  9
$USERI5
 70
     0
  9
$USERR1
 40
0.0
  9
$USERR2
 40
0.0
  9
$USERR3
 40
0.0
  9
$USERR4
 40
0.0
  9
$USERR5
 40
0.0
  9
$WORLDVIEW
 70
     1
  9
$SHADEDGE
 70
     3
  9
$SHADEDIF
 70
    70
  9
$TILEMODE
 70
     1
  9
$MAXACTVP
 70
    64
  9
$PINSBASE
 10
0.0
 20
0.0
 30
0.0
  9
$PLIMCHECK
 70
     0
  9
$PEXTMIN
 10
1.0000000000E+20
 20
1.0000000000E+20
 30
1.0000000000E+20
  9
$PEXTMAX
 10
-1.0000000000E+20
 20
-1.0000000000E+20
 30
-1.0000000000E+20
  9
$PLIMMIN
 10
0.0
 20
0.0
  9
$PLIMMAX
 10
420.0
 20
297.0
  9
$UNITMODE
 70
     0
  9
$VISRETAIN
 70
     1
  9
$PLINEGEN
 70
     0
  9
$PSLTSCALE
 70
     1
  9
$TREEDEPTH
 70
  3020
  9
$CMLSTYLE
  2
Standard
  9
$CMLJUST
 70
     0
  9
$CMLSCALE
 40
20.0
  9
$PROXYGRAPHICS
 70
     1
  9
$MEASUREMENT
 70
     1
  9
$CELWEIGHT
370
    -1
  9
$ENDCAPS
280
     0
  9
$JOINSTYLE
280
     0
  9
$LWDISPLAY
290
     1
  9
$INSUNITS
 70
     4
  9
$HYPERLINKBASE
  1

  9
$STYLESHEET
  1

  9
$XEDIT
290
     1
  9
$CEPSNTYPE
380
     0
  9
$PSTYLEMODE
290
     1
  9
$FINGERPRINTGUID
  2
{C1007923-B063-4433-AEDE-BFF07C4FD401}
  9
$VERSIONGUID
  2
{FAEB1C32-E019-11D5-929B-00C0DF256EC4}
  9
$EXTNAMES
290
     1
  9
$PSVPSCALE
 40
0.0
  9
$OLESTARTUP
290
     0
  9
$SORTENTS
280
   127
  9
$INDEXCTL
280
     0
  9
$HIDETEXT
280
     1
  9
$XCLIPFRAME
280
     2
  9
$HALOGAP
280
     0
  9
$OBSCOLOR
 70
   257
  9
$OBSLTYPE
280
     0
  9
$INTERSECTIONDISPLAY
280
     0
  9
$INTERSECTIONCOLOR
 70
   257
  9
$DIMASSOC
280
     2
  9
$PROJECTNAME
  1

  9
$CAMERADISPLAY
290
     0
  9
$LENSLENGTH
 40
50.0
  9
$CAMERAHEIGHT
 40
0.0
  9
$STEPSPERSEC
 40
2.0
  9
$STEPSIZE
 40
6.0
  9
$3DDWFPREC
 40
2.0
  9
$PSOLWIDTH
 40
5.0
  9
$PSOLHEIGHT
 40
80.0
  9
$LOFTANG1
 40
1.5707963268
  9
$LOFTANG2
 40
1.5707963268
  9
$LOFTMAG1
 40
0.0
  9
$LOFTMAG2
 40
0.0
  9
$LOFTPARAM
 70
     7
  9
$LOFTNORMALS
280
     1
  9
$LATITUDE
 40
37.795
  9
$LONGITUDE
 40
-122.394
  9
$NORTHDIRECTION
 40
0.0
  9
$TIMEZONE
 70
 -8000
  9
$LIGHTGLYPHDISPLAY
280
     1
  9
$TILEMODELIGHTSYNCH
280
     1
  9
$CMATERIAL
347
44
  9
$SOLIDHIST
280
     0
  9
$SHOWHIST
280
     1
  9
$DWFFRAME
280
     2
  9
$DGNFRAME
280
     2
  9
$REALWORLDSCALE
290
     1
  9
$INTERFERECOLOR
 62
   256
  9
$CSHADOW
280
     0
  9
$SHADOWPLANELOCATION
 40
0.0
  0
ENDSEC
  0
SECTION
  2
CLASSES
  0
CLASS
  1
ACDBDICTIONARYWDFLT
  2
AcDbDictionaryWithDefault
  3
ObjectDBX Classes
 90
        0
 91
        4
280
     0
281
     0
  0
CLASS
  1
VISUALSTYLE
  2
AcDbVisualStyle
  3
ObjectDBX Classes
 90
     4095
 91
        4
280
     0
281
     0
  0
CLASS
  1
MATERIAL
  2
AcDbMaterial
  3
ObjectDBX Classes
 90
     1153
 91
        4
280
     0
281
     0
  0
CLASS
  1
SCALE
  2
AcDbScale
  3
ObjectDBX Classes
 90
     1153
 91
        4
280
     0
281
     0
  0
CLASS
  1
TABLESTYLE
  2
AcDbTableStyle
  3
ObjectDBX Classes
 90
     4095
 91
        4
280
     0
281
     0
  0
CLASS
  1
MLEADERSTYLE
  2
AcDbMLeaderStyle
  3
ACDB_MLEADERSTYLE_CLASS
 90
     4095
 91
        4
280
     0
281
     0
  0
CLASS
  1
SUN
  2
AcDbSun
  3
SCENEOE
 90
     1153
 91
        4
280
     0
281
     0
  0
CLASS
  1
DICTIONARYVAR
  2
AcDbDictionaryVar
  3
ObjectDBX Classes
 90
        0
 91
        4
280
     0
281
     0
  0
CLASS
  1
CELLSTYLEMAP
  2
AcDbCellStyleMap
  3
ObjectDBX Classes
 90
     1152
 91
        4
280
     0
281
     0
  0
ENDSEC
  0
SECTION
  2
TABLES
  0
TABLE
  2
VPORT
  5
8
330
0
100
AcDbSymbolTable
 70
     1
  0
VPORT
  5
29
330
8
100
AcDbSymbolTableRecord
100
AcDbViewportTableRecord
  2
*Active
 70
     0
 10
0.0
 20
0.0
 11
1.0
 21
1.0
 12
148.5
 22
105.0
 13
0.0
 23
0.0
 14
10.0
 24
10.0
 15
10.0
 25
10.0
 16
0.0
 26
0.0
 36
1.0
 17
0.0
 27
0.0
 37
0.0
 40
210.0
 41
1.4142857143
 42
50.0
 43
0.0
 44
0.0
 50
0.0
 51
0.0
 71
     0
 72
  2000
 73
     1
 74
     3
 75
     0
 76
     0
 77
     0
 78
     0
281
     0
 65
     1
110
0.0
120
0.0
130
0.0
111
1.0
121
0.0
131
0.0
112
0.0
122
1.0
132
0.0
 79
     0
146
0.0
348
2F
 60
     3
 61
     5
292
     1
282
     1
141
0.0
142
0.0
 63
   250
361
6D
  0
ENDTAB
  0
TABLE
  2
LTYPE
  5
5
330
0
100
AcDbSymbolTable
 70
     6
  0
LTYPE
  5
14
330
5
100
AcDbSymbolTableRecord
100
AcDbLinetypeTableRecord
  2
ByBlock
 70
     0
  3

 72
    65
 73
     0
 40
0.0
  0
LTYPE
  5
15
330
5
100
AcDbSymbolTableRecord
100
AcDbLinetypeTableRecord
  2
ByLayer
 70
     0
  3

 72
    65
 73
     0
 40
0.0
  0
LTYPE
  5
16
330
5
100
AcDbSymbolTableRecord
100
AcDbLinetypeTableRecord
  2
Continuous
 70
     0
  3
Solid line
 72
    65
 73
     0
 40
0.0
  0
LTYPE
  5
6E
330
5
100
AcDbSymbolTableRecord
100
AcDbLinetypeTableRecord
  2
HIDDEN
 70
     0
  3
Hidden __ __ __ __ __ __ __ __ __ __ __ __ __ __
 72
    65
 73
     2
 40
1.905
 49
1.27
 74
     0
 49
-0.635
 74
     0
  0
LTYPE
  5
6F
330
5
100
AcDbSymbolTableRecord
100
AcDbLinetypeTableRecord
  2
PHANTOM
 70
     0
  3
Phantom ______  __  __  ______  __  __  ______
 72
    65
 73
     6
 40
12.7
 49
6.35
 74
     0
 49
-1.27
 74
     0
 49
1.27
 74
     0
 49
-1.27
 74
     0
 49
1.27
 74
     0
 49
-1.27
 74
     0
  0
LTYPE
  5
70
330
5
100
AcDbSymbolTableRecord
100
AcDbLinetypeTableRecord
  2
CENTER
 70
     0
  3
Center ____ _ ____ _ ____ _ ____ _ ____ _ ____
 72
    65
 73
     4
 40
10.16
 49
6.35
 74
     0
 49
-1.27
 74
     0
 49
1.27
 74
     0
 49
-1.27
 74
     0
  0
LTYPE
  5
71
330
5
100
AcDbSymbolTableRecord
100
AcDbLinetypeTableRecord
  2
CENTERX2
 70
     0
  3
Center (2x) ________  __  ________  __  _____
 72
    65
 73
     4
 40
20.32
 49
12.7
 74
     0
 49
-2.54
 74
     0
 49
2.54
 74
     0
 49
-2.54
 74
     0
  0
LTYPE
  5
72
330
5
100
AcDbSymbolTableRecord
100
AcDbLinetypeTableRecord
  2
DOT2
 70
     0
  3
Dot (.5x) ........................................
 72
    65
 73
     2
 40
0.635
 49
0.0
 74
     0
 49
-0.635
 74
     0
  0
ENDTAB
  0
TABLE
  2
LAYER
  5
2
330
0
100
AcDbSymbolTable
 70
     5
  0
LAYER
  5
10
330
2
100
AcDbSymbolTableRecord
100
AcDbLayerTableRecord
  2
0
 70
     0
 62
     7
  6
Continuous
370
    -3
390
F
347
46
348
0
  0
LAYER
  5
73
330
2
100
AcDbSymbolTableRecord
100
AcDbLayerTableRecord
  2
FORMAT
 70
     0
 62
     7
  6
Continuous
370
    -3
390
F
347
46
348
0
  0
LAYER
  5
74
330
2
100
AcDbSymbolTableRecord
100
AcDbLayerTableRecord
  2
VERMASSUNG
 70
     0
 62
     7
  6
Continuous
370
    -3
390
F
347
46
348
0
  0
LAYER
  5
75
330
2
100
AcDbSymbolTableRecord
100
AcDbLayerTableRecord
  2
KOPF_DÜNN
 70
     0
 62
     7
  6
Continuous
370
    -3
390
F
347
46
348
0
  0
LAYER
  5
76
330
2
100
AcDbSymbolTableRecord
100
AcDbLayerTableRecord
  2
KOPF_DICK
 70
     0
 62
     7
  6
Continuous
370
    25
390
F
347
46
348
0
  0
ENDTAB
  0
TABLE
  2
STYLE
  5
3
330
0
100
AcDbSymbolTable
 70
     2
  0
STYLE
  5
11
330
3
100
AcDbSymbolTableRecord
100
AcDbTextStyleTableRecord
  2
STANDARD
 70
     0
 40
0.0
 41
1.0
 50
0.0
 71
     0
 42
2.0
  3
ISOCPEUR.TTF
  4

1001
ACAD
1000
ISOCPEUR
1071
       34
  0
STYLE
  5
77
330
3
100
AcDbSymbolTableRecord
100
AcDbTextStyleTableRecord
  2
SLDTEXTSTYLE0
 70
     0
 40
0.0
 41
1.0
 50
0.0
 71
     0
 42
2.0
  3
ISOCPEUR.TTF
  4

1001
ACAD
1000
ISOCPEUR
1071
      290
  0
ENDTAB
  0
TABLE
  2
VIEW
  5
6
330
0
100
AcDbSymbolTable
 70
     0
  0
ENDTAB
  0
TABLE
  2
UCS
  5
7
330
0
100
AcDbSymbolTable
 70
     0
  0
ENDTAB
  0
TABLE
  2
APPID
  5
9
330
0
100
AcDbSymbolTable
 70
     1
  0
APPID
  5
12
330
9
100
AcDbSymbolTableRecord
100
AcDbRegAppTableRecord
  2
ACAD
 70
     0
  0
ENDTAB
  0
TABLE
  2
DIMSTYLE
  5
A
330
0
100
AcDbSymbolTable
 70
     3
100
AcDbDimStyleTable
  0
DIMSTYLE
105
27
330
A
100
AcDbSymbolTableRecord
100
AcDbDimStyleTableRecord
  2
ISO-25
 70
     0
 41
2.5
 42
0.625
 43
3.75
 44
1.25
 73
     0
 74
     0
 77
     1
 78
     8
140
2.5
141
2.5
143
0.0393700787
147
0.625
171
     3
172
     1
178
     0
271
     2
272
     2
274
     3
278
    44
283
     0
284
     8
340
11
  0
DIMSTYLE
105
1B3
102
{ACAD_REACTORS
330
1B2
102
}
330
A
100
AcDbSymbolTableRecord
100
AcDbDimStyleTableRecord
  2
SLDDIMSTYLE0
 70
     0
 41
3.0
 44
0.0
 45
0.000000001
 73
     0
 74
     0
 77
     1
 78
    12
 79
     3
140
2.0
147
0.5
173
     1
178
     0
271
     2
272
     3
276
     2
284
    12
340
77
  0
DIMSTYLE
105
1C1
102
{ACAD_REACTORS
330
1C0
102
}
330
A
100
AcDbSymbolTableRecord
100
AcDbDimStyleTableRecord
  2
SLDDIMSTYLE1
 70
     0
 41
3.0
 44
0.0
 73
     0
 74
     0
 77
     1
 78
    12
 79
     3
140
2.0
147
0.5
173
     1
178
     0
179
     2
272
     3
276
     2
284
    12
340
77
  0
ENDTAB
  0
TABLE
  2
BLOCK_RECORD
  5
1
330
0
100
AcDbSymbolTable
 70
     3
  0
BLOCK_RECORD
  5
1F
330
1
100
AcDbSymbolTableRecord
100
AcDbBlockTableRecord
  2
*Model_Space
340
22
 70
     0
280
     1
281
     0
  0
BLOCK_RECORD
  5
1B
330
1
100
AcDbSymbolTableRecord
100
AcDbBlockTableRecord
  2
*Paper_Space
340
1E
 70
     0
280
     1
281
     0
  0
BLOCK_RECORD
  5
23
330
1
100
AcDbSymbolTableRecord
100
AcDbBlockTableRecord
  2
*Paper_Space0
340
26
 70
     0
280
     1
281
     0
  0
BLOCK_RECORD
  5
1B4
330
1
100
AcDbSymbolTableRecord
100
AcDbBlockTableRecord
  2
_D
340
0
 70
     0
280
     1
281
     0
  0
BLOCK_RECORD
  5
1C2
330
1
100
AcDbSymbolTableRecord
100
AcDbBlockTableRecord
  2
_D_1
340
0
 70
     0
280
     1
281
     0
  0
ENDTAB
  0
ENDSEC
  0
SECTION
  2
BLOCKS
  0
BLOCK
  5
20
330
1F
100
AcDbEntity
  8
0
100
AcDbBlockBegin
  2
*Model_Space
 70
     0
 10
0.0
 20
0.0
 30
0.0
  3
*Model_Space
  1

  0
ENDBLK
  5
21
330
1F
100
AcDbEntity
  8
0
100
AcDbBlockEnd
  0
BLOCK
  5
1C
330
1B
100
AcDbEntity
 67
     1
  8
0
100
AcDbBlockBegin
  2
*Paper_Space
 70
     0
 10
0.0
 20
0.0
 30
0.0
  3
*Paper_Space
  1

  0
ENDBLK
  5
1D
330
1B
100
AcDbEntity
 67
     1
  8
0
100
AcDbBlockEnd
  0
BLOCK
  5
24
330
23
100
AcDbEntity
  8
0
100
AcDbBlockBegin
  2
*Paper_Space0
 70
     0
 10
0.0
 20
0.0
 30
0.0
  3
*Paper_Space0
  1

  0
ENDBLK
  5
25
330
23
100
AcDbEntity
  8
0
100
AcDbBlockEnd
  0
BLOCK
  5
1B5
330
1B4
100
AcDbEntity
  8
0
100
AcDbBlockBegin
  2
_D
 70
     0
 10
0.0
 20
0.0
 30
0.0
  3
_D
  1

  0
SOLID
  5
1B7
330
1B4
100
AcDbEntity
  8
VERMASSUNG
100
AcDbTrace
 10
109.3986238532
 20
63.0129046932
 30
0.0
 11
112.3986238532
 21
62.5629046932
 31
0.0
 12
112.3986238532
 22
63.4629046932
 32
0.0
 13
112.3986238532
 23
63.4629046932
 33
0.0
  0
SOLID
  5
1B8
330
1B4
100
AcDbEntity
  8
VERMASSUNG
100
AcDbTrace
 10
195.8986238532
 20
63.0129046932
 30
0.0
 11
192.8986238532
 21
63.4629046932
 31
0.0
 12
192.8986238532
 22
62.5629046932
 32
0.0
 13
192.8986238532
 23
62.5629046932
 33
0.0
  0
LINE
  5
1B9
330
1B4
100
AcDbEntity
  8
VERMASSUNG
100
AcDbLine
 10
109.3986238532
 20
80.9200709122
 30
0.0
 11
109.3986238532
 21
62.0129046932
 31
0.0
  0
LINE
  5
1BA
330
1B4
100
AcDbEntity
  8
VERMASSUNG
100
AcDbLine
 10
195.8986238532
 20
80.8165663233
 30
0.0
 11
195.8986238532
 21
62.0129046932
 31
0.0
  0
LINE
  5
1BB
330
1B4
100
AcDbEntity
  8
VERMASSUNG
100
AcDbLine
 10
109.3986238532
 20
63.0129046932
 30
0.0
 11
195.8986238532
 21
63.0129046932
 31
0.0
  0
MTEXT
  5
1BC
330
1B4
100
AcDbEntity
  8
VERMASSUNG
100
AcDbMText
 10
142.0386245542
 20
65.6129045186
 30
0.0
 40
2.0
 41
0.0
 46
0.0
 71
     1
 72
     1
  1
%%c
  7
SLDTEXTSTYLE0
 73
     1
 44
1.0
  0
MTEXT
  5
1BD
330
1B4
100
AcDbEntity
  8
VERMASSUNG
100
AcDbMText
 10
145.6486245685
 20
65.8129044699
 30
0.0
 40
2.0
 41
0.0
 46
0.0
 71
     1
 72
     1
  1
86.5 - 
  7
SLDTEXTSTYLE0
 73
     1
 44
1.0
  0
MTEXT
  5
1BE
330
1B4
100
AcDbEntity
  8
VERMASSUNG
100
AcDbMText
 10
154.2486248605
 20
65.6129045186
 30
0.0
 40
2.0
 41
0.0
 46
0.0
 71
     1
 72
     1
  1
%%c
  7
SLDTEXTSTYLE0
 73
     1
 44
1.0
  0
MTEXT
  5
1BF
330
1B4
100
AcDbEntity
  8
VERMASSUNG
100
AcDbMText
 10
157.8586248748
 20
65.8129044699
 30
0.0
 40
2.0
 41
0.0
 46
0.0
 71
     1
 72
     1
  1
115.5
  7
SLDTEXTSTYLE0
 73
     1
 44
1.0
  0
ENDBLK
  5
1B6
330
1B4
100
AcDbEntity
  8
0
100
AcDbBlockEnd
  0
BLOCK
  5
1C3
330
1C2
100
AcDbEntity
  8
0
100
AcDbBlockBegin
  2
_D_1
 70
     0
 10
0.0
 20
0.0
 30
0.0
  3
_D_1
  1

  0
ARC
  5
1C5
330
1C2
100
AcDbEntity
  8
VERMASSUNG
100
AcDbCircle
 10
195.8986238532
 20
82.147293578
 30
0.0
 40
10.5827391041921
100
AcDbArc
 50
180.0
 51
270.0
  0
SOLID
  5
1C6
330
1C2
100
AcDbEntity
  8
VERMASSUNG
100
AcDbTrace
 10
185.315884749
 20
82.147293578
 30
0.0
 11
185.2832038051
 21
79.1139073586
 31
0.0
 12
186.1746331531
 22
79.2378174776
 32
0.0
 13
186.1746331531
 23
79.2378174776
 33
0.0
  0
SOLID
  5
1C7
330
1C2
100
AcDbEntity
  8
VERMASSUNG
100
AcDbTrace
 10
195.8986238532
 20
71.5645544738
 30
0.0
 11
192.9891477529
 21
72.4233028778
 31
0.0
 12
192.8652376338
 22
71.5318735299
 32
0.0
 13
192.8652376338
 23
71.5318735299
 33
0.0
  0
LINE
  5
1C8
330
1C2
100
AcDbEntity
  8
VERMASSUNG
100
AcDbLine
 10
195.8986238532
 20
80.8165663233
 30
0.0
 11
195.8986238532
 21
70.5645544738
 31
0.0
  0
MTEXT
  5
1C9
330
1C2
100
AcDbEntity
  8
VERMASSUNG
100
AcDbMText
 10
188.8397615176
 20
77.9168581722
 30
0.0
 40
2.0
 41
0.0
 46
0.0
 71
     1
 72
     1
  1
90°
  7
SLDTEXTSTYLE0
 11
0.7071067811865599
 21
-0.7071067811865351
 31
0.0
 73
     1
 44
1.0
  0
ENDBLK
  5
1C4
330
1C2
100
AcDbEntity
  8
0
100
AcDbBlockEnd
  0
ENDSEC
  0
SECTION
  2
ENTITIES
  0
MTEXT
  5
78
330
1F
100
AcDbEntity
  8
KOPF_DÜNN
100
AcDbMText
 10
13.8892156294
 20
23.8770940835
 30
0.0
 40
3.0
 41
0.0
 46
0.0
 71
     1
 72
     1
  1
U14.064.087.012
  7
SLDTEXTSTYLE0
 73
     1
 44
1.0
  0
MTEXT
  5
79
330
1F
100
AcDbEntity
  8
VERMASSUNG
100
AcDbMText
 10
13.9329988022
 20
28.9162328764
 30
0.0
 40
3.0
 41
0.0
 46
0.0
 71
     1
 72
     1
  1
Wendeplattenhalter 90°_Insert holders 90°
  7
SLDTEXTSTYLE0
 73
     1
 44
1.0
  0
MTEXT
  5
7A
330
1F
100
AcDbEntity
  8
VERMASSUNG
100
AcDbMText
 10
98.8601118557
 20
13.8584013966
 30
0.0
 40
2.0
 41
0.0
 46
0.0
 71
     1
 72
     1
  1
Datum: 02.03.2018
  7
SLDTEXTSTYLE0
 73
     1
 44
1.0
  0
MTEXT
  5
7B
330
1F
100
AcDbEntity
  8
VERMASSUNG
100
AcDbMText
 10
13.933048693
 20
18.0701447943
 30
0.0
 40
2.0
 41
0.0
 46
0.0
 71
     1
 72
     1
  1
CC..12 04..
  7
SLDTEXTSTYLE0
 73
     1
 44
1.0
  0
MTEXT
  5
7C
330
1F
100
AcDbEntity
  8
VERMASSUNG
100
AcDbMText
 10
13.9808475933
 20
13.9309619479
 30
0.0
 40
2.0
 41
0.0
 46
0.0
 71
     1
 72
     1
  1
Gewicht: g
  7
SLDTEXTSTYLE0
 73
     1
 44
1.0
  0
LINE
  5
7D
330
1F
100
AcDbEntity
  8
0
  6
Continuous
 62
     7
370
    25
100
AcDbLine
 10
149.298623956
 20
123.6272919985
 30
0.0
 11
150.1486239091
 21
123.6272919985
 31
0.0
  0
LINE
  5
7E
330
1F
100
AcDbEntity
  8
0
  6
Continuous
 62
     7
370
    25
100
AcDbLine
 10
155.1486237973
 20
123.6272919985
 30
0.0
 11
155.9986237504
 21
123.6272919985
 31
0.0
  0
LINE
  5
7F
330
1F
100
AcDbEntity
  8
0
  6
Continuous
 62
     7
370
    25
100
AcDbLine
 10
189.64862433
 20
128.8451571079
 30
0.0
 11
189.64862433
 21
131.6272933098
 31
0.0
  0
LINE
  5
80
330
1F
100
AcDbEntity
  8
0
  6
Continuous
 62
     7
370
    25
100
AcDbLine
 10
189.64862433
 20
109.806481755
 30
0.0
 11
189.64862433
 21
122.3922427805
 31
0.0
  0
LINE
  5
81
330
1F
100
AcDbEntity
  8
0
  6
Continuous
 62
     7
370
    25
100
AcDbLine
 10
115.6486233764
 20
122.3922427805
 30
0.0
 11
115.6486233764
 21
109.806481755
 31
0.0
  0
LINE
  5
82
330
1F
100
AcDbEntity
  8
0
  6
Continuous
 62
     7
370
    25
100
AcDbLine
 10
115.6486233764
 20
131.6272933098
 30
0.0
 11
115.6486233764
 21
128.8451571079
 31
0.0
  0
LINE
  5
83
330
1F
100
AcDbEntity
  8
0
  6
Continuous
 62
     7
370
    25
100
AcDbLine
 10
150.1486239091
 20
123.6272919985
 30
0.0
 11
150.1486239091
 21
127.0772945197
 31
0.0
  0
LINE
  5
84
330
1F
100
AcDbEntity
  8
0
  6
Continuous
 62
     7
370
    25
100
AcDbLine
 10
155.1486237973
 20
126.3361182125
 30
0.0
 11
155.1486237973
 21
123.6272919985
 31
0.0
  0
LINE
  5
85
330
1F
100
AcDbEntity
  8
0
  6
Continuous
 62
     7
370
    25
100
AcDbLine
 10
195.8925461464
 20
82.596752857
 30
0.0
 11
193.794254034
 21
94.4967530729
 31
0.0
  0
ARC
  5
86
330
1F
100
AcDbEntity
  8
0
  6
Continuous
 62
     7
370
    25
100
AcDbCircle
 10
195.4986238532
 20
82.527293578
 30
0.0
 40
0.3999999999999966
100
AcDbArc
 50
270.0
 51
10.0
  0
LINE
  5
87
330
1F
100
AcDbEntity
  8
0
  6
Continuous
 62
     7
370
    25
100
AcDbLine
 10
183.4150476449
 20
82.127293578
 30
0.0
 11
195.4986227744
 21
82.127293578
 31
0.0
  0
ARC
  5
88
330
1F
100
AcDbEntity
  8
0
  6
Continuous
 62
     7
370
    25
100
AcDbCircle
 10
183.4150471718
 20
82.527293578
 30
0.0
 40
0.4000000000000501
100
AcDbArc
 50
190.0
 51
270.0
  0
LINE
  5
89
330
1F
100
AcDbEntity
  8
0
  6
Continuous
 62
     7
370
    25
100
AcDbLine
 10
180.9228321605
 20
94.3578342037
 30
0.0
 11
183.0211242728
 21
82.4578343079
 31
0.0
  0
ARC
  5
8A
330
1F
100
AcDbEntity
  8
0
  6
Continuous
 62
     7
370
    25
100
AcDbCircle
 10
181.3167561013
 20
94.427293578
 30
0.0
 40
0.4000000000000452
100
AcDbArc
 50
90.0
 51
190.0
  0
LINE
  5
8B
330
1F
100
AcDbEntity
  8
0
  6
Continuous
 62
     7
370
    25
100
AcDbLine
 10
193.4003343873
 20
94.8272934245
 30
0.0
 11
181.3167555325
 21
94.8272934245
 31
0.0
  0
ARC
  5
8C
330
1F
100
AcDbEntity
  8
0
  6
Continuous
 62
     7
370
    25
100
AcDbCircle
 10
193.4003327828
 20
94.427293578
 30
0.0
 40
0.3999999999999941
100
AcDbArc
 50
10.0
 51
90.0
  0
ARC
  5
8D
330
1F
100
AcDbEntity
  8
0
  6
Continuous
 62
     7
370
    25
100
AcDbCircle
 10
181.3167561013
 20
94.427293578
 30
0.0
 40
0.3800000000000523
100
AcDbArc
 50
90.0
 51
190.0
  0
LINE
  5
8E
330
1F
100
AcDbEntity
  8
0
  6
Continuous
 62
     7
370
    25
100
AcDbLine
 10
180.9425296329
 20
94.3613071056
 30
0.0
 11
183.0408198826
 21
82.461307268
 31
0.0
  0
ARC
  5
8F
330
1F
100
AcDbEntity
  8
0
  6
Continuous
 62
     7
370
    25
100
AcDbCircle
 10
183.4150471718
 20
82.527293578
 30
0.0
 40
0.3799999999999955
100
AcDbArc
 50
190.0
 51
270.0
  0
LINE
  5
90
330
1F
100
AcDbEntity
  8
0
  6
Continuous
 62
     7
370
    25
100
AcDbLine
 10
183.4150476449
 20
82.1472935775
 30
0.0
 11
195.4986227744
 21
82.1472935775
 31
0.0
  0
ARC
  5
91
330
1F
100
AcDbEntity
  8
0
  6
Continuous
 62
     7
370
    25
100
AcDbCircle
 10
195.4986238532
 20
82.527293578
 30
0.0
 40
0.3800000000000216
100
AcDbArc
 50
270.0
 51
10.0
  0
LINE
  5
92
330
1F
100
AcDbEntity
  8
0
  6
Continuous
 62
     7
370
    25
100
AcDbLine
 10
195.8728505366
 20
82.5932798969
 30
0.0
 11
193.7745584242
 21
94.493280171
 31
0.0
  0
ARC
  5
93
330
1F
100
AcDbEntity
  8
0
  6
Continuous
 62
     7
370
    25
100
AcDbCircle
 10
193.4003327828
 20
94.427293578
 30
0.0
 40
0.3800000000000523
100
AcDbArc
 50
10.0
 51
90.0
  0
LINE
  5
94
330
1F
100
AcDbEntity
  8
0
  6
Continuous
 62
     7
370
    25
100
AcDbLine
 10
193.4003343873
 20
94.8072932722
 30
0.0
 11
181.3167555325
 21
94.8072932722
 31
0.0
  0
LINE
  5
95
330
1F
100
AcDbEntity
  8
0
  6
Continuous
 62
     7
370
    25
100
AcDbLine
 10
181.3167555325
 20
94.4272931727
 30
0.0
 11
181.3167555325
 21
94.8072932722
 31
0.0
  0
LINE
  5
96
330
1F
100
AcDbEntity
  8
0
  6
Continuous
 62
     7
370
    25
100
AcDbLine
 10
193.4003343873
 20
94.4272931727
 30
0.0
 11
193.4003343873
 21
94.8072932722
 31
0.0
  0
LINE
  5
97
330
1F
100
AcDbEntity
  8
0
  6
Continuous
 62
     7
370
    25
100
AcDbLine
 10
192.8788235478
 20
93.8057815718
 30
0.0
 11
193.4003343873
 21
94.4272931727
 31
0.0
  0
LINE
  5
98
330
1F
100
AcDbEntity
  8
0
  6
Continuous
 62
     7
370
    25
100
AcDbLine
 10
182.3123561286
 20
93.5918865787
 30
0.0
 11
181.3167555325
 21
94.4272931727
 31
0.0
  0
LINE
  5
99
330
1F
100
AcDbEntity
  8
0
  6
Continuous
 62
     7
370
    25
100
AcDbLine
 10
193.4003343873
 20
94.4272931727
 30
0.0
 11
193.7745584242
 21
94.493280171
 31
0.0
  0
ARC
  5
9A
330
1F
100
AcDbEntity
  8
0
  6
Continuous
 62
     7
370
    25
100
AcDbCircle
 10
184.4391505139
 20
91.807293578
 30
0.0
 40
1.000000000295373
100
AcDbArc
 50
90.0
 51
190.0
  0
LINE
  5
9B
330
1F
100
AcDbEntity
  8
0
  6
Continuous
 62
     7
370
    25
100
AcDbLine
 10
195.4986227744
 20
82.5272935679
 30
0.0
 11
195.8728505366
 21
82.5932798969
 31
0.0
  0
LINE
  5
9C
330
1F
100
AcDbEntity
  8
0
  6
Continuous
 62
     7
370
    25
100
AcDbLine
 10
194.5030240409
 20
83.3627006566
 30
0.0
 11
195.4986227744
 21
82.5272935679
 31
0.0
  0
LINE
  5
9D
330
1F
100
AcDbEntity
  8
0
  6
Continuous
 62
     7
370
    25
100
AcDbLine
 10
181.3167555325
 20
94.4272931727
 30
0.0
 11
180.9425296329
 21
94.3613071056
 31
0.0
  0
LINE
  5
9E
330
1F
100
AcDbEntity
  8
0
  6
Continuous
 62
     7
370
    25
100
AcDbLine
 10
193.3610362999
 20
85.3209416444
 30
0.0
 11
192.186698138
 21
91.9809415998
 31
0.0
  0
ARC
  5
9F
330
1F
100
AcDbEntity
  8
0
  6
Continuous
 62
     7
370
    25
100
AcDbCircle
 10
192.3762294406
 20
85.147293578
 30
0.0
 40
1.0
100
AcDbArc
 50
270.0
 51
10.0
  0
LINE
  5
A0
330
1F
100
AcDbEntity
  8
0
  6
Continuous
 62
     7
370
    25
100
AcDbLine
 10
185.6134867363
 20
84.1472935924
 30
0.0
 11
192.3762297325
 21
84.1472935924
 31
0.0
  0
ARC
  5
A1
330
1F
100
AcDbEntity
  8
0
  6
Continuous
 62
     7
370
    25
100
AcDbCircle
 10
185.6134882055
 20
85.147293578
 30
0.0
 40
1.000000000000026
100
AcDbArc
 50
190.0
 51
270.0
  0
LINE
  5
A2
330
1F
100
AcDbEntity
  8
0
  6
Continuous
 62
     7
370
    25
100
AcDbLine
 10
183.4543420069
 20
91.6336458238
 30
0.0
 11
184.6286801689
 21
84.9736454027
 31
0.0
  0
LINE
  5
A3
330
1F
100
AcDbEntity
  8
0
  6
Continuous
 62
     7
370
    25
100
AcDbLine
 10
191.2018915706
 20
92.8072938757
 30
0.0
 11
184.4391522996
 21
92.8072938757
 31
0.0
  0
ARC
  5
A4
330
1F
100
AcDbEntity
  8
0
  6
Continuous
 62
     7
370
    25
100
AcDbCircle
 10
191.2018917491
 20
91.807293578
 30
0.0
 40
0.999999999999998
100
AcDbArc
 50
10.0
 51
90.0
  0
CIRCLE
  5
A5
330
1F
100
AcDbEntity
  8
0
  6
Continuous
 62
     7
370
    25
100
AcDbCircle
 10
188.4076899773
 20
88.477293578
 30
0.0
 40
3.800000000000011
  0
LINE
  5
A6
330
1F
100
AcDbEntity
  8
0
  6
Continuous
 62
     7
370
    25
100
AcDbLine
 10
183.4150476449
 20
82.5272935679
 30
0.0
 11
183.0408198826
 21
82.461307268
 31
0.0
  0
LINE
  5
A7
330
1F
100
AcDbEntity
  8
0
  6
Continuous
 62
     7
370
    25
100
AcDbLine
 10
183.9365584843
 20
83.1488055471
 30
0.0
 11
183.4150476449
 21
82.5272935679
 31
0.0
  0
LINE
  5
A8
330
1F
100
AcDbEntity
  8
0
  6
Continuous
 62
     7
370
    25
100
AcDbLine
 10
195.4986227744
 20
82.5272935679
 30
0.0
 11
195.4986227744
 21
82.1472935775
 31
0.0
  0
LINE
  5
A9
330
1F
100
AcDbEntity
  8
0
  6
Continuous
 62
     7
370
    25
100
AcDbLine
 10
183.4150476449
 20
82.5272935679
 30
0.0
 11
183.4150476449
 21
82.1472935775
 31
0.0
  0
SPLINE
  5
AA
330
1F
100
AcDbEntity
  8
0
  6
Continuous
 62
     7
370
    25
100
AcDbSpline
210
0.0
220
0.0
230
1.0
 70
     8
 71
     3
 72
    11
 73
     7
 74
     0
 42
0.000000001
 43
0.00000001
 40
0.0
 40
0.0
 40
0.0
 40
0.0
 40
0.3372297362607353
 40
0.6736308256143011
 40
0.9918826319152262
 40
1.0
 40
1.0
 40
1.0
 40
1.0
 10
183.9365584843204
 20
83.14880554713824
 30
0.0
 10
183.9864669572879
 20
83.20828596162191
 30
0.0
 10
184.0861612672353
 20
83.32710063425668
 30
0.0
 10
184.2420252242098
 20
83.51283907058703
 30
0.0
 10
184.3378931480696
 20
83.62711860949254
 30
0.0
 10
184.3814992080347
 20
83.67906577400066
 30
0.0
 10
184.382583766465
 20
83.6803577901847
 30
0.0
  0
SPLINE
  5
AB
330
1F
100
AcDbEntity
  8
0
  6
Continuous
 62
     7
370
    25
100
AcDbSpline
210
0.0
220
0.0
230
1.0
 70
     8
 71
     3
 72
    11
 73
     7
 74
     0
 42
0.000000001
 43
0.00000001
 40
0.0
 40
0.0
 40
0.0
 40
0.0
 40
0.0081146901468742
 40
0.3263665948030153
 40
0.6627670501503853
 40
0.9999999999999999
 40
0.9999999999999999
 40
0.9999999999999999
 40
0.9999999999999999
 10
192.4327982657001
 20
93.27422921229669
 30
0.0
 10
192.4338815702713
 20
93.27552131382738
 30
0.0
 10
192.4774512467017
 20
93.3274886433348
 30
0.0
 10
192.5733694905252
 20
93.44173890329914
 30
0.0
 10
192.7292128986141
 20
93.62748984684494
 30
0.0
 10
192.828912261039
 20
93.74630205300093
 30
0.0
 10
192.8788235478447
 20
93.80578157175847
 30
0.0
  0
SPLINE
  5
AC
330
1F
100
AcDbEntity
  8
0
  6
Continuous
 62
     7
370
    25
100
AcDbSpline
210
0.0
220
0.0
230
1.0
 70
     8
 71
     3
 72
    11
 73
     7
 74
     0
 42
0.000000001
 43
0.00000001
 40
0.0
 40
0.0
 40
0.0
 40
0.0
 40
0.3367841211531853
 40
0.6790087377132692
 40
0.9923710497541555
 40
1.0
 40
1.0
 40
1.0
 40
1.0
 10
194.503024040942
 20
83.36270065662035
 30
0.0
 10
194.4429087587347
 20
83.41314300951908
 30
0.0
 10
194.32170707693
 20
83.5148425737734
 30
0.0
 10
194.1381355179382
 20
83.66887818801641
 30
0.0
 10
194.0254124053194
 20
83.76347258666348
 30
0.0
 10
193.9745524213176
 20
83.80614082451257
 30
0.0
 10
193.9733436398552
 20
83.80715491399684
 30
0.0
  0
SPLINE
  5
AD
330
1F
100
AcDbEntity
  8
0
  6
Continuous
 62
     7
370
    25
100
AcDbSpline
210
0.0
220
0.0
230
1.0
 70
     8
 71
     3
 72
    11
 73
     7
 74
     0
 42
0.000000001
 43
0.00000001
 40
0.0
 40
0.0
 40
0.0
 40
0.0
 40
0.007626870428959
 40
0.3209881492639793
 40
0.6632168714320553
 40
1.0
 40
1.0
 40
1.0
 40
1.0
 10
182.8420346670196
 20
93.14743243773052
 30
0.0
 10
182.8408265097786
 20
93.14844637376402
 30
0.0
 10
182.7899794211309
 20
93.19111937495099
 30
0.0
 10
182.6772410044796
 20
93.28570863031926
 30
0.0
 10
182.4936725987035
 20
93.43974289532733
 30
0.0
 10
182.3724709443763
 20
93.54144389417438
 30
0.0
 10
182.312356128578
 20
93.59188657869169
 30
0.0
  0
LINE
  5
AE
330
1F
100
AcDbEntity
  8
0
  6
Continuous
 62
     7
370
    25
100
AcDbLine
 10
112.0516916804
 20
94.2428391488
 30
0.0
 11
112.0672149651
 21
94.2428391488
 31
0.0
  0
LINE
  5
AF
330
1F
100
AcDbEntity
  8
0
  6
Continuous
 62
     7
370
    25
100
AcDbLine
 10
112.0516916804
 20
94.2428391488
 30
0.0
 11
111.8969133191
 21
94.4272931727
 31
0.0
  0
LINE
  5
B0
330
1F
100
AcDbEntity
  8
0
  6
Continuous
 62
     7
370
    25
100
AcDbLine
 10
111.8969133191
 20
94.4272931727
 30
0.0
 11
111.8969133191
 21
94.5622297065
 31
0.0
  0
LINE
  5
B1
330
1F
100
AcDbEntity
  8
0
  6
Continuous
 62
     7
370
    25
100
AcDbLine
 10
111.8969133191
 20
94.4272931727
 30
0.0
 11
111.5029936724
 21
94.4967530729
 31
0.0
  0
LINE
  5
B2
330
1F
100
AcDbEntity
  8
0
  6
Continuous
 62
     7
370
    25
100
AcDbLine
 10
110.018446862
 20
82.7117480865
 30
0.0
 11
112.0516916804
 21
94.2428391488
 31
0.0
  0
LINE
  5
B3
330
1F
100
AcDbEntity
  8
0
  6
Continuous
 62
     7
370
    25
100
AcDbLine
 10
110.018446862
 20
82.7117480865
 30
0.0
 11
109.7986249321
 21
82.5272935679
 31
0.0
  0
LINE
  5
B4
330
1F
100
AcDbEntity
  8
0
  6
Continuous
 62
     7
370
    25
100
AcDbLine
 10
109.7986249321
 20
82.5272935679
 30
0.0
 11
109.40470156
 21
82.596752857
 31
0.0
  0
LINE
  5
B5
330
1F
100
AcDbEntity
  8
0
  6
Continuous
 62
     7
370
    25
100
AcDbLine
 10
109.40470156
 20
82.596752857
 30
0.0
 11
111.5029936724
 21
94.4967530729
 31
0.0
  0
LINE
  5
B6
330
1F
100
AcDbEntity
  8
0
  6
Continuous
 62
     7
370
    25
100
AcDbLine
 10
121.7738276415
 20
82.9749127213
 30
0.0
 11
121.7274254255
 21
82.7117480865
 31
0.0
  0
LINE
  5
B7
330
1F
100
AcDbEntity
  8
0
  6
Continuous
 62
     7
370
    25
100
AcDbLine
 10
121.7274254255
 20
82.7117480865
 30
0.0
 11
110.018446862
 21
82.7117480865
 31
0.0
  0
LINE
  5
B8
330
1F
100
AcDbEntity
  8
0
  6
Continuous
 62
     7
370
    25
100
AcDbLine
 10
121.8822000616
 20
82.5272935679
 30
0.0
 11
122.1958285265
 21
82.4719925938
 31
0.0
  0
LINE
  5
B9
330
1F
100
AcDbEntity
  8
0
  6
Continuous
 62
     7
370
    25
100
AcDbLine
 10
121.7274254255
 20
82.7117480865
 30
0.0
 11
121.8822000616
 21
82.5272935679
 31
0.0
  0
LINE
  5
BA
330
1F
100
AcDbEntity
  8
0
  6
Continuous
 62
     7
370
    25
100
AcDbLine
 10
109.7986249321
 20
82.5272935679
 30
0.0
 11
109.7986249321
 21
82.127293578
 31
0.0
  0
LINE
  5
BB
330
1F
100
AcDbEntity
  8
0
  6
Continuous
 62
     7
370
    25
100
AcDbLine
 10
121.8822000616
 20
82.5272935679
 30
0.0
 11
121.8822000616
 21
82.127293578
 31
0.0
  0
LINE
  5
BC
330
1F
100
AcDbEntity
  8
0
  6
Continuous
 62
     7
370
    25
100
AcDbLine
 10
121.8822000616
 20
82.127293578
 30
0.0
 11
109.7986249321
 21
82.127293578
 31
0.0
  0
ARC
  5
BD
330
1F
100
AcDbEntity
  8
0
  6
Continuous
 62
     7
370
    25
100
AcDbCircle
 10
111.8969149236
 20
94.427293578
 30
0.0
 40
0.3999999999999941
100
AcDbArc
 50
91.5700099416
 51
170.0
  0
ARC
  5
BE
330
1F
100
AcDbEntity
  8
0
  6
Continuous
 62
     7
370
    25
100
AcDbCircle
 10
109.7986238532
 20
82.527293578
 30
0.0
 40
0.3999999999999966
100
AcDbArc
 50
170.0
 51
270.0
  0
ARC
  5
BF
330
1F
100
AcDbEntity
  8
0
  6
Continuous
 62
     7
370
    25
100
AcDbCircle
 10
121.8822005347
 20
82.527293578
 30
0.0
 40
0.4000000000000057
100
AcDbArc
 50
270.0
 51
345.5224878141
  0
CIRCLE
  5
C0
330
1F
100
AcDbEntity
  8
0
  6
Continuous
 62
     7
370
    25
100
AcDbCircle
 10
117.0427666178
 20
88.6058510999
 30
0.0
 40
1.599999999999999
  0
CIRCLE
  5
C1
330
1F
100
AcDbEntity
  8
0
  6
Continuous
 62
     7
370
    25
100
AcDbCircle
 10
188.2544810887
 20
88.6058510999
 30
0.0
 40
3.500000000000006
  0
CIRCLE
  5
C2
330
1F
100
AcDbEntity
  8
0
  6
Continuous
 62
     7
370
    25
100
AcDbCircle
 10
188.2544810887
 20
88.6058510999
 30
0.0
 40
2.633974596215571
  0
CIRCLE
  5
C3
330
1F
100
AcDbEntity
  8
0
  6
Continuous
 62
     7
370
    25
100
AcDbCircle
 10
188.2544810887
 20
88.6058510999
 30
0.0
 40
1.999999999999992
  0
SPLINE
  5
C4
330
1F
100
AcDbEntity
  8
0
  6
Continuous
 62
     7
370
    25
100
AcDbSpline
210
0.0
220
0.0
230
1.0
 70
     8
 71
     3
 72
    15
 73
    11
 74
     0
 42
0.000000001
 43
0.00000001
 40
0.0
 40
0.0
 40
0.0
 40
0.0
 40
0.126246869459376
 40
0.2533626132648372
 40
0.3794186492371039
 40
0.5042686212024252
 40
0.6284501480151312
 40
0.7526361365083694
 40
0.8774908380447172
 40
1.0
 40
1.0
 40
1.0
 40
1.0
 10
189.9025363915012
 20
88.149161549849
 30
0.0
 10
189.9450898009706
 20
88.1616423241133
 30
0.0
 10
190.0304894870987
 20
88.18668976962002
 30
0.0
 10
190.1340999986127
 20
88.27571792768471
 30
0.0
 10
190.2035138616499
 20
88.39130736890026
 30
0.0
 10
190.2301708199099
 20
88.52329431474287
 30
0.0
 10
190.2121264100306
 20
88.6560084169243
 30
0.0
 10
190.1515131538888
 20
88.77442933123787
 30
0.0
 10
190.0568099089317
 20
88.8686616638921
 30
0.0
 10
189.9758182289533
 20
88.8999774189181
 30
0.0
 10
189.9357063763187
 20
88.91548682619401
 30
0.0
  0
SPLINE
  5
C5
330
1F
100
AcDbEntity
  8
0
  6
Continuous
 62
     7
370
    25
100
AcDbSpline
210
0.0
220
0.0
230
1.0
 70
     8
 71
     3
 72
    12
 73
     8
 74
     0
 42
0.000000001
 43
0.00000001
 40
0.0
 40
0.0
 40
0.0
 40
0.0
 40
0.2058758481314407
 40
0.4121009799231874
 40
0.6141703134863404
 40
0.8132906017191234
 40
1.0
 40
1.0
 40
1.0
 40
1.0
 10
189.9357063763187
 20
88.91548682619401
 30
0.0
 10
189.8638229026789
 20
88.94345282620844
 30
0.0
 10
189.7199339997499
 20
88.9994322726325
 30
0.0
 10
189.5535680596001
 20
89.16806755521792
 30
0.0
 10
189.4513718944165
 20
89.3751036972452
 30
0.0
 10
189.4190102320746
 20
89.5987889240668
 30
0.0
 10
189.4544038970642
 20
89.73865674385878
 30
0.0
 10
189.4715314798401
 20
89.80634110663601
 30
0.0
  0
SPLINE
  5
C6
330
1F
100
AcDbEntity
  8
0
  6
Continuous
 62
     7
370
    25
100
AcDbSpline
210
0.0
220
0.0
230
1.0
 70
     8
 71
     3
 72
    15
 73
    11
 74
     0
 42
0.000000001
 43
0.00000001
 40
0.0
 40
0.0
 40
0.0
 40
0.0
 40
0.1268765317332863
 40
0.2539942411049806
 40
0.3800493734756845
 40
0.5049015345395027
 40
0.6290813883767319
 40
0.7532674257848797
 40
0.8781220275950773
 40
1.0
 40
1.0
 40
1.0
 40
1.0
 10
189.4715314798401
 20
89.80634110663601
 30
0.0
 10
189.4820327103794
 20
89.84965720778564
 30
0.0
 10
189.503055133085
 20
89.93637174899214
 30
0.0
 10
189.4774861648666
 20
90.07079956591824
 30
0.0
 10
189.4118910760562
 20
90.18859669278623
 30
0.0
 10
189.3107671165821
 20
90.2775077237003
 30
0.0
 10
189.1867248438262
 20
90.32802711159516
 30
0.0
 10
189.0538509642873
 20
90.334518061017
 30
0.0
 10
188.9251740736793
 20
90.29946236150559
 30
0.0
 10
188.8577625735485
 20
90.24508952444397
 30
0.0
 10
188.8244634561584
 20
90.21823108811446
 30
0.0
  0
SPLINE
  5
C7
330
1F
100
AcDbEntity
  8
0
  6
Continuous
 62
     7
370
    25
100
AcDbSpline
210
0.0
220
0.0
230
1.0
 70
     8
 71
     3
 72
    12
 73
     8
 74
     0
 42
0.000000001
 43
0.00000001
 40
0.0
 40
0.0
 40
0.0
 40
0.0
 40
0.2057955574164795
 40
0.4120024906731902
 40
0.6140571932230872
 40
0.813180423584765
 40
1.0
 40
1.0
 40
1.0
 40
1.0
 10
188.8244634561584
 20
90.21823108811446
 30
0.0
 10
188.7643263223569
 20
90.16997759061698
 30
0.0
 10
188.6439318433934
 20
90.0733741391031
 30
0.0
 10
188.4147529011843
 20
90.0135923389613
 30
0.0
 10
188.1843673813269
 20
90.02857018824035
 30
0.0
 10
187.974421773731
 20
90.11235877129548
 30
0.0
 10
187.8709571082099
 20
90.21297049311706
 30
0.0
 10
187.8208739750431
 20
90.2616726296074
 30
0.0
  0
SPLINE
  5
C8
330
1F
100
AcDbEntity
  8
0
  6
Continuous
 62
     7
370
    25
100
AcDbSpline
210
0.0
220
0.0
230
1.0
 70
     8
 71
     3
 72
    15
 73
    11
 74
     0
 42
0.000000001
 43
0.00000001
 40
0.0
 40
0.0
 40
0.0
 40
0.0
 40
0.1268048951308835
 40
0.2539270374545639
 40
0.3799864986871659
 40
0.5048419068159105
 40
0.6290227794005752
 40
0.7532069329041347
 40
0.8780549492927485
 40
1.0
 40
1.0
 40
1.0
 40
1.0
 10
187.8208739750431
 20
90.2616726296074
 30
0.0
 10
187.7886317553296
 20
90.29240780851704
 30
0.0
 10
187.7240666506122
 20
90.35395506123234
 30
0.0
 10
187.5948976742644
 20
90.39904560317348
 30
0.0
 10
187.4600815335661
 20
90.40115853436876
 30
0.0
 10
187.332508630896
 20
90.3580626953214
 30
0.0
 10
187.2267221503938
 20
90.27591372628336
 30
0.0
 10
187.1546418437231
 20
90.1641020311541
 30
0.0
 10
187.1206396254039
 20
90.03511838383484
 30
0.0
 10
187.1340205012793
 20
89.94952844960359
 30
0.0
 10
187.1406322412536
 20
89.90723686907955
 30
0.0
  0
SPLINE
  5
C9
330
1F
100
AcDbEntity
  8
0
  6
Continuous
 62
     7
370
    25
100
AcDbSpline
210
0.0
220
0.0
230
1.0
 70
     8
 71
     3
 72
    12
 73
     8
 74
     0
 42
0.000000001
 43
0.00000001
 40
0.0
 40
0.0
 40
0.0
 40
0.0
 40
0.2058496205406159
 40
0.4120518062949937
 40
0.6141065542498851
 40
0.8132439213312845
 40
1.0
 40
1.0
 40
1.0
 40
1.0
 10
187.1406322412536
 20
89.90723686907955
 30
0.0
 10
187.152352779049
 20
89.83100879241236
 30
0.0
 10
187.1758139287789
 20
89.67842208081863
 30
0.0
 10
187.1129714436946
 20
89.45004387241394
 30
0.0
 10
186.9847922541773
 20
89.25802091431864
 30
0.0
 10
186.8072575801899
 20
89.11812609714066
 30
0.0
 10
186.6684101870737
 20
89.07883824953308
 30
0.0
 10
186.6012139313266
 20
89.05982459579178
 30
0.0
  0
SPLINE
  5
CA
330
1F
100
AcDbEntity
  8
0
  6
Continuous
 62
     7
370
    25
100
AcDbSpline
210
0.0
220
0.0
230
1.0
 70
     8
 71
     3
 72
    15
 73
    11
 74
     0
 42
0.000000001
 43
0.00000001
 40
0.0
 40
0.0
 40
0.0
 40
0.0
 40
0.1262544952738238
 40
0.2533803040078831
 40
0.3794449426635736
 40
0.5042999293068989
 40
0.6284815067076067
 40
0.7526636209239767
 40
0.877510724875119
 40
1.0
 40
1.0
 40
1.0
 40
1.0
 10
186.6012139313266
 20
89.05982459579178
 30
0.0
 10
186.5586591740975
 20
89.04734304817931
 30
0.0
 10
186.4732559787475
 20
89.02229381471099
 30
0.0
 10
186.3696426417397
 20
88.933259196789
 30
0.0
 10
186.3002295734595
 20
88.81766204947976
 30
0.0
 10
186.2735737472472
 20
88.68566927140809
 30
0.0
 10
186.2916318206695
 20
88.55295437001264
 30
0.0
 10
186.3522522484492
 20
88.43453971784399
 30
0.0
 10
186.4469524458693
 20
88.34031628829125
 30
0.0
 10
186.5279374531692
 20
88.30900548164013
 30
0.0
 10
186.5680439465091
 20
88.29349931944677
 30
0.0
  0
SPLINE
  5
CB
330
1F
100
AcDbEntity
  8
0
  6
Continuous
 62
     7
370
    25
100
AcDbSpline
210
0.0
220
0.0
230
1.0
 70
     8
 71
     3
 72
    12
 73
     8
 74
     0
 42
0.000000001
 43
0.00000001
 40
0.0
 40
0.0
 40
0.0
 40
0.0
 40
0.20587156566993
 40
0.4120920975876088
 40
0.6141678387628657
 40
0.8133066595987186
 40
1.0
 40
1.0
 40
1.0
 40
1.0
 10
186.5680439465092
 20
88.29349931944677
 30
0.0
 10
186.6399261842945
 20
88.26553361012141
 30
0.0
 10
186.783812505127
 20
88.20955478769923
 30
0.0
 10
186.9501774790465
 20
88.04092074264287
 30
0.0
 10
187.0523755670431
 20
87.83388134970758
 30
0.0
 10
187.0847431860519
 20
87.61019215651635
 30
0.0
 10
187.0493438578459
 20
87.47032384844664
 30
0.0
 10
187.0322151176975
 20
87.40264550466605
 30
0.0
  0
SPLINE
  5
CC
330
1F
100
AcDbEntity
  8
0
  6
Continuous
 62
     7
370
    25
100
AcDbSpline
210
0.0
220
0.0
230
1.0
 70
     8
 71
     3
 72
    15
 73
    11
 74
     0
 42
0.000000001
 43
0.00000001
 40
0.0
 40
0.0
 40
0.0
 40
0.0
 40
0.1268704241787315
 40
0.2539817862987162
 40
0.3800312096045878
 40
0.5048767158216241
 40
0.6290518551916441
 40
0.7532400377551913
 40
0.8780957893455208
 40
1.0
 40
1.0
 40
1.0
 40
1.0
 10
187.0322151176975
 20
87.40264550466605
 30
0.0
 10
187.0217138003426
 20
87.35933064772155
 30
0.0
 10
187.0006912227202
 20
87.27261867516175
 30
0.0
 10
187.0262614502625
 20
87.13819449914831
 30
0.0
 10
187.0918520448977
 20
87.02039995555528
 30
0.0
 10
187.1929692293347
 20
86.93148842590489
 30
0.0
 10
187.3170053354486
 20
86.88096403905453
 30
0.0
 10
187.4498766179751
 20
86.87446487614251
 30
0.0
 10
187.5785619311068
 20
86.909516792328
 30
0.0
 10
187.6459806908444
 20
86.96389274647099
 30
0.0
 10
187.6792868666694
 20
86.9907555231876
 30
0.0
  0
SPLINE
  5
CD
330
1F
100
AcDbEntity
  8
0
  6
Continuous
 62
     7
370
    25
100
AcDbSpline
210
0.0
220
0.0
230
1.0
 70
     8
 71
     3
 72
    12
 73
     8
 74
     0
 42
0.000000001
 43
0.00000001
 40
0.0
 40
0.0
 40
0.0
 40
0.0
 40
0.2058335048048752
 40
0.4120759134631728
 40
0.6141690958205285
 40
0.8133019240147157
 40
1.0
 40
1.0
 40
1.0
 40
1.0
 10
187.6792868666694
 20
86.9907555231876
 30
0.0
 10
187.7394334660885
 20
87.03901521786652
 30
0.0
 10
187.8598461507038
 20
87.1356304787645
 30
0.0
 10
188.0890609300155
 20
87.19540355367772
 30
0.0
 10
188.3194774091582
 20
87.18039725325637
 30
0.0
 10
188.5293930889825
 20
87.09657932355698
 30
0.0
 10
188.632826428729
 20
86.99598846473823
 30
0.0
 10
188.6828763477848
 20
86.94731398169466
 30
0.0
  0
SPLINE
  5
CE
330
1F
100
AcDbEntity
  8
0
  6
Continuous
 62
     7
370
    25
100
AcDbSpline
210
0.0
220
0.0
230
1.0
 70
     8
 71
     3
 72
    15
 73
    11
 74
     0
 42
0.000000001
 43
0.00000001
 40
0.0
 40
0.0
 40
0.0
 40
0.0
 40
0.126788108636665
 40
0.2538948118791037
 40
0.379939769534468
 40
0.5047827192576877
 40
0.6289625019228864
 40
0.7531493207133605
 40
0.8780087119345295
 40
1.0
 40
1.0
 40
1.0
 40
1.0
 10
188.6828763477848
 20
86.94731398169466
 30
0.0
 10
188.7151149437559
 20
86.91658062398444
 30
0.0
 10
188.7796731452098
 20
86.85503668143213
 30
0.0
 10
188.9088308274358
 20
86.80994658755623
 30
0.0
 10
189.0436358652629
 20
86.80782259537553
 30
0.0
 10
189.1712031236928
 20
86.85090630109893
 30
0.0
 10
189.2769959706351
 20
86.93303767628835
 30
0.0
 10
189.3490858541114
 20
87.04484263671245
 30
0.0
 10
189.3831119171316
 20
87.17383591172837
 30
0.0
 10
189.3697308696214
 20
87.2594430383401
 30
0.0
 10
189.3631180815742
 20
87.30174927656122
 30
0.0
  0
SPLINE
  5
CF
330
1F
100
AcDbEntity
  8
0
  6
Continuous
 62
     7
370
    25
100
AcDbSpline
210
0.0
220
0.0
230
1.0
 70
     8
 71
     3
 72
    12
 73
     8
 74
     0
 42
0.000000001
 43
0.00000001
 40
0.0
 40
0.0
 40
0.0
 40
0.0
 40
0.2058903614003146
 40
0.4121336402743749
 40
0.6142229653467564
 40
0.8133458333147847
 40
1.0
 40
1.0
 40
1.0
 40
1.0
 10
189.3631180815742
 20
87.30174927656122
 30
0.0
 10
189.3513953613587
 20
87.37798929174573
 30
0.0
 10
189.3279298269671
 20
87.53060000542297
 30
0.0
 10
189.3908044412458
 20
87.75900660218355
 30
0.0
 10
189.5190224981691
 20
87.95103558717419
 30
0.0
 10
189.6965611310202
 20
88.09089193872683
 30
0.0
 10
189.8353734896311
 20
88.1301614225295
 30
0.0
 10
189.9025363915012
 20
88.149161549849
 30
0.0
  0
LINE
  5
D0
330
1F
100
AcDbEntity
  8
0
  6
Continuous
 62
     7
370
    25
100
AcDbLine
 10
189.5472293787
 20
111.5772929104
 30
0.0
 11
189.4027849727
 21
111.5772929104
 31
0.0
  0
ELLIPSE
  5
D1
330
1F
100
AcDbEntity
  8
0
  6
Continuous
 62
     7
370
    25
100
AcDbEllipse
 10
153.6486238532
 20
110.4519069698
 30
0.0
 11
36.0
 21
-1.421085471520200E-14
 31
0.0
210
0.0
220
0.0
230
1.0
 40
0.2679491924
 41
0.1169329614623782
 42
0.4674193874318395
  0
ARC
  5
D2
330
1F
100
AcDbEntity
  8
0
  6
Continuous
 62
     7
370
    25
100
AcDbCircle
 10
153.6486238532
 20
98.577293578
 30
0.0
 40
35.99999999999997
100
AcDbArc
 50
26.7811581624
 51
53.6639424854
  0
LINE
  5
D3
330
1F
100
AcDbEntity
  8
0
  6
Continuous
 62
     7
370
    25
100
AcDbLine
 10
174.9793531441
 20
127.5772918077
 30
0.0
 11
174.9793531441
 21
141.8751161607
 31
0.0
  0
SPLINE
  5
D4
330
1F
100
AcDbEntity
  8
0
  6
Continuous
 62
     7
370
    25
100
AcDbSpline
210
0.0
220
0.0
230
1.0
 70
     8
 71
     3
 72
    12
 73
     8
 74
     0
 42
0.000000001
 43
0.00000001
 40
0.0
 40
0.0
 40
0.0
 40
0.0
 40
0.1889984817431482
 40
0.3840354718481003
 40
0.572968219634937
 40
0.7668521865481578
 40
1.0
 40
1.0
 40
1.0
 40
1.0
 10
174.9793531440542
 20
149.6984195025689
 30
0.0
 10
175.1345720056944
 20
149.2282951166923
 30
0.0
 10
175.4499689772465
 20
148.2730258537213
 30
0.0
 10
175.6530087375133
 20
146.7440743404463
 30
0.0
 10
175.6572920253464
 20
145.1895601191576
 30
0.0
 10
175.4624031232342
 20
143.5451288934363
 30
0.0
 10
175.1499461879601
 20
142.4648947917306
 30
0.0
 10
174.9793531440542
 20
141.8751161607034
 30
0.0
  0
LINE
  5
D5
330
1F
100
AcDbEntity
  8
0
  6
Continuous
 62
     7
370
    25
100
AcDbLine
 10
174.9793531441
 20
149.6984195026
 30
0.0
 11
174.9793531441
 21
168.5772966655
 31
0.0
  0
ARC
  5
D6
330
1F
100
AcDbEntity
  8
0
  6
Continuous
 62
     7
370
    25
100
AcDbCircle
 10
153.6486238532
 20
197.577293578
 30
0.0
 40
35.99999999999977
100
AcDbArc
 50
306.3360575146
 51
308.942441269
  0
LINE
  5
D7
330
1F
100
AcDbEntity
  8
0
  6
Continuous
 62
     7
370
    25
100
AcDbLine
 10
183.2391934537
 20
169.5772912415
 30
0.0
 11
176.2760410153
 21
169.5772912415
 31
0.0
  0
ELLIPSE
  5
D8
330
1F
100
AcDbEntity
  8
0
  6
Continuous
 62
     7
370
    25
100
AcDbEllipse
 10
153.6486238532
 20
164.0833670674
 30
0.0
 11
36.0
 21
-2.842170943040401E-14
 31
0.0
210
0.0
220
0.0
230
1.0
 40
0.2679491924
 41
0.5065893789216772
 42
0.6059519532325847
  0
ELLIPSE
  5
D9
330
1F
100
AcDbEntity
  8
0
  6
Continuous
 62
     7
370
    25
100
AcDbEllipse
 10
153.6486238532
 20
103.5754841307
 30
0.0
 11
0.0
 21
134.3538290724699
 31
0.0
210
0.0
220
0.0
230
1.0
 40
0.2679491924
 41
5.212549793768723
 42
5.218978359306383
  0
ARC
  5
DA
330
1F
100
AcDbEntity
  8
0
  6
Continuous
 62
     7
370
    25
100
AcDbCircle
 10
153.6486238532
 20
185.2715008594
 30
0.0
 40
35.9999999999998
100
AcDbArc
 50
326.9800004279
 51
331.3428963153
  0
SPLINE
  5
DB
330
1F
100
AcDbEntity
  8
0
  6
Continuous
 62
     7
370
    25
100
AcDbSpline
210
0.0
220
0.0
230
1.0
 70
     8
 71
     3
 72
    14
 73
    10
 74
     0
 42
0.000000001
 43
0.00000001
 40
0.0
 40
0.0
 40
0.0
 40
0.0
 40
0.149344051128246
 40
0.2994003246623441
 40
0.4346797346358744
 40
0.5617802931873661
 40
0.6953406553388297
 40
0.8463376764258849
 40
0.9999999999999999
 40
0.9999999999999999
 40
0.9999999999999999
 40
0.9999999999999999
 10
183.8339192860172
 20
165.6539570601709
 30
0.0
 10
183.8192707163014
 20
165.6272224462471
 30
0.0
 10
183.7899037177795
 20
165.5736257209137
 30
0.0
 10
183.7681156608894
 20
165.4678917526828
 30
0.0
 10
183.768262754816
 20
165.362221820825
 30
0.0
 10
183.7874209384743
 20
165.2669657602017
 30
0.0
 10
183.8227977257089
 20
165.1845815193636
 30
0.0
 10
183.8723493150047
 20
165.1186083821835
 30
0.0
 10
183.9122872149699
 20
165.0963527505123
 30
0.0
 10
183.9324308626697
 20
165.0851275833375
 30
0.0
  0
ELLIPSE
  5
DC
330
1F
100
AcDbEntity
  8
0
  6
Continuous
 62
     7
370
    25
100
AcDbEllipse
 10
153.6486238532
 20
159.8694623482
 30
0.0
 11
36.0
 21
-2.842170943040401E-14
 31
0.0
210
0.0
220
0.0
230
1.0
 40
0.2679491924
 41
0.4683421176144295
 42
0.5712665415584071
  0
ELLIPSE
  5
DD
330
1F
100
AcDbEntity
  8
0
  6
Continuous
 62
     7
370
    25
100
AcDbEllipse
 10
153.6486238532
 20
103.5754841307
 30
0.0
 11
0.0
 21
134.3538290724749
 31
0.0
210
0.0
220
0.0
230
1.0
 40
0.2679491924
 41
5.174430394880654
 42
5.18073109799913
  0
ARC
  5
DE
330
1F
100
AcDbEntity
  8
0
  6
Continuous
 62
     7
370
    25
100
AcDbCircle
 10
153.6486238532
 20
179.5151999639
 30
0.0
 40
35.99999999999982
100
AcDbArc
 50
329.2601067243
 51
333.5269769891
  0
SPLINE
  5
DF
330
1F
100
AcDbEntity
  8
0
  6
Continuous
 62
     7
370
    25
100
AcDbSpline
210
0.0
220
0.0
230
1.0
 70
     8
 71
     3
 72
    14
 73
    10
 74
     0
 42
0.000000001
 43
0.00000001
 40
0.0
 40
0.0
 40
0.0
 40
0.0
 40
0.1505856196071443
 40
0.301779243729728
 40
0.4401958124010052
 40
0.5716604086007154
 40
0.7091825723324853
 40
0.8625281199624524
 40
1.0
 40
1.0
 40
1.0
 40
1.0
 10
184.5904996686027
 20
161.1141096862085
 30
0.0
 10
184.5769648813103
 20
161.0870292386162
 30
0.0
 10
184.5498406586668
 20
161.0327590034132
 30
0.0
 10
184.5300837057257
 20
160.9262310535948
 30
0.0
 10
184.5305756379585
 20
160.819427833562
 30
0.0
 10
184.5491284424014
 20
160.7224716451665
 30
0.0
 10
184.5831645365993
 20
160.639165739851
 30
0.0
 10
184.6285645199634
 20
160.576319265152
 30
0.0
 10
184.6639226858743
 20
160.5552380358182
 30
0.0
 10
184.6806367926643
 20
160.5452727587945
 30
0.0
  0
ELLIPSE
  5
E0
330
1F
100
AcDbEntity
  8
0
  6
Continuous
 62
     7
370
    25
100
AcDbEllipse
 10
153.6486238532
 20
155.655557629
 30
0.0
 11
36.0
 21
0.0
 31
0.0
210
0.0
220
0.0
230
1.0
 40
0.2679491924
 41
0.4308213976857689
 42
0.5315935836737918
  0
ELLIPSE
  5
E1
330
1F
100
AcDbEntity
  8
0
  6
Continuous
 62
     7
370
    25
100
AcDbEllipse
 10
153.6486238532
 20
103.5754841307
 30
0.0
 11
0.0
 21
134.3538290724749
 31
0.0
210
0.0
220
0.0
230
1.0
 40
0.2679491924
 41
5.137021682108941
 42
5.143210378070472
  0
ARC
  5
E2
330
1F
100
AcDbEntity
  8
0
  6
Continuous
 62
     7
370
    25
100
AcDbCircle
 10
153.6486238532
 20
173.7588990684
 30
0.0
 40
35.99999999999986
100
AcDbArc
 50
331.4874516626
 51
335.670338348
  0
SPLINE
  5
E3
330
1F
100
AcDbEntity
  8
0
  6
Continuous
 62
     7
370
    25
100
AcDbSpline
210
0.0
220
0.0
230
1.0
 70
     8
 71
     3
 72
    14
 73
    10
 74
     0
 42
0.000000001
 43
0.00000001
 40
0.0
 40
0.0
 40
0.0
 40
0.0
 40
0.1518131866256735
 40
0.3041345646492462
 40
0.4454637763307632
 40
0.5809500065080615
 40
0.7220134989651904
 40
0.8772852363539395
 40
1.0
 40
1.0
 40
1.0
 40
1.0
 10
185.2822786264465
 20
156.5742548616655
 30
0.0
 10
185.2697980471922
 20
156.5468468462406
 30
0.0
 10
185.2447951102111
 20
156.4919390676449
 30
0.0
 10
185.2269120220629
 20
156.3846210646414
 30
0.0
 10
185.2276881956844
 20
156.2767303691462
 30
0.0
 10
185.2455345402599
 20
156.1782384715794
 30
0.0
 10
185.2780655703775
 20
156.0941999389995
 30
0.0
 10
185.3195440091567
 20
156.034209262642
 30
0.0
 10
185.3508042505257
 20
156.0142404475074
 30
0.0
 10
185.3646038167522
 20
156.0054253848321
 30
0.0
  0
ELLIPSE
  5
E4
330
1F
100
AcDbEntity
  8
0
  6
Continuous
 62
     7
370
    25
100
AcDbEllipse
 10
153.6486238532
 20
151.4416529098
 30
0.0
 11
36.0
 21
0.0
 31
0.0
210
0.0
220
0.0
230
1.0
 40
0.2679491924
 41
0.3939372096828025
 42
0.4928258995703096
  0
ELLIPSE
  5
E5
330
1F
100
AcDbEntity
  8
0
  6
Continuous
 62
     7
370
    25
100
AcDbEllipse
 10
153.6486238532
 20
103.5754841307
 30
0.0
 11
0.0
 21
134.3538290724749
 31
0.0
210
0.0
220
0.0
230
1.0
 40
0.2679491924
 41
5.100235613611959
 42
5.106326190067505
  0
ARC
  5
E6
330
1F
100
AcDbEntity
  8
0
  6
Continuous
 62
     7
370
    25
100
AcDbCircle
 10
153.6486238532
 20
168.0025981728
 30
0.0
 40
35.99999999999989
100
AcDbArc
 50
333.6686942694
 51
337.7780248177
  0
SPLINE
  5
E7
330
1F
100
AcDbEntity
  8
0
  6
Continuous
 62
     7
370
    25
100
AcDbSpline
210
0.0
220
0.0
230
1.0
 70
     8
 71
     3
 72
    14
 73
    10
 74
     0
 42
0.000000001
 43
0.00000001
 40
0.0
 40
0.0
 40
0.0
 40
0.0
 40
0.1529939734175136
 40
0.3064251797790953
 40
0.4504720887646336
 40
0.5896241396381213
 40
0.7338583423525479
 40
0.8906590553297544
 40
1.0
 40
1.0
 40
1.0
 40
1.0
 10
185.9134135835216
 20
152.034407487703
 30
0.0
 10
185.9019472002089
 20
152.0066906269061
 30
0.0
 10
185.878981664446
 20
151.9511776948414
 30
0.0
 10
185.8628161387515
 20
151.8430869623561
 30
0.0
 10
185.8638280778461
 20
151.7341587553388
 30
0.0
 10
185.880867429381
 20
151.6342882387879
 30
0.0
 10
185.9117329832347
 20
151.5496636897366
 30
0.0
 10
185.9495044181976
 20
151.4923151145619
 30
0.0
 10
185.977073529952
 20
151.4733586037588
 30
0.0
 10
185.9883999519394
 20
151.4655705602891
 30
0.0
  0
ELLIPSE
  5
E8
330
1F
100
AcDbEntity
  8
0
  6
Continuous
 62
     7
370
    25
100
AcDbEllipse
 10
153.6486238532
 20
147.2277481906
 30
0.0
 11
36.0
 21
0.0
 31
0.0
210
0.0
220
0.0
230
1.0
 40
0.2679491924
 41
0.3576103413462065
 42
0.45484950555803
  0
ELLIPSE
  5
E9
330
1F
100
AcDbEntity
  8
0
  6
Continuous
 62
     7
370
    25
100
AcDbEllipse
 10
153.6486238532
 20
103.5754841307
 30
0.0
 11
0.0
 21
134.3538290724749
 31
0.0
210
0.0
220
0.0
230
1.0
 40
0.2679491924
 41
5.063994560030161
 42
5.069999321730904
  0
ARC
  5
EA
330
1F
100
AcDbEntity
  8
0
  6
Continuous
 62
     7
370
    25
100
AcDbCircle
 10
153.6486238532
 20
162.2462972773
 30
0.0
 40
35.9999999999999
100
AcDbArc
 50
335.8095692828
 51
339.8544842331
  0
SPLINE
  5
EB
330
1F
100
AcDbEntity
  8
0
  6
Continuous
 62
     7
370
    25
100
AcDbSpline
210
0.0
220
0.0
230
1.0
 70
     8
 71
     3
 72
    14
 73
    10
 74
     0
 42
0.000000001
 43
0.00000001
 40
0.0
 40
0.0
 40
0.0
 40
0.0
 40
0.1541237600787138
 40
0.3086147289911951
 40
0.4551642162810604
 40
0.5976651823198892
 40
0.7447139486827389
 40
0.9027238296488244
 40
1.0
 40
1.0
 40
1.0
 40
1.0
 10
186.4874137632892
 20
147.4945526631601
 30
0.0
 10
186.47692090233
 20
147.4665483338047
 30
0.0
 10
186.4559101805593
 20
147.4104729531484
 30
0.0
 10
186.4413555962842
 20
147.3016438670149
 30
0.0
 10
186.4425283683988
 20
147.1917437597768
 30
0.0
 10
186.4586799667728
 20
147.0906390885239
 30
0.0
 10
186.4877226083039
 20
147.0055564808928
 30
0.0
 10
186.5219719812476
 20
146.9506087866126
 30
0.0
 10
186.5462174932716
 20
146.9325894236713
 30
0.0
 10
186.5554561905907
 20
146.9257231863267
 30
0.0
  0
ELLIPSE
  5
EC
330
1F
100
AcDbEntity
  8
0
  6
Continuous
 62
     7
370
    25
100
AcDbEllipse
 10
153.6486238532
 20
143.0138434714
 30
0.0
 11
36.0
 21
0.0
 31
0.0
210
0.0
220
0.0
230
1.0
 40
0.2679491924
 41
0.3217702927624261
 42
0.4175660792065544
  0
ELLIPSE
  5
ED
330
1F
100
AcDbEntity
  8
0
  6
Continuous
 62
     7
370
    25
100
AcDbEllipse
 10
153.6486238532
 20
103.5754841307
 30
0.0
 11
0.0
 21
134.3538290724749
 31
0.0
210
0.0
220
0.0
230
1.0
 40
0.2679491924
 41
5.028229303916578
 42
5.034159273147127
  0
ARC
  5
EE
330
1F
100
AcDbEntity
  8
0
  6
Continuous
 62
     7
370
    25
100
AcDbCircle
 10
153.6486238532
 20
156.4899963817
 30
0.0
 40
35.99999999999991
100
AcDbArc
 50
337.9150779034
 51
341.9036824616
  0
SPLINE
  5
EF
330
1F
100
AcDbEntity
  8
0
  6
Continuous
 62
     7
370
    25
100
AcDbSpline
210
0.0
220
0.0
230
1.0
 70
     8
 71
     3
 72
    14
 73
    10
 74
     0
 42
0.000000001
 43
0.00000001
 40
0.0
 40
0.0
 40
0.0
 40
0.0
 40
0.1551875989964802
 40
0.3106831551254914
 40
0.4595291528143317
 40
0.6050683347556942
 40
0.7546002063567471
 40
0.9135456227133306
 40
1.0
 40
1.0
 40
1.0
 40
1.0
 10
187.0072184197948
 20
142.9547015639073
 30
0.0
 10
186.9976703049202
 20
142.9264300060441
 30
0.0
 10
186.9785551277158
 20
142.8698307877168
 30
0.0
 10
186.9655013391601
 20
142.7603050240027
 30
0.0
 10
186.9667931409732
 20
142.6495003455125
 30
0.0
 10
186.9819558523255
 20
142.547294073097
 30
0.0
 10
187.0090551274987
 20
142.4618672294612
 30
0.0
 10
187.0399305039546
 20
142.4090879454581
 30
0.0
 10
187.0611723887781
 20
142.3919175087382
 30
0.0
 10
187.068655907397
 20
142.3858683617837
 30
0.0
  0
ELLIPSE
  5
F0
330
1F
100
AcDbEntity
  8
0
  6
Continuous
 62
     7
370
    25
100
AcDbEllipse
 10
153.6486238532
 20
138.7999387522
 30
0.0
 11
36.0
 21
0.0
 31
0.0
210
0.0
220
0.0
230
1.0
 40
0.2679491924
 41
0.2863536373746369
 42
0.3808897448846081
  0
ELLIPSE
  5
F1
330
1F
100
AcDbEntity
  8
0
  6
Continuous
 62
     7
370
    25
100
AcDbEllipse
 10
153.6486238532
 20
103.5754841307
 30
0.0
 11
0.0
 21
134.3538290724775
 31
0.0
210
0.0
220
0.0
230
1.0
 40
0.2679491924
 41
4.992877462633225
 42
4.998742617759337
  0
ARC
  5
F2
330
1F
100
AcDbEntity
  8
0
  6
Continuous
 62
     7
370
    25
100
AcDbCircle
 10
153.6486238532
 20
150.7336954862
 30
0.0
 40
35.99999999999991
100
AcDbArc
 50
339.9896331588
 51
343.9291937651
  0
SPLINE
  5
F3
330
1F
100
AcDbEntity
  8
0
  6
Continuous
 62
     7
370
    25
100
AcDbSpline
210
0.0
220
0.0
230
1.0
 70
     8
 71
     3
 72
    14
 73
    10
 74
     0
 42
0.000000001
 43
0.00000001
 40
0.0
 40
0.0
 40
0.0
 40
0.0
 40
0.1561760607653574
 40
0.3126052862500357
 40
0.4635523063410705
 40
0.6118284654938778
 40
0.7635465324998144
 40
0.9231963318099236
 40
1.0
 40
1.0
 40
1.0
 40
1.0
 10
187.475330948119
 20
138.4148504646546
 30
0.0
 10
187.4667031698702
 20
138.3863342922523
 30
0.0
 10
187.4494336275605
 20
138.3292557221251
 30
0.0
 10
187.4377907571077
 20
138.2190807413537
 30
0.0
 10
187.4391412300404
 20
138.1074422642458
 30
0.0
 10
187.4532395855996
 20
138.0042584988329
 30
0.0
 10
187.4782639180646
 20
137.9185698467297
 30
0.0
 10
187.5059225972272
 20
137.8677492274738
 30
0.0
 10
187.524433874731
 20
137.8513454560002
 30
0.0
 10
187.5304466180847
 20
137.846017262531
 30
0.0
  0
ELLIPSE
  5
F4
330
1F
100
AcDbEntity
  8
0
  6
Continuous
 62
     7
370
    25
100
AcDbEllipse
 10
153.6486238532
 20
134.5860340331
 30
0.0
 11
36.0
 21
0.0
 31
0.0
210
0.0
220
0.0
230
1.0
 40
0.2679491924
 41
0.2513027121682851
 42
0.3447446184057247
  0
ELLIPSE
  5
F5
330
1F
100
AcDbEntity
  8
0
  6
Continuous
 62
     7
370
    25
100
AcDbEllipse
 10
153.6486238532
 20
103.5754841307
 30
0.0
 11
0.0
 21
134.3538290724699
 31
0.0
210
0.0
220
0.0
230
1.0
 40
0.2679491924
 41
4.957882224586482
 42
4.963691692552981
  0
ARC
  5
F6
330
1F
100
AcDbEntity
  8
0
  6
Continuous
 62
     7
370
    25
100
AcDbCircle
 10
153.6486238532
 20
144.9773945907
 30
0.0
 40
35.99999999999994
100
AcDbArc
 50
342.0371726972
 51
345.9342732083
  0
SPLINE
  5
F7
330
1F
100
AcDbEntity
  8
0
  6
Continuous
 62
     7
370
    25
100
AcDbSpline
210
0.0
220
0.0
230
1.0
 70
     8
 71
     3
 72
    14
 73
    10
 74
     0
 42
0.000000001
 43
0.00000001
 40
0.0
 40
0.0
 40
0.0
 40
0.0
 40
0.1570838668261854
 40
0.3143679624733527
 40
0.4672140685279841
 40
0.6179437425250798
 40
0.7715663253448374
 40
0.9317319096129955
 40
0.9999999999999999
 40
0.9999999999999999
 40
0.9999999999999999
 40
0.9999999999999999
 10
187.8938673131511
 20
133.8749993654019
 30
0.0
 10
187.88613990137
 20
133.8462608530035
 30
0.0
 10
187.8706752279703
 20
133.7887471963196
 30
0.0
 10
187.8603738806207
 20
133.6779761867192
 30
0.0
 10
187.861729424286
 20
133.5655790783581
 30
0.0
 10
187.874677581064
 20
133.4615320149042
 30
0.0
 10
187.8975274673433
 20
133.3756526386262
 30
0.0
 10
187.922090619216
 20
133.326585432083
 30
0.0
 10
187.9381173869293
 20
133.3108644315484
 30
0.0
 10
187.9429070346401
 20
133.3061661632783
 30
0.0
  0
ELLIPSE
  5
F8
330
1F
100
AcDbEntity
  8
0
  6
Continuous
 62
     7
370
    25
100
AcDbEllipse
 10
153.6486238532
 20
130.3721293139
 30
0.0
 11
36.0
 21
0.0
 31
0.0
210
0.0
220
0.0
230
1.0
 40
0.2679491924
 41
0.2165645538611214
 42
0.3090628977006354
  0
ELLIPSE
  5
F9
330
1F
100
AcDbEntity
  8
0
  6
Continuous
 62
     7
370
    25
100
AcDbEllipse
 10
153.6486238532
 20
103.5754841307
 30
0.0
 11
0.0
 21
134.3538290724856
 31
0.0
210
0.0
220
0.0
230
1.0
 40
0.2679491924
 41
4.922727066785965
 42
4.92895353424582
  0
LINE
  5
FA
330
1F
100
AcDbEntity
  8
0
  6
Continuous
 62
     7
370
    25
100
AcDbLine
 10
188.8551971011
 20
131.6272933098
 30
0.0
 11
189.64862433
 21
131.6272933098
 31
0.0
  0
SPLINE
  5
FB
330
1F
100
AcDbEntity
  8
0
  6
Continuous
 62
     7
370
    25
100
AcDbSpline
210
0.0
220
0.0
230
1.0
 70
     8
 71
     3
 72
    12
 73
     8
 74
     0
 42
0.000000001
 43
0.00000001
 40
0.0
 40
0.0
 40
0.0
 40
0.0
 40
0.1390692387082125
 40
0.3742809654862852
 40
0.6094452842579662
 40
0.8443172518784863
 40
1.0
 40
1.0
 40
1.0
 40
1.0
 10
189.6476036005066
 20
108.9915074469573
 30
0.0
 10
189.6478824961621
 20
109.1866781682705
 30
0.0
 10
189.648633095908
 20
109.7119466365981
 30
0.0
 10
189.6492139805168
 20
110.4879301554101
 30
0.0
 10
189.6357177821413
 20
111.166172936186
 30
0.0
 10
189.6014763653702
 20
111.5259227979351
 30
0.0
 10
189.5626902734989
 20
111.562651951467
 30
0.0
 10
189.5472293787048
 20
111.5772929104097
 30
0.0
  0
SPLINE
  5
FC
330
1F
100
AcDbEntity
  8
0
  6
Continuous
 62
     7
370
    25
100
AcDbSpline
210
0.0
220
0.0
230
1.0
 70
     8
 71
     3
 72
    18
 73
    14
 74
     0
 42
0.000000001
 43
0.00000001
 40
0.0
 40
0.0
 40
0.0
 40
0.0
 40
0.0088375583559506
 40
0.1094729013977096
 40
0.2102717173577675
 40
0.3141778392565667
 40
0.4224386249861404
 40
0.5343399721288266
 40
0.6479265807458484
 40
0.7608332502992791
 40
0.8706464305947086
 40
0.9758238353996438
 40
1.0
 40
1.0
 40
1.0
 40
1.0
 10
189.6474918417976
 20
122.3922427805192
 30
0.0
 10
189.6478649692062
 20
122.3876490998147
 30
0.0
 10
189.6524869856453
 20
122.3307461030181
 30
0.0
 10
189.6344848864692
 20
122.546794062302
 30
0.0
 10
189.5976597580693
 20
123.0397533099511
 30
0.0
 10
189.5507564372682
 20
123.8457330623797
 30
0.0
 10
189.5162820068931
 20
124.8548693177018
 30
0.0
 10
189.5097242252642
 20
125.9816815423518
 30
0.0
 10
189.5361458602747
 20
127.0828353080345
 30
0.0
 10
189.5845510935893
 20
128.0219572195539
 30
0.0
 10
189.6284169068883
 20
128.6339587269117
 30
0.0
 10
189.6509915884251
 20
128.9052164311714
 30
0.0
 10
189.6468502475355
 20
128.8546145859246
 30
0.0
 10
189.6460762314842
 20
128.8451571079023
 30
0.0
  0
ELLIPSE
  5
FD
330
1F
100
AcDbEntity
  8
0
  6
Continuous
 62
     7
370
    25
100
AcDbEllipse
 10
164.6486238532
 20
145.7867669975
 30
0.0
 11
0.0
 21
11.38803798451073
 31
0.0
210
0.0
220
0.0
230
1.0
 40
0.9659258263
 41
5.063016995766192
 42
6.283185307179586
  0
ELLIPSE
  5
FE
330
1F
100
AcDbEntity
  8
0
  6
Continuous
 62
     7
370
    25
100
AcDbEllipse
 10
164.6486238532
 20
145.7867669975
 30
0.0
 11
0.0
 21
11.38803798451073
 31
0.0
210
0.0
220
0.0
230
1.0
 40
0.9659258263
 41
3.141592653589793
 42
4.361760965003209
  0
ARC
  5
FF
330
1F
100
AcDbEntity
  8
0
  6
Continuous
 62
     7
370
    25
100
AcDbCircle
 10
164.8311464887
 20
147.0396194814
 30
0.0
 40
10.82184171514448
100
AcDbArc
 50
269.0335964194
 51
358.1858588647
  0
ELLIPSE
  5
100
330
1F
100
AcDbEntity
  8
0
  6
Continuous
 62
     7
370
    25
100
AcDbEllipse
 10
146.6486238532
 20
145.7867669975
 30
0.0
 11
0.0
 21
11.38803798451073
 31
0.0
210
0.0
220
0.0
230
1.0
 40
0.9659258263
 41
0.0
 42
3.141592653589793
  0
LINE
  5
101
330
1F
100
AcDbEntity
  8
0
  6
Continuous
 62
     7
370
    25
100
AcDbLine
 10
164.6486239575
 20
134.3987304779
 30
0.0
 11
146.6486238011
 21
134.3987304779
 31
0.0
  0
LINE
  5
102
330
1F
100
AcDbEntity
  8
0
  6
Continuous
 62
     7
370
    25
100
AcDbLine
 10
132.3178948902
 20
127.5772918077
 30
0.0
 11
174.9793531441
 21
127.5772918077
 31
0.0
  0
LINE
  5
103
330
1F
100
AcDbEntity
  8
0
  6
Continuous
 62
     7
370
    25
100
AcDbLine
 10
132.3178948902
 20
168.5772966655
 30
0.0
 11
132.3178948902
 21
127.5772918077
 31
0.0
  0
LINE
  5
104
330
1F
100
AcDbEntity
  8
0
  6
Continuous
 62
     7
370
    25
100
AcDbLine
 10
132.3178948902
 20
168.5772966655
 30
0.0
 11
174.9793531441
 21
168.5772966655
 31
0.0
  0
LINE
  5
105
330
1F
100
AcDbEntity
  8
0
  6
Continuous
 62
     7
370
    25
100
AcDbLine
 10
146.6486238011
 20
157.1748014601
 30
0.0
 11
164.6486239575
 21
157.1748014601
 31
0.0
  0
ARC
  5
106
330
1F
100
AcDbEntity
  8
0
  6
Continuous
 62
     7
370
    25
100
AcDbCircle
 10
153.6486238532
 20
197.577293578
 30
0.0
 40
35.99999999999977
100
AcDbArc
 50
231.057558731
 51
233.6639424854
  0
LINE
  5
107
330
1F
100
AcDbEntity
  8
0
  6
Continuous
 62
     7
370
    25
100
AcDbLine
 10
131.021207019
 20
169.5772912415
 30
0.0
 11
176.2760410153
 21
169.5772912415
 31
0.0
  0
SPLINE
  5
108
330
1F
100
AcDbEntity
  8
0
  6
Continuous
 62
     7
370
    25
100
AcDbSpline
210
0.0
220
0.0
230
1.0
 70
     8
 71
     3
 72
    14
 73
    10
 74
     0
 42
0.000000001
 43
0.00000001
 40
0.0
 40
0.0
 40
0.0
 40
0.0
 40
0.1688808377140463
 40
0.3379755681614675
 40
0.5012096518505533
 40
0.6566165361560921
 40
0.8076833686177701
 40
0.9595334670962687
 40
1.0
 40
1.0
 40
1.0
 40
1.0
 10
119.3543372743175
 20
133.3061661632783
 30
0.0
 10
119.3660923451592
 20
133.3200178653043
 30
0.0
 10
119.3896173749984
 20
133.3477388129594
 30
0.0
 10
119.4171047354382
 20
133.4340991198339
 30
0.0
 10
119.433731520166
 20
133.5405691129183
 30
0.0
 10
119.4376311012583
 20
133.6552042767073
 30
0.0
 10
119.4294614392544
 20
133.7640378618468
 30
0.0
 10
119.4155684501301
 20
133.835422768759
 30
0.0
 10
119.4054994101328
 20
133.8681194535527
 30
0.0
 10
119.4033807210968
 20
133.8749993654019
 30
0.0
  0
ARC
  5
109
330
1F
100
AcDbEntity
  8
0
  6
Continuous
 62
     7
370
    25
100
AcDbCircle
 10
153.6486238532
 20
144.9773945907
 30
0.0
 40
35.99999999999996
100
AcDbArc
 50
194.0657267917
 51
197.9628273028
  0
ELLIPSE
  5
10A
330
1F
100
AcDbEntity
  8
0
  6
Continuous
 62
     7
370
    25
100
AcDbEllipse
 10
153.6486238532
 20
103.5754841307
 30
0.0
 11
0.0
 21
134.3538290724699
 31
0.0
210
0.0
220
0.0
230
1.0
 40
0.2679491924
 41
1.319493614626612
 42
1.32530308259311
  0
ELLIPSE
  5
10B
330
1F
100
AcDbEntity
  8
0
  6
Continuous
 62
     7
370
    25
100
AcDbEllipse
 10
153.6486238532
 20
134.5860340331
 30
0.0
 11
36.0
 21
0.0
 31
0.0
210
0.0
220
0.0
230
1.0
 40
0.2679491924
 41
2.796848035184066
 42
2.890289941421508
  0
SPLINE
  5
10C
330
1F
100
AcDbEntity
  8
0
  6
Continuous
 62
     7
370
    25
100
AcDbSpline
210
0.0
220
0.0
230
1.0
 70
     8
 71
     3
 72
    14
 73
    10
 74
     0
 42
0.000000001
 43
0.00000001
 40
0.0
 40
0.0
 40
0.0
 40
0.0
 40
0.1709711215603456
 40
0.3422195292467787
 40
0.5059305815594501
 40
0.6598470933570899
 40
0.8085058440487549
 40
0.9582224339974299
 40
1.0
 40
1.0
 40
1.0
 40
1.0
 10
119.7667976908729
 20
137.846017262531
 30
0.0
 10
119.780086603654
 20
137.8599606070323
 30
0.0
 10
119.806685981576
 20
137.8878699097718
 30
0.0
 10
119.837699157486
 20
137.9751661493083
 30
0.0
 10
119.8562157110326
 20
138.082479491131
 30
0.0
 10
119.8602990723661
 20
138.1968568215165
 30
0.0
 10
119.8510585434757
 20
138.3045093130009
 30
0.0
 10
119.8355991796403
 20
138.3752411125801
 30
0.0
 10
119.8243674669978
 20
138.407756667315
 30
0.0
 10
119.821917086129
 20
138.4148504646546
 30
0.0
  0
ARC
  5
10D
330
1F
100
AcDbEntity
  8
0
  6
Continuous
 62
     7
370
    25
100
AcDbCircle
 10
153.6486238532
 20
150.7336954862
 30
0.0
 40
35.99999999999995
100
AcDbArc
 50
196.0708062349
 51
200.0103668412
  0
ELLIPSE
  5
10E
330
1F
100
AcDbEntity
  8
0
  6
Continuous
 62
     7
370
    25
100
AcDbEllipse
 10
153.6486238532
 20
103.5754841307
 30
0.0
 11
0.0
 21
134.3538290724775
 31
0.0
210
0.0
220
0.0
230
1.0
 40
0.2679491924
 41
1.284442689420257
 42
1.290307844546369
  0
ELLIPSE
  5
10F
330
1F
100
AcDbEntity
  8
0
  6
Continuous
 62
     7
370
    25
100
AcDbEllipse
 10
153.6486238532
 20
138.7999387522
 30
0.0
 11
36.0
 21
0.0
 31
0.0
210
0.0
220
0.0
230
1.0
 40
0.2679491924
 41
2.760702908705186
 42
2.855239016215156
  0
SPLINE
  5
110
330
1F
100
AcDbEntity
  8
0
  6
Continuous
 62
     7
370
    25
100
AcDbSpline
210
0.0
220
0.0
230
1.0
 70
     8
 71
     3
 72
    14
 73
    10
 74
     0
 42
0.000000001
 43
0.00000001
 40
0.0
 40
0.0
 40
0.0
 40
0.0
 40
0.1734291881432772
 40
0.3472021822392528
 40
0.5114117207569373
 40
0.6635971097784172
 40
0.8095446836343226
 40
0.9569123092550001
 40
1.0
 40
1.0
 40
1.0
 40
1.0
 10
120.2285921268509
 20
142.3858683617837
 30
0.0
 10
120.2435063260415
 20
142.3999234008966
 30
0.0
 10
120.2733642903252
 20
142.4280613418264
 30
0.0
 10
120.3080958868609
 20
142.5164690326156
 30
0.0
 10
120.3285094752321
 20
142.6247765394978
 30
0.0
 10
120.3326721441772
 20
142.7388468468873
 30
0.0
 10
120.3222875367456
 20
142.8451500474907
 30
0.0
 10
120.3052471508485
 20
142.9151094086957
 30
0.0
 10
120.2928371851452
 20
142.9473969797933
 30
0.0
 10
120.2900296144531
 20
142.9547015639073
 30
0.0
  0
ARC
  5
111
330
1F
100
AcDbEntity
  8
0
  6
Continuous
 62
     7
370
    25
100
AcDbCircle
 10
153.6486238532
 20
156.4899963817
 30
0.0
 40
35.99999999999991
100
AcDbArc
 50
198.0963175384
 51
202.0849220966
  0
ELLIPSE
  5
112
330
1F
100
AcDbEntity
  8
0
  6
Continuous
 62
     7
370
    25
100
AcDbEllipse
 10
153.6486238532
 20
103.5754841307
 30
0.0
 11
0.0
 21
134.3538290724749
 31
0.0
210
0.0
220
0.0
230
1.0
 40
0.2679491924
 41
1.249026034032468
 42
1.254956003263017
  0
ELLIPSE
  5
113
330
1F
100
AcDbEntity
  8
0
  6
Continuous
 62
     7
370
    25
100
AcDbEllipse
 10
153.6486238532
 20
143.0138434714
 30
0.0
 11
36.0
 21
0.0
 31
0.0
210
0.0
220
0.0
230
1.0
 40
0.2679491924
 41
2.724026574383239
 42
2.819822360827367
  0
SPLINE
  5
114
330
1F
100
AcDbEntity
  8
0
  6
Continuous
 62
     7
370
    25
100
AcDbSpline
210
0.0
220
0.0
230
1.0
 70
     8
 71
     3
 72
    14
 73
    10
 74
     0
 42
0.000000001
 43
0.00000001
 40
0.0
 40
0.0
 40
0.0
 40
0.0
 40
0.1763009397834344
 40
0.3530388307122076
 40
0.5177752882942507
 40
0.6679275194119171
 40
0.8108475845696498
 40
0.9556559137692916
 40
0.9999999999999999
 40
0.9999999999999999
 40
0.9999999999999999
 40
0.9999999999999999
 10
120.7417918436573
 20
146.9257231863267
 30
0.0
 10
120.7584432985603
 20
146.9399088792876
 30
0.0
 10
120.7917874779834
 20
146.9683154235857
 30
0.0
 10
120.8304699986378
 20
147.0580483699793
 30
0.0
 10
120.8527826805461
 20
147.167533732489
 30
0.0
 10
120.8568872552898
 20
147.2812349746824
 30
0.0
 10
120.8452682824191
 20
147.3859977427105
 30
0.0
 10
120.8266254144762
 20
147.4550473579853
 30
0.0
 10
120.8130231320797
 20
147.4870500811223
 30
0.0
 10
120.8098342709587
 20
147.4945526631601
 30
0.0
  0
ARC
  5
115
330
1F
100
AcDbEntity
  8
0
  6
Continuous
 62
     7
370
    25
100
AcDbCircle
 10
153.6486238532
 20
162.2462972773
 30
0.0
 40
35.99999999999991
100
AcDbArc
 50
200.1455157669
 51
204.1904307172
  0
ELLIPSE
  5
116
330
1F
100
AcDbEntity
  8
0
  6
Continuous
 62
     7
370
    25
100
AcDbEllipse
 10
153.6486238532
 20
103.5754841307
 30
0.0
 11
0.0
 21
134.3538290724749
 31
0.0
210
0.0
220
0.0
230
1.0
 40
0.2679491924
 41
1.213185985448692
 42
1.219190747149435
  0
ELLIPSE
  5
117
330
1F
100
AcDbEntity
  8
0
  6
Continuous
 62
     7
370
    25
100
AcDbEllipse
 10
153.6486238532
 20
147.2277481906
 30
0.0
 11
36.0
 21
0.0
 31
0.0
210
0.0
220
0.0
230
1.0
 40
0.2679491924
 41
2.686743148031763
 42
2.783982312243587
  0
SPLINE
  5
118
330
1F
100
AcDbEntity
  8
0
  6
Continuous
 62
     7
370
    25
100
AcDbSpline
210
0.0
220
0.0
230
1.0
 70
     8
 71
     3
 72
    14
 73
    10
 74
     0
 42
0.000000001
 43
0.00000001
 40
0.0
 40
0.0
 40
0.0
 40
0.0
 40
0.1796688981020127
 40
0.3598783289814176
 40
0.5251298146338449
 40
0.672928981934396
 40
0.8124847797917198
 40
0.9545181713185193
 40
0.9999999999999999
 40
0.9999999999999999
 40
0.9999999999999999
 40
0.9999999999999999
 10
121.3088480823085
 20
151.4655705602891
 30
0.0
 10
121.3273711489014
 20
151.4799183922783
 30
0.0
 10
121.3644730086194
 20
151.5086572216212
 30
0.0
 10
121.4073854989541
 20
151.5999594987503
 30
0.0
 10
121.4315761209045
 20
151.7108411262926
 30
0.0
 10
121.4354626059552
 20
151.824095670755
 30
0.0
 10
121.4224986563556
 20
151.9271098712224
 30
0.0
 10
121.4022225782483
 20
151.9950784429625
 30
0.0
 10
121.3874208786278
 20
152.0267303223329
 30
0.0
 10
121.383830725436
 20
152.034407487703
 30
0.0
  0
ARC
  5
119
330
1F
100
AcDbEntity
  8
0
  6
Continuous
 62
     7
370
    25
100
AcDbCircle
 10
153.6486238532
 20
168.0025981728
 30
0.0
 40
35.99999999999988
100
AcDbArc
 50
202.2219751823
 51
206.3313057306
  0
ELLIPSE
  5
11A
330
1F
100
AcDbEntity
  8
0
  6
Continuous
 62
     7
370
    25
100
AcDbEllipse
 10
153.6486238532
 20
103.5754841307
 30
0.0
 11
0.0
 21
134.3538290724749
 31
0.0
210
0.0
220
0.0
230
1.0
 40
0.2679491924
 41
1.176859117112093
 42
1.182949693567638
  0
ELLIPSE
  5
11B
330
1F
100
AcDbEntity
  8
0
  6
Continuous
 62
     7
370
    25
100
AcDbEllipse
 10
153.6486238532
 20
151.4416529098
 30
0.0
 11
36.0
 21
0.0
 31
0.0
210
0.0
220
0.0
230
1.0
 40
0.2679491924
 41
2.648766754019483
 42
2.747655443906991
  0
SPLINE
  5
11C
330
1F
100
AcDbEntity
  8
0
  6
Continuous
 62
     7
370
    25
100
AcDbSpline
210
0.0
220
0.0
230
1.0
 70
     8
 71
     3
 72
    14
 73
    10
 74
     0
 42
0.000000001
 43
0.00000001
 40
0.0
 40
0.0
 40
0.0
 40
0.0
 40
0.1836208854014379
 40
0.3679170959325873
 40
0.5336397319558742
 40
0.6786770908811653
 40
0.8145218603497241
 40
0.953592368133469
 40
0.9999999999999999
 40
0.9999999999999999
 40
0.9999999999999999
 40
0.9999999999999999
 10
121.9326460801408
 20
156.0054253848321
 30
0.0
 10
121.9532111230761
 20
156.0199638692179
 30
0.0
 10
121.994416843536
 20
156.0490943079629
 30
0.0
 10
122.041879805226
 20
156.142282054584
 30
0.0
 10
122.067919726061
 20
156.2548103601263
 30
0.0
 10
122.0713561394347
 20
156.3675094099976
 30
0.0
 10
122.0569216699173
 20
156.4685345360288
 30
0.0
 10
122.0349862327451
 20
156.5352295036903
 30
0.0
 10
122.0189768935432
 20
156.5664446608303
 30
0.0
 10
122.0149712704466
 20
156.5742548616655
 30
0.0
  0
ARC
  5
11D
330
1F
100
AcDbEntity
  8
0
  6
Continuous
 62
     7
370
    25
100
AcDbCircle
 10
153.6486238532
 20
173.7588990684
 30
0.0
 40
35.99999999999986
100
AcDbArc
 50
204.329661652
 51
208.5125483374
  0
ELLIPSE
  5
11E
330
1F
100
AcDbEntity
  8
0
  6
Continuous
 62
     7
370
    25
100
AcDbEllipse
 10
153.6486238532
 20
103.5754841307
 30
0.0
 11
0.0
 21
134.3538290724749
 31
0.0
210
0.0
220
0.0
230
1.0
 40
0.2679491924
 41
1.139974929109127
 42
1.146163625070657
  0
ELLIPSE
  5
11F
330
1F
100
AcDbEntity
  8
0
  6
Continuous
 62
     7
370
    25
100
AcDbEllipse
 10
153.6486238532
 20
155.655557629
 30
0.0
 11
36.0
 21
0.0
 31
0.0
210
0.0
220
0.0
230
1.0
 40
0.2679491924
 41
2.609999069916003
 42
2.710771255904024
  0
SPLINE
  5
120
330
1F
100
AcDbEntity
  8
0
  6
Continuous
 62
     7
370
    25
100
AcDbSpline
210
0.0
220
0.0
230
1.0
 70
     8
 71
     3
 72
    14
 73
    10
 74
     0
 42
0.000000001
 43
0.00000001
 40
0.0
 40
0.0
 40
0.0
 40
0.0
 40
0.1882734720499064
 40
0.3773805629809756
 40
0.5434976953610637
 40
0.6852862939903694
 40
0.8170495522647323
 40
0.9530037001056809
 40
0.9999999999999999
 40
0.9999999999999999
 40
0.9999999999999999
 40
0.9999999999999999
 10
122.6166112415836
 20
160.5452727587945
 30
0.0
 10
122.6394260925832
 20
160.5600455780705
 30
0.0
 10
122.68515681195
 20
160.5896566262682
 30
0.0
 10
122.7375787972169
 20
160.6850991863112
 30
0.0
 10
122.7653744928751
 20
160.799595976994
 30
0.0
 10
122.7680860412854
 20
160.9115951243738
 30
0.0
 10
122.7520168136233
 20
161.0103592103983
 30
0.0
 10
122.7283898562975
 20
161.0755521955309
 30
0.0
 10
122.71116995118
 20
161.1062293425474
 30
0.0
 10
122.706746503
 20
161.1141096862085
 30
0.0
  0
ARC
  5
121
330
1F
100
AcDbEntity
  8
0
  6
Continuous
 62
     7
370
    25
100
AcDbCircle
 10
153.6486238532
 20
179.5151999639
 30
0.0
 40
35.99999999999985
100
AcDbArc
 50
206.4730230109
 51
210.7398932757
  0
ELLIPSE
  5
122
330
1F
100
AcDbEntity
  8
0
  6
Continuous
 62
     7
370
    25
100
AcDbEllipse
 10
153.6486238532
 20
103.5754841307
 30
0.0
 11
0.0
 21
134.3538290724749
 31
0.0
210
0.0
220
0.0
230
1.0
 40
0.2679491924
 41
1.10245420918047
 42
1.108754912298945
  0
ELLIPSE
  5
123
330
1F
100
AcDbEntity
  8
0
  6
Continuous
 62
     7
370
    25
100
AcDbEllipse
 10
153.6486238532
 20
159.8694623482
 30
0.0
 11
36.0
 21
-2.842170943040401E-14
 31
0.0
210
0.0
220
0.0
230
1.0
 40
0.2679491924
 41
2.570326112031391
 42
2.673250535975369
  0
SPLINE
  5
124
330
1F
100
AcDbEntity
  8
0
  6
Continuous
 62
     7
370
    25
100
AcDbSpline
210
0.0
220
0.0
230
1.0
 70
     8
 71
     3
 72
    14
 73
    10
 74
     0
 42
0.000000001
 43
0.00000001
 40
0.0
 40
0.0
 40
0.0
 40
0.0
 40
0.193696406411235
 40
0.3884274037311145
 40
0.5258540599568549
 40
0.6636988313321418
 40
0.7916096696545067
 40
0.9219265864987773
 40
1.0
 40
1.0
 40
1.0
 40
1.0
 10
123.3648171715782
 20
165.0851275833375
 30
0.0
 10
123.3901442619266
 20
165.1001645527632
 30
0.0
 10
123.4409337222495
 20
165.1303188086023
 30
0.0
 10
123.495798695942
 20
165.2236421112253
 30
0.0
 10
123.525189665405
 20
165.3308538878362
 30
0.0
 10
123.5312217699059
 20
165.4341622162784
 30
0.0
 10
123.5173407649583
 20
165.5321293415263
 30
0.0
 10
123.4922694101127
 20
165.6051218156423
 30
0.0
 10
123.4712162952961
 20
165.6406474029405
 30
0.0
 10
123.4633287482307
 20
165.6539570601709
 30
0.0
  0
ARC
  5
125
330
1F
100
AcDbEntity
  8
0
  6
Continuous
 62
     7
370
    25
100
AcDbCircle
 10
153.6486238532
 20
185.2715008594
 30
0.0
 40
35.99999999999982
100
AcDbArc
 50
208.6571036847
 51
213.0199995721
  0
ELLIPSE
  5
126
330
1F
100
AcDbEntity
  8
0
  6
Continuous
 62
     7
370
    25
100
AcDbEllipse
 10
153.6486238532
 20
103.5754841307
 30
0.0
 11
0.0
 21
134.3538290724699
 31
0.0
210
0.0
220
0.0
230
1.0
 40
0.2679491924
 41
1.064206947873219
 42
1.070635513410878
  0
ELLIPSE
  5
127
330
1F
100
AcDbEntity
  8
0
  6
Continuous
 62
     7
370
    25
100
AcDbEllipse
 10
153.6486238532
 20
164.0833670674
 30
0.0
 11
36.0
 21
-2.842170943040401E-14
 31
0.0
210
0.0
220
0.0
230
1.0
 40
0.2679491924
 41
2.535640700357212
 42
2.635003274668121
  0
LINE
  5
128
330
1F
100
AcDbEntity
  8
0
  6
Continuous
 62
     7
370
    25
100
AcDbLine
 10
131.021207019
 20
169.5772912415
 30
0.0
 11
124.0580527179
 21
169.5772912415
 31
0.0
  0
ARC
  5
129
330
1F
100
AcDbEntity
  8
0
  6
Continuous
 62
     7
370
    25
100
AcDbCircle
 10
153.6486238532
 20
98.577293578
 30
0.0
 40
35.99999999999994
100
AcDbArc
 50
126.3360575146
 51
127.6584620062
  0
ELLIPSE
  5
12A
330
1F
100
AcDbEntity
  8
0
  6
Continuous
 62
     7
370
    25
100
AcDbEllipse
 10
153.6486238532
 20
134.7138455623
 30
0.0
 11
36.0
 21
0.0
 31
0.0
210
0.0
220
0.0
230
1.0
 40
0.2679491924
 41
3.368585660686025
 42
4.055124827139196
  0
ELLIPSE
  5
12B
330
1F
100
AcDbEntity
  8
0
  6
Continuous
 62
     7
370
    25
100
AcDbEllipse
 10
153.6486238532
 20
130.3721293139
 30
0.0
 11
36.0
 21
0.0
 31
0.0
210
0.0
220
0.0
230
1.0
 40
0.2679491924
 41
2.832529755889158
 42
2.914599646493612
  0
ARC
  5
12C
330
1F
100
AcDbEntity
  8
0
  6
Continuous
 62
     7
370
    25
100
AcDbCircle
 10
146.4703236616
 20
147.0505722066
 30
0.0
 40
10.83272256326968
100
AcDbArc
 50
183.7930274071
 51
270.9430968751
  0
LINE
  5
12D
330
1F
100
AcDbEntity
  8
0
  6
Continuous
 62
     7
370
    25
100
AcDbLine
 10
164.6486239575
 20
136.2193170996
 30
0.0
 11
146.6486238011
 21
136.2193170996
 31
0.0
  0
LINE
  5
12E
330
1F
100
AcDbEntity
  8
0
  6
Continuous
 62
     7
370
    25
100
AcDbLine
 10
155.9986237504
 20
114.7983167382
 30
0.0
 11
185.7870480113
 21
114.7983167382
 31
0.0
  0
LINE
  5
12F
330
1F
100
AcDbEntity
  8
0
  6
Continuous
 62
     7
370
    25
100
AcDbLine
 10
155.9986237504
 20
114.7983167382
 30
0.0
 11
155.9986237504
 21
124.6278043898
 31
0.0
  0
ELLIPSE
  5
130
330
1F
100
AcDbEntity
  8
0
  6
Continuous
 62
     7
370
    25
100
AcDbEllipse
 10
152.9986238532
 20
124.6278038352
 30
0.0
 11
3.0
 21
0.0
 31
0.0
210
0.0
220
0.0
230
1.0
 40
0.8164965809
 41
0.0
 42
1.570796326794897
  0
LINE
  5
131
330
1F
100
AcDbEntity
  8
0
  6
Continuous
 62
     7
370
    25
100
AcDbLine
 10
152.9986238407
 20
127.0772945197
 30
0.0
 11
131.6543070667
 21
127.0772945197
 31
0.0
  0
LINE
  5
132
330
1F
100
AcDbEntity
  8
0
  6
Continuous
 62
     7
370
    25
100
AcDbLine
 10
164.6486239575
 20
153.1230192693
 30
0.0
 11
146.6486238011
 21
153.1230192693
 31
0.0
  0
ARC
  5
133
330
1F
100
AcDbEntity
  8
0
  6
Continuous
 62
     7
370
    25
100
AcDbCircle
 10
146.4775376865
 20
146.8445006819
 30
0.0
 40
6.280849155195143
100
AcDbArc
 50
88.4391083634
 51
271.5608916366
  0
LINE
  5
134
330
1F
100
AcDbEntity
  8
0
  6
Continuous
 62
     7
370
    25
100
AcDbLine
 10
146.6486238011
 20
140.5659820946
 30
0.0
 11
164.6486239575
 21
140.5659820946
 31
0.0
  0
ARC
  5
135
330
1F
100
AcDbEntity
  8
0
  6
Continuous
 62
     7
370
    25
100
AcDbCircle
 10
164.8197100721
 20
146.8445006819
 30
0.0
 40
6.280849155195143
100
AcDbArc
 50
268.4391083634
 51
91.5608916366
  0
ELLIPSE
  5
136
330
1F
100
AcDbEntity
  8
0
  6
Continuous
 62
     7
370
    25
100
AcDbEllipse
 10
164.6486238532
 20
152.4838498501
 30
0.0
 11
0.0
 21
9.192388155424368
 31
0.0
210
0.0
220
0.0
230
1.0
 40
0.7071067812
 41
3.141592653589793
 42
3.816689384132999
  0
ARC
  5
137
330
1F
100
AcDbEntity
  8
0
  6
Continuous
 62
     7
370
    25
100
AcDbCircle
 10
164.7915547311
 20
150.3789509921
 30
0.0
 40
6.409193052376162
100
AcDbArc
 50
307.6999691423
 51
317.687064212
  0
ELLIPSE
  5
138
330
1F
100
AcDbEntity
  8
0
  6
Continuous
 62
     7
370
    25
100
AcDbEllipse
 10
164.6486238532
 20
148.2855685247
 30
0.0
 11
6.500000000000028
 21
0.0
 31
0.0
210
0.0
220
0.0
230
1.0
 40
0.5176380902
 41
5.562172706815151
 42
5.867127867060638
  0
SPLINE
  5
139
330
1F
100
AcDbEntity
  8
0
  6
Continuous
 62
     7
370
    25
100
AcDbSpline
210
0.0
220
0.0
230
1.0
 70
     8
 71
     3
 72
    13
 73
     9
 74
     0
 42
0.000000001
 43
0.00000001
 40
0.0
 40
0.0
 40
0.0
 40
0.0
 40
0.1612477806422101
 40
0.3221151665937788
 40
0.4925188137940076
 40
0.6686541153191273
 40
0.8417163036845149
 40
1.0
 40
1.0
 40
1.0
 40
1.0
 10
170.594105317478
 20
146.9257231863267
 30
0.0
 10
170.6041643172553
 20
146.9396416930852
 30
0.0
 10
170.6242585869324
 20
146.9674458718801
 30
0.0
 10
170.66723295226
 20
147.0513585645448
 30
0.0
 10
170.7136431549295
 20
147.157967457316
 30
0.0
 10
170.7590789163854
 20
147.2804137423864
 30
0.0
 10
170.7973604973262
 20
147.4011546926072
 30
0.0
 10
170.8132380594708
 20
147.4643596834439
 30
0.0
 10
170.820822759752
 20
147.4945526631601
 30
0.0
  0
ELLIPSE
  5
13A
330
1F
100
AcDbEntity
  8
0
  6
Continuous
 62
     7
370
    25
100
AcDbEllipse
 10
164.6486238532
 20
150.3768974905
 30
0.0
 11
0.0
 21
9.192388155424339
 31
0.0
210
0.0
220
0.0
230
1.0
 40
0.7071067812
 41
4.393451497048014
 42
4.482031875460802
  0
ELLIPSE
  5
13B
330
1F
100
AcDbEntity
  8
0
  6
Continuous
 62
     7
370
    25
100
AcDbEllipse
 10
146.6486238532
 20
150.3768974905
 30
0.0
 11
0.0
 21
9.192388155424339
 31
0.0
210
0.0
220
0.0
230
1.0
 40
0.7071067812
 41
1.801153431719571
 42
1.889733810131583
  0
SPLINE
  5
13C
330
1F
100
AcDbEntity
  8
0
  6
Continuous
 62
     7
370
    25
100
AcDbSpline
210
0.0
220
0.0
230
1.0
 70
     8
 71
     3
 72
    13
 73
     9
 74
     0
 42
0.000000001
 43
0.00000001
 40
0.0
 40
0.0
 40
0.0
 40
0.0
 40
0.1566806923433584
 40
0.3131053165391601
 40
0.4761001386460027
 40
0.647708134356318
 40
0.823902007836295
 40
1.0
 40
1.0
 40
1.0
 40
1.0
 10
140.4764249988244
 20
147.4945526631601
 30
0.0
 10
140.4839155172565
 20
147.4647035558869
 30
0.0
 10
140.4988843121327
 20
147.4050541246685
 30
0.0
 10
140.5341287870405
 20
147.2928551088373
 30
0.0
 10
140.5762646048884
 20
147.1766879952116
 30
0.0
 10
140.6229706529247
 20
147.066224759085
 30
0.0
 10
140.6697341260727
 20
146.9725243034716
 30
0.0
 10
140.692008356841
 20
146.9413207278738
 30
0.0
 10
140.7031424410985
 20
146.9257231863267
 30
0.0
  0
ELLIPSE
  5
13D
330
1F
100
AcDbEntity
  8
0
  6
Continuous
 62
     7
370
    25
100
AcDbEllipse
 10
146.6486238532
 20
148.2855685247
 30
0.0
 11
6.499999999999972
 21
0.0
 31
0.0
210
0.0
220
0.0
230
1.0
 40
0.5176380902
 41
3.55765009370878
 42
3.862605253954258
  0
ARC
  5
13E
330
1F
100
AcDbEntity
  8
0
  6
Continuous
 62
     7
370
    25
100
AcDbCircle
 10
146.505530673
 20
150.3787691762
 30
0.0
 40
6.408949911229341
100
AcDbArc
 50
222.3127165054
 51
232.3001852825
  0
ELLIPSE
  5
13F
330
1F
100
AcDbEntity
  8
0
  6
Continuous
 62
     7
370
    25
100
AcDbEllipse
 10
146.6486238532
 20
152.4838498501
 30
0.0
 11
0.0
 21
9.192388155424368
 31
0.0
210
0.0
220
0.0
230
1.0
 40
0.7071067812
 41
2.4664959230466
 42
3.141592653589789
  0
LINE
  5
140
330
1F
100
AcDbEntity
  8
0
  6
Continuous
 62
     7
370
    25
100
AcDbLine
 10
146.6486238011
 20
143.2914603563
 30
0.0
 11
164.6486239575
 21
143.2914603563
 31
0.0
  0
LINE
  5
141
330
1F
100
AcDbEntity
  8
0
  6
Continuous
 62
     7
370
    25
100
AcDbLine
 10
155.9986237504
 20
111.5772929104
 30
0.0
 11
189.4027849727
 21
111.5772929104
 31
0.0
  0
LINE
  5
142
330
1F
100
AcDbEntity
  8
0
  6
Continuous
 62
     7
370
    25
100
AcDbLine
 10
155.9986237504
 20
111.5772929104
 30
0.0
 11
155.9986237504
 21
114.7983167382
 31
0.0
  0
SPLINE
  5
143
330
1F
100
AcDbEntity
  8
0
  6
Continuous
 62
     7
370
    25
100
AcDbSpline
210
0.0
220
0.0
230
1.0
 70
     8
 71
     3
 72
     9
 73
     5
 74
     0
 42
0.000000001
 43
0.00000001
 40
0.0
 40
0.0
 40
0.0
 40
0.0
 40
0.7510400148142009
 40
1.0
 40
1.0
 40
1.0
 40
1.0
 10
189.7371968321846
 20
108.5772942813165
 30
0.0
 10
189.7006840103575
 20
108.6791401659003
 30
0.0
 10
189.6520676635494
 20
108.8147466350295
 30
0.0
 10
189.6484934393182
 20
108.9562730362148
 30
0.0
 10
189.6476036005066
 20
108.9915074469573
 30
0.0
  0
LINE
  5
144
330
1F
100
AcDbEntity
  8
0
  6
Continuous
 62
     7
370
    25
100
AcDbLine
 10
155.9986237504
 20
108.5772942813
 30
0.0
 11
155.9986237504
 21
111.5772929104
 31
0.0
  0
LINE
  5
145
330
1F
100
AcDbEntity
  8
0
  6
Continuous
 62
     7
370
    25
100
AcDbLine
 10
175.9986242347
 20
82.4272935922
 30
0.0
 11
183.0277497016
 21
82.4272935922
 31
0.0
  0
ELLIPSE
  5
146
330
1F
100
AcDbEntity
  8
0
  6
Continuous
 62
     7
370
    25
100
AcDbEllipse
 10
175.9986238532
 20
102.5774900872
 30
0.0
 11
0.0
 21
20.15019650917696
 31
0.0
210
-1.637578961322104E-16
220
0.0
230
1.0
 40
0.9925461516
 41
1.570796326794896
 42
3.141592653589792
  0
LINE
  5
147
330
1F
100
AcDbEntity
  8
0
  6
Continuous
 62
     7
370
    25
100
AcDbLine
 10
191.2731340222
 20
106.9515887709
 30
0.0
 11
189.9402773075
 21
108.2844007822
 31
0.0
  0
LWPOLYLINE
  5
148
330
1F
100
AcDbEntity
  8
0
  6
Continuous
 62
     7
370
    25
100
AcDbPolyline
 90
        3
 70
   128
 43
0.0
 10
193.4112234108
 20
94.8262326481
 10
193.185075938
 20
96.108752309
 10
191.2731340222
 20
106.9515887709
  0
ARC
  5
149
330
1F
100
AcDbEntity
  8
0
  6
Continuous
 62
     7
370
    25
100
AcDbCircle
 10
181.9033697008
 20
93.935066323
 30
0.0
 40
2.100000000000013
100
AcDbArc
 50
24.0371863078
 51
255.9628136922
  0
LINE
  5
14A
330
1F
100
AcDbEntity
  8
0
  6
Continuous
 62
     7
370
    25
100
AcDbLine
 10
189.9402773075
 20
108.2844007822
 30
0.0
 11
189.7371968322
 21
108.5772942813
 31
0.0
  0
LINE
  5
14B
330
1F
100
AcDbEntity
  8
0
  6
Continuous
 62
     7
370
    25
100
AcDbLine
 10
155.9986237504
 20
102.5774907382
 30
0.0
 11
155.9986237504
 21
108.5772942813
 31
0.0
  0
ELLIPSE
  5
14C
330
1F
100
AcDbEntity
  8
0
  6
Continuous
 62
     7
370
    25
100
AcDbEllipse
 10
151.6486238532
 20
164.0833670674
 30
0.0
 11
35.99999999999997
 21
0.0
 31
0.0
210
0.0
220
0.0
230
1.0
 40
0.2679491924
 41
2.535640700357212
 42
2.635003274668119
  0
ELLIPSE
  5
14D
330
1F
100
AcDbEntity
  8
0
  6
Continuous
 62
     7
370
    25
100
AcDbEllipse
 10
151.6486238532
 20
103.5754841307
 30
0.0
 11
0.0
 21
134.35382907247
 31
0.0
210
0.0
220
0.0
230
1.0
 40
0.2679491924
 41
1.064206947873219
 42
1.070635513410878
  0
ARC
  5
14E
330
1F
100
AcDbEntity
  8
0
  6
Continuous
 62
     7
370
    25
100
AcDbCircle
 10
151.6486238532
 20
185.2715008594
 30
0.0
 40
35.99999999999982
100
AcDbArc
 50
208.6571036847
 51
213.0199995721
  0
SPLINE
  5
14F
330
1F
100
AcDbEntity
  8
0
  6
Continuous
 62
     7
370
    25
100
AcDbSpline
210
0.0
220
0.0
230
1.0
 70
     8
 71
     3
 72
    14
 73
    10
 74
     0
 42
0.000000001
 43
0.00000001
 40
0.0
 40
0.0
 40
0.0
 40
0.0
 40
0.149344051128246
 40
0.2994003246623441
 40
0.4346797346358744
 40
0.5617802931873661
 40
0.6953406553388297
 40
0.8463376764258849
 40
0.9999999999999999
 40
0.9999999999999999
 40
0.9999999999999999
 40
0.9999999999999999
 10
121.4633284204052
 20
165.6539570601709
 30
0.0
 10
121.477976990121
 20
165.6272224462471
 30
0.0
 10
121.5073439886429
 20
165.5736257209137
 30
0.0
 10
121.529132045533
 20
165.4678917526828
 30
0.0
 10
121.5289849516063
 20
165.362221820825
 30
0.0
 10
121.5098267679481
 20
165.2669657602017
 30
0.0
 10
121.4744499807134
 20
165.1845815193636
 30
0.0
 10
121.4248983914176
 20
165.1186083821835
 30
0.0
 10
121.3849604914525
 20
165.0963527505123
 30
0.0
 10
121.3648168437526
 20
165.0851275833375
 30
0.0
  0
ELLIPSE
  5
150
330
1F
100
AcDbEntity
  8
0
  6
Continuous
 62
     7
370
    25
100
AcDbEllipse
 10
151.6486238532
 20
159.8694623482
 30
0.0
 11
35.99999999999997
 21
0.0
 31
0.0
210
0.0
220
0.0
230
1.0
 40
0.2679491924
 41
2.570326112031389
 42
2.673250535975366
  0
ELLIPSE
  5
151
330
1F
100
AcDbEntity
  8
0
  6
Continuous
 62
     7
370
    25
100
AcDbEllipse
 10
151.6486238532
 20
103.5754841307
 30
0.0
 11
0.0
 21
134.3538290724749
 31
0.0
210
0.0
220
0.0
230
1.0
 40
0.2679491924
 41
1.102454209180469
 42
1.108754912298945
  0
ARC
  5
152
330
1F
100
AcDbEntity
  8
0
  6
Continuous
 62
     7
370
    25
100
AcDbCircle
 10
151.6486238532
 20
179.5151999639
 30
0.0
 40
35.99999999999982
100
AcDbArc
 50
206.4730230109
 51
210.7398932757
  0
SPLINE
  5
153
330
1F
100
AcDbEntity
  8
0
  6
Continuous
 62
     7
370
    25
100
AcDbSpline
210
0.0
220
0.0
230
1.0
 70
     8
 71
     3
 72
    14
 73
    10
 74
     0
 42
0.000000001
 43
0.00000001
 40
0.0
 40
0.0
 40
0.0
 40
0.0
 40
0.1505856196071443
 40
0.301779243729728
 40
0.4401958124010052
 40
0.5716604086007154
 40
0.7091825723324853
 40
0.8625281199624524
 40
1.0
 40
1.0
 40
1.0
 40
1.0
 10
120.7067480378196
 20
161.1141096862085
 30
0.0
 10
120.720282825112
 20
161.0870292386162
 30
0.0
 10
120.7474070477556
 20
161.0327590034132
 30
0.0
 10
120.7671640006967
 20
160.9262310535948
 30
0.0
 10
120.7666720684639
 20
160.819427833562
 30
0.0
 10
120.7481192640209
 20
160.7224716451665
 30
0.0
 10
120.7140831698231
 20
160.639165739851
 30
0.0
 10
120.6686831864589
 20
160.576319265152
 30
0.0
 10
120.6333250205481
 20
160.5552380358182
 30
0.0
 10
120.6166109137581
 20
160.5452727587945
 30
0.0
  0
ELLIPSE
  5
154
330
1F
100
AcDbEntity
  8
0
  6
Continuous
 62
     7
370
    25
100
AcDbEllipse
 10
151.6486238532
 20
155.655557629
 30
0.0
 11
35.99999999999997
 21
0.0
 31
0.0
210
0.0
220
0.0
230
1.0
 40
0.2679491924
 41
2.609999069916002
 42
2.710771255904025
  0
ELLIPSE
  5
155
330
1F
100
AcDbEntity
  8
0
  6
Continuous
 62
     7
370
    25
100
AcDbEllipse
 10
151.6486238532
 20
103.5754841307
 30
0.0
 11
0.0
 21
134.3538290724749
 31
0.0
210
0.0
220
0.0
230
1.0
 40
0.2679491924
 41
1.139974929109126
 42
1.146163625070657
  0
ARC
  5
156
330
1F
100
AcDbEntity
  8
0
  6
Continuous
 62
     7
370
    25
100
AcDbCircle
 10
151.6486238532
 20
173.7588990684
 30
0.0
 40
35.99999999999986
100
AcDbArc
 50
204.329661652
 51
208.5125483374
  0
SPLINE
  5
157
330
1F
100
AcDbEntity
  8
0
  6
Continuous
 62
     7
370
    25
100
AcDbSpline
210
0.0
220
0.0
230
1.0
 70
     8
 71
     3
 72
    14
 73
    10
 74
     0
 42
0.000000001
 43
0.00000001
 40
0.0
 40
0.0
 40
0.0
 40
0.0
 40
0.1518131866256735
 40
0.3041345646492462
 40
0.4454637763307632
 40
0.5809500065080615
 40
0.7220134989651904
 40
0.8772852363539395
 40
1.0
 40
1.0
 40
1.0
 40
1.0
 10
120.0149690799759
 20
156.5742548616655
 30
0.0
 10
120.0274496592302
 20
156.5468468462406
 30
0.0
 10
120.0524525962113
 20
156.4919390676449
 30
0.0
 10
120.0703356843595
 20
156.3846210646414
 30
0.0
 10
120.069559510738
 20
156.2767303691462
 30
0.0
 10
120.0517131661624
 20
156.1782384715794
 30
0.0
 10
120.0191821360449
 20
156.0941999389995
 30
0.0
 10
119.9777036972657
 20
156.034209262642
 30
0.0
 10
119.9464434558967
 20
156.0142404475074
 30
0.0
 10
119.9326438896701
 20
156.0054253848321
 30
0.0
  0
ELLIPSE
  5
158
330
1F
100
AcDbEntity
  8
0
  6
Continuous
 62
     7
370
    25
100
AcDbEllipse
 10
151.6486238532
 20
151.4416529098
 30
0.0
 11
35.99999999999997
 21
0.0
 31
0.0
210
0.0
220
0.0
230
1.0
 40
0.2679491924
 41
2.648766754019485
 42
2.747655443906992
  0
ELLIPSE
  5
159
330
1F
100
AcDbEntity
  8
0
  6
Continuous
 62
     7
370
    25
100
AcDbEllipse
 10
151.6486238532
 20
103.5754841307
 30
0.0
 11
0.0
 21
134.3538290724749
 31
0.0
210
0.0
220
0.0
230
1.0
 40
0.2679491924
 41
1.176859117112092
 42
1.182949693567638
  0
ARC
  5
15A
330
1F
100
AcDbEntity
  8
0
  6
Continuous
 62
     7
370
    25
100
AcDbCircle
 10
151.6486238532
 20
168.0025981728
 30
0.0
 40
35.99999999999989
100
AcDbArc
 50
202.2219751823
 51
206.3313057306
  0
SPLINE
  5
15B
330
1F
100
AcDbEntity
  8
0
  6
Continuous
 62
     7
370
    25
100
AcDbSpline
210
0.0
220
0.0
230
1.0
 70
     8
 71
     3
 72
    14
 73
    10
 74
     0
 42
0.000000001
 43
0.00000001
 40
0.0
 40
0.0
 40
0.0
 40
0.0
 40
0.1529939734175136
 40
0.3064251797790953
 40
0.4504720887646336
 40
0.5896241396381213
 40
0.7338583423525479
 40
0.8906590553297544
 40
1.0
 40
1.0
 40
1.0
 40
1.0
 10
119.3838341229007
 20
152.034407487703
 30
0.0
 10
119.3953005062135
 20
152.0066906269061
 30
0.0
 10
119.4182660419764
 20
151.9511776948414
 30
0.0
 10
119.4344315676709
 20
151.8430869623561
 30
0.0
 10
119.4334196285763
 20
151.7341587553388
 30
0.0
 10
119.4163802770413
 20
151.6342882387879
 30
0.0
 10
119.3855147231877
 20
151.5496636897366
 30
0.0
 10
119.3477432882247
 20
151.4923151145619
 30
0.0
 10
119.3201741764704
 20
151.4733586037588
 30
0.0
 10
119.308847754483
 20
151.4655705602891
 30
0.0
  0
ELLIPSE
  5
15C
330
1F
100
AcDbEntity
  8
0
  6
Continuous
 62
     7
370
    25
100
AcDbEllipse
 10
151.6486238532
 20
147.2277481906
 30
0.0
 11
35.99999999999997
 21
0.0
 31
0.0
210
0.0
220
0.0
230
1.0
 40
0.2679491924
 41
2.686743148031766
 42
2.783982312243589
  0
ELLIPSE
  5
15D
330
1F
100
AcDbEntity
  8
0
  6
Continuous
 62
     7
370
    25
100
AcDbEllipse
 10
151.6486238532
 20
103.5754841307
 30
0.0
 11
0.0
 21
134.3538290724749
 31
0.0
210
0.0
220
0.0
230
1.0
 40
0.2679491924
 41
1.213185985448692
 42
1.219190747149434
  0
ARC
  5
15E
330
1F
100
AcDbEntity
  8
0
  6
Continuous
 62
     7
370
    25
100
AcDbCircle
 10
151.6486238532
 20
162.2462972773
 30
0.0
 40
35.99999999999989
100
AcDbArc
 50
200.1455157669
 51
204.1904307172
  0
SPLINE
  5
15F
330
1F
100
AcDbEntity
  8
0
  6
Continuous
 62
     7
370
    25
100
AcDbSpline
210
0.0
220
0.0
230
1.0
 70
     8
 71
     3
 72
    14
 73
    10
 74
     0
 42
0.000000001
 43
0.00000001
 40
0.0
 40
0.0
 40
0.0
 40
0.0
 40
0.1541237600787138
 40
0.3086147289911951
 40
0.4551642162810604
 40
0.5976651823198892
 40
0.7447139486827389
 40
0.9027238296488244
 40
1.0
 40
1.0
 40
1.0
 40
1.0
 10
118.8098339431331
 20
147.4945526631601
 30
0.0
 10
118.8203268040923
 20
147.4665483338047
 30
0.0
 10
118.8413375258631
 20
147.4104729531484
 30
0.0
 10
118.8558921101382
 20
147.3016438670149
 30
0.0
 10
118.8547193380235
 20
147.1917437597768
 30
0.0
 10
118.8385677396495
 20
147.0906390885239
 30
0.0
 10
118.8095250981185
 20
147.0055564808928
 30
0.0
 10
118.7752757251748
 20
146.9506087866126
 30
0.0
 10
118.7510302131508
 20
146.9325894236713
 30
0.0
 10
118.7417915158317
 20
146.9257231863267
 30
0.0
  0
ELLIPSE
  5
160
330
1F
100
AcDbEntity
  8
0
  6
Continuous
 62
     7
370
    25
100
AcDbEllipse
 10
151.6486238532
 20
143.0138434714
 30
0.0
 11
35.99999999999997
 21
0.0
 31
0.0
210
0.0
220
0.0
230
1.0
 40
0.2679491924
 41
2.724026574383239
 42
2.819822360827366
  0
ELLIPSE
  5
161
330
1F
100
AcDbEntity
  8
0
  6
Continuous
 62
     7
370
    25
100
AcDbEllipse
 10
151.6486238532
 20
103.5754841307
 30
0.0
 11
0.0
 21
134.3538290724749
 31
0.0
210
0.0
220
0.0
230
1.0
 40
0.2679491924
 41
1.249026034032467
 42
1.254956003263017
  0
ARC
  5
162
330
1F
100
AcDbEntity
  8
0
  6
Continuous
 62
     7
370
    25
100
AcDbCircle
 10
151.6486238532
 20
156.4899963817
 30
0.0
 40
35.99999999999991
100
AcDbArc
 50
198.0963175384
 51
202.0849220966
  0
SPLINE
  5
163
330
1F
100
AcDbEntity
  8
0
  6
Continuous
 62
     7
370
    25
100
AcDbSpline
210
0.0
220
0.0
230
1.0
 70
     8
 71
     3
 72
    14
 73
    10
 74
     0
 42
0.000000001
 43
0.00000001
 40
0.0
 40
0.0
 40
0.0
 40
0.0
 40
0.1551875989964802
 40
0.3106831551254914
 40
0.4595291528143317
 40
0.6050683347556942
 40
0.7546002063567471
 40
0.9135456227133306
 40
1.0
 40
1.0
 40
1.0
 40
1.0
 10
118.2900292866275
 20
142.9547015639073
 30
0.0
 10
118.2995774015021
 20
142.9264300060441
 30
0.0
 10
118.3186925787066
 20
142.8698307877168
 30
0.0
 10
118.3317463672622
 20
142.7603050240027
 30
0.0
 10
118.3304545654492
 20
142.6495003455125
 30
0.0
 10
118.3152918540969
 20
142.547294073097
 30
0.0
 10
118.2881925789237
 20
142.4618672294612
 30
0.0
 10
118.2573172024678
 20
142.4090879454581
 30
0.0
 10
118.2360753176443
 20
142.3919175087382
 30
0.0
 10
118.2285917990253
 20
142.3858683617837
 30
0.0
  0
ELLIPSE
  5
164
330
1F
100
AcDbEntity
  8
0
  6
Continuous
 62
     7
370
    25
100
AcDbEllipse
 10
151.6486238532
 20
138.7999387522
 30
0.0
 11
35.99999999999997
 21
0.0
 31
0.0
210
0.0
220
0.0
230
1.0
 40
0.2679491924
 41
2.760702908705184
 42
2.855239016215156
  0
ELLIPSE
  5
165
330
1F
100
AcDbEntity
  8
0
  6
Continuous
 62
     7
370
    25
100
AcDbEllipse
 10
151.6486238532
 20
103.5754841307
 30
0.0
 11
0.0
 21
134.3538290724775
 31
0.0
210
0.0
220
0.0
230
1.0
 40
0.2679491924
 41
1.284442689420257
 42
1.290307844546368
  0
ARC
  5
166
330
1F
100
AcDbEntity
  8
0
  6
Continuous
 62
     7
370
    25
100
AcDbCircle
 10
151.6486238532
 20
150.7336954862
 30
0.0
 40
35.99999999999994
100
AcDbArc
 50
196.0708062349
 51
200.0103668412
  0
SPLINE
  5
167
330
1F
100
AcDbEntity
  8
0
  6
Continuous
 62
     7
370
    25
100
AcDbSpline
210
0.0
220
0.0
230
1.0
 70
     8
 71
     3
 72
    14
 73
    10
 74
     0
 42
0.000000001
 43
0.00000001
 40
0.0
 40
0.0
 40
0.0
 40
0.0
 40
0.1561760607653574
 40
0.3126052862500357
 40
0.4635523063410705
 40
0.6118284654938778
 40
0.7635465324998144
 40
0.9231963318099236
 40
1.0
 40
1.0
 40
1.0
 40
1.0
 10
117.8219167583034
 20
138.4148504646546
 30
0.0
 10
117.8305445365522
 20
138.3863342922523
 30
0.0
 10
117.8478140788619
 20
138.3292557221251
 30
0.0
 10
117.8594569493147
 20
138.2190807413537
 30
0.0
 10
117.8581064763819
 20
138.1074422642458
 30
0.0
 10
117.8440081208228
 20
138.0042584988329
 30
0.0
 10
117.8189837883578
 20
137.9185698467297
 30
0.0
 10
117.7913251091952
 20
137.8677492274738
 30
0.0
 10
117.7728138316914
 20
137.8513454560002
 30
0.0
 10
117.7668010883377
 20
137.846017262531
 30
0.0
  0
ELLIPSE
  5
168
330
1F
100
AcDbEntity
  8
0
  6
Continuous
 62
     7
370
    25
100
AcDbEllipse
 10
151.6486238532
 20
134.5860340331
 30
0.0
 11
35.99999999999997
 21
0.0
 31
0.0
210
0.0
220
0.0
230
1.0
 40
0.2679491924
 41
2.796848035184069
 42
2.890289941421508
  0
ELLIPSE
  5
169
330
1F
100
AcDbEntity
  8
0
  6
Continuous
 62
     7
370
    25
100
AcDbEllipse
 10
151.6486238532
 20
103.5754841307
 30
0.0
 11
0.0
 21
134.3538290724699
 31
0.0
210
0.0
220
0.0
230
1.0
 40
0.2679491924
 41
1.319493614626611
 42
1.32530308259311
  0
ARC
  5
16A
330
1F
100
AcDbEntity
  8
0
  6
Continuous
 62
     7
370
    25
100
AcDbCircle
 10
151.6486238532
 20
144.9773945907
 30
0.0
 40
35.99999999999996
100
AcDbArc
 50
194.0657267917
 51
197.9628273028
  0
SPLINE
  5
16B
330
1F
100
AcDbEntity
  8
0
  6
Continuous
 62
     7
370
    25
100
AcDbSpline
210
0.0
220
0.0
230
1.0
 70
     8
 71
     3
 72
    14
 73
    10
 74
     0
 42
0.000000001
 43
0.00000001
 40
0.0
 40
0.0
 40
0.0
 40
0.0
 40
0.1570838668261854
 40
0.3143679624733527
 40
0.4672140685279841
 40
0.6179437425250798
 40
0.7715663253448374
 40
0.9317319096129955
 40
0.9999999999999999
 40
0.9999999999999999
 40
0.9999999999999999
 40
0.9999999999999999
 10
117.4033803932712
 20
133.8749993654019
 30
0.0
 10
117.4111078050524
 20
133.8462608530035
 30
0.0
 10
117.4265724784521
 20
133.7887471963196
 30
0.0
 10
117.4368738258016
 20
133.6779761867192
 30
0.0
 10
117.4355182821364
 20
133.5655790783581
 30
0.0
 10
117.4225701253583
 20
133.4615320149042
 30
0.0
 10
117.3997202390791
 20
133.3756526386262
 30
0.0
 10
117.3751570872064
 20
133.326585432083
 30
0.0
 10
117.359130319493
 20
133.3108644315484
 30
0.0
 10
117.3543406717823
 20
133.3061661632783
 30
0.0
  0
ELLIPSE
  5
16C
330
1F
100
AcDbEntity
  8
0
  6
Continuous
 62
     7
370
    25
100
AcDbEllipse
 10
151.6486238532
 20
130.3721293139
 30
0.0
 11
35.99999999999997
 21
0.0
 31
0.0
210
0.0
220
0.0
230
1.0
 40
0.2679491924
 41
2.832529755889157
 42
2.925028099728672
  0
ELLIPSE
  5
16D
330
1F
100
AcDbEntity
  8
0
  6
Continuous
 62
     7
370
    25
100
AcDbEllipse
 10
151.6486238532
 20
103.5754841307
 30
0.0
 11
0.0
 21
134.3538290724855
 31
0.0
210
0.0
220
0.0
230
1.0
 40
0.2679491924
 41
1.354231772933772
 42
1.360458240393627
  0
LINE
  5
16E
330
1F
100
AcDbEntity
  8
0
  6
Continuous
 62
     7
370
    25
100
AcDbLine
 10
115.6486233764
 20
131.6272933098
 30
0.0
 11
116.5487652712
 21
131.6272933098
 31
0.0
  0
ELLIPSE
  5
16F
330
1F
100
AcDbEntity
  8
0
  6
Continuous
 62
     7
370
    25
100
AcDbEllipse
 10
151.6486238532
 20
133.7708871174
 30
0.0
 11
35.99999999999997
 21
0.0
 31
0.0
210
0.0
220
0.0
230
1.0
 40
0.2679491924
 41
3.365685745891214
 42
4.078205139560671
  0
ELLIPSE
  5
170
330
1F
100
AcDbEntity
  8
0
  6
Continuous
 62
     7
370
    25
100
AcDbEllipse
 10
151.6486238532
 20
17.7708871174
 30
0.0
 11
0.0
 21
134.3538290724786
 31
0.0
210
0.0
220
0.0
230
1.0
 40
0.2679491924
 41
0.63418384082404
 42
0.8244537700957228
  0
SPLINE
  5
171
330
1F
100
AcDbEntity
  8
0
  6
Continuous
 62
     7
370
    25
100
AcDbSpline
210
0.0
220
0.0
230
1.0
 70
     8
 71
     3
 72
     9
 73
     5
 74
     0
 42
0.000000001
 43
0.00000001
 40
0.0
 40
0.0
 40
0.0
 40
0.0
 40
0.6880411683456045
 40
1.0
 40
1.0
 40
1.0
 40
1.0
 10
115.6496441059158
 20
108.9915074469573
 30
0.0
 10
115.6491890416785
 20
109.1910720182266
 30
0.0
 10
115.6485276506771
 20
109.4811194462738
 30
0.0
 10
115.6490975248844
 20
109.7291167925679
 30
0.0
 10
115.6492753021762
 20
109.8064817549712
 30
0.0
  0
SPLINE
  5
172
330
1F
100
AcDbEntity
  8
0
  6
Continuous
 62
     7
370
    25
100
AcDbSpline
210
0.0
220
0.0
230
1.0
 70
     8
 71
     3
 72
    14
 73
    10
 74
     0
 42
0.000000001
 43
0.00000001
 40
0.0
 40
0.0
 40
0.0
 40
0.0
 40
0.1266843661885252
 40
0.2738462765525036
 40
0.4248717540703396
 40
0.577176290937514
 40
0.7275150290024351
 40
0.8728181983683314
 40
1.0
 40
1.0
 40
1.0
 40
1.0
 10
115.7189345054672
 20
127.8737951131589
 30
0.0
 10
115.7320850224203
 20
127.623824664559
 30
0.0
 10
115.7605117352869
 20
127.0834779851956
 30
0.0
 10
115.7866776870836
 20
126.0433825993257
 30
0.0
 10
115.7824689552231
 20
124.9124408660361
 30
0.0
 10
115.7468744926705
 20
123.8450534139589
 30
0.0
 10
115.6975625894223
 20
123.0037222043386
 30
0.0
 10
115.6562039668204
 20
122.4677202038384
 30
0.0
 10
115.6518077771442
 20
122.4162611761869
 30
0.0
 10
115.6497558646248
 20
122.3922427805192
 30
0.0
  0
SPLINE
  5
173
330
1F
100
AcDbEntity
  8
0
  6
Continuous
 62
     7
370
    25
100
AcDbSpline
210
0.0
220
0.0
230
1.0
 70
     8
 71
     3
 72
    10
 73
     6
 74
     0
 42
0.000000001
 43
0.00000001
 40
0.0
 40
0.0
 40
0.0
 40
0.0
 40
0.3043029135017453
 40
0.7002864911003381
 40
1.0
 40
1.0
 40
1.0
 40
1.0
 10
115.6511714749382
 20
128.8451571079023
 30
0.0
 10
115.6517823816625
 20
128.8376866976447
 30
0.0
 10
115.653188249656
 20
128.8204951849964
 30
0.0
 10
115.6835099875936
 20
128.4472272447405
 30
0.0
 10
115.7082683476002
 20
128.0464528657152
 30
0.0
 10
115.7189345054672
 20
127.8737951131589
 30
0.0
  0
LINE
  5
174
330
1F
100
AcDbEntity
  8
0
  6
Continuous
 62
     7
370
    25
100
AcDbLine
 10
149.298623956
 20
126.0003615232
 30
0.0
 11
130.3178945624
 21
126.0003615232
 31
0.0
  0
LINE
  5
175
330
1F
100
AcDbEntity
  8
0
  6
Continuous
 62
     7
370
    25
100
AcDbLine
 10
119.5413133197
 20
131.6272933098
 30
0.0
 11
116.5487652712
 21
131.6272933098
 31
0.0
  0
LINE
  5
176
330
1F
100
AcDbEntity
  8
0
  6
Continuous
 62
     7
370
    25
100
AcDbLine
 10
149.298623956
 20
127.0772945197
 30
0.0
 11
149.298623956
 21
126.0003615232
 31
0.0
  0
LINE
  5
177
330
1F
100
AcDbEntity
  8
0
  6
Continuous
 62
     7
370
    25
100
AcDbLine
 10
124.6492730521
 20
108.2844007822
 30
0.0
 11
122.5852480226
 21
106.9515887709
 31
0.0
  0
SPLINE
  5
178
330
1F
100
AcDbEntity
  8
0
  6
Continuous
 62
     7
370
    25
100
AcDbSpline
210
0.0
220
0.0
230
1.0
 70
     8
 71
     3
 72
    10
 73
     6
 74
     0
 42
0.000000001
 43
0.00000001
 40
0.0
 40
0.0
 40
0.0
 40
0.0
 40
0.3830123297538292
 40
0.8724442939301914
 40
1.0
 40
1.0
 40
1.0
 40
1.0
 10
125.2182515405462
 20
108.9915074469573
 30
0.0
 10
125.1754076554978
 20
108.8814875542473
 30
0.0
 10
125.0778157501293
 20
108.6308788397046
 30
0.0
 10
124.8422296322827
 20
108.4124815120576
 30
0.0
 10
124.6823305120271
 20
108.3063436648293
 30
0.0
 10
124.6492730521009
 20
108.2844007821805
 30
0.0
  0
ELLIPSE
  5
179
330
1F
100
AcDbEntity
  8
0
  6
Continuous
 62
     7
370
    25
100
AcDbEllipse
 10
129.2986238532
 20
105.4244593433
 30
0.0
 11
0.0
 21
20.83569125004628
 31
0.0
210
0.0
220
0.0
230
1.0
 40
0.9598913595
 41
3.141592653589793
 42
4.712388980384703
  0
LINE
  5
17A
330
1F
100
AcDbEntity
  8
0
  6
Continuous
 62
     7
370
    25
100
AcDbLine
 10
129.2986234717
 20
84.5887681997
 30
0.0
 11
114.1329554908
 21
84.5887681997
 31
0.0
  0
ELLIPSE
  5
17B
330
1F
100
AcDbEntity
  8
0
  6
Continuous
 62
     7
370
    25
100
AcDbEllipse
 10
151.6486238532
 20
-213.3317209327
 30
0.0
 11
0.0
 21
351.1870783867913
 31
0.0
210
0.0
220
0.0
230
1.0
 40
0.2017562034
 41
0.5410866975062819
 42
0.5579841578121533
  0
ARC
  5
17C
330
1F
100
AcDbEntity
  8
0
  6
Continuous
 62
     7
370
    25
100
AcDbCircle
 10
117.0427666178
 20
88.6058510999
 30
0.0
 40
2.100000000000017
100
AcDbArc
 50
205.9143171775
 51
116.3453715947
  0
ELLIPSE
  5
17D
330
1F
100
AcDbEntity
  8
0
  6
Continuous
 62
     7
370
    25
100
AcDbEllipse
 10
151.6486238532
 20
-213.3317209327
 30
0.0
 11
0.0
 21
351.1870783867913
 31
0.0
210
0.0
220
0.0
230
1.0
 40
0.2017562034
 41
0.4226577878870509
 42
0.5254039664467256
  0
LINE
  5
17E
330
1F
100
AcDbEntity
  8
0
  6
Continuous
 62
     7
370
    25
100
AcDbLine
 10
149.298623956
 20
126.0003615232
 30
0.0
 11
149.298623956
 21
105.4244600298
 31
0.0
  0
LINE
  5
17F
330
1F
100
AcDbEntity
  8
0
  6
Continuous
 62
     7
370
    25
100
AcDbLine
 10
115.3569703989
 20
108.2844007822
 30
0.0
 11
115.5600508742
 21
108.5772942813
 31
0.0
  0
SPLINE
  5
180
330
1F
100
AcDbEntity
  8
0
  6
Continuous
 62
     7
370
    25
100
AcDbSpline
210
0.0
220
0.0
230
1.0
 70
     8
 71
     3
 72
     9
 73
     5
 74
     0
 42
0.000000001
 43
0.00000001
 40
0.0
 40
0.0
 40
0.0
 40
0.0
 40
0.7510400148142009
 40
1.0
 40
1.0
 40
1.0
 40
1.0
 10
115.5600508742378
 20
108.5772942813165
 30
0.0
 10
115.5965636960648
 20
108.6791401659003
 30
0.0
 10
115.645180042873
 20
108.8147466350295
 30
0.0
 10
115.6487542671042
 20
108.9562730362148
 30
0.0
 10
115.6496441059158
 20
108.9915074469573
 30
0.0
  0
LINE
  5
181
330
1F
100
AcDbEntity
  8
0
  6
Continuous
 62
     7
370
    25
100
AcDbLine
 10
122.5852480226
 20
106.9515887709
 30
0.0
 11
114.0241136842
 21
106.9515887709
 31
0.0
  0
LINE
  5
182
330
1F
100
AcDbEntity
  8
0
  6
Continuous
 62
     7
370
    25
100
AcDbLine
 10
114.0241136842
 20
106.9515887709
 30
0.0
 11
115.3569703989
 21
108.2844007822
 31
0.0
  0
ELLIPSE
  5
183
330
1F
100
AcDbEntity
  8
0
  6
Continuous
 62
     7
370
    25
100
AcDbEllipse
 10
151.6486238532
 20
82.2788723636
 30
0.0
 11
41.96633171384437
 21
0.0
 31
0.0
210
0.0
220
0.0
230
1.0
 40
0.1228133476
 41
2.676871984509944
 42
3.006130846278075
  0
LWPOLYLINE
  5
184
330
1F
100
AcDbEntity
  8
0
  6
Continuous
 62
     7
370
    25
100
AcDbPolyline
 90
        3
 70
   128
 43
0.0
 10
112.1191119843
 20
94.5350667523
 10
111.8423042886
 20
92.9764118107
 10
110.0667415254
 20
82.9749127213
  0
LINE
  5
185
330
1F
100
AcDbEntity
  8
0
  6
Continuous
 62
     7
370
    25
100
AcDbLine
 10
111.9047476046
 20
94.5350667523
 30
0.0
 11
112.1191119843
 21
94.5350667523
 31
0.0
  0
ELLIPSE
  5
186
330
1F
100
AcDbEntity
  8
0
  6
Continuous
 62
     7
370
    25
100
AcDbEllipse
 10
151.6486238532
 20
94.7215400146
 30
0.0
 11
39.77286794965917
 21
-1.421085471520200E-14
 31
0.0
210
0.0
220
0.0
230
1.0
 40
0.1228133476
 41
3.127483017002382
 42
3.179777463702951
  0
LWPOLYLINE
  5
187
330
1F
100
AcDbEntity
  8
0
  6
Continuous
 62
     7
370
    25
100
AcDbPolyline
 90
        3
 70
   128
 43
0.0
 10
111.8797136538
 20
94.790457754
 10
112.1121717684
 20
96.108752309
 10
114.0241136842
 20
106.9515887709
  0
SPLINE
  5
188
330
1F
100
AcDbEntity
  8
0
  6
Continuous
 62
     7
370
    25
100
AcDbSpline
210
0.0
220
0.0
230
1.0
 70
     8
 71
     3
 72
    15
 73
    11
 74
     0
 42
0.000000001
 43
0.00000001
 40
0.0
 40
0.0
 40
0.0
 40
0.0
 40
0.1419729366363391
 40
0.2439259028207966
 40
0.3469412902246656
 40
0.4199133329559541
 40
0.4927368852122716
 40
0.604260100266948
 40
0.802220939942501
 40
1.0
 40
1.0
 40
1.0
 40
1.0
 10
115.1539234511898
 20
87.68809540812441
 30
0.0
 10
115.1013397227096
 20
87.81125094156575
 30
0.0
 10
115.010994803832
 20
88.02284637231325
 30
0.0
 10
114.94042942332
 20
88.41316101799653
 30
0.0
 10
114.9391345668902
 20
88.7875885310562
 30
0.0
 10
115.0042178657295
 20
89.14161094951028
 30
0.0
 10
115.1204717419517
 20
89.47799361482785
 30
0.0
 10
115.3474524363829
 20
89.88140549312998
 30
0.0
 10
115.6902736507244
 20
90.24579091483108
 30
0.0
 10
115.9706858813896
 20
90.4071119068077
 30
0.0
 10
116.1108275942848
 20
90.48773535211154
 30
0.0
  0
ELLIPSE
  5
189
330
1F
100
AcDbEntity
  8
0
  6
Continuous
 62
     7
370
    25
100
AcDbEllipse
 10
129.2986238532
 20
102.5774900872
 30
0.0
 11
0.0
 21
20.15019650917696
 31
0.0
210
0.0
220
0.0
230
1.0
 40
0.9925461516
 41
3.141592653589793
 42
4.712388980384704
  0
LINE
  5
18A
330
1F
100
AcDbEntity
  8
0
  6
Continuous
 62
     7
370
    25
100
AcDbLine
 10
149.298623956
 20
105.4244600298
 30
0.0
 11
149.298623956
 21
102.5774907382
 31
0.0
  0
LINE
  5
18B
330
1F
100
AcDbEntity
  8
0
  6
Continuous
 62
     7
370
    25
100
AcDbLine
 10
129.2986234717
 20
82.4272935922
 30
0.0
 11
122.2333347492
 21
82.4272935922
 31
0.0
  0
LINE
  5
18C
330
1F
100
AcDbEntity
  8
0
  6
Continuous
 62
     7
370
    25
100
AcDbLine
 10
122.0190355622
 20
82.682685467
 30
0.0
 11
122.2333347492
 21
82.4272935922
 31
0.0
  0
LINE
  5
18D
330
1F
100
AcDbEntity
  8
0
  6
Continuous
 62
     7
370
    25
100
AcDbLine
 10
122.0705637776
 20
82.9749127213
 30
0.0
 11
122.0190355622
 21
82.682685467
 31
0.0
  0
LINE
  5
18E
330
1F
100
AcDbEntity
  8
0
  6
Continuous
 62
     7
370
    25
100
AcDbLine
 10
110.0667415254
 20
82.9749127213
 30
0.0
 11
122.0705637776
 21
82.9749127213
 31
0.0
  0
ELLIPSE
  5
18F
330
1F
100
AcDbEntity
  8
0
  6
Continuous
 62
     7
370
    25
100
AcDbEllipse
 10
152.2986238532
 20
124.6278038352
 30
0.0
 11
3.0
 21
0.0
 31
0.0
210
0.0
220
0.0
230
1.0
 40
0.8164965809
 41
1.570796326794897
 42
2.369807282948554
  0
LINE
  5
190
330
1F
100
AcDbEntity
  8
0
  6
Continuous
 62
     7
370
    25
100
AcDbLine
 10
118.6587212675
 20
132.4448566945
 30
0.0
 11
116.4895331554
 21
132.4448566945
 31
0.0
  0
LINE
  5
191
330
1F
100
AcDbEntity
  8
0
  6
Continuous
 62
     7
370
    25
100
AcDbLine
 10
118.7794094973
 20
136.9847077938
 30
0.0
 11
116.7794091694
 21
136.9847077938
 31
0.0
  0
LINE
  5
192
330
1F
100
AcDbEntity
  8
0
  6
Continuous
 62
     7
370
    25
100
AcDbLine
 10
118.7279930406
 20
136.2281423124
 30
0.0
 11
116.7279927127
 21
136.2281423124
 31
0.0
  0
LINE
  5
193
330
1F
100
AcDbEntity
  8
0
  6
Continuous
 62
     7
370
    25
100
AcDbLine
 10
119.1145366125
 20
141.524558893
 30
0.0
 11
117.1145362847
 21
141.524558893
 31
0.0
  0
LINE
  5
194
330
1F
100
AcDbEntity
  8
0
  6
Continuous
 62
     7
370
    25
100
AcDbLine
 10
119.0554907613
 20
140.7679934116
 30
0.0
 11
117.0554904335
 21
140.7679934116
 31
0.0
  0
ELLIPSE
  5
195
330
1F
100
AcDbEntity
  8
0
  6
Continuous
 62
     7
370
    25
100
AcDbEllipse
 10
158.6486238532
 20
148.2699451309
 30
0.0
 11
0.0
 21
9.192388155424311
 31
0.0
210
0.0
220
0.0
230
1.0
 40
0.7071067812
 41
5.13431587186718
 42
5.268567635411121
  0
SPLINE
  5
196
330
1F
100
AcDbEntity
  8
0
  6
Continuous
 62
     7
370
    25
100
AcDbSpline
210
0.0
220
0.0
230
1.0
 70
     8
 71
     3
 72
    13
 73
     9
 74
     0
 42
0.000000001
 43
0.00000001
 40
0.0
 40
0.0
 40
0.0
 40
0.0
 40
0.16122733105835
 40
0.3220685444983453
 40
0.4927438123055654
 40
0.6693711823641819
 40
0.8428332588608889
 40
1.0
 40
1.0
 40
1.0
 40
1.0
 10
164.5785838432953
 20
152.034407487703
 30
0.0
 10
164.5888099590984
 20
152.0040331698004
 30
0.0
 10
164.6092377005422
 20
151.943357276372
 30
0.0
 10
164.6529221221517
 20
151.8292538224209
 30
0.0
 10
164.7001551607785
 20
151.710206934347
 30
0.0
 10
164.7464556758505
 20
151.5978391638166
 30
0.0
 10
164.7853886711842
 20
151.5081870374522
 30
0.0
 10
164.8015316912978
 20
151.4793015029229
 30
0.0
 10
164.8092053898022
 20
151.4655705602891
 30
0.0
  0
ELLIPSE
  5
197
330
1F
100
AcDbEntity
  8
0
  6
Continuous
 62
     7
370
    25
100
AcDbEllipse
 10
158.6486238532
 20
150.3925208843
 30
0.0
 11
6.5
 21
0.0
 31
0.0
210
0.0
220
0.0
230
1.0
 40
0.5176380902
 41
0.0629729230705127
 42
0.324589277626902
  0
ARC
  5
198
330
1F
100
AcDbEntity
  8
0
  6
Continuous
 62
     7
370
    25
100
AcDbCircle
 10
159.0834255551
 20
150.2091433663
 30
0.0
 40
6.065198236242163
100
AcDbArc
 50
356.5834715464
 51
3.7351823319
  0
ELLIPSE
  5
199
330
1F
100
AcDbEntity
  8
0
  6
Continuous
 62
     7
370
    25
100
AcDbEllipse
 10
158.6486238532
 20
150.3768974905
 30
0.0
 11
0.0
 21
9.192388155424339
 31
0.0
210
0.0
220
0.0
230
1.0
 40
0.7071067812
 41
4.393451497048014
 42
4.654787555061779
  0
SPLINE
  5
19A
330
1F
100
AcDbEntity
  8
0
  6
Continuous
 62
     7
370
    25
100
AcDbSpline
210
0.0
220
0.0
230
1.0
 70
     8
 71
     3
 72
    13
 73
     9
 74
     0
 42
0.000000001
 43
0.00000001
 40
0.0
 40
0.0
 40
0.0
 40
0.0
 40
0.1566806923433584
 40
0.3131053165391601
 40
0.4761001386460027
 40
0.647708134356318
 40
0.823902007836295
 40
1.0
 40
1.0
 40
1.0
 40
1.0
 10
164.820822707598
 20
147.4945526631601
 30
0.0
 10
164.8133321891658
 20
147.4647035558869
 30
0.0
 10
164.7983633942897
 20
147.4050541246685
 30
0.0
 10
164.7631189193818
 20
147.2928551088373
 30
0.0
 10
164.720983101534
 20
147.1766879952116
 30
0.0
 10
164.6742770534977
 20
147.066224759085
 30
0.0
 10
164.6275135803497
 20
146.9725243034716
 30
0.0
 10
164.6052393495814
 20
146.9413207278738
 30
0.0
 10
164.5941052653239
 20
146.9257231863267
 30
0.0
  0
ELLIPSE
  5
19B
330
1F
100
AcDbEntity
  8
0
  6
Continuous
 62
     7
370
    25
100
AcDbEllipse
 10
158.6486238532
 20
148.2855685247
 30
0.0
 11
6.5
 21
0.0
 31
0.0
210
0.0
220
0.0
230
1.0
 40
0.5176380902
 41
5.562172706815148
 42
5.86712786706064
  0
ARC
  5
19C
330
1F
100
AcDbEntity
  8
0
  6
Continuous
 62
     7
370
    25
100
AcDbCircle
 10
158.7917170334
 20
150.3787691762
 30
0.0
 40
6.408949911229341
100
AcDbArc
 50
307.6998147175
 51
317.6872834946
  0
ELLIPSE
  5
19D
330
1F
100
AcDbEntity
  8
0
  6
Continuous
 62
     7
370
    25
100
AcDbEllipse
 10
158.6486238532
 20
152.4838498501
 30
0.0
 11
0.0
 21
9.192388155424368
 31
0.0
210
0.0
220
0.0
230
1.0
 40
0.7071067812
 41
3.141592653589793
 42
3.816689384133003
  0
ARC
  5
19E
330
1F
100
AcDbEntity
  8
0
  6
Continuous
 62
     7
370
    25
100
AcDbCircle
 10
158.7288296522
 20
146.6724143335
 30
0.0
 40
6.451103549005335
100
AcDbArc
 50
14.4119416545
 51
90.7123694656
  0
LINE
  5
19F
330
1F
100
AcDbEntity
  8
0
  6
Continuous
 62
     7
370
    25
100
AcDbLine
 10
168.7109468572
 20
145.3078445109
 30
0.0
 11
162.7109468051
 21
145.3078445109
 31
0.0
  0
LINE
  5
1A0
330
1F
100
AcDbEntity
  8
0
  6
Continuous
 62
     7
370
    25
100
AcDbLine
 10
169.531019225
 20
146.0644137176
 30
0.0
 11
163.5310182415
 21
146.0644137176
 31
0.0
  0
LINE
  5
1A1
330
1F
100
AcDbEntity
  8
0
  6
Continuous
 62
     7
370
    25
100
AcDbLine
 10
119.4962484829
 20
146.0644137176
 30
0.0
 11
117.4962481551
 21
146.0644137176
 31
0.0
  0
LINE
  5
1A2
330
1F
100
AcDbEntity
  8
0
  6
Continuous
 62
     7
370
    25
100
AcDbLine
 10
119.4293385439
 20
145.3078445109
 30
0.0
 11
117.4293382161
 21
145.3078445109
 31
0.0
  0
LINE
  5
1A3
330
1F
100
AcDbEntity
  8
0
  6
Continuous
 62
     7
370
    25
100
AcDbLine
 10
170.3567987375
 20
149.8476918848
 30
0.0
 11
165.1378439807
 21
149.8476918848
 31
0.0
  0
LINE
  5
1A4
330
1F
100
AcDbEntity
  8
0
  6
Continuous
 62
     7
370
    25
100
AcDbLine
 10
169.8543204062
 20
150.6042610915
 30
0.0
 11
165.135740123
 21
150.6042610915
 31
0.0
  0
LINE
  5
1A5
330
1F
100
AcDbEntity
  8
0
  6
Continuous
 62
     7
370
    25
100
AcDbLine
 10
119.9261283569
 20
150.6042610915
 30
0.0
 11
117.9261280291
 21
150.6042610915
 31
0.0
  0
LINE
  5
1A6
330
1F
100
AcDbEntity
  8
0
  6
Continuous
 62
     7
370
    25
100
AcDbLine
 10
119.851071208
 20
149.8476918848
 30
0.0
 11
117.8510708802
 21
149.8476918848
 31
0.0
  0
LINE
  5
1A7
330
1F
100
AcDbEntity
  8
0
  6
Continuous
 62
     7
370
    25
100
AcDbLine
 10
120.4060426049
 20
155.1441159161
 30
0.0
 11
118.4060422771
 21
155.1441159161
 31
0.0
  0
LINE
  5
1A8
330
1F
100
AcDbEntity
  8
0
  6
Continuous
 62
     7
370
    25
100
AcDbLine
 10
120.32250297
 20
154.3875467094
 30
0.0
 11
118.3225026422
 21
154.3875467094
 31
0.0
  0
LINE
  5
1A9
330
1F
100
AcDbEntity
  8
0
  6
Continuous
 62
     7
370
    25
100
AcDbLine
 10
120.9381965988
 20
159.68396329
 30
0.0
 11
118.9381962709
 21
159.68396329
 31
0.0
  0
LINE
  5
1AA
330
1F
100
AcDbEntity
  8
0
  6
Continuous
 62
     7
370
    25
100
AcDbLine
 10
120.845779597
 20
158.9274015339
 30
0.0
 11
118.8457792692
 21
158.9274015339
 31
0.0
  0
LINE
  5
1AB
330
1F
100
AcDbEntity
  8
0
  6
Continuous
 62
     7
370
    25
100
AcDbLine
 10
121.5251794152
 20
164.2238181146
 30
0.0
 11
119.5251790874
 21
164.2238181146
 31
0.0
  0
LINE
  5
1AC
330
1F
100
AcDbEntity
  8
0
  6
Continuous
 62
     7
370
    25
100
AcDbLine
 10
121.423426836
 20
163.4672489079
 30
0.0
 11
119.4234265082
 21
163.4672489079
 31
0.0
  0
LINE
  5
1AD
330
1F
100
AcDbEntity
  8
0
  6
Continuous
 62
     7
370
    25
100
AcDbLine
 10
122.1700644188
 20
168.7636654886
 30
0.0
 11
120.170064091
 21
168.7636654886
 31
0.0
  0
LINE
  5
1AE
330
1F
100
AcDbEntity
  8
0
  6
Continuous
 62
     7
370
    25
100
AcDbLine
 10
122.0584267818
 20
168.0071037324
 30
0.0
 11
120.0584283166
 21
168.0071037324
 31
0.0
  0
LINE
  5
1AF
330
1F
100
AcDbEntity
  8
0
  6
Continuous
 62
     7
370
    25
100
AcDbLine
 10
124.0580527179
 20
169.5772912415
 30
0.0
 11
122.0580542527
 21
169.5772912415
 31
0.0
  0
LINE
  5
1B0
330
1F
100
AcDbEntity
  8
VERMASSUNG
100
AcDbLine
 10
195.8986238532
 20
82.527293578
 30
0.0
 11
195.8986238532
 21
80.8165663233
 31
0.0
  0
LINE
  5
1B1
330
1F
100
AcDbEntity
  8
VERMASSUNG
100
AcDbLine
 10
109.3986238532
 20
82.527293578
 30
0.0
 11
109.3986238532
 21
80.9200709122
 31
0.0
  0
DIMENSION
  5
1B2
330
1F
100
AcDbEntity
  8
VERMASSUNG
100
AcDbDimension
280
     0
  2
_D
 10
195.8986238532
 20
63.0129046932
 30
0.0
 11
152.6486238532
 21
63.0129046932
 31
0.0
 70
   160
  1
%%c86.5 - %%c115.5
 71
     2
 42
-1.0
 73
     0
 74
     0
 75
     0
  3
SLDDIMSTYLE0
100
AcDbAlignedDimension
 13
109.3986238532
 23
80.9200709122
 33
0.0
 14
195.8986238532
 24
80.8165663233
 34
0.0
 50
0.0
100
AcDbRotatedDimension
  0
DIMENSION
  5
1C0
330
1F
100
AcDbEntity
  8
VERMASSUNG
100
AcDbDimension
280
     0
  2
_D_1
 10
195.8986238532
 20
80.8165663233
 30
0.0
 11
188.4154972691
 21
74.6641669939
 31
0.0
 70
   162
  1
<>
 71
     1
 42
-1.0
 73
     0
 74
     0
 75
     0
  3
SLDDIMSTYLE1
100
AcDb2LineAngularDimension
 13
183.4150471718
 23
82.147293578
 33
0.0
 14
195.4986238532
 24
82.147293578
 34
0.0
 15
195.8986238532
 25
82.527293578
 35
0.0
 16
188.4154972691
 26
74.6641669939
 36
0.0
  0
LINE
  5
1CA
330
1F
100
AcDbEntity
  8
0
  6
Continuous
 62
     7
370
    25
100
AcDbLine
 10
264.7316604662
 20
61.0066440298
 30
0.0
 11
263.6881742205
 21
60.1741900153
 31
0.0
  0
LINE
  5
1CB
330
1F
100
AcDbEntity
  8
0
  6
Continuous
 62
     7
370
    25
100
AcDbLine
 10
267.2185062043
 20
53.277755072
 30
0.0
 11
268.4612212615
 21
53.7650974606
 31
0.0
  0
LINE
  5
1CC
330
1F
100
AcDbEntity
  8
0
  6
Continuous
 62
     7
370
    25
100
AcDbLine
 10
243.9349678082
 20
67.9438540881
 30
0.0
 11
244.4336032217
 21
68.3416459167
 31
0.0
  0
LINE
  5
1CD
330
1F
100
AcDbEntity
  8
0
  6
Continuous
 62
     7
370
    25
100
AcDbLine
 10
239.9644074642
 20
76.5292733155
 30
0.0
 11
238.721692407
 21
76.0419307013
 31
0.0
  0
LINE
  5
1CE
330
1F
100
AcDbEntity
  8
0
  6
Continuous
 62
     7
370
    25
100
AcDbLine
 10
242.4255189087
 20
70.4905886901
 30
0.0
 11
242.461716816
 21
70.5114852972
 31
0.0
  0
LINE
  5
1CF
330
1F
100
AcDbEntity
  8
0
  6
Continuous
 62
     7
370
    25
100
AcDbLine
 10
240.7463727619
 20
73.5625796345
 30
0.0
 11
240.675662101
 21
73.5217592389
 31
0.0
  0
LINE
  5
1D0
330
1F
100
AcDbEntity
  8
0
  6
Continuous
 62
     7
370
    25
100
AcDbLine
 10
242.0634060691
 20
71.5005870475
 30
0.0
 11
241.8445437564
 21
71.3742405237
 31
0.0
  0
LINE
  5
1D1
330
1F
100
AcDbEntity
  8
0
  6
Continuous
 62
     7
370
    25
100
AcDbLine
 10
240.9713520733
 20
72.474591288
 30
0.0
 11
241.2804474805
 21
72.6530282684
 31
0.0
  0
LINE
  5
1D2
330
1F
100
AcDbEntity
  8
0
  6
Continuous
 62
     7
370
    25
100
AcDbLine
 10
256.8492697446
 20
62.638463072
 30
0.0
 11
249.9699098506
 21
57.6916888329
 31
0.0
  0
LINE
  5
1D3
330
1F
100
AcDbEntity
  8
0
  6
Continuous
 62
     7
370
    25
100
AcDbLine
 10
272.3159384405
 20
31.374550622
 30
0.0
 11
272.3159384405
 21
49.9688812485
 31
0.0
  0
LINE
  5
1D4
330
1F
100
AcDbEntity
  8
0
  6
Continuous
 62
     7
370
    25
100
AcDbLine
 10
235.6088322017
 20
50.3770853714
 30
0.0
 11
235.6088322017
 21
31.7827547448
 31
0.0
  0
LINE
  5
1D5
330
1F
100
AcDbEntity
  8
0
  6
Continuous
 62
     7
370
    25
100
AcDbLine
 10
267.960363178
 20
57.7079078264
 30
0.0
 11
269.1121477266
 21
58.5361270515
 31
0.0
  0
LINE
  5
1D6
330
1F
100
AcDbEntity
  8
0
  6
Continuous
 62
     7
370
    25
100
AcDbLine
 10
267.3515148258
 20
57.3708520363
 30
0.0
 11
267.960363178
 21
57.7079078264
 31
0.0
  0
LINE
  5
1D7
330
1F
100
AcDbEntity
  8
0
  6
Continuous
 62
     7
370
    25
100
AcDbLine
 10
263.2117657543
 20
59.7606783064
 30
0.0
 11
267.3515148258
 21
57.3708520363
 31
0.0
  0
LINE
  5
1D8
330
1F
100
AcDbEntity
  8
0
  6
Continuous
 62
     7
370
    25
100
AcDbLine
 10
263.2117657543
 20
59.7606783064
 30
0.0
 11
263.6881742205
 21
60.1741900153
 31
0.0
  0
LINE
  5
1D9
330
1F
100
AcDbEntity
  8
0
  6
Continuous
 62
     7
370
    25
100
AcDbLine
 10
263.6881742205
 20
60.1741900153
 30
0.0
 11
264.8399587691
 21
61.0024092404
 31
0.0
  0
LINE
  5
1DA
330
1F
100
AcDbEntity
  8
0
  6
Continuous
 62
     7
370
    25
100
AcDbLine
 10
264.8399587691
 20
61.0024092404
 30
0.0
 11
269.1121477266
 21
58.5361270515
 31
0.0
  0
LINE
  5
1DB
330
1F
100
AcDbEntity
  8
0
  6
Continuous
 62
     7
370
    25
100
AcDbLine
 10
267.2185062043
 20
53.277755072
 30
0.0
 11
268.5095623796
 21
53.8339079185
 31
0.0
  0
LINE
  5
1DC
330
1F
100
AcDbEntity
  8
0
  6
Continuous
 62
     7
370
    25
100
AcDbLine
 10
266.6326542263
 20
53.0780381981
 30
0.0
 11
267.2185062043
 21
53.277755072
 31
0.0
  0
LINE
  5
1DD
330
1F
100
AcDbEntity
  8
0
  6
Continuous
 62
     7
370
    25
100
AcDbLine
 10
267.3515148258
 20
57.3708520363
 30
0.0
 11
266.6326542263
 21
53.0780381981
 31
0.0
  0
LINE
  5
1DE
330
1F
100
AcDbEntity
  8
0
  6
Continuous
 62
     7
370
    25
100
AcDbLine
 10
267.960363178
 20
57.7079078264
 30
0.0
 11
269.2514206704
 21
58.264060162
 31
0.0
  0
LINE
  5
1DF
330
1F
100
AcDbEntity
  8
0
  6
Continuous
 62
     7
370
    25
100
AcDbLine
 10
269.2514206704
 20
58.264060162
 30
0.0
 11
268.5095623796
 21
53.8339079185
 31
0.0
  0
LINE
  5
1E0
330
1F
100
AcDbEntity
  8
0
  6
Continuous
 62
     7
370
    25
100
AcDbLine
 10
263.1953600935
 20
59.6627067605
 30
0.0
 11
263.2117657543
 21
59.7606783064
 31
0.0
  0
LINE
  5
1E1
330
1F
100
AcDbEntity
  8
0
  6
Continuous
 62
     7
370
    25
100
AcDbLine
 10
266.6326542263
 20
53.0780381981
 30
0.0
 11
266.6271659164
 21
53.081206532
 31
0.0
  0
ARC
  5
1E2
330
1F
100
AcDbEntity
  8
0
  6
Continuous
 62
     7
370
    25
100
AcDbCircle
 10
268.9553335277
 20
58.2841719244
 30
0.0
 40
0.2967694038550041
100
AcDbArc
 50
356.1141447033
 51
58.1023037915
  0
ARC
  5
1E3
330
1F
100
AcDbEntity
  8
0
  6
Continuous
 62
     7
370
    25
100
AcDbCircle
 10
264.7826730502
 20
60.9243136893
 30
0.0
 40
0.0968533359642347
100
AcDbArc
 50
53.7386973658
 51
121.7827096945
  0
ARC
  5
1E4
330
1F
100
AcDbEntity
  8
0
  6
Continuous
 62
     7
370
    25
100
AcDbCircle
 10
268.4259915409
 20
53.8412329152
 30
0.0
 40
0.0838912431071107
100
AcDbArc
 50
294.8311245906
 51
354.9908178045
  0
LINE
  5
1E5
330
1F
100
AcDbEntity
  8
0
  6
Continuous
 62
     7
370
    25
100
AcDbLine
 10
238.6733499718
 20
75.9164046356
 30
0.0
 11
239.4152082626
 21
70.6297210413
 31
0.0
  0
LWPOLYLINE
  5
1E6
330
1F
100
AcDbEntity
  8
0
  6
Continuous
 62
     7
370
    25
100
AcDbPolyline
 90
        9
 70
   128
 43
0.0
 10
238.8126229156
 20
76.0276704069
 10
238.7820137669
 20
76.041469637
 10
238.7528547332
 20
76.0468731407
 10
238.726530075
 20
76.0436236604
 10
238.7042870757
 20
76.0318756595
 10
238.6871807235
 20
76.0121858008
 10
238.6760197112
 20
75.9854888642
 10
238.6713361427
 20
75.953048765
 10
238.6733499718
 20
75.9164046356
  0
LINE
  5
1E7
330
1F
100
AcDbEntity
  8
0
  6
Continuous
 62
     7
370
    25
100
AcDbLine
 10
243.0848118731
 20
73.561388218
 30
0.0
 11
238.8126229156
 21
76.0276704069
 31
0.0
  0
ARC
  5
1E8
330
1F
100
AcDbEntity
  8
0
  6
Continuous
 62
     7
370
    25
100
AcDbCircle
 10
242.9148774189
 20
73.2987760376
 30
0.0
 40
0.312798459150112
100
AcDbArc
 50
8.6902664684
 51
57.0933844335
  0
LINE
  5
1E9
330
1F
100
AcDbEntity
  8
0
  6
Continuous
 62
     7
370
    25
100
AcDbLine
 10
243.9659431077
 20
68.0593541974
 30
0.0
 11
243.2240848169
 21
73.346037661
 31
0.0
  0
LWPOLYLINE
  5
1EA
330
1F
100
AcDbEntity
  8
0
  6
Continuous
 62
     7
370
    25
100
AcDbPolyline
 90
        9
 70
   128
 43
0.0
 10
243.8266701639
 20
67.9480884498
 10
243.8572793126
 20
67.9342893008
 10
243.8864370293
 20
67.9288862862
 10
243.9127616874
 20
67.9321359329
 10
243.9350046867
 20
67.9438837496
 10
243.952112356
 20
67.9635729787
 10
243.9632727097
 20
67.9902704559
 10
243.9679569368
 20
68.022709961
 10
243.9659431077
 20
68.0593541974
  0
LINE
  5
1EB
330
1F
100
AcDbEntity
  8
0
  6
Continuous
 62
     7
370
    25
100
AcDbLine
 10
239.5544798893
 20
70.4143713991
 30
0.0
 11
243.8266701639
 21
67.9480884498
 31
0.0
  0
ARC
  5
1EC
330
1F
100
AcDbEntity
  8
0
  6
Continuous
 62
     7
370
    25
100
AcDbCircle
 10
239.7244153881
 20
70.6769825647
 30
0.0
 40
0.3127981746358002
100
AcDbArc
 50
188.690255903
 51
237.0931228121
  0
LWPOLYLINE
  5
1ED
330
1F
100
AcDbEntity
  8
0
  6
Continuous
 62
     7
370
    25
100
AcDbPolyline
 90
        9
 70
   128
 43
0.0
 10
243.8266701639
 20
67.9562539201
 10
243.8557488551
 20
67.9431443672
 10
243.8834485542
 20
67.9380119407
 10
243.9084574405
 20
67.9410987249
 10
243.9295881581
 20
67.9522593599
 10
243.945840378
 20
67.9709640894
 10
243.956442286
 20
67.9963269019
 10
243.9608920713
 20
68.0271446979
 10
243.9589789995
 20
68.0619566084
  0
LINE
  5
1EE
330
1F
100
AcDbEntity
  8
0
  6
Continuous
 62
     7
370
    25
100
AcDbLine
 10
243.9589789995
 20
68.0619566084
 30
0.0
 11
243.2171213673
 21
73.348639668
 31
0.0
  0
ARC
  5
1EF
330
1F
100
AcDbEntity
  8
0
  6
Continuous
 62
     7
370
    25
100
AcDbCircle
 10
242.9233724614
 20
73.3037398931
 30
0.0
 40
0.297160578685869
100
AcDbArc
 50
8.6904467271
 51
57.0932534056
  0
LINE
  5
1F0
330
1F
100
AcDbEntity
  8
0
  6
Continuous
 62
     7
370
    25
100
AcDbLine
 10
243.0848118731
 20
73.5532228101
 30
0.0
 11
238.8126229155
 21
76.019504999
 31
0.0
  0
LWPOLYLINE
  5
1F1
330
1F
100
AcDbEntity
  8
0
  6
Continuous
 62
     7
370
    25
100
AcDbPolyline
 90
        9
 70
   128
 43
0.0
 10
238.8126229155
 20
76.019504999
 10
238.7835442243
 20
76.0326142674
 10
238.7558432081
 20
76.0377475575
 10
238.7308356389
 20
76.0346600576
 10
238.7097042628
 20
76.0234997582
 10
238.6934527014
 20
76.004794696
 10
238.6828501348
 20
75.9794323706
 10
238.678399691
 20
75.9486148954
 10
238.6803134214
 20
75.9138026285
  0
LINE
  5
1F2
330
1F
100
AcDbEntity
  8
0
  6
Continuous
 62
     7
370
    25
100
AcDbLine
 10
238.6803134214
 20
75.9138026285
 30
0.0
 11
239.4221717121
 21
70.6271190105
 31
0.0
  0
ARC
  5
1F3
330
1F
100
AcDbEntity
  8
0
  6
Continuous
 62
     7
370
    25
100
AcDbCircle
 10
239.7159183604
 20
70.6720175066
 30
0.0
 40
0.2971581537592806
100
AcDbArc
 50
188.6902687513
 51
237.0931668401
  0
LINE
  5
1F4
330
1F
100
AcDbEntity
  8
0
  6
Continuous
 62
     7
370
    25
100
AcDbLine
 10
239.5544798892
 20
70.4225368693
 30
0.0
 11
243.8266701639
 21
67.9562539201
 31
0.0
  0
LINE
  5
1F5
330
1F
100
AcDbEntity
  8
0
  6
Continuous
 62
     7
370
    25
100
AcDbLine
 10
244.2365964217
 20
74.0629911267
 30
0.0
 11
243.4304714104
 21
73.4921784029
 31
0.0
  0
LINE
  5
1F6
330
1F
100
AcDbEntity
  8
0
  6
Continuous
 62
     7
370
    25
100
AcDbLine
 10
243.3173256849
 20
73.4120606229
 30
0.0
 11
243.2240848169
 21
73.346037661
 31
0.0
  0
LINE
  5
1F7
330
1F
100
AcDbEntity
  8
0
  6
Continuous
 62
     7
370
    25
100
AcDbLine
 10
244.7130048879
 20
74.3258881931
 30
0.0
 11
244.2365964217
 21
74.0629911267
 31
0.0
  0
LINE
  5
1F8
330
1F
100
AcDbEntity
  8
0
  6
Continuous
 62
     7
370
    25
100
AcDbLine
 10
244.7432031049
 20
74.1106841635
 30
0.0
 11
244.7130048879
 21
74.3258881931
 31
0.0
  0
LINE
  5
1F9
330
1F
100
AcDbEntity
  8
0
  6
Continuous
 62
     7
370
    25
100
AcDbLine
 10
244.4231979304
 20
68.3831336988
 30
0.0
 11
243.9659431077
 21
68.0593541974
 31
0.0
  0
LINE
  5
1FA
330
1F
100
AcDbEntity
  8
0
  6
Continuous
 62
     7
370
    25
100
AcDbLine
 10
243.1623790474
 20
73.4428586363
 30
0.0
 11
243.2171213673
 21
73.348639668
 31
0.0
  0
LINE
  5
1FB
330
1F
100
AcDbEntity
  8
0
  6
Continuous
 62
     7
370
    25
100
AcDbLine
 10
243.9042373381
 20
68.1561752916
 30
0.0
 11
243.9589789995
 21
68.0619566084
 31
0.0
  0
LINE
  5
1FC
330
1F
100
AcDbEntity
  8
0
  6
Continuous
 62
     7
370
    25
100
AcDbLine
 10
243.7227661433
 20
68.7988941913
 30
0.0
 11
243.9042373381
 21
68.1561752916
 31
0.0
  0
LINE
  5
1FD
330
1F
100
AcDbEntity
  8
0
  6
Continuous
 62
     7
370
    25
100
AcDbLine
 10
243.1048627218
 20
73.3687930601
 30
0.0
 11
243.1623790474
 21
73.4428586363
 31
0.0
  0
LINE
  5
1FE
330
1F
100
AcDbEntity
  8
0
  6
Continuous
 62
     7
370
    25
100
AcDbLine
 10
244.2365964217
 20
74.0629911267
 30
0.0
 11
243.0848118731
 21
73.561388218
 31
0.0
  0
LINE
  5
1FF
330
1F
100
AcDbEntity
  8
0
  6
Continuous
 62
     7
370
    25
100
AcDbLine
 10
243.1623790474
 20
73.4428586363
 30
0.0
 11
243.0848118731
 21
73.5532228101
 31
0.0
  0
LINE
  5
200
330
1F
100
AcDbEntity
  8
0
  6
Continuous
 62
     7
370
    25
100
AcDbLine
 10
239.9644074642
 20
76.5292733155
 30
0.0
 11
238.8126229156
 21
76.0276704069
 31
0.0
  0
LINE
  5
201
330
1F
100
AcDbEntity
  8
0
  6
Continuous
 62
     7
370
    25
100
AcDbLine
 10
240.5732558164
 20
76.7157144632
 30
0.0
 11
239.9644074642
 21
76.5292733155
 31
0.0
  0
LINE
  5
202
330
1F
100
AcDbEntity
  8
0
  6
Continuous
 62
     7
370
    25
100
AcDbLine
 10
244.7130048879
 20
74.3258881931
 30
0.0
 11
240.5732558164
 21
76.7157144632
 31
0.0
  0
LINE
  5
203
330
1F
100
AcDbEntity
  8
0
  6
Continuous
 62
     7
370
    25
100
AcDbLine
 10
238.8901900898
 20
75.9091408252
 30
0.0
 11
238.8126229155
 21
76.019504999
 31
0.0
  0
LINE
  5
204
330
1F
100
AcDbEntity
  8
0
  6
Continuous
 62
     7
370
    25
100
AcDbLine
 10
239.4127141693
 20
75.4633081233
 30
0.0
 11
238.8901900898
 21
75.9091408252
 31
0.0
  0
SPLINE
  5
205
330
1F
100
AcDbEntity
  8
0
  6
Continuous
 62
     7
370
    25
100
AcDbSpline
210
0.0
220
0.0
230
1.0
 70
     8
 71
     3
 72
    11
 73
     7
 74
     0
 42
0.000000001
 43
0.00000001
 40
0.0
 40
0.0
 40
0.0
 40
0.0
 40
0.3372297362607353
 40
0.6736308256143011
 40
0.9918826319152262
 40
1.0
 40
1.0
 40
1.0
 40
1.0
 10
243.1048627218257
 20
73.36879306014241
 30
0.0
 10
243.0960933498589
 20
73.35981935758603
 30
0.0
 10
243.0785761541821
 20
73.34189400281485
 30
0.0
 10
243.014169714544
 20
73.29250574924023
 30
0.0
 10
242.9594129412981
 20
73.25337205850334
 30
0.0
 10
242.9302252645875
 20
73.23311405199274
 30
0.0
 10
242.9294993163853
 20
73.23261020019417
 30
0.0
  0
ARC
  5
206
330
1F
100
AcDbEntity
  8
0
  6
Continuous
 62
     7
370
    25
100
AcDbCircle
 10
241.8827081757
 20
72.5288570066
 30
0.0
 40
0.7819975617774599
100
AcDbArc
 50
8.6903097364
 51
57.0932798088
  0
LINE
  5
207
330
1F
100
AcDbEntity
  8
0
  6
Continuous
 62
     7
370
    25
100
AcDbLine
 10
239.5683738613
 20
74.28751268
 30
0.0
 11
239.9835651001
 21
71.3287469943
 31
0.0
  0
LWPOLYLINE
  5
208
330
1F
100
AcDbEntity
  8
0
  6
Continuous
 62
     7
370
    25
100
AcDbPolyline
 90
        9
 70
   128
 43
0.0
 10
239.9165555623
 20
74.5656774291
 10
239.8400326904
 20
74.6001754919
 10
239.7671370818
 20
74.6136831231
 10
239.7013260949
 20
74.6055590065
 10
239.6457185966
 20
74.5761890845
 10
239.6029500821
 20
74.5269659168
 10
239.5750488684
 20
74.460222794
 10
239.56333863
 20
74.379123366
 10
239.5683738613
 20
74.28751268
  0
LINE
  5
209
330
1F
100
AcDbEntity
  8
0
  6
Continuous
 62
     7
370
    25
100
AcDbLine
 10
242.3075462783
 20
73.185387869
 30
0.0
 11
239.9165555623
 21
74.5656774291
 31
0.0
  0
LINE
  5
20A
330
1F
100
AcDbEntity
  8
0
  6
Continuous
 62
     7
370
    25
100
AcDbLine
 10
243.0709192181
 20
69.6882459865
 30
0.0
 11
242.6557279793
 21
72.6470118624
 31
0.0
  0
LWPOLYLINE
  5
20B
330
1F
100
AcDbEntity
  8
0
  6
Continuous
 62
     7
370
    25
100
AcDbPolyline
 90
        9
 70
   128
 43
0.0
 10
242.7227362001
 20
69.4100819979
 10
242.799260389
 20
69.3755831747
 10
242.8721546806
 20
69.362076589
 10
242.937966326
 20
69.3701999452
 10
242.9935744828
 20
69.3995696772
 10
243.0363423388
 20
69.4487931299
 10
243.0642428939
 20
69.5155366329
 10
243.0759537909
 20
69.5966357758
 10
243.0709192181
 20
69.6882459865
  0
LINE
  5
20C
330
1F
100
AcDbEntity
  8
0
  6
Continuous
 62
     7
370
    25
100
AcDbLine
 10
240.3317468011
 20
70.7903707976
 30
0.0
 11
242.7227362001
 21
69.4100819979
 31
0.0
  0
ARC
  5
20D
330
1F
100
AcDbEntity
  8
0
  6
Continuous
 62
     7
370
    25
100
AcDbCircle
 10
240.7565855031
 20
71.4469020059
 30
0.0
 40
0.7819981778588555
100
AcDbArc
 50
188.6903143862
 51
237.0932567066
  0
LWPOLYLINE
  5
20E
330
1F
100
AcDbEntity
  8
0
  6
Continuous
 62
     7
370
    25
100
AcDbPolyline
 90
       27
 70
   128
 43
0.0
 10
241.3196465398
 20
70.4364516695
 10
241.6411677249
 20
70.2959232013
 10
241.9440033682
 20
70.2537250141
 10
242.210553209
 20
70.3123098505
 10
242.4253269636
 20
70.468272425
 10
242.5758438963
 20
70.7125483698
 10
242.6533532678
 20
71.0309430141
 10
242.6533532678
 20
71.4049508314
 10
242.5758438963
 20
71.8128358911
 10
242.4253269636
 20
72.2308949874
 10
242.210553209
 20
72.6348301558
 10
241.9440033682
 20
73.0011666976
 10
241.6411677249
 20
73.3086150067
 10
241.3196465398
 20
73.5393069021
 10
240.9981253546
 20
73.6798354654
 10
240.6952897114
 20
73.7220337476
 10
240.4287385534
 20
73.6634498617
 10
240.2139647988
 20
73.5074871921
 10
240.0634491832
 20
73.2632104869
 10
239.9859384946
 20
72.944816603
 10
239.9859384946
 20
72.5708087857
 10
240.0634491832
 20
72.1629229656
 10
240.2139647988
 20
71.7448646297
 10
240.4287385534
 20
71.3409295564
 10
240.6952897114
 20
70.9745920641
 10
240.9981253546
 20
70.66714366
 10
241.3196465398
 20
70.4364516695
  0
ARC
  5
20F
330
1F
100
AcDbEntity
  8
0
  6
Continuous
 62
     7
370
    25
100
AcDbCircle
 10
241.4616886911
 20
73.0783505025
 30
0.0
 40
1.073971766052422
100
AcDbArc
 50
143.8016241758
 51
174.689877006
  0
SPLINE
  5
210
330
1F
100
AcDbEntity
  8
0
  6
Continuous
 62
     7
370
    25
100
AcDbSpline
210
0.0
220
0.0
230
1.0
 70
     8
 71
     3
 72
    11
 73
     7
 74
     0
 42
0.000000001
 43
0.00000001
 40
0.0
 40
0.0
 40
0.0
 40
0.0
 40
0.007626870428959
 40
0.3209881492639793
 40
0.6632168714320553
 40
1.0
 40
1.0
 40
1.0
 40
1.0
 10
243.5088539090217
 20
69.07307968729425
 30
0.0
 10
243.5096016900977
 20
69.07260423735885
 30
0.0
 10
243.5410731653114
 20
69.05259422194621
 30
0.0
 10
243.602517229297
 20
69.0034268524446
 30
0.0
 10
243.6803029230624
 20
68.91051057795244
 30
0.0
 10
243.7086876171782
 20
68.83590019811324
 30
0.0
 10
243.722766143315
 20
68.7988941913423
 30
0.0
  0
LINE
  5
211
330
1F
100
AcDbEntity
  8
0
  6
Continuous
 62
     7
370
    25
100
AcDbLine
 10
243.9042373381
 20
68.1561752916
 30
0.0
 11
243.8266701639
 21
67.9562539201
 31
0.0
  0
LINE
  5
212
330
1F
100
AcDbEntity
  8
0
  6
Continuous
 62
     7
370
    25
100
AcDbLine
 10
239.6320470635
 20
70.6224582408
 30
0.0
 11
239.5544798892
 21
70.4225368693
 31
0.0
  0
LINE
  5
213
330
1F
100
AcDbEntity
  8
0
  6
Continuous
 62
     7
370
    25
100
AcDbLine
 10
239.943294589
 20
70.8429995664
 30
0.0
 11
239.6320470635
 21
70.6224582408
 31
0.0
  0
SPLINE
  5
214
330
1F
100
AcDbEntity
  8
0
  6
Continuous
 62
     7
370
    25
100
AcDbSpline
210
0.0
220
0.0
230
1.0
 70
     8
 71
     3
 72
    11
 73
     7
 74
     0
 42
0.000000001
 43
0.00000001
 40
0.0
 40
0.0
 40
0.0
 40
0.0
 40
0.3367841211531853
 40
0.6790087377132692
 40
0.9923710497541555
 40
1.0
 40
1.0
 40
1.0
 40
1.0
 10
239.4127141693021
 20
75.46330812325921
 30
0.0
 10
239.4411432883298
 20
75.43458648242535
 30
0.0
 10
239.498460777525
 20
75.37667922414704
 30
0.0
 10
239.5504806748333
 20
75.26888683396
 30
0.0
 10
239.5687441537399
 20
75.19479599061121
 30
0.0
 10
239.5732351432728
 20
75.15920715314306
 30
0.0
 10
239.5733418799343
 20
75.15836131868508
 30
0.0
  0
LINE
  5
215
330
1F
100
AcDbEntity
  8
0
  6
Continuous
 62
     7
370
    25
100
AcDbLine
 10
239.6320470635
 20
70.6224582408
 30
0.0
 11
239.4221717121
 21
70.6271190105
 31
0.0
  0
LINE
  5
216
330
1F
100
AcDbEntity
  8
0
  6
Continuous
 62
     7
370
    25
100
AcDbLine
 10
238.8901900898
 20
75.9091408252
 30
0.0
 11
238.6803134214
 21
75.9138026285
 31
0.0
  0
SPLINE
  5
217
330
1F
100
AcDbEntity
  8
0
  6
Continuous
 62
     7
370
    25
100
AcDbSpline
210
0.0
220
0.0
230
1.0
 70
     8
 71
     3
 72
    11
 73
     7
 74
     0
 42
0.000000001
 43
0.00000001
 40
0.0
 40
0.0
 40
0.0
 40
0.0
 40
0.0081146901468742
 40
0.3263665948030153
 40
0.6627670501503853
 40
0.9999999999999999
 40
0.9999999999999999
 40
0.9999999999999999
 40
0.9999999999999999
 10
240.0833186851776
 20
70.95878152489686
 30
0.0
 10
240.0832781792001
 20
70.95867282379707
 30
0.0
 10
240.0816490599478
 20
70.95430094919102
 30
0.0
 10
240.0685925880383
 20
70.93927282454446
 30
0.0
 10
240.02279642785
 20
70.90061456215025
 30
0.0
 10
239.9698170264342
 20
70.8622203811946
 30
0.0
 10
239.9432945890329
 20
70.84299956642973
 30
0.0
  0
ARC
  5
218
330
1F
100
AcDbEntity
  8
0
  6
Continuous
 62
     7
370
    25
100
AcDbCircle
 10
242.0461525307
 20
71.3171483707
 30
0.0
 40
0.904491052129694
100
AcDbArc
 50
227.5533190997
 51
297.5621028804
  0
LWPOLYLINE
  5
219
330
1F
100
AcDbEntity
  8
0
  6
Continuous
 62
     7
370
    25
100
AcDbPolyline
 90
       13
 70
   128
 43
0.0
 10
241.3013807994
 20
73.5497081187
 10
241.2038411382
 20
73.5780470266
 10
240.9193262031
 20
73.5996208979
 10
240.6744754038
 20
73.5210729999
 10
240.484673657
 20
73.3473386595
 10
240.3618485208
 20
73.0893334446
 10
240.3137155027
 20
72.763269817
 10
240.3432999562
 20
72.3896351211
 10
240.4487434686
 20
71.9919056226
 10
240.6234197652
 20
71.5950729323
 10
240.8563535431
 20
71.2240714085
 10
241.1329093092
 20
70.9022120481
 10
241.435708074
 20
70.6497192519
  0
LWPOLYLINE
  5
21A
330
1F
100
AcDbEntity
  8
0
  6
Continuous
 62
     7
370
    25
100
AcDbPolyline
 90
       22
 70
   128
 43
0.0
 10
241.2873581025
 20
70.8833034788
 10
241.5645039245
 20
70.7414525843
 10
241.8247067134
 20
70.7029101244
 10
242.0448462887
 20
70.7711001953
 10
242.2053612441
 20
70.9399644448
 10
242.2919888229
 20
71.1944989327
 10
242.2970332738
 20
71.5120863902
 10
242.2200454696
 20
71.8645078984
 10
242.0678663705
 20
72.220449378
 10
241.8540172124
 20
72.5482840659
 10
241.5975009557
 20
72.8188817428
 10
241.3211085086
 20
73.0081993758
 10
241.0493983129
 20
73.0994154538
 10
240.8065152446
 20
73.0844237118
 10
240.61403849
 20
72.96455765
 10
240.48907045
 20
72.750467445
 10
240.4427168191
 20
72.4611754071
 10
240.4790948177
 20
72.122386899
 10
240.5949723094
 20
71.7642051115
 10
240.7800536092
 20
71.4184552109
 10
241.0178935437
 20
71.1158589252
 10
241.2873581025
 20
70.8833034788
  0
LWPOLYLINE
  5
21B
330
1F
100
AcDbEntity
  8
0
  6
Continuous
 62
     7
370
    25
100
AcDbPolyline
 90
        3
 70
   128
 43
0.0
 10
241.1038873557
 20
73.6437251988
 10
240.990036864
 20
73.6404412935
 10
240.7463727619
 20
73.5625796345
  0
LWPOLYLINE
  5
21C
330
1F
100
AcDbEntity
  8
0
  6
Continuous
 62
     7
370
    25
100
AcDbPolyline
 90
       20
 70
   128
 43
0.0
 10
241.3081667919
 20
71.1290060485
 10
241.5403287557
 20
71.0144188509
 10
241.754447917
 20
70.996243727
 10
241.9273171674
 20
71.0764530411
 10
242.0402075011
 20
71.2463519944
 10
242.0808831612
 20
71.4875311038
 10
242.0449371678
 20
71.7738541768
 10
241.9362641531
 20
72.0742943128
 10
241.76664021
 20
72.3562939683
 10
241.554449267
 20
72.5892930057
 10
241.3226824299
 20
72.7480437425
 10
241.0964565864
 20
72.8153426826
 10
240.9002867142
 20
72.7838968156
 10
240.75543063
 20
72.6571138692
 10
240.6775867179
 20
72.4487323182
 10
240.6751896159
 20
72.1813339489
 10
240.7484987905
 20
71.883895844
 10
240.8895708779
 20
71.5886494777
 10
241.0831184259
 20
71.3275893214
 10
241.3081667919
 20
71.1290060485
  0
SPLINE
  5
21D
330
1F
100
AcDbEntity
  8
0
  6
Continuous
 62
     7
370
    25
100
AcDbSpline
210
0.0
220
0.0
230
1.0
 70
     8
 71
     3
 72
    15
 73
    11
 74
     0
 42
0.000000001
 43
0.00000001
 40
0.0
 40
0.0
 40
0.0
 40
0.0
 40
0.126248366941547
 40
0.2533650606899981
 40
0.3794192960461577
 40
0.5042699247325705
 40
0.6284510847028888
 40
0.7526364014937704
 40
0.87748816509884
 40
1.0
 40
1.0
 40
1.0
 40
1.0
 10
241.9659906425337
 20
71.36408836057693
 30
0.0
 10
241.9788726194526
 20
71.3581687078978
 30
0.0
 10
242.0047251745624
 20
71.34628868761203
 30
0.0
 10
242.0376647440234
 20
71.35552855148727
 30
0.0
 10
242.060914084676
 20
71.38410445043151
 30
0.0
 10
242.071575331099
 20
71.43005206626847
 30
0.0
 10
242.0686732605877
 20
71.48757221125496
 30
0.0
 10
242.0526494698209
 20
71.550173334735
 30
0.0
 10
242.0259877231391
 20
71.6118304002577
 30
0.0
 10
242.0025604682999
 20
71.64508691979147
 30
0.0
 10
241.9909576455953
 20
71.66155788502284
 30
0.0
  0
SPLINE
  5
21E
330
1F
100
AcDbEntity
  8
0
  6
Continuous
 62
     7
370
    25
100
AcDbSpline
210
0.0
220
0.0
230
1.0
 70
     8
 71
     3
 72
    12
 73
     8
 74
     0
 42
0.000000001
 43
0.00000001
 40
0.0
 40
0.0
 40
0.0
 40
0.0
 40
0.2058740234534859
 40
0.4120994903529158
 40
0.614169200161996
 40
0.8132903166504915
 40
1.0
 40
1.0
 40
1.0
 40
1.0
 10
241.9909576455953
 20
71.66155788502284
 30
0.0
 10
241.9701182384023
 20
71.6911139022203
 30
0.0
 10
241.9284038494792
 20
71.75027639110361
 30
0.0
 10
241.8790936476853
 20
71.8583626567861
 30
0.0
 10
241.846090800422
 20
71.96331671391472
 30
0.0
 10
241.8316163070302
 20
72.05556464493279
 30
0.0
 10
241.8388837228002
 20
72.09887635035159
 30
0.0
 10
241.8424005413066
 20
72.11983557602115
 30
0.0
  0
SPLINE
  5
21F
330
1F
100
AcDbEntity
  8
0
  6
Continuous
 62
     7
370
    25
100
AcDbSpline
210
0.0
220
0.0
230
1.0
 70
     8
 71
     3
 72
    15
 73
    11
 74
     0
 42
0.000000001
 43
0.00000001
 40
0.0
 40
0.0
 40
0.0
 40
0.0
 40
0.126876310201784
 40
0.2539934721917957
 40
0.3800490288321819
 40
0.5049008719483766
 40
0.6290817254995578
 40
0.7532701008010778
 40
0.878122751947797
 40
1.0
 40
1.0
 40
1.0
 40
1.0
 10
241.8424005413066
 20
72.11983557602115
 30
0.0
 10
241.8444813613595
 20
72.13334781384236
 30
0.0
 10
241.8486469515269
 20
72.16039794003089
 30
0.0
 10
241.8367424763971
 20
72.216600338302
 30
0.0
 10
241.8123540605019
 20
72.27626275748452
 30
0.0
 10
241.7771456823905
 20
72.33366783537981
 30
0.0
 10
241.7353953502582
 20
72.38220539538598
 30
0.0
 10
241.6919220600766
 20
72.41644779332866
 30
0.0
 10
241.6510236401435
 20
72.43426481309234
 30
0.0
 10
241.6308999327243
 20
72.43038435840514
 30
0.0
 10
241.6209594184663
 20
72.42846752894911
 30
0.0
  0
SPLINE
  5
220
330
1F
100
AcDbEntity
  8
0
  6
Continuous
 62
     7
370
    25
100
AcDbSpline
210
0.0
220
0.0
230
1.0
 70
     8
 71
     3
 72
    12
 73
     8
 74
     0
 42
0.000000001
 43
0.00000001
 40
0.0
 40
0.0
 40
0.0
 40
0.0
 40
0.2057955295849496
 40
0.4120024896208945
 40
0.6140552662700304
 40
0.8131804532421453
 40
1.0
 40
1.0
 40
1.0
 40
1.0
 10
241.6209594184663
 20
72.42846752894911
 30
0.0
 10
241.6029477314518
 20
72.42506914525491
 30
0.0
 10
241.5668883481056
 20
72.41826558375132
 30
0.0
 10
241.4914354159535
 20
72.44952277683149
 30
0.0
 10
241.4098298130079
 20
72.50674121770325
 30
0.0
 10
241.3302175554864
 20
72.58306013172066
 30
0.0
 10
241.2877644468196
 20
72.64182237917967
 30
0.0
 10
241.2672146897521
 20
72.67026670158477
 30
0.0
  0
SPLINE
  5
221
330
1F
100
AcDbEntity
  8
0
  6
Continuous
 62
     7
370
    25
100
AcDbSpline
210
0.0
220
0.0
230
1.0
 70
     8
 71
     3
 72
    15
 73
    11
 74
     0
 42
0.000000001
 43
0.00000001
 40
0.0
 40
0.0
 40
0.0
 40
0.0
 40
0.1268026230933156
 40
0.2539278248119813
 40
0.3799877436195079
 40
0.5048411051924878
 40
0.6290237726676551
 40
0.7532064178314506
 40
0.87805558252704
 40
1.0
 40
1.0
 40
1.0
 40
1.0
 10
241.2672146897521
 20
72.67026670158477
 30
0.0
 10
241.2539848495814
 20
72.68833804327805
 30
0.0
 10
241.2274915132827
 20
72.72452669912498
 30
0.0
 10
241.1774538261263
 20
72.76836575086989
 30
0.0
 10
241.1266187379995
 20
72.79749099046592
 30
0.0
 10
241.079787426057
 20
72.80829215877601
 30
0.0
 10
241.04219010505
 20
72.79996158748219
 30
0.0
 10
241.0181409572628
 20
72.7735303997808
 30
0.0
 10
241.0090512717856
 20
72.73279484918224
 30
0.0
 10
241.0169181967039
 20
72.6984167116043
 30
0.0
 10
241.0208053625209
 20
72.68142995723281
 30
0.0
  0
SPLINE
  5
222
330
1F
100
AcDbEntity
  8
0
  6
Continuous
 62
     7
370
    25
100
AcDbSpline
210
0.0
220
0.0
230
1.0
 70
     8
 71
     3
 72
    12
 73
     8
 74
     0
 42
0.000000001
 43
0.00000001
 40
0.0
 40
0.0
 40
0.0
 40
0.0
 40
0.20584976162248
 40
0.412052362551486
 40
0.614106843305134
 40
0.8132408770101381
 40
1.0
 40
1.0
 40
1.0
 40
1.0
 10
241.0208053625209
 20
72.68142995723281
 30
0.0
 10
241.0276872570905
 20
72.65082238216483
 30
0.0
 10
241.0414628422254
 20
72.58955476873972
 30
0.0
 10
241.0218350395733
 20
72.5165152911055
 30
0.0
 10
240.9727516931356
 20
72.46851168026097
 30
0.0
 10
240.9007327182107
 20
72.44859018467908
 30
0.0
 10
240.8433763949077
 20
72.45961560158335
 30
0.0
 10
240.8156178911557
 20
72.46495152722993
 30
0.0
  0
SPLINE
  5
223
330
1F
100
AcDbEntity
  8
0
  6
Continuous
 62
     7
370
    25
100
AcDbSpline
210
0.0
220
0.0
230
1.0
 70
     8
 71
     3
 72
    15
 73
    11
 74
     0
 42
0.000000001
 43
0.00000001
 40
0.0
 40
0.0
 40
0.0
 40
0.0
 40
0.1262562842364557
 40
0.2533800591668641
 40
0.3794448622115071
 40
0.5042996307035568
 40
0.6284806832488415
 40
0.7526623277179803
 40
0.8775112782534021
 40
1.0
 40
1.0
 40
1.0
 40
1.0
 10
240.8156178911557
 20
72.46495152722993
 30
0.0
 10
240.7980111521523
 20
72.46814401088649
 30
0.0
 10
240.7626767005059
 20
72.4745509133443
 30
0.0
 10
240.7193552973882
 20
72.45931333739956
 30
0.0
 10
240.6895820366039
 20
72.42697228034748
 30
0.0
 10
240.6768524565003
 20
72.37982314178448
 30
0.0
 10
240.6821129337997
 20
72.32366197340927
 30
0.0
 10
240.7048073288746
 20
72.26490946005232
 30
0.0
 10
240.7417739862543
 20
72.20920587023627
 30
0.0
 10
240.7744635248009
 20
72.18130060817778
 30
0.0
 10
240.7906523235152
 20
72.16748112064073
 30
0.0
  0
SPLINE
  5
224
330
1F
100
AcDbEntity
  8
0
  6
Continuous
 62
     7
370
    25
100
AcDbSpline
210
0.0
220
0.0
230
1.0
 70
     8
 71
     3
 72
    12
 73
     8
 74
     0
 42
0.000000001
 43
0.00000001
 40
0.0
 40
0.0
 40
0.0
 40
0.0
 40
0.2058718603201711
 40
0.4120924088971405
 40
0.6141678622886054
 40
0.813306597902601
 40
1.0
 40
1.0
 40
1.0
 40
1.0
 10
240.7906523235152
 20
72.16748112064073
 30
0.0
 10
240.8196140515581
 20
72.14261423133128
 30
0.0
 10
240.877586560557
 20
72.09283833528912
 30
0.0
 10
240.9399520399535
 20
71.99228904468669
 30
0.0
 10
240.971988297828
 20
71.88677441503086
 30
0.0
 10
240.9726702337838
 20
71.78656173778293
 30
0.0
 10
240.9501196896101
 20
71.73442964478762
 30
0.0
 10
240.939208110715
 20
71.70920438009745
 30
0.0
  0
SPLINE
  5
225
330
1F
100
AcDbEntity
  8
0
  6
Continuous
 62
     7
370
    25
100
AcDbSpline
210
0.0
220
0.0
230
1.0
 70
     8
 71
     3
 72
    15
 73
    11
 74
     0
 42
0.000000001
 43
0.00000001
 40
0.0
 40
0.0
 40
0.0
 40
0.0
 40
0.126870212613958
 40
0.2539814147305013
 40
0.3800305641898656
 40
0.5048756568971622
 40
0.6290521086285977
 40
0.7532394248637929
 40
0.8780968251483472
 40
1.0
 40
1.0
 40
1.0
 40
1.0
 10
240.939208110715
 20
71.70920438009745
 30
0.0
 10
240.9323805299304
 20
71.69295243510892
 30
0.0
 10
240.9187123993966
 20
71.66041767462211
 30
0.0
 10
240.9202371250127
 20
71.59822422355167
 30
0.0
 10
240.9381230419299
 20
71.53481086603857
 30
0.0
 10
240.9712790198685
 20
71.47622385078675
 30
0.0
 10
241.0154046546769
 20
71.42905851365805
 30
0.0
 10
241.0655643444881
 20
71.39867443388293
 30
0.0
 10
241.1167704414769
 20
71.38680153640023
 30
0.0
 10
241.1461409770281
 20
71.39601835917725
 30
0.0
 10
241.1606504323121
 20
71.40057159851845
 30
0.0
  0
SPLINE
  5
226
330
1F
100
AcDbEntity
  8
0
  6
Continuous
 62
     7
370
    25
100
AcDbSpline
210
0.0
220
0.0
230
1.0
 70
     8
 71
     3
 72
    12
 73
     8
 74
     0
 42
0.000000001
 43
0.00000001
 40
0.0
 40
0.0
 40
0.0
 40
0.0
 40
0.2058324362752814
 40
0.4120753242999556
 40
0.6141711801601025
 40
0.8133042615072263
 40
1.0
 40
1.0
 40
1.0
 40
1.0
 10
241.1606504323121
 20
71.40057159851845
 30
0.0
 10
241.1867854880219
 20
71.40865773435075
 30
0.0
 10
241.2391077155196
 20
71.42484613062946
 30
0.0
 10
241.3276318757022
 20
71.40111636991087
 30
0.0
 10
241.4082847322851
 20
71.34332263479318
 30
0.0
 10
241.4740950581129
 20
71.25903737743863
 30
0.0
 10
241.5012535124799
 20
71.19146797546487
 30
0.0
 10
241.5143950079661
 20
71.15877233752305
 30
0.0
  0
SPLINE
  5
227
330
1F
100
AcDbEntity
  8
0
  6
Continuous
 62
     7
370
    25
100
AcDbSpline
210
0.0
220
0.0
230
1.0
 70
     8
 71
     3
 72
    15
 73
    11
 74
     0
 42
0.000000001
 43
0.00000001
 40
0.0
 40
0.0
 40
0.0
 40
0.0
 40
0.1267878249350392
 40
0.2538944069296414
 40
0.3799400073006565
 40
0.5047845633101815
 40
0.6289633128854025
 40
0.7531487593860787
 40
0.8780090918871954
 40
1.0
 40
1.0
 40
1.0
 40
1.0
 10
241.5143950079661
 20
71.15877233752305
 30
0.0
 10
241.5228801376927
 20
71.13796383343065
 30
0.0
 10
241.5398717295964
 20
71.09629451062033
 30
0.0
 10
241.5795244801139
 20
71.04646436752957
 30
0.0
 10
241.6238519479554
 20
71.01358441546527
 30
0.0
 10
241.6686290509184
 20
71.00159242824856
 30
0.0
 10
241.7086030738917
 20
71.01128717632233
 30
0.0
 10
241.7393406673355
 20
71.04157222346717
 30
0.0
 10
241.7587438586306
 20
71.08825466526268
 30
0.0
 10
241.7601219713909
 20
71.12797857476609
 30
0.0
 10
241.7608030181083
 20
71.14760965209857
 30
0.0
  0
SPLINE
  5
228
330
1F
100
AcDbEntity
  8
0
  6
Continuous
 62
     7
370
    25
100
AcDbSpline
210
0.0
220
0.0
230
1.0
 70
     8
 71
     3
 72
    12
 73
     8
 74
     0
 42
0.000000001
 43
0.00000001
 40
0.0
 40
0.0
 40
0.0
 40
0.0
 40
0.2058908397510979
 40
0.4121354984195567
 40
0.614225054100236
 40
0.8133493650665505
 40
1.0
 40
1.0
 40
1.0
 40
1.0
 10
241.7608030181083
 20
71.14760965209857
 30
0.0
 10
241.7620435932653
 20
71.18291067460858
 30
0.0
 10
241.7645268754806
 20
71.25357338366578
 30
0.0
 10
241.7972209854662
 20
71.334154824974
 30
0.0
 10
241.8453507664752
 20
71.38159458517232
 30
0.0
 10
241.9035781310058
 20
71.39353489658788
 30
0.0
 10
241.945639813894
 20
71.37368998361244
 30
0.0
 10
241.9659906425337
 20
71.36408836057693
 30
0.0
  0
ARC
  5
229
330
1F
100
AcDbEntity
  8
0
  6
Continuous
 62
     7
370
    25
100
AcDbCircle
 10
241.7936826833
 20
71.473870215
 30
0.0
 40
0.2680636886836293
100
AcDbArc
 50
30.387132879
 51
100.7047210565
  0
LWPOLYLINE
  5
22A
330
1F
100
AcDbEntity
  8
0
  6
Continuous
 62
     7
370
    25
100
AcDbPolyline
 90
        9
 70
   128
 43
0.0
 10
241.7438905019
 20
71.7372689239
 10
241.7044634422
 20
71.7317028185
 10
241.6591634825
 20
71.7460659932
 10
241.6130258543
 20
71.7787615683
 10
241.5711766679
 20
71.826156533
 10
241.5382652476
 20
71.8829851181
 10
241.5179517837
 20
71.9429305017
 10
241.5124898156
 20
71.999333712
 10
241.5224891554
 20
72.0459253599
  0
ARC
  5
22B
330
1F
100
AcDbEntity
  8
0
  6
Continuous
 62
     7
370
    25
100
AcDbCircle
 10
241.0689271647
 20
72.152114336
 30
0.0
 40
0.46582676821651
100
AcDbArc
 50
346.8231148187
 51
49.0983066129
  0
ARC
  5
22C
330
1F
100
AcDbEntity
  8
0
  6
Continuous
 62
     7
370
    25
100
AcDbCircle
 10
241.6051846157
 20
72.7394182778
 30
0.0
 40
0.3298541944502037
100
AcDbArc
 50
197.8265463147
 51
225.4869970921
  0
LINE
  5
22D
330
1F
100
AcDbEntity
  8
0
  6
Continuous
 62
     7
370
    25
100
AcDbLine
 10
241.7438905019
 20
71.7372689239
 30
0.0
 11
241.1606504323
 21
71.4005715985
 31
0.0
  0
ELLIPSE
  5
22E
330
1F
100
AcDbEntity
  8
0
  6
Continuous
 62
     7
370
    25
100
AcDbEllipse
 10
254.6372458365
 20
67.2013982239
 30
0.0
 11
20.92167309492046
 21
2.547525207582353
 31
0.0
210
0.0
220
0.0
230
1.0
 40
0.6426220098
 41
4.954859584612224
 42
5.284118446380364
  0
LWPOLYLINE
  5
22F
330
1F
100
AcDbEntity
  8
0
  6
Continuous
 62
     7
370
    25
100
AcDbPolyline
 90
        3
 70
   128
 43
0.0
 10
266.6088175493
 20
52.9724909365
 10
266.7066838486
 20
53.5523466102
 10
267.3344400838
 20
57.2732667428
  0
ARC
  5
230
330
1F
100
AcDbEntity
  8
0
  6
Continuous
 62
     7
370
    25
100
AcDbCircle
 10
257.738362201
 20
72.5559571602
 30
0.0
 40
21.49877036993219
100
AcDbArc
 50
294.3684511413
 51
296.6632787414
  0
LWPOLYLINE
  5
231
330
1F
100
AcDbEntity
  8
0
  6
Continuous
 62
     7
370
    25
100
AcDbPolyline
 90
        3
 70
   128
 43
0.0
 10
268.263238231
 20
53.6874573212
 10
268.1881193761
 20
53.2388802095
 10
267.5121458291
 20
49.2023021879
  0
ARC
  5
232
330
1F
100
AcDbEntity
  8
0
  6
Continuous
 62
     7
370
    25
100
AcDbCircle
 10
255.1630654658
 20
72.3597727735
 30
0.0
 40
26.24439425366768
100
AcDbArc
 50
272.1396755233
 51
298.0694614277
  0
ELLIPSE
  5
233
330
1F
100
AcDbEntity
  8
0
  6
Continuous
 62
     7
370
    25
100
AcDbEllipse
 10
276.2092930265
 20
200.3437329173
 30
0.0
 11
31.79923240455252
 21
163.1430499885445
 31
0.0
210
0.0
220
0.0
230
1.0
 40
0.1648399561
 41
3.5076558368608
 42
3.610402015420469
  0
SPLINE
  5
234
330
1F
100
AcDbEntity
  8
0
  6
Continuous
 62
     7
370
    25
100
AcDbSpline
210
0.0
220
0.0
230
1.0
 70
     8
 71
     3
 72
    15
 73
    11
 74
     0
 42
0.000000001
 43
0.00000001
 40
0.0
 40
0.0
 40
0.0
 40
0.0
 40
0.1419729366363391
 40
0.2439259028207966
 40
0.3469412902246656
 40
0.4199133329559541
 40
0.4927368852122716
 40
0.604260100266948
 40
0.802220939942501
 40
1.0
 40
1.0
 40
1.0
 40
1.0
 10
260.5952028001098
 20
53.53514315650155
 30
0.0
 10
260.6672621910353
 20
53.50499650655043
 30
0.0
 10
260.7910685474062
 20
53.45320108003767
 30
0.0
 10
260.9216261612523
 20
53.34041139285981
 30
0.0
 10
260.976269324093
 20
53.21855998091768
 30
0.0
 10
260.9564125078948
 20
53.08912727498846
 30
0.0
 10
260.8789198235126
 20
52.95451191698609
 30
0.0
 10
260.6932055488425
 20
52.77525465702394
 30
0.0
 10
260.3836300734695
 20
52.5877137652372
 30
0.0
 10
260.1222792618968
 20
52.48544197617598
 30
0.0
 10
259.9916638807009
 20
52.43432957046563
 30
0.0
  0
ELLIPSE
  5
235
330
1F
100
AcDbEntity
  8
0
  6
Continuous
 62
     7
370
    25
100
AcDbEllipse
 10
276.2092930265
 20
200.3437329173
 30
0.0
 11
31.79923240455252
 21
163.1430499885445
 31
0.0
210
0.0
220
0.0
230
1.0
 40
0.1648399561
 41
3.626084746480026
 42
3.642982206785896
  0
LINE
  5
236
330
1F
100
AcDbEntity
  8
0
  6
Continuous
 62
     7
370
    25
100
AcDbLine
 10
255.2869125973
 20
45.9379107136
 30
0.0
 11
256.1429183833
 21
46.1336766477
 31
0.0
  0
SPLINE
  5
237
330
1F
100
AcDbEntity
  8
0
  6
Continuous
 62
     7
370
    25
100
AcDbSpline
210
0.0
220
0.0
230
1.0
 70
     8
 71
     3
 72
    10
 73
     6
 74
     0
 42
0.000000001
 43
0.00000001
 40
0.0
 40
0.0
 40
0.0
 40
0.0
 40
0.3830123297538292
 40
0.8724442939301914
 40
1.0
 40
1.0
 40
1.0
 40
1.0
 10
255.018760517623
 20
45.7266784147029
 30
0.0
 10
255.0443307712534
 20
45.76886862652938
 30
0.0
 10
255.1025759506934
 20
45.86497156293193
 30
0.0
 10
255.2065580005806
 20
45.91799707940319
 30
0.0
 10
255.2731461900544
 20
45.93449909550527
 30
0.0
 10
255.286912597284
 20
45.93791071362502
 30
0.0
  0
ELLIPSE
  5
238
330
1F
100
AcDbEntity
  8
0
  6
Continuous
 62
     7
370
    25
100
AcDbEllipse
 10
254.3159387117
 20
93.3526128919
 30
0.0
 11
11.71484798666529
 21
62.58058119270813
 31
0.0
210
0.0
220
0.0
230
1.0
 40
0.2183760757
 41
3.699048745435462
 42
3.889318674707135
  0
LINE
  5
239
330
1F
100
AcDbEntity
  8
0
  6
Continuous
 62
     7
370
    25
100
AcDbLine
 10
244.8937411111
 20
42.7671230562
 30
0.0
 11
251.6044423441
 21
38.8931176949
 31
0.0
  0
LINE
  5
23A
330
1F
100
AcDbEntity
  8
0
  6
Continuous
 62
     7
370
    25
100
AcDbLine
 10
244.8937411111
 20
42.7671230562
 30
0.0
 11
246.8429854395
 21
52.2929295102
 31
0.0
  0
ELLIPSE
  5
23B
330
1F
100
AcDbEntity
  8
0
  6
Continuous
 62
     7
370
    25
100
AcDbEllipse
 10
253.9140531967
 20
48.2108891579
 30
0.0
 11
-1.777729029160753
 21
10.40328698327402
 31
0.0
210
0.0
220
0.0
230
1.0
 40
0.6846783801
 41
5.76638674567976
 42
7.337183072474636
  0
LINE
  5
23C
330
1F
100
AcDbEntity
  8
0
  6
Continuous
 62
     7
370
    25
100
AcDbLine
 10
255.8879088763
 20
57.8569677127
 30
0.0
 11
261.2497822116
 21
54.7616241225
 31
0.0
  0
ELLIPSE
  5
23D
330
1F
100
AcDbEntity
  8
0
  6
Continuous
 62
     7
370
    25
100
AcDbEllipse
 10
259.8404529209
 20
53.4957762783
 30
0.0
 11
-0.2317279040617564
 21
1.050122130208202
 31
0.0
210
0.0
220
0.0
230
1.0
 40
0.6979108556
 41
4.596643043220039
 42
9.316555342439898
  0
LINE
  5
23E
330
1F
100
AcDbEntity
  8
0
  6
Continuous
 62
     7
370
    25
100
AcDbLine
 10
262.1117911041
 20
62.3324045597
 30
0.0
 11
264.5959145015
 21
60.898350647
 31
0.0
  0
LINE
  5
23F
330
1F
100
AcDbEntity
  8
0
  6
Continuous
 62
     7
370
    25
100
AcDbLine
 10
263.0904480265
 20
59.7232712077
 30
0.0
 11
263.4753887764
 21
59.9894974667
 31
0.0
  0
LINE
  5
240
330
1F
100
AcDbEntity
  8
0
  6
Continuous
 62
     7
370
    25
100
AcDbLine
 10
267.3344400838
 20
57.2732667428
 30
0.0
 11
263.0904480265
 21
59.7232712077
 31
0.0
  0
ELLIPSE
  5
241
330
1F
100
AcDbEntity
  8
0
  6
Continuous
 62
     7
370
    25
100
AcDbEllipse
 10
262.1117909743
 20
54.1056757376
 30
0.0
 11
-4.962041686331986
 21
8.725530780669885
 31
0.0
210
0.0
220
0.0
230
1.0
 40
0.5773485232
 41
5.505350278253511
 42
6.344735879379516
  0
ARC
  5
242
330
1F
100
AcDbEntity
  8
0
  6
Continuous
 62
     7
370
    25
100
AcDbCircle
 10
259.8293563813
 20
60.4020052646
 30
0.0
 40
14.59908356815206
100
AcDbArc
 50
303.855955882
 51
306.1524008177
  0
ELLIPSE
  5
243
330
1F
100
AcDbEntity
  8
0
  6
Continuous
 62
     7
370
    25
100
AcDbEllipse
 10
254.3159387117
 20
55.5136952936
 30
0.0
 11
17.94704166160881
 21
-3.359618285242036
 31
0.0
210
0.0
220
0.0
230
1.0
 40
0.4106849769
 41
5.691447854222955
 42
6.041934280192422
  0
ELLIPSE
  5
244
330
1F
100
AcDbEntity
  8
0
  6
Continuous
 62
     7
370
    25
100
AcDbEllipse
 10
254.3159387117
 20
60.3617485235
 30
0.0
 11
18.00000003266842
 21
-10.39286790108917
 31
0.0
210
0.0
220
0.0
230
1.0
 40
0.0000703729
 41
0.0000406320132308
 42
0.3180194087837241
  0
ARC
  5
245
330
1F
100
AcDbEntity
  8
0
  6
Continuous
 62
     7
370
    25
100
AcDbCircle
 10
266.1572762864
 20
31.3844641796
 30
0.0
 40
6.15867013299696
100
AcDbArc
 50
342.3767348726
 51
359.9077714436
  0
ELLIPSE
  5
246
330
1F
100
AcDbEntity
  8
0
  6
Continuous
 62
     7
370
    25
100
AcDbEllipse
 10
254.3159387117
 20
33.6175573083
 30
0.0
 11
17.94704166160881
 21
-3.359618285241865
 31
0.0
210
0.0
220
0.0
230
1.0
 40
0.4106849769
 41
6.08110427168226
 42
6.180466845993165
  0
ELLIPSE
  5
247
330
1F
100
AcDbEntity
  8
0
  6
Continuous
 62
     7
370
    25
100
AcDbEllipse
 10
254.3159387117
 20
58.3211352375
 30
0.0
 11
-15.17192295029841
 21
47.97219694982655
 31
0.0
210
0.0
220
0.0
230
1.0
 40
0.2019023318
 41
3.988576052867069
 42
3.995004618404732
  0
ELLIPSE
  5
248
330
1F
100
AcDbEntity
  8
0
  6
Continuous
 62
     7
370
    25
100
AcDbEllipse
 10
254.3159387117
 20
24.9670693238
 30
0.0
 11
12.72843921217555
 21
22.04510905127174
 31
0.0
210
0.0
220
0.0
230
1.0
 40
0.5773346305
 41
5.212590425799776
 42
5.288737323956648
  0
SPLINE
  5
249
330
1F
100
AcDbEntity
  8
0
  6
Continuous
 62
     7
370
    25
100
AcDbSpline
210
0.0
220
0.0
230
1.0
 70
     8
 71
     3
 72
    14
 73
    10
 74
     0
 42
0.000000001
 43
0.00000001
 40
0.0
 40
0.0
 40
0.0
 40
0.0
 40
0.149344051128246
 40
0.2994003246623441
 40
0.4346797346358744
 40
0.5617802931873661
 40
0.6953406553388297
 40
0.8463376764258849
 40
0.9999999999999999
 40
0.9999999999999999
 40
0.9999999999999999
 40
0.9999999999999999
 10
271.9239009680131
 20
30.81943211521205
 30
0.0
 10
271.9266770713712
 20
30.83792928281883
 30
0.0
 10
271.932242517336
 20
30.87501183110222
 30
0.0
 10
271.9363011325584
 20
30.92941684312275
 30
0.0
 10
271.936275994083
 20
30.97248419262794
 30
0.0
 10
271.9326977070918
 20
31.00148827378358
 30
0.0
 10
271.9260313193705
 20
31.016833949484
 30
0.0
 10
271.9165790828799
 20
31.01808500927674
 30
0.0
 10
271.9087771335992
 20
31.00636454285321
 30
0.0
 10
271.9048420314075
 20
31.00045304157951
 30
0.0
  0
ELLIPSE
  5
24A
330
1F
100
AcDbEntity
  8
0
  6
Continuous
 62
     7
370
    25
100
AcDbEllipse
 10
254.3159387117
 20
35.3379698986
 30
0.0
 11
17.94704166160881
 21
-3.359618285241882
 31
0.0
210
0.0
220
0.0
230
1.0
 40
0.4106849769
 41
6.04285701037501
 42
6.145781434318987
  0
ELLIPSE
  5
24B
330
1F
100
AcDbEntity
  8
0
  6
Continuous
 62
     7
370
    25
100
AcDbEllipse
 10
254.3159387117
 20
58.3211352375
 30
0.0
 11
-15.17192295029833
 21
47.97219694982856
 31
0.0
210
0.0
220
0.0
230
1.0
 40
0.2019023318
 41
4.026823314174331
 42
4.033124017292805
  0
ELLIPSE
  5
24C
330
1F
100
AcDbEntity
  8
0
  6
Continuous
 62
     7
370
    25
100
AcDbEllipse
 10
254.3159387117
 20
27.3171966271
 30
0.0
 11
12.72843921217555
 21
22.04510905127174
 31
0.0
210
0.0
220
0.0
230
1.0
 40
0.5773346305
 41
5.174471026911711
 42
5.248941961787613
  0
SPLINE
  5
24D
330
1F
100
AcDbEntity
  8
0
  6
Continuous
 62
     7
370
    25
100
AcDbSpline
210
0.0
220
0.0
230
1.0
 70
     8
 71
     3
 72
    14
 73
    10
 74
     0
 42
0.000000001
 43
0.00000001
 40
0.0
 40
0.0
 40
0.0
 40
0.0
 40
0.1505856196071443
 40
0.301779243729728
 40
0.4401958124010052
 40
0.5716604086007154
 40
0.7091825723324853
 40
0.8625281199624524
 40
1.0
 40
1.0
 40
1.0
 40
1.0
 10
271.7613129144372
 20
32.27021817924275
 30
0.0
 10
271.7645605143446
 20
32.2886740791633
 30
0.0
 10
271.771068826669
 20
32.32566039654807
 30
0.0
 10
271.7757343232637
 20
32.37991080804264
 30
0.0
 10
271.7756211722545
 20
32.42324927262155
 30
0.0
 10
271.7712288311552
 20
32.4527246404504
 30
0.0
 10
271.7630979351798
 20
32.46814843819719
 30
0.0
 10
271.7521306100048
 20
32.46894303452905
 30
0.0
 10
271.7434137132256
 20
32.45808437245444
 30
0.0
 10
271.7392931617238
 20
32.45295139021859
 30
0.0
  0
ELLIPSE
  5
24E
330
1F
100
AcDbEntity
  8
0
  6
Continuous
 62
     7
370
    25
100
AcDbEllipse
 10
254.3159387117
 20
37.0583824889
 30
0.0
 11
17.94704166160881
 21
-3.359618285241915
 31
0.0
210
0.0
220
0.0
230
1.0
 40
0.4106849769
 41
6.005336290446353
 42
6.106108476434378
  0
ELLIPSE
  5
24F
330
1F
100
AcDbEntity
  8
0
  6
Continuous
 62
     7
370
    25
100
AcDbEllipse
 10
254.3159387117
 20
58.3211352375
 30
0.0
 11
-15.17192295029833
 21
47.97219694982856
 31
0.0
210
0.0
220
0.0
230
1.0
 40
0.2019023318
 41
4.064344034102986
 42
4.070532730064513
  0
ELLIPSE
  5
250
330
1F
100
AcDbEntity
  8
0
  6
Continuous
 62
     7
370
    25
100
AcDbEllipse
 10
254.3159387117
 20
29.6673239305
 30
0.0
 11
12.72843921217555
 21
22.04510905127174
 31
0.0
210
0.0
220
0.0
230
1.0
 40
0.5773346305
 41
5.137062314139999
 42
5.210067459037846
  0
SPLINE
  5
251
330
1F
100
AcDbEntity
  8
0
  6
Continuous
 62
     7
370
    25
100
AcDbSpline
210
0.0
220
0.0
230
1.0
 70
     8
 71
     3
 72
    14
 73
    10
 74
     0
 42
0.000000001
 43
0.00000001
 40
0.0
 40
0.0
 40
0.0
 40
0.0
 40
0.1518131866256735
 40
0.3041345646492462
 40
0.4454637763307632
 40
0.5809500065080615
 40
0.7220134989651904
 40
0.8772852363539395
 40
1.0
 40
1.0
 40
1.0
 40
1.0
 10
271.5758134388842
 20
33.73423300715957
 30
0.0
 10
271.5795081665687
 20
33.75265043270672
 30
0.0
 10
271.5869099899598
 20
33.78954693573945
 30
0.0
 10
271.5921329987899
 20
33.84367682832278
 30
0.0
 10
271.5919068683891
 20
33.88727802684794
 30
0.0
 10
271.5866859627432
 20
33.9171904389353
 30
0.0
 10
271.5770848610326
 20
33.93267898826964
 30
0.0
 10
271.5647127792147
 20
33.93309748830995
 30
0.0
 10
271.5552220224578
 20
33.92301071000134
 30
0.0
 10
271.5510324090488
 20
33.91855798797533
 30
0.0
  0
ELLIPSE
  5
252
330
1F
100
AcDbEntity
  8
0
  6
Continuous
 62
     7
370
    25
100
AcDbEllipse
 10
254.3159387117
 20
38.7787950792
 30
0.0
 11
17.94704166160881
 21
-3.359618285241908
 31
0.0
210
0.0
220
0.0
230
1.0
 40
0.4106849769
 41
5.968452102443385
 42
6.067340792330893
  0
ELLIPSE
  5
253
330
1F
100
AcDbEntity
  8
0
  6
Continuous
 62
     7
370
    25
100
AcDbEllipse
 10
254.3159387117
 20
58.3211352375
 30
0.0
 11
-15.17192295029833
 21
47.97219694982856
 31
0.0
210
0.0
220
0.0
230
1.0
 40
0.2019023318
 41
4.101228222105948
 42
4.107318798561492
  0
ELLIPSE
  5
254
330
1F
100
AcDbEntity
  8
0
  6
Continuous
 62
     7
370
    25
100
AcDbEllipse
 10
254.3159387117
 20
32.0174512339
 30
0.0
 11
12.72843921217555
 21
22.04510905127174
 31
0.0
210
0.0
220
0.0
230
1.0
 40
0.5773346305
 41
5.100276245643017
 42
5.171997593763714
  0
SPLINE
  5
255
330
1F
100
AcDbEntity
  8
0
  6
Continuous
 62
     7
370
    25
100
AcDbSpline
210
0.0
220
0.0
230
1.0
 70
     8
 71
     3
 72
    14
 73
    10
 74
     0
 42
0.000000001
 43
0.00000001
 40
0.0
 40
0.0
 40
0.0
 40
0.0
 40
0.1529939734175136
 40
0.3064251797790953
 40
0.4504720887646336
 40
0.5896241396381213
 40
0.7338583423525479
 40
0.8906590553297544
 40
1.0
 40
1.0
 40
1.0
 40
1.0
 10
271.3688737297847
 20
35.21062273693472
 30
0.0
 10
271.3729967880623
 20
35.22899952599852
 30
0.0
 10
271.3812546876758
 20
35.26580562212673
 30
0.0
 10
271.3869843624112
 20
35.31984237333062
 30
0.0
 10
271.3866326124463
 20
35.36369839805301
 30
0.0
 10
271.3805682618943
 20
35.39401616692485
 30
0.0
 10
271.3695050054692
 20
35.40957973965788
 30
0.0
 10
271.3558192911941
 20
35.40967441809311
 30
0.0
 10
271.3456679334071
 20
35.40029972310653
 30
0.0
 10
271.3414973760433
 20
35.39644824786252
 30
0.0
  0
ELLIPSE
  5
256
330
1F
100
AcDbEntity
  8
0
  6
Continuous
 62
     7
370
    25
100
AcDbEllipse
 10
254.3159387117
 20
40.4992076695
 30
0.0
 11
17.94704166160881
 21
-3.359618285241908
 31
0.0
210
0.0
220
0.0
230
1.0
 40
0.4106849769
 41
5.932125234106787
 42
6.029364398318613
  0
ELLIPSE
  5
257
330
1F
100
AcDbEntity
  8
0
  6
Continuous
 62
     7
370
    25
100
AcDbEllipse
 10
254.3159387117
 20
58.3211352375
 30
0.0
 11
-15.17192295029832
 21
47.97219694982856
 31
0.0
210
0.0
220
0.0
230
1.0
 40
0.2019023318
 41
4.137555090442548
 42
4.143559852143289
  0
ELLIPSE
  5
258
330
1F
100
AcDbEntity
  8
0
  6
Continuous
 62
     7
370
    25
100
AcDbEllipse
 10
254.3159387117
 20
34.3675785372
 30
0.0
 11
12.72843921217555
 21
22.04510905127174
 31
0.0
210
0.0
220
0.0
230
1.0
 40
0.5773346305
 41
5.064035192061219
 42
5.13463227590568
  0
SPLINE
  5
259
330
1F
100
AcDbEntity
  8
0
  6
Continuous
 62
     7
370
    25
100
AcDbSpline
210
0.0
220
0.0
230
1.0
 70
     8
 71
     3
 72
    14
 73
    10
 74
     0
 42
0.000000001
 43
0.00000001
 40
0.0
 40
0.0
 40
0.0
 40
0.0
 40
0.1541237600787138
 40
0.3086147289911951
 40
0.4551642162810604
 40
0.5976651823198892
 40
0.7447139486827389
 40
0.9027238296488244
 40
1.0
 40
1.0
 40
1.0
 40
1.0
 10
271.1417334971751
 20
36.69867664239185
 30
0.0
 10
271.1462658520049
 20
36.71700968245769
 30
0.0
 10
271.155341360264
 20
36.75371944212493
 30
0.0
 10
271.161546753485
 20
36.80767467488739
 30
0.0
 10
271.1610475318816
 20
36.85177671145161
 30
0.0
 10
271.1541425398461
 20
36.88247544160684
 30
0.0
 10
271.141622150105
 20
36.89812896114765
 30
0.0
 10
271.1267072960982
 20
36.8979715837034
 30
0.0
 10
271.1159872630417
 20
36.88924269662375
 30
0.0
 10
271.1119024187802
 20
36.88591657401677
 30
0.0
  0
ELLIPSE
  5
25A
330
1F
100
AcDbEntity
  8
0
  6
Continuous
 62
     7
370
    25
100
AcDbEllipse
 10
254.3159387117
 20
42.2196202598
 30
0.0
 11
17.94704166160881
 21
-3.359618285241908
 31
0.0
210
0.0
220
0.0
230
1.0
 40
0.4106849769
 41
5.896285185523007
 42
5.992080971967138
  0
ELLIPSE
  5
25B
330
1F
100
AcDbEntity
  8
0
  6
Continuous
 62
     7
370
    25
100
AcDbEllipse
 10
254.3159387117
 20
58.3211352375
 30
0.0
 11
-15.17192295029832
 21
47.97219694982856
 31
0.0
210
0.0
220
0.0
230
1.0
 40
0.2019023318
 41
4.173395139026319
 42
4.179325108256869
  0
ELLIPSE
  5
25C
330
1F
100
AcDbEntity
  8
0
  6
Continuous
 62
     7
370
    25
100
AcDbEllipse
 10
254.3159387117
 20
36.7177058406
 30
0.0
 11
12.7284392121756
 21
22.04510905127169
 31
0.0
210
0.0
220
0.0
230
1.0
 40
0.5773346305
 41
5.028269935947637
 42
5.09788421804799
  0
SPLINE
  5
25D
330
1F
100
AcDbEntity
  8
0
  6
Continuous
 62
     7
370
    25
100
AcDbSpline
210
0.0
220
0.0
230
1.0
 70
     8
 71
     3
 72
    14
 73
    10
 74
     0
 42
0.000000001
 43
0.00000001
 40
0.0
 40
0.0
 40
0.0
 40
0.0
 40
0.1551875989964802
 40
0.3106831551254914
 40
0.4595291528143317
 40
0.6050683347556942
 40
0.7546002063567471
 40
0.9135456227133306
 40
1.0
 40
1.0
 40
1.0
 40
1.0
 10
270.8954325828335
 20
38.19779063321193
 30
0.0
 10
270.9003587899895
 20
38.2160744916939
 30
0.0
 10
270.9102209799578
 20
38.25267849148371
 30
0.0
 10
270.9168700561016
 20
38.30656165888442
 30
0.0
 10
270.9162180611461
 20
38.35089622253631
 30
0.0
 10
270.9084682140611
 20
38.38196064709997
 30
0.0
 10
270.8945112038554
 20
38.39771865470235
 30
0.0
 10
270.8784332719052
 20
38.39738182796007
 30
0.0
 10
270.8672173477807
 20
38.38924617041292
 30
0.0
 10
270.863265976341
 20
38.38637997726494
 30
0.0
  0
ELLIPSE
  5
25E
330
1F
100
AcDbEntity
  8
0
  6
Continuous
 62
     7
370
    25
100
AcDbEllipse
 10
254.3159387117
 20
43.9400328501
 30
0.0
 11
17.94704166160881
 21
-3.359618285241915
 31
0.0
210
0.0
220
0.0
230
1.0
 40
0.4106849769
 41
5.860868530135221
 42
5.955404637645191
  0
ELLIPSE
  5
25F
330
1F
100
AcDbEntity
  8
0
  6
Continuous
 62
     7
370
    25
100
AcDbEllipse
 10
254.3159387117
 20
58.3211352375
 30
0.0
 11
-15.17192295029827
 21
47.97219694982964
 31
0.0
210
0.0
220
0.0
230
1.0
 40
0.2019023318
 41
4.208811794414114
 42
4.214676949540226
  0
ELLIPSE
  5
260
330
1F
100
AcDbEntity
  8
0
  6
Continuous
 62
     7
370
    25
100
AcDbEllipse
 10
254.3159387117
 20
39.0678331439
 30
0.0
 11
12.7284392121756
 21
22.04510905127169
 31
0.0
210
0.0
220
0.0
230
1.0
 40
0.5773346305
 41
4.992918094664285
 42
5.061676398325844
  0
SPLINE
  5
261
330
1F
100
AcDbEntity
  8
0
  6
Continuous
 62
     7
370
    25
100
AcDbSpline
210
0.0
220
0.0
230
1.0
 70
     8
 71
     3
 72
    14
 73
    10
 74
     0
 42
0.000000001
 43
0.00000001
 40
0.0
 40
0.0
 40
0.0
 40
0.0
 40
0.1561760607653574
 40
0.3126052862500357
 40
0.4635523063410705
 40
0.6118284654938778
 40
0.7635465324998144
 40
0.9231963318099236
 40
1.0
 40
1.0
 40
1.0
 40
1.0
 10
270.6308554120341
 20
39.70745490213836
 30
0.0
 10
270.6361619258969
 20
39.7256824907427
 30
0.0
 10
270.6467835555947
 20
39.76216721526055
 30
0.0
 10
270.6538509693318
 20
39.81598099743277
 30
0.0
 10
270.6530364043128
 20
39.86053817689577
 30
0.0
 10
270.6444496421622
 20
39.89195301649058
 30
0.0
 10
270.6290748551437
 20
39.907846447639
 30
0.0
 10
270.6118995009969
 20
39.90738949657788
 30
0.0
 10
270.6002409188475
 20
39.89979993624404
 30
0.0
 10
270.5964540347538
 20
39.89733473207617
 30
0.0
  0
ELLIPSE
  5
262
330
1F
100
AcDbEntity
  8
0
  6
Continuous
 62
     7
370
    25
100
AcDbEllipse
 10
254.3159387117
 20
45.6604454404
 30
0.0
 11
17.94704166160881
 21
-3.359618285241908
 31
0.0
210
0.0
220
0.0
230
1.0
 40
0.4106849769
 41
5.825817604928865
 42
5.919259511166309
  0
ELLIPSE
  5
263
330
1F
100
AcDbEntity
  8
0
  6
Continuous
 62
     7
370
    25
100
AcDbEllipse
 10
254.3159387117
 20
58.3211352375
 30
0.0
 11
-15.17192295029841
 21
47.97219694982655
 31
0.0
210
0.0
220
0.0
230
1.0
 40
0.2019023318
 41
4.24386271962045
 42
4.249672187586948
  0
ELLIPSE
  5
264
330
1F
100
AcDbEntity
  8
0
  6
Continuous
 62
     7
370
    25
100
AcDbEllipse
 10
254.3159387117
 20
41.4179604473
 30
0.0
 11
12.72843921217554
 21
22.04510905127174
 31
0.0
210
0.0
220
0.0
230
1.0
 40
0.5773346305
 41
4.957922856617542
 42
5.02594009181705
  0
SPLINE
  5
265
330
1F
100
AcDbEntity
  8
0
  6
Continuous
 62
     7
370
    25
100
AcDbSpline
210
0.0
220
0.0
230
1.0
 70
     8
 71
     3
 72
    14
 73
    10
 74
     0
 42
0.000000001
 43
0.00000001
 40
0.0
 40
0.0
 40
0.0
 40
0.0
 40
0.1570838668261854
 40
0.3143679624733527
 40
0.4672140685279841
 40
0.6179437425250798
 40
0.7715663253448374
 40
0.9317319096129955
 40
0.9999999999999999
 40
0.9999999999999999
 40
0.9999999999999999
 40
0.9999999999999999
 10
270.3487504206103
 20
41.22723776653095
 30
0.0
 10
270.3544249861257
 20
41.24540106842834
 30
0.0
 10
270.3657813503092
 20
41.28175082429212
 30
0.0
 10
270.3732494971722
 20
41.33549167053388
 30
0.0
 10
270.3722662241775
 20
41.3802591137517
 30
0.0
 10
270.3628500687725
 20
41.41201712966137
 30
0.0
 10
270.3460880196485
 20
41.42807519623155
 30
0.0
 10
270.3278634478965
 20
41.4275602850146
 30
0.0
 10
270.3158046724409
 20
41.4204751298076
 30
0.0
 10
270.3122008711449
 20
41.41835770987462
 30
0.0
  0
ELLIPSE
  5
266
330
1F
100
AcDbEntity
  8
0
  6
Continuous
 62
     7
370
    25
100
AcDbEllipse
 10
254.3159387117
 20
47.3808580307
 30
0.0
 11
17.94704166160881
 21
-3.359618285241915
 31
0.0
210
0.0
220
0.0
230
1.0
 40
0.4106849769
 41
5.791079446621701
 42
5.883577790461218
  0
ELLIPSE
  5
267
330
1F
100
AcDbEntity
  8
0
  6
Continuous
 62
     7
370
    25
100
AcDbEllipse
 10
254.3159387117
 20
58.3211352375
 30
0.0
 11
-15.17192295029809
 21
47.97219694983287
 31
0.0
210
0.0
220
0.0
230
1.0
 40
0.2019023318
 41
4.278600877927641
 42
4.284827345387497
  0
ARC
  5
268
330
1F
100
AcDbEntity
  8
0
  6
Continuous
 62
     7
370
    25
100
AcDbCircle
 10
258.3729987737
 20
54.196348856
 30
0.0
 40
17.04472863888413
100
AcDbArc
 50
288.9110226411
 51
310.4034660527
  0
ELLIPSE
  5
269
330
1F
100
AcDbEntity
  8
0
  6
Continuous
 62
     7
370
    25
100
AcDbEllipse
 10
254.3159387117
 20
45.9932458026
 30
0.0
 11
17.94704166160881
 21
-3.359618285242043
 31
0.0
210
0.0
220
0.0
230
1.0
 40
0.4106849769
 41
4.6379024067897
 42
5.350421800459198
  0
SPLINE
  5
26A
330
1F
100
AcDbEntity
  8
0
  6
Continuous
 62
     7
370
    25
100
AcDbSpline
210
0.0
220
0.0
230
1.0
 70
     8
 71
     3
 72
    12
 73
     8
 74
     0
 42
0.000000001
 43
0.00000001
 40
0.0
 40
0.0
 40
0.0
 40
0.0
 40
0.1390692387082125
 40
0.3742809654862852
 40
0.6094452842579662
 40
0.8443172518784863
 40
1.0
 40
1.0
 40
1.0
 40
1.0
 10
266.9475927240338
 20
48.70710230275444
 30
0.0
 10
266.9615274477881
 20
48.63535037159262
 30
0.0
 10
266.9990303629473
 20
48.44224237502772
 30
0.0
 10
267.1556584432349
 20
48.21561361546158
 30
0.0
 10
267.4203264411705
 20
48.09700594593319
 30
0.0
 10
267.7063766445611
 20
48.12924147650207
 30
0.0
 10
267.889578678423
 20
48.23583897307205
 30
0.0
 10
267.962606592166
 20
48.2783308200271
 30
0.0
  0
SPLINE
  5
26B
330
1F
100
AcDbEntity
  8
0
  6
Continuous
 62
     7
370
    25
100
AcDbSpline
210
0.0
220
0.0
230
1.0
 70
    11
 71
     3
 72
    26
 73
    22
 74
     0
 42
0.000000001
 43
0.00000001
 40
0.0
 40
0.0
 40
0.0
 40
0.0
 40
0.047269747356684
 40
0.1021802823557715
 40
0.1585324304658774
 40
0.2153618340899546
 40
0.2714577390548658
 40
0.32567472188154
 40
0.3775497713752072
 40
0.427877860365235
 40
0.4782877027366388
 40
0.5302515197364126
 40
0.5843931194333244
 40
0.6403553766968005
 40
0.6971604391506624
 40
0.7536254616874742
 40
0.8085434193665475
 40
0.8611430094187864
 40
0.9118089809315324
 40
0.9620063957555274
 40
1.0
 40
1.0
 40
1.0
 40
1.0
 10
266.2239145833758
 20
40.60853717617001
 30
0.0
 10
266.151199742373
 20
40.67398619167724
 30
0.0
 10
265.9940162709009
 20
40.81546354788085
 30
0.0
 10
265.8824770562616
 20
41.18634360971951
 30
0.0
 10
265.8992815234436
 20
41.65626139139079
 30
0.0
 10
266.0611983204271
 20
42.17021573752545
 30
0.0
 10
266.3427695857818
 20
42.65893942915691
 30
0.0
 10
266.6982231090166
 20
43.06175457029689
 30
0.0
 10
267.0733900282138
 20
43.33561033522297
 30
0.0
 10
267.4249809795136
 20
43.46245328414511
 30
0.0
 10
267.7252769063484
 20
43.4385619217148
 30
0.0
 10
267.9534022184617
 20
43.2634254290517
 30
0.0
 10
268.0884284169651
 20
42.94252225101383
 30
0.0
 10
268.1116215425698
 20
42.49900234340857
 30
0.0
 10
268.0135226367442
 20
41.98113773071756
 30
0.0
 10
267.7999013089697
 20
41.45765446666241
 30
0.0
 10
267.4946575575145
 20
41.00295403346778
 30
0.0
 10
267.1361158164585
 20
40.67499406883457
 30
0.0
 10
266.7688298581259
 20
40.5054080071415
 30
0.0
 10
266.4522124141779
 20
40.48971251662926
 30
0.0
 10
266.2926540003161
 20
40.57275962284739
 30
0.0
 10
266.2239145833758
 20
40.60853717617001
 30
0.0
  0
ARC
  5
26C
330
1F
100
AcDbEntity
  8
0
  6
Continuous
 62
     7
370
    25
100
AcDbCircle
 10
254.9994044576
 20
71.6488760948
 30
0.0
 40
25.71257283435924
100
AcDbArc
 50
270.640672809
 51
297.9247778379
  0
LINE
  5
26D
330
1F
100
AcDbEntity
  8
0
  6
Continuous
 62
     7
370
    25
100
AcDbLine
 10
267.5121458291
 20
49.2023021879
 30
0.0
 11
267.0409098185
 21
48.9301932455
 31
0.0
  0
SPLINE
  5
26E
330
1F
100
AcDbEntity
  8
0
  6
Continuous
 62
     7
370
    25
100
AcDbSpline
210
0.0
220
0.0
230
1.0
 70
     8
 71
     3
 72
     9
 73
     5
 74
     0
 42
0.000000001
 43
0.00000001
 40
0.0
 40
0.0
 40
0.0
 40
0.0
 40
0.7510400148142009
 40
1.0
 40
1.0
 40
1.0
 40
1.0
 10
266.9691100278671
 20
48.85206263458454
 30
0.0
 10
266.9570777732006
 20
48.81844058313683
 30
0.0
 10
266.9410569827912
 20
48.77367325944634
 30
0.0
 10
266.9462899296591
 20
48.72037214693552
 30
0.0
 10
266.9475927240338
 20
48.70710230275444
 30
0.0
  0
LINE
  5
26F
330
1F
100
AcDbEntity
  8
0
  6
Continuous
 62
     7
370
    25
100
AcDbLine
 10
267.0409098185
 20
48.9301932455
 30
0.0
 11
266.9691100279
 21
48.8520626346
 31
0.0
  0
LINE
  5
270
330
1F
100
AcDbEntity
  8
0
  6
Continuous
 62
     7
370
    25
100
AcDbLine
 10
267.4674418729
 20
49.1764893221
 30
0.0
 11
268.4418677908
 21
48.6139652133
 31
0.0
  0
LINE
  5
271
330
1F
100
AcDbEntity
  8
0
  6
Continuous
 62
     7
370
    25
100
AcDbLine
 10
268.0527590304
 20
52.430575067
 30
0.0
 11
271.4135856092
 21
50.4904111806
 31
0.0
  0
LWPOLYLINE
  5
272
330
1F
100
AcDbEntity
  8
0
  6
Continuous
 62
     7
370
    25
100
AcDbPolyline
 90
       17
 70
   128
 43
0.0
 10
266.9142352839
 20
43.2099420829
 10
266.975732228
 20
43.2318616458
 10
267.2209913866
 20
43.2622914045
 10
267.4269820919
 20
43.1915128811
 10
267.57540119
 20
43.0258117475
 10
267.6530608743
 20
42.7799126819
 10
267.6530608743
 20
42.4756651675
 10
267.57540119
 20
42.140102139
 10
267.4269820919
 20
41.8030399623
 10
267.2209913866
 20
41.494429633
 10
266.975732228
 20
41.2416907154
 10
266.712996965
 20
41.0672805571
 10
266.4561307536
 20
40.9866958189
 10
266.2279573058
 20
41.0070970881
 10
266.0487508816
 20
41.1266734991
 10
265.9344346343
 20
41.3347981089
 10
265.90759129
 20
41.4496116553
  0
LINE
  5
273
330
1F
100
AcDbEntity
  8
0
  6
Continuous
 62
     7
370
    25
100
AcDbLine
 10
269.252475988
 20
41.0696181358
 30
0.0
 11
269.481475621
 21
40.9374194615
 31
0.0
  0
LINE
  5
274
330
1F
100
AcDbEntity
  8
0
  6
Continuous
 62
     7
370
    25
100
AcDbLine
 10
268.4255225515
 20
40.4162124616
 30
0.0
 11
269.7555743576
 21
39.6483898975
 31
0.0
  0
LINE
  5
275
330
1F
100
AcDbEntity
  8
0
  6
Continuous
 62
     7
370
    25
100
AcDbLine
 10
268.2508459257
 20
40.2909197435
 30
0.0
 11
269.8090689158
 21
39.3913767586
 31
0.0
  0
LINE
  5
276
330
1F
100
AcDbEntity
  8
0
  6
Continuous
 62
     7
370
    25
100
AcDbLine
 10
267.331687697
 20
39.6907427628
 30
0.0
 11
270.0698663704
 21
38.1100258612
 31
0.0
  0
LINE
  5
277
330
1F
100
AcDbEntity
  8
0
  6
Continuous
 62
     7
370
    25
100
AcDbLine
 10
267.1388039619
 20
39.575960405
 30
0.0
 11
270.120663201
 21
37.8545697071
 31
0.0
  0
LINE
  5
278
330
1F
100
AcDbEntity
  8
0
  6
Continuous
 62
     7
370
    25
100
AcDbLine
 10
266.1290142039
 20
39.0281038926
 30
0.0
 11
270.3677708324
 21
36.5811217764
 31
0.0
  0
LINE
  5
279
330
1F
100
AcDbEntity
  8
0
  6
Continuous
 62
     7
370
    25
100
AcDbLine
 10
265.9179997506
 20
38.9237870348
 30
0.0
 11
270.4157876173
 21
36.3272693677
 31
0.0
  0
LINE
  5
27A
330
1F
100
AcDbEntity
  8
0
  6
Continuous
 62
     7
370
    25
100
AcDbLine
 10
264.8828790781
 20
38.3905567899
 30
0.0
 11
270.6487457614
 21
35.0619928041
 31
0.0
  0
ELLIPSE
  5
27B
330
1F
100
AcDbEntity
  8
0
  6
Continuous
 62
     7
370
    25
100
AcDbEllipse
 10
262.4014925472
 20
39.3909494661
 30
0.0
 11
3.250052821640111
 21
5.629134612810958
 31
0.0
210
0.0
220
0.0
230
1.0
 40
0.4082372325
 41
4.770013391028927
 42
4.78492871282101
  0
LINE
  5
27C
330
1F
100
AcDbEntity
  8
0
  6
Continuous
 62
     7
370
    25
100
AcDbLine
 10
264.9538086022
 20
38.1234771385
 30
0.0
 11
270.6938820727
 21
34.8098032575
 31
0.0
  0
ARC
  5
27D
330
1F
100
AcDbEntity
  8
0
  6
Continuous
 62
     7
370
    25
100
AcDbCircle
 10
262.2208667507
 20
37.5406360453
 30
0.0
 40
2.79440063403167
100
AcDbArc
 50
12.0388353052
 51
17.7071147984
  0
LINE
  5
27E
330
1F
100
AcDbEntity
  8
0
  6
Continuous
 62
     7
370
    25
100
AcDbLine
 10
264.7339535182
 20
37.1196010454
 30
0.0
 11
270.9121494059
 21
33.5530044766
 31
0.0
  0
ELLIPSE
  5
27F
330
1F
100
AcDbEntity
  8
0
  6
Continuous
 62
     7
370
    25
100
AcDbEllipse
 10
265.1815723966
 20
41.8560616969
 30
0.0
 11
3.250052821640168
 21
5.629134612810958
 31
0.0
210
0.0
220
0.0
230
1.0
 40
0.4082372325
 41
3.984238622475829
 42
4.171588474313447
  0
ELLIPSE
  5
280
330
1F
100
AcDbEntity
  8
0
  6
Continuous
 62
     7
370
    25
100
AcDbEllipse
 10
259.6007979542
 20
36.9075580278
 30
0.0
 11
4.99612327457703
 21
0.5056467856662081
 31
0.0
210
0.0
220
0.0
230
1.0
 40
0.3419448307
 41
6.059778918408269
 42
6.726249928890014
  0
ARC
  5
281
330
1F
100
AcDbEntity
  8
0
  6
Continuous
 62
     7
370
    25
100
AcDbCircle
 10
264.3795890531
 20
37.6264005367
 30
0.0
 40
0.6184010821423772
100
AcDbArc
 50
282.2752719291
 51
304.9620249153
  0
LINE
  5
282
330
1F
100
AcDbEntity
  8
0
  6
Continuous
 62
     7
370
    25
100
AcDbLine
 10
264.5110664953
 20
37.022137696
 30
0.0
 11
270.9542863762
 21
33.3025460324
 31
0.0
  0
LINE
  5
283
330
1F
100
AcDbEntity
  8
0
  6
Continuous
 62
     7
370
    25
100
AcDbLine
 10
261.9196212518
 20
37.3873518403
 30
0.0
 11
271.1572231225
 21
32.0545977911
 31
0.0
  0
LINE
  5
284
330
1F
100
AcDbEntity
  8
0
  6
Continuous
 62
     7
370
    25
100
AcDbLine
 10
261.7621495952
 20
37.2521280456
 30
0.0
 11
271.1962214698
 21
31.8059542774
 31
0.0
  0
LINE
  5
285
330
1F
100
AcDbEntity
  8
0
  6
Continuous
 62
     7
370
    25
100
AcDbLine
 10
262.24342594
 20
35.8434977742
 30
0.0
 11
271.383073925
 21
30.5672912997
 31
0.0
  0
LINE
  5
286
330
1F
100
AcDbEntity
  8
0
  6
Continuous
 62
     7
370
    25
100
AcDbLine
 10
262.0426304512
 20
35.7332812537
 30
0.0
 11
271.4187716472
 21
30.3205501544
 31
0.0
  0
LINE
  5
287
330
1F
100
AcDbEntity
  8
0
  6
Continuous
 62
     7
370
    25
100
AcDbLine
 10
262.3146503274
 20
34.4454517902
 30
0.0
 11
271.5886464957
 21
29.0916877603
 31
0.0
  0
LINE
  5
288
330
1F
100
AcDbEntity
  8
0
  6
Continuous
 62
     7
370
    25
100
AcDbLine
 10
262.2612642644
 20
34.2501406613
 30
0.0
 11
271.6208499807
 21
28.846966837
 31
0.0
  0
LINE
  5
289
330
1F
100
AcDbEntity
  8
0
  6
Continuous
 62
     7
370
    25
100
AcDbLine
 10
264.0403803693
 20
38.0967896131
 30
0.0
 11
264.0114748752
 21
38.1134763997
 31
0.0
  0
SPLINE
  5
28A
330
1F
100
AcDbEntity
  8
0
  6
Continuous
 62
     7
370
    25
100
AcDbSpline
210
0.0
220
0.0
230
1.0
 70
     8
 71
     3
 72
    14
 73
    10
 74
     0
 42
0.000000001
 43
0.00000001
 40
0.0
 40
0.0
 40
0.0
 40
0.0
 40
0.1688808377140463
 40
0.3379755681614675
 40
0.5012096518505533
 40
0.6566165361560921
 40
0.8076833686177701
 40
0.9595334670962687
 40
1.0
 40
1.0
 40
1.0
 40
1.0
 10
261.8622911657621
 20
37.35673539368859
 30
0.0
 10
261.8451650191483
 20
37.34599190727905
 30
0.0
 10
261.8108910351336
 20
37.32449132750665
 30
0.0
 10
261.7712566102265
 20
37.27757295550502
 30
0.0
 10
261.7473785746703
 20
37.22710703265501
 30
0.0
 10
261.7417971813932
 20
37.17867464286262
 30
0.0
 10
261.753502089342
 20
37.13766332124199
 30
0.0
 10
261.7734723298387
 20
37.1143763762556
 30
0.0
 10
261.7880058844111
 20
37.10530710698342
 30
0.0
 10
261.7910639795954
 20
37.10339878589451
 30
0.0
  0
ELLIPSE
  5
28B
330
1F
100
AcDbEntity
  8
0
  6
Continuous
 62
     7
370
    25
100
AcDbEllipse
 10
253.6088319305
 20
41.8261645032
 30
0.0
 11
17.99999993043636
 21
-10.39286784206206
 31
0.0
210
0.0
220
0.0
230
1.0
 40
0.0000703729
 41
1.030932038306013
 42
1.098949273603877
  0
ELLIPSE
  5
28C
330
1F
100
AcDbEntity
  8
0
  6
Continuous
 62
     7
370
    25
100
AcDbEllipse
 10
253.6088319305
 20
58.7293392935
 30
0.0
 11
11.71484798666526
 21
62.58058119270456
 31
0.0
210
0.0
220
0.0
230
1.0
 40
0.2183760757
 41
4.384358519237998
 42
4.390167987204497
  0
ELLIPSE
  5
28D
330
1F
100
AcDbEntity
  8
0
  6
Continuous
 62
     7
370
    25
100
AcDbEllipse
 10
253.6088319305
 20
46.0686494963
 30
0.0
 11
17.57699263901227
 21
5.558986141408738
 31
0.0
210
0.0
220
0.0
230
1.0
 40
0.6978514545
 41
4.935818976780484
 42
5.029260883017927
  0
SPLINE
  5
28E
330
1F
100
AcDbEntity
  8
0
  6
Continuous
 62
     7
370
    25
100
AcDbSpline
210
0.0
220
0.0
230
1.0
 70
     8
 71
     3
 72
    14
 73
    10
 74
     0
 42
0.000000001
 43
0.00000001
 40
0.0
 40
0.0
 40
0.0
 40
0.0
 40
0.1709711215603456
 40
0.3422195292467787
 40
0.5059305815594501
 40
0.6598470933570899
 40
0.8085058440487549
 40
0.9582224339974299
 40
1.0
 40
1.0
 40
1.0
 40
1.0
 10
261.2863844446359
 20
35.33915268400362
 30
0.0
 10
261.2686441565871
 20
35.32864336688037
 30
0.0
 10
261.2331348087549
 20
35.30760768830611
 30
0.0
 10
261.1921176531653
 20
35.26094822143979
 30
0.0
 10
261.1677219068167
 20
35.21061052747581
 30
0.0
 10
261.1623572490356
 20
35.16248354201013
 30
0.0
 10
261.1745110990989
 20
35.12177646253531
 30
0.0
 10
261.1948974706611
 20
35.09835698878548
 30
0.0
 10
261.2097654045779
 20
35.08908009495318
 30
0.0
 10
261.2130090862842
 20
35.08705618961541
 30
0.0
  0
ELLIPSE
  5
28F
330
1F
100
AcDbEntity
  8
0
  6
Continuous
 62
     7
370
    25
100
AcDbEllipse
 10
253.6088319305
 20
39.4760371998
 30
0.0
 11
17.99999998008045
 21
-10.3928678707256
 31
0.0
210
0.0
220
0.0
230
1.0
 40
0.0000703729
 41
1.065927277560897
 42
1.134685581236697
  0
ELLIPSE
  5
290
330
1F
100
AcDbEntity
  8
0
  6
Continuous
 62
     7
370
    25
100
AcDbEllipse
 10
253.6088319305
 20
58.7293392935
 30
0.0
 11
11.71484798666532
 21
62.58058119270759
 31
0.0
210
0.0
220
0.0
230
1.0
 40
0.2183760757
 41
4.349307594031646
 42
4.355172749157756
  0
ELLIPSE
  5
291
330
1F
100
AcDbEntity
  8
0
  6
Continuous
 62
     7
370
    25
100
AcDbEllipse
 10
253.6088319305
 20
44.348236906
 30
0.0
 11
17.57699263901227
 21
5.558986141408732
 31
0.0
210
0.0
220
0.0
230
1.0
 40
0.6978514545
 41
4.899673850301602
 42
4.994209957811571
  0
SPLINE
  5
292
330
1F
100
AcDbEntity
  8
0
  6
Continuous
 62
     7
370
    25
100
AcDbSpline
210
0.0
220
0.0
230
1.0
 70
     8
 71
     3
 72
    14
 73
    10
 74
     0
 42
0.000000001
 43
0.00000001
 40
0.0
 40
0.0
 40
0.0
 40
0.0
 40
0.1734291881432772
 40
0.3472021822392528
 40
0.5114117207569373
 40
0.6635971097784172
 40
0.8095446836343226
 40
0.9569123092550001
 40
1.0
 40
1.0
 40
1.0
 40
1.0
 10
260.6930358429435
 20
33.33163933781483
 30
0.0
 10
260.6746345425531
 20
33.32136627328921
 30
0.0
 10
260.637795463042
 20
33.30079977891899
 30
0.0
 10
260.5953077781079
 20
33.25435549525871
 30
0.0
 10
260.5704225717395
 20
33.20410373117686
 30
0.0
 10
260.5653604236298
 20
33.15630910291928
 30
0.0
 10
260.5780035633005
 20
33.11596834235741
 30
0.0
 10
260.5987958105259
 20
33.09245315975106
 30
0.0
 10
260.6139891129924
 20
33.08297620847827
 30
0.0
 10
260.6174263723484
 20
33.08083218880246
 30
0.0
  0
ELLIPSE
  5
293
330
1F
100
AcDbEntity
  8
0
  6
Continuous
 62
     7
370
    25
100
AcDbEllipse
 10
253.6088319305
 20
37.1259098965
 30
0.0
 11
17.99999998008045
 21
-10.39286787072561
 31
0.0
210
0.0
220
0.0
230
1.0
 40
0.0000703729
 41
1.101279118847197
 42
1.170893400964978
  0
ELLIPSE
  5
294
330
1F
100
AcDbEntity
  8
0
  6
Continuous
 62
     7
370
    25
100
AcDbEllipse
 10
253.6088319305
 20
58.7293392935
 30
0.0
 11
11.71484798666532
 21
62.58058119270655
 31
0.0
210
0.0
220
0.0
230
1.0
 40
0.2183760757
 41
4.313890938643858
 42
4.319820907874406
  0
ELLIPSE
  5
295
330
1F
100
AcDbEntity
  8
0
  6
Continuous
 62
     7
370
    25
100
AcDbEllipse
 10
253.6088319305
 20
42.6278243157
 30
0.0
 11
17.57699263901227
 21
5.558986141408725
 31
0.0
210
0.0
220
0.0
230
1.0
 40
0.6978514545
 41
4.862997515979656
 42
4.958793302423784
  0
SPLINE
  5
296
330
1F
100
AcDbEntity
  8
0
  6
Continuous
 62
     7
370
    25
100
AcDbSpline
210
0.0
220
0.0
230
1.0
 70
     8
 71
     3
 72
    14
 73
    10
 74
     0
 42
0.000000001
 43
0.00000001
 40
0.0
 40
0.0
 40
0.0
 40
0.0
 40
0.1763009397834344
 40
0.3530388307122076
 40
0.5177752882942507
 40
0.6679275194119171
 40
0.8108475845696498
 40
0.9556559137692916
 40
0.9999999999999999
 40
0.9999999999999999
 40
0.9999999999999999
 40
0.9999999999999999
 10
260.0815124006475
 20
31.33461620268015
 30
0.0
 10
260.0623937543409
 20
31.32458483590016
 30
0.0
 10
260.0241090773269
 20
31.30449724020837
 30
0.0
 10
259.9800453521563
 20
31.2582148484921
 30
0.0
 10
259.9547113033654
 20
31.20799830728436
 30
0.0
 10
259.9500565216199
 20
31.16056581073184
 30
0.0
 10
259.9632368769818
 20
31.12066021824134
 30
0.0
 10
259.9844258678502
 20
31.09709135353458
 30
0.0
 10
259.9999327039289
 20
31.08742498784589
 30
0.0
 10
260.0035680604994
 20
31.08515884626551
 30
0.0
  0
ELLIPSE
  5
297
330
1F
100
AcDbEntity
  8
0
  6
Continuous
 62
     7
370
    25
100
AcDbEllipse
 10
253.6088319305
 20
34.7757825931
 30
0.0
 11
17.99999993043636
 21
-10.39286784206207
 31
0.0
210
0.0
220
0.0
230
1.0
 40
0.0000703729
 41
1.13704437392447
 42
1.207641457911811
  0
ELLIPSE
  5
298
330
1F
100
AcDbEntity
  8
0
  6
Continuous
 62
     7
370
    25
100
AcDbEllipse
 10
253.6088319305
 20
58.7293392935
 30
0.0
 11
11.71484798666532
 21
62.58058119270655
 31
0.0
210
0.0
220
0.0
230
1.0
 40
0.2183760757
 41
4.278050890060085
 42
4.284055651760826
  0
ELLIPSE
  5
299
330
1F
100
AcDbEntity
  8
0
  6
Continuous
 62
     7
370
    25
100
AcDbEllipse
 10
253.6088319305
 20
40.9074117254
 30
0.0
 11
17.57699263901227
 21
5.558986141408725
 31
0.0
210
0.0
220
0.0
230
1.0
 40
0.6978514545
 41
4.825714089628182
 42
4.922953253840008
  0
SPLINE
  5
29A
330
1F
100
AcDbEntity
  8
0
  6
Continuous
 62
     7
370
    25
100
AcDbSpline
210
0.0
220
0.0
230
1.0
 70
     8
 71
     3
 72
    14
 73
    10
 74
     0
 42
0.000000001
 43
0.00000001
 40
0.0
 40
0.0
 40
0.0
 40
0.0
 40
0.1796688981020127
 40
0.3598783289814176
 40
0.5251298146338449
 40
0.672928981934396
 40
0.8124847797917198
 40
0.9545181713185193
 40
0.9999999999999999
 40
0.9999999999999999
 40
0.9999999999999999
 40
0.9999999999999999
 10
259.4509481317199
 20
29.34858852480902
 30
0.0
 10
259.4310443570594
 20
29.33880171599392
 30
0.0
 10
259.3911769273545
 20
29.31919865480945
 30
0.0
 10
259.3454118901854
 20
29.27302009606548
 30
0.0
 10
259.3196853301503
 20
29.22277349198978
 30
0.0
 10
259.3155614959417
 20
29.17574085329291
 30
0.0
 10
259.3293353250135
 20
29.13634272931449
 30
0.0
 10
259.3509159860116
 20
29.11277464603033
 30
0.0
 10
259.3667171517098
 20
29.10293182536569
 30
0.0
 10
259.3705497254628
 20
29.10054444858255
 30
0.0
  0
ELLIPSE
  5
29B
330
1F
100
AcDbEntity
  8
0
  6
Continuous
 62
     7
370
    25
100
AcDbEllipse
 10
253.6088319305
 20
32.4256552898
 30
0.0
 11
17.99999993043636
 21
-10.39286784206207
 31
0.0
210
0.0
220
0.0
230
1.0
 40
0.0000703729
 41
1.17328542757393
 42
1.245006775859786
  0
ELLIPSE
  5
29C
330
1F
100
AcDbEntity
  8
0
  6
Continuous
 62
     7
370
    25
100
AcDbEllipse
 10
253.6088319305
 20
58.7293392935
 30
0.0
 11
11.71484798666532
 21
62.58058119270655
 31
0.0
210
0.0
220
0.0
230
1.0
 40
0.2183760757
 41
4.241724021723485
 42
4.24781459817903
  0
ELLIPSE
  5
29D
330
1F
100
AcDbEntity
  8
0
  6
Continuous
 62
     7
370
    25
100
AcDbEllipse
 10
253.6088319305
 20
39.1869991351
 30
0.0
 11
17.57699263901227
 21
5.558986141408732
 31
0.0
210
0.0
220
0.0
230
1.0
 40
0.6978514545
 41
4.787737695615903
 42
4.886626385503407
  0
SPLINE
  5
29E
330
1F
100
AcDbEntity
  8
0
  6
Continuous
 62
     7
370
    25
100
AcDbSpline
210
0.0
220
0.0
230
1.0
 70
     8
 71
     3
 72
    14
 73
    10
 74
     0
 42
0.000000001
 43
0.00000001
 40
0.0
 40
0.0
 40
0.0
 40
0.0
 40
0.1836208854014379
 40
0.3679170959325873
 40
0.5336397319558742
 40
0.6786770908811653
 40
0.8145218603497241
 40
0.953592368133469
 40
0.9999999999999999
 40
0.9999999999999999
 40
0.9999999999999999
 40
0.9999999999999999
 10
258.8003219629011
 20
27.37413853303532
 30
0.0
 10
258.7795481430059
 20
27.36460516309084
 30
0.0
 10
258.737924100781
 20
27.34550336115388
 30
0.0
 10
258.6903176707906
 20
27.29934952842973
 30
0.0
 10
258.6642708828883
 20
27.24900066215104
 30
0.0
 10
258.6608379678384
 20
27.20240995351275
 30
0.0
 10
258.6752678311897
 20
27.16360235809533
 30
0.0
 10
258.6972318600388
 20
27.14009820611441
 30
0.0
 10
258.7133063168612
 20
27.13009849044473
 30
0.0
 10
258.7173282327381
 20
27.12759650759951
 30
0.0
  0
ELLIPSE
  5
29F
330
1F
100
AcDbEntity
  8
0
  6
Continuous
 62
     7
370
    25
100
AcDbEllipse
 10
253.6088319305
 20
30.0755279864
 30
0.0
 11
17.99999993043636
 21
-10.39286784206207
 31
0.0
210
0.0
220
0.0
230
1.0
 40
0.0000703729
 41
1.210071496156426
 42
1.283076641232475
  0
ELLIPSE
  5
2A0
330
1F
100
AcDbEntity
  8
0
  6
Continuous
 62
     7
370
    25
100
AcDbEllipse
 10
253.6088319305
 20
58.7293392935
 30
0.0
 11
11.71484798666532
 21
62.58058119270657
 31
0.0
210
0.0
220
0.0
230
1.0
 40
0.2183760757
 41
4.204839833720522
 42
4.211028529682052
  0
ELLIPSE
  5
2A1
330
1F
100
AcDbEntity
  8
0
  6
Continuous
 62
     7
370
    25
100
AcDbEllipse
 10
253.6088319305
 20
37.4665865448
 30
0.0
 11
17.57699263901227
 21
5.558986141408732
 31
0.0
210
0.0
220
0.0
230
1.0
 40
0.6978514545
 41
4.748970011512416
 42
4.849742197500441
  0
SPLINE
  5
2A2
330
1F
100
AcDbEntity
  8
0
  6
Continuous
 62
     7
370
    25
100
AcDbSpline
210
0.0
220
0.0
230
1.0
 70
     8
 71
     3
 72
    14
 73
    10
 74
     0
 42
0.000000001
 43
0.00000001
 40
0.0
 40
0.0
 40
0.0
 40
0.0
 40
0.1882734720499064
 40
0.3773805629809756
 40
0.5434976953610637
 40
0.6852862939903694
 40
0.8170495522647323
 40
0.9530037001056809
 40
0.9999999999999999
 40
0.9999999999999999
 40
0.9999999999999999
 40
0.9999999999999999
 10
258.1284241479301
 20
25.41197220339206
 30
0.0
 10
258.1066773369443
 20
25.40269984642321
 30
0.0
 10
258.0630874265682
 20
25.38411407724944
 30
0.0
 10
258.0134585350281
 20
25.33789642227075
 30
0.0
 10
257.9872078300961
 20
25.28734287737326
 30
0.0
 10
257.9846535207184
 20
25.24124923364954
 30
0.0
 10
257.9998187927926
 20
25.20312198146753
 30
0.0
 10
258.0221571983649
 20
25.17975668219808
 30
0.0
 10
258.0384764052324
 20
25.16962375341669
 30
0.0
 10
258.0426684821006
 20
25.16702080728721
 30
0.0
  0
ELLIPSE
  5
2A3
330
1F
100
AcDbEntity
  8
0
  6
Continuous
 62
     7
370
    25
100
AcDbEllipse
 10
253.6088319305
 20
27.7254006831
 30
0.0
 11
17.99999993043636
 21
-10.39286784206207
 31
0.0
210
0.0
220
0.0
230
1.0
 40
0.0000703729
 41
1.247480209013364
 42
1.321951144078451
  0
ELLIPSE
  5
2A4
330
1F
100
AcDbEntity
  8
0
  6
Continuous
 62
     7
370
    25
100
AcDbEllipse
 10
253.6088319305
 20
58.7293392935
 30
0.0
 11
11.71484798666532
 21
62.58058119270657
 31
0.0
210
0.0
220
0.0
230
1.0
 40
0.2183760757
 41
4.167319113791867
 42
4.173619816910342
  0
ELLIPSE
  5
2A5
330
1F
100
AcDbEntity
  8
0
  6
Continuous
 62
     7
370
    25
100
AcDbEllipse
 10
253.6088319305
 20
35.7461739545
 30
0.0
 11
17.57699263901227
 21
5.558986141408667
 31
0.0
210
0.0
220
0.0
230
1.0
 40
0.6978514545
 41
4.709297053627808
 42
4.812221477571788
  0
SPLINE
  5
2A6
330
1F
100
AcDbEntity
  8
0
  6
Continuous
 62
     7
370
    25
100
AcDbSpline
210
0.0
220
0.0
230
1.0
 70
     8
 71
     3
 72
    14
 73
    10
 74
     0
 42
0.000000001
 43
0.00000001
 40
0.0
 40
0.0
 40
0.0
 40
0.0
 40
0.193696406411235
 40
0.3884274037311145
 40
0.5258540599568549
 40
0.6636988313321418
 40
0.7916096696545067
 40
0.9219265864987773
 40
1.0
 40
1.0
 40
1.0
 40
1.0
 10
257.4338137914232
 20
23.46291450303611
 30
0.0
 10
257.4109650930604
 20
23.45392370162721
 30
0.0
 10
257.3651456545479
 20
23.43589407622829
 30
0.0
 10
257.3159727541918
 20
23.391802127228
 30
0.0
 10
257.289684916267
 20
23.34485259879989
 30
0.0
 10
257.2842985166736
 20
23.30202769283482
 30
0.0
 10
257.296702038099
 20
23.26352473282658
 30
0.0
 10
257.3191344886241
 20
23.23643981509333
 30
0.0
 10
257.3380208702272
 20
23.22424467831332
 30
0.0
 10
257.3450966509412
 20
23.21967577170929
 30
0.0
  0
ELLIPSE
  5
2A7
330
1F
100
AcDbEntity
  8
0
  6
Continuous
 62
     7
370
    25
100
AcDbEllipse
 10
253.6088319305
 20
25.3752733797
 30
0.0
 11
17.99999993043636
 21
-10.39286784206207
 31
0.0
210
0.0
220
0.0
230
1.0
 40
0.0000703729
 41
1.285599607996741
 42
1.361746506357372
  0
ELLIPSE
  5
2A8
330
1F
100
AcDbEntity
  8
0
  6
Continuous
 62
     7
370
    25
100
AcDbEllipse
 10
253.6088319305
 20
58.7293392934
 30
0.0
 11
11.71484798666526
 21
62.58058119270457
 31
0.0
210
0.0
220
0.0
230
1.0
 40
0.2183760757
 41
4.129071852484616
 42
4.135500418022277
  0
ELLIPSE
  5
2A9
330
1F
100
AcDbEntity
  8
0
  6
Continuous
 62
     7
370
    25
100
AcDbEllipse
 10
253.6088319305
 20
34.0257613642
 30
0.0
 11
17.57699263901227
 21
5.558986141408624
 31
0.0
210
0.0
220
0.0
230
1.0
 40
0.6978514545
 41
4.674611641953634
 42
4.773974216264537
  0
ARC
  5
2AA
330
1F
100
AcDbEntity
  8
0
  6
Continuous
 62
     7
370
    25
100
AcDbCircle
 10
253.6075600839
 20
52.406632979
 30
0.0
 40
31.01517991711765
100
AcDbArc
 50
266.491130902
 51
275.9480436414
  0
ELLIPSE
  5
2AB
330
1F
100
AcDbEntity
  8
0
  6
Continuous
 62
     7
370
    25
100
AcDbEllipse
 10
253.6088319305
 20
20.3511823911
 30
0.0
 11
18.00000008180806
 21
-10.3928679294614
 31
0.0
210
0.0
220
0.0
230
1.0
 40
0.0000703729
 41
1.676561302752864
 42
1.722051280599403
  0
LINE
  5
2AC
330
1F
100
AcDbEntity
  8
0
  6
Continuous
 62
     7
370
    25
100
AcDbLine
 10
250.897335447
 20
21.9184192233
 30
0.0
 11
250.897335447
 21
38.6575078503
 31
0.0
  0
ELLIPSE
  5
2AD
330
1F
100
AcDbEntity
  8
0
  6
Continuous
 62
     7
370
    25
100
AcDbEllipse
 10
253.6088319305
 20
60.7699525794
 30
0.0
 11
12.72843921217552
 21
22.04510905127207
 31
0.0
210
0.0
220
0.0
230
1.0
 40
0.5773346305
 41
3.775817126444908
 42
3.798897438866383
  0
ELLIPSE
  5
2AE
330
1F
100
AcDbEntity
  8
0
  6
Continuous
 62
     7
370
    25
100
AcDbEllipse
 10
253.6088319305
 20
46.0164678314
 30
0.0
 11
17.94704166160884
 21
-3.359618285242007
 31
0.0
210
0.0
220
0.0
230
1.0
 40
0.4106849769
 41
4.660982719211178
 42
5.090333298056199
  0
ELLIPSE
  5
2AF
330
1F
100
AcDbEntity
  8
0
  6
Continuous
 62
     7
370
    25
100
AcDbEllipse
 10
253.6088319305
 20
47.7890620866
 30
0.0
 11
17.57699263901227
 21
5.558986141408725
 31
0.0
210
0.0
220
0.0
230
1.0
 40
0.6978514545
 41
4.971500697485574
 42
5.042262959250147
  0
LINE
  5
2B0
330
1F
100
AcDbEntity
  8
0
  6
Continuous
 62
     7
370
    25
100
AcDbLine
 10
243.7623700016
 20
43.184671505
 30
0.0
 11
251.308725567
 21
38.8282531661
 31
0.0
  0
LINE
  5
2B1
330
1F
100
AcDbEntity
  8
0
  6
Continuous
 62
     7
370
    25
100
AcDbLine
 10
250.897335447
 20
38.6575078503
 30
0.0
 11
235.8142322337
 21
47.3647979954
 31
0.0
  0
ELLIPSE
  5
2B2
330
1F
100
AcDbEntity
  8
0
  6
Continuous
 62
     7
370
    25
100
AcDbEllipse
 10
253.6088319305
 20
60.7699525794
 30
0.0
 11
12.72843921217552
 21
22.04510905127207
 31
0.0
210
0.0
220
0.0
230
1.0
 40
0.5773346305
 41
2.038256346257787
 42
2.507449444796807
  0
LINE
  5
2B3
330
1F
100
AcDbEntity
  8
0
  6
Continuous
 62
     7
370
    25
100
AcDbLine
 10
246.6853799337
 20
51.5227248049
 30
0.0
 11
236.511185033
 21
57.3961625014
 31
0.0
  0
LINE
  5
2B4
330
1F
100
AcDbEntity
  8
0
  6
Continuous
 62
     7
370
    25
100
AcDbLine
 10
246.4236177114
 20
50.2435110481
 30
0.0
 11
243.5677354025
 21
45.2969778032
 31
0.0
  0
ELLIPSE
  5
2B5
330
1F
100
AcDbEntity
  8
0
  6
Continuous
 62
     7
370
    25
100
AcDbEllipse
 10
244.6283954063
 20
44.6846718907
 30
0.0
 11
0.8660957767140471
 21
1.499959365767928
 31
0.0
210
0.0
220
0.0
230
1.0
 40
0.7070876271
 41
1.570862676826514
 42
3.141659003621437
  0
ELLIPSE
  5
2B6
330
1F
100
AcDbEntity
  8
0
  6
Continuous
 62
     7
370
    25
100
AcDbEllipse
 10
245.8306573375
 20
34.1480486957
 30
0.0
 11
-2.652928810042851
 21
4.931214183077067
 31
0.0
210
0.0
220
0.0
230
1.0
 40
0.5766854787
 41
2.390897964901768
 42
5.532490618491578
  0
LINE
  5
2B7
330
1F
100
AcDbEntity
  8
0
  6
Continuous
 62
     7
370
    25
100
AcDbLine
 10
239.4666965649
 20
42.4712836832
 30
0.0
 11
245.8306576509
 21
38.7974471481
 31
0.0
  0
ELLIPSE
  5
2B8
330
1F
100
AcDbEntity
  8
0
  6
Continuous
 62
     7
370
    25
100
AcDbEllipse
 10
239.4666963068
 20
37.8218851989
 30
0.0
 11
-2.652928810042851
 21
4.931214183077052
 31
0.0
210
0.0
220
0.0
230
1.0
 40
0.5766854787
 41
5.532490618491574
 42
6.752658929904961
  0
LINE
  5
2B9
330
1F
100
AcDbEntity
  8
0
  6
Continuous
 62
     7
370
    25
100
AcDbLine
 10
235.8142322337
 20
47.3647979954
 30
0.0
 11
235.8142322337
 21
41.5274194428
 31
0.0
  0
LINE
  5
2BA
330
1F
100
AcDbEntity
  8
0
  6
Continuous
 62
     7
370
    25
100
AcDbLine
 10
250.897335447
 20
21.9184192233
 30
0.0
 11
235.8142322337
 21
30.6257093685
 31
0.0
  0
LINE
  5
2BB
330
1F
100
AcDbEntity
  8
0
  6
Continuous
 62
     7
370
    25
100
AcDbLine
 10
235.8142322337
 20
38.3333962116
 30
0.0
 11
235.8142322337
 21
30.6257093685
 31
0.0
  0
ELLIPSE
  5
2BC
330
1F
100
AcDbEntity
  8
0
  6
Continuous
 62
     7
370
    25
100
AcDbEllipse
 10
239.4666963068
 20
37.8218851989
 30
0.0
 11
-2.652928810042851
 21
4.931214183077052
 31
0.0
210
0.0
220
0.0
230
1.0
 40
0.5766854787
 41
1.170729653488362
 42
2.390897964901764
  0
LINE
  5
2BD
330
1F
100
AcDbEntity
  8
0
  6
Continuous
 62
     7
370
    25
100
AcDbLine
 10
245.8306576509
 20
29.4986514024
 30
0.0
 11
239.4666965649
 21
33.1724879375
 31
0.0
  0
LINE
  5
2BE
330
1F
100
AcDbEntity
  8
0
  6
Continuous
 62
     7
370
    25
100
AcDbLine
 10
261.2049830751
 20
62.7879651778
 30
0.0
 11
261.0817852027
 21
63.247780739
 31
0.0
  0
ELLIPSE
  5
2BF
330
1F
100
AcDbEntity
  8
0
  6
Continuous
 62
     7
370
    25
100
AcDbEllipse
 10
245.8129796679
 20
63.7597016599
 30
0.0
 11
-4.962041686331929
 21
8.725530780669892
 31
0.0
210
0.0
220
0.0
230
1.0
 40
0.5773485232
 41
3.947768608631676
 42
5.505350278253521
  0
ELLIPSE
  5
2C0
330
1F
100
AcDbEntity
  8
0
  6
Continuous
 62
     7
370
    25
100
AcDbEllipse
 10
254.0107174455
 20
67.3298216519
 30
0.0
 11
-6.561534858694586
 21
7.974799593448196
 31
0.0
210
0.0
220
0.0
230
1.0
 40
0.4128975027
 41
3.878919160270418
 42
5.44971548706532
  0
LINE
  5
2C1
330
1F
100
AcDbEntity
  8
0
  6
Continuous
 62
     7
370
    25
100
AcDbLine
 10
245.8129795381
 20
71.9864306435
 30
0.0
 11
243.3150227547
 21
73.4284703999
 31
0.0
  0
LINE
  5
2C2
330
1F
100
AcDbEntity
  8
0
  6
Continuous
 62
     7
370
    25
100
AcDbLine
 10
240.8838608237
 20
64.2752586598
 30
0.0
 11
240.9556606143
 21
64.1142297752
 31
0.0
  0
LINE
  5
2C3
330
1F
100
AcDbEntity
  8
0
  6
Continuous
 62
     7
370
    25
100
AcDbLine
 10
240.4126248131
 20
65.0914451191
 30
0.0
 11
240.8838608237
 21
64.2752586598
 31
0.0
  0
LWPOLYLINE
  5
2C4
330
1F
100
AcDbEntity
  8
0
  6
Continuous
 62
     7
370
    25
100
AcDbPolyline
 90
        3
 70
   128
 43
0.0
 10
239.6754619446
 20
70.3445300261
 10
239.7366512661
 20
69.9084855854
 10
240.4126248131
 20
65.0914451191
  0
LWPOLYLINE
  5
2C5
330
1F
100
AcDbEntity
  8
0
  6
Continuous
 62
     7
370
    25
100
AcDbPolyline
 90
       13
 70
   128
 43
0.0
 10
243.9054223941
 20
69.2211224804
 10
244.1336620668
 20
68.9736622756
 10
244.315878698
 20
68.6720623003
 10
244.4315349186
 20
68.3503152197
 10
244.4675941817
 20
68.0446866661
 10
244.419992609
 20
67.7896237063
 10
244.2940960213
 20
67.6138750025
 10
244.1040934184
 20
67.5372496633
 10
243.8714006677
 20
67.5683839936
 10
243.6222443044
 20
67.7037693974
 10
243.3847086175
 20
67.9281452591
 10
243.1855647583
 20
68.2162229961
 10
243.1141179475
 20
68.3594361695
  0
LINE
  5
2C6
330
1F
100
AcDbEntity
  8
0
  6
Continuous
 62
     7
370
    25
100
AcDbLine
 10
243.3150227547
 20
73.4284703999
 30
0.0
 11
243.9054223941
 21
69.2211224804
 31
0.0
  0
ARC
  5
2C7
330
1F
100
AcDbEntity
  8
0
  6
Continuous
 62
     7
370
    25
100
AcDbCircle
 10
247.9305752004
 20
32.3864795821
 30
0.0
 40
3.267322561558132
100
AcDbArc
 50
238.4246888122
 51
277.0579101714
  0
LINE
  5
2C8
330
1F
100
AcDbEntity
  8
0
  6
Continuous
 62
     7
370
    25
100
AcDbLine
 10
246.2197435269
 20
29.6028754963
 30
0.0
 11
239.8557824409
 21
33.2767120315
 31
0.0
  0
LWPOLYLINE
  5
2C9
330
1F
100
AcDbEntity
  8
0
  6
Continuous
 62
     7
370
    25
100
AcDbPolyline
 90
       17
 70
   128
 43
0.0
 10
239.8557824409
 20
33.2767120315
 10
239.3125533568
 20
33.6462933409
 10
238.8008731645
 20
34.1084894393
 10
238.3311590502
 20
34.6538905022
 10
237.9129727509
 20
35.27139429
 10
237.5548272715
 20
35.9484272305
 10
237.2640133582
 20
36.6712126499
 10
237.0464513262
 20
37.4250281699
 10
236.9065705458
 20
38.1945353482
 10
236.8472172464
 20
38.9640671166
 10
236.8696005157
 20
39.7179585669
 10
236.9732652994
 20
40.4408629109
 10
237.1561003039
 20
41.1180602173
 10
237.4143840941
 20
41.7357684353
 10
237.7428588507
 20
42.2814125929
 10
238.1348370542
 20
42.7438841152
 10
238.331954572
 20
42.9240465547
  0
LINE
  5
2CA
330
1F
100
AcDbEntity
  8
0
  6
Continuous
 62
     7
370
    25
100
AcDbLine
 10
240.2675611022
 20
35.2890399538
 30
0.0
 11
246.6315221882
 21
31.6152034186
 31
0.0
  0
LWPOLYLINE
  5
2CB
330
1F
100
AcDbEntity
  8
0
  6
Continuous
 62
     7
370
    25
100
AcDbPolyline
 90
       10
 70
   128
 43
0.0
 10
246.6315221882
 20
31.6152034186
 10
247.0639241585
 20
31.4209238608
 10
247.501855927
 20
31.3322408636
 10
247.9304040948
 20
31.352181383
 10
248.334975645
 20
31.4800582345
 10
248.7017928384
 20
31.7115243127
 10
249.0183644031
 20
32.0386952449
 10
249.2739099652
 20
32.4504283137
 10
249.4597268592
 20
32.9327023221
 10
249.5523511443
 20
33.3489372868
  0
LINE
  5
2CC
330
1F
100
AcDbEntity
  8
0
  6
Continuous
 62
     7
370
    25
100
AcDbLine
 10
247.0122542625
 20
37.8955413691
 30
0.0
 11
241.4571440476
 21
41.1024382354
 31
0.0
  0
LWPOLYLINE
  5
2CD
330
1F
100
AcDbEntity
  8
0
  6
Continuous
 62
     7
370
    25
100
AcDbPolyline
 90
       18
 70
   128
 43
0.0
 10
241.4571440476
 20
41.1024382354
 10
241.0247420773
 20
41.2967193142
 10
240.5868103087
 20
41.3854007904
 10
240.1582621409
 20
41.3654633129
 10
239.75369092
 20
41.2375832294
 10
239.3868737266
 20
41.0061171513
 10
239.070302162
 20
40.678946219
 10
238.8147565998
 20
40.2672131502
 10
238.6289390473
 20
39.784939522
 10
238.519178117
 20
39.2485466744
 10
238.4892117077
 20
38.6763020963
 10
238.5400592463
 20
38.0876920554
 10
238.6699900777
 20
37.5027607765
 10
238.8745787829
 20
36.9414290945
 10
239.1468589488
 20
36.4228140643
 10
239.4775579395
 20
35.9645694899
 10
239.8554146438
 20
35.582307826
 10
240.2675611022
 20
35.2890399538
  0
ELLIPSE
  5
2CE
330
1F
100
AcDbEntity
  8
0
  6
Continuous
 62
     7
370
    25
100
AcDbEllipse
 10
253.6088319305
 20
55.9218993495
 30
0.0
 11
17.57699263901222
 21
5.558986141409044
 31
0.0
210
0.0
220
0.0
230
1.0
 40
0.6978514545
 41
2.255903903058771
 42
2.606390329028231
  0
LINE
  5
2CF
330
1F
100
AcDbEntity
  8
0
  6
Continuous
 62
     7
370
    25
100
AcDbLine
 10
248.7593972083
 20
56.5474996767
 30
0.0
 11
239.4829028514
 21
61.9027058802
 31
0.0
  0
ARC
  5
2D0
330
1F
100
AcDbEntity
  8
0
  6
Continuous
 62
     7
370
    25
100
AcDbCircle
 10
248.0954142608
 20
50.1146658289
 30
0.0
 40
14.59908356809378
100
AcDbArc
 50
123.855955882
 51
126.1524008177
  0
SPLINE
  5
2D1
330
1F
100
AcDbEntity
  8
0
  6
Continuous
 62
     7
370
    25
100
AcDbSpline
210
0.0
220
0.0
230
1.0
 70
     8
 71
     3
 72
    12
 73
     8
 74
     0
 42
0.000000001
 43
0.00000001
 40
0.0
 40
0.0
 40
0.0
 40
0.0
 40
0.1889984817431482
 40
0.3840354718481003
 40
0.572968219634937
 40
0.7668521865481578
 40
1.0
 40
1.0
 40
1.0
 40
1.0
 10
235.8142322337258
 20
38.33339621155331
 30
0.0
 10
235.8002050347774
 20
38.5805973247064
 30
0.0
 10
235.7717024673643
 20
39.08289763556358
 30
0.0
 10
235.7556429936534
 20
39.78073400737165
 30
0.0
 10
235.7552822121929
 20
40.41693634030336
 30
0.0
 10
235.7707105935896
 20
41.01766111907711
 30
0.0
 10
235.7988622111886
 20
41.34739412893253
 30
0.0
 10
235.8142322337258
 20
41.527419442751
 30
0.0
  0
ELLIPSE
  5
2D2
330
1F
100
AcDbEntity
  8
0
  6
Continuous
 62
     7
370
    25
100
AcDbEllipse
 10
253.6088319305
 20
20.3511823911
 30
0.0
 11
18.00000008180806
 21
-10.3928679294614
 31
0.0
210
0.0
220
0.0
230
1.0
 40
0.0000703729
 41
2.990418962235531
 42
3.035908940554237
  0
ARC
  5
2D3
330
1F
100
AcDbEntity
  8
0
  6
Continuous
 62
     7
370
    25
100
AcDbCircle
 10
241.6667394779
 20
31.7851068539
 30
0.0
 40
6.057907732880022
100
AcDbArc
 50
180.0222462827
 51
190.4513444444
  0
SPLINE
  5
2D4
330
1F
100
AcDbEntity
  8
0
  6
Continuous
 62
     7
370
    25
100
AcDbSpline
210
0.0
220
0.0
230
1.0
 70
     8
 71
     3
 72
    12
 73
     8
 74
     0
 42
0.000000001
 43
0.00000001
 40
0.0
 40
0.0
 40
0.0
 40
0.0
 40
0.1390692387082125
 40
0.3742809654862852
 40
0.6094452842579662
 40
0.8443172518784863
 40
1.0
 40
1.0
 40
1.0
 40
1.0
 10
240.977177918168
 20
63.92096815241974
 30
0.0
 10
240.9632431944137
 20
63.83335522434416
 30
0.0
 10
240.9257402792544
 20
63.59756007932287
 30
0.0
 10
240.7691121989669
 20
63.19056662642827
 30
0.0
 10
240.5044442010312
 20
62.75536138508627
 30
0.0
 10
240.2183939976407
 20
62.42937541032902
 30
0.0
 10
240.0351919637787
 20
62.29278706091419
 30
0.0
 10
239.9621640500358
 20
62.23834027345733
 30
0.0
  0
ELLIPSE
  5
2D5
330
1F
100
AcDbEntity
  8
0
  6
Continuous
 62
     7
370
    25
100
AcDbEllipse
 10
253.2875248057
 20
67.2386289699
 30
0.0
 11
20.96172392994646
 21
-1.990618924231029
 31
0.0
210
0.0
220
0.0
230
1.0
 40
0.5030133586
 41
1.939088722333804
 42
2.261129644728891
  0
LINE
  5
2D6
330
1F
100
AcDbEntity
  8
0
  6
Continuous
 62
     7
370
    25
100
AcDbLine
 10
243.9746475844
 20
73.7924725616
 30
0.0
 11
243.3150227547
 21
73.4284703999
 31
0.0
  0
LINE
  5
2D7
330
1F
100
AcDbEntity
  8
0
  6
Continuous
 62
     7
370
    25
100
AcDbLine
 10
244.8343226157
 20
74.1484106273
 30
0.0
 11
243.9746475844
 21
73.7924725616
 31
0.0
  0
LINE
  5
2D8
330
1F
100
AcDbEntity
  8
0
  6
Continuous
 62
     7
370
    25
100
AcDbLine
 10
244.7294105487
 20
74.2089750745
 30
0.0
 11
244.8343226157
 21
74.1484106273
 31
0.0
  0
LINE
  5
2D9
330
1F
100
AcDbEntity
  8
0
  6
Continuous
 62
     7
370
    25
100
AcDbLine
 10
252.0368617659
 20
74.6969352597
 30
0.0
 11
246.6749884306
 21
77.7922788499
 31
0.0
  0
SPLINE
  5
2DA
330
1F
100
AcDbEntity
  8
0
  6
Continuous
 62
     7
370
    25
100
AcDbSpline
210
0.0
220
0.0
230
1.0
 70
     8
 71
     3
 72
     9
 73
     5
 74
     0
 42
0.000000001
 43
0.00000001
 40
0.0
 40
0.0
 40
0.0
 40
0.0
 40
0.7510400148142009
 40
1.0
 40
1.0
 40
1.0
 40
1.0
 10
240.9556606143346
 20
64.11422977515576
 30
0.0
 10
240.9676928690011
 20
64.06469050531823
 30
0.0
 10
240.9837136594106
 20
63.99872961260893
 30
0.0
 10
240.9784807125427
 20
63.93646864259264
 30
0.0
 10
240.977177918168
 20
63.92096815241974
 30
0.0
  0
LINE
  5
2DB
330
1F
100
AcDbEntity
  8
0
  6
Continuous
 62
     7
370
    25
100
AcDbLine
 10
251.7093366304
 20
21.449596089
 30
0.0
 11
235.7093366303
 21
30.6861994824
 31
0.0
  0
LINE
  5
2DC
330
1F
100
AcDbEntity
  8
0
  6
Continuous
 62
     7
370
    25
100
AcDbLine
 10
243.8843902729
 20
36.2578816327
 30
0.0
 11
249.4849727391
 21
33.0247341944
 31
0.0
  0
ELLIPSE
  5
2DD
330
1F
100
AcDbEntity
  8
0
  6
Continuous
 62
     7
370
    25
100
AcDbEllipse
 10
245.5438928385
 20
39.4497830715
 30
0.0
 11
4.764309169953265
 21
3.65550291430916
 31
0.0
210
0.0
220
0.0
230
1.0
 40
0.4141976934
 41
1.849675108621412
 42
2.065337235202184
  0
SPLINE
  5
2DE
330
1F
100
AcDbEntity
  8
0
  6
Continuous
 62
     7
370
    25
100
AcDbSpline
210
0.0
220
0.0
230
1.0
 70
     8
 71
     3
 72
    13
 73
     9
 74
     0
 42
0.000000001
 43
0.00000001
 40
0.0
 40
0.0
 40
0.0
 40
0.0
 40
0.1565604533548337
 40
0.312866205293293
 40
0.4759628372426143
 40
0.6479578307939184
 40
0.8246435466701623
 40
1.0
 40
1.0
 40
1.0
 40
1.0
 10
241.9499289516378
 20
39.45171184644389
 30
0.0
 10
241.9398714692764
 20
39.43721921439153
 30
0.0
 10
241.9197728666359
 20
39.40825752772182
 30
0.0
 10
241.903415404266
 20
39.35064782230105
 30
0.0
 10
241.8997501227988
 20
39.2887970714857
 30
0.0
 10
241.9113307041882
 20
39.22741832630798
 30
0.0
 10
241.9372775183704
 20
39.1727592088268
 30
0.0
 10
241.9641783259034
 20
39.15175552418027
 30
0.0
 10
241.9775779428054
 20
39.14129333536129
 30
0.0
  0
ELLIPSE
  5
2DF
330
1F
100
AcDbEntity
  8
0
  6
Continuous
 62
     7
370
    25
100
AcDbEllipse
 10
242.7431982456
 20
38.6995613622
 30
0.0
 11
3.980420838935572
 21
-2.298346046448827
 31
0.0
210
0.0
220
0.0
230
1.0
 40
0.0000663464
 41
4.518874472950478
 42
4.825120923955348
  0
ARC
  5
2E0
330
1F
100
AcDbEntity
  8
0
  6
Continuous
 62
     7
370
    25
100
AcDbCircle
 10
247.3887681148
 20
39.9311615786
 30
0.0
 40
4.454673640667256
100
AcDbArc
 50
199.5465389158
 51
206.8317767317
  0
ELLIPSE
  5
2E1
330
1F
100
AcDbEntity
  8
0
  6
Continuous
 62
     7
370
    25
100
AcDbEllipse
 10
248.323972688
 20
40.1944827121
 30
0.0
 11
4.764309169953236
 21
3.655502914309167
 31
0.0
210
0.0
220
0.0
230
1.0
 40
0.4141976934
 41
2.645073273888379
 42
3.311544284370192
  0
SPLINE
  5
2E2
330
1F
100
AcDbEntity
  8
0
  6
Continuous
 62
     7
370
    18
100
AcDbSpline
210
0.0
220
0.0
230
1.0
 70
     8
 71
     3
 72
     9
 73
     5
 74
     0
 42
0.000000001
 43
0.00000001
 40
0.0
 40
0.0
 40
0.0
 40
0.0
 40
0.512891693293267
 40
1.0
 40
1.0
 40
1.0
 40
1.0
 10
243.6736452775953
 20
69.589198328627
 30
0.0
 10
243.6928965352042
 20
69.42761989425108
 30
0.0
 10
243.7304312776471
 20
69.11258567457321
 30
0.0
 10
243.7252768888931
 20
68.90164509827747
 30
0.0
 10
243.722766143315
 20
68.7988941913423
 30
0.0
  0
LWPOLYLINE
  5
2E3
330
1F
100
AcDbEntity
  8
0
  6
Continuous
 62
     7
370
    18
100
AcDbPolyline
 90
        3
 70
   128
 43
0.0
 10
243.2584546973
 20
72.5479638243
 10
243.4909617384
 20
70.8910550631
 10
243.6736452776
 20
69.5891983286
  0
SPLINE
  5
2E4
330
1F
100
AcDbEntity
  8
0
  6
Continuous
 62
     7
370
    18
100
AcDbSpline
210
0.0
220
0.0
230
1.0
 70
     8
 71
     3
 72
     9
 73
     5
 74
     0
 42
0.000000001
 43
0.00000001
 40
0.0
 40
0.0
 40
0.0
 40
0.0
 40
0.3359405001882661
 40
1.0
 40
1.0
 40
1.0
 40
1.0
 10
243.1048627218257
 20
73.36879306014241
 30
0.0
 10
243.1257865759782
 20
73.2737006943274
 30
0.0
 10
243.1880709809272
 20
72.9906375752283
 30
0.0
 10
243.2303673749935
 20
72.72461718896372
 30
0.0
 10
243.258454697281
 20
72.54796382432113
 30
0.0
  0
SPLINE
  5
2E5
330
1F
100
AcDbEntity
  8
0
  6
Continuous
 62
     7
370
    18
100
AcDbSpline
210
0.0
220
0.0
230
1.0
 70
     8
 71
     3
 72
     9
 73
     5
 74
     0
 42
0.000000001
 43
0.00000001
 40
0.0
 40
0.0
 40
0.0
 40
0.0
 40
0.6640605996394703
 40
1.0
 40
1.0
 40
1.0
 40
1.0
 10
242.4402269755471
 20
73.8131478674711
 30
0.0
 10
242.5830947128983
 20
73.72546213804424
 30
0.0
 10
242.7982373330578
 20
73.59341736762046
 30
0.0
 10
243.0277577654106
 20
73.42527777429952
 30
0.0
 10
243.1048627218257
 20
73.36879306014241
 30
0.0
  0
LINE
  5
2E6
330
1F
100
AcDbEntity
  8
0
  6
Continuous
 62
     7
370
    18
100
AcDbLine
 10
240.0492362595
 20
75.1934374275
 30
0.0
 11
242.4402269755
 21
73.8131478675
 31
0.0
  0
SPLINE
  5
2E7
330
1F
100
AcDbEntity
  8
0
  6
Continuous
 62
     7
370
    18
100
AcDbSpline
210
0.0
220
0.0
230
1.0
 70
     8
 71
     3
 72
     9
 73
     5
 74
     0
 42
0.000000001
 43
0.00000001
 40
0.0
 40
0.0
 40
0.0
 40
0.0
 40
0.5172398661910365
 40
1.0
 40
1.0
 40
1.0
 40
1.0
 10
239.4127141693021
 20
75.46330812325921
 30
0.0
 10
239.5007857272306
 20
75.44071990120621
 30
0.0
 10
239.6710579040004
 20
75.39704921081773
 30
0.0
 10
239.9261081625694
 20
75.2597297761814
 30
0.0
 10
240.0492362595241
 20
75.19343742754181
 30
0.0
  0
SPLINE
  5
2E8
330
1F
100
AcDbEntity
  8
0
  6
Continuous
 62
     7
370
    18
100
AcDbSpline
210
0.0
220
0.0
230
1.0
 70
     8
 71
     3
 72
    10
 73
     6
 74
     0
 42
0.000000001
 43
0.00000001
 40
0.0
 40
0.0
 40
0.0
 40
0.0
 40
0.2765309869248973
 40
0.5626675276849882
 40
1.0
 40
1.0
 40
1.0
 40
1.0
 10
243.0147267163321
 20
72.63903823017087
 30
0.0
 10
243.0460856394492
 20
72.63691196152304
 30
0.0
 10
243.1098927662285
 20
72.63258556636359
 30
0.0
 10
243.204726280825
 20
72.60463070736616
 30
0.0
 10
243.2382124926508
 20
72.56931309753656
 30
0.0
 10
243.258454697281
 20
72.54796382432113
 30
0.0
  0
SPLINE
  5
2E9
330
1F
100
AcDbEntity
  8
0
  6
Continuous
 62
     7
370
    18
100
AcDbSpline
210
0.0
220
0.0
230
1.0
 70
     8
 71
     3
 72
     9
 73
     5
 74
     0
 42
0.000000001
 43
0.00000001
 40
0.0
 40
0.0
 40
0.0
 40
0.0
 40
0.7663260854139837
 40
1.0
 40
1.0
 40
1.0
 40
1.0
 10
243.0147267163321
 20
72.63903823017087
 30
0.0
 10
242.9945009303592
 20
72.78648848441571
 30
0.0
 10
242.9681077455808
 20
72.97890037936668
 30
0.0
 10
242.936812255955
 20
73.1845542542098
 30
0.0
 10
242.9294993163853
 20
73.23261020019417
 30
0.0
  0
SPLINE
  5
2EA
330
1F
100
AcDbEntity
  8
0
  6
Continuous
 62
     7
370
    18
100
AcDbSpline
210
0.0
220
0.0
230
1.0
 70
     8
 71
     3
 72
     9
 73
     5
 74
     0
 42
0.000000001
 43
0.00000001
 40
0.0
 40
0.0
 40
0.0
 40
0.0
 40
0.233675409238634
 40
1.0
 40
1.0
 40
1.0
 40
1.0
 10
242.9294993163853
 20
73.23261020019417
 30
0.0
 10
242.8894357657246
 20
73.25781010697615
 30
0.0
 10
242.7179861861933
 20
73.36565160756057
 30
0.0
 10
242.5607335429934
 20
73.45720159038169
 30
0.0
 10
242.4402269755471
 20
73.52735859350129
 30
0.0
  0
SPLINE
  5
2EB
330
1F
100
AcDbEntity
  8
0
  6
Continuous
 62
     7
370
    18
100
AcDbSpline
210
0.0
220
0.0
230
1.0
 70
     8
 71
     3
 72
    10
 73
     6
 74
     0
 42
0.000000001
 43
0.00000001
 40
0.0
 40
0.0
 40
0.0
 40
0.0
 40
0.2765306492172961
 40
0.5626683457935653
 40
1.0
 40
1.0
 40
1.0
 40
1.0
 10
242.4402269755471
 20
73.8131478674711
 30
0.0
 10
242.4503133572206
 20
73.7940270181859
 30
0.0
 10
242.4708365350574
 20
73.75512103554732
 30
0.0
 10
242.4787038085151
 20
73.65768823054111
 30
0.0
 10
242.4547231182436
 20
73.57646027028636
 30
0.0
 10
242.4402269755471
 20
73.52735859350129
 30
0.0
  0
LINE
  5
2EC
330
1F
100
AcDbEntity
  8
0
  6
Continuous
 62
     7
370
    18
100
AcDbLine
 10
242.4402269755
 20
73.5273585935
 30
0.0
 11
242.3075462783
 21
73.185387869
 31
0.0
  0
LINE
  5
2ED
330
1F
100
AcDbEntity
  8
0
  6
Continuous
 62
     7
370
    18
100
AcDbLine
 10
243.0147267163
 20
72.6390382302
 30
0.0
 11
242.6557279793
 21
72.6470118624
 31
0.0
  0
LWPOLYLINE
  5
2EE
330
1F
100
AcDbEntity
  8
0
  6
Continuous
 62
     7
370
    18
100
AcDbPolyline
 90
        3
 70
   128
 43
0.0
 10
243.4299179552
 20
69.6802724494
 10
243.1974109141
 20
71.3371812106
 10
243.0147267163
 20
72.6390382302
  0
ARC
  5
2EF
330
1F
100
AcDbEntity
  8
0
  6
Continuous
 62
     7
370
    18
100
AcDbCircle
 10
243.4599303826
 20
69.3889284013
 30
0.0
 40
0.2928858141644303
100
AcDbArc
 50
43.1398611871
 51
95.8815041085
  0
LINE
  5
2F0
330
1F
100
AcDbEntity
  8
0
  6
Continuous
 62
     7
370
    18
100
AcDbLine
 10
243.4299179552
 20
69.6802724494
 30
0.0
 11
243.0709192181
 21
69.6882459865
 31
0.0
  0
LINE
  5
2F1
330
1F
100
AcDbEntity
  8
0
  6
Continuous
 62
     7
370
    18
100
AcDbLine
 10
242.4402269755
 20
73.5273585935
 30
0.0
 11
240.0492362595
 21
74.9076481536
 31
0.0
  0
ARC
  5
2F2
330
1F
100
AcDbEntity
  8
0
  6
Continuous
 62
     7
370
    18
100
AcDbCircle
 10
239.7634284565
 20
75.0505427906
 30
0.0
 40
0.3195386948801482
100
AcDbArc
 50
333.4364346439
 51
26.5635653561
  0
LINE
  5
2F3
330
1F
100
AcDbEntity
  8
0
  6
Continuous
 62
     7
370
    18
100
AcDbLine
 10
240.0492362595
 20
74.9076481536
 30
0.0
 11
239.9165555623
 21
74.5656774291
 31
0.0
  0
LWPOLYLINE
  5
2F4
330
1F
100
AcDbEntity
  8
0
  6
Continuous
 62
     7
370
    18
100
AcDbPolyline
 90
        3
 70
   128
 43
0.0
 10
240.7200183869
 20
73.7223707868
 10
240.6189844885
 20
73.5762134568
 10
240.557795167
 20
73.432271862
  0
SPLINE
  5
2F5
330
1F
100
AcDbEntity
  8
0
  6
Continuous
 62
     7
370
    18
100
AcDbSpline
210
0.0
220
0.0
230
1.0
 70
     8
 71
     3
 72
     9
 73
     5
 74
     0
 42
0.000000001
 43
0.00000001
 40
0.0
 40
0.0
 40
0.0
 40
0.0
 40
0.4183258241369127
 40
1.0
 40
1.0
 40
1.0
 40
1.0
 10
243.5088539090217
 20
69.07307968729425
 30
0.0
 10
243.5012572658275
 20
69.14395658816794
 30
0.0
 10
243.4830976334168
 20
69.31338648415847
 30
0.0
 10
243.4494752356832
 20
69.5453470047292
 30
0.0
 10
243.4299179551909
 20
69.68027244936495
 30
0.0
  0
LINE
  5
2F6
330
1F
100
AcDbEntity
  8
0
  6
Continuous
 62
     7
370
    18
100
AcDbLine
 10
242.8554168973
 20
69.2213012407
 30
0.0
 11
242.7227362001
 21
69.4100819979
 31
0.0
  0
SPLINE
  5
2F7
330
1F
100
AcDbEntity
  8
0
  6
Continuous
 62
     7
370
    18
100
AcDbSpline
210
0.0
220
0.0
230
1.0
 70
     8
 71
     3
 72
     9
 73
     5
 74
     0
 42
0.000000001
 43
0.00000001
 40
0.0
 40
0.0
 40
0.0
 40
0.0
 40
0.5466798155727542
 40
1.0
 40
1.0
 40
1.0
 40
1.0
 10
242.855416897317
 20
69.22130124072363
 30
0.0
 10
242.9686964079575
 20
69.16992246739676
 30
0.0
 10
243.1759100408989
 20
69.07593916700174
 30
0.0
 10
243.4050019311034
 20
69.07397161729169
 30
0.0
 10
243.5088539090217
 20
69.07307968729425
 30
0.0
  0
SPLINE
  5
2F8
330
1F
100
AcDbEntity
  8
0
  6
Continuous
 62
     7
370
    18
100
AcDbSpline
210
0.0
220
0.0
230
1.0
 70
     8
 71
     3
 72
     9
 73
     5
 74
     0
 42
0.000000001
 43
0.00000001
 40
0.0
 40
0.0
 40
0.0
 40
0.0
 40
0.6640592223819952
 40
1.0
 40
1.0
 40
1.0
 40
1.0
 10
240.464427498383
 20
70.31580086154308
 30
0.0
 10
240.3338832746909
 20
70.41060077168298
 30
0.0
 10
240.1372980616675
 20
70.55335898803581
 30
0.0
 10
239.992079444282
 20
70.77016543877559
 30
0.0
 10
239.9432945890329
 20
70.84299956642973
 30
0.0
  0
LINE
  5
2F9
330
1F
100
AcDbEntity
  8
0
  6
Continuous
 62
     7
370
    18
100
AcDbLine
 10
242.8554168973
 20
68.9355120618
 30
0.0
 11
240.4644274984
 21
70.3158008615
 31
0.0
  0
SPLINE
  5
2FA
330
1F
100
AcDbEntity
  8
0
  6
Continuous
 62
     7
370
    18
100
AcDbSpline
210
0.0
220
0.0
230
1.0
 70
     8
 71
     3
 72
     9
 73
     5
 74
     0
 42
0.000000001
 43
0.00000001
 40
0.0
 40
0.0
 40
0.0
 40
0.0
 40
0.5172394684244683
 40
1.0
 40
1.0
 40
1.0
 40
1.0
 10
243.722766143315
 20
68.7988941913423
 30
0.0
 10
243.567862370024
 20
68.78290094671722
 30
0.0
 10
243.2683806352622
 20
68.75198055954377
 30
0.0
 10
242.9898705662719
 20
68.87575745969696
 30
0.0
 10
242.855416897317
 20
68.93551206181168
 30
0.0
  0
SPLINE
  5
2FB
330
1F
100
AcDbEntity
  8
0
  6
Continuous
 62
     7
370
    18
100
AcDbSpline
210
0.0
220
0.0
230
1.0
 70
     8
 71
     3
 72
     9
 73
     5
 74
     0
 42
0.000000001
 43
0.00000001
 40
0.0
 40
0.0
 40
0.0
 40
0.0
 40
0.5466798159271291
 40
1.0
 40
1.0
 40
1.0
 40
1.0
 10
240.0492362595241
 20
74.907648153572
 30
0.0
 10
239.9477721839926
 20
74.96584770000091
 30
0.0
 10
239.7621716321239
 20
75.07230772419295
 30
0.0
 10
239.632241727992
 20
75.13151944879101
 30
0.0
 10
239.5733418799343
 20
75.15836131868508
 30
0.0
  0
SPLINE
  5
2FC
330
1F
100
AcDbEntity
  8
0
  6
Continuous
 62
     7
370
    18
100
AcDbSpline
210
0.0
220
0.0
230
1.0
 70
     8
 71
     3
 72
     9
 73
     5
 74
     0
 42
0.000000001
 43
0.00000001
 40
0.0
 40
0.0
 40
0.0
 40
0.0
 40
0.5128919322845975
 40
1.0
 40
1.0
 40
1.0
 40
1.0
 10
239.2310078792458
 20
74.53975097061077
 30
0.0
 10
239.2245439657147
 20
74.70871117616174
 30
0.0
 10
239.211941089506
 20
75.0381376984281
 30
0.0
 10
239.3469501612439
 20
75.32404188660475
 30
0.0
 10
239.4127141693021
 20
75.46330812325921
 30
0.0
  0
LWPOLYLINE
  5
2FD
330
1F
100
AcDbEntity
  8
0
  6
Continuous
 62
     7
370
    18
100
AcDbPolyline
 90
        3
 70
   128
 43
0.0
 10
239.6461991181
 20
71.5809852849
 10
239.413692077
 20
73.2378940461
 10
239.2310078792
 20
74.5397509706
  0
SPLINE
  5
2FE
330
1F
100
AcDbEntity
  8
0
  6
Continuous
 62
     7
370
    18
100
AcDbSpline
210
0.0
220
0.0
230
1.0
 70
     8
 71
     3
 72
     9
 73
     5
 74
     0
 42
0.000000001
 43
0.00000001
 40
0.0
 40
0.0
 40
0.0
 40
0.0
 40
0.3359400758431098
 40
0.9999999999999999
 40
0.9999999999999999
 40
0.9999999999999999
 40
0.9999999999999999
 10
239.9432945890329
 20
70.84299956642973
 30
0.0
 10
239.8940504463922
 20
70.92174269097848
 30
0.0
 10
239.7474643550567
 20
71.15613903190666
 30
0.0
 10
239.686610033958
 20
71.41144609554578
 30
0.0
 10
239.6461991181046
 20
71.5809852848627
 30
0.0
  0
SPLINE
  5
2FF
330
1F
100
AcDbEntity
  8
0
  6
Continuous
 62
     7
370
    18
100
AcDbSpline
210
0.0
220
0.0
230
1.0
 70
     8
 71
     3
 72
    10
 73
     6
 74
     0
 42
0.000000001
 43
0.00000001
 40
0.0
 40
0.0
 40
0.0
 40
0.0
 40
0.2765306546197536
 40
0.562668831489695
 40
1.0
 40
1.0
 40
1.0
 40
1.0
 10
242.855416897317
 20
69.22130124072363
 30
0.0
 10
242.865503277942
 20
69.20218039886402
 30
0.0
 10
242.8860264709604
 20
69.163274398511
 30
0.0
 10
242.8938937394799
 20
69.0658416093425
 30
0.0
 10
242.8699130335112
 20
68.9846136711158
 30
0.0
 10
242.855416897317
 20
68.93551206181168
 30
0.0
  0
LINE
  5
300
330
1F
100
AcDbEntity
  8
0
  6
Continuous
 62
     7
370
    18
100
AcDbLine
 10
239.4747365187
 20
74.4486761846
 30
0.0
 11
239.5683738613
 21
74.28751268
 31
0.0
  0
SPLINE
  5
301
330
1F
100
AcDbEntity
  8
0
  6
Continuous
 62
     7
370
    18
100
AcDbSpline
210
0.0
220
0.0
230
1.0
 70
     8
 71
     3
 72
     9
 73
     5
 74
     0
 42
0.000000001
 43
0.00000001
 40
0.0
 40
0.0
 40
0.0
 40
0.0
 40
0.418325562529841
 40
0.9999999999999999
 40
0.9999999999999999
 40
0.9999999999999999
 40
0.9999999999999999
 10
239.5733418799343
 20
75.15836131868508
 30
0.0
 10
239.5392732290491
 20
75.06343198046797
 30
0.0
 10
239.4578327101403
 20
74.83650504432039
 30
0.0
 10
239.4685199971055
 20
74.59130359796629
 30
0.0
 10
239.4747365187392
 20
74.44867618459139
 30
0.0
  0
LINE
  5
302
330
1F
100
AcDbEntity
  8
0
  6
Continuous
 62
     7
370
    18
100
AcDbLine
 10
240.4644274984
 20
70.6015900405
 30
0.0
 11
242.8554168973
 21
69.2213012407
 31
0.0
  0
LINE
  5
303
330
1F
100
AcDbEntity
  8
0
  6
Continuous
 62
     7
370
    18
100
AcDbLine
 10
240.4644274984
 20
70.6015900405
 30
0.0
 11
240.3317468011
 21
70.7903707976
 31
0.0
  0
SPLINE
  5
304
330
1F
100
AcDbEntity
  8
0
  6
Continuous
 62
     7
370
    18
100
AcDbSpline
210
0.0
220
0.0
230
1.0
 70
     8
 71
     3
 72
    10
 73
     6
 74
     0
 42
0.000000001
 43
0.00000001
 40
0.0
 40
0.0
 40
0.0
 40
0.0
 40
0.2765327059956569
 40
0.5626660979277956
 40
0.9999999999999999
 40
0.9999999999999999
 40
0.9999999999999999
 40
0.9999999999999999
 10
239.2310078792458
 20
74.53975097061077
 30
0.0
 10
239.2623670296431
 20
74.53762454810892
 30
0.0
 10
239.3261740600805
 20
74.53329787778848
 30
0.0
 10
239.4210077982274
 20
74.50534341256446
 30
0.0
 10
239.4544941283332
 20
74.4700256628766
 30
0.0
 10
239.4747365187392
 20
74.44867618459139
 30
0.0
  0
LINE
  5
305
330
1F
100
AcDbEntity
  8
0
  6
Continuous
 62
     7
370
    18
100
AcDbLine
 10
239.8899264405
 20
71.4899111641
 30
0.0
 11
239.9835651001
 21
71.3287469943
 31
0.0
  0
LWPOLYLINE
  5
306
330
1F
100
AcDbEntity
  8
0
  6
Continuous
 62
     7
370
    18
100
AcDbPolyline
 90
        3
 70
   128
 43
0.0
 10
239.4747365187
 20
74.4486761846
 10
239.7072422427
 20
72.7917680887
 10
239.8899264405
 20
71.4899111641
  0
ARC
  5
307
330
1F
100
AcDbEntity
  8
0
  6
Continuous
 62
     7
370
    18
100
AcDbCircle
 10
240.178620005
 20
70.458695451
 30
0.0
 40
0.3195383966888972
100
AcDbArc
 50
333.4364174397
 51
26.5635825603
  0
ARC
  5
308
330
1F
100
AcDbEntity
  8
0
  6
Continuous
 62
     7
370
    18
100
AcDbCircle
 10
239.6762113108
 20
71.2896406088
 30
0.0
 40
0.2928864148603954
100
AcDbArc
 50
43.1399194454
 51
95.8814458502
  0
SPLINE
  5
309
330
1F
100
AcDbEntity
  8
0
  6
Continuous
 62
     7
370
    18
100
AcDbSpline
210
0.0
220
0.0
230
1.0
 70
     8
 71
     3
 72
     9
 73
     5
 74
     0
 42
0.000000001
 43
0.00000001
 40
0.0
 40
0.0
 40
0.0
 40
0.0
 40
0.2336748211580991
 40
1.0
 40
1.0
 40
1.0
 40
1.0
 10
240.0833186851776
 20
70.95878152489686
 30
0.0
 10
240.1084544116845
 20
70.92496388077124
 30
0.0
 10
240.2160215273126
 20
70.78024292214153
 30
0.0
 10
240.3566558646622
 20
70.67909909889397
 30
0.0
 10
240.464427498383
 20
70.60159004045504
 30
0.0
  0
SPLINE
  5
30A
330
1F
100
AcDbEntity
  8
0
  6
Continuous
 62
     7
370
    18
100
AcDbSpline
210
0.0
220
0.0
230
1.0
 70
     8
 71
     3
 72
     9
 73
     5
 74
     0
 42
0.000000001
 43
0.00000001
 40
0.0
 40
0.0
 40
0.0
 40
0.0
 40
0.7663259604613729
 40
1.0
 40
1.0
 40
1.0
 40
1.0
 10
239.889926440509
 20
71.48991116412478
 30
0.0
 10
239.92288752096
 20
71.34981287844566
 30
0.0
 10
239.9658993490222
 20
71.16699473981082
 30
0.0
 10
240.0610779232583
 20
70.99821983798033
 30
0.0
 10
240.0833186851776
 20
70.95878152489686
 30
0.0
  0
LINE
  5
30B
330
1F
100
AcDbEntity
  8
0
  6
Continuous
 62
     7
370
    18
100
AcDbLine
 10
242.0670844518
 20
71.4224485744
 30
0.0
 11
241.9659906425
 21
71.3640883606
 31
0.0
  0
LINE
  5
30C
330
1F
100
AcDbEntity
  8
0
  6
Continuous
 62
     7
370
    18
100
AcDbLine
 10
241.1722192406
 20
72.7688393285
 30
0.0
 11
241.0208053625
 21
72.6814299572
 31
0.0
  0
LINE
  5
30D
330
1F
100
AcDbEntity
  8
0
  6
Continuous
 62
     7
370
    18
100
AcDbLine
 10
241.7974552156
 20
71.3221795172
 30
0.0
 11
241.514395008
 21
71.1587723375
 31
0.0
  0
LINE
  5
30E
330
1F
100
AcDbEntity
  8
0
  6
Continuous
 62
     7
370
    18
100
AcDbLine
 10
241.3739333682
 20
72.5042021004
 30
0.0
 11
240.7906523235
 21
72.1674811206
 31
0.0
  0
LINE
  5
30F
330
1F
100
AcDbEntity
  8
0
  6
Continuous
 62
     7
370
    18
100
AcDbLine
 10
241.5224891554
 20
72.0459253599
 30
0.0
 11
240.9392081107
 21
71.7092043801
 31
0.0
  0
LINE
  5
310
330
1F
100
AcDbEntity
  8
0
  6
Continuous
 62
     7
370
    18
100
AcDbLine
 10
262.1117911041
 20
62.3324045597
 30
0.0
 11
255.8879088763
 21
57.8569677127
 31
0.0
  0
ARC
  5
311
330
1F
100
AcDbEntity
  8
0
  6
Continuous
 62
     7
370
    18
100
AcDbCircle
 10
254.9067099248
 20
71.537307302
 30
0.0
 40
25.81087210638127
100
AcDbArc
 50
270.2487341846
 51
297.8076212159
  0
LINE
  5
312
330
1F
100
AcDbEntity
  8
0
  6
Continuous
 62
     7
370
    18
100
AcDbLine
 10
266.9694055703
 20
48.8516935656
 30
0.0
 11
267.9626065922
 21
48.27833082
 31
0.0
  0
LINE
  5
313
330
1F
100
AcDbEntity
  8
0
  6
Continuous
 62
     7
370
    18
100
AcDbLine
 10
270.1734353359
 20
41.3284450107
 30
0.0
 11
270.3487504206
 21
41.2272377665
 31
0.0
  0
LINE
  5
314
330
1F
100
AcDbEntity
  8
0
  6
Continuous
 62
     7
370
    18
100
AcDbLine
 10
270.465626595
 20
39.8028394679
 30
0.0
 11
270.630855412
 21
39.7074549021
 31
0.0
  0
LINE
  5
315
330
1F
100
AcDbEntity
  8
0
  6
Continuous
 62
     7
370
    18
100
AcDbLine
 10
270.7406812089
 20
38.2871266998
 30
0.0
 11
270.8954325828
 21
38.1977906332
 31
0.0
  0
LINE
  5
316
330
1F
100
AcDbEntity
  8
0
  6
Continuous
 62
     7
370
    18
100
AcDbLine
 10
270.9979179133
 20
36.7816996117
 30
0.0
 11
271.1417334972
 21
36.6986766424
 31
0.0
  0
LINE
  5
317
330
1F
100
AcDbEntity
  8
0
  6
Continuous
 62
     7
370
    18
100
AcDbLine
 10
271.2365365767
 20
35.2870193492
 30
0.0
 11
271.3688737298
 21
35.2106227369
 31
0.0
  0
LINE
  5
318
330
1F
100
AcDbEntity
  8
0
  6
Continuous
 62
     7
370
    18
100
AcDbLine
 10
264.0403803693
 20
38.0967896131
 30
0.0
 11
264.0935762775
 21
38.1439584161
 31
0.0
  0
LINE
  5
319
330
1F
100
AcDbEntity
  8
0
  6
Continuous
 62
     7
370
    18
100
AcDbLine
 10
263.998322095
 20
38.1086256484
 30
0.0
 11
264.2126556125
 21
37.9848935425
 31
0.0
  0
LINE
  5
31A
330
1F
100
AcDbEntity
  8
0
  6
Continuous
 62
     7
370
    18
100
AcDbLine
 10
271.4555921877
 20
33.8036352582
 30
0.0
 11
271.5758134389
 21
33.7342330072
 31
0.0
  0
LINE
  5
31B
330
1F
100
AcDbEntity
  8
0
  6
Continuous
 62
     7
370
    18
100
AcDbLine
 10
271.6539675255
 20
32.3321873532
 30
0.0
 11
271.7613129144
 21
32.2702181792
 31
0.0
  0
LINE
  5
31C
330
1F
100
AcDbEntity
  8
0
  6
Continuous
 62
     7
370
    18
100
AcDbLine
 10
271.83033694
 20
30.8734454789
 30
0.0
 11
271.923900968
 21
30.8194321152
 31
0.0
  0
LINE
  5
31D
330
1F
100
AcDbEntity
  8
0
  6
Continuous
 62
     7
370
    18
100
AcDbLine
 10
245.0497487821
 20
43.5295213888
 30
0.0
 11
243.7623700016
 21
43.184671505
 31
0.0
  0
LINE
  5
31E
330
1F
100
AcDbEntity
  8
0
  6
Continuous
 62
     7
370
    18
100
AcDbLine
 10
261.0817852027
 20
63.247780739
 30
0.0
 11
260.5694988201
 21
63.0246797183
 31
0.0
  0
LINE
  5
31F
330
1F
100
AcDbEntity
  8
0
  6
Continuous
 62
     7
370
    18
100
AcDbLine
 10
243.5677354025
 20
45.2969778032
 30
0.0
 11
245.5183389667
 21
45.8194852519
 31
0.0
  0
LINE
  5
320
330
1F
100
AcDbEntity
  8
0
  6
Continuous
 62
     7
370
    18
100
AcDbLine
 10
245.8129795381
 20
71.9864306435
 30
0.0
 11
252.0368617659
 21
74.6969352597
 31
0.0
  0
LINE
  5
321
330
1F
100
AcDbEntity
  8
0
  6
Continuous
 62
     7
370
    18
100
AcDbLine
 10
250.9100218336
 20
58.3676993616
 30
0.0
 11
240.9556606143
 21
64.1142297752
 31
0.0
  0
LINE
  5
322
330
1F
100
AcDbEntity
  8
0
  6
Continuous
 62
     7
370
    18
100
AcDbLine
 10
245.8306576509
 20
29.4986514024
 30
0.0
 11
246.2197435269
 21
29.6028754963
 31
0.0
  0
LINE
  5
323
330
1F
100
AcDbEntity
  8
0
  6
Continuous
 62
     7
370
    18
100
AcDbLine
 10
249.1944384603
 20
32.3017327867
 30
0.0
 11
246.6315221882
 21
31.6152034186
 31
0.0
  0
LINE
  5
324
330
1F
100
AcDbEntity
  8
0
  6
Continuous
 62
     7
370
    18
100
AcDbLine
 10
249.119546474
 20
56.9518959252
 30
0.0
 11
239.96216405
 21
62.2383402735
 31
0.0
  0
LINE
  5
325
330
1F
100
AcDbEntity
  8
0
  6
Continuous
 62
     7
370
    18
100
AcDbLine
 10
239.4666965649
 20
33.1724879375
 30
0.0
 11
239.8557824409
 21
33.2767120315
 31
0.0
  0
LINE
  5
326
330
1F
100
AcDbEntity
  8
0
  6
Continuous
 62
     7
370
    18
100
AcDbLine
 10
243.8843902729
 20
36.2578816327
 30
0.0
 11
240.2675611022
 21
35.2890399538
 31
0.0
  0
OLE2FRAME
  5
327
330
1F
100
AcDbEntity
  8
0
100
AcDbOle2Frame
 70
     2
  3
Paintbrush-Bild
 10
13.8511154363
 20
38.264191557
 30
0.0
 11
51.6290888628
 21
31.9806341108
 31
0.0
 71
     2
 72
     0
 73
     1
 90
    12928
310
80552BED0767C5B32B40DDAF6807D121434000000000000000006FFBDDFB85D0
310
4940DDAF6807D121434000000000000000006FFBDDFB85D04940416F4BD60AFB
310
3F4000000000000000002BED0767C5B32B40416F4BD60AFB3F40000000000000
310
0000000000000100000000010000010000000100000000000100000000320000
310
D0CF11E0A1B11AE1000000000000000000000000000000003E000300FEFF0900
310
0600000000000000000000000100000001000000000000000010000002000000
310
01000000FEFFFFFF0000000000000000FFFFFFFFFFFFFFFFFFFFFFFFFFFFFFFF
310
FFFFFFFFFFFFFFFFFFFFFFFFFFFFFFFFFFFFFFFFFFFFFFFFFFFFFFFFFFFFFFFF
310
FFFFFFFFFFFFFFFFFFFFFFFFFFFFFFFFFFFFFFFFFFFFFFFFFFFFFFFFFFFFFFFF
310
FFFFFFFFFFFFFFFFFFFFFFFFFFFFFFFFFFFFFFFFFFFFFFFFFFFFFFFFFFFFFFFF
310
FFFFFFFFFFFFFFFFFFFFFFFFFFFFFFFFFFFFFFFFFFFFFFFFFFFFFFFFFFFFFFFF
310
FFFFFFFFFFFFFFFFFFFFFFFFFFFFFFFFFFFFFFFFFFFFFFFFFFFFFFFFFFFFFFFF
310
FFFFFFFFFFFFFFFFFFFFFFFFFFFFFFFFFFFFFFFFFFFFFFFFFFFFFFFFFFFFFFFF
310
FFFFFFFFFFFFFFFFFFFFFFFFFFFFFFFFFFFFFFFFFFFFFFFFFFFFFFFFFFFFFFFF
310
FFFFFFFFFFFFFFFFFFFFFFFFFFFFFFFFFFFFFFFFFFFFFFFFFFFFFFFFFFFFFFFF
310
FFFFFFFFFFFFFFFFFFFFFFFFFFFFFFFFFFFFFFFFFFFFFFFFFFFFFFFFFFFFFFFF
310
FFFFFFFFFFFFFFFFFFFFFFFFFFFFFFFFFFFFFFFFFFFFFFFFFFFFFFFFFFFFFFFF
310
FFFFFFFFFFFFFFFFFFFFFFFFFFFFFFFFFFFFFFFFFFFFFFFFFFFFFFFFFFFFFFFF
310
FFFFFFFFFFFFFFFFFFFFFFFFFFFFFFFFFFFFFFFFFFFFFFFFFFFFFFFFFFFFFFFF
310
FFFFFFFFFFFFFFFFFFFFFFFFFFFFFFFFFFFFFFFFFFFFFFFFFFFFFFFFFFFFFFFF
310
FDFFFFFFFEFFFFFFFEFFFFFFFEFFFFFF05000000060000000700000008000000
310
090000000A0000000B0000000C0000000D0000000E0000000F00000010000000
310
11000000120000001300000014000000150000001600000017000000FEFFFFFF
310
FFFFFFFFFFFFFFFFFFFFFFFFFFFFFFFFFFFFFFFFFFFFFFFFFFFFFFFFFFFFFFFF
310
FFFFFFFFFFFFFFFFFFFFFFFFFFFFFFFFFFFFFFFFFFFFFFFFFFFFFFFFFFFFFFFF
310
FFFFFFFFFFFFFFFFFFFFFFFFFFFFFFFFFFFFFFFFFFFFFFFFFFFFFFFFFFFFFFFF
310
FFFFFFFFFFFFFFFFFFFFFFFFFFFFFFFFFFFFFFFFFFFFFFFFFFFFFFFFFFFFFFFF
310
FFFFFFFFFFFFFFFFFFFFFFFFFFFFFFFFFFFFFFFFFFFFFFFFFFFFFFFFFFFFFFFF
310
FFFFFFFFFFFFFFFFFFFFFFFFFFFFFFFFFFFFFFFFFFFFFFFFFFFFFFFFFFFFFFFF
310
FFFFFFFFFFFFFFFFFFFFFFFFFFFFFFFFFFFFFFFFFFFFFFFFFFFFFFFFFFFFFFFF
310
FFFFFFFFFFFFFFFFFFFFFFFFFFFFFFFFFFFFFFFFFFFFFFFFFFFFFFFFFFFFFFFF
310
FFFFFFFFFFFFFFFFFFFFFFFFFFFFFFFFFFFFFFFFFFFFFFFFFFFFFFFFFFFFFFFF
310
FFFFFFFFFFFFFFFFFFFFFFFFFFFFFFFFFFFFFFFFFFFFFFFFFFFFFFFFFFFFFFFF
310
FFFFFFFFFFFFFFFFFFFFFFFFFFFFFFFFFFFFFFFFFFFFFFFFFFFFFFFFFFFFFFFF
310
FFFFFFFFFFFFFFFFFFFFFFFFFFFFFFFFFFFFFFFFFFFFFFFFFFFFFFFFFFFFFFFF
310
FFFFFFFFFFFFFFFFFFFFFFFFFFFFFFFFFFFFFFFFFFFFFFFFFFFFFFFFFFFFFFFF
310
52006F006F007400200045006E00740072007900000000000000000000000000
310
0000000000000000000000000000000000000000000000000000000000000000
310
16000500FFFFFFFFFFFFFFFF020000000A00030000000000C000000000000046
310
000000000000000000000000309D204FCB6FD60103000000C000000000000000
310
01004F006C006500000000000000000000000000000000000000000000000000
310
0000000000000000000000000000000000000000000000000000000000000000
310
0A000200FFFFFFFFFFFFFFFFFFFFFFFF00000000000000000000000000000000
310
0000000000000000000000000000000000000000000000001400000000000000
310
010043006F006D0070004F0062006A0000000000000000000000000000000000
310
0000000000000000000000000000000000000000000000000000000000000000
310
120002010100000003000000FFFFFFFF00000000000000000000000000000000
310
0000000000000000000000000000000000000000010000004D00000000000000
310
01004F006C006500310030004E00610074006900760065000000000000000000
310
0000000000000000000000000000000000000000000000000000000000000000
310
1A000200FFFFFFFFFFFFFFFFFFFFFFFF00000000000000000000000000000000
310
0000000000000000000000000000000000000000040000002426000000000000
310
FEFFFFFF02000000FEFFFFFFFFFFFFFFFFFFFFFFFFFFFFFFFFFFFFFFFFFFFFFF
310
FFFFFFFFFFFFFFFFFFFFFFFFFFFFFFFFFFFFFFFFFFFFFFFFFFFFFFFFFFFFFFFF
310
FFFFFFFFFFFFFFFFFFFFFFFFFFFFFFFFFFFFFFFFFFFFFFFFFFFFFFFFFFFFFFFF
310
FFFFFFFFFFFFFFFFFFFFFFFFFFFFFFFFFFFFFFFFFFFFFFFFFFFFFFFFFFFFFFFF
310
FFFFFFFFFFFFFFFFFFFFFFFFFFFFFFFFFFFFFFFFFFFFFFFFFFFFFFFFFFFFFFFF
310
FFFFFFFFFFFFFFFFFFFFFFFFFFFFFFFFFFFFFFFFFFFFFFFFFFFFFFFFFFFFFFFF
310
FFFFFFFFFFFFFFFFFFFFFFFFFFFFFFFFFFFFFFFFFFFFFFFFFFFFFFFFFFFFFFFF
310
FFFFFFFFFFFFFFFFFFFFFFFFFFFFFFFFFFFFFFFFFFFFFFFFFFFFFFFFFFFFFFFF
310
FFFFFFFFFFFFFFFFFFFFFFFFFFFFFFFFFFFFFFFFFFFFFFFFFFFFFFFFFFFFFFFF
310
FFFFFFFFFFFFFFFFFFFFFFFFFFFFFFFFFFFFFFFFFFFFFFFFFFFFFFFFFFFFFFFF
310
FFFFFFFFFFFFFFFFFFFFFFFFFFFFFFFFFFFFFFFFFFFFFFFFFFFFFFFFFFFFFFFF
310
FFFFFFFFFFFFFFFFFFFFFFFFFFFFFFFFFFFFFFFFFFFFFFFFFFFFFFFFFFFFFFFF
310
FFFFFFFFFFFFFFFFFFFFFFFFFFFFFFFFFFFFFFFFFFFFFFFFFFFFFFFFFFFFFFFF
310
FFFFFFFFFFFFFFFFFFFFFFFFFFFFFFFFFFFFFFFFFFFFFFFFFFFFFFFFFFFFFFFF
310
FFFFFFFFFFFFFFFFFFFFFFFFFFFFFFFFFFFFFFFFFFFFFFFFFFFFFFFFFFFFFFFF
310
FFFFFFFFFFFFFFFFFFFFFFFFFFFFFFFFFFFFFFFFFFFFFFFFFFFFFFFFFFFFFFFF
310
0100000200000000000000000000000000000000000000000000000000000000
310
0000000000000000000000000000000000000000000000000000000000000000
310
0100FEFF030A0000FFFFFFFF0A00030000000000C00000000000004607000000
310
5042727573680007000000504272757368000700000050427275736800F439B2
310
7100000000000000000000000000000000000000000000000000000000000000
310
0000000000000000000000000000000000000000000000000000000000000000
310
0000000000000000000000000000000000000000000000000000000000000000
310
0000000000000000000000000000000000000000000000000000000000000000
310
0000000000000000000000000000000000000000000000000000000000000000
310
0000000000000000000000000000000000000000000000000000000000000000
310
0000000000000000000000000000000000000000000000000000000000000000
310
0000000000000000000000000000000000000000000000000000000000000000
310
0000000000000000000000000000000000000000000000000000000000000000
310
0000000000000000000000000000000000000000000000000000000000000000
310
0000000000000000000000000000000000000000000000000000000000000000
310
0000000000000000000000000000000000000000000000000000000000000000
310
20260000424D0E260000000000003E00000028000000B40200006E0000000100
310
01000000000000000000130B0000130B00000200000002000000000000FFFFFF
310
FFFFFFFFFFFFFFFFFFFFFFFFFFFFFFFFFFFFFFFFFFFFFFFFFFFFFFFFFFFFFFFF
310
FFFFFFFFFFFFFFFFFFFFFFFFFFFFFFFFFFFFFFFFFFFFFFFFFFFFFFFFFFFFFFFF
310
FFFFFFFFFFFFFFFFFFFFFFFFFFFFFFFFFFFFFFFFFFFFFFFFF000FFFFFFFFFFFF
310
FFFFFFFFFFFFFFFFFFFFFFFFFFFFFFFFFFFFFFFFFFFFFFFFFFFFFFFFFFFFFFFF
310
FFFFFFFFFFFFFFFFFFFFFFFFFFFFFFFFFFFFFFFFFFFFFFFFFFFFFFFFFFFFFFFF
310
FFFFFFFFFFFFFFFFFFFFFFFFFFFFFFFFF000FFFFFFFFFFFFFFFFFFFFFFFFFFFF
310
FFFFFFFFFFFFFFFFFFFFFFFFFFFFFFFFFFFFFFFFFFFFFFFFFFFFFFFFFFFFFFFF
310
FFFFFFFFFFFFFFFFFFFFFFFFFFFFFFFFFFFFFFFFFFFFFFFFFFFFFFFFFFFFFFFF
310
FFFFFFFFFFFFFFFFF000FFFFFFFFFFFFFFFFFFFFFFFFFFFFFFFFFFFFFFFFFFFF
310
FFFFFFFFFFFFFFFFFFFFFFFFFFFFFFFFFFFFFFFFFFFFFFFFFFFFFFFFFFFFFFFF
310
FFFFFFFFFFFFFFFFFFFFFFFFFFFFFFFFFFFFFFFFFFFFFFFFFFFFFFFFFFFFFFFF
310
F000FFFFFFFFFFFFFFFFFFFFFFFFFFFFFFFFFFFFFFFFFFFFFFFFFFFFFFFFFFFF
310
FFFFFFFFFFFFFFFFFFFFFFFFFFFFFFFFFFFFFFFFFFFFFFFFFFFFFFFFFFFFFFFF
310
FFFFFFFFFFFFFFFFFFFFFFFFFFFFFFFFFFFFFFFFFFFFFFFFF000FFFFFFFFFFFF
310
FFFFFFFFFFFFFFFFFFFFFFFFFFFFFFFFFFFFFFFFFFFFFFFFFFFFFFFFFFFFFFFF
310
FFFFFFFFFFFFFFFFFFFFFFFFFFFFFFFFFFFFFFFFFFFFFFFFFFFFFFFFFFFFFFFF
310
FFFFFFFFFFFFFFFFFFFFFFFFFFFFFFFFF000FFFFFFFFFFFFFFFFFFFFFFFFFFFF
310
FFFFFFFFFFFFFFFFFFFFFFFFFFFFFFFFFFFFFFFFFFFFFFFFFFFFFFFFFFFFFFFF
310
FFFFFFFFFFFFFFFFFFFFFFFFFFFFFFFFFFFFFFFFFFFFFFFFFFFFFFFFFFFFFFFF
310
FFFFFFFFFFFFFFFFF000FFFFFFFFFFFFFFFFFFFFFFFFFFFFFFFFFFFFFFFFFFFF
310
FFFFFFFFFFFFFFFFFFFFFFFFFFFFFFFFFFFFFFFFFFFFFFFFFFFFFFFFFFFFFFFF
310
FFFFFFFFFFFFFFFFFFFFFFFFFFFFFFFFFFFFFFFFFFFFFFFFFFFFFFFFFFFFFFFF
310
F000FFFFFFFFFFFFFFFFFFFFFFFFFFFFFFFFFFFFFFFFFFFFFFFFFFFFFFFFFFFF
310
FFFFFFFFFFFFFFFFFFFFFFFFFFFFFFFFFFFFFFFFFFFFFFFFFFFFFFFFFFFFFFFF
310
FFFFFFFFFFFFFFFFFFFFFFFFFFFFFFFFFFFFFFFFFFFFFFFFF000FFFFFFFFFFFF
310
FFFFFFFFFFFFFFFFFFFFFFFFFFFFFFFFFFFFFFFFFFFFFFFFFFFFFFFFFFFFFFFF
310
FFFFFFFFFFFFFFFFFFFFFFFFFFFFFFFFFFFFFFFFFFFFFFFFFFFFFFFFFFFFFFFF
310
FFFFFFFFFFFFFFFFFFFFFFFFFFFFFFFFF000FFFFFFFFFFFFFFFFFFFFFFFFFFFF
310
FFFFFFFFFFFFFFFFFFFFFFFFFFFFFFFFFFFFFFFFFFFFFFFFFFFFFFFFFFFFFFFF
310
FFFFFFFFFFFFFFFFFFFFFFFFFFFFFFFFFFFFFFFFFFFFFFFFFFFFFFFFFFFFFFFF
310
FFFFFFFFFFFFFFFFF000FFFFFFFFFFFFFFFFFFFFFFFFFFFFFFFFFFFFFFFFFFFF
310
FFFFFFFFFFFFFFFFFFFFFFFFFFFFFFFFFFFFFFFFFFFFFFFFFFFFFFFFFFFFFFFF
310
FFFFFFFFFFFFFFFFFFFFFFFFFFFFFFFFFFFFFFFFFFFFFFFFFFFFFFFFFFFFFFFF
310
F000FFFFFFFFFFFFFFFFFFFFFFFFFFFFFFFFFFFFFFFFFFFFFFFFFFFFFFFFFFFF
310
FFFFFFFFFFFFFFFFFFFFFFFFFFFFFFFFFFFFFFFFFFFFFFFFFFFFFFFFFFFFFFFF
310
FFFFFFFFFFFFFFFFFFFFFFFFFFFFFFFFFFFFFFFFFFFFFFFFF000FFFFFFFFFFFF
310
FFFFFFFFFFFFFFFFFFFFFFFFFFFFFFFFFFFFFFFFFFFFFFFFFFFFFFFFFFFFFFFF
310
FFFFFFFFFFFFFFFFFFFFFFFFFFFFFFFFFFFFFFFFFFFFFFFFFFFFFFFFFFFFFFFF
310
FFFFFFFFFFFFFFFFFFFFFFFFFFFFFFFFF000FFFFFFFFFFFFFFFFFFFFFFFFFFFF
310
FFFFFFFFFFFFFFFFFFFFFFFFFFFFFFFFFFFFFFFFFFFFFFFFFFFFFFFFFFFFFFFF
310
FFFFFFFFFFFFFFFFFFFFFFFFFFFFFFFFFFFFFFFFFFFFFFFFFFFFFFFFFFFFFFFF
310
FFFFFFFFFFFFFFFFF000FFFFFFFFFFFFFFFFFFFFFFFFFFFFFFFFFFFFFFFFFFFF
310
FFFFFFFFFFFFFFFFFFFFFFFFFFFFFFFFFFFFFFFFFFFFFFFFFFFFFFFFFFFFFFFF
310
FFFFFFFFFFFFFFFFFFFFFFFFFFFFFFFFFFFFFFFFFFFFFFFFFFFFFFFFFFFFFFFF
310
F000FFFFFFFFFFFFFFFFFFFFFFFFFFFFFFFFFFFFFFFFFFFFFFFFFFFFFFFFFFFF
310
FFFFFFFFFFFFFFFFFFFFFFFFFFFFFFFFFFFFFFFFFFFFFFFFFFFFFFFFFFFFFFFF
310
FFFFFFFFFFFFFFFFFFFFFFFFFFFFFFFFFFFFFFFFFFFFFFFFF000FFFFFFFFFFFF
310
FFFFFFFFFFFFFFFFFFFFFFFFFFFFFFFFFFFFFFFFFFFFFFFFFFFFFFFFFFFFFFFF
310
FFFFFFFFFFFFFFFFFFFFFFFFFFFFFFFFFFFFFFFFFFFFFFFFFFFFFFFFFFFFFFFF
310
FFFFFFFFFFFFFFFFFFFFFFFFFFFFFFFFF000FFFFFFFFFFFFFFFFFFFFFFFFFFFF
310
FFFFFFFFFFFFFFFFFFFFFFFFFFFFFFFFFFFFFFFFFFFFFFFFFFFFFFFFFFFFFFFF
310
FFFFFFFFFFFFFFFFFFFFFFFFFFFFFFFFFFFFFFFFFFFFFFFFFFFFFFFFFFFFFFFF
310
FFFFFFFFFFFFFFFFF000FFFFF80003FFFFFFFFFFFFFFFFFFFFFFFFFFFFFFFFFF
310
FFFFF00007FFFFFFFFFF00007FFFFFF800000000000000007FFFFFFFFFFFFFFF
310
FFFFFFFC001FFFFFFFFFFFFFFC001FFFFFFFFFFFFFFFFFFFFFFFFFFE0007FFFF
310
F000FFFF8000007FFFFFFFF8000FFFFFC0007FFFFF80007FFFFF0000007FFFFF
310
FFF8000007FFFFF800000000000000007FFFFFF0001FFFFFFFFFFFC00001FFFF
310
FFFFFFFFC00001FFFFFFFF000000000003FFFFE000007FFFF000FFFE0000000F
310
FFFFFFF0000FFFFF80007FFFFF80007FFFFC0000001FFFFFFFC0000001FFFFF8
310
00000000000000007FFFFFF0001FFFFFFFFFFE0000003FFFFFFFFFFE0000003F
310
FFFFFF000000000003FFFF0000000FFFF000FFF800000003FFFFFFF00007FFFF
310
80007FFFFF80007FFFF000000007FFFFFF000000003FFFF80000000000000000
310
7FFFFFF0001FFFFFFFFFF80000000FFFFFFFFFF80000000FFFFFFF0000000000
310
03FFFC00000003FFF000FFE000000000FFFFFFF00007FFFF80003FFFFF80007F
310
FFC000000001FFFFFC000000001FFFF800000000000000007FFFFFF0001FFFFF
310
FFFFE000000003FFFFFFFFE000000003FFFFFF000000000003FFF000000000FF
310
F000FF80000000007FFFFFF00007FFFF80003FFFFF80007FFF8000000000FFFF
310
F80000000007FFF800000000000000007FFFFFF0001FFFFFFFFFC000000001FF
310
FFFFFFC000000001FFFFFF000000000003FFC0000000007FF000FF0000000000
310
3FFFFFE00007FFFF00003FFFFF80007FFE00000000003FFFF00000000003FFF8
310
00000000000000007FFFFFF0001FFFFFFFFF8000000000FFFFFFFF8000000000
310
FFFFFF000000000003FF80000000003FF000FE00000000001FFFFFE00003FFFF
310
00003FFFFF80007FFC00000000001FFFE00000000001FFF8000001FFFE000000
310
7FFFFFF0001FFFFFFFFE00000000003FFFFFFE00000000003FFFFF0000000000
310
03FF00000000001FF000FC00000000000FFFFFE00003FFFF00001FFFFF80007F
310
F800000000001FFFC00000000000FFF8000001FFFE0000007FFFFFF0001FFFFF
310
FFFC00000000001FFFFFFC00000000001FFFFF000000000003FE00000000000F
310
F000F8000000000007FFFFE00003FFFF00001FFFFF80007FF800000000000FFF
310
800000000000FFF8000001FFFE0000007FFFFFF0001FFFFFFFF800000000000F
310
FFFFF800000000000FFFFF000000000003FC000000000007F000F80000000000
310
03FFFFC00003FFFE00001FFFFF80007FF0000000000007FF0000000000007FF8
310
000001FFFE0000007FFFFFF0001FFFFFFFF0000000000007FFFFF00000000000
310
07FFFF000000000003F8000000000003F000F0000000000003FFFFC00001FFFE
310
00001FFFFF80007FE0000000000007FE0000000000003FF8000001FFFE000000
310
7FFFFFF0001FFFFFFFF0000000000007FFFFF0000000000007FFFF0000000000
310
03F800001F800003F000E00001FFF00001FFFFC00001FFFE00000FFFFF80007F
310
E00001FFE00003FE00001FFF00003FF8000001FFFE0000007FFFFFF0001FFFFF
310
FFE000003E000003FFFFE000003E000003FFFF000000000003F00001FFF80001
310
F000E00007FFFC0001FFFFC00001FFFE00000FFFFF80007FC0000FFFFC0003FC
310
0000FFFFC0001FF8000001FFFE0000007FFFFFF0001FFFFFFFC00003FFE00001
310
FFFFC00003FFE00001FFFF0001FFFFFFFFF00007FFFE0001F000E0000FFFFF00
310
00FFFF800001FFFC00000FFFFF80007FC0001FFFFE0001FC0001FFFFE0001FF8
310
000001FFFE0000007FFFFFF0001FFFFFFF80000FFFF80000FFFF80000FFFF800
310
00FFFF0003FFFFFFFFE0000FFFFF8000F000C0003FFFFF8000FFFF800000FFFC
310
000007FFFF80007F80003FFFFF0001FC0003FFFFF0001FF8000001FFFE000000
310
7FFFFFF0001FFFFFFF80003FFFFE0000FFFF80003FFFFE0000FFFF0003FFFFFF
310
FFE0003FFFFF8000F000C0003FFFFF8000FFFF800000FFFC000007FFFF80007F
310
80007FFFFF8001F80007FFFFF8000FF8000001FFFE0000007FFFFFF0001FFFFF
310
FF00007FFFFF00007FFF00007FFFFF00007FFF0003FFFFFFFFE0003FFFFFC000
310
F000C0007FFFFFC000FFFF000000FFFC000007FFFF80007F8000FFFFFF8000F8
310
000FFFFFF8000FF8000001FFFE0000007FFFFFF0001FFFFFFF0000FFFFFF8000
310
7FFF0000FFFFFF80007FFF0003FFFFFFFFC0007FFFFFC00070008000FFFFFFC0
310
00FFFF000000FFF8000007FFFF80007F8000FFFFFF8000F8000FFFFFF8000FF8
310
000001FFFE0000007FFFFFF0001FFFFFFE0001FFFFFFC0003FFE0001FFFFFFC0
310
003FFF0003FFFFFFFFC0007FFFFFE00070008000FFFFFFC0007FFF0000007FF8
310
000003FFFF80007F0001FFFFFF8000F8000FFFFFF8000FF8000001FFFE000000
310
7FFFFFF0001FFFFFFE0001FFFFFFC0003FFE0001FFFFFFC0003FFF0003FFFFFF
310
FFC000FFFFFFE00070008000FFFFFFC0007FFF0000007FF8000003FFFF80007F
310
0001FFFFFF8000F8001FFFFFF8000FF8000001FFFE0000007FFFFFF0001FFFFF
310
FE0003FFFFFFE0003FFE0003FFFFFFE0003FFF0003FFFFFFFFC000FFFFFFE000
310
70008000FFFFFFC0007FFE0000007FF8000003FFFF80007F0001FFFFFF8000F0
310
001FFFFFF8000FF8000001FFFE0000007FFFFFF0001FFFFFFC0003FFFFFFE000
310
1FFC0003FFFFFFE0001FFF0003FFFFFFFFC000FFFFFFC00070008000FFFFFF80
310
007FFE0000007FF0000003FFFF80007F0001FFFFFF0000F0001FFFFFF8000FF8
310
000001FFFE0000007FFFFFF0001FFFFFFC0007FFFFFFF0001FFC0007FFFFFFF0
310
001FFF0003FFFFFFFFC000FFFFFFC00070008001FFFFFF0000FFFE0000003FF0
310
000001FFFF80007F0001FFFFFF0000F8001FFFFFF0000FF8000001FFFE000000
310
7FFFFFF0001FFFFFFC0007FFFFFFF0001FFC0007FFFFFFF0001FFF0003FFFFFF
310
FFC001FFFFFF80007000FFFFFFFFFE0000FFFE0008003FF0008001FFFF80007F
310
FFFFFFFFFC0000FFFFFFFFFFE0000FF8000001FFFE0000007FFFFFF0001FFFFF
310
F8000FFFFFFFF8000FF8000FFFFFFFF8000FFF0003FFFFFFFFFFFFFFFFFF0000
310
7000FFFFFFFFFC0000FFFC0008003FF0008001FFFF80007FFFFFFFFFF80001FF
310
FFFFFFFF80000FF8000001FFFE0000007FFFFFF0001FFFFFF8000FFFFFFFF800
310
0FF8000FFFFFFFF8000FFF0003FFFFFFFFFFFFFFFFFE0000F000FFFFFFFFE000
310
00FFFC000C003FE000C001FFFF80007FFFFFFFFFC00001FFFFFFFFFE00001FF8
310
000001FFFE0000007FFFFFF0001FFFFFF8000FFFFFFFF8000FF8000FFFFFFFF8
310
000FFF0003FFFFFFFFFFFFFFFFF00000F000FFFFFFFE000001FFFC000C001FE0
310
00C000FFFF80007FFFFFFFFE000001FFFFFFFFE000001FF80FFFFFFFFFFFFFC0
310
7FFFFFF0001FFFFFF8000FFFFFFFF8000FF8000FFFFFFFF8000FFF0003FFFFFF
310
FFFFFFFFFF800000F000FFFFFFC0000001FFFC001C001FE001C000FFFF80007F
310
FFFFFF80000003FFFFFFF80000001FF80FFFFFFFFFFFFFC07FFFFFF0001FFFFF
310
F8001FFFFFFFFC000FF8001FFFFFFFFC000FFF0003FFFFFFFFFFFFFFF0000001
310
F000FFFFF800000001FFF8001C001FE001C000FFFF80007FFFFFF800000003FF
310
FFFF800000003FF80FFFFFFFFFFFFFC07FFFFFF0001FFFFFF8001FFFFFFFFC00
310
0FF8001FFFFFFFFC000FFF0003FFFFFFFFFFFFFE00000001F000FFFFC0000000
310
03FFF8001E001FC001E000FFFF80007FFFFF8000000007FFFFFC000000003FF8
310
0FFFFFFFFFFFFFC07FFFFFF0001FFFFFF8001FFFFFFFFC000FF8001FFFFFFFFC
310
000FFF0003FFFFFFFFFFFFE000000003F000FFFE0000000007FFF8001E000FC0
310
01E0007FFF80007FFFFE0000000007FFFFE0000000007FF80FFFFFFFFFFFFFC0
310
7FFFFFF0001FFFFFF0001FFFFFFFFC0007F0001FFFFFFFFC0007FF0003FFFFFF
310
FFFFFF0000000003F000FFF80000000007FFF8001E000FC003E0007FFF80007F
310
FFF0000000000FFFFF8000000000FFF80FFFFFFFFFFFFFC07FFFFFF0001FFFFF
310
F0001FFFFFFFFC0007F0001FFFFFFFFC0007FF0003FFFFFFFFFFFC0000000007
310
F000FFE0000000000FFFF0003E000FC003E0007FFF80007FFFC0000000001FFF
310
FE0000000001FFF80FFFFFFFFFFFFFC07FFFFFF0001FFFFFF0001FFFFFFFFC00
310
07F0001FFFFFFFFC0007FF0003FFFFFFFFFFF0000000000FF000FFC000000000
310
1FFFF0003F000F8003F0003FFF80007FFF80000000003FFFF80000000003FFF8
310
0FFFFFFFFFFFFFC07FFFFFF0001FFFFFF0001FFFFFFFFC0007F0001FFFFFFFFC
310
0007FF0003FFFFFFFFFFE0000000001FF000FF00000000007FFFF0003F000780
310
03F0003FFF80007FFF00000000007FFFF00000000007FFF80FFFFFFFFFFFFFC0
310
7FFFFFF0001FFFFFF0001FFFFFFFFC0007F0001FFFFFFFFC0007FF0003FFFFFF
310
FFFF80000000007FF000FE0000000000FFFFE0003F00078007F0003FFF80007F
310
FE0000000001FFFFE0000000001FFFF80FFFFFFFFFFFFFC07FFFFFF0001FFFFF
310
F0001FFFFFFFFC0007F0001FFFFFFFFC0007FF0003FFFFFFFFFF0000000000FF
310
F000FC0000000003FFFFE0007F00078007F0003FFF80007FFC0000000007FFFF
310
C0000000007FFFF80FFFFFFFFFFFFFC07FFFFFF0001FFFFFF8001FFFFFFFFC00
310
0FF8001FFFFFFFFC000FFF0003FFFFFFFFFE0000000003FFF000FC000000000F
310
FFFFE0007F80070007F8001FFF80007FF8000000001FFFFF8000000001FFFFF8
310
0FFFFFFFFFFFFFC07FFFFFF0001FFFFFF8001FFFFFFFFC000FF8001FFFFFFFFC
310
000FFF0003FFFFFFFFFC000000000FFFF000F8000000007FFFFFE0007F800700
310
07F8001FFF80007FF000000000FFFFFF800000000FFFFFF80FFFFFFFFFFFFFC0
310
7FFFFFF0001FFFFFF8000FFFFFFFF8000FF8000FFFFFFFF8000FFF0003FFFFFF
310
FFFC000000007FFFF000F800000007FFFFFFC0007F8003000FF8001FFF80007F
310
F000000007FFFFFF000000007FFFFFF80FFFFFFFFFFFFFC07FFFFFF0001FFFFF
310
F8000FFFFFFFF8000FF8000FFFFFFFF8000FFF0003FFFFFFFFF80000000FFFFF
310
F000F0000000FFFFFFFFC000FF8003000FF8001FFF80007FE0000000FFFFFFFF
310
0000000FFFFFFFF8000001FFFE0000007FFFFFF0001FFFFFF8000FFFFFFFF800
310
0FF8000FFFFFFFF8000FFF0003FFFFFFFFF8000000FFFFFFF000F000000FFFFF
310
FFFFC000FFC002000FF8000FFF80007FE000001FFFFFFFFE000001FFFFFFFFF8
310
000001FFFE0000007FFFFFF0001FFFFFF8000FFFFFFFF8000FF8000FFFFFFFF8
310
000FFF0003FFFFFFFFF000001FFFFFFFF000E00000FFFFFFFFFFC000FFC00200
310
0FFC000FFF80007FE00001FFFFFFFFFE00001FFFFFFFFFF8000001FFFE000000
310
7FFFFFF0001FFFFFFC000FFFFFFFF8001FFC000FFFFFFFF8001FFF0003FFFFFF
310
FFF00001FFFFFFFFF000E00007FFFFFFFFFF8000FFC000001FFC000FFF80007F
310
C0000FFFFFFFFFFE0000FFFFFFFFFFF8000001FFFE0000007FFFFFF0001FFFFF
310
FC0007FFFFFFF0001FFC0007FFFFFFF0001FFF0003FFFFFFFFF00007FFFFFFFF
310
F000E0001FFFFFFFFFFF8000FFC000001FFC000FFF80007FC0003FFFFFFFFFFE
310
0001FFFFFFFFFFF8000001FFFE0000007FFFFFF0001FFFFFFC0007FFFFFFF000
310
1FFC0007FFFFFFF0001FFF0003FFFFFFFFF0001FFFFFFFFFF000E0003FFFFF00
310
03FF8001FFE000001FFC0007FF80007FC0007FFFFF0007FC0003FFFFF0003FF8
310
000001FFFE0000007FFFFFF0001FFFFFFC0003FFFFFFE0001FFC0003FFFFFFE0
310
001FFF0003FFFFFFFFF0003FFFFFFFFFF000E0003FFFFF0001FF8001FFE00000
310
1FFE0007FF80007FC0007FFFFE0003FC0007FFFFE0003FF8000001FFFE000000
310
7FFFFFF0001FFFFFFE0003FFFFFFE0003FFE0003FFFFFFE0003FFF0003FFFFFF
310
FFF0003FFFFF8001F000E0003FFFFF0001FF0001FFE000001FFE0007FF80007F
310
C0007FFFFE0003FC0007FFFFE0003FF8000001FFFE0000007FFFFFF0001FFFFF
310
FE0001FFFFFFC0003FFE0001FFFFFFC0003FFF0003FFFFFFFFF0003FFFFF0001
310
F000E0003FFFFF0003FF0001FFE000003FFE0007FF80007FC0007FFFFE0003FC
310
0007FFFFE0003FF8000001FFFE0000007FFFFFF0001FFFFFFF0001FFFFFFC000
310
7FFF0001FFFFFFC0007FFF0003FFFFFFFFF0003FFFFF0001F000E0003FFFFE00
310
03FF0003FFF000003FFE0003FF80007FC0007FFFFC0003FE0007FFFFE0003FF8
310
000001FFFE0000007FFFFFF0001FFFFFFF0000FFFFFF80007FFF0000FFFFFF80
310
007FFF0003FFFFFFFFF0003FFFFF0001F000E0003FFFFE0003FF0003FFF00000
310
3FFF0003FF80007FC0007FFFFC0007FE0007FFFFC0003FF8000001FFFE000000
310
7FFFFFF0001FFFFFFF80007FFFFF0000FFFF80007FFFFF0000FFFF0003FFFFFF
310
FFF0003FFFFF0003F000E0003FFFFC0003FE0003FFF000003FFF0003FF80007F
310
E0003FFFF80007FE0003FFFFC0007FF8000001FFFE0000007FFFFFF0001FFFFF
310
FF80003FFFFE0000FFFF80003FFFFE0000FFFF0003FFFFFFFFF0001FFFFE0003
310
F000F0001FFFF80003FE0003FFF000007FFF0001FF80007FE0003FFFF00007FE
310
0001FFFF80007FF8000001FFFE0000007FFFFFF0001FFFFFFFC0000FFFF80001
310
FFFFC0000FFFF80001FFFF0003FFFFFFFFF0001FFFFC0003F000F0000FFFF000
310
07FE0007FFF800007FFF0001FF80007FE0001FFFE00007FF0000FFFE00007FF8
310
000001FFFE0000007FFFFFF0001FFFFFFFC00003FFE00001FFFFC00003FFE000
310
01FFFF0003FFFFFFFFF8000FFFF80003F000F00003FFC00007FC0007FFF80000
310
7FFF8001FF80007FF00007FF80000FFF00007FF80000FFF8000001FFFE000000
310
7F80000000000001FFE000003E000003FFFFE000003E000003FFFF0003FFFFFF
310
FFF80003FFE00007F000F800000000000FFC0007FFF800007FFF8001FF80007F
310
F000000000000FFF000000000000FFF8000001FFFE0000007F80000000000001
310
FFF0000000000007FFFFF0000000000007FFFF0003FFFFFFFFFC00007E000007
310
F000F800000000000FFC0007FFF80000FFFF8000FF80007FF800000000001FFF
310
800000000001FFF8000001FFFE0000007F80000000000001FFF800000000000F
310
FFFFF800000000000FFFFF0003FFFFFFFFFC00000000000FF000FC0000000000
310
1FFC0007FFFC0000FFFF8000FF80007FF800000000003FFFC00000000001FFF8
310
000001FFFE0000007F80000000000001FFF800000000000FFFFFF80000000000
310
0FFFFF0003FFFFFFFFFE00000000001FF000FE00000000003FF8000FFFFC0000
310
FFFF8000FF80007FFC00000000003FFFC00000000003FFF8000001FFFE000000
310
7F80000000000001FFFC00000000001FFFFFFC00000000001FFFFF0003FFFFFF
310
FFFF00000000001FF000FF00000000003FF8000FFFFC0000FFFFC000FF80007F
310
FE00000000007FFFE00000000007FFF8000001FFFE0000007F80000000000001
310
FFFE00000000003FFFFFFE00000000003FFFFF0003FFFFFFFFFF80000000003F
310
F000FF80000000007FF8000FFFFC0001FFFFC0007F80007FFF0000000000FFFF
310
F0000000000FFFF800000000000000007F80000000000001FFFF8000000000FF
310
FFFFFF8000000000FFFFFF0003FFFFFFFFFFC0000000007FF000FFC000000000
310
FFF8000FFFFE0001FFFFC0007F80007FFF8000000001FFFFF8000000001FFFF8
310
00000000000000007F80000000000001FFFFC000000001FFFFFFFFC000000001
310
FFFFFF0003FFFFFFFFFFE000000000FFF000FFE000000003FFF0001FFFFE0001
310
FFFFC0007F80007FFFC000000007FFFFFE000000003FFFF80000000000000000
310
7F80000000000001FFFFE000000003FFFFFFFFE000000003FFFFFF0003FFFFFF
310
FFFFF000000003FFF000FFF80000000FFFF0001FFFFE0001FFFFE0007F80007F
310
FFF00000000FFFFFFF00000000FFFFF800000000000000007F80000000000001
310
FFFFF80000000FFFFFFFFFF80000000FFFFFFF0003FFFFFFFFFFFC0000000FFF
310
F000FFFE0000003FFFF0001FFFFE0003FFFFE0003F80007FFFFC0000003FFFFF
310
FFC0000003FFFFF800000000000000007F80000000000001FFFFFE0000003FFF
310
FFFFFFFE0000003FFFFFFF0003FFFFFFFFFFFF0000003FFFF000FFFF800000FF
310
FFF0001FFFFF0003FFFFE0003F80007FFFFF000001FFFFFFFFF800001FFFFFF8
310
00000000000000007F80000000000001FFFFFFC00001FFFFFFFFFFFFC00001FF
310
FFFFFF0003FFFFFFFFFFFFC00000FFFFF000FFFFF8000FFFFFFFFFFFFFFFFFFF
310
FFFFFFFFFFFFFFFFFFFFF0001FFFFFFFFFFF0000FFFFFFF80000000000000000
310
7FFFFFFFFFFFFFFFFFFFFFFC001FFFFFFFFFFFFFFC001FFFFFFFFFFFFFFFFFFF
310
FFFFFFFC001FFFFFF000FFFFFFFFFFFFFFFFFFFFFFFFFFFFFFFFFFFFFFFFFFFF
310
FFFFFFFFFFFFFFFFFFFFFFFFFFFFFFFFFFFFFFFFFFFFFFFFFFFFFFFFFFFFFFFF
310
FFFFFFFFFFFFFFFFFFFFFFFFFFFFFFFFFFFFFFFFFFFFFFFFFFFFFFFFFFFFFFFF
310
F000FFFFFFFFFFFFFFFFFFFFFFFFFFFFFFFFFFFFFFFFFFFFFFFFFFFFFFFFFFFF
310
FFFFFFFFFFFFFFFFFFFFFFFFFFFFFFFFFFFFFFFFFFFFFFFFFFFFFFFFFFFFFFFF
310
FFFFFFFFFFFFFFFFFFFFFFFFFFFFFFFFFFFFFFFFFFFFFFFFF000FFFFFFFFFFFF
310
FFFFFFFFFFFFFFFFFFFFFFFFFFFFFFFFFFFFFFFFFFFFFFFFFFFFFFFFFFFFFFFF
310
FFFFFFFFFFFFFFFFFFFFFFFFFFFFFFFFFFFFFFFFFFFFFFFFFFFFFFFFFFFFFFFF
310
FFFFFFFFFFFFFFFFFFFFFFFFFFFFFFFFF000FFFFFFFFFFFFFFFFFFFFFFFFFFFF
310
FFFFFFFFFFFFFFFFFFFFFFFFFFFFFFFFFFFFFFFFFFFFFFFFFFFFFFFFFFFFFFFF
310
FFFFFFFFFFFFFFFFFFFFFFFFFFFFFFFFFFFFFFFFFFFFFFFFFFFFFFFFFFFFFFFF
310
FFFFFFFFFFFFFFFFF000FFFFFFFFFFFFFFFFFFFFFFFFFFFFFFFFFFFFFFFFFFFF
310
FFFFFFFFFFFFFFFFFFFFFFFFFFFFFFFFFFFFFFFFFFFFFFFFFFFFFFFFFFFFFFFF
310
FFFFFFFFFFFFFFFFFFFFFFFFFFFFFFFFFFFFFFFFFFFFFFFFFFFFFFFFFFFFFFFF
310
F000FFFFFFFFFFFFFFFFFFFFFFFFFFFFFFFFFFFFFFFFFFFFFFFFFFFFFFFFFFFF
310
FFFFFFFFFFFFFFFFFFFFFFFFFFFFFFFFFFFFFFFFFFFFFFFFFFFFFFFFFFFFFFFF
310
FFFFFFFFFFFFFFFFFFFFFFFFFFFFFFFFFFFFFFFFFFFFFFFFF000FFFFFFFFFFFF
310
FFFFFFFFFFFFFFFFFFFFFFFFFFFFFFFFFFFFFFFFFFFFFFFFFFFFFFFFFFFFFFFF
310
FFFFFFFFFFFFFFFFFFFFFFFFFFFFFFFFFFFFFFFFFFFFFFFFFFFFFFFFFFFFFFFF
310
FFFFFFFFFFFFFFFFFFFFFFFFFFFFFFFFF000FFFFFFFFFFFFFFFFFFFFFFFFFFFF
310
FFFFFFFFFFFFFFFFFFFFFFFFFFFFFFFFFFFFFFFFFFFFFFFFFFFFFFFFFFFFFFFF
310
FFFFFFFFFFFFFFFFFFFFFFFFFFFFFFFFFFFFFFFFFFFFFFFFFFFFFFFFFFFFFFFF
310
FFFFFFFFFFFFFFFFF000FFFFFFFFFFFFFFFFFFFFFFFFFFFFFFFFFFFFFFFFFFFF
310
FFFFFFFFFFFFFFFFFFFFFFFFFFFFFFFFFFFFFFFFFFFFFFFFFFFFFFFFFFFFFFFF
310
FFFFFFFFFFFFFFFFFFFFFFFFFFFFFFFFFFFFFFFFFFFFFFFFFFFFFFFFFFFFFFFF
310
F000FFFFFFFFFFFFFFFFFFFFFFFFFFFFFFFFFFFFFFFFFFFFFFFFFFFFFFFFFFFF
310
FFFFFFFFFFFFFFFFFFFFFFFFFFFFFFFFFFFFFFFFFFFFFFFFFFFFFFFFFFFFFFFF
310
FFFFFFFFFFFFFFFFFFFFFFFFFFFFFFFFFFFFFFFFFFFFFFFFF000FFFFFFFFFFFF
310
FFFFFFFFFFFFFFFFFFFFFFFFFFFFFFFFFFFFFFFFFFFFFFFFFFFFFFFFFFFFFFFF
310
FFFFFFFFFFFFFFFFFFFFFFFFFFFFFFFFFFFFFFFFFFFFFFFFFFFFFFFFFFFFFFFF
310
FFFFFFFFFFFFFFFFFFFFFFFFFFFFFFFFF000FFFFFFFFFFFFFFFFFFFFFFFFFFFF
310
FFFFFFFFFFFFFFFFFFFFFFFFFFFFFFFFFFFFFFFFFFFFFFFFFFFFFFFFFFFFFFFF
310
FFFFFFFFFFFFFFFFFFFFFFFFFFFFFFFFFFFFFFFFFFFFFFFFFFFFFFFFFFFFFFFF
310
FFFFFFFFFFFFFFFFF000FFFFFFFFFFFFFFFFFFFFFFFFFFFFFFFFFFFFFFFFFFFF
310
FFFFFFFFFFFFFFFFFFFFFFFFFFFFFFFFFFFFFFFFFFFFFFFFFFFFFFFFFFFFFFFF
310
FFFFFFFFFFFFFFFFFFFFFFFFFFFFFFFFFFFFFFFFFFFFFFFFFFFFFFFFFFFFFFFF
310
F000FFFFFFFFFFFFFFFFFFFFFFFFFFFFFFFFFFFFFFFFFFFFFFFFFFFFFFFFFFFF
310
FFFFFFFFFFFFFFFFFFFFFFFFFFFFFFFFFFFFFFFFFFFFFFFFFFFFFFFFFFFFFFFF
310
FFFFFFFFFFFFFFFFFFFFFFFFFFFFFFFFFFFFFFFFFFFFFFFFF000FFFFFFFFFFFF
310
FFFFFFFFFFFFFFFFFFFFFFFFFFFFFFFFFFFFFFFFFFFFFFFFFFFFFFFFFFFFFFFF
310
FFFFFFFFFFFFFFFFFFFFFFFFFFFFFFFFFFFFFFFFFFFFFFFFFFFFFFFFFFFFFFFF
310
FFFFFFFFFFFFFFFFFFFFFFFFFFFFFFFFF000FFFFFFFFFFFFFFFFFFFFFFFFFFFF
310
FFFFFFFFFFFFFFFFFFFFFFFFFFFFFFFFFFFFFFFFFFFFFFFFFFFFFFFFFFFFFFFF
310
FFFFFFFFFFFFFFFFFFFFFFFFFFFFFFFFFFFFFFFFFFFFFFFFFFFFFFFFFFFFFFFF
310
FFFFFFFFFFFFFFFFF000FFFFFFFFFFFFFFFFFFFFFFFFFFFFFFFFFFFFFFFFFFFF
310
FFFFFFFFFFFFFFFFFFFFFFFFFFFFFFFFFFFFFFFFFFFFFFFFFFFFFFFFFFFFFFFF
310
FFFFFFFFFFFFFFFFFFFFFFFFFFFFFFFFFFFFFFFFFFFFFFFFFFFFFFFFFFFFFFFF
310
F000FFFFFFFFFFFFFFFFFFFFFFFFFFFFFFFFFFFFFFFFFFFFFFFFFFFFFFFFFFFF
310
FFFFFFFFFFFFFFFFFFFFFFFFFFFFFFFFFFFFFFFFFFFFFFFFFFFFFFFFFFFFFFFF
310
FFFFFFFFFFFFFFFFFFFFFFFFFFFFFFFFFFFFFFFFFFFFFFFFF000FFFFFFFFFFFF
310
FFFFFFFFFFFFFFFFFFFFFFFFFFFFFFFFFFFFFFFFFFFFFFFFFFFFFFFFFFFFFFFF
310
FFFFFFFFFFFFFFFFFFFFFFFFFFFFFFFFFFFFFFFFFFFFFFFFFFFFFFFFFFFFFFFF
310
FFFFFFFFFFFFFFFFFFFFFFFFFFFFFFFFF000FFFFFFFFFFFFFFFFFFFFFFFFFFFF
310
FFFFFFFFFFFFFFFFFFFFFFFFFFFFFFFFFFFFFFFFFFFFFFFFFFFFFFFFFFFFFFFF
310
FFFFFFFFFFFFFFFFFFFFFFFFFFFFFFFFFFFFFFFFFFFFFFFFFFFFFFFFFFFFFFFF
310
FFFFFFFFFFFFFFFFF000FFFFFFFFFFFFFFFFFFFFFFFFFFFFFFFFFFFFFFFFFFFF
310
FFFFFFFFFFFFFFFFFFFFFFFFFFFFFFFFFFFFFFFFFFFFFFFFFFFFFFFFFFFFFFFF
310
FFFFFFFFFFFFFFFFFFFFFFFFFFFFFFFFFFFFFFFFFFFFFFFFFFFFFFFFFFFFFFFF
310
F000FFFFFFFFFFFFFFFFFFFFFFFFFFFFFFFFFFFFFFFFFFFFFFFFFFFFFFFFFFFF
310
FFFFFFFFFFFFFFFFFFFFFFFFFFFFFFFFFFFFFFFFFFFFFFFFFFFFFFFFFFFFFFFF
310
FFFFFFFFFFFFFFFFFFFFFFFFFFFFFFFFFFFFFFFFFFFFFFFFF000FFFFFFFFFFFF
310
FFFFFFFFFFFFFFFFFFFFFFFFFFFFFFFFFFFFFFFFFFFFFFFFFFFFFFFFFFFFFFFF
310
FFFFFFFFFFFFFFFFFFFFFFFFFFFFFFFFFFFFFFFFFFFFFFFFFFFFFFFFFFFFFFFF
310
FFFFFFFFFFFFFFFFFFFFFFFFFFFFFFFFF0000000000000000000000000000000
310
0000000000000000000000000000000000000000000000000000000000000000
310
0000000000000000000000000000000000000000000000000000000000000000
310
0000000000000000000000000000000000000000000000000000000000000000
310
0000000000000000000000000000000000000000000000000000000000000000
310
0000000000000000000000000000000000000000000000000000000000000000
310
0000000000000000000000000000000000000000000000000000000000000000
310
0000000000000000000000000000000000000000000000000000000000000000
310
0000000000000000000000000000000000000000000000000000000000000000
310
0000000000000000000000000000000000000000000000000000000000000000
310
0000000000000000000000000000000000000000000000000000000000000000
310
0000000000000000000000000000000000000000000000000000000000000000
310
0000000000000000000000000000000000000000000000000000000000000000
310
0000000000000000000000000000000000000000000000000000000000000000
310
0000000000000000000000000000000000000000000000000000000000000000
310
0000000000000000000000000000000000000000000000000000000000000000
  1
OLE
  0
ENDSEC
  0
SECTION
  2
OBJECTS
  0
DICTIONARY
  5
C
330
0
100
AcDbDictionary
281
     1
  3
ACAD_DETAILVIEWSTYLE
350
32F
  3
ACAD_GROUP
350
D
  3
ACAD_LAYOUT
350
1A
  3
ACAD_MATERIAL
350
43
  3
ACAD_MLEADERSTYLE
350
6B
  3
ACAD_MLINESTYLE
350
17
  3
ACAD_PLOTSETTINGS
350
19
  3
ACAD_PLOTSTYLENAME
350
E
  3
ACAD_SCALELIST
350
47
  3
ACAD_SECTIONVIEWSTYLE
350
330
  3
ACAD_TABLESTYLE
350
69
  3
ACAD_VISUALSTYLE
350
2A
  3
ACDB_RECOMPOSE_DATA
350
32C
  3
AcDbVariableDictionary
350
328
  0
SUN
  5
6D
330
29
100
AcDbSun
 90
        1
290
     0
 63
     7
421
 16777215
 40
1.0
291
     1
 91
  2455826
 92
 54000000
292
     0
 70
     2
 71
   256
280
     1
  0
DICTIONARY
  5
32F
102
{ACAD_REACTORS
330
C
102
}
330
C
100
AcDbDictionary
281
     1
  0
DICTIONARY
  5
D
102
{ACAD_REACTORS
330
C
102
}
330
C
100
AcDbDictionary
281
     1
  0
DICTIONARY
  5
1A
102
{ACAD_REACTORS
330
C
102
}
330
C
100
AcDbDictionary
281
     1
  3
Layout1
350
1E
  3
Layout2
350
26
  3
Model
350
22
  0
DICTIONARY
  5
43
102
{ACAD_REACTORS
330
C
102
}
330
C
100
AcDbDictionary
281
     1
  3
ByBlock
350
45
  3
ByLayer
350
44
  3
Global
350
46
  0
DICTIONARY
  5
6B
102
{ACAD_REACTORS
330
C
102
}
330
C
100
AcDbDictionary
281
     1
  3
Standard
350
6C
  0
DICTIONARY
  5
17
102
{ACAD_REACTORS
330
C
102
}
330
C
100
AcDbDictionary
281
     1
  3
Standard
350
18
  0
DICTIONARY
  5
19
102
{ACAD_REACTORS
330
C
102
}
330
C
100
AcDbDictionary
281
     1
  0
ACDBDICTIONARYWDFLT
  5
E
102
{ACAD_REACTORS
330
C
102
}
330
C
100
AcDbDictionary
281
     1
  3
Normal
350
F
100
AcDbDictionaryWithDefault
340
F
  0
DICTIONARY
  5
47
102
{ACAD_REACTORS
330
C
102
}
330
C
100
AcDbDictionary
281
     1
  3
A0
350
48
  3
A1
350
49
  3
A2
350
4A
  3
A3
350
4B
  3
A4
350
4C
  3
A5
350
4D
  3
A6
350
4E
  3
A7
350
4F
  3
A8
350
50
  3
A9
350
51
  3
B0
350
52
  3
B1
350
53
  3
B2
350
54
  3
B3
350
55
  3
B4
350
56
  3
B5
350
57
  3
B6
350
58
  3
B7
350
59
  3
B8
350
5A
  3
B9
350
5B
  3
C0
350
5C
  3
C1
350
5D
  3
C2
350
5E
  3
C3
350
5F
  3
C4
350
60
  3
C5
350
61
  3
C6
350
62
  3
C7
350
63
  3
C8
350
64
  3
C9
350
65
  3
D0
350
66
  3
D1
350
67
  3
D2
350
68
  0
DICTIONARY
  5
330
102
{ACAD_REACTORS
330
C
102
}
330
C
100
AcDbDictionary
281
     1
  0
DICTIONARY
  5
69
102
{ACAD_REACTORS
330
C
102
}
330
C
100
AcDbDictionary
281
     1
  3
Standard
350
6A
  0
DICTIONARY
  5
2A
102
{ACAD_REACTORS
330
C
102
}
330
C
100
AcDbDictionary
281
     1
  3
2dWireframe
350
2F
  3
Basic
350
32
  3
Brighten
350
36
  3
ColorChange
350
3A
  3
Conceptual
350
34
  3
Dim
350
35
  3
EdgeColorOff
350
3D
  3
Facepattern
350
39
  3
Flat
350
2B
  3
FlatWithEdges
350
2C
  3
Gouraud
350
2D
  3
GouraudWithEdges
350
2E
  3
Hidden
350
31
  3
JitterOff
350
3B
  3
Linepattern
350
38
  3
OverhangOff
350
3C
  3
Realistic
350
33
  3
Shaded
350
42
  3
Shaded with edges
350
41
  3
Shades of Gray
350
3E
  3
Sketchy
350
3F
  3
Thicken
350
37
  3
Wireframe
350
30
  3
X-Ray
350
40
  0
XRECORD
  5
32C
102
{ACAD_REACTORS
330
C
102
}
330
C
100
AcDbXrecord
280
     1
 90
        1
330
6A
  0
DICTIONARY
  5
328
102
{ACAD_REACTORS
330
C
102
}
330
C
100
AcDbDictionary
281
     1
  3
CANNOSCALE
350
329
  3
CMLEADERSTYLE
350
32E
  3
CTABLESTYLE
350
32D
  0
LAYOUT
  5
1E
102
{ACAD_REACTORS
330
1A
102
}
330
1A
100
AcDbPlotSettings
  1

  2
none_device
  4

  6

 40
0.0
 41
0.0
 42
0.0
 43
0.0
 44
0.0
 45
0.0
 46
0.0
 47
0.0
 48
0.0
 49
0.0
140
0.0
141
0.0
142
1.0
143
1.0
 70
   688
 72
     1
 73
     0
 74
     5
  7

 75
    16
 76
     0
 77
     2
 78
   300
147
1.0
148
0.0
149
0.0
100
AcDbLayout
  1
Layout1
 70
     1
 71
     1
 10
0.0
 20
0.0
 11
420.0
 21
297.0
 12
0.0
 22
0.0
 32
0.0
 14
1.0000000000E+20
 24
1.0000000000E+20
 34
1.0000000000E+20
 15
-1.0000000000E+20
 25
-1.0000000000E+20
 35
-1.0000000000E+20
146
0.0
 13
0.0
 23
0.0
 33
0.0
 16
1.0
 26
0.0
 36
0.0
 17
0.0
 27
1.0
 37
0.0
 76
     0
330
1B
  0
LAYOUT
  5
26
102
{ACAD_REACTORS
330
1A
102
}
330
1A
100
AcDbPlotSettings
  1

  2
none_device
  4

  6

 40
0.0
 41
0.0
 42
0.0
 43
0.0
 44
0.0
 45
0.0
 46
0.0
 47
0.0
 48
0.0
 49
0.0
140
0.0
141
0.0
142
1.0
143
1.0
 70
   688
 72
     1
 73
     0
 74
     5
  7

 75
    16
 76
     0
 77
     2
 78
   300
147
1.0
148
0.0
149
0.0
100
AcDbLayout
  1
Layout2
 70
     1
 71
     2
 10
0.0
 20
0.0
 11
0.0
 21
0.0
 12
0.0
 22
0.0
 32
0.0
 14
0.0
 24
0.0
 34
0.0
 15
0.0
 25
0.0
 35
0.0
146
0.0
 13
0.0
 23
0.0
 33
0.0
 16
1.0
 26
0.0
 36
0.0
 17
0.0
 27
1.0
 37
0.0
 76
     0
330
23
  0
LAYOUT
  5
22
102
{ACAD_REACTORS
330
1A
102
}
330
1A
100
AcDbPlotSettings
  1

  2
none_device
  4
Letter_(8.50_x_11.00_Inches)
  6

 40
6.35
 41
6.35
 42
6.35000508
 43
6.35000508
 44
215.9
 45
279.4
 46
0.0
 47
0.0
 48
0.0
 49
0.0
140
0.0
141
0.0
142
1.0
143
1.0
 70
  1712
 72
     1
 73
     0
 74
     0
  7

 75
     0
 76
     0
 77
     2
 78
   300
147
1.0
148
0.0
149
0.0
100
AcDbLayout
  1
Model
 70
     1
 71
     0
 10
0.0
 20
0.0
 11
297.0
 21
210.0
 12
0.0
 22
0.0
 32
0.0
 14
0.0
 24
0.0
 34
0.0
 15
297.0
 25
210.0
 35
0.0
146
0.0
 13
0.0
 23
0.0
 33
0.0
 16
1.0
 26
0.0
 36
0.0
 17
0.0
 27
1.0
 37
0.0
 76
     0
330
1F
331
29
  0
MATERIAL
  5
45
102
{ACAD_REACTORS
330
43
102
}
330
43
100
AcDbMaterial
  1
ByBlock
 72
     1
 94
      127
  0
MATERIAL
  5
44
102
{ACAD_REACTORS
330
43
102
}
330
43
100
AcDbMaterial
  1
ByLayer
 72
     1
 94
      127
  0
MATERIAL
  5
46
102
{ACAD_REACTORS
330
43
102
}
330
43
100
AcDbMaterial
  1
Global
 72
     1
 94
      127
  0
MLEADERSTYLE
  5
6C
102
{ACAD_REACTORS
330
6B
102
}
330
6B
100
AcDbMLeaderStyle
179
     2
170
     2
171
     1
172
     0
 90
        2
 40
0.0
 41
0.0
173
     1
 91
-1056964608
340
14
 92
       -2
290
     1
 42
2.0
291
     1
 43
8.0
  3
Standard
341
0
 44
4.0
300

342
11
174
     1
178
     6
175
     1
176
     0
 93
-1056964608
 45
4.0
292
     0
297
     0
 46
4.0
343
0
 94
-1056964608
 47
1.0
 49
1.0
140
1.0
293
     1
141
0.0
294
     1
177
     0
142
1.0
295
     0
296
     0
143
3.75
271
     0
272
     9
273
     9
298
     0
  0
MLINESTYLE
  5
18
102
{ACAD_REACTORS
330
17
102
}
330
17
100
AcDbMlineStyle
  2
Standard
 70
     0
  3

 62
   256
 51
90.0
 52
90.0
 71
     2
 49
0.5
 62
   256
  6
BYLAYER
 49
-0.5
 62
   256
  6
BYLAYER
  0
ACDBPLACEHOLDER
  5
F
102
{ACAD_REACTORS
330
E
102
}
330
E
  0
SCALE
  5
48
102
{ACAD_REACTORS
330
47
102
}
330
47
100
AcDbScale
 70
     0
300
1:1
140
1.0
141
1.0
290
     1
  0
SCALE
  5
49
102
{ACAD_REACTORS
330
47
102
}
330
47
100
AcDbScale
 70
     0
300
1:2
140
1.0
141
2.0
290
     0
  0
SCALE
  5
4A
102
{ACAD_REACTORS
330
47
102
}
330
47
100
AcDbScale
 70
     0
300
1:4
140
1.0
141
4.0
290
     0
  0
SCALE
  5
4B
102
{ACAD_REACTORS
330
47
102
}
330
47
100
AcDbScale
 70
     0
300
1:5
140
1.0
141
5.0
290
     0
  0
SCALE
  5
4C
102
{ACAD_REACTORS
330
47
102
}
330
47
100
AcDbScale
 70
     0
300
1:8
140
1.0
141
8.0
290
     0
  0
SCALE
  5
4D
102
{ACAD_REACTORS
330
47
102
}
330
47
100
AcDbScale
 70
     0
300
1:10
140
1.0
141
10.0
290
     0
  0
SCALE
  5
4E
102
{ACAD_REACTORS
330
47
102
}
330
47
100
AcDbScale
 70
     0
300
1:16
140
1.0
141
16.0
290
     0
  0
SCALE
  5
4F
102
{ACAD_REACTORS
330
47
102
}
330
47
100
AcDbScale
 70
     0
300
1:20
140
1.0
141
20.0
290
     0
  0
SCALE
  5
50
102
{ACAD_REACTORS
330
47
102
}
330
47
100
AcDbScale
 70
     0
300
1:30
140
1.0
141
30.0
290
     0
  0
SCALE
  5
51
102
{ACAD_REACTORS
330
47
102
}
330
47
100
AcDbScale
 70
     0
300
1:40
140
1.0
141
40.0
290
     0
  0
SCALE
  5
52
102
{ACAD_REACTORS
330
47
102
}
330
47
100
AcDbScale
 70
     0
300
1:50
140
1.0
141
50.0
290
     0
  0
SCALE
  5
53
102
{ACAD_REACTORS
330
47
102
}
330
47
100
AcDbScale
 70
     0
300
1:100
140
1.0
141
100.0
290
     0
  0
SCALE
  5
54
102
{ACAD_REACTORS
330
47
102
}
330
47
100
AcDbScale
 70
     0
300
2:1
140
2.0
141
1.0
290
     0
  0
SCALE
  5
55
102
{ACAD_REACTORS
330
47
102
}
330
47
100
AcDbScale
 70
     0
300
4:1
140
4.0
141
1.0
290
     0
  0
SCALE
  5
56
102
{ACAD_REACTORS
330
47
102
}
330
47
100
AcDbScale
 70
     0
300
8:1
140
8.0
141
1.0
290
     0
  0
SCALE
  5
57
102
{ACAD_REACTORS
330
47
102
}
330
47
100
AcDbScale
 70
     0
300
10:1
140
10.0
141
1.0
290
     0
  0
SCALE
  5
58
102
{ACAD_REACTORS
330
47
102
}
330
47
100
AcDbScale
 70
     0
300
100:1
140
100.0
141
1.0
290
     0
  0
SCALE
  5
59
102
{ACAD_REACTORS
330
47
102
}
330
47
100
AcDbScale
 70
     0
300
1/128" = 1'-0"
140
0.0078125
141
12.0
290
     0
  0
SCALE
  5
5A
102
{ACAD_REACTORS
330
47
102
}
330
47
100
AcDbScale
 70
     0
300
1/64" = 1'-0"
140
0.015625
141
12.0
290
     0
  0
SCALE
  5
5B
102
{ACAD_REACTORS
330
47
102
}
330
47
100
AcDbScale
 70
     0
300
1/32" = 1'-0"
140
0.03125
141
12.0
290
     0
  0
SCALE
  5
5C
102
{ACAD_REACTORS
330
47
102
}
330
47
100
AcDbScale
 70
     0
300
1/16" = 1'-0"
140
0.0625
141
12.0
290
     0
  0
SCALE
  5
5D
102
{ACAD_REACTORS
330
47
102
}
330
47
100
AcDbScale
 70
     0
300
3/32" = 1'-0"
140
0.09375
141
12.0
290
     0
  0
SCALE
  5
5E
102
{ACAD_REACTORS
330
47
102
}
330
47
100
AcDbScale
 70
     0
300
1/8" = 1'-0"
140
0.125
141
12.0
290
     0
  0
SCALE
  5
5F
102
{ACAD_REACTORS
330
47
102
}
330
47
100
AcDbScale
 70
     0
300
3/16" = 1'-0"
140
0.1875
141
12.0
290
     0
  0
SCALE
  5
60
102
{ACAD_REACTORS
330
47
102
}
330
47
100
AcDbScale
 70
     0
300
1/4" = 1'-0"
140
0.25
141
12.0
290
     0
  0
SCALE
  5
61
102
{ACAD_REACTORS
330
47
102
}
330
47
100
AcDbScale
 70
     0
300
3/8" = 1'-0"
140
0.375
141
12.0
290
     0
  0
SCALE
  5
62
102
{ACAD_REACTORS
330
47
102
}
330
47
100
AcDbScale
 70
     0
300
1/2" = 1'-0"
140
0.5
141
12.0
290
     0
  0
SCALE
  5
63
102
{ACAD_REACTORS
330
47
102
}
330
47
100
AcDbScale
 70
     0
300
3/4" = 1'-0"
140
0.75
141
12.0
290
     0
  0
SCALE
  5
64
102
{ACAD_REACTORS
330
47
102
}
330
47
100
AcDbScale
 70
     0
300
1" = 1'-0"
140
1.0
141
12.0
290
     0
  0
SCALE
  5
65
102
{ACAD_REACTORS
330
47
102
}
330
47
100
AcDbScale
 70
     0
300
1-1/2" = 1'-0"
140
1.5
141
12.0
290
     0
  0
SCALE
  5
66
102
{ACAD_REACTORS
330
47
102
}
330
47
100
AcDbScale
 70
     0
300
3" = 1'-0"
140
3.0
141
12.0
290
     0
  0
SCALE
  5
67
102
{ACAD_REACTORS
330
47
102
}
330
47
100
AcDbScale
 70
     0
300
6" = 1'-0"
140
6.0
141
12.0
290
     0
  0
SCALE
  5
68
102
{ACAD_REACTORS
330
47
102
}
330
47
100
AcDbScale
 70
     0
300
1'-0" = 1'-0"
140
12.0
141
12.0
290
     0
  0
TABLESTYLE
  5
6A
102
{ACAD_REACTORS
330
69
102
}
102
{ACAD_XDICTIONARY
360
32A
102
}
330
69
100
AcDbTableStyle
  3
Standard
 70
     0
 71
     0
 40
0.06
 41
0.06
280
     0
281
     0
  7
STANDARD
140
4.5
170
     2
 62
     0
 63
   257
283
     0
 90
        4
 91
        0
  1

274
    -2
284
     1
 64
     0
275
    -2
285
     1
 65
     0
276
    -2
286
     1
 66
     0
277
    -2
287
     1
 67
     0
278
    -2
288
     1
 68
     0
279
    -2
289
     1
 69
     0
  7
STANDARD
140
6.0
170
     5
 62
     0
 63
   257
283
     0
 90
        4
 91
        0
  1

274
    -2
284
     1
 64
     0
275
    -2
285
     1
 65
     0
276
    -2
286
     1
 66
     0
277
    -2
287
     1
 67
     0
278
    -2
288
     1
 68
     0
279
    -2
289
     1
 69
     0
  7
STANDARD
140
4.5
170
     5
 62
     0
 63
   257
283
     0
 90
        4
 91
        0
  1

274
    -2
284
     1
 64
     0
275
    -2
285
     1
 65
     0
276
    -2
286
     1
 66
     0
277
    -2
287
     1
 67
     0
278
    -2
288
     1
 68
     0
279
    -2
289
     1
 69
     0
  0
VISUALSTYLE
  5
2F
102
{ACAD_REACTORS
330
2A
102
}
330
2A
100
AcDbVisualStyle
  2
2dWireframe
 70
     4
177
     3
291
     0
 70
    58
 90
        0
176
     1
 90
        2
176
     1
 90
        0
176
     1
 90
        0
176
     1
 40
0.6
176
     1
 40
30.0
176
     1
 62
     7
420
 16777215
176
     1
 90
        1
176
     1
 90
        4
176
     1
 62
     7
176
     1
 62
   257
176
     1
 90
        1
176
     1
 90
        1
176
     1
 40
1.0
176
     1
 90
        0
176
     1
 62
   257
176
     1
 40
1.0
176
     1
 90
        1
176
     1
 90
        6
176
     1
 90
        2
176
     1
 62
     7
176
     1
 90
        5
176
     1
 90
        0
176
     1
 90
        0
176
     1
290
     0
176
     1
 90
        1
176
     1
 40
0.0
176
     1
 90
        0
176
     1
290
     1
176
     1
290
     1
176
     1
290
     0
176
     1
290
     0
176
     1
290
     0
176
     1
290
     0
176
     1
290
     0
176
     1
290
     0
176
     1
290
     0
176
     1
 90
       50
176
     1
 40
0.0
176
     1
 40
1.0
176
     1
 90
        0
176
     1
 62
    18
420
        0
176
     1
 90
       50
176
     1
 90
        3
176
     1
 62
     5
420
      255
176
     1
290
     0
176
     1
 90
       50
176
     1
 90
       50
176
     1
 90
       50
176
     1
290
     0
176
     1
 90
       50
176
     1
 62
   256
176
     0
 40
1.0
176
     0
 90
        2
176
     1
  1
strokes_ogs.tif
176
     1
290
     0
176
     1
 40
1.0
176
     1
 40
1.0
176
     1
  0
VISUALSTYLE
  5
32
102
{ACAD_REACTORS
330
2A
102
}
330
2A
100
AcDbVisualStyle
  2
Basic
 70
     7
177
     3
291
     1
 70
    58
 90
        1
176
     1
 90
        0
176
     1
 90
        1
176
     1
 90
        0
176
     1
 40
0.6
176
     1
 40
30.0
176
     1
 62
     7
420
 16777215
176
     1
 90
        0
176
     1
 90
        4
176
     1
 62
     7
176
     1
 62
   257
176
     1
 90
        1
176
     1
 90
        1
176
     1
 40
1.0
176
     1
 90
        8
176
     1
 62
     7
176
     1
 40
1.0
176
     1
 90
        1
176
     1
 90
        6
176
     1
 90
        2
176
     1
 62
     7
176
     1
 90
        5
176
     1
 90
        0
176
     1
 90
        0
176
     1
290
     0
176
     1
 90
        1
176
     1
 40
0.0
176
     1
 90
        0
176
     1
290
     0
176
     1
290
     1
176
     1
290
     1
176
     1
290
     0
176
     1
290
     0
176
     1
290
     0
176
     1
290
     0
176
     1
290
     0
176
     1
290
     0
176
     1
 90
       50
176
     1
 40
0.0
176
     1
 40
1.0
176
     1
 90
        0
176
     1
 62
    18
420
        0
176
     1
 90
       50
176
     1
 90
        3
176
     1
 62
     5
420
      255
176
     1
290
     0
176
     1
 90
       50
176
     1
 90
       50
176
     1
 90
       50
176
     1
290
     0
176
     1
 90
       50
176
     1
 62
   256
176
     0
 40
1.0
176
     0
 90
        2
176
     1
  1
strokes_ogs.tif
176
     1
290
     0
176
     1
 40
1.0
176
     1
 40
1.0
176
     1
  0
VISUALSTYLE
  5
36
102
{ACAD_REACTORS
330
2A
102
}
330
2A
100
AcDbVisualStyle
  2
Brighten
 70
    12
177
     3
291
     1
 70
    58
 90
        2
176
     1
 90
        2
176
     1
 90
        0
176
     1
 90
        0
176
     1
 40
0.6
176
     1
 40
30.0
176
     1
 62
     7
420
 16777215
176
     1
 90
        1
176
     1
 90
        4
176
     1
 62
     7
176
     1
 62
   257
176
     1
 90
        1
176
     1
 90
        1
176
     1
 40
1.0
176
     1
 90
        8
176
     1
 62
     7
176
     1
 40
1.0
176
     1
 90
        1
176
     1
 90
        6
176
     1
 90
        2
176
     1
 62
     7
176
     1
 90
        5
176
     1
 90
        0
176
     1
 90
        0
176
     1
290
     0
176
     1
 90
        1
176
     1
 40
50.0
176
     1
 90
        0
176
     1
290
     0
176
     1
290
     1
176
     1
290
     1
176
     1
290
     0
176
     1
290
     0
176
     1
290
     0
176
     1
290
     0
176
     1
290
     0
176
     1
290
     0
176
     1
 90
       50
176
     1
 40
0.0
176
     1
 40
1.0
176
     1
 90
        0
176
     1
 62
    18
420
        0
176
     1
 90
       50
176
     1
 90
        3
176
     1
 62
     5
420
      255
176
     1
290
     0
176
     1
 90
       50
176
     1
 90
       50
176
     1
 90
       50
176
     1
290
     0
176
     1
 90
       50
176
     1
 62
   256
176
     0
 40
1.0
176
     0
 90
        2
176
     1
  1
strokes_ogs.tif
176
     1
290
     0
176
     1
 40
1.0
176
     1
 40
1.0
176
     1
  0
VISUALSTYLE
  5
3A
102
{ACAD_REACTORS
330
2A
102
}
330
2A
100
AcDbVisualStyle
  2
ColorChange
 70
    16
177
     3
291
     1
 70
    58
 90
        2
176
     1
 90
        2
176
     1
 90
        3
176
     1
 90
        0
176
     1
 40
0.6
176
     1
 40
30.0
176
     1
 62
     8
420
  8421504
176
     1
 90
        1
176
     1
 90
        4
176
     1
 62
     7
176
     1
 62
   257
176
     1
 90
        1
176
     1
 90
        1
176
     1
 40
1.0
176
     1
 90
        8
176
     1
 62
     8
420
  8421504
176
     1
 40
1.0
176
     1
 90
        1
176
     1
 90
        6
176
     1
 90
        2
176
     1
 62
     7
176
     1
 90
        5
176
     1
 90
        0
176
     1
 90
        0
176
     1
290
     0
176
     1
 90
        1
176
     1
 40
0.0
176
     1
 90
        0
176
     1
290
     0
176
     1
290
     1
176
     1
290
     1
176
     1
290
     0
176
     1
290
     0
176
     1
290
     0
176
     1
290
     0
176
     1
290
     0
176
     1
290
     0
176
     1
 90
       50
176
     1
 40
0.0
176
     1
 40
1.0
176
     1
 90
        0
176
     1
 62
    18
420
        0
176
     1
 90
       50
176
     1
 90
        3
176
     1
 62
     5
420
      255
176
     1
290
     0
176
     1
 90
       50
176
     1
 90
       50
176
     1
 90
       50
176
     1
290
     0
176
     1
 90
       50
176
     1
 62
   256
176
     0
 40
1.0
176
     0
 90
        2
176
     1
  1
strokes_ogs.tif
176
     1
290
     0
176
     1
 40
1.0
176
     1
 40
1.0
176
     1
  0
VISUALSTYLE
  5
34
102
{ACAD_REACTORS
330
2A
102
}
330
2A
100
AcDbVisualStyle
  2
Conceptual
 70
     9
177
     3
291
     0
 70
    58
 90
        3
176
     1
 90
        2
176
     1
 90
        0
176
     1
 90
        0
176
     1
 40
0.6
176
     1
 40
30.0
176
     1
 62
     7
420
 16777215
176
     1
 90
        2
176
     1
 90
        2
176
     1
 62
     7
176
     1
 62
   257
176
     1
 90
        1
176
     1
 90
        1
176
     1
 40
179.0
176
     1
 90
        8
176
     1
 62
     7
176
     1
 40
1.0
176
     1
 90
        1
176
     1
 90
        6
176
     1
 90
        2
176
     1
 62
     7
176
     1
 90
        3
176
     1
 90
        0
176
     1
 90
        0
176
     1
290
     0
176
     1
 90
        1
176
     1
 40
0.0
176
     1
 90
        0
176
     1
290
     0
176
     1
290
     1
176
     1
290
     1
176
     1
290
     0
176
     1
290
     0
176
     1
290
     0
176
     1
290
     0
176
     1
290
     0
176
     1
290
     0
176
     1
 90
       50
176
     1
 40
0.0
176
     1
 40
1.0
176
     1
 90
        0
176
     1
 62
    18
420
        0
176
     1
 90
       50
176
     1
 90
        3
176
     1
 62
     5
420
      255
176
     1
290
     0
176
     1
 90
       50
176
     1
 90
       50
176
     1
 90
       50
176
     1
290
     0
176
     1
 90
       50
176
     1
 62
   256
176
     0
 40
1.0
176
     0
 90
        2
176
     1
  1
strokes_ogs.tif
176
     1
290
     0
176
     1
 40
1.0
176
     1
 40
1.0
176
     1
  0
VISUALSTYLE
  5
35
102
{ACAD_REACTORS
330
2A
102
}
330
2A
100
AcDbVisualStyle
  2
Dim
 70
    11
177
     3
291
     1
 70
    58
 90
        2
176
     1
 90
        2
176
     1
 90
        0
176
     1
 90
        0
176
     1
 40
0.6
176
     1
 40
30.0
176
     1
 62
     7
420
 16777215
176
     1
 90
        1
176
     1
 90
        4
176
     1
 62
     7
176
     1
 62
   257
176
     1
 90
        1
176
     1
 90
        1
176
     1
 40
1.0
176
     1
 90
        8
176
     1
 62
     7
176
     1
 40
1.0
176
     1
 90
        1
176
     1
 90
        6
176
     1
 90
        2
176
     1
 62
     7
176
     1
 90
        5
176
     1
 90
        0
176
     1
 90
        0
176
     1
290
     0
176
     1
 90
        1
176
     1
 40
-50.0
176
     1
 90
        0
176
     1
290
     0
176
     1
290
     1
176
     1
290
     1
176
     1
290
     0
176
     1
290
     0
176
     1
290
     0
176
     1
290
     0
176
     1
290
     0
176
     1
290
     0
176
     1
 90
       50
176
     1
 40
0.0
176
     1
 40
1.0
176
     1
 90
        0
176
     1
 62
    18
420
        0
176
     1
 90
       50
176
     1
 90
        3
176
     1
 62
     5
420
      255
176
     1
290
     0
176
     1
 90
       50
176
     1
 90
       50
176
     1
 90
       50
176
     1
290
     0
176
     1
 90
       50
176
     1
 62
   256
176
     0
 40
1.0
176
     0
 90
        2
176
     1
  1
strokes_ogs.tif
176
     1
290
     0
176
     1
 40
1.0
176
     1
 40
1.0
176
     1
  0
VISUALSTYLE
  5
3D
102
{ACAD_REACTORS
330
2A
102
}
330
2A
100
AcDbVisualStyle
  2
EdgeColorOff
 70
    22
177
     3
291
     1
 70
    58
 90
        2
176
     0
 90
        2
176
     0
 90
        0
176
     0
 90
        0
176
     0
 40
0.6
176
     0
 40
30.0
176
     0
 62
     7
420
 16777215
176
     0
 90
        1
176
     0
 90
        4
176
     0
 62
     7
176
     0
 62
   257
176
     0
 90
        1
176
     0
 90
        1
176
     0
 40
1.0
176
     0
 90
        8
176
     2
 62
     7
176
     0
 40
1.0
176
     0
 90
        1
176
     0
 90
        6
176
     0
 90
        2
176
     0
 62
     7
176
     0
 90
        5
176
     0
 90
        0
176
     0
 90
        0
176
     0
290
     0
176
     0
 90
        1
176
     0
 40
0.0
176
     0
 90
        0
176
     0
290
     0
176
     0
290
     1
176
     0
290
     1
176
     0
290
     0
176
     0
290
     0
176
     0
290
     0
176
     0
290
     0
176
     0
290
     0
176
     0
290
     0
176
     0
 90
       50
176
     0
 40
0.0
176
     0
 40
1.0
176
     0
 90
        0
176
     0
 62
    18
420
        0
176
     0
 90
       50
176
     0
 90
        3
176
     0
 62
     5
420
      255
176
     0
290
     0
176
     0
 90
       50
176
     0
 90
       50
176
     0
 90
       50
176
     0
290
     0
176
     0
 90
       50
176
     0
 62
   256
176
     0
 40
1.0
176
     0
 90
        2
176
     0
  1
strokes_ogs.tif
176
     0
290
     0
176
     0
 40
1.0
176
     0
 40
1.0
176
     0
  0
VISUALSTYLE
  5
39
102
{ACAD_REACTORS
330
2A
102
}
330
2A
100
AcDbVisualStyle
  2
Facepattern
 70
    15
177
     3
291
     1
 70
    58
 90
        2
176
     1
 90
        2
176
     1
 90
        0
176
     1
 90
        0
176
     1
 40
0.6
176
     1
 40
30.0
176
     1
 62
     7
420
 16777215
176
     1
 90
        1
176
     1
 90
        4
176
     1
 62
     7
176
     1
 62
   257
176
     1
 90
        1
176
     1
 90
        1
176
     1
 40
1.0
176
     1
 90
        8
176
     1
 62
     7
176
     1
 40
1.0
176
     1
 90
        1
176
     1
 90
        6
176
     1
 90
        2
176
     1
 62
     7
176
     1
 90
        5
176
     1
 90
        0
176
     1
 90
        0
176
     1
290
     0
176
     1
 90
        1
176
     1
 40
0.0
176
     1
 90
        0
176
     1
290
     0
176
     1
290
     1
176
     1
290
     1
176
     1
290
     0
176
     1
290
     0
176
     1
290
     0
176
     1
290
     0
176
     1
290
     0
176
     1
290
     0
176
     1
 90
       50
176
     1
 40
0.0
176
     1
 40
1.0
176
     1
 90
        0
176
     1
 62
    18
420
        0
176
     1
 90
       50
176
     1
 90
        3
176
     1
 62
     5
420
      255
176
     1
290
     0
176
     1
 90
       50
176
     1
 90
       50
176
     1
 90
       50
176
     1
290
     0
176
     1
 90
       50
176
     1
 62
   256
176
     0
 40
1.0
176
     0
 90
        2
176
     1
  1
strokes_ogs.tif
176
     1
290
     0
176
     1
 40
1.0
176
     1
 40
1.0
176
     1
  0
VISUALSTYLE
  5
2B
102
{ACAD_REACTORS
330
2A
102
}
330
2A
100
AcDbVisualStyle
  2
Flat
 70
     0
177
     3
291
     1
 70
    58
 90
        2
176
     1
 90
        1
176
     1
 90
        1
176
     1
 90
        2
176
     1
 40
0.6
176
     1
 40
30.0
176
     1
 62
     7
420
 16777215
176
     1
 90
        0
176
     1
 90
        0
176
     1
 62
     7
176
     1
 62
   257
176
     1
 90
        1
176
     1
 90
        1
176
     1
 40
1.0
176
     1
 90
        8
176
     1
 62
     7
176
     1
 40
1.0
176
     1
 90
        1
176
     1
 90
        6
176
     1
 90
        2
176
     1
 62
     7
176
     1
 90
        5
176
     1
 90
        0
176
     1
 90
        0
176
     1
290
     0
176
     1
 90
       13
176
     1
 40
0.0
176
     1
 90
        0
176
     1
290
     0
176
     1
290
     1
176
     1
290
     1
176
     1
290
     0
176
     1
290
     0
176
     1
290
     0
176
     1
290
     0
176
     1
290
     0
176
     1
290
     0
176
     1
 90
       50
176
     1
 40
0.0
176
     1
 40
1.0
176
     1
 90
        0
176
     1
 62
    18
420
        0
176
     1
 90
       50
176
     1
 90
        3
176
     1
 62
     5
420
      255
176
     1
290
     0
176
     1
 90
       50
176
     1
 90
       50
176
     1
 90
       50
176
     1
290
     0
176
     1
 90
       50
176
     1
 62
   256
176
     0
 40
1.0
176
     0
 90
        2
176
     1
  1
strokes_ogs.tif
176
     1
290
     0
176
     1
 40
1.0
176
     1
 40
1.0
176
     1
  0
VISUALSTYLE
  5
2C
102
{ACAD_REACTORS
330
2A
102
}
330
2A
100
AcDbVisualStyle
  2
FlatWithEdges
 70
     1
177
     3
291
     1
 70
    58
 90
        2
176
     1
 90
        1
176
     1
 90
        1
176
     1
 90
        2
176
     1
 40
0.6
176
     1
 40
30.0
176
     1
 62
     7
420
 16777215
176
     1
 90
        1
176
     1
 90
        0
176
     1
 62
     7
176
     1
 62
   257
176
     1
 90
        1
176
     1
 90
        1
176
     1
 40
1.0
176
     1
 90
        0
176
     1
 62
   257
176
     1
 40
1.0
176
     1
 90
        1
176
     1
 90
        6
176
     1
 90
        2
176
     1
 62
     7
176
     1
 90
        5
176
     1
 90
        0
176
     1
 90
        0
176
     1
290
     0
176
     1
 90
       13
176
     1
 40
0.0
176
     1
 90
        0
176
     1
290
     0
176
     1
290
     1
176
     1
290
     1
176
     1
290
     0
176
     1
290
     0
176
     1
290
     0
176
     1
290
     0
176
     1
290
     0
176
     1
290
     0
176
     1
 90
       50
176
     1
 40
0.0
176
     1
 40
1.0
176
     1
 90
        0
176
     1
 62
    18
420
        0
176
     1
 90
       50
176
     1
 90
        3
176
     1
 62
     5
420
      255
176
     1
290
     0
176
     1
 90
       50
176
     1
 90
       50
176
     1
 90
       50
176
     1
290
     0
176
     1
 90
       50
176
     1
 62
   256
176
     0
 40
1.0
176
     0
 90
        2
176
     1
  1
strokes_ogs.tif
176
     1
290
     0
176
     1
 40
1.0
176
     1
 40
1.0
176
     1
  0
VISUALSTYLE
  5
2D
102
{ACAD_REACTORS
330
2A
102
}
330
2A
100
AcDbVisualStyle
  2
Gouraud
 70
     2
177
     3
291
     1
 70
    58
 90
        2
176
     1
 90
        2
176
     1
 90
        1
176
     1
 90
        2
176
     1
 40
0.6
176
     1
 40
30.0
176
     1
 62
     7
420
 16777215
176
     1
 90
        0
176
     1
 90
        0
176
     1
 62
     7
176
     1
 62
   257
176
     1
 90
        1
176
     1
 90
        1
176
     1
 40
1.0
176
     1
 90
        0
176
     1
 62
     7
176
     1
 40
1.0
176
     1
 90
        1
176
     1
 90
        6
176
     1
 90
        2
176
     1
 62
     7
176
     1
 90
        5
176
     1
 90
        0
176
     1
 90
        0
176
     1
290
     0
176
     1
 90
       13
176
     1
 40
0.0
176
     1
 90
        0
176
     1
290
     0
176
     1
290
     1
176
     1
290
     1
176
     1
290
     0
176
     1
290
     0
176
     1
290
     0
176
     1
290
     0
176
     1
290
     0
176
     1
290
     0
176
     1
 90
       50
176
     1
 40
0.0
176
     1
 40
1.0
176
     1
 90
        0
176
     1
 62
    18
420
        0
176
     1
 90
       50
176
     1
 90
        3
176
     1
 62
     5
420
      255
176
     1
290
     0
176
     1
 90
       50
176
     1
 90
       50
176
     1
 90
       50
176
     1
290
     0
176
     1
 90
       50
176
     1
 62
   256
176
     0
 40
1.0
176
     0
 90
        2
176
     1
  1
strokes_ogs.tif
176
     1
290
     0
176
     1
 40
1.0
176
     1
 40
1.0
176
     1
  0
VISUALSTYLE
  5
2E
102
{ACAD_REACTORS
330
2A
102
}
330
2A
100
AcDbVisualStyle
  2
GouraudWithEdges
 70
     3
177
     3
291
     1
 70
    58
 90
        2
176
     1
 90
        2
176
     1
 90
        1
176
     1
 90
        2
176
     1
 40
0.6
176
     1
 40
30.0
176
     1
 62
     7
420
 16777215
176
     1
 90
        1
176
     1
 90
        0
176
     1
 62
     7
176
     1
 62
   257
176
     1
 90
        1
176
     1
 90
        1
176
     1
 40
1.0
176
     1
 90
        0
176
     1
 62
   257
176
     1
 40
1.0
176
     1
 90
        1
176
     1
 90
        6
176
     1
 90
        2
176
     1
 62
     7
176
     1
 90
        5
176
     1
 90
        0
176
     1
 90
        0
176
     1
290
     0
176
     1
 90
       13
176
     1
 40
0.0
176
     1
 90
        0
176
     1
290
     0
176
     1
290
     1
176
     1
290
     1
176
     1
290
     0
176
     1
290
     0
176
     1
290
     0
176
     1
290
     0
176
     1
290
     0
176
     1
290
     0
176
     1
 90
       50
176
     1
 40
0.0
176
     1
 40
1.0
176
     1
 90
        0
176
     1
 62
    18
420
        0
176
     1
 90
       50
176
     1
 90
        3
176
     1
 62
     5
420
      255
176
     1
290
     0
176
     1
 90
       50
176
     1
 90
       50
176
     1
 90
       50
176
     1
290
     0
176
     1
 90
       50
176
     1
 62
   256
176
     0
 40
1.0
176
     0
 90
        2
176
     1
  1
strokes_ogs.tif
176
     1
290
     0
176
     1
 40
1.0
176
     1
 40
1.0
176
     1
  0
VISUALSTYLE
  5
31
102
{ACAD_REACTORS
330
2A
102
}
330
2A
100
AcDbVisualStyle
  2
Hidden
 70
     6
177
     3
291
     0
 70
    58
 90
        1
176
     1
 90
        2
176
     1
 90
        2
176
     1
 90
        0
176
     1
 40
0.6
176
     1
 40
30.0
176
     1
 62
     7
420
 16777215
176
     1
 90
        2
176
     1
 90
        2
176
     1
 62
     7
176
     1
 62
   257
176
     1
 90
        2
176
     1
 90
        1
176
     1
 40
40.0
176
     1
 90
        0
176
     1
 62
   257
176
     1
 40
1.0
176
     1
 90
        1
176
     1
 90
        6
176
     1
 90
        2
176
     1
 62
     7
176
     1
 90
        3
176
     1
 90
        0
176
     1
 90
        0
176
     1
290
     0
176
     1
 90
        1
176
     1
 40
0.0
176
     1
 90
        0
176
     1
290
     0
176
     1
290
     1
176
     1
290
     1
176
     1
290
     0
176
     1
290
     0
176
     1
290
     0
176
     1
290
     0
176
     1
290
     0
176
     1
290
     0
176
     1
 90
       50
176
     1
 40
0.0
176
     1
 40
1.0
176
     1
 90
        0
176
     1
 62
    18
420
        0
176
     1
 90
       50
176
     1
 90
        3
176
     1
 62
     5
420
      255
176
     1
290
     0
176
     1
 90
       50
176
     1
 90
       50
176
     1
 90
       50
176
     1
290
     0
176
     1
 90
       50
176
     1
 62
   256
176
     0
 40
1.0
176
     0
 90
        2
176
     1
  1
strokes_ogs.tif
176
     1
290
     0
176
     1
 40
1.0
176
     1
 40
1.0
176
     1
  0
VISUALSTYLE
  5
3B
102
{ACAD_REACTORS
330
2A
102
}
330
2A
100
AcDbVisualStyle
  2
JitterOff
 70
    20
177
     3
291
     1
 70
    58
 90
        2
176
     0
 90
        2
176
     0
 90
        0
176
     0
 90
        0
176
     0
 40
0.6
176
     0
 40
30.0
176
     0
 62
     7
420
 16777215
176
     0
 90
        1
176
     0
 90
        4
176
     0
 62
     7
176
     0
 62
   257
176
     0
 90
        1
176
     0
 90
        1
176
     0
 40
1.0
176
     0
 90
       10
176
     2
 62
     7
176
     0
 40
1.0
176
     0
 90
        1
176
     0
 90
        6
176
     0
 90
        2
176
     0
 62
     7
176
     0
 90
        5
176
     0
 90
        0
176
     0
 90
        0
176
     0
290
     0
176
     0
 90
        1
176
     0
 40
0.0
176
     0
 90
        0
176
     0
290
     0
176
     0
290
     1
176
     0
290
     1
176
     0
290
     0
176
     0
290
     0
176
     0
290
     0
176
     0
290
     0
176
     0
290
     0
176
     0
290
     0
176
     0
 90
       50
176
     0
 40
0.0
176
     0
 40
1.0
176
     0
 90
        0
176
     0
 62
    18
420
        0
176
     0
 90
       50
176
     0
 90
        3
176
     0
 62
     5
420
      255
176
     0
290
     0
176
     0
 90
       50
176
     0
 90
       50
176
     0
 90
       50
176
     0
290
     0
176
     0
 90
       50
176
     0
 62
   256
176
     0
 40
1.0
176
     0
 90
        2
176
     0
  1
strokes_ogs.tif
176
     0
290
     0
176
     0
 40
1.0
176
     0
 40
1.0
176
     0
  0
VISUALSTYLE
  5
38
102
{ACAD_REACTORS
330
2A
102
}
330
2A
100
AcDbVisualStyle
  2
Linepattern
 70
    14
177
     3
291
     1
 70
    58
 90
        2
176
     1
 90
        2
176
     1
 90
        0
176
     1
 90
        0
176
     1
 40
0.6
176
     1
 40
30.0
176
     1
 62
     7
420
 16777215
176
     1
 90
        1
176
     1
 90
        4
176
     1
 62
     7
176
     1
 62
   257
176
     1
 90
        7
176
     1
 90
        7
176
     1
 40
1.0
176
     1
 90
        8
176
     1
 62
     7
176
     1
 40
1.0
176
     1
 90
        1
176
     1
 90
        6
176
     1
 90
        2
176
     1
 62
     7
176
     1
 90
        5
176
     1
 90
        0
176
     1
 90
        0
176
     1
290
     0
176
     1
 90
        1
176
     1
 40
0.0
176
     1
 90
        0
176
     1
290
     0
176
     1
290
     1
176
     1
290
     1
176
     1
290
     0
176
     1
290
     0
176
     1
290
     0
176
     1
290
     0
176
     1
290
     0
176
     1
290
     0
176
     1
 90
       50
176
     1
 40
0.0
176
     1
 40
1.0
176
     1
 90
        0
176
     1
 62
    18
420
        0
176
     1
 90
       50
176
     1
 90
        3
176
     1
 62
     5
420
      255
176
     1
290
     0
176
     1
 90
       50
176
     1
 90
       50
176
     1
 90
       50
176
     1
290
     0
176
     1
 90
       50
176
     1
 62
   256
176
     0
 40
1.0
176
     0
 90
        2
176
     1
  1
strokes_ogs.tif
176
     1
290
     0
176
     1
 40
1.0
176
     1
 40
1.0
176
     1
  0
VISUALSTYLE
  5
3C
102
{ACAD_REACTORS
330
2A
102
}
330
2A
100
AcDbVisualStyle
  2
OverhangOff
 70
    21
177
     3
291
     1
 70
    58
 90
        2
176
     0
 90
        2
176
     0
 90
        0
176
     0
 90
        0
176
     0
 40
0.6
176
     0
 40
30.0
176
     0
 62
     7
420
 16777215
176
     0
 90
        1
176
     0
 90
        4
176
     0
 62
     7
176
     0
 62
   257
176
     0
 90
        1
176
     0
 90
        1
176
     0
 40
1.0
176
     0
 90
        9
176
     2
 62
     7
176
     0
 40
1.0
176
     0
 90
        1
176
     0
 90
        6
176
     0
 90
        2
176
     0
 62
     7
176
     0
 90
        5
176
     0
 90
        0
176
     0
 90
        0
176
     0
290
     0
176
     0
 90
        1
176
     0
 40
0.0
176
     0
 90
        0
176
     0
290
     0
176
     0
290
     1
176
     0
290
     1
176
     0
290
     0
176
     0
290
     0
176
     0
290
     0
176
     0
290
     0
176
     0
290
     0
176
     0
290
     0
176
     0
 90
       50
176
     0
 40
0.0
176
     0
 40
1.0
176
     0
 90
        0
176
     0
 62
    18
420
        0
176
     0
 90
       50
176
     0
 90
        3
176
     0
 62
     5
420
      255
176
     0
290
     0
176
     0
 90
       50
176
     0
 90
       50
176
     0
 90
       50
176
     0
290
     0
176
     0
 90
       50
176
     0
 62
   256
176
     0
 40
1.0
176
     0
 90
        2
176
     0
  1
strokes_ogs.tif
176
     0
290
     0
176
     0
 40
1.0
176
     0
 40
1.0
176
     0
  0
VISUALSTYLE
  5
33
102
{ACAD_REACTORS
330
2A
102
}
330
2A
100
AcDbVisualStyle
  2
Realistic
 70
     8
177
     3
291
     0
 70
    58
 90
        2
176
     1
 90
        3
176
     1
 90
        0
176
     1
 90
        2
176
     1
 40
0.6
176
     1
 40
30.0
176
     1
 62
     7
420
 16777215
176
     1
 90
        0
176
     1
 90
        0
176
     1
 62
     7
176
     1
 62
   257
176
     1
 90
        1
176
     1
 90
        1
176
     1
 40
1.0
176
     1
 90
        8
176
     1
 62
   257
176
     1
 40
1.0
176
     1
 90
        1
176
     1
 90
        6
176
     1
 90
        2
176
     1
 62
     7
176
     1
 90
        3
176
     1
 90
        0
176
     1
 90
        0
176
     1
290
     0
176
     1
 90
       13
176
     1
 40
0.0
176
     1
 90
        0
176
     1
290
     0
176
     1
290
     1
176
     1
290
     1
176
     1
290
     0
176
     1
290
     0
176
     1
290
     0
176
     1
290
     0
176
     1
290
     0
176
     1
290
     0
176
     1
 90
       50
176
     1
 40
0.0
176
     1
 40
1.0
176
     1
 90
        0
176
     1
 62
    18
420
        0
176
     1
 90
       50
176
     1
 90
        3
176
     1
 62
     5
420
      255
176
     1
290
     0
176
     1
 90
       50
176
     1
 90
       50
176
     1
 90
       50
176
     1
290
     0
176
     1
 90
       50
176
     1
 62
   256
176
     0
 40
1.0
176
     0
 90
        2
176
     1
  1
strokes_ogs.tif
176
     1
290
     0
176
     1
 40
1.0
176
     1
 40
1.0
176
     1
  0
VISUALSTYLE
  5
42
102
{ACAD_REACTORS
330
2A
102
}
330
2A
100
AcDbVisualStyle
  2
Shaded
 70
    27
177
     3
291
     0
 70
    58
 90
        2
176
     1
 90
        2
176
     1
 90
        1
176
     1
 90
        2
176
     1
 40
0.6
176
     1
 40
30.0
176
     1
 62
     7
420
 16777215
176
     1
 90
        0
176
     1
 90
        4
176
     1
 62
     7
176
     1
 62
   257
176
     1
 90
        1
176
     1
 90
        1
176
     1
 40
1.0
176
     1
 90
        8
176
     1
 62
   257
176
     1
 40
1.0
176
     1
 90
        1
176
     1
 90
        6
176
     1
 90
        2
176
     1
 62
     8
420
  7895160
176
     1
 90
        3
176
     1
 90
        0
176
     1
 90
        0
176
     1
290
     0
176
     1
 90
        5
176
     1
 40
0.0
176
     1
 90
        0
176
     1
290
     0
176
     1
290
     1
176
     1
290
     1
176
     1
290
     0
176
     1
290
     0
176
     1
290
     0
176
     1
290
     0
176
     1
290
     0
176
     1
290
     0
176
     1
 90
       50
176
     1
 40
0.0
176
     1
 40
1.0
176
     1
 90
        0
176
     1
 62
    18
420
        0
176
     1
 90
       50
176
     1
 90
        3
176
     1
 62
     5
420
      255
176
     1
290
     0
176
     1
 90
       50
176
     1
 90
       50
176
     1
 90
       50
176
     1
290
     0
176
     1
 90
       50
176
     1
 62
   256
176
     0
 40
1.0
176
     0
 90
        2
176
     1
  1
strokes_ogs.tif
176
     1
290
     0
176
     1
 40
1.0
176
     1
 40
1.0
176
     1
  0
VISUALSTYLE
  5
41
102
{ACAD_REACTORS
330
2A
102
}
330
2A
100
AcDbVisualStyle
  2
Shaded with edges
 70
    26
177
     3
291
     0
 70
    58
 90
        2
176
     1
 90
        2
176
     1
 90
        1
176
     1
 90
        2
176
     1
 40
0.6
176
     1
 40
30.0
176
     1
 62
     7
420
 16777215
176
     1
 90
        1
176
     1
 90
       10
176
     1
 62
     7
176
     1
 62
   257
176
     1
 90
        2
176
     1
 90
        1
176
     1
 40
1.0
176
     1
 90
        8
176
     1
 62
   257
176
     1
 40
1.0
176
     1
 90
        1
176
     1
 90
        6
176
     1
 90
        2
176
     1
 62
     7
176
     1
 90
        3
176
     1
 90
        0
176
     1
 90
        0
176
     1
290
     0
176
     1
 90
        5
176
     1
 40
0.0
176
     1
 90
        0
176
     1
290
     0
176
     1
290
     1
176
     1
290
     1
176
     1
290
     0
176
     1
290
     0
176
     1
290
     0
176
     1
290
     0
176
     1
290
     0
176
     1
290
     0
176
     1
 90
       50
176
     1
 40
0.0
176
     1
 40
1.0
176
     1
 90
        0
176
     1
 62
    18
420
        0
176
     1
 90
       50
176
     1
 90
        3
176
     1
 62
     5
420
      255
176
     1
290
     0
176
     1
 90
       50
176
     1
 90
       50
176
     1
 90
       50
176
     1
290
     0
176
     1
 90
       50
176
     1
 62
   256
176
     0
 40
1.0
176
     0
 90
        2
176
     1
  1
strokes_ogs.tif
176
     1
290
     0
176
     1
 40
1.0
176
     1
 40
1.0
176
     1
  0
VISUALSTYLE
  5
3E
102
{ACAD_REACTORS
330
2A
102
}
330
2A
100
AcDbVisualStyle
  2
Shades of Gray
 70
    23
177
     3
291
     0
 70
    58
 90
        2
176
     1
 90
        2
176
     1
 90
        3
176
     1
 90
        0
176
     1
 40
0.6
176
     1
 40
30.0
176
     1
 62
     7
420
 16777215
176
     1
 90
        2
176
     1
 90
        2
176
     1
 62
     7
176
     1
 62
     7
176
     1
 90
        1
176
     1
 90
        1
176
     1
 40
40.0
176
     1
 90
        8
176
     1
 62
     7
176
     1
 40
1.0
176
     1
 90
        1
176
     1
 90
        6
176
     1
 90
        2
176
     1
 62
     7
176
     1
 90
        3
176
     1
 90
        0
176
     1
 90
        0
176
     1
290
     0
176
     1
 90
        1
176
     1
 40
0.0
176
     1
 90
        0
176
     1
290
     0
176
     1
290
     1
176
     1
290
     1
176
     1
290
     0
176
     1
290
     0
176
     1
290
     0
176
     1
290
     0
176
     1
290
     0
176
     1
290
     0
176
     1
 90
       50
176
     1
 40
0.0
176
     1
 40
1.0
176
     1
 90
        0
176
     1
 62
    18
420
        0
176
     1
 90
       50
176
     1
 90
        3
176
     1
 62
     5
420
      255
176
     1
290
     0
176
     1
 90
       50
176
     1
 90
       50
176
     1
 90
       50
176
     1
290
     0
176
     1
 90
       50
176
     1
 62
   256
176
     0
 40
1.0
176
     0
 90
        2
176
     1
  1
strokes_ogs.tif
176
     1
290
     0
176
     1
 40
1.0
176
     1
 40
1.0
176
     1
  0
VISUALSTYLE
  5
3F
102
{ACAD_REACTORS
330
2A
102
}
330
2A
100
AcDbVisualStyle
  2
Sketchy
 70
    24
177
     3
291
     0
 70
    58
 90
        1
176
     1
 90
        2
176
     1
 90
        2
176
     1
 90
        0
176
     1
 40
0.6
176
     1
 40
30.0
176
     1
 62
     7
420
 16777215
176
     1
 90
        2
176
     1
 90
        2
176
     1
 62
     7
176
     1
 62
     7
176
     1
 90
        1
176
     1
 90
        1
176
     1
 40
40.0
176
     1
 90
       11
176
     1
 62
     7
176
     1
 40
1.0
176
     1
 90
        1
176
     1
 90
        6
176
     1
 90
        2
176
     1
 62
     7
176
     1
 90
        6
176
     1
 90
        0
176
     1
 90
        0
176
     1
290
     0
176
     1
 90
        1
176
     1
 40
0.0
176
     1
 90
        0
176
     1
290
     0
176
     1
290
     1
176
     1
290
     1
176
     1
290
     0
176
     1
290
     0
176
     1
290
     0
176
     1
290
     0
176
     1
290
     0
176
     1
290
     0
176
     1
 90
       50
176
     1
 40
0.0
176
     1
 40
1.0
176
     1
 90
        0
176
     1
 62
    18
420
        0
176
     1
 90
       50
176
     1
 90
        3
176
     1
 62
     5
420
      255
176
     1
290
     0
176
     1
 90
       50
176
     1
 90
       50
176
     1
 90
       50
176
     1
290
     0
176
     1
 90
       50
176
     1
 62
   256
176
     0
 40
1.0
176
     0
 90
        2
176
     1
  1
strokes_ogs.tif
176
     1
290
     0
176
     1
 40
1.0
176
     1
 40
1.0
176
     1
  0
VISUALSTYLE
  5
37
102
{ACAD_REACTORS
330
2A
102
}
330
2A
100
AcDbVisualStyle
  2
Thicken
 70
    13
177
     3
291
     1
 70
    58
 90
        2
176
     1
 90
        2
176
     1
 90
        0
176
     1
 90
        0
176
     1
 40
0.6
176
     1
 40
30.0
176
     1
 62
     7
420
 16777215
176
     1
 90
        1
176
     1
 90
        4
176
     1
 62
     7
176
     1
 62
   257
176
     1
 90
        1
176
     1
 90
        1
176
     1
 40
1.0
176
     1
 90
       12
176
     1
 62
     7
176
     1
 40
1.0
176
     1
 90
        1
176
     1
 90
        6
176
     1
 90
        2
176
     1
 62
     7
176
     1
 90
        5
176
     1
 90
        0
176
     1
 90
        0
176
     1
290
     0
176
     1
 90
        1
176
     1
 40
0.0
176
     1
 90
        0
176
     1
290
     0
176
     1
290
     1
176
     1
290
     1
176
     1
290
     0
176
     1
290
     0
176
     1
290
     0
176
     1
290
     0
176
     1
290
     0
176
     1
290
     0
176
     1
 90
       50
176
     1
 40
0.0
176
     1
 40
1.0
176
     1
 90
        0
176
     1
 62
    18
420
        0
176
     1
 90
       50
176
     1
 90
        3
176
     1
 62
     5
420
      255
176
     1
290
     0
176
     1
 90
       50
176
     1
 90
       50
176
     1
 90
       50
176
     1
290
     0
176
     1
 90
       50
176
     1
 62
   256
176
     0
 40
1.0
176
     0
 90
        2
176
     1
  1
strokes_ogs.tif
176
     1
290
     0
176
     1
 40
1.0
176
     1
 40
1.0
176
     1
  0
VISUALSTYLE
  5
30
102
{ACAD_REACTORS
330
2A
102
}
330
2A
100
AcDbVisualStyle
  2
Wireframe
 70
     5
177
     3
291
     0
 70
    58
 90
        0
176
     1
 90
        2
176
     1
 90
        0
176
     1
 90
        0
176
     1
 40
0.6
176
     1
 40
30.0
176
     1
 62
     7
420
 16777215
176
     1
 90
        1
176
     1
 90
        4
176
     1
 62
     7
176
     1
 62
   257
176
     1
 90
        1
176
     1
 90
        1
176
     1
 40
1.0
176
     1
 90
        0
176
     1
 62
   257
176
     1
 40
1.0
176
     1
 90
        1
176
     1
 90
        6
176
     1
 90
        2
176
     1
 62
     7
176
     1
 90
        3
176
     1
 90
        0
176
     1
 90
        0
176
     1
290
     0
176
     1
 90
        1
176
     1
 40
0.0
176
     1
 90
        0
176
     1
290
     0
176
     1
290
     1
176
     1
290
     1
176
     1
290
     0
176
     1
290
     0
176
     1
290
     0
176
     1
290
     0
176
     1
290
     0
176
     1
290
     0
176
     1
 90
       50
176
     1
 40
0.0
176
     1
 40
1.0
176
     1
 90
        0
176
     1
 62
    18
420
        0
176
     1
 90
       50
176
     1
 90
        3
176
     1
 62
     5
420
      255
176
     1
290
     0
176
     1
 90
       50
176
     1
 90
       50
176
     1
 90
       50
176
     1
290
     0
176
     1
 90
       50
176
     1
 62
   256
176
     0
 40
1.0
176
     0
 90
        2
176
     1
  1
strokes_ogs.tif
176
     1
290
     0
176
     1
 40
1.0
176
     1
 40
1.0
176
     1
  0
VISUALSTYLE
  5
40
102
{ACAD_REACTORS
330
2A
102
}
330
2A
100
AcDbVisualStyle
  2
X-Ray
 70
    25
177
     3
291
     0
 70
    58
 90
        2
176
     1
 90
        2
176
     1
 90
        1
176
     1
 90
        1
176
     1
 40
0.5
176
     1
 40
30.0
176
     1
 62
     7
420
 16777215
176
     1
 90
        1
176
     1
 90
        0
176
     1
 62
     7
176
     1
 62
   257
176
     1
 90
        1
176
     1
 90
        1
176
     1
 40
1.0
176
     1
 90
        8
176
     1
 62
     7
176
     1
 40
1.0
176
     1
 90
        1
176
     1
 90
        6
176
     1
 90
        2
176
     1
 62
     7
176
     1
 90
        3
176
     1
 90
        0
176
     1
 90
        0
176
     1
290
     0
176
     1
 90
       13
176
     1
 40
0.0
176
     1
 90
        0
176
     1
290
     0
176
     1
290
     1
176
     1
290
     1
176
     1
290
     0
176
     1
290
     0
176
     1
290
     0
176
     1
290
     0
176
     1
290
     0
176
     1
290
     0
176
     1
 90
       50
176
     1
 40
0.0
176
     1
 40
1.0
176
     1
 90
        0
176
     1
 62
    18
420
        0
176
     1
 90
       50
176
     1
 90
        3
176
     1
 62
     5
420
      255
176
     1
290
     0
176
     1
 90
       50
176
     1
 90
       50
176
     1
 90
       50
176
     1
290
     0
176
     1
 90
       50
176
     1
 62
   256
176
     0
 40
1.0
176
     0
 90
        2
176
     1
  1
strokes_ogs.tif
176
     1
290
     0
176
     1
 40
1.0
176
     1
 40
1.0
176
     1
  0
DICTIONARYVAR
  5
329
102
{ACAD_REACTORS
330
328
102
}
330
328
100
DictionaryVariables
280
     0
  1
1:1
  0
DICTIONARYVAR
  5
32E
102
{ACAD_REACTORS
330
328
102
}
330
328
100
DictionaryVariables
280
     0
  1
Standard
  0
DICTIONARYVAR
  5
32D
102
{ACAD_REACTORS
330
328
102
}
330
328
100
DictionaryVariables
280
     0
  1
Standard
  0
DICTIONARY
  5
32A
330
6A
100
AcDbDictionary
280
     1
281
     1
  3
ACAD_ROUNDTRIP_2008_TABLESTYLE_CELLSTYLEMAP
360
32B
  0
CELLSTYLEMAP
  5
32B
102
{ACAD_REACTORS
330
32A
102
}
330
32A
100
AcDbCellStyleMap
 90
        3
300
CELLSTYLE
  1
TABLEFORMAT_BEGIN
 90
        5
170
     1
 91
        0
 92
    32768
 62
   257
 93
        1
300
CONTENTFORMAT
  1
CONTENTFORMAT_BEGIN
 90
        0
 91
        0
 92
        4
 93
        0
300

 40
0.0
140
1.0
 94
        5
 62
     0
340
11
144
6.0
309
CONTENTFORMAT_END
171
     1
301
MARGIN
  1
CELLMARGIN_BEGIN
 40
1.5
 40
1.5
 40
1.5
 40
1.5
 40
1.5
 40
1.5
309
CELLMARGIN_END
 94
        6
 95
        1
302
GRIDFORMAT
  1
GRIDFORMAT_BEGIN
 90
        0
 91
        1
 62
     0
 92
       -2
340
14
 93
        0
 40
0.045
309
GRIDFORMAT_END
 95
        2
302
GRIDFORMAT
  1
GRIDFORMAT_BEGIN
 90
        0
 91
        1
 62
     0
 92
       -2
340
14
 93
        0
 40
0.045
309
GRIDFORMAT_END
 95
        4
302
GRIDFORMAT
  1
GRIDFORMAT_BEGIN
 90
        0
 91
        1
 62
     0
 92
       -2
340
14
 93
        0
 40
0.045
309
GRIDFORMAT_END
 95
        8
302
GRIDFORMAT
  1
GRIDFORMAT_BEGIN
 90
        0
 91
        1
 62
     0
 92
       -2
340
14
 93
        0
 40
0.045
309
GRIDFORMAT_END
 95
       16
302
GRIDFORMAT
  1
GRIDFORMAT_BEGIN
 90
        0
 91
        1
 62
     0
 92
       -2
340
14
 93
        0
 40
0.045
309
GRIDFORMAT_END
 95
       32
302
GRIDFORMAT
  1
GRIDFORMAT_BEGIN
 90
        0
 91
        1
 62
     0
 92
       -2
340
14
 93
        0
 40
0.045
309
GRIDFORMAT_END
309
TABLEFORMAT_END
  1
CELLSTYLE_BEGIN
 90
        1
 91
        1
300
_TITLE
309
CELLSTYLE_END
300
CELLSTYLE
  1
TABLEFORMAT_BEGIN
 90
        5
170
     1
 91
        0
 92
        0
 62
   257
 93
        1
300
CONTENTFORMAT
  1
CONTENTFORMAT_BEGIN
 90
        0
 91
        0
 92
        4
 93
        0
300

 40
0.0
140
1.0
 94
        5
 62
     0
340
11
144
4.5
309
CONTENTFORMAT_END
171
     1
301
MARGIN
  1
CELLMARGIN_BEGIN
 40
1.5
 40
1.5
 40
1.5
 40
1.5
 40
1.5
 40
1.5
309
CELLMARGIN_END
 94
        6
 95
        1
302
GRIDFORMAT
  1
GRIDFORMAT_BEGIN
 90
        0
 91
        1
 62
     0
 92
       -2
340
14
 93
        0
 40
0.045
309
GRIDFORMAT_END
 95
        2
302
GRIDFORMAT
  1
GRIDFORMAT_BEGIN
 90
        0
 91
        1
 62
     0
 92
       -2
340
14
 93
        0
 40
0.045
309
GRIDFORMAT_END
 95
        4
302
GRIDFORMAT
  1
GRIDFORMAT_BEGIN
 90
        0
 91
        1
 62
     0
 92
       -2
340
14
 93
        0
 40
0.045
309
GRIDFORMAT_END
 95
        8
302
GRIDFORMAT
  1
GRIDFORMAT_BEGIN
 90
        0
 91
        1
 62
     0
 92
       -2
340
14
 93
        0
 40
0.045
309
GRIDFORMAT_END
 95
       16
302
GRIDFORMAT
  1
GRIDFORMAT_BEGIN
 90
        0
 91
        1
 62
     0
 92
       -2
340
14
 93
        0
 40
0.045
309
GRIDFORMAT_END
 95
       32
302
GRIDFORMAT
  1
GRIDFORMAT_BEGIN
 90
        0
 91
        1
 62
     0
 92
       -2
340
14
 93
        0
 40
0.045
309
GRIDFORMAT_END
309
TABLEFORMAT_END
  1
CELLSTYLE_BEGIN
 90
        2
 91
        1
300
_HEADER
309
CELLSTYLE_END
300
CELLSTYLE
  1
TABLEFORMAT_BEGIN
 90
        5
170
     1
 91
        0
 92
        0
 62
   257
 93
        1
300
CONTENTFORMAT
  1
CONTENTFORMAT_BEGIN
 90
        0
 91
        0
 92
        4
 93
        0
300

 40
0.0
140
1.0
 94
        2
 62
     0
340
11
144
4.5
309
CONTENTFORMAT_END
171
     1
301
MARGIN
  1
CELLMARGIN_BEGIN
 40
1.5
 40
1.5
 40
1.5
 40
1.5
 40
1.5
 40
1.5
309
CELLMARGIN_END
 94
        6
 95
        1
302
GRIDFORMAT
  1
GRIDFORMAT_BEGIN
 90
        0
 91
        1
 62
     0
 92
       -2
340
14
 93
        0
 40
0.045
309
GRIDFORMAT_END
 95
        2
302
GRIDFORMAT
  1
GRIDFORMAT_BEGIN
 90
        0
 91
        1
 62
     0
 92
       -2
340
14
 93
        0
 40
0.045
309
GRIDFORMAT_END
 95
        4
302
GRIDFORMAT
  1
GRIDFORMAT_BEGIN
 90
        0
 91
        1
 62
     0
 92
       -2
340
14
 93
        0
 40
0.045
309
GRIDFORMAT_END
 95
        8
302
GRIDFORMAT
  1
GRIDFORMAT_BEGIN
 90
        0
 91
        1
 62
     0
 92
       -2
340
14
 93
        0
 40
0.045
309
GRIDFORMAT_END
 95
       16
302
GRIDFORMAT
  1
GRIDFORMAT_BEGIN
 90
        0
 91
        1
 62
     0
 92
       -2
340
14
 93
        0
 40
0.045
309
GRIDFORMAT_END
 95
       32
302
GRIDFORMAT
  1
GRIDFORMAT_BEGIN
 90
        0
 91
        1
 62
     0
 92
       -2
340
14
 93
        0
 40
0.045
309
GRIDFORMAT_END
309
TABLEFORMAT_END
  1
CELLSTYLE_BEGIN
 90
        3
 91
        2
300
_DATA
309
CELLSTYLE_END
  0
ENDSEC
  0
EOF
