  0
SECTION
  2
HEADER
  9
$ACADVER
  1
AC1015
  9
$ACADMAINTVER
 70
     6
  9
$DWGCODEPAGE
  3
ANSI_1252
  9
$INSBASE
 10
0.0
 20
0.0
 30
0.0
  9
$EXTMIN
 10
0.0
 20
0.0
 30
0.0
  9
$EXTMAX
 10
297.0
 20
210.0
 30
0.0
  9
$LIMMIN
 10
0.0
 20
0.0
  9
$LIMMAX
 10
297.0
 20
210.0
  9
$ORTHOMODE
 70
     0
  9
$REGENMODE
 70
     1
  9
$FILLMODE
 70
     1
  9
$QTEXTMODE
 70
     0
  9
$MIRRTEXT
 70
     1
  9
$LTSCALE
 40
1.0
  9
$ATTMODE
 70
     1
  9
$TEXTSIZE
 40
2.0
  9
$TRACEWID
 40
1.0
  9
$TEXTSTYLE
  7
STANDARD
  9
$CLAYER
  8
0
  9
$CELTYPE
  6
ByLayer
  9
$CECOLOR
 62
   256
  9
$CELTSCALE
 40
1.0
  9
$DISPSILH
 70
     0
  9
$DIMSCALE
 40
1.0
  9
$DIMASZ
 40
3.0
  9
$DIMEXO
 40
0.0
  9
$DIMDLI
 40
3.75
  9
$DIMRND
 40
0.0
  9
$DIMDLE
 40
0.0
  9
$DIMEXE
 40
1.0
  9
$DIMTP
 40
0.0
  9
$DIMTM
 40
0.0
  9
$DIMTXT
 40
2.0
  9
$DIMCEN
 40
2.5
  9
$DIMTSZ
 40
0.0
  9
$DIMTOL
 70
     0
  9
$DIMLIM
 70
     0
  9
$DIMTIH
 70
     1
  9
$DIMTOH
 70
     1
  9
$DIMSE1
 70
     0
  9
$DIMSE2
 70
     0
  9
$DIMTAD
 70
     1
  9
$DIMZIN
 70
     0
  9
$DIMBLK
  1

  9
$DIMASO
 70
     1
  9
$DIMSHO
 70
     1
  9
$DIMPOST
  1

  9
$DIMAPOST
  1

  9
$DIMALT
 70
     0
  9
$DIMALTD
 70
     3
  9
$DIMALTF
 40
0.0393700787
  9
$DIMLFAC
 40
1.0
  9
$DIMTOFL
 70
     1
  9
$DIMTVP
 40
0.0
  9
$DIMTIX
 70
     0
  9
$DIMSOXD
 70
     0
  9
$DIMSAH
 70
     0
  9
$DIMBLK1
  1

  9
$DIMBLK2
  1

  9
$DIMSTYLE
  2
ISO-25
  9
$DIMCLRD
 70
     0
  9
$DIMCLRE
 70
     0
  9
$DIMCLRT
 70
     0
  9
$DIMTFAC
 40
1.0
  9
$DIMGAP
 40
1.524
  9
$DIMJUST
 70
     0
  9
$DIMSD1
 70
     0
  9
$DIMSD2
 70
     0
  9
$DIMTOLJ
 70
     0
  9
$DIMTZIN
 70
     0
  9
$DIMALTZ
 70
     0
  9
$DIMALTTZ
 70
     0
  9
$DIMUPT
 70
     0
  9
$DIMDEC
 70
     2
  9
$DIMTDEC
 70
     3
  9
$DIMALTU
 70
     2
  9
$DIMALTTD
 70
     3
  9
$DIMTXSTY
  7
STANDARD
  9
$DIMAUNIT
 70
     0
  9
$DIMADEC
 70
     2
  9
$DIMALTRND
 40
0.0
  9
$DIMAZIN
 70
     0
  9
$DIMDSEP
 70
    44
  9
$DIMATFIT
 70
     3
  9
$DIMFRAC
 70
     0
  9
$DIMLDRBLK
  1

  9
$DIMLUNIT
 70
     2
  9
$DIMLWD
 70
    -2
  9
$DIMLWE
 70
    -2
  9
$DIMTMOVE
 70
     0
  9
$LUNITS
 70
     2
  9
$LUPREC
 70
     2
  9
$SKETCHINC
 40
1.0
  9
$FILLETRAD
 40
10.0
  9
$AUNITS
 70
     0
  9
$AUPREC
 70
     2
  9
$MENU
  1
.
  9
$ELEVATION
 40
0.0
  9
$PELEVATION
 40
0.0
  9
$THICKNESS
 40
0.0
  9
$LIMCHECK
 70
     0
  9
$CHAMFERA
 40
10.0
  9
$CHAMFERB
 40
10.0
  9
$CHAMFERC
 40
20.0
  9
$CHAMFERD
 40
0.0
  9
$SKPOLY
 70
     0
  9
$TDCREATE
 40
2457150.436559051
  9
$TDUCREATE
 40
2457150.353225718
  9
$TDUPDATE
 40
2457150.436559768
  9
$TDUUPDATE
 40
2457150.353226435
  9
$TDINDWG
 40
0.0000000116
  9
$TDUSRTIMER
 40
0.0000000116
  9
$USRTIMER
 70
     1
  9
$ANGBASE
 50
0.0
  9
$ANGDIR
 70
     0
  9
$PDMODE
 70
     0
  9
$PDSIZE
 40
-1.0
  9
$PLINEWID
 40
0.0
  9
$SPLFRAME
 70
     0
  9
$SPLINETYPE
 70
     6
  9
$SPLINESEGS
 70
     8
  9
$HANDSEED
  5
3FD
  9
$SURFTAB1
 70
     6
  9
$SURFTAB2
 70
     6
  9
$SURFTYPE
 70
     6
  9
$SURFU
 70
     6
  9
$SURFV
 70
     6
  9
$UCSBASE
  2

  9
$UCSNAME
  2

  9
$UCSORG
 10
0.0
 20
0.0
 30
0.0
  9
$UCSXDIR
 10
1.0
 20
0.0
 30
0.0
  9
$UCSYDIR
 10
0.0
 20
1.0
 30
0.0
  9
$UCSORTHOREF
  2

  9
$UCSORTHOVIEW
 70
     0
  9
$UCSORGTOP
 10
0.0
 20
0.0
 30
0.0
  9
$UCSORGBOTTOM
 10
0.0
 20
0.0
 30
0.0
  9
$UCSORGLEFT
 10
0.0
 20
0.0
 30
0.0
  9
$UCSORGRIGHT
 10
0.0
 20
0.0
 30
0.0
  9
$UCSORGFRONT
 10
0.0
 20
0.0
 30
0.0
  9
$UCSORGBACK
 10
0.0
 20
0.0
 30
0.0
  9
$PUCSBASE
  2

  9
$PUCSNAME
  2

  9
$PUCSORG
 10
0.0
 20
0.0
 30
0.0
  9
$PUCSXDIR
 10
1.0
 20
0.0
 30
0.0
  9
$PUCSYDIR
 10
0.0
 20
1.0
 30
0.0
  9
$PUCSORTHOREF
  2

  9
$PUCSORTHOVIEW
 70
     0
  9
$PUCSORGTOP
 10
0.0
 20
0.0
 30
0.0
  9
$PUCSORGBOTTOM
 10
0.0
 20
0.0
 30
0.0
  9
$PUCSORGLEFT
 10
0.0
 20
0.0
 30
0.0
  9
$PUCSORGRIGHT
 10
0.0
 20
0.0
 30
0.0
  9
$PUCSORGFRONT
 10
0.0
 20
0.0
 30
0.0
  9
$PUCSORGBACK
 10
0.0
 20
0.0
 30
0.0
  9
$USERI1
 70
     0
  9
$USERI2
 70
     0
  9
$USERI3
 70
     0
  9
$USERI4
 70
     0
  9
$USERI5
 70
     0
  9
$USERR1
 40
0.0
  9
$USERR2
 40
0.0
  9
$USERR3
 40
0.0
  9
$USERR4
 40
0.0
  9
$USERR5
 40
0.0
  9
$WORLDVIEW
 70
     1
  9
$SHADEDGE
 70
     3
  9
$SHADEDIF
 70
    70
  9
$TILEMODE
 70
     1
  9
$MAXACTVP
 70
    64
  9
$PINSBASE
 10
0.0
 20
0.0
 30
0.0
  9
$PLIMCHECK
 70
     0
  9
$PEXTMIN
 10
1.0000000000E+20
 20
1.0000000000E+20
 30
1.0000000000E+20
  9
$PEXTMAX
 10
-1.0000000000E+20
 20
-1.0000000000E+20
 30
-1.0000000000E+20
  9
$PLIMMIN
 10
0.0
 20
0.0
  9
$PLIMMAX
 10
420.0
 20
297.0
  9
$UNITMODE
 70
     0
  9
$VISRETAIN
 70
     1
  9
$PLINEGEN
 70
     0
  9
$PSLTSCALE
 70
     1
  9
$TREEDEPTH
 70
  3020
  9
$CMLSTYLE
  2
Standard
  9
$CMLJUST
 70
     0
  9
$CMLSCALE
 40
20.0
  9
$PROXYGRAPHICS
 70
     1
  9
$MEASUREMENT
 70
     1
  9
$CELWEIGHT
370
    -1
  9
$ENDCAPS
280
     0
  9
$JOINSTYLE
280
     0
  9
$LWDISPLAY
290
     1
  9
$INSUNITS
 70
     4
  9
$HYPERLINKBASE
  1

  9
$STYLESHEET
  1

  9
$XEDIT
290
     1
  9
$CEPSNTYPE
380
     0
  9
$PSTYLEMODE
290
     1
  9
$FINGERPRINTGUID
  2
{E06C496D-EFA3-497B-9ACA-E21DEBE20039}
  9
$VERSIONGUID
  2
{FAEB1C32-E019-11D5-929B-00C0DF256EC4}
  9
$EXTNAMES
290
     1
  9
$PSVPSCALE
 40
0.0
  9
$OLESTARTUP
290
     0
  0
ENDSEC
  0
SECTION
  2
CLASSES
  0
CLASS
  1
ACDBDICTIONARYWDFLT
  2
AcDbDictionaryWithDefault
  3
ObjectDBX Classes
 90
        0
280
     0
281
     0
  0
CLASS
  1
VISUALSTYLE
  2
AcDbVisualStyle
  3
ObjectDBX Classes
 90
     4095
280
     0
281
     0
  0
CLASS
  1
MATERIAL
  2
AcDbMaterial
  3
ObjectDBX Classes
 90
     1153
280
     0
281
     0
  0
CLASS
  1
ACDBPLACEHOLDER
  2
AcDbPlaceHolder
  3
ObjectDBX Classes
 90
        0
280
     0
281
     0
  0
CLASS
  1
LAYOUT
  2
AcDbLayout
  3
ObjectDBX Classes
 90
        0
280
     0
281
     0
  0
ENDSEC
  0
SECTION
  2
TABLES
  0
TABLE
  2
VPORT
  5
8
330
0
100
AcDbSymbolTable
 70
     1
  0
VPORT
  5
29
330
8
100
AcDbSymbolTableRecord
100
AcDbViewportTableRecord
  2
*Active
 70
     0
 10
0.0
 20
0.0
 11
1.0
 21
1.0
 12
148.5
 22
105.0
 13
0.0
 23
0.0
 14
10.0
 24
10.0
 15
10.0
 25
10.0
 16
0.0
 26
0.0
 36
1.0
 17
0.0
 27
0.0
 37
0.0
 40
210.0
 41
1.4142857143
 42
50.0
 43
0.0
 44
0.0
 50
0.0
 51
0.0
 71
     0
 72
  2000
 73
     1
 74
     3
 75
     0
 76
     0
 77
     0
 78
     0
281
     0
 65
     1
110
0.0
120
0.0
130
0.0
111
1.0
121
0.0
131
0.0
112
0.0
122
1.0
132
0.0
 79
     0
146
0.0
  0
ENDTAB
  0
TABLE
  2
LTYPE
  5
5
330
0
100
AcDbSymbolTable
 70
     8
  0
LTYPE
  5
14
330
5
100
AcDbSymbolTableRecord
100
AcDbLinetypeTableRecord
  2
ByBlock
 70
     0
  3

 72
    65
 73
     0
 40
0.0
  0
LTYPE
  5
15
330
5
100
AcDbSymbolTableRecord
100
AcDbLinetypeTableRecord
  2
ByLayer
 70
     0
  3

 72
    65
 73
     0
 40
0.0
  0
LTYPE
  5
16
330
5
100
AcDbSymbolTableRecord
100
AcDbLinetypeTableRecord
  2
Continuous
 70
     0
  3
Solid line
 72
    65
 73
     0
 40
0.0
  0
LTYPE
  5
3F
330
5
100
AcDbSymbolTableRecord
100
AcDbLinetypeTableRecord
  2
SLD-Durchgehend
 70
     0
  3
SolidWorks Line Style
 72
    65
 73
     0
 40
0.0
  0
LTYPE
  5
40
330
5
100
AcDbSymbolTableRecord
100
AcDbLinetypeTableRecord
  2
SLD-Gestrichelt
 70
     0
  3
SolidWorks Line Style
 72
    65
 73
     2
 40
1.905
 49
1.27
 74
     0
 49
-0.635
 74
     0
  0
LTYPE
  5
41
330
5
100
AcDbSymbolTableRecord
100
AcDbLinetypeTableRecord
  2
SLD-Phantom
 70
     0
  3
SolidWorks Line Style
 72
    65
 73
     6
 40
12.7
 49
6.35
 74
     0
 49
-1.27
 74
     0
 49
1.27
 74
     0
 49
-1.27
 74
     0
 49
1.27
 74
     0
 49
-1.27
 74
     0
  0
LTYPE
  5
42
330
5
100
AcDbSymbolTableRecord
100
AcDbLinetypeTableRecord
  2
SLD-Kette
 70
     0
  3
SolidWorks Line Style
 72
    65
 73
     4
 40
10.16
 49
6.35
 74
     0
 49
-1.27
 74
     0
 49
1.27
 74
     0
 49
-1.27
 74
     0
  0
LTYPE
  5
43
330
5
100
AcDbSymbolTableRecord
100
AcDbLinetypeTableRecord
  2
SLD-Punktstrich
 70
     0
  3
SolidWorks Line Style
 72
    65
 73
     4
 40
19.05
 49
15.24
 74
     0
 49
-1.27
 74
     0
 49
1.27
 74
     0
 49
-1.27
 74
     0
  0
LTYPE
  5
44
330
5
100
AcDbSymbolTableRecord
100
AcDbLinetypeTableRecord
  2
SLD-Naht
 70
     0
  3
SolidWorks Line Style
 72
    65
 73
     2
 40
0.635
 49
0.0
 74
     0
 49
-0.635
 74
     0
  0
LTYPE
  5
45
330
5
100
AcDbSymbolTableRecord
100
AcDbLinetypeTableRecord
  2
SLD-Dicke-Dünne-Kette
 70
     0
  3
SolidWorks Line Style
 72
    65
 73
     4
 40
10.16
 49
6.35
 74
     0
 49
-1.27
 74
     0
 49
1.27
 74
     0
 49
-1.27
 74
     0
  0
ENDTAB
  0
TABLE
  2
LAYER
  5
2
330
0
100
AcDbSymbolTable
 70
     5
  0
LAYER
  5
10
330
2
100
AcDbSymbolTableRecord
100
AcDbLayerTableRecord
  2
0
 70
     0
 62
     7
  6
Continuous
370
    -3
390
F
  0
LAYER
  5
46
330
2
100
AcDbSymbolTableRecord
100
AcDbLayerTableRecord
  2
FORMAT
 70
     0
 62
     7
  6
SLD-Durchgehend
370
    -3
390
F
  0
LAYER
  5
47
330
2
100
AcDbSymbolTableRecord
100
AcDbLayerTableRecord
  2
VERMASSUNG
 70
     0
 62
     7
  6
SLD-Durchgehend
370
    -3
390
F
  0
LAYER
  5
48
330
2
100
AcDbSymbolTableRecord
100
AcDbLayerTableRecord
  2
KOPF_DÜNN
 70
     0
 62
     7
  6
SLD-Durchgehend
370
    -3
390
F
  0
LAYER
  5
49
330
2
100
AcDbSymbolTableRecord
100
AcDbLayerTableRecord
  2
KOPF_DICK
 70
     0
 62
     7
  6
SLD-Durchgehend
370
    15
390
F
  0
ENDTAB
  0
TABLE
  2
STYLE
  5
3
330
0
100
AcDbSymbolTable
 70
     2
  0
STYLE
  5
11
330
3
100
AcDbSymbolTableRecord
100
AcDbTextStyleTableRecord
  2
STANDARD
 70
     0
 40
0.0
 41
1.0
 50
0.0
 71
     0
 42
2.0
  3
ISOCPEUR.TTF
  4

1001
ACAD
1000
ISOCPEUR
1071
       34
  0
STYLE
  5
4A
330
3
100
AcDbSymbolTableRecord
100
AcDbTextStyleTableRecord
  2
SLDTEXTSTYLE0
 70
     0
 40
0.0
 41
1.0
 50
0.0
 71
     0
 42
0.2
  3
ISOCPEUR.TTF
  4

1001
ACAD
1000
ISOCPEUR
1071
      290
  0
ENDTAB
  0
TABLE
  2
VIEW
  5
6
330
0
100
AcDbSymbolTable
 70
     0
  0
ENDTAB
  0
TABLE
  2
UCS
  5
7
330
0
100
AcDbSymbolTable
 70
     0
  0
ENDTAB
  0
TABLE
  2
APPID
  5
9
330
0
100
AcDbSymbolTable
 70
     1
  0
APPID
  5
12
330
9
100
AcDbSymbolTableRecord
100
AcDbRegAppTableRecord
  2
ACAD
 70
     0
  0
ENDTAB
  0
TABLE
  2
DIMSTYLE
  5
A
330
0
100
AcDbSymbolTable
 70
     4
100
AcDbDimStyleTable
  0
DIMSTYLE
105
27
330
A
100
AcDbSymbolTableRecord
100
AcDbDimStyleTableRecord
  2
ISO-25
 70
     0
 41
2.5
 42
0.625
 43
3.75
 44
1.25
 73
     0
 74
     0
 77
     1
 78
     8
140
2.5
141
2.5
143
0.0393700787
147
0.625
171
     3
172
     1
178
     0
271
     2
272
     2
274
     3
278
    44
283
     0
284
     8
340
11
  0
DIMSTYLE
105
257
102
{ACAD_REACTORS
330
256
330
261
330
26B
330
27F
102
}
330
A
100
AcDbSymbolTableRecord
100
AcDbDimStyleTableRecord
  2
SLDDIMSTYLE0
 70
     0
 41
3.0
 44
0.0
 45
0.000000001
 73
     0
 74
     0
 77
     1
 78
    12
 79
     3
140
2.0
147
0.5
173
     1
178
     0
271
     2
272
     3
276
     2
284
    12
340
4A
  0
DIMSTYLE
105
278
102
{ACAD_REACTORS
330
277
102
}
330
A
100
AcDbSymbolTableRecord
100
AcDbDimStyleTableRecord
  2
SLDDIMSTYLE1
 70
     0
 41
3.0
 44
0.0
 45
0.000000001
 73
     0
 74
     0
 77
     1
 78
    12
 79
     3
140
2.0
141
0.0
147
0.5
173
     1
178
     0
271
     2
272
     3
276
     2
279
     1
284
    12
340
4A
  0
DIMSTYLE
105
289
102
{ACAD_REACTORS
330
288
102
}
330
A
100
AcDbSymbolTableRecord
100
AcDbDimStyleTableRecord
  2
SLDDIMSTYLE2
 70
     0
 41
3.0
 44
0.0
 45
0.000000001
 73
     0
 74
     0
 77
     1
 78
    12
 79
     3
140
2.0
147
0.5
172
     1
173
     1
178
     0
271
     2
272
     3
276
     2
284
    12
289
     0
340
4A
  0
ENDTAB
  0
TABLE
  2
BLOCK_RECORD
  5
1
330
0
100
AcDbSymbolTable
 70
     8
  0
BLOCK_RECORD
  5
1F
330
1
100
AcDbSymbolTableRecord
100
AcDbBlockTableRecord
  2
*Model_Space
340
22
  0
BLOCK_RECORD
  5
1B
330
1
100
AcDbSymbolTableRecord
100
AcDbBlockTableRecord
  2
*Paper_Space
340
1E
  0
BLOCK_RECORD
  5
23
330
1
100
AcDbSymbolTableRecord
100
AcDbBlockTableRecord
  2
*Paper_Space0
340
26
  0
BLOCK_RECORD
  5
258
330
1
100
AcDbSymbolTableRecord
100
AcDbBlockTableRecord
  2
_D
340
0
  0
BLOCK_RECORD
  5
262
330
1
100
AcDbSymbolTableRecord
100
AcDbBlockTableRecord
  2
_D_1
340
0
  0
BLOCK_RECORD
  5
26C
330
1
100
AcDbSymbolTableRecord
100
AcDbBlockTableRecord
  2
_D_2
340
0
  0
BLOCK_RECORD
  5
279
330
1
100
AcDbSymbolTableRecord
100
AcDbBlockTableRecord
  2
_D_3
340
0
  0
BLOCK_RECORD
  5
280
330
1
100
AcDbSymbolTableRecord
100
AcDbBlockTableRecord
  2
_D_4
340
0
  0
BLOCK_RECORD
  5
28A
330
1
100
AcDbSymbolTableRecord
100
AcDbBlockTableRecord
  2
_D_5
340
0
  0
BLOCK_RECORD
  5
3F0
330
1
100
AcDbSymbolTableRecord
100
AcDbBlockTableRecord
  2
SW_CENTERMARKSYMBOL_0
340
0
102
{BLKREFS
331
3FB
102
}
  0
ENDTAB
  0
ENDSEC
  0
SECTION
  2
BLOCKS
  0
BLOCK
  5
20
330
1F
100
AcDbEntity
  8
0
100
AcDbBlockBegin
  2
*Model_Space
 70
     0
 10
0.0
 20
0.0
 30
0.0
  3
*Model_Space
  1

  0
ENDBLK
  5
21
330
1F
100
AcDbEntity
  8
0
100
AcDbBlockEnd
  0
BLOCK
  5
1C
330
1B
100
AcDbEntity
 67
     1
  8
0
100
AcDbBlockBegin
  2
*Paper_Space
 70
     0
 10
0.0
 20
0.0
 30
0.0
  3
*Paper_Space
  1

  0
ENDBLK
  5
1D
330
1B
100
AcDbEntity
 67
     1
  8
0
100
AcDbBlockEnd
  0
BLOCK
  5
24
330
23
100
AcDbEntity
  8
0
100
AcDbBlockBegin
  2
*Paper_Space0
 70
     0
 10
0.0
 20
0.0
 30
0.0
  3
*Paper_Space0
  1

  0
ENDBLK
  5
25
330
23
100
AcDbEntity
  8
0
100
AcDbBlockEnd
  0
BLOCK
  5
259
330
258
100
AcDbEntity
  8
0
100
AcDbBlockBegin
  2
_D
 70
     0
 10
0.0
 20
0.0
 30
0.0
  3
_D
  1

  0
SOLID
  5
25B
330
258
100
AcDbEntity
  8
VERMASSUNG
100
AcDbTrace
 10
137.7026246173
 20
158.1814383837
 30
0.0
 11
140.7026246173
 21
157.7314383837
 31
0.0
 12
140.7026246173
 22
158.6314383837
 32
0.0
 13
140.7026246173
 23
158.6314383837
 33
0.0
  0
SOLID
  5
25C
330
258
100
AcDbEntity
  8
VERMASSUNG
100
AcDbTrace
 10
287.7026246173
 20
158.1814383837
 30
0.0
 11
284.7026246173
 21
158.6314383837
 31
0.0
 12
284.7026246173
 22
157.7314383837
 32
0.0
 13
284.7026246173
 23
157.7314383837
 33
0.0
  0
LINE
  5
25D
330
258
100
AcDbEntity
  8
VERMASSUNG
100
AcDbLine
 10
137.7026246173
 20
144.6800709487
 30
0.0
 11
137.7026246173
 21
159.1814383837
 31
0.0
  0
LINE
  5
25E
330
258
100
AcDbEntity
  8
VERMASSUNG
100
AcDbLine
 10
287.7026246173
 20
136.6255196731
 30
0.0
 11
287.7026246173
 21
159.1814383837
 31
0.0
  0
LINE
  5
25F
330
258
100
AcDbEntity
  8
VERMASSUNG
100
AcDbLine
 10
137.7026246173
 20
158.1814383837
 30
0.0
 11
287.7026246173
 21
158.1814383837
 31
0.0
  0
MTEXT
  5
260
330
258
100
AcDbEntity
  8
VERMASSUNG
100
AcDbMText
 10
209.9026244843
 20
160.7814382673
 30
0.1
 40
2.0
 41
0.0
 71
     1
 72
     1
  1
150
  7
SLDTEXTSTYLE0
 73
     1
 44
1.0
  0
ENDBLK
  5
25A
330
258
100
AcDbEntity
  8
0
100
AcDbBlockEnd
  0
BLOCK
  5
263
330
262
100
AcDbEntity
  8
0
100
AcDbBlockBegin
  2
_D_1
 70
     0
 10
0.0
 20
0.0
 30
0.0
  3
_D_1
  1

  0
SOLID
  5
265
330
262
100
AcDbEntity
  8
VERMASSUNG
100
AcDbTrace
 10
137.7026246173
 20
151.8950979458
 30
0.0
 11
140.7026246173
 21
151.4450979458
 31
0.0
 12
140.7026246173
 22
152.3450979458
 32
0.0
 13
140.7026246173
 23
152.3450979458
 33
0.0
  0
SOLID
  5
266
330
262
100
AcDbEntity
  8
VERMASSUNG
100
AcDbTrace
 10
252.7026246173
 20
151.8950979458
 30
0.0
 11
249.7026246173
 21
152.3450979458
 31
0.0
 12
249.7026246173
 22
151.4450979458
 32
0.0
 13
249.7026246173
 23
151.4450979458
 33
0.0
  0
LINE
  5
267
330
262
100
AcDbEntity
  8
VERMASSUNG
100
AcDbLine
 10
137.7026246173
 20
144.6800709487
 30
0.0
 11
137.7026246173
 21
152.8950979458
 31
0.0
  0
LINE
  5
268
330
262
100
AcDbEntity
  8
VERMASSUNG
100
AcDbLine
 10
252.7026246173
 20
130.9509857063
 30
0.0
 11
252.7026246173
 21
152.8950979458
 31
0.0
  0
LINE
  5
269
330
262
100
AcDbEntity
  8
VERMASSUNG
100
AcDbLine
 10
137.7026246173
 20
151.8950979458
 30
0.0
 11
252.7026246173
 21
151.8950979458
 31
0.0
  0
MTEXT
  5
26A
330
262
100
AcDbEntity
  8
VERMASSUNG
100
AcDbMText
 10
192.6026243774
 20
154.4950978294
 30
0.1
 40
2.0
 41
0.0
 71
     1
 72
     1
  1
115
  7
SLDTEXTSTYLE0
 73
     1
 44
1.0
  0
ENDBLK
  5
264
330
262
100
AcDbEntity
  8
0
100
AcDbBlockEnd
  0
BLOCK
  5
26D
330
26C
100
AcDbEntity
  8
0
100
AcDbBlockBegin
  2
_D_2
 70
     0
 10
0.0
 20
0.0
 30
0.0
  3
_D_2
  1

  0
SOLID
  5
26F
330
26C
100
AcDbEntity
  8
VERMASSUNG
100
AcDbTrace
 10
92.9192764627
 20
145.1800709487
 30
0.0
 11
92.4692764627
 21
142.1800709487
 31
0.0
 12
93.3692764627
 22
142.1800709487
 32
0.0
 13
93.3692764627
 23
142.1800709487
 33
0.0
  0
SOLID
  5
270
330
26C
100
AcDbEntity
  8
VERMASSUNG
100
AcDbTrace
 10
92.9192764627
 20
82.1800709487
 30
0.0
 11
93.3692764627
 21
85.1800709487
 31
0.0
 12
92.4692764627
 22
85.1800709487
 32
0.0
 13
92.4692764627
 23
85.1800709487
 33
0.0
  0
LINE
  5
271
330
26C
100
AcDbEntity
  8
VERMASSUNG
100
AcDbLine
 10
138.2026246173
 20
145.1800709487
 30
0.0
 11
91.9192764627
 21
145.1800709487
 31
0.0
  0
LINE
  5
272
330
26C
100
AcDbEntity
  8
VERMASSUNG
100
AcDbLine
 10
138.2026246173
 20
82.1800709487
 30
0.0
 11
91.9192764627
 21
82.1800709487
 31
0.0
  0
LINE
  5
273
330
26C
100
AcDbEntity
  8
VERMASSUNG
100
AcDbLine
 10
92.9192764627
 20
145.1800709487
 30
0.0
 11
92.9192764627
 21
82.1800709487
 31
0.0
  0
MTEXT
  5
274
330
26C
100
AcDbEntity
  8
VERMASSUNG
100
AcDbMText
 10
90.1192764532
 20
107.2750708394
 30
0.1
 40
2.0
 41
0.0
 71
     1
 72
     1
  1
PSC
  7
SLDTEXTSTYLE0
 11
-7.044195017643634E-15
 21
1.0
 31
0.0
 73
     1
 44
1.0
  0
MTEXT
  5
275
330
26C
100
AcDbEntity
  8
VERMASSUNG
100
AcDbMText
 10
90.3192764627
 20
111.8750709415
 30
0.1
 40
2.0
 41
0.0
 71
     1
 72
     1
  1
%%c
  7
SLDTEXTSTYLE0
 11
-7.044195017643634E-15
 21
1.0
 31
0.0
 73
     1
 44
1.0
  0
MTEXT
  5
276
330
26C
100
AcDbEntity
  8
VERMASSUNG
100
AcDbMText
 10
90.1192764532
 20
115.4850714215
 30
0.1
 40
2.0
 41
0.0
 71
     1
 72
     1
  1
63
  7
SLDTEXTSTYLE0
 11
-7.044195017643634E-15
 21
1.0
 31
0.0
 73
     1
 44
1.0
  0
ENDBLK
  5
26E
330
26C
100
AcDbEntity
  8
0
100
AcDbBlockEnd
  0
BLOCK
  5
27A
330
279
100
AcDbEntity
  8
0
100
AcDbBlockBegin
  2
_D_3
 70
     0
 10
0.0
 20
0.0
 30
0.0
  3
_D_3
  1

  0
SOLID
  5
27C
330
279
100
AcDbEntity
  8
VERMASSUNG
100
AcDbTrace
 10
161.5274332403
 20
126.8232059717
 30
0.0
 11
163.5364740829
 21
129.0961456745
 31
0.0
 12
162.7811794631
 22
129.5855637343
 32
0.0
 13
162.7811794631
 23
129.5855637343
 33
0.0
  0
LINE
  5
27D
330
279
100
AcDbEntity
  8
VERMASSUNG
100
AcDbLine
 10
161.5274332403
 20
126.8232059717
 30
0.0
 11
166.1497150127
 21
133.9565441962
 31
0.0
  0
MTEXT
  5
27E
330
279
100
AcDbEntity
  8
VERMASSUNG
100
AcDbMText
 10
161.2487634616
 20
131.1743370098
 30
0.1
 40
2.0
 41
0.0
 71
     1
 72
     1
  1
R4
  7
SLDTEXTSTYLE0
 11
0.5437978442544023
 21
0.8392162442328347
 31
0.0
 73
     1
 44
1.0
  0
ENDBLK
  5
27B
330
279
100
AcDbEntity
  8
0
100
AcDbBlockEnd
  0
BLOCK
  5
281
330
280
100
AcDbEntity
  8
0
100
AcDbBlockBegin
  2
_D_4
 70
     0
 10
0.0
 20
0.0
 30
0.0
  3
_D_4
  1

  0
SOLID
  5
283
330
280
100
AcDbEntity
  8
VERMASSUNG
100
AcDbTrace
 10
189.1411140751
 20
126.1800709487
 30
0.0
 11
188.6911140751
 21
123.1800709487
 31
0.0
 12
189.5911140751
 22
123.1800709487
 32
0.0
 13
189.5911140751
 23
123.1800709487
 33
0.0
  0
SOLID
  5
284
330
280
100
AcDbEntity
  8
VERMASSUNG
100
AcDbTrace
 10
189.1411140751
 20
101.1800709487
 30
0.0
 11
189.5911140751
 21
104.1800709487
 31
0.0
 12
188.6911140751
 22
104.1800709487
 32
0.0
 13
188.6911140751
 23
104.1800709487
 33
0.0
  0
LINE
  5
285
330
280
100
AcDbEntity
  8
VERMASSUNG
100
AcDbLine
 10
189.1411140751
 20
126.1800709487
 30
0.0
 11
189.1411140751
 21
101.1800709487
 31
0.0
  0
MTEXT
  5
286
330
280
100
AcDbEntity
  8
VERMASSUNG
100
AcDbMText
 10
186.5411140751
 20
102.826465722
 30
0.1
 40
2.0
 41
0.0
 71
     1
 72
     1
  1
%%c
  7
SLDTEXTSTYLE0
 11
-7.044195017643634E-15
 21
1.0
 31
0.0
 73
     1
 44
1.0
  0
MTEXT
  5
287
330
280
100
AcDbEntity
  8
VERMASSUNG
100
AcDbMText
 10
186.3411140656
 20
106.4364657363
 30
0.1
 40
2.0
 41
0.0
 71
     1
 72
     1
  1
25
  7
SLDTEXTSTYLE0
 11
-7.044195017643634E-15
 21
1.0
 31
0.0
 73
     1
 44
1.0
  0
ENDBLK
  5
282
330
280
100
AcDbEntity
  8
0
100
AcDbBlockEnd
  0
BLOCK
  5
28B
330
28A
100
AcDbEntity
  8
0
100
AcDbBlockBegin
  2
_D_5
 70
     0
 10
0.0
 20
0.0
 30
0.0
  3
_D_5
  1

  0
SOLID
  5
28D
330
28A
100
AcDbEntity
  8
VERMASSUNG
100
AcDbTrace
 10
256.9323045945
 20
117.3369251982
 30
0.0
 11
256.4823045945
 21
114.3369251982
 31
0.0
 12
257.3823045945
 22
114.3369251982
 32
0.0
 13
257.3823045945
 23
114.3369251982
 33
0.0
  0
SOLID
  5
28E
330
28A
100
AcDbEntity
  8
VERMASSUNG
100
AcDbTrace
 10
256.9323045945
 20
121.3369251982
 30
0.0
 11
257.3823045945
 21
124.3369251982
 31
0.0
 12
256.4823045945
 22
124.3369251982
 32
0.0
 13
256.4823045945
 23
124.3369251982
 33
0.0
  0
LINE
  5
28F
330
28A
100
AcDbEntity
  8
VERMASSUNG
100
AcDbLine
 10
256.9323045945
 20
117.3369251982
 30
0.0
 11
256.9323045945
 21
111.3369251982
 31
0.0
  0
LINE
  5
290
330
28A
100
AcDbEntity
  8
VERMASSUNG
100
AcDbLine
 10
256.9323045945
 20
117.3369251982
 30
0.0
 11
256.9323045945
 21
121.3369251982
 31
0.0
  0
LINE
  5
291
330
28A
100
AcDbEntity
  8
VERMASSUNG
100
AcDbLine
 10
256.9323045945
 20
121.3369251982
 30
0.0
 11
256.9323045945
 21
134.0990539941
 31
0.0
  0
MTEXT
  5
292
330
28A
100
AcDbEntity
  8
VERMASSUNG
100
AcDbMText
 10
254.3323047109
 20
128.8990535143
 30
0.1
 40
2.0
 41
0.0
 71
     1
 72
     1
  1
m
  7
SLDTEXTSTYLE0
 11
6.123233995736766E-17
 21
1.0
 31
0.0
 73
     1
 44
1.0
  0
MTEXT
  5
293
330
28A
100
AcDbEntity
  8
VERMASSUNG
100
AcDbMText
 10
254.3323047109
 20
130.6990535998
 30
0.1
 40
2.0
 41
0.0
 71
     1
 72
     1
  1
4
  7
SLDTEXTSTYLE0
 11
6.123233995736766E-17
 21
1.0
 31
0.0
 73
     1
 44
1.0
  0
ENDBLK
  5
28C
330
28A
100
AcDbEntity
  8
0
100
AcDbBlockEnd
  0
BLOCK
  5
3F1
330
3F0
100
AcDbEntity
  8
0
100
AcDbBlockBegin
  2
SW_CENTERMARKSYMBOL_0
 70
     0
 10
0.0
 20
0.0
 30
0.0
  3
SW_CENTERMARKSYMBOL_0
  1

  0
LINE
  5
3F3
330
3F0
100
AcDbEntity
  8
VERMASSUNG
 62
     0
100
AcDbLine
 10
0.0
 20
0.0
 30
0.0
 11
0.0
 21
2.5
 31
0.0
  0
LINE
  5
3F4
330
3F0
100
AcDbEntity
  8
VERMASSUNG
 62
     0
100
AcDbLine
 10
0.0
 20
0.0
 30
0.0
 11
-2.5
 21
0.0
 31
0.0
  0
LINE
  5
3F5
330
3F0
100
AcDbEntity
  8
VERMASSUNG
 62
     0
100
AcDbLine
 10
0.0
 20
0.0
 30
0.0
 11
0.0
 21
-2.5
 31
0.0
  0
LINE
  5
3F6
330
3F0
100
AcDbEntity
  8
VERMASSUNG
 62
     0
100
AcDbLine
 10
0.0
 20
0.0
 30
0.0
 11
2.5
 21
0.0
 31
0.0
  0
LINE
  5
3F7
330
3F0
100
AcDbEntity
  8
VERMASSUNG
 62
     0
100
AcDbLine
 10
0.0
 20
5.0
 30
0.0
 11
0.0
 21
34.0
 31
0.0
  0
LINE
  5
3F8
330
3F0
100
AcDbEntity
  8
VERMASSUNG
 62
     0
100
AcDbLine
 10
-5.0
 20
0.0
 30
0.0
 11
-34.0
 21
0.0
 31
0.0
  0
LINE
  5
3F9
330
3F0
100
AcDbEntity
  8
VERMASSUNG
 62
     0
100
AcDbLine
 10
0.0
 20
-5.0
 30
0.0
 11
0.0
 21
-34.0
 31
0.0
  0
LINE
  5
3FA
330
3F0
100
AcDbEntity
  8
VERMASSUNG
 62
     0
100
AcDbLine
 10
5.0
 20
0.0
 30
0.0
 11
34.0
 21
0.0
 31
0.0
  0
ENDBLK
  5
3F2
330
3F0
100
AcDbEntity
  8
0
100
AcDbBlockEnd
  0
ENDSEC
  0
SECTION
  2
ENTITIES
  0
MTEXT
  5
4B
330
1F
100
AcDbEntity
  8
KOPF_DÜNN
100
AcDbMText
 10
13.8892156294
 20
23.8770940835
 30
0.0
 40
3.0
 41
0.0
 71
     1
 72
     1
  1
PS6.WK3.025.150
  7
SLDTEXTSTYLE0
 73
     1
 44
1.0
  0
MTEXT
  5
4C
330
1F
100
AcDbEntity
  8
VERMASSUNG
100
AcDbMText
 10
13.9329988022
 20
28.9162328764
 30
0.0
 40
3.0
 41
0.0
 71
     1
 72
     1
  1
Bohrstange Ø25
  7
SLDTEXTSTYLE0
 73
     1
 44
1.0
  0
MTEXT
  5
4D
330
1F
100
AcDbEntity
  8
VERMASSUNG
100
AcDbMText
 10
98.8601118557
 20
13.8584013384
 30
0.0
 40
2.0
 41
0.0
 71
     1
 72
     1
  1
Datum: 07.05.2015
  7
SLDTEXTSTYLE0
 73
     1
 44
1.0
  0
MTEXT
  5
4E
330
1F
100
AcDbEntity
  8
VERMASSUNG
100
AcDbMText
 10
13.933048693
 20
18.0701447943
 30
0.0
 40
2.0
 41
0.0
 71
     1
 72
     1
  1
PSC ø63 / Wechselkopf-Bohrstange
  7
SLDTEXTSTYLE0
 73
     1
 44
1.0
  0
MTEXT
  5
4F
330
1F
100
AcDbEntity
  8
VERMASSUNG
100
AcDbMText
 10
13.9808475933
 20
13.9309618897
 30
0.0
 40
2.0
 41
0.0
 71
     1
 72
     1
  1
Gewicht: 1190g
  7
SLDTEXTSTYLE0
 73
     1
 44
1.0
  0
ARC
  5
50
330
1F
100
AcDbEntity
  8
0
  6
SLD-Durchgehend
 62
     7
370
    15
100
AcDbCircle
 10
138.2026246173
 20
82.6800709487
 30
0.0
 40
0.5
100
AcDbArc
 50
180.0
 51
270.0
  0
ARC
  5
51
330
1F
100
AcDbEntity
  8
0
  6
SLD-Durchgehend
 62
     7
370
    15
100
AcDbCircle
 10
138.2026246173
 20
144.6800709487
 30
0.0
 40
0.5
100
AcDbArc
 50
90.0
 51
180.0
  0
LINE
  5
52
330
1F
100
AcDbEntity
  8
0
  6
SLD-Durchgehend
 62
     7
370
    15
100
AcDbLine
 10
151.6780064685
 20
82.180070442
 30
0.0
 11
158.7026243342
 21
82.180070442
 31
0.0
  0
LINE
  5
53
330
1F
100
AcDbEntity
  8
0
  6
SLD-Durchgehend
 62
     7
370
    15
100
AcDbLine
 10
138.202624641
 20
82.180070442
 30
0.0
 11
147.7026243938
 21
82.180070442
 31
0.0
  0
LINE
  5
54
330
1F
100
AcDbEntity
  8
0
  6
SLD-Durchgehend
 62
     7
370
    15
100
AcDbLine
 10
158.7026243342
 20
145.1800714553
 30
0.0
 11
138.202624641
 21
145.1800714553
 31
0.0
  0
ARC
  5
55
330
1F
100
AcDbEntity
  8
0
  6
SLD-Durchgehend
 62
     7
370
    15
100
AcDbCircle
 10
158.7026246173
 20
83.1800709487
 30
0.0
 40
1.0
100
AcDbArc
 50
270.0
 51
0.0
  0
ARC
  5
56
330
1F
100
AcDbEntity
  8
0
  6
SLD-Durchgehend
 62
     7
370
    15
100
AcDbCircle
 10
158.7026246173
 20
144.1800709487
 30
0.0
 40
1.0
100
AcDbArc
 50
0.0
 51
90.0
  0
LWPOLYLINE
  5
57
330
1F
100
AcDbEntity
  8
0
  6
SLD-Durchgehend
 62
     7
370
    15
100
AcDbPolyline
 90
        3
 70
   128
 43
0.0
 10
137.5026246223
 20
91.1402504266
 10
137.6280795575
 20
91.0719490916
 10
137.7026246173
 20
91.0192101569
  0
ARC
  5
58
330
1F
100
AcDbEntity
  8
0
  6
SLD-Durchgehend
 62
     7
370
    15
100
AcDbCircle
 10
137.0884110549
 20
137.1300709487
 30
0.0
 40
1.000000000000028
100
AcDbArc
 50
225.0
 51
307.8947985336
  0
ARC
  5
59
330
1F
100
AcDbEntity
  8
0
  6
SLD-Durchgehend
 62
     7
370
    15
100
AcDbCircle
 10
163.7026246173
 20
97.1800709487
 30
0.0
 40
4.0
100
AcDbArc
 50
90.0
 51
180.0
  0
ARC
  5
5A
330
1F
100
AcDbEntity
  8
0
  6
SLD-Durchgehend
 62
     7
370
    15
100
AcDbCircle
 10
163.7026246173
 20
130.1800709487
 30
0.0
 40
4.0
100
AcDbArc
 50
180.0
 51
270.0
  0
ARC
  5
5B
330
1F
100
AcDbEntity
  8
0
  6
SLD-Durchgehend
 62
     7
370
    15
100
AcDbCircle
 10
135.7025615282
 20
93.054949053
 30
0.0
 40
0.2000000000000336
100
AcDbArc
 50
88.5608333333
 51
178.5608333333
  0
LINE
  5
5C
330
1F
100
AcDbEntity
  8
0
  6
SLD-Durchgehend
 62
     7
370
    15
100
AcDbLine
 10
126.6229658631
 20
93.283059758
 30
0.0
 11
135.5026246292
 21
93.0599726111
 31
0.0
  0
LINE
  5
5D
330
1F
100
AcDbEntity
  8
0
  6
SLD-Durchgehend
 62
     7
370
    15
100
AcDbLine
 10
108.0446311516
 20
93.7498125554
 30
0.0
 11
118.0273083282
 21
93.499012974
 31
0.0
  0
ARC
  5
5E
330
1F
100
AcDbEntity
  8
0
  6
SLD-Durchgehend
 62
     7
370
    15
100
AcDbCircle
 10
137.3026246173
 20
93.0147498988
 30
0.0
 40
0.2000000000000171
100
AcDbArc
 50
0.0
 51
88.5608333333
  0
LINE
  5
5F
330
1F
100
AcDbEntity
  8
0
  6
SLD-Durchgehend
 62
     7
370
    15
100
AcDbLine
 10
135.7075847463
 20
93.2548853875
 30
0.0
 11
137.3076477157
 21
93.2146876425
 31
0.0
  0
LINE
  5
60
330
1F
100
AcDbEntity
  8
0
  6
SLD-Durchgehend
 62
     7
370
    15
100
AcDbLine
 10
252.2026256902
 20
126.1800711349
 30
0.0
 11
163.7026251537
 21
126.1800711349
 31
0.0
  0
LINE
  5
61
330
1F
100
AcDbEntity
  8
0
  6
SLD-Durchgehend
 62
     7
370
    15
100
AcDbLine
 10
163.7026251537
 20
101.1800707624
 30
0.0
 11
252.2026256902
 21
101.1800707624
 31
0.0
  0
LINE
  5
62
330
1F
100
AcDbEntity
  8
0
  6
SLD-Durchgehend
 62
     7
370
    15
100
AcDbLine
 10
252.2026256902
 20
101.1800707624
 30
0.0
 11
252.9693798406
 21
101.9468258441
 31
0.0
  0
LINE
  5
63
330
1F
100
AcDbEntity
  8
0
  6
SLD-Durchgehend
 62
     7
370
    15
100
AcDbLine
 10
252.9693798406
 20
125.4133160532
 30
0.0
 11
252.2026256902
 21
126.1800711349
 31
0.0
  0
LINE
  5
64
330
1F
100
AcDbEntity
  8
0
  6
SLD-Durchgehend
 62
     7
370
    15
100
AcDbLine
 10
135.5026246292
 20
137.1001701177
 30
0.0
 11
101.2026251537
 21
136.2384341032
 31
0.0
  0
ARC
  5
65
330
1F
100
AcDbEntity
  8
0
  6
SLD-Durchgehend
 62
     7
370
    15
100
AcDbCircle
 10
135.7025615282
 20
137.1051928444
 30
0.0
 40
0.2000000000000336
100
AcDbArc
 50
181.4391666667
 51
271.4391666667
  0
LINE
  5
66
330
1F
100
AcDbEntity
  8
0
  6
SLD-Durchgehend
 62
     7
370
    15
100
AcDbLine
 10
135.9083638072
 20
136.9102995217
 30
0.0
 11
135.7075847463
 21
136.9052554787
 31
0.0
  0
LINE
  5
67
330
1F
100
AcDbEntity
  8
0
  6
SLD-Durchgehend
 62
     7
370
    15
100
AcDbLine
 10
101.2026251537
 20
136.2384341032
 30
0.0
 11
99.7026258392
 21
135.3724084169
 31
0.0
  0
LINE
  5
68
330
1F
100
AcDbEntity
  8
0
  6
SLD-Durchgehend
 62
     7
370
    15
100
AcDbLine
 10
136.3813043117
 20
136.4229644955
 30
0.0
 11
135.9185592282
 21
136.8857088805
 31
0.0
  0
LINE
  5
69
330
1F
100
AcDbEntity
  8
0
  6
SLD-Durchgehend
 62
     7
370
    15
100
AcDbLine
 10
262.002627669
 20
111.5232168072
 30
0.0
 11
258.2026229484
 21
111.5232168072
 31
0.0
  0
LINE
  5
6A
330
1F
100
AcDbEntity
  8
0
  6
SLD-Durchgehend
 62
     7
370
    15
100
AcDbLine
 10
258.2026229484
 20
104.5232170568
 30
0.0
 11
262.002627669
 21
104.5232170568
 31
0.0
  0
ARC
  5
6B
330
1F
100
AcDbEntity
  8
0
  6
SLD-Durchgehend
 62
     7
370
    15
100
AcDbCircle
 10
262.0026246173
 20
111.3232166992
 30
0.0
 40
0.2000000000000455
100
AcDbArc
 50
0.0
 51
90.0
  0
ARC
  5
6C
330
1F
100
AcDbEntity
  8
0
  6
SLD-Durchgehend
 62
     7
370
    15
100
AcDbCircle
 10
262.0026246173
 20
104.7232166992
 30
0.0
 40
0.2000000000000455
100
AcDbArc
 50
270.0
 51
0.0
  0
ARC
  5
6D
330
1F
100
AcDbEntity
  8
0
  6
SLD-Durchgehend
 62
     7
370
    15
100
AcDbCircle
 10
258.0026246173
 20
105.8232166992
 30
0.0
 40
0.2000000000000171
100
AcDbArc
 50
0.0
 51
90.0
  0
ARC
  5
6E
330
1F
100
AcDbEntity
  8
0
  6
SLD-Durchgehend
 62
     7
370
    15
100
AcDbCircle
 10
258.0026246173
 20
110.2232166992
 30
0.0
 40
0.1999999999999886
100
AcDbArc
 50
270.0
 51
0.0
  0
LINE
  5
6F
330
1F
100
AcDbEntity
  8
0
  6
SLD-Durchgehend
 62
     7
370
    15
100
AcDbLine
 10
258.0026270134
 20
110.0232167941
 30
0.0
 11
252.3283467872
 21
110.0232167941
 31
0.0
  0
LINE
  5
70
330
1F
100
AcDbEntity
  8
0
  6
SLD-Durchgehend
 62
     7
370
    15
100
AcDbLine
 10
252.4343014938
 20
106.023216837
 30
0.0
 11
258.0026270134
 21
106.023216837
 31
0.0
  0
LINE
  5
71
330
1F
100
AcDbEntity
  8
0
  6
SLD-Durchgehend
 62
     7
370
    15
100
AcDbLine
 10
262.002627669
 20
122.8369248406
 30
0.0
 11
258.2026229484
 21
122.8369248406
 31
0.0
  0
LINE
  5
72
330
1F
100
AcDbEntity
  8
0
  6
SLD-Durchgehend
 62
     7
370
    15
100
AcDbLine
 10
258.2026229484
 20
115.8369250902
 30
0.0
 11
262.002627669
 21
115.8369250902
 31
0.0
  0
ARC
  5
73
330
1F
100
AcDbEntity
  8
0
  6
SLD-Durchgehend
 62
     7
370
    15
100
AcDbCircle
 10
262.0026246173
 20
122.6369251982
 30
0.0
 40
0.2000000000000455
100
AcDbArc
 50
0.0
 51
90.0
  0
ARC
  5
74
330
1F
100
AcDbEntity
  8
0
  6
SLD-Durchgehend
 62
     7
370
    15
100
AcDbCircle
 10
262.0026246173
 20
116.0369251982
 30
0.0
 40
0.2000000000000455
100
AcDbArc
 50
270.0
 51
0.0
  0
ARC
  5
75
330
1F
100
AcDbEntity
  8
0
  6
SLD-Durchgehend
 62
     7
370
    15
100
AcDbCircle
 10
258.0026246173
 20
117.1369251982
 30
0.0
 40
0.1999999999999886
100
AcDbArc
 50
0.0
 51
90.0
  0
ARC
  5
76
330
1F
100
AcDbEntity
  8
0
  6
SLD-Durchgehend
 62
     7
370
    15
100
AcDbCircle
 10
258.0026246173
 20
121.5369251982
 30
0.0
 40
0.2000000000000028
100
AcDbArc
 50
270.0
 51
0.0
  0
LINE
  5
77
330
1F
100
AcDbEntity
  8
0
  6
SLD-Durchgehend
 62
     7
370
    15
100
AcDbLine
 10
258.0026270134
 20
121.3369250604
 30
0.0
 11
252.4343014938
 21
121.3369250604
 31
0.0
  0
LINE
  5
78
330
1F
100
AcDbEntity
  8
0
  6
SLD-Durchgehend
 62
     7
370
    15
100
AcDbLine
 10
252.3278252465
 20
117.3369251032
 30
0.0
 11
258.0026270134
 21
117.3369251032
 31
0.0
  0
LINE
  5
79
330
1F
100
AcDbEntity
  8
0
  6
SLD-Durchgehend
 62
     7
370
    15
100
AcDbLine
 10
137.7026246173
 20
113.6800709487
 30
0.0
 11
137.7026246173
 21
144.680070442
 31
0.0
  0
LINE
  5
7A
330
1F
100
AcDbEntity
  8
0
  6
SLD-Durchgehend
 62
     7
370
    15
100
AcDbLine
 10
137.7026246173
 20
82.6800714553
 30
0.0
 11
137.7026246173
 21
113.6800709487
 31
0.0
  0
ARC
  5
7B
330
1F
100
AcDbEntity
  8
0
  6
SLD-Durchgehend
 62
     7
370
    15
100
AcDbCircle
 10
149.7025808318
 20
50.7173356881
 30
0.0
 40
31.5262351692719
100
AcDbArc
 50
86.4075080127
 51
93.6371631425
  0
ARC
  5
7C
330
1F
100
AcDbEntity
  8
0
  6
SLD-Durchgehend
 62
     7
370
    15
100
AcDbCircle
 10
148.1950390913
 20
84.1630919612
 30
0.0
 40
0.5526447928270382
100
AcDbArc
 50
223.9804562779
 51
273.6666593763
  0
LINE
  5
7D
330
1F
100
AcDbEntity
  8
0
  6
SLD-Durchgehend
 62
     7
370
    15
100
AcDbLine
 10
151.1748678294
 20
83.6115784318
 30
0.0
 11
148.2303816137
 21
83.6115784318
 31
0.0
  0
ARC
  5
7E
330
1F
100
AcDbEntity
  8
0
  6
SLD-Durchgehend
 62
     7
370
    15
100
AcDbCircle
 10
151.2029254366
 20
84.1818965227
 30
0.0
 40
0.5710078407187152
100
AcDbArc
 50
267.1835236459
 51
315.1693606999
  0
ELLIPSE
  5
7F
330
1F
100
AcDbEntity
  8
0
  6
SLD-Durchgehend
 62
     7
370
    15
100
AcDbEllipse
 10
135.3554704279
 20
113.6800709487
 30
0.0
 11
-14.75368316065621
 21
31.09325491558114
 31
0.0
210
0.0
220
0.0
230
1.0
 40
0.3419987131
 41
3.300734856217119
 42
4.23149622336077
  0
ARC
  5
80
330
1F
100
AcDbEntity
  8
0
  6
SLD-Durchgehend
 62
     7
370
    15
100
AcDbCircle
 10
150.9959955192
 20
103.7029368595
 30
0.0
 40
0.6156261375998079
100
AcDbArc
 50
6.3196381307
 51
73.1089056582
  0
LINE
  5
81
330
1F
100
AcDbEntity
  8
0
  6
SLD-Durchgehend
 62
     7
370
    15
100
AcDbLine
 10
148.2303816137
 20
104.2920041204
 30
0.0
 11
151.1748678294
 21
104.2920041204
 31
0.0
  0
LWPOLYLINE
  5
82
330
1F
100
AcDbEntity
  8
0
  6
SLD-Durchgehend
 62
     7
370
    15
100
AcDbPolyline
 90
        6
 70
   128
 43
0.0
 10
147.7973687706
 20
103.7707018972
 10
147.8428052051
 20
103.9095341534
 10
147.9700313193
 20
104.1410274178
 10
148.0506838543
 20
104.2231868327
 10
148.1539125798
 20
104.2799053088
 10
148.2303816137
 20
104.2920041204
  0
ELLIPSE
  5
83
330
1F
100
AcDbEntity
  8
0
  6
SLD-Durchgehend
 62
     7
370
    15
100
AcDbEllipse
 10
164.0497788066
 20
113.6800709487
 30
0.0
 11
14.75368316065624
 21
31.09325491558115
 31
0.0
210
0.0
220
0.0
230
1.0
 40
0.3419987131
 41
2.05168908381883
 42
2.982450450962506
  0
ARC
  5
84
330
1F
100
AcDbEntity
  8
0
  6
SLD-Durchgehend
 62
     7
370
    15
100
AcDbCircle
 10
148.409253924
 20
123.6572050379
 30
0.0
 40
0.6156261375997998
100
AcDbArc
 50
186.3196381307
 51
253.1089056582
  0
LINE
  5
85
330
1F
100
AcDbEntity
  8
0
  6
SLD-Durchgehend
 62
     7
370
    15
100
AcDbLine
 10
151.1748678294
 20
123.0681377769
 30
0.0
 11
148.2303816137
 21
123.0681377769
 31
0.0
  0
LWPOLYLINE
  5
86
330
1F
100
AcDbEntity
  8
0
  6
SLD-Durchgehend
 62
     7
370
    15
100
AcDbPolyline
 90
        6
 70
   128
 43
0.0
 10
151.6078806726
 20
123.5894400001
 10
151.4821651635
 20
123.2864956678
 10
151.4025398774
 20
123.1812441096
 10
151.2959704978
 20
123.0987745643
 10
151.2148299498
 20
123.0714262769
 10
151.1748678294
 20
123.0681377769
  0
ELLIPSE
  5
87
330
1F
100
AcDbEntity
  8
0
  6
SLD-Durchgehend
 62
     7
370
    15
100
AcDbEllipse
 10
135.3554704279
 20
113.6800709487
 30
0.0
 11
14.75368316065615
 21
31.09325491558114
 31
0.0
210
0.0
220
0.0
230
1.0
 40
0.3419987131
 41
5.193281737408629
 42
6.124043104552335
  0
ARC
  5
88
330
1F
100
AcDbEntity
  8
0
  6
SLD-Durchgehend
 62
     7
370
    15
100
AcDbCircle
 10
151.2102103518
 20
143.1970499361
 30
0.0
 40
0.5526447928270523
100
AcDbArc
 50
43.9804562779
 51
93.6666593763
  0
LINE
  5
89
330
1F
100
AcDbEntity
  8
0
  6
SLD-Durchgehend
 62
     7
370
    15
100
AcDbLine
 10
148.2303816137
 20
143.7485634655
 30
0.0
 11
151.1748678294
 21
143.7485634655
 31
0.0
  0
ARC
  5
8A
330
1F
100
AcDbEntity
  8
0
  6
SLD-Durchgehend
 62
     7
370
    15
100
AcDbCircle
 10
148.2114515707
 20
143.1546843809
 30
0.0
 40
0.5941807079842517
100
AcDbArc
 50
88.1743009826
 51
134.1785833632
  0
ELLIPSE
  5
8B
330
1F
100
AcDbEntity
  8
0
  6
SLD-Durchgehend
 62
     7
370
    15
100
AcDbEllipse
 10
164.0497788066
 20
113.6800709487
 30
0.0
 11
-14.75368316065615
 21
31.09325491558114
 31
0.0
210
0.0
220
0.0
230
1.0
 40
0.3419987131
 41
0.1591422026272955
 42
1.08990356977097
  0
LINE
  5
8C
330
1F
100
AcDbEntity
  8
0
  6
SLD-Durchgehend
 62
     7
370
    15
100
AcDbLine
 10
159.7026244981
 20
113.6800709487
 30
0.0
 11
159.7026244981
 21
144.1800712914
 31
0.0
  0
LINE
  5
8D
330
1F
100
AcDbEntity
  8
0
  6
SLD-Durchgehend
 62
     7
370
    15
100
AcDbLine
 10
159.7026244981
 20
83.1800706059
 30
0.0
 11
159.7026244981
 21
113.6800709487
 31
0.0
  0
LINE
  5
8E
330
1F
100
AcDbEntity
  8
0
  6
SLD-Durchgehend
 62
     7
370
    15
100
AcDbLine
 10
137.5026246223
 20
96.8898690612
 30
0.0
 11
137.5026246223
 21
91.1402504266
 31
0.0
  0
LWPOLYLINE
  5
8F
330
1F
100
AcDbEntity
  8
0
  6
SLD-Durchgehend
 62
     7
370
    15
100
AcDbPolyline
 90
        9
 70
   128
 43
0.0
 10
137.5026246223
 20
96.8898690612
 10
137.4659171688
 20
97.1989545346
 10
137.4452056316
 20
97.2547947735
 10
137.4114001646
 20
97.3101898403
 10
137.3887579666
 20
97.3317108423
 10
137.3705483984
 20
97.3423037053
 10
137.3500275203
 20
97.3481412352
 10
137.3322521813
 20
97.3484839619
 10
137.3076477157
 20
97.3422273368
  0
ARC
  5
90
330
1F
100
AcDbEntity
  8
0
  6
SLD-Durchgehend
 62
     7
370
    15
100
AcDbCircle
 10
137.1216179962
 20
97.798214841
 30
0.0
 40
0.4924750353977182
100
AcDbArc
 50
241.4315514587
 51
292.1940395248
  0
LWPOLYLINE
  5
91
330
1F
100
AcDbEntity
  8
0
  6
SLD-Durchgehend
 62
     7
370
    15
100
AcDbPolyline
 90
        3
 70
   128
 43
0.0
 10
136.8861123465
 20
97.365700391
 10
136.6840083628
 20
97.5264895082
 10
136.3813043117
 20
98.1168697894
  0
ARC
  5
92
330
1F
100
AcDbEntity
  8
0
  6
SLD-Durchgehend
 62
     7
370
    15
100
AcDbCircle
 10
138.8554695179
 20
106.9500460204
 30
0.0
 40
2.478680307343514
100
AcDbArc
 50
142.6097932206
 51
176.5411871548
  0
ARC
  5
93
330
1F
100
AcDbEntity
  8
0
  6
SLD-Durchgehend
 62
     7
370
    15
100
AcDbCircle
 10
137.1099849947
 20
108.2765145698
 30
0.0
 40
0.2864392312086183
100
AcDbArc
 50
46.3644601353
 51
141.4046572264
  0
LWPOLYLINE
  5
94
330
1F
100
AcDbEntity
  8
0
  6
SLD-Durchgehend
 62
     7
370
    15
100
AcDbPolyline
 90
        9
 70
   128
 43
0.0
 10
137.3076477157
 20
108.4838232332
 10
137.3292465414
 20
108.4690254488
 10
137.3492974508
 20
108.4623259798
 10
137.3700029053
 20
108.4630389073
 10
137.3863443277
 20
108.469694604
 10
137.4087902204
 20
108.4891517953
 10
137.4389220273
 20
108.5400755823
 10
137.486440899
 20
108.7433115885
 10
137.5026246223
 20
109.0521353603
  0
LINE
  5
95
330
1F
100
AcDbEntity
  8
0
  6
SLD-Durchgehend
 62
     7
370
    15
100
AcDbLine
 10
137.5026246223
 20
135.0982084245
 30
0.0
 11
137.5026246223
 21
109.0521353603
 31
0.0
  0
LWPOLYLINE
  5
96
330
1F
100
AcDbEntity
  8
0
  6
SLD-Durchgehend
 62
     7
370
    15
100
AcDbPolyline
 90
        9
 70
   128
 43
0.0
 10
137.5026246223
 20
135.0982084245
 10
137.4659171688
 20
135.2163913966
 10
137.4452056316
 20
135.2298471451
 10
137.4114001646
 20
135.2377130956
 10
137.3887579666
 20
135.2373219401
 10
137.3705483984
 20
135.2347384513
 10
137.3500275203
 20
135.2298564584
 10
137.3322521813
 20
135.224147451
 10
137.3076477157
 20
135.2141618103
  0
ARC
  5
97
330
1F
100
AcDbEntity
  8
0
  6
SLD-Durchgehend
 62
     7
370
    15
100
AcDbCircle
 10
137.1022515716
 20
135.6562294458
 30
0.0
 40
0.4874539673626476
100
AcDbArc
 50
243.6787033
 51
294.9208090432
  0
ARC
  5
98
330
1F
100
AcDbEntity
  8
0
  6
SLD-Durchgehend
 62
     7
370
    15
100
AcDbCircle
 10
137.4419248569
 20
136.1965283927
 30
0.0
 40
1.124222281050603
100
AcDbArc
 50
199.364891809
 51
240.3699815947
  0
ARC
  5
99
330
1F
100
AcDbEntity
  8
0
  6
SLD-Durchgehend
 62
     7
370
    15
100
AcDbCircle
 10
156.4157197819
 20
102.608228552
 30
0.0
 40
20.53168543411518
100
AcDbArc
 50
167.3642245526
 51
192.6357754474
  0
LINE
  5
9A
330
1F
100
AcDbEntity
  8
0
  6
SLD-Durchgehend
 62
     7
370
    15
100
AcDbLine
 10
101.2026251537
 20
108.4551999652
 30
0.0
 11
101.2026251537
 21
134.6161875249
 31
0.0
  0
LINE
  5
9B
330
1F
100
AcDbEntity
  8
0
  6
SLD-Durchgehend
 62
     7
370
    15
100
AcDbLine
 10
135.5026246292
 20
108.4551999652
 30
0.0
 11
135.5026246292
 21
135.3624712051
 31
0.0
  0
LINE
  5
9C
330
1F
100
AcDbEntity
  8
0
  6
SLD-Durchgehend
 62
     7
370
    15
100
AcDbLine
 10
135.5026246292
 20
97.2225412101
 30
0.0
 11
135.5026246292
 21
108.4551999652
 31
0.0
  0
LINE
  5
9D
330
1F
100
AcDbEntity
  8
0
  6
SLD-Durchgehend
 62
     7
370
    15
100
AcDbLine
 10
101.2026251537
 20
97.968826753
 30
0.0
 11
101.2026251537
 21
108.4551999652
 31
0.0
  0
LINE
  5
9E
330
1F
100
AcDbEntity
  8
0
  6
SLD-Durchgehend
 62
     7
370
    15
100
AcDbLine
 10
99.7026258392
 20
108.4551999652
 30
0.0
 11
99.7026258392
 21
133.8661860049
 31
0.0
  0
LINE
  5
9F
330
1F
100
AcDbEntity
  8
0
  6
SLD-Durchgehend
 62
     7
370
    15
100
AcDbLine
 10
99.7026258392
 20
98.7188264102
 30
0.0
 11
99.7026258392
 21
108.4551999652
 31
0.0
  0
LINE
  5
A0
330
1F
100
AcDbEntity
  8
0
  6
SLD-Durchgehend
 62
     7
370
    15
100
AcDbLine
 10
135.5026246292
 20
93.0599726111
 30
0.0
 11
135.5026246292
 21
97.2225412101
 31
0.0
  0
LINE
  5
A1
330
1F
100
AcDbEntity
  8
0
  6
SLD-Durchgehend
 62
     7
370
    15
100
AcDbLine
 10
101.2026251537
 20
94.1830805809
 30
0.0
 11
106.1526232643
 21
94.0738085032
 31
0.0
  0
LINE
  5
A2
330
1F
100
AcDbEntity
  8
0
  6
SLD-Durchgehend
 62
     7
370
    15
100
AcDbLine
 10
101.2026251537
 20
94.1830805809
 30
0.0
 11
101.2026251537
 21
97.968826753
 31
0.0
  0
LWPOLYLINE
  5
A3
330
1F
100
AcDbEntity
  8
0
  6
SLD-Durchgehend
 62
     7
370
    15
100
AcDbPolyline
 90
        5
 70
   128
 43
0.0
 10
106.1526232643
 20
94.0738085032
 10
107.0237023068
 20
93.9138314993
 10
107.7429701818
 20
93.7983288736
 10
108.0750481469
 20
93.7500658751
 10
108.0447466356
 20
93.7543965251
  0
ARC
  5
A4
330
1F
100
AcDbEntity
  8
0
  6
SLD-Durchgehend
 62
     7
370
    15
100
AcDbCircle
 10
121.434385167
 20
58.4910606232
 30
0.0
 40
35.18031587467557
100
AcDbArc
 50
81.5186266954
 51
95.5572947612
  0
LINE
  5
A5
330
1F
100
AcDbEntity
  8
0
  6
SLD-Durchgehend
 62
     7
370
    15
100
AcDbLine
 10
99.7026258392
 20
94.9315919847
 30
0.0
 11
101.2026251537
 21
94.1830805809
 31
0.0
  0
LINE
  5
A6
330
1F
100
AcDbEntity
  8
0
  6
SLD-Durchgehend
 62
     7
370
    15
100
AcDbLine
 10
99.7026258392
 20
94.9315919847
 30
0.0
 11
99.7026258392
 21
98.7188264102
 31
0.0
  0
LINE
  5
A7
330
1F
100
AcDbEntity
  8
0
  6
SLD-Durchgehend
 62
     7
370
    15
100
AcDbLine
 10
252.2026256902
 20
126.1800711349
 30
0.0
 11
252.2026256902
 21
101.1800707624
 31
0.0
  0
LWPOLYLINE
  5
A8
330
1F
100
AcDbEntity
  8
0
  6
SLD-Durchgehend
 62
     7
370
    15
100
AcDbPolyline
 90
        4
 70
   128
 43
0.0
 10
252.9280589206
 20
125.3719932706
 10
252.9559836966
 20
125.3881172583
 10
252.7500720007
 20
125.269234863
 10
252.3426220996
 20
125.0339939565
  0
ARC
  5
A9
330
1F
100
AcDbEntity
  8
0
  6
SLD-Durchgehend
 62
     7
370
    15
100
AcDbCircle
 10
252.4026268899
 20
124.93007093
 30
0.0
 40
0.1200023762138468
100
AcDbArc
 50
120.0019860052
 51
239.9980139948
  0
LINE
  5
AA
330
1F
100
AcDbEntity
  8
0
  6
SLD-Durchgehend
 62
     7
370
    15
100
AcDbLine
 10
252.3426220996
 20
124.8261479036
 30
0.0
 11
253.0026243312
 21
124.4450963408
 31
0.0
  0
LINE
  5
AB
330
1F
100
AcDbEntity
  8
0
  6
SLD-Durchgehend
 62
     7
370
    15
100
AcDbLine
 10
253.0026243312
 20
124.4450963408
 30
0.0
 11
253.0026243312
 21
124.1650448487
 31
0.0
  0
LINE
  5
AC
330
1F
100
AcDbEntity
  8
0
  6
SLD-Durchgehend
 62
     7
370
    15
100
AcDbLine
 10
253.0026243312
 20
124.1650448487
 30
0.0
 11
252.3426220996
 21
123.7839942173
 31
0.0
  0
LWPOLYLINE
  5
AD
330
1F
100
AcDbEntity
  8
0
  6
SLD-Durchgehend
 62
     7
370
    15
100
AcDbPolyline
 90
        9
 70
   128
 43
0.0
 10
252.3426220996
 20
123.7839942173
 10
252.286459623
 20
123.710154307
 10
252.2827194316
 20
123.6753852413
 10
252.2869886143
 20
123.6479987696
 10
252.2942678315
 20
123.6285155014
 10
252.303372441
 20
123.612620619
 10
252.3155541403
 20
123.5974987344
 10
252.3276240808
 20
123.586393644
 10
252.3426220996
 20
123.5761481643
  0
LINE
  5
AE
330
1F
100
AcDbEntity
  8
0
  6
SLD-Durchgehend
 62
     7
370
    15
100
AcDbLine
 10
252.3426220996
 20
123.5761481643
 30
0.0
 11
253.0026243312
 21
123.1950966016
 31
0.0
  0
LINE
  5
AF
330
1F
100
AcDbEntity
  8
0
  6
SLD-Durchgehend
 62
     7
370
    15
100
AcDbLine
 10
253.0026243312
 20
123.1950966016
 30
0.0
 11
253.0026243312
 21
122.9150451095
 31
0.0
  0
LINE
  5
B0
330
1F
100
AcDbEntity
  8
0
  6
SLD-Durchgehend
 62
     7
370
    15
100
AcDbLine
 10
253.0026243312
 20
122.9150451095
 30
0.0
 11
252.3426220996
 21
122.5339935467
 31
0.0
  0
ARC
  5
B1
330
1F
100
AcDbEntity
  8
0
  6
SLD-Durchgehend
 62
     7
370
    15
100
AcDbCircle
 10
252.4026279089
 20
122.4300705203
 30
0.0
 40
0.1200028857508754
100
AcDbArc
 50
120.0024073424
 51
239.9975926577
  0
LINE
  5
B2
330
1F
100
AcDbEntity
  8
0
  6
SLD-Durchgehend
 62
     7
370
    15
100
AcDbLine
 10
252.3426220996
 20
122.3261474938
 30
0.0
 11
253.0026243312
 21
121.9450968624
 31
0.0
  0
LINE
  5
B3
330
1F
100
AcDbEntity
  8
0
  6
SLD-Durchgehend
 62
     7
370
    15
100
AcDbLine
 10
253.0026243312
 20
121.9450968624
 30
0.0
 11
253.0026243312
 21
121.6650453702
 31
0.0
  0
LINE
  5
B4
330
1F
100
AcDbEntity
  8
0
  6
SLD-Durchgehend
 62
     7
370
    15
100
AcDbLine
 10
253.0026243312
 20
121.6650453702
 30
0.0
 11
252.3426220996
 21
121.2839938075
 31
0.0
  0
ARC
  5
B5
330
1F
100
AcDbEntity
  8
0
  6
SLD-Durchgehend
 62
     7
370
    15
100
AcDbCircle
 10
252.4026278512
 20
121.180070781
 30
0.0
 40
0.1200028568677798
100
AcDbArc
 50
120.0023834591
 51
239.9976165409
  0
LINE
  5
B6
330
1F
100
AcDbEntity
  8
0
  6
SLD-Durchgehend
 62
     7
370
    15
100
AcDbLine
 10
252.3426220996
 20
121.0761477546
 30
0.0
 11
253.0026243312
 21
120.6950966575
 31
0.0
  0
LINE
  5
B7
330
1F
100
AcDbEntity
  8
0
  6
SLD-Durchgehend
 62
     7
370
    15
100
AcDbLine
 10
253.0026243312
 20
120.6950966575
 30
0.0
 11
253.0026243312
 21
120.4150451653
 31
0.0
  0
LINE
  5
B8
330
1F
100
AcDbEntity
  8
0
  6
SLD-Durchgehend
 62
     7
370
    15
100
AcDbLine
 10
253.0026243312
 20
120.4150451653
 30
0.0
 11
252.3426220996
 21
120.0339940683
 31
0.0
  0
ARC
  5
B9
330
1F
100
AcDbEntity
  8
0
  6
SLD-Durchgehend
 62
     7
370
    15
100
AcDbCircle
 10
252.4026203423
 20
119.9300710418
 30
0.0
 40
0.1199991023211227
100
AcDbArc
 50
119.9992786034
 51
240.0007213966
  0
LINE
  5
BA
330
1F
100
AcDbEntity
  8
0
  6
SLD-Durchgehend
 62
     7
370
    15
100
AcDbLine
 10
252.3426220996
 20
119.8261480153
 30
0.0
 11
253.0026243312
 21
119.4450969183
 31
0.0
  0
LINE
  5
BB
330
1F
100
AcDbEntity
  8
0
  6
SLD-Durchgehend
 62
     7
370
    15
100
AcDbLine
 10
253.0026243312
 20
119.4450969183
 30
0.0
 11
253.0026243312
 21
119.1650449604
 31
0.0
  0
LINE
  5
BC
330
1F
100
AcDbEntity
  8
0
  6
SLD-Durchgehend
 62
     7
370
    15
100
AcDbLine
 10
253.0026243312
 20
119.1650449604
 30
0.0
 11
252.3426220996
 21
118.7839938634
 31
0.0
  0
ARC
  5
BD
330
1F
100
AcDbEntity
  8
0
  6
SLD-Durchgehend
 62
     7
370
    15
100
AcDbCircle
 10
252.4026314937
 20
118.6800708369
 30
0.0
 40
0.1200046782808629
100
AcDbArc
 50
120.0038895179
 51
239.9961104821
  0
LINE
  5
BE
330
1F
100
AcDbEntity
  8
0
  6
SLD-Durchgehend
 62
     7
370
    15
100
AcDbLine
 10
252.3426220996
 20
118.5761478104
 30
0.0
 11
253.0026243312
 21
118.1950967134
 31
0.0
  0
LINE
  5
BF
330
1F
100
AcDbEntity
  8
0
  6
SLD-Durchgehend
 62
     7
370
    15
100
AcDbLine
 10
253.0026243312
 20
118.1950967134
 30
0.0
 11
253.0026243312
 21
117.9150452212
 31
0.0
  0
LINE
  5
C0
330
1F
100
AcDbEntity
  8
0
  6
SLD-Durchgehend
 62
     7
370
    15
100
AcDbLine
 10
253.0026243312
 20
117.9150452212
 30
0.0
 11
252.3426220996
 21
117.5339938913
 31
0.0
  0
ARC
  5
C1
330
1F
100
AcDbEntity
  8
0
  6
SLD-Durchgehend
 62
     7
370
    15
100
AcDbCircle
 10
252.4026276722
 20
117.4300708648
 30
0.0
 40
0.1200027673651492
100
AcDbArc
 50
120.0023094498
 51
239.9976905502
  0
LINE
  5
C2
330
1F
100
AcDbEntity
  8
0
  6
SLD-Durchgehend
 62
     7
370
    15
100
AcDbLine
 10
252.3426220996
 20
117.3261478384
 30
0.0
 11
253.0026243312
 21
116.9450967413
 31
0.0
  0
LINE
  5
C3
330
1F
100
AcDbEntity
  8
0
  6
SLD-Durchgehend
 62
     7
370
    15
100
AcDbLine
 10
253.0026243312
 20
116.9450967413
 30
0.0
 11
253.0026243312
 21
116.6650452492
 31
0.0
  0
LINE
  5
C4
330
1F
100
AcDbEntity
  8
0
  6
SLD-Durchgehend
 62
     7
370
    15
100
AcDbLine
 10
253.0026243312
 20
116.6650452492
 30
0.0
 11
252.3426220996
 21
116.2839939193
 31
0.0
  0
ARC
  5
C5
330
1F
100
AcDbEntity
  8
0
  6
SLD-Durchgehend
 62
     7
370
    15
100
AcDbCircle
 10
252.4026245453
 20
116.1800708928
 30
0.0
 40
0.1200012038491442
100
AcDbArc
 50
120.0010165405
 51
239.9989834595
  0
LINE
  5
C6
330
1F
100
AcDbEntity
  8
0
  6
SLD-Durchgehend
 62
     7
370
    15
100
AcDbLine
 10
252.3426220996
 20
116.0761478663
 30
0.0
 11
253.0026243312
 21
115.6950967692
 31
0.0
  0
LINE
  5
C7
330
1F
100
AcDbEntity
  8
0
  6
SLD-Durchgehend
 62
     7
370
    15
100
AcDbLine
 10
253.0026243312
 20
115.6950967692
 30
0.0
 11
253.0026243312
 21
115.4150451607
 31
0.0
  0
LINE
  5
C8
330
1F
100
AcDbEntity
  8
0
  6
SLD-Durchgehend
 62
     7
370
    15
100
AcDbLine
 10
253.0026243312
 20
115.4150451607
 30
0.0
 11
252.3426220996
 21
115.0339939472
 31
0.0
  0
ARC
  5
C9
330
1F
100
AcDbEntity
  8
0
  6
SLD-Durchgehend
 62
     7
370
    15
100
AcDbCircle
 10
252.4026325572
 20
114.9300709207
 30
0.0
 40
0.1200052101134097
100
AcDbArc
 50
120.0043292489
 51
239.9956707511
  0
LINE
  5
CA
330
1F
100
AcDbEntity
  8
0
  6
SLD-Durchgehend
 62
     7
370
    15
100
AcDbLine
 10
252.3426220996
 20
114.8261478943
 30
0.0
 11
253.0026243312
 21
114.445096739
 31
0.0
  0
LINE
  5
CB
330
1F
100
AcDbEntity
  8
0
  6
SLD-Durchgehend
 62
     7
370
    15
100
AcDbLine
 10
253.0026243312
 20
114.445096739
 30
0.0
 11
253.0026243312
 21
114.1650451886
 31
0.0
  0
LINE
  5
CC
330
1F
100
AcDbEntity
  8
0
  6
SLD-Durchgehend
 62
     7
370
    15
100
AcDbLine
 10
253.0026243312
 20
114.1650451886
 30
0.0
 11
252.3426220996
 21
113.783993997
 31
0.0
  0
ARC
  5
CD
330
1F
100
AcDbEntity
  8
0
  6
SLD-Durchgehend
 62
     7
370
    15
100
AcDbCircle
 10
252.4026226003
 20
113.6800709487
 30
0.0
 40
0.1200002502075571
100
AcDbArc
 50
120.0002070659
 51
239.9997929341
  0
LINE
  5
CE
330
1F
100
AcDbEntity
  8
0
  6
SLD-Durchgehend
 62
     7
370
    15
100
AcDbLine
 10
252.3426220996
 20
113.5761479004
 30
0.0
 11
253.0026243312
 21
113.1950967087
 31
0.0
  0
LINE
  5
CF
330
1F
100
AcDbEntity
  8
0
  6
SLD-Durchgehend
 62
     7
370
    15
100
AcDbLine
 10
253.0026243312
 20
113.1950967087
 30
0.0
 11
253.0026243312
 21
112.9150451583
 31
0.0
  0
LINE
  5
D0
330
1F
100
AcDbEntity
  8
0
  6
SLD-Durchgehend
 62
     7
370
    15
100
AcDbLine
 10
253.0026243312
 20
112.9150451583
 30
0.0
 11
252.3426220996
 21
112.5339940031
 31
0.0
  0
ARC
  5
D1
330
1F
100
AcDbEntity
  8
0
  6
SLD-Durchgehend
 62
     7
370
    15
100
AcDbCircle
 10
252.4026216232
 20
112.4300709766
 30
0.0
 40
0.1199997427886979
100
AcDbArc
 50
119.9998082781
 51
240.0001917219
  0
LINE
  5
D2
330
1F
100
AcDbEntity
  8
0
  6
SLD-Durchgehend
 62
     7
370
    15
100
AcDbLine
 10
252.3426220996
 20
112.3261479501
 30
0.0
 11
253.0026243312
 21
111.9450967367
 31
0.0
  0
LINE
  5
D3
330
1F
100
AcDbEntity
  8
0
  6
SLD-Durchgehend
 62
     7
370
    15
100
AcDbLine
 10
253.0026243312
 20
111.9450967367
 30
0.0
 11
253.0026243312
 21
111.6650451281
 31
0.0
  0
LINE
  5
D4
330
1F
100
AcDbEntity
  8
0
  6
SLD-Durchgehend
 62
     7
370
    15
100
AcDbLine
 10
253.0026243312
 20
111.6650451281
 30
0.0
 11
252.3426220996
 21
111.283994031
 31
0.0
  0
ARC
  5
D5
330
1F
100
AcDbEntity
  8
0
  6
SLD-Durchgehend
 62
     7
370
    15
100
AcDbCircle
 10
252.4026260366
 20
111.1800710045
 30
0.0
 40
0.1200019495383574
100
AcDbArc
 50
120.0016331795
 51
239.9983668205
  0
LINE
  5
D6
330
1F
100
AcDbEntity
  8
0
  6
SLD-Durchgehend
 62
     7
370
    15
100
AcDbLine
 10
252.3426220996
 20
111.0761479781
 30
0.0
 11
253.0026243312
 21
110.6950966482
 31
0.0
  0
LINE
  5
D7
330
1F
100
AcDbEntity
  8
0
  6
SLD-Durchgehend
 62
     7
370
    15
100
AcDbLine
 10
253.0026243312
 20
110.6950966482
 30
0.0
 11
253.0026243312
 21
110.415045156
 31
0.0
  0
LINE
  5
D8
330
1F
100
AcDbEntity
  8
0
  6
SLD-Durchgehend
 62
     7
370
    15
100
AcDbLine
 10
253.0026243312
 20
110.415045156
 30
0.0
 11
252.3426220996
 21
110.033994059
 31
0.0
  0
ARC
  5
D9
330
1F
100
AcDbEntity
  8
0
  6
SLD-Durchgehend
 62
     7
370
    15
100
AcDbCircle
 10
252.4026223011
 20
109.9300710325
 30
0.0
 40
0.1200000817299438
100
AcDbArc
 50
120.000088581
 51
239.999911419
  0
LINE
  5
DA
330
1F
100
AcDbEntity
  8
0
  6
SLD-Durchgehend
 62
     7
370
    15
100
AcDbLine
 10
252.3426220996
 20
109.826148006
 30
0.0
 11
253.0026243312
 21
109.4450966761
 31
0.0
  0
LINE
  5
DB
330
1F
100
AcDbEntity
  8
0
  6
SLD-Durchgehend
 62
     7
370
    15
100
AcDbLine
 10
253.0026243312
 20
109.4450966761
 30
0.0
 11
253.0026243312
 21
109.165045184
 31
0.0
  0
LINE
  5
DC
330
1F
100
AcDbEntity
  8
0
  6
SLD-Durchgehend
 62
     7
370
    15
100
AcDbLine
 10
253.0026243312
 20
109.165045184
 30
0.0
 11
252.3426220996
 21
108.7839940869
 31
0.0
  0
ARC
  5
DD
330
1F
100
AcDbEntity
  8
0
  6
SLD-Durchgehend
 62
     7
370
    15
100
AcDbCircle
 10
252.4026254136
 20
108.6800710604
 30
0.0
 40
0.1200016379930514
100
AcDbArc
 50
120.001375553
 51
239.998624447
  0
LINE
  5
DE
330
1F
100
AcDbEntity
  8
0
  6
SLD-Durchgehend
 62
     7
370
    15
100
AcDbLine
 10
252.3426220996
 20
108.576148034
 30
0.0
 11
253.0026243312
 21
108.1950969369
 31
0.0
  0
LINE
  5
DF
330
1F
100
AcDbEntity
  8
0
  6
SLD-Durchgehend
 62
     7
370
    15
100
AcDbLine
 10
253.0026243312
 20
108.1950969369
 30
0.0
 11
253.0026243312
 21
107.9150449791
 31
0.0
  0
LINE
  5
E0
330
1F
100
AcDbEntity
  8
0
  6
SLD-Durchgehend
 62
     7
370
    15
100
AcDbLine
 10
253.0026243312
 20
107.9150449791
 30
0.0
 11
252.3426220996
 21
107.533993882
 31
0.0
  0
ARC
  5
E1
330
1F
100
AcDbEntity
  8
0
  6
SLD-Durchgehend
 62
     7
370
    15
100
AcDbCircle
 10
252.4026297955
 20
107.4300708555
 30
0.0
 40
0.1200038290921377
100
AcDbArc
 50
120.0031873695
 51
239.9968126305
  0
LINE
  5
E2
330
1F
100
AcDbEntity
  8
0
  6
SLD-Durchgehend
 62
     7
370
    15
100
AcDbLine
 10
252.3426220996
 20
107.3261478291
 30
0.0
 11
253.0026243312
 21
106.945096732
 31
0.0
  0
LINE
  5
E3
330
1F
100
AcDbEntity
  8
0
  6
SLD-Durchgehend
 62
     7
370
    15
100
AcDbLine
 10
253.0026243312
 20
106.945096732
 30
0.0
 11
253.0026243312
 21
106.6650452398
 31
0.0
  0
LINE
  5
E4
330
1F
100
AcDbEntity
  8
0
  6
SLD-Durchgehend
 62
     7
370
    15
100
AcDbLine
 10
253.0026243312
 20
106.6650452398
 30
0.0
 11
252.3426220996
 21
106.2839941428
 31
0.0
  0
ARC
  5
E5
330
1F
100
AcDbEntity
  8
0
  6
SLD-Durchgehend
 62
     7
370
    15
100
AcDbCircle
 10
252.4026284456
 20
106.1800711163
 30
0.0
 40
0.1200031541029636
100
AcDbArc
 50
120.0026292396
 51
239.9973707604
  0
LINE
  5
E6
330
1F
100
AcDbEntity
  8
0
  6
SLD-Durchgehend
 62
     7
370
    15
100
AcDbLine
 10
252.3426220996
 20
106.0761480898
 30
0.0
 11
253.0026243312
 21
105.6950965271
 31
0.0
  0
LINE
  5
E7
330
1F
100
AcDbEntity
  8
0
  6
SLD-Durchgehend
 62
     7
370
    15
100
AcDbLine
 10
253.0026243312
 20
105.6950965271
 30
0.0
 11
253.0026243312
 21
105.4150450349
 31
0.0
  0
LINE
  5
E8
330
1F
100
AcDbEntity
  8
0
  6
SLD-Durchgehend
 62
     7
370
    15
100
AcDbLine
 10
253.0026243312
 20
105.4150450349
 30
0.0
 11
252.3426220996
 21
105.0339944035
 31
0.0
  0
ARC
  5
E9
330
1F
100
AcDbEntity
  8
0
  6
SLD-Durchgehend
 62
     7
370
    15
100
AcDbCircle
 10
252.4026252864
 20
104.9300713771
 30
0.0
 40
0.1200015743979343
100
AcDbArc
 50
120.0013229639
 51
239.9986770361
  0
LINE
  5
EA
330
1F
100
AcDbEntity
  8
0
  6
SLD-Durchgehend
 62
     7
370
    15
100
AcDbLine
 10
252.3426220996
 20
104.8261483506
 30
0.0
 11
253.0026243312
 21
104.4450967879
 31
0.0
  0
LINE
  5
EB
330
1F
100
AcDbEntity
  8
0
  6
SLD-Durchgehend
 62
     7
370
    15
100
AcDbLine
 10
253.0026243312
 20
104.4450967879
 30
0.0
 11
253.0026243312
 21
104.1650452957
 31
0.0
  0
LINE
  5
EC
330
1F
100
AcDbEntity
  8
0
  6
SLD-Durchgehend
 62
     7
370
    15
100
AcDbLine
 10
253.0026243312
 20
104.1650452957
 30
0.0
 11
252.3426220996
 21
103.783993733
 31
0.0
  0
LWPOLYLINE
  5
ED
330
1F
100
AcDbEntity
  8
0
  6
SLD-Durchgehend
 62
     7
370
    15
100
AcDbPolyline
 90
        9
 70
   128
 43
0.0
 10
252.3426220996
 20
103.783993733
 10
252.3330332024
 20
103.7778311715
 10
252.3167089803
 20
103.7638464317
 10
252.3055331094
 20
103.7505918489
 10
252.296622215
 20
103.736321193
 10
252.2882701141
 20
103.7164542199
 10
252.2828237397
 20
103.6870020748
 10
252.2896633727
 20
103.6395698161
 10
252.3426220996
 20
103.57614768
  0
LINE
  5
EE
330
1F
100
AcDbEntity
  8
0
  6
SLD-Durchgehend
 62
     7
370
    15
100
AcDbLine
 10
252.3426220996
 20
103.57614768
 30
0.0
 11
253.0026243312
 21
103.1950970486
 31
0.0
  0
LINE
  5
EF
330
1F
100
AcDbEntity
  8
0
  6
SLD-Durchgehend
 62
     7
370
    15
100
AcDbLine
 10
253.0026243312
 20
103.1950970486
 30
0.0
 11
253.0026243312
 21
102.9150455565
 31
0.0
  0
LINE
  5
F0
330
1F
100
AcDbEntity
  8
0
  6
SLD-Durchgehend
 62
     7
370
    15
100
AcDbLine
 10
253.0026243312
 20
102.9150455565
 30
0.0
 11
252.3426220996
 21
102.5339939938
 31
0.0
  0
LWPOLYLINE
  5
F1
330
1F
100
AcDbEntity
  8
0
  6
SLD-Durchgehend
 62
     7
370
    15
100
AcDbPolyline
 90
        9
 70
   128
 43
0.0
 10
252.3426220996
 20
102.5339939938
 10
252.3291961533
 20
102.5249825165
 10
252.3195103986
 20
102.5166294844
 10
252.310122667
 20
102.5065134586
 10
252.3029328567
 20
102.496863094
 10
252.2948266251
 20
102.4827954665
 10
252.2865713818
 20
102.4605880798
 10
252.28423935
 20
102.4104307712
 10
252.3426220996
 20
102.3261479408
  0
LWPOLYLINE
  5
F2
330
1F
100
AcDbEntity
  8
0
  6
SLD-Durchgehend
 62
     7
370
    15
100
AcDbPolyline
 90
        3
 70
   128
 43
0.0
 10
252.3426220996
 20
102.3261479408
 10
252.8679476363
 20
102.0228543625
 10
252.9280589206
 20
101.9881486267
  0
LINE
  5
F3
330
1F
100
AcDbEntity
  8
0
  6
SLD-Durchgehend
 62
     7
370
    15
100
AcDbLine
 10
135.5026246292
 20
137.1001701177
 30
0.0
 11
135.5026246292
 21
135.3624712051
 31
0.0
  0
LINE
  5
F4
330
1F
100
AcDbEntity
  8
0
  6
SLD-Durchgehend
 62
     7
370
    15
100
AcDbLine
 10
101.2026251537
 20
136.2384341032
 30
0.0
 11
101.2026251537
 21
134.6161875249
 31
0.0
  0
LWPOLYLINE
  5
F5
330
1F
100
AcDbEntity
  8
0
  6
SLD-Durchgehend
 62
     7
370
    15
100
AcDbPolyline
 90
        4
 70
   128
 43
0.0
 10
135.9092156181
 20
136.8763956547
 10
135.9015531616
 20
136.8936511994
 10
136.0185283247
 20
136.6307556004
 10
136.3813043117
 20
135.8237552763
  0
LINE
  5
F6
330
1F
100
AcDbEntity
  8
0
  6
SLD-Durchgehend
 62
     7
370
    15
100
AcDbLine
 10
99.7026258392
 20
135.3724084169
 30
0.0
 11
99.7026258392
 21
133.8661860049
 31
0.0
  0
LINE
  5
F7
330
1F
100
AcDbEntity
  8
0
  6
SLD-Durchgehend
 62
     7
370
    15
100
AcDbLine
 10
258.2026229484
 20
111.5232168072
 30
0.0
 11
258.2026229484
 21
104.5232170568
 31
0.0
  0
LINE
  5
F8
330
1F
100
AcDbEntity
  8
0
  6
SLD-Durchgehend
 62
     7
370
    15
100
AcDbLine
 10
262.202623604
 20
111.3232166812
 30
0.0
 11
262.202623604
 21
104.723216717
 31
0.0
  0
LINE
  5
F9
330
1F
100
AcDbEntity
  8
0
  6
SLD-Durchgehend
 62
     7
370
    15
100
AcDbLine
 10
258.2026229484
 20
116.0702092879
 30
0.0
 11
258.2026229484
 21
115.8369250902
 31
0.0
  0
LINE
  5
FA
330
1F
100
AcDbEntity
  8
0
  6
SLD-Durchgehend
 62
     7
370
    15
100
AcDbLine
 10
258.2026229484
 20
122.8369248406
 30
0.0
 11
258.2026229484
 21
116.0702092879
 31
0.0
  0
LINE
  5
FB
330
1F
100
AcDbEntity
  8
0
  6
SLD-Durchgehend
 62
     7
370
    15
100
AcDbLine
 10
262.202623604
 20
116.2568786953
 30
0.0
 11
262.202623604
 21
116.0369252161
 31
0.0
  0
LINE
  5
FC
330
1F
100
AcDbEntity
  8
0
  6
SLD-Durchgehend
 62
     7
370
    15
100
AcDbLine
 10
262.202623604
 20
122.6369251803
 30
0.0
 11
262.202623604
 21
116.2568786953
 31
0.0
  0
LINE
  5
FD
330
1F
100
AcDbEntity
  8
0
  6
SLD-Gestrichelt
 62
     7
370
     0
100
AcDbLine
 10
137.7026246173
 20
144.680070442
 30
0.0
 11
137.7026246173
 21
82.6800714553
 31
0.0
  0
LWPOLYLINE
  5
FE
330
1F
100
AcDbEntity
  8
0
  6
SLD-Gestrichelt
 62
     7
370
     0
100
AcDbPolyline
 90
       11
 70
   128
 43
0.0
 10
147.7026243938
 20
82.180070442
 10
147.8151020837
 20
82.1870106579
 10
148.1397378502
 20
82.2048026443
 10
148.6406925378
 20
82.2256977976
 10
149.2619899345
 20
82.2405393541
 10
149.9322655854
 20
82.2427894295
 10
150.5757107643
 20
82.2315055252
 10
151.1213354079
 20
82.2116311014
 10
151.5080335794
 20
82.1918274582
 10
151.6911362541
 20
82.1807968736
 10
151.6780064685
 20
82.1816201628
  0
ARC
  5
FF
330
1F
100
AcDbEntity
  8
0
  6
SLD-Gestrichelt
 62
     7
370
     0
100
AcDbCircle
 10
148.409253924
 20
103.7029368595
 30
0.0
 40
0.6156261375998079
100
AcDbArc
 50
106.8910943418
 51
173.6803618693
  0
LINE
  5
100
330
1F
100
AcDbEntity
  8
0
  6
SLD-Gestrichelt
 62
     7
370
     0
100
AcDbLine
 10
151.1748678294
 20
104.2920041204
 30
0.0
 11
148.2303816137
 21
104.2920041204
 31
0.0
  0
LWPOLYLINE
  5
101
330
1F
100
AcDbEntity
  8
0
  6
SLD-Gestrichelt
 62
     7
370
     0
100
AcDbPolyline
 90
        6
 70
   128
 43
0.0
 10
151.6078806726
 20
103.7707018972
 10
151.5624433068
 20
103.9095341534
 10
151.4352181239
 20
104.1410274178
 10
151.3545655889
 20
104.2231868327
 10
151.2513368634
 20
104.2799053088
 10
151.1748678294
 20
104.2920041204
  0
ELLIPSE
  5
102
330
1F
100
AcDbEntity
  8
0
  6
SLD-Gestrichelt
 62
     7
370
     0
100
AcDbEllipse
 10
135.3554704279
 20
113.6800709487
 30
0.0
 11
-14.75368316065608
 21
31.09325491558114
 31
0.0
210
0.0
220
0.0
230
1.0
 40
0.3419987131
 41
3.300734856217132
 42
4.231496223360783
  0
ARC
  5
103
330
1F
100
AcDbEntity
  8
0
  6
SLD-Gestrichelt
 62
     7
370
     0
100
AcDbCircle
 10
151.2102103518
 20
84.1630919612
 30
0.0
 40
0.5526447928270382
100
AcDbArc
 50
266.3333406237
 51
316.0195437221
  0
LINE
  5
104
330
1F
100
AcDbEntity
  8
0
  6
SLD-Gestrichelt
 62
     7
370
     0
100
AcDbLine
 10
148.2303816137
 20
83.6115784318
 30
0.0
 11
151.1748678294
 21
83.6115784318
 31
0.0
  0
ARC
  5
105
330
1F
100
AcDbEntity
  8
0
  6
SLD-Gestrichelt
 62
     7
370
     0
100
AcDbCircle
 10
148.2023225867
 20
84.1818928577
 30
0.0
 40
0.5710042499302093
100
AcDbArc
 50
224.8304789342
 51
272.8166367201
  0
ELLIPSE
  5
106
330
1F
100
AcDbEntity
  8
0
  6
SLD-Gestrichelt
 62
     7
370
     0
100
AcDbEllipse
 10
164.0497788066
 20
113.6800709487
 30
0.0
 11
14.75368316065612
 21
31.09325491558117
 31
0.0
210
0.0
220
0.0
230
1.0
 40
0.3419987131
 41
2.051689083818817
 42
2.982450450962496
  0
ARC
  5
107
330
1F
100
AcDbEntity
  8
0
  6
SLD-Gestrichelt
 62
     7
370
     0
100
AcDbCircle
 10
148.1950390913
 20
143.1970499361
 30
0.0
 40
0.5526447928270523
100
AcDbArc
 50
86.3333406237
 51
136.0195437221
  0
LINE
  5
108
330
1F
100
AcDbEntity
  8
0
  6
SLD-Gestrichelt
 62
     7
370
     0
100
AcDbLine
 10
151.1748678294
 20
143.7485634655
 30
0.0
 11
148.2303816137
 21
143.7485634655
 31
0.0
  0
ARC
  5
109
330
1F
100
AcDbEntity
  8
0
  6
SLD-Gestrichelt
 62
     7
370
     0
100
AcDbCircle
 10
151.2029254366
 20
143.1782453746
 30
0.0
 40
0.5710078407187152
100
AcDbArc
 50
44.8306393001
 51
92.8164763541
  0
ELLIPSE
  5
10A
330
1F
100
AcDbEntity
  8
0
  6
SLD-Gestrichelt
 62
     7
370
     0
100
AcDbEllipse
 10
135.3554704279
 20
113.6800709487
 30
0.0
 11
14.7536831606563
 21
31.09325491558117
 31
0.0
210
0.0
220
0.0
230
1.0
 40
0.3419987131
 41
5.193281737408642
 42
6.124043104552348
  0
ARC
  5
10B
330
1F
100
AcDbEntity
  8
0
  6
SLD-Gestrichelt
 62
     7
370
     0
100
AcDbCircle
 10
150.9959955192
 20
123.6572050379
 30
0.0
 40
0.6156261375997998
100
AcDbArc
 50
286.8910943418
 51
353.6803618693
  0
LINE
  5
10C
330
1F
100
AcDbEntity
  8
0
  6
SLD-Gestrichelt
 62
     7
370
     0
100
AcDbLine
 10
148.2303816137
 20
123.0681377769
 30
0.0
 11
151.1748678294
 21
123.0681377769
 31
0.0
  0
LWPOLYLINE
  5
10D
330
1F
100
AcDbEntity
  8
0
  6
SLD-Gestrichelt
 62
     7
370
     0
100
AcDbPolyline
 90
        6
 70
   128
 43
0.0
 10
147.7973687706
 20
123.5894400001
 10
147.8428052051
 20
123.4506077439
 10
147.9700313193
 20
123.2191144795
 10
148.0506838543
 20
123.1369550646
 10
148.1539125798
 20
123.0802365885
 10
148.2303816137
 20
123.0681377769
  0
ELLIPSE
  5
10E
330
1F
100
AcDbEntity
  8
0
  6
SLD-Gestrichelt
 62
     7
370
     0
100
AcDbEllipse
 10
164.0497788066
 20
113.6800709487
 30
0.0
 11
-14.75368316065632
 21
31.09325491558117
 31
0.0
210
0.0
220
0.0
230
1.0
 40
0.3419987131
 41
0.1591422026272774
 42
1.089903569770957
  0
LINE
  5
10F
330
1F
100
AcDbEntity
  8
0
  6
SLD-Gestrichelt
 62
     7
370
     0
100
AcDbLine
 10
159.7026244981
 20
144.1800712914
 30
0.0
 11
159.7026244981
 21
83.1800706059
 31
0.0
  0
LINE
  5
110
330
1F
100
AcDbEntity
  8
0
  6
SLD-Gestrichelt
 62
     7
370
     0
100
AcDbLine
 10
137.7026246173
 20
89.4360046209
 30
0.0
 11
137.7026246173
 21
137.9241372765
 31
0.0
  0
ARC
  5
111
330
1F
100
AcDbEntity
  8
0
  6
SLD-Gestrichelt
 62
     7
370
     0
100
AcDbCircle
 10
137.1214423711
 20
97.795060919
 30
0.0
 40
0.4896230013938612
100
AcDbArc
 50
241.2731071316
 51
292.3524838518
  0
LWPOLYLINE
  5
112
330
1F
100
AcDbEntity
  8
0
  6
SLD-Gestrichelt
 62
     7
370
     0
100
AcDbPolyline
 90
        9
 70
   128
 43
0.0
 10
137.3076477157
 20
97.3422273368
 10
137.3292465414
 20
97.348131922
 10
137.3492974508
 20
97.3482380927
 10
137.3700029053
 20
97.3425402612
 10
137.3863443277
 20
97.3334337891
 10
137.4087902204
 20
97.3132054628
 10
137.4389220273
 20
97.2677978993
 10
137.486440899
 20
97.1087354541
 10
137.5026246223
 20
96.8898690612
  0
LINE
  5
113
330
1F
100
AcDbEntity
  8
0
  6
SLD-Gestrichelt
 62
     7
370
     0
100
AcDbLine
 10
137.5026246223
 20
91.1402504266
 30
0.0
 11
137.5026246223
 21
96.8898690612
 31
0.0
  0
LWPOLYLINE
  5
114
330
1F
100
AcDbEntity
  8
0
  6
SLD-Gestrichelt
 62
     7
370
     0
100
AcDbPolyline
 90
        3
 70
   128
 43
0.0
 10
136.8861123465
 20
135.2193138868
 10
136.6683468932
 20
135.3807214022
 10
136.3813043117
 20
135.8237552763
  0
ARC
  5
115
330
1F
100
AcDbEntity
  8
0
  6
SLD-Gestrichelt
 62
     7
370
     0
100
AcDbCircle
 10
137.1022279241
 20
135.6542946383
 30
0.0
 40
0.4857099927022515
100
AcDbArc
 50
243.5800029126
 51
295.0195094306
  0
LWPOLYLINE
  5
116
330
1F
100
AcDbEntity
  8
0
  6
SLD-Gestrichelt
 62
     7
370
     0
100
AcDbPolyline
 90
        9
 70
   128
 43
0.0
 10
137.3076477157
 20
135.2141618103
 10
137.3292465414
 20
135.2230559409
 10
137.3492974508
 20
135.2296478421
 10
137.3700029053
 20
135.2346341432
 10
137.3863443277
 20
135.2370853842
 10
137.4087902204
 20
135.2378546566
 10
137.4389220273
 20
135.2323393644
 10
137.486440899
 20
135.1881667346
 10
137.5026246223
 20
135.0982084245
  0
LINE
  5
117
330
1F
100
AcDbEntity
  8
0
  6
SLD-Gestrichelt
 62
     7
370
     0
100
AcDbLine
 10
137.5026246223
 20
109.0521353603
 30
0.0
 11
137.5026246223
 21
135.0982084245
 31
0.0
  0
LWPOLYLINE
  5
118
330
1F
100
AcDbEntity
  8
0
  6
SLD-Gestrichelt
 62
     7
370
     0
100
AcDbPolyline
 90
       10
 70
   128
 43
0.0
 10
137.5026246223
 20
109.0521353603
 10
137.4790886602
 20
108.6917330817
 10
137.4575663776
 20
108.5929453679
 10
137.4178777751
 20
108.5010601514
 10
137.3962441703
 20
108.4766753324
 10
137.3770513874
 20
108.4652065606
 10
137.3590163257
 20
108.4616484427
 10
137.3403163579
 20
108.4644652278
 10
137.3178787307
 20
108.4758543716
 10
137.3076477157
 20
108.4838232332
  0
ARC
  5
119
330
1F
100
AcDbEntity
  8
0
  6
SLD-Gestrichelt
 62
     7
370
     0
100
AcDbCircle
 10
137.1102875344
 20
108.2720590632
 30
0.0
 40
0.289473841357804
100
AcDbArc
 50
47.0163723267
 51
140.752745035
  0
LWPOLYLINE
  5
11A
330
1F
100
AcDbEntity
  8
0
  6
SLD-Gestrichelt
 62
     7
370
     0
100
AcDbPolyline
 90
        3
 70
   128
 43
0.0
 10
136.8861123465
 20
108.4551999652
 10
136.6602704638
 20
108.0970580064
 10
136.3813043117
 20
107.0995873146
  0
ARC
  5
11B
330
1F
100
AcDbEntity
  8
0
  6
SLD-Gestrichelt
 62
     7
370
     0
100
AcDbCircle
 10
137.4928853518
 20
98.3186774404
 30
0.0
 40
1.129751626093979
100
AcDbArc
 50
190.2899774279
 51
237.5145569944
  0
LINE
  5
11C
330
1F
100
AcDbEntity
  8
0
  6
SLD-Gestrichelt
 62
     7
370
     0
100
AcDbLine
 10
137.5026246223
 20
109.0521353603
 30
0.0
 11
137.5026246223
 21
135.0982084245
 31
0.0
  0
LINE
  5
11D
330
1F
100
AcDbEntity
  8
0
  6
SLD-Gestrichelt
 62
     7
370
     0
100
AcDbLine
 10
159.7026244981
 20
97.1859178812
 30
0.0
 11
159.7026244981
 21
130.1742240161
 31
0.0
  0
LINE
  5
11E
330
1F
100
AcDbEntity
  8
0
  6
SLD-Gestrichelt
 62
     7
370
     0
100
AcDbLine
 10
101.2328521592
 20
98.3671198905
 30
0.0
 11
101.2328521592
 21
128.9930220068
 31
0.0
  0
LINE
  5
11F
330
1F
100
AcDbEntity
  8
0
  6
SLD-Gestrichelt
 62
     7
370
     0
100
AcDbLine
 10
99.7026258392
 20
97.5073955328
 30
0.0
 11
99.7026258392
 21
129.8527463645
 31
0.0
  0
LINE
  5
120
330
1F
100
AcDbEntity
  8
0
  6
SLD-Gestrichelt
 62
     7
370
     0
100
AcDbLine
 10
107.7328522933
 20
99.3336604283
 30
0.0
 11
107.7328522933
 21
128.026481469
 31
0.0
  0
LINE
  5
121
330
1F
100
AcDbEntity
  8
0
  6
SLD-Gestrichelt
 62
     7
370
     0
100
AcDbLine
 10
135.5026246292
 20
97.2225412101
 30
0.0
 11
135.5026246292
 21
93.0599726111
 31
0.0
  0
LINE
  5
122
330
1F
100
AcDbEntity
  8
0
  6
SLD-Gestrichelt
 62
     7
370
     0
100
AcDbLine
 10
101.2026251537
 20
97.968826753
 30
0.0
 11
101.2026251537
 21
94.1830805809
 31
0.0
  0
LINE
  5
123
330
1F
100
AcDbEntity
  8
0
  6
SLD-Gestrichelt
 62
     7
370
     0
100
AcDbLine
 10
106.1526232643
 20
94.0738085032
 30
0.0
 11
101.2026251537
 21
94.1830805809
 31
0.0
  0
ARC
  5
124
330
1F
100
AcDbEntity
  8
0
  6
SLD-Gestrichelt
 62
     7
370
     0
100
AcDbCircle
 10
113.0277273997
 20
129.0363914616
 30
0.0
 40
35.63213807778427
100
AcDbArc
 50
258.8751984673
 51
261.9611156632
  0
LWPOLYLINE
  5
125
330
1F
100
AcDbEntity
  8
0
  6
SLD-Gestrichelt
 62
     7
370
     0
100
AcDbPolyline
 90
       10
 70
   128
 43
0.0
 10
119.0137856883
 20
93.588636008
 10
119.2503881884
 20
93.6019203932
 10
119.9620061798
 20
93.6418704063
 10
121.2926891876
 20
93.6728424699
 10
122.7874703018
 20
93.6464655519
 10
124.2615257633
 20
93.5573677838
 10
125.5051673633
 20
93.4341612578
 10
126.3292080966
 20
93.3287672073
 10
126.6469464881
 20
93.2831547529
 10
126.6230552701
 20
93.286639762
  0
LWPOLYLINE
  5
126
330
1F
100
AcDbEntity
  8
0
  6
SLD-Gestrichelt
 62
     7
370
     0
100
AcDbPolyline
 90
        5
 70
   128
 43
0.0
 10
118.0274852795
 20
93.5060239703
 10
118.026811002
 20
93.5059587777
 10
118.4483052475
 20
93.5446477801
 10
118.5720742924
 20
93.5542757929
 10
119.0137856883
 20
93.588636008
  0
LINE
  5
127
330
1F
100
AcDbEntity
  8
0
  6
SLD-Gestrichelt
 62
     7
370
     0
100
AcDbLine
 10
137.5026246223
 20
96.8898690612
 30
0.0
 11
137.5026246223
 21
93.038168487
 31
0.0
  0
LINE
  5
128
330
1F
100
AcDbEntity
  8
0
  6
SLD-Gestrichelt
 62
     7
370
     0
100
AcDbLine
 10
113.5328536165
 20
99.6800705165
 30
0.0
 11
113.5328536165
 21
127.6800713808
 31
0.0
  0
LINE
  5
129
330
1F
100
AcDbEntity
  8
0
  6
SLD-Gestrichelt
 62
     7
370
     0
100
AcDbLine
 10
106.1328531486
 20
99.6800705165
 30
0.0
 11
106.1328531486
 21
127.6800713808
 31
0.0
  0
LINE
  5
12A
330
1F
100
AcDbEntity
  8
0
  6
SLD-Gestrichelt
 62
     7
370
     0
100
AcDbLine
 10
107.1328533126
 20
99.6800705165
 30
0.0
 11
107.1328533126
 21
127.6800713808
 31
0.0
  0
ARC
  5
12B
330
1F
100
AcDbEntity
  8
0
  6
SLD-Gestrichelt
 62
     7
370
     0
100
AcDbCircle
 10
122.1136700215
 20
85.4901215285
 30
0.0
 40
14.78115625039614
100
AcDbArc
 50
73.9406501629
 51
105.5928935473
  0
ARC
  5
12C
330
1F
100
AcDbEntity
  8
0
  6
SLD-Gestrichelt
 62
     7
370
     0
100
AcDbCircle
 10
122.1136700215
 20
141.8700203689
 30
0.0
 40
14.78115625039614
100
AcDbArc
 50
254.4071064527
 51
286.0593498371
  0
LWPOLYLINE
  5
12D
330
1F
100
AcDbEntity
  8
0
  6
SLD-Gestrichelt
 62
     7
370
     0
100
AcDbPolyline
 90
        4
 70
   128
 43
0.0
 10
126.2026245949
 20
127.6656889663
 10
126.2304860411
 20
127.6725714401
 10
126.2428418977
 20
127.6756233842
 10
126.2026245949
 20
127.6656889663
  0
LWPOLYLINE
  5
12E
330
1F
100
AcDbEntity
  8
0
  6
SLD-Gestrichelt
 62
     7
370
     0
100
AcDbPolyline
 90
        4
 70
   128
 43
0.0
 10
126.2026245949
 20
99.6944529311
 10
126.2512834055
 20
99.6828942866
 10
126.2525891197
 20
99.6825841562
 10
126.2026245949
 20
99.6944529311
  0
LINE
  5
12F
330
1F
100
AcDbEntity
  8
0
  6
SLD-Gestrichelt
 62
     7
370
     0
100
AcDbLine
 10
126.7026246769
 20
100.1800705985
 30
0.0
 11
126.7026246769
 21
127.1800712988
 31
0.0
  0
LINE
  5
130
330
1F
100
AcDbEntity
  8
0
  6
SLD-Gestrichelt
 62
     7
370
     0
100
AcDbLine
 10
252.2026256902
 20
113.6800709487
 30
0.0
 11
252.2026256902
 21
126.1800711349
 31
0.0
  0
LINE
  5
131
330
1F
100
AcDbEntity
  8
0
  6
SLD-Gestrichelt
 62
     7
370
     0
100
AcDbLine
 10
252.2026256902
 20
101.1800707624
 30
0.0
 11
252.2026256902
 21
113.6800709487
 31
0.0
  0
LINE
  5
132
330
1F
100
AcDbEntity
  8
0
  6
SLD-Gestrichelt
 62
     7
370
     0
100
AcDbLine
 10
253.0026243312
 20
114.445096739
 30
0.0
 11
252.3426220996
 21
114.8261478943
 31
0.0
  0
ARC
  5
133
330
1F
100
AcDbEntity
  8
0
  6
SLD-Gestrichelt
 62
     7
370
     0
100
AcDbCircle
 10
252.4026216232
 20
114.9300709207
 30
0.0
 40
0.1199997427886979
100
AcDbArc
 50
119.9998082781
 51
240.0001917219
  0
LINE
  5
134
330
1F
100
AcDbEntity
  8
0
  6
SLD-Gestrichelt
 62
     7
370
     0
100
AcDbLine
 10
252.3426220996
 20
115.0339939472
 30
0.0
 11
253.0026243312
 21
115.4150451607
 31
0.0
  0
LINE
  5
135
330
1F
100
AcDbEntity
  8
0
  6
SLD-Gestrichelt
 62
     7
370
     0
100
AcDbLine
 10
253.0026243312
 20
115.4150451607
 30
0.0
 11
253.0026243312
 21
115.6950967692
 31
0.0
  0
LINE
  5
136
330
1F
100
AcDbEntity
  8
0
  6
SLD-Gestrichelt
 62
     7
370
     0
100
AcDbLine
 10
253.0026243312
 20
115.6950967692
 30
0.0
 11
252.3426220996
 21
116.0761478663
 31
0.0
  0
ARC
  5
137
330
1F
100
AcDbEntity
  8
0
  6
SLD-Gestrichelt
 62
     7
370
     0
100
AcDbCircle
 10
252.4026260366
 20
116.1800708928
 30
0.0
 40
0.1200019495383574
100
AcDbArc
 50
120.0016331795
 51
239.9983668205
  0
LINE
  5
138
330
1F
100
AcDbEntity
  8
0
  6
SLD-Gestrichelt
 62
     7
370
     0
100
AcDbLine
 10
252.3426220996
 20
116.2839939193
 30
0.0
 11
253.0026243312
 21
116.6650452492
 31
0.0
  0
LINE
  5
139
330
1F
100
AcDbEntity
  8
0
  6
SLD-Gestrichelt
 62
     7
370
     0
100
AcDbLine
 10
253.0026243312
 20
116.6650452492
 30
0.0
 11
253.0026243312
 21
116.9450967413
 31
0.0
  0
LINE
  5
13A
330
1F
100
AcDbEntity
  8
0
  6
SLD-Gestrichelt
 62
     7
370
     0
100
AcDbLine
 10
253.0026243312
 20
116.9450967413
 30
0.0
 11
252.3426220996
 21
117.3261478384
 31
0.0
  0
ARC
  5
13B
330
1F
100
AcDbEntity
  8
0
  6
SLD-Gestrichelt
 62
     7
370
     0
100
AcDbCircle
 10
252.4026223011
 20
117.4300708648
 30
0.0
 40
0.1200000817299438
100
AcDbArc
 50
120.000088581
 51
239.999911419
  0
LINE
  5
13C
330
1F
100
AcDbEntity
  8
0
  6
SLD-Gestrichelt
 62
     7
370
     0
100
AcDbLine
 10
252.3426220996
 20
117.5339938913
 30
0.0
 11
253.0026243312
 21
117.9150452212
 31
0.0
  0
LINE
  5
13D
330
1F
100
AcDbEntity
  8
0
  6
SLD-Gestrichelt
 62
     7
370
     0
100
AcDbLine
 10
253.0026243312
 20
117.9150452212
 30
0.0
 11
253.0026243312
 21
118.1950967134
 31
0.0
  0
LINE
  5
13E
330
1F
100
AcDbEntity
  8
0
  6
SLD-Gestrichelt
 62
     7
370
     0
100
AcDbLine
 10
253.0026243312
 20
118.1950967134
 30
0.0
 11
252.3426220996
 21
118.5761478104
 31
0.0
  0
ARC
  5
13F
330
1F
100
AcDbEntity
  8
0
  6
SLD-Gestrichelt
 62
     7
370
     0
100
AcDbCircle
 10
252.4026254136
 20
118.6800708369
 30
0.0
 40
0.1200016379930514
100
AcDbArc
 50
120.001375553
 51
239.998624447
  0
LINE
  5
140
330
1F
100
AcDbEntity
  8
0
  6
SLD-Gestrichelt
 62
     7
370
     0
100
AcDbLine
 10
252.3426220996
 20
118.7839938634
 30
0.0
 11
253.0026243312
 21
119.1650449604
 31
0.0
  0
LINE
  5
141
330
1F
100
AcDbEntity
  8
0
  6
SLD-Gestrichelt
 62
     7
370
     0
100
AcDbLine
 10
253.0026243312
 20
119.1650449604
 30
0.0
 11
253.0026243312
 21
119.4450969183
 31
0.0
  0
LINE
  5
142
330
1F
100
AcDbEntity
  8
0
  6
SLD-Gestrichelt
 62
     7
370
     0
100
AcDbLine
 10
253.0026243312
 20
119.4450969183
 30
0.0
 11
252.3426220996
 21
119.8261480153
 31
0.0
  0
ARC
  5
143
330
1F
100
AcDbEntity
  8
0
  6
SLD-Gestrichelt
 62
     7
370
     0
100
AcDbCircle
 10
252.4026297955
 20
119.9300710418
 30
0.0
 40
0.1200038290921377
100
AcDbArc
 50
120.0031873695
 51
239.9968126305
  0
LINE
  5
144
330
1F
100
AcDbEntity
  8
0
  6
SLD-Gestrichelt
 62
     7
370
     0
100
AcDbLine
 10
252.3426220996
 20
120.0339940683
 30
0.0
 11
253.0026243312
 21
120.4150451653
 31
0.0
  0
LINE
  5
145
330
1F
100
AcDbEntity
  8
0
  6
SLD-Gestrichelt
 62
     7
370
     0
100
AcDbLine
 10
253.0026243312
 20
120.4150451653
 30
0.0
 11
253.0026243312
 21
120.6950966575
 31
0.0
  0
LINE
  5
146
330
1F
100
AcDbEntity
  8
0
  6
SLD-Gestrichelt
 62
     7
370
     0
100
AcDbLine
 10
253.0026243312
 20
120.6950966575
 30
0.0
 11
252.3426220996
 21
121.0761477546
 31
0.0
  0
ARC
  5
147
330
1F
100
AcDbEntity
  8
0
  6
SLD-Gestrichelt
 62
     7
370
     0
100
AcDbCircle
 10
252.4026284456
 20
121.180070781
 30
0.0
 40
0.1200031541029636
100
AcDbArc
 50
120.0026292396
 51
239.9973707604
  0
LINE
  5
148
330
1F
100
AcDbEntity
  8
0
  6
SLD-Gestrichelt
 62
     7
370
     0
100
AcDbLine
 10
252.3426220996
 20
121.2839938075
 30
0.0
 11
253.0026243312
 21
121.6650453702
 31
0.0
  0
LINE
  5
149
330
1F
100
AcDbEntity
  8
0
  6
SLD-Gestrichelt
 62
     7
370
     0
100
AcDbLine
 10
253.0026243312
 20
121.6650453702
 30
0.0
 11
253.0026243312
 21
121.9450968624
 31
0.0
  0
LINE
  5
14A
330
1F
100
AcDbEntity
  8
0
  6
SLD-Gestrichelt
 62
     7
370
     0
100
AcDbLine
 10
253.0026243312
 20
121.9450968624
 30
0.0
 11
252.3426220996
 21
122.3261474938
 31
0.0
  0
ARC
  5
14B
330
1F
100
AcDbEntity
  8
0
  6
SLD-Gestrichelt
 62
     7
370
     0
100
AcDbCircle
 10
252.4026252864
 20
122.4300705203
 30
0.0
 40
0.1200015743979343
100
AcDbArc
 50
120.0013229639
 51
239.9986770361
  0
LINE
  5
14C
330
1F
100
AcDbEntity
  8
0
  6
SLD-Gestrichelt
 62
     7
370
     0
100
AcDbLine
 10
252.3426220996
 20
122.5339935467
 30
0.0
 11
253.0026243312
 21
122.9150451095
 31
0.0
  0
LINE
  5
14D
330
1F
100
AcDbEntity
  8
0
  6
SLD-Gestrichelt
 62
     7
370
     0
100
AcDbLine
 10
253.0026243312
 20
122.9150451095
 30
0.0
 11
253.0026243312
 21
123.1950966016
 31
0.0
  0
LINE
  5
14E
330
1F
100
AcDbEntity
  8
0
  6
SLD-Gestrichelt
 62
     7
370
     0
100
AcDbLine
 10
253.0026243312
 20
123.1950966016
 30
0.0
 11
252.3426220996
 21
123.5761481643
 31
0.0
  0
LWPOLYLINE
  5
14F
330
1F
100
AcDbEntity
  8
0
  6
SLD-Gestrichelt
 62
     7
370
     0
100
AcDbPolyline
 90
        9
 70
   128
 43
0.0
 10
252.3426220996
 20
123.5761481643
 10
252.3330332024
 20
123.5823107258
 10
252.3167089803
 20
123.5962954656
 10
252.3055331094
 20
123.6095500485
 10
252.296622215
 20
123.6238207043
 10
252.2882701141
 20
123.6436876774
 10
252.2828237397
 20
123.6731398225
 10
252.2896633727
 20
123.7205720813
 10
252.3426220996
 20
123.7839942173
  0
LINE
  5
150
330
1F
100
AcDbEntity
  8
0
  6
SLD-Gestrichelt
 62
     7
370
     0
100
AcDbLine
 10
252.3426220996
 20
123.7839942173
 30
0.0
 11
253.0026243312
 21
124.1650448487
 31
0.0
  0
LINE
  5
151
330
1F
100
AcDbEntity
  8
0
  6
SLD-Gestrichelt
 62
     7
370
     0
100
AcDbLine
 10
253.0026243312
 20
124.1650448487
 30
0.0
 11
253.0026243312
 21
124.4450963408
 31
0.0
  0
LINE
  5
152
330
1F
100
AcDbEntity
  8
0
  6
SLD-Gestrichelt
 62
     7
370
     0
100
AcDbLine
 10
253.0026243312
 20
124.4450963408
 30
0.0
 11
252.3426220996
 21
124.8261479036
 31
0.0
  0
LWPOLYLINE
  5
153
330
1F
100
AcDbEntity
  8
0
  6
SLD-Gestrichelt
 62
     7
370
     0
100
AcDbPolyline
 90
        9
 70
   128
 43
0.0
 10
252.3426220996
 20
124.8261479036
 10
252.3291961533
 20
124.8351593808
 10
252.3195103986
 20
124.843512413
 10
252.310122667
 20
124.8536284388
 10
252.3029328567
 20
124.8632788033
 10
252.2948266251
 20
124.8773464308
 10
252.2865713818
 20
124.8995538176
 10
252.28423935
 20
124.9497111262
 10
252.3426220996
 20
125.0339939565
  0
LWPOLYLINE
  5
154
330
1F
100
AcDbEntity
  8
0
  6
SLD-Gestrichelt
 62
     7
370
     0
100
AcDbPolyline
 90
        3
 70
   128
 43
0.0
 10
252.3426220996
 20
125.0339939565
 10
252.8679476363
 20
125.3372875348
 10
252.9280589206
 20
125.3719932706
  0
LWPOLYLINE
  5
155
330
1F
100
AcDbEntity
  8
0
  6
SLD-Gestrichelt
 62
     7
370
     0
100
AcDbPolyline
 90
        4
 70
   128
 43
0.0
 10
252.9280589206
 20
101.9881486267
 10
252.9559836966
 20
101.972024639
 10
252.7500720007
 20
102.0909070343
 10
252.3426220996
 20
102.3261479408
  0
ARC
  5
156
330
1F
100
AcDbEntity
  8
0
  6
SLD-Gestrichelt
 62
     7
370
     0
100
AcDbCircle
 10
252.4026268899
 20
102.4300709673
 30
0.0
 40
0.1200023762138468
100
AcDbArc
 50
120.0019860052
 51
239.9980139948
  0
LINE
  5
157
330
1F
100
AcDbEntity
  8
0
  6
SLD-Gestrichelt
 62
     7
370
     0
100
AcDbLine
 10
252.3426220996
 20
102.5339939938
 30
0.0
 11
253.0026243312
 21
102.9150455565
 31
0.0
  0
LINE
  5
158
330
1F
100
AcDbEntity
  8
0
  6
SLD-Gestrichelt
 62
     7
370
     0
100
AcDbLine
 10
253.0026243312
 20
102.9150455565
 30
0.0
 11
253.0026243312
 21
103.1950970486
 31
0.0
  0
LINE
  5
159
330
1F
100
AcDbEntity
  8
0
  6
SLD-Gestrichelt
 62
     7
370
     0
100
AcDbLine
 10
253.0026243312
 20
103.1950970486
 30
0.0
 11
252.3426220996
 21
103.57614768
 31
0.0
  0
LWPOLYLINE
  5
15A
330
1F
100
AcDbEntity
  8
0
  6
SLD-Gestrichelt
 62
     7
370
     0
100
AcDbPolyline
 90
        9
 70
   128
 43
0.0
 10
252.3426220996
 20
103.57614768
 10
252.286459623
 20
103.6499875904
 10
252.2827194316
 20
103.6847566561
 10
252.2869886143
 20
103.7121431277
 10
252.2942678315
 20
103.7316263959
 10
252.303372441
 20
103.7475212783
 10
252.3155541403
 20
103.762643163
 10
252.3276240808
 20
103.7737482533
 10
252.3426220996
 20
103.783993733
  0
LINE
  5
15B
330
1F
100
AcDbEntity
  8
0
  6
SLD-Gestrichelt
 62
     7
370
     0
100
AcDbLine
 10
252.3426220996
 20
103.783993733
 30
0.0
 11
253.0026243312
 21
104.1650452957
 31
0.0
  0
LINE
  5
15C
330
1F
100
AcDbEntity
  8
0
  6
SLD-Gestrichelt
 62
     7
370
     0
100
AcDbLine
 10
253.0026243312
 20
104.1650452957
 30
0.0
 11
253.0026243312
 21
104.4450967879
 31
0.0
  0
LINE
  5
15D
330
1F
100
AcDbEntity
  8
0
  6
SLD-Gestrichelt
 62
     7
370
     0
100
AcDbLine
 10
253.0026243312
 20
104.4450967879
 30
0.0
 11
252.3426220996
 21
104.8261483506
 31
0.0
  0
ARC
  5
15E
330
1F
100
AcDbEntity
  8
0
  6
SLD-Gestrichelt
 62
     7
370
     0
100
AcDbCircle
 10
252.4026279089
 20
104.9300713771
 30
0.0
 40
0.1200028857508754
100
AcDbArc
 50
120.0024073424
 51
239.9975926577
  0
LINE
  5
15F
330
1F
100
AcDbEntity
  8
0
  6
SLD-Gestrichelt
 62
     7
370
     0
100
AcDbLine
 10
252.3426220996
 20
105.0339944035
 30
0.0
 11
253.0026243312
 21
105.4150450349
 31
0.0
  0
LINE
  5
160
330
1F
100
AcDbEntity
  8
0
  6
SLD-Gestrichelt
 62
     7
370
     0
100
AcDbLine
 10
253.0026243312
 20
105.4150450349
 30
0.0
 11
253.0026243312
 21
105.6950965271
 31
0.0
  0
LINE
  5
161
330
1F
100
AcDbEntity
  8
0
  6
SLD-Gestrichelt
 62
     7
370
     0
100
AcDbLine
 10
253.0026243312
 20
105.6950965271
 30
0.0
 11
252.3426220996
 21
106.0761480898
 31
0.0
  0
ARC
  5
162
330
1F
100
AcDbEntity
  8
0
  6
SLD-Gestrichelt
 62
     7
370
     0
100
AcDbCircle
 10
252.4026278512
 20
106.1800711163
 30
0.0
 40
0.1200028568677798
100
AcDbArc
 50
120.0023834591
 51
239.9976165409
  0
LINE
  5
163
330
1F
100
AcDbEntity
  8
0
  6
SLD-Gestrichelt
 62
     7
370
     0
100
AcDbLine
 10
252.3426220996
 20
106.2839941428
 30
0.0
 11
253.0026243312
 21
106.6650452398
 31
0.0
  0
LINE
  5
164
330
1F
100
AcDbEntity
  8
0
  6
SLD-Gestrichelt
 62
     7
370
     0
100
AcDbLine
 10
253.0026243312
 20
106.6650452398
 30
0.0
 11
253.0026243312
 21
106.945096732
 31
0.0
  0
LINE
  5
165
330
1F
100
AcDbEntity
  8
0
  6
SLD-Gestrichelt
 62
     7
370
     0
100
AcDbLine
 10
253.0026243312
 20
106.945096732
 30
0.0
 11
252.3426220996
 21
107.3261478291
 31
0.0
  0
ARC
  5
166
330
1F
100
AcDbEntity
  8
0
  6
SLD-Gestrichelt
 62
     7
370
     0
100
AcDbCircle
 10
252.4026203423
 20
107.4300708555
 30
0.0
 40
0.1199991023211227
100
AcDbArc
 50
119.9992786034
 51
240.0007213966
  0
LINE
  5
167
330
1F
100
AcDbEntity
  8
0
  6
SLD-Gestrichelt
 62
     7
370
     0
100
AcDbLine
 10
252.3426220996
 20
107.533993882
 30
0.0
 11
253.0026243312
 21
107.9150449791
 31
0.0
  0
LINE
  5
168
330
1F
100
AcDbEntity
  8
0
  6
SLD-Gestrichelt
 62
     7
370
     0
100
AcDbLine
 10
253.0026243312
 20
107.9150449791
 30
0.0
 11
253.0026243312
 21
108.1950969369
 31
0.0
  0
LINE
  5
169
330
1F
100
AcDbEntity
  8
0
  6
SLD-Gestrichelt
 62
     7
370
     0
100
AcDbLine
 10
253.0026243312
 20
108.1950969369
 30
0.0
 11
252.3426220996
 21
108.576148034
 31
0.0
  0
ARC
  5
16A
330
1F
100
AcDbEntity
  8
0
  6
SLD-Gestrichelt
 62
     7
370
     0
100
AcDbCircle
 10
252.4026314937
 20
108.6800710604
 30
0.0
 40
0.1200046782808629
100
AcDbArc
 50
120.0038895179
 51
239.9961104821
  0
LINE
  5
16B
330
1F
100
AcDbEntity
  8
0
  6
SLD-Gestrichelt
 62
     7
370
     0
100
AcDbLine
 10
252.3426220996
 20
108.7839940869
 30
0.0
 11
253.0026243312
 21
109.165045184
 31
0.0
  0
LINE
  5
16C
330
1F
100
AcDbEntity
  8
0
  6
SLD-Gestrichelt
 62
     7
370
     0
100
AcDbLine
 10
253.0026243312
 20
109.165045184
 30
0.0
 11
253.0026243312
 21
109.4450966761
 31
0.0
  0
LINE
  5
16D
330
1F
100
AcDbEntity
  8
0
  6
SLD-Gestrichelt
 62
     7
370
     0
100
AcDbLine
 10
253.0026243312
 20
109.4450966761
 30
0.0
 11
252.3426220996
 21
109.826148006
 31
0.0
  0
ARC
  5
16E
330
1F
100
AcDbEntity
  8
0
  6
SLD-Gestrichelt
 62
     7
370
     0
100
AcDbCircle
 10
252.4026276722
 20
109.9300710325
 30
0.0
 40
0.1200027673651492
100
AcDbArc
 50
120.0023094498
 51
239.9976905502
  0
LINE
  5
16F
330
1F
100
AcDbEntity
  8
0
  6
SLD-Gestrichelt
 62
     7
370
     0
100
AcDbLine
 10
252.3426220996
 20
110.033994059
 30
0.0
 11
253.0026243312
 21
110.415045156
 31
0.0
  0
LINE
  5
170
330
1F
100
AcDbEntity
  8
0
  6
SLD-Gestrichelt
 62
     7
370
     0
100
AcDbLine
 10
253.0026243312
 20
110.415045156
 30
0.0
 11
253.0026243312
 21
110.6950966482
 31
0.0
  0
LINE
  5
171
330
1F
100
AcDbEntity
  8
0
  6
SLD-Gestrichelt
 62
     7
370
     0
100
AcDbLine
 10
253.0026243312
 20
110.6950966482
 30
0.0
 11
252.3426220996
 21
111.0761479781
 31
0.0
  0
ARC
  5
172
330
1F
100
AcDbEntity
  8
0
  6
SLD-Gestrichelt
 62
     7
370
     0
100
AcDbCircle
 10
252.4026245453
 20
111.1800710045
 30
0.0
 40
0.1200012038491442
100
AcDbArc
 50
120.0010165405
 51
239.9989834595
  0
LINE
  5
173
330
1F
100
AcDbEntity
  8
0
  6
SLD-Gestrichelt
 62
     7
370
     0
100
AcDbLine
 10
252.3426220996
 20
111.283994031
 30
0.0
 11
253.0026243312
 21
111.6650451281
 31
0.0
  0
LINE
  5
174
330
1F
100
AcDbEntity
  8
0
  6
SLD-Gestrichelt
 62
     7
370
     0
100
AcDbLine
 10
253.0026243312
 20
111.6650451281
 30
0.0
 11
253.0026243312
 21
111.9450967367
 31
0.0
  0
LINE
  5
175
330
1F
100
AcDbEntity
  8
0
  6
SLD-Gestrichelt
 62
     7
370
     0
100
AcDbLine
 10
253.0026243312
 20
111.9450967367
 30
0.0
 11
252.3426220996
 21
112.3261479501
 31
0.0
  0
ARC
  5
176
330
1F
100
AcDbEntity
  8
0
  6
SLD-Gestrichelt
 62
     7
370
     0
100
AcDbCircle
 10
252.4026325572
 20
112.4300709766
 30
0.0
 40
0.1200052101134097
100
AcDbArc
 50
120.0043292489
 51
239.9956707511
  0
LINE
  5
177
330
1F
100
AcDbEntity
  8
0
  6
SLD-Gestrichelt
 62
     7
370
     0
100
AcDbLine
 10
252.3426220996
 20
112.5339940031
 30
0.0
 11
253.0026243312
 21
112.9150451583
 31
0.0
  0
LINE
  5
178
330
1F
100
AcDbEntity
  8
0
  6
SLD-Gestrichelt
 62
     7
370
     0
100
AcDbLine
 10
253.0026243312
 20
112.9150451583
 30
0.0
 11
253.0026243312
 21
113.1950967087
 31
0.0
  0
LINE
  5
179
330
1F
100
AcDbEntity
  8
0
  6
SLD-Gestrichelt
 62
     7
370
     0
100
AcDbLine
 10
253.0026243312
 20
113.1950967087
 30
0.0
 11
252.3426220996
 21
113.5761479004
 31
0.0
  0
ARC
  5
17A
330
1F
100
AcDbEntity
  8
0
  6
SLD-Gestrichelt
 62
     7
370
     0
100
AcDbCircle
 10
252.4026226003
 20
113.6800709487
 30
0.0
 40
0.1200002502075571
100
AcDbArc
 50
120.0002070659
 51
239.9997929341
  0
LINE
  5
17B
330
1F
100
AcDbEntity
  8
0
  6
SLD-Gestrichelt
 62
     7
370
     0
100
AcDbLine
 10
252.3426220996
 20
113.783993997
 30
0.0
 11
253.0026243312
 21
114.1650451886
 31
0.0
  0
LINE
  5
17C
330
1F
100
AcDbEntity
  8
0
  6
SLD-Gestrichelt
 62
     7
370
     0
100
AcDbLine
 10
253.0026243312
 20
114.1650451886
 30
0.0
 11
253.0026243312
 21
114.445096739
 31
0.0
  0
LINE
  5
17D
330
1F
100
AcDbEntity
  8
0
  6
SLD-Gestrichelt
 62
     7
370
     0
100
AcDbLine
 10
127.9526244161
 20
104.6800713361
 30
0.0
 11
127.9526244161
 21
122.6800705612
 31
0.0
  0
LINE
  5
17E
330
1F
100
AcDbEntity
  8
0
  6
SLD-Gestrichelt
 62
     7
370
     0
100
AcDbLine
 10
126.7026246769
 20
103.4539656088
 30
0.0
 11
126.7026246769
 21
123.9061762885
 31
0.0
  0
LINE
  5
17F
330
1F
100
AcDbEntity
  8
0
  6
SLD-Gestrichelt
 62
     7
370
     0
100
AcDbLine
 10
153.7026253772
 20
104.6800713361
 30
0.0
 11
153.7026253772
 21
122.6800705612
 31
0.0
  0
LINE
  5
180
330
1F
100
AcDbEntity
  8
0
  6
SLD-Gestrichelt
 62
     7
370
     0
100
AcDbLine
 10
154.1532700194
 20
105.4300709934
 30
0.0
 11
154.1532700194
 21
121.930070904
 31
0.0
  0
LINE
  5
181
330
1F
100
AcDbEntity
  8
0
  6
SLD-Gestrichelt
 62
     7
370
     0
100
AcDbLine
 10
251.852627216
 20
117.6869252071
 30
0.0
 11
251.852627216
 21
120.9869251893
 31
0.0
  0
LINE
  5
182
330
1F
100
AcDbEntity
  8
0
  6
SLD-Gestrichelt
 62
     7
370
     0
100
AcDbLine
 10
253.0026243312
 20
121.6650453702
 30
0.0
 11
253.0026243312
 21
121.9450968624
 31
0.0
  0
LWPOLYLINE
  5
183
330
1F
100
AcDbEntity
  8
0
  6
SLD-Gestrichelt
 62
     7
370
     0
100
AcDbPolyline
 90
       11
 70
   128
 43
0.0
 10
252.3426220996
 20
121.0761477546
 10
252.288076399
 20
121.1443014749
 10
252.2827566845
 20
121.1856787399
 10
252.2873909456
 20
121.2135574155
 10
252.2943274362
 20
121.2317619779
 10
252.3020387871
 20
121.2455087647
 10
252.3095862252
 20
121.2558548272
 10
252.318810044
 20
121.2659494326
 10
252.3272515518
 20
121.273447045
 10
252.3406700475
 20
121.2828389675
 10
252.3426220996
 20
121.2839938075
  0
LINE
  5
184
330
1F
100
AcDbEntity
  8
0
  6
SLD-Gestrichelt
 62
     7
370
     0
100
AcDbLine
 10
253.0026243312
 20
120.4150451653
 30
0.0
 11
253.0026243312
 21
120.6950966575
 31
0.0
  0
ARC
  5
185
330
1F
100
AcDbEntity
  8
0
  6
SLD-Gestrichelt
 62
     7
370
     0
100
AcDbCircle
 10
252.4026245273
 20
119.9300710418
 30
0.0
 40
0.1200011948428245
100
AcDbArc
 50
120.0010090927
 51
239.9989909073
  0
LINE
  5
186
330
1F
100
AcDbEntity
  8
0
  6
SLD-Gestrichelt
 62
     7
370
     0
100
AcDbLine
 10
253.0026243312
 20
119.1650449604
 30
0.0
 11
253.0026243312
 21
119.4450969183
 31
0.0
  0
ARC
  5
187
330
1F
100
AcDbEntity
  8
0
  6
SLD-Gestrichelt
 62
     7
370
     0
100
AcDbCircle
 10
252.4026262507
 20
118.6800708369
 30
0.0
 40
0.1200020565968404
100
AcDbArc
 50
120.0017217087
 51
239.9982782913
  0
LINE
  5
188
330
1F
100
AcDbEntity
  8
0
  6
SLD-Gestrichelt
 62
     7
370
     0
100
AcDbLine
 10
253.0026243312
 20
117.9150452212
 30
0.0
 11
253.0026243312
 21
118.1950967134
 31
0.0
  0
LWPOLYLINE
  5
189
330
1F
100
AcDbEntity
  8
0
  6
SLD-Gestrichelt
 62
     7
370
     0
100
AcDbPolyline
 90
       10
 70
   128
 43
0.0
 10
252.3426220996
 20
117.3261478384
 10
252.3310215456
 20
117.3337744389
 10
252.3231760842
 20
117.3401397959
 10
252.3149804456
 20
117.3481053979
 10
252.3084090335
 20
117.3557548159
 10
252.3013458831
 20
117.3657032036
 10
252.2928745729
 20
117.381551287
 10
252.2829354984
 20
117.4214253974
 10
252.3158223612
 20
117.5129276075
 10
252.3426220996
 20
117.5339938913
  0
LINE
  5
18A
330
1F
100
AcDbEntity
  8
0
  6
SLD-Gestrichelt
 62
     7
370
     0
100
AcDbLine
 10
253.0026243312
 20
116.6650452492
 30
0.0
 11
253.0026243312
 21
116.9450967413
 31
0.0
  0
LINE
  5
18B
330
1F
100
AcDbEntity
  8
0
  6
SLD-Gestrichelt
 62
     7
370
     0
100
AcDbLine
 10
253.0026243312
 20
121.9450968624
 30
0.0
 11
253.0026243312
 21
121.6650453702
 31
0.0
  0
LINE
  5
18C
330
1F
100
AcDbEntity
  8
0
  6
SLD-Gestrichelt
 62
     7
370
     0
100
AcDbLine
 10
253.0026243312
 20
121.9450968624
 30
0.0
 11
252.8910518867
 21
122.0095155135
 31
0.0
  0
LINE
  5
18D
330
1F
100
AcDbEntity
  8
0
  6
SLD-Gestrichelt
 62
     7
370
     0
100
AcDbLine
 10
253.0026243312
 20
120.6950966575
 30
0.0
 11
253.0026243312
 21
120.4150451653
 31
0.0
  0
LWPOLYLINE
  5
18E
330
1F
100
AcDbEntity
  8
0
  6
SLD-Gestrichelt
 62
     7
370
     0
100
AcDbPolyline
 90
        9
 70
   128
 43
0.0
 10
252.3426220996
 20
121.2839938075
 10
252.3294792754
 20
121.275203985
 10
252.3201809508
 20
121.2672635288
 10
252.3110390884
 20
121.2576071107
 10
252.3039982898
 20
121.2484265984
 10
252.2957952005
 20
121.2347328969
 10
252.2869737131
 20
121.2120817349
 10
252.2848651988
 20
121.156987951
 10
252.3426220996
 20
121.0761477546
  0
LINE
  5
18F
330
1F
100
AcDbEntity
  8
0
  6
SLD-Gestrichelt
 62
     7
370
     0
100
AcDbLine
 10
253.0026243312
 20
119.4450969183
 30
0.0
 11
253.0026243312
 21
119.1650449604
 31
0.0
  0
ARC
  5
190
330
1F
100
AcDbEntity
  8
0
  6
SLD-Gestrichelt
 62
     7
370
     0
100
AcDbCircle
 10
252.4026299764
 20
119.9300710418
 30
0.0
 40
0.1200039195719478
100
AcDbArc
 50
120.0032621836
 51
239.9967378164
  0
LINE
  5
191
330
1F
100
AcDbEntity
  8
0
  6
SLD-Gestrichelt
 62
     7
370
     0
100
AcDbLine
 10
253.0026243312
 20
118.1950967134
 30
0.0
 11
253.0026243312
 21
117.9150452212
 31
0.0
  0
LINE
  5
192
330
1F
100
AcDbEntity
  8
0
  6
SLD-Gestrichelt
 62
     7
370
     0
100
AcDbLine
 10
253.0026243312
 20
116.9450967413
 30
0.0
 11
253.0026243312
 21
116.6650452492
 31
0.0
  0
ARC
  5
193
330
1F
100
AcDbEntity
  8
0
  6
SLD-Gestrichelt
 62
     7
370
     0
100
AcDbCircle
 10
252.4026258684
 20
118.6800708369
 30
0.0
 40
0.1200018654412771
100
AcDbArc
 50
120.0015636373
 51
239.9984363627
  0
LWPOLYLINE
  5
194
330
1F
100
AcDbEntity
  8
0
  6
SLD-Gestrichelt
 62
     7
370
     0
100
AcDbPolyline
 90
       10
 70
   128
 43
0.0
 10
252.3426220996
 20
117.5339938913
 10
252.2908256633
 20
117.4736707312
 10
252.2829653007
 20
117.4210323793
 10
252.2902892215
 20
117.3878675167
 10
252.3007870895
 20
117.3665963419
 10
252.3066804988
 20
117.3579951123
 10
252.3143620474
 20
117.3487701294
 10
252.3219914419
 20
117.3412005723
 10
252.3309544904
 20
117.3338240319
 10
252.3426220996
 20
117.3261478384
  0
LINE
  5
195
330
1F
100
AcDbEntity
  8
0
  6
SLD-Gestrichelt
 62
     7
370
     0
100
AcDbLine
 10
253.0026243312
 20
116.6650452492
 30
0.0
 11
252.9455305321
 21
116.6320824836
 31
0.0
  0
LINE
  5
196
330
1F
100
AcDbEntity
  8
0
  6
SLD-Gestrichelt
 62
     7
370
     0
100
AcDbLine
 10
251.852627216
 20
106.3732167081
 30
0.0
 11
251.852627216
 21
109.6732166902
 31
0.0
  0
LWPOLYLINE
  5
197
330
1F
100
AcDbEntity
  8
0
  6
SLD-Gestrichelt
 62
     7
370
     0
100
AcDbPolyline
 90
       11
 70
   128
 43
0.0
 10
252.3426220996
 20
109.826148006
 10
252.2908256633
 20
109.8864711662
 10
252.2829653007
 20
109.9391095181
 10
252.2863851172
 20
109.9598815039
 10
252.2959665639
 20
109.985063535
 10
252.3057789785
 20
110.0009300121
 10
252.3120672686
 20
110.0088094667
 10
252.3194284422
 20
110.0165468947
 10
252.3262829763
 20
110.0226570693
 10
252.3372651321
 20
110.0307074216
 10
252.3426220996
 20
110.033994059
  0
LINE
  5
198
330
1F
100
AcDbEntity
  8
0
  6
SLD-Gestrichelt
 62
     7
370
     0
100
AcDbLine
 10
253.0026243312
 20
109.165045184
 30
0.0
 11
253.0026243312
 21
109.4450966761
 31
0.0
  0
ARC
  5
199
330
1F
100
AcDbEntity
  8
0
  6
SLD-Gestrichelt
 62
     7
370
     0
100
AcDbCircle
 10
252.4026258684
 20
108.6800710604
 30
0.0
 40
0.1200018654412771
100
AcDbArc
 50
120.0015636373
 51
239.9984363627
  0
LINE
  5
19A
330
1F
100
AcDbEntity
  8
0
  6
SLD-Gestrichelt
 62
     7
370
     0
100
AcDbLine
 10
253.0026243312
 20
107.9150449791
 30
0.0
 11
253.0026243312
 21
108.1950969369
 31
0.0
  0
ARC
  5
19B
330
1F
100
AcDbEntity
  8
0
  6
SLD-Gestrichelt
 62
     7
370
     0
100
AcDbCircle
 10
252.4026299764
 20
107.4300708555
 30
0.0
 40
0.1200039195719478
100
AcDbArc
 50
120.0032621836
 51
239.9967378164
  0
LINE
  5
19C
330
1F
100
AcDbEntity
  8
0
  6
SLD-Gestrichelt
 62
     7
370
     0
100
AcDbLine
 10
253.0026243312
 20
106.6650452398
 30
0.0
 11
253.0026243312
 21
106.945096732
 31
0.0
  0
LWPOLYLINE
  5
19D
330
1F
100
AcDbEntity
  8
0
  6
SLD-Gestrichelt
 62
     7
370
     0
100
AcDbPolyline
 90
        9
 70
   128
 43
0.0
 10
252.3426220996
 20
106.0761480898
 10
252.3294792754
 20
106.0849379123
 10
252.3201809508
 20
106.0928783686
 10
252.3110390884
 20
106.1025347867
 10
252.3039982898
 20
106.111715299
 10
252.2957952005
 20
106.1254090004
 10
252.2869737131
 20
106.1480601624
 10
252.2848651988
 20
106.2031539463
 10
252.3426220996
 20
106.2839941428
  0
LINE
  5
19E
330
1F
100
AcDbEntity
  8
0
  6
SLD-Gestrichelt
 62
     7
370
     0
100
AcDbLine
 10
253.0026243312
 20
105.4150450349
 30
0.0
 11
253.0026243312
 21
105.6950965271
 31
0.0
  0
LINE
  5
19F
330
1F
100
AcDbEntity
  8
0
  6
SLD-Gestrichelt
 62
     7
370
     0
100
AcDbLine
 10
253.0026243312
 20
110.415045156
 30
0.0
 11
253.0026243312
 21
110.6950966482
 31
0.0
  0
LINE
  5
1A0
330
1F
100
AcDbEntity
  8
0
  6
SLD-Gestrichelt
 62
     7
370
     0
100
AcDbLine
 10
253.0026243312
 20
105.6950965271
 30
0.0
 11
253.0026243312
 21
105.4150450349
 31
0.0
  0
LINE
  5
1A1
330
1F
100
AcDbEntity
  8
0
  6
SLD-Gestrichelt
 62
     7
370
     0
100
AcDbLine
 10
253.0026243312
 20
105.4150450349
 30
0.0
 11
252.8910518867
 21
105.3506263838
 31
0.0
  0
LINE
  5
1A2
330
1F
100
AcDbEntity
  8
0
  6
SLD-Gestrichelt
 62
     7
370
     0
100
AcDbLine
 10
253.0026243312
 20
106.945096732
 30
0.0
 11
253.0026243312
 21
106.6650452398
 31
0.0
  0
LWPOLYLINE
  5
1A3
330
1F
100
AcDbEntity
  8
0
  6
SLD-Gestrichelt
 62
     7
370
     0
100
AcDbPolyline
 90
       11
 70
   128
 43
0.0
 10
252.3426220996
 20
106.2839941428
 10
252.288076399
 20
106.2158404224
 10
252.2827566845
 20
106.1744631574
 10
252.2873909456
 20
106.1465844818
 10
252.2943274362
 20
106.1283799194
 10
252.3020387871
 20
106.1146331326
 10
252.3095862252
 20
106.1042870701
 10
252.318810044
 20
106.0941924647
 10
252.3272515518
 20
106.0866948523
 10
252.3406700475
 20
106.0773029298
 10
252.3426220996
 20
106.0761480898
  0
LINE
  5
1A4
330
1F
100
AcDbEntity
  8
0
  6
SLD-Gestrichelt
 62
     7
370
     0
100
AcDbLine
 10
253.0026243312
 20
108.1950969369
 30
0.0
 11
253.0026243312
 21
107.9150449791
 31
0.0
  0
ARC
  5
1A5
330
1F
100
AcDbEntity
  8
0
  6
SLD-Gestrichelt
 62
     7
370
     0
100
AcDbCircle
 10
252.4026245273
 20
107.4300708555
 30
0.0
 40
0.1200011948428245
100
AcDbArc
 50
120.0010090927
 51
239.9989909073
  0
LINE
  5
1A6
330
1F
100
AcDbEntity
  8
0
  6
SLD-Gestrichelt
 62
     7
370
     0
100
AcDbLine
 10
253.0026243312
 20
109.4450966761
 30
0.0
 11
253.0026243312
 21
109.165045184
 31
0.0
  0
LINE
  5
1A7
330
1F
100
AcDbEntity
  8
0
  6
SLD-Gestrichelt
 62
     7
370
     0
100
AcDbLine
 10
253.0026243312
 20
110.6950966482
 30
0.0
 11
253.0026243312
 21
110.415045156
 31
0.0
  0
ARC
  5
1A8
330
1F
100
AcDbEntity
  8
0
  6
SLD-Gestrichelt
 62
     7
370
     0
100
AcDbCircle
 10
252.4026262507
 20
108.6800710604
 30
0.0
 40
0.1200020565968404
100
AcDbArc
 50
120.0017217087
 51
239.9982782913
  0
LWPOLYLINE
  5
1A9
330
1F
100
AcDbEntity
  8
0
  6
SLD-Gestrichelt
 62
     7
370
     0
100
AcDbPolyline
 90
       10
 70
   128
 43
0.0
 10
252.3426220996
 20
110.033994059
 10
252.3310215456
 20
110.0263674584
 10
252.3231760842
 20
110.0200021014
 10
252.3149804456
 20
110.0120364994
 10
252.3084090335
 20
110.0043870815
 10
252.3013458831
 20
109.9944386937
 10
252.2928745729
 20
109.9785906103
 10
252.2829354984
 20
109.9387164999
 10
252.3158223612
 20
109.8472142898
 10
252.3426220996
 20
109.826148006
  0
LINE
  5
1AA
330
1F
100
AcDbEntity
  8
0
  6
SLD-Gestrichelt
 62
     7
370
     0
100
AcDbLine
 10
253.0026243312
 20
110.6950966482
 30
0.0
 11
252.9455305321
 21
110.7280594137
 31
0.0
  0
LINE
  5
1AB
330
1F
100
AcDbEntity
  8
0
  6
SLD-Gestrichelt
 62
     7
370
     0
100
AcDbLine
 10
230.7026268227
 20
105.4300709934
 30
0.0
 11
230.7026268227
 21
121.930070904
 31
0.0
  0
LINE
  5
1AC
330
1F
100
AcDbEntity
  8
0
  6
SLD-Gestrichelt
 62
     7
370
     0
100
AcDbLine
 10
232.6134697778
 20
110.6800709226
 30
0.0
 11
232.6134697778
 21
116.6800709747
 31
0.0
  0
LINE
  5
1AD
330
1F
100
AcDbEntity
  8
0
  6
SLD-Gestrichelt
 62
     7
370
     0
100
AcDbLine
 10
241.702626763
 20
117.6869252071
 30
0.0
 11
241.702626763
 21
120.9869251893
 31
0.0
  0
LINE
  5
1AE
330
1F
100
AcDbEntity
  8
0
  6
SLD-Gestrichelt
 62
     7
370
     0
100
AcDbLine
 10
241.702626763
 20
106.3732167081
 30
0.0
 11
241.702626763
 21
109.6732166902
 31
0.0
  0
LINE
  5
1AF
330
1F
100
AcDbEntity
  8
0
  6
SLD-Gestrichelt
 62
     7
370
     0
100
AcDbLine
 10
135.5026246292
 20
135.3624712051
 30
0.0
 11
135.5026246292
 21
137.1001701177
 31
0.0
  0
LINE
  5
1B0
330
1F
100
AcDbEntity
  8
0
  6
SLD-Gestrichelt
 62
     7
370
     0
100
AcDbLine
 10
101.2026251537
 20
134.6161875249
 30
0.0
 11
101.2026251537
 21
136.2384341032
 31
0.0
  0
LWPOLYLINE
  5
1B1
330
1F
100
AcDbEntity
  8
0
  6
SLD-Gestrichelt
 62
     7
370
     0
100
AcDbPolyline
 90
        4
 70
   128
 43
0.0
 10
136.3813043117
 20
135.8237552763
 10
136.0892984794
 20
136.4723376305
 10
135.9250136429
 20
136.8408191324
 10
135.9092156181
 20
136.8763956547
  0
LINE
  5
1B2
330
1F
100
AcDbEntity
  8
0
  6
SLD-Gestrichelt
 62
     7
370
     0
100
AcDbLine
 10
99.7026258392
 20
133.8661860049
 30
0.0
 11
99.7026258392
 21
135.3724084169
 31
0.0
  0
LINE
  5
1B3
330
1F
100
AcDbEntity
  8
0
  6
SLD-Gestrichelt
 62
     7
370
     0
100
AcDbLine
 10
252.2026256902
 20
109.6859371596
 30
0.0
 11
252.2026256902
 21
117.6742047378
 31
0.0
  0
LINE
  5
1B4
330
1F
100
AcDbEntity
  8
0
  6
SLD-Gestrichelt
 62
     7
370
     0
100
AcDbLine
 10
253.0026243312
 20
117.9150452212
 30
0.0
 11
253.0026243312
 21
118.1950967134
 31
0.0
  0
LWPOLYLINE
  5
1B5
330
1F
100
AcDbEntity
  8
0
  6
SLD-Gestrichelt
 62
     7
370
     0
100
AcDbPolyline
 90
        4
 70
   128
 43
0.0
 10
253.0026243312
 20
118.1950967134
 10
252.8417290432
 20
118.2879882239
 10
252.8469593508
 20
118.2849716701
 10
253.0026243312
 20
118.1950967134
  0
LINE
  5
1B6
330
1F
100
AcDbEntity
  8
0
  6
SLD-Gestrichelt
 62
     7
370
     0
100
AcDbLine
 10
253.0026243312
 20
118.1950967134
 30
0.0
 11
253.0026243312
 21
117.9150452212
 31
0.0
  0
LWPOLYLINE
  5
1B7
330
1F
100
AcDbEntity
  8
0
  6
SLD-Gestrichelt
 62
     7
370
     0
100
AcDbPolyline
 90
       10
 70
   128
 43
0.0
 10
252.3426220996
 20
117.5339938913
 10
252.3304478509
 20
117.5259356227
 10
252.3221032006
 20
117.519044767
 10
252.313587187
 20
117.5105250281
 10
252.3068742139
 20
117.5024050594
 10
252.2994608862
 20
117.4913644631
 10
252.2908852679
 20
117.4738164832
 10
252.2826300246
 20
117.4311686613
 10
252.3247183544
 20
117.338800554
 10
252.3426220996
 20
117.3261478384
  0
LINE
  5
1B8
330
1F
100
AcDbEntity
  8
0
  6
SLD-Gestrichelt
 62
     7
370
     0
100
AcDbLine
 10
253.0026243312
 20
116.9450967413
 30
0.0
 11
253.0026243312
 21
116.6650452492
 31
0.0
  0
ARC
  5
1B9
330
1F
100
AcDbEntity
  8
0
  6
SLD-Gestrichelt
 62
     7
370
     0
100
AcDbCircle
 10
252.4026287223
 20
116.1800708928
 30
0.0
 40
0.1200032924630371
100
AcDbArc
 50
120.002743647
 51
239.997256353
  0
LINE
  5
1BA
330
1F
100
AcDbEntity
  8
0
  6
SLD-Gestrichelt
 62
     7
370
     0
100
AcDbLine
 10
253.0026243312
 20
115.6950967692
 30
0.0
 11
253.0026243312
 21
115.4150451607
 31
0.0
  0
ARC
  5
1BB
330
1F
100
AcDbEntity
  8
0
  6
SLD-Gestrichelt
 62
     7
370
     0
100
AcDbCircle
 10
252.402625742
 20
114.9300709207
 30
0.0
 40
0.1200018022210248
100
AcDbArc
 50
120.0015113586
 51
239.9984886414
  0
LINE
  5
1BC
330
1F
100
AcDbEntity
  8
0
  6
SLD-Gestrichelt
 62
     7
370
     0
100
AcDbLine
 10
253.0026243312
 20
114.445096739
 30
0.0
 11
253.0026243312
 21
114.1650451886
 31
0.0
  0
ARC
  5
1BD
330
1F
100
AcDbEntity
  8
0
  6
SLD-Gestrichelt
 62
     7
370
     0
100
AcDbCircle
 10
252.4026298752
 20
113.6800709487
 30
0.0
 40
0.1200038878649015
100
AcDbArc
 50
120.003215125
 51
239.996784875
  0
LINE
  5
1BE
330
1F
100
AcDbEntity
  8
0
  6
SLD-Gestrichelt
 62
     7
370
     0
100
AcDbLine
 10
253.0026243312
 20
113.1950967087
 30
0.0
 11
253.0026243312
 21
112.9150451583
 31
0.0
  0
ARC
  5
1BF
330
1F
100
AcDbEntity
  8
0
  6
SLD-Gestrichelt
 62
     7
370
     0
100
AcDbCircle
 10
252.402630819
 20
112.4300709766
 30
0.0
 40
0.1200043408978911
100
AcDbArc
 50
120.0036105571
 51
239.9963894429
  0
LINE
  5
1C0
330
1F
100
AcDbEntity
  8
0
  6
SLD-Gestrichelt
 62
     7
370
     0
100
AcDbLine
 10
253.0026243312
 20
111.9450967367
 30
0.0
 11
253.0026243312
 21
111.6650451281
 31
0.0
  0
ARC
  5
1C1
330
1F
100
AcDbEntity
  8
0
  6
SLD-Gestrichelt
 62
     7
370
     0
100
AcDbCircle
 10
252.4026260951
 20
111.1800710045
 30
0.0
 40
0.1200019787808622
100
AcDbArc
 50
120.0016573608
 51
239.9983426392
  0
LINE
  5
1C2
330
1F
100
AcDbEntity
  8
0
  6
SLD-Gestrichelt
 62
     7
370
     0
100
AcDbLine
 10
253.0026243312
 20
110.6950966482
 30
0.0
 11
253.0026243312
 21
110.415045156
 31
0.0
  0
ARC
  5
1C3
330
1F
100
AcDbEntity
  8
0
  6
SLD-Gestrichelt
 62
     7
370
     0
100
AcDbCircle
 10
252.4026242103
 20
109.9300710325
 30
0.0
 40
0.1200010363178103
100
AcDbArc
 50
120.0008779998
 51
239.9991220002
  0
LINE
  5
1C4
330
1F
100
AcDbEntity
  8
0
  6
SLD-Gestrichelt
 62
     7
370
     0
100
AcDbLine
 10
253.0026243312
 20
109.4450966761
 30
0.0
 11
253.0026243312
 21
109.165045184
 31
0.0
  0
LWPOLYLINE
  5
1C5
330
1F
100
AcDbEntity
  8
0
  6
SLD-Gestrichelt
 62
     7
370
     0
100
AcDbPolyline
 90
        4
 70
   128
 43
0.0
 10
253.0026243312
 20
109.165045184
 10
252.8417290432
 20
109.0721536734
 10
252.8469593508
 20
109.0751702272
 10
253.0026243312
 20
109.165045184
  0
LINE
  5
1C6
330
1F
100
AcDbEntity
  8
0
  6
SLD-Gestrichelt
 62
     7
370
     0
100
AcDbLine
 10
253.0026243312
 20
109.165045184
 30
0.0
 11
253.0026243312
 21
109.4450966761
 31
0.0
  0
LINE
  5
1C7
330
1F
100
AcDbEntity
  8
0
  6
SLD-Gestrichelt
 62
     7
370
     0
100
AcDbLine
 10
253.0026243312
 20
116.6650452492
 30
0.0
 11
253.0026243312
 21
116.9450967413
 31
0.0
  0
LINE
  5
1C8
330
1F
100
AcDbEntity
  8
0
  6
SLD-Gestrichelt
 62
     7
370
     0
100
AcDbLine
 10
253.0026243312
 20
110.415045156
 30
0.0
 11
253.0026243312
 21
110.6950966482
 31
0.0
  0
LWPOLYLINE
  5
1C9
330
1F
100
AcDbEntity
  8
0
  6
SLD-Gestrichelt
 62
     7
370
     0
100
AcDbPolyline
 90
       10
 70
   128
 43
0.0
 10
252.3426220996
 20
109.826148006
 10
252.3304478509
 20
109.8342062746
 10
252.3221032006
 20
109.8410971303
 10
252.313587187
 20
109.8496168692
 10
252.3068742139
 20
109.8577368379
 10
252.2994608862
 20
109.8687774342
 10
252.2908852679
 20
109.8863254142
 10
252.2826300246
 20
109.928973236
 10
252.3247183544
 20
110.0213413433
 10
252.3426220996
 20
110.033994059
  0
ARC
  5
1CA
330
1F
100
AcDbEntity
  8
0
  6
SLD-Gestrichelt
 62
     7
370
     0
100
AcDbCircle
 10
252.4026242103
 20
117.4300708648
 30
0.0
 40
0.1200010363178103
100
AcDbArc
 50
120.0008779998
 51
239.9991220002
  0
LINE
  5
1CB
330
1F
100
AcDbEntity
  8
0
  6
SLD-Gestrichelt
 62
     7
370
     0
100
AcDbLine
 10
253.0026243312
 20
111.6650451281
 30
0.0
 11
253.0026243312
 21
111.9450967367
 31
0.0
  0
LINE
  5
1CC
330
1F
100
AcDbEntity
  8
0
  6
SLD-Gestrichelt
 62
     7
370
     0
100
AcDbLine
 10
253.0026243312
 20
115.4150451607
 30
0.0
 11
253.0026243312
 21
115.6950967692
 31
0.0
  0
LINE
  5
1CD
330
1F
100
AcDbEntity
  8
0
  6
SLD-Gestrichelt
 62
     7
370
     0
100
AcDbLine
 10
253.0026243312
 20
114.1650451886
 30
0.0
 11
253.0026243312
 21
114.445096739
 31
0.0
  0
LINE
  5
1CE
330
1F
100
AcDbEntity
  8
0
  6
SLD-Gestrichelt
 62
     7
370
     0
100
AcDbLine
 10
253.0026243312
 20
112.9150451583
 30
0.0
 11
253.0026243312
 21
113.1950967087
 31
0.0
  0
ARC
  5
1CF
330
1F
100
AcDbEntity
  8
0
  6
SLD-Gestrichelt
 62
     7
370
     0
100
AcDbCircle
 10
252.4026260951
 20
116.1800708928
 30
0.0
 40
0.1200019787808622
100
AcDbArc
 50
120.0016573608
 51
239.9983426392
  0
ARC
  5
1D0
330
1F
100
AcDbEntity
  8
0
  6
SLD-Gestrichelt
 62
     7
370
     0
100
AcDbCircle
 10
252.4026287223
 20
111.1800710045
 30
0.0
 40
0.1200032924630371
100
AcDbArc
 50
120.002743647
 51
239.997256353
  0
ARC
  5
1D1
330
1F
100
AcDbEntity
  8
0
  6
SLD-Gestrichelt
 62
     7
370
     0
100
AcDbCircle
 10
252.402630819
 20
114.9300709207
 30
0.0
 40
0.1200043408978911
100
AcDbArc
 50
120.0036105571
 51
239.9963894429
  0
ARC
  5
1D2
330
1F
100
AcDbEntity
  8
0
  6
SLD-Gestrichelt
 62
     7
370
     0
100
AcDbCircle
 10
252.402625742
 20
112.4300709766
 30
0.0
 40
0.1200018022210248
100
AcDbArc
 50
120.0015113586
 51
239.9984886414
  0
ARC
  5
1D3
330
1F
100
AcDbEntity
  8
0
  6
SLD-Gestrichelt
 62
     7
370
     0
100
AcDbCircle
 10
252.4026298752
 20
113.6800709487
 30
0.0
 40
0.1200038878649015
100
AcDbArc
 50
120.003215125
 51
239.996784875
  0
LINE
  5
1D4
330
1F
100
AcDbEntity
  8
0
  6
SLD-Gestrichelt
 62
     7
370
     0
100
AcDbLine
 10
118.1526252312
 20
93.6823158831
 30
0.0
 11
126.25262451
 21
93.6823158831
 31
0.0
  0
LINE
  5
1D5
330
1F
100
AcDbEntity
  8
0
  6
SLD-Gestrichelt
 62
     7
370
     0
100
AcDbLine
 10
106.1526232643
 20
94.0738085032
 30
0.0
 11
106.1526232643
 21
95.6800717235
 31
0.0
  0
LINE
  5
1D6
330
1F
100
AcDbEntity
  8
0
  6
SLD-Gestrichelt
 62
     7
370
     0
100
AcDbLine
 10
101.2026251537
 20
94.1830805809
 30
0.0
 11
99.7026258392
 21
94.9315919847
 31
0.0
  0
LINE
  5
1D7
330
1F
100
AcDbEntity
  8
0
  6
SLD-Gestrichelt
 62
     7
370
     0
100
AcDbLine
 10
99.7026258392
 20
94.9315919847
 30
0.0
 11
99.7026258392
 21
95.6800717235
 31
0.0
  0
LINE
  5
1D8
330
1F
100
AcDbEntity
  8
0
  6
SLD-Gestrichelt
 62
     7
370
     0
100
AcDbLine
 10
118.1526252312
 20
131.1800710232
 30
0.0
 11
126.25262451
 21
131.1800710232
 31
0.0
  0
LINE
  5
1D9
330
1F
100
AcDbEntity
  8
0
  6
SLD-Gestrichelt
 62
     7
370
     0
100
AcDbLine
 10
249.1526262147
 20
109.9800709475
 30
0.0
 11
249.1526262147
 21
117.3800709498
 31
0.0
  0
LINE
  5
1DA
330
1F
100
AcDbEntity
  8
0
  6
SLD-Gestrichelt
 62
     7
370
     0
100
AcDbLine
 10
250.6526218039
 20
109.9800709475
 30
0.0
 11
250.6526218039
 21
117.3800709498
 31
0.0
  0
LINE
  5
1DB
330
1F
100
AcDbEntity
  8
0
  6
SLD-Gestrichelt
 62
     7
370
     0
100
AcDbLine
 10
251.6830072982
 20
110.6800709226
 30
0.0
 11
251.6830072982
 21
116.6800709747
 31
0.0
  0
LINE
  5
1DC
330
1F
100
AcDbEntity
  8
0
  6
SLD-Gestrichelt
 62
     7
370
     0
100
AcDbLine
 10
252.2026256902
 20
116.9560102121
 30
0.0
 11
252.2026256902
 21
110.4041316853
 31
0.0
  0
LINE
  5
1DD
330
1F
100
AcDbEntity
  8
0
  6
SLD-Gestrichelt
 62
     7
370
     0
100
AcDbLine
 10
250.6526218039
 20
110.6859908745
 30
0.0
 11
250.6526218039
 21
116.6741510228
 31
0.0
  0
LINE
  5
1DE
330
1F
100
AcDbEntity
  8
0
  6
SLD-Gestrichelt
 62
     7
370
     0
100
AcDbLine
 10
249.1526262147
 20
110.6859908745
 30
0.0
 11
249.1526262147
 21
116.6741510228
 31
0.0
  0
LINE
  5
1DF
330
1F
100
AcDbEntity
  8
0
  6
SLD-Gestrichelt
 62
     7
370
     0
100
AcDbLine
 10
147.7026243938
 20
82.6800714553
 30
0.0
 11
151.7026250494
 21
82.6800714553
 31
0.0
  0
LINE
  5
1E0
330
1F
100
AcDbEntity
  8
0
  6
SLD-Gestrichelt
 62
     7
370
     0
100
AcDbLine
 10
251.852627216
 20
117.7119922199
 30
0.0
 11
251.852627216
 21
120.9618581765
 31
0.0
  0
LINE
  5
1E1
330
1F
100
AcDbEntity
  8
0
  6
SLD-Gestrichelt
 62
     7
370
     0
100
AcDbLine
 10
253.0026243312
 20
121.6650453702
 30
0.0
 11
253.0026243312
 21
121.9450968624
 31
0.0
  0
LWPOLYLINE
  5
1E2
330
1F
100
AcDbEntity
  8
0
  6
SLD-Gestrichelt
 62
     7
370
     0
100
AcDbPolyline
 90
       11
 70
   128
 43
0.0
 10
252.3426220996
 20
121.0761477546
 10
252.288076399
 20
121.1443014749
 10
252.2827566845
 20
121.1856787399
 10
252.2873909456
 20
121.2135574155
 10
252.2943274362
 20
121.2317619779
 10
252.3020387871
 20
121.2455087647
 10
252.3095862252
 20
121.2558548272
 10
252.318810044
 20
121.2659494326
 10
252.3272515518
 20
121.273447045
 10
252.3406700475
 20
121.2828389675
 10
252.3426220996
 20
121.2839938075
  0
LINE
  5
1E3
330
1F
100
AcDbEntity
  8
0
  6
SLD-Gestrichelt
 62
     7
370
     0
100
AcDbLine
 10
253.0026243312
 20
120.4150451653
 30
0.0
 11
253.0026243312
 21
120.6950966575
 31
0.0
  0
LINE
  5
1E4
330
1F
100
AcDbEntity
  8
0
  6
SLD-Gestrichelt
 62
     7
370
     0
100
AcDbLine
 10
253.0026243312
 20
119.1650449604
 30
0.0
 11
253.0026243312
 21
119.4450969183
 31
0.0
  0
LINE
  5
1E5
330
1F
100
AcDbEntity
  8
0
  6
SLD-Gestrichelt
 62
     7
370
     0
100
AcDbLine
 10
253.0026243312
 20
117.9150452212
 30
0.0
 11
253.0026243312
 21
118.1950967134
 31
0.0
  0
LWPOLYLINE
  5
1E6
330
1F
100
AcDbEntity
  8
0
  6
SLD-Gestrichelt
 62
     7
370
     0
100
AcDbPolyline
 90
       10
 70
   128
 43
0.0
 10
252.3426220996
 20
117.3261478384
 10
252.3310215456
 20
117.3337744389
 10
252.3231760842
 20
117.3401397959
 10
252.3149804456
 20
117.3481053979
 10
252.3084090335
 20
117.3557548159
 10
252.3013458831
 20
117.3657032036
 10
252.2928745729
 20
117.381551287
 10
252.2829354984
 20
117.4214253974
 10
252.3158223612
 20
117.5129276075
 10
252.3426220996
 20
117.5339938913
  0
LINE
  5
1E7
330
1F
100
AcDbEntity
  8
0
  6
SLD-Gestrichelt
 62
     7
370
     0
100
AcDbLine
 10
253.0026243312
 20
116.6650452492
 30
0.0
 11
253.0026243312
 21
116.9450967413
 31
0.0
  0
LINE
  5
1E8
330
1F
100
AcDbEntity
  8
0
  6
SLD-Gestrichelt
 62
     7
370
     0
100
AcDbLine
 10
253.0026243312
 20
116.9450967413
 30
0.0
 11
253.0026243312
 21
116.6650452492
 31
0.0
  0
LINE
  5
1E9
330
1F
100
AcDbEntity
  8
0
  6
SLD-Gestrichelt
 62
     7
370
     0
100
AcDbLine
 10
253.0026243312
 20
118.1950967134
 30
0.0
 11
253.0026243312
 21
117.9150452212
 31
0.0
  0
LWPOLYLINE
  5
1EA
330
1F
100
AcDbEntity
  8
0
  6
SLD-Gestrichelt
 62
     7
370
     0
100
AcDbPolyline
 90
       10
 70
   128
 43
0.0
 10
252.3426220996
 20
117.5339938913
 10
252.2908256633
 20
117.4736707312
 10
252.2829653007
 20
117.4210323793
 10
252.2902892215
 20
117.3878675167
 10
252.3007870895
 20
117.3665963419
 10
252.3066804988
 20
117.3579951123
 10
252.3143620474
 20
117.3487701294
 10
252.3219914419
 20
117.3412005723
 10
252.3309544904
 20
117.3338240319
 10
252.3426220996
 20
117.3261478384
  0
LINE
  5
1EB
330
1F
100
AcDbEntity
  8
0
  6
SLD-Gestrichelt
 62
     7
370
     0
100
AcDbLine
 10
253.0026243312
 20
119.4450969183
 30
0.0
 11
253.0026243312
 21
119.1650449604
 31
0.0
  0
LINE
  5
1EC
330
1F
100
AcDbEntity
  8
0
  6
SLD-Gestrichelt
 62
     7
370
     0
100
AcDbLine
 10
253.0026243312
 20
120.6950966575
 30
0.0
 11
253.0026243312
 21
120.4150451653
 31
0.0
  0
LINE
  5
1ED
330
1F
100
AcDbEntity
  8
0
  6
SLD-Gestrichelt
 62
     7
370
     0
100
AcDbLine
 10
253.0026243312
 20
121.9450968624
 30
0.0
 11
253.0026243312
 21
121.6650453702
 31
0.0
  0
LWPOLYLINE
  5
1EE
330
1F
100
AcDbEntity
  8
0
  6
SLD-Gestrichelt
 62
     7
370
     0
100
AcDbPolyline
 90
        9
 70
   128
 43
0.0
 10
252.3426220996
 20
121.2839938075
 10
252.3294792754
 20
121.275203985
 10
252.3201809508
 20
121.2672635288
 10
252.3110390884
 20
121.2576071107
 10
252.3039982898
 20
121.2484265984
 10
252.2957952005
 20
121.2347328969
 10
252.2869737131
 20
121.2120817349
 10
252.2848651988
 20
121.156987951
 10
252.3426220996
 20
121.0761477546
  0
LINE
  5
1EF
330
1F
100
AcDbEntity
  8
0
  6
SLD-Gestrichelt
 62
     7
370
     0
100
AcDbLine
 10
251.852627216
 20
106.3982837208
 30
0.0
 11
251.852627216
 21
109.6481496774
 31
0.0
  0
LWPOLYLINE
  5
1F0
330
1F
100
AcDbEntity
  8
0
  6
SLD-Gestrichelt
 62
     7
370
     0
100
AcDbPolyline
 90
       11
 70
   128
 43
0.0
 10
252.3426220996
 20
109.826148006
 10
252.2908256633
 20
109.8864711662
 10
252.2829653007
 20
109.9391095181
 10
252.2863851172
 20
109.9598815039
 10
252.2959665639
 20
109.985063535
 10
252.3057789785
 20
110.0009300121
 10
252.3120672686
 20
110.0088094667
 10
252.3194284422
 20
110.0165468947
 10
252.3262829763
 20
110.0226570693
 10
252.3372651321
 20
110.0307074216
 10
252.3426220996
 20
110.033994059
  0
LINE
  5
1F1
330
1F
100
AcDbEntity
  8
0
  6
SLD-Gestrichelt
 62
     7
370
     0
100
AcDbLine
 10
253.0026243312
 20
109.165045184
 30
0.0
 11
253.0026243312
 21
109.4450966761
 31
0.0
  0
LINE
  5
1F2
330
1F
100
AcDbEntity
  8
0
  6
SLD-Gestrichelt
 62
     7
370
     0
100
AcDbLine
 10
253.0026243312
 20
107.9150449791
 30
0.0
 11
253.0026243312
 21
108.1950969369
 31
0.0
  0
LINE
  5
1F3
330
1F
100
AcDbEntity
  8
0
  6
SLD-Gestrichelt
 62
     7
370
     0
100
AcDbLine
 10
253.0026243312
 20
106.6650452398
 30
0.0
 11
253.0026243312
 21
106.945096732
 31
0.0
  0
LWPOLYLINE
  5
1F4
330
1F
100
AcDbEntity
  8
0
  6
SLD-Gestrichelt
 62
     7
370
     0
100
AcDbPolyline
 90
        9
 70
   128
 43
0.0
 10
252.3426220996
 20
106.0761480898
 10
252.3294792754
 20
106.0849379123
 10
252.3201809508
 20
106.0928783686
 10
252.3110390884
 20
106.1025347867
 10
252.3039982898
 20
106.111715299
 10
252.2957952005
 20
106.1254090004
 10
252.2869737131
 20
106.1480601624
 10
252.2848651988
 20
106.2031539463
 10
252.3426220996
 20
106.2839941428
  0
LINE
  5
1F5
330
1F
100
AcDbEntity
  8
0
  6
SLD-Gestrichelt
 62
     7
370
     0
100
AcDbLine
 10
253.0026243312
 20
105.4150450349
 30
0.0
 11
253.0026243312
 21
105.6950965271
 31
0.0
  0
LINE
  5
1F6
330
1F
100
AcDbEntity
  8
0
  6
SLD-Gestrichelt
 62
     7
370
     0
100
AcDbLine
 10
253.0026243312
 20
110.6950966482
 30
0.0
 11
253.0026243312
 21
110.415045156
 31
0.0
  0
LINE
  5
1F7
330
1F
100
AcDbEntity
  8
0
  6
SLD-Gestrichelt
 62
     7
370
     0
100
AcDbLine
 10
253.0026243312
 20
110.415045156
 30
0.0
 11
253.0026243312
 21
110.6950966482
 31
0.0
  0
LINE
  5
1F8
330
1F
100
AcDbEntity
  8
0
  6
SLD-Gestrichelt
 62
     7
370
     0
100
AcDbLine
 10
253.0026243312
 20
109.4450966761
 30
0.0
 11
253.0026243312
 21
109.165045184
 31
0.0
  0
LWPOLYLINE
  5
1F9
330
1F
100
AcDbEntity
  8
0
  6
SLD-Gestrichelt
 62
     7
370
     0
100
AcDbPolyline
 90
       10
 70
   128
 43
0.0
 10
252.3426220996
 20
110.033994059
 10
252.3310215456
 20
110.0263674584
 10
252.3231760842
 20
110.0200021014
 10
252.3149804456
 20
110.0120364994
 10
252.3084090335
 20
110.0043870815
 10
252.3013458831
 20
109.9944386937
 10
252.2928745729
 20
109.9785906103
 10
252.2829354984
 20
109.9387164999
 10
252.3158223612
 20
109.8472142898
 10
252.3426220996
 20
109.826148006
  0
LINE
  5
1FA
330
1F
100
AcDbEntity
  8
0
  6
SLD-Gestrichelt
 62
     7
370
     0
100
AcDbLine
 10
253.0026243312
 20
108.1950969369
 30
0.0
 11
253.0026243312
 21
107.9150449791
 31
0.0
  0
LINE
  5
1FB
330
1F
100
AcDbEntity
  8
0
  6
SLD-Gestrichelt
 62
     7
370
     0
100
AcDbLine
 10
253.0026243312
 20
106.945096732
 30
0.0
 11
253.0026243312
 21
106.6650452398
 31
0.0
  0
LINE
  5
1FC
330
1F
100
AcDbEntity
  8
0
  6
SLD-Gestrichelt
 62
     7
370
     0
100
AcDbLine
 10
253.0026243312
 20
105.6950965271
 30
0.0
 11
253.0026243312
 21
105.4150450349
 31
0.0
  0
LWPOLYLINE
  5
1FD
330
1F
100
AcDbEntity
  8
0
  6
SLD-Gestrichelt
 62
     7
370
     0
100
AcDbPolyline
 90
       11
 70
   128
 43
0.0
 10
252.3426220996
 20
106.2839941428
 10
252.288076399
 20
106.2158404224
 10
252.2827566845
 20
106.1744631574
 10
252.2873909456
 20
106.1465844818
 10
252.2943274362
 20
106.1283799194
 10
252.3020387871
 20
106.1146331326
 10
252.3095862252
 20
106.1042870701
 10
252.318810044
 20
106.0941924647
 10
252.3272515518
 20
106.0866948523
 10
252.3406700475
 20
106.0773029298
 10
252.3426220996
 20
106.0761480898
  0
LINE
  5
1FE
330
1F
100
AcDbEntity
  8
0
  6
SLD-Gestrichelt
 62
     7
370
     0
100
AcDbLine
 10
99.7026258392
 20
98.7188264102
 30
0.0
 11
99.7026258392
 21
94.9315919847
 31
0.0
  0
LINE
  5
1FF
330
1F
100
AcDbEntity
  8
0
  6
SLD-Gestrichelt
 62
     7
370
     0
100
AcDbLine
 10
241.702626763
 20
117.7119922199
 30
0.0
 11
241.702626763
 21
120.9618581765
 31
0.0
  0
LINE
  5
200
330
1F
100
AcDbEntity
  8
0
  6
SLD-Gestrichelt
 62
     7
370
     0
100
AcDbLine
 10
241.702626763
 20
106.3982837208
 30
0.0
 11
241.702626763
 21
109.6481496774
 31
0.0
  0
LINE
  5
201
330
1F
100
AcDbEntity
  8
0
  6
SLD-Gestrichelt
 62
     7
370
     0
100
AcDbLine
 10
99.7026258392
 20
133.8661860049
 30
0.0
 11
99.7026258392
 21
108.4551999652
 31
0.0
  0
LINE
  5
202
330
1F
100
AcDbEntity
  8
0
  6
SLD-Gestrichelt
 62
     7
370
     0
100
AcDbLine
 10
101.2026251537
 20
134.6161875249
 30
0.0
 11
101.2026251537
 21
108.4551999652
 31
0.0
  0
LINE
  5
203
330
1F
100
AcDbEntity
  8
0
  6
SLD-Gestrichelt
 62
     7
370
     0
100
AcDbLine
 10
137.5026246223
 20
135.0982084245
 30
0.0
 11
137.5026246223
 21
109.0521353603
 31
0.0
  0
LINE
  5
204
330
1F
100
AcDbEntity
  8
0
  6
SLD-Gestrichelt
 62
     7
370
     0
100
AcDbLine
 10
135.5026246292
 20
135.3624712051
 30
0.0
 11
135.5026246292
 21
108.4551999652
 31
0.0
  0
LINE
  5
205
330
1F
100
AcDbEntity
  8
0
  6
SLD-Gestrichelt
 62
     7
370
     0
100
AcDbLine
 10
99.7026258392
 20
108.4551999652
 30
0.0
 11
99.7026258392
 21
98.7188264102
 31
0.0
  0
LINE
  5
206
330
1F
100
AcDbEntity
  8
0
  6
SLD-Gestrichelt
 62
     7
370
     0
100
AcDbLine
 10
101.2026251537
 20
108.4551999652
 30
0.0
 11
101.2026251537
 21
97.968826753
 31
0.0
  0
LINE
  5
207
330
1F
100
AcDbEntity
  8
0
  6
SLD-Gestrichelt
 62
     7
370
     0
100
AcDbLine
 10
135.5026246292
 20
108.4551999652
 30
0.0
 11
135.5026246292
 21
97.2225412101
 31
0.0
  0
ARC
  5
208
330
1F
100
AcDbEntity
  8
0
  6
SLD-Gestrichelt
 62
     7
370
     0
100
AcDbCircle
 10
156.4204213505
 20
102.608228552
 30
0.0
 40
20.53627315817426
100
AcDbArc
 50
167.3670939911
 51
192.6329060089
  0
LINE
  5
209
330
1F
100
AcDbEntity
  8
0
  6
SLD-Gestrichelt
 62
     7
370
     0
100
AcDbLine
 10
137.7026246173
 20
89.4300702334
 30
0.0
 11
137.7955178377
 21
89.5229640723
 31
0.0
  0
LINE
  5
20A
330
1F
100
AcDbEntity
  8
0
  6
SLD-Gestrichelt
 62
     7
370
     0
100
AcDbLine
 10
137.7955178377
 20
137.837177825
 30
0.0
 11
137.7026246173
 21
137.9300716639
 31
0.0
  0
ARC
  5
20B
330
1F
100
AcDbEntity
  8
0
  6
SLD-Gestrichelt
 62
     7
370
     0
100
AcDbCircle
 10
137.0884110549
 20
90.2300709487
 30
0.0
 40
1.000000000000018
100
AcDbArc
 50
315.0
 51
0.0
  0
ARC
  5
20C
330
1F
100
AcDbEntity
  8
0
  6
SLD-Gestrichelt
 62
     7
370
     0
100
AcDbCircle
 10
137.0884110549
 20
90.2300709487
 30
0.0
 40
1.00000000000001
100
AcDbArc
 50
0.0
 51
52.1052014664
  0
ARC
  5
20D
330
1F
100
AcDbEntity
  8
0
  6
SLD-Gestrichelt
 62
     7
370
     0
100
AcDbCircle
 10
137.0884110549
 20
137.1300709487
 30
0.0
 40
1.000000000000028
100
AcDbArc
 50
343.125
 51
45.0
  0
ARC
  5
20E
330
1F
100
AcDbEntity
  8
0
  6
SLD-Gestrichelt
 62
     7
370
     0
100
AcDbCircle
 10
137.0884110549
 20
137.1300709487
 30
0.0
 40
1.000000000000008
100
AcDbArc
 50
307.8947985336
 51
343.125
  0
LINE
  5
20F
330
1F
100
AcDbEntity
  8
0
  6
SLD-Gestrichelt
 62
     7
370
     0
100
AcDbLine
 10
138.0884110531
 20
90.2300707371
 30
0.0
 11
138.0884110531
 21
137.1300711603
 31
0.0
  0
LINE
  5
210
330
1F
100
AcDbEntity
  8
0
  6
SLD-Gestrichelt
 62
     7
370
     0
100
AcDbLine
 10
138.0884110531
 20
90.2300707371
 30
0.0
 11
138.0884110531
 21
137.1300711603
 31
0.0
  0
LINE
  5
211
330
1F
100
AcDbEntity
  8
0
  6
SLD-Gestrichelt
 62
     7
370
     0
100
AcDbLine
 10
99.7026258392
 20
97.4836412192
 30
0.0
 11
101.2328521592
 21
98.3671198905
 31
0.0
  0
LINE
  5
212
330
1F
100
AcDbEntity
  8
0
  6
SLD-Gestrichelt
 62
     7
370
     0
100
AcDbLine
 10
101.2328521592
 20
128.9930220068
 30
0.0
 11
99.7026258392
 21
129.8765006781
 31
0.0
  0
LINE
  5
213
330
1F
100
AcDbEntity
  8
0
  6
SLD-Gestrichelt
 62
     7
370
     0
100
AcDbLine
 10
109.702623753
 20
97.6800701887
 30
0.0
 11
110.7044250948
 21
97.6800701887
 31
0.0
  0
LINE
  5
214
330
1F
100
AcDbEntity
  8
0
  6
SLD-Gestrichelt
 62
     7
370
     0
100
AcDbLine
 10
110.7044250948
 20
129.6800717086
 30
0.0
 11
109.702623753
 21
129.6800717086
 31
0.0
  0
ARC
  5
215
330
1F
100
AcDbEntity
  8
0
  6
SLD-Gestrichelt
 62
     7
370
     0
100
AcDbCircle
 10
110.7044259322
 20
99.6800709487
 30
0.0
 40
2.000000000000006
100
AcDbArc
 50
270.0
 51
315.0
  0
ARC
  5
216
330
1F
100
AcDbEntity
  8
0
  6
SLD-Gestrichelt
 62
     7
370
     0
100
AcDbCircle
 10
110.7044259322
 20
127.6800709487
 30
0.0
 40
2.000000000000006
100
AcDbArc
 50
45.0
 51
90.0
  0
ARC
  5
217
330
1F
100
AcDbEntity
  8
0
  6
SLD-Gestrichelt
 62
     7
370
     0
100
AcDbCircle
 10
109.7026246173
 20
99.6800709487
 30
0.0
 40
2.0
100
AcDbArc
 50
189.9742217944
 51
270.0
  0
ARC
  5
218
330
1F
100
AcDbEntity
  8
0
  6
SLD-Gestrichelt
 62
     7
370
     0
100
AcDbCircle
 10
109.7026246173
 20
127.6800709487
 30
0.0
 40
2.0
100
AcDbArc
 50
90.0
 51
170.0257782056
  0
LINE
  5
219
330
1F
100
AcDbEntity
  8
0
  6
SLD-Gestrichelt
 62
     7
370
     0
100
AcDbLine
 10
112.118640287
 20
98.265857187
 30
0.0
 11
113.5328536165
 21
99.6800705165
 31
0.0
  0
LINE
  5
21A
330
1F
100
AcDbEntity
  8
0
  6
SLD-Gestrichelt
 62
     7
370
     0
100
AcDbLine
 10
113.5328536165
 20
127.6800713808
 30
0.0
 11
112.118640287
 21
129.0942847104
 31
0.0
  0
LINE
  5
21B
330
1F
100
AcDbEntity
  8
0
  6
SLD-Gestrichelt
 62
     7
370
     0
100
AcDbLine
 10
101.2328521592
 20
98.3671198905
 30
0.0
 11
106.1328531486
 21
99.6800705165
 31
0.0
  0
LINE
  5
21C
330
1F
100
AcDbEntity
  8
0
  6
SLD-Gestrichelt
 62
     7
370
     0
100
AcDbLine
 10
106.1328531486
 20
127.6800713808
 30
0.0
 11
101.2328521592
 21
128.9930220068
 31
0.0
  0
LINE
  5
21D
330
1F
100
AcDbEntity
  8
0
  6
SLD-Gestrichelt
 62
     7
370
     0
100
AcDbLine
 10
107.7328522933
 20
128.026481469
 30
0.0
 11
107.1328533126
 21
127.6800713808
 31
0.0
  0
LINE
  5
21E
330
1F
100
AcDbEntity
  8
0
  6
SLD-Gestrichelt
 62
     7
370
     0
100
AcDbLine
 10
107.1328533126
 20
99.6800705165
 30
0.0
 11
107.7328522933
 21
99.3336604283
 31
0.0
  0
LINE
  5
21F
330
1F
100
AcDbEntity
  8
0
  6
SLD-Gestrichelt
 62
     7
370
     0
100
AcDbLine
 10
113.5328536165
 20
99.6800705165
 30
0.0
 11
118.1666174216
 21
99.6800705165
 31
0.0
  0
LINE
  5
220
330
1F
100
AcDbEntity
  8
0
  6
SLD-Gestrichelt
 62
     7
370
     0
100
AcDbLine
 10
118.1666174216
 20
127.6800713808
 30
0.0
 11
113.5328536165
 21
127.6800713808
 31
0.0
  0
ARC
  5
221
330
1F
100
AcDbEntity
  8
0
  6
SLD-Gestrichelt
 62
     7
370
     0
100
AcDbCircle
 10
126.2026246173
 20
100.1800709487
 30
0.0
 40
0.5
100
AcDbArc
 50
275.5682401931
 51
0.0
  0
ARC
  5
222
330
1F
100
AcDbEntity
  8
0
  6
SLD-Gestrichelt
 62
     7
370
     0
100
AcDbCircle
 10
126.2026246173
 20
127.1800709487
 30
0.0
 40
0.5
100
AcDbArc
 50
0.0
 51
86.7052363418
  0
LINE
  5
223
330
1F
100
AcDbEntity
  8
0
  6
SLD-Gestrichelt
 62
     7
370
     0
100
AcDbLine
 10
106.1328531486
 20
99.6800705165
 30
0.0
 11
107.1328533126
 21
99.6800705165
 31
0.0
  0
LINE
  5
224
330
1F
100
AcDbEntity
  8
0
  6
SLD-Gestrichelt
 62
     7
370
     0
100
AcDbLine
 10
107.1328533126
 20
127.6800713808
 30
0.0
 11
106.1328531486
 21
127.6800713808
 31
0.0
  0
LINE
  5
225
330
1F
100
AcDbEntity
  8
0
  6
SLD-Gestrichelt
 62
     7
370
     0
100
AcDbLine
 10
126.7026246769
 20
103.4300706655
 30
0.0
 11
127.9526244161
 21
104.6800713361
 31
0.0
  0
LINE
  5
226
330
1F
100
AcDbEntity
  8
0
  6
SLD-Gestrichelt
 62
     7
370
     0
100
AcDbLine
 10
127.9526244161
 20
122.6800705612
 30
0.0
 11
126.7026246769
 21
123.9300712318
 31
0.0
  0
LINE
  5
227
330
1F
100
AcDbEntity
  8
0
  6
SLD-Gestrichelt
 62
     7
370
     0
100
AcDbLine
 10
153.7026253772
 20
104.6800713361
 30
0.0
 11
154.1532700194
 21
105.4300709934
 31
0.0
  0
LINE
  5
228
330
1F
100
AcDbEntity
  8
0
  6
SLD-Gestrichelt
 62
     7
370
     0
100
AcDbLine
 10
154.1532700194
 20
121.930070904
 30
0.0
 11
153.7026253772
 21
122.6800705612
 31
0.0
  0
LINE
  5
229
330
1F
100
AcDbEntity
  8
0
  6
SLD-Gestrichelt
 62
     7
370
     0
100
AcDbLine
 10
127.9526244161
 20
104.6800713361
 30
0.0
 11
153.7026253772
 21
104.6800713361
 31
0.0
  0
LINE
  5
22A
330
1F
100
AcDbEntity
  8
0
  6
SLD-Gestrichelt
 62
     7
370
     0
100
AcDbLine
 10
153.7026253772
 20
122.6800705612
 30
0.0
 11
127.9526244161
 21
122.6800705612
 31
0.0
  0
LINE
  5
22B
330
1F
100
AcDbEntity
  8
0
  6
SLD-Gestrichelt
 62
     7
370
     0
100
AcDbLine
 10
252.8883100731
 20
122.0226108403
 30
0.0
 11
251.852627216
 21
120.9869251893
 31
0.0
  0
LINE
  5
22C
330
1F
100
AcDbEntity
  8
0
  6
SLD-Gestrichelt
 62
     7
370
     0
100
AcDbLine
 10
251.852627216
 20
117.6869252071
 30
0.0
 11
252.9307262284
 21
116.6088227023
 31
0.0
  0
LINE
  5
22D
330
1F
100
AcDbEntity
  8
0
  6
SLD-Gestrichelt
 62
     7
370
     0
100
AcDbLine
 10
252.9307262284
 20
110.751319195
 30
0.0
 11
251.852627216
 21
109.6732166902
 31
0.0
  0
LINE
  5
22E
330
1F
100
AcDbEntity
  8
0
  6
SLD-Gestrichelt
 62
     7
370
     0
100
AcDbLine
 10
251.852627216
 20
106.3732167081
 30
0.0
 11
252.8883100731
 21
105.3375310571
 31
0.0
  0
LINE
  5
22F
330
1F
100
AcDbEntity
  8
0
  6
SLD-Gestrichelt
 62
     7
370
     0
100
AcDbLine
 10
230.7026268227
 20
105.4300709934
 30
0.0
 11
232.6134697778
 21
110.6800709226
 31
0.0
  0
LINE
  5
230
330
1F
100
AcDbEntity
  8
0
  6
SLD-Gestrichelt
 62
     7
370
     0
100
AcDbLine
 10
232.6134697778
 20
116.6800709747
 30
0.0
 11
230.7026268227
 21
121.930070904
 31
0.0
  0
LINE
  5
231
330
1F
100
AcDbEntity
  8
0
  6
SLD-Gestrichelt
 62
     7
370
     0
100
AcDbLine
 10
230.7026268227
 20
121.930070904
 30
0.0
 11
154.1532700194
 21
121.930070904
 31
0.0
  0
LINE
  5
232
330
1F
100
AcDbEntity
  8
0
  6
SLD-Gestrichelt
 62
     7
370
     0
100
AcDbLine
 10
154.1532700194
 20
105.4300709934
 30
0.0
 11
230.7026268227
 21
105.4300709934
 31
0.0
  0
LINE
  5
233
330
1F
100
AcDbEntity
  8
0
  6
SLD-Gestrichelt
 62
     7
370
     0
100
AcDbLine
 10
251.852627216
 20
120.9869251893
 30
0.0
 11
241.702626763
 21
120.9869251893
 31
0.0
  0
LINE
  5
234
330
1F
100
AcDbEntity
  8
0
  6
SLD-Gestrichelt
 62
     7
370
     0
100
AcDbLine
 10
241.702626763
 20
117.6869252071
 30
0.0
 11
251.852627216
 21
117.6869252071
 31
0.0
  0
LINE
  5
235
330
1F
100
AcDbEntity
  8
0
  6
SLD-Gestrichelt
 62
     7
370
     0
100
AcDbLine
 10
241.702626763
 20
120.9869251893
 30
0.0
 11
240.7112078053
 21
119.3369251982
 31
0.0
  0
LINE
  5
236
330
1F
100
AcDbEntity
  8
0
  6
SLD-Gestrichelt
 62
     7
370
     0
100
AcDbLine
 10
240.7112078053
 20
119.3369251982
 30
0.0
 11
241.702626763
 21
117.6869252071
 31
0.0
  0
LINE
  5
237
330
1F
100
AcDbEntity
  8
0
  6
SLD-Gestrichelt
 62
     7
370
     0
100
AcDbLine
 10
251.852627216
 20
109.6732166902
 30
0.0
 11
241.702626763
 21
109.6732166902
 31
0.0
  0
LINE
  5
238
330
1F
100
AcDbEntity
  8
0
  6
SLD-Gestrichelt
 62
     7
370
     0
100
AcDbLine
 10
241.702626763
 20
106.3732167081
 30
0.0
 11
251.852627216
 21
106.3732167081
 31
0.0
  0
LINE
  5
239
330
1F
100
AcDbEntity
  8
0
  6
SLD-Gestrichelt
 62
     7
370
     0
100
AcDbLine
 10
241.702626763
 20
109.6732166902
 30
0.0
 11
240.7112078053
 21
108.0232166991
 31
0.0
  0
LINE
  5
23A
330
1F
100
AcDbEntity
  8
0
  6
SLD-Gestrichelt
 62
     7
370
     0
100
AcDbLine
 10
240.7112078053
 20
108.0232166991
 30
0.0
 11
241.702626763
 21
106.3732167081
 31
0.0
  0
LINE
  5
23B
330
1F
100
AcDbEntity
  8
0
  6
SLD-Gestrichelt
 62
     7
370
     0
100
AcDbLine
 10
252.8266565186
 20
118.3041028985
 30
0.0
 11
252.2026256902
 21
117.6800711387
 31
0.0
  0
LINE
  5
23C
330
1F
100
AcDbEntity
  8
0
  6
SLD-Gestrichelt
 62
     7
370
     0
100
AcDbLine
 10
252.2026256902
 20
109.6800707587
 30
0.0
 11
252.8266565186
 21
109.0560389989
 31
0.0
  0
LINE
  5
23D
330
1F
100
AcDbEntity
  8
0
  6
SLD-Gestrichelt
 62
     7
370
     0
100
AcDbLine
 10
126.635755716
 20
93.2991846771
 30
0.0
 11
126.25262451
 21
93.6823158831
 31
0.0
  0
LINE
  5
23E
330
1F
100
AcDbEntity
  8
0
  6
SLD-Gestrichelt
 62
     7
370
     0
100
AcDbLine
 10
118.1526252312
 20
93.6823158831
 30
0.0
 11
118.001909299
 21
93.5315999509
 31
0.0
  0
LINE
  5
23F
330
1F
100
AcDbEntity
  8
0
  6
SLD-Gestrichelt
 62
     7
370
     0
100
AcDbLine
 10
108.0616408271
 20
93.7710560233
 30
0.0
 11
106.1526232643
 21
95.6800717235
 31
0.0
  0
LINE
  5
240
330
1F
100
AcDbEntity
  8
0
  6
SLD-Gestrichelt
 62
     7
370
     0
100
AcDbLine
 10
106.1526232643
 20
95.6800717235
 30
0.0
 11
99.7026258392
 21
95.6800717235
 31
0.0
  0
LINE
  5
241
330
1F
100
AcDbEntity
  8
0
  6
SLD-Gestrichelt
 62
     7
370
     0
100
AcDbLine
 10
126.25262451
 20
93.6823158831
 30
0.0
 11
126.25262451
 21
99.6828886986
 31
0.0
  0
LINE
  5
242
330
1F
100
AcDbEntity
  8
0
  6
SLD-Gestrichelt
 62
     7
370
     0
100
AcDbLine
 10
118.1526252312
 20
99.683955063
 30
0.0
 11
118.1526252312
 21
93.6823158831
 31
0.0
  0
LINE
  5
243
330
1F
100
AcDbEntity
  8
0
  6
SLD-Gestrichelt
 62
     7
370
     0
100
AcDbLine
 10
126.25262451
 20
127.6725816847
 30
0.0
 11
126.25262451
 21
131.1800710232
 31
0.0
  0
LINE
  5
244
330
1F
100
AcDbEntity
  8
0
  6
SLD-Gestrichelt
 62
     7
370
     0
100
AcDbLine
 10
118.1526252312
 20
131.1800710232
 30
0.0
 11
118.1526252312
 21
127.6761868343
 31
0.0
  0
LINE
  5
245
330
1F
100
AcDbEntity
  8
0
  6
SLD-Gestrichelt
 62
     7
370
     0
100
AcDbLine
 10
126.25262451
 20
131.1800710232
 30
0.0
 11
122.2026248706
 21
133.613557306
 31
0.0
  0
LINE
  5
246
330
1F
100
AcDbEntity
  8
0
  6
SLD-Gestrichelt
 62
     7
370
     0
100
AcDbLine
 10
122.2026248706
 20
133.613557306
 30
0.0
 11
118.1526252312
 21
131.1800710232
 31
0.0
  0
LINE
  5
247
330
1F
100
AcDbEntity
  8
0
  6
SLD-Gestrichelt
 62
     7
370
     0
100
AcDbLine
 10
250.6526218039
 20
117.3800709498
 30
0.0
 11
249.1526262147
 21
117.3800709498
 31
0.0
  0
LINE
  5
248
330
1F
100
AcDbEntity
  8
0
  6
SLD-Gestrichelt
 62
     7
370
     0
100
AcDbLine
 10
249.1526262147
 20
109.9800709475
 30
0.0
 11
250.6526218039
 21
109.9800709475
 31
0.0
  0
LINE
  5
249
330
1F
100
AcDbEntity
  8
0
  6
SLD-Gestrichelt
 62
     7
370
     0
100
AcDbLine
 10
252.2026256902
 20
116.9800709308
 30
0.0
 11
251.6830072982
 21
116.6800709747
 31
0.0
  0
LINE
  5
24A
330
1F
100
AcDbEntity
  8
0
  6
SLD-Gestrichelt
 62
     7
370
     0
100
AcDbLine
 10
251.6830072982
 20
110.6800709226
 30
0.0
 11
252.2026256902
 21
110.3800709665
 31
0.0
  0
LINE
  5
24B
330
1F
100
AcDbEntity
  8
0
  6
SLD-Gestrichelt
 62
     7
370
     0
100
AcDbLine
 10
251.6830072982
 20
116.6800709747
 30
0.0
 11
250.6526218039
 21
116.6800709747
 31
0.0
  0
LINE
  5
24C
330
1F
100
AcDbEntity
  8
0
  6
SLD-Gestrichelt
 62
     7
370
     0
100
AcDbLine
 10
250.6526218039
 20
110.6800709226
 30
0.0
 11
251.6830072982
 21
110.6800709226
 31
0.0
  0
LINE
  5
24D
330
1F
100
AcDbEntity
  8
0
  6
SLD-Gestrichelt
 62
     7
370
     0
100
AcDbLine
 10
249.1526262147
 20
116.6800709747
 30
0.0
 11
232.6134697778
 21
116.6800709747
 31
0.0
  0
LINE
  5
24E
330
1F
100
AcDbEntity
  8
0
  6
SLD-Gestrichelt
 62
     7
370
     0
100
AcDbLine
 10
232.6134697778
 20
110.6800709226
 30
0.0
 11
249.1526262147
 21
110.6800709226
 31
0.0
  0
LINE
  5
24F
330
1F
100
AcDbEntity
  8
0
  6
SLD-Gestrichelt
 62
     7
370
     0
100
AcDbLine
 10
151.7026250494
 20
82.6800714553
 30
0.0
 11
149.7026247216
 21
83.8817923636
 31
0.0
  0
LINE
  5
250
330
1F
100
AcDbEntity
  8
0
  6
SLD-Gestrichelt
 62
     7
370
     0
100
AcDbLine
 10
149.7026247216
 20
83.8817923636
 30
0.0
 11
147.7026243938
 21
82.6800714553
 31
0.0
  0
LINE
  5
251
330
1F
100
AcDbEntity
  8
0
  6
SLD-Gestrichelt
 62
     7
370
     0
100
AcDbLine
 10
147.7026243938
 20
82.6800714553
 30
0.0
 11
147.7026243938
 21
82.180070442
 31
0.0
  0
LINE
  5
252
330
1F
100
AcDbEntity
  8
0
  6
SLD-Gestrichelt
 62
     7
370
     0
100
AcDbLine
 10
151.7026250494
 20
82.180070442
 30
0.0
 11
151.7026250494
 21
82.6800714553
 31
0.0
  0
LINE
  5
253
330
1F
100
AcDbEntity
  8
VERMASSUNG
  6
SLD-Punktstrich
100
AcDbLine
 10
97.6338781657
 20
113.6800709487
 30
0.0
 11
287.7026246173
 21
113.6800709487
 31
0.0
  0
LINE
  5
254
330
1F
100
AcDbEntity
  8
VERMASSUNG
  6
SLD-Punktstrich
100
AcDbLine
 10
287.7026246173
 20
136.6255196731
 30
0.0
 11
287.7026246173
 21
113.6800709487
 31
0.0
  0
LINE
  5
255
330
1F
100
AcDbEntity
  8
VERMASSUNG
  6
SLD-Punktstrich
100
AcDbLine
 10
252.7026246173
 20
130.9509857063
 30
0.0
 11
252.7026246173
 21
95.5947540489
 31
0.0
  0
DIMENSION
  5
256
330
1F
100
AcDbEntity
  8
VERMASSUNG
100
AcDbDimension
  2
_D
 10
287.7026246173
 20
158.1814383837
 30
0.0
 11
212.7026246173
 21
158.1814383837
 31
0.0
 70
   160
  1
<>
 71
     2
 42
-1.0
  3
SLDDIMSTYLE0
100
AcDbAlignedDimension
 13
137.7026246173
 23
144.6800709487
 33
0.0
 14
287.7026246173
 24
136.6255196731
 34
0.0
100
AcDbRotatedDimension
  0
DIMENSION
  5
261
330
1F
100
AcDbEntity
  8
VERMASSUNG
100
AcDbDimension
  2
_D_1
 10
252.7026246173
 20
151.8950979458
 30
0.0
 11
195.2026246173
 21
151.8950979458
 31
0.0
 70
   160
  1
<>
 71
     2
 42
-1.0
  3
SLDDIMSTYLE0
100
AcDbAlignedDimension
 13
137.7026246173
 23
144.6800709487
 33
0.0
 14
252.7026246173
 24
130.9509857063
 34
0.0
100
AcDbRotatedDimension
  0
DIMENSION
  5
26B
330
1F
100
AcDbEntity
  8
VERMASSUNG
100
AcDbDimension
  2
_D_2
 10
92.9192764627
 20
82.1800709487
 30
0.0
 11
92.9192764627
 21
113.6800709487
 31
0.0
 70
   160
  1
PSC%%c<>
 71
     2
 42
-1.0
  3
SLDDIMSTYLE0
100
AcDbAlignedDimension
 13
138.2026246173
 23
145.1800709487
 33
0.0
 14
138.2026246173
 24
82.1800709487
 34
0.0
 50
90.0
100
AcDbRotatedDimension
  0
DIMENSION
  5
277
330
1F
100
AcDbEntity
  8
VERMASSUNG
100
AcDbDimension
  2
_D_3
 10
163.7026246173
 20
130.1800709487
 30
0.0
 11
164.7902303058
 21
131.8585134371
 31
0.0
 70
   164
  1
<>
 71
     1
 42
-1.0
  3
SLDDIMSTYLE1
100
AcDbRadialDimension
 15
161.5274332403
 25
126.8232059717
 35
0.0
 40
0.0
  0
DIMENSION
  5
27F
330
1F
100
AcDbEntity
  8
VERMASSUNG
100
AcDbDimension
  2
_D_4
 10
189.1411140751
 20
101.1800709487
 30
0.0
 11
189.1411140751
 21
106.9314655474
 31
0.0
 70
   160
  1
%%c<>
 71
     2
 42
-1.0
  3
SLDDIMSTYLE0
100
AcDbAlignedDimension
 13
163.7026246173
 23
126.1800709487
 33
0.0
 14
163.7026246173
 24
101.1800709487
 34
0.0
 50
90.0
100
AcDbRotatedDimension
  0
DIMENSION
  5
288
330
1F
100
AcDbEntity
  8
VERMASSUNG
100
AcDbDimension
  2
_D_5
 10
256.9323045945
 20
121.3369251982
 30
0.0
 11
256.9323045945
 21
131.4990537542
 31
0.0
 70
   160
  1
m<>
 71
     2
 42
-1.0
  3
SLDDIMSTYLE2
100
AcDbAlignedDimension
 13
258.0026246173
 23
117.3369251982
 33
0.0
 14
258.0026246173
 24
121.3369251982
 34
0.0
 50
90.0
100
AcDbRotatedDimension
  0
LINE
  5
294
330
1F
100
AcDbEntity
  8
VERMASSUNG
  6
SLD-Punktstrich
370
     0
100
AcDbLine
 10
217.8770947679
 20
119.3369251982
 30
0.0
 11
252.3827268512
 21
119.3369251982
 31
0.0
  0
LINE
  5
295
330
1F
100
AcDbEntity
  8
VERMASSUNG
  6
SLD-Punktstrich
370
     0
100
AcDbLine
 10
217.0039080548
 20
108.0232166992
 30
0.0
 11
250.8682608466
 21
108.0232166992
 31
0.0
  0
CIRCLE
  5
296
330
1F
100
AcDbEntity
  8
0
  6
SLD-Durchgehend
 62
     7
370
    15
100
AcDbCircle
 10
50.1418204269
 20
113.6800709487
 30
0.0
 40
1.400000000000006
  0
CIRCLE
  5
297
330
1F
100
AcDbEntity
  8
0
  6
SLD-Durchgehend
 62
     7
370
    15
100
AcDbCircle
 10
50.1418204269
 20
113.6800709487
 30
0.0
 40
12.49999999999998
  0
LINE
  5
298
330
1F
100
AcDbEntity
  8
0
  6
SLD-Durchgehend
 62
     7
370
    15
100
AcDbLine
 10
61.8167824335
 20
114.445096739
 30
0.0
 11
62.448571179
 21
114.8261478943
 31
0.0
  0
ARC
  5
299
330
1F
100
AcDbEntity
  8
0
  6
SLD-Durchgehend
 62
     7
370
    15
100
AcDbCircle
 10
62.3772452566
 20
114.9238938942
 30
0.0
 40
0.1210027590694381
100
AcDbArc
 50
306.1184841636
 51
65.4911279164
  0
LINE
  5
29A
330
1F
100
AcDbEntity
  8
0
  6
SLD-Durchgehend
 62
     7
370
    15
100
AcDbLine
 10
62.4274413324
 20
115.0339939472
 30
0.0
 11
61.7124668545
 21
115.4150451607
 31
0.0
  0
ARC
  5
29B
330
1F
100
AcDbEntity
  8
0
  6
SLD-Durchgehend
 62
     7
370
    15
100
AcDbCircle
 10
50.1418204269
 20
113.6800709487
 30
0.0
 40
11.70000000000025
100
AcDbArc
 50
8.5277495763
 51
9.9171770882
  0
LINE
  5
29C
330
1F
100
AcDbEntity
  8
0
  6
SLD-Durchgehend
 62
     7
370
    15
100
AcDbLine
 10
61.6669959611
 20
115.6950967692
 30
0.0
 11
62.2673479131
 21
116.0761478663
 31
0.0
  0
LWPOLYLINE
  5
29D
330
1F
100
AcDbEntity
  8
0
  6
SLD-Durchgehend
 62
     7
370
    15
100
AcDbPolyline
 90
        9
 70
   128
 43
0.0
 10
62.2673479131
 20
116.0761478663
 10
62.2896083853
 20
116.0960872498
 10
62.3039498217
 20
116.1215582237
 10
62.3097184337
 20
116.1482208249
 10
62.3081398419
 20
116.1773297776
 10
62.3001546822
 20
116.2041211341
 10
62.2811873666
 20
116.2368759819
 10
62.2462124786
 20
116.2708008037
 10
62.2244185991
 20
116.2839939193
  0
LINE
  5
29E
330
1F
100
AcDbEntity
  8
0
  6
SLD-Durchgehend
 62
     7
370
    15
100
AcDbLine
 10
62.2244185991
 20
116.2839939193
 30
0.0
 11
61.4546423069
 21
116.6650452492
 31
0.0
  0
ARC
  5
29F
330
1F
100
AcDbEntity
  8
0
  6
SLD-Durchgehend
 62
     7
370
    15
100
AcDbCircle
 10
50.1418204269
 20
113.6800709487
 30
0.0
 40
11.70000000000044
100
AcDbArc
 50
14.7810515008
 51
16.2042318296
  0
LINE
  5
2A0
330
1F
100
AcDbEntity
  8
0
  6
SLD-Durchgehend
 62
     7
370
    15
100
AcDbLine
 10
61.377015639
 20
116.9450967413
 30
0.0
 11
61.951804649
 21
117.3261478384
 31
0.0
  0
LWPOLYLINE
  5
2A1
330
1F
100
AcDbEntity
  8
0
  6
SLD-Durchgehend
 62
     7
370
    15
100
AcDbPolyline
 90
        9
 70
   128
 43
0.0
 10
61.951804649
 20
117.3261478384
 10
61.9709004871
 20
117.3438650862
 10
61.9834202564
 20
117.3676545572
 10
61.9877099282
 20
117.3978266147
 10
61.9835823066
 20
117.4252980695
 10
61.973412264
 20
117.4513548453
 10
61.9498321078
 20
117.4859418374
 10
61.9071225858
 20
117.5222843726
 10
61.8856220729
 20
117.5339938913
  0
LINE
  5
2A2
330
1F
100
AcDbEntity
  8
0
  6
SLD-Durchgehend
 62
     7
370
    15
100
AcDbLine
 10
61.8856220729
 20
117.5339938913
 30
0.0
 11
61.0484692491
 21
117.9150452212
 31
0.0
  0
ARC
  5
2A3
330
1F
100
AcDbEntity
  8
0
  6
SLD-Durchgehend
 62
     7
370
    15
100
AcDbCircle
 10
50.1418204269
 20
113.6800709487
 30
0.0
 40
11.70000000000062
100
AcDbArc
 50
21.2208370458
 51
22.6996022985
  0
LINE
  5
2A4
330
1F
100
AcDbEntity
  8
0
  6
SLD-Durchgehend
 62
     7
370
    15
100
AcDbLine
 10
60.9355473182
 20
118.1950967134
 30
0.0
 11
61.4907422326
 21
118.5761478104
 31
0.0
  0
LWPOLYLINE
  5
2A5
330
1F
100
AcDbEntity
  8
0
  6
SLD-Durchgehend
 62
     7
370
    15
100
AcDbPolyline
 90
        9
 70
   128
 43
0.0
 10
61.4907422326
 20
118.5761478104
 10
61.5070776305
 20
118.5916706294
 10
61.5180383659
 20
118.6136475139
 10
61.520859342
 20
118.6414740354
 10
61.5158637277
 20
118.6670467564
 10
61.5017448775
 20
118.6976695739
 10
61.4729157872
 20
118.7341178142
 10
61.4206499643
 20
118.7733330139
 10
61.398799274
 20
118.7839938634
  0
LINE
  5
2A6
330
1F
100
AcDbEntity
  8
0
  6
SLD-Durchgehend
 62
     7
370
    15
100
AcDbLine
 10
61.398799274
 20
118.7839938634
 30
0.0
 11
60.4764732755
 21
119.1650449604
 31
0.0
  0
ARC
  5
2A7
330
1F
100
AcDbEntity
  8
0
  6
SLD-Durchgehend
 62
     7
370
    15
100
AcDbCircle
 10
50.1418204269
 20
113.6800709487
 30
0.0
 40
11.70000000000081
100
AcDbArc
 50
27.9565089687
 51
29.5206521197
  0
LINE
  5
2A8
330
1F
100
AcDbEntity
  8
0
  6
SLD-Durchgehend
 62
     7
370
    15
100
AcDbLine
 10
60.3229047022
 20
119.4450969183
 30
0.0
 11
60.8654084838
 21
119.8261480153
 31
0.0
  0
LWPOLYLINE
  5
2A9
330
1F
100
AcDbEntity
  8
0
  6
SLD-Durchgehend
 62
     7
370
    15
100
AcDbPolyline
 90
        9
 70
   128
 43
0.0
 10
60.8654084838
 20
119.8261480153
 10
60.8793066106
 20
119.8394663938
 10
60.8889811895
 20
119.859470737
 10
60.8906631581
 20
119.8847757027
 10
60.8850556648
 20
119.9081733198
 10
60.869745653
 20
119.937988215
 10
60.8378869704
 20
119.9753393725
 10
60.7778101451
 20
120.0183017485
 10
60.7435775212
 20
120.0339940683
  0
LINE
  5
2AA
330
1F
100
AcDbEntity
  8
0
  6
SLD-Durchgehend
 62
     7
370
    15
100
AcDbLine
 10
60.7435775212
 20
120.0339940683
 30
0.0
 11
59.7089582345
 21
120.4150451653
 31
0.0
  0
ARC
  5
2AB
330
1F
100
AcDbEntity
  8
0
  6
SLD-Durchgehend
 62
     7
370
    15
100
AcDbCircle
 10
50.1418204269
 20
113.6800709487
 30
0.0
 40
11.700000000001
100
AcDbArc
 50
35.1443816259
 51
36.8394547611
  0
LINE
  5
2AC
330
1F
100
AcDbEntity
  8
0
  6
SLD-Durchgehend
 62
     7
370
    15
100
AcDbLine
 10
59.5055490024
 20
120.6950966575
 30
0.0
 11
60.0447316877
 21
121.0761477546
 31
0.0
  0
LWPOLYLINE
  5
2AD
330
1F
100
AcDbEntity
  8
0
  6
SLD-Durchgehend
 62
     7
370
    15
100
AcDbPolyline
 90
        9
 70
   128
 43
0.0
 10
60.0447316877
 20
121.0761477546
 10
60.0564467943
 20
121.0872109354
 10
60.0651481411
 20
121.105048091
 10
60.0660692192
 20
121.1276326635
 10
60.0601869858
 20
121.1484984801
 10
60.0441617183
 20
121.1766584151
 10
60.0096347964
 20
121.2140426346
 10
59.9401972479
 20
121.2609682538
 10
59.8860473595
 20
121.2839938075
  0
LINE
  5
2AE
330
1F
100
AcDbEntity
  8
0
  6
SLD-Durchgehend
 62
     7
370
    15
100
AcDbLine
 10
59.8860473595
 20
121.2839938075
 30
0.0
 11
58.6934394426
 21
121.6650453702
 31
0.0
  0
ARC
  5
2AF
330
1F
100
AcDbEntity
  8
0
  6
SLD-Durchgehend
 62
     7
370
    15
100
AcDbCircle
 10
50.1418204269
 20
113.6800709487
 30
0.0
 40
11.70000000000118
100
AcDbArc
 50
43.0374643913
 51
44.9437677466
  0
LINE
  5
2B0
330
1F
100
AcDbEntity
  8
0
  6
SLD-Durchgehend
 62
     7
370
    15
100
AcDbLine
 10
58.4230858124
 20
121.9450968624
 30
0.0
 11
58.9744278452
 21
122.3261474938
 31
0.0
  0
LWPOLYLINE
  5
2B1
330
1F
100
AcDbEntity
  8
0
  6
SLD-Durchgehend
 62
     7
370
    15
100
AcDbPolyline
 90
        9
 70
   128
 43
0.0
 10
58.9744278452
 20
122.3261474938
 10
58.984139677
 20
122.3348507032
 10
58.9928689635
 20
122.3528913528
 10
58.9923036507
 20
122.3729613543
 10
58.9857750795
 20
122.3907961816
 10
58.9680128953
 20
122.4172066272
 10
58.9279492608
 20
122.4548218147
 10
58.8403006307
 20
122.5066303582
 10
58.7660677022
 20
122.5339935467
  0
LINE
  5
2B2
330
1F
100
AcDbEntity
  8
0
  6
SLD-Durchgehend
 62
     7
370
    15
100
AcDbLine
 10
58.7660677022
 20
122.5339935467
 30
0.0
 11
57.3254998065
 21
122.9150451095
 31
0.0
  0
ARC
  5
2B3
330
1F
100
AcDbEntity
  8
0
  6
SLD-Durchgehend
 62
     7
370
    15
100
AcDbCircle
 10
50.1418204269
 20
113.6800709487
 30
0.0
 40
11.70000000000137
100
AcDbArc
 50
52.1214532678
 51
54.4146980712
  0
LINE
  5
2B4
330
1F
100
AcDbEntity
  8
0
  6
SLD-Durchgehend
 62
     7
370
    15
100
AcDbLine
 10
56.9502187184
 20
123.1950966016
 30
0.0
 11
57.5470390952
 21
123.5761481643
 31
0.0
  0
LWPOLYLINE
  5
2B5
330
1F
100
AcDbEntity
  8
0
  6
SLD-Durchgehend
 62
     7
370
    15
100
AcDbPolyline
 90
        9
 70
   128
 43
0.0
 10
57.5470390952
 20
123.5761481643
 10
57.5548114478
 20
123.5823107258
 10
57.5633716992
 20
123.5962954656
 10
57.5643081441
 20
123.6095500485
 10
57.5600864588
 20
123.6238207043
 10
57.5473902038
 20
123.6436876774
 10
57.5167776308
 20
123.6731398225
 10
57.4404427073
 20
123.7205720813
 10
57.2608329578
 20
123.7839942173
  0
LINE
  5
2B6
330
1F
100
AcDbEntity
  8
0
  6
SLD-Durchgehend
 62
     7
370
    15
100
AcDbLine
 10
57.2608329578
 20
123.7839942173
 30
0.0
 11
55.3336713686
 21
124.1650448487
 31
0.0
  0
ARC
  5
2B7
330
1F
100
AcDbEntity
  8
0
  6
SLD-Durchgehend
 62
     7
370
    15
100
AcDbCircle
 10
50.1418204269
 20
113.6800709487
 30
0.0
 40
11.70000000000918
100
AcDbArc
 50
63.6567400211
 51
66.9389024908
  0
LINE
  5
2B8
330
1F
100
AcDbEntity
  8
0
  6
SLD-Durchgehend
 62
     7
370
    15
100
AcDbLine
 10
54.7248564883
 20
124.4450963408
 30
0.0
 11
55.4835961423
 21
124.8261479036
 31
0.0
  0
LWPOLYLINE
  5
2B9
330
1F
100
AcDbEntity
  8
0
  6
SLD-Durchgehend
 62
     7
370
    15
100
AcDbPolyline
 90
        9
 70
   128
 43
0.0
 10
55.4835961423
 20
124.8261479036
 10
55.4958602636
 20
124.8351593808
 10
55.5008353888
 20
124.843512413
 10
55.5014575123
 20
124.8536284388
 10
55.4979627243
 20
124.8632788033
 10
55.4873270205
 20
124.8773464308
 10
55.4598665088
 20
124.8995538176
 10
55.3582764453
 20
124.9497111262
 10
55.0262888185
 20
125.0339939565
  0
ARC
  5
2BA
330
1F
100
AcDbEntity
  8
0
  6
SLD-Durchgehend
 62
     7
370
    15
100
AcDbCircle
 10
50.1418204269
 20
92.7182433802
 30
0.0
 40
32.68280536885887
100
AcDbArc
 50
81.4049043834
 51
98.5950956166
  0
LWPOLYLINE
  5
2BB
330
1F
100
AcDbEntity
  8
0
  6
SLD-Durchgehend
 62
     7
370
    15
100
AcDbPolyline
 90
       11
 70
   128
 43
0.0
 10
45.2573520354
 20
125.0339939565
 10
45.0499749034
 20
124.9904574201
 10
44.8705188221
 20
124.9258683369
 10
44.8207927159
 20
124.8975300536
 10
44.8002756796
 20
124.8812635735
 10
44.7871761619
 20
124.8658632234
 10
44.782519549
 20
124.8552461461
 10
44.7824175692
 20
124.8448768005
 10
44.7862951308
 20
124.8369475201
 10
44.7979562207
 20
124.8272859798
 10
44.8000447116
 20
124.8261479036
  0
LINE
  5
2BC
330
1F
100
AcDbEntity
  8
0
  6
SLD-Durchgehend
 62
     7
370
    15
100
AcDbLine
 10
44.8000447116
 20
124.8261479036
 30
0.0
 11
45.5587843656
 21
124.4450963408
 31
0.0
  0
ARC
  5
2BD
330
1F
100
AcDbEntity
  8
0
  6
SLD-Durchgehend
 62
     7
370
    15
100
AcDbCircle
 10
50.1418204269
 20
113.6800709487
 30
0.0
 40
11.70000000000155
100
AcDbArc
 50
113.0610975091
 51
116.3432599789
  0
LINE
  5
2BE
330
1F
100
AcDbEntity
  8
0
  6
SLD-Durchgehend
 62
     7
370
    15
100
AcDbLine
 10
44.9499694853
 20
124.1650448487
 30
0.0
 11
43.022807896
 21
123.7839942173
 31
0.0
  0
LWPOLYLINE
  5
2BF
330
1F
100
AcDbEntity
  8
0
  6
SLD-Durchgehend
 62
     7
370
    15
100
AcDbPolyline
 90
        9
 70
   128
 43
0.0
 10
43.022807896
 20
123.7839942173
 10
42.8234433978
 20
123.710154307
 10
42.7697233147
 20
123.6753852413
 10
42.7399023659
 20
123.6479987696
 10
42.7259003966
 20
123.6285155014
 10
42.7198365553
 20
123.612620619
 10
42.7199459857
 20
123.5974987344
 10
42.7252629063
 20
123.586393644
 10
42.7366017587
 20
123.5761481643
  0
LINE
  5
2C0
330
1F
100
AcDbEntity
  8
0
  6
SLD-Durchgehend
 62
     7
370
    15
100
AcDbLine
 10
42.7366017587
 20
123.5761481643
 30
0.0
 11
43.3334221355
 21
123.1950966016
 31
0.0
  0
ARC
  5
2C1
330
1F
100
AcDbEntity
  8
0
  6
SLD-Durchgehend
 62
     7
370
    15
100
AcDbCircle
 10
50.1418204269
 20
113.6800709487
 30
0.0
 40
11.70000000000138
100
AcDbArc
 50
125.5853019288
 51
127.8785467322
  0
LINE
  5
2C2
330
1F
100
AcDbEntity
  8
0
  6
SLD-Durchgehend
 62
     7
370
    15
100
AcDbLine
 10
42.9581410474
 20
122.9150451095
 30
0.0
 11
41.5175731516
 21
122.5339935467
 31
0.0
  0
LWPOLYLINE
  5
2C3
330
1F
100
AcDbEntity
  8
0
  6
SLD-Durchgehend
 62
     7
370
    15
100
AcDbPolyline
 90
        9
 70
   128
 43
0.0
 10
41.5175731516
 20
122.5339935467
 10
41.3928942046
 20
122.4801314369
 10
41.3334525413
 20
122.4359532193
 10
41.3101433999
 20
122.4103185654
 10
41.2954583055
 20
122.3855835692
 10
41.2902922592
 20
122.3667568833
 10
41.2916212565
 20
122.3493951679
 10
41.2984664775
 20
122.3361219586
 10
41.3092130086
 20
122.3261474938
  0
LINE
  5
2C4
330
1F
100
AcDbEntity
  8
0
  6
SLD-Durchgehend
 62
     7
370
    15
100
AcDbLine
 10
41.3092130086
 20
122.3261474938
 30
0.0
 11
41.8605550415
 21
121.9450968624
 31
0.0
  0
ARC
  5
2C5
330
1F
100
AcDbEntity
  8
0
  6
SLD-Durchgehend
 62
     7
370
    15
100
AcDbCircle
 10
50.1418204269
 20
113.6800709487
 30
0.0
 40
11.70000000000119
100
AcDbArc
 50
135.0562322534
 51
136.9625356087
  0
LINE
  5
2C6
330
1F
100
AcDbEntity
  8
0
  6
SLD-Durchgehend
 62
     7
370
    15
100
AcDbLine
 10
41.5902014113
 20
121.6650453702
 30
0.0
 11
40.3975934944
 21
121.2839938075
 31
0.0
  0
LWPOLYLINE
  5
2C7
330
1F
100
AcDbEntity
  8
0
  6
SLD-Durchgehend
 62
     7
370
    15
100
AcDbPolyline
 90
        9
 70
   128
 43
0.0
 10
40.3975934944
 20
121.2839938075
 10
40.307891298
 20
121.2399878845
 10
40.2658532596
 20
121.206565977
 10
40.2307358793
 20
121.1631989413
 10
40.2202771268
 20
121.1396346175
 10
40.2169439233
 20
121.1158956707
 10
40.2210268415
 20
121.0975891285
 10
40.2338371835
 20
121.0801584952
 10
40.2389091662
 20
121.0761477546
  0
LINE
  5
2C8
330
1F
100
AcDbEntity
  8
0
  6
SLD-Durchgehend
 62
     7
370
    15
100
AcDbLine
 10
40.2389091662
 20
121.0761477546
 30
0.0
 11
40.7780918515
 21
120.6950966575
 31
0.0
  0
ARC
  5
2C9
330
1F
100
AcDbEntity
  8
0
  6
SLD-Durchgehend
 62
     7
370
    15
100
AcDbCircle
 10
50.1418204269
 20
113.6800709487
 30
0.0
 40
11.700000000001
100
AcDbArc
 50
143.1605452389
 51
144.8556183741
  0
LINE
  5
2CA
330
1F
100
AcDbEntity
  8
0
  6
SLD-Durchgehend
 62
     7
370
    15
100
AcDbLine
 10
40.5746826193
 20
120.4150451653
 30
0.0
 11
39.5400633327
 21
120.0339940683
 31
0.0
  0
LWPOLYLINE
  5
2CB
330
1F
100
AcDbEntity
  8
0
  6
SLD-Durchgehend
 62
     7
370
    15
100
AcDbPolyline
 90
        9
 70
   128
 43
0.0
 10
39.5400633327
 20
120.0339940683
 10
39.4659784845
 20
119.9925432288
 10
39.4295349008
 20
119.9584903502
 10
39.4060739539
 20
119.9248547041
 10
39.3954773656
 20
119.8982626506
 10
39.392701093
 20
119.8714335755
 10
39.3975104428
 20
119.8512029209
 10
39.4114784188
 20
119.8315888018
 10
39.4182323701
 20
119.8261480153
  0
LINE
  5
2CC
330
1F
100
AcDbEntity
  8
0
  6
SLD-Durchgehend
 62
     7
370
    15
100
AcDbLine
 10
39.4182323701
 20
119.8261480153
 30
0.0
 11
39.9607361517
 21
119.4450969183
 31
0.0
  0
ARC
  5
2CD
330
1F
100
AcDbEntity
  8
0
  6
SLD-Durchgehend
 62
     7
370
    15
100
AcDbCircle
 10
50.1418204269
 20
113.6800709487
 30
0.0
 40
11.70000000000082
100
AcDbArc
 50
150.4793478803
 51
152.0434910313
  0
LINE
  5
2CE
330
1F
100
AcDbEntity
  8
0
  6
SLD-Durchgehend
 62
     7
370
    15
100
AcDbLine
 10
39.8071675784
 20
119.1650449604
 30
0.0
 11
38.8848415799
 21
118.7839938634
 31
0.0
  0
LWPOLYLINE
  5
2CF
330
1F
100
AcDbEntity
  8
0
  6
SLD-Durchgehend
 62
     7
370
    15
100
AcDbPolyline
 90
        9
 70
   128
 43
0.0
 10
38.8848415799
 20
118.7839938634
 10
38.824896071
 20
118.7471335129
 10
38.7925000153
 20
118.7132645704
 10
38.7729804254
 20
118.6806547762
 10
38.7642343751
 20
118.6530219697
 10
38.7631875685
 20
118.6255148918
 10
38.7691610715
 20
118.6040739835
 10
38.7849712036
 20
118.5824388944
 10
38.7928986213
 20
118.5761478104
  0
LINE
  5
2D0
330
1F
100
AcDbEntity
  8
0
  6
SLD-Durchgehend
 62
     7
370
    15
100
AcDbLine
 10
38.7928986213
 20
118.5761478104
 30
0.0
 11
39.3480935357
 21
118.1950967134
 31
0.0
  0
ARC
  5
2D1
330
1F
100
AcDbEntity
  8
0
  6
SLD-Durchgehend
 62
     7
370
    15
100
AcDbCircle
 10
50.1418204269
 20
113.6800709487
 30
0.0
 40
11.70000000000063
100
AcDbArc
 50
157.3003977015
 51
158.7791629542
  0
LINE
  5
2D2
330
1F
100
AcDbEntity
  8
0
  6
SLD-Durchgehend
 62
     7
370
    15
100
AcDbLine
 10
39.2351716048
 20
117.9150452212
 30
0.0
 11
38.398018781
 21
117.5339938913
 31
0.0
  0
LWPOLYLINE
  5
2D3
330
1F
100
AcDbEntity
  8
0
  6
SLD-Durchgehend
 62
     7
370
    15
100
AcDbPolyline
 90
        9
 70
   128
 43
0.0
 10
38.398018781
 20
117.5339938913
 10
38.3483876697
 20
117.500842533
 10
38.3200018889
 20
117.4679882665
 10
38.3035593889
 20
117.4361524013
 10
38.2966368682
 20
117.4079004981
 10
38.2971900738
 20
117.3800295059
 10
38.3043323866
 20
117.3574540139
 10
38.3220023698
 20
117.3338165813
 10
38.3318362049
 20
117.3261478384
  0
LINE
  5
2D4
330
1F
100
AcDbEntity
  8
0
  6
SLD-Durchgehend
 62
     7
370
    15
100
AcDbLine
 10
38.3318362049
 20
117.3261478384
 30
0.0
 11
38.9066252149
 21
116.9450967413
 31
0.0
  0
ARC
  5
2D5
330
1F
100
AcDbEntity
  8
0
  6
SLD-Durchgehend
 62
     7
370
    15
100
AcDbCircle
 10
50.1418204269
 20
113.6800709487
 30
0.0
 40
11.70000000000045
100
AcDbArc
 50
163.7957681704
 51
165.2189484992
  0
LINE
  5
2D6
330
1F
100
AcDbEntity
  8
0
  6
SLD-Durchgehend
 62
     7
370
    15
100
AcDbLine
 10
38.828998547
 20
116.6650452492
 30
0.0
 11
38.0592222548
 21
116.2839939193
 31
0.0
  0
LWPOLYLINE
  5
2D7
330
1F
100
AcDbEntity
  8
0
  6
SLD-Durchgehend
 62
     7
370
    15
100
AcDbPolyline
 90
        9
 70
   128
 43
0.0
 10
38.0592222548
 20
116.2839939193
 10
38.0247074402
 20
116.2607066639
 10
37.9966150261
 20
116.2286533349
 10
37.9808402843
 20
116.1972589166
 10
37.9742092676
 20
116.1682917577
 10
37.9750213808
 20
116.1392223862
 10
37.9823881424
 20
116.1150184766
 10
38.0002369396
 20
116.0891081513
 10
38.0162929407
 20
116.0761478663
  0
LINE
  5
2D8
330
1F
100
AcDbEntity
  8
0
  6
SLD-Durchgehend
 62
     7
370
    15
100
AcDbLine
 10
38.0162929407
 20
116.0761478663
 30
0.0
 11
38.6166448928
 21
115.6950967692
 31
0.0
  0
ARC
  5
2D9
330
1F
100
AcDbEntity
  8
0
  6
SLD-Durchgehend
 62
     7
370
    15
100
AcDbCircle
 10
50.1418204269
 20
113.6800709487
 30
0.0
 40
11.70000000000026
100
AcDbArc
 50
170.0828229118
 51
171.4722504237
  0
LINE
  5
2DA
330
1F
100
AcDbEntity
  8
0
  6
SLD-Durchgehend
 62
     7
370
    15
100
AcDbLine
 10
38.5711739994
 20
115.4150451607
 30
0.0
 11
37.8561995215
 21
115.0339939472
 31
0.0
  0
ARC
  5
2DB
330
1F
100
AcDbEntity
  8
0
  6
SLD-Durchgehend
 62
     7
370
    15
100
AcDbCircle
 10
37.904074379
 20
114.9241298716
 30
0.0
 40
0.1198420505527472
100
AcDbArc
 50
113.5458600199
 51
234.8445279001
  0
LINE
  5
2DC
330
1F
100
AcDbEntity
  8
0
  6
SLD-Durchgehend
 62
     7
370
    15
100
AcDbLine
 10
37.8350696749
 20
114.8261478943
 30
0.0
 11
38.4668584204
 21
114.445096739
 31
0.0
  0
ARC
  5
2DD
330
1F
100
AcDbEntity
  8
0
  6
SLD-Durchgehend
 62
     7
370
    15
100
AcDbCircle
 10
50.1418204269
 20
113.6800709487
 30
0.0
 40
11.70000000000007
100
AcDbArc
 50
176.2509365533
 51
177.6243641365
  0
LINE
  5
2DE
330
1F
100
AcDbEntity
  8
0
  6
SLD-Durchgehend
 62
     7
370
    15
100
AcDbLine
 10
38.4518762342
 20
114.1650451886
 30
0.0
 11
37.7822571657
 21
113.783993997
 31
0.0
  0
ARC
  5
2DF
330
1F
100
AcDbEntity
  8
0
  6
SLD-Durchgehend
 62
     7
370
    15
100
AcDbCircle
 10
37.8415015837
 20
113.6800709487
 30
0.0
 40
0.1196239985686675
100
AcDbArc
 50
119.6865858065
 51
240.3134141935
  0
LINE
  5
2E0
330
1F
100
AcDbEntity
  8
0
  6
SLD-Durchgehend
 62
     7
370
    15
100
AcDbLine
 10
37.7822571657
 20
113.5761479004
 30
0.0
 11
38.4518762342
 21
113.1950967087
 31
0.0
  0
ARC
  5
2E1
330
1F
100
AcDbEntity
  8
0
  6
SLD-Durchgehend
 62
     7
370
    15
100
AcDbCircle
 10
50.1418204269
 20
113.6800709487
 30
0.0
 40
11.69999999999988
100
AcDbArc
 50
182.3756358635
 51
183.7490634467
  0
LINE
  5
2E2
330
1F
100
AcDbEntity
  8
0
  6
SLD-Durchgehend
 62
     7
370
    15
100
AcDbLine
 10
38.4668584204
 20
112.9150451583
 30
0.0
 11
37.8350696749
 21
112.5339940031
 31
0.0
  0
ARC
  5
2E3
330
1F
100
AcDbEntity
  8
0
  6
SLD-Durchgehend
 62
     7
370
    15
100
AcDbCircle
 10
37.9063955973
 20
112.4362480032
 30
0.0
 40
0.1210027590694351
100
AcDbArc
 50
126.1184841636
 51
245.4911279164
  0
LINE
  5
2E4
330
1F
100
AcDbEntity
  8
0
  6
SLD-Durchgehend
 62
     7
370
    15
100
AcDbLine
 10
37.8561995215
 20
112.3261479501
 30
0.0
 11
38.5711739994
 21
111.9450967367
 31
0.0
  0
ARC
  5
2E5
330
1F
100
AcDbEntity
  8
0
  6
SLD-Durchgehend
 62
     7
370
    15
100
AcDbCircle
 10
50.1418204269
 20
113.6800709487
 30
0.0
 40
11.6999999999997
100
AcDbArc
 50
188.5277495763
 51
189.9171770882
  0
LINE
  5
2E6
330
1F
100
AcDbEntity
  8
0
  6
SLD-Durchgehend
 62
     7
370
    15
100
AcDbLine
 10
38.6166448928
 20
111.6650451281
 30
0.0
 11
38.0162929407
 21
111.283994031
 31
0.0
  0
LWPOLYLINE
  5
2E7
330
1F
100
AcDbEntity
  8
0
  6
SLD-Durchgehend
 62
     7
370
    15
100
AcDbPolyline
 90
        9
 70
   128
 43
0.0
 10
38.0162929407
 20
111.283994031
 10
37.9940324686
 20
111.2640546475
 10
37.9796910322
 20
111.2385836736
 10
37.9739224202
 20
111.2119210724
 10
37.975501012
 20
111.1828121197
 10
37.9834861717
 20
111.1560207632
 10
38.0024534873
 20
111.1232659154
 10
38.0374283752
 20
111.0893410937
 10
38.0592222548
 20
111.0761479781
  0
LINE
  5
2E8
330
1F
100
AcDbEntity
  8
0
  6
SLD-Durchgehend
 62
     7
370
    15
100
AcDbLine
 10
38.0592222548
 20
111.0761479781
 30
0.0
 11
38.828998547
 21
110.6950966482
 31
0.0
  0
ARC
  5
2E9
330
1F
100
AcDbEntity
  8
0
  6
SLD-Durchgehend
 62
     7
370
    15
100
AcDbCircle
 10
50.1418204269
 20
113.6800709487
 30
0.0
 40
11.69999999999952
100
AcDbArc
 50
194.7810515008
 51
196.2042318296
  0
LINE
  5
2EA
330
1F
100
AcDbEntity
  8
0
  6
SLD-Durchgehend
 62
     7
370
    15
100
AcDbLine
 10
38.9066252149
 20
110.415045156
 30
0.0
 11
38.3318362049
 21
110.033994059
 31
0.0
  0
LWPOLYLINE
  5
2EB
330
1F
100
AcDbEntity
  8
0
  6
SLD-Durchgehend
 62
     7
370
    15
100
AcDbPolyline
 90
        9
 70
   128
 43
0.0
 10
38.3318362049
 20
110.033994059
 10
38.3127403668
 20
110.0162768111
 10
38.3002205974
 20
109.9924873401
 10
38.2959309257
 20
109.9623152827
 10
38.3000585473
 20
109.9348438278
 10
38.3102285898
 20
109.908787052
 10
38.3338087461
 20
109.8742000599
 10
38.376518268
 20
109.8378575247
 10
38.398018781
 20
109.826148006
  0
LINE
  5
2EC
330
1F
100
AcDbEntity
  8
0
  6
SLD-Durchgehend
 62
     7
370
    15
100
AcDbLine
 10
38.398018781
 20
109.826148006
 30
0.0
 11
39.2351716048
 21
109.4450966761
 31
0.0
  0
ARC
  5
2ED
330
1F
100
AcDbEntity
  8
0
  6
SLD-Durchgehend
 62
     7
370
    15
100
AcDbCircle
 10
50.1418204269
 20
113.6800709487
 30
0.0
 40
11.69999999999933
100
AcDbArc
 50
201.2208370458
 51
202.6996022985
  0
LINE
  5
2EE
330
1F
100
AcDbEntity
  8
0
  6
SLD-Durchgehend
 62
     7
370
    15
100
AcDbLine
 10
39.3480935357
 20
109.165045184
 30
0.0
 11
38.7928986213
 21
108.7839940869
 31
0.0
  0
LWPOLYLINE
  5
2EF
330
1F
100
AcDbEntity
  8
0
  6
SLD-Durchgehend
 62
     7
370
    15
100
AcDbPolyline
 90
        9
 70
   128
 43
0.0
 10
38.7928986213
 20
108.7839940869
 10
38.7765632234
 20
108.7684712679
 10
38.765602488
 20
108.7464943834
 10
38.7627815119
 20
108.7186678619
 10
38.7677771262
 20
108.693095141
 10
38.7818959764
 20
108.6624723234
 10
38.8107250667
 20
108.6260240831
 10
38.8629908896
 20
108.5868088835
 10
38.8848415799
 20
108.576148034
  0
LINE
  5
2F0
330
1F
100
AcDbEntity
  8
0
  6
SLD-Durchgehend
 62
     7
370
    15
100
AcDbLine
 10
38.8848415799
 20
108.576148034
 30
0.0
 11
39.8071675784
 21
108.1950969369
 31
0.0
  0
ARC
  5
2F1
330
1F
100
AcDbEntity
  8
0
  6
SLD-Durchgehend
 62
     7
370
    15
100
AcDbCircle
 10
50.1418204269
 20
113.6800709487
 30
0.0
 40
11.69999999999915
100
AcDbArc
 50
207.9565089686
 51
209.5206521197
  0
LINE
  5
2F2
330
1F
100
AcDbEntity
  8
0
  6
SLD-Durchgehend
 62
     7
370
    15
100
AcDbLine
 10
39.9607361517
 20
107.9150449791
 30
0.0
 11
39.4182323701
 21
107.533993882
 31
0.0
  0
LWPOLYLINE
  5
2F3
330
1F
100
AcDbEntity
  8
0
  6
SLD-Durchgehend
 62
     7
370
    15
100
AcDbPolyline
 90
        9
 70
   128
 43
0.0
 10
39.4182323701
 20
107.533993882
 10
39.4043342433
 20
107.5206755035
 10
39.3946596644
 20
107.5006711603
 10
39.3929776958
 20
107.4753661946
 10
39.398585189
 20
107.4519685776
 10
39.4138952008
 20
107.4221536823
 10
39.4457538835
 20
107.3848025248
 10
39.5058307088
 20
107.3418401488
 10
39.5400633327
 20
107.3261478291
  0
LINE
  5
2F4
330
1F
100
AcDbEntity
  8
0
  6
SLD-Durchgehend
 62
     7
370
    15
100
AcDbLine
 10
39.5400633327
 20
107.3261478291
 30
0.0
 11
40.5746826193
 21
106.945096732
 31
0.0
  0
ARC
  5
2F5
330
1F
100
AcDbEntity
  8
0
  6
SLD-Durchgehend
 62
     7
370
    15
100
AcDbCircle
 10
50.1418204269
 20
113.6800709487
 30
0.0
 40
11.69999999999896
100
AcDbArc
 50
215.1443816259
 51
216.8394547611
  0
LINE
  5
2F6
330
1F
100
AcDbEntity
  8
0
  6
SLD-Durchgehend
 62
     7
370
    15
100
AcDbLine
 10
40.7780918515
 20
106.6650452398
 30
0.0
 11
40.2389091662
 21
106.2839941428
 31
0.0
  0
LWPOLYLINE
  5
2F7
330
1F
100
AcDbEntity
  8
0
  6
SLD-Durchgehend
 62
     7
370
    15
100
AcDbPolyline
 90
        9
 70
   128
 43
0.0
 10
40.2389091662
 20
106.2839941428
 10
40.2271940596
 20
106.2729309619
 10
40.2184927127
 20
106.2550938063
 10
40.2175716347
 20
106.2325092339
 10
40.2234538681
 20
106.2116434172
 10
40.2394791356
 20
106.1834834822
 10
40.2740060574
 20
106.1460992627
 10
40.343443606
 20
106.0991736435
 10
40.3975934944
 20
106.0761480898
  0
LINE
  5
2F8
330
1F
100
AcDbEntity
  8
0
  6
SLD-Durchgehend
 62
     7
370
    15
100
AcDbLine
 10
40.3975934944
 20
106.0761480898
 30
0.0
 11
41.5902014113
 21
105.6950965271
 31
0.0
  0
ARC
  5
2F9
330
1F
100
AcDbEntity
  8
0
  6
SLD-Durchgehend
 62
     7
370
    15
100
AcDbCircle
 10
50.1418204269
 20
113.6800709487
 30
0.0
 40
11.69999999999878
100
AcDbArc
 50
223.0374643913
 51
224.9437677466
  0
LINE
  5
2FA
330
1F
100
AcDbEntity
  8
0
  6
SLD-Durchgehend
 62
     7
370
    15
100
AcDbLine
 10
41.8605550415
 20
105.4150450349
 30
0.0
 11
41.3092130086
 21
105.0339944035
 31
0.0
  0
LWPOLYLINE
  5
2FB
330
1F
100
AcDbEntity
  8
0
  6
SLD-Durchgehend
 62
     7
370
    15
100
AcDbPolyline
 90
        9
 70
   128
 43
0.0
 10
41.3092130086
 20
105.0339944035
 10
41.2995011768
 20
105.0252911941
 10
41.2907718903
 20
105.0072505445
 10
41.2913372031
 20
104.987180543
 10
41.2978657744
 20
104.9693457157
 10
41.3156279585
 20
104.9429352701
 10
41.3556915931
 20
104.9053200827
 10
41.4433402232
 20
104.8535115392
 10
41.5175731516
 20
104.8261483506
  0
LINE
  5
2FC
330
1F
100
AcDbEntity
  8
0
  6
SLD-Durchgehend
 62
     7
370
    15
100
AcDbLine
 10
41.5175731516
 20
104.8261483506
 30
0.0
 11
42.9581410474
 21
104.4450967879
 31
0.0
  0
ARC
  5
2FD
330
1F
100
AcDbEntity
  8
0
  6
SLD-Durchgehend
 62
     7
370
    15
100
AcDbCircle
 10
50.1418204269
 20
113.6800709487
 30
0.0
 40
11.6999999999986
100
AcDbArc
 50
232.1214532678
 51
234.4146980712
  0
LINE
  5
2FE
330
1F
100
AcDbEntity
  8
0
  6
SLD-Durchgehend
 62
     7
370
    15
100
AcDbLine
 10
43.3334221355
 20
104.1650452957
 30
0.0
 11
42.7366017587
 21
103.783993733
 31
0.0
  0
LWPOLYLINE
  5
2FF
330
1F
100
AcDbEntity
  8
0
  6
SLD-Durchgehend
 62
     7
370
    15
100
AcDbPolyline
 90
        9
 70
   128
 43
0.0
 10
42.7366017587
 20
103.783993733
 10
42.7288294061
 20
103.7778311715
 10
42.7202691547
 20
103.7638464317
 10
42.7193327098
 20
103.7505918489
 10
42.7235543951
 20
103.736321193
 10
42.73625065
 20
103.7164542199
 10
42.7668632231
 20
103.6870020748
 10
42.8431981466
 20
103.6395698161
 10
43.022807896
 20
103.57614768
  0
LINE
  5
300
330
1F
100
AcDbEntity
  8
0
  6
SLD-Durchgehend
 62
     7
370
    15
100
AcDbLine
 10
43.022807896
 20
103.57614768
 30
0.0
 11
44.9499694853
 21
103.1950970486
 31
0.0
  0
ARC
  5
301
330
1F
100
AcDbEntity
  8
0
  6
SLD-Durchgehend
 62
     7
370
    15
100
AcDbCircle
 10
50.1418204269
 20
113.6800709487
 30
0.0
 40
11.70000000000605
100
AcDbArc
 50
243.6567400211
 51
246.9389024908
  0
LINE
  5
302
330
1F
100
AcDbEntity
  8
0
  6
SLD-Durchgehend
 62
     7
370
    15
100
AcDbLine
 10
45.5587843656
 20
102.9150455565
 30
0.0
 11
44.8000447116
 21
102.5339939938
 31
0.0
  0
LWPOLYLINE
  5
303
330
1F
100
AcDbEntity
  8
0
  6
SLD-Durchgehend
 62
     7
370
    15
100
AcDbPolyline
 90
        9
 70
   128
 43
0.0
 10
44.8000447116
 20
102.5339939938
 10
44.7877805903
 20
102.5249825165
 10
44.7828054651
 20
102.5166294844
 10
44.7821833416
 20
102.5065134586
 10
44.7856781296
 20
102.496863094
 10
44.7963138334
 20
102.4827954665
 10
44.8237743451
 20
102.4605880798
 10
44.9253644086
 20
102.4104307712
 10
45.2573520354
 20
102.3261479408
  0
ARC
  5
304
330
1F
100
AcDbEntity
  8
0
  6
SLD-Durchgehend
 62
     7
370
    15
100
AcDbCircle
 10
50.1418204269
 20
134.6418985171
 30
0.0
 40
32.68280536885888
100
AcDbArc
 50
261.4049043834
 51
278.5950956166
  0
LWPOLYLINE
  5
305
330
1F
100
AcDbEntity
  8
0
  6
SLD-Durchgehend
 62
     7
370
    15
100
AcDbPolyline
 90
       11
 70
   128
 43
0.0
 10
55.0262888185
 20
102.3261479408
 10
55.2336659505
 20
102.3696844772
 10
55.4131220317
 20
102.4342735604
 10
55.462848138
 20
102.4626118437
 10
55.4833651743
 20
102.4788783238
 10
55.496464692
 20
102.4942786739
 10
55.5011213048
 20
102.5048957512
 10
55.5012232847
 20
102.5152650968
 10
55.4973457231
 20
102.5231943772
 10
55.4856846332
 20
102.5328559176
 10
55.4835961423
 20
102.5339939938
  0
LINE
  5
306
330
1F
100
AcDbEntity
  8
0
  6
SLD-Durchgehend
 62
     7
370
    15
100
AcDbLine
 10
55.4835961423
 20
102.5339939938
 30
0.0
 11
54.7248564883
 21
102.9150455565
 31
0.0
  0
ARC
  5
307
330
1F
100
AcDbEntity
  8
0
  6
SLD-Durchgehend
 62
     7
370
    15
100
AcDbCircle
 10
50.1418204269
 20
113.6800709487
 30
0.0
 40
11.69999999999839
100
AcDbArc
 50
293.0610975091
 51
296.3432599789
  0
LINE
  5
308
330
1F
100
AcDbEntity
  8
0
  6
SLD-Durchgehend
 62
     7
370
    15
100
AcDbLine
 10
55.3336713686
 20
103.1950970486
 30
0.0
 11
57.2608329578
 21
103.57614768
 31
0.0
  0
LWPOLYLINE
  5
309
330
1F
100
AcDbEntity
  8
0
  6
SLD-Durchgehend
 62
     7
370
    15
100
AcDbPolyline
 90
        9
 70
   128
 43
0.0
 10
57.2608329578
 20
103.57614768
 10
57.4601974561
 20
103.6499875904
 10
57.5139175392
 20
103.6847566561
 10
57.543738488
 20
103.7121431277
 10
57.5577404573
 20
103.7316263959
 10
57.5638042986
 20
103.7475212783
 10
57.5636948681
 20
103.762643163
 10
57.5583779476
 20
103.7737482533
 10
57.5470390952
 20
103.783993733
  0
LINE
  5
30A
330
1F
100
AcDbEntity
  8
0
  6
SLD-Durchgehend
 62
     7
370
    15
100
AcDbLine
 10
57.5470390952
 20
103.783993733
 30
0.0
 11
56.9502187184
 21
104.1650452957
 31
0.0
  0
ARC
  5
30B
330
1F
100
AcDbEntity
  8
0
  6
SLD-Durchgehend
 62
     7
370
    15
100
AcDbCircle
 10
50.1418204269
 20
113.6800709487
 30
0.0
 40
11.69999999999859
100
AcDbArc
 50
305.5853019288
 51
307.8785467322
  0
LINE
  5
30C
330
1F
100
AcDbEntity
  8
0
  6
SLD-Durchgehend
 62
     7
370
    15
100
AcDbLine
 10
57.3254998065
 20
104.4450967879
 30
0.0
 11
58.7660677022
 21
104.8261483506
 31
0.0
  0
LWPOLYLINE
  5
30D
330
1F
100
AcDbEntity
  8
0
  6
SLD-Durchgehend
 62
     7
370
    15
100
AcDbPolyline
 90
        9
 70
   128
 43
0.0
 10
58.7660677022
 20
104.8261483506
 10
58.8907466493
 20
104.8800104604
 10
58.9501883126
 20
104.924188678
 10
58.973497454
 20
104.9498233319
 10
58.9881825483
 20
104.9745583282
 10
58.9933485947
 20
104.993385014
 10
58.9920195974
 20
105.0107467294
 10
58.9851743764
 20
105.0240199388
 10
58.9744278452
 20
105.0339944035
  0
LINE
  5
30E
330
1F
100
AcDbEntity
  8
0
  6
SLD-Durchgehend
 62
     7
370
    15
100
AcDbLine
 10
58.9744278452
 20
105.0339944035
 30
0.0
 11
58.4230858124
 21
105.4150450349
 31
0.0
  0
ARC
  5
30F
330
1F
100
AcDbEntity
  8
0
  6
SLD-Durchgehend
 62
     7
370
    15
100
AcDbCircle
 10
50.1418204269
 20
113.6800709487
 30
0.0
 40
11.69999999999878
100
AcDbArc
 50
315.0562322534
 51
316.9625356087
  0
LINE
  5
310
330
1F
100
AcDbEntity
  8
0
  6
SLD-Durchgehend
 62
     7
370
    15
100
AcDbLine
 10
58.6934394426
 20
105.6950965271
 30
0.0
 11
59.8860473595
 21
106.0761480898
 31
0.0
  0
LWPOLYLINE
  5
311
330
1F
100
AcDbEntity
  8
0
  6
SLD-Durchgehend
 62
     7
370
    15
100
AcDbPolyline
 90
        9
 70
   128
 43
0.0
 10
59.8860473595
 20
106.0761480898
 10
59.9757495559
 20
106.1201540128
 10
60.0177875943
 20
106.1535759204
 10
60.0529049746
 20
106.1969429561
 10
60.0633637271
 20
106.2205072798
 10
60.0666969306
 20
106.2442462266
 10
60.0626140124
 20
106.2625527688
 10
60.0498036704
 20
106.2799834021
 10
60.0447316877
 20
106.2839941428
  0
LINE
  5
312
330
1F
100
AcDbEntity
  8
0
  6
SLD-Durchgehend
 62
     7
370
    15
100
AcDbLine
 10
60.0447316877
 20
106.2839941428
 30
0.0
 11
59.5055490024
 21
106.6650452398
 31
0.0
  0
ARC
  5
313
330
1F
100
AcDbEntity
  8
0
  6
SLD-Durchgehend
 62
     7
370
    15
100
AcDbCircle
 10
50.1418204269
 20
113.6800709487
 30
0.0
 40
11.69999999999895
100
AcDbArc
 50
323.1605452389
 51
324.8556183741
  0
LINE
  5
314
330
1F
100
AcDbEntity
  8
0
  6
SLD-Durchgehend
 62
     7
370
    15
100
AcDbLine
 10
59.7089582345
 20
106.945096732
 30
0.0
 11
60.7435775212
 21
107.3261478291
 31
0.0
  0
LWPOLYLINE
  5
315
330
1F
100
AcDbEntity
  8
0
  6
SLD-Durchgehend
 62
     7
370
    15
100
AcDbPolyline
 90
        9
 70
   128
 43
0.0
 10
60.7435775212
 20
107.3261478291
 10
60.8176623694
 20
107.3675986685
 10
60.854105953
 20
107.4016515472
 10
60.8775669
 20
107.4352871933
 10
60.8881634883
 20
107.4618792467
 10
60.8909397609
 20
107.4887083218
 10
60.8861304111
 20
107.5089389764
 10
60.8721624351
 20
107.5285530955
 10
60.8654084838
 20
107.533993882
  0
LINE
  5
316
330
1F
100
AcDbEntity
  8
0
  6
SLD-Durchgehend
 62
     7
370
    15
100
AcDbLine
 10
60.8654084838
 20
107.533993882
 30
0.0
 11
60.3229047022
 21
107.9150449791
 31
0.0
  0
ARC
  5
317
330
1F
100
AcDbEntity
  8
0
  6
SLD-Durchgehend
 62
     7
370
    15
100
AcDbCircle
 10
50.1418204269
 20
113.6800709487
 30
0.0
 40
11.69999999999914
100
AcDbArc
 50
330.4793478803
 51
332.0434910314
  0
LINE
  5
318
330
1F
100
AcDbEntity
  8
0
  6
SLD-Durchgehend
 62
     7
370
    15
100
AcDbLine
 10
60.4764732755
 20
108.1950969369
 30
0.0
 11
61.398799274
 21
108.576148034
 31
0.0
  0
LWPOLYLINE
  5
319
330
1F
100
AcDbEntity
  8
0
  6
SLD-Durchgehend
 62
     7
370
    15
100
AcDbPolyline
 90
        9
 70
   128
 43
0.0
 10
61.398799274
 20
108.576148034
 10
61.4587447829
 20
108.6130083845
 10
61.4911408386
 20
108.6468773269
 10
61.5106604285
 20
108.6794871212
 10
61.5194064788
 20
108.7071199276
 10
61.5204532853
 20
108.7346270055
 10
61.5144797823
 20
108.7560679138
 10
61.4986696503
 20
108.7777030029
 10
61.4907422326
 20
108.7839940869
  0
LINE
  5
31A
330
1F
100
AcDbEntity
  8
0
  6
SLD-Durchgehend
 62
     7
370
    15
100
AcDbLine
 10
61.4907422326
 20
108.7839940869
 30
0.0
 11
60.9355473182
 21
109.165045184
 31
0.0
  0
ARC
  5
31B
330
1F
100
AcDbEntity
  8
0
  6
SLD-Durchgehend
 62
     7
370
    15
100
AcDbCircle
 10
50.1418204269
 20
113.6800709487
 30
0.0
 40
11.69999999999933
100
AcDbArc
 50
337.3003977015
 51
338.7791629543
  0
LINE
  5
31C
330
1F
100
AcDbEntity
  8
0
  6
SLD-Durchgehend
 62
     7
370
    15
100
AcDbLine
 10
61.0484692491
 20
109.4450966761
 30
0.0
 11
61.8856220729
 21
109.826148006
 31
0.0
  0
LWPOLYLINE
  5
31D
330
1F
100
AcDbEntity
  8
0
  6
SLD-Durchgehend
 62
     7
370
    15
100
AcDbPolyline
 90
        9
 70
   128
 43
0.0
 10
61.8856220729
 20
109.826148006
 10
61.9352531842
 20
109.8592993644
 10
61.963638965
 20
109.8921536308
 10
61.980081465
 20
109.9239894961
 10
61.9870039857
 20
109.9522413992
 10
61.9864507801
 20
109.9801123914
 10
61.9793084673
 20
110.0026878834
 10
61.9616384841
 20
110.026325316
 10
61.951804649
 20
110.033994059
  0
LINE
  5
31E
330
1F
100
AcDbEntity
  8
0
  6
SLD-Durchgehend
 62
     7
370
    15
100
AcDbLine
 10
61.951804649
 20
110.033994059
 30
0.0
 11
61.377015639
 21
110.415045156
 31
0.0
  0
ARC
  5
31F
330
1F
100
AcDbEntity
  8
0
  6
SLD-Durchgehend
 62
     7
370
    15
100
AcDbCircle
 10
50.1418204269
 20
113.6800709487
 30
0.0
 40
11.69999999999951
100
AcDbArc
 50
343.7957681704
 51
345.2189484992
  0
LINE
  5
320
330
1F
100
AcDbEntity
  8
0
  6
SLD-Durchgehend
 62
     7
370
    15
100
AcDbLine
 10
61.4546423069
 20
110.6950966482
 30
0.0
 11
62.2244185991
 21
111.0761479781
 31
0.0
  0
LWPOLYLINE
  5
321
330
1F
100
AcDbEntity
  8
0
  6
SLD-Durchgehend
 62
     7
370
    15
100
AcDbPolyline
 90
        9
 70
   128
 43
0.0
 10
62.2244185991
 20
111.0761479781
 10
62.2589334137
 20
111.0994352334
 10
62.2870258278
 20
111.1314885624
 10
62.3028005696
 20
111.1628829808
 10
62.3094315863
 20
111.1918501396
 10
62.308619473
 20
111.2209195112
 10
62.3012527115
 20
111.2451234207
 10
62.2834039143
 20
111.2710337461
 10
62.2673479131
 20
111.283994031
  0
LINE
  5
322
330
1F
100
AcDbEntity
  8
0
  6
SLD-Durchgehend
 62
     7
370
    15
100
AcDbLine
 10
62.2673479131
 20
111.283994031
 30
0.0
 11
61.6669959611
 21
111.6650451281
 31
0.0
  0
ARC
  5
323
330
1F
100
AcDbEntity
  8
0
  6
SLD-Durchgehend
 62
     7
370
    15
100
AcDbCircle
 10
50.1418204269
 20
113.6800709487
 30
0.0
 40
11.6999999999997
100
AcDbArc
 50
350.0828229118
 51
351.4722504237
  0
LINE
  5
324
330
1F
100
AcDbEntity
  8
0
  6
SLD-Durchgehend
 62
     7
370
    15
100
AcDbLine
 10
61.7124668545
 20
111.9450967367
 30
0.0
 11
62.4274413324
 21
112.3261479501
 31
0.0
  0
ARC
  5
325
330
1F
100
AcDbEntity
  8
0
  6
SLD-Durchgehend
 62
     7
370
    15
100
AcDbCircle
 10
62.3795664749
 20
112.4360120257
 30
0.0
 40
0.1198420505527496
100
AcDbArc
 50
293.5458600199
 51
54.8445279001
  0
LINE
  5
326
330
1F
100
AcDbEntity
  8
0
  6
SLD-Durchgehend
 62
     7
370
    15
100
AcDbLine
 10
62.448571179
 20
112.5339940031
 30
0.0
 11
61.8167824335
 21
112.9150451583
 31
0.0
  0
ARC
  5
327
330
1F
100
AcDbEntity
  8
0
  6
SLD-Durchgehend
 62
     7
370
    15
100
AcDbCircle
 10
50.1418204269
 20
113.6800709487
 30
0.0
 40
11.69999999999988
100
AcDbArc
 50
356.2509365533
 51
357.6243641365
  0
LINE
  5
328
330
1F
100
AcDbEntity
  8
0
  6
SLD-Durchgehend
 62
     7
370
    15
100
AcDbLine
 10
61.8317646197
 20
113.1950967087
 30
0.0
 11
62.5013836882
 21
113.5761479004
 31
0.0
  0
ARC
  5
329
330
1F
100
AcDbEntity
  8
0
  6
SLD-Durchgehend
 62
     7
370
    15
100
AcDbCircle
 10
62.4421392702
 20
113.6800709487
 30
0.0
 40
0.119623998568664
100
AcDbArc
 50
299.6865858065
 51
60.3134141935
  0
LINE
  5
32A
330
1F
100
AcDbEntity
  8
0
  6
SLD-Durchgehend
 62
     7
370
    15
100
AcDbLine
 10
62.5013836882
 20
113.783993997
 30
0.0
 11
61.8317646197
 21
114.1650451886
 31
0.0
  0
ARC
  5
32B
330
1F
100
AcDbEntity
  8
0
  6
SLD-Durchgehend
 62
     7
370
    15
100
AcDbCircle
 10
50.1418204269
 20
113.6800709487
 30
0.0
 40
11.70000000000007
100
AcDbArc
 50
2.3756358635
 51
3.7490634467
  0
CIRCLE
  5
32C
330
1F
100
AcDbEntity
  8
0
  6
SLD-Durchgehend
 62
     7
370
    15
100
AcDbCircle
 10
50.1418204269
 20
113.6800709487
 30
0.0
 40
3.999999999999986
  0
LINE
  5
32D
330
1F
100
AcDbEntity
  8
0
  6
SLD-Durchgehend
 62
     7
370
    15
100
AcDbLine
 10
45.4031775928
 20
114.445096739
 30
0.0
 11
46.1636164448
 21
114.8261478943
 31
0.0
  0
LWPOLYLINE
  5
32E
330
1F
100
AcDbEntity
  8
0
  6
SLD-Durchgehend
 62
     7
370
    15
100
AcDbPolyline
 90
        9
 70
   128
 43
0.0
 10
46.1636164448
 20
114.8261478943
 10
46.2109928242
 20
114.8585101896
 10
46.2396724372
 20
114.8922900743
 10
46.2561561483
 20
114.9246623813
 10
46.2631967141
 20
114.9533996199
 10
46.2627084683
 20
114.9816600213
 10
46.2555328607
 20
115.0042830108
 10
46.2379376161
 20
115.0274331289
 10
46.2294693328
 20
115.0339939472
  0
LINE
  5
32F
330
1F
100
AcDbEntity
  8
0
  6
SLD-Durchgehend
 62
     7
370
    15
100
AcDbLine
 10
46.2294693328
 20
115.0339939472
 30
0.0
 11
45.6663470007
 21
115.4150451607
 31
0.0
  0
ARC
  5
330
330
1F
100
AcDbEntity
  8
0
  6
SLD-Durchgehend
 62
     7
370
    15
100
AcDbCircle
 10
50.1418204269
 20
113.6800709487
 30
0.0
 40
4.800000000000421
100
AcDbArc
 50
155.1782257964
 51
158.8105456562
  0
LINE
  5
331
330
1F
100
AcDbEntity
  8
0
  6
SLD-Durchgehend
 62
     7
370
    15
100
AcDbLine
 10
45.785254076
 20
115.6950967692
 30
0.0
 11
46.7656664307
 21
116.0761478663
 31
0.0
  0
LWPOLYLINE
  5
332
330
1F
100
AcDbEntity
  8
0
  6
SLD-Durchgehend
 62
     7
370
    15
100
AcDbPolyline
 90
        9
 70
   128
 43
0.0
 10
46.7656664307
 20
116.0761478663
 10
46.8535024895
 20
116.1212450665
 10
46.8973694126
 20
116.1574639686
 10
46.9264271426
 20
116.1926470072
 10
46.9393189753
 20
116.2178041254
 10
46.9442240185
 20
116.2392042883
 10
46.9422123618
 20
116.2587324929
 10
46.9344074129
 20
116.273554026
 10
46.9232517983
 20
116.2839939193
  0
LINE
  5
333
330
1F
100
AcDbEntity
  8
0
  6
SLD-Durchgehend
 62
     7
370
    15
100
AcDbLine
 10
46.9232517983
 20
116.2839939193
 30
0.0
 11
46.5395722761
 21
116.5545314857
 31
0.0
  0
LINE
  5
334
330
1F
100
AcDbEntity
  8
0
  6
SLD-Durchgehend
 62
     7
370
    15
100
AcDbLine
 10
47.0507102775
 20
117.0496574909
 30
0.0
 11
48.1807689405
 21
117.3261478384
 31
0.0
  0
LWPOLYLINE
  5
335
330
1F
100
AcDbEntity
  8
0
  6
SLD-Durchgehend
 62
     7
370
    15
100
AcDbPolyline
 90
       11
 70
   128
 43
0.0
 10
48.1807689405
 20
117.3261478384
 10
48.3903157049
 20
117.3780956146
 10
48.5334638263
 20
117.4296834347
 10
48.6018146378
 20
117.4633523755
 10
48.6323629496
 20
117.4847762872
 10
48.642167448
 20
117.4949321271
 10
48.6484820479
 20
117.5063103278
 10
48.6491791428
 20
117.5141839617
 10
48.646501474
 20
117.5211868089
 10
48.6379987317
 20
117.5293726687
 10
48.6295780622
 20
117.5339938913
  0
LINE
  5
336
330
1F
100
AcDbEntity
  8
0
  6
SLD-Durchgehend
 62
     7
370
    15
100
AcDbLine
 10
48.6295780622
 20
117.5339938913
 30
0.0
 11
47.8823971692
 21
117.9150452212
 31
0.0
  0
ARC
  5
337
330
1F
100
AcDbEntity
  8
0
  6
SLD-Durchgehend
 62
     7
370
    15
100
AcDbCircle
 10
50.1418204269
 20
113.6800709487
 30
0.0
 40
4.80000000000093
100
AcDbArc
 50
109.8423103834
 51
118.0806000095
  0
ARC
  5
338
330
1F
100
AcDbEntity
  8
0
  6
SLD-Durchgehend
 62
     7
370
    15
100
AcDbCircle
 10
50.1418204269
 20
105.5033034381
 30
0.0
 40
12.79594305312465
100
AcDbArc
 50
82.6848090695
 51
97.3151909305
  0
ARC
  5
339
330
1F
100
AcDbEntity
  8
0
  6
SLD-Durchgehend
 62
     7
370
    15
100
AcDbCircle
 10
50.1418204269
 20
113.6800709487
 30
0.0
 40
4.800000000000927
100
AcDbArc
 50
61.9193999905
 51
70.1576896166
  0
LINE
  5
33A
330
1F
100
AcDbEntity
  8
0
  6
SLD-Durchgehend
 62
     7
370
    15
100
AcDbLine
 10
52.4012436847
 20
117.9150452212
 30
0.0
 11
51.6540627916
 21
117.5339938913
 31
0.0
  0
LWPOLYLINE
  5
33B
330
1F
100
AcDbEntity
  8
0
  6
SLD-Durchgehend
 62
     7
370
    15
100
AcDbPolyline
 90
       10
 70
   128
 43
0.0
 10
51.6540627916
 20
117.5339938913
 10
51.6412277696
 20
117.5259356227
 10
51.6359375081
 20
117.519044767
 10
51.6343548418
 20
117.5105250281
 10
51.6366924615
 20
117.5024050594
 10
51.6445165024
 20
117.4913644631
 10
51.6654168944
 20
117.4738164832
 10
51.7467214716
 20
117.4311686613
 10
52.0405930922
 20
117.338800554
 10
52.1028719134
 20
117.3261478384
  0
LINE
  5
33C
330
1F
100
AcDbEntity
  8
0
  6
SLD-Durchgehend
 62
     7
370
    15
100
AcDbLine
 10
52.1028719134
 20
117.3261478384
 30
0.0
 11
53.1564517635
 21
117.0683696241
 31
0.0
  0
LINE
  5
33D
330
1F
100
AcDbEntity
  8
0
  6
SLD-Durchgehend
 62
     7
370
    15
100
AcDbLine
 10
53.7645818888
 20
116.5689958566
 30
0.0
 11
53.3603890556
 21
116.2839939193
 31
0.0
  0
LWPOLYLINE
  5
33E
330
1F
100
AcDbEntity
  8
0
  6
SLD-Durchgehend
 62
     7
370
    15
100
AcDbPolyline
 90
        9
 70
   128
 43
0.0
 10
53.3603890556
 20
116.2839939193
 10
53.3492448497
 20
116.2735684615
 10
53.3399847093
 20
116.2526632965
 10
53.3406915831
 20
116.2302880388
 10
53.3475926834
 20
116.2099465568
 10
53.3660249542
 20
116.1802522679
 10
53.4052236228
 20
116.1402051643
 10
53.4798945057
 20
116.0921340183
 10
53.5179744232
 20
116.0761478663
  0
LINE
  5
33F
330
1F
100
AcDbEntity
  8
0
  6
SLD-Durchgehend
 62
     7
370
    15
100
AcDbLine
 10
53.5179744232
 20
116.0761478663
 30
0.0
 11
54.4983867778
 21
115.6950967692
 31
0.0
  0
ARC
  5
340
330
1F
100
AcDbEntity
  8
0
  6
SLD-Durchgehend
 62
     7
370
    15
100
AcDbCircle
 10
50.1418204269
 20
113.6800709487
 30
0.0
 40
4.800000000000415
100
AcDbArc
 50
21.1894543438
 51
24.8217742036
  0
LINE
  5
341
330
1F
100
AcDbEntity
  8
0
  6
SLD-Durchgehend
 62
     7
370
    15
100
AcDbLine
 10
54.6172938532
 20
115.4150451607
 30
0.0
 11
54.0541715211
 21
115.0339939472
 31
0.0
  0
LWPOLYLINE
  5
342
330
1F
100
AcDbEntity
  8
0
  6
SLD-Durchgehend
 62
     7
370
    15
100
AcDbPolyline
 90
        9
 70
   128
 43
0.0
 10
54.0541715211
 20
115.0339939472
 10
54.0358572955
 20
115.0168230365
 10
54.0236956197
 20
114.9932364774
 10
54.0197095591
 20
114.9633552254
 10
54.0239067971
 20
114.9358317329
 10
54.0341457575
 20
114.9092955588
 10
54.0576001852
 20
114.874188423
 10
54.0991599894
 20
114.837845655
 10
54.1200244091
 20
114.8261478943
  0
LINE
  5
343
330
1F
100
AcDbEntity
  8
0
  6
SLD-Durchgehend
 62
     7
370
    15
100
AcDbLine
 10
54.1200244091
 20
114.8261478943
 30
0.0
 11
54.8804632611
 21
114.445096739
 31
0.0
  0
ARC
  5
344
330
1F
100
AcDbEntity
  8
0
  6
SLD-Durchgehend
 62
     7
370
    15
100
AcDbCircle
 10
50.1418204269
 20
113.6800709487
 30
0.0
 40
4.800000000000169
100
AcDbArc
 50
5.7988481848
 51
9.1709324956
  0
LINE
  5
345
330
1F
100
AcDbEntity
  8
0
  6
SLD-Durchgehend
 62
     7
370
    15
100
AcDbLine
 10
54.9172574877
 20
114.1650451886
 30
0.0
 11
54.2805159687
 21
113.783993997
 31
0.0
  0
ARC
  5
346
330
1F
100
AcDbEntity
  8
0
  6
SLD-Durchgehend
 62
     7
370
    15
100
AcDbCircle
 10
54.3428032269
 20
113.6800709487
 30
0.0
 40
0.1211598221575559
100
AcDbArc
 50
120.9367618605
 51
239.0632381395
  0
LINE
  5
347
330
1F
100
AcDbEntity
  8
0
  6
SLD-Durchgehend
 62
     7
370
    15
100
AcDbLine
 10
54.2805159687
 20
113.5761479004
 30
0.0
 11
54.9172574877
 21
113.1950967087
 31
0.0
  0
ARC
  5
348
330
1F
100
AcDbEntity
  8
0
  6
SLD-Durchgehend
 62
     7
370
    15
100
AcDbCircle
 10
50.1418204269
 20
113.6800709487
 30
0.0
 40
4.800000000000098
100
AcDbArc
 50
350.8290675044
 51
354.2011518152
  0
LINE
  5
349
330
1F
100
AcDbEntity
  8
0
  6
SLD-Durchgehend
 62
     7
370
    15
100
AcDbLine
 10
54.8804632611
 20
112.9150451583
 30
0.0
 11
54.1200244091
 21
112.5339940031
 31
0.0
  0
LWPOLYLINE
  5
34A
330
1F
100
AcDbEntity
  8
0
  6
SLD-Durchgehend
 62
     7
370
    15
100
AcDbPolyline
 90
        9
 70
   128
 43
0.0
 10
54.1200244091
 20
112.5339940031
 10
54.0726480297
 20
112.5016317078
 10
54.0439684167
 20
112.4678518231
 10
54.0274847056
 20
112.435479516
 10
54.0204441397
 20
112.4067422774
 10
54.0209323856
 20
112.378481876
 10
54.0281079932
 20
112.3558588865
 10
54.0457032378
 20
112.3327087684
 10
54.0541715211
 20
112.3261479501
  0
LINE
  5
34B
330
1F
100
AcDbEntity
  8
0
  6
SLD-Durchgehend
 62
     7
370
    15
100
AcDbLine
 10
54.0541715211
 20
112.3261479501
 30
0.0
 11
54.6172938532
 21
111.9450967367
 31
0.0
  0
ARC
  5
34C
330
1F
100
AcDbEntity
  8
0
  6
SLD-Durchgehend
 62
     7
370
    15
100
AcDbCircle
 10
50.1418204269
 20
113.6800709487
 30
0.0
 40
4.79999999999967
100
AcDbArc
 50
335.1782257965
 51
338.8105456562
  0
LINE
  5
34D
330
1F
100
AcDbEntity
  8
0
  6
SLD-Durchgehend
 62
     7
370
    15
100
AcDbLine
 10
54.4983867778
 20
111.6650451281
 30
0.0
 11
53.5179744232
 21
111.283994031
 31
0.0
  0
LWPOLYLINE
  5
34E
330
1F
100
AcDbEntity
  8
0
  6
SLD-Durchgehend
 62
     7
370
    15
100
AcDbPolyline
 90
        9
 70
   128
 43
0.0
 10
53.5179744232
 20
111.283994031
 10
53.4301383643
 20
111.2388968308
 10
53.3862714413
 20
111.2026779287
 10
53.3572137113
 20
111.1674948902
 10
53.3443218785
 20
111.1423377719
 10
53.3394168354
 20
111.120937609
 10
53.3414284921
 20
111.1014094044
 10
53.349233441
 20
111.0865878713
 10
53.3603890556
 20
111.0761479781
  0
LINE
  5
34F
330
1F
100
AcDbEntity
  8
0
  6
SLD-Durchgehend
 62
     7
370
    15
100
AcDbLine
 10
53.3603890556
 20
111.0761479781
 30
0.0
 11
53.7433037291
 21
110.8061496474
 31
0.0
  0
LINE
  5
350
330
1F
100
AcDbEntity
  8
0
  6
SLD-Durchgehend
 62
     7
370
    15
100
AcDbLine
 10
53.2279920056
 20
110.3092760154
 30
0.0
 11
52.1028719134
 21
110.033994059
 31
0.0
  0
LWPOLYLINE
  5
351
330
1F
100
AcDbEntity
  8
0
  6
SLD-Durchgehend
 62
     7
370
    15
100
AcDbPolyline
 90
       11
 70
   128
 43
0.0
 10
52.1028719134
 20
110.033994059
 10
51.893325149
 20
109.9820462827
 10
51.7501770276
 20
109.9304584627
 10
51.6818262161
 20
109.8967895218
 10
51.6512779043
 20
109.8753656101
 10
51.6414734059
 20
109.8652097703
 10
51.635158806
 20
109.8538315695
 10
51.6344617111
 20
109.8459579357
 10
51.6371393799
 20
109.8389550884
 10
51.6456421222
 20
109.8307692286
 10
51.6540627916
 20
109.826148006
  0
LINE
  5
352
330
1F
100
AcDbEntity
  8
0
  6
SLD-Durchgehend
 62
     7
370
    15
100
AcDbLine
 10
51.6540627916
 20
109.826148006
 30
0.0
 11
52.4012436847
 21
109.4450966761
 31
0.0
  0
ARC
  5
353
330
1F
100
AcDbEntity
  8
0
  6
SLD-Durchgehend
 62
     7
370
    15
100
AcDbCircle
 10
50.1418204269
 20
113.6800709487
 30
0.0
 40
4.800000000005507
100
AcDbArc
 50
289.8423103834
 51
298.0806000097
  0
ARC
  5
354
330
1F
100
AcDbEntity
  8
0
  6
SLD-Durchgehend
 62
     7
370
    15
100
AcDbCircle
 10
50.1418204269
 20
121.8568384592
 30
0.0
 40
12.79594305312465
100
AcDbArc
 50
262.6848090695
 51
277.3151909305
  0
ARC
  5
355
330
1F
100
AcDbEntity
  8
0
  6
SLD-Durchgehend
 62
     7
370
    15
100
AcDbCircle
 10
50.1418204269
 20
113.6800709487
 30
0.0
 40
4.799999999999185
100
AcDbArc
 50
241.9193999905
 51
250.1576896166
  0
LINE
  5
356
330
1F
100
AcDbEntity
  8
0
  6
SLD-Durchgehend
 62
     7
370
    15
100
AcDbLine
 10
47.8823971692
 20
109.4450966761
 30
0.0
 11
48.6295780622
 21
109.826148006
 31
0.0
  0
LWPOLYLINE
  5
357
330
1F
100
AcDbEntity
  8
0
  6
SLD-Durchgehend
 62
     7
370
    15
100
AcDbPolyline
 90
       10
 70
   128
 43
0.0
 10
48.6295780622
 20
109.826148006
 10
48.6424130843
 20
109.8342062746
 10
48.6477033458
 20
109.8410971303
 10
48.6492860121
 20
109.8496168692
 10
48.6469483924
 20
109.8577368379
 10
48.6391243515
 20
109.8687774342
 10
48.6182239595
 20
109.8863254142
 10
48.5369193823
 20
109.928973236
 10
48.2430477616
 20
110.0213413433
 10
48.1807689405
 20
110.033994059
  0
LINE
  5
358
330
1F
100
AcDbEntity
  8
0
  6
SLD-Durchgehend
 62
     7
370
    15
100
AcDbLine
 10
48.1807689405
 20
110.033994059
 30
0.0
 11
47.0403721313
 21
110.3130136457
 31
0.0
  0
LINE
  5
359
330
1F
100
AcDbEntity
  8
0
  6
SLD-Durchgehend
 62
     7
370
    15
100
AcDbLine
 10
46.5590511206
 20
110.8193450913
 30
0.0
 11
46.9232517983
 21
111.0761479781
 31
0.0
  0
LWPOLYLINE
  5
35A
330
1F
100
AcDbEntity
  8
0
  6
SLD-Durchgehend
 62
     7
370
    15
100
AcDbPolyline
 90
        9
 70
   128
 43
0.0
 10
46.9232517983
 20
111.0761479781
 10
46.9343960042
 20
111.0865734358
 10
46.9436561446
 20
111.1074786008
 10
46.9429492707
 20
111.1298538585
 10
46.9360481705
 20
111.1501953405
 10
46.9176158997
 20
111.1798896295
 10
46.8784172311
 20
111.219936733
 10
46.8037463482
 20
111.268007879
 10
46.7656664307
 20
111.283994031
  0
LINE
  5
35B
330
1F
100
AcDbEntity
  8
0
  6
SLD-Durchgehend
 62
     7
370
    15
100
AcDbLine
 10
46.7656664307
 20
111.283994031
 30
0.0
 11
45.785254076
 21
111.6650451281
 31
0.0
  0
ARC
  5
35C
330
1F
100
AcDbEntity
  8
0
  6
SLD-Durchgehend
 62
     7
370
    15
100
AcDbCircle
 10
50.1418204269
 20
113.6800709487
 30
0.0
 40
4.799999999999684
100
AcDbArc
 50
201.1894543438
 51
204.8217742035
  0
LINE
  5
35D
330
1F
100
AcDbEntity
  8
0
  6
SLD-Durchgehend
 62
     7
370
    15
100
AcDbLine
 10
45.6663470007
 20
111.9450967367
 30
0.0
 11
46.2294693328
 21
112.3261479501
 31
0.0
  0
LWPOLYLINE
  5
35E
330
1F
100
AcDbEntity
  8
0
  6
SLD-Durchgehend
 62
     7
370
    15
100
AcDbPolyline
 90
        9
 70
   128
 43
0.0
 10
46.2294693328
 20
112.3261479501
 10
46.2477835584
 20
112.3433188609
 10
46.2599452342
 20
112.36690542
 10
46.2639312948
 20
112.3967866719
 10
46.2597340568
 20
112.4243101644
 10
46.2494950964
 20
112.4508463385
 10
46.2260406687
 20
112.4859534743
 10
46.1844808645
 20
112.5222962423
 10
46.1636164448
 20
112.5339940031
  0
LINE
  5
35F
330
1F
100
AcDbEntity
  8
0
  6
SLD-Durchgehend
 62
     7
370
    15
100
AcDbLine
 10
46.1636164448
 20
112.5339940031
 30
0.0
 11
45.4031775928
 21
112.9150451583
 31
0.0
  0
ARC
  5
360
330
1F
100
AcDbEntity
  8
0
  6
SLD-Durchgehend
 62
     7
370
    15
100
AcDbCircle
 10
50.1418204269
 20
113.6800709487
 30
0.0
 40
4.800000000000098
100
AcDbArc
 50
185.7988481848
 51
189.1709324956
  0
LINE
  5
361
330
1F
100
AcDbEntity
  8
0
  6
SLD-Durchgehend
 62
     7
370
    15
100
AcDbLine
 10
45.3663833662
 20
113.1950967087
 30
0.0
 11
46.0031248852
 21
113.5761479004
 31
0.0
  0
ARC
  5
362
330
1F
100
AcDbEntity
  8
0
  6
SLD-Durchgehend
 62
     7
370
    15
100
AcDbCircle
 10
45.9408376269
 20
113.6800709487
 30
0.0
 40
0.1211598221575559
100
AcDbArc
 50
300.9367618605
 51
59.0632381395
  0
LINE
  5
363
330
1F
100
AcDbEntity
  8
0
  6
SLD-Durchgehend
 62
     7
370
    15
100
AcDbLine
 10
46.0031248852
 20
113.783993997
 30
0.0
 11
45.3663833662
 21
114.1650451886
 31
0.0
  0
ARC
  5
364
330
1F
100
AcDbEntity
  8
0
  6
SLD-Durchgehend
 62
     7
370
    15
100
AcDbCircle
 10
50.1418204269
 20
113.6800709487
 30
0.0
 40
4.800000000000177
100
AcDbArc
 50
170.8290675044
 51
174.2011518152
  0
LINE
  5
365
330
1F
100
AcDbEntity
  8
0
  6
SLD-Durchgehend
 62
     7
370
    15
100
AcDbLine
 10
48.5125438766
 20
118.1950967134
 30
0.0
 11
47.7934744897
 21
118.1950967134
 31
0.0
  0
LINE
  5
366
330
1F
100
AcDbEntity
  8
0
  6
SLD-Durchgehend
 62
     7
370
    15
100
AcDbLine
 10
52.4901663641
 20
118.1950967134
 30
0.0
 11
51.7710969773
 21
118.1950967134
 31
0.0
  0
LINE
  5
367
330
1F
100
AcDbEntity
  8
0
  6
SLD-Durchgehend
 62
     7
370
    15
100
AcDbLine
 10
52.4901663641
 20
109.165045184
 30
0.0
 11
51.7710969773
 21
109.165045184
 31
0.0
  0
LINE
  5
368
330
1F
100
AcDbEntity
  8
0
  6
SLD-Durchgehend
 62
     7
370
    15
100
AcDbLine
 10
48.5125438766
 20
109.165045184
 30
0.0
 11
47.7934744897
 21
109.165045184
 31
0.0
  0
LINE
  5
369
330
1F
100
AcDbEntity
  8
0
  6
SLD-Durchgehend
 62
     7
370
    15
100
AcDbLine
 10
58.4230858124
 20
121.9450968624
 30
0.0
 11
58.1326500735
 21
121.9450968624
 31
0.0
  0
LINE
  5
36A
330
1F
100
AcDbEntity
  8
0
  6
SLD-Durchgehend
 62
     7
370
    15
100
AcDbLine
 10
53.4646992794
 20
121.9450968624
 30
0.0
 11
46.8189415745
 21
121.9450968624
 31
0.0
  0
LINE
  5
36B
330
1F
100
AcDbEntity
  8
0
  6
SLD-Durchgehend
 62
     7
370
    15
100
AcDbLine
 10
42.1509907804
 20
121.9450968624
 30
0.0
 11
41.8605550415
 21
121.9450968624
 31
0.0
  0
LINE
  5
36C
330
1F
100
AcDbEntity
  8
0
  6
SLD-Durchgehend
 62
     7
370
    15
100
AcDbLine
 10
42.1509907804
 20
105.4150450349
 30
0.0
 11
41.8605550415
 21
105.4150450349
 31
0.0
  0
LINE
  5
36D
330
1F
100
AcDbEntity
  8
0
  6
SLD-Durchgehend
 62
     7
370
    15
100
AcDbLine
 10
53.4646992794
 20
105.4150450349
 30
0.0
 11
46.8189415745
 21
105.4150450349
 31
0.0
  0
LINE
  5
36E
330
1F
100
AcDbEntity
  8
0
  6
SLD-Durchgehend
 62
     7
370
    15
100
AcDbLine
 10
58.4230858124
 20
105.4150450349
 30
0.0
 11
58.1326500735
 21
105.4150450349
 31
0.0
  0
LINE
  5
36F
330
1F
100
AcDbEntity
  8
0
  6
SLD-Durchgehend
 62
     7
370
    15
100
AcDbLine
 10
61.4546423069
 20
116.6650452492
 30
0.0
 11
58.0594397373
 21
116.6650452492
 31
0.0
  0
LINE
  5
370
330
1F
100
AcDbEntity
  8
0
  6
SLD-Durchgehend
 62
     7
370
    15
100
AcDbLine
 10
42.2242011166
 20
116.6650452492
 30
0.0
 11
38.828998547
 21
116.6650452492
 31
0.0
  0
LINE
  5
371
330
1F
100
AcDbEntity
  8
0
  6
SLD-Durchgehend
 62
     7
370
    15
100
AcDbLine
 10
61.4546423069
 20
110.6950966482
 30
0.0
 11
58.0594397373
 21
110.6950966482
 31
0.0
  0
LINE
  5
372
330
1F
100
AcDbEntity
  8
0
  6
SLD-Durchgehend
 62
     7
370
    15
100
AcDbLine
 10
42.2242011166
 20
110.6950966482
 30
0.0
 11
38.828998547
 21
110.6950966482
 31
0.0
  0
LINE
  5
373
330
1F
100
AcDbEntity
  8
0
  6
SLD-Durchgehend
 62
     7
370
    15
100
AcDbLine
 10
60.9355473182
 20
118.1950967134
 30
0.0
 11
59.1071832216
 21
118.1950967134
 31
0.0
  0
LINE
  5
374
330
1F
100
AcDbEntity
  8
0
  6
SLD-Durchgehend
 62
     7
370
    15
100
AcDbLine
 10
61.0484692491
 20
109.4450966761
 30
0.0
 11
58.9968391917
 21
109.4450966761
 31
0.0
  0
LINE
  5
375
330
1F
100
AcDbEntity
  8
0
  6
SLD-Durchgehend
 62
     7
370
    15
100
AcDbLine
 10
61.6669959611
 20
115.6950967692
 30
0.0
 11
54.4983867778
 21
115.6950967692
 31
0.0
  0
LINE
  5
376
330
1F
100
AcDbEntity
  8
0
  6
SLD-Durchgehend
 62
     7
370
    15
100
AcDbLine
 10
61.8317646197
 20
113.1950967087
 30
0.0
 11
54.9172574877
 21
113.1950967087
 31
0.0
  0
LINE
  5
377
330
1F
100
AcDbEntity
  8
0
  6
SLD-Durchgehend
 62
     7
370
    15
100
AcDbLine
 10
61.7124668545
 20
115.4150451607
 30
0.0
 11
54.6172938532
 21
115.4150451607
 31
0.0
  0
LINE
  5
378
330
1F
100
AcDbEntity
  8
0
  6
SLD-Durchgehend
 62
     7
370
    15
100
AcDbLine
 10
61.377015639
 20
116.9450967413
 30
0.0
 11
58.3538959957
 21
116.9450967413
 31
0.0
  0
LINE
  5
379
330
1F
100
AcDbEntity
  8
0
  6
SLD-Durchgehend
 62
     7
370
    15
100
AcDbLine
 10
60.3229047022
 20
107.9150449791
 30
0.0
 11
59.2970025948
 21
107.9150449791
 31
0.0
  0
LINE
  5
37A
330
1F
100
AcDbEntity
  8
0
  6
SLD-Durchgehend
 62
     7
370
    15
100
AcDbLine
 10
60.4764732755
 20
108.1950969369
 30
0.0
 11
59.2944517023
 21
108.1950969369
 31
0.0
  0
LINE
  5
37B
330
1F
100
AcDbEntity
  8
0
  6
SLD-Durchgehend
 62
     7
370
    15
100
AcDbLine
 10
61.8167824335
 20
112.9150451583
 30
0.0
 11
54.8804632611
 21
112.9150451583
 31
0.0
  0
LINE
  5
37C
330
1F
100
AcDbEntity
  8
0
  6
SLD-Durchgehend
 62
     7
370
    15
100
AcDbLine
 10
60.4764732755
 20
119.1650449604
 30
0.0
 11
59.2944517023
 21
119.1650449604
 31
0.0
  0
LINE
  5
37D
330
1F
100
AcDbEntity
  8
0
  6
SLD-Durchgehend
 62
     7
370
    15
100
AcDbLine
 10
60.3229047022
 20
119.4450969183
 30
0.0
 11
59.2970025948
 21
119.4450969183
 31
0.0
  0
LINE
  5
37E
330
1F
100
AcDbEntity
  8
0
  6
SLD-Durchgehend
 62
     7
370
    15
100
AcDbLine
 10
61.377015639
 20
110.415045156
 30
0.0
 11
58.3538959957
 21
110.415045156
 31
0.0
  0
LINE
  5
37F
330
1F
100
AcDbEntity
  8
0
  6
SLD-Durchgehend
 62
     7
370
    15
100
AcDbLine
 10
59.7089582345
 20
106.945096732
 30
0.0
 11
59.1284881569
 21
106.945096732
 31
0.0
  0
LINE
  5
380
330
1F
100
AcDbEntity
  8
0
  6
SLD-Durchgehend
 62
     7
370
    15
100
AcDbLine
 10
61.8167824335
 20
114.445096739
 30
0.0
 11
54.8804632611
 21
114.445096739
 31
0.0
  0
LINE
  5
381
330
1F
100
AcDbEntity
  8
0
  6
SLD-Durchgehend
 62
     7
370
    15
100
AcDbLine
 10
61.6669959611
 20
111.6650451281
 30
0.0
 11
54.4983867778
 21
111.6650451281
 31
0.0
  0
LINE
  5
382
330
1F
100
AcDbEntity
  8
0
  6
SLD-Durchgehend
 62
     7
370
    15
100
AcDbLine
 10
61.7124668545
 20
111.9450967367
 30
0.0
 11
54.6172938532
 21
111.9450967367
 31
0.0
  0
LINE
  5
383
330
1F
100
AcDbEntity
  8
0
  6
SLD-Durchgehend
 62
     7
370
    15
100
AcDbLine
 10
61.0484692491
 20
117.9150452212
 30
0.0
 11
58.9968391917
 21
117.9150452212
 31
0.0
  0
LINE
  5
384
330
1F
100
AcDbEntity
  8
0
  6
SLD-Durchgehend
 62
     7
370
    15
100
AcDbLine
 10
60.9355473182
 20
109.165045184
 30
0.0
 11
59.1071832216
 21
109.165045184
 31
0.0
  0
LINE
  5
385
330
1F
100
AcDbEntity
  8
0
  6
SLD-Durchgehend
 62
     7
370
    15
100
AcDbLine
 10
61.8317646197
 20
114.1650451886
 30
0.0
 11
54.9172574877
 21
114.1650451886
 31
0.0
  0
LINE
  5
386
330
1F
100
AcDbEntity
  8
0
  6
SLD-Durchgehend
 62
     7
370
    15
100
AcDbLine
 10
58.6934394426
 20
105.6950965271
 30
0.0
 11
58.4120738543
 21
105.6950965271
 31
0.0
  0
LINE
  5
387
330
1F
100
AcDbEntity
  8
0
  6
SLD-Durchgehend
 62
     7
370
    15
100
AcDbLine
 10
57.3254998065
 20
122.9150451095
 30
0.0
 11
42.9581410474
 21
122.9150451095
 31
0.0
  0
LINE
  5
388
330
1F
100
AcDbEntity
  8
0
  6
SLD-Durchgehend
 62
     7
370
    15
100
AcDbLine
 10
56.9502187184
 20
123.1950966016
 30
0.0
 11
43.3334221355
 21
123.1950966016
 31
0.0
  0
LINE
  5
389
330
1F
100
AcDbEntity
  8
0
  6
SLD-Durchgehend
 62
     7
370
    15
100
AcDbLine
 10
59.5055490024
 20
120.6950966575
 30
0.0
 11
59.0244100652
 21
120.6950966575
 31
0.0
  0
LINE
  5
38A
330
1F
100
AcDbEntity
  8
0
  6
SLD-Durchgehend
 62
     7
370
    15
100
AcDbLine
 10
57.3254998065
 20
104.4450967879
 30
0.0
 11
42.9581410474
 21
104.4450967879
 31
0.0
  0
LINE
  5
38B
330
1F
100
AcDbEntity
  8
0
  6
SLD-Durchgehend
 62
     7
370
    15
100
AcDbLine
 10
56.9502187184
 20
104.1650452957
 30
0.0
 11
43.3334221355
 21
104.1650452957
 31
0.0
  0
LINE
  5
38C
330
1F
100
AcDbEntity
  8
0
  6
SLD-Durchgehend
 62
     7
370
    15
100
AcDbLine
 10
55.3336713686
 20
103.1950970486
 30
0.0
 11
44.9499694853
 21
103.1950970486
 31
0.0
  0
LINE
  5
38D
330
1F
100
AcDbEntity
  8
0
  6
SLD-Durchgehend
 62
     7
370
    15
100
AcDbLine
 10
59.7089582345
 20
120.4150451653
 30
0.0
 11
59.1284881569
 21
120.4150451653
 31
0.0
  0
LINE
  5
38E
330
1F
100
AcDbEntity
  8
0
  6
SLD-Durchgehend
 62
     7
370
    15
100
AcDbLine
 10
59.5055490024
 20
106.6650452398
 30
0.0
 11
59.0244100652
 21
106.6650452398
 31
0.0
  0
LINE
  5
38F
330
1F
100
AcDbEntity
  8
0
  6
SLD-Durchgehend
 62
     7
370
    15
100
AcDbLine
 10
58.6934394426
 20
121.6650453702
 30
0.0
 11
58.4120738543
 21
121.6650453702
 31
0.0
  0
LINE
  5
390
330
1F
100
AcDbEntity
  8
0
  6
SLD-Durchgehend
 62
     7
370
    15
100
AcDbLine
 10
52.6005099285
 20
109.4450966761
 30
0.0
 11
52.4012436847
 21
109.4450966761
 31
0.0
  0
LINE
  5
391
330
1F
100
AcDbEntity
  8
0
  6
SLD-Durchgehend
 62
     7
370
    15
100
AcDbLine
 10
52.3028976507
 20
108.1950969369
 30
0.0
 11
47.9807432032
 21
108.1950969369
 31
0.0
  0
LINE
  5
392
330
1F
100
AcDbEntity
  8
0
  6
SLD-Durchgehend
 62
     7
370
    15
100
AcDbLine
 10
54.7248564883
 20
102.9150455565
 30
0.0
 11
45.5587843656
 21
102.9150455565
 31
0.0
  0
LINE
  5
393
330
1F
100
AcDbEntity
  8
0
  6
SLD-Durchgehend
 62
     7
370
    15
100
AcDbLine
 10
53.185275033
 20
105.6950965271
 30
0.0
 11
47.0983658209
 21
105.6950965271
 31
0.0
  0
LINE
  5
394
330
1F
100
AcDbEntity
  8
0
  6
SLD-Durchgehend
 62
     7
370
    15
100
AcDbLine
 10
52.3003467581
 20
107.9150449791
 30
0.0
 11
47.9832940958
 21
107.9150449791
 31
0.0
  0
LINE
  5
395
330
1F
100
AcDbEntity
  8
0
  6
SLD-Durchgehend
 62
     7
370
    15
100
AcDbLine
 10
53.185275033
 20
121.6650453702
 30
0.0
 11
47.0983658209
 21
121.6650453702
 31
0.0
  0
LINE
  5
396
330
1F
100
AcDbEntity
  8
0
  6
SLD-Durchgehend
 62
     7
370
    15
100
AcDbLine
 10
54.7248564883
 20
124.4450963408
 30
0.0
 11
45.5587843656
 21
124.4450963408
 31
0.0
  0
LINE
  5
397
330
1F
100
AcDbEntity
  8
0
  6
SLD-Durchgehend
 62
     7
370
    15
100
AcDbLine
 10
52.572939055
 20
120.6950966575
 30
0.0
 11
47.7107017989
 21
120.6950966575
 31
0.0
  0
LINE
  5
398
330
1F
100
AcDbEntity
  8
0
  6
SLD-Durchgehend
 62
     7
370
    15
100
AcDbLine
 10
52.6005099285
 20
117.9150452212
 30
0.0
 11
52.4012436847
 21
117.9150452212
 31
0.0
  0
LINE
  5
399
330
1F
100
AcDbEntity
  8
0
  6
SLD-Durchgehend
 62
     7
370
    15
100
AcDbLine
 10
52.3003467581
 20
119.4450969183
 30
0.0
 11
47.9832940958
 21
119.4450969183
 31
0.0
  0
LINE
  5
39A
330
1F
100
AcDbEntity
  8
0
  6
SLD-Durchgehend
 62
     7
370
    15
100
AcDbLine
 10
52.4688611961
 20
120.4150451653
 30
0.0
 11
47.8147796578
 21
120.4150451653
 31
0.0
  0
LINE
  5
39B
330
1F
100
AcDbEntity
  8
0
  6
SLD-Durchgehend
 62
     7
370
    15
100
AcDbLine
 10
52.3028976507
 20
119.1650449604
 30
0.0
 11
47.9807432032
 21
119.1650449604
 31
0.0
  0
LINE
  5
39C
330
1F
100
AcDbEntity
  8
0
  6
SLD-Durchgehend
 62
     7
370
    15
100
AcDbLine
 10
55.3336713686
 20
124.1650448487
 30
0.0
 11
44.9499694853
 21
124.1650448487
 31
0.0
  0
LINE
  5
39D
330
1F
100
AcDbEntity
  8
0
  6
SLD-Durchgehend
 62
     7
370
    15
100
AcDbLine
 10
52.4688611961
 20
106.945096732
 30
0.0
 11
47.8147796578
 21
106.945096732
 31
0.0
  0
LINE
  5
39E
330
1F
100
AcDbEntity
  8
0
  6
SLD-Durchgehend
 62
     7
370
    15
100
AcDbLine
 10
52.572939055
 20
106.6650452398
 30
0.0
 11
47.7107017989
 21
106.6650452398
 31
0.0
  0
LINE
  5
39F
330
1F
100
AcDbEntity
  8
0
  6
SLD-Durchgehend
 62
     7
370
    15
100
AcDbLine
 10
47.8823971692
 20
109.4450966761
 30
0.0
 11
47.6831309254
 21
109.4450966761
 31
0.0
  0
LINE
  5
3A0
330
1F
100
AcDbEntity
  8
0
  6
SLD-Durchgehend
 62
     7
370
    15
100
AcDbLine
 10
47.8823971692
 20
117.9150452212
 30
0.0
 11
47.6831309254
 21
117.9150452212
 31
0.0
  0
LINE
  5
3A1
330
1F
100
AcDbEntity
  8
0
  6
SLD-Durchgehend
 62
     7
370
    15
100
AcDbLine
 10
45.785254076
 20
115.6950967692
 30
0.0
 11
38.6166448928
 21
115.6950967692
 31
0.0
  0
LINE
  5
3A2
330
1F
100
AcDbEntity
  8
0
  6
SLD-Durchgehend
 62
     7
370
    15
100
AcDbLine
 10
45.3663833662
 20
113.1950967087
 30
0.0
 11
38.4518762342
 21
113.1950967087
 31
0.0
  0
LINE
  5
3A3
330
1F
100
AcDbEntity
  8
0
  6
SLD-Durchgehend
 62
     7
370
    15
100
AcDbLine
 10
45.4031775928
 20
112.9150451583
 30
0.0
 11
38.4668584204
 21
112.9150451583
 31
0.0
  0
LINE
  5
3A4
330
1F
100
AcDbEntity
  8
0
  6
SLD-Durchgehend
 62
     7
370
    15
100
AcDbLine
 10
45.6663470007
 20
115.4150451607
 30
0.0
 11
38.5711739994
 21
115.4150451607
 31
0.0
  0
LINE
  5
3A5
330
1F
100
AcDbEntity
  8
0
  6
SLD-Durchgehend
 62
     7
370
    15
100
AcDbLine
 10
45.4031775928
 20
114.445096739
 30
0.0
 11
38.4668584204
 21
114.445096739
 31
0.0
  0
LINE
  5
3A6
330
1F
100
AcDbEntity
  8
0
  6
SLD-Durchgehend
 62
     7
370
    15
100
AcDbLine
 10
45.6663470007
 20
111.9450967367
 30
0.0
 11
38.5711739994
 21
111.9450967367
 31
0.0
  0
LINE
  5
3A7
330
1F
100
AcDbEntity
  8
0
  6
SLD-Durchgehend
 62
     7
370
    15
100
AcDbLine
 10
45.785254076
 20
111.6650451281
 30
0.0
 11
38.6166448928
 21
111.6650451281
 31
0.0
  0
LINE
  5
3A8
330
1F
100
AcDbEntity
  8
0
  6
SLD-Durchgehend
 62
     7
370
    15
100
AcDbLine
 10
45.3663833662
 20
114.1650451886
 30
0.0
 11
38.4518762342
 21
114.1650451886
 31
0.0
  0
LINE
  5
3A9
330
1F
100
AcDbEntity
  8
0
  6
SLD-Durchgehend
 62
     7
370
    15
100
AcDbLine
 10
41.2592307887
 20
120.6950966575
 30
0.0
 11
40.7780918515
 21
120.6950966575
 31
0.0
  0
LINE
  5
3AA
330
1F
100
AcDbEntity
  8
0
  6
SLD-Durchgehend
 62
     7
370
    15
100
AcDbLine
 10
41.9297448582
 20
110.415045156
 30
0.0
 11
38.9066252149
 21
110.415045156
 31
0.0
  0
LINE
  5
3AB
330
1F
100
AcDbEntity
  8
0
  6
SLD-Durchgehend
 62
     7
370
    15
100
AcDbLine
 10
41.8715669996
 20
121.6650453702
 30
0.0
 11
41.5902014113
 21
121.6650453702
 31
0.0
  0
LINE
  5
3AC
330
1F
100
AcDbEntity
  8
0
  6
SLD-Durchgehend
 62
     7
370
    15
100
AcDbLine
 10
40.9891891516
 20
108.1950969369
 30
0.0
 11
39.8071675784
 21
108.1950969369
 31
0.0
  0
LINE
  5
3AD
330
1F
100
AcDbEntity
  8
0
  6
SLD-Durchgehend
 62
     7
370
    15
100
AcDbLine
 10
40.9866382591
 20
107.9150449791
 30
0.0
 11
39.9607361517
 21
107.9150449791
 31
0.0
  0
LINE
  5
3AE
330
1F
100
AcDbEntity
  8
0
  6
SLD-Durchgehend
 62
     7
370
    15
100
AcDbLine
 10
41.155152697
 20
106.945096732
 30
0.0
 11
40.5746826193
 21
106.945096732
 31
0.0
  0
LINE
  5
3AF
330
1F
100
AcDbEntity
  8
0
  6
SLD-Durchgehend
 62
     7
370
    15
100
AcDbLine
 10
41.1764576322
 20
118.1950967134
 30
0.0
 11
39.3480935357
 21
118.1950967134
 31
0.0
  0
LINE
  5
3B0
330
1F
100
AcDbEntity
  8
0
  6
SLD-Durchgehend
 62
     7
370
    15
100
AcDbLine
 10
40.9866382591
 20
119.4450969183
 30
0.0
 11
39.9607361517
 21
119.4450969183
 31
0.0
  0
LINE
  5
3B1
330
1F
100
AcDbEntity
  8
0
  6
SLD-Durchgehend
 62
     7
370
    15
100
AcDbLine
 10
41.2868016622
 20
109.4450966761
 30
0.0
 11
39.2351716048
 21
109.4450966761
 31
0.0
  0
LINE
  5
3B2
330
1F
100
AcDbEntity
  8
0
  6
SLD-Durchgehend
 62
     7
370
    15
100
AcDbLine
 10
41.8715669996
 20
105.6950965271
 30
0.0
 11
41.5902014113
 21
105.6950965271
 31
0.0
  0
LINE
  5
3B3
330
1F
100
AcDbEntity
  8
0
  6
SLD-Durchgehend
 62
     7
370
    15
100
AcDbLine
 10
41.1764576322
 20
109.165045184
 30
0.0
 11
39.3480935357
 21
109.165045184
 31
0.0
  0
LINE
  5
3B4
330
1F
100
AcDbEntity
  8
0
  6
SLD-Durchgehend
 62
     7
370
    15
100
AcDbLine
 10
41.155152697
 20
120.4150451653
 30
0.0
 11
40.5746826193
 21
120.4150451653
 31
0.0
  0
LINE
  5
3B5
330
1F
100
AcDbEntity
  8
0
  6
SLD-Durchgehend
 62
     7
370
    15
100
AcDbLine
 10
41.9297448582
 20
116.9450967413
 30
0.0
 11
38.9066252149
 21
116.9450967413
 31
0.0
  0
LINE
  5
3B6
330
1F
100
AcDbEntity
  8
0
  6
SLD-Durchgehend
 62
     7
370
    15
100
AcDbLine
 10
41.2592307887
 20
106.6650452398
 30
0.0
 11
40.7780918515
 21
106.6650452398
 31
0.0
  0
LINE
  5
3B7
330
1F
100
AcDbEntity
  8
0
  6
SLD-Durchgehend
 62
     7
370
    15
100
AcDbLine
 10
41.2868016622
 20
117.9150452212
 30
0.0
 11
39.2351716048
 21
117.9150452212
 31
0.0
  0
LINE
  5
3B8
330
1F
100
AcDbEntity
  8
0
  6
SLD-Durchgehend
 62
     7
370
    15
100
AcDbLine
 10
40.9891891516
 20
119.1650449604
 30
0.0
 11
39.8071675784
 21
119.1650449604
 31
0.0
  0
CIRCLE
  5
3B9
330
1F
100
AcDbEntity
  8
0
  6
SLD-Durchgehend
 62
     7
370
    15
100
AcDbCircle
 10
50.1418204269
 20
113.6800709487
 30
0.0
 40
3.300000000000011
  0
CIRCLE
  5
3BA
330
1F
100
AcDbEntity
  8
0
  6
SLD-Durchgehend
 62
     7
370
    15
100
AcDbCircle
 10
50.1418204269
 20
113.6800709487
 30
0.0
 40
2.999999999999986
  0
CIRCLE
  5
3BB
330
1F
100
AcDbEntity
  8
0
  6
SLD-Durchgehend
 62
     7
370
    15
100
AcDbCircle
 10
50.1418204269
 20
113.6800709487
 30
0.0
 40
31.5
  0
LINE
  5
3BC
330
1F
100
AcDbEntity
  8
0
  6
SLD-Durchgehend
 62
     7
370
    15
100
AcDbLine
 10
44.0799018591
 20
109.7493695401
 30
0.0
 11
42.7875418439
 21
108.5354972006
 31
0.0
  0
LINE
  5
3BD
330
1F
100
AcDbEntity
  8
0
  6
SLD-Durchgehend
 62
     7
370
    15
100
AcDbLine
 10
42.7875418439
 20
108.5354972006
 30
0.0
 11
43.1926061622
 21
106.8093443596
 31
0.0
  0
LINE
  5
3BE
330
1F
100
AcDbEntity
  8
0
  6
SLD-Durchgehend
 62
     7
370
    15
100
AcDbLine
 10
44.8900304957
 20
106.2970638581
 30
0.0
 11
43.1926061622
 21
106.8093443596
 31
0.0
  0
LINE
  5
3BF
330
1F
100
AcDbEntity
  8
0
  6
SLD-Durchgehend
 62
     7
370
    15
100
AcDbLine
 10
46.1823905109
 20
107.5109361977
 30
0.0
 11
44.8900304957
 21
106.2970638581
 31
0.0
  0
LINE
  5
3C0
330
1F
100
AcDbEntity
  8
0
  6
SLD-Durchgehend
 62
     7
370
    15
100
AcDbLine
 10
46.1823905109
 20
107.5109361977
 30
0.0
 11
45.7773261926
 21
109.2370890387
 31
0.0
  0
LINE
  5
3C1
330
1F
100
AcDbEntity
  8
0
  6
SLD-Durchgehend
 62
     7
370
    15
100
AcDbLine
 10
44.0799018591
 20
109.7493695401
 30
0.0
 11
45.7773261926
 21
109.2370890387
 31
0.0
  0
CIRCLE
  5
3C2
330
1F
100
AcDbEntity
  8
0
  6
SLD-Durchgehend
 62
     7
370
    15
100
AcDbCircle
 10
44.4849661774
 20
108.0232166992
 30
0.0
 40
3.500000000000002
  0
ARC
  5
3C3
330
1F
100
AcDbEntity
  8
0
  6
SLD-Durchgehend
 62
     7
370
    15
100
AcDbCircle
 10
44.4849661774
 20
108.0232166992
 30
0.0
 40
1.535500000000019
100
AcDbArc
 50
253.2062589409
 51
313.2062589409
  0
ARC
  5
3C4
330
1F
100
AcDbEntity
  8
0
  6
SLD-Durchgehend
 62
     7
370
    15
100
AcDbCircle
 10
44.4849661774
 20
108.0232166992
 30
0.0
 40
1.535500000000019
100
AcDbArc
 50
313.2062589409
 51
13.2062589409
  0
ARC
  5
3C5
330
1F
100
AcDbEntity
  8
0
  6
SLD-Durchgehend
 62
     7
370
    15
100
AcDbCircle
 10
44.4849661774
 20
108.0232166992
 30
0.0
 40
1.53549999999999
100
AcDbArc
 50
73.2062589409
 51
133.2062589409
  0
ARC
  5
3C6
330
1F
100
AcDbEntity
  8
0
  6
SLD-Durchgehend
 62
     7
370
    15
100
AcDbCircle
 10
44.4849661774
 20
108.0232166992
 30
0.0
 40
1.535500000000017
100
AcDbArc
 50
193.2062589409
 51
253.2062589409
  0
ARC
  5
3C7
330
1F
100
AcDbEntity
  8
0
  6
SLD-Durchgehend
 62
     7
370
    15
100
AcDbCircle
 10
44.4849661774
 20
108.0232166992
 30
0.0
 40
1.535500000000006
100
AcDbArc
 50
133.2062589409
 51
193.2062589409
  0
ARC
  5
3C8
330
1F
100
AcDbEntity
  8
0
  6
SLD-Durchgehend
 62
     7
370
    15
100
AcDbCircle
 10
44.4849661774
 20
108.0232166992
 30
0.0
 40
1.535500000000003
100
AcDbArc
 50
13.2062589409
 51
73.2062589409
  0
CIRCLE
  5
3C9
330
1F
100
AcDbEntity
  8
0
  6
SLD-Durchgehend
 62
     7
370
    15
100
AcDbCircle
 10
44.4849661774
 20
119.3369251982
 30
0.0
 40
3.499999999999995
  0
LINE
  5
3CA
330
1F
100
AcDbEntity
  8
0
  6
SLD-Durchgehend
 62
     7
370
    15
100
AcDbLine
 10
46.1398309319
 20
118.7004481748
 30
0.0
 11
45.8636039159
 21
120.4518417203
 31
0.0
  0
LINE
  5
3CB
330
1F
100
AcDbEntity
  8
0
  6
SLD-Durchgehend
 62
     7
370
    15
100
AcDbLine
 10
45.8636039159
 20
120.4518417203
 30
0.0
 11
44.2087386957
 21
121.0883187436
 31
0.0
  0
LINE
  5
3CC
330
1F
100
AcDbEntity
  8
0
  6
SLD-Durchgehend
 62
     7
370
    15
100
AcDbLine
 10
42.8301014229
 20
119.9734022216
 30
0.0
 11
44.2087386957
 21
121.0883187436
 31
0.0
  0
LINE
  5
3CD
330
1F
100
AcDbEntity
  8
0
  6
SLD-Durchgehend
 62
     7
370
    15
100
AcDbLine
 10
43.1063284389
 20
118.2220086761
 30
0.0
 11
42.8301014229
 21
119.9734022216
 31
0.0
  0
LINE
  5
3CE
330
1F
100
AcDbEntity
  8
0
  6
SLD-Durchgehend
 62
     7
370
    15
100
AcDbLine
 10
43.1063284389
 20
118.2220086761
 30
0.0
 11
44.7611936591
 21
117.5855318856
 31
0.0
  0
LINE
  5
3CF
330
1F
100
AcDbEntity
  8
0
  6
SLD-Durchgehend
 62
     7
370
    15
100
AcDbLine
 10
46.1398309319
 20
118.7004481748
 30
0.0
 11
44.7611936591
 21
117.5855318856
 31
0.0
  0
ARC
  5
3D0
330
1F
100
AcDbEntity
  8
0
  6
SLD-Durchgehend
 62
     7
370
    15
100
AcDbCircle
 10
44.4849661774
 20
119.3369251982
 30
0.0
 40
1.535500000000004
100
AcDbArc
 50
8.9627788002
 51
68.9627788002
  0
ARC
  5
3D1
330
1F
100
AcDbEntity
  8
0
  6
SLD-Durchgehend
 62
     7
370
    15
100
AcDbCircle
 10
44.4849661774
 20
119.3369251982
 30
0.0
 40
1.5355
100
AcDbArc
 50
308.9627788002
 51
8.9627788002
  0
ARC
  5
3D2
330
1F
100
AcDbEntity
  8
0
  6
SLD-Durchgehend
 62
     7
370
    15
100
AcDbCircle
 10
44.4849661774
 20
119.3369251982
 30
0.0
 40
1.5355
100
AcDbArc
 50
248.9627788002
 51
308.9627788002
  0
ARC
  5
3D3
330
1F
100
AcDbEntity
  8
0
  6
SLD-Durchgehend
 62
     7
370
    15
100
AcDbCircle
 10
44.4849661774
 20
119.3369251982
 30
0.0
 40
1.535500000000007
100
AcDbArc
 50
188.9627788002
 51
248.9627788002
  0
ARC
  5
3D4
330
1F
100
AcDbEntity
  8
0
  6
SLD-Durchgehend
 62
     7
370
    15
100
AcDbCircle
 10
44.4849661774
 20
119.3369251982
 30
0.0
 40
1.535500000000007
100
AcDbArc
 50
128.9627788002
 51
188.9627788002
  0
ARC
  5
3D5
330
1F
100
AcDbEntity
  8
0
  6
SLD-Durchgehend
 62
     7
370
    15
100
AcDbCircle
 10
44.4849661774
 20
119.3369251982
 30
0.0
 40
1.535500000000004
100
AcDbArc
 50
68.9627788002
 51
128.9627788002
  0
CIRCLE
  5
3D6
330
1F
100
AcDbEntity
  8
0
  6
SLD-Durchgehend
 62
     7
370
    15
100
AcDbCircle
 10
55.7986746764
 20
108.0232166992
 30
0.0
 40
3.5
  0
LINE
  5
3D7
330
1F
100
AcDbEntity
  8
0
  6
SLD-Durchgehend
 62
     7
370
    15
100
AcDbLine
 10
56.7979530654
 20
106.5585927413
 30
0.0
 11
57.5667151473
 21
108.156305489
 31
0.0
  0
LINE
  5
3D8
330
1F
100
AcDbEntity
  8
0
  6
SLD-Durchgehend
 62
     7
370
    15
100
AcDbLine
 10
57.5667151473
 20
108.156305489
 30
0.0
 11
56.5674367583
 21
109.6209289812
 31
0.0
  0
LINE
  5
3D9
330
1F
100
AcDbEntity
  8
0
  6
SLD-Durchgehend
 62
     7
370
    15
100
AcDbLine
 10
54.7993962876
 20
109.487840657
 30
0.0
 11
56.5674367583
 21
109.6209289812
 31
0.0
  0
LINE
  5
3DA
330
1F
100
AcDbEntity
  8
0
  6
SLD-Durchgehend
 62
     7
370
    15
100
AcDbLine
 10
54.0306339729
 20
107.8901279092
 30
0.0
 11
54.7993962876
 21
109.487840657
 31
0.0
  0
LINE
  5
3DB
330
1F
100
AcDbEntity
  8
0
  6
SLD-Durchgehend
 62
     7
370
    15
100
AcDbLine
 10
54.0306339729
 20
107.8901279092
 30
0.0
 11
55.0299125946
 21
106.425504417
 31
0.0
  0
LINE
  5
3DC
330
1F
100
AcDbEntity
  8
0
  6
SLD-Durchgehend
 62
     7
370
    15
100
AcDbLine
 10
56.7979530654
 20
106.5585927413
 30
0.0
 11
55.0299125946
 21
106.425504417
 31
0.0
  0
ARC
  5
3DD
330
1F
100
AcDbEntity
  8
0
  6
SLD-Durchgehend
 62
     7
370
    15
100
AcDbCircle
 10
55.7986746764
 20
108.0232166992
 30
0.0
 40
1.535499999999996
100
AcDbArc
 50
154.3048024535
 51
214.3048024535
  0
ARC
  5
3DE
330
1F
100
AcDbEntity
  8
0
  6
SLD-Durchgehend
 62
     7
370
    15
100
AcDbCircle
 10
55.7986746764
 20
108.0232166992
 30
0.0
 40
1.535499999999996
100
AcDbArc
 50
94.3048024535
 51
154.3048024535
  0
ARC
  5
3DF
330
1F
100
AcDbEntity
  8
0
  6
SLD-Durchgehend
 62
     7
370
    15
100
AcDbCircle
 10
55.7986746764
 20
108.0232166992
 30
0.0
 40
1.535500000000007
100
AcDbArc
 50
34.3048024535
 51
94.3048024535
  0
ARC
  5
3E0
330
1F
100
AcDbEntity
  8
0
  6
SLD-Durchgehend
 62
     7
370
    15
100
AcDbCircle
 10
55.7986746764
 20
108.0232166992
 30
0.0
 40
1.535500000000007
100
AcDbArc
 50
334.3048024535
 51
34.3048024535
  0
ARC
  5
3E1
330
1F
100
AcDbEntity
  8
0
  6
SLD-Durchgehend
 62
     7
370
    15
100
AcDbCircle
 10
55.7986746764
 20
108.0232166992
 30
0.0
 40
1.535500000000003
100
AcDbArc
 50
274.3048024535
 51
334.3048024535
  0
ARC
  5
3E2
330
1F
100
AcDbEntity
  8
0
  6
SLD-Durchgehend
 62
     7
370
    15
100
AcDbCircle
 10
55.7986746764
 20
108.0232166992
 30
0.0
 40
1.535500000000002
100
AcDbArc
 50
214.3048024535
 51
274.3048024535
  0
CIRCLE
  5
3E3
330
1F
100
AcDbEntity
  8
0
  6
SLD-Durchgehend
 62
     7
370
    15
100
AcDbCircle
 10
55.7986746764
 20
119.3369251982
 30
0.0
 40
3.499999999999999
  0
LINE
  5
3E4
330
1F
100
AcDbEntity
  8
0
  6
SLD-Durchgehend
 62
     7
370
    15
100
AcDbLine
 10
55.8954800702
 20
121.1073233121
 30
0.0
 11
54.3138675614
 21
120.3059602835
 31
0.0
  0
LINE
  5
3E5
330
1F
100
AcDbEntity
  8
0
  6
SLD-Durchgehend
 62
     7
370
    15
100
AcDbLine
 10
54.3138675614
 20
120.3059602835
 30
0.0
 11
54.2170621677
 21
118.5355621696
 31
0.0
  0
LINE
  5
3E6
330
1F
100
AcDbEntity
  8
0
  6
SLD-Durchgehend
 62
     7
370
    15
100
AcDbLine
 10
55.7018692828
 20
117.5665273172
 30
0.0
 11
54.2170621677
 21
118.5355621696
 31
0.0
  0
LINE
  5
3E7
330
1F
100
AcDbEntity
  8
0
  6
SLD-Durchgehend
 62
     7
370
    15
100
AcDbLine
 10
57.2834817915
 20
118.3678901129
 30
0.0
 11
55.7018692828
 21
117.5665273172
 31
0.0
  0
LINE
  5
3E8
330
1F
100
AcDbEntity
  8
0
  6
SLD-Durchgehend
 62
     7
370
    15
100
AcDbLine
 10
57.2834817915
 20
118.3678901129
 30
0.0
 11
57.3802871852
 21
120.1382882268
 31
0.0
  0
LINE
  5
3E9
330
1F
100
AcDbEntity
  8
0
  6
SLD-Durchgehend
 62
     7
370
    15
100
AcDbLine
 10
55.8954800702
 20
121.1073233121
 30
0.0
 11
57.3802871852
 21
120.1382882268
 31
0.0
  0
ARC
  5
3EA
330
1F
100
AcDbEntity
  8
0
  6
SLD-Durchgehend
 62
     7
370
    15
100
AcDbCircle
 10
55.7986746764
 20
119.3369251982
 30
0.0
 40
1.535499999999997
100
AcDbArc
 50
296.8701833941
 51
356.8701833941
  0
ARC
  5
3EB
330
1F
100
AcDbEntity
  8
0
  6
SLD-Durchgehend
 62
     7
370
    15
100
AcDbCircle
 10
55.7986746764
 20
119.3369251982
 30
0.0
 40
1.535500000000003
100
AcDbArc
 50
236.8701833941
 51
296.8701833941
  0
ARC
  5
3EC
330
1F
100
AcDbEntity
  8
0
  6
SLD-Durchgehend
 62
     7
370
    15
100
AcDbCircle
 10
55.7986746764
 20
119.3369251982
 30
0.0
 40
1.535500000000003
100
AcDbArc
 50
176.8701833941
 51
236.8701833941
  0
ARC
  5
3ED
330
1F
100
AcDbEntity
  8
0
  6
SLD-Durchgehend
 62
     7
370
    15
100
AcDbCircle
 10
55.7986746764
 20
119.3369251982
 30
0.0
 40
1.535500000000002
100
AcDbArc
 50
116.8701833941
 51
176.8701833941
  0
ARC
  5
3EE
330
1F
100
AcDbEntity
  8
0
  6
SLD-Durchgehend
 62
     7
370
    15
100
AcDbCircle
 10
55.7986746764
 20
119.3369251982
 30
0.0
 40
1.535499999999997
100
AcDbArc
 50
56.8701833941
 51
116.8701833941
  0
ARC
  5
3EF
330
1F
100
AcDbEntity
  8
0
  6
SLD-Durchgehend
 62
     7
370
    15
100
AcDbCircle
 10
55.7986746764
 20
119.3369251982
 30
0.0
 40
1.535499999999996
100
AcDbArc
 50
356.8701833941
 51
56.8701833941
  0
INSERT
  5
3FB
330
1F
100
AcDbEntity
  8
VERMASSUNG
100
AcDbBlockReference
  2
SW_CENTERMARKSYMBOL_0
 10
50.1418204269
 20
113.6800709487
 30
0.0
  0
OLE2FRAME
  5
3FC
330
1F
100
AcDbEntity
  8
0
100
AcDbOle2Frame
 70
     2
  3
Paintbrush-Bild
 10
13.8511154363
 20
38.264191557
 30
0.0
 11
51.6290888628
 21
31.9806341108
 31
0.0
 71
     2
 72
     0
 73
     1
 90
    12928
310
80552BED0767C5B32B40DDAF6807D121434000000000000000006FFBDDFB85D0
310
4940DDAF6807D121434000000000000000006FFBDDFB85D04940416F4BD60AFB
310
3F4000000000000000002BED0767C5B32B40416F4BD60AFB3F40000000000000
310
0000000000000100000000010000010000000100000000000100000000320000
310
D0CF11E0A1B11AE1000000000000000000000000000000003E000300FEFF0900
310
0600000000000000000000000100000001000000000000000010000002000000
310
01000000FEFFFFFF0000000000000000FFFFFFFFFFFFFFFFFFFFFFFFFFFFFFFF
310
FFFFFFFFFFFFFFFFFFFFFFFFFFFFFFFFFFFFFFFFFFFFFFFFFFFFFFFFFFFFFFFF
310
FFFFFFFFFFFFFFFFFFFFFFFFFFFFFFFFFFFFFFFFFFFFFFFFFFFFFFFFFFFFFFFF
310
FFFFFFFFFFFFFFFFFFFFFFFFFFFFFFFFFFFFFFFFFFFFFFFFFFFFFFFFFFFFFFFF
310
FFFFFFFFFFFFFFFFFFFFFFFFFFFFFFFFFFFFFFFFFFFFFFFFFFFFFFFFFFFFFFFF
310
FFFFFFFFFFFFFFFFFFFFFFFFFFFFFFFFFFFFFFFFFFFFFFFFFFFFFFFFFFFFFFFF
310
FFFFFFFFFFFFFFFFFFFFFFFFFFFFFFFFFFFFFFFFFFFFFFFFFFFFFFFFFFFFFFFF
310
FFFFFFFFFFFFFFFFFFFFFFFFFFFFFFFFFFFFFFFFFFFFFFFFFFFFFFFFFFFFFFFF
310
FFFFFFFFFFFFFFFFFFFFFFFFFFFFFFFFFFFFFFFFFFFFFFFFFFFFFFFFFFFFFFFF
310
FFFFFFFFFFFFFFFFFFFFFFFFFFFFFFFFFFFFFFFFFFFFFFFFFFFFFFFFFFFFFFFF
310
FFFFFFFFFFFFFFFFFFFFFFFFFFFFFFFFFFFFFFFFFFFFFFFFFFFFFFFFFFFFFFFF
310
FFFFFFFFFFFFFFFFFFFFFFFFFFFFFFFFFFFFFFFFFFFFFFFFFFFFFFFFFFFFFFFF
310
FFFFFFFFFFFFFFFFFFFFFFFFFFFFFFFFFFFFFFFFFFFFFFFFFFFFFFFFFFFFFFFF
310
FFFFFFFFFFFFFFFFFFFFFFFFFFFFFFFFFFFFFFFFFFFFFFFFFFFFFFFFFFFFFFFF
310
FDFFFFFFFEFFFFFFFEFFFFFFFEFFFFFF05000000060000000700000008000000
310
090000000A0000000B0000000C0000000D0000000E0000000F00000010000000
310
11000000120000001300000014000000150000001600000017000000FEFFFFFF
310
FFFFFFFFFFFFFFFFFFFFFFFFFFFFFFFFFFFFFFFFFFFFFFFFFFFFFFFFFFFFFFFF
310
FFFFFFFFFFFFFFFFFFFFFFFFFFFFFFFFFFFFFFFFFFFFFFFFFFFFFFFFFFFFFFFF
310
FFFFFFFFFFFFFFFFFFFFFFFFFFFFFFFFFFFFFFFFFFFFFFFFFFFFFFFFFFFFFFFF
310
FFFFFFFFFFFFFFFFFFFFFFFFFFFFFFFFFFFFFFFFFFFFFFFFFFFFFFFFFFFFFFFF
310
FFFFFFFFFFFFFFFFFFFFFFFFFFFFFFFFFFFFFFFFFFFFFFFFFFFFFFFFFFFFFFFF
310
FFFFFFFFFFFFFFFFFFFFFFFFFFFFFFFFFFFFFFFFFFFFFFFFFFFFFFFFFFFFFFFF
310
FFFFFFFFFFFFFFFFFFFFFFFFFFFFFFFFFFFFFFFFFFFFFFFFFFFFFFFFFFFFFFFF
310
FFFFFFFFFFFFFFFFFFFFFFFFFFFFFFFFFFFFFFFFFFFFFFFFFFFFFFFFFFFFFFFF
310
FFFFFFFFFFFFFFFFFFFFFFFFFFFFFFFFFFFFFFFFFFFFFFFFFFFFFFFFFFFFFFFF
310
FFFFFFFFFFFFFFFFFFFFFFFFFFFFFFFFFFFFFFFFFFFFFFFFFFFFFFFFFFFFFFFF
310
FFFFFFFFFFFFFFFFFFFFFFFFFFFFFFFFFFFFFFFFFFFFFFFFFFFFFFFFFFFFFFFF
310
FFFFFFFFFFFFFFFFFFFFFFFFFFFFFFFFFFFFFFFFFFFFFFFFFFFFFFFFFFFFFFFF
310
FFFFFFFFFFFFFFFFFFFFFFFFFFFFFFFFFFFFFFFFFFFFFFFFFFFFFFFFFFFFFFFF
310
52006F006F007400200045006E00740072007900000000000000000000000000
310
0000000000000000000000000000000000000000000000000000000000000000
310
16000500FFFFFFFFFFFFFFFF020000000A00030000000000C000000000000046
310
000000000000000000000000C0D25FD19F88D00103000000C000000000000000
310
01004F006C006500000000000000000000000000000000000000000000000000
310
0000000000000000000000000000000000000000000000000000000000000000
310
0A000200FFFFFFFFFFFFFFFFFFFFFFFF00000000000000000000000000000000
310
0000000000000000000000000000000000000000000000001400000000000000
310
010043006F006D0070004F0062006A0000000000000000000000000000000000
310
0000000000000000000000000000000000000000000000000000000000000000
310
120002010100000003000000FFFFFFFF00000000000000000000000000000000
310
0000000000000000000000000000000000000000010000004D00000000000000
310
01004F006C006500310030004E00610074006900760065000000000000000000
310
0000000000000000000000000000000000000000000000000000000000000000
310
1A000200FFFFFFFFFFFFFFFFFFFFFFFF00000000000000000000000000000000
310
0000000000000000000000000000000000000000040000002426000000000000
310
FEFFFFFF02000000FEFFFFFFFFFFFFFFFFFFFFFFFFFFFFFFFFFFFFFFFFFFFFFF
310
FFFFFFFFFFFFFFFFFFFFFFFFFFFFFFFFFFFFFFFFFFFFFFFFFFFFFFFFFFFFFFFF
310
FFFFFFFFFFFFFFFFFFFFFFFFFFFFFFFFFFFFFFFFFFFFFFFFFFFFFFFFFFFFFFFF
310
FFFFFFFFFFFFFFFFFFFFFFFFFFFFFFFFFFFFFFFFFFFFFFFFFFFFFFFFFFFFFFFF
310
FFFFFFFFFFFFFFFFFFFFFFFFFFFFFFFFFFFFFFFFFFFFFFFFFFFFFFFFFFFFFFFF
310
FFFFFFFFFFFFFFFFFFFFFFFFFFFFFFFFFFFFFFFFFFFFFFFFFFFFFFFFFFFFFFFF
310
FFFFFFFFFFFFFFFFFFFFFFFFFFFFFFFFFFFFFFFFFFFFFFFFFFFFFFFFFFFFFFFF
310
FFFFFFFFFFFFFFFFFFFFFFFFFFFFFFFFFFFFFFFFFFFFFFFFFFFFFFFFFFFFFFFF
310
FFFFFFFFFFFFFFFFFFFFFFFFFFFFFFFFFFFFFFFFFFFFFFFFFFFFFFFFFFFFFFFF
310
FFFFFFFFFFFFFFFFFFFFFFFFFFFFFFFFFFFFFFFFFFFFFFFFFFFFFFFFFFFFFFFF
310
FFFFFFFFFFFFFFFFFFFFFFFFFFFFFFFFFFFFFFFFFFFFFFFFFFFFFFFFFFFFFFFF
310
FFFFFFFFFFFFFFFFFFFFFFFFFFFFFFFFFFFFFFFFFFFFFFFFFFFFFFFFFFFFFFFF
310
FFFFFFFFFFFFFFFFFFFFFFFFFFFFFFFFFFFFFFFFFFFFFFFFFFFFFFFFFFFFFFFF
310
FFFFFFFFFFFFFFFFFFFFFFFFFFFFFFFFFFFFFFFFFFFFFFFFFFFFFFFFFFFFFFFF
310
FFFFFFFFFFFFFFFFFFFFFFFFFFFFFFFFFFFFFFFFFFFFFFFFFFFFFFFFFFFFFFFF
310
FFFFFFFFFFFFFFFFFFFFFFFFFFFFFFFFFFFFFFFFFFFFFFFFFFFFFFFFFFFFFFFF
310
0100000200000000000000000000000000000000000000000000000000000000
310
0000000000000000000000000000000000000000000000000000000000000000
310
0100FEFF030A0000FFFFFFFF0A00030000000000C00000000000004607000000
310
5042727573680007000000504272757368000700000050427275736800F439B2
310
7100000000000000000000000000000000000000000000000000000000000000
310
0000000000000000000000000000000000000000000000000000000000000000
310
0000000000000000000000000000000000000000000000000000000000000000
310
0000000000000000000000000000000000000000000000000000000000000000
310
0000000000000000000000000000000000000000000000000000000000000000
310
0000000000000000000000000000000000000000000000000000000000000000
310
0000000000000000000000000000000000000000000000000000000000000000
310
0000000000000000000000000000000000000000000000000000000000000000
310
0000000000000000000000000000000000000000000000000000000000000000
310
0000000000000000000000000000000000000000000000000000000000000000
310
0000000000000000000000000000000000000000000000000000000000000000
310
0000000000000000000000000000000000000000000000000000000000000000
310
20260000424D0E260000000000003E00000028000000B40200006E0000000100
310
01000000000000000000130B0000130B00000200000002000000000000FFFFFF
310
FFFFFFFFFFFFFFFFFFFFFFFFFFFFFFFFFFFFFFFFFFFFFFFFFFFFFFFFFFFFFFFF
310
FFFFFFFFFFFFFFFFFFFFFFFFFFFFFFFFFFFFFFFFFFFFFFFFFFFFFFFFFFFFFFFF
310
FFFFFFFFFFFFFFFFFFFFFFFFFFFFFFFFFFFFFFFFFFFFFFFFF000FFFFFFFFFFFF
310
FFFFFFFFFFFFFFFFFFFFFFFFFFFFFFFFFFFFFFFFFFFFFFFFFFFFFFFFFFFFFFFF
310
FFFFFFFFFFFFFFFFFFFFFFFFFFFFFFFFFFFFFFFFFFFFFFFFFFFFFFFFFFFFFFFF
310
FFFFFFFFFFFFFFFFFFFFFFFFFFFFFFFFF000FFFFFFFFFFFFFFFFFFFFFFFFFFFF
310
FFFFFFFFFFFFFFFFFFFFFFFFFFFFFFFFFFFFFFFFFFFFFFFFFFFFFFFFFFFFFFFF
310
FFFFFFFFFFFFFFFFFFFFFFFFFFFFFFFFFFFFFFFFFFFFFFFFFFFFFFFFFFFFFFFF
310
FFFFFFFFFFFFFFFFF000FFFFFFFFFFFFFFFFFFFFFFFFFFFFFFFFFFFFFFFFFFFF
310
FFFFFFFFFFFFFFFFFFFFFFFFFFFFFFFFFFFFFFFFFFFFFFFFFFFFFFFFFFFFFFFF
310
FFFFFFFFFFFFFFFFFFFFFFFFFFFFFFFFFFFFFFFFFFFFFFFFFFFFFFFFFFFFFFFF
310
F000FFFFFFFFFFFFFFFFFFFFFFFFFFFFFFFFFFFFFFFFFFFFFFFFFFFFFFFFFFFF
310
FFFFFFFFFFFFFFFFFFFFFFFFFFFFFFFFFFFFFFFFFFFFFFFFFFFFFFFFFFFFFFFF
310
FFFFFFFFFFFFFFFFFFFFFFFFFFFFFFFFFFFFFFFFFFFFFFFFF000FFFFFFFFFFFF
310
FFFFFFFFFFFFFFFFFFFFFFFFFFFFFFFFFFFFFFFFFFFFFFFFFFFFFFFFFFFFFFFF
310
FFFFFFFFFFFFFFFFFFFFFFFFFFFFFFFFFFFFFFFFFFFFFFFFFFFFFFFFFFFFFFFF
310
FFFFFFFFFFFFFFFFFFFFFFFFFFFFFFFFF000FFFFFFFFFFFFFFFFFFFFFFFFFFFF
310
FFFFFFFFFFFFFFFFFFFFFFFFFFFFFFFFFFFFFFFFFFFFFFFFFFFFFFFFFFFFFFFF
310
FFFFFFFFFFFFFFFFFFFFFFFFFFFFFFFFFFFFFFFFFFFFFFFFFFFFFFFFFFFFFFFF
310
FFFFFFFFFFFFFFFFF000FFFFFFFFFFFFFFFFFFFFFFFFFFFFFFFFFFFFFFFFFFFF
310
FFFFFFFFFFFFFFFFFFFFFFFFFFFFFFFFFFFFFFFFFFFFFFFFFFFFFFFFFFFFFFFF
310
FFFFFFFFFFFFFFFFFFFFFFFFFFFFFFFFFFFFFFFFFFFFFFFFFFFFFFFFFFFFFFFF
310
F000FFFFFFFFFFFFFFFFFFFFFFFFFFFFFFFFFFFFFFFFFFFFFFFFFFFFFFFFFFFF
310
FFFFFFFFFFFFFFFFFFFFFFFFFFFFFFFFFFFFFFFFFFFFFFFFFFFFFFFFFFFFFFFF
310
FFFFFFFFFFFFFFFFFFFFFFFFFFFFFFFFFFFFFFFFFFFFFFFFF000FFFFFFFFFFFF
310
FFFFFFFFFFFFFFFFFFFFFFFFFFFFFFFFFFFFFFFFFFFFFFFFFFFFFFFFFFFFFFFF
310
FFFFFFFFFFFFFFFFFFFFFFFFFFFFFFFFFFFFFFFFFFFFFFFFFFFFFFFFFFFFFFFF
310
FFFFFFFFFFFFFFFFFFFFFFFFFFFFFFFFF000FFFFFFFFFFFFFFFFFFFFFFFFFFFF
310
FFFFFFFFFFFFFFFFFFFFFFFFFFFFFFFFFFFFFFFFFFFFFFFFFFFFFFFFFFFFFFFF
310
FFFFFFFFFFFFFFFFFFFFFFFFFFFFFFFFFFFFFFFFFFFFFFFFFFFFFFFFFFFFFFFF
310
FFFFFFFFFFFFFFFFF000FFFFFFFFFFFFFFFFFFFFFFFFFFFFFFFFFFFFFFFFFFFF
310
FFFFFFFFFFFFFFFFFFFFFFFFFFFFFFFFFFFFFFFFFFFFFFFFFFFFFFFFFFFFFFFF
310
FFFFFFFFFFFFFFFFFFFFFFFFFFFFFFFFFFFFFFFFFFFFFFFFFFFFFFFFFFFFFFFF
310
F000FFFFFFFFFFFFFFFFFFFFFFFFFFFFFFFFFFFFFFFFFFFFFFFFFFFFFFFFFFFF
310
FFFFFFFFFFFFFFFFFFFFFFFFFFFFFFFFFFFFFFFFFFFFFFFFFFFFFFFFFFFFFFFF
310
FFFFFFFFFFFFFFFFFFFFFFFFFFFFFFFFFFFFFFFFFFFFFFFFF000FFFFFFFFFFFF
310
FFFFFFFFFFFFFFFFFFFFFFFFFFFFFFFFFFFFFFFFFFFFFFFFFFFFFFFFFFFFFFFF
310
FFFFFFFFFFFFFFFFFFFFFFFFFFFFFFFFFFFFFFFFFFFFFFFFFFFFFFFFFFFFFFFF
310
FFFFFFFFFFFFFFFFFFFFFFFFFFFFFFFFF000FFFFFFFFFFFFFFFFFFFFFFFFFFFF
310
FFFFFFFFFFFFFFFFFFFFFFFFFFFFFFFFFFFFFFFFFFFFFFFFFFFFFFFFFFFFFFFF
310
FFFFFFFFFFFFFFFFFFFFFFFFFFFFFFFFFFFFFFFFFFFFFFFFFFFFFFFFFFFFFFFF
310
FFFFFFFFFFFFFFFFF000FFFFFFFFFFFFFFFFFFFFFFFFFFFFFFFFFFFFFFFFFFFF
310
FFFFFFFFFFFFFFFFFFFFFFFFFFFFFFFFFFFFFFFFFFFFFFFFFFFFFFFFFFFFFFFF
310
FFFFFFFFFFFFFFFFFFFFFFFFFFFFFFFFFFFFFFFFFFFFFFFFFFFFFFFFFFFFFFFF
310
F000FFFFFFFFFFFFFFFFFFFFFFFFFFFFFFFFFFFFFFFFFFFFFFFFFFFFFFFFFFFF
310
FFFFFFFFFFFFFFFFFFFFFFFFFFFFFFFFFFFFFFFFFFFFFFFFFFFFFFFFFFFFFFFF
310
FFFFFFFFFFFFFFFFFFFFFFFFFFFFFFFFFFFFFFFFFFFFFFFFF000FFFFFFFFFFFF
310
FFFFFFFFFFFFFFFFFFFFFFFFFFFFFFFFFFFFFFFFFFFFFFFFFFFFFFFFFFFFFFFF
310
FFFFFFFFFFFFFFFFFFFFFFFFFFFFFFFFFFFFFFFFFFFFFFFFFFFFFFFFFFFFFFFF
310
FFFFFFFFFFFFFFFFFFFFFFFFFFFFFFFFF000FFFFFFFFFFFFFFFFFFFFFFFFFFFF
310
FFFFFFFFFFFFFFFFFFFFFFFFFFFFFFFFFFFFFFFFFFFFFFFFFFFFFFFFFFFFFFFF
310
FFFFFFFFFFFFFFFFFFFFFFFFFFFFFFFFFFFFFFFFFFFFFFFFFFFFFFFFFFFFFFFF
310
FFFFFFFFFFFFFFFFF000FFFFF80003FFFFFFFFFFFFFFFFFFFFFFFFFFFFFFFFFF
310
FFFFF00007FFFFFFFFFF00007FFFFFF800000000000000007FFFFFFFFFFFFFFF
310
FFFFFFFC001FFFFFFFFFFFFFFC001FFFFFFFFFFFFFFFFFFFFFFFFFFE0007FFFF
310
F000FFFF8000007FFFFFFFF8000FFFFFC0007FFFFF80007FFFFF0000007FFFFF
310
FFF8000007FFFFF800000000000000007FFFFFF0001FFFFFFFFFFFC00001FFFF
310
FFFFFFFFC00001FFFFFFFF000000000003FFFFE000007FFFF000FFFE0000000F
310
FFFFFFF0000FFFFF80007FFFFF80007FFFFC0000001FFFFFFFC0000001FFFFF8
310
00000000000000007FFFFFF0001FFFFFFFFFFE0000003FFFFFFFFFFE0000003F
310
FFFFFF000000000003FFFF0000000FFFF000FFF800000003FFFFFFF00007FFFF
310
80007FFFFF80007FFFF000000007FFFFFF000000003FFFF80000000000000000
310
7FFFFFF0001FFFFFFFFFF80000000FFFFFFFFFF80000000FFFFFFF0000000000
310
03FFFC00000003FFF000FFE000000000FFFFFFF00007FFFF80003FFFFF80007F
310
FFC000000001FFFFFC000000001FFFF800000000000000007FFFFFF0001FFFFF
310
FFFFE000000003FFFFFFFFE000000003FFFFFF000000000003FFF000000000FF
310
F000FF80000000007FFFFFF00007FFFF80003FFFFF80007FFF8000000000FFFF
310
F80000000007FFF800000000000000007FFFFFF0001FFFFFFFFFC000000001FF
310
FFFFFFC000000001FFFFFF000000000003FFC0000000007FF000FF0000000000
310
3FFFFFE00007FFFF00003FFFFF80007FFE00000000003FFFF00000000003FFF8
310
00000000000000007FFFFFF0001FFFFFFFFF8000000000FFFFFFFF8000000000
310
FFFFFF000000000003FF80000000003FF000FE00000000001FFFFFE00003FFFF
310
00003FFFFF80007FFC00000000001FFFE00000000001FFF8000001FFFE000000
310
7FFFFFF0001FFFFFFFFE00000000003FFFFFFE00000000003FFFFF0000000000
310
03FF00000000001FF000FC00000000000FFFFFE00003FFFF00001FFFFF80007F
310
F800000000001FFFC00000000000FFF8000001FFFE0000007FFFFFF0001FFFFF
310
FFFC00000000001FFFFFFC00000000001FFFFF000000000003FE00000000000F
310
F000F8000000000007FFFFE00003FFFF00001FFFFF80007FF800000000000FFF
310
800000000000FFF8000001FFFE0000007FFFFFF0001FFFFFFFF800000000000F
310
FFFFF800000000000FFFFF000000000003FC000000000007F000F80000000000
310
03FFFFC00003FFFE00001FFFFF80007FF0000000000007FF0000000000007FF8
310
000001FFFE0000007FFFFFF0001FFFFFFFF0000000000007FFFFF00000000000
310
07FFFF000000000003F8000000000003F000F0000000000003FFFFC00001FFFE
310
00001FFFFF80007FE0000000000007FE0000000000003FF8000001FFFE000000
310
7FFFFFF0001FFFFFFFF0000000000007FFFFF0000000000007FFFF0000000000
310
03F800001F800003F000E00001FFF00001FFFFC00001FFFE00000FFFFF80007F
310
E00001FFE00003FE00001FFF00003FF8000001FFFE0000007FFFFFF0001FFFFF
310
FFE000003E000003FFFFE000003E000003FFFF000000000003F00001FFF80001
310
F000E00007FFFC0001FFFFC00001FFFE00000FFFFF80007FC0000FFFFC0003FC
310
0000FFFFC0001FF8000001FFFE0000007FFFFFF0001FFFFFFFC00003FFE00001
310
FFFFC00003FFE00001FFFF0001FFFFFFFFF00007FFFE0001F000E0000FFFFF00
310
00FFFF800001FFFC00000FFFFF80007FC0001FFFFE0001FC0001FFFFE0001FF8
310
000001FFFE0000007FFFFFF0001FFFFFFF80000FFFF80000FFFF80000FFFF800
310
00FFFF0003FFFFFFFFE0000FFFFF8000F000C0003FFFFF8000FFFF800000FFFC
310
000007FFFF80007F80003FFFFF0001FC0003FFFFF0001FF8000001FFFE000000
310
7FFFFFF0001FFFFFFF80003FFFFE0000FFFF80003FFFFE0000FFFF0003FFFFFF
310
FFE0003FFFFF8000F000C0003FFFFF8000FFFF800000FFFC000007FFFF80007F
310
80007FFFFF8001F80007FFFFF8000FF8000001FFFE0000007FFFFFF0001FFFFF
310
FF00007FFFFF00007FFF00007FFFFF00007FFF0003FFFFFFFFE0003FFFFFC000
310
F000C0007FFFFFC000FFFF000000FFFC000007FFFF80007F8000FFFFFF8000F8
310
000FFFFFF8000FF8000001FFFE0000007FFFFFF0001FFFFFFF0000FFFFFF8000
310
7FFF0000FFFFFF80007FFF0003FFFFFFFFC0007FFFFFC00070008000FFFFFFC0
310
00FFFF000000FFF8000007FFFF80007F8000FFFFFF8000F8000FFFFFF8000FF8
310
000001FFFE0000007FFFFFF0001FFFFFFE0001FFFFFFC0003FFE0001FFFFFFC0
310
003FFF0003FFFFFFFFC0007FFFFFE00070008000FFFFFFC0007FFF0000007FF8
310
000003FFFF80007F0001FFFFFF8000F8000FFFFFF8000FF8000001FFFE000000
310
7FFFFFF0001FFFFFFE0001FFFFFFC0003FFE0001FFFFFFC0003FFF0003FFFFFF
310
FFC000FFFFFFE00070008000FFFFFFC0007FFF0000007FF8000003FFFF80007F
310
0001FFFFFF8000F8001FFFFFF8000FF8000001FFFE0000007FFFFFF0001FFFFF
310
FE0003FFFFFFE0003FFE0003FFFFFFE0003FFF0003FFFFFFFFC000FFFFFFE000
310
70008000FFFFFFC0007FFE0000007FF8000003FFFF80007F0001FFFFFF8000F0
310
001FFFFFF8000FF8000001FFFE0000007FFFFFF0001FFFFFFC0003FFFFFFE000
310
1FFC0003FFFFFFE0001FFF0003FFFFFFFFC000FFFFFFC00070008000FFFFFF80
310
007FFE0000007FF0000003FFFF80007F0001FFFFFF0000F0001FFFFFF8000FF8
310
000001FFFE0000007FFFFFF0001FFFFFFC0007FFFFFFF0001FFC0007FFFFFFF0
310
001FFF0003FFFFFFFFC000FFFFFFC00070008001FFFFFF0000FFFE0000003FF0
310
000001FFFF80007F0001FFFFFF0000F8001FFFFFF0000FF8000001FFFE000000
310
7FFFFFF0001FFFFFFC0007FFFFFFF0001FFC0007FFFFFFF0001FFF0003FFFFFF
310
FFC001FFFFFF80007000FFFFFFFFFE0000FFFE0008003FF0008001FFFF80007F
310
FFFFFFFFFC0000FFFFFFFFFFE0000FF8000001FFFE0000007FFFFFF0001FFFFF
310
F8000FFFFFFFF8000FF8000FFFFFFFF8000FFF0003FFFFFFFFFFFFFFFFFF0000
310
7000FFFFFFFFFC0000FFFC0008003FF0008001FFFF80007FFFFFFFFFF80001FF
310
FFFFFFFF80000FF8000001FFFE0000007FFFFFF0001FFFFFF8000FFFFFFFF800
310
0FF8000FFFFFFFF8000FFF0003FFFFFFFFFFFFFFFFFE0000F000FFFFFFFFE000
310
00FFFC000C003FE000C001FFFF80007FFFFFFFFFC00001FFFFFFFFFE00001FF8
310
000001FFFE0000007FFFFFF0001FFFFFF8000FFFFFFFF8000FF8000FFFFFFFF8
310
000FFF0003FFFFFFFFFFFFFFFFF00000F000FFFFFFFE000001FFFC000C001FE0
310
00C000FFFF80007FFFFFFFFE000001FFFFFFFFE000001FF80FFFFFFFFFFFFFC0
310
7FFFFFF0001FFFFFF8000FFFFFFFF8000FF8000FFFFFFFF8000FFF0003FFFFFF
310
FFFFFFFFFF800000F000FFFFFFC0000001FFFC001C001FE001C000FFFF80007F
310
FFFFFF80000003FFFFFFF80000001FF80FFFFFFFFFFFFFC07FFFFFF0001FFFFF
310
F8001FFFFFFFFC000FF8001FFFFFFFFC000FFF0003FFFFFFFFFFFFFFF0000001
310
F000FFFFF800000001FFF8001C001FE001C000FFFF80007FFFFFF800000003FF
310
FFFF800000003FF80FFFFFFFFFFFFFC07FFFFFF0001FFFFFF8001FFFFFFFFC00
310
0FF8001FFFFFFFFC000FFF0003FFFFFFFFFFFFFE00000001F000FFFFC0000000
310
03FFF8001E001FC001E000FFFF80007FFFFF8000000007FFFFFC000000003FF8
310
0FFFFFFFFFFFFFC07FFFFFF0001FFFFFF8001FFFFFFFFC000FF8001FFFFFFFFC
310
000FFF0003FFFFFFFFFFFFE000000003F000FFFE0000000007FFF8001E000FC0
310
01E0007FFF80007FFFFE0000000007FFFFE0000000007FF80FFFFFFFFFFFFFC0
310
7FFFFFF0001FFFFFF0001FFFFFFFFC0007F0001FFFFFFFFC0007FF0003FFFFFF
310
FFFFFF0000000003F000FFF80000000007FFF8001E000FC003E0007FFF80007F
310
FFF0000000000FFFFF8000000000FFF80FFFFFFFFFFFFFC07FFFFFF0001FFFFF
310
F0001FFFFFFFFC0007F0001FFFFFFFFC0007FF0003FFFFFFFFFFFC0000000007
310
F000FFE0000000000FFFF0003E000FC003E0007FFF80007FFFC0000000001FFF
310
FE0000000001FFF80FFFFFFFFFFFFFC07FFFFFF0001FFFFFF0001FFFFFFFFC00
310
07F0001FFFFFFFFC0007FF0003FFFFFFFFFFF0000000000FF000FFC000000000
310
1FFFF0003F000F8003F0003FFF80007FFF80000000003FFFF80000000003FFF8
310
0FFFFFFFFFFFFFC07FFFFFF0001FFFFFF0001FFFFFFFFC0007F0001FFFFFFFFC
310
0007FF0003FFFFFFFFFFE0000000001FF000FF00000000007FFFF0003F000780
310
03F0003FFF80007FFF00000000007FFFF00000000007FFF80FFFFFFFFFFFFFC0
310
7FFFFFF0001FFFFFF0001FFFFFFFFC0007F0001FFFFFFFFC0007FF0003FFFFFF
310
FFFF80000000007FF000FE0000000000FFFFE0003F00078007F0003FFF80007F
310
FE0000000001FFFFE0000000001FFFF80FFFFFFFFFFFFFC07FFFFFF0001FFFFF
310
F0001FFFFFFFFC0007F0001FFFFFFFFC0007FF0003FFFFFFFFFF0000000000FF
310
F000FC0000000003FFFFE0007F00078007F0003FFF80007FFC0000000007FFFF
310
C0000000007FFFF80FFFFFFFFFFFFFC07FFFFFF0001FFFFFF8001FFFFFFFFC00
310
0FF8001FFFFFFFFC000FFF0003FFFFFFFFFE0000000003FFF000FC000000000F
310
FFFFE0007F80070007F8001FFF80007FF8000000001FFFFF8000000001FFFFF8
310
0FFFFFFFFFFFFFC07FFFFFF0001FFFFFF8001FFFFFFFFC000FF8001FFFFFFFFC
310
000FFF0003FFFFFFFFFC000000000FFFF000F8000000007FFFFFE0007F800700
310
07F8001FFF80007FF000000000FFFFFF800000000FFFFFF80FFFFFFFFFFFFFC0
310
7FFFFFF0001FFFFFF8000FFFFFFFF8000FF8000FFFFFFFF8000FFF0003FFFFFF
310
FFFC000000007FFFF000F800000007FFFFFFC0007F8003000FF8001FFF80007F
310
F000000007FFFFFF000000007FFFFFF80FFFFFFFFFFFFFC07FFFFFF0001FFFFF
310
F8000FFFFFFFF8000FF8000FFFFFFFF8000FFF0003FFFFFFFFF80000000FFFFF
310
F000F0000000FFFFFFFFC000FF8003000FF8001FFF80007FE0000000FFFFFFFF
310
0000000FFFFFFFF8000001FFFE0000007FFFFFF0001FFFFFF8000FFFFFFFF800
310
0FF8000FFFFFFFF8000FFF0003FFFFFFFFF8000000FFFFFFF000F000000FFFFF
310
FFFFC000FFC002000FF8000FFF80007FE000001FFFFFFFFE000001FFFFFFFFF8
310
000001FFFE0000007FFFFFF0001FFFFFF8000FFFFFFFF8000FF8000FFFFFFFF8
310
000FFF0003FFFFFFFFF000001FFFFFFFF000E00000FFFFFFFFFFC000FFC00200
310
0FFC000FFF80007FE00001FFFFFFFFFE00001FFFFFFFFFF8000001FFFE000000
310
7FFFFFF0001FFFFFFC000FFFFFFFF8001FFC000FFFFFFFF8001FFF0003FFFFFF
310
FFF00001FFFFFFFFF000E00007FFFFFFFFFF8000FFC000001FFC000FFF80007F
310
C0000FFFFFFFFFFE0000FFFFFFFFFFF8000001FFFE0000007FFFFFF0001FFFFF
310
FC0007FFFFFFF0001FFC0007FFFFFFF0001FFF0003FFFFFFFFF00007FFFFFFFF
310
F000E0001FFFFFFFFFFF8000FFC000001FFC000FFF80007FC0003FFFFFFFFFFE
310
0001FFFFFFFFFFF8000001FFFE0000007FFFFFF0001FFFFFFC0007FFFFFFF000
310
1FFC0007FFFFFFF0001FFF0003FFFFFFFFF0001FFFFFFFFFF000E0003FFFFF00
310
03FF8001FFE000001FFC0007FF80007FC0007FFFFF0007FC0003FFFFF0003FF8
310
000001FFFE0000007FFFFFF0001FFFFFFC0003FFFFFFE0001FFC0003FFFFFFE0
310
001FFF0003FFFFFFFFF0003FFFFFFFFFF000E0003FFFFF0001FF8001FFE00000
310
1FFE0007FF80007FC0007FFFFE0003FC0007FFFFE0003FF8000001FFFE000000
310
7FFFFFF0001FFFFFFE0003FFFFFFE0003FFE0003FFFFFFE0003FFF0003FFFFFF
310
FFF0003FFFFF8001F000E0003FFFFF0001FF0001FFE000001FFE0007FF80007F
310
C0007FFFFE0003FC0007FFFFE0003FF8000001FFFE0000007FFFFFF0001FFFFF
310
FE0001FFFFFFC0003FFE0001FFFFFFC0003FFF0003FFFFFFFFF0003FFFFF0001
310
F000E0003FFFFF0003FF0001FFE000003FFE0007FF80007FC0007FFFFE0003FC
310
0007FFFFE0003FF8000001FFFE0000007FFFFFF0001FFFFFFF0001FFFFFFC000
310
7FFF0001FFFFFFC0007FFF0003FFFFFFFFF0003FFFFF0001F000E0003FFFFE00
310
03FF0003FFF000003FFE0003FF80007FC0007FFFFC0003FE0007FFFFE0003FF8
310
000001FFFE0000007FFFFFF0001FFFFFFF0000FFFFFF80007FFF0000FFFFFF80
310
007FFF0003FFFFFFFFF0003FFFFF0001F000E0003FFFFE0003FF0003FFF00000
310
3FFF0003FF80007FC0007FFFFC0007FE0007FFFFC0003FF8000001FFFE000000
310
7FFFFFF0001FFFFFFF80007FFFFF0000FFFF80007FFFFF0000FFFF0003FFFFFF
310
FFF0003FFFFF0003F000E0003FFFFC0003FE0003FFF000003FFF0003FF80007F
310
E0003FFFF80007FE0003FFFFC0007FF8000001FFFE0000007FFFFFF0001FFFFF
310
FF80003FFFFE0000FFFF80003FFFFE0000FFFF0003FFFFFFFFF0001FFFFE0003
310
F000F0001FFFF80003FE0003FFF000007FFF0001FF80007FE0003FFFF00007FE
310
0001FFFF80007FF8000001FFFE0000007FFFFFF0001FFFFFFFC0000FFFF80001
310
FFFFC0000FFFF80001FFFF0003FFFFFFFFF0001FFFFC0003F000F0000FFFF000
310
07FE0007FFF800007FFF0001FF80007FE0001FFFE00007FF0000FFFE00007FF8
310
000001FFFE0000007FFFFFF0001FFFFFFFC00003FFE00001FFFFC00003FFE000
310
01FFFF0003FFFFFFFFF8000FFFF80003F000F00003FFC00007FC0007FFF80000
310
7FFF8001FF80007FF00007FF80000FFF00007FF80000FFF8000001FFFE000000
310
7F80000000000001FFE000003E000003FFFFE000003E000003FFFF0003FFFFFF
310
FFF80003FFE00007F000F800000000000FFC0007FFF800007FFF8001FF80007F
310
F000000000000FFF000000000000FFF8000001FFFE0000007F80000000000001
310
FFF0000000000007FFFFF0000000000007FFFF0003FFFFFFFFFC00007E000007
310
F000F800000000000FFC0007FFF80000FFFF8000FF80007FF800000000001FFF
310
800000000001FFF8000001FFFE0000007F80000000000001FFF800000000000F
310
FFFFF800000000000FFFFF0003FFFFFFFFFC00000000000FF000FC0000000000
310
1FFC0007FFFC0000FFFF8000FF80007FF800000000003FFFC00000000001FFF8
310
000001FFFE0000007F80000000000001FFF800000000000FFFFFF80000000000
310
0FFFFF0003FFFFFFFFFE00000000001FF000FE00000000003FF8000FFFFC0000
310
FFFF8000FF80007FFC00000000003FFFC00000000003FFF8000001FFFE000000
310
7F80000000000001FFFC00000000001FFFFFFC00000000001FFFFF0003FFFFFF
310
FFFF00000000001FF000FF00000000003FF8000FFFFC0000FFFFC000FF80007F
310
FE00000000007FFFE00000000007FFF8000001FFFE0000007F80000000000001
310
FFFE00000000003FFFFFFE00000000003FFFFF0003FFFFFFFFFF80000000003F
310
F000FF80000000007FF8000FFFFC0001FFFFC0007F80007FFF0000000000FFFF
310
F0000000000FFFF800000000000000007F80000000000001FFFF8000000000FF
310
FFFFFF8000000000FFFFFF0003FFFFFFFFFFC0000000007FF000FFC000000000
310
FFF8000FFFFE0001FFFFC0007F80007FFF8000000001FFFFF8000000001FFFF8
310
00000000000000007F80000000000001FFFFC000000001FFFFFFFFC000000001
310
FFFFFF0003FFFFFFFFFFE000000000FFF000FFE000000003FFF0001FFFFE0001
310
FFFFC0007F80007FFFC000000007FFFFFE000000003FFFF80000000000000000
310
7F80000000000001FFFFE000000003FFFFFFFFE000000003FFFFFF0003FFFFFF
310
FFFFF000000003FFF000FFF80000000FFFF0001FFFFE0001FFFFE0007F80007F
310
FFF00000000FFFFFFF00000000FFFFF800000000000000007F80000000000001
310
FFFFF80000000FFFFFFFFFF80000000FFFFFFF0003FFFFFFFFFFFC0000000FFF
310
F000FFFE0000003FFFF0001FFFFE0003FFFFE0003F80007FFFFC0000003FFFFF
310
FFC0000003FFFFF800000000000000007F80000000000001FFFFFE0000003FFF
310
FFFFFFFE0000003FFFFFFF0003FFFFFFFFFFFF0000003FFFF000FFFF800000FF
310
FFF0001FFFFF0003FFFFE0003F80007FFFFF000001FFFFFFFFF800001FFFFFF8
310
00000000000000007F80000000000001FFFFFFC00001FFFFFFFFFFFFC00001FF
310
FFFFFF0003FFFFFFFFFFFFC00000FFFFF000FFFFF8000FFFFFFFFFFFFFFFFFFF
310
FFFFFFFFFFFFFFFFFFFFF0001FFFFFFFFFFF0000FFFFFFF80000000000000000
310
7FFFFFFFFFFFFFFFFFFFFFFC001FFFFFFFFFFFFFFC001FFFFFFFFFFFFFFFFFFF
310
FFFFFFFC001FFFFFF000FFFFFFFFFFFFFFFFFFFFFFFFFFFFFFFFFFFFFFFFFFFF
310
FFFFFFFFFFFFFFFFFFFFFFFFFFFFFFFFFFFFFFFFFFFFFFFFFFFFFFFFFFFFFFFF
310
FFFFFFFFFFFFFFFFFFFFFFFFFFFFFFFFFFFFFFFFFFFFFFFFFFFFFFFFFFFFFFFF
310
F000FFFFFFFFFFFFFFFFFFFFFFFFFFFFFFFFFFFFFFFFFFFFFFFFFFFFFFFFFFFF
310
FFFFFFFFFFFFFFFFFFFFFFFFFFFFFFFFFFFFFFFFFFFFFFFFFFFFFFFFFFFFFFFF
310
FFFFFFFFFFFFFFFFFFFFFFFFFFFFFFFFFFFFFFFFFFFFFFFFF000FFFFFFFFFFFF
310
FFFFFFFFFFFFFFFFFFFFFFFFFFFFFFFFFFFFFFFFFFFFFFFFFFFFFFFFFFFFFFFF
310
FFFFFFFFFFFFFFFFFFFFFFFFFFFFFFFFFFFFFFFFFFFFFFFFFFFFFFFFFFFFFFFF
310
FFFFFFFFFFFFFFFFFFFFFFFFFFFFFFFFF000FFFFFFFFFFFFFFFFFFFFFFFFFFFF
310
FFFFFFFFFFFFFFFFFFFFFFFFFFFFFFFFFFFFFFFFFFFFFFFFFFFFFFFFFFFFFFFF
310
FFFFFFFFFFFFFFFFFFFFFFFFFFFFFFFFFFFFFFFFFFFFFFFFFFFFFFFFFFFFFFFF
310
FFFFFFFFFFFFFFFFF000FFFFFFFFFFFFFFFFFFFFFFFFFFFFFFFFFFFFFFFFFFFF
310
FFFFFFFFFFFFFFFFFFFFFFFFFFFFFFFFFFFFFFFFFFFFFFFFFFFFFFFFFFFFFFFF
310
FFFFFFFFFFFFFFFFFFFFFFFFFFFFFFFFFFFFFFFFFFFFFFFFFFFFFFFFFFFFFFFF
310
F000FFFFFFFFFFFFFFFFFFFFFFFFFFFFFFFFFFFFFFFFFFFFFFFFFFFFFFFFFFFF
310
FFFFFFFFFFFFFFFFFFFFFFFFFFFFFFFFFFFFFFFFFFFFFFFFFFFFFFFFFFFFFFFF
310
FFFFFFFFFFFFFFFFFFFFFFFFFFFFFFFFFFFFFFFFFFFFFFFFF000FFFFFFFFFFFF
310
FFFFFFFFFFFFFFFFFFFFFFFFFFFFFFFFFFFFFFFFFFFFFFFFFFFFFFFFFFFFFFFF
310
FFFFFFFFFFFFFFFFFFFFFFFFFFFFFFFFFFFFFFFFFFFFFFFFFFFFFFFFFFFFFFFF
310
FFFFFFFFFFFFFFFFFFFFFFFFFFFFFFFFF000FFFFFFFFFFFFFFFFFFFFFFFFFFFF
310
FFFFFFFFFFFFFFFFFFFFFFFFFFFFFFFFFFFFFFFFFFFFFFFFFFFFFFFFFFFFFFFF
310
FFFFFFFFFFFFFFFFFFFFFFFFFFFFFFFFFFFFFFFFFFFFFFFFFFFFFFFFFFFFFFFF
310
FFFFFFFFFFFFFFFFF000FFFFFFFFFFFFFFFFFFFFFFFFFFFFFFFFFFFFFFFFFFFF
310
FFFFFFFFFFFFFFFFFFFFFFFFFFFFFFFFFFFFFFFFFFFFFFFFFFFFFFFFFFFFFFFF
310
FFFFFFFFFFFFFFFFFFFFFFFFFFFFFFFFFFFFFFFFFFFFFFFFFFFFFFFFFFFFFFFF
310
F000FFFFFFFFFFFFFFFFFFFFFFFFFFFFFFFFFFFFFFFFFFFFFFFFFFFFFFFFFFFF
310
FFFFFFFFFFFFFFFFFFFFFFFFFFFFFFFFFFFFFFFFFFFFFFFFFFFFFFFFFFFFFFFF
310
FFFFFFFFFFFFFFFFFFFFFFFFFFFFFFFFFFFFFFFFFFFFFFFFF000FFFFFFFFFFFF
310
FFFFFFFFFFFFFFFFFFFFFFFFFFFFFFFFFFFFFFFFFFFFFFFFFFFFFFFFFFFFFFFF
310
FFFFFFFFFFFFFFFFFFFFFFFFFFFFFFFFFFFFFFFFFFFFFFFFFFFFFFFFFFFFFFFF
310
FFFFFFFFFFFFFFFFFFFFFFFFFFFFFFFFF000FFFFFFFFFFFFFFFFFFFFFFFFFFFF
310
FFFFFFFFFFFFFFFFFFFFFFFFFFFFFFFFFFFFFFFFFFFFFFFFFFFFFFFFFFFFFFFF
310
FFFFFFFFFFFFFFFFFFFFFFFFFFFFFFFFFFFFFFFFFFFFFFFFFFFFFFFFFFFFFFFF
310
FFFFFFFFFFFFFFFFF000FFFFFFFFFFFFFFFFFFFFFFFFFFFFFFFFFFFFFFFFFFFF
310
FFFFFFFFFFFFFFFFFFFFFFFFFFFFFFFFFFFFFFFFFFFFFFFFFFFFFFFFFFFFFFFF
310
FFFFFFFFFFFFFFFFFFFFFFFFFFFFFFFFFFFFFFFFFFFFFFFFFFFFFFFFFFFFFFFF
310
F000FFFFFFFFFFFFFFFFFFFFFFFFFFFFFFFFFFFFFFFFFFFFFFFFFFFFFFFFFFFF
310
FFFFFFFFFFFFFFFFFFFFFFFFFFFFFFFFFFFFFFFFFFFFFFFFFFFFFFFFFFFFFFFF
310
FFFFFFFFFFFFFFFFFFFFFFFFFFFFFFFFFFFFFFFFFFFFFFFFF000FFFFFFFFFFFF
310
FFFFFFFFFFFFFFFFFFFFFFFFFFFFFFFFFFFFFFFFFFFFFFFFFFFFFFFFFFFFFFFF
310
FFFFFFFFFFFFFFFFFFFFFFFFFFFFFFFFFFFFFFFFFFFFFFFFFFFFFFFFFFFFFFFF
310
FFFFFFFFFFFFFFFFFFFFFFFFFFFFFFFFF000FFFFFFFFFFFFFFFFFFFFFFFFFFFF
310
FFFFFFFFFFFFFFFFFFFFFFFFFFFFFFFFFFFFFFFFFFFFFFFFFFFFFFFFFFFFFFFF
310
FFFFFFFFFFFFFFFFFFFFFFFFFFFFFFFFFFFFFFFFFFFFFFFFFFFFFFFFFFFFFFFF
310
FFFFFFFFFFFFFFFFF000FFFFFFFFFFFFFFFFFFFFFFFFFFFFFFFFFFFFFFFFFFFF
310
FFFFFFFFFFFFFFFFFFFFFFFFFFFFFFFFFFFFFFFFFFFFFFFFFFFFFFFFFFFFFFFF
310
FFFFFFFFFFFFFFFFFFFFFFFFFFFFFFFFFFFFFFFFFFFFFFFFFFFFFFFFFFFFFFFF
310
F000FFFFFFFFFFFFFFFFFFFFFFFFFFFFFFFFFFFFFFFFFFFFFFFFFFFFFFFFFFFF
310
FFFFFFFFFFFFFFFFFFFFFFFFFFFFFFFFFFFFFFFFFFFFFFFFFFFFFFFFFFFFFFFF
310
FFFFFFFFFFFFFFFFFFFFFFFFFFFFFFFFFFFFFFFFFFFFFFFFF000FFFFFFFFFFFF
310
FFFFFFFFFFFFFFFFFFFFFFFFFFFFFFFFFFFFFFFFFFFFFFFFFFFFFFFFFFFFFFFF
310
FFFFFFFFFFFFFFFFFFFFFFFFFFFFFFFFFFFFFFFFFFFFFFFFFFFFFFFFFFFFFFFF
310
FFFFFFFFFFFFFFFFFFFFFFFFFFFFFFFFF000FFFFFFFFFFFFFFFFFFFFFFFFFFFF
310
FFFFFFFFFFFFFFFFFFFFFFFFFFFFFFFFFFFFFFFFFFFFFFFFFFFFFFFFFFFFFFFF
310
FFFFFFFFFFFFFFFFFFFFFFFFFFFFFFFFFFFFFFFFFFFFFFFFFFFFFFFFFFFFFFFF
310
FFFFFFFFFFFFFFFFF000FFFFFFFFFFFFFFFFFFFFFFFFFFFFFFFFFFFFFFFFFFFF
310
FFFFFFFFFFFFFFFFFFFFFFFFFFFFFFFFFFFFFFFFFFFFFFFFFFFFFFFFFFFFFFFF
310
FFFFFFFFFFFFFFFFFFFFFFFFFFFFFFFFFFFFFFFFFFFFFFFFFFFFFFFFFFFFFFFF
310
F000FFFFFFFFFFFFFFFFFFFFFFFFFFFFFFFFFFFFFFFFFFFFFFFFFFFFFFFFFFFF
310
FFFFFFFFFFFFFFFFFFFFFFFFFFFFFFFFFFFFFFFFFFFFFFFFFFFFFFFFFFFFFFFF
310
FFFFFFFFFFFFFFFFFFFFFFFFFFFFFFFFFFFFFFFFFFFFFFFFF000FFFFFFFFFFFF
310
FFFFFFFFFFFFFFFFFFFFFFFFFFFFFFFFFFFFFFFFFFFFFFFFFFFFFFFFFFFFFFFF
310
FFFFFFFFFFFFFFFFFFFFFFFFFFFFFFFFFFFFFFFFFFFFFFFFFFFFFFFFFFFFFFFF
310
FFFFFFFFFFFFFFFFFFFFFFFFFFFFFFFFF0000000000000000000000000000000
310
0000000000000000000000000000000000000000000000000000000000000000
310
0000000000000000000000000000000000000000000000000000000000000000
310
0000000000000000000000000000000000000000000000000000000000000000
310
0000000000000000000000000000000000000000000000000000000000000000
310
0000000000000000000000000000000000000000000000000000000000000000
310
0000000000000000000000000000000000000000000000000000000000000000
310
0000000000000000000000000000000000000000000000000000000000000000
310
0000000000000000000000000000000000000000000000000000000000000000
310
0000000000000000000000000000000000000000000000000000000000000000
310
0000000000000000000000000000000000000000000000000000000000000000
310
0000000000000000000000000000000000000000000000000000000000000000
310
0000000000000000000000000000000000000000000000000000000000000000
310
0000000000000000000000000000000000000000000000000000000000000000
310
0000000000000000000000000000000000000000000000000000000000000000
310
0000000000000000000000000000000000000000000000000000000000000000
  1
OLE
  0
ENDSEC
  0
SECTION
  2
OBJECTS
  0
DICTIONARY
  5
C
330
0
100
AcDbDictionary
281
     1
  3
ACAD_GROUP
350
D
  3
ACAD_LAYOUT
350
1A
  3
ACAD_MLINESTYLE
350
17
  3
ACAD_PLOTSETTINGS
350
19
  3
ACAD_PLOTSTYLENAME
350
E
  0
DICTIONARY
  5
D
102
{ACAD_REACTORS
330
C
102
}
330
C
100
AcDbDictionary
281
     1
  0
DICTIONARY
  5
1A
102
{ACAD_REACTORS
330
C
102
}
330
C
100
AcDbDictionary
281
     1
  3
Layout1
350
1E
  3
Layout2
350
26
  3
Model
350
22
  0
DICTIONARY
  5
17
102
{ACAD_REACTORS
330
C
102
}
330
C
100
AcDbDictionary
281
     1
  3
Standard
350
18
  0
DICTIONARY
  5
19
102
{ACAD_REACTORS
330
C
102
}
330
C
100
AcDbDictionary
281
     1
  0
ACDBDICTIONARYWDFLT
  5
E
102
{ACAD_REACTORS
330
C
102
}
330
C
100
AcDbDictionary
281
     1
  3
Normal
350
F
100
AcDbDictionaryWithDefault
340
F
  0
LAYOUT
  5
1E
102
{ACAD_REACTORS
330
1A
102
}
330
1A
100
AcDbPlotSettings
  1

  2
none_device
  4

  6

 40
0.0
 41
0.0
 42
0.0
 43
0.0
 44
0.0
 45
0.0
 46
0.0
 47
0.0
 48
0.0
 49
0.0
140
0.0
141
0.0
142
1.0
143
1.0
 70
   688
 72
     0
 73
     0
 74
     5
  7

 75
    16
147
1.0
148
0.0
149
0.0
100
AcDbLayout
  1
Layout1
 70
     1
 71
     1
 10
0.0
 20
0.0
 11
420.0
 21
297.0
 12
0.0
 22
0.0
 32
0.0
 14
1.0000000000E+20
 24
1.0000000000E+20
 34
1.0000000000E+20
 15
-1.0000000000E+20
 25
-1.0000000000E+20
 35
-1.0000000000E+20
146
0.0
 13
0.0
 23
0.0
 33
0.0
 16
1.0
 26
0.0
 36
0.0
 17
0.0
 27
1.0
 37
0.0
 76
     0
330
1B
  0
LAYOUT
  5
26
102
{ACAD_REACTORS
330
1A
102
}
330
1A
100
AcDbPlotSettings
  1

  2
none_device
  4

  6

 40
0.0
 41
0.0
 42
0.0
 43
0.0
 44
0.0
 45
0.0
 46
0.0
 47
0.0
 48
0.0
 49
0.0
140
0.0
141
0.0
142
1.0
143
1.0
 70
   688
 72
     0
 73
     0
 74
     5
  7

 75
    16
147
1.0
148
0.0
149
0.0
100
AcDbLayout
  1
Layout2
 70
     1
 71
     2
 10
0.0
 20
0.0
 11
0.0
 21
0.0
 12
0.0
 22
0.0
 32
0.0
 14
0.0
 24
0.0
 34
0.0
 15
0.0
 25
0.0
 35
0.0
146
0.0
 13
0.0
 23
0.0
 33
0.0
 16
1.0
 26
0.0
 36
0.0
 17
0.0
 27
1.0
 37
0.0
 76
     0
330
23
  0
LAYOUT
  5
22
102
{ACAD_REACTORS
330
1A
102
}
330
1A
100
AcDbPlotSettings
  1

  2
none_device
  4

  6

 40
0.0
 41
0.0
 42
0.0
 43
0.0
 44
0.0
 45
0.0
 46
0.0
 47
0.0
 48
0.0
 49
0.0
140
0.0
141
0.0
142
1.0
143
1.0
 70
  1712
 72
     0
 73
     0
 74
     0
  7

 75
     0
147
1.0
148
0.0
149
0.0
100
AcDbLayout
  1
Model
 70
     1
 71
     0
 10
0.0
 20
0.0
 11
297.0
 21
210.0
 12
0.0
 22
0.0
 32
0.0
 14
0.0
 24
0.0
 34
0.0
 15
297.0
 25
210.0
 35
0.0
146
0.0
 13
0.0
 23
0.0
 33
0.0
 16
1.0
 26
0.0
 36
0.0
 17
0.0
 27
1.0
 37
0.0
 76
     0
330
1F
331
29
  0
MLINESTYLE
  5
18
102
{ACAD_REACTORS
330
17
102
}
330
17
100
AcDbMlineStyle
  2
Standard
 70
     0
  3

 62
   256
 51
90.0
 52
90.0
 71
     2
 49
0.5
 62
   256
  6
BYLAYER
 49
-0.5
 62
   256
  6
BYLAYER
  0
ACDBPLACEHOLDER
  5
F
102
{ACAD_REACTORS
330
E
102
}
330
E
  0
ENDSEC
  0
EOF
