  0
SECTION
  2
HEADER
  9
$ACADVER
  1
AC1015
  9
$ACADMAINTVER
 70
     6
  9
$DWGCODEPAGE
  3
ANSI_1252
  9
$INSBASE
 10
0.0
 20
0.0
 30
0.0
  9
$EXTMIN
 10
0.0
 20
0.0
 30
0.0
  9
$EXTMAX
 10
297.0
 20
210.0
 30
0.0
  9
$LIMMIN
 10
0.0
 20
0.0
  9
$LIMMAX
 10
297.0
 20
210.0
  9
$ORTHOMODE
 70
     0
  9
$REGENMODE
 70
     1
  9
$FILLMODE
 70
     1
  9
$QTEXTMODE
 70
     0
  9
$MIRRTEXT
 70
     1
  9
$LTSCALE
 40
1.0
  9
$ATTMODE
 70
     1
  9
$TEXTSIZE
 40
2.0
  9
$TRACEWID
 40
1.0
  9
$TEXTSTYLE
  7
STANDARD
  9
$CLAYER
  8
0
  9
$CELTYPE
  6
ByLayer
  9
$CECOLOR
 62
   256
  9
$CELTSCALE
 40
1.0
  9
$DISPSILH
 70
     0
  9
$DIMSCALE
 40
1.0
  9
$DIMASZ
 40
3.0
  9
$DIMEXO
 40
0.0
  9
$DIMDLI
 40
3.75
  9
$DIMRND
 40
0.0
  9
$DIMDLE
 40
0.0
  9
$DIMEXE
 40
1.0
  9
$DIMTP
 40
0.0
  9
$DIMTM
 40
0.0
  9
$DIMTXT
 40
2.0
  9
$DIMCEN
 40
2.5
  9
$DIMTSZ
 40
0.0
  9
$DIMTOL
 70
     0
  9
$DIMLIM
 70
     0
  9
$DIMTIH
 70
     1
  9
$DIMTOH
 70
     1
  9
$DIMSE1
 70
     0
  9
$DIMSE2
 70
     0
  9
$DIMTAD
 70
     1
  9
$DIMZIN
 70
     0
  9
$DIMBLK
  1

  9
$DIMASO
 70
     1
  9
$DIMSHO
 70
     1
  9
$DIMPOST
  1

  9
$DIMAPOST
  1

  9
$DIMALT
 70
     0
  9
$DIMALTD
 70
     3
  9
$DIMALTF
 40
0.0393700787
  9
$DIMLFAC
 40
1.0
  9
$DIMTOFL
 70
     1
  9
$DIMTVP
 40
0.0
  9
$DIMTIX
 70
     0
  9
$DIMSOXD
 70
     0
  9
$DIMSAH
 70
     0
  9
$DIMBLK1
  1

  9
$DIMBLK2
  1

  9
$DIMSTYLE
  2
ISO-25
  9
$DIMCLRD
 70
     0
  9
$DIMCLRE
 70
     0
  9
$DIMCLRT
 70
     0
  9
$DIMTFAC
 40
1.0
  9
$DIMGAP
 40
1.524
  9
$DIMJUST
 70
     0
  9
$DIMSD1
 70
     0
  9
$DIMSD2
 70
     0
  9
$DIMTOLJ
 70
     0
  9
$DIMTZIN
 70
     0
  9
$DIMALTZ
 70
     0
  9
$DIMALTTZ
 70
     0
  9
$DIMUPT
 70
     0
  9
$DIMDEC
 70
     2
  9
$DIMTDEC
 70
     3
  9
$DIMALTU
 70
     2
  9
$DIMALTTD
 70
     3
  9
$DIMTXSTY
  7
STANDARD
  9
$DIMAUNIT
 70
     0
  9
$DIMADEC
 70
     2
  9
$DIMALTRND
 40
0.0
  9
$DIMAZIN
 70
     0
  9
$DIMDSEP
 70
    44
  9
$DIMATFIT
 70
     3
  9
$DIMFRAC
 70
     0
  9
$DIMLDRBLK
  1

  9
$DIMLUNIT
 70
     2
  9
$DIMLWD
 70
    -2
  9
$DIMLWE
 70
    -2
  9
$DIMTMOVE
 70
     0
  9
$LUNITS
 70
     2
  9
$LUPREC
 70
     2
  9
$SKETCHINC
 40
1.0
  9
$FILLETRAD
 40
10.0
  9
$AUNITS
 70
     0
  9
$AUPREC
 70
     2
  9
$MENU
  1
.
  9
$ELEVATION
 40
0.0
  9
$PELEVATION
 40
0.0
  9
$THICKNESS
 40
0.0
  9
$LIMCHECK
 70
     0
  9
$CHAMFERA
 40
10.0
  9
$CHAMFERB
 40
10.0
  9
$CHAMFERC
 40
20.0
  9
$CHAMFERD
 40
0.0
  9
$SKPOLY
 70
     0
  9
$TDCREATE
 40
2457150.3798575
  9
$TDUCREATE
 40
2457150.296524167
  9
$TDUPDATE
 40
2457150.379858403
  9
$TDUUPDATE
 40
2457150.29652507
  9
$TDINDWG
 40
0.0000000116
  9
$TDUSRTIMER
 40
0.0000000116
  9
$USRTIMER
 70
     1
  9
$ANGBASE
 50
0.0
  9
$ANGDIR
 70
     0
  9
$PDMODE
 70
     0
  9
$PDSIZE
 40
-1.0
  9
$PLINEWID
 40
0.0
  9
$SPLFRAME
 70
     0
  9
$SPLINETYPE
 70
     6
  9
$SPLINESEGS
 70
     8
  9
$HANDSEED
  5
40C
  9
$SURFTAB1
 70
     6
  9
$SURFTAB2
 70
     6
  9
$SURFTYPE
 70
     6
  9
$SURFU
 70
     6
  9
$SURFV
 70
     6
  9
$UCSBASE
  2

  9
$UCSNAME
  2

  9
$UCSORG
 10
0.0
 20
0.0
 30
0.0
  9
$UCSXDIR
 10
1.0
 20
0.0
 30
0.0
  9
$UCSYDIR
 10
0.0
 20
1.0
 30
0.0
  9
$UCSORTHOREF
  2

  9
$UCSORTHOVIEW
 70
     0
  9
$UCSORGTOP
 10
0.0
 20
0.0
 30
0.0
  9
$UCSORGBOTTOM
 10
0.0
 20
0.0
 30
0.0
  9
$UCSORGLEFT
 10
0.0
 20
0.0
 30
0.0
  9
$UCSORGRIGHT
 10
0.0
 20
0.0
 30
0.0
  9
$UCSORGFRONT
 10
0.0
 20
0.0
 30
0.0
  9
$UCSORGBACK
 10
0.0
 20
0.0
 30
0.0
  9
$PUCSBASE
  2

  9
$PUCSNAME
  2

  9
$PUCSORG
 10
0.0
 20
0.0
 30
0.0
  9
$PUCSXDIR
 10
1.0
 20
0.0
 30
0.0
  9
$PUCSYDIR
 10
0.0
 20
1.0
 30
0.0
  9
$PUCSORTHOREF
  2

  9
$PUCSORTHOVIEW
 70
     0
  9
$PUCSORGTOP
 10
0.0
 20
0.0
 30
0.0
  9
$PUCSORGBOTTOM
 10
0.0
 20
0.0
 30
0.0
  9
$PUCSORGLEFT
 10
0.0
 20
0.0
 30
0.0
  9
$PUCSORGRIGHT
 10
0.0
 20
0.0
 30
0.0
  9
$PUCSORGFRONT
 10
0.0
 20
0.0
 30
0.0
  9
$PUCSORGBACK
 10
0.0
 20
0.0
 30
0.0
  9
$USERI1
 70
     0
  9
$USERI2
 70
     0
  9
$USERI3
 70
     0
  9
$USERI4
 70
     0
  9
$USERI5
 70
     0
  9
$USERR1
 40
0.0
  9
$USERR2
 40
0.0
  9
$USERR3
 40
0.0
  9
$USERR4
 40
0.0
  9
$USERR5
 40
0.0
  9
$WORLDVIEW
 70
     1
  9
$SHADEDGE
 70
     3
  9
$SHADEDIF
 70
    70
  9
$TILEMODE
 70
     1
  9
$MAXACTVP
 70
    64
  9
$PINSBASE
 10
0.0
 20
0.0
 30
0.0
  9
$PLIMCHECK
 70
     0
  9
$PEXTMIN
 10
1.0000000000E+20
 20
1.0000000000E+20
 30
1.0000000000E+20
  9
$PEXTMAX
 10
-1.0000000000E+20
 20
-1.0000000000E+20
 30
-1.0000000000E+20
  9
$PLIMMIN
 10
0.0
 20
0.0
  9
$PLIMMAX
 10
420.0
 20
297.0
  9
$UNITMODE
 70
     0
  9
$VISRETAIN
 70
     1
  9
$PLINEGEN
 70
     0
  9
$PSLTSCALE
 70
     1
  9
$TREEDEPTH
 70
  3020
  9
$CMLSTYLE
  2
Standard
  9
$CMLJUST
 70
     0
  9
$CMLSCALE
 40
20.0
  9
$PROXYGRAPHICS
 70
     1
  9
$MEASUREMENT
 70
     1
  9
$CELWEIGHT
370
    -1
  9
$ENDCAPS
280
     0
  9
$JOINSTYLE
280
     0
  9
$LWDISPLAY
290
     1
  9
$INSUNITS
 70
     4
  9
$HYPERLINKBASE
  1

  9
$STYLESHEET
  1

  9
$XEDIT
290
     1
  9
$CEPSNTYPE
380
     0
  9
$PSTYLEMODE
290
     1
  9
$FINGERPRINTGUID
  2
{6E71E592-5BC4-453D-9A89-F75CBE6ED727}
  9
$VERSIONGUID
  2
{FAEB1C32-E019-11D5-929B-00C0DF256EC4}
  9
$EXTNAMES
290
     1
  9
$PSVPSCALE
 40
0.0
  9
$OLESTARTUP
290
     0
  0
ENDSEC
  0
SECTION
  2
CLASSES
  0
CLASS
  1
ACDBDICTIONARYWDFLT
  2
AcDbDictionaryWithDefault
  3
ObjectDBX Classes
 90
        0
280
     0
281
     0
  0
CLASS
  1
VISUALSTYLE
  2
AcDbVisualStyle
  3
ObjectDBX Classes
 90
     4095
280
     0
281
     0
  0
CLASS
  1
MATERIAL
  2
AcDbMaterial
  3
ObjectDBX Classes
 90
     1153
280
     0
281
     0
  0
CLASS
  1
ACDBPLACEHOLDER
  2
AcDbPlaceHolder
  3
ObjectDBX Classes
 90
        0
280
     0
281
     0
  0
CLASS
  1
LAYOUT
  2
AcDbLayout
  3
ObjectDBX Classes
 90
        0
280
     0
281
     0
  0
ENDSEC
  0
SECTION
  2
TABLES
  0
TABLE
  2
VPORT
  5
8
330
0
100
AcDbSymbolTable
 70
     1
  0
VPORT
  5
29
330
8
100
AcDbSymbolTableRecord
100
AcDbViewportTableRecord
  2
*Active
 70
     0
 10
0.0
 20
0.0
 11
1.0
 21
1.0
 12
148.5
 22
105.0
 13
0.0
 23
0.0
 14
10.0
 24
10.0
 15
10.0
 25
10.0
 16
0.0
 26
0.0
 36
1.0
 17
0.0
 27
0.0
 37
0.0
 40
210.0
 41
1.4142857143
 42
50.0
 43
0.0
 44
0.0
 50
0.0
 51
0.0
 71
     0
 72
  2000
 73
     1
 74
     3
 75
     0
 76
     0
 77
     0
 78
     0
281
     0
 65
     1
110
0.0
120
0.0
130
0.0
111
1.0
121
0.0
131
0.0
112
0.0
122
1.0
132
0.0
 79
     0
146
0.0
  0
ENDTAB
  0
TABLE
  2
LTYPE
  5
5
330
0
100
AcDbSymbolTable
 70
     8
  0
LTYPE
  5
14
330
5
100
AcDbSymbolTableRecord
100
AcDbLinetypeTableRecord
  2
ByBlock
 70
     0
  3

 72
    65
 73
     0
 40
0.0
  0
LTYPE
  5
15
330
5
100
AcDbSymbolTableRecord
100
AcDbLinetypeTableRecord
  2
ByLayer
 70
     0
  3

 72
    65
 73
     0
 40
0.0
  0
LTYPE
  5
16
330
5
100
AcDbSymbolTableRecord
100
AcDbLinetypeTableRecord
  2
Continuous
 70
     0
  3
Solid line
 72
    65
 73
     0
 40
0.0
  0
LTYPE
  5
3F
330
5
100
AcDbSymbolTableRecord
100
AcDbLinetypeTableRecord
  2
SLD-Durchgehend
 70
     0
  3
SolidWorks Line Style
 72
    65
 73
     0
 40
0.0
  0
LTYPE
  5
40
330
5
100
AcDbSymbolTableRecord
100
AcDbLinetypeTableRecord
  2
SLD-Gestrichelt
 70
     0
  3
SolidWorks Line Style
 72
    65
 73
     2
 40
1.905
 49
1.27
 74
     0
 49
-0.635
 74
     0
  0
LTYPE
  5
41
330
5
100
AcDbSymbolTableRecord
100
AcDbLinetypeTableRecord
  2
SLD-Phantom
 70
     0
  3
SolidWorks Line Style
 72
    65
 73
     6
 40
12.7
 49
6.35
 74
     0
 49
-1.27
 74
     0
 49
1.27
 74
     0
 49
-1.27
 74
     0
 49
1.27
 74
     0
 49
-1.27
 74
     0
  0
LTYPE
  5
42
330
5
100
AcDbSymbolTableRecord
100
AcDbLinetypeTableRecord
  2
SLD-Kette
 70
     0
  3
SolidWorks Line Style
 72
    65
 73
     4
 40
10.16
 49
6.35
 74
     0
 49
-1.27
 74
     0
 49
1.27
 74
     0
 49
-1.27
 74
     0
  0
LTYPE
  5
43
330
5
100
AcDbSymbolTableRecord
100
AcDbLinetypeTableRecord
  2
SLD-Punktstrich
 70
     0
  3
SolidWorks Line Style
 72
    65
 73
     4
 40
19.05
 49
15.24
 74
     0
 49
-1.27
 74
     0
 49
1.27
 74
     0
 49
-1.27
 74
     0
  0
LTYPE
  5
44
330
5
100
AcDbSymbolTableRecord
100
AcDbLinetypeTableRecord
  2
SLD-Naht
 70
     0
  3
SolidWorks Line Style
 72
    65
 73
     2
 40
0.635
 49
0.0
 74
     0
 49
-0.635
 74
     0
  0
LTYPE
  5
45
330
5
100
AcDbSymbolTableRecord
100
AcDbLinetypeTableRecord
  2
SLD-Dicke-Dünne-Kette
 70
     0
  3
SolidWorks Line Style
 72
    65
 73
     4
 40
10.16
 49
6.35
 74
     0
 49
-1.27
 74
     0
 49
1.27
 74
     0
 49
-1.27
 74
     0
  0
ENDTAB
  0
TABLE
  2
LAYER
  5
2
330
0
100
AcDbSymbolTable
 70
     5
  0
LAYER
  5
10
330
2
100
AcDbSymbolTableRecord
100
AcDbLayerTableRecord
  2
0
 70
     0
 62
     7
  6
Continuous
370
    -3
390
F
  0
LAYER
  5
46
330
2
100
AcDbSymbolTableRecord
100
AcDbLayerTableRecord
  2
FORMAT
 70
     0
 62
     7
  6
SLD-Durchgehend
370
    -3
390
F
  0
LAYER
  5
47
330
2
100
AcDbSymbolTableRecord
100
AcDbLayerTableRecord
  2
VERMASSUNG
 70
     0
 62
     7
  6
SLD-Durchgehend
370
    -3
390
F
  0
LAYER
  5
48
330
2
100
AcDbSymbolTableRecord
100
AcDbLayerTableRecord
  2
KOPF_DÜNN
 70
     0
 62
     7
  6
SLD-Durchgehend
370
    -3
390
F
  0
LAYER
  5
49
330
2
100
AcDbSymbolTableRecord
100
AcDbLayerTableRecord
  2
KOPF_DICK
 70
     0
 62
     7
  6
SLD-Durchgehend
370
    15
390
F
  0
ENDTAB
  0
TABLE
  2
STYLE
  5
3
330
0
100
AcDbSymbolTable
 70
     2
  0
STYLE
  5
11
330
3
100
AcDbSymbolTableRecord
100
AcDbTextStyleTableRecord
  2
STANDARD
 70
     0
 40
0.0
 41
1.0
 50
0.0
 71
     0
 42
2.0
  3
ISOCPEUR.TTF
  4

1001
ACAD
1000
ISOCPEUR
1071
       34
  0
STYLE
  5
4A
330
3
100
AcDbSymbolTableRecord
100
AcDbTextStyleTableRecord
  2
SLDTEXTSTYLE0
 70
     0
 40
0.0
 41
1.0
 50
0.0
 71
     0
 42
0.2
  3
ISOCPEUR.TTF
  4

1001
ACAD
1000
ISOCPEUR
1071
      290
  0
ENDTAB
  0
TABLE
  2
VIEW
  5
6
330
0
100
AcDbSymbolTable
 70
     0
  0
ENDTAB
  0
TABLE
  2
UCS
  5
7
330
0
100
AcDbSymbolTable
 70
     0
  0
ENDTAB
  0
TABLE
  2
APPID
  5
9
330
0
100
AcDbSymbolTable
 70
     1
  0
APPID
  5
12
330
9
100
AcDbSymbolTableRecord
100
AcDbRegAppTableRecord
  2
ACAD
 70
     0
  0
ENDTAB
  0
TABLE
  2
DIMSTYLE
  5
A
330
0
100
AcDbSymbolTable
 70
     5
100
AcDbDimStyleTable
  0
DIMSTYLE
105
27
330
A
100
AcDbSymbolTableRecord
100
AcDbDimStyleTableRecord
  2
ISO-25
 70
     0
 41
2.5
 42
0.625
 43
3.75
 44
1.25
 73
     0
 74
     0
 77
     1
 78
     8
140
2.5
141
2.5
143
0.0393700787
147
0.625
171
     3
172
     1
178
     0
271
     2
272
     2
274
     3
278
    44
283
     0
284
     8
340
11
  0
DIMSTYLE
105
258
102
{ACAD_REACTORS
330
257
330
262
330
28C
102
}
330
A
100
AcDbSymbolTableRecord
100
AcDbDimStyleTableRecord
  2
SLDDIMSTYLE0
 70
     0
 41
3.0
 44
0.0
 45
0.000000001
 73
     0
 74
     0
 77
     1
 78
    12
 79
     3
140
2.0
147
0.5
173
     1
178
     0
271
     2
272
     3
276
     2
284
    12
340
4A
  0
DIMSTYLE
105
26D
102
{ACAD_REACTORS
330
26C
102
}
330
A
100
AcDbSymbolTableRecord
100
AcDbDimStyleTableRecord
  2
SLDDIMSTYLE1
 70
     0
 41
3.0
 44
0.0
 45
0.000000001
 73
     0
 74
     0
 77
     1
 78
    12
 79
     3
140
2.0
147
0.5
172
     1
173
     1
178
     0
271
     2
272
     3
276
     2
284
    12
289
     0
340
4A
  0
DIMSTYLE
105
279
102
{ACAD_REACTORS
330
278
102
}
330
A
100
AcDbSymbolTableRecord
100
AcDbDimStyleTableRecord
  2
SLDDIMSTYLE2
 70
     0
 41
3.0
 44
0.0
 45
0.000000001
 73
     0
 74
     0
 77
     1
 78
    12
 79
     3
140
2.0
141
0.0
147
0.5
173
     1
178
     0
271
     2
272
     3
276
     2
279
     1
284
    12
340
4A
  0
DIMSTYLE
105
281
102
{ACAD_REACTORS
330
280
330
298
102
}
330
A
100
AcDbSymbolTableRecord
100
AcDbDimStyleTableRecord
  2
SLDDIMSTYLE3
 70
     0
 41
3.0
 44
0.0
 45
0.000000001
 73
     0
 74
     0
 77
     1
 78
    12
 79
     3
140
2.0
147
0.5
172
     1
173
     1
178
     0
271
     1
272
     3
276
     2
284
    12
289
     0
340
4A
  0
ENDTAB
  0
TABLE
  2
BLOCK_RECORD
  5
1
330
0
100
AcDbSymbolTable
 70
     9
  0
BLOCK_RECORD
  5
1F
330
1
100
AcDbSymbolTableRecord
100
AcDbBlockTableRecord
  2
*Model_Space
340
22
  0
BLOCK_RECORD
  5
1B
330
1
100
AcDbSymbolTableRecord
100
AcDbBlockTableRecord
  2
*Paper_Space
340
1E
  0
BLOCK_RECORD
  5
23
330
1
100
AcDbSymbolTableRecord
100
AcDbBlockTableRecord
  2
*Paper_Space0
340
26
  0
BLOCK_RECORD
  5
259
330
1
100
AcDbSymbolTableRecord
100
AcDbBlockTableRecord
  2
_D
340
0
  0
BLOCK_RECORD
  5
263
330
1
100
AcDbSymbolTableRecord
100
AcDbBlockTableRecord
  2
_D_1
340
0
  0
BLOCK_RECORD
  5
26E
330
1
100
AcDbSymbolTableRecord
100
AcDbBlockTableRecord
  2
_D_2
340
0
  0
BLOCK_RECORD
  5
27A
330
1
100
AcDbSymbolTableRecord
100
AcDbBlockTableRecord
  2
_D_3
340
0
  0
BLOCK_RECORD
  5
282
330
1
100
AcDbSymbolTableRecord
100
AcDbBlockTableRecord
  2
_D_4
340
0
  0
BLOCK_RECORD
  5
28D
330
1
100
AcDbSymbolTableRecord
100
AcDbBlockTableRecord
  2
_D_5
340
0
  0
BLOCK_RECORD
  5
299
330
1
100
AcDbSymbolTableRecord
100
AcDbBlockTableRecord
  2
_D_6
340
0
  0
BLOCK_RECORD
  5
3FF
330
1
100
AcDbSymbolTableRecord
100
AcDbBlockTableRecord
  2
SW_CENTERMARKSYMBOL_0
340
0
102
{BLKREFS
331
40A
102
}
  0
ENDTAB
  0
ENDSEC
  0
SECTION
  2
BLOCKS
  0
BLOCK
  5
20
330
1F
100
AcDbEntity
  8
0
100
AcDbBlockBegin
  2
*Model_Space
 70
     0
 10
0.0
 20
0.0
 30
0.0
  3
*Model_Space
  1

  0
ENDBLK
  5
21
330
1F
100
AcDbEntity
  8
0
100
AcDbBlockEnd
  0
BLOCK
  5
1C
330
1B
100
AcDbEntity
 67
     1
  8
0
100
AcDbBlockBegin
  2
*Paper_Space
 70
     0
 10
0.0
 20
0.0
 30
0.0
  3
*Paper_Space
  1

  0
ENDBLK
  5
1D
330
1B
100
AcDbEntity
 67
     1
  8
0
100
AcDbBlockEnd
  0
BLOCK
  5
24
330
23
100
AcDbEntity
  8
0
100
AcDbBlockBegin
  2
*Paper_Space0
 70
     0
 10
0.0
 20
0.0
 30
0.0
  3
*Paper_Space0
  1

  0
ENDBLK
  5
25
330
23
100
AcDbEntity
  8
0
100
AcDbBlockEnd
  0
BLOCK
  5
25A
330
259
100
AcDbEntity
  8
0
100
AcDbBlockBegin
  2
_D
 70
     0
 10
0.0
 20
0.0
 30
0.0
  3
_D
  1

  0
SOLID
  5
25C
330
259
100
AcDbEntity
  8
VERMASSUNG
100
AcDbTrace
 10
263.6370954755
 20
161.2822177878
 30
0.0
 11
260.6370954755
 21
161.7322177878
 31
0.0
 12
260.6370954755
 22
160.8322177878
 32
0.0
 13
260.6370954755
 23
160.8322177878
 33
0.0
  0
SOLID
  5
25D
330
259
100
AcDbEntity
  8
VERMASSUNG
100
AcDbTrace
 10
163.6370954755
 20
161.2822177878
 30
0.0
 11
166.6370954755
 21
160.8322177878
 31
0.0
 12
166.6370954755
 22
161.7322177878
 32
0.0
 13
166.6370954755
 23
161.7322177878
 33
0.0
  0
LINE
  5
25E
330
259
100
AcDbEntity
  8
VERMASSUNG
100
AcDbLine
 10
263.6370954755
 20
134.1349132997
 30
0.0
 11
263.6370954755
 21
162.2822177878
 31
0.0
  0
LINE
  5
25F
330
259
100
AcDbEntity
  8
VERMASSUNG
100
AcDbLine
 10
163.6370954755
 20
144.7822177878
 30
0.0
 11
163.6370954755
 21
162.2822177878
 31
0.0
  0
LINE
  5
260
330
259
100
AcDbEntity
  8
VERMASSUNG
100
AcDbLine
 10
263.6370954755
 20
161.2822177878
 30
0.0
 11
163.6370954755
 21
161.2822177878
 31
0.0
  0
MTEXT
  5
261
330
259
100
AcDbEntity
  8
VERMASSUNG
100
AcDbMText
 10
210.8370953425
 20
163.8822176714
 30
0.1
 40
2.0
 41
0.0
 71
     1
 72
     1
  1
100
  7
SLDTEXTSTYLE0
 73
     1
 44
1.0
  0
ENDBLK
  5
25B
330
259
100
AcDbEntity
  8
0
100
AcDbBlockEnd
  0
BLOCK
  5
264
330
263
100
AcDbEntity
  8
0
100
AcDbBlockBegin
  2
_D_1
 70
     0
 10
0.0
 20
0.0
 30
0.0
  3
_D_1
  1

  0
SOLID
  5
266
330
263
100
AcDbEntity
  8
VERMASSUNG
100
AcDbTrace
 10
228.6370954755
 20
155.2822177878
 30
0.0
 11
225.6370954755
 21
155.7322177878
 31
0.0
 12
225.6370954755
 22
154.8322177878
 32
0.0
 13
225.6370954755
 23
154.8322177878
 33
0.0
  0
SOLID
  5
267
330
263
100
AcDbEntity
  8
VERMASSUNG
100
AcDbTrace
 10
163.6370954755
 20
155.2822177878
 30
0.0
 11
166.6370954755
 21
154.8322177878
 31
0.0
 12
166.6370954755
 22
155.7322177878
 32
0.0
 13
166.6370954755
 23
155.7322177878
 33
0.0
  0
LINE
  5
268
330
263
100
AcDbEntity
  8
VERMASSUNG
100
AcDbLine
 10
228.6370954755
 20
136.0845717028
 30
0.0
 11
228.6370954755
 21
156.2822177878
 31
0.0
  0
LINE
  5
269
330
263
100
AcDbEntity
  8
VERMASSUNG
100
AcDbLine
 10
163.6370954755
 20
144.7822177878
 30
0.0
 11
163.6370954755
 21
156.2822177878
 31
0.0
  0
LINE
  5
26A
330
263
100
AcDbEntity
  8
VERMASSUNG
100
AcDbLine
 10
228.6370954755
 20
155.2822177878
 30
0.0
 11
163.6370954755
 21
155.2822177878
 31
0.0
  0
MTEXT
  5
26B
330
263
100
AcDbEntity
  8
VERMASSUNG
100
AcDbMText
 10
193.8370954245
 20
157.8822176714
 30
0.1
 40
2.0
 41
0.0
 71
     1
 72
     1
  1
65
  7
SLDTEXTSTYLE0
 73
     1
 44
1.0
  0
ENDBLK
  5
265
330
263
100
AcDbEntity
  8
0
100
AcDbBlockEnd
  0
BLOCK
  5
26F
330
26E
100
AcDbEntity
  8
0
100
AcDbBlockBegin
  2
_D_2
 70
     0
 10
0.0
 20
0.0
 30
0.0
  3
_D_2
  1

  0
SOLID
  5
271
330
26E
100
AcDbEntity
  8
VERMASSUNG
100
AcDbTrace
 10
200.8174505626
 20
101.2822177878
 30
0.0
 11
200.3674505626
 21
98.2822177878
 31
0.0
 12
201.2674505626
 22
98.2822177878
 32
0.0
 13
201.2674505626
 23
98.2822177878
 33
0.0
  0
SOLID
  5
272
330
26E
100
AcDbEntity
  8
VERMASSUNG
100
AcDbTrace
 10
200.8174505626
 20
126.2822177878
 30
0.0
 11
201.2674505626
 21
129.2822177878
 31
0.0
 12
200.3674505626
 22
129.2822177878
 32
0.0
 13
200.3674505626
 23
129.2822177878
 33
0.0
  0
LINE
  5
273
330
26E
100
AcDbEntity
  8
VERMASSUNG
100
AcDbLine
 10
200.8174505626
 20
101.2822177878
 30
0.0
 11
200.8174505626
 21
95.2822177878
 31
0.0
  0
LINE
  5
274
330
26E
100
AcDbEntity
  8
VERMASSUNG
100
AcDbLine
 10
200.8174505626
 20
101.2822177878
 30
0.0
 11
200.8174505626
 21
126.2822177878
 31
0.0
  0
LINE
  5
275
330
26E
100
AcDbEntity
  8
VERMASSUNG
100
AcDbLine
 10
200.8174505626
 20
126.2822177878
 30
0.0
 11
200.8174505626
 21
135.7445619866
 31
0.0
  0
MTEXT
  5
276
330
26E
100
AcDbEntity
  8
VERMASSUNG
100
AcDbMText
 10
198.2174505626
 20
127.5345623359
 30
0.1
 40
2.0
 41
0.0
 71
     1
 72
     1
  1
%%c
  7
SLDTEXTSTYLE0
 11
6.123233995736766E-17
 21
1.0
 31
0.0
 73
     1
 44
1.0
  0
MTEXT
  5
277
330
26E
100
AcDbEntity
  8
VERMASSUNG
100
AcDbMText
 10
198.0174505531
 20
131.1445623502
 30
0.1
 40
2.0
 41
0.0
 71
     1
 72
     1
  1
25
  7
SLDTEXTSTYLE0
 11
6.123233995736766E-17
 21
1.0
 31
0.0
 73
     1
 44
1.0
  0
ENDBLK
  5
270
330
26E
100
AcDbEntity
  8
0
100
AcDbBlockEnd
  0
BLOCK
  5
27B
330
27A
100
AcDbEntity
  8
0
100
AcDbBlockBegin
  2
_D_3
 70
     0
 10
0.0
 20
0.0
 30
0.0
  3
_D_3
  1

  0
SOLID
  5
27D
330
27A
100
AcDbEntity
  8
VERMASSUNG
100
AcDbTrace
 10
186.3924758223
 20
127.9428923924
 30
0.0
 11
189.0891146692
 21
129.332366728
 31
0.0
 12
188.5627664552
 22
130.06240615
 32
0.0
 13
188.5627664552
 23
130.06240615
 33
0.0
  0
LINE
  5
27E
330
27A
100
AcDbEntity
  8
VERMASSUNG
100
AcDbLine
 10
186.3924758223
 20
127.9428923924
 30
0.0
 11
193.2872927289
 21
132.9139589612
 31
0.0
  0
MTEXT
  5
27F
330
27A
100
AcDbEntity
  8
VERMASSUNG
100
AcDbMText
 10
187.7109564364
 20
132.0988046901
 30
0.1
 40
2.0
 41
0.0
 71
     1
 72
     1
  1
R4
  7
SLDTEXTSTYLE0
 11
0.8111549133052217
 21
0.5848313488697389
 31
0.0
 73
     1
 44
1.0
  0
ENDBLK
  5
27C
330
27A
100
AcDbEntity
  8
0
100
AcDbBlockEnd
  0
BLOCK
  5
283
330
282
100
AcDbEntity
  8
0
100
AcDbBlockBegin
  2
_D_4
 70
     0
 10
0.0
 20
0.0
 30
0.0
  3
_D_4
  1

  0
SOLID
  5
285
330
282
100
AcDbEntity
  8
VERMASSUNG
100
AcDbTrace
 10
232.8338327572
 20
117.4390720373
 30
0.0
 11
232.3838327572
 21
114.4390720373
 31
0.0
 12
233.2838327572
 22
114.4390720373
 32
0.0
 13
233.2838327572
 23
114.4390720373
 33
0.0
  0
SOLID
  5
286
330
282
100
AcDbEntity
  8
VERMASSUNG
100
AcDbTrace
 10
232.8338327572
 20
121.4390720373
 30
0.0
 11
233.2838327572
 21
124.4390720373
 31
0.0
 12
232.3838327572
 22
124.4390720373
 32
0.0
 13
232.3838327572
 23
124.4390720373
 33
0.0
  0
LINE
  5
287
330
282
100
AcDbEntity
  8
VERMASSUNG
100
AcDbLine
 10
232.8338327572
 20
117.4390720373
 30
0.0
 11
232.8338327572
 21
111.4390720373
 31
0.0
  0
LINE
  5
288
330
282
100
AcDbEntity
  8
VERMASSUNG
100
AcDbLine
 10
232.8338327572
 20
117.4390720373
 30
0.0
 11
232.8338327572
 21
121.4390720373
 31
0.0
  0
LINE
  5
289
330
282
100
AcDbEntity
  8
VERMASSUNG
100
AcDbLine
 10
232.8338327572
 20
121.4390720373
 30
0.0
 11
232.8338327572
 21
133.5249518583
 31
0.0
  0
MTEXT
  5
28A
330
282
100
AcDbEntity
  8
VERMASSUNG
100
AcDbMText
 10
230.2338327572
 20
126.514951566
 30
0.1
 40
2.0
 41
0.0
 71
     1
 72
     1
  1
%%c
  7
SLDTEXTSTYLE0
 11
6.123233995736766E-17
 21
1.0
 31
0.0
 73
     1
 44
1.0
  0
MTEXT
  5
28B
330
282
100
AcDbEntity
  8
VERMASSUNG
100
AcDbMText
 10
230.0338327477
 20
130.1249515804
 30
0.1
 40
2.0
 41
0.0
 71
     1
 72
     1
  1
4
  7
SLDTEXTSTYLE0
 11
6.123233995736766E-17
 21
1.0
 31
0.0
 73
     1
 44
1.0
  0
ENDBLK
  5
284
330
282
100
AcDbEntity
  8
0
100
AcDbBlockEnd
  0
BLOCK
  5
28E
330
28D
100
AcDbEntity
  8
0
100
AcDbBlockBegin
  2
_D_5
 70
     0
 10
0.0
 20
0.0
 30
0.0
  3
_D_5
  1

  0
SOLID
  5
290
330
28D
100
AcDbEntity
  8
VERMASSUNG
100
AcDbTrace
 10
120.0394100582
 20
82.2822177878
 30
0.0
 11
120.4894100582
 21
85.2822177878
 31
0.0
 12
119.5894100582
 22
85.2822177878
 32
0.0
 13
119.5894100582
 23
85.2822177878
 33
0.0
  0
SOLID
  5
291
330
28D
100
AcDbEntity
  8
VERMASSUNG
100
AcDbTrace
 10
120.0394100582
 20
145.2822177878
 30
0.0
 11
119.5894100582
 21
142.2822177878
 31
0.0
 12
120.4894100582
 22
142.2822177878
 32
0.0
 13
120.4894100582
 23
142.2822177878
 33
0.0
  0
LINE
  5
292
330
28D
100
AcDbEntity
  8
VERMASSUNG
100
AcDbLine
 10
164.1370954755
 20
82.2822177878
 30
0.0
 11
119.0394100582
 21
82.2822177878
 31
0.0
  0
LINE
  5
293
330
28D
100
AcDbEntity
  8
VERMASSUNG
100
AcDbLine
 10
164.1370954755
 20
145.2822177878
 30
0.0
 11
119.0394100582
 21
145.2822177878
 31
0.0
  0
LINE
  5
294
330
28D
100
AcDbEntity
  8
VERMASSUNG
100
AcDbLine
 10
120.0394100582
 20
82.2822177878
 30
0.0
 11
120.0394100582
 21
145.2822177878
 31
0.0
  0
MTEXT
  5
295
330
28D
100
AcDbEntity
  8
VERMASSUNG
100
AcDbMText
 10
117.2394100487
 20
106.7772173009
 30
0.1
 40
2.0
 41
0.0
 71
     1
 72
     1
  1
PSC 
  7
SLDTEXTSTYLE0
 11
6.123233995736766E-17
 21
1.0
 31
0.0
 73
     1
 44
1.0
  0
MTEXT
  5
296
330
28D
100
AcDbEntity
  8
VERMASSUNG
100
AcDbMText
 10
117.4394100582
 20
112.5772176928
 30
0.1
 40
2.0
 41
0.0
 71
     1
 72
     1
  1
%%c
  7
SLDTEXTSTYLE0
 11
6.123233995736766E-17
 21
1.0
 31
0.0
 73
     1
 44
1.0
  0
MTEXT
  5
297
330
28D
100
AcDbEntity
  8
VERMASSUNG
100
AcDbMText
 10
117.2394100487
 20
116.1872177071
 30
0.1
 40
2.0
 41
0.0
 71
     1
 72
     1
  1
63
  7
SLDTEXTSTYLE0
 11
6.123233995736766E-17
 21
1.0
 31
0.0
 73
     1
 44
1.0
  0
ENDBLK
  5
28F
330
28D
100
AcDbEntity
  8
0
100
AcDbBlockEnd
  0
BLOCK
  5
29A
330
299
100
AcDbEntity
  8
0
100
AcDbBlockBegin
  2
_D_6
 70
     0
 10
0.0
 20
0.0
 30
0.0
  3
_D_6
  1

  0
SOLID
  5
29C
330
299
100
AcDbEntity
  8
VERMASSUNG
100
AcDbTrace
 10
273.6370954755
 20
108.1253635383
 30
0.0
 11
273.1870954755
 21
105.1253635383
 31
0.0
 12
274.0870954755
 22
105.1253635383
 32
0.0
 13
274.0870954755
 23
105.1253635383
 33
0.0
  0
SOLID
  5
29D
330
299
100
AcDbEntity
  8
VERMASSUNG
100
AcDbTrace
 10
273.6370954755
 20
119.4390720373
 30
0.0
 11
274.0870954755
 21
122.4390720373
 31
0.0
 12
273.1870954755
 22
122.4390720373
 32
0.0
 13
273.1870954755
 23
122.4390720373
 33
0.0
  0
LINE
  5
29E
330
299
100
AcDbEntity
  8
VERMASSUNG
100
AcDbLine
 10
243.44407252
 20
108.1253635383
 30
0.0
 11
274.6370954755
 21
108.1253635383
 31
0.0
  0
LINE
  5
29F
330
299
100
AcDbEntity
  8
VERMASSUNG
100
AcDbLine
 10
243.8911642344
 20
119.4390720373
 30
0.0
 11
274.6370954755
 21
119.4390720373
 31
0.0
  0
LINE
  5
2A0
330
299
100
AcDbEntity
  8
VERMASSUNG
100
AcDbLine
 10
273.6370954755
 20
108.1253635383
 30
0.0
 11
273.6370954755
 21
102.1253635383
 31
0.0
  0
LINE
  5
2A1
330
299
100
AcDbEntity
  8
VERMASSUNG
100
AcDbLine
 10
273.6370954755
 20
108.1253635383
 30
0.0
 11
273.6370954755
 21
119.4390720373
 31
0.0
  0
LINE
  5
2A2
330
299
100
AcDbEntity
  8
VERMASSUNG
100
AcDbLine
 10
273.6370954755
 20
119.4390720373
 30
0.0
 11
273.6370954755
 21
125.4390720373
 31
0.0
  0
MTEXT
  5
2A3
330
299
100
AcDbEntity
  8
VERMASSUNG
100
AcDbMText
 10
271.0370955919
 20
110.8822175919
 30
0.1
 40
2.0
 41
0.0
 71
     1
 72
     1
  1
11.3
  7
SLDTEXTSTYLE0
 11
6.123233995736766E-17
 21
1.0
 31
0.0
 73
     1
 44
1.0
  0
ENDBLK
  5
29B
330
299
100
AcDbEntity
  8
0
100
AcDbBlockEnd
  0
BLOCK
  5
400
330
3FF
100
AcDbEntity
  8
0
100
AcDbBlockBegin
  2
SW_CENTERMARKSYMBOL_0
 70
     0
 10
0.0
 20
0.0
 30
0.0
  3
SW_CENTERMARKSYMBOL_0
  1

  0
LINE
  5
402
330
3FF
100
AcDbEntity
  8
VERMASSUNG
 62
     0
100
AcDbLine
 10
0.0
 20
0.0
 30
0.0
 11
0.0
 21
2.5
 31
0.0
  0
LINE
  5
403
330
3FF
100
AcDbEntity
  8
VERMASSUNG
 62
     0
100
AcDbLine
 10
0.0
 20
0.0
 30
0.0
 11
-2.5
 21
0.0
 31
0.0
  0
LINE
  5
404
330
3FF
100
AcDbEntity
  8
VERMASSUNG
 62
     0
100
AcDbLine
 10
0.0
 20
0.0
 30
0.0
 11
0.0
 21
-2.5
 31
0.0
  0
LINE
  5
405
330
3FF
100
AcDbEntity
  8
VERMASSUNG
 62
     0
100
AcDbLine
 10
0.0
 20
0.0
 30
0.0
 11
2.5
 21
0.0
 31
0.0
  0
LINE
  5
406
330
3FF
100
AcDbEntity
  8
VERMASSUNG
 62
     0
100
AcDbLine
 10
0.0
 20
5.0
 30
0.0
 11
0.0
 21
34.0
 31
0.0
  0
LINE
  5
407
330
3FF
100
AcDbEntity
  8
VERMASSUNG
 62
     0
100
AcDbLine
 10
-5.0
 20
0.0
 30
0.0
 11
-34.0
 21
0.0
 31
0.0
  0
LINE
  5
408
330
3FF
100
AcDbEntity
  8
VERMASSUNG
 62
     0
100
AcDbLine
 10
0.0
 20
-5.0
 30
0.0
 11
0.0
 21
-34.0
 31
0.0
  0
LINE
  5
409
330
3FF
100
AcDbEntity
  8
VERMASSUNG
 62
     0
100
AcDbLine
 10
5.0
 20
0.0
 30
0.0
 11
34.0
 21
0.0
 31
0.0
  0
ENDBLK
  5
401
330
3FF
100
AcDbEntity
  8
0
100
AcDbBlockEnd
  0
ENDSEC
  0
SECTION
  2
ENTITIES
  0
MTEXT
  5
4B
330
1F
100
AcDbEntity
  8
KOPF_DÜNN
100
AcDbMText
 10
13.8892156294
 20
23.8770940835
 30
0.0
 40
3.0
 41
0.0
 71
     1
 72
     1
  1
PS6.WK3.025.100
  7
SLDTEXTSTYLE0
 73
     1
 44
1.0
  0
MTEXT
  5
4C
330
1F
100
AcDbEntity
  8
VERMASSUNG
100
AcDbMText
 10
13.9329988022
 20
28.9162328764
 30
0.0
 40
3.0
 41
0.0
 71
     1
 72
     1
  1
Bohrstange ø25
  7
SLDTEXTSTYLE0
 73
     1
 44
1.0
  0
MTEXT
  5
4D
330
1F
100
AcDbEntity
  8
VERMASSUNG
100
AcDbMText
 10
98.8601118557
 20
13.8584013384
 30
0.0
 40
2.0
 41
0.0
 71
     1
 72
     1
  1
Datum: 07.05.2015
  7
SLDTEXTSTYLE0
 73
     1
 44
1.0
  0
MTEXT
  5
4E
330
1F
100
AcDbEntity
  8
VERMASSUNG
100
AcDbMText
 10
13.933048693
 20
18.0701447943
 30
0.0
 40
2.0
 41
0.0
 71
     1
 72
     1
  1
PSC ø63 / Wechselkopf-Bohrstange
  7
SLDTEXTSTYLE0
 73
     1
 44
1.0
  0
MTEXT
  5
4F
330
1F
100
AcDbEntity
  8
VERMASSUNG
100
AcDbMText
 10
13.9808475933
 20
13.9309618897
 30
0.0
 40
2.0
 41
0.0
 71
     1
 72
     1
  1
Gewicht: 903g
  7
SLDTEXTSTYLE0
 73
     1
 44
1.0
  0
LINE
  5
50
330
1F
100
AcDbEntity
  8
0
  6
SLD-Durchgehend
 62
     7
370
    15
100
AcDbLine
 10
237.9370940569
 20
111.6253636463
 30
0.0
 11
234.1370967868
 21
111.6253636463
 31
0.0
  0
LINE
  5
51
330
1F
100
AcDbEntity
  8
0
  6
SLD-Durchgehend
 62
     7
370
    15
100
AcDbLine
 10
234.1370967868
 20
104.6253638959
 30
0.0
 11
237.9370940569
 21
104.6253638959
 31
0.0
  0
ARC
  5
52
330
1F
100
AcDbEntity
  8
0
  6
SLD-Durchgehend
 62
     7
370
    15
100
AcDbCircle
 10
237.9370954755
 20
111.4253635383
 30
0.0
 40
0.2000000000000171
100
AcDbArc
 50
0.0
 51
90.0
  0
ARC
  5
53
330
1F
100
AcDbEntity
  8
0
  6
SLD-Durchgehend
 62
     7
370
    15
100
AcDbCircle
 10
237.9370954755
 20
104.8253635383
 30
0.0
 40
0.2000000000000171
100
AcDbArc
 50
270.0
 51
0.0
  0
ARC
  5
54
330
1F
100
AcDbEntity
  8
0
  6
SLD-Durchgehend
 62
     7
370
    15
100
AcDbCircle
 10
233.9370954755
 20
105.9253635383
 30
0.0
 40
0.2000000000000171
100
AcDbArc
 50
0.0
 51
90.0
  0
ARC
  5
55
330
1F
100
AcDbEntity
  8
0
  6
SLD-Durchgehend
 62
     7
370
    15
100
AcDbCircle
 10
233.9370954755
 20
110.3253635383
 30
0.0
 40
0.2000000000000171
100
AcDbArc
 50
270.0
 51
0.0
  0
LINE
  5
56
330
1F
100
AcDbEntity
  8
0
  6
SLD-Durchgehend
 62
     7
370
    15
100
AcDbLine
 10
233.9370934013
 20
110.1253636333
 30
0.0
 11
228.2628131751
 21
110.1253636333
 31
0.0
  0
LINE
  5
57
330
1F
100
AcDbEntity
  8
0
  6
SLD-Durchgehend
 62
     7
370
    15
100
AcDbLine
 10
228.3687753323
 20
106.1253636761
 30
0.0
 11
233.9370934013
 21
106.1253636761
 31
0.0
  0
LINE
  5
58
330
1F
100
AcDbEntity
  8
0
  6
SLD-Durchgehend
 62
     7
370
    15
100
AcDbLine
 10
237.9370940569
 20
122.9390716797
 30
0.0
 11
234.1370967868
 21
122.9390716797
 31
0.0
  0
LINE
  5
59
330
1F
100
AcDbEntity
  8
0
  6
SLD-Durchgehend
 62
     7
370
    15
100
AcDbLine
 10
234.1370967868
 20
115.9390719293
 30
0.0
 11
237.9370940569
 21
115.9390719293
 31
0.0
  0
ARC
  5
5A
330
1F
100
AcDbEntity
  8
0
  6
SLD-Durchgehend
 62
     7
370
    15
100
AcDbCircle
 10
237.9370954755
 20
122.7390720373
 30
0.0
 40
0.2000000000000171
100
AcDbArc
 50
0.0
 51
90.0
  0
ARC
  5
5B
330
1F
100
AcDbEntity
  8
0
  6
SLD-Durchgehend
 62
     7
370
    15
100
AcDbCircle
 10
237.9370954755
 20
116.1390720373
 30
0.0
 40
0.2000000000000171
100
AcDbArc
 50
270.0
 51
0.0
  0
ARC
  5
5C
330
1F
100
AcDbEntity
  8
0
  6
SLD-Durchgehend
 62
     7
370
    15
100
AcDbCircle
 10
233.9370954755
 20
117.2390720373
 30
0.0
 40
0.2000000000000171
100
AcDbArc
 50
0.0
 51
90.0
  0
ARC
  5
5D
330
1F
100
AcDbEntity
  8
0
  6
SLD-Durchgehend
 62
     7
370
    15
100
AcDbCircle
 10
233.9370954755
 20
121.6390720373
 30
0.0
 40
0.2000000000000171
100
AcDbArc
 50
270.0
 51
0.0
  0
LINE
  5
5E
330
1F
100
AcDbEntity
  8
0
  6
SLD-Durchgehend
 62
     7
370
    15
100
AcDbLine
 10
233.9370934013
 20
121.4390718995
 30
0.0
 11
228.3687753323
 21
121.4390718995
 31
0.0
  0
LINE
  5
5F
330
1F
100
AcDbEntity
  8
0
  6
SLD-Durchgehend
 62
     7
370
    15
100
AcDbLine
 10
228.262299085
 20
117.4390719424
 30
0.0
 11
233.9370934013
 21
117.4390719424
 31
0.0
  0
ARC
  5
60
330
1F
100
AcDbEntity
  8
0
  6
SLD-Durchgehend
 62
     7
370
    15
100
AcDbCircle
 10
164.1370954755
 20
82.7822177878
 30
0.0
 40
0.5
100
AcDbArc
 50
180.0
 51
270.0
  0
ARC
  5
61
330
1F
100
AcDbEntity
  8
0
  6
SLD-Durchgehend
 62
     7
370
    15
100
AcDbCircle
 10
164.1370954755
 20
144.7822177878
 30
0.0
 40
0.5
100
AcDbArc
 50
90.0
 51
180.0
  0
ARC
  5
62
330
1F
100
AcDbEntity
  8
0
  6
SLD-Durchgehend
 62
     7
370
    15
100
AcDbCircle
 10
184.6370954755
 20
83.2822177878
 30
0.0
 40
1.0
100
AcDbArc
 50
270.0
 51
0.0
  0
ARC
  5
63
330
1F
100
AcDbEntity
  8
0
  6
SLD-Durchgehend
 62
     7
370
    15
100
AcDbCircle
 10
184.6370954755
 20
144.2822177878
 30
0.0
 40
1.0
100
AcDbArc
 50
0.0
 51
90.0
  0
LINE
  5
64
330
1F
100
AcDbEntity
  8
0
  6
SLD-Durchgehend
 62
     7
370
    15
100
AcDbLine
 10
177.6124773267
 20
82.2822172812
 30
0.0
 11
184.6370951924
 21
82.2822172812
 31
0.0
  0
LINE
  5
65
330
1F
100
AcDbEntity
  8
0
  6
SLD-Durchgehend
 62
     7
370
    15
100
AcDbLine
 10
164.1370954993
 20
82.2822172812
 30
0.0
 11
173.637095252
 21
82.2822172812
 31
0.0
  0
LINE
  5
66
330
1F
100
AcDbEntity
  8
0
  6
SLD-Durchgehend
 62
     7
370
    15
100
AcDbLine
 10
184.6370951924
 20
145.2822182945
 30
0.0
 11
164.1370954993
 21
145.2822182945
 31
0.0
  0
LWPOLYLINE
  5
67
330
1F
100
AcDbEntity
  8
0
  6
SLD-Durchgehend
 62
     7
370
    15
100
AcDbPolyline
 90
        3
 70
   128
 43
0.0
 10
163.4370954806
 20
91.2423972658
 10
163.5625504158
 20
91.1740959308
 10
163.6370954755
 20
91.121356996
  0
ARC
  5
68
330
1F
100
AcDbEntity
  8
0
  6
SLD-Durchgehend
 62
     7
370
    15
100
AcDbCircle
 10
163.0228819132
 20
137.2322177878
 30
0.0
 40
1.000000000000008
100
AcDbArc
 50
225.0
 51
307.8947985336
  0
ARC
  5
69
330
1F
100
AcDbEntity
  8
0
  6
SLD-Durchgehend
 62
     7
370
    15
100
AcDbCircle
 10
189.6370954755
 20
97.2822177878
 30
0.0
 40
4.0
100
AcDbArc
 50
90.0
 51
180.0
  0
ARC
  5
6A
330
1F
100
AcDbEntity
  8
0
  6
SLD-Durchgehend
 62
     7
370
    15
100
AcDbCircle
 10
189.6370954755
 20
130.2822177878
 30
0.0
 40
4.0
100
AcDbArc
 50
180.0
 51
270.0
  0
LINE
  5
6B
330
1F
100
AcDbEntity
  8
0
  6
SLD-Durchgehend
 62
     7
370
    15
100
AcDbLine
 10
152.5574367214
 20
93.3852065972
 30
0.0
 11
161.4370954874
 21
93.1621194503
 31
0.0
  0
LINE
  5
6C
330
1F
100
AcDbEntity
  8
0
  6
SLD-Durchgehend
 62
     7
370
    15
100
AcDbLine
 10
134.0030034724
 20
93.8513596228
 30
0.0
 11
143.9617791865
 21
93.6011598131
 31
0.0
  0
ARC
  5
6D
330
1F
100
AcDbEntity
  8
0
  6
SLD-Durchgehend
 62
     7
370
    15
100
AcDbCircle
 10
161.6370323865
 20
93.1570958921
 30
0.0
 40
0.2000000000000059
100
AcDbArc
 50
88.5608333333
 51
178.5608333333
  0
ARC
  5
6E
330
1F
100
AcDbEntity
  8
0
  6
SLD-Durchgehend
 62
     7
370
    15
100
AcDbCircle
 10
163.2370954755
 20
93.116896738
 30
0.0
 40
0.2000000000000171
100
AcDbArc
 50
0.0
 51
88.5608333333
  0
LINE
  5
6F
330
1F
100
AcDbEntity
  8
0
  6
SLD-Durchgehend
 62
     7
370
    15
100
AcDbLine
 10
161.6420556046
 20
93.3570322267
 30
0.0
 11
163.2421185739
 21
93.3168344817
 31
0.0
  0
LINE
  5
70
330
1F
100
AcDbEntity
  8
0
  6
SLD-Durchgehend
 62
     7
370
    15
100
AcDbLine
 10
228.1370920781
 20
126.2822179741
 30
0.0
 11
189.637096012
 21
126.2822179741
 31
0.0
  0
LINE
  5
71
330
1F
100
AcDbEntity
  8
0
  6
SLD-Durchgehend
 62
     7
370
    15
100
AcDbLine
 10
189.637096012
 20
101.2822176016
 30
0.0
 11
228.1370920781
 21
101.2822176016
 31
0.0
  0
LINE
  5
72
330
1F
100
AcDbEntity
  8
0
  6
SLD-Durchgehend
 62
     7
370
    15
100
AcDbLine
 10
228.1370920781
 20
101.2822176016
 30
0.0
 11
228.903853679
 21
102.0489726833
 31
0.0
  0
LINE
  5
73
330
1F
100
AcDbEntity
  8
0
  6
SLD-Durchgehend
 62
     7
370
    15
100
AcDbLine
 10
228.903853679
 20
125.5154628924
 30
0.0
 11
228.1370920781
 21
126.2822179741
 31
0.0
  0
LINE
  5
74
330
1F
100
AcDbEntity
  8
0
  6
SLD-Durchgehend
 62
     7
370
    15
100
AcDbLine
 10
161.4370954874
 20
137.2023169569
 30
0.0
 11
127.137096012
 21
136.3405809424
 31
0.0
  0
ARC
  5
75
330
1F
100
AcDbEntity
  8
0
  6
SLD-Durchgehend
 62
     7
370
    15
100
AcDbCircle
 10
161.6370323865
 20
137.2073396835
 30
0.0
 40
0.2000000000000052
100
AcDbArc
 50
181.4391666667
 51
271.4391666667
  0
LINE
  5
76
330
1F
100
AcDbEntity
  8
0
  6
SLD-Durchgehend
 62
     7
370
    15
100
AcDbLine
 10
161.8428346654
 20
137.0124463609
 30
0.0
 11
161.6420556046
 21
137.0074023179
 31
0.0
  0
LINE
  5
77
330
1F
100
AcDbEntity
  8
0
  6
SLD-Durchgehend
 62
     7
370
    15
100
AcDbLine
 10
127.137096012
 20
136.3405809424
 30
0.0
 11
125.6370966974
 21
135.4745552561
 31
0.0
  0
LINE
  5
78
330
1F
100
AcDbEntity
  8
0
  6
SLD-Durchgehend
 62
     7
370
    15
100
AcDbLine
 10
162.31577517
 20
136.5251113347
 30
0.0
 11
161.8530300865
 21
136.9878557197
 31
0.0
  0
LINE
  5
79
330
1F
100
AcDbEntity
  8
0
  6
SLD-Durchgehend
 62
     7
370
    15
100
AcDbLine
 10
234.1370967868
 20
111.6253636463
 30
0.0
 11
234.1370967868
 21
104.6253638959
 31
0.0
  0
LINE
  5
7A
330
1F
100
AcDbEntity
  8
0
  6
SLD-Durchgehend
 62
     7
370
    15
100
AcDbLine
 10
238.1370974425
 20
111.4253635204
 30
0.0
 11
238.1370974425
 21
104.8253635562
 31
0.0
  0
LINE
  5
7B
330
1F
100
AcDbEntity
  8
0
  6
SLD-Durchgehend
 62
     7
370
    15
100
AcDbLine
 10
234.1370967868
 20
116.1723561271
 30
0.0
 11
234.1370967868
 21
115.9390719293
 31
0.0
  0
LINE
  5
7C
330
1F
100
AcDbEntity
  8
0
  6
SLD-Durchgehend
 62
     7
370
    15
100
AcDbLine
 10
234.1370967868
 20
122.9390716797
 30
0.0
 11
234.1370967868
 21
116.1723561271
 31
0.0
  0
LINE
  5
7D
330
1F
100
AcDbEntity
  8
0
  6
SLD-Durchgehend
 62
     7
370
    15
100
AcDbLine
 10
238.1370974425
 20
116.3590255345
 30
0.0
 11
238.1370974425
 21
116.1390720553
 31
0.0
  0
LINE
  5
7E
330
1F
100
AcDbEntity
  8
0
  6
SLD-Durchgehend
 62
     7
370
    15
100
AcDbLine
 10
238.1370974425
 20
122.7390720195
 30
0.0
 11
238.1370974425
 21
116.3590255345
 31
0.0
  0
LINE
  5
7F
330
1F
100
AcDbEntity
  8
0
  6
SLD-Durchgehend
 62
     7
370
    15
100
AcDbLine
 10
163.6370954755
 20
113.7822177878
 30
0.0
 11
163.6370954755
 21
144.7822172812
 31
0.0
  0
LINE
  5
80
330
1F
100
AcDbEntity
  8
0
  6
SLD-Durchgehend
 62
     7
370
    15
100
AcDbLine
 10
163.6370954755
 20
82.7822182945
 30
0.0
 11
163.6370954755
 21
113.7822177878
 31
0.0
  0
LINE
  5
81
330
1F
100
AcDbEntity
  8
0
  6
SLD-Durchgehend
 62
     7
370
    15
100
AcDbLine
 10
185.6370953563
 20
113.7822177878
 30
0.0
 11
185.6370953563
 21
144.2822181306
 31
0.0
  0
LINE
  5
82
330
1F
100
AcDbEntity
  8
0
  6
SLD-Durchgehend
 62
     7
370
    15
100
AcDbLine
 10
185.6370953563
 20
83.2822174451
 30
0.0
 11
185.6370953563
 21
113.7822177878
 31
0.0
  0
ARC
  5
83
330
1F
100
AcDbEntity
  8
0
  6
SLD-Durchgehend
 62
     7
370
    15
100
AcDbCircle
 10
175.6370516901
 20
50.8194825273
 30
0.0
 40
31.5262351692719
100
AcDbArc
 50
86.4075080127
 51
93.6371631425
  0
ARC
  5
84
330
1F
100
AcDbEntity
  8
0
  6
SLD-Durchgehend
 62
     7
370
    15
100
AcDbCircle
 10
174.1295099496
 20
84.2652388004
 30
0.0
 40
0.552644792827076
100
AcDbArc
 50
223.9804562779
 51
273.6666593763
  0
LINE
  5
85
330
1F
100
AcDbEntity
  8
0
  6
SLD-Durchgehend
 62
     7
370
    15
100
AcDbLine
 10
177.1093386877
 20
83.713725271
 30
0.0
 11
174.164852472
 21
83.713725271
 31
0.0
  0
ARC
  5
86
330
1F
100
AcDbEntity
  8
0
  6
SLD-Durchgehend
 62
     7
370
    15
100
AcDbCircle
 10
177.1373962949
 20
84.2840433619
 30
0.0
 40
0.5710078407187029
100
AcDbArc
 50
267.1835236459
 51
315.1693606999
  0
ELLIPSE
  5
87
330
1F
100
AcDbEntity
  8
0
  6
SLD-Durchgehend
 62
     7
370
    15
100
AcDbEllipse
 10
161.2899412862
 20
113.7822177878
 30
0.0
 11
-14.75368316065618
 21
31.09325491558114
 31
0.0
210
0.0
220
0.0
230
1.0
 40
0.3419987131
 41
3.300734856217124
 42
4.23149622336077
  0
ARC
  5
88
330
1F
100
AcDbEntity
  8
0
  6
SLD-Durchgehend
 62
     7
370
    15
100
AcDbCircle
 10
176.9304663774
 20
103.8050836986
 30
0.0
 40
0.615626137599786
100
AcDbArc
 50
6.3196381307
 51
73.1089056582
  0
LINE
  5
89
330
1F
100
AcDbEntity
  8
0
  6
SLD-Durchgehend
 62
     7
370
    15
100
AcDbLine
 10
174.164852472
 20
104.3941509596
 30
0.0
 11
177.1093386877
 21
104.3941509596
 31
0.0
  0
LWPOLYLINE
  5
8A
330
1F
100
AcDbEntity
  8
0
  6
SLD-Durchgehend
 62
     7
370
    15
100
AcDbPolyline
 90
        6
 70
   128
 43
0.0
 10
173.7318396288
 20
103.8728487364
 10
173.7772760633
 20
104.0116809926
 10
173.9045021776
 20
104.243174257
 10
173.9851547125
 20
104.3253336719
 10
174.088383438
 20
104.382052148
 10
174.164852472
 20
104.3941509596
  0
ELLIPSE
  5
8B
330
1F
100
AcDbEntity
  8
0
  6
SLD-Durchgehend
 62
     7
370
    15
100
AcDbEllipse
 10
189.9842496649
 20
113.7822177878
 30
0.0
 11
14.75368316065624
 21
31.09325491558115
 31
0.0
210
0.0
220
0.0
230
1.0
 40
0.3419987131
 41
2.05168908381883
 42
2.982450450962506
  0
ARC
  5
8C
330
1F
100
AcDbEntity
  8
0
  6
SLD-Durchgehend
 62
     7
370
    15
100
AcDbCircle
 10
174.3437247823
 20
123.759351877
 30
0.0
 40
0.6156261375997997
100
AcDbArc
 50
186.3196381308
 51
253.1089056582
  0
LINE
  5
8D
330
1F
100
AcDbEntity
  8
0
  6
SLD-Durchgehend
 62
     7
370
    15
100
AcDbLine
 10
177.1093386877
 20
123.1702846161
 30
0.0
 11
174.164852472
 21
123.1702846161
 31
0.0
  0
LWPOLYLINE
  5
8E
330
1F
100
AcDbEntity
  8
0
  6
SLD-Durchgehend
 62
     7
370
    15
100
AcDbPolyline
 90
        6
 70
   128
 43
0.0
 10
177.5423515308
 20
123.6915868393
 10
177.4166360218
 20
123.3886425069
 10
177.3370107356
 20
123.2833909488
 10
177.230441356
 20
123.2009214035
 10
177.149300808
 20
123.1735731161
 10
177.1093386877
 20
123.1702846161
  0
ELLIPSE
  5
8F
330
1F
100
AcDbEntity
  8
0
  6
SLD-Durchgehend
 62
     7
370
    15
100
AcDbEllipse
 10
161.2899412862
 20
113.7822177878
 30
0.0
 11
14.75368316065615
 21
31.09325491558114
 31
0.0
210
0.0
220
0.0
230
1.0
 40
0.3419987131
 41
5.193281737408629
 42
6.124043104552332
  0
ARC
  5
90
330
1F
100
AcDbEntity
  8
0
  6
SLD-Durchgehend
 62
     7
370
    15
100
AcDbCircle
 10
177.1446812101
 20
143.2991967753
 30
0.0
 40
0.5526447928270253
100
AcDbArc
 50
43.9804562779
 51
93.6666593763
  0
LINE
  5
91
330
1F
100
AcDbEntity
  8
0
  6
SLD-Durchgehend
 62
     7
370
    15
100
AcDbLine
 10
174.164852472
 20
143.8507103047
 30
0.0
 11
177.1093386877
 21
143.8507103047
 31
0.0
  0
ARC
  5
92
330
1F
100
AcDbEntity
  8
0
  6
SLD-Durchgehend
 62
     7
370
    15
100
AcDbCircle
 10
174.145922429
 20
143.25683122
 30
0.0
 40
0.5941807079842255
100
AcDbArc
 50
88.1743009826
 51
134.1785833632
  0
ELLIPSE
  5
93
330
1F
100
AcDbEntity
  8
0
  6
SLD-Durchgehend
 62
     7
370
    15
100
AcDbEllipse
 10
189.9842496649
 20
113.7822177878
 30
0.0
 11
-14.75368316065615
 21
31.09325491558114
 31
0.0
210
0.0
220
0.0
230
1.0
 40
0.3419987131
 41
0.1591422026272955
 42
1.08990356977097
  0
LINE
  5
94
330
1F
100
AcDbEntity
  8
0
  6
SLD-Durchgehend
 62
     7
370
    15
100
AcDbLine
 10
163.4370954806
 20
96.9920159003
 30
0.0
 11
163.4370954806
 21
91.2423972658
 31
0.0
  0
LWPOLYLINE
  5
95
330
1F
100
AcDbEntity
  8
0
  6
SLD-Durchgehend
 62
     7
370
    15
100
AcDbPolyline
 90
        9
 70
   128
 43
0.0
 10
163.4218006901
 20
97.1208029113
 10
163.400388027
 20
97.3011013738
 10
163.3796764898
 20
97.3569416127
 10
163.3458710229
 20
97.4123366794
 10
163.3232288248
 20
97.4338576815
 10
163.3050192566
 20
97.4444505444
 10
163.2844983786
 20
97.4502880743
 10
163.2667230395
 20
97.4506308011
 10
163.2421185739
 20
97.444374176
  0
ARC
  5
96
330
1F
100
AcDbEntity
  8
0
  6
SLD-Durchgehend
 62
     7
370
    15
100
AcDbCircle
 10
163.0560888544
 20
97.9003616801
 30
0.0
 40
0.4924750353977226
100
AcDbArc
 50
241.4315514587
 51
292.1940395248
  0
LWPOLYLINE
  5
97
330
1F
100
AcDbEntity
  8
0
  6
SLD-Durchgehend
 62
     7
370
    15
100
AcDbPolyline
 90
        3
 70
   128
 43
0.0
 10
162.8205832047
 20
97.4678472302
 10
162.6184792211
 20
97.6286363474
 10
162.31577517
 20
98.2190166286
  0
ARC
  5
98
330
1F
100
AcDbEntity
  8
0
  6
SLD-Durchgehend
 62
     7
370
    15
100
AcDbCircle
 10
164.7899403761
 20
107.0521928596
 30
0.0
 40
2.478680307343541
100
AcDbArc
 50
142.6097932206
 51
176.5411871548
  0
ARC
  5
99
330
1F
100
AcDbEntity
  8
0
  6
SLD-Durchgehend
 62
     7
370
    15
100
AcDbCircle
 10
163.044455853
 20
108.3786614089
 30
0.0
 40
0.2864392312086058
100
AcDbArc
 50
46.3644601353
 51
141.4046572264
  0
LWPOLYLINE
  5
9A
330
1F
100
AcDbEntity
  8
0
  6
SLD-Durchgehend
 62
     7
370
    15
100
AcDbPolyline
 90
        9
 70
   128
 43
0.0
 10
163.2421185739
 20
108.5859700723
 10
163.2637173996
 20
108.5711722879
 10
163.283768309
 20
108.564472819
 10
163.3044737635
 20
108.5651857464
 10
163.320815186
 20
108.5718414432
 10
163.3432610787
 20
108.5912986344
 10
163.3733928855
 20
108.6422224215
 10
163.4209117572
 20
108.8454584277
 10
163.4370954806
 20
109.1542821995
  0
LINE
  5
9B
330
1F
100
AcDbEntity
  8
0
  6
SLD-Durchgehend
 62
     7
370
    15
100
AcDbLine
 10
163.4370954806
 20
135.2003552637
 30
0.0
 11
163.4370954806
 21
109.1542821995
 31
0.0
  0
LWPOLYLINE
  5
9C
330
1F
100
AcDbEntity
  8
0
  6
SLD-Durchgehend
 62
     7
370
    15
100
AcDbPolyline
 90
        9
 70
   128
 43
0.0
 10
163.4370954806
 20
135.2003552637
 10
163.400388027
 20
135.3185382358
 10
163.3796764898
 20
135.3319939843
 10
163.3458710229
 20
135.3398599348
 10
163.3232288248
 20
135.3394687793
 10
163.3050192566
 20
135.3368852905
 10
163.2844983786
 20
135.3320032975
 10
163.2667230395
 20
135.3262942902
 10
163.2421185739
 20
135.3163086495
  0
ARC
  5
9D
330
1F
100
AcDbEntity
  8
0
  6
SLD-Durchgehend
 62
     7
370
    15
100
AcDbCircle
 10
163.0367224299
 20
135.7583762849
 30
0.0
 40
0.4874539673626979
100
AcDbArc
 50
243.6787033
 51
294.9208090432
  0
ARC
  5
9E
330
1F
100
AcDbEntity
  8
0
  6
SLD-Durchgehend
 62
     7
370
    15
100
AcDbCircle
 10
163.3763957151
 20
136.2986752318
 30
0.0
 40
1.124222281050639
100
AcDbArc
 50
199.364891809
 51
240.3699815947
  0
ARC
  5
9F
330
1F
100
AcDbEntity
  8
0
  6
SLD-Durchgehend
 62
     7
370
    15
100
AcDbCircle
 10
182.6962718946
 20
102.7103753912
 30
0.0
 40
20.86952204241861
100
AcDbArc
 50
167.5720708555
 51
192.4279291445
  0
LINE
  5
A0
330
1F
100
AcDbEntity
  8
0
  6
SLD-Durchgehend
 62
     7
370
    15
100
AcDbLine
 10
127.137096012
 20
108.5573468043
 30
0.0
 11
127.137096012
 21
134.718334364
 31
0.0
  0
LINE
  5
A1
330
1F
100
AcDbEntity
  8
0
  6
SLD-Durchgehend
 62
     7
370
    15
100
AcDbLine
 10
161.4370954874
 20
108.5573468043
 30
0.0
 11
161.4370954874
 21
135.4646180442
 31
0.0
  0
LINE
  5
A2
330
1F
100
AcDbEntity
  8
0
  6
SLD-Durchgehend
 62
     7
370
    15
100
AcDbLine
 10
161.4370954874
 20
97.3246880493
 30
0.0
 11
161.4370954874
 21
108.5573468043
 31
0.0
  0
LINE
  5
A3
330
1F
100
AcDbEntity
  8
0
  6
SLD-Durchgehend
 62
     7
370
    15
100
AcDbLine
 10
127.137096012
 20
98.0709735921
 30
0.0
 11
127.137096012
 21
108.5573468043
 31
0.0
  0
LINE
  5
A4
330
1F
100
AcDbEntity
  8
0
  6
SLD-Durchgehend
 62
     7
370
    15
100
AcDbLine
 10
125.6370966974
 20
98.8209732494
 30
0.0
 11
125.6370966974
 21
108.5573468043
 31
0.0
  0
LINE
  5
A5
330
1F
100
AcDbEntity
  8
0
  6
SLD-Durchgehend
 62
     7
370
    15
100
AcDbLine
 10
125.6370966974
 20
108.5573468043
 30
0.0
 11
125.6370966974
 21
133.9683328441
 31
0.0
  0
LINE
  5
A6
330
1F
100
AcDbEntity
  8
0
  6
SLD-Durchgehend
 62
     7
370
    15
100
AcDbLine
 10
127.137096012
 20
94.2852274201
 30
0.0
 11
132.0870941225
 21
94.1759553424
 31
0.0
  0
LINE
  5
A7
330
1F
100
AcDbEntity
  8
0
  6
SLD-Durchgehend
 62
     7
370
    15
100
AcDbLine
 10
127.137096012
 20
94.2852274201
 30
0.0
 11
127.137096012
 21
98.0709735921
 31
0.0
  0
LINE
  5
A8
330
1F
100
AcDbEntity
  8
0
  6
SLD-Durchgehend
 62
     7
370
    15
100
AcDbLine
 10
161.4370954874
 20
93.1621194503
 30
0.0
 11
161.4370954874
 21
97.3246880493
 31
0.0
  0
LWPOLYLINE
  5
A9
330
1F
100
AcDbEntity
  8
0
  6
SLD-Durchgehend
 62
     7
370
    15
100
AcDbPolyline
 90
        5
 70
   128
 43
0.0
 10
132.0870941225
 20
94.1759553424
 10
132.9581731651
 20
94.0159783385
 10
133.67744104
 20
93.9004757127
 10
134.0095190052
 20
93.8522127143
 10
134.0030463133
 20
93.8531235478
  0
ARC
  5
AA
330
1F
100
AcDbEntity
  8
0
  6
SLD-Durchgehend
 62
     7
370
    15
100
AcDbCircle
 10
147.3688560252
 20
58.5932074624
 30
0.0
 40
35.18031587467557
100
AcDbArc
 50
81.5186266954
 51
95.5572947612
  0
LINE
  5
AB
330
1F
100
AcDbEntity
  8
0
  6
SLD-Durchgehend
 62
     7
370
    15
100
AcDbLine
 10
125.6370966974
 20
95.0337388239
 30
0.0
 11
127.137096012
 21
94.2852274201
 31
0.0
  0
LINE
  5
AC
330
1F
100
AcDbEntity
  8
0
  6
SLD-Durchgehend
 62
     7
370
    15
100
AcDbLine
 10
125.6370966974
 20
95.0337388239
 30
0.0
 11
125.6370966974
 21
98.8209732494
 31
0.0
  0
LINE
  5
AD
330
1F
100
AcDbEntity
  8
0
  6
SLD-Durchgehend
 62
     7
370
    15
100
AcDbLine
 10
228.1370920781
 20
126.2822179741
 30
0.0
 11
228.1370920781
 21
101.2822176016
 31
0.0
  0
LWPOLYLINE
  5
AE
330
1F
100
AcDbEntity
  8
0
  6
SLD-Durchgehend
 62
     7
370
    15
100
AcDbPolyline
 90
        4
 70
   128
 43
0.0
 10
228.8625253085
 20
125.4741401098
 10
228.8904575351
 20
125.4902640975
 10
228.6845458392
 20
125.3713817022
 10
228.2770959381
 20
125.1361407957
  0
ARC
  5
AF
330
1F
100
AcDbEntity
  8
0
  6
SLD-Durchgehend
 62
     7
370
    15
100
AcDbCircle
 10
228.3370946435
 20
125.0322177692
 30
0.0
 40
0.1199993336771633
100
AcDbArc
 50
119.9994699393
 51
240.0005300607
  0
LINE
  5
B0
330
1F
100
AcDbEntity
  8
0
  6
SLD-Durchgehend
 62
     7
370
    15
100
AcDbLine
 10
228.2770959381
 20
124.9282947427
 30
0.0
 11
228.9370981697
 21
124.54724318
 31
0.0
  0
LINE
  5
B1
330
1F
100
AcDbEntity
  8
0
  6
SLD-Durchgehend
 62
     7
370
    15
100
AcDbLine
 10
228.9370981697
 20
124.54724318
 30
0.0
 11
228.9370981697
 21
124.2671916879
 31
0.0
  0
LINE
  5
B2
330
1F
100
AcDbEntity
  8
0
  6
SLD-Durchgehend
 62
     7
370
    15
100
AcDbLine
 10
228.9370981697
 20
124.2671916879
 30
0.0
 11
228.2770959381
 21
123.8861410565
 31
0.0
  0
LWPOLYLINE
  5
B3
330
1F
100
AcDbEntity
  8
0
  6
SLD-Durchgehend
 62
     7
370
    15
100
AcDbPolyline
 90
        9
 70
   128
 43
0.0
 10
228.2770959381
 20
123.8861410565
 10
228.2209260109
 20
123.8123011461
 10
228.2171858195
 20
123.7775320804
 10
228.2214624527
 20
123.7501456088
 10
228.2287342194
 20
123.7306623406
 10
228.2378462795
 20
123.7147674582
 10
228.2500205282
 20
123.6996455735
 10
228.2620979193
 20
123.6885404831
 10
228.2770959381
 20
123.6782950035
  0
LINE
  5
B4
330
1F
100
AcDbEntity
  8
0
  6
SLD-Durchgehend
 62
     7
370
    15
100
AcDbLine
 10
228.2770959381
 20
123.6782950035
 30
0.0
 11
228.9370981697
 21
123.2972434408
 31
0.0
  0
LINE
  5
B5
330
1F
100
AcDbEntity
  8
0
  6
SLD-Durchgehend
 62
     7
370
    15
100
AcDbLine
 10
228.9370981697
 20
123.2972434408
 30
0.0
 11
228.9370981697
 21
123.0171919486
 31
0.0
  0
LINE
  5
B6
330
1F
100
AcDbEntity
  8
0
  6
SLD-Durchgehend
 62
     7
370
    15
100
AcDbLine
 10
228.9370981697
 20
123.0171919486
 30
0.0
 11
228.2770959381
 21
122.6361403859
 31
0.0
  0
ARC
  5
B7
330
1F
100
AcDbEntity
  8
0
  6
SLD-Durchgehend
 62
     7
370
    15
100
AcDbCircle
 10
228.3370967742
 20
122.5322173594
 30
0.0
 40
0.1200003990355119
100
AcDbArc
 50
120.0003509878
 51
239.9996490122
  0
LINE
  5
B8
330
1F
100
AcDbEntity
  8
0
  6
SLD-Durchgehend
 62
     7
370
    15
100
AcDbLine
 10
228.2770959381
 20
122.428294333
 30
0.0
 11
228.9370981697
 21
122.0472437015
 31
0.0
  0
LINE
  5
B9
330
1F
100
AcDbEntity
  8
0
  6
SLD-Durchgehend
 62
     7
370
    15
100
AcDbLine
 10
228.9370981697
 20
122.0472437015
 30
0.0
 11
228.9370981697
 21
121.7671922094
 31
0.0
  0
LINE
  5
BA
330
1F
100
AcDbEntity
  8
0
  6
SLD-Durchgehend
 62
     7
370
    15
100
AcDbLine
 10
228.9370981697
 20
121.7671922094
 30
0.0
 11
228.2770959381
 21
121.3861406467
 31
0.0
  0
ARC
  5
BB
330
1F
100
AcDbEntity
  8
0
  6
SLD-Durchgehend
 62
     7
370
    15
100
AcDbCircle
 10
228.3370965936
 20
121.2822176202
 30
0.0
 40
0.1200003087275303
100
AcDbArc
 50
120.0002763048
 51
239.9997236952
  0
LINE
  5
BC
330
1F
100
AcDbEntity
  8
0
  6
SLD-Durchgehend
 62
     7
370
    15
100
AcDbLine
 10
228.2770959381
 20
121.1782945937
 30
0.0
 11
228.9370981697
 21
120.7972434967
 31
0.0
  0
LINE
  5
BD
330
1F
100
AcDbEntity
  8
0
  6
SLD-Durchgehend
 62
     7
370
    15
100
AcDbLine
 10
228.9370981697
 20
120.7972434967
 30
0.0
 11
228.9370981697
 21
120.5171920045
 31
0.0
  0
LINE
  5
BE
330
1F
100
AcDbEntity
  8
0
  6
SLD-Durchgehend
 62
     7
370
    15
100
AcDbLine
 10
228.9370981697
 20
120.5171920045
 30
0.0
 11
228.2770959381
 21
120.1361409074
 31
0.0
  0
ARC
  5
BF
330
1F
100
AcDbEntity
  8
0
  6
SLD-Durchgehend
 62
     7
370
    15
100
AcDbCircle
 10
228.3370941808
 20
120.032217881
 30
0.0
 40
0.1199991023211085
100
AcDbArc
 50
119.9992786033
 51
240.0007213967
  0
LINE
  5
C0
330
1F
100
AcDbEntity
  8
0
  6
SLD-Durchgehend
 62
     7
370
    15
100
AcDbLine
 10
228.2770959381
 20
119.9282948545
 30
0.0
 11
228.9370981697
 21
119.5472437574
 31
0.0
  0
LINE
  5
C1
330
1F
100
AcDbEntity
  8
0
  6
SLD-Durchgehend
 62
     7
370
    15
100
AcDbLine
 10
228.9370981697
 20
119.5472437574
 30
0.0
 11
228.9370981697
 21
119.2671917996
 31
0.0
  0
LINE
  5
C2
330
1F
100
AcDbEntity
  8
0
  6
SLD-Durchgehend
 62
     7
370
    15
100
AcDbLine
 10
228.9370981697
 20
119.2671917996
 30
0.0
 11
228.2770959381
 21
118.8861407025
 31
0.0
  0
ARC
  5
C3
330
1F
100
AcDbEntity
  8
0
  6
SLD-Durchgehend
 62
     7
370
    15
100
AcDbCircle
 10
228.3370880358
 20
118.7822176761
 30
0.0
 40
0.119996030014953
100
AcDbArc
 50
119.9967375711
 51
240.0032624289
  0
LINE
  5
C4
330
1F
100
AcDbEntity
  8
0
  6
SLD-Durchgehend
 62
     7
370
    15
100
AcDbLine
 10
228.2770959381
 20
118.6782946496
 30
0.0
 11
228.9370981697
 21
118.2972435525
 31
0.0
  0
LINE
  5
C5
330
1F
100
AcDbEntity
  8
0
  6
SLD-Durchgehend
 62
     7
370
    15
100
AcDbLine
 10
228.9370981697
 20
118.2972435525
 30
0.0
 11
228.9370981697
 21
118.0171920604
 31
0.0
  0
LINE
  5
C6
330
1F
100
AcDbEntity
  8
0
  6
SLD-Durchgehend
 62
     7
370
    15
100
AcDbLine
 10
228.9370981697
 20
118.0171920604
 30
0.0
 11
228.2770959381
 21
117.6361407305
 31
0.0
  0
ARC
  5
C7
330
1F
100
AcDbEntity
  8
0
  6
SLD-Durchgehend
 62
     7
370
    15
100
AcDbCircle
 10
228.3370964548
 20
117.532217704
 30
0.0
 40
0.1200002393186952
100
AcDbArc
 50
120.0002189049
 51
239.9997810951
  0
LINE
  5
C8
330
1F
100
AcDbEntity
  8
0
  6
SLD-Durchgehend
 62
     7
370
    15
100
AcDbLine
 10
228.2770959381
 20
117.4282946775
 30
0.0
 11
228.9370981697
 21
117.0472435805
 31
0.0
  0
LINE
  5
C9
330
1F
100
AcDbEntity
  8
0
  6
SLD-Durchgehend
 62
     7
370
    15
100
AcDbLine
 10
228.9370981697
 20
117.0472435805
 30
0.0
 11
228.9370981697
 21
116.7671920883
 31
0.0
  0
LINE
  5
CA
330
1F
100
AcDbEntity
  8
0
  6
SLD-Durchgehend
 62
     7
370
    15
100
AcDbLine
 10
228.9370981697
 20
116.7671920883
 30
0.0
 11
228.2770959381
 21
116.3861407584
 31
0.0
  0
ARC
  5
CB
330
1F
100
AcDbEntity
  8
0
  6
SLD-Durchgehend
 62
     7
370
    15
100
AcDbCircle
 10
228.3370983838
 20
116.282217732
 30
0.0
 40
0.1200012038491726
100
AcDbArc
 50
120.0010165405
 51
239.9989834595
  0
LINE
  5
CC
330
1F
100
AcDbEntity
  8
0
  6
SLD-Durchgehend
 62
     7
370
    15
100
AcDbLine
 10
228.2770959381
 20
116.1782947055
 30
0.0
 11
228.9370981697
 21
115.7972436084
 31
0.0
  0
LINE
  5
CD
330
1F
100
AcDbEntity
  8
0
  6
SLD-Durchgehend
 62
     7
370
    15
100
AcDbLine
 10
228.9370981697
 20
115.7972436084
 30
0.0
 11
228.9370981697
 21
115.5171919998
 31
0.0
  0
LINE
  5
CE
330
1F
100
AcDbEntity
  8
0
  6
SLD-Durchgehend
 62
     7
370
    15
100
AcDbLine
 10
228.9370981697
 20
115.5171919998
 30
0.0
 11
228.2770959381
 21
115.1361407864
 31
0.0
  0
ARC
  5
CF
330
1F
100
AcDbEntity
  8
0
  6
SLD-Durchgehend
 62
     7
370
    15
100
AcDbCircle
 10
228.3370896355
 20
115.0322177599
 30
0.0
 40
0.1199968298235078
100
AcDbArc
 50
119.9973991053
 51
240.0026008947
  0
LINE
  5
D0
330
1F
100
AcDbEntity
  8
0
  6
SLD-Durchgehend
 62
     7
370
    15
100
AcDbLine
 10
228.2770959381
 20
114.9282947334
 30
0.0
 11
228.9370981697
 21
114.5472435781
 31
0.0
  0
LINE
  5
D1
330
1F
100
AcDbEntity
  8
0
  6
SLD-Durchgehend
 62
     7
370
    15
100
AcDbLine
 10
228.9370981697
 20
114.5472435781
 30
0.0
 11
228.9370981697
 21
114.2671920278
 31
0.0
  0
LINE
  5
D2
330
1F
100
AcDbEntity
  8
0
  6
SLD-Durchgehend
 62
     7
370
    15
100
AcDbLine
 10
228.9370981697
 20
114.2671920278
 30
0.0
 11
228.2770959381
 21
113.8861408361
 31
0.0
  0
ARC
  5
D3
330
1F
100
AcDbEntity
  8
0
  6
SLD-Durchgehend
 62
     7
370
    15
100
AcDbCircle
 10
228.3370964387
 20
113.7822177878
 30
0.0
 40
0.1200002502075855
100
AcDbArc
 50
120.0002070659
 51
239.9997929341
  0
LINE
  5
D4
330
1F
100
AcDbEntity
  8
0
  6
SLD-Durchgehend
 62
     7
370
    15
100
AcDbLine
 10
228.2770959381
 20
113.6782947395
 30
0.0
 11
228.9370981697
 21
113.2972435479
 31
0.0
  0
LINE
  5
D5
330
1F
100
AcDbEntity
  8
0
  6
SLD-Durchgehend
 62
     7
370
    15
100
AcDbLine
 10
228.9370981697
 20
113.2972435479
 30
0.0
 11
228.9370981697
 21
113.0171919975
 31
0.0
  0
LINE
  5
D6
330
1F
100
AcDbEntity
  8
0
  6
SLD-Durchgehend
 62
     7
370
    15
100
AcDbLine
 10
228.9370981697
 20
113.0171919975
 30
0.0
 11
228.2770959381
 21
112.6361408422
 31
0.0
  0
ARC
  5
D7
330
1F
100
AcDbEntity
  8
0
  6
SLD-Durchgehend
 62
     7
370
    15
100
AcDbCircle
 10
228.3370954617
 20
112.5322178158
 30
0.0
 40
0.1199997427887122
100
AcDbArc
 50
119.9998082781
 51
240.0001917219
  0
LINE
  5
D8
330
1F
100
AcDbEntity
  8
0
  6
SLD-Durchgehend
 62
     7
370
    15
100
AcDbLine
 10
228.2770959381
 20
112.4282947893
 30
0.0
 11
228.9370981697
 21
112.0472435758
 31
0.0
  0
LINE
  5
D9
330
1F
100
AcDbEntity
  8
0
  6
SLD-Durchgehend
 62
     7
370
    15
100
AcDbLine
 10
228.9370981697
 20
112.0472435758
 30
0.0
 11
228.9370981697
 21
111.7671919673
 31
0.0
  0
LINE
  5
DA
330
1F
100
AcDbEntity
  8
0
  6
SLD-Durchgehend
 62
     7
370
    15
100
AcDbLine
 10
228.9370981697
 20
111.7671919673
 30
0.0
 11
228.2770959381
 21
111.3861408702
 31
0.0
  0
ARC
  5
DB
330
1F
100
AcDbEntity
  8
0
  6
SLD-Durchgehend
 62
     7
370
    15
100
AcDbCircle
 10
228.3370940629
 20
111.2822178437
 30
0.0
 40
0.1199990433730268
100
AcDbArc
 50
119.9992298518
 51
240.0007701482
  0
LINE
  5
DC
330
1F
100
AcDbEntity
  8
0
  6
SLD-Durchgehend
 62
     7
370
    15
100
AcDbLine
 10
228.2770959381
 20
111.1782948172
 30
0.0
 11
228.9370981697
 21
110.7972434873
 31
0.0
  0
LINE
  5
DD
330
1F
100
AcDbEntity
  8
0
  6
SLD-Durchgehend
 62
     7
370
    15
100
AcDbLine
 10
228.9370981697
 20
110.7972434873
 30
0.0
 11
228.9370981697
 21
110.5171919952
 31
0.0
  0
LINE
  5
DE
330
1F
100
AcDbEntity
  8
0
  6
SLD-Durchgehend
 62
     7
370
    15
100
AcDbLine
 10
228.9370981697
 20
110.5171919952
 30
0.0
 11
228.2770959381
 21
110.1361408981
 31
0.0
  0
ARC
  5
DF
330
1F
100
AcDbEntity
  8
0
  6
SLD-Durchgehend
 62
     7
370
    15
100
AcDbCircle
 10
228.3370961396
 20
110.0322178717
 30
0.0
 40
0.120000081729958
100
AcDbArc
 50
120.000088581
 51
239.999911419
  0
LINE
  5
E0
330
1F
100
AcDbEntity
  8
0
  6
SLD-Durchgehend
 62
     7
370
    15
100
AcDbLine
 10
228.2770959381
 20
109.9282948452
 30
0.0
 11
228.9370981697
 21
109.5472435153
 31
0.0
  0
LINE
  5
E1
330
1F
100
AcDbEntity
  8
0
  6
SLD-Durchgehend
 62
     7
370
    15
100
AcDbLine
 10
228.9370981697
 20
109.5472435153
 30
0.0
 11
228.9370981697
 21
109.2671920231
 31
0.0
  0
LINE
  5
E2
330
1F
100
AcDbEntity
  8
0
  6
SLD-Durchgehend
 62
     7
370
    15
100
AcDbLine
 10
228.9370981697
 20
109.2671920231
 30
0.0
 11
228.2770959381
 21
108.8861409261
 31
0.0
  0
ARC
  5
E3
330
1F
100
AcDbEntity
  8
0
  6
SLD-Durchgehend
 62
     7
370
    15
100
AcDbCircle
 10
228.3370930374
 20
108.7822178996
 30
0.0
 40
0.1199985306586794
100
AcDbArc
 50
119.9988058194
 51
240.0011941806
  0
LINE
  5
E4
330
1F
100
AcDbEntity
  8
0
  6
SLD-Durchgehend
 62
     7
370
    15
100
AcDbLine
 10
228.2770959381
 20
108.6782948731
 30
0.0
 11
228.9370981697
 21
108.2972437761
 31
0.0
  0
LINE
  5
E5
330
1F
100
AcDbEntity
  8
0
  6
SLD-Durchgehend
 62
     7
370
    15
100
AcDbLine
 10
228.9370981697
 20
108.2972437761
 30
0.0
 11
228.9370981697
 21
108.0171918182
 31
0.0
  0
LINE
  5
E6
330
1F
100
AcDbEntity
  8
0
  6
SLD-Durchgehend
 62
     7
370
    15
100
AcDbLine
 10
228.9370981697
 20
108.0171918182
 30
0.0
 11
228.2770959381
 21
107.6361407212
 31
0.0
  0
ARC
  5
E7
330
1F
100
AcDbEntity
  8
0
  6
SLD-Durchgehend
 62
     7
370
    15
100
AcDbCircle
 10
228.337092073
 20
107.5322176947
 30
0.0
 40
0.1199980485038392
100
AcDbArc
 50
119.9984070525
 51
240.0015929475
  0
LINE
  5
E8
330
1F
100
AcDbEntity
  8
0
  6
SLD-Durchgehend
 62
     7
370
    15
100
AcDbLine
 10
228.2770959381
 20
107.4282946682
 30
0.0
 11
228.9370981697
 21
107.0472435712
 31
0.0
  0
LINE
  5
E9
330
1F
100
AcDbEntity
  8
0
  6
SLD-Durchgehend
 62
     7
370
    15
100
AcDbLine
 10
228.9370981697
 20
107.0472435712
 30
0.0
 11
228.9370981697
 21
106.767192079
 31
0.0
  0
LINE
  5
EA
330
1F
100
AcDbEntity
  8
0
  6
SLD-Durchgehend
 62
     7
370
    15
100
AcDbLine
 10
228.9370981697
 20
106.767192079
 30
0.0
 11
228.2770959381
 21
106.3861409819
 31
0.0
  0
ARC
  5
EB
330
1F
100
AcDbEntity
  8
0
  6
SLD-Durchgehend
 62
     7
370
    15
100
AcDbCircle
 10
228.3370971287
 20
106.2822179555
 30
0.0
 40
0.1200005762643668
100
AcDbArc
 50
120.0004975517
 51
239.9995024483
  0
LINE
  5
EC
330
1F
100
AcDbEntity
  8
0
  6
SLD-Durchgehend
 62
     7
370
    15
100
AcDbLine
 10
228.2770959381
 20
106.178294929
 30
0.0
 11
228.9370981697
 21
105.7972433663
 31
0.0
  0
LINE
  5
ED
330
1F
100
AcDbEntity
  8
0
  6
SLD-Durchgehend
 62
     7
370
    15
100
AcDbLine
 10
228.9370981697
 20
105.7972433663
 30
0.0
 11
228.9370981697
 21
105.5171918741
 31
0.0
  0
LINE
  5
EE
330
1F
100
AcDbEntity
  8
0
  6
SLD-Durchgehend
 62
     7
370
    15
100
AcDbLine
 10
228.9370981697
 20
105.5171918741
 30
0.0
 11
228.2770959381
 21
105.1361412427
 31
0.0
  0
ARC
  5
EF
330
1F
100
AcDbEntity
  8
0
  6
SLD-Durchgehend
 62
     7
370
    15
100
AcDbCircle
 10
228.337094046
 20
105.0322182162
 30
0.0
 40
0.1199990349312091
100
AcDbArc
 50
119.9992228702
 51
240.0007771298
  0
LINE
  5
F0
330
1F
100
AcDbEntity
  8
0
  6
SLD-Durchgehend
 62
     7
370
    15
100
AcDbLine
 10
228.2770959381
 20
104.9282951898
 30
0.0
 11
228.9370981697
 21
104.547243627
 31
0.0
  0
LINE
  5
F1
330
1F
100
AcDbEntity
  8
0
  6
SLD-Durchgehend
 62
     7
370
    15
100
AcDbLine
 10
228.9370981697
 20
104.547243627
 30
0.0
 11
228.9370981697
 21
104.2671921349
 31
0.0
  0
LINE
  5
F2
330
1F
100
AcDbEntity
  8
0
  6
SLD-Durchgehend
 62
     7
370
    15
100
AcDbLine
 10
228.9370981697
 20
104.2671921349
 30
0.0
 11
228.2770959381
 21
103.8861405722
 31
0.0
  0
LWPOLYLINE
  5
F3
330
1F
100
AcDbEntity
  8
0
  6
SLD-Durchgehend
 62
     7
370
    15
100
AcDbPolyline
 90
        9
 70
   128
 43
0.0
 10
228.2770959381
 20
103.8861405722
 10
228.2675070408
 20
103.8799780107
 10
228.2511753682
 20
103.8659932709
 10
228.2400069478
 20
103.852738688
 10
228.2310960535
 20
103.8384680322
 10
228.2227439526
 20
103.8186010591
 10
228.2172975782
 20
103.789148914
 10
228.2241372112
 20
103.7417166552
 10
228.2770959381
 20
103.6782945192
  0
LINE
  5
F4
330
1F
100
AcDbEntity
  8
0
  6
SLD-Durchgehend
 62
     7
370
    15
100
AcDbLine
 10
228.2770959381
 20
103.6782945192
 30
0.0
 11
228.9370981697
 21
103.2972438878
 31
0.0
  0
LINE
  5
F5
330
1F
100
AcDbEntity
  8
0
  6
SLD-Durchgehend
 62
     7
370
    15
100
AcDbLine
 10
228.9370981697
 20
103.2972438878
 30
0.0
 11
228.9370981697
 21
103.0171923957
 31
0.0
  0
LINE
  5
F6
330
1F
100
AcDbEntity
  8
0
  6
SLD-Durchgehend
 62
     7
370
    15
100
AcDbLine
 10
228.9370981697
 20
103.0171923957
 30
0.0
 11
228.2770959381
 21
102.6361408329
 31
0.0
  0
LWPOLYLINE
  5
F7
330
1F
100
AcDbEntity
  8
0
  6
SLD-Durchgehend
 62
     7
370
    15
100
AcDbPolyline
 90
        9
 70
   128
 43
0.0
 10
228.2770959381
 20
102.6361408329
 10
228.2636699918
 20
102.6271293557
 10
228.253984237
 20
102.6187763235
 10
228.2445965055
 20
102.6086602977
 10
228.2373992446
 20
102.5990099332
 10
228.2293004635
 20
102.5849423057
 10
228.2210377696
 20
102.5627349189
 10
228.2187131885
 20
102.5125776103
 10
228.2770959381
 20
102.42829478
  0
LWPOLYLINE
  5
F8
330
1F
100
AcDbEntity
  8
0
  6
SLD-Durchgehend
 62
     7
370
    15
100
AcDbPolyline
 90
        3
 70
   128
 43
0.0
 10
228.2770959381
 20
102.42829478
 10
228.8024140242
 20
102.1250012017
 10
228.8625253085
 20
102.0902954659
  0
LINE
  5
F9
330
1F
100
AcDbEntity
  8
0
  6
SLD-Durchgehend
 62
     7
370
    15
100
AcDbLine
 10
161.4370954874
 20
137.2023169569
 30
0.0
 11
161.4370954874
 21
135.4646180442
 31
0.0
  0
LINE
  5
FA
330
1F
100
AcDbEntity
  8
0
  6
SLD-Durchgehend
 62
     7
370
    15
100
AcDbLine
 10
127.137096012
 20
136.3405809424
 30
0.0
 11
127.137096012
 21
134.718334364
 31
0.0
  0
LWPOLYLINE
  5
FB
330
1F
100
AcDbEntity
  8
0
  6
SLD-Durchgehend
 62
     7
370
    15
100
AcDbPolyline
 90
        5
 70
   128
 43
0.0
 10
161.8436864763
 20
136.9785424939
 10
161.8360240198
 20
136.9957980386
 10
161.9529991829
 20
136.7329024396
 10
162.1041931165
 20
136.3950390986
 10
162.31577517
 20
135.9259021154
  0
LINE
  5
FC
330
1F
100
AcDbEntity
  8
0
  6
SLD-Durchgehend
 62
     7
370
    15
100
AcDbLine
 10
125.6370966974
 20
135.4745552561
 30
0.0
 11
125.6370966974
 21
133.9683328441
 31
0.0
  0
LINE
  5
FD
330
1F
100
AcDbEntity
  8
0
  6
SLD-Gestrichelt
 62
     7
370
     0
100
AcDbLine
 10
163.6370954755
 20
144.7822172812
 30
0.0
 11
163.6370954755
 21
82.7822182945
 31
0.0
  0
LINE
  5
FE
330
1F
100
AcDbEntity
  8
0
  6
SLD-Gestrichelt
 62
     7
370
     0
100
AcDbLine
 10
185.6370953563
 20
144.2822181306
 30
0.0
 11
185.6370953563
 21
83.2822174451
 31
0.0
  0
LWPOLYLINE
  5
FF
330
1F
100
AcDbEntity
  8
0
  6
SLD-Gestrichelt
 62
     7
370
     0
100
AcDbPolyline
 90
       11
 70
   128
 43
0.0
 10
173.637095252
 20
82.2822172812
 10
173.749572942
 20
82.289157497
 10
174.0742087084
 20
82.3069494835
 10
174.575163396
 20
82.3278446368
 10
175.1964607928
 20
82.3426861933
 10
175.8667364437
 20
82.3449362687
 10
176.5101816225
 20
82.3336523643
 10
177.0558062661
 20
82.3137779406
 10
177.4425044376
 20
82.2939742974
 10
177.6256071124
 20
82.2829437128
 10
177.6124773267
 20
82.283767002
  0
ARC
  5
100
330
1F
100
AcDbEntity
  8
0
  6
SLD-Gestrichelt
 62
     7
370
     0
100
AcDbCircle
 10
174.3437247823
 20
103.8050836986
 30
0.0
 40
0.615626137599786
100
AcDbArc
 50
106.8910943418
 51
173.6803618693
  0
LINE
  5
101
330
1F
100
AcDbEntity
  8
0
  6
SLD-Gestrichelt
 62
     7
370
     0
100
AcDbLine
 10
177.1093386877
 20
104.3941509596
 30
0.0
 11
174.164852472
 21
104.3941509596
 31
0.0
  0
LWPOLYLINE
  5
102
330
1F
100
AcDbEntity
  8
0
  6
SLD-Gestrichelt
 62
     7
370
     0
100
AcDbPolyline
 90
        6
 70
   128
 43
0.0
 10
177.5423515308
 20
103.8728487364
 10
177.4969141651
 20
104.0116809926
 10
177.3696889821
 20
104.243174257
 10
177.2890364471
 20
104.3253336719
 10
177.1858077216
 20
104.382052148
 10
177.1093386877
 20
104.3941509596
  0
ELLIPSE
  5
103
330
1F
100
AcDbEntity
  8
0
  6
SLD-Gestrichelt
 62
     7
370
     0
100
AcDbEllipse
 10
161.2899412862
 20
113.7822177878
 30
0.0
 11
-14.75368316065606
 21
31.09325491558114
 31
0.0
210
0.0
220
0.0
230
1.0
 40
0.3419987131
 41
3.300734856217136
 42
4.231496223360784
  0
ARC
  5
104
330
1F
100
AcDbEntity
  8
0
  6
SLD-Gestrichelt
 62
     7
370
     0
100
AcDbCircle
 10
177.1446812101
 20
84.2652388004
 30
0.0
 40
0.5526447928270382
100
AcDbArc
 50
266.3333406237
 51
316.0195437221
  0
LINE
  5
105
330
1F
100
AcDbEntity
  8
0
  6
SLD-Gestrichelt
 62
     7
370
     0
100
AcDbLine
 10
174.164852472
 20
83.713725271
 30
0.0
 11
177.1093386877
 21
83.713725271
 31
0.0
  0
ARC
  5
106
330
1F
100
AcDbEntity
  8
0
  6
SLD-Gestrichelt
 62
     7
370
     0
100
AcDbCircle
 10
174.136793445
 20
84.2840396969
 30
0.0
 40
0.5710042499301823
100
AcDbArc
 50
224.8304789342
 51
272.8166367201
  0
ELLIPSE
  5
107
330
1F
100
AcDbEntity
  8
0
  6
SLD-Gestrichelt
 62
     7
370
     0
100
AcDbEllipse
 10
189.9842496649
 20
113.7822177878
 30
0.0
 11
14.75368316065612
 21
31.09325491558117
 31
0.0
210
0.0
220
0.0
230
1.0
 40
0.3419987131
 41
2.051689083818816
 42
2.982450450962496
  0
ARC
  5
108
330
1F
100
AcDbEntity
  8
0
  6
SLD-Gestrichelt
 62
     7
370
     0
100
AcDbCircle
 10
174.1295099496
 20
143.2991967753
 30
0.0
 40
0.5526447928270662
100
AcDbArc
 50
86.3333406237
 51
136.0195437221
  0
LINE
  5
109
330
1F
100
AcDbEntity
  8
0
  6
SLD-Gestrichelt
 62
     7
370
     0
100
AcDbLine
 10
177.1093386877
 20
143.8507103047
 30
0.0
 11
174.164852472
 21
143.8507103047
 31
0.0
  0
ARC
  5
10A
330
1F
100
AcDbEntity
  8
0
  6
SLD-Gestrichelt
 62
     7
370
     0
100
AcDbCircle
 10
177.1373962949
 20
143.2803922138
 30
0.0
 40
0.5710078407186887
100
AcDbArc
 50
44.8306393001
 51
92.8164763541
  0
ELLIPSE
  5
10B
330
1F
100
AcDbEntity
  8
0
  6
SLD-Gestrichelt
 62
     7
370
     0
100
AcDbEllipse
 10
161.2899412862
 20
113.7822177878
 30
0.0
 11
14.7536831606563
 21
31.09325491558117
 31
0.0
210
0.0
220
0.0
230
1.0
 40
0.3419987131
 41
5.19328173740864
 42
6.124043104552345
  0
ARC
  5
10C
330
1F
100
AcDbEntity
  8
0
  6
SLD-Gestrichelt
 62
     7
370
     0
100
AcDbCircle
 10
176.9304663774
 20
123.759351877
 30
0.0
 40
0.6156261375997997
100
AcDbArc
 50
286.8910943418
 51
353.6803618693
  0
LINE
  5
10D
330
1F
100
AcDbEntity
  8
0
  6
SLD-Gestrichelt
 62
     7
370
     0
100
AcDbLine
 10
174.164852472
 20
123.1702846161
 30
0.0
 11
177.1093386877
 21
123.1702846161
 31
0.0
  0
LWPOLYLINE
  5
10E
330
1F
100
AcDbEntity
  8
0
  6
SLD-Gestrichelt
 62
     7
370
     0
100
AcDbPolyline
 90
        6
 70
   128
 43
0.0
 10
173.7318396288
 20
123.6915868393
 10
173.7772760633
 20
123.5527545831
 10
173.9045021776
 20
123.3212613187
 10
173.9851547125
 20
123.2391019038
 10
174.088383438
 20
123.1823834277
 10
174.164852472
 20
123.1702846161
  0
ELLIPSE
  5
10F
330
1F
100
AcDbEntity
  8
0
  6
SLD-Gestrichelt
 62
     7
370
     0
100
AcDbEllipse
 10
189.9842496649
 20
113.7822177878
 30
0.0
 11
-14.7536831606563
 21
31.09325491558117
 31
0.0
210
0.0
220
0.0
230
1.0
 40
0.3419987131
 41
0.1591422026272796
 42
1.089903569770958
  0
LINE
  5
110
330
1F
100
AcDbEntity
  8
0
  6
SLD-Gestrichelt
 62
     7
370
     0
100
AcDbLine
 10
163.6370954755
 20
89.5367768279
 30
0.0
 11
163.6370954755
 21
138.0276587478
 31
0.0
  0
ARC
  5
111
330
1F
100
AcDbEntity
  8
0
  6
SLD-Gestrichelt
 62
     7
370
     0
100
AcDbCircle
 10
163.0559132293
 20
97.8972077582
 30
0.0
 40
0.489623001393854
100
AcDbArc
 50
241.2731071316
 51
292.3524838519
  0
LWPOLYLINE
  5
112
330
1F
100
AcDbEntity
  8
0
  6
SLD-Gestrichelt
 62
     7
370
     0
100
AcDbPolyline
 90
        9
 70
   128
 43
0.0
 10
163.2421185739
 20
97.444374176
 10
163.2637173996
 20
97.4502787611
 10
163.283768309
 20
97.4503849319
 10
163.3044737635
 20
97.4446871004
 10
163.320815186
 20
97.4355806282
 10
163.3432610787
 20
97.4153523019
 10
163.3733928855
 20
97.3699447385
 10
163.4209117572
 20
97.2108822933
 10
163.4370954806
 20
96.9920159003
  0
LINE
  5
113
330
1F
100
AcDbEntity
  8
0
  6
SLD-Gestrichelt
 62
     7
370
     0
100
AcDbLine
 10
163.4370954806
 20
91.2423972658
 30
0.0
 11
163.4370954806
 21
96.9920159003
 31
0.0
  0
LINE
  5
114
330
1F
100
AcDbEntity
  8
0
  6
SLD-Gestrichelt
 62
     7
370
     0
100
AcDbLine
 10
163.4370954806
 20
96.9920159003
 30
0.0
 11
163.4218006901
 21
97.1208029113
 31
0.0
  0
LWPOLYLINE
  5
115
330
1F
100
AcDbEntity
  8
0
  6
SLD-Gestrichelt
 62
     7
370
     0
100
AcDbPolyline
 90
        3
 70
   128
 43
0.0
 10
162.8205832047
 20
135.321460726
 10
162.6028177514
 20
135.4828682414
 10
162.31577517
 20
135.9259021154
  0
ARC
  5
116
330
1F
100
AcDbEntity
  8
0
  6
SLD-Gestrichelt
 62
     7
370
     0
100
AcDbCircle
 10
163.0366987823
 20
135.7564414774
 30
0.0
 40
0.485709992702277
100
AcDbArc
 50
243.5800029126
 51
295.0195094306
  0
LWPOLYLINE
  5
117
330
1F
100
AcDbEntity
  8
0
  6
SLD-Gestrichelt
 62
     7
370
     0
100
AcDbPolyline
 90
        9
 70
   128
 43
0.0
 10
163.2421185739
 20
135.3163086495
 10
163.2637173996
 20
135.3252027801
 10
163.283768309
 20
135.3317946813
 10
163.3044737635
 20
135.3367809823
 10
163.320815186
 20
135.3392322234
 10
163.3432610787
 20
135.3400014958
 10
163.3733928855
 20
135.3344862035
 10
163.4209117572
 20
135.2903135738
 10
163.4370954806
 20
135.2003552637
  0
LINE
  5
118
330
1F
100
AcDbEntity
  8
0
  6
SLD-Gestrichelt
 62
     7
370
     0
100
AcDbLine
 10
163.4370954806
 20
109.1542821995
 30
0.0
 11
163.4370954806
 21
135.2003552637
 31
0.0
  0
LWPOLYLINE
  5
119
330
1F
100
AcDbEntity
  8
0
  6
SLD-Gestrichelt
 62
     7
370
     0
100
AcDbPolyline
 90
       10
 70
   128
 43
0.0
 10
163.4370954806
 20
109.1542821995
 10
163.4135595185
 20
108.7938799209
 10
163.3920372359
 20
108.6950922071
 10
163.3523486333
 20
108.6032069905
 10
163.3307150285
 20
108.5788221716
 10
163.3115222456
 20
108.5673533997
 10
163.2934871839
 20
108.5637952818
 10
163.2747872162
 20
108.566612067
 10
163.252349589
 20
108.5780012107
 10
163.2421185739
 20
108.5859700723
  0
ARC
  5
11A
330
1F
100
AcDbEntity
  8
0
  6
SLD-Gestrichelt
 62
     7
370
     0
100
AcDbCircle
 10
163.0447583926
 20
108.3742059024
 30
0.0
 40
0.289473841357813
100
AcDbArc
 50
47.0163723267
 51
140.752745035
  0
LWPOLYLINE
  5
11B
330
1F
100
AcDbEntity
  8
0
  6
SLD-Gestrichelt
 62
     7
370
     0
100
AcDbPolyline
 90
        3
 70
   128
 43
0.0
 10
162.8205832047
 20
108.5573468043
 10
162.5947413221
 20
108.1992048456
 10
162.31577517
 20
107.2017341538
  0
ARC
  5
11C
330
1F
100
AcDbEntity
  8
0
  6
SLD-Gestrichelt
 62
     7
370
     0
100
AcDbCircle
 10
163.42735621
 20
98.4208242796
 30
0.0
 40
1.129751626094007
100
AcDbArc
 50
190.2899774279
 51
237.5145569944
  0
LINE
  5
11D
330
1F
100
AcDbEntity
  8
0
  6
SLD-Gestrichelt
 62
     7
370
     0
100
AcDbLine
 10
163.4370954806
 20
109.1542821995
 30
0.0
 11
163.4370954806
 21
135.2003552637
 31
0.0
  0
LINE
  5
11E
330
1F
100
AcDbEntity
  8
0
  6
SLD-Gestrichelt
 62
     7
370
     0
100
AcDbLine
 10
185.6370953563
 20
97.2867515555
 30
0.0
 11
185.6370953563
 21
130.2776840201
 31
0.0
  0
LINE
  5
11F
330
1F
100
AcDbEntity
  8
0
  6
SLD-Gestrichelt
 62
     7
370
     0
100
AcDbLine
 10
127.1673230175
 20
98.4692667297
 30
0.0
 11
127.1673230175
 21
129.095168846
 31
0.0
  0
LINE
  5
120
330
1F
100
AcDbEntity
  8
0
  6
SLD-Gestrichelt
 62
     7
370
     0
100
AcDbLine
 10
125.6370966974
 20
97.6041332504
 30
0.0
 11
125.6370966974
 21
129.9603023252
 31
0.0
  0
LINE
  5
121
330
1F
100
AcDbEntity
  8
0
  6
SLD-Gestrichelt
 62
     7
370
     0
100
AcDbLine
 10
133.6673231516
 20
99.4358072675
 30
0.0
 11
133.6673231516
 21
128.1286283082
 31
0.0
  0
LINE
  5
122
330
1F
100
AcDbEntity
  8
0
  6
SLD-Gestrichelt
 62
     7
370
     0
100
AcDbLine
 10
161.4370954874
 20
97.3246880493
 30
0.0
 11
161.4370954874
 21
93.1621194503
 31
0.0
  0
LINE
  5
123
330
1F
100
AcDbEntity
  8
0
  6
SLD-Gestrichelt
 62
     7
370
     0
100
AcDbLine
 10
127.137096012
 20
98.0709735921
 30
0.0
 11
127.137096012
 21
94.2852274201
 31
0.0
  0
LINE
  5
124
330
1F
100
AcDbEntity
  8
0
  6
SLD-Gestrichelt
 62
     7
370
     0
100
AcDbLine
 10
132.0870941225
 20
94.1759553424
 30
0.0
 11
127.137096012
 21
94.2852274201
 31
0.0
  0
ARC
  5
125
330
1F
100
AcDbEntity
  8
0
  6
SLD-Gestrichelt
 62
     7
370
     0
100
AcDbCircle
 10
138.9948522304
 20
129.3254910656
 30
0.0
 40
35.82187856089421
100
AcDbArc
 50
258.8816467727
 51
261.9897208584
  0
LWPOLYLINE
  5
126
330
1F
100
AcDbEntity
  8
0
  6
SLD-Gestrichelt
 62
     7
370
     0
100
AcDbPolyline
 90
        9
 70
   128
 43
0.0
 10
144.9482565466
 20
93.6907828471
 10
145.896477038
 20
93.7440172455
 10
147.2271600458
 20
93.774989309
 10
148.72194116
 20
93.7486123911
 10
150.1959966216
 20
93.659514623
 10
151.4396382216
 20
93.536308097
 10
152.2636789549
 20
93.4309140465
 10
152.5814173463
 20
93.3853015921
 10
152.5575261283
 20
93.3887866012
  0
LWPOLYLINE
  5
127
330
1F
100
AcDbEntity
  8
0
  6
SLD-Gestrichelt
 62
     7
370
     0
100
AcDbPolyline
 90
        4
 70
   128
 43
0.0
 10
143.9619561378
 20
93.6081708095
 10
143.9612818602
 20
93.6081056169
 10
144.3827761057
 20
93.6467946193
 10
144.9482565466
 20
93.6907828471
  0
LINE
  5
128
330
1F
100
AcDbEntity
  8
0
  6
SLD-Gestrichelt
 62
     7
370
     0
100
AcDbLine
 10
163.4370954806
 20
96.9920159003
 30
0.0
 11
163.4370954806
 21
93.1168962887
 31
0.0
  0
LINE
  5
129
330
1F
100
AcDbEntity
  8
0
  6
SLD-Gestrichelt
 62
     7
370
     0
100
AcDbLine
 10
139.4673244748
 20
99.7822173557
 30
0.0
 11
139.4673244748
 21
127.78221822
 31
0.0
  0
LINE
  5
12A
330
1F
100
AcDbEntity
  8
0
  6
SLD-Gestrichelt
 62
     7
370
     0
100
AcDbLine
 10
132.0673240069
 20
99.7822173557
 30
0.0
 11
132.0673240069
 21
127.78221822
 31
0.0
  0
LINE
  5
12B
330
1F
100
AcDbEntity
  8
0
  6
SLD-Gestrichelt
 62
     7
370
     0
100
AcDbLine
 10
133.0673241708
 20
99.7822173557
 30
0.0
 11
133.0673241708
 21
127.78221822
 31
0.0
  0
LWPOLYLINE
  5
12C
330
1F
100
AcDbEntity
  8
0
  6
SLD-Gestrichelt
 62
     7
370
     0
100
AcDbPolyline
 90
        4
 70
   128
 43
0.0
 10
152.1370954532
 20
127.7678358054
 10
152.1649568993
 20
127.7747182793
 10
152.1773127559
 20
127.7777702234
 10
152.1370954532
 20
127.7678358054
  0
LWPOLYLINE
  5
12D
330
1F
100
AcDbEntity
  8
0
  6
SLD-Gestrichelt
 62
     7
370
     0
100
AcDbPolyline
 90
        4
 70
   128
 43
0.0
 10
152.1370954532
 20
99.7965997702
 10
152.1857542637
 20
99.7850411257
 10
152.187059978
 20
99.7847309953
 10
152.1370954532
 20
99.7965997702
  0
LINE
  5
12E
330
1F
100
AcDbEntity
  8
0
  6
SLD-Gestrichelt
 62
     7
370
     0
100
AcDbLine
 10
152.6370955351
 20
100.2822174377
 30
0.0
 11
152.6370955351
 21
127.282218138
 31
0.0
  0
ARC
  5
12F
330
1F
100
AcDbEntity
  8
0
  6
SLD-Gestrichelt
 62
     7
370
     0
100
AcDbCircle
 10
148.0481408797
 20
85.5922683676
 30
0.0
 40
14.78115625039612
100
AcDbArc
 50
73.9406501629
 51
105.5928935473
  0
ARC
  5
130
330
1F
100
AcDbEntity
  8
0
  6
SLD-Gestrichelt
 62
     7
370
     0
100
AcDbCircle
 10
148.0481408797
 20
141.972167208
 30
0.0
 40
14.78115625039611
100
AcDbArc
 50
254.4071064527
 51
286.0593498371
  0
LINE
  5
131
330
1F
100
AcDbEntity
  8
0
  6
SLD-Gestrichelt
 62
     7
370
     0
100
AcDbLine
 10
228.1370920781
 20
113.7822177878
 30
0.0
 11
228.1370920781
 21
126.2822179741
 31
0.0
  0
LINE
  5
132
330
1F
100
AcDbEntity
  8
0
  6
SLD-Gestrichelt
 62
     7
370
     0
100
AcDbLine
 10
228.1370920781
 20
101.2822176016
 30
0.0
 11
228.1370920781
 21
113.7822177878
 31
0.0
  0
LINE
  5
133
330
1F
100
AcDbEntity
  8
0
  6
SLD-Gestrichelt
 62
     7
370
     0
100
AcDbLine
 10
228.9370981697
 20
114.5472435781
 30
0.0
 11
228.2770959381
 21
114.9282947334
 31
0.0
  0
ARC
  5
134
330
1F
100
AcDbEntity
  8
0
  6
SLD-Gestrichelt
 62
     7
370
     0
100
AcDbCircle
 10
228.3370954617
 20
115.0322177599
 30
0.0
 40
0.1199997427887122
100
AcDbArc
 50
119.9998082781
 51
240.0001917219
  0
LINE
  5
135
330
1F
100
AcDbEntity
  8
0
  6
SLD-Gestrichelt
 62
     7
370
     0
100
AcDbLine
 10
228.2770959381
 20
115.1361407864
 30
0.0
 11
228.9370981697
 21
115.5171919998
 31
0.0
  0
LINE
  5
136
330
1F
100
AcDbEntity
  8
0
  6
SLD-Gestrichelt
 62
     7
370
     0
100
AcDbLine
 10
228.9370981697
 20
115.5171919998
 30
0.0
 11
228.9370981697
 21
115.7972436084
 31
0.0
  0
LINE
  5
137
330
1F
100
AcDbEntity
  8
0
  6
SLD-Gestrichelt
 62
     7
370
     0
100
AcDbLine
 10
228.9370981697
 20
115.7972436084
 30
0.0
 11
228.2770959381
 21
116.1782947055
 31
0.0
  0
ARC
  5
138
330
1F
100
AcDbEntity
  8
0
  6
SLD-Gestrichelt
 62
     7
370
     0
100
AcDbCircle
 10
228.3370940629
 20
116.282217732
 30
0.0
 40
0.1199990433730268
100
AcDbArc
 50
119.9992298518
 51
240.0007701482
  0
LINE
  5
139
330
1F
100
AcDbEntity
  8
0
  6
SLD-Gestrichelt
 62
     7
370
     0
100
AcDbLine
 10
228.2770959381
 20
116.3861407584
 30
0.0
 11
228.9370981697
 21
116.7671920883
 31
0.0
  0
LINE
  5
13A
330
1F
100
AcDbEntity
  8
0
  6
SLD-Gestrichelt
 62
     7
370
     0
100
AcDbLine
 10
228.9370981697
 20
116.7671920883
 30
0.0
 11
228.9370981697
 21
117.0472435805
 31
0.0
  0
LINE
  5
13B
330
1F
100
AcDbEntity
  8
0
  6
SLD-Gestrichelt
 62
     7
370
     0
100
AcDbLine
 10
228.9370981697
 20
117.0472435805
 30
0.0
 11
228.2770959381
 21
117.4282946775
 31
0.0
  0
ARC
  5
13C
330
1F
100
AcDbEntity
  8
0
  6
SLD-Gestrichelt
 62
     7
370
     0
100
AcDbCircle
 10
228.3370961396
 20
117.532217704
 30
0.0
 40
0.120000081729958
100
AcDbArc
 50
120.000088581
 51
239.999911419
  0
LINE
  5
13D
330
1F
100
AcDbEntity
  8
0
  6
SLD-Gestrichelt
 62
     7
370
     0
100
AcDbLine
 10
228.2770959381
 20
117.6361407305
 30
0.0
 11
228.9370981697
 21
118.0171920604
 31
0.0
  0
LINE
  5
13E
330
1F
100
AcDbEntity
  8
0
  6
SLD-Gestrichelt
 62
     7
370
     0
100
AcDbLine
 10
228.9370981697
 20
118.0171920604
 30
0.0
 11
228.9370981697
 21
118.2972435525
 31
0.0
  0
LINE
  5
13F
330
1F
100
AcDbEntity
  8
0
  6
SLD-Gestrichelt
 62
     7
370
     0
100
AcDbLine
 10
228.9370981697
 20
118.2972435525
 30
0.0
 11
228.2770959381
 21
118.6782946496
 31
0.0
  0
ARC
  5
140
330
1F
100
AcDbEntity
  8
0
  6
SLD-Gestrichelt
 62
     7
370
     0
100
AcDbCircle
 10
228.3370930374
 20
118.7822176761
 30
0.0
 40
0.1199985306586794
100
AcDbArc
 50
119.9988058194
 51
240.0011941806
  0
LINE
  5
141
330
1F
100
AcDbEntity
  8
0
  6
SLD-Gestrichelt
 62
     7
370
     0
100
AcDbLine
 10
228.2770959381
 20
118.8861407025
 30
0.0
 11
228.9370981697
 21
119.2671917996
 31
0.0
  0
LINE
  5
142
330
1F
100
AcDbEntity
  8
0
  6
SLD-Gestrichelt
 62
     7
370
     0
100
AcDbLine
 10
228.9370981697
 20
119.2671917996
 30
0.0
 11
228.9370981697
 21
119.5472437574
 31
0.0
  0
LINE
  5
143
330
1F
100
AcDbEntity
  8
0
  6
SLD-Gestrichelt
 62
     7
370
     0
100
AcDbLine
 10
228.9370981697
 20
119.5472437574
 30
0.0
 11
228.2770959381
 21
119.9282948545
 31
0.0
  0
ARC
  5
144
330
1F
100
AcDbEntity
  8
0
  6
SLD-Gestrichelt
 62
     7
370
     0
100
AcDbCircle
 10
228.337092073
 20
120.032217881
 30
0.0
 40
0.1199980485038392
100
AcDbArc
 50
119.9984070525
 51
240.0015929475
  0
LINE
  5
145
330
1F
100
AcDbEntity
  8
0
  6
SLD-Gestrichelt
 62
     7
370
     0
100
AcDbLine
 10
228.2770959381
 20
120.1361409074
 30
0.0
 11
228.9370981697
 21
120.5171920045
 31
0.0
  0
LINE
  5
146
330
1F
100
AcDbEntity
  8
0
  6
SLD-Gestrichelt
 62
     7
370
     0
100
AcDbLine
 10
228.9370981697
 20
120.5171920045
 30
0.0
 11
228.9370981697
 21
120.7972434967
 31
0.0
  0
LINE
  5
147
330
1F
100
AcDbEntity
  8
0
  6
SLD-Gestrichelt
 62
     7
370
     0
100
AcDbLine
 10
228.9370981697
 20
120.7972434967
 30
0.0
 11
228.2770959381
 21
121.1782945937
 31
0.0
  0
ARC
  5
148
330
1F
100
AcDbEntity
  8
0
  6
SLD-Gestrichelt
 62
     7
370
     0
100
AcDbCircle
 10
228.3370971287
 20
121.2822176202
 30
0.0
 40
0.1200005762643668
100
AcDbArc
 50
120.0004975517
 51
239.9995024483
  0
LINE
  5
149
330
1F
100
AcDbEntity
  8
0
  6
SLD-Gestrichelt
 62
     7
370
     0
100
AcDbLine
 10
228.2770959381
 20
121.3861406467
 30
0.0
 11
228.9370981697
 21
121.7671922094
 31
0.0
  0
LINE
  5
14A
330
1F
100
AcDbEntity
  8
0
  6
SLD-Gestrichelt
 62
     7
370
     0
100
AcDbLine
 10
228.9370981697
 20
121.7671922094
 30
0.0
 11
228.9370981697
 21
122.0472437015
 31
0.0
  0
LINE
  5
14B
330
1F
100
AcDbEntity
  8
0
  6
SLD-Gestrichelt
 62
     7
370
     0
100
AcDbLine
 10
228.9370981697
 20
122.0472437015
 30
0.0
 11
228.2770959381
 21
122.428294333
 31
0.0
  0
ARC
  5
14C
330
1F
100
AcDbEntity
  8
0
  6
SLD-Gestrichelt
 62
     7
370
     0
100
AcDbCircle
 10
228.337094046
 20
122.5322173594
 30
0.0
 40
0.1199990349312091
100
AcDbArc
 50
119.9992228702
 51
240.0007771298
  0
LINE
  5
14D
330
1F
100
AcDbEntity
  8
0
  6
SLD-Gestrichelt
 62
     7
370
     0
100
AcDbLine
 10
228.2770959381
 20
122.6361403859
 30
0.0
 11
228.9370981697
 21
123.0171919486
 31
0.0
  0
LINE
  5
14E
330
1F
100
AcDbEntity
  8
0
  6
SLD-Gestrichelt
 62
     7
370
     0
100
AcDbLine
 10
228.9370981697
 20
123.0171919486
 30
0.0
 11
228.9370981697
 21
123.2972434408
 31
0.0
  0
LINE
  5
14F
330
1F
100
AcDbEntity
  8
0
  6
SLD-Gestrichelt
 62
     7
370
     0
100
AcDbLine
 10
228.9370981697
 20
123.2972434408
 30
0.0
 11
228.2770959381
 21
123.6782950035
 31
0.0
  0
LWPOLYLINE
  5
150
330
1F
100
AcDbEntity
  8
0
  6
SLD-Gestrichelt
 62
     7
370
     0
100
AcDbPolyline
 90
        9
 70
   128
 43
0.0
 10
228.2770959381
 20
123.6782950035
 10
228.2675070408
 20
123.684457565
 10
228.2511753682
 20
123.6984423048
 10
228.2400069478
 20
123.7116968876
 10
228.2310960535
 20
123.7259675435
 10
228.2227439526
 20
123.7458345166
 10
228.2172975782
 20
123.7752866617
 10
228.2241372112
 20
123.8227189204
 10
228.2770959381
 20
123.8861410565
  0
LINE
  5
151
330
1F
100
AcDbEntity
  8
0
  6
SLD-Gestrichelt
 62
     7
370
     0
100
AcDbLine
 10
228.2770959381
 20
123.8861410565
 30
0.0
 11
228.9370981697
 21
124.2671916879
 31
0.0
  0
LINE
  5
152
330
1F
100
AcDbEntity
  8
0
  6
SLD-Gestrichelt
 62
     7
370
     0
100
AcDbLine
 10
228.9370981697
 20
124.2671916879
 30
0.0
 11
228.9370981697
 21
124.54724318
 31
0.0
  0
LINE
  5
153
330
1F
100
AcDbEntity
  8
0
  6
SLD-Gestrichelt
 62
     7
370
     0
100
AcDbLine
 10
228.9370981697
 20
124.54724318
 30
0.0
 11
228.2770959381
 21
124.9282947427
 31
0.0
  0
LWPOLYLINE
  5
154
330
1F
100
AcDbEntity
  8
0
  6
SLD-Gestrichelt
 62
     7
370
     0
100
AcDbPolyline
 90
        9
 70
   128
 43
0.0
 10
228.2770959381
 20
124.9282947427
 10
228.2636699918
 20
124.93730622
 10
228.253984237
 20
124.9456592521
 10
228.2445965055
 20
124.9557752779
 10
228.2373992446
 20
124.9654256425
 10
228.2293004635
 20
124.97949327
 10
228.2210377696
 20
125.0017006567
 10
228.2187131885
 20
125.0518579653
 10
228.2770959381
 20
125.1361407957
  0
LWPOLYLINE
  5
155
330
1F
100
AcDbEntity
  8
0
  6
SLD-Gestrichelt
 62
     7
370
     0
100
AcDbPolyline
 90
        3
 70
   128
 43
0.0
 10
228.2770959381
 20
125.1361407957
 10
228.8024140242
 20
125.439434374
 10
228.8625253085
 20
125.4741401098
  0
LWPOLYLINE
  5
156
330
1F
100
AcDbEntity
  8
0
  6
SLD-Gestrichelt
 62
     7
370
     0
100
AcDbPolyline
 90
        4
 70
   128
 43
0.0
 10
228.8625253085
 20
102.0902954659
 10
228.8904575351
 20
102.0741714782
 10
228.6845458392
 20
102.1930538735
 10
228.2770959381
 20
102.42829478
  0
ARC
  5
157
330
1F
100
AcDbEntity
  8
0
  6
SLD-Gestrichelt
 62
     7
370
     0
100
AcDbCircle
 10
228.3370946435
 20
102.5322178065
 30
0.0
 40
0.1199993336771633
100
AcDbArc
 50
119.9994699393
 51
240.0005300607
  0
LINE
  5
158
330
1F
100
AcDbEntity
  8
0
  6
SLD-Gestrichelt
 62
     7
370
     0
100
AcDbLine
 10
228.2770959381
 20
102.6361408329
 30
0.0
 11
228.9370981697
 21
103.0171923957
 31
0.0
  0
LINE
  5
159
330
1F
100
AcDbEntity
  8
0
  6
SLD-Gestrichelt
 62
     7
370
     0
100
AcDbLine
 10
228.9370981697
 20
103.0171923957
 30
0.0
 11
228.9370981697
 21
103.2972438878
 31
0.0
  0
LINE
  5
15A
330
1F
100
AcDbEntity
  8
0
  6
SLD-Gestrichelt
 62
     7
370
     0
100
AcDbLine
 10
228.9370981697
 20
103.2972438878
 30
0.0
 11
228.2770959381
 21
103.6782945192
 31
0.0
  0
LWPOLYLINE
  5
15B
330
1F
100
AcDbEntity
  8
0
  6
SLD-Gestrichelt
 62
     7
370
     0
100
AcDbPolyline
 90
        9
 70
   128
 43
0.0
 10
228.2770959381
 20
103.6782945192
 10
228.2209260109
 20
103.7521344295
 10
228.2171858195
 20
103.7869034952
 10
228.2214624527
 20
103.8142899669
 10
228.2287342194
 20
103.8337732351
 10
228.2378462795
 20
103.8496681175
 10
228.2500205282
 20
103.8647900021
 10
228.2620979193
 20
103.8758950925
 10
228.2770959381
 20
103.8861405722
  0
LINE
  5
15C
330
1F
100
AcDbEntity
  8
0
  6
SLD-Gestrichelt
 62
     7
370
     0
100
AcDbLine
 10
228.2770959381
 20
103.8861405722
 30
0.0
 11
228.9370981697
 21
104.2671921349
 31
0.0
  0
LINE
  5
15D
330
1F
100
AcDbEntity
  8
0
  6
SLD-Gestrichelt
 62
     7
370
     0
100
AcDbLine
 10
228.9370981697
 20
104.2671921349
 30
0.0
 11
228.9370981697
 21
104.547243627
 31
0.0
  0
LINE
  5
15E
330
1F
100
AcDbEntity
  8
0
  6
SLD-Gestrichelt
 62
     7
370
     0
100
AcDbLine
 10
228.9370981697
 20
104.547243627
 30
0.0
 11
228.2770959381
 21
104.9282951898
 31
0.0
  0
ARC
  5
15F
330
1F
100
AcDbEntity
  8
0
  6
SLD-Gestrichelt
 62
     7
370
     0
100
AcDbCircle
 10
228.3370967742
 20
105.0322182162
 30
0.0
 40
0.1200003990355119
100
AcDbArc
 50
120.0003509878
 51
239.9996490122
  0
LINE
  5
160
330
1F
100
AcDbEntity
  8
0
  6
SLD-Gestrichelt
 62
     7
370
     0
100
AcDbLine
 10
228.2770959381
 20
105.1361412427
 30
0.0
 11
228.9370981697
 21
105.5171918741
 31
0.0
  0
LINE
  5
161
330
1F
100
AcDbEntity
  8
0
  6
SLD-Gestrichelt
 62
     7
370
     0
100
AcDbLine
 10
228.9370981697
 20
105.5171918741
 30
0.0
 11
228.9370981697
 21
105.7972433663
 31
0.0
  0
LINE
  5
162
330
1F
100
AcDbEntity
  8
0
  6
SLD-Gestrichelt
 62
     7
370
     0
100
AcDbLine
 10
228.9370981697
 20
105.7972433663
 30
0.0
 11
228.2770959381
 21
106.178294929
 31
0.0
  0
ARC
  5
163
330
1F
100
AcDbEntity
  8
0
  6
SLD-Gestrichelt
 62
     7
370
     0
100
AcDbCircle
 10
228.3370965936
 20
106.2822179555
 30
0.0
 40
0.1200003087275303
100
AcDbArc
 50
120.0002763048
 51
239.9997236952
  0
LINE
  5
164
330
1F
100
AcDbEntity
  8
0
  6
SLD-Gestrichelt
 62
     7
370
     0
100
AcDbLine
 10
228.2770959381
 20
106.3861409819
 30
0.0
 11
228.9370981697
 21
106.767192079
 31
0.0
  0
LINE
  5
165
330
1F
100
AcDbEntity
  8
0
  6
SLD-Gestrichelt
 62
     7
370
     0
100
AcDbLine
 10
228.9370981697
 20
106.767192079
 30
0.0
 11
228.9370981697
 21
107.0472435712
 31
0.0
  0
LINE
  5
166
330
1F
100
AcDbEntity
  8
0
  6
SLD-Gestrichelt
 62
     7
370
     0
100
AcDbLine
 10
228.9370981697
 20
107.0472435712
 30
0.0
 11
228.2770959381
 21
107.4282946682
 31
0.0
  0
ARC
  5
167
330
1F
100
AcDbEntity
  8
0
  6
SLD-Gestrichelt
 62
     7
370
     0
100
AcDbCircle
 10
228.3370941808
 20
107.5322176947
 30
0.0
 40
0.1199991023211085
100
AcDbArc
 50
119.9992786033
 51
240.0007213967
  0
LINE
  5
168
330
1F
100
AcDbEntity
  8
0
  6
SLD-Gestrichelt
 62
     7
370
     0
100
AcDbLine
 10
228.2770959381
 20
107.6361407212
 30
0.0
 11
228.9370981697
 21
108.0171918182
 31
0.0
  0
LINE
  5
169
330
1F
100
AcDbEntity
  8
0
  6
SLD-Gestrichelt
 62
     7
370
     0
100
AcDbLine
 10
228.9370981697
 20
108.0171918182
 30
0.0
 11
228.9370981697
 21
108.2972437761
 31
0.0
  0
LINE
  5
16A
330
1F
100
AcDbEntity
  8
0
  6
SLD-Gestrichelt
 62
     7
370
     0
100
AcDbLine
 10
228.9370981697
 20
108.2972437761
 30
0.0
 11
228.2770959381
 21
108.6782948731
 31
0.0
  0
ARC
  5
16B
330
1F
100
AcDbEntity
  8
0
  6
SLD-Gestrichelt
 62
     7
370
     0
100
AcDbCircle
 10
228.3370880358
 20
108.7822178996
 30
0.0
 40
0.119996030014953
100
AcDbArc
 50
119.9967375711
 51
240.0032624289
  0
LINE
  5
16C
330
1F
100
AcDbEntity
  8
0
  6
SLD-Gestrichelt
 62
     7
370
     0
100
AcDbLine
 10
228.2770959381
 20
108.8861409261
 30
0.0
 11
228.9370981697
 21
109.2671920231
 31
0.0
  0
LINE
  5
16D
330
1F
100
AcDbEntity
  8
0
  6
SLD-Gestrichelt
 62
     7
370
     0
100
AcDbLine
 10
228.9370981697
 20
109.2671920231
 30
0.0
 11
228.9370981697
 21
109.5472435153
 31
0.0
  0
LINE
  5
16E
330
1F
100
AcDbEntity
  8
0
  6
SLD-Gestrichelt
 62
     7
370
     0
100
AcDbLine
 10
228.9370981697
 20
109.5472435153
 30
0.0
 11
228.2770959381
 21
109.9282948452
 31
0.0
  0
ARC
  5
16F
330
1F
100
AcDbEntity
  8
0
  6
SLD-Gestrichelt
 62
     7
370
     0
100
AcDbCircle
 10
228.3370964548
 20
110.0322178717
 30
0.0
 40
0.1200002393186952
100
AcDbArc
 50
120.0002189049
 51
239.9997810951
  0
LINE
  5
170
330
1F
100
AcDbEntity
  8
0
  6
SLD-Gestrichelt
 62
     7
370
     0
100
AcDbLine
 10
228.2770959381
 20
110.1361408981
 30
0.0
 11
228.9370981697
 21
110.5171919952
 31
0.0
  0
LINE
  5
171
330
1F
100
AcDbEntity
  8
0
  6
SLD-Gestrichelt
 62
     7
370
     0
100
AcDbLine
 10
228.9370981697
 20
110.5171919952
 30
0.0
 11
228.9370981697
 21
110.7972434873
 31
0.0
  0
LINE
  5
172
330
1F
100
AcDbEntity
  8
0
  6
SLD-Gestrichelt
 62
     7
370
     0
100
AcDbLine
 10
228.9370981697
 20
110.7972434873
 30
0.0
 11
228.2770959381
 21
111.1782948172
 31
0.0
  0
ARC
  5
173
330
1F
100
AcDbEntity
  8
0
  6
SLD-Gestrichelt
 62
     7
370
     0
100
AcDbCircle
 10
228.3370983838
 20
111.2822178437
 30
0.0
 40
0.1200012038491726
100
AcDbArc
 50
120.0010165405
 51
239.9989834595
  0
LINE
  5
174
330
1F
100
AcDbEntity
  8
0
  6
SLD-Gestrichelt
 62
     7
370
     0
100
AcDbLine
 10
228.2770959381
 20
111.3861408702
 30
0.0
 11
228.9370981697
 21
111.7671919673
 31
0.0
  0
LINE
  5
175
330
1F
100
AcDbEntity
  8
0
  6
SLD-Gestrichelt
 62
     7
370
     0
100
AcDbLine
 10
228.9370981697
 20
111.7671919673
 30
0.0
 11
228.9370981697
 21
112.0472435758
 31
0.0
  0
LINE
  5
176
330
1F
100
AcDbEntity
  8
0
  6
SLD-Gestrichelt
 62
     7
370
     0
100
AcDbLine
 10
228.9370981697
 20
112.0472435758
 30
0.0
 11
228.2770959381
 21
112.4282947893
 31
0.0
  0
ARC
  5
177
330
1F
100
AcDbEntity
  8
0
  6
SLD-Gestrichelt
 62
     7
370
     0
100
AcDbCircle
 10
228.3370896355
 20
112.5322178158
 30
0.0
 40
0.1199968298235078
100
AcDbArc
 50
119.9973991053
 51
240.0026008947
  0
LINE
  5
178
330
1F
100
AcDbEntity
  8
0
  6
SLD-Gestrichelt
 62
     7
370
     0
100
AcDbLine
 10
228.2770959381
 20
112.6361408422
 30
0.0
 11
228.9370981697
 21
113.0171919975
 31
0.0
  0
LINE
  5
179
330
1F
100
AcDbEntity
  8
0
  6
SLD-Gestrichelt
 62
     7
370
     0
100
AcDbLine
 10
228.9370981697
 20
113.0171919975
 30
0.0
 11
228.9370981697
 21
113.2972435479
 31
0.0
  0
LINE
  5
17A
330
1F
100
AcDbEntity
  8
0
  6
SLD-Gestrichelt
 62
     7
370
     0
100
AcDbLine
 10
228.9370981697
 20
113.2972435479
 30
0.0
 11
228.2770959381
 21
113.6782947395
 31
0.0
  0
ARC
  5
17B
330
1F
100
AcDbEntity
  8
0
  6
SLD-Gestrichelt
 62
     7
370
     0
100
AcDbCircle
 10
228.3370964387
 20
113.7822177878
 30
0.0
 40
0.1200002502075855
100
AcDbArc
 50
120.0002070659
 51
239.9997929341
  0
LINE
  5
17C
330
1F
100
AcDbEntity
  8
0
  6
SLD-Gestrichelt
 62
     7
370
     0
100
AcDbLine
 10
228.2770959381
 20
113.8861408361
 30
0.0
 11
228.9370981697
 21
114.2671920278
 31
0.0
  0
LINE
  5
17D
330
1F
100
AcDbEntity
  8
0
  6
SLD-Gestrichelt
 62
     7
370
     0
100
AcDbLine
 10
228.9370981697
 20
114.2671920278
 30
0.0
 11
228.9370981697
 21
114.5472435781
 31
0.0
  0
LINE
  5
17E
330
1F
100
AcDbEntity
  8
0
  6
SLD-Gestrichelt
 62
     7
370
     0
100
AcDbLine
 10
153.8870952744
 20
104.7822181753
 30
0.0
 11
153.8870952744
 21
122.7822174004
 31
0.0
  0
LINE
  5
17F
330
1F
100
AcDbEntity
  8
0
  6
SLD-Gestrichelt
 62
     7
370
     0
100
AcDbLine
 10
152.6370955351
 20
103.536719518
 30
0.0
 11
152.6370955351
 21
124.0277160576
 31
0.0
  0
LINE
  5
180
330
1F
100
AcDbEntity
  8
0
  6
SLD-Gestrichelt
 62
     7
370
     0
100
AcDbLine
 10
179.6370962355
 20
104.7822181753
 30
0.0
 11
179.6370962355
 21
122.7822174004
 31
0.0
  0
LINE
  5
181
330
1F
100
AcDbEntity
  8
0
  6
SLD-Gestrichelt
 62
     7
370
     0
100
AcDbLine
 10
183.0019144062
 20
110.3822177428
 30
0.0
 11
183.0019144062
 21
117.1822178329
 31
0.0
  0
LINE
  5
182
330
1F
100
AcDbEntity
  8
0
  6
SLD-Gestrichelt
 62
     7
370
     0
100
AcDbLine
 10
227.7870936039
 20
117.7890720463
 30
0.0
 11
227.7870936039
 21
121.0890720284
 31
0.0
  0
LINE
  5
183
330
1F
100
AcDbEntity
  8
0
  6
SLD-Gestrichelt
 62
     7
370
     0
100
AcDbLine
 10
228.9370981697
 20
121.7671922094
 30
0.0
 11
228.9370981697
 21
122.0472437015
 31
0.0
  0
LWPOLYLINE
  5
184
330
1F
100
AcDbEntity
  8
0
  6
SLD-Gestrichelt
 62
     7
370
     0
100
AcDbPolyline
 90
       11
 70
   128
 43
0.0
 10
228.2770959381
 20
121.1782945937
 10
228.2225502375
 20
121.2464483141
 10
228.2172230724
 20
121.2878255791
 10
228.2218647841
 20
121.3157042547
 10
228.2288012746
 20
121.3339088171
 10
228.236505175
 20
121.3476556039
 10
228.2440526131
 20
121.3580016664
 10
228.2532838825
 20
121.3680962718
 10
228.2617253903
 20
121.3755938842
 10
228.2751364354
 20
121.3849858067
 10
228.2770959381
 20
121.3861406467
  0
LINE
  5
185
330
1F
100
AcDbEntity
  8
0
  6
SLD-Gestrichelt
 62
     7
370
     0
100
AcDbLine
 10
228.9370981697
 20
120.5171920045
 30
0.0
 11
228.9370981697
 21
120.7972434967
 31
0.0
  0
ARC
  5
186
330
1F
100
AcDbEntity
  8
0
  6
SLD-Gestrichelt
 62
     7
370
     0
100
AcDbCircle
 10
228.3370983658
 20
120.032217881
 30
0.0
 40
0.1200011948428245
100
AcDbArc
 50
120.0010090927
 51
239.9989909073
  0
LINE
  5
187
330
1F
100
AcDbEntity
  8
0
  6
SLD-Gestrichelt
 62
     7
370
     0
100
AcDbLine
 10
228.9370981697
 20
119.2671917996
 30
0.0
 11
228.9370981697
 21
119.5472437574
 31
0.0
  0
ARC
  5
188
330
1F
100
AcDbEntity
  8
0
  6
SLD-Gestrichelt
 62
     7
370
     0
100
AcDbCircle
 10
228.3371000892
 20
118.7822176761
 30
0.0
 40
0.1200020565968546
100
AcDbArc
 50
120.0017217087
 51
239.9982782913
  0
LINE
  5
189
330
1F
100
AcDbEntity
  8
0
  6
SLD-Gestrichelt
 62
     7
370
     0
100
AcDbLine
 10
228.9370981697
 20
118.0171920604
 30
0.0
 11
228.9370981697
 21
118.2972435525
 31
0.0
  0
LWPOLYLINE
  5
18A
330
1F
100
AcDbEntity
  8
0
  6
SLD-Gestrichelt
 62
     7
370
     0
100
AcDbPolyline
 90
       10
 70
   128
 43
0.0
 10
228.2770959381
 20
117.4282946775
 10
228.2654953841
 20
117.4359212781
 10
228.2576424721
 20
117.4422866351
 10
228.2494468335
 20
117.4502522371
 10
228.2428754214
 20
117.457901655
 10
228.2358197216
 20
117.4678500428
 10
228.2273409608
 20
117.4836981262
 10
228.2174093369
 20
117.5235722366
 10
228.2502887491
 20
117.6150744467
 10
228.2770959381
 20
117.6361407305
  0
LINE
  5
18B
330
1F
100
AcDbEntity
  8
0
  6
SLD-Gestrichelt
 62
     7
370
     0
100
AcDbLine
 10
228.9370981697
 20
116.7671920883
 30
0.0
 11
228.9370981697
 21
117.0472435805
 31
0.0
  0
LINE
  5
18C
330
1F
100
AcDbEntity
  8
0
  6
SLD-Gestrichelt
 62
     7
370
     0
100
AcDbLine
 10
228.9370981697
 20
122.0472437015
 30
0.0
 11
228.9370981697
 21
121.7671922094
 31
0.0
  0
LINE
  5
18D
330
1F
100
AcDbEntity
  8
0
  6
SLD-Gestrichelt
 62
     7
370
     0
100
AcDbLine
 10
228.9370981697
 20
122.0472437015
 30
0.0
 11
228.8255182746
 21
122.1116623527
 31
0.0
  0
LINE
  5
18E
330
1F
100
AcDbEntity
  8
0
  6
SLD-Gestrichelt
 62
     7
370
     0
100
AcDbLine
 10
228.9370981697
 20
120.7972434967
 30
0.0
 11
228.9370981697
 21
120.5171920045
 31
0.0
  0
LWPOLYLINE
  5
18F
330
1F
100
AcDbEntity
  8
0
  6
SLD-Gestrichelt
 62
     7
370
     0
100
AcDbPolyline
 90
        9
 70
   128
 43
0.0
 10
228.2770959381
 20
121.3861406467
 10
228.2639531139
 20
121.3773508242
 10
228.2546473387
 20
121.3694103679
 10
228.2455054763
 20
121.3597539498
 10
228.2384646777
 20
121.3505734375
 10
228.230269039
 20
121.3368797361
 10
228.2214475516
 20
121.3142285741
 10
228.2193390373
 20
121.2591347902
 10
228.2770959381
 20
121.1782945937
  0
LINE
  5
190
330
1F
100
AcDbEntity
  8
0
  6
SLD-Gestrichelt
 62
     7
370
     0
100
AcDbLine
 10
228.9370981697
 20
119.5472437574
 30
0.0
 11
228.9370981697
 21
119.2671917996
 31
0.0
  0
ARC
  5
191
330
1F
100
AcDbEntity
  8
0
  6
SLD-Gestrichelt
 62
     7
370
     0
100
AcDbCircle
 10
228.3370930654
 20
120.032217881
 30
0.0
 40
0.1199985446693825
100
AcDbArc
 50
119.9988174069
 51
240.0011825931
  0
LINE
  5
192
330
1F
100
AcDbEntity
  8
0
  6
SLD-Gestrichelt
 62
     7
370
     0
100
AcDbLine
 10
228.9370981697
 20
118.2972435525
 30
0.0
 11
228.9370981697
 21
118.0171920604
 31
0.0
  0
LINE
  5
193
330
1F
100
AcDbEntity
  8
0
  6
SLD-Gestrichelt
 62
     7
370
     0
100
AcDbLine
 10
228.9370981697
 20
117.0472435805
 30
0.0
 11
228.9370981697
 21
116.7671920883
 31
0.0
  0
ARC
  5
194
330
1F
100
AcDbEntity
  8
0
  6
SLD-Gestrichelt
 62
     7
370
     0
100
AcDbCircle
 10
228.3370944649
 20
118.7822176761
 30
0.0
 40
0.1199992444066583
100
AcDbArc
 50
119.9993961111
 51
240.0006038889
  0
LWPOLYLINE
  5
195
330
1F
100
AcDbEntity
  8
0
  6
SLD-Gestrichelt
 62
     7
370
     0
100
AcDbPolyline
 90
       10
 70
   128
 43
0.0
 10
228.2770959381
 20
117.6361407305
 10
228.2252995018
 20
117.5758175703
 10
228.2174391392
 20
117.5231792184
 10
228.2247630599
 20
117.4900143559
 10
228.235260928
 20
117.4687431811
 10
228.2411543373
 20
117.4601419515
 10
228.2488358859
 20
117.4509169685
 10
228.2564578298
 20
117.4433474115
 10
228.2654283288
 20
117.435970871
 10
228.2770959381
 20
117.4282946775
  0
LINE
  5
196
330
1F
100
AcDbEntity
  8
0
  6
SLD-Gestrichelt
 62
     7
370
     0
100
AcDbLine
 10
228.9370981697
 20
116.7671920883
 30
0.0
 11
228.8800043705
 21
116.7342293228
 31
0.0
  0
LINE
  5
197
330
1F
100
AcDbEntity
  8
0
  6
SLD-Gestrichelt
 62
     7
370
     0
100
AcDbLine
 10
227.7870936039
 20
106.4753635472
 30
0.0
 11
227.7870936039
 21
109.7753635294
 31
0.0
  0
LWPOLYLINE
  5
198
330
1F
100
AcDbEntity
  8
0
  6
SLD-Gestrichelt
 62
     7
370
     0
100
AcDbPolyline
 90
       11
 70
   128
 43
0.0
 10
228.2770959381
 20
109.9282948452
 10
228.2252995018
 20
109.9886180053
 10
228.2174391392
 20
110.0412563572
 10
228.2208589557
 20
110.0620283431
 10
228.2304404024
 20
110.0872103742
 10
228.240252817
 20
110.1030768513
 10
228.246541107
 20
110.1109563059
 10
228.2538948301
 20
110.1186937338
 10
228.2607568148
 20
110.1248039084
 10
228.27173152
 20
110.1328542608
 10
228.2770959381
 20
110.1361408981
  0
LINE
  5
199
330
1F
100
AcDbEntity
  8
0
  6
SLD-Gestrichelt
 62
     7
370
     0
100
AcDbLine
 10
228.9370981697
 20
109.2671920231
 30
0.0
 11
228.9370981697
 21
109.5472435153
 31
0.0
  0
ARC
  5
19A
330
1F
100
AcDbEntity
  8
0
  6
SLD-Gestrichelt
 62
     7
370
     0
100
AcDbCircle
 10
228.3370944649
 20
108.7822178996
 30
0.0
 40
0.1199992444066583
100
AcDbArc
 50
119.9993961111
 51
240.0006038889
  0
LINE
  5
19B
330
1F
100
AcDbEntity
  8
0
  6
SLD-Gestrichelt
 62
     7
370
     0
100
AcDbLine
 10
228.9370981697
 20
108.0171918182
 30
0.0
 11
228.9370981697
 21
108.2972437761
 31
0.0
  0
ARC
  5
19C
330
1F
100
AcDbEntity
  8
0
  6
SLD-Gestrichelt
 62
     7
370
     0
100
AcDbCircle
 10
228.3370930654
 20
107.5322176947
 30
0.0
 40
0.1199985446693825
100
AcDbArc
 50
119.9988174069
 51
240.0011825931
  0
LINE
  5
19D
330
1F
100
AcDbEntity
  8
0
  6
SLD-Gestrichelt
 62
     7
370
     0
100
AcDbLine
 10
228.9370981697
 20
106.767192079
 30
0.0
 11
228.9370981697
 21
107.0472435712
 31
0.0
  0
LWPOLYLINE
  5
19E
330
1F
100
AcDbEntity
  8
0
  6
SLD-Gestrichelt
 62
     7
370
     0
100
AcDbPolyline
 90
        9
 70
   128
 43
0.0
 10
228.2770959381
 20
106.178294929
 10
228.2639531139
 20
106.1870847515
 10
228.2546473387
 20
106.1950252077
 10
228.2455054763
 20
106.2046816258
 10
228.2384646777
 20
106.2138621381
 10
228.230269039
 20
106.2275558396
 10
228.2214475516
 20
106.2502070016
 10
228.2193390373
 20
106.3053007855
 10
228.2770959381
 20
106.3861409819
  0
LINE
  5
19F
330
1F
100
AcDbEntity
  8
0
  6
SLD-Gestrichelt
 62
     7
370
     0
100
AcDbLine
 10
228.9370981697
 20
105.5171918741
 30
0.0
 11
228.9370981697
 21
105.7972433663
 31
0.0
  0
LINE
  5
1A0
330
1F
100
AcDbEntity
  8
0
  6
SLD-Gestrichelt
 62
     7
370
     0
100
AcDbLine
 10
228.9370981697
 20
110.5171919952
 30
0.0
 11
228.9370981697
 21
110.7972434873
 31
0.0
  0
LINE
  5
1A1
330
1F
100
AcDbEntity
  8
0
  6
SLD-Gestrichelt
 62
     7
370
     0
100
AcDbLine
 10
228.9370981697
 20
105.7972433663
 30
0.0
 11
228.9370981697
 21
105.5171918741
 31
0.0
  0
LINE
  5
1A2
330
1F
100
AcDbEntity
  8
0
  6
SLD-Gestrichelt
 62
     7
370
     0
100
AcDbLine
 10
228.9370981697
 20
105.5171918741
 30
0.0
 11
228.8255182746
 21
105.452773223
 31
0.0
  0
LINE
  5
1A3
330
1F
100
AcDbEntity
  8
0
  6
SLD-Gestrichelt
 62
     7
370
     0
100
AcDbLine
 10
228.9370981697
 20
107.0472435712
 30
0.0
 11
228.9370981697
 21
106.767192079
 31
0.0
  0
LWPOLYLINE
  5
1A4
330
1F
100
AcDbEntity
  8
0
  6
SLD-Gestrichelt
 62
     7
370
     0
100
AcDbPolyline
 90
       11
 70
   128
 43
0.0
 10
228.2770959381
 20
106.3861409819
 10
228.2225502375
 20
106.3179872616
 10
228.2172230724
 20
106.2766099966
 10
228.2218647841
 20
106.248731321
 10
228.2288012746
 20
106.2305267586
 10
228.236505175
 20
106.2167799718
 10
228.2440526131
 20
106.2064339093
 10
228.2532838825
 20
106.1963393039
 10
228.2617253903
 20
106.1888416915
 10
228.2751364354
 20
106.179449769
 10
228.2770959381
 20
106.178294929
  0
LINE
  5
1A5
330
1F
100
AcDbEntity
  8
0
  6
SLD-Gestrichelt
 62
     7
370
     0
100
AcDbLine
 10
228.9370981697
 20
108.2972437761
 30
0.0
 11
228.9370981697
 21
108.0171918182
 31
0.0
  0
ARC
  5
1A6
330
1F
100
AcDbEntity
  8
0
  6
SLD-Gestrichelt
 62
     7
370
     0
100
AcDbCircle
 10
228.3370983658
 20
107.5322176947
 30
0.0
 40
0.1200011948428245
100
AcDbArc
 50
120.0010090927
 51
239.9989909073
  0
LINE
  5
1A7
330
1F
100
AcDbEntity
  8
0
  6
SLD-Gestrichelt
 62
     7
370
     0
100
AcDbLine
 10
228.9370981697
 20
109.5472435153
 30
0.0
 11
228.9370981697
 21
109.2671920231
 31
0.0
  0
LINE
  5
1A8
330
1F
100
AcDbEntity
  8
0
  6
SLD-Gestrichelt
 62
     7
370
     0
100
AcDbLine
 10
228.9370981697
 20
110.7972434873
 30
0.0
 11
228.9370981697
 21
110.5171919952
 31
0.0
  0
ARC
  5
1A9
330
1F
100
AcDbEntity
  8
0
  6
SLD-Gestrichelt
 62
     7
370
     0
100
AcDbCircle
 10
228.3371000892
 20
108.7822178996
 30
0.0
 40
0.1200020565968546
100
AcDbArc
 50
120.0017217087
 51
239.9982782913
  0
LWPOLYLINE
  5
1AA
330
1F
100
AcDbEntity
  8
0
  6
SLD-Gestrichelt
 62
     7
370
     0
100
AcDbPolyline
 90
       10
 70
   128
 43
0.0
 10
228.2770959381
 20
110.1361408981
 10
228.2654953841
 20
110.1285142976
 10
228.2576424721
 20
110.1221489406
 10
228.2494468335
 20
110.1141833386
 10
228.2428754214
 20
110.1065339206
 10
228.2358197216
 20
110.0965855329
 10
228.2273409608
 20
110.0807374495
 10
228.2174093369
 20
110.0408633391
 10
228.2502887491
 20
109.949361129
 10
228.2770959381
 20
109.9282948452
  0
LINE
  5
1AB
330
1F
100
AcDbEntity
  8
0
  6
SLD-Gestrichelt
 62
     7
370
     0
100
AcDbLine
 10
228.9370981697
 20
110.7972434873
 30
0.0
 11
228.8800043705
 21
110.8302062529
 31
0.0
  0
LINE
  5
1AC
330
1F
100
AcDbEntity
  8
0
  6
SLD-Gestrichelt
 62
     7
370
     0
100
AcDbLine
 10
217.6370968762
 20
117.7890720463
 30
0.0
 11
217.6370968762
 21
121.0890720284
 31
0.0
  0
LINE
  5
1AD
330
1F
100
AcDbEntity
  8
0
  6
SLD-Gestrichelt
 62
     7
370
     0
100
AcDbLine
 10
217.6370968762
 20
106.4753635472
 30
0.0
 11
217.6370968762
 21
109.7753635294
 31
0.0
  0
LINE
  5
1AE
330
1F
100
AcDbEntity
  8
0
  6
SLD-Gestrichelt
 62
     7
370
     0
100
AcDbLine
 10
161.4370954874
 20
135.4646180442
 30
0.0
 11
161.4370954874
 21
137.2023169569
 31
0.0
  0
LINE
  5
1AF
330
1F
100
AcDbEntity
  8
0
  6
SLD-Gestrichelt
 62
     7
370
     0
100
AcDbLine
 10
127.137096012
 20
134.718334364
 30
0.0
 11
127.137096012
 21
136.3405809424
 31
0.0
  0
LWPOLYLINE
  5
1B0
330
1F
100
AcDbEntity
  8
0
  6
SLD-Gestrichelt
 62
     7
370
     0
100
AcDbPolyline
 90
        4
 70
   128
 43
0.0
 10
162.31577517
 20
135.9259021154
 10
162.0237693376
 20
136.5744844696
 10
161.8594845011
 20
136.9429659716
 10
161.8436864763
 20
136.9785424939
  0
LINE
  5
1B1
330
1F
100
AcDbEntity
  8
0
  6
SLD-Gestrichelt
 62
     7
370
     0
100
AcDbLine
 10
125.6370966974
 20
133.9683328441
 30
0.0
 11
125.6370966974
 21
135.4745552561
 31
0.0
  0
LINE
  5
1B2
330
1F
100
AcDbEntity
  8
0
  6
SLD-Gestrichelt
 62
     7
370
     0
100
AcDbLine
 10
228.1370920781
 20
109.7867484822
 30
0.0
 11
228.1370920781
 21
117.7776870935
 31
0.0
  0
LINE
  5
1B3
330
1F
100
AcDbEntity
  8
0
  6
SLD-Gestrichelt
 62
     7
370
     0
100
AcDbLine
 10
228.9370981697
 20
118.0171920604
 30
0.0
 11
228.9370981697
 21
118.2972435525
 31
0.0
  0
LWPOLYLINE
  5
1B4
330
1F
100
AcDbEntity
  8
0
  6
SLD-Gestrichelt
 62
     7
370
     0
100
AcDbPolyline
 90
        4
 70
   128
 43
0.0
 10
228.9370981697
 20
118.2972435525
 10
228.7762028817
 20
118.3901350631
 10
228.7814257387
 20
118.3871185093
 10
228.9370981697
 20
118.2972435525
  0
LINE
  5
1B5
330
1F
100
AcDbEntity
  8
0
  6
SLD-Gestrichelt
 62
     7
370
     0
100
AcDbLine
 10
228.9370981697
 20
118.2972435525
 30
0.0
 11
228.9370981697
 21
118.0171920604
 31
0.0
  0
LWPOLYLINE
  5
1B6
330
1F
100
AcDbEntity
  8
0
  6
SLD-Gestrichelt
 62
     7
370
     0
100
AcDbPolyline
 90
       10
 70
   128
 43
0.0
 10
228.2770959381
 20
117.6361407305
 10
228.2649142388
 20
117.6280824619
 10
228.2565770391
 20
117.6211916062
 10
228.2480610255
 20
117.6126718673
 10
228.2413480524
 20
117.6045518986
 10
228.2339272741
 20
117.5935113023
 10
228.2253516558
 20
117.5759633223
 10
228.2171038631
 20
117.5333155005
 10
228.2591847423
 20
117.4409473932
 10
228.2770959381
 20
117.4282946775
  0
LINE
  5
1B7
330
1F
100
AcDbEntity
  8
0
  6
SLD-Gestrichelt
 62
     7
370
     0
100
AcDbLine
 10
228.9370981697
 20
117.0472435805
 30
0.0
 11
228.9370981697
 21
116.7671920883
 31
0.0
  0
ARC
  5
1B8
330
1F
100
AcDbEntity
  8
0
  6
SLD-Gestrichelt
 62
     7
370
     0
100
AcDbCircle
 10
228.3370958853
 20
116.282217732
 30
0.0
 40
0.1199999545635598
100
AcDbArc
 50
119.9999834154
 51
240.0000165846
  0
LINE
  5
1B9
330
1F
100
AcDbEntity
  8
0
  6
SLD-Gestrichelt
 62
     7
370
     0
100
AcDbLine
 10
228.9370981697
 20
115.7972436084
 30
0.0
 11
228.9370981697
 21
115.5171919998
 31
0.0
  0
ARC
  5
1BA
330
1F
100
AcDbEntity
  8
0
  6
SLD-Gestrichelt
 62
     7
370
     0
100
AcDbCircle
 10
228.3370946077
 20
115.0322177599
 30
0.0
 40
0.1199993157915585
100
AcDbArc
 50
119.9994551477
 51
240.0005448523
  0
LINE
  5
1BB
330
1F
100
AcDbEntity
  8
0
  6
SLD-Gestrichelt
 62
     7
370
     0
100
AcDbLine
 10
228.9370981697
 20
114.5472435781
 30
0.0
 11
228.9370981697
 21
114.2671920278
 31
0.0
  0
ARC
  5
1BC
330
1F
100
AcDbEntity
  8
0
  6
SLD-Gestrichelt
 62
     7
370
     0
100
AcDbCircle
 10
228.3370932323
 20
113.7822177878
 30
0.0
 40
0.1199986469923857
100
AcDbArc
 50
119.9988811872
 51
240.0011188128
  0
LINE
  5
1BD
330
1F
100
AcDbEntity
  8
0
  6
SLD-Gestrichelt
 62
     7
370
     0
100
AcDbLine
 10
228.9370981697
 20
113.2972435479
 30
0.0
 11
228.9370981697
 21
113.0171919975
 31
0.0
  0
ARC
  5
1BE
330
1F
100
AcDbEntity
  8
0
  6
SLD-Gestrichelt
 62
     7
370
     0
100
AcDbCircle
 10
228.3370927632
 20
112.5322178158
 30
0.0
 40
0.1199983935792936
100
AcDbArc
 50
119.9986924485
 51
240.0013075515
  0
LINE
  5
1BF
330
1F
100
AcDbEntity
  8
0
  6
SLD-Gestrichelt
 62
     7
370
     0
100
AcDbLine
 10
228.9370981697
 20
112.0472435758
 30
0.0
 11
228.9370981697
 21
111.7671919673
 31
0.0
  0
ARC
  5
1C0
330
1F
100
AcDbEntity
  8
0
  6
SLD-Gestrichelt
 62
     7
370
     0
100
AcDbCircle
 10
228.3370948741
 20
111.2822178437
 30
0.0
 40
0.1199994490035167
100
AcDbArc
 50
119.9995653158
 51
240.0004346842
  0
LINE
  5
1C1
330
1F
100
AcDbEntity
  8
0
  6
SLD-Gestrichelt
 62
     7
370
     0
100
AcDbLine
 10
228.9370981697
 20
110.7972434873
 30
0.0
 11
228.9370981697
 21
110.5171919952
 31
0.0
  0
ARC
  5
1C2
330
1F
100
AcDbEntity
  8
0
  6
SLD-Gestrichelt
 62
     7
370
     0
100
AcDbCircle
 10
228.3370919271
 20
110.0322178717
 30
0.0
 40
0.1199979755157387
100
AcDbArc
 50
119.9983466869
 51
240.0016533131
  0
LINE
  5
1C3
330
1F
100
AcDbEntity
  8
0
  6
SLD-Gestrichelt
 62
     7
370
     0
100
AcDbLine
 10
228.9370981697
 20
109.5472435153
 30
0.0
 11
228.9370981697
 21
109.2671920231
 31
0.0
  0
LWPOLYLINE
  5
1C4
330
1F
100
AcDbEntity
  8
0
  6
SLD-Gestrichelt
 62
     7
370
     0
100
AcDbPolyline
 90
        4
 70
   128
 43
0.0
 10
228.9370981697
 20
109.2671920231
 10
228.7762028817
 20
109.1743005126
 10
228.7814257387
 20
109.1773170664
 10
228.9370981697
 20
109.2671920231
  0
LINE
  5
1C5
330
1F
100
AcDbEntity
  8
0
  6
SLD-Gestrichelt
 62
     7
370
     0
100
AcDbLine
 10
228.9370981697
 20
109.2671920231
 30
0.0
 11
228.9370981697
 21
109.5472435153
 31
0.0
  0
LINE
  5
1C6
330
1F
100
AcDbEntity
  8
0
  6
SLD-Gestrichelt
 62
     7
370
     0
100
AcDbLine
 10
228.9370981697
 20
116.7671920883
 30
0.0
 11
228.9370981697
 21
117.0472435805
 31
0.0
  0
LINE
  5
1C7
330
1F
100
AcDbEntity
  8
0
  6
SLD-Gestrichelt
 62
     7
370
     0
100
AcDbLine
 10
228.9370981697
 20
110.5171919952
 30
0.0
 11
228.9370981697
 21
110.7972434873
 31
0.0
  0
LWPOLYLINE
  5
1C8
330
1F
100
AcDbEntity
  8
0
  6
SLD-Gestrichelt
 62
     7
370
     0
100
AcDbPolyline
 90
       10
 70
   128
 43
0.0
 10
228.2770959381
 20
109.9282948452
 10
228.2649142388
 20
109.9363531138
 10
228.2565770391
 20
109.9432439695
 10
228.2480610255
 20
109.9517637084
 10
228.2413480524
 20
109.9598836771
 10
228.2339272741
 20
109.9709242734
 10
228.2253516558
 20
109.9884722533
 10
228.2171038631
 20
110.0311200752
 10
228.2591847423
 20
110.1234881825
 10
228.2770959381
 20
110.1361408981
  0
ARC
  5
1C9
330
1F
100
AcDbEntity
  8
0
  6
SLD-Gestrichelt
 62
     7
370
     0
100
AcDbCircle
 10
228.3370919271
 20
117.532217704
 30
0.0
 40
0.1199979755157387
100
AcDbArc
 50
119.9983466869
 51
240.0016533131
  0
LINE
  5
1CA
330
1F
100
AcDbEntity
  8
0
  6
SLD-Gestrichelt
 62
     7
370
     0
100
AcDbLine
 10
228.9370981697
 20
111.7671919673
 30
0.0
 11
228.9370981697
 21
112.0472435758
 31
0.0
  0
LINE
  5
1CB
330
1F
100
AcDbEntity
  8
0
  6
SLD-Gestrichelt
 62
     7
370
     0
100
AcDbLine
 10
228.9370981697
 20
115.5171919998
 30
0.0
 11
228.9370981697
 21
115.7972436084
 31
0.0
  0
LINE
  5
1CC
330
1F
100
AcDbEntity
  8
0
  6
SLD-Gestrichelt
 62
     7
370
     0
100
AcDbLine
 10
228.9370981697
 20
113.0171919975
 30
0.0
 11
228.9370981697
 21
113.2972435479
 31
0.0
  0
LINE
  5
1CD
330
1F
100
AcDbEntity
  8
0
  6
SLD-Gestrichelt
 62
     7
370
     0
100
AcDbLine
 10
228.9370981697
 20
114.2671920278
 30
0.0
 11
228.9370981697
 21
114.5472435781
 31
0.0
  0
ARC
  5
1CE
330
1F
100
AcDbEntity
  8
0
  6
SLD-Gestrichelt
 62
     7
370
     0
100
AcDbCircle
 10
228.3370948741
 20
116.282217732
 30
0.0
 40
0.1199994490035167
100
AcDbArc
 50
119.9995653158
 51
240.0004346842
  0
ARC
  5
1CF
330
1F
100
AcDbEntity
  8
0
  6
SLD-Gestrichelt
 62
     7
370
     0
100
AcDbCircle
 10
228.3370958853
 20
111.2822178437
 30
0.0
 40
0.1199999545635598
100
AcDbArc
 50
119.9999834154
 51
240.0000165846
  0
ARC
  5
1D0
330
1F
100
AcDbEntity
  8
0
  6
SLD-Gestrichelt
 62
     7
370
     0
100
AcDbCircle
 10
228.3370927632
 20
115.0322177599
 30
0.0
 40
0.1199983935792936
100
AcDbArc
 50
119.9986924485
 51
240.0013075515
  0
ARC
  5
1D1
330
1F
100
AcDbEntity
  8
0
  6
SLD-Gestrichelt
 62
     7
370
     0
100
AcDbCircle
 10
228.3370946077
 20
112.5322178158
 30
0.0
 40
0.1199993157915585
100
AcDbArc
 50
119.9994551477
 51
240.0005448523
  0
ARC
  5
1D2
330
1F
100
AcDbEntity
  8
0
  6
SLD-Gestrichelt
 62
     7
370
     0
100
AcDbCircle
 10
228.3370932323
 20
113.7822177878
 30
0.0
 40
0.1199986469923857
100
AcDbArc
 50
119.9988811872
 51
240.0011188128
  0
LINE
  5
1D3
330
1F
100
AcDbEntity
  8
0
  6
SLD-Gestrichelt
 62
     7
370
     0
100
AcDbLine
 10
144.0870960895
 20
93.7844627223
 30
0.0
 11
152.1870953682
 21
93.7844627223
 31
0.0
  0
LINE
  5
1D4
330
1F
100
AcDbEntity
  8
0
  6
SLD-Gestrichelt
 62
     7
370
     0
100
AcDbLine
 10
127.137096012
 20
94.2852274201
 30
0.0
 11
125.6370966974
 21
95.0337388239
 31
0.0
  0
LINE
  5
1D5
330
1F
100
AcDbEntity
  8
0
  6
SLD-Gestrichelt
 62
     7
370
     0
100
AcDbLine
 10
132.0870941225
 20
94.1759553424
 30
0.0
 11
132.0870941225
 21
95.7822185627
 31
0.0
  0
LINE
  5
1D6
330
1F
100
AcDbEntity
  8
0
  6
SLD-Gestrichelt
 62
     7
370
     0
100
AcDbLine
 10
125.6370966974
 20
95.0337388239
 30
0.0
 11
125.6370966974
 21
95.7822185627
 31
0.0
  0
LINE
  5
1D7
330
1F
100
AcDbEntity
  8
0
  6
SLD-Gestrichelt
 62
     7
370
     0
100
AcDbLine
 10
144.0870960895
 20
131.2822178623
 30
0.0
 11
152.1870953682
 21
131.2822178623
 31
0.0
  0
LINE
  5
1D8
330
1F
100
AcDbEntity
  8
0
  6
SLD-Gestrichelt
 62
     7
370
     0
100
AcDbLine
 10
225.0870963279
 20
110.0822177867
 30
0.0
 11
225.0870963279
 21
117.482217789
 31
0.0
  0
LINE
  5
1D9
330
1F
100
AcDbEntity
  8
0
  6
SLD-Gestrichelt
 62
     7
370
     0
100
AcDbLine
 10
226.5870956424
 20
110.0822177867
 30
0.0
 11
226.5870956424
 21
117.482217789
 31
0.0
  0
LINE
  5
1DA
330
1F
100
AcDbEntity
  8
0
  6
SLD-Gestrichelt
 62
     7
370
     0
100
AcDbLine
 10
222.6370958332
 20
110.3822177428
 30
0.0
 11
222.6370958332
 21
117.1822178329
 31
0.0
  0
LINE
  5
1DB
330
1F
100
AcDbEntity
  8
0
  6
SLD-Gestrichelt
 62
     7
370
     0
100
AcDbLine
 10
222.8774403873
 20
110.7822177618
 30
0.0
 11
222.8774403873
 21
116.7822178139
 31
0.0
  0
LINE
  5
1DC
330
1F
100
AcDbEntity
  8
0
  6
SLD-Gestrichelt
 62
     7
370
     0
100
AcDbLine
 10
227.6174811367
 20
110.7822177618
 30
0.0
 11
227.6174811367
 21
116.7822178139
 31
0.0
  0
LINE
  5
1DD
330
1F
100
AcDbEntity
  8
0
  6
SLD-Gestrichelt
 62
     7
370
     0
100
AcDbLine
 10
228.1370920781
 20
117.0641401003
 30
0.0
 11
228.1370920781
 21
110.5002954754
 31
0.0
  0
LINE
  5
1DE
330
1F
100
AcDbEntity
  8
0
  6
SLD-Gestrichelt
 62
     7
370
     0
100
AcDbLine
 10
226.5870956424
 20
110.7822177618
 30
0.0
 11
226.5870956424
 21
116.7822178139
 31
0.0
  0
LINE
  5
1DF
330
1F
100
AcDbEntity
  8
0
  6
SLD-Gestrichelt
 62
     7
370
     0
100
AcDbLine
 10
225.0870963279
 20
110.7822177618
 30
0.0
 11
225.0870963279
 21
116.7822178139
 31
0.0
  0
LINE
  5
1E0
330
1F
100
AcDbEntity
  8
0
  6
SLD-Gestrichelt
 62
     7
370
     0
100
AcDbLine
 10
173.637095252
 20
82.7822182945
 30
0.0
 11
177.6370959077
 21
82.7822182945
 31
0.0
  0
LINE
  5
1E1
330
1F
100
AcDbEntity
  8
0
  6
SLD-Gestrichelt
 62
     7
370
     0
100
AcDbLine
 10
227.7870936039
 20
117.7936858183
 30
0.0
 11
227.7870936039
 21
121.0844582564
 31
0.0
  0
LINE
  5
1E2
330
1F
100
AcDbEntity
  8
0
  6
SLD-Gestrichelt
 62
     7
370
     0
100
AcDbLine
 10
228.9370981697
 20
121.7671922094
 30
0.0
 11
228.9370981697
 21
122.0472437015
 31
0.0
  0
LWPOLYLINE
  5
1E3
330
1F
100
AcDbEntity
  8
0
  6
SLD-Gestrichelt
 62
     7
370
     0
100
AcDbPolyline
 90
       11
 70
   128
 43
0.0
 10
228.2770959381
 20
121.1782945937
 10
228.2225502375
 20
121.2464483141
 10
228.2172230724
 20
121.2878255791
 10
228.2218647841
 20
121.3157042547
 10
228.2288012746
 20
121.3339088171
 10
228.236505175
 20
121.3476556039
 10
228.2440526131
 20
121.3580016664
 10
228.2532838825
 20
121.3680962718
 10
228.2617253903
 20
121.3755938842
 10
228.2751364354
 20
121.3849858067
 10
228.2770959381
 20
121.3861406467
  0
LINE
  5
1E4
330
1F
100
AcDbEntity
  8
0
  6
SLD-Gestrichelt
 62
     7
370
     0
100
AcDbLine
 10
228.9370981697
 20
120.5171920045
 30
0.0
 11
228.9370981697
 21
120.7972434967
 31
0.0
  0
LINE
  5
1E5
330
1F
100
AcDbEntity
  8
0
  6
SLD-Gestrichelt
 62
     7
370
     0
100
AcDbLine
 10
228.9370981697
 20
119.2671917996
 30
0.0
 11
228.9370981697
 21
119.5472437574
 31
0.0
  0
LINE
  5
1E6
330
1F
100
AcDbEntity
  8
0
  6
SLD-Gestrichelt
 62
     7
370
     0
100
AcDbLine
 10
228.9370981697
 20
118.0171920604
 30
0.0
 11
228.9370981697
 21
118.2972435525
 31
0.0
  0
LWPOLYLINE
  5
1E7
330
1F
100
AcDbEntity
  8
0
  6
SLD-Gestrichelt
 62
     7
370
     0
100
AcDbPolyline
 90
       10
 70
   128
 43
0.0
 10
228.2770959381
 20
117.4282946775
 10
228.2654953841
 20
117.4359212781
 10
228.2576424721
 20
117.4422866351
 10
228.2494468335
 20
117.4502522371
 10
228.2428754214
 20
117.457901655
 10
228.2358197216
 20
117.4678500428
 10
228.2273409608
 20
117.4836981262
 10
228.2174093369
 20
117.5235722366
 10
228.2502887491
 20
117.6150744467
 10
228.2770959381
 20
117.6361407305
  0
LINE
  5
1E8
330
1F
100
AcDbEntity
  8
0
  6
SLD-Gestrichelt
 62
     7
370
     0
100
AcDbLine
 10
228.9370981697
 20
116.7671920883
 30
0.0
 11
228.9370981697
 21
117.0472435805
 31
0.0
  0
LINE
  5
1E9
330
1F
100
AcDbEntity
  8
0
  6
SLD-Gestrichelt
 62
     7
370
     0
100
AcDbLine
 10
228.9370981697
 20
117.0472435805
 30
0.0
 11
228.9370981697
 21
116.7671920883
 31
0.0
  0
LINE
  5
1EA
330
1F
100
AcDbEntity
  8
0
  6
SLD-Gestrichelt
 62
     7
370
     0
100
AcDbLine
 10
228.9370981697
 20
118.2972435525
 30
0.0
 11
228.9370981697
 21
118.0171920604
 31
0.0
  0
LWPOLYLINE
  5
1EB
330
1F
100
AcDbEntity
  8
0
  6
SLD-Gestrichelt
 62
     7
370
     0
100
AcDbPolyline
 90
       10
 70
   128
 43
0.0
 10
228.2770959381
 20
117.6361407305
 10
228.2252995018
 20
117.5758175703
 10
228.2174391392
 20
117.5231792184
 10
228.2247630599
 20
117.4900143559
 10
228.235260928
 20
117.4687431811
 10
228.2411543373
 20
117.4601419515
 10
228.2488358859
 20
117.4509169685
 10
228.2564578298
 20
117.4433474115
 10
228.2654283288
 20
117.435970871
 10
228.2770959381
 20
117.4282946775
  0
LINE
  5
1EC
330
1F
100
AcDbEntity
  8
0
  6
SLD-Gestrichelt
 62
     7
370
     0
100
AcDbLine
 10
228.9370981697
 20
119.5472437574
 30
0.0
 11
228.9370981697
 21
119.2671917996
 31
0.0
  0
LINE
  5
1ED
330
1F
100
AcDbEntity
  8
0
  6
SLD-Gestrichelt
 62
     7
370
     0
100
AcDbLine
 10
228.9370981697
 20
120.7972434967
 30
0.0
 11
228.9370981697
 21
120.5171920045
 31
0.0
  0
LINE
  5
1EE
330
1F
100
AcDbEntity
  8
0
  6
SLD-Gestrichelt
 62
     7
370
     0
100
AcDbLine
 10
228.9370981697
 20
122.0472437015
 30
0.0
 11
228.9370981697
 21
121.7671922094
 31
0.0
  0
LWPOLYLINE
  5
1EF
330
1F
100
AcDbEntity
  8
0
  6
SLD-Gestrichelt
 62
     7
370
     0
100
AcDbPolyline
 90
        9
 70
   128
 43
0.0
 10
228.2770959381
 20
121.3861406467
 10
228.2639531139
 20
121.3773508242
 10
228.2546473387
 20
121.3694103679
 10
228.2455054763
 20
121.3597539498
 10
228.2384646777
 20
121.3505734375
 10
228.230269039
 20
121.3368797361
 10
228.2214475516
 20
121.3142285741
 10
228.2193390373
 20
121.2591347902
 10
228.2770959381
 20
121.1782945937
  0
LINE
  5
1F0
330
1F
100
AcDbEntity
  8
0
  6
SLD-Gestrichelt
 62
     7
370
     0
100
AcDbLine
 10
227.7870936039
 20
106.4799773193
 30
0.0
 11
227.7870936039
 21
109.7707497573
 31
0.0
  0
LWPOLYLINE
  5
1F1
330
1F
100
AcDbEntity
  8
0
  6
SLD-Gestrichelt
 62
     7
370
     0
100
AcDbPolyline
 90
       11
 70
   128
 43
0.0
 10
228.2770959381
 20
109.9282948452
 10
228.2252995018
 20
109.9886180053
 10
228.2174391392
 20
110.0412563572
 10
228.2208589557
 20
110.0620283431
 10
228.2304404024
 20
110.0872103742
 10
228.240252817
 20
110.1030768513
 10
228.246541107
 20
110.1109563059
 10
228.2538948301
 20
110.1186937338
 10
228.2607568148
 20
110.1248039084
 10
228.27173152
 20
110.1328542608
 10
228.2770959381
 20
110.1361408981
  0
LINE
  5
1F2
330
1F
100
AcDbEntity
  8
0
  6
SLD-Gestrichelt
 62
     7
370
     0
100
AcDbLine
 10
228.9370981697
 20
109.2671920231
 30
0.0
 11
228.9370981697
 21
109.5472435153
 31
0.0
  0
LINE
  5
1F3
330
1F
100
AcDbEntity
  8
0
  6
SLD-Gestrichelt
 62
     7
370
     0
100
AcDbLine
 10
228.9370981697
 20
108.0171918182
 30
0.0
 11
228.9370981697
 21
108.2972437761
 31
0.0
  0
LINE
  5
1F4
330
1F
100
AcDbEntity
  8
0
  6
SLD-Gestrichelt
 62
     7
370
     0
100
AcDbLine
 10
228.9370981697
 20
106.767192079
 30
0.0
 11
228.9370981697
 21
107.0472435712
 31
0.0
  0
LWPOLYLINE
  5
1F5
330
1F
100
AcDbEntity
  8
0
  6
SLD-Gestrichelt
 62
     7
370
     0
100
AcDbPolyline
 90
        9
 70
   128
 43
0.0
 10
228.2770959381
 20
106.178294929
 10
228.2639531139
 20
106.1870847515
 10
228.2546473387
 20
106.1950252077
 10
228.2455054763
 20
106.2046816258
 10
228.2384646777
 20
106.2138621381
 10
228.230269039
 20
106.2275558396
 10
228.2214475516
 20
106.2502070016
 10
228.2193390373
 20
106.3053007855
 10
228.2770959381
 20
106.3861409819
  0
LINE
  5
1F6
330
1F
100
AcDbEntity
  8
0
  6
SLD-Gestrichelt
 62
     7
370
     0
100
AcDbLine
 10
228.9370981697
 20
105.5171918741
 30
0.0
 11
228.9370981697
 21
105.7972433663
 31
0.0
  0
LINE
  5
1F7
330
1F
100
AcDbEntity
  8
0
  6
SLD-Gestrichelt
 62
     7
370
     0
100
AcDbLine
 10
228.9370981697
 20
110.7972434873
 30
0.0
 11
228.9370981697
 21
110.5171919952
 31
0.0
  0
LINE
  5
1F8
330
1F
100
AcDbEntity
  8
0
  6
SLD-Gestrichelt
 62
     7
370
     0
100
AcDbLine
 10
228.9370981697
 20
110.5171919952
 30
0.0
 11
228.9370981697
 21
110.7972434873
 31
0.0
  0
LINE
  5
1F9
330
1F
100
AcDbEntity
  8
0
  6
SLD-Gestrichelt
 62
     7
370
     0
100
AcDbLine
 10
228.9370981697
 20
109.5472435153
 30
0.0
 11
228.9370981697
 21
109.2671920231
 31
0.0
  0
LWPOLYLINE
  5
1FA
330
1F
100
AcDbEntity
  8
0
  6
SLD-Gestrichelt
 62
     7
370
     0
100
AcDbPolyline
 90
       10
 70
   128
 43
0.0
 10
228.2770959381
 20
110.1361408981
 10
228.2654953841
 20
110.1285142976
 10
228.2576424721
 20
110.1221489406
 10
228.2494468335
 20
110.1141833386
 10
228.2428754214
 20
110.1065339206
 10
228.2358197216
 20
110.0965855329
 10
228.2273409608
 20
110.0807374495
 10
228.2174093369
 20
110.0408633391
 10
228.2502887491
 20
109.949361129
 10
228.2770959381
 20
109.9282948452
  0
LINE
  5
1FB
330
1F
100
AcDbEntity
  8
0
  6
SLD-Gestrichelt
 62
     7
370
     0
100
AcDbLine
 10
228.9370981697
 20
108.2972437761
 30
0.0
 11
228.9370981697
 21
108.0171918182
 31
0.0
  0
LINE
  5
1FC
330
1F
100
AcDbEntity
  8
0
  6
SLD-Gestrichelt
 62
     7
370
     0
100
AcDbLine
 10
228.9370981697
 20
107.0472435712
 30
0.0
 11
228.9370981697
 21
106.767192079
 31
0.0
  0
LINE
  5
1FD
330
1F
100
AcDbEntity
  8
0
  6
SLD-Gestrichelt
 62
     7
370
     0
100
AcDbLine
 10
228.9370981697
 20
105.7972433663
 30
0.0
 11
228.9370981697
 21
105.5171918741
 31
0.0
  0
LWPOLYLINE
  5
1FE
330
1F
100
AcDbEntity
  8
0
  6
SLD-Gestrichelt
 62
     7
370
     0
100
AcDbPolyline
 90
       11
 70
   128
 43
0.0
 10
228.2770959381
 20
106.3861409819
 10
228.2225502375
 20
106.3179872616
 10
228.2172230724
 20
106.2766099966
 10
228.2218647841
 20
106.248731321
 10
228.2288012746
 20
106.2305267586
 10
228.236505175
 20
106.2167799718
 10
228.2440526131
 20
106.2064339093
 10
228.2532838825
 20
106.1963393039
 10
228.2617253903
 20
106.1888416915
 10
228.2751364354
 20
106.179449769
 10
228.2770959381
 20
106.178294929
  0
LINE
  5
1FF
330
1F
100
AcDbEntity
  8
0
  6
SLD-Gestrichelt
 62
     7
370
     0
100
AcDbLine
 10
125.6370966974
 20
98.8209732494
 30
0.0
 11
125.6370966974
 21
95.0337388239
 31
0.0
  0
LINE
  5
200
330
1F
100
AcDbEntity
  8
0
  6
SLD-Gestrichelt
 62
     7
370
     0
100
AcDbLine
 10
217.6370968762
 20
117.7936858183
 30
0.0
 11
217.6370968762
 21
121.0844582564
 31
0.0
  0
LINE
  5
201
330
1F
100
AcDbEntity
  8
0
  6
SLD-Gestrichelt
 62
     7
370
     0
100
AcDbLine
 10
217.6370968762
 20
106.4799773193
 30
0.0
 11
217.6370968762
 21
109.7707497573
 31
0.0
  0
LINE
  5
202
330
1F
100
AcDbEntity
  8
0
  6
SLD-Gestrichelt
 62
     7
370
     0
100
AcDbLine
 10
125.6370966974
 20
133.9683328441
 30
0.0
 11
125.6370966974
 21
108.5573468043
 31
0.0
  0
LINE
  5
203
330
1F
100
AcDbEntity
  8
0
  6
SLD-Gestrichelt
 62
     7
370
     0
100
AcDbLine
 10
127.137096012
 20
134.718334364
 30
0.0
 11
127.137096012
 21
108.5573468043
 31
0.0
  0
LINE
  5
204
330
1F
100
AcDbEntity
  8
0
  6
SLD-Gestrichelt
 62
     7
370
     0
100
AcDbLine
 10
163.4370954806
 20
135.2003552637
 30
0.0
 11
163.4370954806
 21
109.1542821995
 31
0.0
  0
LINE
  5
205
330
1F
100
AcDbEntity
  8
0
  6
SLD-Gestrichelt
 62
     7
370
     0
100
AcDbLine
 10
161.4370954874
 20
135.4646180442
 30
0.0
 11
161.4370954874
 21
108.5573468043
 31
0.0
  0
LINE
  5
206
330
1F
100
AcDbEntity
  8
0
  6
SLD-Gestrichelt
 62
     7
370
     0
100
AcDbLine
 10
125.6370966974
 20
108.5573468043
 30
0.0
 11
125.6370966974
 21
98.8209732494
 31
0.0
  0
LINE
  5
207
330
1F
100
AcDbEntity
  8
0
  6
SLD-Gestrichelt
 62
     7
370
     0
100
AcDbLine
 10
127.137096012
 20
108.5573468043
 30
0.0
 11
127.137096012
 21
98.0709735921
 31
0.0
  0
LINE
  5
208
330
1F
100
AcDbEntity
  8
0
  6
SLD-Gestrichelt
 62
     7
370
     0
100
AcDbLine
 10
161.4370954874
 20
108.5573468043
 30
0.0
 11
161.4370954874
 21
97.3246880493
 31
0.0
  0
ARC
  5
209
330
1F
100
AcDbEntity
  8
0
  6
SLD-Gestrichelt
 62
     7
370
     0
100
AcDbCircle
 10
181.8911292414
 20
102.7103753912
 30
0.0
 40
20.08399339166033
100
AcDbArc
 50
167.0777419238
 51
192.9222580762
  0
LINE
  5
20A
330
1F
100
AcDbEntity
  8
0
  6
SLD-Gestrichelt
 62
     7
370
     0
100
AcDbLine
 10
163.6370954755
 20
89.5322170726
 30
0.0
 11
163.729988696
 21
89.6251109115
 31
0.0
  0
LINE
  5
20B
330
1F
100
AcDbEntity
  8
0
  6
SLD-Gestrichelt
 62
     7
370
     0
100
AcDbLine
 10
163.729988696
 20
137.9393246642
 30
0.0
 11
163.6370954755
 21
138.0322185031
 31
0.0
  0
ARC
  5
20C
330
1F
100
AcDbEntity
  8
0
  6
SLD-Gestrichelt
 62
     7
370
     0
100
AcDbCircle
 10
163.0228819132
 20
90.3322177878
 30
0.0
 40
1.000000000000018
100
AcDbArc
 50
315.0
 51
0.0
  0
ARC
  5
20D
330
1F
100
AcDbEntity
  8
0
  6
SLD-Gestrichelt
 62
     7
370
     0
100
AcDbCircle
 10
163.0228819132
 20
90.3322177878
 30
0.0
 40
1.0
100
AcDbArc
 50
0.0
 51
52.1052014664
  0
ARC
  5
20E
330
1F
100
AcDbEntity
  8
0
  6
SLD-Gestrichelt
 62
     7
370
     0
100
AcDbCircle
 10
163.0228819132
 20
137.2322177878
 30
0.0
 40
1.000000000000008
100
AcDbArc
 50
343.125
 51
45.0
  0
ARC
  5
20F
330
1F
100
AcDbEntity
  8
0
  6
SLD-Gestrichelt
 62
     7
370
     0
100
AcDbCircle
 10
163.0228819132
 20
137.2322177878
 30
0.0
 40
1.000000000000008
100
AcDbArc
 50
307.8947985336
 51
343.125
  0
LINE
  5
210
330
1F
100
AcDbEntity
  8
0
  6
SLD-Gestrichelt
 62
     7
370
     0
100
AcDbLine
 10
164.0228819113
 20
90.3322175762
 30
0.0
 11
164.0228819113
 21
137.2322179994
 31
0.0
  0
LINE
  5
211
330
1F
100
AcDbEntity
  8
0
  6
SLD-Gestrichelt
 62
     7
370
     0
100
AcDbLine
 10
164.0228819113
 20
90.3322175762
 30
0.0
 11
164.0228819113
 21
137.2322179994
 31
0.0
  0
LINE
  5
212
330
1F
100
AcDbEntity
  8
0
  6
SLD-Gestrichelt
 62
     7
370
     0
100
AcDbLine
 10
125.6370966974
 20
97.5857880584
 30
0.0
 11
127.1673230175
 21
98.4692667297
 31
0.0
  0
LINE
  5
213
330
1F
100
AcDbEntity
  8
0
  6
SLD-Gestrichelt
 62
     7
370
     0
100
AcDbLine
 10
127.1673230175
 20
129.095168846
 30
0.0
 11
125.6370966974
 21
129.9786475173
 31
0.0
  0
ARC
  5
214
330
1F
100
AcDbEntity
  8
0
  6
SLD-Gestrichelt
 62
     7
370
     0
100
AcDbCircle
 10
136.6388967904
 20
99.7822177878
 30
0.0
 40
2.0
100
AcDbArc
 50
270.0
 51
315.0
  0
ARC
  5
215
330
1F
100
AcDbEntity
  8
0
  6
SLD-Gestrichelt
 62
     7
370
     0
100
AcDbCircle
 10
136.6388967904
 20
127.7822177878
 30
0.0
 40
2.0
100
AcDbArc
 50
45.0
 51
90.0
  0
LINE
  5
216
330
1F
100
AcDbEntity
  8
0
  6
SLD-Gestrichelt
 62
     7
370
     0
100
AcDbLine
 10
135.6370946113
 20
97.7822170279
 30
0.0
 11
136.638895953
 21
97.7822170279
 31
0.0
  0
LINE
  5
217
330
1F
100
AcDbEntity
  8
0
  6
SLD-Gestrichelt
 62
     7
370
     0
100
AcDbLine
 10
136.638895953
 20
129.7822185478
 30
0.0
 11
135.6370946113
 21
129.7822185478
 31
0.0
  0
ARC
  5
218
330
1F
100
AcDbEntity
  8
0
  6
SLD-Gestrichelt
 62
     7
370
     0
100
AcDbCircle
 10
135.6370954755
 20
99.7822177878
 30
0.0
 40
2.000000000000006
100
AcDbArc
 50
189.9742217944
 51
270.0
  0
ARC
  5
219
330
1F
100
AcDbEntity
  8
0
  6
SLD-Gestrichelt
 62
     7
370
     0
100
AcDbCircle
 10
135.6370954755
 20
127.7822177878
 30
0.0
 40
2.000000000000004
100
AcDbArc
 50
90.0
 51
170.0257782056
  0
LINE
  5
21A
330
1F
100
AcDbEntity
  8
0
  6
SLD-Gestrichelt
 62
     7
370
     0
100
AcDbLine
 10
138.0531111452
 20
98.3680040261
 30
0.0
 11
139.4673244748
 21
99.7822173557
 31
0.0
  0
LINE
  5
21B
330
1F
100
AcDbEntity
  8
0
  6
SLD-Gestrichelt
 62
     7
370
     0
100
AcDbLine
 10
139.4673244748
 20
127.78221822
 30
0.0
 11
138.0531111452
 21
129.1964315495
 31
0.0
  0
LINE
  5
21C
330
1F
100
AcDbEntity
  8
0
  6
SLD-Gestrichelt
 62
     7
370
     0
100
AcDbLine
 10
127.1673230175
 20
98.4692667297
 30
0.0
 11
132.0673240069
 21
99.7822173557
 31
0.0
  0
LINE
  5
21D
330
1F
100
AcDbEntity
  8
0
  6
SLD-Gestrichelt
 62
     7
370
     0
100
AcDbLine
 10
132.0673240069
 20
127.78221822
 30
0.0
 11
127.1673230175
 21
129.095168846
 31
0.0
  0
LINE
  5
21E
330
1F
100
AcDbEntity
  8
0
  6
SLD-Gestrichelt
 62
     7
370
     0
100
AcDbLine
 10
133.6673231516
 20
128.1286283082
 30
0.0
 11
133.0673241708
 21
127.78221822
 31
0.0
  0
LINE
  5
21F
330
1F
100
AcDbEntity
  8
0
  6
SLD-Gestrichelt
 62
     7
370
     0
100
AcDbLine
 10
133.0673241708
 20
99.7822173557
 30
0.0
 11
133.6673231516
 21
99.4358072675
 31
0.0
  0
ARC
  5
220
330
1F
100
AcDbEntity
  8
0
  6
SLD-Gestrichelt
 62
     7
370
     0
100
AcDbCircle
 10
152.1370954755
 20
100.2822177878
 30
0.0
 40
0.5
100
AcDbArc
 50
275.5682401931
 51
0.0
  0
ARC
  5
221
330
1F
100
AcDbEntity
  8
0
  6
SLD-Gestrichelt
 62
     7
370
     0
100
AcDbCircle
 10
152.1370954755
 20
127.2822177878
 30
0.0
 40
0.5
100
AcDbArc
 50
0.0
 51
86.7052363418
  0
LINE
  5
222
330
1F
100
AcDbEntity
  8
0
  6
SLD-Gestrichelt
 62
     7
370
     0
100
AcDbLine
 10
139.4673244748
 20
99.7822173557
 30
0.0
 11
144.1010882798
 21
99.7822173557
 31
0.0
  0
LINE
  5
223
330
1F
100
AcDbEntity
  8
0
  6
SLD-Gestrichelt
 62
     7
370
     0
100
AcDbLine
 10
144.1010882798
 20
127.78221822
 30
0.0
 11
139.4673244748
 21
127.78221822
 31
0.0
  0
LINE
  5
224
330
1F
100
AcDbEntity
  8
0
  6
SLD-Gestrichelt
 62
     7
370
     0
100
AcDbLine
 10
132.0673240069
 20
99.7822173557
 30
0.0
 11
133.0673241708
 21
99.7822173557
 31
0.0
  0
LINE
  5
225
330
1F
100
AcDbEntity
  8
0
  6
SLD-Gestrichelt
 62
     7
370
     0
100
AcDbLine
 10
133.0673241708
 20
127.78221822
 30
0.0
 11
132.0673240069
 21
127.78221822
 31
0.0
  0
LINE
  5
226
330
1F
100
AcDbEntity
  8
0
  6
SLD-Gestrichelt
 62
     7
370
     0
100
AcDbLine
 10
152.6370955351
 20
103.5322175047
 30
0.0
 11
153.8870952744
 21
104.7822181753
 31
0.0
  0
LINE
  5
227
330
1F
100
AcDbEntity
  8
0
  6
SLD-Gestrichelt
 62
     7
370
     0
100
AcDbLine
 10
153.8870952744
 20
122.7822174004
 30
0.0
 11
152.6370955351
 21
124.032218071
 31
0.0
  0
LINE
  5
228
330
1F
100
AcDbEntity
  8
0
  6
SLD-Gestrichelt
 62
     7
370
     0
100
AcDbLine
 10
153.8870952744
 20
104.7822181753
 30
0.0
 11
179.6370962355
 21
104.7822181753
 31
0.0
  0
LINE
  5
229
330
1F
100
AcDbEntity
  8
0
  6
SLD-Gestrichelt
 62
     7
370
     0
100
AcDbLine
 10
179.6370962355
 20
122.7822174004
 30
0.0
 11
153.8870952744
 21
122.7822174004
 31
0.0
  0
LINE
  5
22A
330
1F
100
AcDbEntity
  8
0
  6
SLD-Gestrichelt
 62
     7
370
     0
100
AcDbLine
 10
179.6370962355
 20
104.7822181753
 30
0.0
 11
183.0019144062
 21
110.3822177428
 31
0.0
  0
LINE
  5
22B
330
1F
100
AcDbEntity
  8
0
  6
SLD-Gestrichelt
 62
     7
370
     0
100
AcDbLine
 10
183.0019144062
 20
117.1822178329
 30
0.0
 11
179.6370962355
 21
122.7822174004
 31
0.0
  0
LINE
  5
22C
330
1F
100
AcDbEntity
  8
0
  6
SLD-Gestrichelt
 62
     7
370
     0
100
AcDbLine
 10
228.8227839116
 20
122.1247576794
 30
0.0
 11
227.7870936039
 21
121.0890720284
 31
0.0
  0
LINE
  5
22D
330
1F
100
AcDbEntity
  8
0
  6
SLD-Gestrichelt
 62
     7
370
     0
100
AcDbLine
 10
227.7870936039
 20
117.7890720463
 30
0.0
 11
228.8652000669
 21
116.7109695415
 31
0.0
  0
LINE
  5
22E
330
1F
100
AcDbEntity
  8
0
  6
SLD-Gestrichelt
 62
     7
370
     0
100
AcDbLine
 10
228.8652000669
 20
110.8534660342
 30
0.0
 11
227.7870936039
 21
109.7753635294
 31
0.0
  0
LINE
  5
22F
330
1F
100
AcDbEntity
  8
0
  6
SLD-Gestrichelt
 62
     7
370
     0
100
AcDbLine
 10
227.7870936039
 20
106.4753635472
 30
0.0
 11
228.8227839116
 21
105.4396778962
 31
0.0
  0
LINE
  5
230
330
1F
100
AcDbEntity
  8
0
  6
SLD-Gestrichelt
 62
     7
370
     0
100
AcDbLine
 10
227.7870936039
 20
121.0890720284
 30
0.0
 11
217.6370968762
 21
121.0890720284
 31
0.0
  0
LINE
  5
231
330
1F
100
AcDbEntity
  8
0
  6
SLD-Gestrichelt
 62
     7
370
     0
100
AcDbLine
 10
217.6370968762
 20
117.7890720463
 30
0.0
 11
227.7870936039
 21
117.7890720463
 31
0.0
  0
LINE
  5
232
330
1F
100
AcDbEntity
  8
0
  6
SLD-Gestrichelt
 62
     7
370
     0
100
AcDbLine
 10
217.6370968762
 20
121.0890720284
 30
0.0
 11
216.6456741932
 21
119.4390720374
 31
0.0
  0
LINE
  5
233
330
1F
100
AcDbEntity
  8
0
  6
SLD-Gestrichelt
 62
     7
370
     0
100
AcDbLine
 10
216.6456741932
 20
119.4390720374
 30
0.0
 11
217.6370968762
 21
117.7890720463
 31
0.0
  0
LINE
  5
234
330
1F
100
AcDbEntity
  8
0
  6
SLD-Gestrichelt
 62
     7
370
     0
100
AcDbLine
 10
227.7870936039
 20
109.7753635294
 30
0.0
 11
217.6370968762
 21
109.7753635294
 31
0.0
  0
LINE
  5
235
330
1F
100
AcDbEntity
  8
0
  6
SLD-Gestrichelt
 62
     7
370
     0
100
AcDbLine
 10
217.6370968762
 20
106.4753635472
 30
0.0
 11
227.7870936039
 21
106.4753635472
 31
0.0
  0
LINE
  5
236
330
1F
100
AcDbEntity
  8
0
  6
SLD-Gestrichelt
 62
     7
370
     0
100
AcDbLine
 10
217.6370968762
 20
109.7753635294
 30
0.0
 11
216.6456741932
 21
108.1253635383
 31
0.0
  0
LINE
  5
237
330
1F
100
AcDbEntity
  8
0
  6
SLD-Gestrichelt
 62
     7
370
     0
100
AcDbLine
 10
216.6456741932
 20
108.1253635383
 30
0.0
 11
217.6370968762
 21
106.4753635472
 31
0.0
  0
LINE
  5
238
330
1F
100
AcDbEntity
  8
0
  6
SLD-Gestrichelt
 62
     7
370
     0
100
AcDbLine
 10
228.7611303571
 20
118.4062497376
 30
0.0
 11
228.1370920781
 21
117.7822179778
 31
0.0
  0
LINE
  5
239
330
1F
100
AcDbEntity
  8
0
  6
SLD-Gestrichelt
 62
     7
370
     0
100
AcDbLine
 10
228.1370920781
 20
109.7822175978
 30
0.0
 11
228.7611303571
 21
109.158185838
 31
0.0
  0
LINE
  5
23A
330
1F
100
AcDbEntity
  8
0
  6
SLD-Gestrichelt
 62
     7
370
     0
100
AcDbLine
 10
152.5702265743
 20
93.4013315162
 30
0.0
 11
152.1870953682
 21
93.7844627223
 31
0.0
  0
LINE
  5
23B
330
1F
100
AcDbEntity
  8
0
  6
SLD-Gestrichelt
 62
     7
370
     0
100
AcDbLine
 10
144.0870960895
 20
93.7844627223
 30
0.0
 11
143.9363801572
 21
93.63374679
 31
0.0
  0
LINE
  5
23C
330
1F
100
AcDbEntity
  8
0
  6
SLD-Gestrichelt
 62
     7
370
     0
100
AcDbLine
 10
132.0870941225
 20
95.7822185627
 30
0.0
 11
125.6370966974
 21
95.7822185627
 31
0.0
  0
LINE
  5
23D
330
1F
100
AcDbEntity
  8
0
  6
SLD-Gestrichelt
 62
     7
370
     0
100
AcDbLine
 10
134.0096214506
 20
93.8596930972
 30
0.0
 11
132.0870941225
 21
95.7822185627
 31
0.0
  0
LINE
  5
23E
330
1F
100
AcDbEntity
  8
0
  6
SLD-Gestrichelt
 62
     7
370
     0
100
AcDbLine
 10
152.1870953682
 20
93.7844627223
 30
0.0
 11
152.1870953682
 21
99.7850355378
 31
0.0
  0
LINE
  5
23F
330
1F
100
AcDbEntity
  8
0
  6
SLD-Gestrichelt
 62
     7
370
     0
100
AcDbLine
 10
144.0870960895
 20
99.7861019022
 30
0.0
 11
144.0870960895
 21
93.7844627223
 31
0.0
  0
LINE
  5
240
330
1F
100
AcDbEntity
  8
0
  6
SLD-Gestrichelt
 62
     7
370
     0
100
AcDbLine
 10
152.1870953682
 20
127.7747285238
 30
0.0
 11
152.1870953682
 21
131.2822178623
 31
0.0
  0
LINE
  5
241
330
1F
100
AcDbEntity
  8
0
  6
SLD-Gestrichelt
 62
     7
370
     0
100
AcDbLine
 10
144.0870960895
 20
131.2822178623
 30
0.0
 11
144.0870960895
 21
127.7783336735
 31
0.0
  0
LINE
  5
242
330
1F
100
AcDbEntity
  8
0
  6
SLD-Gestrichelt
 62
     7
370
     0
100
AcDbLine
 10
152.1870953682
 20
131.2822178623
 30
0.0
 11
148.1370957288
 21
133.7157041452
 31
0.0
  0
LINE
  5
243
330
1F
100
AcDbEntity
  8
0
  6
SLD-Gestrichelt
 62
     7
370
     0
100
AcDbLine
 10
148.1370957288
 20
133.7157041452
 30
0.0
 11
144.0870960895
 21
131.2822178623
 31
0.0
  0
LINE
  5
244
330
1F
100
AcDbEntity
  8
0
  6
SLD-Gestrichelt
 62
     7
370
     0
100
AcDbLine
 10
226.5870956424
 20
117.482217789
 30
0.0
 11
225.0870963279
 21
117.482217789
 31
0.0
  0
LINE
  5
245
330
1F
100
AcDbEntity
  8
0
  6
SLD-Gestrichelt
 62
     7
370
     0
100
AcDbLine
 10
225.0870963279
 20
110.0822177867
 30
0.0
 11
226.5870956424
 21
110.0822177867
 31
0.0
  0
LINE
  5
246
330
1F
100
AcDbEntity
  8
0
  6
SLD-Gestrichelt
 62
     7
370
     0
100
AcDbLine
 10
222.6370958332
 20
117.1822178329
 30
0.0
 11
183.0019144062
 21
117.1822178329
 31
0.0
  0
LINE
  5
247
330
1F
100
AcDbEntity
  8
0
  6
SLD-Gestrichelt
 62
     7
370
     0
100
AcDbLine
 10
183.0019144062
 20
110.3822177428
 30
0.0
 11
222.6370958332
 21
110.3822177428
 31
0.0
  0
LINE
  5
248
330
1F
100
AcDbEntity
  8
0
  6
SLD-Gestrichelt
 62
     7
370
     0
100
AcDbLine
 10
222.6370958332
 20
110.3822177428
 30
0.0
 11
222.8774403873
 21
110.7822177618
 31
0.0
  0
LINE
  5
249
330
1F
100
AcDbEntity
  8
0
  6
SLD-Gestrichelt
 62
     7
370
     0
100
AcDbLine
 10
222.8774403873
 20
116.7822178139
 30
0.0
 11
222.6370958332
 21
117.1822178329
 31
0.0
  0
LINE
  5
24A
330
1F
100
AcDbEntity
  8
0
  6
SLD-Gestrichelt
 62
     7
370
     0
100
AcDbLine
 10
228.1370920781
 20
117.08221777
 30
0.0
 11
227.6174811367
 21
116.7822178139
 31
0.0
  0
LINE
  5
24B
330
1F
100
AcDbEntity
  8
0
  6
SLD-Gestrichelt
 62
     7
370
     0
100
AcDbLine
 10
227.6174811367
 20
110.7822177618
 30
0.0
 11
228.1370920781
 21
110.4822178057
 31
0.0
  0
LINE
  5
24C
330
1F
100
AcDbEntity
  8
0
  6
SLD-Gestrichelt
 62
     7
370
     0
100
AcDbLine
 10
227.6174811367
 20
116.7822178139
 30
0.0
 11
226.5870956424
 21
116.7822178139
 31
0.0
  0
LINE
  5
24D
330
1F
100
AcDbEntity
  8
0
  6
SLD-Gestrichelt
 62
     7
370
     0
100
AcDbLine
 10
226.5870956424
 20
110.7822177618
 30
0.0
 11
227.6174811367
 21
110.7822177618
 31
0.0
  0
LINE
  5
24E
330
1F
100
AcDbEntity
  8
0
  6
SLD-Gestrichelt
 62
     7
370
     0
100
AcDbLine
 10
225.0870963279
 20
116.7822178139
 30
0.0
 11
222.8774403873
 21
116.7822178139
 31
0.0
  0
LINE
  5
24F
330
1F
100
AcDbEntity
  8
0
  6
SLD-Gestrichelt
 62
     7
370
     0
100
AcDbLine
 10
222.8774403873
 20
110.7822177618
 30
0.0
 11
225.0870963279
 21
110.7822177618
 31
0.0
  0
LINE
  5
250
330
1F
100
AcDbEntity
  8
0
  6
SLD-Gestrichelt
 62
     7
370
     0
100
AcDbLine
 10
177.6370959077
 20
82.7822182945
 30
0.0
 11
175.6370955798
 21
83.9839392028
 31
0.0
  0
LINE
  5
251
330
1F
100
AcDbEntity
  8
0
  6
SLD-Gestrichelt
 62
     7
370
     0
100
AcDbLine
 10
175.6370955798
 20
83.9839392028
 30
0.0
 11
173.637095252
 21
82.7822182945
 31
0.0
  0
LINE
  5
252
330
1F
100
AcDbEntity
  8
0
  6
SLD-Gestrichelt
 62
     7
370
     0
100
AcDbLine
 10
173.637095252
 20
82.7822182945
 30
0.0
 11
173.637095252
 21
82.2822172812
 31
0.0
  0
LINE
  5
253
330
1F
100
AcDbEntity
  8
0
  6
SLD-Gestrichelt
 62
     7
370
     0
100
AcDbLine
 10
177.6370959077
 20
82.2822172812
 30
0.0
 11
177.6370959077
 21
82.7822182945
 31
0.0
  0
LINE
  5
254
330
1F
100
AcDbEntity
  8
VERMASSUNG
  6
SLD-Punktstrich
100
AcDbLine
 10
131.002906141
 20
113.7822177878
 30
0.0
 11
263.6370954755
 21
113.7822177878
 31
0.0
  0
LINE
  5
255
330
1F
100
AcDbEntity
  8
VERMASSUNG
  6
SLD-Punktstrich
100
AcDbLine
 10
263.6370954755
 20
134.1349132997
 30
0.0
 11
263.6370954755
 21
113.7822177878
 31
0.0
  0
LINE
  5
256
330
1F
100
AcDbEntity
  8
VERMASSUNG
  6
SLD-Punktstrich
100
AcDbLine
 10
228.6370954755
 20
136.0845717028
 30
0.0
 11
228.6370954755
 21
95.6969008881
 31
0.0
  0
DIMENSION
  5
257
330
1F
100
AcDbEntity
  8
VERMASSUNG
100
AcDbDimension
  2
_D
 10
163.6370954755
 20
161.2822177878
 30
0.0
 11
213.6370954755
 21
161.2822177878
 31
0.0
 70
   160
  1
<>
 71
     2
 42
-1.0
  3
SLDDIMSTYLE0
100
AcDbAlignedDimension
 13
263.6370954755
 23
134.1349132997
 33
0.0
 14
163.6370954755
 24
144.7822177878
 34
0.0
 50
0.0
100
AcDbRotatedDimension
  0
DIMENSION
  5
262
330
1F
100
AcDbEntity
  8
VERMASSUNG
100
AcDbDimension
  2
_D_1
 10
163.6370954755
 20
155.2822177878
 30
0.0
 11
196.1370954755
 21
155.2822177878
 31
0.0
 70
   160
  1
<>
 71
     2
 42
-1.0
  3
SLDDIMSTYLE0
100
AcDbAlignedDimension
 13
228.6370954755
 23
136.0845717028
 33
0.0
 14
163.6370954755
 24
144.7822177878
 34
0.0
100
AcDbRotatedDimension
  0
DIMENSION
  5
26C
330
1F
100
AcDbEntity
  8
VERMASSUNG
100
AcDbDimension
  2
_D_2
 10
200.8174505626
 20
126.2822177878
 30
0.0
 11
200.8174505626
 21
131.6395621613
 31
0.0
 70
   160
  1
%%c<>
 71
     2
 42
-1.0
  3
SLDDIMSTYLE1
100
AcDbAlignedDimension
 13
189.6370954755
 23
101.2822177878
 33
0.0
 14
189.6370954755
 24
126.2822177878
 34
0.0
 50
90.0
100
AcDbRotatedDimension
  0
DIMENSION
  5
278
330
1F
100
AcDbEntity
  8
VERMASSUNG
100
AcDbDimension
  2
_D_3
 10
189.6370954755
 20
130.2822177878
 30
0.0
 11
191.2594153021
 21
131.4518904856
 31
0.0
 70
   164
  1
<>
 71
     1
 42
-1.0
  3
SLDDIMSTYLE2
100
AcDbRadialDimension
 15
186.3924758223
 25
127.9428923924
 35
0.0
 40
0.0
  0
DIMENSION
  5
280
330
1F
100
AcDbEntity
  8
VERMASSUNG
100
AcDbDimension
  2
_D_4
 10
232.8338327572
 20
121.4390720373
 30
0.0
 11
232.8338327572
 21
130.0199517122
 31
0.0
 70
   160
  1
%%c<>
 71
     2
 42
-1.0
  3
SLDDIMSTYLE3
100
AcDbAlignedDimension
 13
233.9370954755
 23
117.4390720373
 33
0.0
 14
233.9370954755
 24
121.4390720373
 34
0.0
 50
90.0
100
AcDbRotatedDimension
  0
DIMENSION
  5
28C
330
1F
100
AcDbEntity
  8
VERMASSUNG
100
AcDbDimension
  2
_D_5
 10
120.0394100582
 20
145.2822177878
 30
0.0
 11
120.0394100582
 21
113.7822177878
 31
0.0
 70
   160
  1
PSC %%c<>
 71
     2
 42
-1.0
  3
SLDDIMSTYLE0
100
AcDbAlignedDimension
 13
164.1370954755
 23
82.2822177878
 33
0.0
 14
164.1370954755
 24
145.2822177878
 34
0.0
 50
90.0
100
AcDbRotatedDimension
  0
DIMENSION
  5
298
330
1F
100
AcDbEntity
  8
VERMASSUNG
100
AcDbDimension
  2
_D_6
 10
273.6370954755
 20
119.4390720373
 30
0.0
 11
273.6370954755
 21
113.7822177878
 31
0.0
 70
   160
  1
<>
 71
     2
 42
-1.0
  3
SLDDIMSTYLE3
100
AcDbAlignedDimension
 13
243.44407252
 23
108.1253635383
 33
0.0
 14
243.8911642344
 24
119.4390720373
 34
0.0
 50
90.0
100
AcDbRotatedDimension
  0
LINE
  5
2A4
330
1F
100
AcDbEntity
  8
VERMASSUNG
  6
SLD-Punktstrich
370
     0
100
AcDbLine
 10
243.8911642344
 20
119.4390720373
 30
0.0
 11
214.3054175592
 21
119.4390720373
 31
0.0
  0
LINE
  5
2A5
330
1F
100
AcDbEntity
  8
VERMASSUNG
  6
SLD-Punktstrich
370
     0
100
AcDbLine
 10
243.44407252
 20
108.1253635383
 30
0.0
 11
213.8760801059
 21
108.1253635383
 31
0.0
  0
LINE
  5
2A6
330
1F
100
AcDbEntity
  8
0
  6
SLD-Durchgehend
 62
     7
370
    15
100
AcDbLine
 10
56.5749200787
 20
109.8515163793
 30
0.0
 11
55.2825600635
 21
108.6376440397
 31
0.0
  0
LINE
  5
2A7
330
1F
100
AcDbEntity
  8
0
  6
SLD-Durchgehend
 62
     7
370
    15
100
AcDbLine
 10
55.2825600635
 20
108.6376440397
 30
0.0
 11
55.6876243818
 21
106.9114911987
 31
0.0
  0
LINE
  5
2A8
330
1F
100
AcDbEntity
  8
0
  6
SLD-Durchgehend
 62
     7
370
    15
100
AcDbLine
 10
57.3850487154
 20
106.3992106973
 30
0.0
 11
55.6876243818
 21
106.9114911987
 31
0.0
  0
LINE
  5
2A9
330
1F
100
AcDbEntity
  8
0
  6
SLD-Durchgehend
 62
     7
370
    15
100
AcDbLine
 10
58.6774087306
 20
107.6130830369
 30
0.0
 11
57.3850487154
 21
106.3992106973
 31
0.0
  0
LINE
  5
2AA
330
1F
100
AcDbEntity
  8
0
  6
SLD-Durchgehend
 62
     7
370
    15
100
AcDbLine
 10
58.6774087306
 20
107.6130830369
 30
0.0
 11
58.2723444123
 21
109.3392358779
 31
0.0
  0
LINE
  5
2AB
330
1F
100
AcDbEntity
  8
0
  6
SLD-Durchgehend
 62
     7
370
    15
100
AcDbLine
 10
56.5749200787
 20
109.8515163793
 30
0.0
 11
58.2723444123
 21
109.3392358779
 31
0.0
  0
CIRCLE
  5
2AC
330
1F
100
AcDbEntity
  8
0
  6
SLD-Durchgehend
 62
     7
370
    15
100
AcDbCircle
 10
56.9799843971
 20
108.1253635383
 30
0.0
 40
3.500000000000005
  0
ARC
  5
2AD
330
1F
100
AcDbEntity
  8
0
  6
SLD-Durchgehend
 62
     7
370
    15
100
AcDbCircle
 10
56.9799843971
 20
108.1253635383
 30
0.0
 40
1.535500000000009
100
AcDbArc
 50
253.2062589409
 51
313.2062589409
  0
ARC
  5
2AE
330
1F
100
AcDbEntity
  8
0
  6
SLD-Durchgehend
 62
     7
370
    15
100
AcDbCircle
 10
56.9799843971
 20
108.1253635383
 30
0.0
 40
1.535500000000009
100
AcDbArc
 50
313.2062589409
 51
13.2062589409
  0
ARC
  5
2AF
330
1F
100
AcDbEntity
  8
0
  6
SLD-Durchgehend
 62
     7
370
    15
100
AcDbCircle
 10
56.9799843971
 20
108.1253635383
 30
0.0
 40
1.535500000000003
100
AcDbArc
 50
13.2062589409
 51
73.2062589409
  0
ARC
  5
2B0
330
1F
100
AcDbEntity
  8
0
  6
SLD-Durchgehend
 62
     7
370
    15
100
AcDbCircle
 10
56.9799843971
 20
108.1253635383
 30
0.0
 40
1.535500000000003
100
AcDbArc
 50
73.2062589409
 51
133.2062589409
  0
ARC
  5
2B1
330
1F
100
AcDbEntity
  8
0
  6
SLD-Durchgehend
 62
     7
370
    15
100
AcDbCircle
 10
56.9799843971
 20
108.1253635383
 30
0.0
 40
1.535500000000006
100
AcDbArc
 50
193.2062589409
 51
253.2062589409
  0
ARC
  5
2B2
330
1F
100
AcDbEntity
  8
0
  6
SLD-Durchgehend
 62
     7
370
    15
100
AcDbCircle
 10
56.9799843971
 20
108.1253635383
 30
0.0
 40
1.535500000000006
100
AcDbArc
 50
133.2062589409
 51
193.2062589409
  0
LINE
  5
2B3
330
1F
100
AcDbEntity
  8
0
  6
SLD-Durchgehend
 62
     7
370
    15
100
AcDbLine
 10
58.6348491516
 20
118.802595014
 30
0.0
 11
58.3586221356
 21
120.5539885594
 31
0.0
  0
LINE
  5
2B4
330
1F
100
AcDbEntity
  8
0
  6
SLD-Durchgehend
 62
     7
370
    15
100
AcDbLine
 10
58.3586221356
 20
120.5539885594
 30
0.0
 11
56.7037569154
 21
121.1904655828
 31
0.0
  0
LINE
  5
2B5
330
1F
100
AcDbEntity
  8
0
  6
SLD-Durchgehend
 62
     7
370
    15
100
AcDbLine
 10
55.3251196425
 20
120.0755490607
 30
0.0
 11
56.7037569154
 21
121.1904655828
 31
0.0
  0
LINE
  5
2B6
330
1F
100
AcDbEntity
  8
0
  6
SLD-Durchgehend
 62
     7
370
    15
100
AcDbLine
 10
55.6013466585
 20
118.3241555153
 30
0.0
 11
55.3251196425
 21
120.0755490607
 31
0.0
  0
LINE
  5
2B7
330
1F
100
AcDbEntity
  8
0
  6
SLD-Durchgehend
 62
     7
370
    15
100
AcDbLine
 10
55.6013466585
 20
118.3241555153
 30
0.0
 11
57.2562118787
 21
117.6876787248
 31
0.0
  0
LINE
  5
2B8
330
1F
100
AcDbEntity
  8
0
  6
SLD-Durchgehend
 62
     7
370
    15
100
AcDbLine
 10
58.6348491516
 20
118.802595014
 30
0.0
 11
57.2562118787
 21
117.6876787248
 31
0.0
  0
CIRCLE
  5
2B9
330
1F
100
AcDbEntity
  8
0
  6
SLD-Durchgehend
 62
     7
370
    15
100
AcDbCircle
 10
56.9799843971
 20
119.4390720373
 30
0.0
 40
3.499999999999995
  0
ARC
  5
2BA
330
1F
100
AcDbEntity
  8
0
  6
SLD-Durchgehend
 62
     7
370
    15
100
AcDbCircle
 10
56.9799843971
 20
119.4390720373
 30
0.0
 40
1.5355
100
AcDbArc
 50
308.9627788002
 51
8.9627788002
  0
ARC
  5
2BB
330
1F
100
AcDbEntity
  8
0
  6
SLD-Durchgehend
 62
     7
370
    15
100
AcDbCircle
 10
56.9799843971
 20
119.4390720373
 30
0.0
 40
1.535500000000004
100
AcDbArc
 50
8.9627788002
 51
68.9627788002
  0
ARC
  5
2BC
330
1F
100
AcDbEntity
  8
0
  6
SLD-Durchgehend
 62
     7
370
    15
100
AcDbCircle
 10
56.9799843971
 20
119.4390720373
 30
0.0
 40
1.535499999999989
100
AcDbArc
 50
248.9627788002
 51
308.9627788002
  0
ARC
  5
2BD
330
1F
100
AcDbEntity
  8
0
  6
SLD-Durchgehend
 62
     7
370
    15
100
AcDbCircle
 10
56.9799843971
 20
119.4390720373
 30
0.0
 40
1.535500000000011
100
AcDbArc
 50
68.9627788002
 51
128.9627788002
  0
ARC
  5
2BE
330
1F
100
AcDbEntity
  8
0
  6
SLD-Durchgehend
 62
     7
370
    15
100
AcDbCircle
 10
56.9799843971
 20
119.4390720373
 30
0.0
 40
1.535500000000005
100
AcDbArc
 50
188.9627788002
 51
248.9627788002
  0
ARC
  5
2BF
330
1F
100
AcDbEntity
  8
0
  6
SLD-Durchgehend
 62
     7
370
    15
100
AcDbCircle
 10
56.9799843971
 20
119.4390720373
 30
0.0
 40
1.535500000000011
100
AcDbArc
 50
128.9627788002
 51
188.9627788002
  0
CIRCLE
  5
2C0
330
1F
100
AcDbEntity
  8
0
  6
SLD-Durchgehend
 62
     7
370
    15
100
AcDbCircle
 10
68.2936928961
 20
119.4390720373
 30
0.0
 40
3.499999999999992
  0
LINE
  5
2C1
330
1F
100
AcDbEntity
  8
0
  6
SLD-Durchgehend
 62
     7
370
    15
100
AcDbLine
 10
68.3904982898
 20
121.2094701512
 30
0.0
 11
66.8088857811
 21
120.4081071227
 31
0.0
  0
LINE
  5
2C2
330
1F
100
AcDbEntity
  8
0
  6
SLD-Durchgehend
 62
     7
370
    15
100
AcDbLine
 10
66.8088857811
 20
120.4081071227
 30
0.0
 11
66.7120803874
 21
118.6377090088
 31
0.0
  0
LINE
  5
2C3
330
1F
100
AcDbEntity
  8
0
  6
SLD-Durchgehend
 62
     7
370
    15
100
AcDbLine
 10
68.1968875024
 20
117.6686741563
 30
0.0
 11
66.7120803874
 21
118.6377090088
 31
0.0
  0
LINE
  5
2C4
330
1F
100
AcDbEntity
  8
0
  6
SLD-Durchgehend
 62
     7
370
    15
100
AcDbLine
 10
69.7785000112
 20
118.4700369521
 30
0.0
 11
68.1968875024
 21
117.6686741563
 31
0.0
  0
LINE
  5
2C5
330
1F
100
AcDbEntity
  8
0
  6
SLD-Durchgehend
 62
     7
370
    15
100
AcDbLine
 10
69.7785000112
 20
118.4700369521
 30
0.0
 11
69.8753054049
 21
120.240435066
 31
0.0
  0
LINE
  5
2C6
330
1F
100
AcDbEntity
  8
0
  6
SLD-Durchgehend
 62
     7
370
    15
100
AcDbLine
 10
68.3904982898
 20
121.2094701512
 30
0.0
 11
69.8753054049
 21
120.240435066
 31
0.0
  0
ARC
  5
2C7
330
1F
100
AcDbEntity
  8
0
  6
SLD-Durchgehend
 62
     7
370
    15
100
AcDbCircle
 10
68.2936928961
 20
119.4390720373
 30
0.0
 40
1.535500000000003
100
AcDbArc
 50
356.8701833941
 51
56.8701833941
  0
ARC
  5
2C8
330
1F
100
AcDbEntity
  8
0
  6
SLD-Durchgehend
 62
     7
370
    15
100
AcDbCircle
 10
68.2936928961
 20
119.4390720373
 30
0.0
 40
1.535500000000003
100
AcDbArc
 50
56.8701833941
 51
116.8701833941
  0
ARC
  5
2C9
330
1F
100
AcDbEntity
  8
0
  6
SLD-Durchgehend
 62
     7
370
    15
100
AcDbCircle
 10
68.2936928961
 20
119.4390720373
 30
0.0
 40
1.535500000000003
100
AcDbArc
 50
236.8701833941
 51
296.8701833941
  0
ARC
  5
2CA
330
1F
100
AcDbEntity
  8
0
  6
SLD-Durchgehend
 62
     7
370
    15
100
AcDbCircle
 10
68.2936928961
 20
119.4390720373
 30
0.0
 40
1.5355
100
AcDbArc
 50
296.8701833941
 51
356.8701833941
  0
ARC
  5
2CB
330
1F
100
AcDbEntity
  8
0
  6
SLD-Durchgehend
 62
     7
370
    15
100
AcDbCircle
 10
68.2936928961
 20
119.4390720373
 30
0.0
 40
1.535500000000009
100
AcDbArc
 50
176.8701833941
 51
236.8701833941
  0
ARC
  5
2CC
330
1F
100
AcDbEntity
  8
0
  6
SLD-Durchgehend
 62
     7
370
    15
100
AcDbCircle
 10
68.2936928961
 20
119.4390720373
 30
0.0
 40
1.535500000000009
100
AcDbArc
 50
116.8701833941
 51
176.8701833941
  0
CIRCLE
  5
2CD
330
1F
100
AcDbEntity
  8
0
  6
SLD-Durchgehend
 62
     7
370
    15
100
AcDbCircle
 10
68.2936928961
 20
108.1253635383
 30
0.0
 40
3.5
  0
LINE
  5
2CE
330
1F
100
AcDbEntity
  8
0
  6
SLD-Durchgehend
 62
     7
370
    15
100
AcDbLine
 10
69.292971285
 20
106.6607395804
 30
0.0
 11
70.0617333669
 21
108.2584523282
 31
0.0
  0
LINE
  5
2CF
330
1F
100
AcDbEntity
  8
0
  6
SLD-Durchgehend
 62
     7
370
    15
100
AcDbLine
 10
70.0617333669
 20
108.2584523282
 30
0.0
 11
69.062454978
 21
109.7230758204
 31
0.0
  0
LINE
  5
2D0
330
1F
100
AcDbEntity
  8
0
  6
SLD-Durchgehend
 62
     7
370
    15
100
AcDbLine
 10
67.2944145072
 20
109.5899874962
 30
0.0
 11
69.062454978
 21
109.7230758204
 31
0.0
  0
LINE
  5
2D1
330
1F
100
AcDbEntity
  8
0
  6
SLD-Durchgehend
 62
     7
370
    15
100
AcDbLine
 10
66.5256521925
 20
107.9922747484
 30
0.0
 11
67.2944145072
 21
109.5899874962
 31
0.0
  0
LINE
  5
2D2
330
1F
100
AcDbEntity
  8
0
  6
SLD-Durchgehend
 62
     7
370
    15
100
AcDbLine
 10
66.5256521925
 20
107.9922747484
 30
0.0
 11
67.5249308143
 21
106.5276512562
 31
0.0
  0
LINE
  5
2D3
330
1F
100
AcDbEntity
  8
0
  6
SLD-Durchgehend
 62
     7
370
    15
100
AcDbLine
 10
69.292971285
 20
106.6607395804
 30
0.0
 11
67.5249308143
 21
106.5276512562
 31
0.0
  0
ARC
  5
2D4
330
1F
100
AcDbEntity
  8
0
  6
SLD-Durchgehend
 62
     7
370
    15
100
AcDbCircle
 10
68.2936928961
 20
108.1253635383
 30
0.0
 40
1.535500000000003
100
AcDbArc
 50
274.3048024535
 51
334.3048024535
  0
ARC
  5
2D5
330
1F
100
AcDbEntity
  8
0
  6
SLD-Durchgehend
 62
     7
370
    15
100
AcDbCircle
 10
68.2936928961
 20
108.1253635383
 30
0.0
 40
1.535500000000007
100
AcDbArc
 50
34.3048024535
 51
94.3048024535
  0
ARC
  5
2D6
330
1F
100
AcDbEntity
  8
0
  6
SLD-Durchgehend
 62
     7
370
    15
100
AcDbCircle
 10
68.2936928961
 20
108.1253635383
 30
0.0
 40
1.535500000000003
100
AcDbArc
 50
154.3048024535
 51
214.3048024535
  0
ARC
  5
2D7
330
1F
100
AcDbEntity
  8
0
  6
SLD-Durchgehend
 62
     7
370
    15
100
AcDbCircle
 10
68.2936928961
 20
108.1253635383
 30
0.0
 40
1.535500000000003
100
AcDbArc
 50
94.3048024535
 51
154.3048024535
  0
ARC
  5
2D8
330
1F
100
AcDbEntity
  8
0
  6
SLD-Durchgehend
 62
     7
370
    15
100
AcDbCircle
 10
68.2936928961
 20
108.1253635383
 30
0.0
 40
1.535500000000007
100
AcDbArc
 50
334.3048024535
 51
34.3048024535
  0
ARC
  5
2D9
330
1F
100
AcDbEntity
  8
0
  6
SLD-Durchgehend
 62
     7
370
    15
100
AcDbCircle
 10
68.2936928961
 20
108.1253635383
 30
0.0
 40
1.535499999999999
100
AcDbArc
 50
214.3048024535
 51
274.3048024535
  0
CIRCLE
  5
2DA
330
1F
100
AcDbEntity
  8
0
  6
SLD-Durchgehend
 62
     7
370
    15
100
AcDbCircle
 10
62.6368386466
 20
113.7822177878
 30
0.0
 40
12.49999999999998
  0
LINE
  5
2DB
330
1F
100
AcDbEntity
  8
0
  6
SLD-Durchgehend
 62
     7
370
    15
100
AcDbLine
 10
74.3118006531
 20
114.5472435781
 30
0.0
 11
74.9435893986
 21
114.9282947334
 31
0.0
  0
ARC
  5
2DC
330
1F
100
AcDbEntity
  8
0
  6
SLD-Durchgehend
 62
     7
370
    15
100
AcDbCircle
 10
74.8722634762
 20
115.0260407333
 30
0.0
 40
0.1210027590694455
100
AcDbArc
 50
306.1184841636
 51
65.4911279164
  0
LINE
  5
2DD
330
1F
100
AcDbEntity
  8
0
  6
SLD-Durchgehend
 62
     7
370
    15
100
AcDbLine
 10
74.922459552
 20
115.1361407864
 30
0.0
 11
74.2074850742
 21
115.5171919998
 31
0.0
  0
ARC
  5
2DE
330
1F
100
AcDbEntity
  8
0
  6
SLD-Durchgehend
 62
     7
370
    15
100
AcDbCircle
 10
62.6368386466
 20
113.7822177878
 30
0.0
 40
11.70000000000026
100
AcDbArc
 50
8.5277495763
 51
9.9171770882
  0
LINE
  5
2DF
330
1F
100
AcDbEntity
  8
0
  6
SLD-Durchgehend
 62
     7
370
    15
100
AcDbLine
 10
74.1620141808
 20
115.7972436084
 30
0.0
 11
74.7623661328
 21
116.1782947055
 31
0.0
  0
LWPOLYLINE
  5
2E0
330
1F
100
AcDbEntity
  8
0
  6
SLD-Durchgehend
 62
     7
370
    15
100
AcDbPolyline
 90
        9
 70
   128
 43
0.0
 10
74.7623661328
 20
116.1782947055
 10
74.784626605
 20
116.198234089
 10
74.7989680413
 20
116.2237050629
 10
74.8047366533
 20
116.2503676641
 10
74.8031580616
 20
116.2794766168
 10
74.7951729018
 20
116.3062679733
 10
74.7762055862
 20
116.3390228211
 10
74.7412306983
 20
116.3729476428
 10
74.7194368187
 20
116.3861407584
  0
LINE
  5
2E1
330
1F
100
AcDbEntity
  8
0
  6
SLD-Durchgehend
 62
     7
370
    15
100
AcDbLine
 10
74.7194368187
 20
116.3861407584
 30
0.0
 11
73.9496605266
 21
116.7671920883
 31
0.0
  0
ARC
  5
2E2
330
1F
100
AcDbEntity
  8
0
  6
SLD-Durchgehend
 62
     7
370
    15
100
AcDbCircle
 10
62.6368386466
 20
113.7822177878
 30
0.0
 40
11.70000000000044
100
AcDbArc
 50
14.7810515008
 51
16.2042318296
  0
LINE
  5
2E3
330
1F
100
AcDbEntity
  8
0
  6
SLD-Durchgehend
 62
     7
370
    15
100
AcDbLine
 10
73.8720338586
 20
117.0472435805
 30
0.0
 11
74.4468228686
 21
117.4282946775
 31
0.0
  0
LWPOLYLINE
  5
2E4
330
1F
100
AcDbEntity
  8
0
  6
SLD-Durchgehend
 62
     7
370
    15
100
AcDbPolyline
 90
        9
 70
   128
 43
0.0
 10
74.4468228686
 20
117.4282946775
 10
74.4659187067
 20
117.4460119254
 10
74.4784384761
 20
117.4698013964
 10
74.4827281479
 20
117.4999734538
 10
74.4786005262
 20
117.5274449087
 10
74.4684304837
 20
117.5535016845
 10
74.4448503274
 20
117.5880886766
 10
74.4021408055
 20
117.6244312118
 10
74.3806402925
 20
117.6361407305
  0
LINE
  5
2E5
330
1F
100
AcDbEntity
  8
0
  6
SLD-Durchgehend
 62
     7
370
    15
100
AcDbLine
 10
74.3806402925
 20
117.6361407305
 30
0.0
 11
73.5434874687
 21
118.0171920604
 31
0.0
  0
ARC
  5
2E6
330
1F
100
AcDbEntity
  8
0
  6
SLD-Durchgehend
 62
     7
370
    15
100
AcDbCircle
 10
62.6368386466
 20
113.7822177878
 30
0.0
 40
11.70000000000064
100
AcDbArc
 50
21.2208370458
 51
22.6996022985
  0
LINE
  5
2E7
330
1F
100
AcDbEntity
  8
0
  6
SLD-Durchgehend
 62
     7
370
    15
100
AcDbLine
 10
73.4305655379
 20
118.2972435525
 30
0.0
 11
73.9857604522
 21
118.6782946496
 31
0.0
  0
LWPOLYLINE
  5
2E8
330
1F
100
AcDbEntity
  8
0
  6
SLD-Durchgehend
 62
     7
370
    15
100
AcDbPolyline
 90
        9
 70
   128
 43
0.0
 10
73.9857604522
 20
118.6782946496
 10
74.0020958502
 20
118.6938174686
 10
74.0130565855
 20
118.7157943531
 10
74.0158775616
 20
118.7436208746
 10
74.0108819473
 20
118.7691935955
 10
73.9967630971
 20
118.7998164131
 10
73.9679340068
 20
118.8362646534
 10
73.9156681839
 20
118.875479853
 10
73.8938174937
 20
118.8861407025
  0
LINE
  5
2E9
330
1F
100
AcDbEntity
  8
0
  6
SLD-Durchgehend
 62
     7
370
    15
100
AcDbLine
 10
73.8938174937
 20
118.8861407025
 30
0.0
 11
72.9714914951
 21
119.2671917996
 31
0.0
  0
ARC
  5
2EA
330
1F
100
AcDbEntity
  8
0
  6
SLD-Durchgehend
 62
     7
370
    15
100
AcDbCircle
 10
62.6368386466
 20
113.7822177878
 30
0.0
 40
11.70000000000081
100
AcDbArc
 50
27.9565089687
 51
29.5206521197
  0
LINE
  5
2EB
330
1F
100
AcDbEntity
  8
0
  6
SLD-Durchgehend
 62
     7
370
    15
100
AcDbLine
 10
72.8179229218
 20
119.5472437574
 30
0.0
 11
73.3604267034
 21
119.9282948545
 31
0.0
  0
LWPOLYLINE
  5
2EC
330
1F
100
AcDbEntity
  8
0
  6
SLD-Durchgehend
 62
     7
370
    15
100
AcDbPolyline
 90
        9
 70
   128
 43
0.0
 10
73.3604267034
 20
119.9282948545
 10
73.3743248302
 20
119.941613233
 10
73.3839994091
 20
119.9616175762
 10
73.3856813777
 20
119.9869225419
 10
73.3800738845
 20
120.0103201589
 10
73.3647638727
 20
120.0401350542
 10
73.33290519
 20
120.0774862117
 10
73.2728283647
 20
120.1204485877
 10
73.2385957408
 20
120.1361409074
  0
LINE
  5
2ED
330
1F
100
AcDbEntity
  8
0
  6
SLD-Durchgehend
 62
     7
370
    15
100
AcDbLine
 10
73.2385957408
 20
120.1361409074
 30
0.0
 11
72.2039764542
 21
120.5171920045
 31
0.0
  0
ARC
  5
2EE
330
1F
100
AcDbEntity
  8
0
  6
SLD-Durchgehend
 62
     7
370
    15
100
AcDbCircle
 10
62.6368386466
 20
113.7822177878
 30
0.0
 40
11.700000000001
100
AcDbArc
 50
35.1443816259
 51
36.8394547611
  0
LINE
  5
2EF
330
1F
100
AcDbEntity
  8
0
  6
SLD-Durchgehend
 62
     7
370
    15
100
AcDbLine
 10
72.000567222
 20
120.7972434967
 30
0.0
 11
72.5397499073
 21
121.1782945937
 31
0.0
  0
LWPOLYLINE
  5
2F0
330
1F
100
AcDbEntity
  8
0
  6
SLD-Durchgehend
 62
     7
370
    15
100
AcDbPolyline
 90
        9
 70
   128
 43
0.0
 10
72.5397499073
 20
121.1782945937
 10
72.551465014
 20
121.1893577746
 10
72.5601663608
 20
121.2071949302
 10
72.5610874388
 20
121.2297795026
 10
72.5552052054
 20
121.2506453193
 10
72.5391799379
 20
121.2788052543
 10
72.5046530161
 20
121.3161894738
 10
72.4352154676
 20
121.363115093
 10
72.3810655791
 20
121.3861406467
  0
LINE
  5
2F1
330
1F
100
AcDbEntity
  8
0
  6
SLD-Durchgehend
 62
     7
370
    15
100
AcDbLine
 10
72.3810655791
 20
121.3861406467
 30
0.0
 11
71.1884576622
 21
121.7671922094
 31
0.0
  0
ARC
  5
2F2
330
1F
100
AcDbEntity
  8
0
  6
SLD-Durchgehend
 62
     7
370
    15
100
AcDbCircle
 10
62.6368386466
 20
113.7822177878
 30
0.0
 40
11.70000000000118
100
AcDbArc
 50
43.0374643913
 51
44.9437677466
  0
LINE
  5
2F3
330
1F
100
AcDbEntity
  8
0
  6
SLD-Durchgehend
 62
     7
370
    15
100
AcDbLine
 10
70.918104032
 20
122.0472437015
 30
0.0
 11
71.4694460649
 21
122.428294333
 31
0.0
  0
LWPOLYLINE
  5
2F4
330
1F
100
AcDbEntity
  8
0
  6
SLD-Durchgehend
 62
     7
370
    15
100
AcDbPolyline
 90
        9
 70
   128
 43
0.0
 10
71.4694460649
 20
122.428294333
 10
71.4791578967
 20
122.4369975424
 10
71.4878871832
 20
122.455038192
 10
71.4873218704
 20
122.4751081935
 10
71.4807932991
 20
122.4929430208
 10
71.463031115
 20
122.5193534664
 10
71.4229674805
 20
122.5569686538
 10
71.3353188503
 20
122.6087771973
 10
71.2610859219
 20
122.6361403859
  0
LINE
  5
2F5
330
1F
100
AcDbEntity
  8
0
  6
SLD-Durchgehend
 62
     7
370
    15
100
AcDbLine
 10
71.2610859219
 20
122.6361403859
 30
0.0
 11
69.8205180261
 21
123.0171919486
 31
0.0
  0
ARC
  5
2F6
330
1F
100
AcDbEntity
  8
0
  6
SLD-Durchgehend
 62
     7
370
    15
100
AcDbCircle
 10
62.6368386466
 20
113.7822177878
 30
0.0
 40
11.70000000000137
100
AcDbArc
 50
52.1214532678
 51
54.4146980712
  0
LINE
  5
2F7
330
1F
100
AcDbEntity
  8
0
  6
SLD-Durchgehend
 62
     7
370
    15
100
AcDbLine
 10
69.4452369381
 20
123.2972434408
 30
0.0
 11
70.0420573149
 21
123.6782950035
 31
0.0
  0
LWPOLYLINE
  5
2F8
330
1F
100
AcDbEntity
  8
0
  6
SLD-Durchgehend
 62
     7
370
    15
100
AcDbPolyline
 90
        9
 70
   128
 43
0.0
 10
70.0420573149
 20
123.6782950035
 10
70.0498296674
 20
123.684457565
 10
70.0583899189
 20
123.6984423048
 10
70.0593263637
 20
123.7116968876
 10
70.0551046785
 20
123.7259675435
 10
70.0424084235
 20
123.7458345166
 10
70.0117958504
 20
123.7752866617
 10
69.9354609269
 20
123.8227189204
 10
69.7558511775
 20
123.8861410565
  0
LINE
  5
2F9
330
1F
100
AcDbEntity
  8
0
  6
SLD-Durchgehend
 62
     7
370
    15
100
AcDbLine
 10
69.7558511775
 20
123.8861410565
 30
0.0
 11
67.8286895882
 21
124.2671916879
 31
0.0
  0
ARC
  5
2FA
330
1F
100
AcDbEntity
  8
0
  6
SLD-Durchgehend
 62
     7
370
    15
100
AcDbCircle
 10
62.6368386466
 20
113.7822177878
 30
0.0
 40
11.70000000000917
100
AcDbArc
 50
63.6567400211
 51
66.9389024908
  0
LINE
  5
2FB
330
1F
100
AcDbEntity
  8
0
  6
SLD-Durchgehend
 62
     7
370
    15
100
AcDbLine
 10
67.219874708
 20
124.54724318
 30
0.0
 11
67.9786143619
 21
124.9282947427
 31
0.0
  0
LWPOLYLINE
  5
2FC
330
1F
100
AcDbEntity
  8
0
  6
SLD-Durchgehend
 62
     7
370
    15
100
AcDbPolyline
 90
        9
 70
   128
 43
0.0
 10
67.9786143619
 20
124.9282947427
 10
67.9908784833
 20
124.93730622
 10
67.9958536085
 20
124.9456592521
 10
67.9964757319
 20
124.9557752779
 10
67.992980944
 20
124.9654256425
 10
67.9823452402
 20
124.97949327
 10
67.9548847284
 20
125.0017006567
 10
67.853294665
 20
125.0518579653
 10
67.5213070381
 20
125.1361407957
  0
ARC
  5
2FD
330
1F
100
AcDbEntity
  8
0
  6
SLD-Durchgehend
 62
     7
370
    15
100
AcDbCircle
 10
62.6368386466
 20
92.8203902194
 30
0.0
 40
32.68280536885887
100
AcDbArc
 50
81.4049043834
 51
98.5950956166
  0
LWPOLYLINE
  5
2FE
330
1F
100
AcDbEntity
  8
0
  6
SLD-Durchgehend
 62
     7
370
    15
100
AcDbPolyline
 90
       11
 70
   128
 43
0.0
 10
57.752370255
 20
125.1361407957
 10
57.544993123
 20
125.0926042593
 10
57.3655370418
 20
125.0280151761
 10
57.3158109355
 20
124.9996768928
 10
57.2952938992
 20
124.9834104127
 10
57.2821943816
 20
124.9680100626
 10
57.2775377687
 20
124.9573929853
 10
57.2774357889
 20
124.9470236397
 10
57.2813133504
 20
124.9390943593
 10
57.2929744404
 20
124.9294328189
 10
57.2950629312
 20
124.9282947427
  0
LINE
  5
2FF
330
1F
100
AcDbEntity
  8
0
  6
SLD-Durchgehend
 62
     7
370
    15
100
AcDbLine
 10
57.2950629312
 20
124.9282947427
 30
0.0
 11
58.0538025852
 21
124.54724318
 31
0.0
  0
ARC
  5
300
330
1F
100
AcDbEntity
  8
0
  6
SLD-Durchgehend
 62
     7
370
    15
100
AcDbCircle
 10
62.6368386466
 20
113.7822177878
 30
0.0
 40
11.70000000000154
100
AcDbArc
 50
113.0610975091
 51
116.3432599789
  0
LINE
  5
301
330
1F
100
AcDbEntity
  8
0
  6
SLD-Durchgehend
 62
     7
370
    15
100
AcDbLine
 10
57.444987705
 20
124.2671916879
 30
0.0
 11
55.5178261157
 21
123.8861410565
 31
0.0
  0
LWPOLYLINE
  5
302
330
1F
100
AcDbEntity
  8
0
  6
SLD-Durchgehend
 62
     7
370
    15
100
AcDbPolyline
 90
        9
 70
   128
 43
0.0
 10
55.5178261157
 20
123.8861410565
 10
55.3184616174
 20
123.8123011461
 10
55.2647415343
 20
123.7775320804
 10
55.2349205855
 20
123.7501456088
 10
55.2209186163
 20
123.7306623406
 10
55.214854775
 20
123.7147674582
 10
55.2149642054
 20
123.6996455735
 10
55.220281126
 20
123.6885404831
 10
55.2316199783
 20
123.6782950035
  0
LINE
  5
303
330
1F
100
AcDbEntity
  8
0
  6
SLD-Durchgehend
 62
     7
370
    15
100
AcDbLine
 10
55.2316199783
 20
123.6782950035
 30
0.0
 11
55.8284403551
 21
123.2972434408
 31
0.0
  0
ARC
  5
304
330
1F
100
AcDbEntity
  8
0
  6
SLD-Durchgehend
 62
     7
370
    15
100
AcDbCircle
 10
62.6368386466
 20
113.7822177878
 30
0.0
 40
11.70000000000137
100
AcDbArc
 50
125.5853019288
 51
127.8785467322
  0
LINE
  5
305
330
1F
100
AcDbEntity
  8
0
  6
SLD-Durchgehend
 62
     7
370
    15
100
AcDbLine
 10
55.4531592671
 20
123.0171919486
 30
0.0
 11
54.0125913713
 21
122.6361403859
 31
0.0
  0
LWPOLYLINE
  5
306
330
1F
100
AcDbEntity
  8
0
  6
SLD-Durchgehend
 62
     7
370
    15
100
AcDbPolyline
 90
        9
 70
   128
 43
0.0
 10
54.0125913713
 20
122.6361403859
 10
53.8879124243
 20
122.5822782761
 10
53.8284707609
 20
122.5381000585
 10
53.8051616195
 20
122.5124654046
 10
53.7904765252
 20
122.4877304083
 10
53.7853104789
 20
122.4689037225
 10
53.7866394762
 20
122.4515420071
 10
53.7934846971
 20
122.4382687977
 10
53.8042312283
 20
122.428294333
  0
LINE
  5
307
330
1F
100
AcDbEntity
  8
0
  6
SLD-Durchgehend
 62
     7
370
    15
100
AcDbLine
 10
53.8042312283
 20
122.428294333
 30
0.0
 11
54.3555732611
 21
122.0472437015
 31
0.0
  0
ARC
  5
308
330
1F
100
AcDbEntity
  8
0
  6
SLD-Durchgehend
 62
     7
370
    15
100
AcDbCircle
 10
62.6368386466
 20
113.7822177878
 30
0.0
 40
11.70000000000118
100
AcDbArc
 50
135.0562322534
 51
136.9625356087
  0
LINE
  5
309
330
1F
100
AcDbEntity
  8
0
  6
SLD-Durchgehend
 62
     7
370
    15
100
AcDbLine
 10
54.0852196309
 20
121.7671922094
 30
0.0
 11
52.8926117141
 21
121.3861406467
 31
0.0
  0
LWPOLYLINE
  5
30A
330
1F
100
AcDbEntity
  8
0
  6
SLD-Durchgehend
 62
     7
370
    15
100
AcDbPolyline
 90
        9
 70
   128
 43
0.0
 10
52.8926117141
 20
121.3861406467
 10
52.8029095176
 20
121.3421347237
 10
52.7608714793
 20
121.3087128161
 10
52.7257540989
 20
121.2653457804
 10
52.7152953464
 20
121.2417814567
 10
52.7119621429
 20
121.2180425099
 10
52.7160450611
 20
121.1997359677
 10
52.7288554031
 20
121.1823053344
 10
52.7339273859
 20
121.1782945937
  0
LINE
  5
30B
330
1F
100
AcDbEntity
  8
0
  6
SLD-Durchgehend
 62
     7
370
    15
100
AcDbLine
 10
52.7339273859
 20
121.1782945937
 30
0.0
 11
53.2731100712
 21
120.7972434967
 31
0.0
  0
ARC
  5
30C
330
1F
100
AcDbEntity
  8
0
  6
SLD-Durchgehend
 62
     7
370
    15
100
AcDbCircle
 10
62.6368386466
 20
113.7822177878
 30
0.0
 40
11.70000000000099
100
AcDbArc
 50
143.1605452389
 51
144.8556183741
  0
LINE
  5
30D
330
1F
100
AcDbEntity
  8
0
  6
SLD-Durchgehend
 62
     7
370
    15
100
AcDbLine
 10
53.069700839
 20
120.5171920045
 30
0.0
 11
52.0350815523
 21
120.1361409074
 31
0.0
  0
LWPOLYLINE
  5
30E
330
1F
100
AcDbEntity
  8
0
  6
SLD-Durchgehend
 62
     7
370
    15
100
AcDbPolyline
 90
        9
 70
   128
 43
0.0
 10
52.0350815523
 20
120.1361409074
 10
51.9609967042
 20
120.0946900679
 10
51.9245531205
 20
120.0606371893
 10
51.9010921735
 20
120.0270015432
 10
51.8904955853
 20
120.0004094898
 10
51.8877193127
 20
119.9735804147
 10
51.8925286624
 20
119.9533497601
 10
51.9064966384
 20
119.933735641
 10
51.9132505897
 20
119.9282948545
  0
LINE
  5
30F
330
1F
100
AcDbEntity
  8
0
  6
SLD-Durchgehend
 62
     7
370
    15
100
AcDbLine
 10
51.9132505897
 20
119.9282948545
 30
0.0
 11
52.4557543713
 21
119.5472437574
 31
0.0
  0
ARC
  5
310
330
1F
100
AcDbEntity
  8
0
  6
SLD-Durchgehend
 62
     7
370
    15
100
AcDbCircle
 10
62.6368386466
 20
113.7822177878
 30
0.0
 40
11.7000000000008
100
AcDbArc
 50
150.4793478803
 51
152.0434910313
  0
LINE
  5
311
330
1F
100
AcDbEntity
  8
0
  6
SLD-Durchgehend
 62
     7
370
    15
100
AcDbLine
 10
52.302185798
 20
119.2671917996
 30
0.0
 11
51.3798597995
 21
118.8861407025
 31
0.0
  0
LWPOLYLINE
  5
312
330
1F
100
AcDbEntity
  8
0
  6
SLD-Durchgehend
 62
     7
370
    15
100
AcDbPolyline
 90
        9
 70
   128
 43
0.0
 10
51.3798597995
 20
118.8861407025
 10
51.3199142907
 20
118.849280352
 10
51.2875182349
 20
118.8154114096
 10
51.2679986451
 20
118.7828016153
 10
51.2592525948
 20
118.7551688089
 10
51.2582057882
 20
118.727661731
 10
51.2641792912
 20
118.7062208227
 10
51.2799894232
 20
118.6845857336
 10
51.287916841
 20
118.6782946496
  0
LINE
  5
313
330
1F
100
AcDbEntity
  8
0
  6
SLD-Durchgehend
 62
     7
370
    15
100
AcDbLine
 10
51.287916841
 20
118.6782946496
 30
0.0
 11
51.8431117553
 21
118.2972435525
 31
0.0
  0
ARC
  5
314
330
1F
100
AcDbEntity
  8
0
  6
SLD-Durchgehend
 62
     7
370
    15
100
AcDbCircle
 10
62.6368386466
 20
113.7822177878
 30
0.0
 40
11.70000000000062
100
AcDbArc
 50
157.3003977015
 51
158.7791629542
  0
LINE
  5
315
330
1F
100
AcDbEntity
  8
0
  6
SLD-Durchgehend
 62
     7
370
    15
100
AcDbLine
 10
51.7301898245
 20
118.0171920604
 30
0.0
 11
50.8930370006
 21
117.6361407305
 31
0.0
  0
LWPOLYLINE
  5
316
330
1F
100
AcDbEntity
  8
0
  6
SLD-Durchgehend
 62
     7
370
    15
100
AcDbPolyline
 90
        9
 70
   128
 43
0.0
 10
50.8930370006
 20
117.6361407305
 10
50.8434058893
 20
117.6029893721
 10
50.8150201086
 20
117.5701351057
 10
50.7985776085
 20
117.5382992404
 10
50.7916550878
 20
117.5100473373
 10
50.7922082934
 20
117.4821763451
 10
50.7993506063
 20
117.4596008531
 10
50.8170205895
 20
117.4359634205
 10
50.8268544245
 20
117.4282946775
  0
LINE
  5
317
330
1F
100
AcDbEntity
  8
0
  6
SLD-Durchgehend
 62
     7
370
    15
100
AcDbLine
 10
50.8268544245
 20
117.4282946775
 30
0.0
 11
51.4016434345
 21
117.0472435805
 31
0.0
  0
ARC
  5
318
330
1F
100
AcDbEntity
  8
0
  6
SLD-Durchgehend
 62
     7
370
    15
100
AcDbCircle
 10
62.6368386466
 20
113.7822177878
 30
0.0
 40
11.70000000000044
100
AcDbArc
 50
163.7957681704
 51
165.2189484992
  0
LINE
  5
319
330
1F
100
AcDbEntity
  8
0
  6
SLD-Durchgehend
 62
     7
370
    15
100
AcDbLine
 10
51.3240167666
 20
116.7671920883
 30
0.0
 11
50.5542404745
 21
116.3861407584
 31
0.0
  0
LWPOLYLINE
  5
31A
330
1F
100
AcDbEntity
  8
0
  6
SLD-Durchgehend
 62
     7
370
    15
100
AcDbPolyline
 90
        9
 70
   128
 43
0.0
 10
50.5542404745
 20
116.3861407584
 10
50.5197256598
 20
116.3628535031
 10
50.4916332457
 20
116.3308001741
 10
50.4758585039
 20
116.2994057557
 10
50.4692274872
 20
116.2704385969
 10
50.4700396005
 20
116.2413692253
 10
50.477406362
 20
116.2171653158
 10
50.4952551592
 20
116.1912549904
 10
50.5113111604
 20
116.1782947055
  0
LINE
  5
31B
330
1F
100
AcDbEntity
  8
0
  6
SLD-Durchgehend
 62
     7
370
    15
100
AcDbLine
 10
50.5113111604
 20
116.1782947055
 30
0.0
 11
51.1116631124
 21
115.7972436084
 31
0.0
  0
ARC
  5
31C
330
1F
100
AcDbEntity
  8
0
  6
SLD-Durchgehend
 62
     7
370
    15
100
AcDbCircle
 10
62.6368386466
 20
113.7822177878
 30
0.0
 40
11.70000000000024
100
AcDbArc
 50
170.0828229118
 51
171.4722504237
  0
LINE
  5
31D
330
1F
100
AcDbEntity
  8
0
  6
SLD-Durchgehend
 62
     7
370
    15
100
AcDbLine
 10
51.066192219
 20
115.5171919998
 30
0.0
 11
50.3512177411
 21
115.1361407864
 31
0.0
  0
ARC
  5
31E
330
1F
100
AcDbEntity
  8
0
  6
SLD-Durchgehend
 62
     7
370
    15
100
AcDbCircle
 10
50.3990925986
 20
115.0262767108
 30
0.0
 40
0.1198420505527513
100
AcDbArc
 50
113.5458600199
 51
234.8445279001
  0
LINE
  5
31F
330
1F
100
AcDbEntity
  8
0
  6
SLD-Durchgehend
 62
     7
370
    15
100
AcDbLine
 10
50.3300878946
 20
114.9282947334
 30
0.0
 11
50.9618766401
 21
114.5472435781
 31
0.0
  0
ARC
  5
320
330
1F
100
AcDbEntity
  8
0
  6
SLD-Durchgehend
 62
     7
370
    15
100
AcDbCircle
 10
62.6368386466
 20
113.7822177878
 30
0.0
 40
11.70000000000006
100
AcDbArc
 50
176.2509365533
 51
177.6243641365
  0
LINE
  5
321
330
1F
100
AcDbEntity
  8
0
  6
SLD-Durchgehend
 62
     7
370
    15
100
AcDbLine
 10
50.9468944538
 20
114.2671920278
 30
0.0
 11
50.2772753853
 21
113.8861408361
 31
0.0
  0
ARC
  5
322
330
1F
100
AcDbEntity
  8
0
  6
SLD-Durchgehend
 62
     7
370
    15
100
AcDbCircle
 10
50.3365198033
 20
113.7822177878
 30
0.0
 40
0.119623998568671
100
AcDbArc
 50
119.6865858065
 51
240.3134141935
  0
LINE
  5
323
330
1F
100
AcDbEntity
  8
0
  6
SLD-Durchgehend
 62
     7
370
    15
100
AcDbLine
 10
50.2772753853
 20
113.6782947395
 30
0.0
 11
50.9468944538
 21
113.2972435479
 31
0.0
  0
ARC
  5
324
330
1F
100
AcDbEntity
  8
0
  6
SLD-Durchgehend
 62
     7
370
    15
100
AcDbCircle
 10
62.6368386466
 20
113.7822177878
 30
0.0
 40
11.69999999999987
100
AcDbArc
 50
182.3756358635
 51
183.7490634467
  0
LINE
  5
325
330
1F
100
AcDbEntity
  8
0
  6
SLD-Durchgehend
 62
     7
370
    15
100
AcDbLine
 10
50.9618766401
 20
113.0171919975
 30
0.0
 11
50.3300878946
 21
112.6361408422
 31
0.0
  0
ARC
  5
326
330
1F
100
AcDbEntity
  8
0
  6
SLD-Durchgehend
 62
     7
370
    15
100
AcDbCircle
 10
50.4014138169
 20
112.5383948423
 30
0.0
 40
0.1210027590694381
100
AcDbArc
 50
126.1184841636
 51
245.4911279164
  0
LINE
  5
327
330
1F
100
AcDbEntity
  8
0
  6
SLD-Durchgehend
 62
     7
370
    15
100
AcDbLine
 10
50.3512177411
 20
112.4282947893
 30
0.0
 11
51.066192219
 21
112.0472435758
 31
0.0
  0
ARC
  5
328
330
1F
100
AcDbEntity
  8
0
  6
SLD-Durchgehend
 62
     7
370
    15
100
AcDbCircle
 10
62.6368386466
 20
113.7822177878
 30
0.0
 40
11.69999999999969
100
AcDbArc
 50
188.5277495763
 51
189.9171770882
  0
LINE
  5
329
330
1F
100
AcDbEntity
  8
0
  6
SLD-Durchgehend
 62
     7
370
    15
100
AcDbLine
 10
51.1116631124
 20
111.7671919673
 30
0.0
 11
50.5113111604
 21
111.3861408702
 31
0.0
  0
LWPOLYLINE
  5
32A
330
1F
100
AcDbEntity
  8
0
  6
SLD-Durchgehend
 62
     7
370
    15
100
AcDbPolyline
 90
        9
 70
   128
 43
0.0
 10
50.5113111604
 20
111.3861408702
 10
50.4890506882
 20
111.3662014867
 10
50.4747092519
 20
111.3407305128
 10
50.4689406398
 20
111.3140679116
 10
50.4705192316
 20
111.2849589589
 10
50.4785043914
 20
111.2581676024
 10
50.4974717069
 20
111.2254127546
 10
50.5324465949
 20
111.1914879328
 10
50.5542404745
 20
111.1782948172
  0
LINE
  5
32B
330
1F
100
AcDbEntity
  8
0
  6
SLD-Durchgehend
 62
     7
370
    15
100
AcDbLine
 10
50.5542404745
 20
111.1782948172
 30
0.0
 11
51.3240167666
 21
110.7972434873
 31
0.0
  0
ARC
  5
32C
330
1F
100
AcDbEntity
  8
0
  6
SLD-Durchgehend
 62
     7
370
    15
100
AcDbCircle
 10
62.6368386466
 20
113.7822177878
 30
0.0
 40
11.69999999999951
100
AcDbArc
 50
194.7810515008
 51
196.2042318296
  0
LINE
  5
32D
330
1F
100
AcDbEntity
  8
0
  6
SLD-Durchgehend
 62
     7
370
    15
100
AcDbLine
 10
51.4016434345
 20
110.5171919952
 30
0.0
 11
50.8268544245
 21
110.1361408981
 31
0.0
  0
LWPOLYLINE
  5
32E
330
1F
100
AcDbEntity
  8
0
  6
SLD-Durchgehend
 62
     7
370
    15
100
AcDbPolyline
 90
        9
 70
   128
 43
0.0
 10
50.8268544245
 20
110.1361408981
 10
50.8077585865
 20
110.1184236503
 10
50.7952388171
 20
110.0946341793
 10
50.7909491453
 20
110.0644621218
 10
50.795076767
 20
110.036990667
 10
50.8052468095
 20
110.0109338912
 10
50.8288269657
 20
109.9763468991
 10
50.8715364877
 20
109.9400043639
 10
50.8930370006
 20
109.9282948452
  0
LINE
  5
32F
330
1F
100
AcDbEntity
  8
0
  6
SLD-Durchgehend
 62
     7
370
    15
100
AcDbLine
 10
50.8930370006
 20
109.9282948452
 30
0.0
 11
51.7301898245
 21
109.5472435153
 31
0.0
  0
ARC
  5
330
330
1F
100
AcDbEntity
  8
0
  6
SLD-Durchgehend
 62
     7
370
    15
100
AcDbCircle
 10
62.6368386466
 20
113.7822177878
 30
0.0
 40
11.69999999999932
100
AcDbArc
 50
201.2208370458
 51
202.6996022985
  0
LINE
  5
331
330
1F
100
AcDbEntity
  8
0
  6
SLD-Durchgehend
 62
     7
370
    15
100
AcDbLine
 10
51.8431117553
 20
109.2671920231
 30
0.0
 11
51.287916841
 21
108.8861409261
 31
0.0
  0
LWPOLYLINE
  5
332
330
1F
100
AcDbEntity
  8
0
  6
SLD-Durchgehend
 62
     7
370
    15
100
AcDbPolyline
 90
        9
 70
   128
 43
0.0
 10
51.287916841
 20
108.8861409261
 10
51.271581443
 20
108.8706181071
 10
51.2606207076
 20
108.8486412226
 10
51.2577997315
 20
108.8208147011
 10
51.2627953458
 20
108.7952419801
 10
51.2769141961
 20
108.7646191626
 10
51.3057432864
 20
108.7281709223
 10
51.3580091092
 20
108.6889557226
 10
51.3798597995
 20
108.6782948731
  0
LINE
  5
333
330
1F
100
AcDbEntity
  8
0
  6
SLD-Durchgehend
 62
     7
370
    15
100
AcDbLine
 10
51.3798597995
 20
108.6782948731
 30
0.0
 11
52.302185798
 21
108.2972437761
 31
0.0
  0
ARC
  5
334
330
1F
100
AcDbEntity
  8
0
  6
SLD-Durchgehend
 62
     7
370
    15
100
AcDbCircle
 10
62.6368386466
 20
113.7822177878
 30
0.0
 40
11.69999999999914
100
AcDbArc
 50
207.9565089686
 51
209.5206521197
  0
LINE
  5
335
330
1F
100
AcDbEntity
  8
0
  6
SLD-Durchgehend
 62
     7
370
    15
100
AcDbLine
 10
52.4557543713
 20
108.0171918182
 30
0.0
 11
51.9132505897
 21
107.6361407212
 31
0.0
  0
LWPOLYLINE
  5
336
330
1F
100
AcDbEntity
  8
0
  6
SLD-Durchgehend
 62
     7
370
    15
100
AcDbPolyline
 90
        9
 70
   128
 43
0.0
 10
51.9132505897
 20
107.6361407212
 10
51.8993524629
 20
107.6228223427
 10
51.889677884
 20
107.6028179995
 10
51.8879959155
 20
107.5775130338
 10
51.8936034087
 20
107.5541154167
 10
51.9089134205
 20
107.5243005215
 10
51.9407721031
 20
107.486949364
 10
52.0008489284
 20
107.443986988
 10
52.0350815523
 20
107.4282946682
  0
LINE
  5
337
330
1F
100
AcDbEntity
  8
0
  6
SLD-Durchgehend
 62
     7
370
    15
100
AcDbLine
 10
52.0350815523
 20
107.4282946682
 30
0.0
 11
53.069700839
 21
107.0472435712
 31
0.0
  0
ARC
  5
338
330
1F
100
AcDbEntity
  8
0
  6
SLD-Durchgehend
 62
     7
370
    15
100
AcDbCircle
 10
62.6368386466
 20
113.7822177878
 30
0.0
 40
11.69999999999896
100
AcDbArc
 50
215.1443816259
 51
216.8394547611
  0
LINE
  5
339
330
1F
100
AcDbEntity
  8
0
  6
SLD-Durchgehend
 62
     7
370
    15
100
AcDbLine
 10
53.2731100712
 20
106.767192079
 30
0.0
 11
52.7339273859
 21
106.3861409819
 31
0.0
  0
LWPOLYLINE
  5
33A
330
1F
100
AcDbEntity
  8
0
  6
SLD-Durchgehend
 62
     7
370
    15
100
AcDbPolyline
 90
        9
 70
   128
 43
0.0
 10
52.7339273859
 20
106.3861409819
 10
52.7222122792
 20
106.3750778011
 10
52.7135109324
 20
106.3572406455
 10
52.7125898544
 20
106.334656073
 10
52.7184720877
 20
106.3137902564
 10
52.7344973553
 20
106.2856303214
 10
52.7690242771
 20
106.2482461019
 10
52.8384618256
 20
106.2013204827
 10
52.8926117141
 20
106.178294929
  0
LINE
  5
33B
330
1F
100
AcDbEntity
  8
0
  6
SLD-Durchgehend
 62
     7
370
    15
100
AcDbLine
 10
52.8926117141
 20
106.178294929
 30
0.0
 11
54.0852196309
 21
105.7972433663
 31
0.0
  0
ARC
  5
33C
330
1F
100
AcDbEntity
  8
0
  6
SLD-Durchgehend
 62
     7
370
    15
100
AcDbCircle
 10
62.6368386466
 20
113.7822177878
 30
0.0
 40
11.69999999999877
100
AcDbArc
 50
223.0374643913
 51
224.9437677466
  0
LINE
  5
33D
330
1F
100
AcDbEntity
  8
0
  6
SLD-Durchgehend
 62
     7
370
    15
100
AcDbLine
 10
54.3555732611
 20
105.5171918741
 30
0.0
 11
53.8042312283
 21
105.1361412427
 31
0.0
  0
LWPOLYLINE
  5
33E
330
1F
100
AcDbEntity
  8
0
  6
SLD-Durchgehend
 62
     7
370
    15
100
AcDbPolyline
 90
        9
 70
   128
 43
0.0
 10
53.8042312283
 20
105.1361412427
 10
53.7945193965
 20
105.1274380333
 10
53.78579011
 20
105.1093973837
 10
53.7863554228
 20
105.0893273822
 10
53.792883994
 20
105.0714925549
 10
53.8106461782
 20
105.0450821093
 10
53.8507098127
 20
105.0074669218
 10
53.9383584428
 20
104.9556583783
 10
54.0125913713
 20
104.9282951898
  0
LINE
  5
33F
330
1F
100
AcDbEntity
  8
0
  6
SLD-Durchgehend
 62
     7
370
    15
100
AcDbLine
 10
54.0125913713
 20
104.9282951898
 30
0.0
 11
55.4531592671
 21
104.547243627
 31
0.0
  0
ARC
  5
340
330
1F
100
AcDbEntity
  8
0
  6
SLD-Durchgehend
 62
     7
370
    15
100
AcDbCircle
 10
62.6368386466
 20
113.7822177878
 30
0.0
 40
11.69999999999859
100
AcDbArc
 50
232.1214532678
 51
234.4146980712
  0
LINE
  5
341
330
1F
100
AcDbEntity
  8
0
  6
SLD-Durchgehend
 62
     7
370
    15
100
AcDbLine
 10
55.8284403551
 20
104.2671921349
 30
0.0
 11
55.2316199783
 21
103.8861405722
 31
0.0
  0
LWPOLYLINE
  5
342
330
1F
100
AcDbEntity
  8
0
  6
SLD-Durchgehend
 62
     7
370
    15
100
AcDbPolyline
 90
        9
 70
   128
 43
0.0
 10
55.2316199783
 20
103.8861405722
 10
55.2238476258
 20
103.8799780107
 10
55.2152873743
 20
103.8659932709
 10
55.2143509295
 20
103.852738688
 10
55.2185726147
 20
103.8384680322
 10
55.2312688697
 20
103.8186010591
 10
55.2618814427
 20
103.789148914
 10
55.3382163662
 20
103.7417166552
 10
55.5178261157
 20
103.6782945192
  0
LINE
  5
343
330
1F
100
AcDbEntity
  8
0
  6
SLD-Durchgehend
 62
     7
370
    15
100
AcDbLine
 10
55.5178261157
 20
103.6782945192
 30
0.0
 11
57.444987705
 21
103.2972438878
 31
0.0
  0
ARC
  5
344
330
1F
100
AcDbEntity
  8
0
  6
SLD-Durchgehend
 62
     7
370
    15
100
AcDbCircle
 10
62.6368386466
 20
113.7822177878
 30
0.0
 40
11.70000000000602
100
AcDbArc
 50
243.6567400211
 51
246.9389024908
  0
LINE
  5
345
330
1F
100
AcDbEntity
  8
0
  6
SLD-Durchgehend
 62
     7
370
    15
100
AcDbLine
 10
58.0538025852
 20
103.0171923957
 30
0.0
 11
57.2950629312
 21
102.6361408329
 31
0.0
  0
LWPOLYLINE
  5
346
330
1F
100
AcDbEntity
  8
0
  6
SLD-Durchgehend
 62
     7
370
    15
100
AcDbPolyline
 90
        9
 70
   128
 43
0.0
 10
57.2950629312
 20
102.6361408329
 10
57.2827988099
 20
102.6271293557
 10
57.2778236847
 20
102.6187763235
 10
57.2772015612
 20
102.6086602977
 10
57.2806963492
 20
102.5990099332
 10
57.291332053
 20
102.5849423057
 10
57.3187925648
 20
102.5627349189
 10
57.4203826282
 20
102.5125776103
 10
57.752370255
 20
102.42829478
  0
ARC
  5
347
330
1F
100
AcDbEntity
  8
0
  6
SLD-Durchgehend
 62
     7
370
    15
100
AcDbCircle
 10
62.6368386466
 20
134.7440453563
 30
0.0
 40
32.68280536885886
100
AcDbArc
 50
261.4049043834
 51
278.5950956166
  0
LWPOLYLINE
  5
348
330
1F
100
AcDbEntity
  8
0
  6
SLD-Durchgehend
 62
     7
370
    15
100
AcDbPolyline
 90
       11
 70
   128
 43
0.0
 10
67.5213070381
 20
102.42829478
 10
67.7286841701
 20
102.4718313164
 10
67.9081402514
 20
102.5364203996
 10
67.9578663576
 20
102.5647586829
 10
67.9783833939
 20
102.581025163
 10
67.9914829116
 20
102.5964255131
 10
67.9961395245
 20
102.6070425904
 10
67.9962415043
 20
102.617411936
 10
67.9923639428
 20
102.6253412164
 10
67.9807028528
 20
102.6350027567
 10
67.9786143619
 20
102.6361408329
  0
LINE
  5
349
330
1F
100
AcDbEntity
  8
0
  6
SLD-Durchgehend
 62
     7
370
    15
100
AcDbLine
 10
67.9786143619
 20
102.6361408329
 30
0.0
 11
67.219874708
 21
103.0171923957
 31
0.0
  0
ARC
  5
34A
330
1F
100
AcDbEntity
  8
0
  6
SLD-Durchgehend
 62
     7
370
    15
100
AcDbCircle
 10
62.6368386466
 20
113.7822177878
 30
0.0
 40
11.6999999999984
100
AcDbArc
 50
293.0610975091
 51
296.3432599789
  0
LINE
  5
34B
330
1F
100
AcDbEntity
  8
0
  6
SLD-Durchgehend
 62
     7
370
    15
100
AcDbLine
 10
67.8286895882
 20
103.2972438878
 30
0.0
 11
69.7558511775
 21
103.6782945192
 31
0.0
  0
LWPOLYLINE
  5
34C
330
1F
100
AcDbEntity
  8
0
  6
SLD-Durchgehend
 62
     7
370
    15
100
AcDbPolyline
 90
        9
 70
   128
 43
0.0
 10
69.7558511775
 20
103.6782945192
 10
69.9552156757
 20
103.7521344295
 10
70.0089357588
 20
103.7869034952
 10
70.0387567077
 20
103.8142899669
 10
70.0527586769
 20
103.8337732351
 10
70.0588225182
 20
103.8496681175
 10
70.0587130878
 20
103.8647900021
 10
70.0533961672
 20
103.8758950925
 10
70.0420573149
 20
103.8861405722
  0
LINE
  5
34D
330
1F
100
AcDbEntity
  8
0
  6
SLD-Durchgehend
 62
     7
370
    15
100
AcDbLine
 10
70.0420573149
 20
103.8861405722
 30
0.0
 11
69.4452369381
 21
104.2671921349
 31
0.0
  0
ARC
  5
34E
330
1F
100
AcDbEntity
  8
0
  6
SLD-Durchgehend
 62
     7
370
    15
100
AcDbCircle
 10
62.6368386466
 20
113.7822177878
 30
0.0
 40
11.6999999999986
100
AcDbArc
 50
305.5853019288
 51
307.8785467322
  0
LINE
  5
34F
330
1F
100
AcDbEntity
  8
0
  6
SLD-Durchgehend
 62
     7
370
    15
100
AcDbLine
 10
69.8205180261
 20
104.547243627
 30
0.0
 11
71.2610859219
 21
104.9282951898
 31
0.0
  0
LWPOLYLINE
  5
350
330
1F
100
AcDbEntity
  8
0
  6
SLD-Durchgehend
 62
     7
370
    15
100
AcDbPolyline
 90
        9
 70
   128
 43
0.0
 10
71.2610859219
 20
104.9282951898
 10
71.3857648689
 20
104.9821572996
 10
71.4452065322
 20
105.0263355172
 10
71.4685156736
 20
105.0519701711
 10
71.483200768
 20
105.0767051673
 10
71.4883668143
 20
105.0955318532
 10
71.487037817
 20
105.1128935686
 10
71.4801925961
 20
105.1261667779
 10
71.4694460649
 20
105.1361412427
  0
LINE
  5
351
330
1F
100
AcDbEntity
  8
0
  6
SLD-Durchgehend
 62
     7
370
    15
100
AcDbLine
 10
71.4694460649
 20
105.1361412427
 30
0.0
 11
70.918104032
 21
105.5171918741
 31
0.0
  0
ARC
  5
352
330
1F
100
AcDbEntity
  8
0
  6
SLD-Durchgehend
 62
     7
370
    15
100
AcDbCircle
 10
62.6368386466
 20
113.7822177878
 30
0.0
 40
11.69999999999878
100
AcDbArc
 50
315.0562322534
 51
316.9625356087
  0
LINE
  5
353
330
1F
100
AcDbEntity
  8
0
  6
SLD-Durchgehend
 62
     7
370
    15
100
AcDbLine
 10
71.1884576622
 20
105.7972433663
 30
0.0
 11
72.3810655791
 21
106.178294929
 31
0.0
  0
LWPOLYLINE
  5
354
330
1F
100
AcDbEntity
  8
0
  6
SLD-Durchgehend
 62
     7
370
    15
100
AcDbPolyline
 90
        9
 70
   128
 43
0.0
 10
72.3810655791
 20
106.178294929
 10
72.4707677755
 20
106.222300852
 10
72.5128058139
 20
106.2557227595
 10
72.5479231942
 20
106.2990897952
 10
72.5583819467
 20
106.322654119
 10
72.5617151502
 20
106.3463930658
 10
72.5576322321
 20
106.364699608
 10
72.54482189
 20
106.3821302413
 10
72.5397499073
 20
106.3861409819
  0
LINE
  5
355
330
1F
100
AcDbEntity
  8
0
  6
SLD-Durchgehend
 62
     7
370
    15
100
AcDbLine
 10
72.5397499073
 20
106.3861409819
 30
0.0
 11
72.000567222
 21
106.767192079
 31
0.0
  0
ARC
  5
356
330
1F
100
AcDbEntity
  8
0
  6
SLD-Durchgehend
 62
     7
370
    15
100
AcDbCircle
 10
62.6368386466
 20
113.7822177878
 30
0.0
 40
11.69999999999897
100
AcDbArc
 50
323.1605452389
 51
324.8556183741
  0
LINE
  5
357
330
1F
100
AcDbEntity
  8
0
  6
SLD-Durchgehend
 62
     7
370
    15
100
AcDbLine
 10
72.2039764542
 20
107.0472435712
 30
0.0
 11
73.2385957408
 21
107.4282946682
 31
0.0
  0
LWPOLYLINE
  5
358
330
1F
100
AcDbEntity
  8
0
  6
SLD-Durchgehend
 62
     7
370
    15
100
AcDbPolyline
 90
        9
 70
   128
 43
0.0
 10
73.2385957408
 20
107.4282946682
 10
73.312680589
 20
107.4697455077
 10
73.3491241727
 20
107.5037983863
 10
73.3725851197
 20
107.5374340324
 10
73.3831817079
 20
107.5640260859
 10
73.3859579805
 20
107.590855161
 10
73.3811486307
 20
107.6110858156
 10
73.3671806548
 20
107.6306999347
 10
73.3604267034
 20
107.6361407212
  0
LINE
  5
359
330
1F
100
AcDbEntity
  8
0
  6
SLD-Durchgehend
 62
     7
370
    15
100
AcDbLine
 10
73.3604267034
 20
107.6361407212
 30
0.0
 11
72.8179229218
 21
108.0171918182
 31
0.0
  0
ARC
  5
35A
330
1F
100
AcDbEntity
  8
0
  6
SLD-Durchgehend
 62
     7
370
    15
100
AcDbCircle
 10
62.6368386466
 20
113.7822177878
 30
0.0
 40
11.69999999999915
100
AcDbArc
 50
330.4793478803
 51
332.0434910314
  0
LINE
  5
35B
330
1F
100
AcDbEntity
  8
0
  6
SLD-Durchgehend
 62
     7
370
    15
100
AcDbLine
 10
72.9714914951
 20
108.2972437761
 30
0.0
 11
73.8938174937
 21
108.6782948731
 31
0.0
  0
LWPOLYLINE
  5
35C
330
1F
100
AcDbEntity
  8
0
  6
SLD-Durchgehend
 62
     7
370
    15
100
AcDbPolyline
 90
        9
 70
   128
 43
0.0
 10
73.8938174937
 20
108.6782948731
 10
73.9537630025
 20
108.7151552236
 10
73.9861590583
 20
108.7490241661
 10
74.0056786481
 20
108.7816339603
 10
74.0144246984
 20
108.8092667668
 10
74.015471505
 20
108.8367738447
 10
74.009498002
 20
108.858214753
 10
73.99368787
 20
108.8798498421
 10
73.9857604522
 20
108.8861409261
  0
LINE
  5
35D
330
1F
100
AcDbEntity
  8
0
  6
SLD-Durchgehend
 62
     7
370
    15
100
AcDbLine
 10
73.9857604522
 20
108.8861409261
 30
0.0
 11
73.4305655379
 21
109.2671920231
 31
0.0
  0
ARC
  5
35E
330
1F
100
AcDbEntity
  8
0
  6
SLD-Durchgehend
 62
     7
370
    15
100
AcDbCircle
 10
62.6368386466
 20
113.7822177878
 30
0.0
 40
11.69999999999934
100
AcDbArc
 50
337.3003977015
 51
338.7791629543
  0
LINE
  5
35F
330
1F
100
AcDbEntity
  8
0
  6
SLD-Durchgehend
 62
     7
370
    15
100
AcDbLine
 10
73.5434874687
 20
109.5472435153
 30
0.0
 11
74.3806402925
 21
109.9282948452
 31
0.0
  0
LWPOLYLINE
  5
360
330
1F
100
AcDbEntity
  8
0
  6
SLD-Durchgehend
 62
     7
370
    15
100
AcDbPolyline
 90
        9
 70
   128
 43
0.0
 10
74.3806402925
 20
109.9282948452
 10
74.4302714038
 20
109.9614462035
 10
74.4586571846
 20
109.99430047
 10
74.4750996846
 20
110.0261363352
 10
74.4820222053
 20
110.0543882384
 10
74.4814689997
 20
110.0822592306
 10
74.4743266869
 20
110.1048347226
 10
74.4566567037
 20
110.1284721552
 10
74.4468228686
 20
110.1361408981
  0
LINE
  5
361
330
1F
100
AcDbEntity
  8
0
  6
SLD-Durchgehend
 62
     7
370
    15
100
AcDbLine
 10
74.4468228686
 20
110.1361408981
 30
0.0
 11
73.8720338586
 21
110.5171919952
 31
0.0
  0
ARC
  5
362
330
1F
100
AcDbEntity
  8
0
  6
SLD-Durchgehend
 62
     7
370
    15
100
AcDbCircle
 10
62.6368386466
 20
113.7822177878
 30
0.0
 40
11.69999999999951
100
AcDbArc
 50
343.7957681704
 51
345.2189484992
  0
LINE
  5
363
330
1F
100
AcDbEntity
  8
0
  6
SLD-Durchgehend
 62
     7
370
    15
100
AcDbLine
 10
73.9496605266
 20
110.7972434873
 30
0.0
 11
74.7194368187
 21
111.1782948172
 31
0.0
  0
LWPOLYLINE
  5
364
330
1F
100
AcDbEntity
  8
0
  6
SLD-Durchgehend
 62
     7
370
    15
100
AcDbPolyline
 90
        9
 70
   128
 43
0.0
 10
74.7194368187
 20
111.1782948172
 10
74.7539516333
 20
111.2015820726
 10
74.7820440475
 20
111.2336354016
 10
74.7978187892
 20
111.2650298199
 10
74.804449806
 20
111.2939969788
 10
74.8036376927
 20
111.3230663503
 10
74.7962709311
 20
111.3472702599
 10
74.778422134
 20
111.3731805852
 10
74.7623661328
 20
111.3861408702
  0
LINE
  5
365
330
1F
100
AcDbEntity
  8
0
  6
SLD-Durchgehend
 62
     7
370
    15
100
AcDbLine
 10
74.7623661328
 20
111.3861408702
 30
0.0
 11
74.1620141808
 21
111.7671919673
 31
0.0
  0
ARC
  5
366
330
1F
100
AcDbEntity
  8
0
  6
SLD-Durchgehend
 62
     7
370
    15
100
AcDbCircle
 10
62.6368386466
 20
113.7822177878
 30
0.0
 40
11.6999999999997
100
AcDbArc
 50
350.0828229118
 51
351.4722504237
  0
LINE
  5
367
330
1F
100
AcDbEntity
  8
0
  6
SLD-Durchgehend
 62
     7
370
    15
100
AcDbLine
 10
74.2074850742
 20
112.0472435758
 30
0.0
 11
74.922459552
 21
112.4282947893
 31
0.0
  0
ARC
  5
368
330
1F
100
AcDbEntity
  8
0
  6
SLD-Durchgehend
 62
     7
370
    15
100
AcDbCircle
 10
74.8745846945
 20
112.5381588649
 30
0.0
 40
0.1198420505527513
100
AcDbArc
 50
293.5458600199
 51
54.8445279001
  0
LINE
  5
369
330
1F
100
AcDbEntity
  8
0
  6
SLD-Durchgehend
 62
     7
370
    15
100
AcDbLine
 10
74.9435893986
 20
112.6361408422
 30
0.0
 11
74.3118006531
 21
113.0171919975
 31
0.0
  0
ARC
  5
36A
330
1F
100
AcDbEntity
  8
0
  6
SLD-Durchgehend
 62
     7
370
    15
100
AcDbCircle
 10
62.6368386466
 20
113.7822177878
 30
0.0
 40
11.69999999999989
100
AcDbArc
 50
356.2509365533
 51
357.6243641365
  0
LINE
  5
36B
330
1F
100
AcDbEntity
  8
0
  6
SLD-Durchgehend
 62
     7
370
    15
100
AcDbLine
 10
74.3267828393
 20
113.2972435479
 30
0.0
 11
74.9964019079
 21
113.6782947395
 31
0.0
  0
ARC
  5
36C
330
1F
100
AcDbEntity
  8
0
  6
SLD-Durchgehend
 62
     7
370
    15
100
AcDbCircle
 10
74.9371574898
 20
113.7822177878
 30
0.0
 40
0.1196239985686675
100
AcDbArc
 50
299.6865858065
 51
60.3134141935
  0
LINE
  5
36D
330
1F
100
AcDbEntity
  8
0
  6
SLD-Durchgehend
 62
     7
370
    15
100
AcDbLine
 10
74.9964019079
 20
113.8861408361
 30
0.0
 11
74.3267828393
 21
114.2671920278
 31
0.0
  0
ARC
  5
36E
330
1F
100
AcDbEntity
  8
0
  6
SLD-Durchgehend
 62
     7
370
    15
100
AcDbCircle
 10
62.6368386466
 20
113.7822177878
 30
0.0
 40
11.70000000000008
100
AcDbArc
 50
2.3756358635
 51
3.7490634467
  0
CIRCLE
  5
36F
330
1F
100
AcDbEntity
  8
0
  6
SLD-Durchgehend
 62
     7
370
    15
100
AcDbCircle
 10
62.6368386466
 20
113.7822177878
 30
0.0
 40
3.999999999999993
  0
LINE
  5
370
330
1F
100
AcDbEntity
  8
0
  6
SLD-Durchgehend
 62
     7
370
    15
100
AcDbLine
 10
57.8981958125
 20
114.5472435781
 30
0.0
 11
58.6586346645
 21
114.9282947334
 31
0.0
  0
LWPOLYLINE
  5
371
330
1F
100
AcDbEntity
  8
0
  6
SLD-Durchgehend
 62
     7
370
    15
100
AcDbPolyline
 90
        9
 70
   128
 43
0.0
 10
58.6586346645
 20
114.9282947334
 10
58.7060110438
 20
114.9606570287
 10
58.7346906569
 20
114.9944369134
 10
58.7511743679
 20
115.0268092205
 10
58.7582149338
 20
115.0555464591
 10
58.7577266879
 20
115.0838068605
 10
58.7505510803
 20
115.10642985
 10
58.7329558357
 20
115.1295799681
 10
58.7244875524
 20
115.1361407864
  0
LINE
  5
372
330
1F
100
AcDbEntity
  8
0
  6
SLD-Durchgehend
 62
     7
370
    15
100
AcDbLine
 10
58.7244875524
 20
115.1361407864
 30
0.0
 11
58.1613652203
 21
115.5171919998
 31
0.0
  0
ARC
  5
373
330
1F
100
AcDbEntity
  8
0
  6
SLD-Durchgehend
 62
     7
370
    15
100
AcDbCircle
 10
62.6368386466
 20
113.7822177878
 30
0.0
 40
4.800000000000414
100
AcDbArc
 50
155.1782257964
 51
158.8105456562
  0
LINE
  5
374
330
1F
100
AcDbEntity
  8
0
  6
SLD-Durchgehend
 62
     7
370
    15
100
AcDbLine
 10
58.2802722957
 20
115.7972436084
 30
0.0
 11
59.2606846504
 21
116.1782947055
 31
0.0
  0
LWPOLYLINE
  5
375
330
1F
100
AcDbEntity
  8
0
  6
SLD-Durchgehend
 62
     7
370
    15
100
AcDbPolyline
 90
        9
 70
   128
 43
0.0
 10
59.2606846504
 20
116.1782947055
 10
59.3485207092
 20
116.2233919057
 10
59.3923876323
 20
116.2596108078
 10
59.4214453622
 20
116.2947938463
 10
59.434337195
 20
116.3199509646
 10
59.4392422382
 20
116.3413511275
 10
59.4372305814
 20
116.3608793321
 10
59.4294256326
 20
116.3757008652
 10
59.4182700179
 20
116.3861407584
  0
LINE
  5
376
330
1F
100
AcDbEntity
  8
0
  6
SLD-Durchgehend
 62
     7
370
    15
100
AcDbLine
 10
59.4182700179
 20
116.3861407584
 30
0.0
 11
59.0345904957
 21
116.6566783248
 31
0.0
  0
LINE
  5
377
330
1F
100
AcDbEntity
  8
0
  6
SLD-Durchgehend
 62
     7
370
    15
100
AcDbLine
 10
59.5457284972
 20
117.1518043301
 30
0.0
 11
60.6757871601
 21
117.4282946775
 31
0.0
  0
LWPOLYLINE
  5
378
330
1F
100
AcDbEntity
  8
0
  6
SLD-Durchgehend
 62
     7
370
    15
100
AcDbPolyline
 90
       11
 70
   128
 43
0.0
 10
60.6757871601
 20
117.4282946775
 10
60.8853339245
 20
117.4802424538
 10
61.028482046
 20
117.5318302738
 10
61.0968328574
 20
117.5654992147
 10
61.1273811692
 20
117.5869231264
 10
61.1371856676
 20
117.5970789662
 10
61.1435002675
 20
117.608457167
 10
61.1441973625
 20
117.6163308008
 10
61.1415196936
 20
117.6233336481
 10
61.1330169514
 20
117.6315195079
 10
61.1245962819
 20
117.6361407305
  0
LINE
  5
379
330
1F
100
AcDbEntity
  8
0
  6
SLD-Durchgehend
 62
     7
370
    15
100
AcDbLine
 10
61.1245962819
 20
117.6361407305
 30
0.0
 11
60.3774153888
 21
118.0171920604
 31
0.0
  0
ARC
  5
37A
330
1F
100
AcDbEntity
  8
0
  6
SLD-Durchgehend
 62
     7
370
    15
100
AcDbCircle
 10
62.6368386466
 20
113.7822177878
 30
0.0
 40
4.800000000000922
100
AcDbArc
 50
109.8423103834
 51
118.0806000095
  0
ARC
  5
37B
330
1F
100
AcDbEntity
  8
0
  6
SLD-Durchgehend
 62
     7
370
    15
100
AcDbCircle
 10
62.6368386466
 20
105.6054502773
 30
0.0
 40
12.79594305312466
100
AcDbArc
 50
82.6848090695
 51
97.3151909305
  0
ARC
  5
37C
330
1F
100
AcDbEntity
  8
0
  6
SLD-Durchgehend
 62
     7
370
    15
100
AcDbCircle
 10
62.6368386466
 20
113.7822177878
 30
0.0
 40
4.800000000000922
100
AcDbArc
 50
61.9193999905
 51
70.1576896166
  0
LINE
  5
37D
330
1F
100
AcDbEntity
  8
0
  6
SLD-Durchgehend
 62
     7
370
    15
100
AcDbLine
 10
64.8962619044
 20
118.0171920604
 30
0.0
 11
64.1490810113
 21
117.6361407305
 31
0.0
  0
LWPOLYLINE
  5
37E
330
1F
100
AcDbEntity
  8
0
  6
SLD-Durchgehend
 62
     7
370
    15
100
AcDbPolyline
 90
       10
 70
   128
 43
0.0
 10
64.1490810113
 20
117.6361407305
 10
64.1362459892
 20
117.6280824619
 10
64.1309557277
 20
117.6211916062
 10
64.1293730614
 20
117.6126718673
 10
64.1317106811
 20
117.6045518986
 10
64.1395347221
 20
117.5935113023
 10
64.160435114
 20
117.5759633223
 10
64.2417396912
 20
117.5333155005
 10
64.5356113119
 20
117.4409473932
 10
64.597890133
 20
117.4282946775
  0
LINE
  5
37F
330
1F
100
AcDbEntity
  8
0
  6
SLD-Durchgehend
 62
     7
370
    15
100
AcDbLine
 10
64.597890133
 20
117.4282946775
 30
0.0
 11
65.6514699831
 21
117.1705164633
 31
0.0
  0
LINE
  5
380
330
1F
100
AcDbEntity
  8
0
  6
SLD-Durchgehend
 62
     7
370
    15
100
AcDbLine
 10
66.2596001085
 20
116.6711426957
 30
0.0
 11
65.8554072752
 21
116.3861407584
 31
0.0
  0
LWPOLYLINE
  5
381
330
1F
100
AcDbEntity
  8
0
  6
SLD-Durchgehend
 62
     7
370
    15
100
AcDbPolyline
 90
        9
 70
   128
 43
0.0
 10
65.8554072752
 20
116.3861407584
 10
65.8442630693
 20
116.3757153007
 10
65.8350029289
 20
116.3548101357
 10
65.8357098028
 20
116.332434878
 10
65.8426109031
 20
116.312093396
 10
65.8610431738
 20
116.282399107
 10
65.9002418425
 20
116.2423520035
 10
65.9749127254
 20
116.1942808575
 10
66.0129926428
 20
116.1782947055
  0
LINE
  5
382
330
1F
100
AcDbEntity
  8
0
  6
SLD-Durchgehend
 62
     7
370
    15
100
AcDbLine
 10
66.0129926428
 20
116.1782947055
 30
0.0
 11
66.9934049975
 21
115.7972436084
 31
0.0
  0
ARC
  5
383
330
1F
100
AcDbEntity
  8
0
  6
SLD-Durchgehend
 62
     7
370
    15
100
AcDbCircle
 10
62.6368386466
 20
113.7822177878
 30
0.0
 40
4.800000000000433
100
AcDbArc
 50
21.1894543438
 51
24.8217742036
  0
LINE
  5
384
330
1F
100
AcDbEntity
  8
0
  6
SLD-Durchgehend
 62
     7
370
    15
100
AcDbLine
 10
67.1123120729
 20
115.5171919998
 30
0.0
 11
66.5491897408
 21
115.1361407864
 31
0.0
  0
LWPOLYLINE
  5
385
330
1F
100
AcDbEntity
  8
0
  6
SLD-Durchgehend
 62
     7
370
    15
100
AcDbPolyline
 90
        9
 70
   128
 43
0.0
 10
66.5491897408
 20
115.1361407864
 10
66.5308755152
 20
115.1189698756
 10
66.5187138393
 20
115.0953833165
 10
66.5147277787
 20
115.0655020646
 10
66.5189250167
 20
115.0379785721
 10
66.5291639771
 20
115.011442398
 10
66.5526184048
 20
114.9763352622
 10
66.5941782091
 20
114.9399924942
 10
66.6150426287
 20
114.9282947334
  0
LINE
  5
386
330
1F
100
AcDbEntity
  8
0
  6
SLD-Durchgehend
 62
     7
370
    15
100
AcDbLine
 10
66.6150426287
 20
114.9282947334
 30
0.0
 11
67.3754814807
 21
114.5472435781
 31
0.0
  0
ARC
  5
387
330
1F
100
AcDbEntity
  8
0
  6
SLD-Durchgehend
 62
     7
370
    15
100
AcDbCircle
 10
62.6368386466
 20
113.7822177878
 30
0.0
 40
4.800000000000171
100
AcDbArc
 50
5.7988481848
 51
9.1709324956
  0
LINE
  5
388
330
1F
100
AcDbEntity
  8
0
  6
SLD-Durchgehend
 62
     7
370
    15
100
AcDbLine
 10
67.4122757073
 20
114.2671920278
 30
0.0
 11
66.7755341884
 21
113.8861408361
 31
0.0
  0
ARC
  5
389
330
1F
100
AcDbEntity
  8
0
  6
SLD-Durchgehend
 62
     7
370
    15
100
AcDbCircle
 10
66.8378214466
 20
113.7822177878
 30
0.0
 40
0.1211598221575559
100
AcDbArc
 50
120.9367618605
 51
239.0632381395
  0
LINE
  5
38A
330
1F
100
AcDbEntity
  8
0
  6
SLD-Durchgehend
 62
     7
370
    15
100
AcDbLine
 10
66.7755341884
 20
113.6782947395
 30
0.0
 11
67.4122757073
 21
113.2972435479
 31
0.0
  0
ARC
  5
38B
330
1F
100
AcDbEntity
  8
0
  6
SLD-Durchgehend
 62
     7
370
    15
100
AcDbCircle
 10
62.6368386466
 20
113.7822177878
 30
0.0
 40
4.800000000000089
100
AcDbArc
 50
350.8290675044
 51
354.2011518152
  0
LINE
  5
38C
330
1F
100
AcDbEntity
  8
0
  6
SLD-Durchgehend
 62
     7
370
    15
100
AcDbLine
 10
67.3754814807
 20
113.0171919975
 30
0.0
 11
66.6150426287
 21
112.6361408422
 31
0.0
  0
LWPOLYLINE
  5
38D
330
1F
100
AcDbEntity
  8
0
  6
SLD-Durchgehend
 62
     7
370
    15
100
AcDbPolyline
 90
        9
 70
   128
 43
0.0
 10
66.6150426287
 20
112.6361408422
 10
66.5676662493
 20
112.6037785469
 10
66.5389866363
 20
112.5699986622
 10
66.5225029252
 20
112.5376263552
 10
66.5154623594
 20
112.5088891166
 10
66.5159506052
 20
112.4806287152
 10
66.5231262129
 20
112.4580057257
 10
66.5407214574
 20
112.4348556076
 10
66.5491897408
 20
112.4282947893
  0
LINE
  5
38E
330
1F
100
AcDbEntity
  8
0
  6
SLD-Durchgehend
 62
     7
370
    15
100
AcDbLine
 10
66.5491897408
 20
112.4282947893
 30
0.0
 11
67.1123120729
 21
112.0472435758
 31
0.0
  0
ARC
  5
38F
330
1F
100
AcDbEntity
  8
0
  6
SLD-Durchgehend
 62
     7
370
    15
100
AcDbCircle
 10
62.6368386466
 20
113.7822177878
 30
0.0
 40
4.799999999999672
100
AcDbArc
 50
335.1782257965
 51
338.8105456562
  0
LINE
  5
390
330
1F
100
AcDbEntity
  8
0
  6
SLD-Durchgehend
 62
     7
370
    15
100
AcDbLine
 10
66.9934049975
 20
111.7671919673
 30
0.0
 11
66.0129926428
 21
111.3861408702
 31
0.0
  0
LWPOLYLINE
  5
391
330
1F
100
AcDbEntity
  8
0
  6
SLD-Durchgehend
 62
     7
370
    15
100
AcDbPolyline
 90
        9
 70
   128
 43
0.0
 10
66.0129926428
 20
111.3861408702
 10
65.925156584
 20
111.34104367
 10
65.8812896609
 20
111.3048247679
 10
65.8522319309
 20
111.2696417293
 10
65.8393400982
 20
111.2444846111
 10
65.834435055
 20
111.2230844482
 10
65.8364467118
 20
111.2035562436
 10
65.8442516606
 20
111.1887347105
 10
65.8554072752
 20
111.1782948172
  0
LINE
  5
392
330
1F
100
AcDbEntity
  8
0
  6
SLD-Durchgehend
 62
     7
370
    15
100
AcDbLine
 10
65.8554072752
 20
111.1782948172
 30
0.0
 11
66.2383219488
 21
110.9082964866
 31
0.0
  0
LINE
  5
393
330
1F
100
AcDbEntity
  8
0
  6
SLD-Durchgehend
 62
     7
370
    15
100
AcDbLine
 10
65.7230102252
 20
110.4114228545
 30
0.0
 11
64.597890133
 21
110.1361408981
 31
0.0
  0
LWPOLYLINE
  5
394
330
1F
100
AcDbEntity
  8
0
  6
SLD-Durchgehend
 62
     7
370
    15
100
AcDbPolyline
 90
       11
 70
   128
 43
0.0
 10
64.597890133
 20
110.1361408981
 10
64.3883433686
 20
110.0841931219
 10
64.2451952472
 20
110.0326053018
 10
64.1768444357
 20
109.998936361
 10
64.146296124
 20
109.9775124493
 10
64.1364916255
 20
109.9673566094
 10
64.1301770257
 20
109.9559784087
 10
64.1294799307
 20
109.9481047748
 10
64.1321575995
 20
109.9411019276
 10
64.1406603418
 20
109.9329160678
 10
64.1490810113
 20
109.9282948452
  0
LINE
  5
395
330
1F
100
AcDbEntity
  8
0
  6
SLD-Durchgehend
 62
     7
370
    15
100
AcDbLine
 10
64.1490810113
 20
109.9282948452
 30
0.0
 11
64.8962619044
 21
109.5472435153
 31
0.0
  0
ARC
  5
396
330
1F
100
AcDbEntity
  8
0
  6
SLD-Durchgehend
 62
     7
370
    15
100
AcDbCircle
 10
62.6368386466
 20
113.7822177878
 30
0.0
 40
4.800000000005494
100
AcDbArc
 50
289.8423103834
 51
298.0806000097
  0
ARC
  5
397
330
1F
100
AcDbEntity
  8
0
  6
SLD-Durchgehend
 62
     7
370
    15
100
AcDbCircle
 10
62.6368386466
 20
121.9589852984
 30
0.0
 40
12.79594305312468
100
AcDbArc
 50
262.6848090695
 51
277.3151909305
  0
ARC
  5
398
330
1F
100
AcDbEntity
  8
0
  6
SLD-Durchgehend
 62
     7
370
    15
100
AcDbCircle
 10
62.6368386466
 20
113.7822177878
 30
0.0
 40
4.799999999999166
100
AcDbArc
 50
241.9193999905
 51
250.1576896166
  0
LINE
  5
399
330
1F
100
AcDbEntity
  8
0
  6
SLD-Durchgehend
 62
     7
370
    15
100
AcDbLine
 10
60.3774153888
 20
109.5472435153
 30
0.0
 11
61.1245962819
 21
109.9282948452
 31
0.0
  0
LWPOLYLINE
  5
39A
330
1F
100
AcDbEntity
  8
0
  6
SLD-Durchgehend
 62
     7
370
    15
100
AcDbPolyline
 90
       10
 70
   128
 43
0.0
 10
61.1245962819
 20
109.9282948452
 10
61.1374313039
 20
109.9363531138
 10
61.1427215654
 20
109.9432439695
 10
61.1443042317
 20
109.9517637084
 10
61.1419666121
 20
109.9598836771
 10
61.1341425711
 20
109.9709242734
 10
61.1132421791
 20
109.9884722533
 10
61.031937602
 20
110.0311200752
 10
60.7380659813
 20
110.1234881825
 10
60.6757871601
 20
110.1361408981
  0
LINE
  5
39B
330
1F
100
AcDbEntity
  8
0
  6
SLD-Durchgehend
 62
     7
370
    15
100
AcDbLine
 10
60.6757871601
 20
110.1361408981
 30
0.0
 11
59.5353903509
 21
110.4151604849
 31
0.0
  0
LINE
  5
39C
330
1F
100
AcDbEntity
  8
0
  6
SLD-Durchgehend
 62
     7
370
    15
100
AcDbLine
 10
59.0540693402
 20
110.9214919305
 30
0.0
 11
59.4182700179
 21
111.1782948172
 31
0.0
  0
LWPOLYLINE
  5
39D
330
1F
100
AcDbEntity
  8
0
  6
SLD-Durchgehend
 62
     7
370
    15
100
AcDbPolyline
 90
        9
 70
   128
 43
0.0
 10
59.4182700179
 20
111.1782948172
 10
59.4294142239
 20
111.188720275
 10
59.4386743642
 20
111.20962544
 10
59.4379674904
 20
111.2320006977
 10
59.4310663901
 20
111.2523421797
 10
59.4126341194
 20
111.2820364686
 10
59.3734354507
 20
111.3220835722
 10
59.2987645678
 20
111.3701547182
 10
59.2606846504
 20
111.3861408702
  0
LINE
  5
39E
330
1F
100
AcDbEntity
  8
0
  6
SLD-Durchgehend
 62
     7
370
    15
100
AcDbLine
 10
59.2606846504
 20
111.3861408702
 30
0.0
 11
58.2802722957
 21
111.7671919673
 31
0.0
  0
ARC
  5
39F
330
1F
100
AcDbEntity
  8
0
  6
SLD-Durchgehend
 62
     7
370
    15
100
AcDbCircle
 10
62.6368386466
 20
113.7822177878
 30
0.0
 40
4.799999999999665
100
AcDbArc
 50
201.1894543438
 51
204.8217742035
  0
LINE
  5
3A0
330
1F
100
AcDbEntity
  8
0
  6
SLD-Durchgehend
 62
     7
370
    15
100
AcDbLine
 10
58.1613652203
 20
112.0472435758
 30
0.0
 11
58.7244875524
 21
112.4282947893
 31
0.0
  0
LWPOLYLINE
  5
3A1
330
1F
100
AcDbEntity
  8
0
  6
SLD-Durchgehend
 62
     7
370
    15
100
AcDbPolyline
 90
        9
 70
   128
 43
0.0
 10
58.7244875524
 20
112.4282947893
 10
58.742801778
 20
112.4454657
 10
58.7549634538
 20
112.4690522591
 10
58.7589495145
 20
112.4989335111
 10
58.7547522764
 20
112.5264570036
 10
58.7445133161
 20
112.5529931777
 10
58.7210588883
 20
112.5881003135
 10
58.6794990841
 20
112.6244430815
 10
58.6586346645
 20
112.6361408422
  0
LINE
  5
3A2
330
1F
100
AcDbEntity
  8
0
  6
SLD-Durchgehend
 62
     7
370
    15
100
AcDbLine
 10
58.6586346645
 20
112.6361408422
 30
0.0
 11
57.8981958125
 21
113.0171919975
 31
0.0
  0
ARC
  5
3A3
330
1F
100
AcDbEntity
  8
0
  6
SLD-Durchgehend
 62
     7
370
    15
100
AcDbCircle
 10
62.6368386466
 20
113.7822177878
 30
0.0
 40
4.800000000000082
100
AcDbArc
 50
185.7988481848
 51
189.1709324956
  0
LINE
  5
3A4
330
1F
100
AcDbEntity
  8
0
  6
SLD-Durchgehend
 62
     7
370
    15
100
AcDbLine
 10
57.8614015858
 20
113.2972435479
 30
0.0
 11
58.4981431048
 21
113.6782947395
 31
0.0
  0
ARC
  5
3A5
330
1F
100
AcDbEntity
  8
0
  6
SLD-Durchgehend
 62
     7
370
    15
100
AcDbCircle
 10
58.4358558466
 20
113.7822177878
 30
0.0
 40
0.1211598221575486
100
AcDbArc
 50
300.9367618605
 51
59.0632381395
  0
LINE
  5
3A6
330
1F
100
AcDbEntity
  8
0
  6
SLD-Durchgehend
 62
     7
370
    15
100
AcDbLine
 10
58.4981431048
 20
113.8861408361
 30
0.0
 11
57.8614015858
 21
114.2671920278
 31
0.0
  0
ARC
  5
3A7
330
1F
100
AcDbEntity
  8
0
  6
SLD-Durchgehend
 62
     7
370
    15
100
AcDbCircle
 10
62.6368386466
 20
113.7822177878
 30
0.0
 40
4.800000000000165
100
AcDbArc
 50
170.8290675044
 51
174.2011518152
  0
LINE
  5
3A8
330
1F
100
AcDbEntity
  8
0
  6
SLD-Durchgehend
 62
     7
370
    15
100
AcDbLine
 10
61.0075620962
 20
118.2972435525
 30
0.0
 11
60.2884927094
 21
118.2972435525
 31
0.0
  0
LINE
  5
3A9
330
1F
100
AcDbEntity
  8
0
  6
SLD-Durchgehend
 62
     7
370
    15
100
AcDbLine
 10
64.9851845838
 20
118.2972435525
 30
0.0
 11
64.266115197
 21
118.2972435525
 31
0.0
  0
LINE
  5
3AA
330
1F
100
AcDbEntity
  8
0
  6
SLD-Durchgehend
 62
     7
370
    15
100
AcDbLine
 10
64.9851845838
 20
109.2671920231
 30
0.0
 11
64.266115197
 21
109.2671920231
 31
0.0
  0
LINE
  5
3AB
330
1F
100
AcDbEntity
  8
0
  6
SLD-Durchgehend
 62
     7
370
    15
100
AcDbLine
 10
61.0075620962
 20
109.2671920231
 30
0.0
 11
60.2884927094
 21
109.2671920231
 31
0.0
  0
LINE
  5
3AC
330
1F
100
AcDbEntity
  8
0
  6
SLD-Durchgehend
 62
     7
370
    15
100
AcDbLine
 10
70.918104032
 20
122.0472437015
 30
0.0
 11
70.6276682932
 21
122.0472437015
 31
0.0
  0
LINE
  5
3AD
330
1F
100
AcDbEntity
  8
0
  6
SLD-Durchgehend
 62
     7
370
    15
100
AcDbLine
 10
65.9597174991
 20
122.0472437015
 30
0.0
 11
59.3139597941
 21
122.0472437015
 31
0.0
  0
LINE
  5
3AE
330
1F
100
AcDbEntity
  8
0
  6
SLD-Durchgehend
 62
     7
370
    15
100
AcDbLine
 10
54.646009
 20
122.0472437015
 30
0.0
 11
54.3555732611
 21
122.0472437015
 31
0.0
  0
LINE
  5
3AF
330
1F
100
AcDbEntity
  8
0
  6
SLD-Durchgehend
 62
     7
370
    15
100
AcDbLine
 10
54.646009
 20
105.5171918741
 30
0.0
 11
54.3555732611
 21
105.5171918741
 31
0.0
  0
LINE
  5
3B0
330
1F
100
AcDbEntity
  8
0
  6
SLD-Durchgehend
 62
     7
370
    15
100
AcDbLine
 10
65.9597174991
 20
105.5171918741
 30
0.0
 11
59.3139597941
 21
105.5171918741
 31
0.0
  0
LINE
  5
3B1
330
1F
100
AcDbEntity
  8
0
  6
SLD-Durchgehend
 62
     7
370
    15
100
AcDbLine
 10
70.918104032
 20
105.5171918741
 30
0.0
 11
70.6276682932
 21
105.5171918741
 31
0.0
  0
LINE
  5
3B2
330
1F
100
AcDbEntity
  8
0
  6
SLD-Durchgehend
 62
     7
370
    15
100
AcDbLine
 10
73.9496605266
 20
116.7671920883
 30
0.0
 11
70.5544579569
 21
116.7671920883
 31
0.0
  0
LINE
  5
3B3
330
1F
100
AcDbEntity
  8
0
  6
SLD-Durchgehend
 62
     7
370
    15
100
AcDbLine
 10
54.7192193363
 20
116.7671920883
 30
0.0
 11
51.3240167666
 21
116.7671920883
 31
0.0
  0
LINE
  5
3B4
330
1F
100
AcDbEntity
  8
0
  6
SLD-Durchgehend
 62
     7
370
    15
100
AcDbLine
 10
73.9496605266
 20
110.7972434873
 30
0.0
 11
70.5544579569
 21
110.7972434873
 31
0.0
  0
LINE
  5
3B5
330
1F
100
AcDbEntity
  8
0
  6
SLD-Durchgehend
 62
     7
370
    15
100
AcDbLine
 10
54.7192193363
 20
110.7972434873
 30
0.0
 11
51.3240167666
 21
110.7972434873
 31
0.0
  0
LINE
  5
3B6
330
1F
100
AcDbEntity
  8
0
  6
SLD-Durchgehend
 62
     7
370
    15
100
AcDbLine
 10
74.1620141808
 20
115.7972436084
 30
0.0
 11
66.9934049975
 21
115.7972436084
 31
0.0
  0
LINE
  5
3B7
330
1F
100
AcDbEntity
  8
0
  6
SLD-Durchgehend
 62
     7
370
    15
100
AcDbLine
 10
74.3118006531
 20
114.5472435781
 30
0.0
 11
67.3754814807
 21
114.5472435781
 31
0.0
  0
LINE
  5
3B8
330
1F
100
AcDbEntity
  8
0
  6
SLD-Durchgehend
 62
     7
370
    15
100
AcDbLine
 10
72.9714914951
 20
119.2671917996
 30
0.0
 11
71.7894699219
 21
119.2671917996
 31
0.0
  0
LINE
  5
3B9
330
1F
100
AcDbEntity
  8
0
  6
SLD-Durchgehend
 62
     7
370
    15
100
AcDbLine
 10
72.8179229218
 20
119.5472437574
 30
0.0
 11
71.7920208145
 21
119.5472437574
 31
0.0
  0
LINE
  5
3BA
330
1F
100
AcDbEntity
  8
0
  6
SLD-Durchgehend
 62
     7
370
    15
100
AcDbLine
 10
74.3118006531
 20
113.0171919975
 30
0.0
 11
67.3754814807
 21
113.0171919975
 31
0.0
  0
LINE
  5
3BB
330
1F
100
AcDbEntity
  8
0
  6
SLD-Durchgehend
 62
     7
370
    15
100
AcDbLine
 10
73.5434874687
 20
118.0171920604
 30
0.0
 11
71.4918574113
 21
118.0171920604
 31
0.0
  0
LINE
  5
3BC
330
1F
100
AcDbEntity
  8
0
  6
SLD-Durchgehend
 62
     7
370
    15
100
AcDbLine
 10
73.4305655379
 20
118.2972435525
 30
0.0
 11
71.6022014413
 21
118.2972435525
 31
0.0
  0
LINE
  5
3BD
330
1F
100
AcDbEntity
  8
0
  6
SLD-Durchgehend
 62
     7
370
    15
100
AcDbLine
 10
72.2039764542
 20
107.0472435712
 30
0.0
 11
71.6235063765
 21
107.0472435712
 31
0.0
  0
LINE
  5
3BE
330
1F
100
AcDbEntity
  8
0
  6
SLD-Durchgehend
 62
     7
370
    15
100
AcDbLine
 10
72.8179229218
 20
108.0171918182
 30
0.0
 11
71.7920208145
 21
108.0171918182
 31
0.0
  0
LINE
  5
3BF
330
1F
100
AcDbEntity
  8
0
  6
SLD-Durchgehend
 62
     7
370
    15
100
AcDbLine
 10
72.9714914951
 20
108.2972437761
 30
0.0
 11
71.7894699219
 21
108.2972437761
 31
0.0
  0
LINE
  5
3C0
330
1F
100
AcDbEntity
  8
0
  6
SLD-Durchgehend
 62
     7
370
    15
100
AcDbLine
 10
73.4305655379
 20
109.2671920231
 30
0.0
 11
71.6022014413
 21
109.2671920231
 31
0.0
  0
LINE
  5
3C1
330
1F
100
AcDbEntity
  8
0
  6
SLD-Durchgehend
 62
     7
370
    15
100
AcDbLine
 10
73.5434874687
 20
109.5472435153
 30
0.0
 11
71.4918574113
 21
109.5472435153
 31
0.0
  0
LINE
  5
3C2
330
1F
100
AcDbEntity
  8
0
  6
SLD-Durchgehend
 62
     7
370
    15
100
AcDbLine
 10
74.3267828393
 20
113.2972435479
 30
0.0
 11
67.4122757073
 21
113.2972435479
 31
0.0
  0
LINE
  5
3C3
330
1F
100
AcDbEntity
  8
0
  6
SLD-Durchgehend
 62
     7
370
    15
100
AcDbLine
 10
74.2074850742
 20
115.5171919998
 30
0.0
 11
67.1123120729
 21
115.5171919998
 31
0.0
  0
LINE
  5
3C4
330
1F
100
AcDbEntity
  8
0
  6
SLD-Durchgehend
 62
     7
370
    15
100
AcDbLine
 10
73.8720338586
 20
117.0472435805
 30
0.0
 11
70.8489142153
 21
117.0472435805
 31
0.0
  0
LINE
  5
3C5
330
1F
100
AcDbEntity
  8
0
  6
SLD-Durchgehend
 62
     7
370
    15
100
AcDbLine
 10
74.3267828393
 20
114.2671920278
 30
0.0
 11
67.4122757073
 21
114.2671920278
 31
0.0
  0
LINE
  5
3C6
330
1F
100
AcDbEntity
  8
0
  6
SLD-Durchgehend
 62
     7
370
    15
100
AcDbLine
 10
74.2074850742
 20
112.0472435758
 30
0.0
 11
67.1123120729
 21
112.0472435758
 31
0.0
  0
LINE
  5
3C7
330
1F
100
AcDbEntity
  8
0
  6
SLD-Durchgehend
 62
     7
370
    15
100
AcDbLine
 10
74.1620141808
 20
111.7671919673
 30
0.0
 11
66.9934049975
 21
111.7671919673
 31
0.0
  0
LINE
  5
3C8
330
1F
100
AcDbEntity
  8
0
  6
SLD-Durchgehend
 62
     7
370
    15
100
AcDbLine
 10
73.8720338586
 20
110.5171919952
 30
0.0
 11
70.8489142153
 21
110.5171919952
 31
0.0
  0
LINE
  5
3C9
330
1F
100
AcDbEntity
  8
0
  6
SLD-Durchgehend
 62
     7
370
    15
100
AcDbLine
 10
72.000567222
 20
120.7972434967
 30
0.0
 11
71.5194282848
 21
120.7972434967
 31
0.0
  0
LINE
  5
3CA
330
1F
100
AcDbEntity
  8
0
  6
SLD-Durchgehend
 62
     7
370
    15
100
AcDbLine
 10
71.1884576622
 20
105.7972433663
 30
0.0
 11
70.9070920739
 21
105.7972433663
 31
0.0
  0
LINE
  5
3CB
330
1F
100
AcDbEntity
  8
0
  6
SLD-Durchgehend
 62
     7
370
    15
100
AcDbLine
 10
72.2039764542
 20
120.5171920045
 30
0.0
 11
71.6235063765
 21
120.5171920045
 31
0.0
  0
LINE
  5
3CC
330
1F
100
AcDbEntity
  8
0
  6
SLD-Durchgehend
 62
     7
370
    15
100
AcDbLine
 10
72.000567222
 20
106.767192079
 30
0.0
 11
71.5194282848
 21
106.767192079
 31
0.0
  0
LINE
  5
3CD
330
1F
100
AcDbEntity
  8
0
  6
SLD-Durchgehend
 62
     7
370
    15
100
AcDbLine
 10
69.8205180261
 20
104.547243627
 30
0.0
 11
55.4531592671
 21
104.547243627
 31
0.0
  0
LINE
  5
3CE
330
1F
100
AcDbEntity
  8
0
  6
SLD-Durchgehend
 62
     7
370
    15
100
AcDbLine
 10
67.8286895882
 20
103.2972438878
 30
0.0
 11
57.444987705
 21
103.2972438878
 31
0.0
  0
LINE
  5
3CF
330
1F
100
AcDbEntity
  8
0
  6
SLD-Durchgehend
 62
     7
370
    15
100
AcDbLine
 10
69.8205180261
 20
123.0171919486
 30
0.0
 11
55.4531592671
 21
123.0171919486
 31
0.0
  0
LINE
  5
3D0
330
1F
100
AcDbEntity
  8
0
  6
SLD-Durchgehend
 62
     7
370
    15
100
AcDbLine
 10
69.4452369381
 20
123.2972434408
 30
0.0
 11
55.8284403551
 21
123.2972434408
 31
0.0
  0
LINE
  5
3D1
330
1F
100
AcDbEntity
  8
0
  6
SLD-Durchgehend
 62
     7
370
    15
100
AcDbLine
 10
71.1884576622
 20
121.7671922094
 30
0.0
 11
70.9070920739
 21
121.7671922094
 31
0.0
  0
LINE
  5
3D2
330
1F
100
AcDbEntity
  8
0
  6
SLD-Durchgehend
 62
     7
370
    15
100
AcDbLine
 10
69.4452369381
 20
104.2671921349
 30
0.0
 11
55.8284403551
 21
104.2671921349
 31
0.0
  0
LINE
  5
3D3
330
1F
100
AcDbEntity
  8
0
  6
SLD-Durchgehend
 62
     7
370
    15
100
AcDbLine
 10
65.0679572746
 20
120.7972434967
 30
0.0
 11
60.2057200186
 21
120.7972434967
 31
0.0
  0
LINE
  5
3D4
330
1F
100
AcDbEntity
  8
0
  6
SLD-Durchgehend
 62
     7
370
    15
100
AcDbLine
 10
64.9638794157
 20
107.0472435712
 30
0.0
 11
60.3097978774
 21
107.0472435712
 31
0.0
  0
LINE
  5
3D5
330
1F
100
AcDbEntity
  8
0
  6
SLD-Durchgehend
 62
     7
370
    15
100
AcDbLine
 10
64.7953649778
 20
119.5472437574
 30
0.0
 11
60.4783123154
 21
119.5472437574
 31
0.0
  0
LINE
  5
3D6
330
1F
100
AcDbEntity
  8
0
  6
SLD-Durchgehend
 62
     7
370
    15
100
AcDbLine
 10
64.7979158703
 20
119.2671917996
 30
0.0
 11
60.4757614229
 21
119.2671917996
 31
0.0
  0
LINE
  5
3D7
330
1F
100
AcDbEntity
  8
0
  6
SLD-Durchgehend
 62
     7
370
    15
100
AcDbLine
 10
65.0679572746
 20
106.767192079
 30
0.0
 11
60.2057200186
 21
106.767192079
 31
0.0
  0
LINE
  5
3D8
330
1F
100
AcDbEntity
  8
0
  6
SLD-Durchgehend
 62
     7
370
    15
100
AcDbLine
 10
67.219874708
 20
124.54724318
 30
0.0
 11
58.0538025852
 21
124.54724318
 31
0.0
  0
LINE
  5
3D9
330
1F
100
AcDbEntity
  8
0
  6
SLD-Durchgehend
 62
     7
370
    15
100
AcDbLine
 10
65.6802932527
 20
105.7972433663
 30
0.0
 11
59.5933840405
 21
105.7972433663
 31
0.0
  0
LINE
  5
3DA
330
1F
100
AcDbEntity
  8
0
  6
SLD-Durchgehend
 62
     7
370
    15
100
AcDbLine
 10
64.7979158703
 20
108.2972437761
 30
0.0
 11
60.4757614229
 21
108.2972437761
 31
0.0
  0
LINE
  5
3DB
330
1F
100
AcDbEntity
  8
0
  6
SLD-Durchgehend
 62
     7
370
    15
100
AcDbLine
 10
65.0955281481
 20
109.5472435153
 30
0.0
 11
64.8962619044
 21
109.5472435153
 31
0.0
  0
LINE
  5
3DC
330
1F
100
AcDbEntity
  8
0
  6
SLD-Durchgehend
 62
     7
370
    15
100
AcDbLine
 10
65.0955281481
 20
118.0171920604
 30
0.0
 11
64.8962619044
 21
118.0171920604
 31
0.0
  0
LINE
  5
3DD
330
1F
100
AcDbEntity
  8
0
  6
SLD-Durchgehend
 62
     7
370
    15
100
AcDbLine
 10
64.9638794157
 20
120.5171920045
 30
0.0
 11
60.3097978774
 21
120.5171920045
 31
0.0
  0
LINE
  5
3DE
330
1F
100
AcDbEntity
  8
0
  6
SLD-Durchgehend
 62
     7
370
    15
100
AcDbLine
 10
65.6802932527
 20
121.7671922094
 30
0.0
 11
59.5933840405
 21
121.7671922094
 31
0.0
  0
LINE
  5
3DF
330
1F
100
AcDbEntity
  8
0
  6
SLD-Durchgehend
 62
     7
370
    15
100
AcDbLine
 10
67.8286895882
 20
124.2671916879
 30
0.0
 11
57.444987705
 21
124.2671916879
 31
0.0
  0
LINE
  5
3E0
330
1F
100
AcDbEntity
  8
0
  6
SLD-Durchgehend
 62
     7
370
    15
100
AcDbLine
 10
64.7953649778
 20
108.0171918182
 30
0.0
 11
60.4783123154
 21
108.0171918182
 31
0.0
  0
LINE
  5
3E1
330
1F
100
AcDbEntity
  8
0
  6
SLD-Durchgehend
 62
     7
370
    15
100
AcDbLine
 10
67.219874708
 20
103.0171923957
 30
0.0
 11
58.0538025852
 21
103.0171923957
 31
0.0
  0
LINE
  5
3E2
330
1F
100
AcDbEntity
  8
0
  6
SLD-Durchgehend
 62
     7
370
    15
100
AcDbLine
 10
60.3774153888
 20
109.5472435153
 30
0.0
 11
60.1781491451
 21
109.5472435153
 31
0.0
  0
LINE
  5
3E3
330
1F
100
AcDbEntity
  8
0
  6
SLD-Durchgehend
 62
     7
370
    15
100
AcDbLine
 10
60.3774153888
 20
118.0171920604
 30
0.0
 11
60.1781491451
 21
118.0171920604
 31
0.0
  0
LINE
  5
3E4
330
1F
100
AcDbEntity
  8
0
  6
SLD-Durchgehend
 62
     7
370
    15
100
AcDbLine
 10
57.8981958125
 20
114.5472435781
 30
0.0
 11
50.9618766401
 21
114.5472435781
 31
0.0
  0
LINE
  5
3E5
330
1F
100
AcDbEntity
  8
0
  6
SLD-Durchgehend
 62
     7
370
    15
100
AcDbLine
 10
58.2802722957
 20
115.7972436084
 30
0.0
 11
51.1116631124
 21
115.7972436084
 31
0.0
  0
LINE
  5
3E6
330
1F
100
AcDbEntity
  8
0
  6
SLD-Durchgehend
 62
     7
370
    15
100
AcDbLine
 10
58.1613652203
 20
115.5171919998
 30
0.0
 11
51.066192219
 21
115.5171919998
 31
0.0
  0
LINE
  5
3E7
330
1F
100
AcDbEntity
  8
0
  6
SLD-Durchgehend
 62
     7
370
    15
100
AcDbLine
 10
58.1613652203
 20
112.0472435758
 30
0.0
 11
51.066192219
 21
112.0472435758
 31
0.0
  0
LINE
  5
3E8
330
1F
100
AcDbEntity
  8
0
  6
SLD-Durchgehend
 62
     7
370
    15
100
AcDbLine
 10
58.2802722957
 20
111.7671919673
 30
0.0
 11
51.1116631124
 21
111.7671919673
 31
0.0
  0
LINE
  5
3E9
330
1F
100
AcDbEntity
  8
0
  6
SLD-Durchgehend
 62
     7
370
    15
100
AcDbLine
 10
57.8614015858
 20
114.2671920278
 30
0.0
 11
50.9468944538
 21
114.2671920278
 31
0.0
  0
LINE
  5
3EA
330
1F
100
AcDbEntity
  8
0
  6
SLD-Durchgehend
 62
     7
370
    15
100
AcDbLine
 10
57.8981958125
 20
113.0171919975
 30
0.0
 11
50.9618766401
 21
113.0171919975
 31
0.0
  0
LINE
  5
3EB
330
1F
100
AcDbEntity
  8
0
  6
SLD-Durchgehend
 62
     7
370
    15
100
AcDbLine
 10
57.8614015858
 20
113.2972435479
 30
0.0
 11
50.9468944538
 21
113.2972435479
 31
0.0
  0
LINE
  5
3EC
330
1F
100
AcDbEntity
  8
0
  6
SLD-Durchgehend
 62
     7
370
    15
100
AcDbLine
 10
53.7542490083
 20
120.7972434967
 30
0.0
 11
53.2731100712
 21
120.7972434967
 31
0.0
  0
LINE
  5
3ED
330
1F
100
AcDbEntity
  8
0
  6
SLD-Durchgehend
 62
     7
370
    15
100
AcDbLine
 10
53.4816564787
 20
119.5472437574
 30
0.0
 11
52.4557543713
 21
119.5472437574
 31
0.0
  0
LINE
  5
3EE
330
1F
100
AcDbEntity
  8
0
  6
SLD-Durchgehend
 62
     7
370
    15
100
AcDbLine
 10
53.6714758519
 20
118.2972435525
 30
0.0
 11
51.8431117553
 21
118.2972435525
 31
0.0
  0
LINE
  5
3EF
330
1F
100
AcDbEntity
  8
0
  6
SLD-Durchgehend
 62
     7
370
    15
100
AcDbLine
 10
54.3665852193
 20
121.7671922094
 30
0.0
 11
54.0852196309
 21
121.7671922094
 31
0.0
  0
LINE
  5
3F0
330
1F
100
AcDbEntity
  8
0
  6
SLD-Durchgehend
 62
     7
370
    15
100
AcDbLine
 10
53.7818198818
 20
109.5472435153
 30
0.0
 11
51.7301898245
 21
109.5472435153
 31
0.0
  0
LINE
  5
3F1
330
1F
100
AcDbEntity
  8
0
  6
SLD-Durchgehend
 62
     7
370
    15
100
AcDbLine
 10
53.6714758519
 20
109.2671920231
 30
0.0
 11
51.8431117553
 21
109.2671920231
 31
0.0
  0
LINE
  5
3F2
330
1F
100
AcDbEntity
  8
0
  6
SLD-Durchgehend
 62
     7
370
    15
100
AcDbLine
 10
53.4842073712
 20
119.2671917996
 30
0.0
 11
52.302185798
 21
119.2671917996
 31
0.0
  0
LINE
  5
3F3
330
1F
100
AcDbEntity
  8
0
  6
SLD-Durchgehend
 62
     7
370
    15
100
AcDbLine
 10
54.4247630778
 20
117.0472435805
 30
0.0
 11
51.4016434345
 21
117.0472435805
 31
0.0
  0
LINE
  5
3F4
330
1F
100
AcDbEntity
  8
0
  6
SLD-Durchgehend
 62
     7
370
    15
100
AcDbLine
 10
54.4247630778
 20
110.5171919952
 30
0.0
 11
51.4016434345
 21
110.5171919952
 31
0.0
  0
LINE
  5
3F5
330
1F
100
AcDbEntity
  8
0
  6
SLD-Durchgehend
 62
     7
370
    15
100
AcDbLine
 10
54.3665852193
 20
105.7972433663
 30
0.0
 11
54.0852196309
 21
105.7972433663
 31
0.0
  0
LINE
  5
3F6
330
1F
100
AcDbEntity
  8
0
  6
SLD-Durchgehend
 62
     7
370
    15
100
AcDbLine
 10
53.6501709167
 20
107.0472435712
 30
0.0
 11
53.069700839
 21
107.0472435712
 31
0.0
  0
LINE
  5
3F7
330
1F
100
AcDbEntity
  8
0
  6
SLD-Durchgehend
 62
     7
370
    15
100
AcDbLine
 10
53.7818198818
 20
118.0171920604
 30
0.0
 11
51.7301898245
 21
118.0171920604
 31
0.0
  0
LINE
  5
3F8
330
1F
100
AcDbEntity
  8
0
  6
SLD-Durchgehend
 62
     7
370
    15
100
AcDbLine
 10
53.7542490083
 20
106.767192079
 30
0.0
 11
53.2731100712
 21
106.767192079
 31
0.0
  0
LINE
  5
3F9
330
1F
100
AcDbEntity
  8
0
  6
SLD-Durchgehend
 62
     7
370
    15
100
AcDbLine
 10
53.4842073712
 20
108.2972437761
 30
0.0
 11
52.302185798
 21
108.2972437761
 31
0.0
  0
LINE
  5
3FA
330
1F
100
AcDbEntity
  8
0
  6
SLD-Durchgehend
 62
     7
370
    15
100
AcDbLine
 10
53.4816564787
 20
108.0171918182
 30
0.0
 11
52.4557543713
 21
108.0171918182
 31
0.0
  0
LINE
  5
3FB
330
1F
100
AcDbEntity
  8
0
  6
SLD-Durchgehend
 62
     7
370
    15
100
AcDbLine
 10
53.6501709167
 20
120.5171920045
 30
0.0
 11
53.069700839
 21
120.5171920045
 31
0.0
  0
CIRCLE
  5
3FC
330
1F
100
AcDbEntity
  8
0
  6
SLD-Durchgehend
 62
     7
370
    15
100
AcDbCircle
 10
62.6368386466
 20
113.7822177878
 30
0.0
 40
3.299999999999976
  0
CIRCLE
  5
3FD
330
1F
100
AcDbEntity
  8
0
  6
SLD-Durchgehend
 62
     7
370
    15
100
AcDbCircle
 10
62.6368386466
 20
113.7822177878
 30
0.0
 40
2.999999999999993
  0
CIRCLE
  5
3FE
330
1F
100
AcDbEntity
  8
0
  6
SLD-Durchgehend
 62
     7
370
    15
100
AcDbCircle
 10
62.6368386466
 20
113.7822177878
 30
0.0
 40
31.49999999999999
  0
INSERT
  5
40A
330
1F
100
AcDbEntity
  8
VERMASSUNG
100
AcDbBlockReference
  2
SW_CENTERMARKSYMBOL_0
 10
62.6368386466
 20
113.7822177878
 30
0.0
  0
OLE2FRAME
  5
40B
330
1F
100
AcDbEntity
  8
0
100
AcDbOle2Frame
 70
     2
  3
Paintbrush-Bild
 10
13.8511154363
 20
38.264191557
 30
0.0
 11
51.6290888628
 21
31.9806341108
 31
0.0
 71
     2
 72
     0
 73
     1
 90
    12928
310
80552BED0767C5B32B40DDAF6807D121434000000000000000006FFBDDFB85D0
310
4940DDAF6807D121434000000000000000006FFBDDFB85D04940416F4BD60AFB
310
3F4000000000000000002BED0767C5B32B40416F4BD60AFB3F40000000000000
310
0000000000000100000000010000010000000100000000000100000000320000
310
D0CF11E0A1B11AE1000000000000000000000000000000003E000300FEFF0900
310
0600000000000000000000000100000001000000000000000010000002000000
310
01000000FEFFFFFF0000000000000000FFFFFFFFFFFFFFFFFFFFFFFFFFFFFFFF
310
FFFFFFFFFFFFFFFFFFFFFFFFFFFFFFFFFFFFFFFFFFFFFFFFFFFFFFFFFFFFFFFF
310
FFFFFFFFFFFFFFFFFFFFFFFFFFFFFFFFFFFFFFFFFFFFFFFFFFFFFFFFFFFFFFFF
310
FFFFFFFFFFFFFFFFFFFFFFFFFFFFFFFFFFFFFFFFFFFFFFFFFFFFFFFFFFFFFFFF
310
FFFFFFFFFFFFFFFFFFFFFFFFFFFFFFFFFFFFFFFFFFFFFFFFFFFFFFFFFFFFFFFF
310
FFFFFFFFFFFFFFFFFFFFFFFFFFFFFFFFFFFFFFFFFFFFFFFFFFFFFFFFFFFFFFFF
310
FFFFFFFFFFFFFFFFFFFFFFFFFFFFFFFFFFFFFFFFFFFFFFFFFFFFFFFFFFFFFFFF
310
FFFFFFFFFFFFFFFFFFFFFFFFFFFFFFFFFFFFFFFFFFFFFFFFFFFFFFFFFFFFFFFF
310
FFFFFFFFFFFFFFFFFFFFFFFFFFFFFFFFFFFFFFFFFFFFFFFFFFFFFFFFFFFFFFFF
310
FFFFFFFFFFFFFFFFFFFFFFFFFFFFFFFFFFFFFFFFFFFFFFFFFFFFFFFFFFFFFFFF
310
FFFFFFFFFFFFFFFFFFFFFFFFFFFFFFFFFFFFFFFFFFFFFFFFFFFFFFFFFFFFFFFF
310
FFFFFFFFFFFFFFFFFFFFFFFFFFFFFFFFFFFFFFFFFFFFFFFFFFFFFFFFFFFFFFFF
310
FFFFFFFFFFFFFFFFFFFFFFFFFFFFFFFFFFFFFFFFFFFFFFFFFFFFFFFFFFFFFFFF
310
FFFFFFFFFFFFFFFFFFFFFFFFFFFFFFFFFFFFFFFFFFFFFFFFFFFFFFFFFFFFFFFF
310
FDFFFFFFFEFFFFFFFEFFFFFFFEFFFFFF05000000060000000700000008000000
310
090000000A0000000B0000000C0000000D0000000E0000000F00000010000000
310
11000000120000001300000014000000150000001600000017000000FEFFFFFF
310
FFFFFFFFFFFFFFFFFFFFFFFFFFFFFFFFFFFFFFFFFFFFFFFFFFFFFFFFFFFFFFFF
310
FFFFFFFFFFFFFFFFFFFFFFFFFFFFFFFFFFFFFFFFFFFFFFFFFFFFFFFFFFFFFFFF
310
FFFFFFFFFFFFFFFFFFFFFFFFFFFFFFFFFFFFFFFFFFFFFFFFFFFFFFFFFFFFFFFF
310
FFFFFFFFFFFFFFFFFFFFFFFFFFFFFFFFFFFFFFFFFFFFFFFFFFFFFFFFFFFFFFFF
310
FFFFFFFFFFFFFFFFFFFFFFFFFFFFFFFFFFFFFFFFFFFFFFFFFFFFFFFFFFFFFFFF
310
FFFFFFFFFFFFFFFFFFFFFFFFFFFFFFFFFFFFFFFFFFFFFFFFFFFFFFFFFFFFFFFF
310
FFFFFFFFFFFFFFFFFFFFFFFFFFFFFFFFFFFFFFFFFFFFFFFFFFFFFFFFFFFFFFFF
310
FFFFFFFFFFFFFFFFFFFFFFFFFFFFFFFFFFFFFFFFFFFFFFFFFFFFFFFFFFFFFFFF
310
FFFFFFFFFFFFFFFFFFFFFFFFFFFFFFFFFFFFFFFFFFFFFFFFFFFFFFFFFFFFFFFF
310
FFFFFFFFFFFFFFFFFFFFFFFFFFFFFFFFFFFFFFFFFFFFFFFFFFFFFFFFFFFFFFFF
310
FFFFFFFFFFFFFFFFFFFFFFFFFFFFFFFFFFFFFFFFFFFFFFFFFFFFFFFFFFFFFFFF
310
FFFFFFFFFFFFFFFFFFFFFFFFFFFFFFFFFFFFFFFFFFFFFFFFFFFFFFFFFFFFFFFF
310
FFFFFFFFFFFFFFFFFFFFFFFFFFFFFFFFFFFFFFFFFFFFFFFFFFFFFFFFFFFFFFFF
310
52006F006F007400200045006E00740072007900000000000000000000000000
310
0000000000000000000000000000000000000000000000000000000000000000
310
16000500FFFFFFFFFFFFFFFF020000000A00030000000000C000000000000046
310
000000000000000000000000600D58699488D00103000000C000000000000000
310
01004F006C006500000000000000000000000000000000000000000000000000
310
0000000000000000000000000000000000000000000000000000000000000000
310
0A000200FFFFFFFFFFFFFFFFFFFFFFFF00000000000000000000000000000000
310
0000000000000000000000000000000000000000000000001400000000000000
310
010043006F006D0070004F0062006A0000000000000000000000000000000000
310
0000000000000000000000000000000000000000000000000000000000000000
310
120002010100000003000000FFFFFFFF00000000000000000000000000000000
310
0000000000000000000000000000000000000000010000004D00000000000000
310
01004F006C006500310030004E00610074006900760065000000000000000000
310
0000000000000000000000000000000000000000000000000000000000000000
310
1A000200FFFFFFFFFFFFFFFFFFFFFFFF00000000000000000000000000000000
310
0000000000000000000000000000000000000000040000002426000000000000
310
FEFFFFFF02000000FEFFFFFFFFFFFFFFFFFFFFFFFFFFFFFFFFFFFFFFFFFFFFFF
310
FFFFFFFFFFFFFFFFFFFFFFFFFFFFFFFFFFFFFFFFFFFFFFFFFFFFFFFFFFFFFFFF
310
FFFFFFFFFFFFFFFFFFFFFFFFFFFFFFFFFFFFFFFFFFFFFFFFFFFFFFFFFFFFFFFF
310
FFFFFFFFFFFFFFFFFFFFFFFFFFFFFFFFFFFFFFFFFFFFFFFFFFFFFFFFFFFFFFFF
310
FFFFFFFFFFFFFFFFFFFFFFFFFFFFFFFFFFFFFFFFFFFFFFFFFFFFFFFFFFFFFFFF
310
FFFFFFFFFFFFFFFFFFFFFFFFFFFFFFFFFFFFFFFFFFFFFFFFFFFFFFFFFFFFFFFF
310
FFFFFFFFFFFFFFFFFFFFFFFFFFFFFFFFFFFFFFFFFFFFFFFFFFFFFFFFFFFFFFFF
310
FFFFFFFFFFFFFFFFFFFFFFFFFFFFFFFFFFFFFFFFFFFFFFFFFFFFFFFFFFFFFFFF
310
FFFFFFFFFFFFFFFFFFFFFFFFFFFFFFFFFFFFFFFFFFFFFFFFFFFFFFFFFFFFFFFF
310
FFFFFFFFFFFFFFFFFFFFFFFFFFFFFFFFFFFFFFFFFFFFFFFFFFFFFFFFFFFFFFFF
310
FFFFFFFFFFFFFFFFFFFFFFFFFFFFFFFFFFFFFFFFFFFFFFFFFFFFFFFFFFFFFFFF
310
FFFFFFFFFFFFFFFFFFFFFFFFFFFFFFFFFFFFFFFFFFFFFFFFFFFFFFFFFFFFFFFF
310
FFFFFFFFFFFFFFFFFFFFFFFFFFFFFFFFFFFFFFFFFFFFFFFFFFFFFFFFFFFFFFFF
310
FFFFFFFFFFFFFFFFFFFFFFFFFFFFFFFFFFFFFFFFFFFFFFFFFFFFFFFFFFFFFFFF
310
FFFFFFFFFFFFFFFFFFFFFFFFFFFFFFFFFFFFFFFFFFFFFFFFFFFFFFFFFFFFFFFF
310
FFFFFFFFFFFFFFFFFFFFFFFFFFFFFFFFFFFFFFFFFFFFFFFFFFFFFFFFFFFFFFFF
310
0100000200000000000000000000000000000000000000000000000000000000
310
0000000000000000000000000000000000000000000000000000000000000000
310
0100FEFF030A0000FFFFFFFF0A00030000000000C00000000000004607000000
310
5042727573680007000000504272757368000700000050427275736800F439B2
310
7100000000000000000000000000000000000000000000000000000000000000
310
0000000000000000000000000000000000000000000000000000000000000000
310
0000000000000000000000000000000000000000000000000000000000000000
310
0000000000000000000000000000000000000000000000000000000000000000
310
0000000000000000000000000000000000000000000000000000000000000000
310
0000000000000000000000000000000000000000000000000000000000000000
310
0000000000000000000000000000000000000000000000000000000000000000
310
0000000000000000000000000000000000000000000000000000000000000000
310
0000000000000000000000000000000000000000000000000000000000000000
310
0000000000000000000000000000000000000000000000000000000000000000
310
0000000000000000000000000000000000000000000000000000000000000000
310
0000000000000000000000000000000000000000000000000000000000000000
310
20260000424D0E260000000000003E00000028000000B40200006E0000000100
310
01000000000000000000130B0000130B00000200000002000000000000FFFFFF
310
FFFFFFFFFFFFFFFFFFFFFFFFFFFFFFFFFFFFFFFFFFFFFFFFFFFFFFFFFFFFFFFF
310
FFFFFFFFFFFFFFFFFFFFFFFFFFFFFFFFFFFFFFFFFFFFFFFFFFFFFFFFFFFFFFFF
310
FFFFFFFFFFFFFFFFFFFFFFFFFFFFFFFFFFFFFFFFFFFFFFFFF000FFFFFFFFFFFF
310
FFFFFFFFFFFFFFFFFFFFFFFFFFFFFFFFFFFFFFFFFFFFFFFFFFFFFFFFFFFFFFFF
310
FFFFFFFFFFFFFFFFFFFFFFFFFFFFFFFFFFFFFFFFFFFFFFFFFFFFFFFFFFFFFFFF
310
FFFFFFFFFFFFFFFFFFFFFFFFFFFFFFFFF000FFFFFFFFFFFFFFFFFFFFFFFFFFFF
310
FFFFFFFFFFFFFFFFFFFFFFFFFFFFFFFFFFFFFFFFFFFFFFFFFFFFFFFFFFFFFFFF
310
FFFFFFFFFFFFFFFFFFFFFFFFFFFFFFFFFFFFFFFFFFFFFFFFFFFFFFFFFFFFFFFF
310
FFFFFFFFFFFFFFFFF000FFFFFFFFFFFFFFFFFFFFFFFFFFFFFFFFFFFFFFFFFFFF
310
FFFFFFFFFFFFFFFFFFFFFFFFFFFFFFFFFFFFFFFFFFFFFFFFFFFFFFFFFFFFFFFF
310
FFFFFFFFFFFFFFFFFFFFFFFFFFFFFFFFFFFFFFFFFFFFFFFFFFFFFFFFFFFFFFFF
310
F000FFFFFFFFFFFFFFFFFFFFFFFFFFFFFFFFFFFFFFFFFFFFFFFFFFFFFFFFFFFF
310
FFFFFFFFFFFFFFFFFFFFFFFFFFFFFFFFFFFFFFFFFFFFFFFFFFFFFFFFFFFFFFFF
310
FFFFFFFFFFFFFFFFFFFFFFFFFFFFFFFFFFFFFFFFFFFFFFFFF000FFFFFFFFFFFF
310
FFFFFFFFFFFFFFFFFFFFFFFFFFFFFFFFFFFFFFFFFFFFFFFFFFFFFFFFFFFFFFFF
310
FFFFFFFFFFFFFFFFFFFFFFFFFFFFFFFFFFFFFFFFFFFFFFFFFFFFFFFFFFFFFFFF
310
FFFFFFFFFFFFFFFFFFFFFFFFFFFFFFFFF000FFFFFFFFFFFFFFFFFFFFFFFFFFFF
310
FFFFFFFFFFFFFFFFFFFFFFFFFFFFFFFFFFFFFFFFFFFFFFFFFFFFFFFFFFFFFFFF
310
FFFFFFFFFFFFFFFFFFFFFFFFFFFFFFFFFFFFFFFFFFFFFFFFFFFFFFFFFFFFFFFF
310
FFFFFFFFFFFFFFFFF000FFFFFFFFFFFFFFFFFFFFFFFFFFFFFFFFFFFFFFFFFFFF
310
FFFFFFFFFFFFFFFFFFFFFFFFFFFFFFFFFFFFFFFFFFFFFFFFFFFFFFFFFFFFFFFF
310
FFFFFFFFFFFFFFFFFFFFFFFFFFFFFFFFFFFFFFFFFFFFFFFFFFFFFFFFFFFFFFFF
310
F000FFFFFFFFFFFFFFFFFFFFFFFFFFFFFFFFFFFFFFFFFFFFFFFFFFFFFFFFFFFF
310
FFFFFFFFFFFFFFFFFFFFFFFFFFFFFFFFFFFFFFFFFFFFFFFFFFFFFFFFFFFFFFFF
310
FFFFFFFFFFFFFFFFFFFFFFFFFFFFFFFFFFFFFFFFFFFFFFFFF000FFFFFFFFFFFF
310
FFFFFFFFFFFFFFFFFFFFFFFFFFFFFFFFFFFFFFFFFFFFFFFFFFFFFFFFFFFFFFFF
310
FFFFFFFFFFFFFFFFFFFFFFFFFFFFFFFFFFFFFFFFFFFFFFFFFFFFFFFFFFFFFFFF
310
FFFFFFFFFFFFFFFFFFFFFFFFFFFFFFFFF000FFFFFFFFFFFFFFFFFFFFFFFFFFFF
310
FFFFFFFFFFFFFFFFFFFFFFFFFFFFFFFFFFFFFFFFFFFFFFFFFFFFFFFFFFFFFFFF
310
FFFFFFFFFFFFFFFFFFFFFFFFFFFFFFFFFFFFFFFFFFFFFFFFFFFFFFFFFFFFFFFF
310
FFFFFFFFFFFFFFFFF000FFFFFFFFFFFFFFFFFFFFFFFFFFFFFFFFFFFFFFFFFFFF
310
FFFFFFFFFFFFFFFFFFFFFFFFFFFFFFFFFFFFFFFFFFFFFFFFFFFFFFFFFFFFFFFF
310
FFFFFFFFFFFFFFFFFFFFFFFFFFFFFFFFFFFFFFFFFFFFFFFFFFFFFFFFFFFFFFFF
310
F000FFFFFFFFFFFFFFFFFFFFFFFFFFFFFFFFFFFFFFFFFFFFFFFFFFFFFFFFFFFF
310
FFFFFFFFFFFFFFFFFFFFFFFFFFFFFFFFFFFFFFFFFFFFFFFFFFFFFFFFFFFFFFFF
310
FFFFFFFFFFFFFFFFFFFFFFFFFFFFFFFFFFFFFFFFFFFFFFFFF000FFFFFFFFFFFF
310
FFFFFFFFFFFFFFFFFFFFFFFFFFFFFFFFFFFFFFFFFFFFFFFFFFFFFFFFFFFFFFFF
310
FFFFFFFFFFFFFFFFFFFFFFFFFFFFFFFFFFFFFFFFFFFFFFFFFFFFFFFFFFFFFFFF
310
FFFFFFFFFFFFFFFFFFFFFFFFFFFFFFFFF000FFFFFFFFFFFFFFFFFFFFFFFFFFFF
310
FFFFFFFFFFFFFFFFFFFFFFFFFFFFFFFFFFFFFFFFFFFFFFFFFFFFFFFFFFFFFFFF
310
FFFFFFFFFFFFFFFFFFFFFFFFFFFFFFFFFFFFFFFFFFFFFFFFFFFFFFFFFFFFFFFF
310
FFFFFFFFFFFFFFFFF000FFFFFFFFFFFFFFFFFFFFFFFFFFFFFFFFFFFFFFFFFFFF
310
FFFFFFFFFFFFFFFFFFFFFFFFFFFFFFFFFFFFFFFFFFFFFFFFFFFFFFFFFFFFFFFF
310
FFFFFFFFFFFFFFFFFFFFFFFFFFFFFFFFFFFFFFFFFFFFFFFFFFFFFFFFFFFFFFFF
310
F000FFFFFFFFFFFFFFFFFFFFFFFFFFFFFFFFFFFFFFFFFFFFFFFFFFFFFFFFFFFF
310
FFFFFFFFFFFFFFFFFFFFFFFFFFFFFFFFFFFFFFFFFFFFFFFFFFFFFFFFFFFFFFFF
310
FFFFFFFFFFFFFFFFFFFFFFFFFFFFFFFFFFFFFFFFFFFFFFFFF000FFFFFFFFFFFF
310
FFFFFFFFFFFFFFFFFFFFFFFFFFFFFFFFFFFFFFFFFFFFFFFFFFFFFFFFFFFFFFFF
310
FFFFFFFFFFFFFFFFFFFFFFFFFFFFFFFFFFFFFFFFFFFFFFFFFFFFFFFFFFFFFFFF
310
FFFFFFFFFFFFFFFFFFFFFFFFFFFFFFFFF000FFFFFFFFFFFFFFFFFFFFFFFFFFFF
310
FFFFFFFFFFFFFFFFFFFFFFFFFFFFFFFFFFFFFFFFFFFFFFFFFFFFFFFFFFFFFFFF
310
FFFFFFFFFFFFFFFFFFFFFFFFFFFFFFFFFFFFFFFFFFFFFFFFFFFFFFFFFFFFFFFF
310
FFFFFFFFFFFFFFFFF000FFFFF80003FFFFFFFFFFFFFFFFFFFFFFFFFFFFFFFFFF
310
FFFFF00007FFFFFFFFFF00007FFFFFF800000000000000007FFFFFFFFFFFFFFF
310
FFFFFFFC001FFFFFFFFFFFFFFC001FFFFFFFFFFFFFFFFFFFFFFFFFFE0007FFFF
310
F000FFFF8000007FFFFFFFF8000FFFFFC0007FFFFF80007FFFFF0000007FFFFF
310
FFF8000007FFFFF800000000000000007FFFFFF0001FFFFFFFFFFFC00001FFFF
310
FFFFFFFFC00001FFFFFFFF000000000003FFFFE000007FFFF000FFFE0000000F
310
FFFFFFF0000FFFFF80007FFFFF80007FFFFC0000001FFFFFFFC0000001FFFFF8
310
00000000000000007FFFFFF0001FFFFFFFFFFE0000003FFFFFFFFFFE0000003F
310
FFFFFF000000000003FFFF0000000FFFF000FFF800000003FFFFFFF00007FFFF
310
80007FFFFF80007FFFF000000007FFFFFF000000003FFFF80000000000000000
310
7FFFFFF0001FFFFFFFFFF80000000FFFFFFFFFF80000000FFFFFFF0000000000
310
03FFFC00000003FFF000FFE000000000FFFFFFF00007FFFF80003FFFFF80007F
310
FFC000000001FFFFFC000000001FFFF800000000000000007FFFFFF0001FFFFF
310
FFFFE000000003FFFFFFFFE000000003FFFFFF000000000003FFF000000000FF
310
F000FF80000000007FFFFFF00007FFFF80003FFFFF80007FFF8000000000FFFF
310
F80000000007FFF800000000000000007FFFFFF0001FFFFFFFFFC000000001FF
310
FFFFFFC000000001FFFFFF000000000003FFC0000000007FF000FF0000000000
310
3FFFFFE00007FFFF00003FFFFF80007FFE00000000003FFFF00000000003FFF8
310
00000000000000007FFFFFF0001FFFFFFFFF8000000000FFFFFFFF8000000000
310
FFFFFF000000000003FF80000000003FF000FE00000000001FFFFFE00003FFFF
310
00003FFFFF80007FFC00000000001FFFE00000000001FFF8000001FFFE000000
310
7FFFFFF0001FFFFFFFFE00000000003FFFFFFE00000000003FFFFF0000000000
310
03FF00000000001FF000FC00000000000FFFFFE00003FFFF00001FFFFF80007F
310
F800000000001FFFC00000000000FFF8000001FFFE0000007FFFFFF0001FFFFF
310
FFFC00000000001FFFFFFC00000000001FFFFF000000000003FE00000000000F
310
F000F8000000000007FFFFE00003FFFF00001FFFFF80007FF800000000000FFF
310
800000000000FFF8000001FFFE0000007FFFFFF0001FFFFFFFF800000000000F
310
FFFFF800000000000FFFFF000000000003FC000000000007F000F80000000000
310
03FFFFC00003FFFE00001FFFFF80007FF0000000000007FF0000000000007FF8
310
000001FFFE0000007FFFFFF0001FFFFFFFF0000000000007FFFFF00000000000
310
07FFFF000000000003F8000000000003F000F0000000000003FFFFC00001FFFE
310
00001FFFFF80007FE0000000000007FE0000000000003FF8000001FFFE000000
310
7FFFFFF0001FFFFFFFF0000000000007FFFFF0000000000007FFFF0000000000
310
03F800001F800003F000E00001FFF00001FFFFC00001FFFE00000FFFFF80007F
310
E00001FFE00003FE00001FFF00003FF8000001FFFE0000007FFFFFF0001FFFFF
310
FFE000003E000003FFFFE000003E000003FFFF000000000003F00001FFF80001
310
F000E00007FFFC0001FFFFC00001FFFE00000FFFFF80007FC0000FFFFC0003FC
310
0000FFFFC0001FF8000001FFFE0000007FFFFFF0001FFFFFFFC00003FFE00001
310
FFFFC00003FFE00001FFFF0001FFFFFFFFF00007FFFE0001F000E0000FFFFF00
310
00FFFF800001FFFC00000FFFFF80007FC0001FFFFE0001FC0001FFFFE0001FF8
310
000001FFFE0000007FFFFFF0001FFFFFFF80000FFFF80000FFFF80000FFFF800
310
00FFFF0003FFFFFFFFE0000FFFFF8000F000C0003FFFFF8000FFFF800000FFFC
310
000007FFFF80007F80003FFFFF0001FC0003FFFFF0001FF8000001FFFE000000
310
7FFFFFF0001FFFFFFF80003FFFFE0000FFFF80003FFFFE0000FFFF0003FFFFFF
310
FFE0003FFFFF8000F000C0003FFFFF8000FFFF800000FFFC000007FFFF80007F
310
80007FFFFF8001F80007FFFFF8000FF8000001FFFE0000007FFFFFF0001FFFFF
310
FF00007FFFFF00007FFF00007FFFFF00007FFF0003FFFFFFFFE0003FFFFFC000
310
F000C0007FFFFFC000FFFF000000FFFC000007FFFF80007F8000FFFFFF8000F8
310
000FFFFFF8000FF8000001FFFE0000007FFFFFF0001FFFFFFF0000FFFFFF8000
310
7FFF0000FFFFFF80007FFF0003FFFFFFFFC0007FFFFFC00070008000FFFFFFC0
310
00FFFF000000FFF8000007FFFF80007F8000FFFFFF8000F8000FFFFFF8000FF8
310
000001FFFE0000007FFFFFF0001FFFFFFE0001FFFFFFC0003FFE0001FFFFFFC0
310
003FFF0003FFFFFFFFC0007FFFFFE00070008000FFFFFFC0007FFF0000007FF8
310
000003FFFF80007F0001FFFFFF8000F8000FFFFFF8000FF8000001FFFE000000
310
7FFFFFF0001FFFFFFE0001FFFFFFC0003FFE0001FFFFFFC0003FFF0003FFFFFF
310
FFC000FFFFFFE00070008000FFFFFFC0007FFF0000007FF8000003FFFF80007F
310
0001FFFFFF8000F8001FFFFFF8000FF8000001FFFE0000007FFFFFF0001FFFFF
310
FE0003FFFFFFE0003FFE0003FFFFFFE0003FFF0003FFFFFFFFC000FFFFFFE000
310
70008000FFFFFFC0007FFE0000007FF8000003FFFF80007F0001FFFFFF8000F0
310
001FFFFFF8000FF8000001FFFE0000007FFFFFF0001FFFFFFC0003FFFFFFE000
310
1FFC0003FFFFFFE0001FFF0003FFFFFFFFC000FFFFFFC00070008000FFFFFF80
310
007FFE0000007FF0000003FFFF80007F0001FFFFFF0000F0001FFFFFF8000FF8
310
000001FFFE0000007FFFFFF0001FFFFFFC0007FFFFFFF0001FFC0007FFFFFFF0
310
001FFF0003FFFFFFFFC000FFFFFFC00070008001FFFFFF0000FFFE0000003FF0
310
000001FFFF80007F0001FFFFFF0000F8001FFFFFF0000FF8000001FFFE000000
310
7FFFFFF0001FFFFFFC0007FFFFFFF0001FFC0007FFFFFFF0001FFF0003FFFFFF
310
FFC001FFFFFF80007000FFFFFFFFFE0000FFFE0008003FF0008001FFFF80007F
310
FFFFFFFFFC0000FFFFFFFFFFE0000FF8000001FFFE0000007FFFFFF0001FFFFF
310
F8000FFFFFFFF8000FF8000FFFFFFFF8000FFF0003FFFFFFFFFFFFFFFFFF0000
310
7000FFFFFFFFFC0000FFFC0008003FF0008001FFFF80007FFFFFFFFFF80001FF
310
FFFFFFFF80000FF8000001FFFE0000007FFFFFF0001FFFFFF8000FFFFFFFF800
310
0FF8000FFFFFFFF8000FFF0003FFFFFFFFFFFFFFFFFE0000F000FFFFFFFFE000
310
00FFFC000C003FE000C001FFFF80007FFFFFFFFFC00001FFFFFFFFFE00001FF8
310
000001FFFE0000007FFFFFF0001FFFFFF8000FFFFFFFF8000FF8000FFFFFFFF8
310
000FFF0003FFFFFFFFFFFFFFFFF00000F000FFFFFFFE000001FFFC000C001FE0
310
00C000FFFF80007FFFFFFFFE000001FFFFFFFFE000001FF80FFFFFFFFFFFFFC0
310
7FFFFFF0001FFFFFF8000FFFFFFFF8000FF8000FFFFFFFF8000FFF0003FFFFFF
310
FFFFFFFFFF800000F000FFFFFFC0000001FFFC001C001FE001C000FFFF80007F
310
FFFFFF80000003FFFFFFF80000001FF80FFFFFFFFFFFFFC07FFFFFF0001FFFFF
310
F8001FFFFFFFFC000FF8001FFFFFFFFC000FFF0003FFFFFFFFFFFFFFF0000001
310
F000FFFFF800000001FFF8001C001FE001C000FFFF80007FFFFFF800000003FF
310
FFFF800000003FF80FFFFFFFFFFFFFC07FFFFFF0001FFFFFF8001FFFFFFFFC00
310
0FF8001FFFFFFFFC000FFF0003FFFFFFFFFFFFFE00000001F000FFFFC0000000
310
03FFF8001E001FC001E000FFFF80007FFFFF8000000007FFFFFC000000003FF8
310
0FFFFFFFFFFFFFC07FFFFFF0001FFFFFF8001FFFFFFFFC000FF8001FFFFFFFFC
310
000FFF0003FFFFFFFFFFFFE000000003F000FFFE0000000007FFF8001E000FC0
310
01E0007FFF80007FFFFE0000000007FFFFE0000000007FF80FFFFFFFFFFFFFC0
310
7FFFFFF0001FFFFFF0001FFFFFFFFC0007F0001FFFFFFFFC0007FF0003FFFFFF
310
FFFFFF0000000003F000FFF80000000007FFF8001E000FC003E0007FFF80007F
310
FFF0000000000FFFFF8000000000FFF80FFFFFFFFFFFFFC07FFFFFF0001FFFFF
310
F0001FFFFFFFFC0007F0001FFFFFFFFC0007FF0003FFFFFFFFFFFC0000000007
310
F000FFE0000000000FFFF0003E000FC003E0007FFF80007FFFC0000000001FFF
310
FE0000000001FFF80FFFFFFFFFFFFFC07FFFFFF0001FFFFFF0001FFFFFFFFC00
310
07F0001FFFFFFFFC0007FF0003FFFFFFFFFFF0000000000FF000FFC000000000
310
1FFFF0003F000F8003F0003FFF80007FFF80000000003FFFF80000000003FFF8
310
0FFFFFFFFFFFFFC07FFFFFF0001FFFFFF0001FFFFFFFFC0007F0001FFFFFFFFC
310
0007FF0003FFFFFFFFFFE0000000001FF000FF00000000007FFFF0003F000780
310
03F0003FFF80007FFF00000000007FFFF00000000007FFF80FFFFFFFFFFFFFC0
310
7FFFFFF0001FFFFFF0001FFFFFFFFC0007F0001FFFFFFFFC0007FF0003FFFFFF
310
FFFF80000000007FF000FE0000000000FFFFE0003F00078007F0003FFF80007F
310
FE0000000001FFFFE0000000001FFFF80FFFFFFFFFFFFFC07FFFFFF0001FFFFF
310
F0001FFFFFFFFC0007F0001FFFFFFFFC0007FF0003FFFFFFFFFF0000000000FF
310
F000FC0000000003FFFFE0007F00078007F0003FFF80007FFC0000000007FFFF
310
C0000000007FFFF80FFFFFFFFFFFFFC07FFFFFF0001FFFFFF8001FFFFFFFFC00
310
0FF8001FFFFFFFFC000FFF0003FFFFFFFFFE0000000003FFF000FC000000000F
310
FFFFE0007F80070007F8001FFF80007FF8000000001FFFFF8000000001FFFFF8
310
0FFFFFFFFFFFFFC07FFFFFF0001FFFFFF8001FFFFFFFFC000FF8001FFFFFFFFC
310
000FFF0003FFFFFFFFFC000000000FFFF000F8000000007FFFFFE0007F800700
310
07F8001FFF80007FF000000000FFFFFF800000000FFFFFF80FFFFFFFFFFFFFC0
310
7FFFFFF0001FFFFFF8000FFFFFFFF8000FF8000FFFFFFFF8000FFF0003FFFFFF
310
FFFC000000007FFFF000F800000007FFFFFFC0007F8003000FF8001FFF80007F
310
F000000007FFFFFF000000007FFFFFF80FFFFFFFFFFFFFC07FFFFFF0001FFFFF
310
F8000FFFFFFFF8000FF8000FFFFFFFF8000FFF0003FFFFFFFFF80000000FFFFF
310
F000F0000000FFFFFFFFC000FF8003000FF8001FFF80007FE0000000FFFFFFFF
310
0000000FFFFFFFF8000001FFFE0000007FFFFFF0001FFFFFF8000FFFFFFFF800
310
0FF8000FFFFFFFF8000FFF0003FFFFFFFFF8000000FFFFFFF000F000000FFFFF
310
FFFFC000FFC002000FF8000FFF80007FE000001FFFFFFFFE000001FFFFFFFFF8
310
000001FFFE0000007FFFFFF0001FFFFFF8000FFFFFFFF8000FF8000FFFFFFFF8
310
000FFF0003FFFFFFFFF000001FFFFFFFF000E00000FFFFFFFFFFC000FFC00200
310
0FFC000FFF80007FE00001FFFFFFFFFE00001FFFFFFFFFF8000001FFFE000000
310
7FFFFFF0001FFFFFFC000FFFFFFFF8001FFC000FFFFFFFF8001FFF0003FFFFFF
310
FFF00001FFFFFFFFF000E00007FFFFFFFFFF8000FFC000001FFC000FFF80007F
310
C0000FFFFFFFFFFE0000FFFFFFFFFFF8000001FFFE0000007FFFFFF0001FFFFF
310
FC0007FFFFFFF0001FFC0007FFFFFFF0001FFF0003FFFFFFFFF00007FFFFFFFF
310
F000E0001FFFFFFFFFFF8000FFC000001FFC000FFF80007FC0003FFFFFFFFFFE
310
0001FFFFFFFFFFF8000001FFFE0000007FFFFFF0001FFFFFFC0007FFFFFFF000
310
1FFC0007FFFFFFF0001FFF0003FFFFFFFFF0001FFFFFFFFFF000E0003FFFFF00
310
03FF8001FFE000001FFC0007FF80007FC0007FFFFF0007FC0003FFFFF0003FF8
310
000001FFFE0000007FFFFFF0001FFFFFFC0003FFFFFFE0001FFC0003FFFFFFE0
310
001FFF0003FFFFFFFFF0003FFFFFFFFFF000E0003FFFFF0001FF8001FFE00000
310
1FFE0007FF80007FC0007FFFFE0003FC0007FFFFE0003FF8000001FFFE000000
310
7FFFFFF0001FFFFFFE0003FFFFFFE0003FFE0003FFFFFFE0003FFF0003FFFFFF
310
FFF0003FFFFF8001F000E0003FFFFF0001FF0001FFE000001FFE0007FF80007F
310
C0007FFFFE0003FC0007FFFFE0003FF8000001FFFE0000007FFFFFF0001FFFFF
310
FE0001FFFFFFC0003FFE0001FFFFFFC0003FFF0003FFFFFFFFF0003FFFFF0001
310
F000E0003FFFFF0003FF0001FFE000003FFE0007FF80007FC0007FFFFE0003FC
310
0007FFFFE0003FF8000001FFFE0000007FFFFFF0001FFFFFFF0001FFFFFFC000
310
7FFF0001FFFFFFC0007FFF0003FFFFFFFFF0003FFFFF0001F000E0003FFFFE00
310
03FF0003FFF000003FFE0003FF80007FC0007FFFFC0003FE0007FFFFE0003FF8
310
000001FFFE0000007FFFFFF0001FFFFFFF0000FFFFFF80007FFF0000FFFFFF80
310
007FFF0003FFFFFFFFF0003FFFFF0001F000E0003FFFFE0003FF0003FFF00000
310
3FFF0003FF80007FC0007FFFFC0007FE0007FFFFC0003FF8000001FFFE000000
310
7FFFFFF0001FFFFFFF80007FFFFF0000FFFF80007FFFFF0000FFFF0003FFFFFF
310
FFF0003FFFFF0003F000E0003FFFFC0003FE0003FFF000003FFF0003FF80007F
310
E0003FFFF80007FE0003FFFFC0007FF8000001FFFE0000007FFFFFF0001FFFFF
310
FF80003FFFFE0000FFFF80003FFFFE0000FFFF0003FFFFFFFFF0001FFFFE0003
310
F000F0001FFFF80003FE0003FFF000007FFF0001FF80007FE0003FFFF00007FE
310
0001FFFF80007FF8000001FFFE0000007FFFFFF0001FFFFFFFC0000FFFF80001
310
FFFFC0000FFFF80001FFFF0003FFFFFFFFF0001FFFFC0003F000F0000FFFF000
310
07FE0007FFF800007FFF0001FF80007FE0001FFFE00007FF0000FFFE00007FF8
310
000001FFFE0000007FFFFFF0001FFFFFFFC00003FFE00001FFFFC00003FFE000
310
01FFFF0003FFFFFFFFF8000FFFF80003F000F00003FFC00007FC0007FFF80000
310
7FFF8001FF80007FF00007FF80000FFF00007FF80000FFF8000001FFFE000000
310
7F80000000000001FFE000003E000003FFFFE000003E000003FFFF0003FFFFFF
310
FFF80003FFE00007F000F800000000000FFC0007FFF800007FFF8001FF80007F
310
F000000000000FFF000000000000FFF8000001FFFE0000007F80000000000001
310
FFF0000000000007FFFFF0000000000007FFFF0003FFFFFFFFFC00007E000007
310
F000F800000000000FFC0007FFF80000FFFF8000FF80007FF800000000001FFF
310
800000000001FFF8000001FFFE0000007F80000000000001FFF800000000000F
310
FFFFF800000000000FFFFF0003FFFFFFFFFC00000000000FF000FC0000000000
310
1FFC0007FFFC0000FFFF8000FF80007FF800000000003FFFC00000000001FFF8
310
000001FFFE0000007F80000000000001FFF800000000000FFFFFF80000000000
310
0FFFFF0003FFFFFFFFFE00000000001FF000FE00000000003FF8000FFFFC0000
310
FFFF8000FF80007FFC00000000003FFFC00000000003FFF8000001FFFE000000
310
7F80000000000001FFFC00000000001FFFFFFC00000000001FFFFF0003FFFFFF
310
FFFF00000000001FF000FF00000000003FF8000FFFFC0000FFFFC000FF80007F
310
FE00000000007FFFE00000000007FFF8000001FFFE0000007F80000000000001
310
FFFE00000000003FFFFFFE00000000003FFFFF0003FFFFFFFFFF80000000003F
310
F000FF80000000007FF8000FFFFC0001FFFFC0007F80007FFF0000000000FFFF
310
F0000000000FFFF800000000000000007F80000000000001FFFF8000000000FF
310
FFFFFF8000000000FFFFFF0003FFFFFFFFFFC0000000007FF000FFC000000000
310
FFF8000FFFFE0001FFFFC0007F80007FFF8000000001FFFFF8000000001FFFF8
310
00000000000000007F80000000000001FFFFC000000001FFFFFFFFC000000001
310
FFFFFF0003FFFFFFFFFFE000000000FFF000FFE000000003FFF0001FFFFE0001
310
FFFFC0007F80007FFFC000000007FFFFFE000000003FFFF80000000000000000
310
7F80000000000001FFFFE000000003FFFFFFFFE000000003FFFFFF0003FFFFFF
310
FFFFF000000003FFF000FFF80000000FFFF0001FFFFE0001FFFFE0007F80007F
310
FFF00000000FFFFFFF00000000FFFFF800000000000000007F80000000000001
310
FFFFF80000000FFFFFFFFFF80000000FFFFFFF0003FFFFFFFFFFFC0000000FFF
310
F000FFFE0000003FFFF0001FFFFE0003FFFFE0003F80007FFFFC0000003FFFFF
310
FFC0000003FFFFF800000000000000007F80000000000001FFFFFE0000003FFF
310
FFFFFFFE0000003FFFFFFF0003FFFFFFFFFFFF0000003FFFF000FFFF800000FF
310
FFF0001FFFFF0003FFFFE0003F80007FFFFF000001FFFFFFFFF800001FFFFFF8
310
00000000000000007F80000000000001FFFFFFC00001FFFFFFFFFFFFC00001FF
310
FFFFFF0003FFFFFFFFFFFFC00000FFFFF000FFFFF8000FFFFFFFFFFFFFFFFFFF
310
FFFFFFFFFFFFFFFFFFFFF0001FFFFFFFFFFF0000FFFFFFF80000000000000000
310
7FFFFFFFFFFFFFFFFFFFFFFC001FFFFFFFFFFFFFFC001FFFFFFFFFFFFFFFFFFF
310
FFFFFFFC001FFFFFF000FFFFFFFFFFFFFFFFFFFFFFFFFFFFFFFFFFFFFFFFFFFF
310
FFFFFFFFFFFFFFFFFFFFFFFFFFFFFFFFFFFFFFFFFFFFFFFFFFFFFFFFFFFFFFFF
310
FFFFFFFFFFFFFFFFFFFFFFFFFFFFFFFFFFFFFFFFFFFFFFFFFFFFFFFFFFFFFFFF
310
F000FFFFFFFFFFFFFFFFFFFFFFFFFFFFFFFFFFFFFFFFFFFFFFFFFFFFFFFFFFFF
310
FFFFFFFFFFFFFFFFFFFFFFFFFFFFFFFFFFFFFFFFFFFFFFFFFFFFFFFFFFFFFFFF
310
FFFFFFFFFFFFFFFFFFFFFFFFFFFFFFFFFFFFFFFFFFFFFFFFF000FFFFFFFFFFFF
310
FFFFFFFFFFFFFFFFFFFFFFFFFFFFFFFFFFFFFFFFFFFFFFFFFFFFFFFFFFFFFFFF
310
FFFFFFFFFFFFFFFFFFFFFFFFFFFFFFFFFFFFFFFFFFFFFFFFFFFFFFFFFFFFFFFF
310
FFFFFFFFFFFFFFFFFFFFFFFFFFFFFFFFF000FFFFFFFFFFFFFFFFFFFFFFFFFFFF
310
FFFFFFFFFFFFFFFFFFFFFFFFFFFFFFFFFFFFFFFFFFFFFFFFFFFFFFFFFFFFFFFF
310
FFFFFFFFFFFFFFFFFFFFFFFFFFFFFFFFFFFFFFFFFFFFFFFFFFFFFFFFFFFFFFFF
310
FFFFFFFFFFFFFFFFF000FFFFFFFFFFFFFFFFFFFFFFFFFFFFFFFFFFFFFFFFFFFF
310
FFFFFFFFFFFFFFFFFFFFFFFFFFFFFFFFFFFFFFFFFFFFFFFFFFFFFFFFFFFFFFFF
310
FFFFFFFFFFFFFFFFFFFFFFFFFFFFFFFFFFFFFFFFFFFFFFFFFFFFFFFFFFFFFFFF
310
F000FFFFFFFFFFFFFFFFFFFFFFFFFFFFFFFFFFFFFFFFFFFFFFFFFFFFFFFFFFFF
310
FFFFFFFFFFFFFFFFFFFFFFFFFFFFFFFFFFFFFFFFFFFFFFFFFFFFFFFFFFFFFFFF
310
FFFFFFFFFFFFFFFFFFFFFFFFFFFFFFFFFFFFFFFFFFFFFFFFF000FFFFFFFFFFFF
310
FFFFFFFFFFFFFFFFFFFFFFFFFFFFFFFFFFFFFFFFFFFFFFFFFFFFFFFFFFFFFFFF
310
FFFFFFFFFFFFFFFFFFFFFFFFFFFFFFFFFFFFFFFFFFFFFFFFFFFFFFFFFFFFFFFF
310
FFFFFFFFFFFFFFFFFFFFFFFFFFFFFFFFF000FFFFFFFFFFFFFFFFFFFFFFFFFFFF
310
FFFFFFFFFFFFFFFFFFFFFFFFFFFFFFFFFFFFFFFFFFFFFFFFFFFFFFFFFFFFFFFF
310
FFFFFFFFFFFFFFFFFFFFFFFFFFFFFFFFFFFFFFFFFFFFFFFFFFFFFFFFFFFFFFFF
310
FFFFFFFFFFFFFFFFF000FFFFFFFFFFFFFFFFFFFFFFFFFFFFFFFFFFFFFFFFFFFF
310
FFFFFFFFFFFFFFFFFFFFFFFFFFFFFFFFFFFFFFFFFFFFFFFFFFFFFFFFFFFFFFFF
310
FFFFFFFFFFFFFFFFFFFFFFFFFFFFFFFFFFFFFFFFFFFFFFFFFFFFFFFFFFFFFFFF
310
F000FFFFFFFFFFFFFFFFFFFFFFFFFFFFFFFFFFFFFFFFFFFFFFFFFFFFFFFFFFFF
310
FFFFFFFFFFFFFFFFFFFFFFFFFFFFFFFFFFFFFFFFFFFFFFFFFFFFFFFFFFFFFFFF
310
FFFFFFFFFFFFFFFFFFFFFFFFFFFFFFFFFFFFFFFFFFFFFFFFF000FFFFFFFFFFFF
310
FFFFFFFFFFFFFFFFFFFFFFFFFFFFFFFFFFFFFFFFFFFFFFFFFFFFFFFFFFFFFFFF
310
FFFFFFFFFFFFFFFFFFFFFFFFFFFFFFFFFFFFFFFFFFFFFFFFFFFFFFFFFFFFFFFF
310
FFFFFFFFFFFFFFFFFFFFFFFFFFFFFFFFF000FFFFFFFFFFFFFFFFFFFFFFFFFFFF
310
FFFFFFFFFFFFFFFFFFFFFFFFFFFFFFFFFFFFFFFFFFFFFFFFFFFFFFFFFFFFFFFF
310
FFFFFFFFFFFFFFFFFFFFFFFFFFFFFFFFFFFFFFFFFFFFFFFFFFFFFFFFFFFFFFFF
310
FFFFFFFFFFFFFFFFF000FFFFFFFFFFFFFFFFFFFFFFFFFFFFFFFFFFFFFFFFFFFF
310
FFFFFFFFFFFFFFFFFFFFFFFFFFFFFFFFFFFFFFFFFFFFFFFFFFFFFFFFFFFFFFFF
310
FFFFFFFFFFFFFFFFFFFFFFFFFFFFFFFFFFFFFFFFFFFFFFFFFFFFFFFFFFFFFFFF
310
F000FFFFFFFFFFFFFFFFFFFFFFFFFFFFFFFFFFFFFFFFFFFFFFFFFFFFFFFFFFFF
310
FFFFFFFFFFFFFFFFFFFFFFFFFFFFFFFFFFFFFFFFFFFFFFFFFFFFFFFFFFFFFFFF
310
FFFFFFFFFFFFFFFFFFFFFFFFFFFFFFFFFFFFFFFFFFFFFFFFF000FFFFFFFFFFFF
310
FFFFFFFFFFFFFFFFFFFFFFFFFFFFFFFFFFFFFFFFFFFFFFFFFFFFFFFFFFFFFFFF
310
FFFFFFFFFFFFFFFFFFFFFFFFFFFFFFFFFFFFFFFFFFFFFFFFFFFFFFFFFFFFFFFF
310
FFFFFFFFFFFFFFFFFFFFFFFFFFFFFFFFF000FFFFFFFFFFFFFFFFFFFFFFFFFFFF
310
FFFFFFFFFFFFFFFFFFFFFFFFFFFFFFFFFFFFFFFFFFFFFFFFFFFFFFFFFFFFFFFF
310
FFFFFFFFFFFFFFFFFFFFFFFFFFFFFFFFFFFFFFFFFFFFFFFFFFFFFFFFFFFFFFFF
310
FFFFFFFFFFFFFFFFF000FFFFFFFFFFFFFFFFFFFFFFFFFFFFFFFFFFFFFFFFFFFF
310
FFFFFFFFFFFFFFFFFFFFFFFFFFFFFFFFFFFFFFFFFFFFFFFFFFFFFFFFFFFFFFFF
310
FFFFFFFFFFFFFFFFFFFFFFFFFFFFFFFFFFFFFFFFFFFFFFFFFFFFFFFFFFFFFFFF
310
F000FFFFFFFFFFFFFFFFFFFFFFFFFFFFFFFFFFFFFFFFFFFFFFFFFFFFFFFFFFFF
310
FFFFFFFFFFFFFFFFFFFFFFFFFFFFFFFFFFFFFFFFFFFFFFFFFFFFFFFFFFFFFFFF
310
FFFFFFFFFFFFFFFFFFFFFFFFFFFFFFFFFFFFFFFFFFFFFFFFF000FFFFFFFFFFFF
310
FFFFFFFFFFFFFFFFFFFFFFFFFFFFFFFFFFFFFFFFFFFFFFFFFFFFFFFFFFFFFFFF
310
FFFFFFFFFFFFFFFFFFFFFFFFFFFFFFFFFFFFFFFFFFFFFFFFFFFFFFFFFFFFFFFF
310
FFFFFFFFFFFFFFFFFFFFFFFFFFFFFFFFF000FFFFFFFFFFFFFFFFFFFFFFFFFFFF
310
FFFFFFFFFFFFFFFFFFFFFFFFFFFFFFFFFFFFFFFFFFFFFFFFFFFFFFFFFFFFFFFF
310
FFFFFFFFFFFFFFFFFFFFFFFFFFFFFFFFFFFFFFFFFFFFFFFFFFFFFFFFFFFFFFFF
310
FFFFFFFFFFFFFFFFF000FFFFFFFFFFFFFFFFFFFFFFFFFFFFFFFFFFFFFFFFFFFF
310
FFFFFFFFFFFFFFFFFFFFFFFFFFFFFFFFFFFFFFFFFFFFFFFFFFFFFFFFFFFFFFFF
310
FFFFFFFFFFFFFFFFFFFFFFFFFFFFFFFFFFFFFFFFFFFFFFFFFFFFFFFFFFFFFFFF
310
F000FFFFFFFFFFFFFFFFFFFFFFFFFFFFFFFFFFFFFFFFFFFFFFFFFFFFFFFFFFFF
310
FFFFFFFFFFFFFFFFFFFFFFFFFFFFFFFFFFFFFFFFFFFFFFFFFFFFFFFFFFFFFFFF
310
FFFFFFFFFFFFFFFFFFFFFFFFFFFFFFFFFFFFFFFFFFFFFFFFF000FFFFFFFFFFFF
310
FFFFFFFFFFFFFFFFFFFFFFFFFFFFFFFFFFFFFFFFFFFFFFFFFFFFFFFFFFFFFFFF
310
FFFFFFFFFFFFFFFFFFFFFFFFFFFFFFFFFFFFFFFFFFFFFFFFFFFFFFFFFFFFFFFF
310
FFFFFFFFFFFFFFFFFFFFFFFFFFFFFFFFF0000000000000000000000000000000
310
0000000000000000000000000000000000000000000000000000000000000000
310
0000000000000000000000000000000000000000000000000000000000000000
310
0000000000000000000000000000000000000000000000000000000000000000
310
0000000000000000000000000000000000000000000000000000000000000000
310
0000000000000000000000000000000000000000000000000000000000000000
310
0000000000000000000000000000000000000000000000000000000000000000
310
0000000000000000000000000000000000000000000000000000000000000000
310
0000000000000000000000000000000000000000000000000000000000000000
310
0000000000000000000000000000000000000000000000000000000000000000
310
0000000000000000000000000000000000000000000000000000000000000000
310
0000000000000000000000000000000000000000000000000000000000000000
310
0000000000000000000000000000000000000000000000000000000000000000
310
0000000000000000000000000000000000000000000000000000000000000000
310
0000000000000000000000000000000000000000000000000000000000000000
310
0000000000000000000000000000000000000000000000000000000000000000
  1
OLE
  0
ENDSEC
  0
SECTION
  2
OBJECTS
  0
DICTIONARY
  5
C
330
0
100
AcDbDictionary
281
     1
  3
ACAD_GROUP
350
D
  3
ACAD_LAYOUT
350
1A
  3
ACAD_MLINESTYLE
350
17
  3
ACAD_PLOTSETTINGS
350
19
  3
ACAD_PLOTSTYLENAME
350
E
  0
DICTIONARY
  5
D
102
{ACAD_REACTORS
330
C
102
}
330
C
100
AcDbDictionary
281
     1
  0
DICTIONARY
  5
1A
102
{ACAD_REACTORS
330
C
102
}
330
C
100
AcDbDictionary
281
     1
  3
Layout1
350
1E
  3
Layout2
350
26
  3
Model
350
22
  0
DICTIONARY
  5
17
102
{ACAD_REACTORS
330
C
102
}
330
C
100
AcDbDictionary
281
     1
  3
Standard
350
18
  0
DICTIONARY
  5
19
102
{ACAD_REACTORS
330
C
102
}
330
C
100
AcDbDictionary
281
     1
  0
ACDBDICTIONARYWDFLT
  5
E
102
{ACAD_REACTORS
330
C
102
}
330
C
100
AcDbDictionary
281
     1
  3
Normal
350
F
100
AcDbDictionaryWithDefault
340
F
  0
LAYOUT
  5
1E
102
{ACAD_REACTORS
330
1A
102
}
330
1A
100
AcDbPlotSettings
  1

  2
none_device
  4

  6

 40
0.0
 41
0.0
 42
0.0
 43
0.0
 44
0.0
 45
0.0
 46
0.0
 47
0.0
 48
0.0
 49
0.0
140
0.0
141
0.0
142
1.0
143
1.0
 70
   688
 72
     0
 73
     0
 74
     5
  7

 75
    16
147
1.0
148
0.0
149
0.0
100
AcDbLayout
  1
Layout1
 70
     1
 71
     1
 10
0.0
 20
0.0
 11
420.0
 21
297.0
 12
0.0
 22
0.0
 32
0.0
 14
1.0000000000E+20
 24
1.0000000000E+20
 34
1.0000000000E+20
 15
-1.0000000000E+20
 25
-1.0000000000E+20
 35
-1.0000000000E+20
146
0.0
 13
0.0
 23
0.0
 33
0.0
 16
1.0
 26
0.0
 36
0.0
 17
0.0
 27
1.0
 37
0.0
 76
     0
330
1B
  0
LAYOUT
  5
26
102
{ACAD_REACTORS
330
1A
102
}
330
1A
100
AcDbPlotSettings
  1

  2
none_device
  4

  6

 40
0.0
 41
0.0
 42
0.0
 43
0.0
 44
0.0
 45
0.0
 46
0.0
 47
0.0
 48
0.0
 49
0.0
140
0.0
141
0.0
142
1.0
143
1.0
 70
   688
 72
     0
 73
     0
 74
     5
  7

 75
    16
147
1.0
148
0.0
149
0.0
100
AcDbLayout
  1
Layout2
 70
     1
 71
     2
 10
0.0
 20
0.0
 11
0.0
 21
0.0
 12
0.0
 22
0.0
 32
0.0
 14
0.0
 24
0.0
 34
0.0
 15
0.0
 25
0.0
 35
0.0
146
0.0
 13
0.0
 23
0.0
 33
0.0
 16
1.0
 26
0.0
 36
0.0
 17
0.0
 27
1.0
 37
0.0
 76
     0
330
23
  0
LAYOUT
  5
22
102
{ACAD_REACTORS
330
1A
102
}
330
1A
100
AcDbPlotSettings
  1

  2
none_device
  4

  6

 40
0.0
 41
0.0
 42
0.0
 43
0.0
 44
0.0
 45
0.0
 46
0.0
 47
0.0
 48
0.0
 49
0.0
140
0.0
141
0.0
142
1.0
143
1.0
 70
  1712
 72
     0
 73
     0
 74
     0
  7

 75
     0
147
1.0
148
0.0
149
0.0
100
AcDbLayout
  1
Model
 70
     1
 71
     0
 10
0.0
 20
0.0
 11
297.0
 21
210.0
 12
0.0
 22
0.0
 32
0.0
 14
0.0
 24
0.0
 34
0.0
 15
297.0
 25
210.0
 35
0.0
146
0.0
 13
0.0
 23
0.0
 33
0.0
 16
1.0
 26
0.0
 36
0.0
 17
0.0
 27
1.0
 37
0.0
 76
     0
330
1F
331
29
  0
MLINESTYLE
  5
18
102
{ACAD_REACTORS
330
17
102
}
330
17
100
AcDbMlineStyle
  2
Standard
 70
     0
  3

 62
   256
 51
90.0
 52
90.0
 71
     2
 49
0.5
 62
   256
  6
BYLAYER
 49
-0.5
 62
   256
  6
BYLAYER
  0
ACDBPLACEHOLDER
  5
F
102
{ACAD_REACTORS
330
E
102
}
330
E
  0
ENDSEC
  0
EOF
