  0
SECTION
  2
HEADER
  9
$ACADVER
  1
AC1015
  9
$ACADMAINTVER
 70
     6
  9
$DWGCODEPAGE
  3
ANSI_1252
  9
$INSBASE
 10
0.0
 20
0.0
 30
0.0
  9
$EXTMIN
 10
0.0
 20
0.0
 30
0.0
  9
$EXTMAX
 10
297.0
 20
210.0
 30
0.0
  9
$LIMMIN
 10
0.0
 20
0.0
  9
$LIMMAX
 10
297.0
 20
210.0
  9
$ORTHOMODE
 70
     0
  9
$REGENMODE
 70
     1
  9
$FILLMODE
 70
     1
  9
$QTEXTMODE
 70
     0
  9
$MIRRTEXT
 70
     1
  9
$LTSCALE
 40
1.0
  9
$ATTMODE
 70
     1
  9
$TEXTSIZE
 40
2.0
  9
$TRACEWID
 40
1.0
  9
$TEXTSTYLE
  7
Standard
  9
$CLAYER
  8
0
  9
$CELTYPE
  6
ByLayer
  9
$CECOLOR
 62
   256
  9
$CELTSCALE
 40
1.0
  9
$DISPSILH
 70
     0
  9
$DIMSCALE
 40
1.0
  9
$DIMASZ
 40
3.0
  9
$DIMEXO
 40
0.0
  9
$DIMDLI
 40
3.75
  9
$DIMRND
 40
0.0
  9
$DIMDLE
 40
0.0
  9
$DIMEXE
 40
1.0
  9
$DIMTP
 40
0.0
  9
$DIMTM
 40
0.0
  9
$DIMTXT
 40
2.0
  9
$DIMCEN
 40
2.5
  9
$DIMTSZ
 40
0.0
  9
$DIMTOL
 70
     0
  9
$DIMLIM
 70
     0
  9
$DIMTIH
 70
     1
  9
$DIMTOH
 70
     1
  9
$DIMSE1
 70
     0
  9
$DIMSE2
 70
     0
  9
$DIMTAD
 70
     1
  9
$DIMZIN
 70
     0
  9
$DIMBLK
  1

  9
$DIMASO
 70
     1
  9
$DIMSHO
 70
     1
  9
$DIMPOST
  1

  9
$DIMAPOST
  1

  9
$DIMALT
 70
     0
  9
$DIMALTD
 70
     3
  9
$DIMALTF
 40
0.0393700787
  9
$DIMLFAC
 40
1.0
  9
$DIMTOFL
 70
     1
  9
$DIMTVP
 40
0.0
  9
$DIMTIX
 70
     0
  9
$DIMSOXD
 70
     0
  9
$DIMSAH
 70
     0
  9
$DIMBLK1
  1

  9
$DIMBLK2
  1

  9
$DIMSTYLE
  2
ISO-25
  9
$DIMCLRD
 70
     0
  9
$DIMCLRE
 70
     0
  9
$DIMCLRT
 70
     0
  9
$DIMTFAC
 40
1.0
  9
$DIMGAP
 40
1.524
  9
$DIMJUST
 70
     0
  9
$DIMSD1
 70
     0
  9
$DIMSD2
 70
     0
  9
$DIMTOLJ
 70
     0
  9
$DIMTZIN
 70
     0
  9
$DIMALTZ
 70
     0
  9
$DIMALTTZ
 70
     0
  9
$DIMUPT
 70
     0
  9
$DIMDEC
 70
     2
  9
$DIMTDEC
 70
     3
  9
$DIMALTU
 70
     2
  9
$DIMALTTD
 70
     3
  9
$DIMTXSTY
  7
Standard
  9
$DIMAUNIT
 70
     0
  9
$DIMADEC
 70
     2
  9
$DIMALTRND
 40
0.0
  9
$DIMAZIN
 70
     0
  9
$DIMDSEP
 70
    44
  9
$DIMATFIT
 70
     3
  9
$DIMFRAC
 70
     0
  9
$DIMLDRBLK
  1

  9
$DIMLUNIT
 70
     2
  9
$DIMLWD
 70
    -2
  9
$DIMLWE
 70
    -2
  9
$DIMTMOVE
 70
     0
  9
$LUNITS
 70
     2
  9
$LUPREC
 70
     2
  9
$SKETCHINC
 40
1.0
  9
$FILLETRAD
 40
10.0
  9
$AUNITS
 70
     0
  9
$AUPREC
 70
     2
  9
$MENU
  1
.
  9
$ELEVATION
 40
0.0
  9
$PELEVATION
 40
0.0
  9
$THICKNESS
 40
0.0
  9
$LIMCHECK
 70
     0
  9
$CHAMFERA
 40
10.0
  9
$CHAMFERB
 40
10.0
  9
$CHAMFERC
 40
20.0
  9
$CHAMFERD
 40
0.0
  9
$SKPOLY
 70
     0
  9
$TDCREATE
 40
2456045.337003299
  9
$TDUCREATE
 40
2456045.253669965
  9
$TDUPDATE
 40
2456045.337004745
  9
$TDUUPDATE
 40
2456045.253671412
  9
$TDINDWG
 40
0.0000000116
  9
$TDUSRTIMER
 40
0.0000000116
  9
$USRTIMER
 70
     1
  9
$ANGBASE
 50
0.0
  9
$ANGDIR
 70
     0
  9
$PDMODE
 70
     0
  9
$PDSIZE
 40
-1.0
  9
$PLINEWID
 40
0.0
  9
$SPLFRAME
 70
     0
  9
$SPLINETYPE
 70
     6
  9
$SPLINESEGS
 70
     8
  9
$HANDSEED
  5
259
  9
$SURFTAB1
 70
     6
  9
$SURFTAB2
 70
     6
  9
$SURFTYPE
 70
     6
  9
$SURFU
 70
     6
  9
$SURFV
 70
     6
  9
$UCSBASE
  2

  9
$UCSNAME
  2

  9
$UCSORG
 10
0.0
 20
0.0
 30
0.0
  9
$UCSXDIR
 10
1.0
 20
0.0
 30
0.0
  9
$UCSYDIR
 10
0.0
 20
1.0
 30
0.0
  9
$UCSORTHOREF
  2

  9
$UCSORTHOVIEW
 70
     0
  9
$UCSORGTOP
 10
0.0
 20
0.0
 30
0.0
  9
$UCSORGBOTTOM
 10
0.0
 20
0.0
 30
0.0
  9
$UCSORGLEFT
 10
0.0
 20
0.0
 30
0.0
  9
$UCSORGRIGHT
 10
0.0
 20
0.0
 30
0.0
  9
$UCSORGFRONT
 10
0.0
 20
0.0
 30
0.0
  9
$UCSORGBACK
 10
0.0
 20
0.0
 30
0.0
  9
$PUCSBASE
  2

  9
$PUCSNAME
  2

  9
$PUCSORG
 10
0.0
 20
0.0
 30
0.0
  9
$PUCSXDIR
 10
1.0
 20
0.0
 30
0.0
  9
$PUCSYDIR
 10
0.0
 20
1.0
 30
0.0
  9
$PUCSORTHOREF
  2

  9
$PUCSORTHOVIEW
 70
     0
  9
$PUCSORGTOP
 10
0.0
 20
0.0
 30
0.0
  9
$PUCSORGBOTTOM
 10
0.0
 20
0.0
 30
0.0
  9
$PUCSORGLEFT
 10
0.0
 20
0.0
 30
0.0
  9
$PUCSORGRIGHT
 10
0.0
 20
0.0
 30
0.0
  9
$PUCSORGFRONT
 10
0.0
 20
0.0
 30
0.0
  9
$PUCSORGBACK
 10
0.0
 20
0.0
 30
0.0
  9
$USERI1
 70
     0
  9
$USERI2
 70
     0
  9
$USERI3
 70
     0
  9
$USERI4
 70
     0
  9
$USERI5
 70
     0
  9
$USERR1
 40
0.0
  9
$USERR2
 40
0.0
  9
$USERR3
 40
0.0
  9
$USERR4
 40
0.0
  9
$USERR5
 40
0.0
  9
$WORLDVIEW
 70
     1
  9
$SHADEDGE
 70
     3
  9
$SHADEDIF
 70
    70
  9
$TILEMODE
 70
     1
  9
$MAXACTVP
 70
    64
  9
$PINSBASE
 10
0.0
 20
0.0
 30
0.0
  9
$PLIMCHECK
 70
     0
  9
$PEXTMIN
 10
1.0000000000E+20
 20
1.0000000000E+20
 30
1.0000000000E+20
  9
$PEXTMAX
 10
-1.0000000000E+20
 20
-1.0000000000E+20
 30
-1.0000000000E+20
  9
$PLIMMIN
 10
0.0
 20
0.0
  9
$PLIMMAX
 10
420.0
 20
297.0
  9
$UNITMODE
 70
     0
  9
$VISRETAIN
 70
     1
  9
$PLINEGEN
 70
     0
  9
$PSLTSCALE
 70
     1
  9
$TREEDEPTH
 70
  3020
  9
$CMLSTYLE
  2
Standard
  9
$CMLJUST
 70
     0
  9
$CMLSCALE
 40
20.0
  9
$PROXYGRAPHICS
 70
     1
  9
$MEASUREMENT
 70
     1
  9
$CELWEIGHT
370
    -1
  9
$ENDCAPS
280
     0
  9
$JOINSTYLE
280
     0
  9
$LWDISPLAY
290
     1
  9
$INSUNITS
 70
     4
  9
$HYPERLINKBASE
  1

  9
$STYLESHEET
  1

  9
$XEDIT
290
     1
  9
$CEPSNTYPE
380
     0
  9
$PSTYLEMODE
290
     1
  9
$FINGERPRINTGUID
  2
{561FA242-A792-498D-9093-7033D1E40467}
  9
$VERSIONGUID
  2
{FAEB1C32-E019-11D5-929B-00C0DF256EC4}
  9
$EXTNAMES
290
     1
  9
$PSVPSCALE
 40
0.0
  9
$OLESTARTUP
290
     0
  0
ENDSEC
  0
SECTION
  2
CLASSES
  0
CLASS
  1
ACDBDICTIONARYWDFLT
  2
AcDbDictionaryWithDefault
  3
ObjectDBX Classes
 90
        0
280
     0
281
     0
  0
CLASS
  1
VISUALSTYLE
  2
AcDbVisualStyle
  3
ObjectDBX Classes
 90
     4095
280
     0
281
     0
  0
CLASS
  1
MATERIAL
  2
AcDbMaterial
  3
ObjectDBX Classes
 90
     1153
280
     0
281
     0
  0
CLASS
  1
ACDBPLACEHOLDER
  2
AcDbPlaceHolder
  3
ObjectDBX Classes
 90
        0
280
     0
281
     0
  0
CLASS
  1
LAYOUT
  2
AcDbLayout
  3
ObjectDBX Classes
 90
        0
280
     0
281
     0
  0
ENDSEC
  0
SECTION
  2
TABLES
  0
TABLE
  2
VPORT
  5
8
330
0
100
AcDbSymbolTable
 70
     1
  0
VPORT
  5
29
330
8
100
AcDbSymbolTableRecord
100
AcDbViewportTableRecord
  2
*Active
 70
     0
 10
0.0
 20
0.0
 11
1.0
 21
1.0
 12
148.5
 22
105.0
 13
0.0
 23
0.0
 14
10.0
 24
10.0
 15
10.0
 25
10.0
 16
0.0
 26
0.0
 36
1.0
 17
0.0
 27
0.0
 37
0.0
 40
210.0
 41
1.4142857143
 42
50.0
 43
0.0
 44
0.0
 50
0.0
 51
0.0
 71
     0
 72
  2000
 73
     1
 74
     3
 75
     0
 76
     0
 77
     0
 78
     0
281
     0
 65
     1
110
0.0
120
0.0
130
0.0
111
1.0
121
0.0
131
0.0
112
0.0
122
1.0
132
0.0
 79
     0
146
0.0
  0
ENDTAB
  0
TABLE
  2
LTYPE
  5
5
330
0
100
AcDbSymbolTable
 70
     6
  0
LTYPE
  5
14
330
5
100
AcDbSymbolTableRecord
100
AcDbLinetypeTableRecord
  2
ByBlock
 70
     0
  3

 72
    65
 73
     0
 40
0.0
  0
LTYPE
  5
15
330
5
100
AcDbSymbolTableRecord
100
AcDbLinetypeTableRecord
  2
ByLayer
 70
     0
  3

 72
    65
 73
     0
 40
0.0
  0
LTYPE
  5
16
330
5
100
AcDbSymbolTableRecord
100
AcDbLinetypeTableRecord
  2
Continuous
 70
     0
  3
Solid line
 72
    65
 73
     0
 40
0.0
  0
LTYPE
  5
3F
330
5
100
AcDbSymbolTableRecord
100
AcDbLinetypeTableRecord
  2
HIDDEN
 70
     0
  3
Hidden __ __ __ __ __ __ __ __ __ __ __ __ __ __
 72
    65
 73
     2
 40
1.905
 49
1.27
 74
     0
 49
-0.635
 74
     0
  0
LTYPE
  5
40
330
5
100
AcDbSymbolTableRecord
100
AcDbLinetypeTableRecord
  2
PHANTOM
 70
     0
  3
Phantom ______  __  __  ______  __  __  ______
 72
    65
 73
     6
 40
12.7
 49
6.35
 74
     0
 49
-1.27
 74
     0
 49
1.27
 74
     0
 49
-1.27
 74
     0
 49
1.27
 74
     0
 49
-1.27
 74
     0
  0
LTYPE
  5
41
330
5
100
AcDbSymbolTableRecord
100
AcDbLinetypeTableRecord
  2
CENTER
 70
     0
  3
Center ____ _ ____ _ ____ _ ____ _ ____ _ ____
 72
    65
 73
     4
 40
10.16
 49
6.35
 74
     0
 49
-1.27
 74
     0
 49
1.27
 74
     0
 49
-1.27
 74
     0
  0
LTYPE
  5
42
330
5
100
AcDbSymbolTableRecord
100
AcDbLinetypeTableRecord
  2
CENTERX2
 70
     0
  3
Center (2x) ________  __  ________  __  _____
 72
    65
 73
     4
 40
20.32
 49
12.7
 74
     0
 49
-2.54
 74
     0
 49
2.54
 74
     0
 49
-2.54
 74
     0
  0
LTYPE
  5
43
330
5
100
AcDbSymbolTableRecord
100
AcDbLinetypeTableRecord
  2
DOT2
 70
     0
  3
Dot (.5x) ........................................
 72
    65
 73
     2
 40
0.635
 49
0.0
 74
     0
 49
-0.635
 74
     0
  0
ENDTAB
  0
TABLE
  2
LAYER
  5
2
330
0
100
AcDbSymbolTable
 70
     5
  0
LAYER
  5
10
330
2
100
AcDbSymbolTableRecord
100
AcDbLayerTableRecord
  2
0
 70
     0
 62
     7
  6
Continuous
370
    -3
390
F
  0
LAYER
  5
44
330
2
100
AcDbSymbolTableRecord
100
AcDbLayerTableRecord
  2
FORMAT
 70
     0
 62
     7
  6
Continuous
370
    -3
390
F
  0
LAYER
  5
45
330
2
100
AcDbSymbolTableRecord
100
AcDbLayerTableRecord
  2
VERMASSUNG
 70
     0
 62
     7
  6
Continuous
370
    -3
390
F
  0
LAYER
  5
46
330
2
100
AcDbSymbolTableRecord
100
AcDbLayerTableRecord
  2
KOPF_DÜNN
 70
     0
 62
     7
  6
Continuous
370
    -3
390
F
  0
LAYER
  5
47
330
2
100
AcDbSymbolTableRecord
100
AcDbLayerTableRecord
  2
KOPF_DICK
 70
     0
 62
     7
  6
Continuous
370
    15
390
F
  0
ENDTAB
  0
TABLE
  2
STYLE
  5
3
330
0
100
AcDbSymbolTable
 70
     2
  0
STYLE
  5
11
330
3
100
AcDbSymbolTableRecord
100
AcDbTextStyleTableRecord
  2
Standard
 70
     0
 40
0.0
 41
1.0
 50
0.0
 71
     0
 42
2.0
  3
txt
  4

  0
STYLE
  5
48
330
3
100
AcDbSymbolTableRecord
100
AcDbTextStyleTableRecord
  2
SLDTEXTSTYLE0
 70
     0
 40
0.0
 41
0.7
 50
0.0
 71
     0
 42
0.2
  3
TXT
  4

  0
ENDTAB
  0
TABLE
  2
VIEW
  5
6
330
0
100
AcDbSymbolTable
 70
     0
  0
ENDTAB
  0
TABLE
  2
UCS
  5
7
330
0
100
AcDbSymbolTable
 70
     0
  0
ENDTAB
  0
TABLE
  2
APPID
  5
9
330
0
100
AcDbSymbolTable
 70
     1
  0
APPID
  5
12
330
9
100
AcDbSymbolTableRecord
100
AcDbRegAppTableRecord
  2
ACAD
 70
     0
  0
ENDTAB
  0
TABLE
  2
DIMSTYLE
  5
A
330
0
100
AcDbSymbolTable
 70
     4
100
AcDbDimStyleTable
  0
DIMSTYLE
105
27
330
A
100
AcDbSymbolTableRecord
100
AcDbDimStyleTableRecord
  2
ISO-25
 70
     0
 41
2.5
 42
0.625
 43
3.75
 44
1.25
 73
     0
 74
     0
 77
     1
 78
     8
140
2.5
141
2.5
143
0.0393700787
147
0.625
171
     3
172
     1
178
     0
271
     2
272
     2
274
     3
278
    44
283
     0
284
     8
340
11
  0
DIMSTYLE
105
1BE
102
{ACAD_REACTORS
330
1BD
330
1D5
102
}
330
A
100
AcDbSymbolTableRecord
100
AcDbDimStyleTableRecord
  2
SLDDIMSTYLE0
 70
     0
 41
3.0
 44
0.0
 45
0.000000001
 47
0.1
 48
0.1
 71
     1
 73
     0
 74
     0
 77
     1
 78
    12
 79
     3
140
2.0
147
0.5
173
     1
178
     0
271
     2
272
     1
276
     2
284
     8
340
48
  0
DIMSTYLE
105
1CB
102
{ACAD_REACTORS
330
1CA
330
1EC
102
}
330
A
100
AcDbSymbolTableRecord
100
AcDbDimStyleTableRecord
  2
SLDDIMSTYLE1
 70
     0
 41
3.0
 44
0.0
 45
0.000000001
 73
     0
 74
     0
 77
     1
 78
    12
 79
     3
140
2.0
147
0.5
173
     1
178
     0
271
     2
272
     3
276
     2
284
    12
340
48
  0
DIMSTYLE
105
1E2
102
{ACAD_REACTORS
330
1E1
102
}
330
A
100
AcDbSymbolTableRecord
100
AcDbDimStyleTableRecord
  2
SLDDIMSTYLE2
 70
     0
 41
3.0
 44
0.0
 73
     0
 74
     0
 77
     1
 78
    12
 79
     3
140
2.0
147
0.5
173
     1
178
     0
179
     1
272
     3
276
     2
284
    12
340
48
  0
ENDTAB
  0
TABLE
  2
BLOCK_RECORD
  5
1
330
0
100
AcDbSymbolTable
 70
     7
  0
BLOCK_RECORD
  5
1F
330
1
100
AcDbSymbolTableRecord
100
AcDbBlockTableRecord
  2
*Model_Space
340
22
  0
BLOCK_RECORD
  5
1B
330
1
100
AcDbSymbolTableRecord
100
AcDbBlockTableRecord
  2
*Paper_Space
340
1E
  0
BLOCK_RECORD
  5
23
330
1
100
AcDbSymbolTableRecord
100
AcDbBlockTableRecord
  2
*Paper_Space0
340
26
  0
BLOCK_RECORD
  5
1BF
330
1
100
AcDbSymbolTableRecord
100
AcDbBlockTableRecord
  2
_D
340
0
  0
BLOCK_RECORD
  5
1CC
330
1
100
AcDbSymbolTableRecord
100
AcDbBlockTableRecord
  2
_D_1
340
0
  0
BLOCK_RECORD
  5
1D6
330
1
100
AcDbSymbolTableRecord
100
AcDbBlockTableRecord
  2
_D_2
340
0
  0
BLOCK_RECORD
  5
1E3
330
1
100
AcDbSymbolTableRecord
100
AcDbBlockTableRecord
  2
_D_3
340
0
  0
BLOCK_RECORD
  5
1ED
330
1
100
AcDbSymbolTableRecord
100
AcDbBlockTableRecord
  2
_D_4
340
0
  0
BLOCK_RECORD
  5
24C
330
1
100
AcDbSymbolTableRecord
100
AcDbBlockTableRecord
  2
SW_CENTERMARKSYMBOL_0
340
0
102
{BLKREFS
331
257
102
}
  0
ENDTAB
  0
ENDSEC
  0
SECTION
  2
BLOCKS
  0
BLOCK
  5
20
330
1F
100
AcDbEntity
  8
0
100
AcDbBlockBegin
  2
*Model_Space
 70
     0
 10
0.0
 20
0.0
 30
0.0
  3
*Model_Space
  1

  0
ENDBLK
  5
21
330
1F
100
AcDbEntity
  8
0
100
AcDbBlockEnd
  0
BLOCK
  5
1C
330
1B
100
AcDbEntity
 67
     1
  8
0
100
AcDbBlockBegin
  2
*Paper_Space
 70
     0
 10
0.0
 20
0.0
 30
0.0
  3
*Paper_Space
  1

  0
ENDBLK
  5
1D
330
1B
100
AcDbEntity
 67
     1
  8
0
100
AcDbBlockEnd
  0
BLOCK
  5
24
330
23
100
AcDbEntity
  8
0
100
AcDbBlockBegin
  2
*Paper_Space0
 70
     0
 10
0.0
 20
0.0
 30
0.0
  3
*Paper_Space0
  1

  0
ENDBLK
  5
25
330
23
100
AcDbEntity
  8
0
100
AcDbBlockEnd
  0
BLOCK
  5
1C0
330
1BF
100
AcDbEntity
  8
0
100
AcDbBlockBegin
  2
_D
 70
     0
 10
0.0
 20
0.0
 30
0.0
  3
_D
  1

  0
SOLID
  5
1C2
330
1BF
100
AcDbEntity
  8
VERMASSUNG
100
AcDbTrace
 10
262.4126504689
 20
126.8395528127
 30
0.0
 11
261.9626504689
 21
123.8395528127
 31
0.0
 12
262.8626504689
 22
123.8395528127
 32
0.0
 13
262.8626504689
 23
123.8395528127
 33
0.0
  0
SOLID
  5
1C3
330
1BF
100
AcDbEntity
  8
VERMASSUNG
100
AcDbTrace
 10
262.4126504689
 20
81.8395528127
 30
0.0
 11
262.8626504689
 21
84.8395528127
 31
0.0
 12
261.9626504689
 22
84.8395528127
 32
0.0
 13
261.9626504689
 23
84.8395528127
 33
0.0
  0
LINE
  5
1C4
330
1BF
100
AcDbEntity
  8
VERMASSUNG
100
AcDbLine
 10
241.4890406247
 20
126.8395528127
 30
0.0
 11
263.4126504689
 21
126.8395528127
 31
0.0
  0
LINE
  5
1C5
330
1BF
100
AcDbEntity
  8
VERMASSUNG
100
AcDbLine
 10
241.4890406247
 20
81.8395528127
 30
0.0
 11
263.4126504689
 21
81.8395528127
 31
0.0
  0
LINE
  5
1C6
330
1BF
100
AcDbEntity
  8
VERMASSUNG
100
AcDbLine
 10
262.4126504689
 20
126.8395528127
 30
0.0
 11
262.4126504689
 21
81.8395528127
 31
0.0
  0
MTEXT
  5
1C7
330
1BF
100
AcDbEntity
  8
VERMASSUNG
100
AcDbMText
 10
259.8345151058
 20
99.6895527955
 30
0.1
 40
2.0
 41
0.0
 71
     1
 72
     1
  1
45
  7
SLDTEXTSTYLE0
 11
-7.044195017643634E-15
 21
1.0
 31
0.0
 73
     1
 44
1.0
  0
MTEXT
  5
1C8
330
1BF
100
AcDbEntity
  8
VERMASSUNG
100
AcDbMText
 10
259.8345151058
 20
105.6770530235
 30
0.1
 40
2.0
 41
0.0
 71
     1
 72
     1
  1

  7
SLDTEXTSTYLE0
 11
-7.044195017643634E-15
 21
1.0
 31
0.0
 73
     1
 44
1.0
  0
MTEXT
  5
1C9
330
1BF
100
AcDbEntity
  8
VERMASSUNG
100
AcDbMText
 10
260.3290489685
 20
105.6895528477
 30
0.1
 40
1.5
 41
0.0
 71
     1
 72
     1
  1
±0.1
  7
SLDTEXTSTYLE0
 11
-7.044195017643634E-15
 21
1.0
 31
0.0
 73
     1
 44
1.0
  0
ENDBLK
  5
1C1
330
1BF
100
AcDbEntity
  8
0
100
AcDbBlockEnd
  0
BLOCK
  5
1CD
330
1CC
100
AcDbEntity
  8
0
100
AcDbBlockBegin
  2
_D_1
 70
     0
 10
0.0
 20
0.0
 30
0.0
  3
_D_1
  1

  0
SOLID
  5
1CF
330
1CC
100
AcDbEntity
  8
VERMASSUNG
100
AcDbTrace
 10
241.4890406247
 20
63.538546035
 30
0.0
 11
238.4890406247
 21
63.988546035
 31
0.0
 12
238.4890406247
 22
63.088546035
 32
0.0
 13
238.4890406247
 23
63.088546035
 33
0.0
  0
SOLID
  5
1D0
330
1CC
100
AcDbEntity
  8
VERMASSUNG
100
AcDbTrace
 10
138.4890406247
 20
63.538546035
 30
0.0
 11
141.4890406247
 21
63.088546035
 31
0.0
 12
141.4890406247
 22
63.988546035
 32
0.0
 13
141.4890406247
 23
63.988546035
 33
0.0
  0
LINE
  5
1D1
330
1CC
100
AcDbEntity
  8
VERMASSUNG
100
AcDbLine
 10
241.4890406247
 20
81.8395528127
 30
0.0
 11
241.4890406247
 21
62.538546035
 31
0.0
  0
LINE
  5
1D2
330
1CC
100
AcDbEntity
  8
VERMASSUNG
100
AcDbLine
 10
138.4890406247
 20
106.5472148202
 30
0.0
 11
138.4890406247
 21
62.538546035
 31
0.0
  0
LINE
  5
1D3
330
1CC
100
AcDbEntity
  8
VERMASSUNG
100
AcDbLine
 10
241.4890406247
 20
63.538546035
 30
0.0
 11
138.4890406247
 21
63.538546035
 31
0.0
  0
MTEXT
  5
1D4
330
1CC
100
AcDbEntity
  8
VERMASSUNG
100
AcDbMText
 10
187.1890404917
 20
66.1166813981
 30
0.1
 40
2.0
 41
0.0
 71
     1
 72
     1
  1
103
  7
SLDTEXTSTYLE0
 73
     1
 44
1.0
  0
ENDBLK
  5
1CE
330
1CC
100
AcDbEntity
  8
0
100
AcDbBlockEnd
  0
BLOCK
  5
1D7
330
1D6
100
AcDbEntity
  8
0
100
AcDbBlockBegin
  2
_D_2
 70
     0
 10
0.0
 20
0.0
 30
0.0
  3
_D_2
  1

  0
SOLID
  5
1D9
330
1D6
100
AcDbEntity
  8
VERMASSUNG
100
AcDbTrace
 10
176.4890406247
 20
72.7517822009
 30
0.0
 11
179.4890406247
 21
72.3017822009
 31
0.0
 12
179.4890406247
 22
73.2017822009
 32
0.0
 13
179.4890406247
 23
73.2017822009
 33
0.0
  0
SOLID
  5
1DA
330
1D6
100
AcDbEntity
  8
VERMASSUNG
100
AcDbTrace
 10
241.4890406247
 20
72.7517822009
 30
0.0
 11
238.4890406247
 21
73.2017822009
 31
0.0
 12
238.4890406247
 22
72.3017822009
 32
0.0
 13
238.4890406247
 23
72.3017822009
 33
0.0
  0
LINE
  5
1DB
330
1D6
100
AcDbEntity
  8
VERMASSUNG
100
AcDbLine
 10
176.4890406247
 20
95.8395528127
 30
0.0
 11
176.4890406247
 21
71.7517822009
 31
0.0
  0
LINE
  5
1DC
330
1D6
100
AcDbEntity
  8
VERMASSUNG
100
AcDbLine
 10
241.4890406247
 20
81.8395528127
 30
0.0
 11
241.4890406247
 21
71.7517822009
 31
0.0
  0
LINE
  5
1DD
330
1D6
100
AcDbEntity
  8
VERMASSUNG
100
AcDbLine
 10
176.4890406247
 20
72.7517822009
 30
0.0
 11
241.4890406247
 21
72.7517822009
 31
0.0
  0
MTEXT
  5
1DE
330
1D6
100
AcDbEntity
  8
VERMASSUNG
100
AcDbMText
 10
204.4390404377
 20
75.329917564
 30
0.1
 40
2.0
 41
0.0
 71
     1
 72
     1
  1
65
  7
SLDTEXTSTYLE0
 73
     1
 44
1.0
  0
MTEXT
  5
1DF
330
1D6
100
AcDbEntity
  8
VERMASSUNG
100
AcDbMText
 10
210.2265405397
 20
75.329917564
 30
0.1
 40
2.0
 41
0.0
 71
     1
 72
     1
  1

  7
SLDTEXTSTYLE0
 73
     1
 44
1.0
  0
MTEXT
  5
1E0
330
1D6
100
AcDbEntity
  8
VERMASSUNG
100
AcDbMText
 10
210.2390408296
 20
74.8353837013
 30
0.1
 40
1.5
 41
0.0
 71
     1
 72
     1
  1
±0.1
  7
SLDTEXTSTYLE0
 73
     1
 44
1.0
  0
ENDBLK
  5
1D8
330
1D6
100
AcDbEntity
  8
0
100
AcDbBlockEnd
  0
BLOCK
  5
1E4
330
1E3
100
AcDbEntity
  8
0
100
AcDbBlockBegin
  2
_D_3
 70
     0
 10
0.0
 20
0.0
 30
0.0
  3
_D_3
  1

  0
ARC
  5
1E6
330
1E3
100
AcDbEntity
  8
VERMASSUNG
100
AcDbCircle
 10
241.5259263942
 20
81.8395528127
 30
0.0
 40
15.34979414503495
100
AcDbArc
 50
0.0
 51
95.0277975181
  0
SOLID
  5
1E7
330
1E3
100
AcDbEntity
  8
VERMASSUNG
100
AcDbTrace
 10
256.8757205392
 20
81.8395528127
 30
0.0
 11
257.0345617803
 21
84.8689536544
 31
0.0
 12
256.1387494494
 22
84.7822341771
 32
0.0
 13
256.1387494494
 23
84.7822341771
 33
0.0
  0
SOLID
  5
1E8
330
1E3
100
AcDbEntity
  8
VERMASSUNG
100
AcDbTrace
 10
240.1806851018
 20
97.1302855015
 30
0.0
 11
243.1766313431
 21
96.654043841
 31
0.0
 12
243.1845090128
 22
97.5540093638
 32
0.0
 13
243.1845090128
 23
97.5540093638
 33
0.0
  0
LINE
  5
1E9
330
1E3
100
AcDbEntity
  8
VERMASSUNG
100
AcDbLine
 10
252.8067277382
 20
81.8395528127
 30
0.0
 11
257.8757205392
 21
81.8395528127
 31
0.0
  0
LINE
  5
1EA
330
1E3
100
AcDbEntity
  8
VERMASSUNG
100
AcDbLine
 10
240.7758451532
 20
90.3653777447
 30
0.0
 11
240.0930460573
 21
98.126437798
 31
0.0
  0
MTEXT
  5
1EB
330
1E3
100
AcDbEntity
  8
VERMASSUNG
100
AcDbMText
 10
251.4960736585
 20
97.0190396654
 30
0.1
 40
2.0
 41
0.0
 71
     1
 72
     1
  1
95°
  7
SLDTEXTSTYLE0
 11
0.7374411991855977
 21
-0.6754113396617706
 31
0.0
 73
     1
 44
1.0
  0
ENDBLK
  5
1E5
330
1E3
100
AcDbEntity
  8
0
100
AcDbBlockEnd
  0
BLOCK
  5
1EE
330
1ED
100
AcDbEntity
  8
0
100
AcDbBlockBegin
  2
_D_4
 70
     0
 10
0.0
 20
0.0
 30
0.0
  3
_D_4
  1

  0
SOLID
  5
1F0
330
1ED
100
AcDbEntity
  8
VERMASSUNG
100
AcDbTrace
 10
130.5395683625
 20
158.3395528127
 30
0.0
 11
130.0895683625
 21
155.3395528127
 31
0.0
 12
130.9895683625
 22
155.3395528127
 32
0.0
 13
130.9895683625
 23
155.3395528127
 33
0.0
  0
SOLID
  5
1F1
330
1ED
100
AcDbEntity
  8
VERMASSUNG
100
AcDbTrace
 10
130.5395683625
 20
95.3395528127
 30
0.0
 11
130.9895683625
 21
98.3395528127
 31
0.0
 12
130.0895683625
 22
98.3395528127
 32
0.0
 13
130.0895683625
 23
98.3395528127
 33
0.0
  0
LINE
  5
1F2
330
1ED
100
AcDbEntity
  8
VERMASSUNG
100
AcDbLine
 10
176.9890406247
 20
158.3395528127
 30
0.0
 11
129.5395683625
 21
158.3395528127
 31
0.0
  0
LINE
  5
1F3
330
1ED
100
AcDbEntity
  8
VERMASSUNG
100
AcDbLine
 10
176.9890406247
 20
95.3395528127
 30
0.0
 11
129.5395683625
 21
95.3395528127
 31
0.0
  0
LINE
  5
1F4
330
1ED
100
AcDbEntity
  8
VERMASSUNG
100
AcDbLine
 10
130.5395683625
 20
158.3395528127
 30
0.0
 11
130.5395683625
 21
95.3395528127
 31
0.0
  0
MTEXT
  5
1F5
330
1ED
100
AcDbEntity
  8
VERMASSUNG
100
AcDbMText
 10
127.7614328735
 20
120.4345527034
 30
0.5658126891
 40
2.0
 41
0.0
 71
     1
 72
     1
  1
PSC
  7
SLDTEXTSTYLE0
 11
-7.044195017643634E-15
 21
1.0
 31
0.0
 73
     1
 44
1.0
  0
MTEXT
  5
1F6
330
1ED
100
AcDbEntity
  8
VERMASSUNG
100
AcDbMText
 10
127.961432883
 20
125.0345528055
 30
0.5658126891
 40
2.0
 41
0.0
 71
     1
 72
     1
  1
%%c
  7
SLDTEXTSTYLE0
 11
-7.044195017643634E-15
 21
1.0
 31
0.0
 73
     1
 44
1.0
  0
MTEXT
  5
1F7
330
1ED
100
AcDbEntity
  8
VERMASSUNG
100
AcDbMText
 10
127.7614328735
 20
128.6445532855
 30
0.5658126891
 40
2.0
 41
0.0
 71
     1
 72
     1
  1
63
  7
SLDTEXTSTYLE0
 11
-7.044195017643634E-15
 21
1.0
 31
0.0
 73
     1
 44
1.0
  0
ENDBLK
  5
1EF
330
1ED
100
AcDbEntity
  8
0
100
AcDbBlockEnd
  0
BLOCK
  5
24D
330
24C
100
AcDbEntity
  8
0
100
AcDbBlockBegin
  2
SW_CENTERMARKSYMBOL_0
 70
     0
 10
0.0
 20
0.0
 30
0.0
  3
SW_CENTERMARKSYMBOL_0
  1

  0
LINE
  5
24F
330
24C
100
AcDbEntity
  8
VERMASSUNG
 62
     0
100
AcDbLine
 10
0.0
 20
0.0
 30
0.0
 11
0.0
 21
2.5
 31
0.0
  0
LINE
  5
250
330
24C
100
AcDbEntity
  8
VERMASSUNG
 62
     0
100
AcDbLine
 10
0.0
 20
0.0
 30
0.0
 11
-2.5
 21
0.0
 31
0.0
  0
LINE
  5
251
330
24C
100
AcDbEntity
  8
VERMASSUNG
 62
     0
100
AcDbLine
 10
0.0
 20
0.0
 30
0.0
 11
0.0
 21
-2.5
 31
0.0
  0
LINE
  5
252
330
24C
100
AcDbEntity
  8
VERMASSUNG
 62
     0
100
AcDbLine
 10
0.0
 20
0.0
 30
0.0
 11
2.5
 21
0.0
 31
0.0
  0
LINE
  5
253
330
24C
100
AcDbEntity
  8
VERMASSUNG
 62
     0
100
AcDbLine
 10
0.0
 20
5.0
 30
0.0
 11
0.0
 21
34.0
 31
0.0
  0
LINE
  5
254
330
24C
100
AcDbEntity
  8
VERMASSUNG
 62
     0
100
AcDbLine
 10
-5.0
 20
0.0
 30
0.0
 11
-34.0
 21
0.0
 31
0.0
  0
LINE
  5
255
330
24C
100
AcDbEntity
  8
VERMASSUNG
 62
     0
100
AcDbLine
 10
0.0
 20
-5.0
 30
0.0
 11
0.0
 21
-48.7654829141
 31
0.0
  0
LINE
  5
256
330
24C
100
AcDbEntity
  8
VERMASSUNG
 62
     0
100
AcDbLine
 10
5.0
 20
0.0
 30
0.0
 11
34.0
 21
0.0
 31
0.0
  0
ENDBLK
  5
24E
330
24C
100
AcDbEntity
  8
0
100
AcDbBlockEnd
  0
ENDSEC
  0
SECTION
  2
ENTITIES
  0
MTEXT
  5
49
330
1F
100
AcDbEntity
  8
KOPF_DÜNN
100
AcDbMText
 10
13.8892156294
 20
23.8442973028
 30
0.0
 40
3.0
 41
0.0
 71
     1
 72
     1
  1
PS6.PWE.LLA.065
  7
SLDTEXTSTYLE0
 73
     1
 44
1.0
  0
MTEXT
  5
4A
330
1F
100
AcDbEntity
  8
VERMASSUNG
100
AcDbMText
 10
13.9329988022
 20
28.8834360957
 30
0.0
 40
3.0
 41
0.0
 71
     1
 72
     1
  1
Klemmhalter links_Turning tool left 95° /80°
  7
SLDTEXTSTYLE0
 73
     1
 44
1.0
  0
MTEXT
  5
4B
330
1F
100
AcDbEntity
  8
VERMASSUNG
100
AcDbMText
 10
98.8601118557
 20
13.8365368179
 30
0.0
 40
2.0
 41
0.0
 71
     1
 72
     1
  1
Datum: 27.04.2012
  7
SLDTEXTSTYLE0
 73
     1
 44
1.0
  0
MTEXT
  5
4C
330
1F
100
AcDbEntity
  8
VERMASSUNG
100
AcDbMText
 10
13.933048693
 20
18.0482802738
 30
0.0
 40
2.0
 41
0.0
 71
     1
 72
     1
  1
PSC ø60 / WN..08 04..
  7
SLDTEXTSTYLE0
 73
     1
 44
1.0
  0
MTEXT
  5
4D
330
1F
100
AcDbEntity
  8
VERMASSUNG
100
AcDbMText
 10
13.9808475933
 20
13.9090973692
 30
0.0
 40
2.0
 41
0.0
 71
     1
 72
     1
  1
Gewicht: 1352g
  7
SLDTEXTSTYLE0
 73
     1
 44
1.0
  0
LINE
  5
4E
330
1F
100
AcDbEntity
  8
0
  6
Continuous
 62
     7
370
    15
100
AcDbLine
 10
176.9890406247
 20
95.3395528127
 30
0.0
 11
213.7217136367
 21
95.3395528127
 31
0.0
  0
LINE
  5
4F
330
1F
100
AcDbEntity
  8
0
  6
Continuous
 62
     7
370
    15
100
AcDbLine
 10
210.2673890647
 20
158.3395528127
 30
0.0
 11
176.9890406247
 21
158.3395528127
 31
0.0
  0
ARC
  5
50
330
1F
100
AcDbEntity
  8
0
  6
Continuous
 62
     7
370
    15
100
AcDbCircle
 10
176.9890406247
 20
95.8395528127
 30
0.0
 40
0.5
100
AcDbArc
 50
180.0
 51
270.0
  0
ARC
  5
51
330
1F
100
AcDbEntity
  8
0
  6
Continuous
 62
     7
370
    15
100
AcDbCircle
 10
176.9890406247
 20
157.8395528127
 30
0.0
 40
0.5
100
AcDbArc
 50
90.0
 51
180.0
  0
LWPOLYLINE
  5
52
330
1F
100
AcDbEntity
  8
0
  6
Continuous
 62
     7
370
    15
100
AcDbPolyline
 90
        3
 70
   128
 43
0.0
 10
176.2890406247
 20
104.2997325338
 10
176.4144955681
 20
104.2314304188
 10
176.4890406247
 20
104.1786926607
  0
LWPOLYLINE
  5
53
330
1F
100
AcDbEntity
  8
0
  6
Continuous
 62
     7
370
    15
100
AcDbPolyline
 90
        3
 70
   128
 43
0.0
 10
176.4890406247
 20
149.5004129646
 10
176.4144955681
 20
149.4476752065
 10
176.2890406247
 20
149.3793730915
  0
ARC
  5
54
330
1F
100
AcDbEntity
  8
0
  6
Continuous
 62
     7
370
    15
100
AcDbCircle
 10
213.7217136367
 20
94.3395528127
 30
0.0
 40
0.999999999999992
100
AcDbArc
 50
15.0
 51
90.0
  0
LINE
  5
55
330
1F
100
AcDbEntity
  8
0
  6
Continuous
 62
     7
370
    15
100
AcDbLine
 10
214.687639463
 20
94.5983718578
 30
0.0
 11
215.6618149762
 21
90.962699347
 31
0.0
  0
ARC
  5
56
330
1F
100
AcDbEntity
  8
0
  6
Continuous
 62
     7
370
    15
100
AcDbCircle
 10
197.4890406247
 20
113.1895528127
 30
0.0
 40
2.49999999999999
100
AcDbArc
 50
265.8762231356
 51
338.6286669098
  0
ARC
  5
57
330
1F
100
AcDbEntity
  8
0
  6
Continuous
 62
     7
370
    15
100
AcDbCircle
 10
197.4890406247
 20
113.1895528127
 30
0.0
 40
2.500000000000015
100
AcDbArc
 50
201.3713330902
 51
265.8762231356
  0
LINE
  5
58
330
1F
100
AcDbEntity
  8
0
  6
Continuous
 62
     7
370
    15
100
AcDbLine
 10
235.8876124466
 20
90.5980410611
 30
0.0
 11
235.6465960902
 21
90.9622088548
 31
0.0
  0
LINE
  5
59
330
1F
100
AcDbEntity
  8
0
  6
Continuous
 62
     7
370
    15
100
AcDbLine
 10
237.2835636633
 20
97.7522058166
 30
0.0
 11
236.7860081781
 21
98.4110407303
 31
0.0
  0
LINE
  5
5A
330
1F
100
AcDbEntity
  8
0
  6
Continuous
 62
     7
370
    15
100
AcDbLine
 10
224.899170638
 20
86.5024717187
 30
0.0
 11
225.3703466145
 21
85.8785670627
 31
0.0
  0
ELLIPSE
  5
5B
330
1F
100
AcDbEntity
  8
0
  6
Continuous
 62
     7
370
    15
100
AcDbEllipse
 10
211.0156881194
 20
126.8395528127
 30
0.0
 11
1.26343065460685
 21
31.49822136545059
 31
0.0
210
0.0
220
0.0
230
1.0
 40
0.2649452246
 41
0.5901008655543332
 42
2.851998196545847
  0
ELLIPSE
  5
5C
330
1F
100
AcDbEntity
  8
0
  6
Continuous
 62
     7
370
    15
100
AcDbEllipse
 10
206.4459395025
 20
109.6991540408
 30
0.0
 11
-0.2095969963835103
 21
3.297512380698919
 31
0.0
210
0.0
220
0.0
230
1.0
 40
0.2227868975
 41
0.0
 42
6.283185307179586
  0
SPLINE
  5
5D
330
1F
100
AcDbEntity
  8
0
  6
Continuous
 62
     7
370
    15
100
AcDbSpline
210
0.0
220
0.0
230
1.0
 70
     8
 71
     3
 72
    20
 73
    16
 74
     0
 42
0.00000001
 43
0.00000001
 12
1.0
 22
0.0
 32
0.0
 13
1.0
 23
0.0
 33
0.0
 40
0.0
 40
0.0
 40
0.0
 40
0.0
 40
0.249999999999998
 40
0.249999999999998
 40
0.3749999999999983
 40
0.3749999999999983
 40
0.4999999999999987
 40
0.4999999999999987
 40
0.624999999999999
 40
0.624999999999999
 40
0.7499999999999993
 40
0.7499999999999993
 40
0.8749999999999997
 40
0.8749999999999997
 40
1.0
 40
1.0
 40
1.0
 40
1.0
 10
212.5901363942546
 20
95.69362550370221
 30
0.0
 10
211.9658895185179
 20
95.70386183124668
 30
0.0
 10
211.3696522570427
 20
95.72850173671243
 30
0.0
 10
210.5166017420268
 20
95.79347549521933
 30
0.0
 10
210.2443081850163
 20
95.81963853749994
 30
0.0
 10
209.7304698291794
 20
95.8816748750542
 30
0.0
 10
209.4876109904391
 20
95.91764301961827
 30
0.0
 10
209.030204606213
 20
96.00169395409107
 30
0.0
 10
208.8179054187551
 20
96.0495206718144
 30
0.0
 10
208.4343970114072
 20
96.15609383874093
 30
0.0
 10
208.2615179670364
 20
96.21513166880189
 30
0.0
 10
207.9526912501518
 20
96.34652033493676
 30
0.0
 10
207.8171951899836
 20
96.41894523439461
 30
0.0
 10
207.5892425009236
 20
96.57466189088404
 30
0.0
 10
207.4956406707448
 20
96.65838605286383
 30
0.0
 10
207.421752216126
 20
96.74851439558412
 30
0.0
  0
ELLIPSE
  5
5E
330
1F
100
AcDbEntity
  8
0
  6
Continuous
 62
     7
370
    15
100
AcDbEllipse
 10
298.2054711687
 20
126.8395528127
 30
0.0
 11
299.7021254722571
 21
4.431948095427217
 31
0.0
210
0.0
220
0.0
230
1.0
 40
0.1040588589
 41
4.421147028229976
 42
4.425084574645485
  0
ELLIPSE
  5
5F
330
1F
100
AcDbEntity
  8
0
  6
Continuous
 62
     7
370
    15
100
AcDbEllipse
 10
232.6903570133
 20
126.8395528127
 30
0.0
 11
-22.42342777076797
 21
31.4998694205861
 31
0.0
210
0.0
220
0.0
230
1.0
 40
0.0040448756
 41
5.850166707136457
 42
6.280305938888497
  0
SPLINE
  5
60
330
1F
100
AcDbEntity
  8
0
  6
Continuous
 62
     7
370
    15
100
AcDbSpline
210
0.0
220
0.0
230
1.0
 70
     8
 71
     3
 72
    18
 73
    14
 74
     0
 42
0.00000001
 43
0.00000001
 12
1.0
 22
0.0
 32
0.0
 13
1.0
 23
0.0
 33
0.0
 40
0.0
 40
0.0
 40
0.0
 40
0.0
 40
0.2500000000000016
 40
0.2500000000000016
 40
0.3750000000000013
 40
0.3750000000000013
 40
0.5000000000000011
 40
0.5000000000000011
 40
0.6250000000000009
 40
0.6250000000000009
 40
0.7500000000000007
 40
0.7500000000000007
 40
1.0
 40
1.0
 40
1.0
 40
1.0
 10
207.421752216126
 20
153.1972028230098
 30
0.0
 10
207.5656341327959
 20
153.5221732853072
 30
0.0
 10
207.7824302322292
 20
153.8160430711703
 30
0.0
 10
208.2257146834604
 20
154.2148388169995
 30
0.0
 10
208.3942185779192
 20
154.3408394964884
 30
0.0
 10
208.7616840759862
 20
154.5713167257834
 30
0.0
 10
208.9617489830178
 20
154.6769717770236
 30
0.0
 10
209.3953213185074
 20
154.8704882544763
 30
0.0
 10
209.6309510957063
 20
154.9589872564247
 30
0.0
 10
210.1278150165996
 20
155.1153131010972
 30
0.0
 10
210.3870692306135
 20
155.1828048744511
 30
0.0
 10
211.1967795804944
 20
155.3561951607469
 30
0.0
 10
211.7862908178559
 20
155.4335659998097
 30
0.0
 10
212.3900030166648
 20
155.4701453378634
 30
0.0
  0
SPLINE
  5
61
330
1F
100
AcDbEntity
  8
0
  6
Continuous
 62
     7
370
    15
100
AcDbSpline
210
0.0
220
0.0
230
1.0
 70
     8
 71
     3
 72
    12
 73
     8
 74
     0
 42
0.00000001
 43
0.00000001
 12
1.0
 22
0.0
 32
0.0
 13
1.0
 23
0.0
 33
0.0
 40
0.0
 40
0.0
 40
0.0
 40
0.0
 40
0.2500000000000014
 40
0.2500000000000014
 40
0.5000000000000029
 40
0.5000000000000029
 40
1.0
 40
1.0
 40
1.0
 40
1.0
 10
187.016797438227
 20
136.2276192439969
 30
0.0
 10
186.9537173997336
 20
136.2276192439969
 30
0.0
 10
186.8945687775522
 20
136.2529835632118
 30
0.0
 10
186.7960962274831
 20
136.3271484235847
 30
0.0
 10
186.7570596154984
 20
136.3736687641388
 30
0.0
 10
186.6571631487194
 20
136.5238111069841
 30
0.0
 10
186.6147422676527
 20
136.6355043139562
 30
0.0
 10
186.5837847363347
 20
136.748922133346
 30
0.0
  0
LINE
  5
62
330
1F
100
AcDbEntity
  8
0
  6
Continuous
 62
     7
370
    15
100
AcDbLine
 10
189.9612838111
 20
136.227619244
 30
0.0
 11
187.0167974382
 21
136.227619244
 31
0.0
  0
SPLINE
  5
63
330
1F
100
AcDbEntity
  8
0
  6
Continuous
 62
     7
370
    15
100
AcDbSpline
210
0.0
220
0.0
230
1.0
 70
     8
 71
     3
 72
    12
 73
     8
 74
     0
 42
0.00000001
 43
0.00000001
 12
1.0
 22
0.0
 32
0.0
 13
1.0
 23
0.0
 33
0.0
 40
0.0
 40
0.0
 40
0.0
 40
0.0
 40
0.5000000000000019
 40
0.5000000000000019
 40
0.7500000000000009
 40
0.7500000000000009
 40
1.0
 40
1.0
 40
1.0
 40
1.0
 10
190.3942965129863
 20
136.748922133346
 30
0.0
 10
190.3635742710672
 20
136.6363663339368
 30
0.0
 10
190.320737056532
 20
136.5236084741972
 30
0.0
 10
190.2213100323322
 20
136.3740675884008
 30
0.0
 10
190.1815578375156
 20
136.326774856694
 30
0.0
 10
190.0835163806574
 20
136.2530385633725
 30
0.0
 10
190.0239603250699
 20
136.2276192439969
 30
0.0
 10
189.9612838110941
 20
136.2276192439969
 30
0.0
  0
ELLIPSE
  5
64
330
1F
100
AcDbEntity
  8
0
  6
Continuous
 62
     7
370
    15
100
AcDbEllipse
 10
174.1418864353
 20
126.8395528127
 30
0.0
 11
14.75368316065615
 21
31.09325491558117
 31
0.0
210
0.0
220
0.0
230
1.0
 40
0.3419987131
 41
5.19328173740862
 42
6.124043104552327
  0
SPLINE
  5
65
330
1F
100
AcDbEntity
  8
0
  6
Continuous
 62
     7
370
    15
100
AcDbSpline
210
0.0
220
0.0
230
1.0
 70
     8
 71
     3
 72
    12
 73
     8
 74
     0
 42
0.00000001
 43
0.00000001
 12
1.0
 22
0.0
 32
0.0
 13
1.0
 23
0.0
 33
0.0
 40
0.0
 40
0.0
 40
0.0
 40
0.0
 40
0.2500000000000014
 40
0.2500000000000014
 40
0.5000000000000028
 40
0.5000000000000028
 40
1.0
 40
1.0
 40
1.0
 40
1.0
 10
189.9612838110941
 20
156.908044771534
 30
0.0
 10
190.0243638495874
 20
156.908044771534
 30
0.0
 10
190.0835124717689
 20
156.9001388453216
 30
0.0
 10
190.181985021838
 20
156.8768136838853
 30
0.0
 10
190.2210216338227
 20
156.8621008940536
 30
0.0
 10
190.3209181006017
 20
156.8141450933227
 30
0.0
 10
190.3633389816683
 20
156.7778829367427
 30
0.0
 10
190.3942965129863
 20
156.7402952727782
 30
0.0
  0
LINE
  5
66
330
1F
100
AcDbEntity
  8
0
  6
Continuous
 62
     7
370
    15
100
AcDbLine
 10
187.0167974382
 20
156.9080447715
 30
0.0
 11
189.9612838111
 21
156.9080447715
 31
0.0
  0
SPLINE
  5
67
330
1F
100
AcDbEntity
  8
0
  6
Continuous
 62
     7
370
    15
100
AcDbSpline
210
0.0
220
0.0
230
1.0
 70
     8
 71
     3
 72
    12
 73
     8
 74
     0
 42
0.00000001
 43
0.00000001
 12
1.0
 22
0.0
 32
0.0
 13
1.0
 23
0.0
 33
0.0
 40
0.0
 40
0.0
 40
0.0
 40
0.0
 40
0.4999999999999971
 40
0.4999999999999971
 40
0.7499999999999986
 40
0.7499999999999986
 40
1.0
 40
1.0
 40
1.0
 40
1.0
 10
186.5837847363347
 20
156.7402952727782
 30
0.0
 10
186.6145069782538
 20
156.7775972557312
 30
0.0
 10
186.657344192789
 20
156.8142090877776
 30
0.0
 10
186.7567712169888
 20
156.8619738710628
 30
0.0
 10
186.7965234118055
 20
156.8769313865452
 30
0.0
 10
186.8945648686637
 20
156.9001213323143
 30
0.0
 10
186.9541209242512
 20
156.908044771534
 30
0.0
 10
187.016797438227
 20
156.908044771534
 30
0.0
  0
ELLIPSE
  5
68
330
1F
100
AcDbEntity
  8
0
  6
Continuous
 62
     7
370
    15
100
AcDbEllipse
 10
202.836194814
 20
126.8395528127
 30
0.0
 11
-14.75368316065607
 21
31.09325491558117
 31
0.0
210
0.0
220
0.0
230
1.0
 40
0.3419987131
 41
0.1591422026273031
 42
1.089903569770978
  0
SPLINE
  5
69
330
1F
100
AcDbEntity
  8
0
  6
Continuous
 62
     7
370
    15
100
AcDbSpline
210
0.0
220
0.0
230
1.0
 70
     8
 71
     3
 72
    12
 73
     8
 74
     0
 42
0.00000001
 43
0.00000001
 12
1.0
 22
0.0
 32
0.0
 13
1.0
 23
0.0
 33
0.0
 40
0.0
 40
0.0
 40
0.0
 40
0.0
 40
0.2499999999999986
 40
0.2499999999999986
 40
0.4999999999999971
 40
0.4999999999999971
 40
1.0
 40
1.0
 40
1.0
 40
1.0
 10
187.016797438227
 20
96.77106085378784
 30
0.0
 10
186.9537404833292
 20
96.77106085378784
 30
0.0
 10
186.8946103335836
 20
96.77896118486744
 30
0.0
 10
186.7961627830503
 20
96.80227193287249
 30
0.0
 10
186.7571305448622
 20
96.81697705915612
 30
0.0
 10
186.6572406604053
 20
96.86491058734276
 30
0.0
 10
186.6149416867959
 20
96.90098056010747
 30
0.0
 10
186.5837847363347
 20
96.93881035254368
 30
0.0
  0
LINE
  5
6A
330
1F
100
AcDbEntity
  8
0
  6
Continuous
 62
     7
370
    15
100
AcDbLine
 10
189.9612838111
 20
96.7710608538
 30
0.0
 11
187.0167974382
 21
96.7710608538
 31
0.0
  0
SPLINE
  5
6B
330
1F
100
AcDbEntity
  8
0
  6
Continuous
 62
     7
370
    15
100
AcDbSpline
210
0.0
220
0.0
230
1.0
 70
     8
 71
     3
 72
    12
 73
     8
 74
     0
 42
0.00000001
 43
0.00000001
 12
1.0
 22
0.0
 32
0.0
 13
1.0
 23
0.0
 33
0.0
 40
0.0
 40
0.0
 40
0.0
 40
0.0
 40
0.5000000000000047
 40
0.5000000000000047
 40
0.7500000000000023
 40
0.7500000000000023
 40
1.0
 40
1.0
 40
1.0
 40
1.0
 10
190.3942965129863
 20
96.93881035254371
 30
0.0
 10
190.3631513150242
 20
96.90099482962353
 30
0.0
 10
190.3208770486897
 20
96.86492797153994
 30
0.0
 10
190.2209315148644
 20
96.81696790652866
 30
0.0
 10
190.1812012101604
 20
96.80210693263102
 30
0.0
 10
190.0843131601542
 20
96.77915578649989
 30
0.0
 10
190.0242479184076
 20
96.77106085378782
 30
0.0
 10
189.9612838110941
 20
96.7710608537878
 30
0.0
  0
ELLIPSE
  5
6C
330
1F
100
AcDbEntity
  8
0
  6
Continuous
 62
     7
370
    15
100
AcDbEllipse
 10
174.1418864353
 20
126.8395528127
 30
0.0
 11
-14.7536831606563
 21
31.09325491558123
 31
0.0
210
0.0
220
0.0
230
1.0
 40
0.3419987131
 41
3.300734856217123
 42
4.231496223360772
  0
SPLINE
  5
6D
330
1F
100
AcDbEntity
  8
0
  6
Continuous
 62
     7
370
    15
100
AcDbSpline
210
0.0
220
0.0
230
1.0
 70
     8
 71
     3
 72
    12
 73
     8
 74
     0
 42
0.00000001
 43
0.00000001
 12
1.0
 22
0.0
 32
0.0
 13
1.0
 23
0.0
 33
0.0
 40
0.0
 40
0.0
 40
0.0
 40
0.0
 40
0.2499999999999995
 40
0.2499999999999995
 40
0.499999999999999
 40
0.499999999999999
 40
1.0
 40
1.0
 40
1.0
 40
1.0
 10
189.9612838110941
 20
117.4514863813247
 30
0.0
 10
190.0243407659919
 20
117.4514863813247
 30
0.0
 10
190.0834709157374
 20
117.4261400279439
 30
0.0
 10
190.1819184662707
 20
117.3520206458045
 30
0.0
 10
190.2209507044588
 20
117.3055241311065
 30
0.0
 10
190.3208405889157
 20
117.1554496240979
 30
0.0
 10
190.3631395625251
 20
117.0443319149831
 30
0.0
 10
190.3942965129864
 20
116.9301834919756
 30
0.0
  0
LINE
  5
6E
330
1F
100
AcDbEntity
  8
0
  6
Continuous
 62
     7
370
    15
100
AcDbLine
 10
187.0167974382
 20
117.4514863813
 30
0.0
 11
189.9612838111
 21
117.4514863813
 31
0.0
  0
SPLINE
  5
6F
330
1F
100
AcDbEntity
  8
0
  6
Continuous
 62
     7
370
    15
100
AcDbSpline
210
0.0
220
0.0
230
1.0
 70
     8
 71
     3
 72
    12
 73
     8
 74
     0
 42
0.00000001
 43
0.00000001
 12
1.0
 22
0.0
 32
0.0
 13
1.0
 23
0.0
 33
0.0
 40
0.0
 40
0.0
 40
0.0
 40
0.0
 40
0.5000000000000037
 40
0.5000000000000037
 40
0.7500000000000018
 40
0.7500000000000018
 40
1.0
 40
1.0
 40
1.0
 40
1.0
 10
186.5837847363347
 20
116.9301834919756
 30
0.0
 10
186.6149299342968
 20
117.0442888578409
 30
0.0
 10
186.6572042006313
 20
117.1553951850597
 30
0.0
 10
186.7571497344566
 20
117.3055527924899
 30
0.0
 10
186.7968800391607
 20
117.3525454841073
 30
0.0
 10
186.8937680891669
 20
117.4255210686458
 30
0.0
 10
186.9538333309134
 20
117.4514863813248
 30
0.0
 10
187.0167974382269
 20
117.4514863813248
 30
0.0
  0
ELLIPSE
  5
70
330
1F
100
AcDbEntity
  8
0
  6
Continuous
 62
     7
370
    15
100
AcDbEllipse
 10
202.836194814
 20
126.8395528127
 30
0.0
 11
14.75368316065621
 21
31.0932549155812
 31
0.0
210
0.0
220
0.0
230
1.0
 40
0.3419987131
 41
2.051689083818824
 42
2.982450450962502
  0
SPLINE
  5
71
330
1F
100
AcDbEntity
  8
0
  6
Continuous
 62
     7
370
    15
100
AcDbSpline
210
0.0
220
0.0
230
1.0
 70
     8
 71
     3
 72
    68
 73
    64
 74
     0
 42
0.00000001
 43
0.00000001
 12
1.0
 22
0.0
 32
0.0
 13
1.0
 23
0.0
 33
0.0
 40
-0.0625000000000001
 40
-0.0625000000000001
 40
0.0
 40
0.0
 40
0.0312499999999998
 40
0.0312499999999998
 40
0.0624999999999997
 40
0.0624999999999997
 40
0.0937499999999995
 40
0.0937499999999995
 40
0.1249999999999993
 40
0.1249999999999993
 40
0.1562499999999992
 40
0.1562499999999992
 40
0.187499999999999
 40
0.187499999999999
 40
0.2187499999999988
 40
0.2187499999999988
 40
0.2499999999999987
 40
0.2499999999999987
 40
0.2812499999999987
 40
0.2812499999999987
 40
0.3124999999999988
 40
0.3124999999999988
 40
0.3437499999999988
 40
0.3437499999999988
 40
0.3749999999999989
 40
0.3749999999999989
 40
0.4062499999999989
 40
0.4062499999999989
 40
0.437499999999999
 40
0.437499999999999
 40
0.4687499999999991
 40
0.4687499999999991
 40
0.4999999999999991
 40
0.4999999999999991
 40
0.5312499999999991
 40
0.5312499999999991
 40
0.5624999999999992
 40
0.5624999999999992
 40
0.5937499999999992
 40
0.5937499999999992
 40
0.6249999999999993
 40
0.6249999999999993
 40
0.6562499999999993
 40
0.6562499999999993
 40
0.6874999999999994
 40
0.6874999999999994
 40
0.7187499999999994
 40
0.7187499999999994
 40
0.7499999999999996
 40
0.7499999999999996
 40
0.7812499999999996
 40
0.7812499999999996
 40
0.8124999999999997
 40
0.8124999999999997
 40
0.8437499999999997
 40
0.8437499999999997
 40
0.8749999999999998
 40
0.8749999999999998
 40
0.9062499999999998
 40
0.9062499999999998
 40
0.9374999999999999
 40
0.9374999999999999
 40
1.0
 40
1.0
 40
1.03125
 40
1.03125
 10
197.0924110042907
 20
113.7592203037389
 30
0.0
 10
197.6873554348454
 20
113.7592203037389
 30
0.0
 10
197.8823336810951
 20
113.7414181405442
 30
0.0
 10
198.2658969062407
 20
113.6717896074245
 30
0.0
 10
198.4564776817029
 20
113.6191124177457
 30
0.0
 10
198.8197269684897
 20
113.4820221862248
 30
0.0
 10
198.9919937074856
 20
113.3982761539034
 30
0.0
 10
199.3180154241936
 20
113.2010943142455
 30
0.0
 10
199.4722907909702
 20
113.0866812166301
 30
0.0
 10
199.7488537122213
 20
112.8377885115929
 30
0.0
 10
199.8729966025367
 20
112.7024176688613
 30
0.0
 10
200.0923113749076
 20
112.4097645421964
 30
0.0
 10
200.185441830311
 20
112.2547149705807
 30
0.0
 10
200.3350961608371
 20
111.9355506249059
 30
0.0
 10
200.3927431308289
 20
111.769075743047
 30
0.0
 10
200.4698496926513
 20
111.4300667677929
 30
0.0
 10
200.4889334739947
 20
111.2605152437905
 30
0.0
 10
200.4891468840721
 20
110.9214226116885
 30
0.0
 10
200.4696515935726
 20
110.7501361321942
 30
0.0
 10
200.3930817190956
 20
110.4204313390392
 30
0.0
 10
200.3364284778865
 20
110.2610528632329
 30
0.0
 10
200.1861525270771
 20
109.9530034073144
 30
0.0
 10
200.0922688646647
 20
109.8049795375611
 30
0.0
 10
199.8752036645682
 20
109.5321442651248
 30
0.0
 10
199.7512724082935
 20
109.4055727188962
 30
0.0
 10
199.4713155631412
 20
109.1723617879986
 30
0.0
 10
199.3198564122394
 20
109.0695345178201
 30
0.0
 10
198.9951234032917
 20
108.8899679714168
 30
0.0
 10
198.8197589644753
 20
108.8125792063581
 30
0.0
 10
198.4564419455755
 20
108.6887683700702
 30
0.0
 10
198.269450492585
 20
108.6422132141072
 30
0.0
 10
197.8848789942282
 20
108.579235735003
 30
0.0
 10
197.6859711411088
 20
108.5631267324984
 30
0.0
 10
197.2943077414123
 20
108.5630093588595
 30
0.0
 10
197.0996000050254
 20
108.5784795797825
 30
0.0
 10
196.7124829413704
 20
108.6412984585252
 30
0.0
 10
196.5230119386435
 20
108.6884574986615
 30
0.0
 10
196.1618794406259
 20
108.8112122359104
 30
0.0
 10
195.9874601912656
 20
108.8877012988945
 30
0.0
 10
195.6592621534617
 20
109.0687416753496
 30
0.0
 10
195.5081839160111
 20
109.171513761342
 30
0.0
 10
195.2313478229835
 20
109.4014653446813
 30
0.0
 10
195.104584006471
 20
109.5302252994561
 30
0.0
 10
194.8865794683142
 20
109.8037920355547
 30
0.0
 10
194.7942982887841
 20
109.9489559245791
 30
0.0
 10
194.6434186016187
 20
110.2566451740536
 30
0.0
 10
194.5854721671486
 20
110.4190678436809
 30
0.0
 10
194.5088599847339
 20
110.7476194012333
 30
0.0
 10
194.4892319647186
 20
110.9154589117224
 30
0.0
 10
194.4888520414734
 20
111.258665697147
 30
0.0
 10
194.508164381978
 20
111.4287824510263
 30
0.0
 10
194.5840849986548
 20
111.764538211731
 30
0.0
 10
194.6415907676209
 20
111.9321693830773
 30
0.0
 10
194.79195091421
 20
112.2536486167282
 30
0.0
 10
194.8839702021014
 20
112.406841368916
 30
0.0
 10
195.1013142170914
 20
112.6978949261758
 30
0.0
 10
195.227833637223
 20
112.8363651711611
 30
0.0
 10
195.5042672566828
 20
113.0854775401422
 30
0.0
 10
195.6550968467591
 20
113.1977256551789
 30
0.0
 10
195.9826084389993
 20
113.3965260638022
 30
0.0
 10
196.1571569720874
 20
113.4814022572351
 30
0.0
 10
196.698361840459
 20
113.6861537364797
 30
0.0
 10
197.0924110042907
 20
113.7592203037389
 30
0.0
 10
197.6873554348454
 20
113.7592203037389
 30
0.0
  0
LINE
  5
72
330
1F
100
AcDbEntity
  8
0
  6
Continuous
 62
     7
370
    15
100
AcDbLine
 10
176.4890406247
 20
95.8395528127
 30
0.0
 11
176.4890406247
 21
157.8395528127
 31
0.0
  0
SPLINE
  5
73
330
1F
100
AcDbEntity
  8
0
  6
Continuous
 62
     7
370
    15
100
AcDbSpline
210
0.0
220
0.0
230
1.0
 70
     8
 71
     3
 72
    12
 73
     8
 74
     0
 42
0.00000001
 43
0.00000001
 12
1.0
 22
0.0
 32
0.0
 13
1.0
 23
0.0
 33
0.0
 40
0.0
 40
0.0
 40
0.0
 40
0.0
 40
0.4999999999999999
 40
0.4999999999999999
 40
0.75
 40
0.75
 40
1.0
 40
1.0
 40
1.0
 40
1.0
 10
175.6725283382041
 20
104.9847591101852
 30
0.0
 10
175.7289648391112
 20
104.9833412288434
 30
0.0
 10
175.7980494698
 20
104.9817768925951
 30
0.0
 10
175.9168517415179
 20
104.9788327006206
 30
0.0
 10
175.957037016988
 20
104.9777944975233
 30
0.0
 10
176.0304180643918
 20
104.9758606023086
 30
0.0
 10
176.0638276281344
 20
104.9749657150198
 30
0.0
 10
176.0940637357909
 20
104.9741819247475
 30
0.0
  0
SPLINE
  5
74
330
1F
100
AcDbEntity
  8
0
  6
Continuous
 62
     7
370
    15
100
AcDbSpline
210
0.0
220
0.0
230
1.0
 70
     8
 71
     3
 72
    16
 73
    12
 74
     0
 42
0.00000001
 43
0.00000001
 12
1.0
 22
0.0
 32
0.0
 13
1.0
 23
0.0
 33
0.0
 40
0.0
 40
0.0
 40
0.0
 40
0.0
 40
0.0625000000000012
 40
0.0625000000000012
 40
0.1250000000000023
 40
0.1250000000000023
 40
0.2499999999999994
 40
0.2499999999999994
 40
0.4999999999999984
 40
0.4999999999999984
 40
1.0
 40
1.0
 40
1.0
 40
1.0
 10
176.0940637357537
 20
104.9741819247717
 30
0.0
 10
176.1056441433416
 20
104.9738817336604
 30
0.0
 10
176.1189536701029
 20
104.9725539854014
 30
0.0
 10
176.148255100189
 20
104.9658553106264
 30
0.0
 10
176.1630692000733
 20
104.9604971275207
 30
0.0
 10
176.1988976017762
 20
104.9434514783533
 30
0.0
 10
176.2130172261392
 20
104.9319889405776
 30
0.0
 10
176.2475213702277
 20
104.9004256152054
 30
0.0
 10
176.2586259209323
 20
104.8825283161601
 30
0.0
 10
176.2848020981485
 20
104.8323668985458
 30
0.0
 10
176.2890406246605
 20
104.8046224863492
 30
0.0
 10
176.2890406246605
 20
104.7799583244197
 30
0.0
  0
LINE
  5
75
330
1F
100
AcDbEntity
  8
0
  6
Continuous
 62
     7
370
    15
100
AcDbLine
 10
176.2890406247
 20
119.8176654869
 30
0.0
 11
176.2890406247
 21
104.2997325338
 31
0.0
  0
SPLINE
  5
76
330
1F
100
AcDbEntity
  8
0
  6
Continuous
 62
     7
370
    15
100
AcDbSpline
210
0.0
220
0.0
230
1.0
 70
     8
 71
     3
 72
    16
 73
    12
 74
     0
 42
0.00000001
 43
0.00000001
 12
1.0
 22
0.0
 32
0.0
 13
1.0
 23
0.0
 33
0.0
 40
0.0
 40
0.0
 40
0.0
 40
0.0
 40
0.5000000000000011
 40
0.5000000000000011
 40
0.7500000000000017
 40
0.7500000000000017
 40
0.875000000000002
 40
0.875000000000002
 40
0.937500000000001
 40
0.937500000000001
 40
1.0
 40
1.0
 40
1.0
 40
1.0
 10
176.2890406246605
 20
119.8176654869109
 30
0.0
 10
176.2890406246605
 20
119.9313580310388
 30
0.0
 10
176.2848943495826
 20
120.0456781923883
 30
0.0
 10
176.2589287541891
 20
120.2187264828854
 30
0.0
 10
176.2474678488117
 20
120.2779019900471
 30
0.0
 10
176.2131561110373
 20
120.3610251095152
 30
0.0
 10
176.1991313751077
 20
120.3891464256159
 30
0.0
 10
176.1631084120739
 20
120.4177622395933
 30
0.0
 10
176.1483539029842
 20
120.4235552874951
 30
0.0
 10
176.1190017418373
 20
120.4219618615581
 30
0.0
 10
176.1056618673333
 20
120.4154654582343
 30
0.0
 10
176.0940637357849
 20
120.4069497120311
 30
0.0
  0
SPLINE
  5
77
330
1F
100
AcDbEntity
  8
0
  6
Continuous
 62
     7
370
    15
100
AcDbSpline
210
0.0
220
0.0
230
1.0
 70
     8
 71
     3
 72
    12
 73
     8
 74
     0
 42
0.00000001
 43
0.00000001
 12
1.0
 22
0.0
 32
0.0
 13
1.0
 23
0.0
 33
0.0
 40
0.0
 40
0.0
 40
0.0
 40
0.0
 40
0.2499999999999996
 40
0.2499999999999996
 40
0.4999999999999991
 40
0.4999999999999991
 40
1.0
 40
1.0
 40
1.0
 40
1.0
 10
176.094063735792
 20
120.406949712022
 30
0.0
 10
176.0638652943513
 20
120.384776979977
 30
0.0
 10
176.0304979390153
 20
120.3656973240997
 30
0.0
 10
175.9573426631854
 20
120.340524279657
 30
0.0
 10
175.9170899641615
 20
120.3349677432402
 30
0.0
 10
175.7993612208866
 20
120.345879554227
 30
0.0
 10
175.7289027728277
 20
120.3878153096378
 30
0.0
 10
175.6725283382094
 20
120.4370270920194
 30
0.0
  0
SPLINE
  5
78
330
1F
100
AcDbEntity
  8
0
  6
Continuous
 62
     7
370
    15
100
AcDbSpline
210
0.0
220
0.0
230
1.0
 70
     8
 71
     3
 72
    12
 73
     8
 74
     0
 42
0.00000001
 43
0.00000001
 12
1.0
 22
0.0
 32
0.0
 13
1.0
 23
0.0
 33
0.0
 40
0.0
 40
0.0
 40
0.0
 40
0.0
 40
0.4999999999999978
 40
0.4999999999999978
 40
0.7499999999999989
 40
0.7499999999999989
 40
1.0
 40
1.0
 40
1.0
 40
1.0
 10
175.1677202811009
 20
121.6533784838999
 30
0.0
 10
175.2114706329853
 20
121.4329314989254
 30
0.0
 10
175.2643607841098
 20
121.2173865091198
 30
0.0
 10
175.3759723272515
 20
120.9049724325479
 30
0.0
 10
175.418531671155
 20
120.802892956932
 30
0.0
 10
175.5235089064924
 20
120.6084529442902
 30
0.0
 10
175.585076149587
 20
120.5133680452266
 30
0.0
 10
175.6725283382094
 20
120.4370270920194
 30
0.0
  0
SPLINE
  5
79
330
1F
100
AcDbEntity
  8
0
  6
Continuous
 62
     7
370
    15
100
AcDbSpline
210
0.0
220
0.0
230
1.0
 70
     8
 71
     3
 72
    12
 73
     8
 74
     0
 42
0.00000001
 43
0.00000001
 12
1.0
 22
0.0
 32
0.0
 13
1.0
 23
0.0
 33
0.0
 40
0.0
 40
0.0
 40
0.0
 40
0.0
 40
0.2499999999999992
 40
0.2499999999999992
 40
0.4999999999999984
 40
0.4999999999999984
 40
1.0
 40
1.0
 40
1.0
 40
1.0
 10
175.6725283382093
 20
133.2420785333026
 30
0.0
 10
175.5840349306414
 20
133.1648286531943
 30
0.0
 10
175.5239768898755
 20
133.071509329305
 30
0.0
 10
175.418128616893
 20
132.8754762763356
 30
0.0
 10
175.3755950956155
 20
132.7731499181238
 30
0.0
 10
175.2644437887919
 20
132.461805512348
 30
0.0
 10
175.2115129317441
 20
132.2463872591699
 30
0.0
 10
175.1677202811009
 20
132.0257271414221
 30
0.0
  0
SPLINE
  5
7A
330
1F
100
AcDbEntity
  8
0
  6
Continuous
 62
     7
370
    15
100
AcDbSpline
210
0.0
220
0.0
230
1.0
 70
     8
 71
     3
 72
    12
 73
     8
 74
     0
 42
0.00000001
 43
0.00000001
 12
1.0
 22
0.0
 32
0.0
 13
1.0
 23
0.0
 33
0.0
 40
0.0
 40
0.0
 40
0.0
 40
0.0
 40
0.5000000000000001
 40
0.5000000000000001
 40
0.7499999999999999
 40
0.7499999999999999
 40
1.0
 40
1.0
 40
1.0
 40
1.0
 10
175.6725283382093
 20
133.2420785333026
 30
0.0
 10
175.7288368865049
 20
133.2912328005464
 30
0.0
 10
175.799111547223
 20
133.3331901191501
 30
0.0
 10
175.9171494615466
 20
133.3441497966826
 30
0.0
 10
175.9573257024006
 20
133.3386410384352
 30
0.0
 10
176.0312827970785
 20
133.3130838096463
 30
0.0
 10
176.06389918479
 20
133.294303761807
 30
0.0
 10
176.0940637357857
 20
133.2721559132902
 30
0.0
  0
SPLINE
  5
7B
330
1F
100
AcDbEntity
  8
0
  6
Continuous
 62
     7
370
    15
100
AcDbSpline
210
0.0
220
0.0
230
1.0
 70
     8
 71
     3
 72
    16
 73
    12
 74
     0
 42
0.00000001
 43
0.00000001
 12
1.0
 22
0.0
 32
0.0
 13
1.0
 23
0.0
 33
0.0
 40
0.0
 40
0.0
 40
0.0
 40
0.0
 40
0.0625000000000012
 40
0.0625000000000012
 40
0.1250000000000024
 40
0.1250000000000024
 40
0.2500000000000023
 40
0.2500000000000023
 40
0.5000000000000003
 40
0.5000000000000003
 40
1.0
 40
1.0
 40
1.0
 40
1.0
 10
176.094063735754
 20
133.2721559132357
 30
0.0
 10
176.1056766355933
 20
133.2636293236405
 30
0.0
 10
176.1190278200258
 20
133.2571290621077
 30
0.0
 10
176.148427659645
 20
133.2555596649902
 30
0.0
 10
176.1632683842003
 20
133.2614430556208
 30
0.0
 10
176.1991015921688
 20
133.2899906916714
 30
0.0
 10
176.2132147999904
 20
133.3181577109771
 30
0.0
 10
176.2477061712093
 20
133.4019119693991
 30
0.0
 10
176.2587902423197
 20
133.4596253830205
 30
0.0
 10
176.2849130601157
 20
133.6332159196664
 30
0.0
 10
176.2890406246605
 20
133.7482439723083
 30
0.0
 10
176.2890406246605
 20
133.8614401384111
 30
0.0
  0
LINE
  5
7C
330
1F
100
AcDbEntity
  8
0
  6
Continuous
 62
     7
370
    15
100
AcDbLine
 10
176.2890406247
 20
149.3793730915
 30
0.0
 11
176.2890406247
 21
133.8614401384
 31
0.0
  0
SPLINE
  5
7D
330
1F
100
AcDbEntity
  8
0
  6
Continuous
 62
     7
370
    15
100
AcDbSpline
210
0.0
220
0.0
230
1.0
 70
     8
 71
     3
 72
    16
 73
    12
 74
     0
 42
0.00000001
 43
0.00000001
 12
1.0
 22
0.0
 32
0.0
 13
1.0
 23
0.0
 33
0.0
 40
0.0
 40
0.0
 40
0.0
 40
0.0
 40
0.5000000000000052
 40
0.5000000000000052
 40
0.7500000000000078
 40
0.7500000000000078
 40
0.8750000000000075
 40
0.8750000000000075
 40
0.9375000000000038
 40
0.9375000000000038
 40
1.0
 40
1.0
 40
1.0
 40
1.0
 10
176.2890406246605
 20
148.8991473009023
 30
0.0
 10
176.2890406246605
 20
148.8744761448593
 30
0.0
 10
176.2848749262005
 20
148.8468943134681
 30
0.0
 10
176.2586165978756
 20
148.7965514426448
 30
0.0
 10
176.247112816138
 20
148.7782619445829
 30
0.0
 10
176.2129820567915
 20
148.7471069135458
 30
0.0
 10
176.1985601701207
 20
148.7354675383341
 30
0.0
 10
176.1629932016829
 20
148.7185855124031
 30
0.0
 10
176.1480414333883
 20
148.7131964085954
 30
0.0
 10
176.1190376150285
 20
148.7065759126509
 30
0.0
 10
176.1056222610193
 20
148.7052233244444
 30
0.0
 10
176.0940637357827
 20
148.7049237005728
 30
0.0
  0
SPLINE
  5
7E
330
1F
100
AcDbEntity
  8
0
  6
Continuous
 62
     7
370
    15
100
AcDbSpline
210
0.0
220
0.0
230
1.0
 70
     8
 71
     3
 72
    12
 73
     8
 74
     0
 42
0.00000001
 43
0.00000001
 12
1.0
 22
0.0
 32
0.0
 13
1.0
 23
0.0
 33
0.0
 40
0.0
 40
0.0
 40
0.0
 40
0.0
 40
0.2500000000000003
 40
0.2500000000000003
 40
0.5000000000000007
 40
0.5000000000000007
 40
1.0
 40
1.0
 40
1.0
 40
1.0
 10
176.0940637357919
 20
148.7049237005746
 30
0.0
 10
176.0638759592423
 20
148.704141163157
 30
0.0
 10
176.0305221551506
 20
148.7032478313384
 30
0.0
 10
175.9573959519547
 20
148.7013205225349
 30
0.0
 10
175.9171607489305
 20
148.7002809913222
 30
0.0
 10
175.7994691187974
 20
148.6973631079749
 30
0.0
 10
175.7290884456374
 20
148.6957675019048
 30
0.0
 10
175.6725283382068
 20
148.6943465151369
 30
0.0
  0
SPLINE
  5
7F
330
1F
100
AcDbEntity
  8
0
  6
Continuous
 62
     7
370
    15
100
AcDbSpline
210
0.0
220
0.0
230
1.0
 70
     8
 71
     3
 72
    16
 73
    12
 74
     0
 42
0.00000001
 43
0.00000001
 12
1.0
 22
0.0
 32
0.0
 13
1.0
 23
0.0
 33
0.0
 40
0.0
 40
0.0
 40
0.0
 40
0.0
 40
0.25
 40
0.25
 40
0.375
 40
0.375
 40
0.5
 40
0.5
 40
0.75
 40
0.75
 40
1.0
 40
1.0
 40
1.0
 40
1.0
 10
175.1677202811009
 20
132.0257271414221
 30
0.0
 10
175.0064878036164
 20
131.2133173661752
 30
0.0
 10
174.8860079639768
 20
130.3732390717905
 30
0.0
 10
174.7636274466635
 20
129.0719440224277
 30
0.0
 10
174.732649786266
 20
128.631262986843
 30
0.0
 10
174.6910360486381
 20
127.7354233459118
 30
0.0
 10
174.6808001357053
 20
127.2887652147094
 30
0.0
 10
174.6806117386491
 20
125.9534552575695
 30
0.0
 10
174.7207564412867
 20
125.0689598842619
 30
0.0
 10
174.8849101962263
 20
123.3117099962359
 30
0.0
 10
175.0064618466359
 20
122.4659190498228
 30
0.0
 10
175.1677202811009
 20
121.6533784838999
 30
0.0
  0
LINE
  5
80
330
1F
100
AcDbEntity
  8
0
  6
Continuous
 62
     7
370
    15
100
AcDbLine
 10
174.2890406247
 20
133.3247310743
 30
0.0
 11
174.2890406247
 21
120.354374551
 31
0.0
  0
LINE
  5
81
330
1F
100
AcDbEntity
  8
0
  6
Continuous
 62
     7
370
    15
100
AcDbLine
 10
139.9890406247
 20
132.8938633802
 30
0.0
 11
139.9890406247
 21
120.7852422451
 31
0.0
  0
LINE
  5
82
330
1F
100
AcDbEntity
  8
0
  6
Continuous
 62
     7
370
    15
100
AcDbLine
 10
138.4890406247
 20
132.4608506783
 30
0.0
 11
138.4890406247
 21
121.218254947
 31
0.0
  0
LINE
  5
83
330
1F
100
AcDbEntity
  8
0
  6
Continuous
 62
     7
370
    15
100
AcDbLine
 10
174.2890406247
 20
104.8194540281
 30
0.0
 11
174.2890406247
 21
120.354374551
 31
0.0
  0
ARC
  5
84
330
1F
100
AcDbEntity
  8
0
  6
Continuous
 62
     7
370
    15
100
AcDbCircle
 10
174.4889775356
 20
104.814430917
 30
0.0
 40
0.2000000000000343
100
AcDbArc
 50
88.5608333333
 51
178.5608333333
  0
LINE
  5
85
330
1F
100
AcDbEntity
  8
0
  6
Continuous
 62
     7
370
    15
100
AcDbLine
 10
139.9890406247
 20
105.6811894164
 30
0.0
 11
139.9890406247
 21
120.7852422451
 31
0.0
  0
LINE
  5
86
330
1F
100
AcDbEntity
  8
0
  6
Continuous
 62
     7
370
    15
100
AcDbLine
 10
139.9890406247
 20
105.6811894164
 30
0.0
 11
174.2890406247
 21
104.8194540281
 31
0.0
  0
LINE
  5
87
330
1F
100
AcDbEntity
  8
0
  6
Continuous
 62
     7
370
    15
100
AcDbLine
 10
139.9890406247
 20
132.8938633802
 30
0.0
 11
139.9890406247
 21
147.9979162089
 31
0.0
  0
LINE
  5
88
330
1F
100
AcDbEntity
  8
0
  6
Continuous
 62
     7
370
    15
100
AcDbLine
 10
139.9890406247
 20
147.9979162089
 30
0.0
 11
174.2890406247
 21
148.8596515972
 31
0.0
  0
LINE
  5
89
330
1F
100
AcDbEntity
  8
0
  6
Continuous
 62
     7
370
    15
100
AcDbLine
 10
174.2890406247
 20
133.3247310743
 30
0.0
 11
174.2890406247
 21
148.8596515972
 31
0.0
  0
ARC
  5
8A
330
1F
100
AcDbEntity
  8
0
  6
Continuous
 62
     7
370
    15
100
AcDbCircle
 10
174.4889775356
 20
148.8646747084
 30
0.0
 40
0.200000000000035
100
AcDbArc
 50
181.4391666667
 51
271.4391666667
  0
LINE
  5
8B
330
1F
100
AcDbEntity
  8
0
  6
Continuous
 62
     7
370
    15
100
AcDbLine
 10
174.4940006467
 20
148.6647377974
 30
0.0
 11
175.6725283382
 21
148.6943465151
 31
0.0
  0
LINE
  5
8C
330
1F
100
AcDbEntity
  8
0
  6
Continuous
 62
     7
370
    15
100
AcDbLine
 10
174.4940006467
 20
105.0143678279
 30
0.0
 11
175.6725283382
 21
104.9847591102
 31
0.0
  0
LINE
  5
8D
330
1F
100
AcDbEntity
  8
0
  6
Continuous
 62
     7
370
    15
100
AcDbLine
 10
138.4890406247
 20
106.5472148202
 30
0.0
 11
139.9890406247
 21
105.6811894164
 31
0.0
  0
LINE
  5
8E
330
1F
100
AcDbEntity
  8
0
  6
Continuous
 62
     7
370
    15
100
AcDbLine
 10
138.4890406247
 20
106.5472148202
 30
0.0
 11
138.4890406247
 21
121.218254947
 31
0.0
  0
LINE
  5
8F
330
1F
100
AcDbEntity
  8
0
  6
Continuous
 62
     7
370
    15
100
AcDbLine
 10
138.4890406247
 20
147.1318908052
 30
0.0
 11
139.9890406247
 21
147.9979162089
 31
0.0
  0
LINE
  5
90
330
1F
100
AcDbEntity
  8
0
  6
Continuous
 62
     7
370
    15
100
AcDbLine
 10
138.4890406247
 20
132.4608506783
 30
0.0
 11
138.4890406247
 21
147.1318908052
 31
0.0
  0
ELLIPSE
  5
91
330
1F
100
AcDbEntity
  8
0
  6
Continuous
 62
     7
370
    15
100
AcDbEllipse
 10
213.2173071739
 20
154.3579816054
 30
0.0
 11
-5.999949865361854
 21
8.439153578411888
 31
0.0
210
0.0
220
0.0
230
1.0
 40
0.0029064296
 41
1.436559590231941
 42
1.470164550723357
  0
LINE
  5
92
330
1F
100
AcDbEntity
  8
0
  6
Continuous
 62
     7
370
    15
100
AcDbLine
 10
236.9114582489
 20
98.5356296171
 30
0.0
 11
237.2764046334
 21
97.7616854002
 31
0.0
  0
ARC
  5
93
330
1F
100
AcDbEntity
  8
0
  6
Continuous
 62
     7
370
    15
100
AcDbCircle
 10
235.0277310076
 20
97.6100952728
 30
0.0
 40
2.098819225720639
100
AcDbArc
 50
26.166335755
 51
205.0169901361
  0
LINE
  5
94
330
1F
100
AcDbEntity
  8
0
  6
Continuous
 62
     7
370
    15
100
AcDbLine
 10
233.6188074059
 20
95.6770458245
 30
0.0
 11
233.1258179087
 21
96.7225319193
 31
0.0
  0
LINE
  5
95
330
1F
100
AcDbEntity
  8
0
  6
Continuous
 62
     7
370
    15
100
AcDbLine
 10
230.9847102448
 20
93.8019894366
 30
0.0
 11
233.6188074059
 21
95.6770458245
 31
0.0
  0
ARC
  5
96
330
1F
100
AcDbEntity
  8
0
  6
Continuous
 62
     7
370
    15
100
AcDbCircle
 10
231.3333329992
 20
91.8097349247
 30
0.0
 40
2.022527098698977
100
AcDbArc
 50
99.9256375959
 51
170.6643395446
  0
LINE
  5
97
330
1F
100
AcDbEntity
  8
0
  6
Continuous
 62
     7
370
    15
100
AcDbLine
 10
225.2920897605
 20
86.3257817033
 30
0.0
 11
229.3375943846
 21
92.1378252281
 31
0.0
  0
LINE
  5
98
330
1F
100
AcDbEntity
  8
0
  6
Continuous
 62
     7
370
    15
100
AcDbLine
 10
215.810995335
 20
90.5892919895
 30
0.0
 11
225.2920897605
 21
86.3257817033
 31
0.0
  0
SPLINE
  5
99
330
1F
100
AcDbEntity
  8
0
  6
Continuous
 62
     7
370
    15
100
AcDbSpline
210
0.0
220
0.0
230
1.0
 70
     8
 71
     3
 72
     8
 73
     4
 74
     0
 42
0.00000001
 43
0.00000001
 12
1.0
 22
0.0
 32
0.0
 13
1.0
 23
0.0
 33
0.0
 40
0.0
 40
0.0
 40
0.0
 40
0.0
 40
1.0
 40
1.0
 40
1.0
 40
1.0
 10
215.8109953349646
 20
90.58929198947833
 30
0.0
 10
215.4348312045475
 20
92.02458981941352
 30
0.0
 10
215.0601572078895
 20
93.46029614901957
 30
0.0
 10
214.6876394629707
 20
94.89659358537719
 30
0.0
  0
SPLINE
  5
9A
330
1F
100
AcDbEntity
  8
0
  6
Continuous
 62
     7
370
    15
100
AcDbSpline
210
0.0
220
0.0
230
1.0
 70
     8
 71
     3
 72
    10
 73
     6
 74
     0
 42
0.00000001
 43
0.00000001
 12
1.0
 22
0.0
 32
0.0
 13
1.0
 23
0.0
 33
0.0
 40
0.0
 40
0.0
 40
0.0
 40
0.0
 40
0.5
 40
0.5
 40
1.0
 40
1.0
 40
1.0
 40
1.0
 10
214.6876394629707
 20
94.89659358537718
 30
0.0
 10
214.631429584792
 20
95.11331911060982
 30
0.0
 10
214.5084106859387
 20
95.30675950715245
 30
0.0
 10
214.165286325245
 20
95.58805536222732
 30
0.0
 10
213.9474642076429
 20
95.67172115241216
 30
0.0
 10
213.7217136366825
 20
95.67532236235176
 30
0.0
  0
LINE
  5
9B
330
1F
100
AcDbEntity
  8
0
  6
Continuous
 62
     7
370
    15
100
AcDbLine
 10
240.0025074556
 20
94.2958125383
 30
0.0
 11
237.762135651
 21
119.7610778279
 31
0.0
  0
LINE
  5
9C
330
1F
100
AcDbEntity
  8
0
  6
Continuous
 62
     7
370
    15
100
AcDbLine
 10
240.0025074556
 20
94.2958125383
 30
0.0
 11
239.1214601388
 21
93.8738430118
 31
0.0
  0
CIRCLE
  5
9D
330
1F
100
AcDbEntity
  8
0
  6
Continuous
 62
     7
370
    15
100
AcDbCircle
 10
223.6320230679
 20
99.4194824126
 30
0.0
 40
3.473570495174118
  0
LINE
  5
9E
330
1F
100
AcDbEntity
  8
0
  6
Continuous
 62
     7
370
    15
100
AcDbLine
 10
237.762135651
 20
119.7610778279
 30
0.0
 11
212.5901363943
 21
155.1884457823
 31
0.0
  0
LINE
  5
9F
330
1F
100
AcDbEntity
  8
0
  6
Continuous
 62
     7
370
    15
100
AcDbLine
 10
215.701121577
 20
90.9732315189
 30
0.0
 11
215.810995335
 21
90.5892919895
 31
0.0
  0
LINE
  5
A0
330
1F
100
AcDbEntity
  8
0
  6
Continuous
 62
     7
370
    15
100
AcDbLine
 10
236.5375922078
 20
98.5608002575
 30
0.0
 11
236.1427383412
 21
99.3981694699
 31
0.0
  0
LINE
  5
A1
330
1F
100
AcDbEntity
  8
0
  6
Continuous
 62
     7
370
    15
100
AcDbLine
 10
239.2034479802
 20
93.699970853
 30
0.0
 11
239.1854546569
 21
93.9044925989
 31
0.0
  0
LINE
  5
A2
330
1F
100
AcDbEntity
  8
0
  6
Continuous
 62
     7
370
    15
100
AcDbLine
 10
232.2339330551
 20
87.5570648345
 30
0.0
 11
232.383043757
 21
87.5311367553
 31
0.0
  0
ARC
  5
A3
330
1F
100
AcDbEntity
  8
0
  6
Continuous
 62
     7
370
    15
100
AcDbCircle
 10
197.4993993722
 20
111.9237445256
 30
0.0
 40
3.048565739825075
100
AcDbArc
 50
189.6254916852
 51
346.1177119073
  0
LWPOLYLINE
  5
A4
330
1F
100
AcDbEntity
  8
0
  6
Continuous
 62
     7
370
    15
100
AcDbPolyline
 90
       18
 70
   128
 43
0.0
 10
200.2815274281
 20
112.0245416811
 10
200.3370837542
 20
111.7157999107
 10
200.3205622364
 20
111.1408924881
 10
200.1513926555
 20
110.5847814339
 10
199.8386949876
 20
110.077446839
 10
199.3993268448
 20
109.6462392425
 10
198.8569746774
 20
109.3144051578
 10
198.2408768312
 20
109.0998338461
 10
197.5842473004
 20
109.0140929025
 10
196.9224851531
 20
109.0618046434
 10
196.2912661579
 20
109.2403969165
 10
195.7246194943
 20
109.5402417661
 10
195.2530932305
 20
109.9451744789
 10
194.9021074695
 20
110.4333650273
 10
194.6905839445
 20
110.9784949326
 10
194.6299259434
 20
111.5511761005
 10
194.7234035549
 20
112.120535141
 10
194.7334211989
 20
112.152592167
  0
LWPOLYLINE
  5
A5
330
1F
100
AcDbEntity
  8
0
  6
Continuous
 62
     7
370
    15
100
AcDbPolyline
 90
       26
 70
   128
 43
0.0
 10
197.6964521563
 20
113.6471522524
 10
198.3095172598
 20
113.5346967119
 10
198.8710287988
 20
113.2937372586
 10
199.3457049382
 20
112.9394142613
 10
199.7037200304
 20
112.4939911369
 10
199.9225786706
 20
111.9854554586
 10
199.9885291654
 20
111.4457603932
 10
199.8974276027
 20
110.9088169666
 10
199.6549982288
 20
110.408363309
 10
199.2764737728
 20
109.9758447643
 10
198.7856383183
 20
109.6384380632
 10
198.2133328622
 20
109.4173437098
 10
197.5955174611
 20
109.3264538754
 10
196.9710117287
 20
109.3714795025
 10
196.379055657
 20
109.5495914654
 10
195.8568440231
 20
109.8495983345
 10
195.4371893045
 20
110.2526495747
 10
195.1464599505
 20
110.7334199944
 10
195.0029235557
 20
111.26170102
 10
195.0155990396
 20
111.8042988116
 10
195.1836899549
 20
112.3271199546
 10
195.4966345314
 20
112.7973136737
 10
195.9347693102
 20
113.1853359683
 10
196.470564672
 20
113.4668059705
 10
197.0703546235
 20
113.6240378851
 10
197.6964521563
 20
113.6471522524
  0
ARC
  5
A6
330
1F
100
AcDbEntity
  8
0
  6
Continuous
 62
     7
370
    15
100
AcDbCircle
 10
233.1838659174
 20
86.7504151682
 30
0.0
 40
0.420978966274286
100
AcDbArc
 50
1.863212262
 51
23.8630495509
  0
ARC
  5
A7
330
1F
100
AcDbEntity
  8
0
  6
Continuous
 62
     7
370
    15
100
AcDbCircle
 10
233.7373951598
 20
89.7377591611
 30
0.0
 40
2.822073286691862
100
AcDbArc
 50
266.5761891495
 51
6.3523001681
  0
LINE
  5
A8
330
1F
100
AcDbEntity
  8
0
  6
Continuous
 62
     7
370
    15
100
AcDbLine
 10
233.0965587693
 20
87.111456792
 30
0.0
 11
233.3051007415
 21
86.8353172731
 31
0.0
  0
LINE
  5
A9
330
1F
100
AcDbEntity
  8
0
  6
Continuous
 62
     7
370
    15
100
AcDbLine
 10
233.5071233037
 20
87.0024679675
 30
0.0
 11
233.5688575152
 21
86.9207230062
 31
0.0
  0
LWPOLYLINE
  5
AA
330
1F
100
AcDbEntity
  8
0
  6
Continuous
 62
     7
370
    15
100
AcDbPolyline
 90
        3
 70
   128
 43
0.0
 10
236.0109573263
 20
90.764897315
 10
236.028304104
 20
90.5590603695
 10
236.0301201638
 20
90.3503588724
  0
ARC
  5
AB
330
1F
100
AcDbEntity
  8
0
  6
Continuous
 62
     7
370
    15
100
AcDbCircle
 10
223.4349058515
 20
99.6187407005
 30
0.0
 40
3.501441081981668
100
AcDbArc
 50
219.3829820391
 51
34.7375953953
  0
CIRCLE
  5
AC
330
1F
100
AcDbEntity
  8
0
  6
Continuous
 62
     7
370
    15
100
AcDbCircle
 10
223.4823562776
 20
99.5708054601
 30
0.0
 40
1.992586175083405
  0
SPLINE
  5
AD
330
1F
100
AcDbEntity
  8
0
  6
Continuous
 62
     7
370
    15
100
AcDbSpline
210
0.0
220
0.0
230
1.0
 70
     8
 71
     3
 72
    14
 73
    10
 74
     0
 42
0.00000001
 43
0.00000001
 12
1.0
 22
0.0
 32
0.0
 13
1.0
 23
0.0
 33
0.0
 40
0.0
 40
0.0
 40
0.0
 40
0.0
 40
0.1077749207859764
 40
0.2867612133939428
 40
0.4711953518304289
 40
0.6394547261041684
 40
0.8140630833004807
 40
0.9068266860428402
 40
1.0
 40
1.0
 40
1.0
 40
1.0
 10
222.9522707828836
 20
97.96726398475452
 30
0.0
 10
223.0059584062817
 20
97.98581131911962
 30
0.0
 10
223.1488072983763
 20
98.03516098292798
 30
0.0
 10
223.3999661024087
 20
98.11546604851613
 30
0.0
 10
223.7032147980279
 20
98.20199337189914
 30
0.0
 10
224.013902550549
 20
98.27886578645042
 30
0.0
 10
224.2671236330673
 20
98.33314032656712
 30
0.0
 10
224.4710726619985
 20
98.37294252012235
 30
0.0
 10
224.573701320081
 20
98.39149411632769
 30
0.0
 10
224.6251287200308
 20
98.40079035361252
 30
0.0
  0
SPLINE
  5
AE
330
1F
100
AcDbEntity
  8
0
  6
Continuous
 62
     7
370
    15
100
AcDbSpline
210
0.0
220
0.0
230
1.0
 70
     8
 71
     3
 72
    10
 73
     6
 74
     0
 42
0.00000001
 43
0.00000001
 12
1.0
 22
0.0
 32
0.0
 13
1.0
 23
0.0
 33
0.0
 40
0.0
 40
0.0
 40
0.0
 40
0.0
 40
0.439116537590407
 40
0.7513669429073239
 40
1.0
 40
1.0
 40
1.0
 40
1.0
 10
224.6251287200308
 20
98.40079035361252
 30
0.0
 10
224.6831993692528
 20
98.65180706077662
 30
0.0
 10
224.7825633477038
 20
99.08131868180438
 30
0.0
 10
224.9618849820065
 20
99.65950548512508
 30
0.0
 10
225.0615863319441
 20
99.93345265606865
 30
0.0
 10
225.105782770407
 20
100.0548902222628
 30
0.0
  0
SPLINE
  5
AF
330
1F
100
AcDbEntity
  8
0
  6
Continuous
 62
     7
370
    15
100
AcDbSpline
210
0.0
220
0.0
230
1.0
 70
     8
 71
     3
 72
    13
 73
     9
 74
     0
 42
0.00000001
 43
0.00000001
 12
1.0
 22
0.0
 32
0.0
 13
1.0
 23
0.0
 33
0.0
 40
0.0
 40
0.0
 40
0.0
 40
0.0
 40
0.216124118254462
 40
0.4396369202064775
 40
0.5932538221761242
 40
0.752004855775657
 40
0.8754343578245506
 40
1.0
 40
1.0
 40
1.0
 40
1.0
 10
225.105782770407
 20
100.0548902222628
 30
0.0
 10
225.0184678630864
 20
100.1459894295188
 30
0.0
 10
224.8408529941278
 20
100.3313022730587
 30
0.0
 10
224.5892330688685
 20
100.5911817982615
 30
0.0
 10
224.3665200602325
 20
100.8189965469606
 30
0.0
 10
224.1943829235718
 20
100.9935334074629
 30
0.0
 10
224.0431400093774
 20
101.1458460369897
 30
0.0
 10
223.9568976262898
 20
101.2321260688
 30
0.0
 10
223.913578883636
 20
101.2754637220551
 30
0.0
  0
SPLINE
  5
B0
330
1F
100
AcDbEntity
  8
0
  6
Continuous
 62
     7
370
    15
100
AcDbSpline
210
0.0
220
0.0
230
1.0
 70
     8
 71
     3
 72
    14
 73
    10
 74
     0
 42
0.00000001
 43
0.00000001
 12
1.0
 22
0.0
 32
0.0
 13
1.0
 23
0.0
 33
0.0
 40
0.0
 40
0.0
 40
0.0
 40
0.0
 40
0.0927891276284344
 40
0.1859364241092201
 40
0.3545705453231296
 40
0.5287967792096615
 40
0.7072383843481062
 40
0.8922253340288113
 40
1.0
 40
1.0
 40
1.0
 40
1.0
 10
223.913578883636
 20
101.2754637220551
 30
0.0
 10
223.8623651954566
 20
101.2662067262015
 30
0.0
 10
223.759740132705
 20
101.247657002209
 30
0.0
 10
223.5591658311631
 20
101.2085175742453
 30
0.0
 10
223.3059614154964
 20
101.1543619169098
 30
0.0
 10
222.9985847901574
 20
101.0785058433993
 30
0.0
 10
222.6917943960388
 20
100.9911766117385
 30
0.0
 10
222.4402414867869
 20
100.9108644902797
 30
0.0
 10
222.2944071181831
 20
100.8604839855903
 30
0.0
 10
222.2407209464888
 20
100.8419373531971
 30
0.0
  0
SPLINE
  5
B1
330
1F
100
AcDbEntity
  8
0
  6
Continuous
 62
     7
370
    15
100
AcDbSpline
210
0.0
220
0.0
230
1.0
 70
     8
 71
     3
 72
    13
 73
     9
 74
     0
 42
0.00000001
 43
0.00000001
 12
1.0
 22
0.0
 32
0.0
 13
1.0
 23
0.0
 33
0.0
 40
0.0
 40
0.0
 40
0.0
 40
0.0
 40
0.2161241182544777
 40
0.4396369202065181
 40
0.593253822176162
 40
0.7520048557756897
 40
0.875434357824569
 40
1.0
 40
1.0
 40
1.0
 40
1.0
 10
222.2407209464888
 20
100.8419373531971
 30
0.0
 10
222.2021275037134
 20
100.7362010200094
 30
0.0
 10
222.1236212154795
 20
100.5211135218995
 30
0.0
 10
222.0176621064849
 20
100.1925208868616
 30
0.0
 10
221.9282654788672
 20
99.88173520241078
 30
0.0
 10
221.86223701227
 20
99.62759124199069
 30
0.0
 10
221.8062872699174
 20
99.39491784625818
 30
0.0
 10
221.7755206710529
 20
99.25707477193761
 30
0.0
 10
221.7600668961127
 20
99.18783748454682
 30
0.0
  0
SPLINE
  5
B2
330
1F
100
AcDbEntity
  8
0
  6
Continuous
 62
     7
370
    15
100
AcDbSpline
210
0.0
220
0.0
230
1.0
 70
     8
 71
     3
 72
    11
 73
     7
 74
     0
 42
0.00000001
 43
0.00000001
 12
1.0
 22
0.0
 32
0.0
 13
1.0
 23
0.0
 33
0.0
 40
0.0
 40
0.0
 40
0.0
 40
0.0
 40
0.2164499953512029
 40
0.4402998152333403
 40
0.7518914760010814
 40
0.9999999999999999
 40
0.9999999999999999
 40
0.9999999999999999
 40
0.9999999999999999
 10
221.7600668961127
 20
99.18783748454682
 30
0.0
 10
221.8360531447092
 20
99.11174868678343
 30
0.0
 10
221.9906234008233
 20
98.95696982646426
 30
0.0
 10
222.289276083968
 20
98.65410245108497
 30
0.0
 10
222.625776135167
 20
98.30785163867071
 30
0.0
 10
222.8519919615989
 20
98.07187129981371
 30
0.0
 10
222.9522707828836
 20
97.96726398475452
 30
0.0
  0
LINE
  5
B3
330
1F
100
AcDbEntity
  8
0
  6
Continuous
 62
     7
370
    15
100
AcDbLine
 10
221.7815835139
 20
99.282976145
 30
0.0
 11
221.9660633037
 21
99.094106485
 31
0.0
  0
LINE
  5
B4
330
1F
100
AcDbEntity
  8
0
  6
Continuous
 62
     7
370
    15
100
AcDbLine
 10
221.9660633037
 20
99.094106485
 30
0.0
 11
222.5621652471
 21
98.4838197351
 31
0.0
  0
LINE
  5
B5
330
1F
100
AcDbEntity
  8
0
  6
Continuous
 62
     7
370
    15
100
AcDbLine
 10
222.5621652471
 20
98.4838197351
 30
0.0
 11
222.9522707829
 21
97.9672639848
 31
0.0
  0
LINE
  5
B6
330
1F
100
AcDbEntity
  8
0
  6
Continuous
 62
     7
370
    15
100
AcDbLine
 10
224.2350231843
 20
98.917346104
 30
0.0
 11
224.62512872
 21
98.4007903536
 31
0.0
  0
LINE
  5
B7
330
1F
100
AcDbEntity
  8
0
  6
Continuous
 62
     7
370
    15
100
AcDbLine
 10
224.2350231843
 20
98.917346104
 30
0.0
 11
224.4753502095
 21
99.7443960383
 31
0.0
  0
LINE
  5
B8
330
1F
100
AcDbEntity
  8
0
  6
Continuous
 62
     7
370
    15
100
AcDbLine
 10
224.4753502095
 20
99.7443960383
 30
0.0
 11
224.6907842363
 21
100.4857803983
 31
0.0
  0
LINE
  5
B9
330
1F
100
AcDbEntity
  8
0
  6
Continuous
 62
     7
370
    15
100
AcDbLine
 10
222.5621652471
 20
98.4838197351
 30
0.0
 11
223.3985942157
 21
98.7005829195
 31
0.0
  0
LINE
  5
BA
330
1F
100
AcDbEntity
  8
0
  6
Continuous
 62
     7
370
    15
100
AcDbLine
 10
223.3985942157
 20
98.7005829195
 30
0.0
 11
224.2350231843
 21
98.917346104
 31
0.0
  0
ARC
  5
BB
330
1F
100
AcDbEntity
  8
0
  6
Continuous
 62
     7
370
    15
100
AcDbCircle
 10
223.0615222426
 20
100.1584879815
 30
0.0
 40
1.473221523514153
100
AcDbArc
 50
343.6753740628
 51
29.0571334255
  0
ARC
  5
BC
330
1F
100
AcDbEntity
  8
0
  6
Continuous
 62
     7
370
    15
100
AcDbCircle
 10
223.0178014266
 20
100.170669412
 30
0.0
 40
1.518603781023155
100
AcDbArc
 50
284.5220104266
 51
343.6979618671
  0
ARC
  5
BD
330
1F
100
AcDbEntity
  8
0
  6
Continuous
 62
     7
370
    15
100
AcDbCircle
 10
223.0215818315
 20
100.1323165182
 30
0.0
 40
1.480540251157769
100
AcDbArc
 50
224.5263564168
 51
284.7525592418
  0
LWPOLYLINE
  5
BE
330
1F
100
AcDbEntity
  8
0
  6
Continuous
 62
     7
370
    15
100
AcDbPolyline
 90
        3
 70
   128
 43
0.0
 10
221.9660633037
 20
99.094106485
 10
221.8405095674
 20
99.2410088567
 10
221.7729109932
 20
99.3399091285
  0
ELLIPSE
  5
BF
330
1F
100
AcDbEntity
  8
0
  6
Continuous
 62
     7
370
    15
100
AcDbEllipse
 10
233.9296426571
 20
89.2984780774
 30
0.0
 11
1.895184197371634
 21
1.389650252276155
 31
0.0
210
0.0
220
0.0
230
1.0
 40
0.9861321518
 41
4.872421183339018
 42
6.46586006221801
  0
ELLIPSE
  5
C0
330
1F
100
AcDbEntity
  8
0
  6
Continuous
 62
     7
370
    15
100
AcDbEllipse
 10
233.9296426571
 20
89.2984780774
 30
0.0
 11
1.895184197371634
 21
1.389650252276155
 31
0.0
210
0.0
220
0.0
230
1.0
 40
0.9861321518
 41
3.224300477851087
 42
4.872421183339027
  0
SPLINE
  5
C1
330
1F
100
AcDbEntity
  8
0
  6
Continuous
 62
     7
370
    15
100
AcDbSpline
210
0.0
220
0.0
230
1.0
 70
     8
 71
     3
 72
    10
 73
     6
 74
     0
 42
0.00000001
 43
0.00000001
 12
1.0
 22
0.0
 32
0.0
 13
1.0
 23
0.0
 33
0.0
 40
0.0
 40
0.0
 40
0.0
 40
0.0
 40
0.3366176661076562
 40
0.8994210670212754
 40
1.0
 40
1.0
 40
1.0
 40
1.0
 10
235.9798206337335
 20
90.28703517095693
 30
0.0
 10
235.9667201629686
 20
90.35953867351358
 30
0.0
 10
235.9317165354701
 20
90.55326343664416
 30
0.0
 10
235.8546932589594
 20
90.75510327790177
 30
0.0
 10
235.7885782881705
 20
90.86941339137444
 30
0.0
 10
235.778554244906
 20
90.88674455721105
 30
0.0
  0
LINE
  5
C2
330
1F
100
AcDbEntity
  8
0
  6
Continuous
 62
     7
370
    15
100
AcDbLine
 10
232.2456351666
 20
87.6601951126
 30
0.0
 11
232.1842288114
 21
87.676813468
 31
0.0
  0
ARC
  5
C3
330
1F
100
AcDbEntity
  8
0
  6
Continuous
 62
     7
370
    15
100
AcDbCircle
 10
225.6835785343
 20
86.1152336145
 30
0.0
 40
0.3921535635117934
100
AcDbArc
 50
144.6610271937
 51
245.5756012451
  0
LINE
  5
C4
330
1F
100
AcDbEntity
  8
0
  6
Continuous
 62
     7
370
    15
100
AcDbLine
 10
230.0472953704
 20
93.0708543167
 30
0.0
 11
225.3636814843
 21
86.3420601887
 31
0.0
  0
LINE
  5
C5
330
1F
100
AcDbEntity
  8
0
  6
Continuous
 62
     7
370
    15
100
AcDbLine
 10
236.7361892062
 20
97.8322781926
 30
0.0
 11
230.0472953704
 21
93.0708543167
 31
0.0
  0
ARC
  5
C6
330
1F
100
AcDbEntity
  8
0
  6
Continuous
 62
     7
370
    15
100
AcDbCircle
 10
236.9685704384
 20
97.5122906138
 30
0.0
 40
0.3954656593102238
100
AcDbArc
 50
25.7051263171
 51
125.9878859011
  0
LINE
  5
C7
330
1F
100
AcDbEntity
  8
0
  6
Continuous
 62
     7
370
    15
100
AcDbLine
 10
240.7758451532
 20
90.3653777447
 30
0.0
 11
237.3249001113
 21
97.6838197715
 31
0.0
  0
LINE
  5
C8
330
1F
100
AcDbEntity
  8
0
  6
Continuous
 62
     7
370
    15
100
AcDbLine
 10
241.4875268422
 20
82.2760226767
 30
0.0
 11
240.7758451532
 21
90.3653777447
 31
0.0
  0
ARC
  5
C9
330
1F
100
AcDbEntity
  8
0
  6
Continuous
 62
     7
370
    15
100
AcDbCircle
 10
241.0854414921
 20
82.2429997655
 30
0.0
 40
0.4034391422338578
100
AcDbArc
 50
265.894863421
 51
4.6951137195
  0
LINE
  5
CA
330
1F
100
AcDbEntity
  8
0
  6
Continuous
 62
     7
370
    15
100
AcDbLine
 10
232.9220016207
 20
82.430243598
 30
0.0
 11
241.0565605487
 21
81.8405956991
 31
0.0
  0
LINE
  5
CB
330
1F
100
AcDbEntity
  8
0
  6
Continuous
 62
     7
370
    15
100
AcDbLine
 10
225.5214260959
 20
85.7581747901
 30
0.0
 11
232.9220016207
 21
82.430243598
 31
0.0
  0
ARC
  5
CC
330
1F
100
AcDbEntity
  8
0
  6
Continuous
 62
     7
370
    15
100
AcDbCircle
 10
225.6838769747
 20
86.1154533877
 30
0.0
 40
0.372545885336248
100
AcDbArc
 50
144.6610271937
 51
245.5756012451
  0
LINE
  5
CD
330
1F
100
AcDbEntity
  8
0
  6
Continuous
 62
     7
370
    15
100
AcDbLine
 10
225.5298321582
 20
85.7762475045
 30
0.0
 11
232.9272290614
 21
82.4497456923
 31
0.0
  0
LINE
  5
CE
330
1F
100
AcDbEntity
  8
0
  6
Continuous
 62
     7
370
    15
100
AcDbLine
 10
232.9272290614
 20
82.4497456923
 30
0.0
 11
241.0582941146
 21
81.8603510535
 31
0.0
  0
ARC
  5
CF
330
1F
100
AcDbEntity
  8
0
  6
Continuous
 62
     7
370
    15
100
AcDbCircle
 10
241.0857310106
 20
82.2426349167
 30
0.0
 40
0.3832671853129977
100
AcDbArc
 50
265.8948634594
 51
4.6951136385
  0
LINE
  5
D0
330
1F
100
AcDbEntity
  8
0
  6
Continuous
 62
     7
370
    15
100
AcDbLine
 10
241.4677120935
 20
82.2740066819
 30
0.0
 11
240.7563360789
 21
90.3598872905
 31
0.0
  0
LINE
  5
D1
330
1F
100
AcDbEntity
  8
0
  6
Continuous
 62
     7
370
    15
100
AcDbLine
 10
240.7563360789
 20
90.3598872905
 30
0.0
 11
237.3068732525
 21
97.675185973
 31
0.0
  0
ARC
  5
D2
330
1F
100
AcDbEntity
  8
0
  6
Continuous
 62
     7
370
    15
100
AcDbCircle
 10
236.9683600633
 20
97.5122332731
 30
0.0
 40
0.3756923763446883
100
AcDbArc
 50
25.7051263171
 51
125.9878859011
  0
LINE
  5
D3
330
1F
100
AcDbEntity
  8
0
  6
Continuous
 62
     7
370
    15
100
AcDbLine
 10
236.7475978927
 20
97.816221473
 30
0.0
 11
230.061577004
 21
93.0568426765
 31
0.0
  0
LINE
  5
D4
330
1F
100
AcDbEntity
  8
0
  6
Continuous
 62
     7
370
    15
100
AcDbLine
 10
230.061577004
 20
93.0568426765
 30
0.0
 11
225.3799747772
 21
86.3309386332
 31
0.0
  0
LINE
  5
D5
330
1F
100
AcDbEntity
  8
0
  6
Continuous
 62
     7
370
    15
100
AcDbLine
 10
236.9414301122
 20
97.5415101523
 30
0.0
 11
236.7475978927
 21
97.816221473
 31
0.0
  0
LINE
  5
D6
330
1F
100
AcDbEntity
  8
0
  6
Continuous
 62
     7
370
    15
100
AcDbLine
 10
236.6664522
 20
96.6976884964
 30
0.0
 11
236.9414301122
 21
97.5415101523
 31
0.0
  0
LINE
  5
D7
330
1F
100
AcDbEntity
  8
0
  6
Continuous
 62
     7
370
    15
100
AcDbLine
 10
230.2438237758
 20
92.88381278
 30
0.0
 11
230.061577004
 21
93.0568426765
 31
0.0
  0
LINE
  5
D8
330
1F
100
AcDbEntity
  8
0
  6
Continuous
 62
     7
370
    15
100
AcDbLine
 10
225.6666145179
 20
86.149995431
 30
0.0
 11
225.3799747772
 21
86.3309386332
 31
0.0
  0
LINE
  5
D9
330
1F
100
AcDbEntity
  8
0
  6
Continuous
 62
     7
370
    15
100
AcDbLine
 10
226.5224287705
 20
86.4486701187
 30
0.0
 11
225.6666145179
 21
86.149995431
 31
0.0
  0
LINE
  5
DA
330
1F
100
AcDbEntity
  8
0
  6
Continuous
 62
     7
370
    15
100
AcDbLine
 10
229.9127116043
 20
93.2490625499
 30
0.0
 11
230.0472953704
 21
93.0708543167
 31
0.0
  0
LINE
  5
DB
330
1F
100
AcDbEntity
  8
0
  6
Continuous
 62
     7
370
    15
100
AcDbLine
 10
236.238633721
 20
98.4911131063
 30
0.0
 11
233.2837134088
 21
96.3876818856
 31
0.0
  0
ARC
  5
DC
330
1F
100
AcDbEntity
  8
0
  6
Continuous
 62
     7
370
    15
100
AcDbCircle
 10
233.695602571
 20
85.3721467059
 30
0.0
 40
0.9874058866868102
100
AcDbArc
 50
245.8127164439
 51
265.8802957743
  0
LINE
  5
DD
330
1F
100
AcDbEntity
  8
0
  6
Continuous
 62
     7
370
    15
100
AcDbLine
 10
229.1847865415
 20
86.3179475116
 30
0.0
 11
233.2910420542
 21
84.4714241219
 31
0.0
  0
ARC
  5
DE
330
1F
100
AcDbEntity
  8
0
  6
Continuous
 62
     7
370
    15
100
AcDbCircle
 10
229.5901676374
 20
87.2105945727
 30
0.0
 40
0.9803839087795747
100
AcDbArc
 50
144.6610271937
 51
245.5756012451
  0
LINE
  5
DF
330
1F
100
AcDbEntity
  8
0
  6
Continuous
 62
     7
370
    15
100
AcDbLine
 10
231.3891574049
 20
91.5111744207
 30
0.0
 11
228.7904250125
 21
87.7776610083
 31
0.0
  0
ARC
  5
E0
330
1F
100
AcDbEntity
  8
0
  6
Continuous
 62
     7
370
    15
100
AcDbCircle
 10
232.2214386153
 20
90.9316626916
 30
0.0
 40
1.014162638508235
100
AcDbArc
 50
125.4392085403
 51
145.1507686002
  0
LINE
  5
E1
330
1F
100
AcDbEntity
  8
0
  6
Continuous
 62
     7
370
    15
100
AcDbLine
 10
235.3447622103
 20
94.3998383781
 30
0.0
 11
231.633387724
 21
91.7579326273
 31
0.0
  0
ARC
  5
E2
330
1F
100
AcDbEntity
  8
0
  6
Continuous
 62
     7
370
    15
100
AcDbCircle
 10
235.925715291
 20
93.5998694311
 30
0.0
 40
0.988664148275543
100
AcDbArc
 50
25.7051263171
 51
125.9878859011
  0
LINE
  5
E3
330
1F
100
AcDbEntity
  8
0
  6
Continuous
 62
     7
370
    15
100
AcDbLine
 10
238.731317865
 20
89.9680090966
 30
0.0
 11
236.8165394731
 21
94.0286923254
 31
0.0
  0
ARC
  5
E4
330
1F
100
AcDbEntity
  8
0
  6
Continuous
 62
     7
370
    15
100
AcDbCircle
 10
237.8481868689
 20
89.5518985351
 30
0.0
 40
0.9762521988339786
100
AcDbArc
 50
5.0079174424
 51
25.228711093
  0
LINE
  5
E5
330
1F
100
AcDbEntity
  8
0
  6
Continuous
 62
     7
370
    15
100
AcDbLine
 10
239.2155933925
 20
85.1486897696
 30
0.0
 11
238.8207123664
 21
89.6371189103
 31
0.0
  0
ARC
  5
E6
330
1F
100
AcDbEntity
  8
0
  6
Continuous
 62
     7
370
    15
100
AcDbCircle
 10
238.2103800171
 20
85.0661324915
 30
0.0
 40
1.008597855584722
100
AcDbArc
 50
265.894863421
 51
4.6951137195
  0
LINE
  5
E7
330
1F
100
AcDbEntity
  8
0
  6
Continuous
 62
     7
370
    15
100
AcDbLine
 10
233.6246668744
 20
84.387292142
 30
0.0
 11
238.1381776587
 21
84.0601223257
 31
0.0
  0
CIRCLE
  5
E8
330
1F
100
AcDbEntity
  8
0
  6
Continuous
 62
     7
370
    15
100
AcDbCircle
 10
234.5475724326
 20
88.6324357514
 30
0.0
 40
2.565295798656216
  0
SPLINE
  5
E9
330
1F
100
AcDbEntity
  8
0
  6
Continuous
 62
     7
370
    15
100
AcDbSpline
210
0.0
220
0.0
230
1.0
 70
     8
 71
     3
 72
    11
 73
     7
 74
     0
 42
0.00000001
 43
0.00000001
 12
1.0
 22
0.0
 32
0.0
 13
1.0
 23
0.0
 33
0.0
 40
0.0
 40
0.0
 40
0.0
 40
0.0
 40
0.3428198029224096
 40
0.6843499542184662
 40
0.9951188561699893
 40
0.9999999999999999
 40
0.9999999999999999
 40
0.9999999999999999
 40
0.9999999999999999
 10
236.6664522000391
 20
96.69768849641225
 30
0.0
 10
236.6183291503485
 20
96.54096337362674
 30
0.0
 10
236.5222640847605
 20
96.2281027112938
 30
0.0
 10
236.400464684498
 20
95.72848951308005
 30
0.0
 10
236.3352246910673
 20
95.41562720172195
 30
0.0
 10
236.3079769597428
 20
95.27193464580813
 30
0.0
 10
236.3075556067368
 20
95.26971261529653
 30
0.0
  0
LINE
  5
EA
330
1F
100
AcDbEntity
  8
0
  6
Continuous
 62
     7
370
    15
100
AcDbLine
 10
236.9414301122
 20
97.5415101523
 30
0.0
 11
237.3068732525
 21
97.675185973
 31
0.0
  0
LINE
  5
EB
330
1F
100
AcDbEntity
  8
0
  6
Continuous
 62
     7
370
    15
100
AcDbLine
 10
240.4675759183
 20
90.3056337661
 30
0.0
 11
240.7563360789
 21
90.3598872905
 31
0.0
  0
ARC
  5
EC
330
1F
100
AcDbEntity
  8
0
  6
Continuous
 62
     7
370
    15
100
AcDbCircle
 10
236.4712238276
 20
98.1701371493
 30
0.0
 40
0.3963883483458607
100
AcDbArc
 50
37.4267288511
 51
125.9283658729
  0
SPLINE
  5
ED
330
1F
100
AcDbEntity
  8
0
  6
Continuous
 62
     7
370
    15
100
AcDbSpline
210
0.0
220
0.0
230
1.0
 70
     8
 71
     3
 72
    11
 73
     7
 74
     0
 42
0.00000001
 43
0.00000001
 12
1.0
 22
0.0
 32
0.0
 13
1.0
 23
0.0
 33
0.0
 40
0.0
 40
0.0
 40
0.0
 40
0.0
 40
0.3219798907253687
 40
0.6440235861688473
 40
0.9911766261994338
 40
1.0
 40
1.0
 40
1.0
 40
1.0
 10
230.2438237758108
 20
92.88381278000415
 30
0.0
 10
230.3452596010457
 20
92.78675954000192
 30
0.0
 10
230.5481513524112
 20
92.59263382757086
 30
0.0
 10
230.9208155782598
 20
92.226920771105
 30
0.0
 10
231.1724128671296
 20
91.97588368166994
 30
0.0
 10
231.2949662073171
 20
91.85234510455295
 30
0.0
 10
231.2980038634341
 20
91.84928302795927
 30
0.0
  0
SPLINE
  5
EE
330
1F
100
AcDbEntity
  8
0
  6
Continuous
 62
     7
370
    15
100
AcDbSpline
210
0.0
220
0.0
230
1.0
 70
     8
 71
     3
 72
    11
 73
     7
 74
     0
 42
0.00000001
 43
0.00000001
 12
1.0
 22
0.0
 32
0.0
 13
1.0
 23
0.0
 33
0.0
 40
0.0
 40
0.0
 40
0.0
 40
0.0
 40
0.004881143830064
 40
0.3156500457815746
 40
0.6571801970776067
 40
0.9999999999999999
 40
0.9999999999999999
 40
0.9999999999999999
 40
0.9999999999999999
 10
227.9451980225539
 20
86.82080108068973
 30
0.0
 10
227.9430169443296
 20
86.82039374370316
 30
0.0
 10
227.8019726593543
 20
86.79405238951749
 30
0.0
 10
227.4934596879573
 20
86.72929323422001
 30
0.0
 10
226.996571284823
 20
86.60381494766848
 30
0.0
 10
226.6806747100799
 20
86.50044999183446
 30
0.0
 10
226.5224287705139
 20
86.44867011873055
 30
0.0
  0
LINE
  5
EF
330
1F
100
AcDbEntity
  8
0
  6
Continuous
 62
     7
370
    15
100
AcDbLine
 10
225.6666145179
 20
86.149995431
 30
0.0
 11
225.5298321582
 21
85.7762475045
 31
0.0
  0
LINE
  5
F0
330
1F
100
AcDbEntity
  8
0
  6
Continuous
 62
     7
370
    15
100
AcDbLine
 10
232.983269906
 20
82.7438620098
 30
0.0
 11
232.9272290614
 21
82.4497456923
 31
0.0
  0
ARC
  5
F1
330
1F
100
AcDbEntity
  8
0
  6
Continuous
 62
     7
370
    15
100
AcDbCircle
 10
234.066421113
 20
89.3118593922
 30
0.0
 40
2.580484677824056
100
AcDbArc
 50
285.9762173221
 51
27.0596785367
  0
ARC
  5
F2
330
1F
100
AcDbEntity
  8
0
  6
Continuous
 62
     7
370
    15
100
AcDbCircle
 10
234.0482394581
 20
89.2737209423
 30
0.0
 40
2.54897710921935
100
AcDbArc
 50
226.7413768142
 51
286.6050858916
  0
LINE
  5
F3
330
1F
100
AcDbEntity
  8
0
  6
Continuous
 62
     7
370
    15
100
AcDbLine
 10
241.0682990427
 20
82.2660691321
 30
0.0
 11
241.4677120935
 21
82.2740066819
 31
0.0
  0
LINE
  5
F4
330
1F
100
AcDbEntity
  8
0
  6
Continuous
 62
     7
370
    15
100
AcDbLine
 10
240.3794224718
 20
82.9542768805
 30
0.0
 11
241.0682990427
 21
82.2660691321
 31
0.0
  0
SPLINE
  5
F5
330
1F
100
AcDbEntity
  8
0
  6
Continuous
 62
     7
370
    15
100
AcDbSpline
210
0.0
220
0.0
230
1.0
 70
     8
 71
     3
 72
    11
 73
     7
 74
     0
 42
0.00000001
 43
0.00000001
 12
1.0
 22
0.0
 32
0.0
 13
1.0
 23
0.0
 33
0.0
 40
0.0
 40
0.0
 40
0.0
 40
0.0
 40
0.3224837050121825
 40
0.6449232485211592
 40
0.9911766421304042
 40
1.0
 40
1.0
 40
1.0
 40
1.0
 10
240.4675759183377
 20
90.30563376610564
 30
0.0
 10
240.3117554887113
 20
90.27333231057489
 30
0.0
 10
240.0001359677908
 20
90.20873382293323
 30
0.0
 10
239.4917139469727
 20
90.06513920646888
 30
0.0
 10
239.1773185778431
 20
89.95700930403578
 30
0.0
 10
239.0330475748104
 20
89.90099116916309
 30
0.0
 10
239.029462562036
 20
89.89959916574664
 30
0.0
  0
SPLINE
  5
F6
330
1F
100
AcDbEntity
  8
0
  6
Continuous
 62
     7
370
    15
100
AcDbSpline
210
0.0
220
0.0
230
1.0
 70
     8
 71
     3
 72
    11
 73
     7
 74
     0
 42
0.00000001
 43
0.00000001
 12
1.0
 22
0.0
 32
0.0
 13
1.0
 23
0.0
 33
0.0
 40
0.0
 40
0.0
 40
0.0
 40
0.0
 40
0.0088233741927883
 40
0.3559983152956048
 40
0.6780419869442607
 40
1.0
 40
1.0
 40
1.0
 40
1.0
 10
233.3696419780384
 20
84.18119703637872
 30
0.0
 10
233.368378860166
 20
84.17769073041148
 30
0.0
 10
233.3174156090587
 20
84.03622115313014
 30
0.0
 10
233.2175662057734
 20
83.72554355112466
 30
0.0
 10
233.0809892977321
 20
83.21739275012487
 30
0.0
 10
233.0158401480945
 20
82.90169159279515
 30
0.0
 10
232.9832699060163
 20
82.74386200981832
 30
0.0
  0
LINE
  5
F7
330
1F
100
AcDbEntity
  8
0
  6
Continuous
 62
     7
370
    15
100
AcDbLine
 10
241.0682990427
 20
82.2660691321
 30
0.0
 11
241.0582941146
 21
81.8603510535
 31
0.0
  0
SPLINE
  5
F8
330
1F
100
AcDbEntity
  8
0
  6
Continuous
 62
     7
370
    15
100
AcDbSpline
210
0.0
220
0.0
230
1.0
 70
     8
 71
     3
 72
    11
 73
     7
 74
     0
 42
0.00000001
 43
0.00000001
 12
1.0
 22
0.0
 32
0.0
 13
1.0
 23
0.0
 33
0.0
 40
0.0
 40
0.0
 40
0.0
 40
0.0
 40
0.0048811438300616
 40
0.315650045781568
 40
0.6571801970775965
 40
1.0
 40
1.0
 40
1.0
 40
1.0
 10
239.3683909180772
 20
83.94015258839622
 30
0.0
 10
239.3697648270251
 20
83.93884877101826
 30
0.0
 10
239.4586117115703
 20
83.85453451407862
 30
0.0
 10
239.6606547848662
 20
83.6610256726097
 30
0.0
 10
240.0089096381842
 20
83.32242302846934
 30
0.0
 10
240.255763129518
 20
83.07714633708038
 30
0.0
 10
240.3794224718298
 20
82.954276880474
 30
0.0
  0
LINE
  5
F9
330
1F
100
AcDbEntity
  8
0
  6
Continuous
 62
     7
370
    15
100
AcDbLine
 10
235.6561060115
 20
98.0764464346
 30
0.0
 11
233.2837134088
 21
96.3876818856
 31
0.0
  0
LINE
  5
FA
330
1F
100
AcDbEntity
  8
0
  6
Continuous
 62
     7
370
    15
100
AcDbLine
 10
235.1899090653
 20
98.6937581394
 30
0.0
 11
232.9853271914
 21
97.124448022
 31
0.0
  0
ARC
  5
FB
330
1F
100
AcDbEntity
  8
0
  6
Continuous
 62
     7
370
    15
100
AcDbCircle
 10
235.7713386473
 20
97.8869857184
 30
0.0
 40
0.9944556793093656
100
AcDbArc
 50
43.0065996374
 51
125.7797642449
  0
ELLIPSE
  5
FC
330
1F
100
AcDbEntity
  8
0
  6
HIDDEN
 62
     7
370
     0
100
AcDbEllipse
 10
232.6903570133
 20
126.8395528127
 30
0.0
 11
-22.42342777076797
 21
31.4998694205861
 31
0.0
210
0.0
220
0.0
230
1.0
 40
0.0040448756
 41
6.280305938888497
 42
6.851383252424152
  0
SPLINE
  5
FD
330
1F
100
AcDbEntity
  8
0
  6
HIDDEN
 62
     7
370
     0
100
AcDbSpline
210
0.0
220
0.0
230
1.0
 70
    11
 71
     3
 72
    28
 73
    24
 74
     0
 42
0.00000001
 43
0.00000001
 12
1.0
 22
0.0
 32
0.0
 13
1.0
 23
0.0
 33
0.0
 40
0.0
 40
0.0
 40
0.0
 40
0.0
 40
0.0200284200922078
 40
0.0564510748382595
 40
0.0736435094323842
 40
0.1272559928157534
 40
0.1809361562422951
 40
0.2346609768701326
 40
0.2883120557613596
 40
0.3418860639685828
 40
0.3954999501466515
 40
0.4492083518229975
 40
0.5029185737955896
 40
0.5565352244504754
 40
0.6101089618523585
 40
0.6637569415505337
 40
0.7174810185302307
 40
0.7711641783057382
 40
0.8247529460215405
 40
0.8783413059449063
 40
0.9320236941967418
 40
0.9857479855980827
 40
1.0
 40
1.0
 40
1.0
 40
1.0
 10
186.5159072370613
 20
126.5904229322334
 30
0.0
 10
186.5021631709054
 20
126.673662016133
 30
0.0
 10
186.4634248528766
 20
126.9082754171426
 30
0.0
 10
186.561768703277
 20
127.2082540907095
 30
0.0
 10
186.6096302839142
 20
127.6544891355249
 30
0.0
 10
186.9080628713139
 20
128.1094683398841
 30
0.0
 10
187.4037857700681
 20
128.5674444037565
 30
0.0
 10
188.0404590574324
 20
128.8275571829892
 30
0.0
 10
188.722549816681
 20
128.8643615555646
 30
0.0
 10
189.3790355245177
 20
128.673143627185
 30
0.0
 10
189.9351332977484
 20
128.2759287328516
 30
0.0
 10
190.3290339066983
 20
127.7166007074463
 30
0.0
 10
190.5155762616043
 20
127.0581207547357
 30
0.0
 10
190.4736923094799
 20
126.3755085558743
 30
0.0
 10
190.2087441360352
 20
125.7455858715476
 30
0.0
 10
189.7503293152109
 20
125.2384000345534
 30
0.0
 10
189.1494114751807
 20
124.9111512614686
 30
0.0
 10
188.4738300899815
 20
124.8013479753417
 30
0.0
 10
187.801294854013
 20
124.9211267068911
 30
0.0
 10
187.203739700507
 20
125.2562335632754
 30
0.0
 10
186.7600368175256
 20
125.7705052009178
 30
0.0
 10
186.5444909833734
 20
126.2481200562909
 30
0.0
 10
186.5208614421707
 20
126.5310941571158
 30
0.0
 10
186.5159072370613
 20
126.5904229322334
 30
0.0
  0
SPLINE
  5
FE
330
1F
100
AcDbEntity
  8
0
  6
HIDDEN
 62
     7
370
     0
100
AcDbSpline
210
0.0
220
0.0
230
1.0
 70
     8
 71
     3
 72
    12
 73
     8
 74
     0
 42
0.00000001
 43
0.00000001
 12
1.0
 22
0.0
 32
0.0
 13
1.0
 23
0.0
 33
0.0
 40
0.0
 40
0.0
 40
0.0
 40
0.0
 40
0.2499999999999986
 40
0.2499999999999986
 40
0.4999999999999972
 40
0.4999999999999972
 40
1.0
 40
1.0
 40
1.0
 40
1.0
 10
187.016797438227
 20
117.4514863813249
 30
0.0
 10
186.9537173997336
 20
117.4514863813249
 30
0.0
 10
186.8945687775522
 20
117.42612206211
 30
0.0
 10
186.7960962274831
 20
117.3519572017371
 30
0.0
 10
186.7570596154984
 20
117.3054368611829
 30
0.0
 10
186.6571631487194
 20
117.1552945183377
 30
0.0
 10
186.6147422676527
 20
117.0436013113655
 30
0.0
 10
186.5837847363347
 20
116.9301834919758
 30
0.0
  0
LINE
  5
FF
330
1F
100
AcDbEntity
  8
0
  6
HIDDEN
 62
     7
370
     0
100
AcDbLine
 10
189.9612838111
 20
117.4514863813
 30
0.0
 11
187.0167974382
 21
117.4514863813
 31
0.0
  0
SPLINE
  5
100
330
1F
100
AcDbEntity
  8
0
  6
HIDDEN
 62
     7
370
     0
100
AcDbSpline
210
0.0
220
0.0
230
1.0
 70
     8
 71
     3
 72
    12
 73
     8
 74
     0
 42
0.00000001
 43
0.00000001
 12
1.0
 22
0.0
 32
0.0
 13
1.0
 23
0.0
 33
0.0
 40
0.0
 40
0.0
 40
0.0
 40
0.0
 40
0.5000000000000011
 40
0.5000000000000011
 40
0.7500000000000006
 40
0.7500000000000006
 40
1.0
 40
1.0
 40
1.0
 40
1.0
 10
190.3942965129863
 20
116.9301834919758
 30
0.0
 10
190.3635742710672
 20
117.042739291385
 30
0.0
 10
190.320737056532
 20
117.1554971511246
 30
0.0
 10
190.2213100323322
 20
117.3050380369209
 30
0.0
 10
190.1815578375156
 20
117.3523307686278
 30
0.0
 10
190.0835163806574
 20
117.4260670619492
 30
0.0
 10
190.0239603250699
 20
117.451486381325
 30
0.0
 10
189.9612838110941
 20
117.451486381325
 30
0.0
  0
ELLIPSE
  5
101
330
1F
100
AcDbEntity
  8
0
  6
HIDDEN
 62
     7
370
     0
100
AcDbEllipse
 10
174.1418864353
 20
126.8395528127
 30
0.0
 11
-14.75368316065621
 21
31.0932549155812
 31
0.0
210
0.0
220
0.0
230
1.0
 40
0.3419987131
 41
3.300734856217131
 42
4.23149622336078
  0
SPLINE
  5
102
330
1F
100
AcDbEntity
  8
0
  6
HIDDEN
 62
     7
370
     0
100
AcDbSpline
210
0.0
220
0.0
230
1.0
 70
     8
 71
     3
 72
    12
 73
     8
 74
     0
 42
0.00000001
 43
0.00000001
 12
1.0
 22
0.0
 32
0.0
 13
1.0
 23
0.0
 33
0.0
 40
0.0
 40
0.0
 40
0.0
 40
0.0
 40
0.2500000000000009
 40
0.2500000000000009
 40
0.5000000000000018
 40
0.5000000000000018
 40
1.0
 40
1.0
 40
1.0
 40
1.0
 10
189.9612838110941
 20
96.77106085378789
 30
0.0
 10
190.0243638495874
 20
96.77106085378789
 30
0.0
 10
190.0835124717689
 20
96.77896678000037
 30
0.0
 10
190.181985021838
 20
96.80229194143661
 30
0.0
 10
190.2210216338227
 20
96.8170047312683
 30
0.0
 10
190.3209181006017
 20
96.86496053199922
 30
0.0
 10
190.3633389816683
 20
96.90122268857928
 30
0.0
 10
190.3942965129863
 20
96.93881035254378
 30
0.0
  0
LINE
  5
103
330
1F
100
AcDbEntity
  8
0
  6
HIDDEN
 62
     7
370
     0
100
AcDbLine
 10
187.0167974382
 20
96.7710608538
 30
0.0
 11
189.9612838111
 21
96.7710608538
 31
0.0
  0
SPLINE
  5
104
330
1F
100
AcDbEntity
  8
0
  6
HIDDEN
 62
     7
370
     0
100
AcDbSpline
210
0.0
220
0.0
230
1.0
 70
     8
 71
     3
 72
    12
 73
     8
 74
     0
 42
0.00000001
 43
0.00000001
 12
1.0
 22
0.0
 32
0.0
 13
1.0
 23
0.0
 33
0.0
 40
0.0
 40
0.0
 40
0.0
 40
0.0
 40
0.5
 40
0.5
 40
0.75
 40
0.75
 40
1.0
 40
1.0
 40
1.0
 40
1.0
 10
186.5837847363348
 20
96.93881035254378
 30
0.0
 10
186.6145069782539
 20
96.90150836959074
 30
0.0
 10
186.657344192789
 20
96.86489653754437
 30
0.0
 10
186.7567712169888
 20
96.81713175425915
 30
0.0
 10
186.7965234118055
 20
96.80217423877679
 30
0.0
 10
186.8945648686637
 20
96.77898429300764
 30
0.0
 10
186.9541209242512
 20
96.7710608537879
 30
0.0
 10
187.016797438227
 20
96.77106085378792
 30
0.0
  0
ELLIPSE
  5
105
330
1F
100
AcDbEntity
  8
0
  6
HIDDEN
 62
     7
370
     0
100
AcDbEllipse
 10
202.836194814
 20
126.8395528127
 30
0.0
 11
14.75368316065613
 21
31.09325491558114
 31
0.0
210
0.0
220
0.0
230
1.0
 40
0.3419987131
 41
2.051689083818821
 42
2.982450450962494
  0
SPLINE
  5
106
330
1F
100
AcDbEntity
  8
0
  6
HIDDEN
 62
     7
370
     0
100
AcDbSpline
210
0.0
220
0.0
230
1.0
 70
     8
 71
     3
 72
    12
 73
     8
 74
     0
 42
0.00000001
 43
0.00000001
 12
1.0
 22
0.0
 32
0.0
 13
1.0
 23
0.0
 33
0.0
 40
0.0
 40
0.0
 40
0.0
 40
0.0
 40
0.2499999999999991
 40
0.2499999999999991
 40
0.4999999999999982
 40
0.4999999999999982
 40
1.0
 40
1.0
 40
1.0
 40
1.0
 10
187.016797438227
 20
156.9080447715342
 30
0.0
 10
186.9537173997336
 20
156.9080447715342
 30
0.0
 10
186.8945687775522
 20
156.9001388453218
 30
0.0
 10
186.7960962274831
 20
156.8768136838856
 30
0.0
 10
186.7570596154984
 20
156.8621008940539
 30
0.0
 10
186.6571631487193
 20
156.8141450933229
 30
0.0
 10
186.6147422676527
 20
156.7778829367429
 30
0.0
 10
186.5837847363347
 20
156.7402952727784
 30
0.0
  0
LINE
  5
107
330
1F
100
AcDbEntity
  8
0
  6
HIDDEN
 62
     7
370
     0
100
AcDbLine
 10
189.9612838111
 20
156.9080447715
 30
0.0
 11
187.0167974382
 21
156.9080447715
 31
0.0
  0
SPLINE
  5
108
330
1F
100
AcDbEntity
  8
0
  6
HIDDEN
 62
     7
370
     0
100
AcDbSpline
210
0.0
220
0.0
230
1.0
 70
     8
 71
     3
 72
    12
 73
     8
 74
     0
 42
0.00000001
 43
0.00000001
 12
1.0
 22
0.0
 32
0.0
 13
1.0
 23
0.0
 33
0.0
 40
0.0
 40
0.0
 40
0.0
 40
0.0
 40
0.4999999999999981
 40
0.4999999999999981
 40
0.749999999999999
 40
0.749999999999999
 40
1.0
 40
1.0
 40
1.0
 40
1.0
 10
190.3942965129863
 20
156.7402952727784
 30
0.0
 10
190.3635742710672
 20
156.7775972557314
 30
0.0
 10
190.320737056532
 20
156.8142090877778
 30
0.0
 10
190.2213100323322
 20
156.861973871063
 30
0.0
 10
190.1815578375156
 20
156.8769313865454
 30
0.0
 10
190.0835163806574
 20
156.9001213323145
 30
0.0
 10
190.0239603250699
 20
156.9080447715342
 30
0.0
 10
189.9612838110941
 20
156.9080447715342
 30
0.0
  0
ELLIPSE
  5
109
330
1F
100
AcDbEntity
  8
0
  6
HIDDEN
 62
     7
370
     0
100
AcDbEllipse
 10
174.1418864353
 20
126.8395528127
 30
0.0
 11
14.75368316065635
 21
31.0932549155812
 31
0.0
210
0.0
220
0.0
230
1.0
 40
0.3419987131
 41
5.19328173740864
 42
6.124043104552346
  0
SPLINE
  5
10A
330
1F
100
AcDbEntity
  8
0
  6
HIDDEN
 62
     7
370
     0
100
AcDbSpline
210
0.0
220
0.0
230
1.0
 70
     8
 71
     3
 72
    12
 73
     8
 74
     0
 42
0.00000001
 43
0.00000001
 12
1.0
 22
0.0
 32
0.0
 13
1.0
 23
0.0
 33
0.0
 40
0.0
 40
0.0
 40
0.0
 40
0.0
 40
0.2499999999999968
 40
0.2499999999999968
 40
0.4999999999999936
 40
0.4999999999999936
 40
1.0
 40
1.0
 40
1.0
 40
1.0
 10
189.9612838110941
 20
136.2276192439975
 30
0.0
 10
190.0243638495874
 20
136.2276192439975
 30
0.0
 10
190.0835124717689
 20
136.2529835632124
 30
0.0
 10
190.181985021838
 20
136.3271484235854
 30
0.0
 10
190.2210216338227
 20
136.3736687641395
 30
0.0
 10
190.3209181006017
 20
136.5238111069847
 30
0.0
 10
190.3633389816683
 20
136.6355043139569
 30
0.0
 10
190.3942965129863
 20
136.7489221333466
 30
0.0
  0
LINE
  5
10B
330
1F
100
AcDbEntity
  8
0
  6
HIDDEN
 62
     7
370
     0
100
AcDbLine
 10
187.0167974382
 20
136.227619244
 30
0.0
 11
189.9612838111
 21
136.227619244
 31
0.0
  0
SPLINE
  5
10C
330
1F
100
AcDbEntity
  8
0
  6
HIDDEN
 62
     7
370
     0
100
AcDbSpline
210
0.0
220
0.0
230
1.0
 70
     8
 71
     3
 72
    12
 73
     8
 74
     0
 42
0.00000001
 43
0.00000001
 12
1.0
 22
0.0
 32
0.0
 13
1.0
 23
0.0
 33
0.0
 40
0.0
 40
0.0
 40
0.0
 40
0.0
 40
0.5000000000000009
 40
0.5000000000000009
 40
0.7500000000000004
 40
0.7500000000000004
 40
1.0
 40
1.0
 40
1.0
 40
1.0
 10
186.5837847363347
 20
136.7489221333466
 30
0.0
 10
186.6145069782538
 20
136.6363663339374
 30
0.0
 10
186.657344192789
 20
136.5236084741978
 30
0.0
 10
186.7567712169888
 20
136.3740675884015
 30
0.0
 10
186.7965234118055
 20
136.3267748566946
 30
0.0
 10
186.8945648686637
 20
136.2530385633732
 30
0.0
 10
186.9541209242512
 20
136.2276192439975
 30
0.0
 10
187.016797438227
 20
136.2276192439975
 30
0.0
  0
ELLIPSE
  5
10D
330
1F
100
AcDbEntity
  8
0
  6
HIDDEN
 62
     7
370
     0
100
AcDbEllipse
 10
202.836194814
 20
126.8395528127
 30
0.0
 11
-14.75368316065627
 21
31.0932549155812
 31
0.0
210
0.0
220
0.0
230
1.0
 40
0.3419987131
 41
0.1591422026272847
 42
1.089903569770961
  0
LINE
  5
10E
330
1F
100
AcDbEntity
  8
0
  6
HIDDEN
 62
     7
370
     0
100
AcDbLine
 10
176.4890406247
 20
157.8395528104
 30
0.0
 11
176.4890406247
 21
95.8395528127
 31
0.0
  0
LWPOLYLINE
  5
10F
330
1F
100
AcDbEntity
  8
0
  6
HIDDEN
 62
     7
370
     0
100
AcDbPolyline
 90
       29
 70
   128
 43
0.0
 10
197.4890406247
 20
117.187629024
 10
198.1566034265
 20
117.1224898291
 10
198.790691842
 20
116.9303385955
 10
199.3595100302
 20
116.6208105885
 10
199.8345350721
 20
116.2094268349
 10
200.1919472284
 20
115.7168158338
 10
200.4138243612
 20
115.1676791577
 10
200.4890406247
 20
114.5895528127
 10
200.4138243612
 20
114.0114264676
 10
200.1919472284
 20
113.4622897916
 10
199.8345350721
 20
112.9696787904
 10
199.3595100302
 20
112.5582950368
 10
198.790691842
 20
112.2487670298
 10
198.1566034265
 20
112.0566157962
 10
197.4890406247
 20
111.9914766013
 10
196.8214778228
 20
112.0566157962
 10
196.1873894073
 20
112.2487670298
 10
195.6185712191
 20
112.5582950368
 10
195.1435461773
 20
112.9696787904
 10
194.786134021
 20
113.4622897916
 10
194.5642568881
 20
114.0114264676
 10
194.4890406247
 20
114.5895528127
 10
194.5642568881
 20
115.1676791577
 10
194.786134021
 20
115.7168158338
 10
195.1435461773
 20
116.2094268349
 10
195.6185712191
 20
116.6208105885
 10
196.1873894073
 20
116.9303385955
 10
196.8214778228
 20
117.1224898291
 10
197.4890406247
 20
117.187629024
  0
LINE
  5
110
330
1F
100
AcDbEntity
  8
0
  6
HIDDEN
 62
     7
370
     0
100
AcDbLine
 10
176.4890406247
 20
102.5895528127
 30
0.0
 11
176.4890406247
 21
151.0895528127
 31
0.0
  0
SPLINE
  5
111
330
1F
100
AcDbEntity
  8
0
  6
HIDDEN
 62
     7
370
     0
100
AcDbSpline
210
0.0
220
0.0
230
1.0
 70
     8
 71
     3
 72
    12
 73
     8
 74
     0
 42
0.00000001
 43
0.00000001
 12
1.0
 22
0.0
 32
0.0
 13
1.0
 23
0.0
 33
0.0
 40
0.0
 40
0.0
 40
0.0
 40
0.0
 40
0.4999999999999998
 40
0.4999999999999998
 40
0.7500000000000001
 40
0.7500000000000001
 40
1.0
 40
1.0
 40
1.0
 40
1.0
 10
175.6725283382052
 20
142.291820794499
 30
0.0
 10
175.7289345168858
 20
142.243998420837
 30
0.0
 10
175.7990974183579
 20
142.2037275738958
 30
0.0
 10
175.9171081317498
 20
142.1956817054161
 30
0.0
 10
175.9573139153464
 20
142.2022443037545
 30
0.0
 10
176.0310346120815
 20
142.2296263982081
 30
0.0
 10
176.063895333869
 20
142.2493878887389
 30
0.0
 10
176.094063735799
 20
142.2723205999275
 30
0.0
  0
SPLINE
  5
112
330
1F
100
AcDbEntity
  8
0
  6
HIDDEN
 62
     7
370
     0
100
AcDbSpline
210
0.0
220
0.0
230
1.0
 70
     8
 71
     3
 72
    16
 73
    12
 74
     0
 42
0.00000001
 43
0.00000001
 12
1.0
 22
0.0
 32
0.0
 13
1.0
 23
0.0
 33
0.0
 40
0.0
 40
0.0
 40
0.0
 40
0.0
 40
0.0624999999999998
 40
0.0624999999999998
 40
0.1249999999999996
 40
0.1249999999999996
 40
0.2499999999999994
 40
0.2499999999999994
 40
0.500000000000003
 40
0.500000000000003
 40
1.0
 40
1.0
 40
1.0
 40
1.0
 10
176.0940637357539
 20
142.2723205999755
 30
0.0
 10
176.1056766355932
 20
142.2811482229569
 30
0.0
 10
176.1190278200257
 20
142.2889826048388
 30
0.0
 10
176.1484276596448
 20
142.2972927309112
 30
0.0
 10
176.1632683842001
 20
142.2967969116762
 30
0.0
 10
176.1991015921687
 20
142.2853459407069
 30
0.0
 10
176.2132147999903
 20
142.2686654398482
 30
0.0
 10
176.2477061712092
 20
142.2165447540912
 30
0.0
 10
176.2587902423196
 20
142.1767552600662
 30
0.0
 10
176.2849130601157
 20
142.0534186279691
 30
0.0
 10
176.2890406246605
 20
141.9659972174704
 30
0.0
 10
176.2890406246605
 20
141.8772599751522
 30
0.0
  0
LINE
  5
113
330
1F
100
AcDbEntity
  8
0
  6
HIDDEN
 62
     7
370
     0
100
AcDbLine
 10
176.2890406247
 20
111.8018456502
 30
0.0
 11
176.2890406247
 21
141.8772599752
 31
0.0
  0
SPLINE
  5
114
330
1F
100
AcDbEntity
  8
0
  6
HIDDEN
 62
     7
370
     0
100
AcDbSpline
210
0.0
220
0.0
230
1.0
 70
     8
 71
     3
 72
    16
 73
    12
 74
     0
 42
0.00000001
 43
0.00000001
 12
1.0
 22
0.0
 32
0.0
 13
1.0
 23
0.0
 33
0.0
 40
0.0
 40
0.0
 40
0.0
 40
0.0
 40
0.4999999999999927
 40
0.4999999999999927
 40
0.7499999999999915
 40
0.7499999999999915
 40
0.8749999999999907
 40
0.8749999999999907
 40
0.9374999999999953
 40
0.9374999999999953
 40
1.0
 40
1.0
 40
1.0
 40
1.0
 10
176.2890406246605
 20
111.8018456501698
 30
0.0
 10
176.2890406246605
 20
111.7127192849811
 30
0.0
 10
176.2848943495826
 20
111.6258579173677
 30
0.0
 10
176.258928754189
 20
111.5028756708736
 30
0.0
 10
176.2474678488116
 20
111.4621043756423
 30
0.0
 10
176.2131561110373
 20
111.4104000556425
 30
0.0
 10
176.1991313751076
 20
111.3937296890521
 30
0.0
 10
176.1631084120738
 20
111.3822774685954
 30
0.0
 10
176.1483539029841
 20
111.3818244223204
 30
0.0
 10
176.1190017418373
 20
111.3901397435366
 30
0.0
 10
176.1056618673332
 20
111.3979686286148
 30
0.0
 10
176.0940637357849
 20
111.4067850253775
 30
0.0
  0
SPLINE
  5
115
330
1F
100
AcDbEntity
  8
0
  6
HIDDEN
 62
     7
370
     0
100
AcDbSpline
210
0.0
220
0.0
230
1.0
 70
     8
 71
     3
 72
    12
 73
     8
 74
     0
 42
0.00000001
 43
0.00000001
 12
1.0
 22
0.0
 32
0.0
 13
1.0
 23
0.0
 33
0.0
 40
0.0
 40
0.0
 40
0.0
 40
0.0
 40
0.25
 40
0.25
 40
0.5
 40
0.5
 40
1.0
 40
1.0
 40
1.0
 40
1.0
 10
176.094063735792
 20
111.4067850253864
 30
0.0
 10
176.0638718940747
 20
111.4297355544842
 30
0.0
 10
176.0305129246601
 20
111.4497050285083
 30
0.0
 10
175.9573756400795
 20
111.4768061621338
 30
0.0
 10
175.9171337674256
 20
111.4834069027793
 30
0.0
 10
175.7994279904571
 20
111.4754380282726
 30
0.0
 10
175.7290175126777
 20
111.4351775701047
 30
0.0
 10
175.6725283382094
 20
111.3872848308266
 30
0.0
  0
SPLINE
  5
116
330
1F
100
AcDbEntity
  8
0
  6
HIDDEN
 62
     7
370
     0
100
AcDbSpline
210
0.0
220
0.0
230
1.0
 70
     8
 71
     3
 72
    12
 73
     8
 74
     0
 42
0.00000001
 43
0.00000001
 12
1.0
 22
0.0
 32
0.0
 13
1.0
 23
0.0
 33
0.0
 40
0.0
 40
0.0
 40
0.0
 40
0.0
 40
0.2500000000000024
 40
0.2500000000000024
 40
0.5000000000000048
 40
0.5000000000000048
 40
1.0
 40
1.0
 40
1.0
 40
1.0
 10
175.672528338209
 20
111.3872848308268
 30
0.0
 10
175.5843744004713
 20
111.3125460229727
 30
0.0
 10
175.5240209758425
 20
111.2215655224903
 30
0.0
 10
175.4177590177757
 20
111.0326516997377
 30
0.0
 10
175.3755268512136
 20
110.9361472401972
 30
0.0
 10
175.2644561558965
 20
110.64537948603
 30
0.0
 10
175.2115193794696
 20
110.4497126714863
 30
0.0
 10
175.1677202811009
 20
110.25564618642
 30
0.0
  0
SPLINE
  5
117
330
1F
100
AcDbEntity
  8
0
  6
HIDDEN
 62
     7
370
     0
100
AcDbSpline
210
0.0
220
0.0
230
1.0
 70
     8
 71
     3
 72
    12
 73
     8
 74
     0
 42
0.00000001
 43
0.00000001
 12
1.0
 22
0.0
 32
0.0
 13
1.0
 23
0.0
 33
0.0
 40
0.0
 40
0.0
 40
0.0
 40
0.0
 40
0.4999999999999992
 40
0.4999999999999992
 40
0.7499999999999996
 40
0.7499999999999996
 40
1.0
 40
1.0
 40
1.0
 40
1.0
 10
175.1677202811009
 20
105.0694718576589
 30
0.0
 10
175.2114668219375
 20
105.0428776870177
 30
0.0
 10
175.2643511771689
 20
105.023117461692
 30
0.0
 10
175.3759182645051
 20
105.0026664714629
 30
0.0
 10
175.4185018610481
 20
104.9974062468064
 30
0.0
 10
175.5234185881299
 20
104.9895234528838
 30
0.0
 10
175.5849521959747
 20
104.9869593277047
 30
0.0
 10
175.6725283382009
 20
104.984759110185
 30
0.0
  0
LINE
  5
118
330
1F
100
AcDbEntity
  8
0
  6
HIDDEN
 62
     7
370
     0
100
AcDbLine
 10
176.2890406247
 20
104.2997325338
 30
0.0
 11
176.2890406247
 21
104.7799583244
 31
0.0
  0
LINE
  5
119
330
1F
100
AcDbEntity
  8
0
  6
HIDDEN
 62
     7
370
     0
100
AcDbLine
 10
176.2890406247
 20
148.8991473009
 30
0.0
 11
176.2890406247
 21
149.3793730915
 31
0.0
  0
SPLINE
  5
11A
330
1F
100
AcDbEntity
  8
0
  6
HIDDEN
 62
     7
370
     0
100
AcDbSpline
210
0.0
220
0.0
230
1.0
 70
     8
 71
     3
 72
    12
 73
     8
 74
     0
 42
0.00000001
 43
0.00000001
 12
1.0
 22
0.0
 32
0.0
 13
1.0
 23
0.0
 33
0.0
 40
0.0
 40
0.0
 40
0.0
 40
0.0
 40
0.2500000000000006
 40
0.2500000000000006
 40
0.500000000000001
 40
0.500000000000001
 40
1.0
 40
1.0
 40
1.0
 40
1.0
 10
175.6725283382088
 20
148.6943465151369
 30
0.0
 10
175.5838436783525
 20
148.6921184477959
 30
0.0
 10
175.5239252626291
 20
148.6896166637656
 30
0.0
 10
175.4182660353083
 20
148.6816852279296
 30
0.0
 10
175.3756247971934
 20
148.6763930730327
 30
0.0
 10
175.2644354550908
 20
148.6559881325456
 30
0.0
 10
175.2115087729699
 20
148.6362534409587
 30
0.0
 10
175.1677202811009
 20
148.6096337676631
 30
0.0
  0
SPLINE
  5
11B
330
1F
100
AcDbEntity
  8
0
  6
HIDDEN
 62
     7
370
     0
100
AcDbSpline
210
0.0
220
0.0
230
1.0
 70
     8
 71
     3
 72
    12
 73
     8
 74
     0
 42
0.00000001
 43
0.00000001
 12
1.0
 22
0.0
 32
0.0
 13
1.0
 23
0.0
 33
0.0
 40
0.0
 40
0.0
 40
0.0
 40
0.0
 40
0.4999999999999986
 40
0.4999999999999986
 40
0.7499999999999978
 40
0.7499999999999978
 40
1.0
 40
1.0
 40
1.0
 40
1.0
 10
175.1677202810993
 20
143.4234594389022
 30
0.0
 10
175.2114817573978
 20
143.2295596509414
 30
0.0
 10
175.2643880730504
 20
143.0337032870058
 30
0.0
 10
175.3760992706966
 20
142.7415611405087
 30
0.0
 10
175.4186187142826
 20
142.6448432038113
 30
0.0
 10
175.5237420568484
 20
142.4581187673878
 30
0.0
 10
175.5853080205653
 20
142.3657680591186
 30
0.0
 10
175.672528338206
 20
142.2918207944983
 30
0.0
  0
LWPOLYLINE
  5
11C
330
1F
100
AcDbEntity
  8
0
  6
HIDDEN
 62
     7
370
     0
100
AcDbPolyline
 90
       26
 70
   128
 43
0.0
 10
197.4890406247
 20
116.9048314769
 10
198.1107653426
 20
116.8368120255
 10
198.6934248099
 20
116.6370275835
 10
199.2004083895
 20
116.3180313422
 10
199.5998604384
 20
115.8998670086
 10
199.8666819154
 20
115.4088093857
 10
199.9841074457
 20
114.87571343
 10
199.9447587515
 20
114.3340755209
 10
199.7511082558
 20
113.8179287602
 10
199.4153237316
 20
113.3597045472
 10
198.9585037554
 20
112.9881947944
 10
198.4093520064
 20
112.7267428259
 10
197.8023737086
 20
112.5917766304
 10
197.1757075407
 20
112.5917766304
 10
196.5687292429
 20
112.7267428259
 10
196.0195774939
 20
112.9881947944
 10
195.5627575177
 20
113.3597045472
 10
195.2269729935
 20
113.8179287602
 10
195.0333224978
 20
114.3340755209
 10
194.9939738036
 20
114.87571343
 10
195.1113993339
 20
115.4088093857
 10
195.3782208109
 20
115.8998670086
 10
195.7776728598
 20
116.3180313422
 10
196.2846564394
 20
116.6370275835
 10
196.8673159067
 20
116.8368120255
 10
197.4890406247
 20
116.9048314769
  0
SPLINE
  5
11D
330
1F
100
AcDbEntity
  8
0
  6
HIDDEN
 62
     7
370
     0
100
AcDbSpline
210
0.0
220
0.0
230
1.0
 70
     8
 71
     3
 72
    62
 73
    58
 74
     0
 42
0.00000001
 43
0.00000001
 12
1.0
 22
0.0
 32
0.0
 13
1.0
 23
0.0
 33
0.0
 40
-0.0312500000000002
 40
-0.0312500000000002
 40
0.0
 40
0.0
 40
0.0312500000000001
 40
0.0312500000000001
 40
0.0625000000000001
 40
0.0625000000000001
 40
0.0937500000000002
 40
0.0937500000000002
 40
0.1250000000000002
 40
0.1250000000000002
 40
0.1875000000000004
 40
0.1875000000000004
 40
0.2187500000000006
 40
0.2187500000000006
 40
0.2500000000000007
 40
0.2500000000000007
 40
0.2812500000000008
 40
0.2812500000000008
 40
0.3125000000000009
 40
0.3125000000000009
 40
0.3750000000000008
 40
0.3750000000000008
 40
0.4062500000000007
 40
0.4062500000000007
 40
0.4375000000000006
 40
0.4375000000000006
 40
0.4687500000000005
 40
0.4687500000000005
 40
0.5000000000000003
 40
0.5000000000000003
 40
0.5625000000000008
 40
0.5625000000000008
 40
0.5937500000000007
 40
0.5937500000000007
 40
0.6250000000000004
 40
0.6250000000000004
 40
0.6562500000000003
 40
0.6562500000000003
 40
0.6875000000000001
 40
0.6875000000000001
 40
0.71875
 40
0.71875
 40
0.7499999999999998
 40
0.7499999999999998
 40
0.7812499999999997
 40
0.7812499999999997
 40
0.8124999999999996
 40
0.8124999999999996
 40
0.8749999999999993
 40
0.8749999999999993
 40
0.9062499999999994
 40
0.9062499999999994
 40
0.9374999999999997
 40
0.9374999999999997
 40
0.9687499999999998
 40
0.9687499999999998
 40
1.0
 40
1.0
 40
1.03125
 40
1.03125
 10
197.6550844435967
 20
124.6817122056744
 30
0.0
 10
197.3229968057244
 20
124.6817122056744
 30
0.0
 10
197.1599000751473
 20
124.6651385616189
 30
0.0
 10
196.8393037702388
 20
124.6006499907904
 30
0.0
 10
196.6801015669324
 20
124.5519059653319
 30
0.0
 10
196.3777910652182
 20
124.426328421762
 30
0.0
 10
196.2345394909738
 20
124.3499540934413
 30
0.0
 10
195.9634286499067
 20
124.1713703030118
 30
0.0
 10
195.8357466547778
 20
124.0687683785254
 30
0.0
 10
195.4917465665626
 20
123.7363314561829
 30
0.0
 10
195.3057449379783
 20
123.4730751148863
 30
0.0
 10
195.1182584247967
 20
123.0585307885775
 30
0.0
 10
195.0697864800445
 20
122.9147738765996
 30
0.0
 10
195.0052245006309
 20
122.6261584091315
 30
0.0
 10
194.9891460004109
 20
122.4829489880912
 30
0.0
 10
194.9889362714972
 20
122.1989261478527
 30
0.0
 10
195.0053678189081
 20
122.0569601434747
 30
0.0
 10
195.0695365090604
 20
121.7874503551806
 30
0.0
 10
195.1170054718519
 20
121.6585323462784
 30
0.0
 10
195.3061289558061
 20
121.2883393737359
 30
0.0
 10
195.4902688481723
 20
121.0731670386254
 30
0.0
 10
195.8370044319763
 20
120.8076632247371
 30
0.0
 10
195.962321388128
 20
120.7300519107868
 30
0.0
 10
196.2323808909279
 20
120.5947880514541
 30
0.0
 10
196.378754266809
 20
120.5368178806934
 30
0.0
 10
196.6801721698626
 20
120.4449380050489
 30
0.0
 10
196.8360243313016
 20
120.4103403492288
 30
0.0
 10
197.158367392618
 20
120.3634787322149
 30
0.0
 10
197.3243188596875
 20
120.3516364182827
 30
0.0
 10
197.8152402272387
 20
120.3514832298133
 30
0.0
 10
198.1457232143414
 20
120.3987355026235
 30
0.0
 10
198.59763271194
 20
120.5362083612163
 30
0.0
 10
198.7439299293193
 20
120.5940026660805
 30
0.0
 10
199.0148134918756
 20
120.7294775536293
 30
0.0
 10
199.1401700140335
 20
120.8070863594384
 30
0.0
 10
199.3709476555227
 20
120.9835644950786
 30
0.0
 10
199.4757355355927
 20
121.0824486571193
 30
0.0
 10
199.6563991597748
 20
121.2949063974168
 30
0.0
 10
199.7335876569702
 20
121.4093795192481
 30
0.0
 10
199.8604510612614
 20
121.6569215689413
 30
0.0
 10
199.9081124151937
 20
121.7862286145041
 30
0.0
 10
199.9723427822563
 20
122.0548167756371
 30
0.0
 10
199.9889759961354
 20
122.1959623191361
 30
0.0
 10
199.9891048711468
 20
122.4814506421777
 30
0.0
 10
199.973023892018
 20
122.6247166300012
 30
0.0
 10
199.9090564795496
 20
122.9120533536454
 30
0.0
 10
199.860492429306
 20
123.056821673376
 30
0.0
 10
199.6727615872634
 20
123.4725887530877
 30
0.0
 10
199.4868157497678
 20
123.7357166787398
 30
0.0
 10
199.1430405276634
 20
124.0681608059986
 30
0.0
 10
199.0158652232958
 20
124.1704864617216
 30
0.0
 10
198.7442228140212
 20
124.3495899555838
 30
0.0
 10
198.6010636430741
 20
124.4259045034662
 30
0.0
 10
198.2999367005363
 20
124.5511947373606
 30
0.0
 10
198.1404204718447
 20
124.6002503386747
 30
0.0
 10
197.8185545796129
 20
124.6651321794056
 30
0.0
 10
197.6550844435967
 20
124.6817122056744
 30
0.0
 10
197.3229968057244
 20
124.6817122056744
 30
0.0
  0
SPLINE
  5
11E
330
1F
100
AcDbEntity
  8
0
  6
HIDDEN
 62
     7
370
     0
100
AcDbSpline
210
0.0
220
0.0
230
1.0
 70
     8
 71
     3
 72
    52
 73
    48
 74
     0
 42
0.00000001
 43
0.00000001
 12
1.0
 22
0.0
 32
0.0
 13
1.0
 23
0.0
 33
0.0
 40
0.0
 40
0.0
 40
0.0
 40
0.0
 40
0.0624999999999997
 40
0.0624999999999997
 40
0.0937499999999993
 40
0.0937499999999993
 40
0.1249999999999988
 40
0.1249999999999988
 40
0.1874999999999986
 40
0.1874999999999986
 40
0.2187499999999984
 40
0.2187499999999984
 40
0.2499999999999983
 40
0.2499999999999983
 40
0.3124999999999982
 40
0.3124999999999982
 40
0.3749999999999982
 40
0.3749999999999982
 40
0.4374999999999982
 40
0.4374999999999982
 40
0.4687499999999985
 40
0.4687499999999985
 40
0.4999999999999988
 40
0.4999999999999988
 40
0.5624999999999989
 40
0.5624999999999989
 40
0.6249999999999991
 40
0.6249999999999991
 40
0.6562499999999992
 40
0.6562499999999992
 40
0.6874999999999994
 40
0.6874999999999994
 40
0.7187499999999997
 40
0.7187499999999997
 40
0.7499999999999998
 40
0.7499999999999998
 40
0.78125
 40
0.78125
 40
0.8125000000000002
 40
0.8125000000000002
 40
0.8437500000000004
 40
0.8437500000000004
 40
0.8750000000000006
 40
0.8750000000000006
 40
0.9375000000000003
 40
0.9375000000000003
 40
1.0
 40
1.0
 40
1.0
 40
1.0
 10
199.8655176015565
 20
117.8485635101454
 30
0.0
 10
199.9422211596674
 20
117.700084449848
 30
0.0
 10
199.9831739757861
 20
117.549374144795
 30
0.0
 10
199.9911255118103
 20
117.3012924815993
 30
0.0
 10
199.9843833614377
 20
117.2148699057513
 30
0.0
 10
199.9513222793521
 20
117.0379580006808
 30
0.0
 10
199.9250916195797
 20
116.94682758314
 30
0.0
 10
199.8139382577919
 20
116.6620592461147
 30
0.0
 10
199.6969672803497
 20
116.46155812586
 30
0.0
 10
199.4669752899311
 20
116.1618311263921
 30
0.0
 10
199.3829064873444
 20
116.0639033349679
 30
0.0
 10
199.201245927181
 20
115.8709824044521
 30
0.0
 10
199.1033148474822
 20
115.7758957063342
 30
0.0
 10
198.8048030055033
 20
115.5061110715308
 30
0.0
 10
198.5933307810926
 20
115.3411667511617
 30
0.0
 10
198.1900985462867
 20
115.048895356608
 30
0.0
 10
197.9925604672883
 20
114.9175453774532
 30
0.0
 10
197.6417505016077
 20
114.6763374905886
 30
0.0
 10
197.4833042533675
 20
114.5639200459546
 30
0.0
 10
197.3130410988984
 20
114.3887890698888
 30
0.0
 10
197.2671288090597
 20
114.328047965447
 30
0.0
 10
197.2097486369236
 20
114.201719620331
 30
0.0
 10
197.1981371446485
 20
114.1358864600425
 30
0.0
 10
197.2206825135071
 20
113.9304551813507
 30
0.0
 10
197.3121897867539
 20
113.7907670683072
 30
0.0
 10
197.5670392459815
 20
113.5511572264398
 30
0.0
 10
197.7316378610427
 20
113.4486653892963
 30
0.0
 10
198.0008038152451
 20
113.3412508801883
 30
0.0
 10
198.0946213866598
 20
113.3129226537753
 30
0.0
 10
198.2892566033141
 20
113.2739420506129
 30
0.0
 10
198.3900853441671
 20
113.2634780515591
 30
0.0
 10
198.5919490763484
 20
113.2640041925258
 30
0.0
 10
198.6936942523032
 20
113.2747774432557
 30
0.0
 10
198.8977996093037
 20
113.3213581170659
 30
0.0
 10
198.9993834022511
 20
113.3573030859063
 30
0.0
 10
199.1932748011103
 20
113.454840344825
 30
0.0
 10
199.2875633230728
 20
113.5174817499619
 30
0.0
 10
199.4620489010646
 20
113.6684210161515
 30
0.0
 10
199.5412236606613
 20
113.755403849812
 30
0.0
 10
199.6828928899189
 20
113.9519916378389
 30
0.0
 10
199.7453038660856
 20
114.0622735680371
 30
0.0
 10
199.8474660385597
 20
114.2939218616194
 30
0.0
 10
199.8884153446139
 20
114.4173352843806
 30
0.0
 10
199.9801436722313
 20
114.8000767348441
 30
0.0
 10
199.9996210604177
 20
115.0653347181762
 30
0.0
 10
199.9682707804498
 20
115.60140021339
 30
0.0
 10
199.9184771751213
 20
115.8642066581524
 30
0.0
 10
199.8338475004807
 20
116.1205838985717
 30
0.0
  0
SPLINE
  5
11F
330
1F
100
AcDbEntity
  8
0
  6
HIDDEN
 62
     7
370
     0
100
AcDbSpline
210
0.0
220
0.0
230
1.0
 70
     8
 71
     3
 72
    16
 73
    12
 74
     0
 42
0.00000001
 43
0.00000001
 12
1.0
 22
0.0
 32
0.0
 13
1.0
 23
0.0
 33
0.0
 40
0.0
 40
0.0
 40
0.0
 40
0.0
 40
0.25
 40
0.25
 40
0.375
 40
0.375
 40
0.5
 40
0.5
 40
0.75
 40
0.75
 40
1.0
 40
1.0
 40
1.0
 40
1.0
 10
199.833847500481
 20
116.120583898571
 30
0.0
 10
199.7962264894373
 20
116.3543827982502
 30
0.0
 10
199.7578785008864
 20
116.573892566856
 30
0.0
 10
199.7156271874415
 20
116.8740315254742
 30
0.0
 10
199.7041776788253
 20
116.9691326518325
 30
0.0
 10
199.6895778246947
 20
117.1474133991871
 30
0.0
 10
199.6865064614097
 20
117.2311447094932
 30
0.0
 10
199.6924765467645
 20
117.4574514005817
 30
0.0
 10
199.716834011636
 20
117.5720715307364
 30
0.0
 10
199.7842591570604
 20
117.7469638964237
 30
0.0
 10
199.8266554596741
 20
117.8080555206206
 30
0.0
 10
199.865517601556
 20
117.8485635101454
 30
0.0
  0
LINE
  5
120
330
1F
100
AcDbEntity
  8
0
  6
HIDDEN
 62
     7
370
     0
100
AcDbLine
 10
176.2890406247
 20
104.7799583244
 30
0.0
 11
176.2890406247
 21
119.8176654869
 31
0.0
  0
LINE
  5
121
330
1F
100
AcDbEntity
  8
0
  6
HIDDEN
 62
     7
370
     0
100
AcDbLine
 10
176.2890406247
 20
133.8614401384
 30
0.0
 11
176.2890406247
 21
148.8991473009
 31
0.0
  0
LWPOLYLINE
  5
122
330
1F
100
AcDbEntity
  8
0
  6
HIDDEN
 62
     7
370
     0
100
AcDbPolyline
 90
        9
 70
   128
 43
0.0
 10
199.8655176016
 20
117.8485635101
 10
200.081304714
 20
117.878209873
 10
200.240666188
 20
117.8258465693
 10
200.3371200579
 20
117.693603456
 10
200.3667430999
 20
117.4868594702
 10
200.3283304085
 20
117.2140238428
 10
200.223444405
 20
116.8861940565
 10
200.0563512865
 20
116.51670446
 10
199.8338475005
 20
116.1205838986
  0
CIRCLE
  5
123
330
1F
100
AcDbEntity
  8
0
  6
HIDDEN
 62
     7
370
     0
100
AcDbCircle
 10
160.9890406247
 20
126.8395528127
 30
0.0
 40
4.049999999999997
  0
LINE
  5
124
330
1F
100
AcDbEntity
  8
0
  6
HIDDEN
 62
     7
370
     0
100
AcDbLine
 10
140.0192690643
 20
142.1525038556
 30
0.0
 11
140.0192690643
 21
111.5266017697
 31
0.0
  0
LINE
  5
125
330
1F
100
AcDbEntity
  8
0
  6
HIDDEN
 62
     7
370
     0
100
AcDbLine
 10
138.4890406247
 20
110.6431239682
 30
0.0
 11
138.4890406247
 21
143.0170679021
 31
0.0
  0
LINE
  5
126
330
1F
100
AcDbEntity
  8
0
  6
HIDDEN
 62
     7
370
     0
100
AcDbLine
 10
146.5192690643
 20
141.1859629742
 30
0.0
 11
146.5192690643
 21
112.4931426511
 31
0.0
  0
LINE
  5
127
330
1F
100
AcDbEntity
  8
0
  6
HIDDEN
 62
     7
370
     0
100
AcDbLine
 10
152.3192690643
 20
140.8395528127
 30
0.0
 11
152.3192690643
 21
112.8395528127
 31
0.0
  0
LINE
  5
128
330
1F
100
AcDbEntity
  8
0
  6
HIDDEN
 62
     7
370
     0
100
AcDbLine
 10
144.9192690643
 20
140.8395528127
 30
0.0
 11
144.9192690643
 21
112.8395528127
 31
0.0
  0
LINE
  5
129
330
1F
100
AcDbEntity
  8
0
  6
HIDDEN
 62
     7
370
     0
100
AcDbLine
 10
145.9192690643
 20
140.8395528127
 30
0.0
 11
145.9192690643
 21
112.8395528127
 31
0.0
  0
SPLINE
  5
12A
330
1F
100
AcDbEntity
  8
0
  6
HIDDEN
 62
     7
370
     0
100
AcDbSpline
210
0.0
220
0.0
230
1.0
 70
     8
 71
     3
 72
    10
 73
     6
 74
     0
 42
0.00000001
 43
0.00000001
 12
1.0
 22
0.0
 32
0.0
 13
1.0
 23
0.0
 33
0.0
 40
0.0
 40
0.0
 40
0.0
 40
0.0
 40
0.5
 40
0.5
 40
1.0
 40
1.0
 40
1.0
 40
1.0
 10
164.9890406246605
 20
127.4739816896835
 30
0.0
 10
165.022188042737
 20
127.2649910886755
 30
0.0
 10
165.0390468880986
 20
127.0534286226539
 30
0.0
 10
165.0390343577509
 20
126.6254398566863
 30
0.0
 10
165.0221194000106
 20
126.4136817522706
 30
0.0
 10
164.9890406246605
 20
126.2051239356385
 30
0.0
  0
LINE
  5
12B
330
1F
100
AcDbEntity
  8
0
  6
HIDDEN
 62
     7
370
     0
100
AcDbLine
 10
165.4890406247
 20
140.3395527971
 30
0.0
 11
165.4890406247
 21
113.3395528127
 31
0.0
  0
SPLINE
  5
12C
330
1F
100
AcDbEntity
  8
0
  6
HIDDEN
 62
     7
370
     0
100
AcDbSpline
210
0.0
220
0.0
230
1.0
 70
     8
 71
     3
 72
    10
 73
     6
 74
     0
 42
0.00000001
 43
0.00000001
 12
1.0
 22
0.0
 32
0.0
 13
1.0
 23
0.0
 33
0.0
 40
0.0
 40
0.0
 40
0.0
 40
0.0
 40
0.5
 40
0.5
 40
1.0
 40
1.0
 40
1.0
 40
1.0
 10
164.9890406246605
 20
126.2051239356385
 30
0.0
 10
165.0222295871342
 20
126.414376469221
 30
0.0
 10
165.0389303633889
 20
126.6251932301199
 30
0.0
 10
165.0391498038335
 20
127.0497255113232
 30
0.0
 10
165.0222700884401
 20
127.2644738000958
 30
0.0
 10
164.9890406246605
 20
127.4739816896834
 30
0.0
  0
SPLINE
  5
12D
330
1F
100
AcDbEntity
  8
0
  6
HIDDEN
 62
     7
370
     0
100
AcDbSpline
210
0.0
220
0.0
230
1.0
 70
     8
 71
     3
 72
    68
 73
    64
 74
     0
 42
0.00000001
 43
0.00000001
 12
1.0
 22
0.0
 32
0.0
 13
1.0
 23
0.0
 33
0.0
 40
0.0
 40
0.0
 40
0.0
 40
0.0
 40
0.0312499999999999
 40
0.0312499999999999
 40
0.0624999999999998
 40
0.0624999999999998
 40
0.0937499999999997
 40
0.0937499999999997
 40
0.1249999999999996
 40
0.1249999999999996
 40
0.1562499999999994
 40
0.1562499999999994
 40
0.1874999999999993
 40
0.1874999999999993
 40
0.2187499999999992
 40
0.2187499999999992
 40
0.2499999999999991
 40
0.2499999999999991
 40
0.281249999999999
 40
0.281249999999999
 40
0.3124999999999989
 40
0.3124999999999989
 40
0.3437499999999988
 40
0.3437499999999988
 40
0.3749999999999987
 40
0.3749999999999987
 40
0.4062499999999986
 40
0.4062499999999986
 40
0.4374999999999984
 40
0.4374999999999984
 40
0.4687499999999983
 40
0.4687499999999983
 40
0.4999999999999982
 40
0.4999999999999982
 40
0.562499999999998
 40
0.562499999999998
 40
0.5937499999999979
 40
0.5937499999999979
 40
0.6249999999999978
 40
0.6249999999999978
 40
0.6562499999999977
 40
0.6562499999999977
 40
0.6874999999999976
 40
0.6874999999999976
 40
0.7187499999999974
 40
0.7187499999999974
 40
0.7499999999999973
 40
0.7499999999999973
 40
0.7812499999999977
 40
0.7812499999999977
 40
0.812499999999998
 40
0.812499999999998
 40
0.8437499999999983
 40
0.8437499999999983
 40
0.8749999999999987
 40
0.8749999999999987
 40
0.906249999999999
 40
0.906249999999999
 40
0.9374999999999993
 40
0.9374999999999993
 40
0.9687499999999997
 40
0.9687499999999997
 40
1.0
 40
1.0
 40
1.0
 40
1.0
 10
164.9890406246606
 20
126.2051239356385
 30
0.0
 10
164.9490256723109
 20
125.9528343328229
 30
0.0
 10
164.8860838708995
 20
125.7088354824471
 30
0.0
 10
164.7166972088275
 20
125.2364170933846
 30
0.0
 10
164.609003646242
 20
125.0060037072247
 30
0.0
 10
164.3537188777041
 20
124.5712991114276
 30
0.0
 10
164.2076796472319
 20
124.3686571447763
 30
0.0
 10
163.8794582106727
 20
123.9916678540184
 30
0.0
 10
163.6952109228976
 20
123.8160099004411
 30
0.0
 10
163.3022507555893
 20
123.5057519314948
 30
0.0
 10
163.0929561586302
 20
123.3698067238449
 30
0.0
 10
162.6480707316929
 20
123.1364166284391
 30
0.0
 10
162.4112731391938
 20
123.0391700220246
 30
0.0
 10
161.9305380702745
 20
122.8924985641533
 30
0.0
 10
161.6842949770918
 20
122.8416062192109
 30
0.0
 10
161.1795781971123
 20
122.7860788689754
 30
0.0
 10
160.9233834961759
 20
122.7822539819054
 30
0.0
 10
160.4210047469757
 20
122.8216777645498
 30
0.0
 10
160.1717550477921
 20
122.8647052137611
 30
0.0
 10
159.6802272503134
 20
122.9984101832124
 30
0.0
 10
159.4449316490875
 20
123.0870800291176
 30
0.0
 10
158.9940177544254
 20
123.306111392895
 30
0.0
 10
158.776405403962
 20
123.4381129585785
 30
0.0
 10
158.3731982344137
 20
123.7374702395814
 30
0.0
 10
158.1875867419793
 20
123.9040891670193
 30
0.0
 10
157.8475986715768
 20
124.2712005924468
 30
0.0
 10
157.6925257407539
 20
124.4735043379875
 30
0.0
 10
157.4261826640905
 20
124.8975850175815
 30
0.0
 10
157.3131985633738
 20
125.1207446230477
 30
0.0
 10
157.1283433064429
 20
125.5900998646419
 30
0.0
 10
157.0572025449395
 20
125.8363103679774
 30
0.0
 10
156.9632421336513
 20
126.3308361943485
 30
0.0
 10
156.9392328036949
 20
126.5817671894406
 30
0.0
 10
156.9386596830223
 20
127.3460125689968
 30
0.0
 10
157.034058794341
 20
127.8482368710478
 30
0.0
 10
157.3119225865421
 20
128.5558013773201
 30
0.0
 10
157.4250845426226
 20
128.7795076410609
 30
0.0
 10
157.6912157246665
 20
129.2037775523815
 30
0.0
 10
157.8460434988662
 20
129.4060295144376
 30
0.0
 10
158.1862246046541
 20
129.7737402558058
 30
0.0
 10
158.3717270616038
 20
129.9403571310551
 30
0.0
 10
158.7740208626631
 20
130.2394065098505
 30
0.0
 10
158.9920289109151
 20
130.3718632178789
 30
0.0
 10
159.4426272780654
 20
130.5910696185836
 30
0.0
 10
159.6771762769462
 20
130.6795547485873
 30
0.0
 10
160.1656362704985
 20
130.8130409785259
 30
0.0
 10
160.4179016662124
 20
130.8569826910197
 30
0.0
 10
160.9200823043727
 20
130.8967916874931
 30
0.0
 10
161.1725644217244
 20
130.8934474746796
 30
0.0
 10
161.6804294647939
 20
130.8382681546891
 30
0.0
 10
161.9279749379777
 20
130.7872222262197
 30
0.0
 10
162.4089424754484
 20
130.6408118379841
 30
0.0
 10
162.6449023405536
 20
130.5441656332105
 30
0.0
 10
163.0914727900753
 20
130.3102606888974
 30
0.0
 10
163.3011176526487
 20
130.1741356750709
 30
0.0
 10
163.6941043594032
 20
129.8640814107418
 30
0.0
 10
163.8785002632182
 20
129.6884241631667
 30
0.0
 10
164.2070506810786
 20
129.3112842405023
 30
0.0
 10
164.3529927776017
 20
129.1088180352324
 30
0.0
 10
164.6078781328039
 20
128.6752417370991
 30
0.0
 10
164.7161894456122
 20
128.4439498935175
 30
0.0
 10
164.8860244230292
 20
127.9705902133843
 30
0.0
 10
164.9490197841662
 20
127.7263084165635
 30
0.0
 10
164.9890406246605
 20
127.4739816896835
 30
0.0
  0
SPLINE
  5
12E
330
1F
100
AcDbEntity
  8
0
  6
HIDDEN
 62
     7
370
     0
100
AcDbSpline
210
0.0
220
0.0
230
1.0
 70
     8
 71
     3
 72
    68
 73
    64
 74
     0
 42
0.00000001
 43
0.00000001
 12
1.0
 22
0.0
 32
0.0
 13
1.0
 23
0.0
 33
0.0
 40
0.0
 40
0.0
 40
0.0
 40
0.0
 40
0.03125
 40
0.03125
 40
0.0625
 40
0.0625
 40
0.09375
 40
0.09375
 40
0.125
 40
0.125
 40
0.15625
 40
0.15625
 40
0.1874999999999999
 40
0.1874999999999999
 40
0.21875
 40
0.21875
 40
0.25
 40
0.25
 40
0.28125
 40
0.28125
 40
0.3125
 40
0.3125
 40
0.34375
 40
0.34375
 40
0.3749999999999999
 40
0.3749999999999999
 40
0.4062499999999999
 40
0.4062499999999999
 40
0.4374999999999999
 40
0.4374999999999999
 40
0.4687499999999999
 40
0.4687499999999999
 40
0.5
 40
0.5
 40
0.5625
 40
0.5625
 40
0.59375
 40
0.59375
 40
0.625
 40
0.625
 40
0.65625
 40
0.65625
 40
0.6875
 40
0.6875
 40
0.71875
 40
0.71875
 40
0.7499999999999999
 40
0.7499999999999999
 40
0.7812499999999999
 40
0.7812499999999999
 40
0.8124999999999999
 40
0.8124999999999999
 40
0.8437499999999999
 40
0.8437499999999999
 40
0.8749999999999999
 40
0.8749999999999999
 40
0.9062499999999999
 40
0.9062499999999999
 40
0.9374999999999999
 40
0.9374999999999999
 40
0.9687499999999999
 40
0.9687499999999999
 40
1.0
 40
1.0
 40
1.0
 40
1.0
 10
164.9890406246606
 20
127.4739816896835
 30
0.0
 10
164.9490256723109
 20
127.726271292499
 30
0.0
 10
164.8860838708995
 20
127.9702701428749
 30
0.0
 10
164.7166972088275
 20
128.4426885319374
 30
0.0
 10
164.609003646242
 20
128.6731019180973
 30
0.0
 10
164.3537188777041
 20
129.1078065138944
 30
0.0
 10
164.2076796472319
 20
129.3104484805458
 30
0.0
 10
163.8794582106727
 20
129.6874377713036
 30
0.0
 10
163.6952109228976
 20
129.863095724881
 30
0.0
 10
163.3022507555893
 20
130.1733536938272
 30
0.0
 10
163.0929561586302
 20
130.3092989014771
 30
0.0
 10
162.6480707316929
 20
130.542688996883
 30
0.0
 10
162.4112731391938
 20
130.6399356032974
 30
0.0
 10
161.9305380702745
 20
130.7866070611688
 30
0.0
 10
161.6842949770918
 20
130.8374994061112
 30
0.0
 10
161.1795781971123
 20
130.8930267563466
 30
0.0
 10
160.9233834961758
 20
130.8968516434166
 30
0.0
 10
160.4210047469757
 20
130.8574278607722
 30
0.0
 10
160.1717550477921
 20
130.8144004115609
 30
0.0
 10
159.6802272503134
 20
130.6806954421097
 30
0.0
 10
159.4449316490875
 20
130.5920255962045
 30
0.0
 10
158.9940177544254
 20
130.372994232427
 30
0.0
 10
158.776405403962
 20
130.2409926667435
 30
0.0
 10
158.3731982344137
 20
129.9416353857406
 30
0.0
 10
158.1875867419793
 20
129.7750164583027
 30
0.0
 10
157.8475986715768
 20
129.4079050328752
 30
0.0
 10
157.6925257407539
 20
129.2056012873345
 30
0.0
 10
157.4261826640905
 20
128.7815206077405
 30
0.0
 10
157.3131985633738
 20
128.5583610022743
 30
0.0
 10
157.1283433064429
 20
128.0890057606802
 30
0.0
 10
157.0572025449395
 20
127.8427952573446
 30
0.0
 10
156.9632421336513
 20
127.3482694309735
 30
0.0
 10
156.9392328036949
 20
127.0973384358815
 30
0.0
 10
156.9386596830223
 20
126.3330930563253
 30
0.0
 10
157.034058794341
 20
125.8308687542743
 30
0.0
 10
157.3119225865421
 20
125.1233042480019
 30
0.0
 10
157.4250845426226
 20
124.8995979842611
 30
0.0
 10
157.6912157246665
 20
124.4753280729405
 30
0.0
 10
157.8460434988662
 20
124.2730761108844
 30
0.0
 10
158.186224604654
 20
123.9053653695163
 30
0.0
 10
158.3717270616038
 20
123.7387484942669
 30
0.0
 10
158.7740208626631
 20
123.4396991154715
 30
0.0
 10
158.9920289109151
 20
123.3072424074431
 30
0.0
 10
159.4426272780654
 20
123.0880360067384
 30
0.0
 10
159.6771762769462
 20
122.9995508767348
 30
0.0
 10
160.1656362704985
 20
122.8660646467961
 30
0.0
 10
160.4179016662124
 20
122.8221229343024
 30
0.0
 10
160.9200823043727
 20
122.7823139378289
 30
0.0
 10
161.1725644217243
 20
122.7856581506424
 30
0.0
 10
161.6804294647939
 20
122.8408374706329
 30
0.0
 10
161.9279749379777
 20
122.8918833991023
 30
0.0
 10
162.4089424754484
 20
123.0382937873379
 30
0.0
 10
162.6449023405536
 20
123.1349399921115
 30
0.0
 10
163.0914727900752
 20
123.3688449364246
 30
0.0
 10
163.3011176526487
 20
123.5049699502511
 30
0.0
 10
163.6941043594032
 20
123.8150242145802
 30
0.0
 10
163.8785002632182
 20
123.9906814621553
 30
0.0
 10
164.2070506810786
 20
124.3678213848197
 30
0.0
 10
164.3529927776017
 20
124.5702875900896
 30
0.0
 10
164.6078781328039
 20
125.003863888223
 30
0.0
 10
164.7161894456122
 20
125.2351557318045
 30
0.0
 10
164.8860244230292
 20
125.7085154119377
 30
0.0
 10
164.9490197841662
 20
125.9527972087585
 30
0.0
 10
164.9890406246606
 20
126.2051239356385
 30
0.0
  0
LINE
  5
12F
330
1F
100
AcDbEntity
  8
0
  6
HIDDEN
 62
     7
370
     0
100
AcDbLine
 10
237.2764046334
 20
97.7616854002
 30
0.0
 11
239.111851508
 21
93.8692410463
 31
0.0
  0
LINE
  5
130
330
1F
100
AcDbEntity
  8
0
  6
HIDDEN
 62
     7
370
     0
100
AcDbLine
 10
239.1214601388
 20
93.8738430118
 30
0.0
 11
239.111851508
 21
93.8692410463
 31
0.0
  0
LINE
  5
131
330
1F
100
AcDbEntity
  8
0
  6
HIDDEN
 62
     7
370
     0
100
AcDbLine
 10
166.7390406247
 20
135.8395528127
 30
0.0
 11
166.7390406247
 21
117.8395528127
 31
0.0
  0
LINE
  5
132
330
1F
100
AcDbEntity
  8
0
  6
HIDDEN
 62
     7
370
     0
100
AcDbLine
 10
165.4890406247
 20
116.5895528127
 30
0.0
 11
165.4890406247
 21
137.0701119322
 31
0.0
  0
LINE
  5
133
330
1F
100
AcDbEntity
  8
0
  6
HIDDEN
 62
     7
370
     0
100
AcDbLine
 10
203.4890406247
 20
135.8395528127
 30
0.0
 11
203.4890406247
 21
117.8395528127
 31
0.0
  0
LINE
  5
134
330
1F
100
AcDbEntity
  8
0
  6
HIDDEN
 62
     7
370
     0
100
AcDbLine
 10
233.790433555
 20
125.0201817583
 30
0.0
 11
237.762135651
 21
119.7610778279
 31
0.0
  0
CIRCLE
  5
135
330
1F
100
AcDbEntity
  8
0
  6
HIDDEN
 62
     7
370
     0
100
AcDbCircle
 10
223.0804939999
 20
100.0262796742
 30
0.0
 40
3.473570495174246
  0
SPLINE
  5
136
330
1F
100
AcDbEntity
  8
0
  6
HIDDEN
 62
     7
370
     0
100
AcDbSpline
210
0.0
220
0.0
230
1.0
 70
     8
 71
     3
 72
    10
 73
     6
 74
     0
 42
0.00000001
 43
0.00000001
 12
1.0
 22
0.0
 32
0.0
 13
1.0
 23
0.0
 33
0.0
 40
0.0
 40
0.0
 40
0.0
 40
0.0
 40
0.5000000000000001
 40
0.5000000000000001
 40
1.0
 40
1.0
 40
1.0
 40
1.0
 10
214.587739040466
 20
126.839552812661
 30
0.0
 10
214.587739040466
 20
126.1834896147934
 30
0.0
 10
214.600233458388
 20
125.5274475737383
 30
0.0
 10
214.6396468736434
 20
124.2153879167854
 30
0.0
 10
214.6661788859484
 20
123.5593696456054
 30
0.0
 10
214.6876394629707
 20
122.9033427869581
 30
0.0
  0
LINE
  5
137
330
1F
100
AcDbEntity
  8
0
  6
HIDDEN
 62
     7
370
     0
100
AcDbLine
 10
214.5877390405
 20
126.8395528127
 30
0.0
 11
214.5877390405
 21
152.1021169193
 31
0.0
  0
SPLINE
  5
138
330
1F
100
AcDbEntity
  8
0
  6
HIDDEN
 62
     7
370
     0
100
AcDbSpline
210
0.0
220
0.0
230
1.0
 70
     8
 71
     3
 72
    10
 73
     6
 74
     0
 42
0.00000001
 43
0.00000001
 12
1.0
 22
0.0
 32
0.0
 13
1.0
 23
0.0
 33
0.0
 40
0.0
 40
0.0
 40
0.0
 40
0.0
 40
0.5
 40
0.5
 40
1.0
 40
1.0
 40
1.0
 40
1.0
 10
213.7217136366822
 20
153.3411055275334
 30
0.0
 10
213.9016073045911
 20
153.0849760631633
 30
0.0
 10
214.0621871057132
 20
152.8557957680975
 30
0.0
 10
214.3545281663072
 20
152.437646481409
 30
0.0
 10
214.4869323626349
 20
152.2477704171079
 30
0.0
 10
214.587739040466
 20
152.1021169192988
 30
0.0
  0
SPLINE
  5
139
330
1F
100
AcDbEntity
  8
0
  6
HIDDEN
 62
     7
370
     0
100
AcDbSpline
210
0.0
220
0.0
230
1.0
 70
     8
 71
     3
 72
    32
 73
    28
 74
     0
 42
0.00000001
 43
0.00000001
 12
1.0
 22
0.0
 32
0.0
 13
1.0
 23
0.0
 33
0.0
 40
0.0
 40
0.0
 40
0.0
 40
0.0
 40
0.1250000000000002
 40
0.1250000000000002
 40
0.1874999999999998
 40
0.1874999999999998
 40
0.2499999999999993
 40
0.2499999999999993
 40
0.3124999999999989
 40
0.3124999999999989
 40
0.3437499999999992
 40
0.3437499999999992
 40
0.3749999999999994
 40
0.3749999999999994
 40
0.4374999999999999
 40
0.4374999999999999
 40
0.5000000000000004
 40
0.5000000000000004
 40
0.562500000000001
 40
0.562500000000001
 40
0.6250000000000016
 40
0.6250000000000016
 40
0.7500000000000007
 40
0.7500000000000007
 40
0.8749999999999998
 40
0.8749999999999998
 40
1.0
 40
1.0
 40
1.0
 40
1.0
 10
216.6622130744446
 20
101.6234214941823
 30
0.0
 10
216.5828725586137
 20
101.7166935316632
 30
0.0
 10
216.5024301287746
 20
101.8273451951758
 30
0.0
 10
216.378246634715
 20
102.0418370993587
 30
0.0
 10
216.3362564632588
 20
102.1215289615078
 30
0.0
 10
216.2503262303704
 20
102.3070188215553
 30
0.0
 10
216.2062934258972
 20
102.413325795817
 30
0.0
 10
216.1206348235448
 20
102.6556608151875
 30
0.0
 10
216.0780262590624
 20
102.7950884132061
 30
0.0
 10
216.0208822393383
 20
103.0239066614497
 30
0.0
 10
216.0026374603326
 20
103.1048304425485
 30
0.0
 10
215.9699085204648
 20
103.2673903151747
 30
0.0
 10
215.9552430667679
 20
103.349579927236
 30
0.0
 10
215.9161051914491
 20
103.5987227515347
 30
0.0
 10
215.8976037610945
 20
103.7612519971567
 30
0.0
 10
215.8721914087975
 20
104.0717635489367
 30
0.0
 10
215.8653283929717
 20
104.2181367008002
 30
0.0
 10
215.8592528167179
 20
104.494414506791
 30
0.0
 10
215.8600410425636
 20
104.626049418885
 30
0.0
 10
215.8669684280383
 20
104.8766320747857
 30
0.0
 10
215.8730679125576
 20
104.9948848190806
 30
0.0
 10
215.8970527756705
 20
105.3350265468059
 30
0.0
 10
215.9205336056529
 20
105.5425680220269
 30
0.0
 10
215.9771367622133
 20
105.9346013003779
 30
0.0
 10
216.0104823218039
 20
106.1192951033321
 30
0.0
 10
216.0840439292478
 20
106.4691751261455
 30
0.0
 10
216.1241537946479
 20
106.633886430582
 30
0.0
 10
216.1668638595409
 20
106.7909215607203
 30
0.0
  0
SPLINE
  5
13A
330
1F
100
AcDbEntity
  8
0
  6
HIDDEN
 62
     7
370
     0
100
AcDbSpline
210
0.0
220
0.0
230
1.0
 70
     8
 71
     3
 72
    10
 73
     6
 74
     0
 42
0.00000001
 43
0.00000001
 12
1.0
 22
0.0
 32
0.0
 13
1.0
 23
0.0
 33
0.0
 40
0.0
 40
0.0
 40
0.0
 40
0.0
 40
0.5
 40
0.5
 40
1.0
 40
1.0
 40
1.0
 40
1.0
 10
214.6876394629707
 20
122.9033427869581
 30
0.0
 10
214.7753841164209
 20
120.2210826917994
 30
0.0
 10
214.9525324933086
 20
117.5364806124322
 30
0.0
 10
215.4576740784527
 20
112.1633249827812
 30
0.0
 10
215.7856387911984
 20
109.4706825217337
 30
0.0
 10
216.1668638595409
 20
106.7909215607203
 30
0.0
  0
SPLINE
  5
13B
330
1F
100
AcDbEntity
  8
0
  6
HIDDEN
 62
     7
370
     0
100
AcDbSpline
210
0.0
220
0.0
230
1.0
 70
     8
 71
     3
 72
    11
 73
     7
 74
     0
 42
0.00000001
 43
0.00000001
 12
1.0
 22
0.0
 32
0.0
 13
1.0
 23
0.0
 33
0.0
 40
0.0
 40
0.0
 40
0.0
 40
0.0
 40
0.2873965155163307
 40
0.5754134890315596
 40
0.8660010458112771
 40
1.0
 40
1.0
 40
1.0
 40
1.0
 10
217.167590055238
 20
92.4019849084412
 30
0.0
 10
216.8695180476111
 20
92.33913916455965
 30
0.0
 10
216.2727305271254
 20
92.21331199963151
 30
0.0
 10
215.7477354405857
 20
91.84736839952814
 30
0.0
 10
215.536736625309
 20
91.44238268635524
 30
0.0
 10
215.6616873041976
 20
91.08577609753401
 30
0.0
 10
215.7011215769871
 20
90.97323151892773
 30
0.0
  0
SPLINE
  5
13C
330
1F
100
AcDbEntity
  8
0
  6
HIDDEN
 62
     7
370
     0
100
AcDbSpline
210
0.0
220
0.0
230
1.0
 70
     8
 71
     3
 72
    12
 73
     8
 74
     0
 42
0.00000001
 43
0.00000001
 12
1.0
 22
0.0
 32
0.0
 13
1.0
 23
0.0
 33
0.0
 40
0.0
 40
0.0
 40
0.0
 40
0.0
 40
0.5000000000000007
 40
0.5000000000000007
 40
0.7500000000000003
 40
0.7500000000000003
 40
1.0
 40
1.0
 40
1.0
 40
1.0
 10
217.167590055238
 20
92.40198490844121
 30
0.0
 10
217.1116988554897
 20
93.67399360580386
 30
0.0
 10
217.0416406246737
 20
95.08571900331879
 30
0.0
 10
216.9143743132936
 20
97.4142205493041
 30
0.0
 10
216.8680765675172
 20
98.22798371052555
 30
0.0
 10
216.7697596820862
 20
99.89243335500005
 30
0.0
 10
216.7175389952618
 20
100.7469860918766
 30
0.0
 10
216.6622130744446
 20
101.6234214941824
 30
0.0
  0
ARC
  5
13D
330
1F
100
AcDbEntity
  8
0
  6
HIDDEN
 62
     7
370
     0
100
AcDbCircle
 10
234.0651778011
 20
98.883737981
 30
0.0
 40
2.098848907103836
100
AcDbArc
 50
26.2421205959
 51
204.9412052952
  0
LINE
  5
13E
330
1F
100
AcDbEntity
  8
0
  6
HIDDEN
 62
     7
370
     0
100
AcDbLine
 10
238.1480990766
 20
95.1453876648
 30
0.0
 11
236.5375922078
 21
98.5608002575
 31
0.0
  0
LINE
  5
13F
330
1F
100
AcDbEntity
  8
0
  6
HIDDEN
 62
     7
370
     0
100
AcDbLine
 10
236.1427383412
 20
99.3981694699
 30
0.0
 11
235.9477058176
 21
99.8117762357
 31
0.0
  0
LINE
  5
140
330
1F
100
AcDbEntity
  8
0
  6
HIDDEN
 62
     7
370
     0
100
AcDbLine
 10
239.111851508
 20
93.8692410463
 30
0.0
 11
238.1480990766
 21
95.1453876648
 31
0.0
  0
LINE
  5
141
330
1F
100
AcDbEntity
  8
0
  6
HIDDEN
 62
     7
370
     0
100
AcDbLine
 10
230.9681452714
 20
93.8239238402
 30
0.0
 11
230.9847102448
 21
93.8019894366
 31
0.0
  0
LINE
  5
142
330
1F
100
AcDbEntity
  8
0
  6
HIDDEN
 62
     7
370
     0
100
AcDbLine
 10
232.6550549746
 20
96.953192443
 30
0.0
 11
233.6188074059
 21
95.6770458245
 31
0.0
  0
SPLINE
  5
143
330
1F
100
AcDbEntity
  8
0
  6
HIDDEN
 62
     7
370
     0
100
AcDbSpline
210
0.0
220
0.0
230
1.0
 70
     8
 71
     3
 72
    38
 73
    34
 74
     0
 42
0.00000001
 43
0.00000001
 12
1.0
 22
0.0
 32
0.0
 13
1.0
 23
0.0
 33
0.0
 40
0.0
 40
0.0
 40
0.0
 40
0.0
 40
0.1250000000000005
 40
0.1250000000000005
 40
0.2500000000000011
 40
0.2500000000000011
 40
0.3125000000000014
 40
0.3125000000000014
 40
0.3750000000000018
 40
0.3750000000000018
 40
0.4062500000000017
 40
0.4062500000000017
 40
0.4375000000000015
 40
0.4375000000000015
 40
0.4687500000000014
 40
0.4687500000000014
 40
0.5000000000000012
 40
0.5000000000000012
 40
0.5312500000000011
 40
0.5312500000000011
 40
0.562500000000001
 40
0.562500000000001
 40
0.593750000000001
 40
0.593750000000001
 40
0.6250000000000009
 40
0.6250000000000009
 40
0.6875000000000004
 40
0.6875000000000004
 40
0.75
 40
0.75
 40
0.875
 40
0.875
 40
1.0
 40
1.0
 40
1.0
 40
1.0
 10
226.4811370652571
 20
100.5035004335324
 30
0.0
 10
226.536023445729
 20
100.4308229838422
 30
0.0
 10
226.5804881049951
 20
100.2904796817078
 30
0.0
 10
226.6447481846989
 20
99.93146918601997
 30
0.0
 10
226.6641454791441
 20
99.7107629499596
 30
0.0
 10
226.6530272602073
 20
99.33182158882944
 30
0.0
 10
226.6425869872018
 20
99.19694905897794
 30
0.0
 10
226.6002206429102
 20
98.90602984492692
 30
0.0
 10
226.5681787485944
 20
98.74859990495327
 30
0.0
 10
226.4924382986465
 20
98.49534102768821
 30
0.0
 10
226.4625547747155
 20
98.40802608082608
 30
0.0
 10
226.3892496005526
 20
98.22551854328474
 30
0.0
 10
226.3455402180329
 20
98.12981835967094
 30
0.0
 10
226.240503123557
 20
97.93388290257892
 30
0.0
 10
226.1778601881615
 20
97.831471301345
 30
0.0
 10
226.0315573043654
 20
97.62883761139294
 30
0.0
 10
225.9455996456792
 20
97.52620865151482
 30
0.0
 10
225.7613895965444
 20
97.33976418808643
 30
0.0
 10
225.6608048769619
 20
97.25353410412619
 30
0.0
 10
225.4622264513025
 20
97.10739747727803
 30
0.0
 10
225.3627054142842
 20
97.0458258400798
 30
0.0
 10
225.1735809899263
 20
96.94397198178895
 30
0.0
 10
225.0818437130746
 20
96.90234750058853
 30
0.0
 10
224.9057965505015
 20
96.8330468305067
 30
0.0
 10
224.8221891214329
 20
96.80559246996987
 30
0.0
 10
224.5808825140537
 20
96.73775161719564
 30
0.0
 10
224.431756476573
 20
96.71155417955231
 30
0.0
 10
224.1548244110859
 20
96.68133885496606
 30
0.0
 10
224.0275746984541
 20
96.67750151457422
 30
0.0
 10
223.6725652079318
 20
96.6869930904751
 30
0.0
 10
223.4699881031445
 20
96.7209928188143
 30
0.0
 10
223.1428630251434
 20
96.81719837713531
 30
0.0
 10
223.0197501271783
 20
96.87840555564914
 30
0.0
 10
222.9649711839901
 20
96.95094074294715
 30
0.0
  0
ELLIPSE
  5
144
330
1F
100
AcDbEntity
  8
0
  6
HIDDEN
 62
     7
370
     0
100
AcDbEllipse
 10
229.5870951982
 20
93.6802254316
 30
0.0
 11
1.334428566009251
 21
2.209358540186159
 31
0.0
210
0.0
220
0.0
230
1.0
 40
0.2605793844
 41
3.037700530381084
 42
4.120971618670612
  0
ELLIPSE
  5
145
330
1F
100
AcDbEntity
  8
0
  6
HIDDEN
 62
     7
370
     0
100
AcDbEllipse
 10
229.5870951982
 20
93.6802254316
 30
0.0
 11
2.137853599931645
 21
1.378829910960406
 31
0.0
210
0.0
220
0.0
230
1.0
 40
0.2825155173
 41
5.220855580025171
 42
6.304126668314628
  0
SPLINE
  5
146
330
1F
100
AcDbEntity
  8
0
  6
HIDDEN
 62
     7
370
     0
100
AcDbSpline
210
0.0
220
0.0
230
1.0
 70
     8
 71
     3
 72
    14
 73
    10
 74
     0
 42
0.00000001
 43
0.00000001
 12
1.0
 22
0.0
 32
0.0
 13
1.0
 23
0.0
 33
0.0
 40
0.0
 40
0.0
 40
0.0
 40
0.0
 40
0.25
 40
0.25
 40
0.5
 40
0.5
 40
0.75
 40
0.75
 40
1.0
 40
1.0
 40
1.0
 40
1.0
 10
230.9681452713979
 20
93.823923840175
 30
0.0
 10
230.7605297392456
 20
93.78962897545156
 30
0.0
 10
230.564178955082
 20
93.72330008296784
 30
0.0
 10
230.1925257683804
 20
93.52946151444569
 30
0.0
 10
230.0245088109833
 20
93.4052248173939
 30
0.0
 10
229.7303036930452
 20
93.10843191687215
 30
0.0
 10
229.6071978008142
 20
92.9384566416565
 30
0.0
 10
229.4183982042114
 20
92.56796451522477
 30
0.0
 10
229.352892109796
 20
92.36739403417276
 30
0.0
 10
229.3210294111611
 20
92.15975963166153
 30
0.0
  0
LINE
  5
147
330
1F
100
AcDbEntity
  8
0
  6
HIDDEN
 62
     7
370
     0
100
AcDbLine
 10
229.3210294112
 20
92.1597596317
 30
0.0
 11
229.3375943846
 21
92.1378252281
 31
0.0
  0
LINE
  5
148
330
1F
100
AcDbEntity
  8
0
  6
HIDDEN
 62
     7
370
     0
100
AcDbLine
 10
225.2920897605
 20
86.3257817033
 30
0.0
 11
224.3283373291
 21
87.6019283218
 31
0.0
  0
LINE
  5
149
330
1F
100
AcDbEntity
  8
0
  6
HIDDEN
 62
     7
370
     0
100
AcDbLine
 10
239.0387550243
 20
95.5719591568
 30
0.0
 11
240.0025074556
 21
94.2958125383
 31
0.0
  0
SPLINE
  5
14A
330
1F
100
AcDbEntity
  8
0
  6
HIDDEN
 62
     7
370
     0
100
AcDbSpline
210
0.0
220
0.0
230
1.0
 70
     8
 71
     3
 72
    32
 73
    28
 74
     0
 42
0.00000001
 43
0.00000001
 12
1.0
 22
0.0
 32
0.0
 13
1.0
 23
0.0
 33
0.0
 40
0.0
 40
0.0
 40
0.0
 40
0.0
 40
0.1249999999999993
 40
0.1249999999999993
 40
0.1874999999999994
 40
0.1874999999999994
 40
0.2499999999999994
 40
0.2499999999999994
 40
0.3124999999999995
 40
0.3124999999999995
 40
0.3749999999999996
 40
0.3749999999999996
 40
0.4374999999999996
 40
0.4374999999999996
 40
0.4999999999999997
 40
0.4999999999999997
 40
0.5624999999999997
 40
0.5624999999999997
 40
0.6249999999999997
 40
0.6249999999999997
 40
0.6874999999999997
 40
0.6874999999999997
 40
0.7499999999999997
 40
0.7499999999999997
 40
0.8749999999999999
 40
0.8749999999999999
 40
1.0
 40
1.0
 40
1.0
 40
1.0
 10
223.9603789674838
 20
104.0767703605735
 30
0.0
 10
223.9441147007102
 20
103.658689687775
 30
0.0
 10
223.8749152096572
 20
103.2540209137215
 30
0.0
 10
223.6947406226734
 20
102.6691083741043
 30
0.0
 10
223.6211001853614
 20
102.4763859515902
 30
0.0
 10
223.4494592531809
 20
102.105679762113
 30
0.0
 10
223.3518510569623
 20
101.9279610203601
 30
0.0
 10
223.132590125295
 20
101.5877095098513
 30
0.0
 10
223.0109535529189
 20
101.4251691495044
 30
0.0
 10
222.7413218494498
 20
101.1162147317245
 30
0.0
 10
222.5921774725387
 20
100.9690797230262
 30
0.0
 10
222.2741009134621
 20
100.7018728538347
 30
0.0
 10
222.1044123709085
 20
100.5806256730253
 30
0.0
 10
221.7414156901802
 20
100.3647326170549
 30
0.0
 10
221.5460613935968
 20
100.2695457355514
 30
0.0
 10
221.1443566389572
 20
100.1158546099115
 30
0.0
 10
220.9369003247685
 20
100.0563062908968
 30
0.0
 10
220.5078734578209
 20
99.97343778589065
 30
0.0
 10
220.2834047988619
 20
99.9502974543261
 30
0.0
 10
219.8386016987763
 20
99.94431290484322
 30
0.0
 10
219.617294820541
 20
99.96073767414917
 30
0.0
 10
219.1767981547624
 20
100.0311863561481
 30
0.0
 10
218.9574431297622
 20
100.08576280447
 30
0.0
 10
218.3286915130232
 20
100.2964896425338
 30
0.0
 10
217.9349198815517
 20
100.5036872355181
 30
0.0
 10
217.2370263432624
 20
101.0034364867141
 30
0.0
 10
216.9259742536035
 20
101.3002112991061
 30
0.0
 10
216.6622130744446
 20
101.6234214941824
 30
0.0
  0
ELLIPSE
  5
14B
330
1F
100
AcDbEntity
  8
0
  6
HIDDEN
 62
     7
370
     0
100
AcDbEllipse
 10
219.7517713377
 20
104.4957397127
 30
0.0
 11
2.570105550204659
 21
-3.403188827857377
 31
0.0
210
0.0
220
0.0
230
1.0
 40
0.9848432766
 41
0.8323564835663877
 42
3.501085929370199
  0
LINE
  5
14C
330
1F
100
AcDbEntity
  8
0
  6
HIDDEN
 62
     7
370
     0
100
AcDbLine
 10
226.0879741921
 20
101.0241045377
 30
0.0
 11
226.4811370653
 21
100.5035004335
 31
0.0
  0
ELLIPSE
  5
14D
330
1F
100
AcDbEntity
  8
0
  6
HIDDEN
 62
     7
370
     0
100
AcDbEllipse
 10
222.2223785863
 20
101.2243009245
 30
0.0
 11
3.167078026784054
 21
2.762841112032689
 31
0.0
210
0.0
220
0.0
230
1.0
 40
0.8543839535
 41
4.160460674162449
 42
5.435584515400852
  0
LINE
  5
14E
330
1F
100
AcDbEntity
  8
0
  6
HIDDEN
 62
     7
370
     0
100
AcDbLine
 10
222.964971184
 20
96.9509407429
 30
0.0
 11
222.5718083108
 21
97.4715448471
 31
0.0
  0
CIRCLE
  5
14F
330
1F
100
AcDbEntity
  8
0
  6
HIDDEN
 62
     7
370
     0
100
AcDbCircle
 10
223.0259764998
 20
100.0839634072
 30
0.0
 40
4.166306364324632
  0
LINE
  5
150
330
1F
100
AcDbEntity
  8
0
  6
HIDDEN
 62
     7
370
     0
100
AcDbLine
 10
231.1202647975
 20
95.860667016
 30
0.0
 11
231.7163231282
 21
95.0714001893
 31
0.0
  0
LINE
  5
151
330
1F
100
AcDbEntity
  8
0
  6
HIDDEN
 62
     7
370
     0
100
AcDbLine
 10
222.5718083108
 20
97.4715448471
 30
0.0
 11
225.38279146
 21
94.8353370201
 31
0.0
  0
LINE
  5
152
330
1F
100
AcDbEntity
  8
0
  6
HIDDEN
 62
     7
370
     0
100
AcDbLine
 10
230.2603732256
 20
89.7020497231
 30
0.0
 11
230.0082455868
 21
90.0359029236
 31
0.0
  0
LINE
  5
153
330
1F
100
AcDbEntity
  8
0
  6
HIDDEN
 62
     7
370
     0
100
AcDbLine
 10
227.6040989162
 20
92.3081073254
 30
0.0
 11
230.2603732256
 21
89.7020497231
 31
0.0
  0
LINE
  5
154
330
1F
100
AcDbEntity
  8
0
  6
HIDDEN
 62
     7
370
     0
100
AcDbLine
 10
228.2001572469
 20
91.5188404988
 30
0.0
 11
227.6040989162
 21
92.3081073254
 31
0.0
  0
LINE
  5
155
330
1F
100
AcDbEntity
  8
0
  6
HIDDEN
 62
     7
370
     0
100
AcDbLine
 10
139.9890406247
 20
111.7354999839
 30
0.0
 11
139.9890406247
 21
105.6811894164
 31
0.0
  0
LINE
  5
156
330
1F
100
AcDbEntity
  8
0
  6
HIDDEN
 62
     7
370
     0
100
AcDbLine
 10
138.4890406247
 20
112.1685126858
 30
0.0
 11
138.4890406247
 21
106.5472148202
 31
0.0
  0
LINE
  5
157
330
1F
100
AcDbEntity
  8
0
  6
HIDDEN
 62
     7
370
     0
100
AcDbLine
 10
139.9890406247
 20
147.9979162089
 30
0.0
 11
139.9890406247
 21
141.9436056414
 31
0.0
  0
LINE
  5
158
330
1F
100
AcDbEntity
  8
0
  6
HIDDEN
 62
     7
370
     0
100
AcDbLine
 10
174.2890406247
 20
148.8596515972
 30
0.0
 11
174.2890406247
 21
142.3744733355
 31
0.0
  0
LINE
  5
159
330
1F
100
AcDbEntity
  8
0
  6
HIDDEN
 62
     7
370
     0
100
AcDbLine
 10
138.4890406247
 20
147.1318908052
 30
0.0
 11
138.4890406247
 21
141.5105929395
 31
0.0
  0
LINE
  5
15A
330
1F
100
AcDbEntity
  8
0
  6
HIDDEN
 62
     7
370
     0
100
AcDbLine
 10
174.2890406247
 20
111.3046322898
 30
0.0
 11
174.2890406247
 21
104.8194540281
 31
0.0
  0
SPLINE
  5
15B
330
1F
100
AcDbEntity
  8
0
  6
HIDDEN
 62
     7
370
     0
100
AcDbSpline
210
0.0
220
0.0
230
1.0
 70
     8
 71
     3
 72
    16
 73
    12
 74
     0
 42
0.00000001
 43
0.00000001
 12
1.0
 22
0.0
 32
0.0
 13
1.0
 23
0.0
 33
0.0
 40
0.0
 40
0.0
 40
0.0
 40
0.0
 40
0.2500000000000007
 40
0.2500000000000007
 40
0.3750000000000007
 40
0.3750000000000007
 40
0.5000000000000008
 40
0.5000000000000008
 40
0.7500000000000003
 40
0.7500000000000003
 40
1.0
 40
1.0
 40
1.0
 40
1.0
 10
175.1677202811009
 20
110.25564618642
 30
0.0
 10
175.0064878036164
 20
109.5412520242278
 30
0.0
 10
174.8860079639768
 20
108.8879097615191
 30
0.0
 10
174.7636274466635
 20
107.9996545197153
 30
0.0
 10
174.732649786266
 20
107.7189739833634
 30
0.0
 10
174.6910360486381
 20
107.1899399935234
 30
0.0
 10
174.6808001357053
 20
106.946619014945
 30
0.0
 10
174.6806117386491
 20
106.2785963244318
 30
0.0
 10
174.7207564412867
 20
105.9149154150123
 30
0.0
 10
174.8849101962263
 20
105.355024542464
 30
0.0
 10
175.0064618466359
 20
105.1675032503468
 30
0.0
 10
175.1677202811009
 20
105.0694718576589
 30
0.0
  0
SPLINE
  5
15C
330
1F
100
AcDbEntity
  8
0
  6
HIDDEN
 62
     7
370
     0
100
AcDbSpline
210
0.0
220
0.0
230
1.0
 70
     8
 71
     3
 72
    16
 73
    12
 74
     0
 42
0.00000001
 43
0.00000001
 12
1.0
 22
0.0
 32
0.0
 13
1.0
 23
0.0
 33
0.0
 40
0.0
 40
0.0
 40
0.0
 40
0.0
 40
0.2499999999999998
 40
0.2499999999999998
 40
0.3749999999999997
 40
0.3749999999999997
 40
0.4999999999999996
 40
0.4999999999999996
 40
0.7499999999999998
 40
0.7499999999999998
 40
1.0
 40
1.0
 40
1.0
 40
1.0
 10
175.1677202811009
 20
148.6096337676631
 30
0.0
 10
175.0064878036164
 20
148.5116181546084
 30
0.0
 10
174.8860079639768
 20
148.3248821229323
 30
0.0
 10
174.7636274466635
 20
147.9118423153734
 30
0.0
 10
174.732649786266
 20
147.7518418161405
 30
0.0
 10
174.6910360486381
 20
147.3850361650494
 30
0.0
 10
174.6808001357053
 20
147.1816990124254
 30
0.0
 10
174.6806117386492
 20
146.5144117457987
 30
0.0
 10
174.7207564412868
 20
145.9935972819106
 30
0.0
 10
174.8849101962263
 20
144.7962382664329
 30
0.0
 10
175.0064618466359
 20
144.1379686121369
 30
0.0
 10
175.1677202811009
 20
143.423459438902
 30
0.0
  0
ARC
  5
15D
330
1F
100
AcDbEntity
  8
0
  6
HIDDEN
 62
     7
370
     0
100
AcDbCircle
 10
233.5835462697
 20
89.9292728594
 30
0.0
 40
3.330932217028028
100
AcDbArc
 50
183.911531124
 51
86.6784460165
  0
LINE
  5
15E
330
1F
100
AcDbEntity
  8
0
  6
HIDDEN
 62
     7
370
     0
100
AcDbLine
 10
239.5594072211
 20
83.5603791545
 30
0.0
 11
240.0521474722
 21
84.0532158487
 31
0.0
  0
ELLIPSE
  5
15F
330
1F
100
AcDbEntity
  8
0
  6
HIDDEN
 62
     7
370
     0
100
AcDbEllipse
 10
230.9174988724
 20
114.1752031941
 30
0.0
 11
250.572518111698
 21
-22.43180149458075
 31
0.0
210
0.0
220
0.0
230
1.0
 40
0.1182598878
 41
4.726640793026037
 42
4.757468553986977
  0
LINE
  5
160
330
1F
100
AcDbEntity
  8
0
  6
HIDDEN
 62
     7
370
     0
100
AcDbLine
 10
233.7765391069
 20
93.2546094137
 30
0.0
 11
231.1202647975
 21
95.860667016
 31
0.0
  0
LINE
  5
161
330
1F
100
AcDbEntity
  8
0
  6
HIDDEN
 62
     7
370
     0
100
AcDbLine
 10
239.0387550243
 20
95.5719591568
 30
0.0
 11
238.1480990766
 21
95.1453876648
 31
0.0
  0
LINE
  5
162
330
1F
100
AcDbEntity
  8
0
  6
HIDDEN
 62
     7
370
     0
100
AcDbLine
 10
227.6040989162
 20
92.3081073254
 30
0.0
 11
224.3283373291
 21
87.6019283218
 31
0.0
  0
LINE
  5
163
330
1F
100
AcDbEntity
  8
0
  6
HIDDEN
 62
     7
370
     0
100
AcDbLine
 10
232.6550549746
 20
96.953192443
 30
0.0
 11
231.1202647975
 21
95.860667016
 31
0.0
  0
LINE
  5
164
330
1F
100
AcDbEntity
  8
0
  6
HIDDEN
 62
     7
370
     0
100
AcDbLine
 10
232.1620654773
 20
97.9986785378
 30
0.0
 11
232.6550549746
 21
96.953192443
 31
0.0
  0
LINE
  5
165
330
1F
100
AcDbEntity
  8
0
  6
HIDDEN
 62
     7
370
     0
100
AcDbLine
 10
224.3283373291
 20
87.6019283218
 30
0.0
 11
231.8359776396
 21
84.2258516526
 31
0.0
  0
LINE
  5
166
330
1F
100
AcDbEntity
  8
0
  6
HIDDEN
 62
     7
370
     0
100
AcDbLine
 10
240.0521457601
 20
84.0532175458
 30
0.0
 11
239.2034479802
 21
93.699970853
 31
0.0
  0
LINE
  5
167
330
1F
100
AcDbEntity
  8
0
  6
HIDDEN
 62
     7
370
     0
100
AcDbLine
 10
239.1854546569
 20
93.9044925989
 30
0.0
 11
239.0387550243
 21
95.5719591568
 31
0.0
  0
SPLINE
  5
168
330
1F
100
AcDbEntity
  8
0
  6
HIDDEN
 62
     7
370
     0
100
AcDbSpline
210
0.0
220
0.0
230
1.0
 70
     8
 71
     3
 72
    14
 73
    10
 74
     0
 42
0.00000001
 43
0.00000001
 12
1.0
 22
0.0
 32
0.0
 13
1.0
 23
0.0
 33
0.0
 40
0.0
 40
0.0
 40
0.0
 40
0.0
 40
0.25
 40
0.25
 40
0.5
 40
0.5
 40
0.75
 40
0.75
 40
1.0
 40
1.0
 40
1.0
 40
1.0
 10
229.699015141758
 20
91.58147610032466
 30
0.0
 10
229.6939369756087
 20
91.3937057623796
 30
0.0
 10
229.7037612828247
 20
91.22194160374706
 30
0.0
 10
229.7394187006691
 20
90.90329300060046
 30
0.0
 10
229.7655200013618
 20
90.75653678047632
 30
0.0
 10
229.8266350425354
 20
90.48968203036331
 30
0.0
 10
229.861730105294
 20
90.36939028780078
 30
0.0
 10
229.9347802639096
 20
90.16625000135234
 30
0.0
 10
229.9727337983339
 20
90.08292563120658
 30
0.0
 10
230.0082455867881
 20
90.0359029236314
 30
0.0
  0
ARC
  5
169
330
1F
100
AcDbEntity
  8
0
  6
HIDDEN
 62
     7
370
     0
100
AcDbCircle
 10
232.8622867504
 20
90.7634151843
 30
0.0
 40
3.267340039294882
100
AcDbArc
 50
165.5002843046
 51
258.9121699758
  0
ARC
  5
16A
330
1F
100
AcDbEntity
  8
0
  6
HIDDEN
 62
     7
370
     0
100
AcDbCircle
 10
232.9338890692
 20
90.8023415388
 30
0.0
 40
3.317259605942612
100
AcDbArc
 50
260.4415120488
 51
104.422281554
  0
SPLINE
  5
16B
330
1F
100
AcDbEntity
  8
0
  6
HIDDEN
 62
     7
370
     0
100
AcDbSpline
210
0.0
220
0.0
230
1.0
 70
     8
 71
     3
 72
    14
 73
    10
 74
     0
 42
0.00000001
 43
0.00000001
 12
1.0
 22
0.0
 32
0.0
 13
1.0
 23
0.0
 33
0.0
 40
0.0
 40
0.0
 40
0.0
 40
0.0
 40
0.25
 40
0.25
 40
0.5
 40
0.5
 40
0.75
 40
0.75
 40
1.0
 40
1.0
 40
1.0
 40
1.0
 10
233.5244114680549
 20
93.58846261421677
 30
0.0
 10
233.4890568932122
 20
93.63527714839364
 30
0.0
 10
233.4174858894823
 20
93.6840359749261
 30
0.0
 10
233.2378856947498
 20
93.777539491992
 30
0.0
 10
233.1288046971945
 20
93.82264449217323
 30
0.0
 10
232.8829499659491
 20
93.90342816145639
 30
0.0
 10
232.745599926131
 20
93.93925498343525
 30
0.0
 10
232.4460018193743
 20
93.99332832134763
 30
0.0
 10
232.2842147433552
 20
94.01178545076866
 30
0.0
 10
232.1076707059598
 20
94.01506227197723
 30
0.0
  0
LINE
  5
16C
330
1F
100
AcDbEntity
  8
0
  6
HIDDEN
 62
     7
370
     0
100
AcDbLine
 10
233.5244114681
 20
93.5884626142
 30
0.0
 11
233.7765391069
 21
93.2546094137
 31
0.0
  0
ELLIPSE
  5
16D
330
1F
100
AcDbEntity
  8
0
  6
HIDDEN
 62
     7
370
     0
100
AcDbEllipse
 10
147.8255290638
 20
122.9085211375
 30
0.0
 11
84.12497475624016
 21
-38.91521614426388
 31
0.0
210
0.0
220
0.0
230
1.0
 40
0.026675174
 41
0.0659626205962581
 42
0.6143267244095886
  0
SPLINE
  5
16E
330
1F
100
AcDbEntity
  8
0
  6
HIDDEN
 62
     7
370
     0
100
AcDbSpline
210
0.0
220
0.0
230
1.0
 70
     8
 71
     3
 72
    45
 73
    41
 74
     0
 42
0.00000001
 43
0.00000001
 12
1.0
 22
0.0
 32
0.0
 13
1.0
 23
0.0
 33
0.0
 40
0.0
 40
0.0
 40
0.0
 40
0.0
 40
0.0182311145325051
 40
0.0358364576950275
 40
0.0528160278487177
 40
0.0691698234241311
 40
0.0848978429225818
 40
0.1000000849177921
 40
0.1144765480578723
 40
0.1283272310677826
 40
0.141552132752352
 40
0.1541512520000541
 40
0.1661245877877665
 40
0.1774721391868564
 40
0.188193905371018
 40
0.1982898856265645
 40
0.2077600793661027
 40
0.2166044861470473
 40
0.2248231056971985
 40
0.2324159379508366
 40
0.239382983101051
 40
0.2457242416778643
 40
0.2514397146691496
 40
0.3203853181014952
 40
0.3851774845274126
 40
0.4458170738338006
 40
0.5023052121836399
 40
0.5443302030208973
 40
0.5857278145077788
 40
0.6264989901871889
 40
0.6666447179840973
 40
0.7061660329400151
 40
0.7450640201550491
 40
0.7833398179560369
 40
0.8209946213111826
 40
0.8580296855136483
 40
0.8944463301588834
 40
0.930245943443072
 40
0.9654299868128913
 40
1.0
 40
1.0
 40
1.0
 40
1.0
 10
235.5941634669101
 20
102.854007274914
 30
0.0
 10
235.6177649181424
 20
102.6769467704645
 30
0.0
 10
235.6641577158575
 20
102.3289032503684
 30
0.0
 10
235.7329793163595
 20
101.8206169533569
 30
0.0
 10
235.7996737935078
 20
101.3337492110468
 30
0.0
 10
235.8642447024965
 20
100.8683599637536
 30
0.0
 10
235.9266557781449
 20
100.4240974752582
 30
0.0
 10
235.9868790147544
 20
100.0006968974278
 30
0.0
 10
236.0448828799038
 20
99.59785771211594
 30
0.0
 10
236.1006356699909
 20
99.2152782878292
 30
0.0
 10
236.1541050201111
 20
98.85265054873777
 30
0.0
 10
236.205258364381
 20
98.50966451600242
 30
0.0
 10
236.2540631382066
 20
98.18601018627956
 30
0.0
 10
236.3004870278938
 20
97.8813799005245
 30
0.0
 10
236.3444981870423
 20
97.59547041650728
 30
0.0
 10
236.3860654558403
 20
97.32798488476044
 30
0.0
 10
236.4251585221955
 20
97.07863468372624
 30
0.0
 10
236.4617482197714
 20
96.84714112375559
 30
0.0
 10
236.4958063113737
 20
96.63323703984837
 30
0.0
 10
236.5273069446155
 20
96.43666821168026
 30
0.0
 10
236.556222517922
 20
96.25719483196964
 30
0.0
 10
236.5825378694431
 20
96.09459230942055
 30
0.0
 10
236.6943449999801
 20
95.40515601881694
 30
0.0
 10
236.8872859531726
 20
94.24931754772714
 30
0.0
 10
237.1576737374908
 20
92.72501974523975
 30
0.0
 10
237.4109959753609
 20
91.38029272654643
 30
0.0
 10
237.6318010323281
 20
90.27521778360601
 30
0.0
 10
237.8240578549482
 20
89.35950466878049
 30
0.0
 10
237.9932376301032
 20
88.5900721573316
 30
0.0
 10
238.158292007709
 20
87.87587058082534
 30
0.0
 10
238.3191501940377
 20
87.21620864920472
 30
0.0
 10
238.4757242550999
 20
86.6102543898782
 30
0.0
 10
238.6279125127567
 20
86.05703568361442
 30
0.0
 10
238.7755995026615
 20
85.55546436094943
 30
0.0
 10
238.9186604921791
 20
85.10431384393125
 30
0.0
 10
239.0569512871074
 20
84.7023538527139
 30
0.0
 10
239.1903508823006
 20
84.34791445479203
 30
0.0
 10
239.3186117581248
 20
84.04052423442059
 30
0.0
 10
239.441909665533
 20
83.77500162869264
 30
0.0
 10
239.5205607715055
 20
83.63240546696342
 30
0.0
 10
239.5595401499797
 20
83.5617350080004
 30
0.0
  0
SPLINE
  5
16F
330
1F
100
AcDbEntity
  8
0
  6
HIDDEN
 62
     7
370
     0
100
AcDbSpline
210
0.0
220
0.0
230
1.0
 70
     8
 71
     3
 72
    33
 73
    29
 74
     0
 42
0.00000001
 43
0.00000001
 12
1.0
 22
0.0
 32
0.0
 13
1.0
 23
0.0
 33
0.0
 40
0.0
 40
0.0
 40
0.0
 40
0.0
 40
0.0176525273600549
 40
0.0352891335640281
 40
0.0529163615329107
 40
0.0705407646324828
 40
0.0881688993790139
 40
0.1058073181274131
 40
0.1234625617825495
 40
0.1411411525741536
 40
0.1588495869348792
 40
0.1765943285197992
 40
0.1943818014038111
 40
0.2122183834911862
 40
0.2301104001689184
 40
0.2480641182325741
 40
0.3729871043976735
 40
0.4976377451145161
 40
0.6225835627940696
 40
0.7484884277561461
 40
0.7801896448931188
 40
0.8117496542467068
 40
0.8432012702713692
 40
0.8745776475074102
 40
0.9059121793227267
 40
0.9372383929056524
 40
0.9685898421310439
 40
1.0
 40
1.0
 40
1.0
 40
1.0
 10
240.0521388426996
 20
84.0532267054063
 30
0.0
 10
240.0315485313182
 20
84.08930454302806
 30
0.0
 10
239.9903864793557
 20
84.16142767897159
 30
0.0
 10
239.9275602995983
 20
84.28303420631389
 30
0.0
 10
239.8639877461531
 20
84.41439004319746
 30
0.0
 10
239.7995882227475
 20
84.55646140304398
 30
0.0
 10
239.7343833453265
 20
84.70898947827463
 30
0.0
 10
239.6683673576876
 20
84.87204351786379
 30
0.0
 10
239.601541838685
 20
85.04560484764309
 30
0.0
 10
239.5339064056058
 20
85.22967832542983
 30
0.0
 10
239.4654611877616
 20
85.42426255719023
 30
0.0
 10
239.3962062335434
 20
85.62935751051839
 30
0.0
 10
239.3261414034738
 20
85.84496389053648
 30
0.0
 10
239.2552673944444
 20
86.0710779968574
 30
0.0
 10
239.1835817319271
 20
86.30771301823073
 30
0.0
 10
238.9672394811517
 20
87.0452070778009
 30
0.0
 10
238.5961636608391
 20
88.46351798840274
 30
0.0
 10
238.0592478958322
 20
90.89241846227866
 30
0.0
 10
237.512828491964
 20
93.72244795478484
 30
0.0
 10
237.1025065463008
 20
96.11570238284172
 30
0.0
 10
236.8313323861767
 20
97.80473572962532
 30
0.0
 10
236.6963281402044
 20
98.66770823284457
 30
0.0
 10
236.5627233970734
 20
99.54406857062867
 30
0.0
 10
236.430515220537
 20
100.433865752733
 30
0.0
 10
236.2996943335899
 20
101.3370192560584
 30
0.0
 10
236.1703035008098
 20
102.2537858316684
 30
0.0
 10
236.0421835653879
 20
103.1832003999863
 30
0.0
 10
235.9581244477339
 20
103.8128255566899
 30
0.0
 10
235.9160555734957
 20
104.127932617932
 30
0.0
  0
LWPOLYLINE
  5
170
330
1F
100
AcDbEntity
  8
0
  6
HIDDEN
 62
     7
370
     0
100
AcDbPolyline
 90
       13
 70
   128
 43
0.0
 10
228.8989573413
 20
98.3878967107
 10
229.1617478241
 20
98.0247396225
 10
229.2868191228
 20
97.5652805538
 10
229.2656478349
 20
97.0408308807
 10
229.0996767489
 20
96.4871309817
 10
228.80021652
 20
95.94191459
 10
228.3876748678
 20
95.4423373017
 10
227.8901658242
 20
95.0224444833
 10
227.3415938083
 20
94.7108511364
 10
226.7793430965
 20
94.5287918329
 10
226.2417301457
 20
94.4886736133
 10
225.7653923899
 20
94.5932304679
 10
225.38279146
 20
94.8353370201
  0
ELLIPSE
  5
171
330
1F
100
AcDbEntity
  8
0
  6
HIDDEN
 62
     7
370
     0
100
AcDbEllipse
 10
229.2996068009
 20
94.3716867736
 30
0.0
 11
2.219475038682532
 21
-2.141201758675677
 31
0.0
210
0.0
220
0.0
230
1.0
 40
0.8103652656
 41
5.51817727832767
 42
7.027448647185357
  0
LINE
  5
172
330
1F
100
AcDbEntity
  8
0
  6
HIDDEN
 62
     7
370
     0
100
AcDbLine
 10
228.8989573413
 20
98.3878967107
 30
0.0
 11
226.0879741921
 21
101.0241045377
 31
0.0
  0
LINE
  5
173
330
1F
100
AcDbEntity
  8
0
  6
HIDDEN
 62
     7
370
     0
100
AcDbLine
 10
138.4890406247
 20
141.5105929395
 30
0.0
 11
138.4890406247
 21
129.7415401456
 31
0.0
  0
LINE
  5
174
330
1F
100
AcDbEntity
  8
0
  6
HIDDEN
 62
     7
370
     0
100
AcDbLine
 10
138.4890406247
 20
123.9375654797
 30
0.0
 11
138.4890406247
 21
112.1685126858
 31
0.0
  0
LINE
  5
175
330
1F
100
AcDbEntity
  8
0
  6
HIDDEN
 62
     7
370
     0
100
AcDbLine
 10
139.9890406247
 20
122.8743419158
 30
0.0
 11
139.9890406247
 21
111.7354999839
 31
0.0
  0
LINE
  5
176
330
1F
100
AcDbEntity
  8
0
  6
HIDDEN
 62
     7
370
     0
100
AcDbLine
 10
139.9890406247
 20
141.9436056414
 30
0.0
 11
139.9890406247
 21
130.8047637095
 31
0.0
  0
LINE
  5
177
330
1F
100
AcDbEntity
  8
0
  6
HIDDEN
 62
     7
370
     0
100
AcDbLine
 10
176.2890406247
 20
141.8772599752
 30
0.0
 11
176.2890406247
 21
111.8018456502
 31
0.0
  0
LINE
  5
178
330
1F
100
AcDbEntity
  8
0
  6
HIDDEN
 62
     7
370
     0
100
AcDbLine
 10
174.2890406247
 20
142.3744733355
 30
0.0
 11
174.2890406247
 21
111.3046322898
 31
0.0
  0
SPLINE
  5
179
330
1F
100
AcDbEntity
  8
0
  6
HIDDEN
 62
     7
370
     0
100
AcDbSpline
210
0.0
220
0.0
230
1.0
 70
     8
 71
     3
 72
     8
 73
     4
 74
     0
 42
0.00000001
 43
0.00000001
 12
1.0
 22
0.0
 32
0.0
 13
1.0
 23
0.0
 33
0.0
 40
0.0000249638557296
 40
0.0000249638557296
 40
0.0000249638557296
 40
0.0000249638557296
 40
0.0049776420541172
 40
0.0049776420541172
 40
0.0049776420541172
 40
0.0049776420541172
 10
139.9890406246605
 20
122.8743419158245
 30
0.0
 10
141.6390168591701
 20
122.8330626780563
 30
0.0
 10
143.2890181789151
 20
122.7928409968168
 30
0.0
 10
144.9390406246606
 20
122.7535917595618
 30
0.0
  0
SPLINE
  5
17A
330
1F
100
AcDbEntity
  8
0
  6
HIDDEN
 62
     7
370
     0
100
AcDbSpline
210
0.0
220
0.0
230
1.0
 70
     8
 71
     3
 72
     8
 73
     4
 74
     0
 42
0.00000001
 43
0.00000001
 12
1.0
 22
0.0
 32
0.0
 13
1.0
 23
0.0
 33
0.0
 40
0.0000249631533153
 40
0.0000249631533153
 40
0.0000249631533153
 40
0.0000249631533153
 40
0.0049776413517028
 40
0.0049776413517028
 40
0.0049776413517028
 40
0.0049776413517028
 10
144.9390406246606
 20
130.9255138657602
 30
0.0
 10
143.2890181789151
 20
130.8862646285052
 30
0.0
 10
141.6390168591701
 20
130.8460429472657
 30
0.0
 10
139.9890406246606
 20
130.8047637094975
 30
0.0
  0
SPLINE
  5
17B
330
1F
100
AcDbEntity
  8
0
  6
HIDDEN
 62
     7
370
     0
100
AcDbSpline
210
0.0
220
0.0
230
1.0
 70
     8
 71
     3
 72
     8
 73
     4
 74
     0
 42
0.00000001
 43
0.00000001
 12
1.0
 22
0.0
 32
0.0
 13
1.0
 23
0.0
 33
0.0
 40
0.0
 40
0.0
 40
0.0
 40
0.0
 40
1.0
 40
1.0
 40
1.0
 40
1.0
 10
138.4890406246583
 20
123.9375654796807
 30
0.0
 10
138.9558012360361
 20
123.5222022340576
 30
0.0
 10
139.4615487828162
 20
123.1776118047531
 30
0.0
 10
139.9890406246606
 20
122.8743419158245
 30
0.0
  0
SPLINE
  5
17C
330
1F
100
AcDbEntity
  8
0
  6
HIDDEN
 62
     7
370
     0
100
AcDbSpline
210
0.0
220
0.0
230
1.0
 70
     8
 71
     3
 72
     8
 73
     4
 74
     0
 42
0.00000001
 43
0.00000001
 12
1.0
 22
0.0
 32
0.0
 13
1.0
 23
0.0
 33
0.0
 40
0.0
 40
0.0
 40
0.0
 40
0.0
 40
1.0
 40
1.0
 40
1.0
 40
1.0
 10
139.9890406246606
 20
130.8047637094976
 30
0.0
 10
139.4615487828171
 20
130.5014938205695
 30
0.0
 10
138.9558012360377
 20
130.1569033912655
 30
0.0
 10
138.4890406246606
 20
129.7415401456433
 30
0.0
  0
LINE
  5
17D
330
1F
100
AcDbEntity
  8
0
  6
HIDDEN
 62
     7
370
     0
100
AcDbLine
 10
138.4890406247
 20
123.9375654797
 30
0.0
 11
138.4890406247
 21
129.7415401456
 31
0.0
  0
LINE
  5
17E
330
1F
100
AcDbEntity
  8
0
  6
HIDDEN
 62
     7
370
     0
100
AcDbLine
 10
144.9390406247
 20
122.7535917596
 30
0.0
 11
144.9390406247
 21
130.9255138658
 31
0.0
  0
SPLINE
  5
17F
330
1F
100
AcDbEntity
  8
0
  6
HIDDEN
 62
     7
370
     0
100
AcDbSpline
210
0.0
220
0.0
230
1.0
 70
     8
 71
     3
 72
    24
 73
    20
 74
     0
 42
0.00000001
 43
0.00000001
 12
1.0
 22
0.0
 32
0.0
 13
1.0
 23
0.0
 33
0.0
 40
0.0
 40
0.0
 40
0.0
 40
0.0
 40
0.1249999999999998
 40
0.1249999999999998
 40
0.2499999999999996
 40
0.2499999999999996
 40
0.3749999999999993
 40
0.3749999999999993
 40
0.4374999999999994
 40
0.4374999999999994
 40
0.4999999999999996
 40
0.4999999999999996
 40
0.6249999999999997
 40
0.6249999999999997
 40
0.7499999999999998
 40
0.7499999999999998
 40
0.8749999999999999
 40
0.8749999999999999
 40
1.0
 40
1.0
 40
1.0
 40
1.0
 10
144.9390406246605
 20
122.7535917595618
 30
0.0
 10
145.1768442569357
 20
123.0525988618919
 30
0.0
 10
145.4069299181469
 20
123.3569367132107
 30
0.0
 10
145.8416833167567
 20
123.9826702506066
 30
0.0
 10
146.0466161090429
 20
124.3038949779341
 30
0.0
 10
146.4117180595416
 20
124.9758207486669
 30
0.0
 10
146.5735184453331
 20
125.3311359805458
 30
0.0
 10
146.7453786499128
 20
125.8813672018982
 30
0.0
 10
146.790963841573
 20
126.0677709868787
 30
0.0
 10
146.8534385811478
 20
126.4479054889749
 30
0.0
 10
146.8701097268962
 20
126.6435752812608
 30
0.0
 10
146.8706307700728
 20
127.2220556599352
 30
0.0
 10
146.8061884691861
 20
127.599967498904
 30
0.0
 10
146.5763393758128
 20
128.3419355240025
 30
0.0
 10
146.4178186981496
 20
128.6906509841634
 30
0.0
 10
146.0535843682494
 20
129.3637433818965
 30
0.0
 10
145.8468481281859
 20
129.6886958691382
 30
0.0
 10
145.4089101824455
 20
130.3196196796
 30
0.0
 10
145.177637455166
 20
130.6255094199406
 30
0.0
 10
144.9390406246606
 20
130.9255138657601
 30
0.0
  0
ELLIPSE
  5
180
330
1F
100
AcDbEntity
  8
0
  6
HIDDEN
 62
     7
370
     0
100
AcDbEllipse
 10
232.6903570133
 20
126.8395528127
 30
0.0
 11
-22.77935519570812
 21
31.9998673479073
 31
0.0
210
0.0
220
0.0
230
1.0
 40
0.0040448756
 41
0.6579961588556066
 42
1.567916958500419
  0
SPLINE
  5
181
330
1F
100
AcDbEntity
  8
0
  6
HIDDEN
 62
     7
370
     0
100
AcDbSpline
210
0.0
220
0.0
230
1.0
 70
     8
 71
     3
 72
    72
 73
    68
 74
     0
 42
0.00000001
 43
0.00000001
 12
1.0
 22
0.0
 32
0.0
 13
1.0
 23
0.0
 33
0.0
 40
-0.0312499999999999
 40
-0.0312499999999999
 40
0.0
 40
0.0
 40
0.0312500000000001
 40
0.0312500000000001
 40
0.0625000000000002
 40
0.0625000000000002
 40
0.0937500000000003
 40
0.0937500000000003
 40
0.1250000000000004
 40
0.1250000000000004
 40
0.1562500000000004
 40
0.1562500000000004
 40
0.1875000000000005
 40
0.1875000000000005
 40
0.2187500000000006
 40
0.2187500000000006
 40
0.2500000000000007
 40
0.2500000000000007
 40
0.2812500000000008
 40
0.2812500000000008
 40
0.3125000000000009
 40
0.3125000000000009
 40
0.3437500000000009
 40
0.3437500000000009
 40
0.375000000000001
 40
0.375000000000001
 40
0.390625000000001
 40
0.390625000000001
 40
0.406250000000001
 40
0.406250000000001
 40
0.437500000000001
 40
0.437500000000001
 40
0.4687500000000011
 40
0.4687500000000011
 40
0.5000000000000011
 40
0.5000000000000011
 40
0.5312500000000012
 40
0.5312500000000012
 40
0.5625000000000013
 40
0.5625000000000013
 40
0.5937500000000014
 40
0.5937500000000014
 40
0.6250000000000013
 40
0.6250000000000013
 40
0.6562500000000013
 40
0.6562500000000013
 40
0.6875000000000012
 40
0.6875000000000012
 40
0.7187500000000011
 40
0.7187500000000011
 40
0.750000000000001
 40
0.750000000000001
 40
0.7812500000000009
 40
0.7812500000000009
 40
0.8125000000000008
 40
0.8125000000000008
 40
0.8437500000000007
 40
0.8437500000000007
 40
0.8750000000000004
 40
0.8750000000000004
 40
0.9062500000000003
 40
0.9062500000000003
 40
0.9375000000000002
 40
0.9375000000000002
 40
0.9687500000000001
 40
0.9687500000000001
 40
1.0
 40
1.0
 40
1.03125
 40
1.03125
 10
157.6129869434857
 20
129.2803864624759
 30
0.0
 10
157.9874171633596
 20
129.690742262961
 30
0.0
 10
158.1922697646252
 20
129.8743913456195
 30
0.0
 10
158.6351379614722
 20
130.2013462491148
 30
0.0
 10
158.8750933787905
 20
130.3451244572947
 30
0.0
 10
159.370704361565
 20
130.5826418127405
 30
0.0
 10
159.6279706527195
 20
130.6779613776383
 30
0.0
 10
160.1613244205566
 20
130.8220469102728
 30
0.0
 10
160.4356045604549
 20
130.8697829172424
 30
0.0
 10
160.9820330950344
 20
130.9153650577762
 30
0.0
 10
161.2566094135022
 20
130.9139312977039
 30
0.0
 10
161.8085765877729
 20
130.8610179896131
 30
0.0
 10
162.0791935503446
 20
130.8100482634089
 30
0.0
 10
162.6054787214238
 20
130.6614416364653
 30
0.0
 10
162.8631102848314
 20
130.5631562657082
 30
0.0
 10
163.3590364495049
 20
130.3189029065225
 30
0.0
 10
163.5920201272966
 20
130.1758227755003
 30
0.0
 10
164.0283534026216
 20
129.8479642250315
 30
0.0
 10
164.2336346564799
 20
129.6609705873312
 30
0.0
 10
164.60166895434
 20
129.2515399675083
 30
0.0
 10
164.7631839443252
 20
129.0314345265238
 30
0.0
 10
165.0403416274723
 20
128.5596844450857
 30
0.0
 10
165.156735806906
 20
128.3046679186445
 30
0.0
 10
165.3300098435527
 20
127.7834300952475
 30
0.0
 10
165.3884563980184
 20
127.5159459774666
 30
0.0
 10
165.4323211234943
 20
127.1040303181341
 30
0.0
 10
165.4395013401237
 20
126.9643230150586
 30
0.0
 10
165.4385333128282
 20
126.6881999595962
 30
0.0
 10
165.4305305234146
 20
126.5510233932654
 30
0.0
 10
165.3844577915022
 20
126.1420899520022
 30
0.0
 10
165.3235229590502
 20
125.8701637029979
 30
0.0
 10
165.1454028026417
 20
125.3469831865428
 30
0.0
 10
165.0298348912993
 20
125.0982711861794
 30
0.0
 10
164.74798810736
 20
124.6253866611875
 30
0.0
 10
164.5811181619453
 20
124.4017774439554
 30
0.0
 10
164.2117926071465
 20
123.9971200557677
 30
0.0
 10
164.0070074508491
 20
123.8127064675982
 30
0.0
 10
163.5623545033328
 20
123.4836804327038
 30
0.0
 10
163.3275053738221
 20
123.3425123567156
 30
0.0
 10
162.834095611345
 20
123.1041028279351
 30
0.0
 10
162.5728086576404
 20
123.0063202715302
 30
0.0
 10
162.0420703771277
 20
122.8609922433401
 30
0.0
 10
161.7724306762304
 20
122.8127028531451
 30
0.0
 10
161.2246793364853
 20
122.7642876293585
 30
0.0
 10
160.9447752946266
 20
122.7647458149944
 30
0.0
 10
160.3976973867916
 20
122.8148976705966
 30
0.0
 10
160.1280922821042
 20
122.8640712376287
 30
0.0
 10
159.5969375254481
 20
123.0117457609357
 30
0.0
 10
159.3356427090046
 20
123.1109009253013
 30
0.0
 10
158.8433287308292
 20
123.351913695778
 30
0.0
 10
158.6093718552505
 20
123.4944018204027
 30
0.0
 10
158.1672032347201
 20
123.8258892493876
 30
0.0
 10
157.9620097036084
 20
124.013322877376
 30
0.0
 10
157.5963154872505
 20
124.4202265964265
 30
0.0
 10
157.4335448648621
 20
124.6414056710954
 30
0.0
 10
157.1525924340965
 20
125.1211530003107
 30
0.0
 10
157.039388581823
 20
125.371164967121
 30
0.0
 10
156.8667798576841
 20
125.8912401771414
 30
0.0
 10
156.8071735750077
 20
126.1649716417712
 30
0.0
 10
156.7492818049379
 20
126.7135892916697
 30
0.0
 10
156.7500713437979
 20
126.9879291555613
 30
0.0
 10
156.8112618194142
 20
127.5366711067002
 30
0.0
 10
156.8723905431483
 20
127.8097364205573
 30
0.0
 10
157.0484702287781
 20
128.3299016693257
 30
0.0
 10
157.164800823768
 20
128.5822208028846
 30
0.0
 10
157.4480020535088
 20
129.0586251442917
 30
0.0
 10
157.6129869434857
 20
129.2803864624759
 30
0.0
 10
157.9874171633596
 20
129.690742262961
 30
0.0
  0
CIRCLE
  5
182
330
1F
100
AcDbEntity
  8
0
  6
HIDDEN
 62
     7
370
     0
100
AcDbCircle
 10
160.9890406247
 20
126.8395528127
 30
0.0
 40
4.049999999999997
  0
CIRCLE
  5
183
330
1F
100
AcDbEntity
  8
0
  6
HIDDEN
 62
     7
370
     0
100
AcDbCircle
 10
188.4890406247
 20
126.8395528127
 30
0.0
 40
2.000000000000014
  0
SPLINE
  5
184
330
1F
100
AcDbEntity
  8
0
  6
HIDDEN
 62
     7
370
     0
100
AcDbSpline
210
0.0
220
0.0
230
1.0
 70
     8
 71
     3
 72
     9
 73
     5
 74
     0
 42
0.00000001
 43
0.00000001
 12
1.0
 22
0.0
 32
0.0
 13
1.0
 23
0.0
 33
0.0
 40
0.0
 40
0.0
 40
0.0
 40
0.0
 40
0.4970847007773535
 40
1.0
 40
1.0
 40
1.0
 40
1.0
 10
235.9168652785964
 20
104.1314406474008
 30
0.0
 10
235.8666351554001
 20
103.9188948118714
 30
0.0
 10
235.7655857303872
 20
103.4913100658574
 30
0.0
 10
235.6521405950023
 20
103.0668454382049
 30
0.0
 10
235.5950873007948
 20
102.8533756829795
 30
0.0
  0
LINE
  5
185
330
1F
100
AcDbEntity
  8
0
  6
HIDDEN
 62
     7
370
     0
100
AcDbLine
 10
223.9603789675
 20
104.0767703606
 30
0.0
 11
235.5941752688
 21
102.8540090971
 31
0.0
  0
LINE
  5
186
330
1F
100
AcDbEntity
  8
0
  6
HIDDEN
 62
     7
370
     0
100
AcDbLine
 10
235.9160555728
 20
104.1279326179
 30
0.0
 11
233.790433555
 21
125.0201817583
 31
0.0
  0
LINE
  5
187
330
1F
100
AcDbEntity
  8
0
  6
HIDDEN
 62
     7
370
     0
100
AcDbLine
 10
233.790433555
 20
125.0201817583
 30
0.0
 11
232.4953320046
 21
126.8395528127
 31
0.0
  0
LINE
  5
188
330
1F
100
AcDbEntity
  8
0
  6
HIDDEN
 62
     7
370
     0
100
AcDbLine
 10
194.4890406247
 20
114.5895528127
 30
0.0
 11
194.4890406247
 21
111.0896354072
 31
0.0
  0
LINE
  5
189
330
1F
100
AcDbEntity
  8
0
  6
HIDDEN
 62
     7
370
     0
100
AcDbLine
 10
200.4890406247
 20
111.0913436469
 30
0.0
 11
200.4890406247
 21
114.5895528127
 31
0.0
  0
LINE
  5
18A
330
1F
100
AcDbEntity
  8
0
  6
HIDDEN
 62
     7
370
     0
100
AcDbLine
 10
176.4890406247
 20
102.5895528127
 30
0.0
 11
176.5819338435
 21
102.6824460315
 31
0.0
  0
LINE
  5
18B
330
1F
100
AcDbEntity
  8
0
  6
HIDDEN
 62
     7
370
     0
100
AcDbLine
 10
176.5819338435
 20
150.9966595938
 30
0.0
 11
176.4890406247
 21
151.0895528127
 31
0.0
  0
ARC
  5
18C
330
1F
100
AcDbEntity
  8
0
  6
HIDDEN
 62
     7
370
     0
100
AcDbCircle
 10
175.8748270623
 20
103.3895528127
 30
0.0
 40
1.000000000000028
100
AcDbArc
 50
315.0
 51
0.0
  0
ARC
  5
18D
330
1F
100
AcDbEntity
  8
0
  6
HIDDEN
 62
     7
370
     0
100
AcDbCircle
 10
175.8748270623
 20
103.3895528127
 30
0.0
 40
1.0
100
AcDbArc
 50
0.0
 51
52.1052014664
  0
ARC
  5
18E
330
1F
100
AcDbEntity
  8
0
  6
HIDDEN
 62
     7
370
     0
100
AcDbCircle
 10
175.8748270623
 20
150.2895528127
 30
0.0
 40
1.000000000000028
100
AcDbArc
 50
351.8087250651
 51
45.0
  0
ARC
  5
18F
330
1F
100
AcDbEntity
  8
0
  6
HIDDEN
 62
     7
370
     0
100
AcDbCircle
 10
175.8748270623
 20
150.2895528127
 30
0.0
 40
1.000000000000006
100
AcDbArc
 50
307.8947985336
 51
351.8087250651
  0
LINE
  5
190
330
1F
100
AcDbEntity
  8
0
  6
HIDDEN
 62
     7
370
     0
100
AcDbLine
 10
176.8748270623
 20
103.3895528127
 30
0.0
 11
176.8748270623
 21
150.2895528127
 31
0.0
  0
LINE
  5
191
330
1F
100
AcDbEntity
  8
0
  6
HIDDEN
 62
     7
370
     0
100
AcDbLine
 10
176.8748270623
 20
103.3895528127
 30
0.0
 11
176.8748270623
 21
150.2895528127
 31
0.0
  0
LINE
  5
192
330
1F
100
AcDbEntity
  8
0
  6
HIDDEN
 62
     7
370
     0
100
AcDbLine
 10
194.9890406247
 20
122.3435181725
 30
0.0
 11
194.9890406247
 21
114.7397679674
 31
0.0
  0
LINE
  5
193
330
1F
100
AcDbEntity
  8
0
  6
HIDDEN
 62
     7
370
     0
100
AcDbLine
 10
199.9890406247
 20
117.3471272564
 30
0.0
 11
199.9890406247
 21
122.3418785497
 31
0.0
  0
LINE
  5
194
330
1F
100
AcDbEntity
  8
0
  6
HIDDEN
 62
     7
370
     0
100
AcDbLine
 10
199.9890406247
 20
114.7397679674
 30
0.0
 11
199.9890406247
 21
115.1641140093
 31
0.0
  0
LINE
  5
195
330
1F
100
AcDbEntity
  8
0
  6
HIDDEN
 62
     7
370
     0
100
AcDbLine
 10
206.3855558464
 20
112.9409428822
 30
0.0
 11
200.2498355282
 21
117.8188993369
 31
0.0
  0
LINE
  5
196
330
1F
100
AcDbEntity
  8
0
  6
HIDDEN
 62
     7
370
     0
100
AcDbLine
 10
197.530644272
 20
113.5931159328
 30
0.0
 11
206.5063231586
 21
106.4573651994
 31
0.0
  0
LINE
  5
197
330
1F
100
AcDbEntity
  8
0
  6
HIDDEN
 62
     7
370
     0
100
AcDbLine
 10
138.4890406247
 20
110.6431239682
 30
0.0
 11
140.0192690643
 21
111.5266017697
 31
0.0
  0
LINE
  5
198
330
1F
100
AcDbEntity
  8
0
  6
HIDDEN
 62
     7
370
     0
100
AcDbLine
 10
140.0192690643
 20
142.1525038556
 30
0.0
 11
138.4890406247
 21
143.0359816571
 31
0.0
  0
ARC
  5
199
330
1F
100
AcDbEntity
  8
0
  6
HIDDEN
 62
     7
370
     0
100
AcDbCircle
 10
149.4908419396
 20
112.8395528127
 30
0.0
 40
2.000000000000036
100
AcDbArc
 50
270.0
 51
315.0
  0
ARC
  5
19A
330
1F
100
AcDbEntity
  8
0
  6
HIDDEN
 62
     7
370
     0
100
AcDbCircle
 10
149.4908419396
 20
140.8395528127
 30
0.0
 40
2.000000000000056
100
AcDbArc
 50
45.0
 51
90.0
  0
LINE
  5
19B
330
1F
100
AcDbEntity
  8
0
  6
HIDDEN
 62
     7
370
     0
100
AcDbLine
 10
148.4890406247
 20
110.8395528127
 30
0.0
 11
149.4908419396
 21
110.8395528127
 31
0.0
  0
LINE
  5
19C
330
1F
100
AcDbEntity
  8
0
  6
HIDDEN
 62
     7
370
     0
100
AcDbLine
 10
149.4908419396
 20
142.8395528127
 30
0.0
 11
148.4890406247
 21
142.8395528127
 31
0.0
  0
ARC
  5
19D
330
1F
100
AcDbEntity
  8
0
  6
HIDDEN
 62
     7
370
     0
100
AcDbCircle
 10
148.4890406247
 20
112.8395528127
 30
0.0
 40
2.000000000000028
100
AcDbArc
 50
189.9742217944
 51
270.0
  0
ARC
  5
19E
330
1F
100
AcDbEntity
  8
0
  6
HIDDEN
 62
     7
370
     0
100
AcDbCircle
 10
148.4890406247
 20
140.8395528127
 30
0.0
 40
2.000000000000036
100
AcDbArc
 50
90.0
 51
170.0257782056
  0
LINE
  5
19F
330
1F
100
AcDbEntity
  8
0
  6
HIDDEN
 62
     7
370
     0
100
AcDbLine
 10
150.9050555019
 20
111.4253392503
 30
0.0
 11
152.3192690643
 21
112.8395528127
 31
0.0
  0
LINE
  5
1A0
330
1F
100
AcDbEntity
  8
0
  6
HIDDEN
 62
     7
370
     0
100
AcDbLine
 10
152.3192690643
 20
140.8395528127
 30
0.0
 11
150.9050555019
 21
142.253766375
 31
0.0
  0
LINE
  5
1A1
330
1F
100
AcDbEntity
  8
0
  6
HIDDEN
 62
     7
370
     0
100
AcDbLine
 10
140.0192690643
 20
111.5266017697
 30
0.0
 11
144.9192690643
 21
112.8395528127
 31
0.0
  0
LINE
  5
1A2
330
1F
100
AcDbEntity
  8
0
  6
HIDDEN
 62
     7
370
     0
100
AcDbLine
 10
144.9192690643
 20
140.8395528127
 30
0.0
 11
140.0192690643
 21
142.1525038556
 31
0.0
  0
LINE
  5
1A3
330
1F
100
AcDbEntity
  8
0
  6
HIDDEN
 62
     7
370
     0
100
AcDbLine
 10
146.5192690643
 20
141.1859629742
 30
0.0
 11
145.9192690643
 21
140.8395528127
 31
0.0
  0
LINE
  5
1A4
330
1F
100
AcDbEntity
  8
0
  6
HIDDEN
 62
     7
370
     0
100
AcDbLine
 10
145.9192690643
 20
112.8395528127
 30
0.0
 11
146.5192690643
 21
112.4931426511
 31
0.0
  0
ARC
  5
1A5
330
1F
100
AcDbEntity
  8
0
  6
HIDDEN
 62
     7
370
     0
100
AcDbCircle
 10
164.9890406247
 20
113.3395528127
 30
0.0
 40
0.5000000000000142
100
AcDbArc
 50
270.0
 51
0.0
  0
ARC
  5
1A6
330
1F
100
AcDbEntity
  8
0
  6
HIDDEN
 62
     7
370
     0
100
AcDbCircle
 10
164.9890406247
 20
140.3395528127
 30
0.0
 40
0.5
100
AcDbArc
 50
0.0
 51
90.0
  0
LINE
  5
1A7
330
1F
100
AcDbEntity
  8
0
  6
HIDDEN
 62
     7
370
     0
100
AcDbLine
 10
152.3192690643
 20
112.8395528127
 30
0.0
 11
164.9890406247
 21
112.8395528127
 31
0.0
  0
LINE
  5
1A8
330
1F
100
AcDbEntity
  8
0
  6
HIDDEN
 62
     7
370
     0
100
AcDbLine
 10
164.9890406247
 20
140.8395528127
 30
0.0
 11
152.3192690643
 21
140.8395528127
 31
0.0
  0
LINE
  5
1A9
330
1F
100
AcDbEntity
  8
0
  6
HIDDEN
 62
     7
370
     0
100
AcDbLine
 10
144.9192690643
 20
112.8395528127
 30
0.0
 11
145.9192690643
 21
112.8395528127
 31
0.0
  0
LINE
  5
1AA
330
1F
100
AcDbEntity
  8
0
  6
HIDDEN
 62
     7
370
     0
100
AcDbLine
 10
145.9192690643
 20
140.8395528127
 30
0.0
 11
144.9192690643
 21
140.8395528127
 31
0.0
  0
LINE
  5
1AB
330
1F
100
AcDbEntity
  8
0
  6
HIDDEN
 62
     7
370
     0
100
AcDbLine
 10
165.4890406247
 20
116.5895528127
 30
0.0
 11
166.7390406247
 21
117.8395528127
 31
0.0
  0
LINE
  5
1AC
330
1F
100
AcDbEntity
  8
0
  6
HIDDEN
 62
     7
370
     0
100
AcDbLine
 10
166.7390406247
 20
135.8395528127
 30
0.0
 11
165.4890406247
 21
137.0895528127
 31
0.0
  0
LINE
  5
1AD
330
1F
100
AcDbEntity
  8
0
  6
HIDDEN
 62
     7
370
     0
100
AcDbLine
 10
166.7390406247
 20
117.8395528127
 30
0.0
 11
203.4890406247
 21
117.8395528127
 31
0.0
  0
LINE
  5
1AE
330
1F
100
AcDbEntity
  8
0
  6
HIDDEN
 62
     7
370
     0
100
AcDbLine
 10
203.4890406247
 20
135.8395528127
 30
0.0
 11
166.7390406247
 21
135.8395528127
 31
0.0
  0
LINE
  5
1AF
330
1F
100
AcDbEntity
  8
0
  6
HIDDEN
 62
     7
370
     0
100
AcDbLine
 10
203.4890406247
 20
117.8395528127
 30
0.0
 11
208.8967861959
 21
126.8395528127
 31
0.0
  0
LINE
  5
1B0
330
1F
100
AcDbEntity
  8
0
  6
HIDDEN
 62
     7
370
     0
100
AcDbLine
 10
208.8967861959
 20
126.8395528127
 30
0.0
 11
203.4890406247
 21
135.8395528127
 31
0.0
  0
LINE
  5
1B1
330
1F
100
AcDbEntity
  8
0
  6
HIDDEN
 62
     7
370
     0
100
AcDbLine
 10
226.3729243231
 20
101.5360164881
 30
0.0
 11
225.9256054718
 21
102.1283308844
 31
0.0
  0
LINE
  5
1B2
330
1F
100
AcDbEntity
  8
0
  6
HIDDEN
 62
     7
370
     0
100
AcDbLine
 10
220.3395927446
 20
97.9097455987
 30
0.0
 11
220.786911596
 21
97.3174312024
 31
0.0
  0
LINE
  5
1B3
330
1F
100
AcDbEntity
  8
0
  6
HIDDEN
 62
     7
370
     0
100
AcDbLine
 10
236.6944418969
 20
98.8946563539
 30
0.0
 11
235.7306894656
 21
100.1708029725
 31
0.0
  0
LINE
  5
1B4
330
1F
100
AcDbEntity
  8
0
  6
HIDDEN
 62
     7
370
     0
100
AcDbLine
 10
222.98849993
 20
96.9243779683
 30
0.0
 11
228.2159804708
 21
91.5002730786
 31
0.0
  0
LINE
  5
1B5
330
1F
100
AcDbEntity
  8
0
  6
HIDDEN
 62
     7
370
     0
100
AcDbLine
 10
226.4402418185
 20
102.6084052886
 30
0.0
 11
223.103378974
 21
107.0268908841
 31
0.0
  0
LINE
  5
1B6
330
1F
100
AcDbEntity
  8
0
  6
HIDDEN
 62
     7
370
     0
100
AcDbLine
 10
216.5835810558
 20
101.7217176244
 30
0.0
 11
219.7370265459
 21
97.5461029458
 31
0.0
  0
LINE
  5
1B7
330
1F
100
AcDbEntity
  8
0
  6
HIDDEN
 62
     7
370
     0
100
AcDbLine
 10
236.2599091686
 20
91.9587227672
 30
0.0
 11
235.60137985
 21
92.830710153
 31
0.0
  0
LINE
  5
1B8
330
1F
100
AcDbEntity
  8
0
  6
HIDDEN
 62
     7
370
     0
100
AcDbLine
 10
230.2547676684
 20
88.7929213795
 30
0.0
 11
230.9132969869
 21
87.9209339938
 31
0.0
  0
LINE
  5
1B9
330
1F
100
AcDbEntity
  8
0
  6
HIDDEN
 62
     7
370
     0
100
AcDbLine
 10
233.5056650223
 20
93.6100632091
 30
0.0
 11
228.9409670094
 21
98.3464559357
 31
0.0
  0
LINE
  5
1BA
330
1F
100
AcDbEntity
  8
VERMASSUNG
  6
CENTERX2
100
AcDbLine
 10
135.5086654633
 20
126.8395528127
 30
0.0
 11
241.4890406247
 21
126.8395528127
 31
0.0
  0
LINE
  5
1BB
330
1F
100
AcDbEntity
  8
VERMASSUNG
  6
CENTERX2
100
AcDbLine
 10
241.4890406247
 20
126.8395528127
 30
0.0
 11
241.4890406247
 21
81.8395528127
 31
0.0
  0
LINE
  5
1BC
330
1F
100
AcDbEntity
  8
VERMASSUNG
  6
CENTERX2
100
AcDbLine
 10
241.4890406247
 20
81.8395528127
 30
0.0
 11
252.8067277382
 21
81.8395528127
 31
0.0
  0
DIMENSION
  5
1BD
330
1F
100
AcDbEntity
  8
VERMASSUNG
100
AcDbDimension
  2
_D
 10
262.4126504689
 20
81.8395528127
 30
0.0
 11
262.4126504689
 21
104.3395528127
 31
0.0
 70
   160
  1
<>
 71
     2
 42
-1.0
  3
SLDDIMSTYLE0
100
AcDbAlignedDimension
 13
241.4890406247
 23
126.8395528127
 33
0.0
 14
241.4890406247
 24
81.8395528127
 34
0.0
 50
90.0
100
AcDbRotatedDimension
  0
DIMENSION
  5
1CA
330
1F
100
AcDbEntity
  8
VERMASSUNG
100
AcDbDimension
  2
_D_1
 10
138.4890406247
 20
63.538546035
 30
0.0
 11
189.9890406247
 21
63.538546035
 31
0.0
 70
   160
  1
<>
 71
     2
 42
-1.0
  3
SLDDIMSTYLE1
100
AcDbAlignedDimension
 13
241.4890406247
 23
81.8395528127
 33
0.0
 14
138.4890406247
 24
106.5472148202
 34
0.0
100
AcDbRotatedDimension
  0
DIMENSION
  5
1D5
330
1F
100
AcDbEntity
  8
VERMASSUNG
100
AcDbDimension
  2
_D_2
 10
241.4890406247
 20
72.7517822009
 30
0.0
 11
208.9890406247
 21
72.7517822009
 31
0.0
 70
   160
  1
<>
 71
     2
 42
-1.0
  3
SLDDIMSTYLE0
100
AcDbAlignedDimension
 13
176.4890406247
 23
95.8395528127
 33
0.0
 14
241.4890406247
 24
81.8395528127
 34
0.0
100
AcDbRotatedDimension
  0
DIMENSION
  5
1E1
330
1F
100
AcDbEntity
  8
VERMASSUNG
100
AcDbDimension
  2
_D_3
 10
241.4875268422
 20
82.2760226767
 30
0.0
 11
251.8933514212
 21
93.1591234142
 31
0.0
 70
   162
  1
<>
 71
     1
 42
-1.0
  3
SLDDIMSTYLE2
100
AcDb2LineAngularDimension
 13
252.8067277382
 23
81.8395528127
 33
0.0
 14
241.4890406247
 24
81.8395528127
 34
0.0
 15
240.7758451532
 25
90.3653777447
 35
0.0
 16
251.8933514212
 26
93.1591234142
 36
0.0
  0
DIMENSION
  5
1EC
330
1F
100
AcDbEntity
  8
VERMASSUNG
100
AcDbDimension
  2
_D_4
 10
130.5395683625
 20
95.3395528127
 30
0.0
 11
130.5395683625
 21
126.8395528127
 31
0.0
 70
   160
  1
PSC%%c<>
 71
     2
 42
-1.0
  3
SLDDIMSTYLE1
100
AcDbAlignedDimension
 13
176.9890406247
 23
158.3395528127
 33
0.0
 14
176.9890406247
 24
95.3395528127
 34
0.0
 50
90.0
100
AcDbRotatedDimension
  0
LINE
  5
1F8
330
1F
100
AcDbEntity
  8
0
  6
Continuous
 62
     7
370
    15
100
AcDbLine
 10
69.0253299267
 20
81.839595728
 30
0.0
 11
73.7131838191
 21
82.4984319437
 31
0.0
  0
LINE
  5
1F9
330
1F
100
AcDbEntity
  8
0
  6
Continuous
 62
     7
370
    15
100
AcDbLine
 10
66.6509845264
 20
97.9524820972
 30
0.0
 11
66.3291541364
 21
97.9072514851
 31
0.0
  0
LINE
  5
1FA
330
1F
100
AcDbEntity
  8
0
  6
Continuous
 62
     7
370
    15
100
AcDbLine
 10
66.8097203102
 20
94.9291221727
 30
0.0
 11
66.66787313
 21
94.5680744875
 31
0.0
  0
SPLINE
  5
1FB
330
1F
100
AcDbEntity
  8
0
  6
Continuous
 62
     7
370
    15
100
AcDbSpline
210
0.0
220
0.0
230
1.0
 70
     8
 71
     3
 72
     9
 73
     5
 74
     0
 42
0.00000001
 43
0.00000001
 12
1.0
 22
0.0
 32
0.0
 13
1.0
 23
0.0
 33
0.0
 40
0.0
 40
0.0
 40
0.0
 40
0.0
 40
0.8770037335222517
 40
1.0
 40
1.0
 40
1.0
 40
1.0
 10
68.03929800796962
 20
84.172383688773
 30
0.0
 10
68.10239247663688
 20
84.08327010932818
 30
0.0
 10
68.17433569221916
 20
83.98165870673252
 30
0.0
 10
68.20605540938593
 20
83.8863909657391
 30
0.0
 10
68.20995681617117
 20
83.87467338928111
 30
0.0
  0
LINE
  5
1FC
330
1F
100
AcDbEntity
  8
0
  6
Continuous
 62
     7
370
    15
100
AcDbLine
 10
67.8631764108
 20
84.3986913491
 30
0.0
 11
68.0381217476
 21
84.1702751745
 31
0.0
  0
LINE
  5
1FD
330
1F
100
AcDbEntity
  8
0
  6
Continuous
 62
     7
370
    15
100
AcDbLine
 10
73.7266456212
 20
82.5609497655
 30
0.0
 11
78.0289079498
 21
83.1655941833
 31
0.0
  0
LINE
  5
1FE
330
1F
100
AcDbEntity
  8
0
  6
Continuous
 62
     7
370
    15
100
AcDbLine
 10
78.039016525
 20
83.1726089049
 30
0.0
 11
78.28968479
 21
83.509106927
 31
0.0
  0
SPLINE
  5
1FF
330
1F
100
AcDbEntity
  8
0
  6
Continuous
 62
     7
370
    15
100
AcDbSpline
210
0.0
220
0.0
230
1.0
 70
     8
 71
     3
 72
    33
 73
    29
 74
     0
 42
0.00000001
 43
0.00000001
 12
1.0
 22
0.0
 32
0.0
 13
1.0
 23
0.0
 33
0.0
 40
0.0
 40
0.0
 40
0.0
 40
0.0
 40
0.0176525273600549
 40
0.0352891335640281
 40
0.0529163615329107
 40
0.0705407646324828
 40
0.0881688993790139
 40
0.1058073181274131
 40
0.1234625617825495
 40
0.1411411525741536
 40
0.1588495869348792
 40
0.1765943285197992
 40
0.1943818014038111
 40
0.2122183834911862
 40
0.2301104001689184
 40
0.2480641182325741
 40
0.3729871043976735
 40
0.4976377451145161
 40
0.6225835627940696
 40
0.7484884277561461
 40
0.7801896448931188
 40
0.8117496542467068
 40
0.8432012702713692
 40
0.8745776475074102
 40
0.9059121793227267
 40
0.9372383929056524
 40
0.9685898421310439
 40
1.0
 40
1.0
 40
1.0
 40
1.0
 10
78.27051783465019
 20
84.05322670540632
 30
0.0
 10
78.45475129743717
 20
84.08930454302808
 30
0.0
 10
78.82305205928527
 20
84.1614276789716
 30
0.0
 10
79.37242754231453
 20
84.28303420631389
 30
0.0
 10
79.91912939071243
 20
84.41439004319746
 30
0.0
 10
80.46296478344078
 20
84.55646140304401
 30
0.0
 10
81.00398506829097
 20
84.70898947827465
 30
0.0
 10
81.5421762060574
 20
84.87204351786382
 30
0.0
 10
82.07754169305625
 20
85.04560484764309
 30
0.0
 10
82.61008031484899
 20
85.22967832542983
 30
0.0
 10
83.13979220776773
 20
85.42426255719023
 30
0.0
 10
83.66667688079522
 20
85.6293575105184
 30
0.0
 10
84.19073507150135
 20
85.8449638905365
 30
0.0
 10
84.71196329107075
 20
86.07107799685741
 30
0.0
 10
85.23037387289314
 20
86.30771301823074
 30
0.0
 10
86.76903626535756
 20
87.04520707780091
 30
0.0
 10
89.23831121195126
 20
88.46351798840276
 30
0.0
 10
92.39379717804303
 20
90.89241846227866
 30
0.0
 10
95.20837845198233
 20
93.72244795478485
 30
0.0
 10
97.02491097585376
 20
96.11570238284173
 30
0.0
 10
98.10646821211486
 20
97.80473572962534
 30
0.0
 10
98.6204543975196
 20
98.66770823284459
 30
0.0
 10
99.10437021141152
 20
99.54406857062868
 30
0.0
 10
99.55819333073177
 20
100.433865752733
 30
0.0
 10
99.98211397688559
 20
101.3370192560584
 30
0.0
 10
100.375382059429
 20
102.2537858316684
 30
0.0
 10
100.7407997454315
 20
103.1832003999863
 30
0.0
 10
100.9585708233772
 20
103.81282555669
 30
0.0
 10
101.067558216375
 20
104.127932617932
 30
0.0
  0
SPLINE
  5
200
330
1F
100
AcDbEntity
  8
0
  6
Continuous
 62
     7
370
    15
100
AcDbSpline
210
0.0
220
0.0
230
1.0
 70
    24
 71
     3
 72
     9
 73
     5
 74
     0
 42
0.00000001
 43
0.00000001
 12
1.0
 22
0.0
 32
0.0
 13
1.0
 23
0.0
 33
0.0
 40
0.0
 40
0.0
 40
0.0
 40
0.0
 40
0.4970847007773535
 40
1.0
 40
1.0
 40
1.0
 40
1.0
 10
101.0675582240866
 20
104.1314406474008
 30
0.0
 10
101.0675582240866
 20
103.9188948118715
 30
0.0
 10
101.0675582240866
 20
103.4913100658574
 30
0.0
 10
101.0675582240865
 20
103.0668454382049
 30
0.0
 10
101.0675582240865
 20
102.8533756829795
 30
0.0
  0
SPLINE
  5
201
330
1F
100
AcDbEntity
  8
0
  6
Continuous
 62
     7
370
    15
100
AcDbSpline
210
0.0
220
0.0
230
1.0
 70
     8
 71
     3
 72
    45
 73
    41
 74
     0
 42
0.00000001
 43
0.00000001
 12
1.0
 22
0.0
 32
0.0
 13
1.0
 23
0.0
 33
0.0
 40
0.0
 40
0.0
 40
0.0
 40
0.0
 40
0.0182311145325051
 40
0.0358364576950275
 40
0.0528160278487177
 40
0.0691698234241311
 40
0.0848978429225818
 40
0.1000000849177921
 40
0.1144765480578723
 40
0.1283272310677826
 40
0.141552132752352
 40
0.1541512520000541
 40
0.1661245877877665
 40
0.1774721391868564
 40
0.188193905371018
 40
0.1982898856265645
 40
0.2077600793661027
 40
0.2166044861470473
 40
0.2248231056971985
 40
0.2324159379508366
 40
0.239382983101051
 40
0.2457242416778643
 40
0.2514397146691496
 40
0.3203853181014952
 40
0.3851774845274126
 40
0.4458170738338006
 40
0.5023052121836399
 40
0.5443302030208973
 40
0.5857278145077788
 40
0.6264989901871889
 40
0.6666447179840973
 40
0.7061660329400151
 40
0.7450640201550491
 40
0.7833398179560369
 40
0.8209946213111826
 40
0.8580296855136483
 40
0.8944463301588834
 40
0.930245943443072
 40
0.9654299868128913
 40
1.0
 40
1.0
 40
1.0
 40
1.0
 10
101.0675570524959
 20
102.8540072749141
 30
0.0
 10
100.9997000628935
 20
102.6769467704645
 30
0.0
 10
100.8663152315457
 20
102.3289032503684
 30
0.0
 10
100.6580437025277
 20
101.8206169533569
 30
0.0
 10
100.4493427446563
 20
101.3337492110468
 30
0.0
 10
100.2403658794589
 20
100.8683599637536
 30
0.0
 10
100.0322559459905
 20
100.4240974752582
 30
0.0
 10
99.82584911357748
 20
100.0006968974278
 30
0.0
 10
99.62200389451904
 20
99.59785771211595
 30
0.0
 10
99.42151872236788
 20
99.21527828782921
 30
0.0
 10
99.22515358420932
 20
98.85265054873778
 30
0.0
 10
99.03362549153636
 20
98.50966451600243
 30
0.0
 10
98.84761058438893
 20
98.18601018627957
 30
0.0
 10
98.66774461330846
 20
97.88137990052451
 30
0.0
 10
98.49462385436966
 20
97.5954704165073
 30
0.0
 10
98.32880593211138
 20
97.32798488476045
 30
0.0
 10
98.17081066737785
 20
97.07863468372625
 30
0.0
 10
98.02112091762751
 20
96.84714112375559
 30
0.0
 10
97.88018338304913
 20
96.63323703984838
 30
0.0
 10
97.74840945877105
 20
96.43666821168028
 30
0.0
 10
97.62617582989657
 20
96.25719483196966
 30
0.0
 10
97.51382578165818
 20
96.09459230942055
 30
0.0
 10
97.03121684014104
 20
95.40515601881694
 30
0.0
 10
96.15541790391735
 20
94.24931754772717
 30
0.0
 10
94.8290529383657
 20
92.72501974523978
 30
0.0
 10
93.49960417165224
 20
91.38029272654643
 30
0.0
 10
92.2685338464949
 20
90.27521778360604
 30
0.0
 10
91.13894015493179
 20
89.3595046687805
 30
0.0
 10
90.10228865961756
 20
88.5900721573316
 30
0.0
 10
89.05014417057525
 20
87.87587058082535
 30
0.0
 10
87.98561335629616
 20
87.21620864920473
 30
0.0
 10
86.9116814816753
 20
86.61025438987821
 30
0.0
 10
85.83119854791377
 20
86.05703568361442
 30
0.0
 10
84.74687721724531
 20
85.55546436094946
 30
0.0
 10
83.66129672029362
 20
85.10431384393127
 30
0.0
 10
82.57687728558271
 20
84.70235385271391
 30
0.0
 10
81.49596866641237
 20
84.34791445479205
 30
0.0
 10
80.42052612078625
 20
84.0405242344206
 30
0.0
 10
79.35329052841422
 20
83.77500162869264
 30
0.0
 10
78.6405012693729
 20
83.63240546696343
 30
0.0
 10
78.28724390627492
 20
83.56173500800041
 30
0.0
  0
LINE
  5
202
330
1F
100
AcDbEntity
  8
0
  6
Continuous
 62
     7
370
    15
100
AcDbLine
 10
76.5440407645
 20
95.5719582666
 30
0.0
 11
67.4637857096
 21
94.2958116461
 31
0.0
  0
LINE
  5
203
330
1F
100
AcDbEntity
  8
0
  6
Continuous
 62
     7
370
    15
100
AcDbLine
 10
67.4637857096
 20
94.2958116461
 30
0.0
 11
63.6470894765
 21
119.7610779595
 31
0.0
  0
LINE
  5
204
330
1F
100
AcDbEntity
  8
0
  6
Continuous
 62
     7
370
    15
100
AcDbLine
 10
101.067559744
 20
125.0201817997
 30
0.0
 11
63.6470894765
 21
119.7610779595
 31
0.0
  0
LINE
  5
205
330
1F
100
AcDbEntity
  8
0
  6
Continuous
 62
     7
370
    15
100
AcDbLine
 10
101.067559744
 20
104.1279330779
 30
0.0
 11
101.067559744
 21
125.0201817997
 31
0.0
  0
LINE
  5
206
330
1F
100
AcDbEntity
  8
0
  6
Continuous
 62
     7
370
    15
100
AcDbLine
 10
77.1001884218
 20
91.8613009084
 30
0.0
 11
76.5440407645
 21
95.5719582666
 31
0.0
  0
LINE
  5
207
330
1F
100
AcDbEntity
  8
0
  6
Continuous
 62
     7
370
    15
100
AcDbLine
 10
76.5440407645
 20
95.5719582666
 30
0.0
 11
76.5094598259
 21
95.1453864504
 31
0.0
  0
LINE
  5
208
330
1F
100
AcDbEntity
  8
0
  6
Continuous
 62
     7
370
    15
100
AcDbLine
 10
67.4292046547
 20
93.8692398299
 30
0.0
 11
76.5094598259
 21
95.1453864504
 31
0.0
  0
LINE
  5
209
330
1F
100
AcDbEntity
  8
0
  6
Continuous
 62
     7
370
    15
100
AcDbLine
 10
67.4637857096
 20
94.2958116461
 30
0.0
 11
67.4292046547
 21
93.8692398299
 31
0.0
  0
LINE
  5
20A
330
1F
100
AcDbEntity
  8
0
  6
Continuous
 62
     7
370
    15
100
AcDbLine
 10
66.5398430515
 20
98.5356297273
 30
0.0
 11
67.4292046547
 21
93.8692398299
 31
0.0
  0
LWPOLYLINE
  5
20B
330
1F
100
AcDbEntity
  8
0
  6
Continuous
 62
     7
370
    15
100
AcDbPolyline
 90
       12
 70
   128
 43
0.0
 10
66.310011965
 20
97.1944097359
 10
66.2953298974
 20
97.2866050828
 10
66.2116549879
 20
97.8784214635
 10
66.1486137628
 20
98.4500393201
 10
66.1113140609
 20
98.9551477064
 10
66.1027770925
 20
99.352826171
 10
66.1236950632
 20
99.6108565409
 10
66.1723729658
 20
99.7083362121
 10
66.2448671151
 20
99.6373657066
 10
66.3353048235
 20
99.4036968727
 10
66.4363589108
 20
99.0262579102
 10
66.5398430515
 20
98.5356297273
  0
LINE
  5
20C
330
1F
100
AcDbEntity
  8
0
  6
Continuous
 62
     7
370
    15
100
AcDbLine
 10
65.4170847933
 20
90.5892930854
 30
0.0
 11
66.6602069482
 21
87.2880861092
 31
0.0
  0
SPLINE
  5
20D
330
1F
100
AcDbEntity
  8
0
  6
Continuous
 62
     7
370
    15
100
AcDbSpline
210
0.0
220
0.0
230
1.0
 70
     8
 71
     3
 72
     8
 73
     4
 74
     0
 42
0.00000001
 43
0.00000001
 12
1.0
 22
0.0
 32
0.0
 13
1.0
 23
0.0
 33
0.0
 40
0.0
 40
0.0
 40
0.0
 40
0.0
 40
1.0
 40
1.0
 40
1.0
 40
1.0
 10
65.41708490543743
 20
90.58929198947833
 30
0.0
 10
65.17544195984667
 20
92.02458981941352
 30
0.0
 10
64.93389976192856
 20
93.46029614901958
 30
0.0
 10
64.69250334779875
 20
94.89659358537719
 30
0.0
  0
SPLINE
  5
20E
330
1F
100
AcDbEntity
  8
0
  6
Continuous
 62
     7
370
    15
100
AcDbSpline
210
0.0
220
0.0
230
1.0
 70
     8
 71
     3
 72
    10
 73
     6
 74
     0
 42
0.00000001
 43
0.00000001
 12
1.0
 22
0.0
 32
0.0
 13
1.0
 23
0.0
 33
0.0
 40
0.0
 40
0.0
 40
0.0
 40
0.0
 40
0.5
 40
0.5
 40
1.0
 40
1.0
 40
1.0
 40
1.0
 10
64.69250334779875
 20
94.89659358537719
 30
0.0
 10
64.65607860504197
 20
95.11331911060984
 30
0.0
 10
64.61583545434073
 20
95.30675950715246
 30
0.0
 10
64.5398836566974
 20
95.58805536222734
 30
0.0
 10
64.50500617690274
 20
95.67172115241218
 30
0.0
 10
64.48053953656476
 20
95.67532236235178
 30
0.0
  0
ARC
  5
20F
330
1F
100
AcDbEntity
  8
0
  6
Continuous
 62
     7
370
    15
100
AcDbCircle
 10
69.0675582241
 20
126.8395528127
 30
0.0
 40
31.5
100
AcDbArc
 50
261.4012323503
 51
261.6268371416
  0
LINE
  5
210
330
1F
100
AcDbEntity
  8
0
  6
Continuous
 62
     7
370
    15
100
AcDbLine
 10
63.6470894765
 20
119.7610779595
 30
0.0
 11
55.9964132931
 21
155.1884457398
 31
0.0
  0
LWPOLYLINE
  5
211
330
1F
100
AcDbEntity
  8
0
  6
Continuous
 62
     7
370
    15
100
AcDbPolyline
 90
       31
 70
   128
 43
0.0
 10
64.5125302922
 20
102.8926622052
 10
64.447850405
 20
102.8063360531
 10
64.4072866503
 20
102.572305866
 10
64.3926108691
 20
102.2007994283
 10
64.4044652085
 20
101.7080515552
 10
64.4423318531
 20
101.11559815
 10
64.5045549113
 20
100.4493337054
 10
64.5884153869
 20
99.7383750904
 10
64.6902480598
 20
99.0137968142
 10
64.8056026052
 20
98.3072657067
 10
64.9294373083
 20
97.6496606995
 10
65.0563402537
 20
97.0697205443
 10
65.1807649497
 20
96.5927921165
 10
65.2972731709
 20
96.2397221405
 10
65.4007733769
 20
96.0259389062
 10
65.486742134
 20
95.9607854415
 10
65.5514217883
 20
96.0471115936
 10
65.5919857759
 20
96.2811417807
 10
65.6066613242
 20
96.6526482184
 10
65.5948069848
 20
97.1453960914
 10
65.5569408059
 20
97.7378494967
 10
65.4947177477
 20
98.4041139413
 10
65.4108572721
 20
99.1150725562
 10
65.3090243663
 20
99.8396508325
 10
65.1936698209
 20
100.5461819399
 10
65.0698351178
 20
101.2037888099
 10
64.9429321725
 20
101.7837271024
 10
64.8185074765
 20
102.2606555302
 10
64.7019990224
 20
102.6137255062
 10
64.5984988164
 20
102.8275087405
 10
64.5125302922
 20
102.8926622052
  0
LINE
  5
212
330
1F
100
AcDbEntity
  8
0
  6
Continuous
 62
     7
370
    15
100
AcDbLine
 10
101.067559744
 20
125.0201817997
 30
0.0
 11
101.067559744
 21
126.8395528127
 31
0.0
  0
ELLIPSE
  5
213
330
1F
100
AcDbEntity
  8
0
  6
Continuous
 62
     7
370
    15
100
AcDbEllipse
 10
50.0873534466
 20
154.3579816054
 30
0.0
 11
-2.375739217460684
 21
8.278775177185311
 31
0.0
210
0.0
220
0.0
230
1.0
 40
0.6892710456
 41
4.615676670624696
 42
4.649281631114627
  0
ARC
  5
214
330
1F
100
AcDbEntity
  8
0
  6
Continuous
 62
     7
370
    15
100
AcDbCircle
 10
69.0675582241
 20
126.8395528127
 30
0.0
 40
31.50000000000002
100
AcDbArc
 50
57.2796801585
 51
114.6451625824
  0
SPLINE
  5
215
330
1F
100
AcDbEntity
  8
0
  6
Continuous
 62
     7
370
    15
100
AcDbSpline
210
0.0
220
0.0
230
1.0
 70
     8
 71
     3
 72
    10
 73
     6
 74
     0
 42
0.00000001
 43
0.00000001
 12
1.0
 22
0.0
 32
0.0
 13
1.0
 23
0.0
 33
0.0
 40
0.0
 40
0.0
 40
0.0
 40
0.0
 40
0.5
 40
0.5
 40
1.0
 40
1.0
 40
1.0
 40
1.0
 10
86.09452811601878
 20
153.3411055275334
 30
0.0
 10
86.49317969906149
 20
153.0849760631633
 30
0.0
 10
86.91322149210052
 20
152.8557957680975
 30
0.0
 10
87.78522176604268
 20
152.437646481409
 30
0.0
 10
88.23763212559234
 20
152.2477704171079
 30
0.0
 10
88.70942307338287
 20
152.1021169192988
 30
0.0
  0
ARC
  5
216
330
1F
100
AcDbEntity
  8
0
  6
Continuous
 62
     7
370
    15
100
AcDbCircle
 10
69.0675582241
 20
126.8395528127
 30
0.0
 40
32.00000000000009
100
AcDbArc
 50
0.0
 51
52.1346215108
  0
SPLINE
  5
217
330
1F
100
AcDbEntity
  8
0
  6
Continuous
 62
     7
370
    15
100
AcDbSpline
210
0.0
220
0.0
230
1.0
 70
     8
 71
     3
 72
    20
 73
    16
 74
     0
 42
0.00000001
 43
0.00000001
 12
1.0
 22
0.0
 32
0.0
 13
1.0
 23
0.0
 33
0.0
 40
0.0
 40
0.0
 40
0.0
 40
0.0
 40
0.249999999999998
 40
0.249999999999998
 40
0.3749999999999983
 40
0.3749999999999983
 40
0.4999999999999987
 40
0.4999999999999987
 40
0.624999999999999
 40
0.624999999999999
 40
0.7499999999999993
 40
0.7499999999999993
 40
0.8749999999999997
 40
0.8749999999999997
 40
1.0
 40
1.0
 40
1.0
 40
1.0
 10
64.35786480889948
 20
95.69362550370222
 30
0.0
 10
64.29017039962373
 20
95.7038618312467
 30
0.0
 10
64.12576333361378
 20
95.72850173671245
 30
0.0
 10
63.73761524626026
 20
95.79347549521934
 30
0.0
 10
63.58624365313818
 20
95.81963853749996
 30
0.0
 10
63.24607347668152
 20
95.88167487505422
 30
0.0
 10
63.05666827694106
 20
95.91764301961828
 30
0.0
 10
62.63935752523719
 20
96.00169395409108
 30
0.0
 10
62.41299343721127
 20
96.04952067181442
 30
0.0
 10
61.93771550963265
 20
96.15609383874094
 30
0.0
 10
61.6873049231793
 20
96.2151316688019
 30
0.0
 10
61.16197288873961
 20
96.34652033493677
 30
0.0
 10
60.88705211675389
 20
96.41894523439463
 30
0.0
 10
60.32854093975026
 20
96.57466189088406
 30
0.0
 10
60.04314388933569
 20
96.65838605286383
 30
0.0
 10
59.75201170324272
 20
96.74851439558414
 30
0.0
  0
SPLINE
  5
218
330
1F
100
AcDbEntity
  8
0
  6
Continuous
 62
     7
370
    15
100
AcDbSpline
210
0.0
220
0.0
230
1.0
 70
     8
 71
     3
 72
    18
 73
    14
 74
     0
 42
0.00000001
 43
0.00000001
 12
1.0
 22
0.0
 32
0.0
 13
1.0
 23
0.0
 33
0.0
 40
0.0
 40
0.0
 40
0.0
 40
0.0
 40
0.2500000000000016
 40
0.2500000000000016
 40
0.3750000000000013
 40
0.3750000000000013
 40
0.5000000000000011
 40
0.5000000000000011
 40
0.6250000000000009
 40
0.6250000000000009
 40
0.7500000000000007
 40
0.7500000000000007
 40
1.0
 40
1.0
 40
1.0
 40
1.0
 10
51.81866591379708
 20
153.1972028230098
 30
0.0
 10
52.31524607412581
 20
153.5221732853072
 30
0.0
 10
52.79490018586931
 20
153.8160430711703
 30
0.0
 10
53.48186533750881
 20
154.2148388169995
 30
0.0
 10
53.70570197076178
 20
154.3408394964884
 30
0.0
 10
54.12578232291879
 20
154.5713167257834
 30
0.0
 10
54.32401935503421
 20
154.6769717770236
 30
0.0
 10
54.69534575566354
 20
154.8704882544764
 30
0.0
 10
54.86973600010928
 20
154.9589872564247
 30
0.0
 10
55.18367802251168
 20
155.1153131010972
 30
0.0
 10
55.32245297357908
 20
155.1828048744511
 30
0.0
 10
55.68389159889994
 20
155.3561951607469
 30
0.0
 10
55.85241142995559
 20
155.4335659998097
 30
0.0
 10
55.93214153272002
 20
155.4701453378634
 30
0.0
  0
ELLIPSE
  5
219
330
1F
100
AcDbEntity
  8
0
  6
Continuous
 62
     7
370
    15
100
AcDbEllipse
 10
54.2543454888
 20
109.6991540408
 30
0.0
 11
-2.370112844189094
 21
2.917392592722948
 31
0.0
210
0.0
220
0.0
230
1.0
 40
0.6487969398
 41
0.0
 42
6.283185307179586
  0
ARC
  5
21A
330
1F
100
AcDbEntity
  8
0
  6
Continuous
 62
     7
370
    15
100
AcDbCircle
 10
69.0675582241
 20
126.8395528127
 30
0.0
 40
31.50000000000006
100
AcDbArc
 50
123.2014146211
 51
252.7985853789
  0
ARC
  5
21B
330
1F
100
AcDbEntity
  8
0
  6
Continuous
 62
     7
370
    15
100
AcDbCircle
 10
69.4211744956
 20
86.4982856984
 30
0.0
 40
2.702421564276522
100
AcDbArc
 50
183.3140932362
 51
195.8946201778
  0
LINE
  5
21C
330
1F
100
AcDbEntity
  8
0
  6
Continuous
 62
     7
370
    15
100
AcDbLine
 10
66.2747073888
 20
93.0708542395
 30
0.0
 11
66.7232723876
 21
86.3420598138
 31
0.0
  0
LINE
  5
21D
330
1F
100
AcDbEntity
  8
0
  6
Continuous
 62
     7
370
    15
100
AcDbLine
 10
66.3154730077
 20
97.8322781552
 30
0.0
 11
66.2747073888
 21
93.0708542395
 31
0.0
  0
LWPOLYLINE
  5
21E
330
1F
100
AcDbEntity
  8
0
  6
Continuous
 62
     7
370
    15
100
AcDbPolyline
 90
        9
 70
   128
 43
0.0
 10
66.3988217216
 20
97.6838197488
 10
66.3837824918
 20
97.7568950433
 10
66.3687923893
 20
97.8183194924
 10
66.3545624788
 20
97.8651817817
 10
66.3417672708
 20
97.8952597756
 10
66.3310130562
 20
97.9071285505
 10
66.322809967
 20
97.9002237249
 10
66.3175468303
 20
97.8748731244
 10
66.3154730077
 20
97.8322781552
  0
LINE
  5
21F
330
1F
100
AcDbEntity
  8
0
  6
Continuous
 62
     7
370
    15
100
AcDbLine
 10
67.7936351362
 20
90.3653770615
 30
0.0
 11
66.3988217216
 21
97.6838197488
 31
0.0
  0
LINE
  5
220
330
1F
100
AcDbEntity
  8
0
  6
Continuous
 62
     7
370
    15
100
AcDbLine
 10
69.0060557185
 20
82.2760209371
 30
0.0
 11
67.7936351362
 21
90.3653770615
 31
0.0
  0
ARC
  5
221
330
1F
100
AcDbEntity
  8
0
  6
Continuous
 62
     7
370
    15
100
AcDbCircle
 10
68.1303770622
 20
82.0269545757
 30
0.0
 40
0.9104104357135178
100
AcDbArc
 50
348.1880972192
 51
15.8771655252
  0
LINE
  5
222
330
1F
100
AcDbEntity
  8
0
  6
Continuous
 62
     7
370
    15
100
AcDbLine
 10
68.0752609128
 20
82.4302442301
 30
0.0
 11
69.0215094523
 21
81.8405941058
 31
0.0
  0
LINE
  5
223
330
1F
100
AcDbEntity
  8
0
  6
Continuous
 62
     7
370
    15
100
AcDbLine
 10
66.8220745369
 20
85.7581764389
 30
0.0
 11
68.0752609128
 21
82.4302442301
 31
0.0
  0
ARC
  5
224
330
1F
100
AcDbEntity
  8
0
  6
Continuous
 62
     7
370
    15
100
AcDbCircle
 10
69.2895830612
 20
86.4793534298
 30
0.0
 40
2.567311855835985
100
AcDbArc
 50
183.3140565707
 51
195.8945899483
  0
LINE
  5
225
330
1F
100
AcDbEntity
  8
0
  6
Continuous
 62
     7
370
    15
100
AcDbLine
 10
66.8204267945
 20
85.7762478221
 30
0.0
 11
68.0730748659
 21
82.4497461248
 31
0.0
  0
LINE
  5
226
330
1F
100
AcDbEntity
  8
0
  6
Continuous
 62
     7
370
    15
100
AcDbLine
 10
68.0730748659
 20
82.4497461248
 30
0.0
 11
69.0189170141
 21
81.8603493203
 31
0.0
  0
ARC
  5
227
330
1F
100
AcDbEntity
  8
0
  6
Continuous
 62
     7
370
    15
100
AcDbCircle
 10
68.1723390916
 20
82.0373921128
 30
0.0
 40
0.8648920910784705
100
AcDbArc
 50
348.1881039543
 51
15.8771519774
  0
LINE
  5
228
330
1F
100
AcDbEntity
  8
0
  6
Continuous
 62
     7
370
    15
100
AcDbLine
 10
69.0042359651
 20
82.274005555
 30
0.0
 11
67.7923361741
 21
90.3598859836
 31
0.0
  0
LINE
  5
229
330
1F
100
AcDbEntity
  8
0
  6
Continuous
 62
     7
370
    15
100
AcDbLine
 10
67.7923361741
 20
90.3598859836
 30
0.0
 11
66.3981218326
 21
97.6751863886
 31
0.0
  0
LWPOLYLINE
  5
22A
330
1F
100
AcDbEntity
  8
0
  6
Continuous
 62
     7
370
    15
100
AcDbPolyline
 90
        9
 70
   128
 43
0.0
 10
66.3981218326
 20
97.6751863886
 10
66.383834413
 20
97.7446071733
 10
66.3695940252
 20
97.8029619832
 10
66.3560756452
 20
97.8474810649
 10
66.343920023
 20
97.8760540415
 10
66.3337036471
 20
97.8873286326
 10
66.3259105727
 20
97.8807683963
 10
66.3209107674
 20
97.8566862572
 10
66.3189405545
 20
97.816222154
  0
LINE
  5
22B
330
1F
100
AcDbEntity
  8
0
  6
Continuous
 62
     7
370
    15
100
AcDbLine
 10
66.3189405545
 20
97.816222154
 30
0.0
 11
66.2781923979
 21
93.0568434227
 31
0.0
  0
LINE
  5
22C
330
1F
100
AcDbEntity
  8
0
  6
Continuous
 62
     7
370
    15
100
AcDbLine
 10
66.2781923979
 20
93.0568434227
 30
0.0
 11
66.7265646129
 21
86.3309398223
 31
0.0
  0
LINE
  5
22D
330
1F
100
AcDbEntity
  8
0
  6
Continuous
 62
     7
370
    15
100
AcDbLine
 10
72.4814892251
 20
91.0242132772
 30
0.0
 11
67.7936351362
 21
90.3653770615
 31
0.0
  0
LINE
  5
22E
330
1F
100
AcDbEntity
  8
0
  6
Continuous
 62
     7
370
    15
100
AcDbLine
 10
73.6939096327
 20
82.9348571528
 30
0.0
 11
72.4814892251
 21
91.0242132772
 31
0.0
  0
ARC
  5
22F
330
1F
100
AcDbEntity
  8
0
  6
Continuous
 62
     7
370
    15
100
AcDbCircle
 10
72.6793982352
 20
82.671414281
 30
0.0
 40
1.048158157202716
100
AcDbArc
 50
350.5007569258
 51
14.5567529121
  0
LINE
  5
230
330
1F
100
AcDbEntity
  8
0
  6
Continuous
 62
     7
370
    15
100
AcDbLine
 10
68.20111775
 20
82.7438615192
 30
0.0
 11
68.0730748659
 21
82.4497461248
 31
0.0
  0
LINE
  5
231
330
1F
100
AcDbEntity
  8
0
  6
Continuous
 62
     7
370
    15
100
AcDbLine
 10
72.4814892251
 20
91.0242132772
 30
0.0
 11
71.8216057371
 21
94.4865539599
 31
0.0
  0
LINE
  5
232
330
1F
100
AcDbEntity
  8
0
  6
Continuous
 62
     7
370
    15
100
AcDbLine
 10
68.3611921354
 20
85.1486891437
 30
0.0
 11
67.6884729851
 21
89.637120061
 31
0.0
  0
ARC
  5
233
330
1F
100
AcDbEntity
  8
0
  6
Continuous
 62
     7
370
    15
100
AcDbCircle
 10
68.0147635497
 20
84.5211996411
 30
0.0
 40
0.1937074844828462
100
AcDbArc
 50
194.8899540814
 51
223.7321603952
  0
LINE
  5
234
330
1F
100
AcDbEntity
  8
0
  6
Continuous
 62
     7
370
    15
100
AcDbLine
 10
67.1322224166
 20
86.3179460097
 30
0.0
 11
67.8275605401
 21
84.4714239169
 31
0.0
  0
ARC
  5
235
330
1F
100
AcDbEntity
  8
0
  6
Continuous
 62
     7
370
    15
100
AcDbCircle
 10
73.6300998575
 20
88.1682413975
 30
0.0
 40
6.756182669123238
100
AcDbArc
 50
183.3141714515
 51
195.8945053374
  0
LINE
  5
236
330
1F
100
AcDbEntity
  8
0
  6
Continuous
 62
     7
370
    15
100
AcDbLine
 10
66.6363276045
 20
91.5111757744
 30
0.0
 11
66.8852165777
 21
87.777660035
 31
0.0
  0
ARC
  5
237
330
1F
100
AcDbEntity
  8
0
  6
Continuous
 62
     7
370
    15
100
AcDbCircle
 10
70.0155244499
 20
91.7546412797
 30
0.0
 40
3.387956134907705
100
AcDbArc
 50
179.9443561824
 51
184.1209447861
  0
LINE
  5
238
330
1F
100
AcDbEntity
  8
0
  6
Continuous
 62
     7
370
    15
100
AcDbLine
 10
66.6501889441
 20
94.3998366524
 30
0.0
 11
66.6275699127
 21
91.7579315532
 31
0.0
  0
LWPOLYLINE
  5
239
330
1F
100
AcDbEntity
  8
0
  6
Continuous
 62
     7
370
    15
100
AcDbPolyline
 90
        9
 70
   128
 43
0.0
 10
66.8585604958
 20
94.0286934305
 10
66.820962305
 20
94.2113816667
 10
66.7834875144
 20
94.3649418581
 10
66.7479126218
 20
94.4820985127
 10
66.7159242525
 20
94.5572934974
 10
66.6890388324
 20
94.5869617093
 10
66.6685311094
 20
94.5696987141
 10
66.655373384
 20
94.5063240755
 10
66.6501889441
 20
94.3998366524
  0
LINE
  5
23A
330
1F
100
AcDbEntity
  8
0
  6
Continuous
 62
     7
370
    15
100
AcDbLine
 10
67.6324812898
 20
89.9680077959
 30
0.0
 11
66.8585604958
 21
94.0286934305
 31
0.0
  0
ARC
  5
23B
330
1F
100
AcDbEntity
  8
0
  6
Continuous
 62
     7
370
    15
100
AcDbCircle
 10
59.2307871644
 20
88.3761205087
 30
0.0
 40
8.551173563417516
100
AcDbArc
 50
8.4800530862
 51
10.7287760052
  0
ARC
  5
23C
330
1F
100
AcDbEntity
  8
0
  6
Continuous
 62
     7
370
    15
100
AcDbCircle
 10
66.1720253147
 20
84.5260242765
 30
0.0
 40
2.275997123392894
100
AcDbArc
 50
348.1879180818
 51
15.8773458101
  0
LINE
  5
23D
330
1F
100
AcDbEntity
  8
0
  6
Continuous
 62
     7
370
    15
100
AcDbLine
 10
67.8747945435
 20
84.3872919608
 30
0.0
 11
68.3998264808
 21
84.0601220656
 31
0.0
  0
LWPOLYLINE
  5
23E
330
1F
100
AcDbEntity
  8
0
  6
Continuous
 62
     7
370
    15
100
AcDbPolyline
 90
       27
 70
   128
 43
0.0
 10
67.7990203926
 20
86.172208928
 10
67.8252268785
 20
86.417068534
 10
67.8256282786
 20
86.7900781263
 10
67.8002011932
 20
87.2695639659
 10
67.7504232822
 20
87.8276571561
 10
67.6791875826
 20
88.4319253195
 10
67.5906340561
 20
89.0472464193
 10
67.4899089586
 20
89.6378651191
 10
67.3828661179
 20
90.1694528688
 10
67.2757266525
 20
90.6111195613
 10
67.1747169194
 20
90.9371942211
 10
67.0857072778
 20
91.1287262965
 10
67.0138706423
 20
91.1745846201
 10
66.9633820157
 20
91.0721093346
 10
66.9371755298
 20
90.8272497285
 10
66.9367741298
 20
90.4542364109
 10
66.9622010987
 20
89.9747505713
 10
67.0119791261
 20
89.4166573811
 10
67.0832148257
 20
88.812392943
 10
67.1717683522
 20
88.1970681179
 10
67.2724934497
 20
87.6064531434
 10
67.379536174
 20
87.0748653937
 10
67.4866757558
 20
86.6331987012
 10
67.5876854889
 20
86.3071240414
 10
67.6766950141
 20
86.115591966
 10
67.7485316496
 20
86.0697299171
 10
67.7990203926
 20
86.172208928
  0
LINE
  5
23F
330
1F
100
AcDbEntity
  8
0
  6
Continuous
 62
     7
370
    15
100
AcDbLine
 10
66.4852836139
 20
92.883811139
 30
0.0
 11
66.2781923979
 21
93.0568434227
 31
0.0
  0
SPLINE
  5
240
330
1F
100
AcDbEntity
  8
0
  6
Continuous
 62
     7
370
    15
100
AcDbSpline
210
0.0
220
0.0
230
1.0
 70
     8
 71
     3
 72
    11
 73
     7
 74
     0
 42
0.00000001
 43
0.00000001
 12
1.0
 22
0.0
 32
0.0
 13
1.0
 23
0.0
 33
0.0
 40
0.0
 40
0.0
 40
0.0
 40
0.0
 40
0.0088226689179371
 40
0.3559993316110794
 40
0.6780407325947333
 40
1.0
 40
1.0
 40
1.0
 40
1.0
 10
68.0322250786767
 20
84.18119772561916
 30
0.0
 10
68.0349014299977
 20
84.1776916924574
 30
0.0
 10
68.14289361357531
 20
84.03622141018738
 30
0.0
 10
68.29476941428992
 20
83.72554357219397
 30
0.0
 10
68.35434430429295
 20
83.21739269819959
 30
0.0
 10
68.25218892527238
 20
82.9016918243958
 30
0.0
 10
68.20111775003082
 20
82.743861519183
 30
0.0
  0
LINE
  5
241
330
1F
100
AcDbEntity
  8
0
  6
Continuous
 62
     7
370
    15
100
AcDbLine
 10
67.1536002278
 20
86.2611763109
 30
0.0
 11
67.0051872234
 21
86.1499950219
 31
0.0
  0
LINE
  5
242
330
1F
100
AcDbEntity
  8
0
  6
Continuous
 62
     7
370
    15
100
AcDbLine
 10
66.4852836139
 20
92.883811139
 30
0.0
 11
66.6356530942
 21
92.7020430494
 31
0.0
  0
LINE
  5
243
330
1F
100
AcDbEntity
  8
0
  6
Continuous
 62
     7
370
    15
100
AcDbLine
 10
73.5883214015
 20
83.6393505264
 30
0.0
 11
72.4814892251
 21
91.0242132772
 31
0.0
  0
LINE
  5
244
330
1F
100
AcDbEntity
  8
0
  6
Continuous
 62
     7
370
    15
100
AcDbLine
 10
76.8738900747
 20
91.641523682
 30
0.0
 11
72.4814892251
 21
91.0242132772
 31
0.0
  0
LINE
  5
245
330
1F
100
AcDbEntity
  8
0
  6
Continuous
 62
     7
370
    15
100
AcDbLine
 10
77.9807222511
 20
84.2566609312
 30
0.0
 11
76.8738900747
 21
91.641523682
 31
0.0
  0
LINE
  5
246
330
1F
100
AcDbEntity
  8
0
  6
Continuous
 62
     7
370
    15
100
AcDbLine
 10
77.1498577173
 20
91.600690775
 30
0.0
 11
76.8738900747
 21
91.641523682
 31
0.0
  0
LINE
  5
247
330
1F
100
AcDbEntity
  8
0
  6
Continuous
 62
     7
370
    15
100
AcDbLine
 10
77.1498577173
 20
91.600690775
 30
0.0
 11
78.2488788914
 21
84.2679448355
 31
0.0
  0
LINE
  5
248
330
1F
100
AcDbEntity
  8
0
  6
Continuous
 62
     7
370
    15
100
AcDbLine
 10
76.8738900747
 20
91.641523682
 30
0.0
 11
76.2140065867
 21
95.1038643647
 31
0.0
  0
LINE
  5
249
330
1F
100
AcDbEntity
  8
0
  6
Continuous
 62
     7
370
    15
100
AcDbLine
 10
76.4751960028
 20
95.1405733753
 30
0.0
 11
77.1498577173
 21
91.600690775
 31
0.0
  0
ARC
  5
24A
330
1F
100
AcDbEntity
  8
0
  6
Continuous
 62
     7
370
    15
100
AcDbCircle
 10
75.4443887749
 20
83.5980492954
 30
0.0
 40
2.620449730342434
100
AcDbArc
 50
350.5009719316
 51
14.5565450665
  0
ARC
  5
24B
330
1F
100
AcDbEntity
  8
0
  6
Continuous
 62
     7
370
    15
100
AcDbCircle
 10
76.1702775934
 20
83.775653615
 30
0.0
 40
2.136102526042444
100
AcDbArc
 50
352.8318456316
 51
13.3242940901
  0
INSERT
  5
257
330
1F
100
AcDbEntity
  8
VERMASSUNG
100
AcDbBlockReference
  2
SW_CENTERMARKSYMBOL_0
 10
69.0675582241
 20
126.8395528127
 30
0.0
  0
OLE2FRAME
  5
258
330
1F
100
AcDbEntity
  8
0
100
AcDbOle2Frame
 70
     2
  3
Paintbrush-Bild
 10
13.8511154363
 20
38.264191557
 30
0.0
 11
51.6290888628
 21
31.9806341108
 31
0.0
 71
     2
 72
     0
 73
     1
 90
    12928
310
80552BED0767C5B32B40DDAF6807D121434000000000000000006FFBDDFB85D0
310
4940DDAF6807D121434000000000000000006FFBDDFB85D04940416F4BD60AFB
310
3F4000000000000000002BED0767C5B32B40416F4BD60AFB3F40000000000000
310
0000000000000100000000010000010000000100000000000100000000320000
310
D0CF11E0A1B11AE1000000000000000000000000000000003E000300FEFF0900
310
0600000000000000000000000100000001000000000000000010000002000000
310
01000000FEFFFFFF0000000000000000FFFFFFFFFFFFFFFFFFFFFFFFFFFFFFFF
310
FFFFFFFFFFFFFFFFFFFFFFFFFFFFFFFFFFFFFFFFFFFFFFFFFFFFFFFFFFFFFFFF
310
FFFFFFFFFFFFFFFFFFFFFFFFFFFFFFFFFFFFFFFFFFFFFFFFFFFFFFFFFFFFFFFF
310
FFFFFFFFFFFFFFFFFFFFFFFFFFFFFFFFFFFFFFFFFFFFFFFFFFFFFFFFFFFFFFFF
310
FFFFFFFFFFFFFFFFFFFFFFFFFFFFFFFFFFFFFFFFFFFFFFFFFFFFFFFFFFFFFFFF
310
FFFFFFFFFFFFFFFFFFFFFFFFFFFFFFFFFFFFFFFFFFFFFFFFFFFFFFFFFFFFFFFF
310
FFFFFFFFFFFFFFFFFFFFFFFFFFFFFFFFFFFFFFFFFFFFFFFFFFFFFFFFFFFFFFFF
310
FFFFFFFFFFFFFFFFFFFFFFFFFFFFFFFFFFFFFFFFFFFFFFFFFFFFFFFFFFFFFFFF
310
FFFFFFFFFFFFFFFFFFFFFFFFFFFFFFFFFFFFFFFFFFFFFFFFFFFFFFFFFFFFFFFF
310
FFFFFFFFFFFFFFFFFFFFFFFFFFFFFFFFFFFFFFFFFFFFFFFFFFFFFFFFFFFFFFFF
310
FFFFFFFFFFFFFFFFFFFFFFFFFFFFFFFFFFFFFFFFFFFFFFFFFFFFFFFFFFFFFFFF
310
FFFFFFFFFFFFFFFFFFFFFFFFFFFFFFFFFFFFFFFFFFFFFFFFFFFFFFFFFFFFFFFF
310
FFFFFFFFFFFFFFFFFFFFFFFFFFFFFFFFFFFFFFFFFFFFFFFFFFFFFFFFFFFFFFFF
310
FFFFFFFFFFFFFFFFFFFFFFFFFFFFFFFFFFFFFFFFFFFFFFFFFFFFFFFFFFFFFFFF
310
FDFFFFFFFEFFFFFFFEFFFFFFFEFFFFFF05000000060000000700000008000000
310
090000000A0000000B0000000C0000000D0000000E0000000F00000010000000
310
11000000120000001300000014000000150000001600000017000000FEFFFFFF
310
FFFFFFFFFFFFFFFFFFFFFFFFFFFFFFFFFFFFFFFFFFFFFFFFFFFFFFFFFFFFFFFF
310
FFFFFFFFFFFFFFFFFFFFFFFFFFFFFFFFFFFFFFFFFFFFFFFFFFFFFFFFFFFFFFFF
310
FFFFFFFFFFFFFFFFFFFFFFFFFFFFFFFFFFFFFFFFFFFFFFFFFFFFFFFFFFFFFFFF
310
FFFFFFFFFFFFFFFFFFFFFFFFFFFFFFFFFFFFFFFFFFFFFFFFFFFFFFFFFFFFFFFF
310
FFFFFFFFFFFFFFFFFFFFFFFFFFFFFFFFFFFFFFFFFFFFFFFFFFFFFFFFFFFFFFFF
310
FFFFFFFFFFFFFFFFFFFFFFFFFFFFFFFFFFFFFFFFFFFFFFFFFFFFFFFFFFFFFFFF
310
FFFFFFFFFFFFFFFFFFFFFFFFFFFFFFFFFFFFFFFFFFFFFFFFFFFFFFFFFFFFFFFF
310
FFFFFFFFFFFFFFFFFFFFFFFFFFFFFFFFFFFFFFFFFFFFFFFFFFFFFFFFFFFFFFFF
310
FFFFFFFFFFFFFFFFFFFFFFFFFFFFFFFFFFFFFFFFFFFFFFFFFFFFFFFFFFFFFFFF
310
FFFFFFFFFFFFFFFFFFFFFFFFFFFFFFFFFFFFFFFFFFFFFFFFFFFFFFFFFFFFFFFF
310
FFFFFFFFFFFFFFFFFFFFFFFFFFFFFFFFFFFFFFFFFFFFFFFFFFFFFFFFFFFFFFFF
310
FFFFFFFFFFFFFFFFFFFFFFFFFFFFFFFFFFFFFFFFFFFFFFFFFFFFFFFFFFFFFFFF
310
FFFFFFFFFFFFFFFFFFFFFFFFFFFFFFFFFFFFFFFFFFFFFFFFFFFFFFFFFFFFFFFF
310
52006F006F007400200045006E00740072007900000000000000000000000000
310
0000000000000000000000000000000000000000000000000000000000000000
310
16000500FFFFFFFFFFFFFFFF020000000A00030000000000C000000000000046
310
000000000000000000000000A017FDB73B24CD0103000000C000000000000000
310
01004F006C006500000000000000000000000000000000000000000000000000
310
0000000000000000000000000000000000000000000000000000000000000000
310
0A000200FFFFFFFFFFFFFFFFFFFFFFFF00000000000000000000000000000000
310
0000000000000000000000000000000000000000000000001400000000000000
310
010043006F006D0070004F0062006A0000000000000000000000000000000000
310
0000000000000000000000000000000000000000000000000000000000000000
310
120002010100000003000000FFFFFFFF00000000000000000000000000000000
310
0000000000000000000000000000000000000000010000004D00000000000000
310
01004F006C006500310030004E00610074006900760065000000000000000000
310
0000000000000000000000000000000000000000000000000000000000000000
310
1A000200FFFFFFFFFFFFFFFFFFFFFFFF00000000000000000000000000000000
310
0000000000000000000000000000000000000000040000002426000000000000
310
FEFFFFFF02000000FEFFFFFFFFFFFFFFFFFFFFFFFFFFFFFFFFFFFFFFFFFFFFFF
310
FFFFFFFFFFFFFFFFFFFFFFFFFFFFFFFFFFFFFFFFFFFFFFFFFFFFFFFFFFFFFFFF
310
FFFFFFFFFFFFFFFFFFFFFFFFFFFFFFFFFFFFFFFFFFFFFFFFFFFFFFFFFFFFFFFF
310
FFFFFFFFFFFFFFFFFFFFFFFFFFFFFFFFFFFFFFFFFFFFFFFFFFFFFFFFFFFFFFFF
310
FFFFFFFFFFFFFFFFFFFFFFFFFFFFFFFFFFFFFFFFFFFFFFFFFFFFFFFFFFFFFFFF
310
FFFFFFFFFFFFFFFFFFFFFFFFFFFFFFFFFFFFFFFFFFFFFFFFFFFFFFFFFFFFFFFF
310
FFFFFFFFFFFFFFFFFFFFFFFFFFFFFFFFFFFFFFFFFFFFFFFFFFFFFFFFFFFFFFFF
310
FFFFFFFFFFFFFFFFFFFFFFFFFFFFFFFFFFFFFFFFFFFFFFFFFFFFFFFFFFFFFFFF
310
FFFFFFFFFFFFFFFFFFFFFFFFFFFFFFFFFFFFFFFFFFFFFFFFFFFFFFFFFFFFFFFF
310
FFFFFFFFFFFFFFFFFFFFFFFFFFFFFFFFFFFFFFFFFFFFFFFFFFFFFFFFFFFFFFFF
310
FFFFFFFFFFFFFFFFFFFFFFFFFFFFFFFFFFFFFFFFFFFFFFFFFFFFFFFFFFFFFFFF
310
FFFFFFFFFFFFFFFFFFFFFFFFFFFFFFFFFFFFFFFFFFFFFFFFFFFFFFFFFFFFFFFF
310
FFFFFFFFFFFFFFFFFFFFFFFFFFFFFFFFFFFFFFFFFFFFFFFFFFFFFFFFFFFFFFFF
310
FFFFFFFFFFFFFFFFFFFFFFFFFFFFFFFFFFFFFFFFFFFFFFFFFFFFFFFFFFFFFFFF
310
FFFFFFFFFFFFFFFFFFFFFFFFFFFFFFFFFFFFFFFFFFFFFFFFFFFFFFFFFFFFFFFF
310
FFFFFFFFFFFFFFFFFFFFFFFFFFFFFFFFFFFFFFFFFFFFFFFFFFFFFFFFFFFFFFFF
310
0100000200000000000000000000000000000000000000000000000000000000
310
0000000000000000000000000000000000000000000000000000000000000000
310
0100FEFF030A0000FFFFFFFF0A00030000000000C00000000000004607000000
310
5042727573680007000000504272757368000700000050427275736800F439B2
310
7100000000000000000000000000000000000000000000000000000000000000
310
0000000000000000000000000000000000000000000000000000000000000000
310
0000000000000000000000000000000000000000000000000000000000000000
310
0000000000000000000000000000000000000000000000000000000000000000
310
0000000000000000000000000000000000000000000000000000000000000000
310
0000000000000000000000000000000000000000000000000000000000000000
310
0000000000000000000000000000000000000000000000000000000000000000
310
0000000000000000000000000000000000000000000000000000000000000000
310
0000000000000000000000000000000000000000000000000000000000000000
310
0000000000000000000000000000000000000000000000000000000000000000
310
0000000000000000000000000000000000000000000000000000000000000000
310
0000000000000000000000000000000000000000000000000000000000000000
310
20260000424D0E260000000000003E00000028000000B40200006E0000000100
310
01000000000000000000130B0000130B00000200000002000000000000FFFFFF
310
FFFFFFFFFFFFFFFFFFFFFFFFFFFFFFFFFFFFFFFFFFFFFFFFFFFFFFFFFFFFFFFF
310
FFFFFFFFFFFFFFFFFFFFFFFFFFFFFFFFFFFFFFFFFFFFFFFFFFFFFFFFFFFFFFFF
310
FFFFFFFFFFFFFFFFFFFFFFFFFFFFFFFFFFFFFFFFFFFFFFFFF000FFFFFFFFFFFF
310
FFFFFFFFFFFFFFFFFFFFFFFFFFFFFFFFFFFFFFFFFFFFFFFFFFFFFFFFFFFFFFFF
310
FFFFFFFFFFFFFFFFFFFFFFFFFFFFFFFFFFFFFFFFFFFFFFFFFFFFFFFFFFFFFFFF
310
FFFFFFFFFFFFFFFFFFFFFFFFFFFFFFFFF000FFFFFFFFFFFFFFFFFFFFFFFFFFFF
310
FFFFFFFFFFFFFFFFFFFFFFFFFFFFFFFFFFFFFFFFFFFFFFFFFFFFFFFFFFFFFFFF
310
FFFFFFFFFFFFFFFFFFFFFFFFFFFFFFFFFFFFFFFFFFFFFFFFFFFFFFFFFFFFFFFF
310
FFFFFFFFFFFFFFFFF000FFFFFFFFFFFFFFFFFFFFFFFFFFFFFFFFFFFFFFFFFFFF
310
FFFFFFFFFFFFFFFFFFFFFFFFFFFFFFFFFFFFFFFFFFFFFFFFFFFFFFFFFFFFFFFF
310
FFFFFFFFFFFFFFFFFFFFFFFFFFFFFFFFFFFFFFFFFFFFFFFFFFFFFFFFFFFFFFFF
310
F000FFFFFFFFFFFFFFFFFFFFFFFFFFFFFFFFFFFFFFFFFFFFFFFFFFFFFFFFFFFF
310
FFFFFFFFFFFFFFFFFFFFFFFFFFFFFFFFFFFFFFFFFFFFFFFFFFFFFFFFFFFFFFFF
310
FFFFFFFFFFFFFFFFFFFFFFFFFFFFFFFFFFFFFFFFFFFFFFFFF000FFFFFFFFFFFF
310
FFFFFFFFFFFFFFFFFFFFFFFFFFFFFFFFFFFFFFFFFFFFFFFFFFFFFFFFFFFFFFFF
310
FFFFFFFFFFFFFFFFFFFFFFFFFFFFFFFFFFFFFFFFFFFFFFFFFFFFFFFFFFFFFFFF
310
FFFFFFFFFFFFFFFFFFFFFFFFFFFFFFFFF000FFFFFFFFFFFFFFFFFFFFFFFFFFFF
310
FFFFFFFFFFFFFFFFFFFFFFFFFFFFFFFFFFFFFFFFFFFFFFFFFFFFFFFFFFFFFFFF
310
FFFFFFFFFFFFFFFFFFFFFFFFFFFFFFFFFFFFFFFFFFFFFFFFFFFFFFFFFFFFFFFF
310
FFFFFFFFFFFFFFFFF000FFFFFFFFFFFFFFFFFFFFFFFFFFFFFFFFFFFFFFFFFFFF
310
FFFFFFFFFFFFFFFFFFFFFFFFFFFFFFFFFFFFFFFFFFFFFFFFFFFFFFFFFFFFFFFF
310
FFFFFFFFFFFFFFFFFFFFFFFFFFFFFFFFFFFFFFFFFFFFFFFFFFFFFFFFFFFFFFFF
310
F000FFFFFFFFFFFFFFFFFFFFFFFFFFFFFFFFFFFFFFFFFFFFFFFFFFFFFFFFFFFF
310
FFFFFFFFFFFFFFFFFFFFFFFFFFFFFFFFFFFFFFFFFFFFFFFFFFFFFFFFFFFFFFFF
310
FFFFFFFFFFFFFFFFFFFFFFFFFFFFFFFFFFFFFFFFFFFFFFFFF000FFFFFFFFFFFF
310
FFFFFFFFFFFFFFFFFFFFFFFFFFFFFFFFFFFFFFFFFFFFFFFFFFFFFFFFFFFFFFFF
310
FFFFFFFFFFFFFFFFFFFFFFFFFFFFFFFFFFFFFFFFFFFFFFFFFFFFFFFFFFFFFFFF
310
FFFFFFFFFFFFFFFFFFFFFFFFFFFFFFFFF000FFFFFFFFFFFFFFFFFFFFFFFFFFFF
310
FFFFFFFFFFFFFFFFFFFFFFFFFFFFFFFFFFFFFFFFFFFFFFFFFFFFFFFFFFFFFFFF
310
FFFFFFFFFFFFFFFFFFFFFFFFFFFFFFFFFFFFFFFFFFFFFFFFFFFFFFFFFFFFFFFF
310
FFFFFFFFFFFFFFFFF000FFFFFFFFFFFFFFFFFFFFFFFFFFFFFFFFFFFFFFFFFFFF
310
FFFFFFFFFFFFFFFFFFFFFFFFFFFFFFFFFFFFFFFFFFFFFFFFFFFFFFFFFFFFFFFF
310
FFFFFFFFFFFFFFFFFFFFFFFFFFFFFFFFFFFFFFFFFFFFFFFFFFFFFFFFFFFFFFFF
310
F000FFFFFFFFFFFFFFFFFFFFFFFFFFFFFFFFFFFFFFFFFFFFFFFFFFFFFFFFFFFF
310
FFFFFFFFFFFFFFFFFFFFFFFFFFFFFFFFFFFFFFFFFFFFFFFFFFFFFFFFFFFFFFFF
310
FFFFFFFFFFFFFFFFFFFFFFFFFFFFFFFFFFFFFFFFFFFFFFFFF000FFFFFFFFFFFF
310
FFFFFFFFFFFFFFFFFFFFFFFFFFFFFFFFFFFFFFFFFFFFFFFFFFFFFFFFFFFFFFFF
310
FFFFFFFFFFFFFFFFFFFFFFFFFFFFFFFFFFFFFFFFFFFFFFFFFFFFFFFFFFFFFFFF
310
FFFFFFFFFFFFFFFFFFFFFFFFFFFFFFFFF000FFFFFFFFFFFFFFFFFFFFFFFFFFFF
310
FFFFFFFFFFFFFFFFFFFFFFFFFFFFFFFFFFFFFFFFFFFFFFFFFFFFFFFFFFFFFFFF
310
FFFFFFFFFFFFFFFFFFFFFFFFFFFFFFFFFFFFFFFFFFFFFFFFFFFFFFFFFFFFFFFF
310
FFFFFFFFFFFFFFFFF000FFFFFFFFFFFFFFFFFFFFFFFFFFFFFFFFFFFFFFFFFFFF
310
FFFFFFFFFFFFFFFFFFFFFFFFFFFFFFFFFFFFFFFFFFFFFFFFFFFFFFFFFFFFFFFF
310
FFFFFFFFFFFFFFFFFFFFFFFFFFFFFFFFFFFFFFFFFFFFFFFFFFFFFFFFFFFFFFFF
310
F000FFFFFFFFFFFFFFFFFFFFFFFFFFFFFFFFFFFFFFFFFFFFFFFFFFFFFFFFFFFF
310
FFFFFFFFFFFFFFFFFFFFFFFFFFFFFFFFFFFFFFFFFFFFFFFFFFFFFFFFFFFFFFFF
310
FFFFFFFFFFFFFFFFFFFFFFFFFFFFFFFFFFFFFFFFFFFFFFFFF000FFFFFFFFFFFF
310
FFFFFFFFFFFFFFFFFFFFFFFFFFFFFFFFFFFFFFFFFFFFFFFFFFFFFFFFFFFFFFFF
310
FFFFFFFFFFFFFFFFFFFFFFFFFFFFFFFFFFFFFFFFFFFFFFFFFFFFFFFFFFFFFFFF
310
FFFFFFFFFFFFFFFFFFFFFFFFFFFFFFFFF000FFFFFFFFFFFFFFFFFFFFFFFFFFFF
310
FFFFFFFFFFFFFFFFFFFFFFFFFFFFFFFFFFFFFFFFFFFFFFFFFFFFFFFFFFFFFFFF
310
FFFFFFFFFFFFFFFFFFFFFFFFFFFFFFFFFFFFFFFFFFFFFFFFFFFFFFFFFFFFFFFF
310
FFFFFFFFFFFFFFFFF000FFFFF80003FFFFFFFFFFFFFFFFFFFFFFFFFFFFFFFFFF
310
FFFFF00007FFFFFFFFFF00007FFFFFF800000000000000007FFFFFFFFFFFFFFF
310
FFFFFFFC001FFFFFFFFFFFFFFC001FFFFFFFFFFFFFFFFFFFFFFFFFFE0007FFFF
310
F000FFFF8000007FFFFFFFF8000FFFFFC0007FFFFF80007FFFFF0000007FFFFF
310
FFF8000007FFFFF800000000000000007FFFFFF0001FFFFFFFFFFFC00001FFFF
310
FFFFFFFFC00001FFFFFFFF000000000003FFFFE000007FFFF000FFFE0000000F
310
FFFFFFF0000FFFFF80007FFFFF80007FFFFC0000001FFFFFFFC0000001FFFFF8
310
00000000000000007FFFFFF0001FFFFFFFFFFE0000003FFFFFFFFFFE0000003F
310
FFFFFF000000000003FFFF0000000FFFF000FFF800000003FFFFFFF00007FFFF
310
80007FFFFF80007FFFF000000007FFFFFF000000003FFFF80000000000000000
310
7FFFFFF0001FFFFFFFFFF80000000FFFFFFFFFF80000000FFFFFFF0000000000
310
03FFFC00000003FFF000FFE000000000FFFFFFF00007FFFF80003FFFFF80007F
310
FFC000000001FFFFFC000000001FFFF800000000000000007FFFFFF0001FFFFF
310
FFFFE000000003FFFFFFFFE000000003FFFFFF000000000003FFF000000000FF
310
F000FF80000000007FFFFFF00007FFFF80003FFFFF80007FFF8000000000FFFF
310
F80000000007FFF800000000000000007FFFFFF0001FFFFFFFFFC000000001FF
310
FFFFFFC000000001FFFFFF000000000003FFC0000000007FF000FF0000000000
310
3FFFFFE00007FFFF00003FFFFF80007FFE00000000003FFFF00000000003FFF8
310
00000000000000007FFFFFF0001FFFFFFFFF8000000000FFFFFFFF8000000000
310
FFFFFF000000000003FF80000000003FF000FE00000000001FFFFFE00003FFFF
310
00003FFFFF80007FFC00000000001FFFE00000000001FFF8000001FFFE000000
310
7FFFFFF0001FFFFFFFFE00000000003FFFFFFE00000000003FFFFF0000000000
310
03FF00000000001FF000FC00000000000FFFFFE00003FFFF00001FFFFF80007F
310
F800000000001FFFC00000000000FFF8000001FFFE0000007FFFFFF0001FFFFF
310
FFFC00000000001FFFFFFC00000000001FFFFF000000000003FE00000000000F
310
F000F8000000000007FFFFE00003FFFF00001FFFFF80007FF800000000000FFF
310
800000000000FFF8000001FFFE0000007FFFFFF0001FFFFFFFF800000000000F
310
FFFFF800000000000FFFFF000000000003FC000000000007F000F80000000000
310
03FFFFC00003FFFE00001FFFFF80007FF0000000000007FF0000000000007FF8
310
000001FFFE0000007FFFFFF0001FFFFFFFF0000000000007FFFFF00000000000
310
07FFFF000000000003F8000000000003F000F0000000000003FFFFC00001FFFE
310
00001FFFFF80007FE0000000000007FE0000000000003FF8000001FFFE000000
310
7FFFFFF0001FFFFFFFF0000000000007FFFFF0000000000007FFFF0000000000
310
03F800001F800003F000E00001FFF00001FFFFC00001FFFE00000FFFFF80007F
310
E00001FFE00003FE00001FFF00003FF8000001FFFE0000007FFFFFF0001FFFFF
310
FFE000003E000003FFFFE000003E000003FFFF000000000003F00001FFF80001
310
F000E00007FFFC0001FFFFC00001FFFE00000FFFFF80007FC0000FFFFC0003FC
310
0000FFFFC0001FF8000001FFFE0000007FFFFFF0001FFFFFFFC00003FFE00001
310
FFFFC00003FFE00001FFFF0001FFFFFFFFF00007FFFE0001F000E0000FFFFF00
310
00FFFF800001FFFC00000FFFFF80007FC0001FFFFE0001FC0001FFFFE0001FF8
310
000001FFFE0000007FFFFFF0001FFFFFFF80000FFFF80000FFFF80000FFFF800
310
00FFFF0003FFFFFFFFE0000FFFFF8000F000C0003FFFFF8000FFFF800000FFFC
310
000007FFFF80007F80003FFFFF0001FC0003FFFFF0001FF8000001FFFE000000
310
7FFFFFF0001FFFFFFF80003FFFFE0000FFFF80003FFFFE0000FFFF0003FFFFFF
310
FFE0003FFFFF8000F000C0003FFFFF8000FFFF800000FFFC000007FFFF80007F
310
80007FFFFF8001F80007FFFFF8000FF8000001FFFE0000007FFFFFF0001FFFFF
310
FF00007FFFFF00007FFF00007FFFFF00007FFF0003FFFFFFFFE0003FFFFFC000
310
F000C0007FFFFFC000FFFF000000FFFC000007FFFF80007F8000FFFFFF8000F8
310
000FFFFFF8000FF8000001FFFE0000007FFFFFF0001FFFFFFF0000FFFFFF8000
310
7FFF0000FFFFFF80007FFF0003FFFFFFFFC0007FFFFFC00070008000FFFFFFC0
310
00FFFF000000FFF8000007FFFF80007F8000FFFFFF8000F8000FFFFFF8000FF8
310
000001FFFE0000007FFFFFF0001FFFFFFE0001FFFFFFC0003FFE0001FFFFFFC0
310
003FFF0003FFFFFFFFC0007FFFFFE00070008000FFFFFFC0007FFF0000007FF8
310
000003FFFF80007F0001FFFFFF8000F8000FFFFFF8000FF8000001FFFE000000
310
7FFFFFF0001FFFFFFE0001FFFFFFC0003FFE0001FFFFFFC0003FFF0003FFFFFF
310
FFC000FFFFFFE00070008000FFFFFFC0007FFF0000007FF8000003FFFF80007F
310
0001FFFFFF8000F8001FFFFFF8000FF8000001FFFE0000007FFFFFF0001FFFFF
310
FE0003FFFFFFE0003FFE0003FFFFFFE0003FFF0003FFFFFFFFC000FFFFFFE000
310
70008000FFFFFFC0007FFE0000007FF8000003FFFF80007F0001FFFFFF8000F0
310
001FFFFFF8000FF8000001FFFE0000007FFFFFF0001FFFFFFC0003FFFFFFE000
310
1FFC0003FFFFFFE0001FFF0003FFFFFFFFC000FFFFFFC00070008000FFFFFF80
310
007FFE0000007FF0000003FFFF80007F0001FFFFFF0000F0001FFFFFF8000FF8
310
000001FFFE0000007FFFFFF0001FFFFFFC0007FFFFFFF0001FFC0007FFFFFFF0
310
001FFF0003FFFFFFFFC000FFFFFFC00070008001FFFFFF0000FFFE0000003FF0
310
000001FFFF80007F0001FFFFFF0000F8001FFFFFF0000FF8000001FFFE000000
310
7FFFFFF0001FFFFFFC0007FFFFFFF0001FFC0007FFFFFFF0001FFF0003FFFFFF
310
FFC001FFFFFF80007000FFFFFFFFFE0000FFFE0008003FF0008001FFFF80007F
310
FFFFFFFFFC0000FFFFFFFFFFE0000FF8000001FFFE0000007FFFFFF0001FFFFF
310
F8000FFFFFFFF8000FF8000FFFFFFFF8000FFF0003FFFFFFFFFFFFFFFFFF0000
310
7000FFFFFFFFFC0000FFFC0008003FF0008001FFFF80007FFFFFFFFFF80001FF
310
FFFFFFFF80000FF8000001FFFE0000007FFFFFF0001FFFFFF8000FFFFFFFF800
310
0FF8000FFFFFFFF8000FFF0003FFFFFFFFFFFFFFFFFE0000F000FFFFFFFFE000
310
00FFFC000C003FE000C001FFFF80007FFFFFFFFFC00001FFFFFFFFFE00001FF8
310
000001FFFE0000007FFFFFF0001FFFFFF8000FFFFFFFF8000FF8000FFFFFFFF8
310
000FFF0003FFFFFFFFFFFFFFFFF00000F000FFFFFFFE000001FFFC000C001FE0
310
00C000FFFF80007FFFFFFFFE000001FFFFFFFFE000001FF80FFFFFFFFFFFFFC0
310
7FFFFFF0001FFFFFF8000FFFFFFFF8000FF8000FFFFFFFF8000FFF0003FFFFFF
310
FFFFFFFFFF800000F000FFFFFFC0000001FFFC001C001FE001C000FFFF80007F
310
FFFFFF80000003FFFFFFF80000001FF80FFFFFFFFFFFFFC07FFFFFF0001FFFFF
310
F8001FFFFFFFFC000FF8001FFFFFFFFC000FFF0003FFFFFFFFFFFFFFF0000001
310
F000FFFFF800000001FFF8001C001FE001C000FFFF80007FFFFFF800000003FF
310
FFFF800000003FF80FFFFFFFFFFFFFC07FFFFFF0001FFFFFF8001FFFFFFFFC00
310
0FF8001FFFFFFFFC000FFF0003FFFFFFFFFFFFFE00000001F000FFFFC0000000
310
03FFF8001E001FC001E000FFFF80007FFFFF8000000007FFFFFC000000003FF8
310
0FFFFFFFFFFFFFC07FFFFFF0001FFFFFF8001FFFFFFFFC000FF8001FFFFFFFFC
310
000FFF0003FFFFFFFFFFFFE000000003F000FFFE0000000007FFF8001E000FC0
310
01E0007FFF80007FFFFE0000000007FFFFE0000000007FF80FFFFFFFFFFFFFC0
310
7FFFFFF0001FFFFFF0001FFFFFFFFC0007F0001FFFFFFFFC0007FF0003FFFFFF
310
FFFFFF0000000003F000FFF80000000007FFF8001E000FC003E0007FFF80007F
310
FFF0000000000FFFFF8000000000FFF80FFFFFFFFFFFFFC07FFFFFF0001FFFFF
310
F0001FFFFFFFFC0007F0001FFFFFFFFC0007FF0003FFFFFFFFFFFC0000000007
310
F000FFE0000000000FFFF0003E000FC003E0007FFF80007FFFC0000000001FFF
310
FE0000000001FFF80FFFFFFFFFFFFFC07FFFFFF0001FFFFFF0001FFFFFFFFC00
310
07F0001FFFFFFFFC0007FF0003FFFFFFFFFFF0000000000FF000FFC000000000
310
1FFFF0003F000F8003F0003FFF80007FFF80000000003FFFF80000000003FFF8
310
0FFFFFFFFFFFFFC07FFFFFF0001FFFFFF0001FFFFFFFFC0007F0001FFFFFFFFC
310
0007FF0003FFFFFFFFFFE0000000001FF000FF00000000007FFFF0003F000780
310
03F0003FFF80007FFF00000000007FFFF00000000007FFF80FFFFFFFFFFFFFC0
310
7FFFFFF0001FFFFFF0001FFFFFFFFC0007F0001FFFFFFFFC0007FF0003FFFFFF
310
FFFF80000000007FF000FE0000000000FFFFE0003F00078007F0003FFF80007F
310
FE0000000001FFFFE0000000001FFFF80FFFFFFFFFFFFFC07FFFFFF0001FFFFF
310
F0001FFFFFFFFC0007F0001FFFFFFFFC0007FF0003FFFFFFFFFF0000000000FF
310
F000FC0000000003FFFFE0007F00078007F0003FFF80007FFC0000000007FFFF
310
C0000000007FFFF80FFFFFFFFFFFFFC07FFFFFF0001FFFFFF8001FFFFFFFFC00
310
0FF8001FFFFFFFFC000FFF0003FFFFFFFFFE0000000003FFF000FC000000000F
310
FFFFE0007F80070007F8001FFF80007FF8000000001FFFFF8000000001FFFFF8
310
0FFFFFFFFFFFFFC07FFFFFF0001FFFFFF8001FFFFFFFFC000FF8001FFFFFFFFC
310
000FFF0003FFFFFFFFFC000000000FFFF000F8000000007FFFFFE0007F800700
310
07F8001FFF80007FF000000000FFFFFF800000000FFFFFF80FFFFFFFFFFFFFC0
310
7FFFFFF0001FFFFFF8000FFFFFFFF8000FF8000FFFFFFFF8000FFF0003FFFFFF
310
FFFC000000007FFFF000F800000007FFFFFFC0007F8003000FF8001FFF80007F
310
F000000007FFFFFF000000007FFFFFF80FFFFFFFFFFFFFC07FFFFFF0001FFFFF
310
F8000FFFFFFFF8000FF8000FFFFFFFF8000FFF0003FFFFFFFFF80000000FFFFF
310
F000F0000000FFFFFFFFC000FF8003000FF8001FFF80007FE0000000FFFFFFFF
310
0000000FFFFFFFF8000001FFFE0000007FFFFFF0001FFFFFF8000FFFFFFFF800
310
0FF8000FFFFFFFF8000FFF0003FFFFFFFFF8000000FFFFFFF000F000000FFFFF
310
FFFFC000FFC002000FF8000FFF80007FE000001FFFFFFFFE000001FFFFFFFFF8
310
000001FFFE0000007FFFFFF0001FFFFFF8000FFFFFFFF8000FF8000FFFFFFFF8
310
000FFF0003FFFFFFFFF000001FFFFFFFF000E00000FFFFFFFFFFC000FFC00200
310
0FFC000FFF80007FE00001FFFFFFFFFE00001FFFFFFFFFF8000001FFFE000000
310
7FFFFFF0001FFFFFFC000FFFFFFFF8001FFC000FFFFFFFF8001FFF0003FFFFFF
310
FFF00001FFFFFFFFF000E00007FFFFFFFFFF8000FFC000001FFC000FFF80007F
310
C0000FFFFFFFFFFE0000FFFFFFFFFFF8000001FFFE0000007FFFFFF0001FFFFF
310
FC0007FFFFFFF0001FFC0007FFFFFFF0001FFF0003FFFFFFFFF00007FFFFFFFF
310
F000E0001FFFFFFFFFFF8000FFC000001FFC000FFF80007FC0003FFFFFFFFFFE
310
0001FFFFFFFFFFF8000001FFFE0000007FFFFFF0001FFFFFFC0007FFFFFFF000
310
1FFC0007FFFFFFF0001FFF0003FFFFFFFFF0001FFFFFFFFFF000E0003FFFFF00
310
03FF8001FFE000001FFC0007FF80007FC0007FFFFF0007FC0003FFFFF0003FF8
310
000001FFFE0000007FFFFFF0001FFFFFFC0003FFFFFFE0001FFC0003FFFFFFE0
310
001FFF0003FFFFFFFFF0003FFFFFFFFFF000E0003FFFFF0001FF8001FFE00000
310
1FFE0007FF80007FC0007FFFFE0003FC0007FFFFE0003FF8000001FFFE000000
310
7FFFFFF0001FFFFFFE0003FFFFFFE0003FFE0003FFFFFFE0003FFF0003FFFFFF
310
FFF0003FFFFF8001F000E0003FFFFF0001FF0001FFE000001FFE0007FF80007F
310
C0007FFFFE0003FC0007FFFFE0003FF8000001FFFE0000007FFFFFF0001FFFFF
310
FE0001FFFFFFC0003FFE0001FFFFFFC0003FFF0003FFFFFFFFF0003FFFFF0001
310
F000E0003FFFFF0003FF0001FFE000003FFE0007FF80007FC0007FFFFE0003FC
310
0007FFFFE0003FF8000001FFFE0000007FFFFFF0001FFFFFFF0001FFFFFFC000
310
7FFF0001FFFFFFC0007FFF0003FFFFFFFFF0003FFFFF0001F000E0003FFFFE00
310
03FF0003FFF000003FFE0003FF80007FC0007FFFFC0003FE0007FFFFE0003FF8
310
000001FFFE0000007FFFFFF0001FFFFFFF0000FFFFFF80007FFF0000FFFFFF80
310
007FFF0003FFFFFFFFF0003FFFFF0001F000E0003FFFFE0003FF0003FFF00000
310
3FFF0003FF80007FC0007FFFFC0007FE0007FFFFC0003FF8000001FFFE000000
310
7FFFFFF0001FFFFFFF80007FFFFF0000FFFF80007FFFFF0000FFFF0003FFFFFF
310
FFF0003FFFFF0003F000E0003FFFFC0003FE0003FFF000003FFF0003FF80007F
310
E0003FFFF80007FE0003FFFFC0007FF8000001FFFE0000007FFFFFF0001FFFFF
310
FF80003FFFFE0000FFFF80003FFFFE0000FFFF0003FFFFFFFFF0001FFFFE0003
310
F000F0001FFFF80003FE0003FFF000007FFF0001FF80007FE0003FFFF00007FE
310
0001FFFF80007FF8000001FFFE0000007FFFFFF0001FFFFFFFC0000FFFF80001
310
FFFFC0000FFFF80001FFFF0003FFFFFFFFF0001FFFFC0003F000F0000FFFF000
310
07FE0007FFF800007FFF0001FF80007FE0001FFFE00007FF0000FFFE00007FF8
310
000001FFFE0000007FFFFFF0001FFFFFFFC00003FFE00001FFFFC00003FFE000
310
01FFFF0003FFFFFFFFF8000FFFF80003F000F00003FFC00007FC0007FFF80000
310
7FFF8001FF80007FF00007FF80000FFF00007FF80000FFF8000001FFFE000000
310
7F80000000000001FFE000003E000003FFFFE000003E000003FFFF0003FFFFFF
310
FFF80003FFE00007F000F800000000000FFC0007FFF800007FFF8001FF80007F
310
F000000000000FFF000000000000FFF8000001FFFE0000007F80000000000001
310
FFF0000000000007FFFFF0000000000007FFFF0003FFFFFFFFFC00007E000007
310
F000F800000000000FFC0007FFF80000FFFF8000FF80007FF800000000001FFF
310
800000000001FFF8000001FFFE0000007F80000000000001FFF800000000000F
310
FFFFF800000000000FFFFF0003FFFFFFFFFC00000000000FF000FC0000000000
310
1FFC0007FFFC0000FFFF8000FF80007FF800000000003FFFC00000000001FFF8
310
000001FFFE0000007F80000000000001FFF800000000000FFFFFF80000000000
310
0FFFFF0003FFFFFFFFFE00000000001FF000FE00000000003FF8000FFFFC0000
310
FFFF8000FF80007FFC00000000003FFFC00000000003FFF8000001FFFE000000
310
7F80000000000001FFFC00000000001FFFFFFC00000000001FFFFF0003FFFFFF
310
FFFF00000000001FF000FF00000000003FF8000FFFFC0000FFFFC000FF80007F
310
FE00000000007FFFE00000000007FFF8000001FFFE0000007F80000000000001
310
FFFE00000000003FFFFFFE00000000003FFFFF0003FFFFFFFFFF80000000003F
310
F000FF80000000007FF8000FFFFC0001FFFFC0007F80007FFF0000000000FFFF
310
F0000000000FFFF800000000000000007F80000000000001FFFF8000000000FF
310
FFFFFF8000000000FFFFFF0003FFFFFFFFFFC0000000007FF000FFC000000000
310
FFF8000FFFFE0001FFFFC0007F80007FFF8000000001FFFFF8000000001FFFF8
310
00000000000000007F80000000000001FFFFC000000001FFFFFFFFC000000001
310
FFFFFF0003FFFFFFFFFFE000000000FFF000FFE000000003FFF0001FFFFE0001
310
FFFFC0007F80007FFFC000000007FFFFFE000000003FFFF80000000000000000
310
7F80000000000001FFFFE000000003FFFFFFFFE000000003FFFFFF0003FFFFFF
310
FFFFF000000003FFF000FFF80000000FFFF0001FFFFE0001FFFFE0007F80007F
310
FFF00000000FFFFFFF00000000FFFFF800000000000000007F80000000000001
310
FFFFF80000000FFFFFFFFFF80000000FFFFFFF0003FFFFFFFFFFFC0000000FFF
310
F000FFFE0000003FFFF0001FFFFE0003FFFFE0003F80007FFFFC0000003FFFFF
310
FFC0000003FFFFF800000000000000007F80000000000001FFFFFE0000003FFF
310
FFFFFFFE0000003FFFFFFF0003FFFFFFFFFFFF0000003FFFF000FFFF800000FF
310
FFF0001FFFFF0003FFFFE0003F80007FFFFF000001FFFFFFFFF800001FFFFFF8
310
00000000000000007F80000000000001FFFFFFC00001FFFFFFFFFFFFC00001FF
310
FFFFFF0003FFFFFFFFFFFFC00000FFFFF000FFFFF8000FFFFFFFFFFFFFFFFFFF
310
FFFFFFFFFFFFFFFFFFFFF0001FFFFFFFFFFF0000FFFFFFF80000000000000000
310
7FFFFFFFFFFFFFFFFFFFFFFC001FFFFFFFFFFFFFFC001FFFFFFFFFFFFFFFFFFF
310
FFFFFFFC001FFFFFF000FFFFFFFFFFFFFFFFFFFFFFFFFFFFFFFFFFFFFFFFFFFF
310
FFFFFFFFFFFFFFFFFFFFFFFFFFFFFFFFFFFFFFFFFFFFFFFFFFFFFFFFFFFFFFFF
310
FFFFFFFFFFFFFFFFFFFFFFFFFFFFFFFFFFFFFFFFFFFFFFFFFFFFFFFFFFFFFFFF
310
F000FFFFFFFFFFFFFFFFFFFFFFFFFFFFFFFFFFFFFFFFFFFFFFFFFFFFFFFFFFFF
310
FFFFFFFFFFFFFFFFFFFFFFFFFFFFFFFFFFFFFFFFFFFFFFFFFFFFFFFFFFFFFFFF
310
FFFFFFFFFFFFFFFFFFFFFFFFFFFFFFFFFFFFFFFFFFFFFFFFF000FFFFFFFFFFFF
310
FFFFFFFFFFFFFFFFFFFFFFFFFFFFFFFFFFFFFFFFFFFFFFFFFFFFFFFFFFFFFFFF
310
FFFFFFFFFFFFFFFFFFFFFFFFFFFFFFFFFFFFFFFFFFFFFFFFFFFFFFFFFFFFFFFF
310
FFFFFFFFFFFFFFFFFFFFFFFFFFFFFFFFF000FFFFFFFFFFFFFFFFFFFFFFFFFFFF
310
FFFFFFFFFFFFFFFFFFFFFFFFFFFFFFFFFFFFFFFFFFFFFFFFFFFFFFFFFFFFFFFF
310
FFFFFFFFFFFFFFFFFFFFFFFFFFFFFFFFFFFFFFFFFFFFFFFFFFFFFFFFFFFFFFFF
310
FFFFFFFFFFFFFFFFF000FFFFFFFFFFFFFFFFFFFFFFFFFFFFFFFFFFFFFFFFFFFF
310
FFFFFFFFFFFFFFFFFFFFFFFFFFFFFFFFFFFFFFFFFFFFFFFFFFFFFFFFFFFFFFFF
310
FFFFFFFFFFFFFFFFFFFFFFFFFFFFFFFFFFFFFFFFFFFFFFFFFFFFFFFFFFFFFFFF
310
F000FFFFFFFFFFFFFFFFFFFFFFFFFFFFFFFFFFFFFFFFFFFFFFFFFFFFFFFFFFFF
310
FFFFFFFFFFFFFFFFFFFFFFFFFFFFFFFFFFFFFFFFFFFFFFFFFFFFFFFFFFFFFFFF
310
FFFFFFFFFFFFFFFFFFFFFFFFFFFFFFFFFFFFFFFFFFFFFFFFF000FFFFFFFFFFFF
310
FFFFFFFFFFFFFFFFFFFFFFFFFFFFFFFFFFFFFFFFFFFFFFFFFFFFFFFFFFFFFFFF
310
FFFFFFFFFFFFFFFFFFFFFFFFFFFFFFFFFFFFFFFFFFFFFFFFFFFFFFFFFFFFFFFF
310
FFFFFFFFFFFFFFFFFFFFFFFFFFFFFFFFF000FFFFFFFFFFFFFFFFFFFFFFFFFFFF
310
FFFFFFFFFFFFFFFFFFFFFFFFFFFFFFFFFFFFFFFFFFFFFFFFFFFFFFFFFFFFFFFF
310
FFFFFFFFFFFFFFFFFFFFFFFFFFFFFFFFFFFFFFFFFFFFFFFFFFFFFFFFFFFFFFFF
310
FFFFFFFFFFFFFFFFF000FFFFFFFFFFFFFFFFFFFFFFFFFFFFFFFFFFFFFFFFFFFF
310
FFFFFFFFFFFFFFFFFFFFFFFFFFFFFFFFFFFFFFFFFFFFFFFFFFFFFFFFFFFFFFFF
310
FFFFFFFFFFFFFFFFFFFFFFFFFFFFFFFFFFFFFFFFFFFFFFFFFFFFFFFFFFFFFFFF
310
F000FFFFFFFFFFFFFFFFFFFFFFFFFFFFFFFFFFFFFFFFFFFFFFFFFFFFFFFFFFFF
310
FFFFFFFFFFFFFFFFFFFFFFFFFFFFFFFFFFFFFFFFFFFFFFFFFFFFFFFFFFFFFFFF
310
FFFFFFFFFFFFFFFFFFFFFFFFFFFFFFFFFFFFFFFFFFFFFFFFF000FFFFFFFFFFFF
310
FFFFFFFFFFFFFFFFFFFFFFFFFFFFFFFFFFFFFFFFFFFFFFFFFFFFFFFFFFFFFFFF
310
FFFFFFFFFFFFFFFFFFFFFFFFFFFFFFFFFFFFFFFFFFFFFFFFFFFFFFFFFFFFFFFF
310
FFFFFFFFFFFFFFFFFFFFFFFFFFFFFFFFF000FFFFFFFFFFFFFFFFFFFFFFFFFFFF
310
FFFFFFFFFFFFFFFFFFFFFFFFFFFFFFFFFFFFFFFFFFFFFFFFFFFFFFFFFFFFFFFF
310
FFFFFFFFFFFFFFFFFFFFFFFFFFFFFFFFFFFFFFFFFFFFFFFFFFFFFFFFFFFFFFFF
310
FFFFFFFFFFFFFFFFF000FFFFFFFFFFFFFFFFFFFFFFFFFFFFFFFFFFFFFFFFFFFF
310
FFFFFFFFFFFFFFFFFFFFFFFFFFFFFFFFFFFFFFFFFFFFFFFFFFFFFFFFFFFFFFFF
310
FFFFFFFFFFFFFFFFFFFFFFFFFFFFFFFFFFFFFFFFFFFFFFFFFFFFFFFFFFFFFFFF
310
F000FFFFFFFFFFFFFFFFFFFFFFFFFFFFFFFFFFFFFFFFFFFFFFFFFFFFFFFFFFFF
310
FFFFFFFFFFFFFFFFFFFFFFFFFFFFFFFFFFFFFFFFFFFFFFFFFFFFFFFFFFFFFFFF
310
FFFFFFFFFFFFFFFFFFFFFFFFFFFFFFFFFFFFFFFFFFFFFFFFF000FFFFFFFFFFFF
310
FFFFFFFFFFFFFFFFFFFFFFFFFFFFFFFFFFFFFFFFFFFFFFFFFFFFFFFFFFFFFFFF
310
FFFFFFFFFFFFFFFFFFFFFFFFFFFFFFFFFFFFFFFFFFFFFFFFFFFFFFFFFFFFFFFF
310
FFFFFFFFFFFFFFFFFFFFFFFFFFFFFFFFF000FFFFFFFFFFFFFFFFFFFFFFFFFFFF
310
FFFFFFFFFFFFFFFFFFFFFFFFFFFFFFFFFFFFFFFFFFFFFFFFFFFFFFFFFFFFFFFF
310
FFFFFFFFFFFFFFFFFFFFFFFFFFFFFFFFFFFFFFFFFFFFFFFFFFFFFFFFFFFFFFFF
310
FFFFFFFFFFFFFFFFF000FFFFFFFFFFFFFFFFFFFFFFFFFFFFFFFFFFFFFFFFFFFF
310
FFFFFFFFFFFFFFFFFFFFFFFFFFFFFFFFFFFFFFFFFFFFFFFFFFFFFFFFFFFFFFFF
310
FFFFFFFFFFFFFFFFFFFFFFFFFFFFFFFFFFFFFFFFFFFFFFFFFFFFFFFFFFFFFFFF
310
F000FFFFFFFFFFFFFFFFFFFFFFFFFFFFFFFFFFFFFFFFFFFFFFFFFFFFFFFFFFFF
310
FFFFFFFFFFFFFFFFFFFFFFFFFFFFFFFFFFFFFFFFFFFFFFFFFFFFFFFFFFFFFFFF
310
FFFFFFFFFFFFFFFFFFFFFFFFFFFFFFFFFFFFFFFFFFFFFFFFF000FFFFFFFFFFFF
310
FFFFFFFFFFFFFFFFFFFFFFFFFFFFFFFFFFFFFFFFFFFFFFFFFFFFFFFFFFFFFFFF
310
FFFFFFFFFFFFFFFFFFFFFFFFFFFFFFFFFFFFFFFFFFFFFFFFFFFFFFFFFFFFFFFF
310
FFFFFFFFFFFFFFFFFFFFFFFFFFFFFFFFF000FFFFFFFFFFFFFFFFFFFFFFFFFFFF
310
FFFFFFFFFFFFFFFFFFFFFFFFFFFFFFFFFFFFFFFFFFFFFFFFFFFFFFFFFFFFFFFF
310
FFFFFFFFFFFFFFFFFFFFFFFFFFFFFFFFFFFFFFFFFFFFFFFFFFFFFFFFFFFFFFFF
310
FFFFFFFFFFFFFFFFF000FFFFFFFFFFFFFFFFFFFFFFFFFFFFFFFFFFFFFFFFFFFF
310
FFFFFFFFFFFFFFFFFFFFFFFFFFFFFFFFFFFFFFFFFFFFFFFFFFFFFFFFFFFFFFFF
310
FFFFFFFFFFFFFFFFFFFFFFFFFFFFFFFFFFFFFFFFFFFFFFFFFFFFFFFFFFFFFFFF
310
F000FFFFFFFFFFFFFFFFFFFFFFFFFFFFFFFFFFFFFFFFFFFFFFFFFFFFFFFFFFFF
310
FFFFFFFFFFFFFFFFFFFFFFFFFFFFFFFFFFFFFFFFFFFFFFFFFFFFFFFFFFFFFFFF
310
FFFFFFFFFFFFFFFFFFFFFFFFFFFFFFFFFFFFFFFFFFFFFFFFF000FFFFFFFFFFFF
310
FFFFFFFFFFFFFFFFFFFFFFFFFFFFFFFFFFFFFFFFFFFFFFFFFFFFFFFFFFFFFFFF
310
FFFFFFFFFFFFFFFFFFFFFFFFFFFFFFFFFFFFFFFFFFFFFFFFFFFFFFFFFFFFFFFF
310
FFFFFFFFFFFFFFFFFFFFFFFFFFFFFFFFF0000000000000000000000000000000
310
0000000000000000000000000000000000000000000000000000000000000000
310
0000000000000000000000000000000000000000000000000000000000000000
310
0000000000000000000000000000000000000000000000000000000000000000
310
0000000000000000000000000000000000000000000000000000000000000000
310
0000000000000000000000000000000000000000000000000000000000000000
310
0000000000000000000000000000000000000000000000000000000000000000
310
0000000000000000000000000000000000000000000000000000000000000000
310
0000000000000000000000000000000000000000000000000000000000000000
310
0000000000000000000000000000000000000000000000000000000000000000
310
0000000000000000000000000000000000000000000000000000000000000000
310
0000000000000000000000000000000000000000000000000000000000000000
310
0000000000000000000000000000000000000000000000000000000000000000
310
0000000000000000000000000000000000000000000000000000000000000000
310
0000000000000000000000000000000000000000000000000000000000000000
310
0000000000000000000000000000000000000000000000000000000000000000
  1
OLE
  0
ENDSEC
  0
SECTION
  2
OBJECTS
  0
DICTIONARY
  5
C
330
0
100
AcDbDictionary
281
     1
  3
ACAD_GROUP
350
D
  3
ACAD_LAYOUT
350
1A
  3
ACAD_MLINESTYLE
350
17
  3
ACAD_PLOTSETTINGS
350
19
  3
ACAD_PLOTSTYLENAME
350
E
  0
DICTIONARY
  5
D
102
{ACAD_REACTORS
330
C
102
}
330
C
100
AcDbDictionary
281
     1
  0
DICTIONARY
  5
1A
102
{ACAD_REACTORS
330
C
102
}
330
C
100
AcDbDictionary
281
     1
  3
Layout1
350
1E
  3
Layout2
350
26
  3
Model
350
22
  0
DICTIONARY
  5
17
102
{ACAD_REACTORS
330
C
102
}
330
C
100
AcDbDictionary
281
     1
  3
Standard
350
18
  0
DICTIONARY
  5
19
102
{ACAD_REACTORS
330
C
102
}
330
C
100
AcDbDictionary
281
     1
  0
ACDBDICTIONARYWDFLT
  5
E
102
{ACAD_REACTORS
330
C
102
}
330
C
100
AcDbDictionary
281
     1
  3
Normal
350
F
100
AcDbDictionaryWithDefault
340
F
  0
LAYOUT
  5
1E
102
{ACAD_REACTORS
330
1A
102
}
330
1A
100
AcDbPlotSettings
  1

  2
none_device
  4

  6

 40
0.0
 41
0.0
 42
0.0
 43
0.0
 44
0.0
 45
0.0
 46
0.0
 47
0.0
 48
0.0
 49
0.0
140
0.0
141
0.0
142
1.0
143
1.0
 70
   688
 72
     0
 73
     0
 74
     5
  7

 75
    16
147
1.0
148
0.0
149
0.0
100
AcDbLayout
  1
Layout1
 70
     1
 71
     1
 10
0.0
 20
0.0
 11
420.0
 21
297.0
 12
0.0
 22
0.0
 32
0.0
 14
1.0000000000E+20
 24
1.0000000000E+20
 34
1.0000000000E+20
 15
-1.0000000000E+20
 25
-1.0000000000E+20
 35
-1.0000000000E+20
146
0.0
 13
0.0
 23
0.0
 33
0.0
 16
1.0
 26
0.0
 36
0.0
 17
0.0
 27
1.0
 37
0.0
 76
     0
330
1B
  0
LAYOUT
  5
26
102
{ACAD_REACTORS
330
1A
102
}
330
1A
100
AcDbPlotSettings
  1

  2
none_device
  4

  6

 40
0.0
 41
0.0
 42
0.0
 43
0.0
 44
0.0
 45
0.0
 46
0.0
 47
0.0
 48
0.0
 49
0.0
140
0.0
141
0.0
142
1.0
143
1.0
 70
   688
 72
     0
 73
     0
 74
     5
  7

 75
    16
147
1.0
148
0.0
149
0.0
100
AcDbLayout
  1
Layout2
 70
     1
 71
     2
 10
0.0
 20
0.0
 11
0.0
 21
0.0
 12
0.0
 22
0.0
 32
0.0
 14
0.0
 24
0.0
 34
0.0
 15
0.0
 25
0.0
 35
0.0
146
0.0
 13
0.0
 23
0.0
 33
0.0
 16
1.0
 26
0.0
 36
0.0
 17
0.0
 27
1.0
 37
0.0
 76
     0
330
23
  0
LAYOUT
  5
22
102
{ACAD_REACTORS
330
1A
102
}
330
1A
100
AcDbPlotSettings
  1

  2
none_device
  4

  6

 40
0.0
 41
0.0
 42
0.0
 43
0.0
 44
0.0
 45
0.0
 46
0.0
 47
0.0
 48
0.0
 49
0.0
140
0.0
141
0.0
142
1.0
143
1.0
 70
  1712
 72
     0
 73
     0
 74
     0
  7

 75
     0
147
1.0
148
0.0
149
0.0
100
AcDbLayout
  1
Model
 70
     1
 71
     0
 10
0.0
 20
0.0
 11
297.0
 21
210.0
 12
0.0
 22
0.0
 32
0.0
 14
0.0
 24
0.0
 34
0.0
 15
297.0
 25
210.0
 35
0.0
146
0.0
 13
0.0
 23
0.0
 33
0.0
 16
1.0
 26
0.0
 36
0.0
 17
0.0
 27
1.0
 37
0.0
 76
     0
330
1F
331
29
  0
MLINESTYLE
  5
18
102
{ACAD_REACTORS
330
17
102
}
330
17
100
AcDbMlineStyle
  2
Standard
 70
     0
  3

 62
   256
 51
90.0
 52
90.0
 71
     2
 49
0.5
 62
   256
  6
BYLAYER
 49
-0.5
 62
   256
  6
BYLAYER
  0
ACDBPLACEHOLDER
  5
F
102
{ACAD_REACTORS
330
E
102
}
330
E
  0
ENDSEC
  0
EOF
