  0
SECTION
  2
HEADER
  9
$ACADVER
  1
AC1015
  9
$ACADMAINTVER
 70
     6
  9
$DWGCODEPAGE
  3
ANSI_1252
  9
$INSBASE
 10
0.0
 20
0.0
 30
0.0
  9
$EXTMIN
 10
0.0
 20
0.0
 30
0.0
  9
$EXTMAX
 10
297.0
 20
210.0
 30
0.0
  9
$LIMMIN
 10
0.0
 20
0.0
  9
$LIMMAX
 10
297.0
 20
210.0
  9
$ORTHOMODE
 70
     0
  9
$REGENMODE
 70
     1
  9
$FILLMODE
 70
     1
  9
$QTEXTMODE
 70
     0
  9
$MIRRTEXT
 70
     1
  9
$LTSCALE
 40
1.0
  9
$ATTMODE
 70
     1
  9
$TEXTSIZE
 40
2.0
  9
$TRACEWID
 40
1.0
  9
$TEXTSTYLE
  7
Standard
  9
$CLAYER
  8
0
  9
$CELTYPE
  6
ByLayer
  9
$CECOLOR
 62
   256
  9
$CELTSCALE
 40
1.0
  9
$DISPSILH
 70
     0
  9
$DIMSCALE
 40
1.0
  9
$DIMASZ
 40
3.0
  9
$DIMEXO
 40
0.0
  9
$DIMDLI
 40
3.75
  9
$DIMRND
 40
0.0
  9
$DIMDLE
 40
0.0
  9
$DIMEXE
 40
1.0
  9
$DIMTP
 40
0.0
  9
$DIMTM
 40
0.0
  9
$DIMTXT
 40
2.0
  9
$DIMCEN
 40
2.5
  9
$DIMTSZ
 40
0.0
  9
$DIMTOL
 70
     0
  9
$DIMLIM
 70
     0
  9
$DIMTIH
 70
     1
  9
$DIMTOH
 70
     1
  9
$DIMSE1
 70
     0
  9
$DIMSE2
 70
     0
  9
$DIMTAD
 70
     1
  9
$DIMZIN
 70
     0
  9
$DIMBLK
  1

  9
$DIMASO
 70
     1
  9
$DIMSHO
 70
     1
  9
$DIMPOST
  1

  9
$DIMAPOST
  1

  9
$DIMALT
 70
     0
  9
$DIMALTD
 70
     3
  9
$DIMALTF
 40
0.0393700787
  9
$DIMLFAC
 40
2.0
  9
$DIMTOFL
 70
     1
  9
$DIMTVP
 40
0.0
  9
$DIMTIX
 70
     0
  9
$DIMSOXD
 70
     0
  9
$DIMSAH
 70
     0
  9
$DIMBLK1
  1

  9
$DIMBLK2
  1

  9
$DIMSTYLE
  2
ISO-25
  9
$DIMCLRD
 70
     0
  9
$DIMCLRE
 70
     0
  9
$DIMCLRT
 70
     0
  9
$DIMTFAC
 40
1.0
  9
$DIMGAP
 40
1.524
  9
$DIMJUST
 70
     0
  9
$DIMSD1
 70
     0
  9
$DIMSD2
 70
     0
  9
$DIMTOLJ
 70
     0
  9
$DIMTZIN
 70
     0
  9
$DIMALTZ
 70
     0
  9
$DIMALTTZ
 70
     0
  9
$DIMUPT
 70
     0
  9
$DIMDEC
 70
     2
  9
$DIMTDEC
 70
     3
  9
$DIMALTU
 70
     2
  9
$DIMALTTD
 70
     3
  9
$DIMTXSTY
  7
Standard
  9
$DIMAUNIT
 70
     0
  9
$DIMADEC
 70
     2
  9
$DIMALTRND
 40
0.0
  9
$DIMAZIN
 70
     0
  9
$DIMDSEP
 70
    44
  9
$DIMATFIT
 70
     3
  9
$DIMFRAC
 70
     0
  9
$DIMLDRBLK
  1

  9
$DIMLUNIT
 70
     2
  9
$DIMLWD
 70
    -2
  9
$DIMLWE
 70
    -2
  9
$DIMTMOVE
 70
     0
  9
$LUNITS
 70
     2
  9
$LUPREC
 70
     2
  9
$SKETCHINC
 40
1.0
  9
$FILLETRAD
 40
10.0
  9
$AUNITS
 70
     0
  9
$AUPREC
 70
     2
  9
$MENU
  1
.
  9
$ELEVATION
 40
0.0
  9
$PELEVATION
 40
0.0
  9
$THICKNESS
 40
0.0
  9
$LIMCHECK
 70
     0
  9
$CHAMFERA
 40
0.0
  9
$CHAMFERB
 40
0.0
  9
$CHAMFERC
 40
0.0
  9
$CHAMFERD
 40
0.0
  9
$SKPOLY
 70
     0
  9
$TDCREATE
 40
2458162.481600683
  9
$TDUCREATE
 40
2458162.439934016
  9
$TDUPDATE
 40
2458162.481602592
  9
$TDUUPDATE
 40
2458162.439935926
  9
$TDINDWG
 40
0.0000000116
  9
$TDUSRTIMER
 40
0.0000000116
  9
$USRTIMER
 70
     1
  9
$ANGBASE
 50
0.0
  9
$ANGDIR
 70
     0
  9
$PDMODE
 70
     0
  9
$PDSIZE
 40
-1.0
  9
$PLINEWID
 40
0.0
  9
$SPLFRAME
 70
     0
  9
$SPLINETYPE
 70
     6
  9
$SPLINESEGS
 70
     8
  9
$HANDSEED
  5
2B4
  9
$SURFTAB1
 70
     6
  9
$SURFTAB2
 70
     6
  9
$SURFTYPE
 70
     6
  9
$SURFU
 70
     6
  9
$SURFV
 70
     6
  9
$UCSBASE
  2

  9
$UCSNAME
  2

  9
$UCSORG
 10
0.0
 20
0.0
 30
0.0
  9
$UCSXDIR
 10
1.0
 20
0.0
 30
0.0
  9
$UCSYDIR
 10
0.0
 20
1.0
 30
0.0
  9
$UCSORTHOREF
  2

  9
$UCSORTHOVIEW
 70
     0
  9
$UCSORGTOP
 10
0.0
 20
0.0
 30
0.0
  9
$UCSORGBOTTOM
 10
0.0
 20
0.0
 30
0.0
  9
$UCSORGLEFT
 10
0.0
 20
0.0
 30
0.0
  9
$UCSORGRIGHT
 10
0.0
 20
0.0
 30
0.0
  9
$UCSORGFRONT
 10
0.0
 20
0.0
 30
0.0
  9
$UCSORGBACK
 10
0.0
 20
0.0
 30
0.0
  9
$PUCSBASE
  2

  9
$PUCSNAME
  2

  9
$PUCSORG
 10
0.0
 20
0.0
 30
0.0
  9
$PUCSXDIR
 10
1.0
 20
0.0
 30
0.0
  9
$PUCSYDIR
 10
0.0
 20
1.0
 30
0.0
  9
$PUCSORTHOREF
  2

  9
$PUCSORTHOVIEW
 70
     0
  9
$PUCSORGTOP
 10
0.0
 20
0.0
 30
0.0
  9
$PUCSORGBOTTOM
 10
0.0
 20
0.0
 30
0.0
  9
$PUCSORGLEFT
 10
0.0
 20
0.0
 30
0.0
  9
$PUCSORGRIGHT
 10
0.0
 20
0.0
 30
0.0
  9
$PUCSORGFRONT
 10
0.0
 20
0.0
 30
0.0
  9
$PUCSORGBACK
 10
0.0
 20
0.0
 30
0.0
  9
$USERI1
 70
     0
  9
$USERI2
 70
     0
  9
$USERI3
 70
     0
  9
$USERI4
 70
     0
  9
$USERI5
 70
     0
  9
$USERR1
 40
0.0
  9
$USERR2
 40
0.0
  9
$USERR3
 40
0.0
  9
$USERR4
 40
0.0
  9
$USERR5
 40
0.0
  9
$WORLDVIEW
 70
     1
  9
$SHADEDGE
 70
     3
  9
$SHADEDIF
 70
    70
  9
$TILEMODE
 70
     1
  9
$MAXACTVP
 70
    64
  9
$PINSBASE
 10
0.0
 20
0.0
 30
0.0
  9
$PLIMCHECK
 70
     0
  9
$PEXTMIN
 10
1.0000000000E+20
 20
1.0000000000E+20
 30
1.0000000000E+20
  9
$PEXTMAX
 10
-1.0000000000E+20
 20
-1.0000000000E+20
 30
-1.0000000000E+20
  9
$PLIMMIN
 10
0.0
 20
0.0
  9
$PLIMMAX
 10
420.0
 20
297.0
  9
$UNITMODE
 70
     0
  9
$VISRETAIN
 70
     1
  9
$PLINEGEN
 70
     0
  9
$PSLTSCALE
 70
     1
  9
$TREEDEPTH
 70
  3020
  9
$CMLSTYLE
  2
Standard
  9
$CMLJUST
 70
     0
  9
$CMLSCALE
 40
20.0
  9
$PROXYGRAPHICS
 70
     1
  9
$MEASUREMENT
 70
     1
  9
$CELWEIGHT
370
    -1
  9
$ENDCAPS
280
     0
  9
$JOINSTYLE
280
     0
  9
$LWDISPLAY
290
     1
  9
$INSUNITS
 70
     4
  9
$HYPERLINKBASE
  1

  9
$STYLESHEET
  1

  9
$XEDIT
290
     1
  9
$CEPSNTYPE
380
     0
  9
$PSTYLEMODE
290
     1
  9
$FINGERPRINTGUID
  2
{01964E01-4747-46AD-8F21-659EDCC59CAA}
  9
$VERSIONGUID
  2
{FAEB1C32-E019-11D5-929B-00C0DF256EC4}
  9
$EXTNAMES
290
     1
  9
$PSVPSCALE
 40
0.0
  9
$OLESTARTUP
290
     0
  0
ENDSEC
  0
SECTION
  2
CLASSES
  0
CLASS
  1
ACDBDICTIONARYWDFLT
  2
AcDbDictionaryWithDefault
  3
ObjectDBX Classes
 90
        0
280
     0
281
     0
  0
CLASS
  1
VISUALSTYLE
  2
AcDbVisualStyle
  3
ObjectDBX Classes
 90
     4095
280
     0
281
     0
  0
CLASS
  1
MATERIAL
  2
AcDbMaterial
  3
ObjectDBX Classes
 90
     1153
280
     0
281
     0
  0
CLASS
  1
SCALE
  2
AcDbScale
  3
ObjectDBX Classes
 90
     1153
280
     0
281
     0
  0
CLASS
  1
TABLESTYLE
  2
AcDbTableStyle
  3
ObjectDBX Classes
 90
     4095
280
     0
281
     0
  0
CLASS
  1
MLEADERSTYLE
  2
AcDbMLeaderStyle
  3
ACDB_MLEADERSTYLE_CLASS
 90
     4095
280
     0
281
     0
  0
CLASS
  1
SUN
  2
AcDbSun
  3
SCENEOE
 90
     1153
280
     0
281
     0
  0
CLASS
  1
ACDBPLACEHOLDER
  2
AcDbPlaceHolder
  3
ObjectDBX Classes
 90
        0
280
     0
281
     0
  0
CLASS
  1
LAYOUT
  2
AcDbLayout
  3
ObjectDBX Classes
 90
        0
280
     0
281
     0
  0
ENDSEC
  0
SECTION
  2
TABLES
  0
TABLE
  2
VPORT
  5
8
330
0
100
AcDbSymbolTable
 70
     1
  0
VPORT
  5
29
330
8
100
AcDbSymbolTableRecord
100
AcDbViewportTableRecord
  2
*Active
 70
     0
 10
0.0
 20
0.0
 11
1.0
 21
1.0
 12
148.5
 22
105.0
 13
0.0
 23
0.0
 14
10.0
 24
10.0
 15
10.0
 25
10.0
 16
0.0
 26
0.0
 36
1.0
 17
0.0
 27
0.0
 37
0.0
 40
210.0
 41
1.4142857143
 42
50.0
 43
0.0
 44
0.0
 50
0.0
 51
0.0
 71
     0
 72
  2000
 73
     1
 74
     3
 75
     0
 76
     0
 77
     0
 78
     0
281
     0
 65
     1
110
0.0
120
0.0
130
0.0
111
1.0
121
0.0
131
0.0
112
0.0
122
1.0
132
0.0
 79
     0
146
0.0
  0
ENDTAB
  0
TABLE
  2
LTYPE
  5
5
330
0
100
AcDbSymbolTable
 70
     6
  0
LTYPE
  5
14
330
5
100
AcDbSymbolTableRecord
100
AcDbLinetypeTableRecord
  2
ByBlock
 70
     0
  3

 72
    65
 73
     0
 40
0.0
  0
LTYPE
  5
15
330
5
100
AcDbSymbolTableRecord
100
AcDbLinetypeTableRecord
  2
ByLayer
 70
     0
  3

 72
    65
 73
     0
 40
0.0
  0
LTYPE
  5
16
330
5
100
AcDbSymbolTableRecord
100
AcDbLinetypeTableRecord
  2
Continuous
 70
     0
  3
Solid line
 72
    65
 73
     0
 40
0.0
  0
LTYPE
  5
6E
330
5
100
AcDbSymbolTableRecord
100
AcDbLinetypeTableRecord
  2
HIDDEN
 70
     0
  3
Hidden __ __ __ __ __ __ __ __ __ __ __ __ __ __
 72
    65
 73
     2
 40
1.905
 49
1.27
 74
     0
 49
-0.635
 74
     0
  0
LTYPE
  5
6F
330
5
100
AcDbSymbolTableRecord
100
AcDbLinetypeTableRecord
  2
PHANTOM
 70
     0
  3
Phantom ______  __  __  ______  __  __  ______
 72
    65
 73
     6
 40
12.7
 49
6.35
 74
     0
 49
-1.27
 74
     0
 49
1.27
 74
     0
 49
-1.27
 74
     0
 49
1.27
 74
     0
 49
-1.27
 74
     0
  0
LTYPE
  5
70
330
5
100
AcDbSymbolTableRecord
100
AcDbLinetypeTableRecord
  2
CENTER
 70
     0
  3
Center ____ _ ____ _ ____ _ ____ _ ____ _ ____
 72
    65
 73
     4
 40
10.16
 49
6.35
 74
     0
 49
-1.27
 74
     0
 49
1.27
 74
     0
 49
-1.27
 74
     0
  0
LTYPE
  5
71
330
5
100
AcDbSymbolTableRecord
100
AcDbLinetypeTableRecord
  2
CENTERX2
 70
     0
  3
Center (2x) ________  __  ________  __  _____
 72
    65
 73
     4
 40
20.32
 49
12.7
 74
     0
 49
-2.54
 74
     0
 49
2.54
 74
     0
 49
-2.54
 74
     0
  0
LTYPE
  5
72
330
5
100
AcDbSymbolTableRecord
100
AcDbLinetypeTableRecord
  2
DOT2
 70
     0
  3
Dot (.5x) ........................................
 72
    65
 73
     2
 40
0.635
 49
0.0
 74
     0
 49
-0.635
 74
     0
  0
ENDTAB
  0
TABLE
  2
LAYER
  5
2
330
0
100
AcDbSymbolTable
 70
     5
  0
LAYER
  5
10
330
2
100
AcDbSymbolTableRecord
100
AcDbLayerTableRecord
  2
0
 70
     0
 62
     7
  6
Continuous
370
    -3
390
F
  0
LAYER
  5
73
330
2
100
AcDbSymbolTableRecord
100
AcDbLayerTableRecord
  2
FORMAT
 70
     0
 62
     7
  6
Continuous
370
    -3
390
F
  0
LAYER
  5
74
330
2
100
AcDbSymbolTableRecord
100
AcDbLayerTableRecord
  2
VERMASSUNG
 70
     0
 62
     7
  6
Continuous
370
    -3
390
F
  0
LAYER
  5
75
330
2
100
AcDbSymbolTableRecord
100
AcDbLayerTableRecord
  2
KOPF_DÜNN
 70
     0
 62
     7
  6
Continuous
370
    -3
390
F
  0
LAYER
  5
76
330
2
100
AcDbSymbolTableRecord
100
AcDbLayerTableRecord
  2
KOPF_DICK
 70
     0
 62
     7
  6
Continuous
370
    25
390
F
  0
ENDTAB
  0
TABLE
  2
STYLE
  5
3
330
0
100
AcDbSymbolTable
 70
     3
  0
STYLE
  5
11
330
3
100
AcDbSymbolTableRecord
100
AcDbTextStyleTableRecord
  2
Standard
 70
     0
 40
0.0
 41
1.0
 50
0.0
 71
     0
 42
2.0
  3
txt
  4

  0
STYLE
  5
77
330
3
100
AcDbSymbolTableRecord
100
AcDbTextStyleTableRecord
  2
SLDTEXTSTYLE0
 70
     0
 40
0.0
 41
0.7
 50
0.0
 71
     0
 42
2.0
  3
TXT
  4

  0
STYLE
  5
7B
330
3
100
AcDbSymbolTableRecord
100
AcDbTextStyleTableRecord
  2
SLDTEXTSTYLE1
 70
     0
 40
0.0
 41
0.6416666667
 50
0.0
 71
     0
 42
2.0
  3
TXT
  4

  0
ENDTAB
  0
TABLE
  2
VIEW
  5
6
330
0
100
AcDbSymbolTable
 70
     0
  0
ENDTAB
  0
TABLE
  2
UCS
  5
7
330
0
100
AcDbSymbolTable
 70
     0
  0
ENDTAB
  0
TABLE
  2
APPID
  5
9
330
0
100
AcDbSymbolTable
 70
     1
  0
APPID
  5
12
330
9
100
AcDbSymbolTableRecord
100
AcDbRegAppTableRecord
  2
ACAD
 70
     0
  0
ENDTAB
  0
TABLE
  2
DIMSTYLE
  5
A
330
0
100
AcDbSymbolTable
 70
     4
100
AcDbDimStyleTable
  0
DIMSTYLE
105
27
330
A
100
AcDbSymbolTableRecord
100
AcDbDimStyleTableRecord
  2
ISO-25
 70
     0
 41
2.5
 42
0.625
 43
3.75
 44
1.25
 73
     0
 74
     0
 77
     1
 78
     8
140
2.5
141
2.5
143
0.0393700787
147
0.625
171
     3
172
     1
178
     0
271
     2
272
     2
274
     3
278
    44
283
     0
284
     8
340
11
  0
DIMSTYLE
105
12D
102
{ACAD_REACTORS
330
12C
330
139
102
}
330
A
100
AcDbSymbolTableRecord
100
AcDbDimStyleTableRecord
  2
SLDDIMSTYLE0
 70
     0
 41
3.0
 44
0.0
 45
0.000000001
 47
0.1
 48
0.1
 71
     1
 73
     0
 74
     0
 77
     1
 78
    12
 79
     3
140
2.0
147
0.5
173
     1
178
     0
271
     2
272
     1
276
     2
284
     8
340
77
  0
DIMSTYLE
105
146
102
{ACAD_REACTORS
330
145
330
15B
102
}
330
A
100
AcDbSymbolTableRecord
100
AcDbDimStyleTableRecord
  2
SLDDIMSTYLE1
 70
     0
 41
3.0
 44
0.0
 45
0.000000001
 73
     0
 74
     0
 77
     1
 78
    12
 79
     3
140
2.0
147
0.5
173
     1
178
     0
271
     2
272
     3
276
     2
284
    12
340
77
  0
DIMSTYLE
105
151
102
{ACAD_REACTORS
330
150
102
}
330
A
100
AcDbSymbolTableRecord
100
AcDbDimStyleTableRecord
  2
SLDDIMSTYLE2
 70
     0
 41
3.0
 44
0.0
 73
     0
 74
     0
 77
     1
 78
    12
 79
     3
140
2.0
147
0.5
173
     1
178
     0
179
     1
272
     3
276
     2
284
    12
340
77
  0
ENDTAB
  0
TABLE
  2
BLOCK_RECORD
  5
1
330
0
100
AcDbSymbolTable
 70
     7
  0
BLOCK_RECORD
  5
1F
330
1
100
AcDbSymbolTableRecord
100
AcDbBlockTableRecord
  2
*Model_Space
340
22
  0
BLOCK_RECORD
  5
1B
330
1
100
AcDbSymbolTableRecord
100
AcDbBlockTableRecord
  2
*Paper_Space
340
1E
  0
BLOCK_RECORD
  5
23
330
1
100
AcDbSymbolTableRecord
100
AcDbBlockTableRecord
  2
*Paper_Space0
340
26
  0
BLOCK_RECORD
  5
12E
330
1
100
AcDbSymbolTableRecord
100
AcDbBlockTableRecord
  2
_D
340
0
  0
BLOCK_RECORD
  5
13A
330
1
100
AcDbSymbolTableRecord
100
AcDbBlockTableRecord
  2
_D_1
340
0
  0
BLOCK_RECORD
  5
147
330
1
100
AcDbSymbolTableRecord
100
AcDbBlockTableRecord
  2
_D_2
340
0
  0
BLOCK_RECORD
  5
152
330
1
100
AcDbSymbolTableRecord
100
AcDbBlockTableRecord
  2
_D_3
340
0
  0
BLOCK_RECORD
  5
15C
330
1
100
AcDbSymbolTableRecord
100
AcDbBlockTableRecord
  2
_D_4
340
0
  0
BLOCK_RECORD
  5
1C5
330
1
100
AcDbSymbolTableRecord
100
AcDbBlockTableRecord
  2
SW_CENTERMARKSYMBOL_0
340
0
102
{BLKREFS
331
1D0
102
}
  0
ENDTAB
  0
ENDSEC
  0
SECTION
  2
BLOCKS
  0
BLOCK
  5
20
330
1F
100
AcDbEntity
  8
0
100
AcDbBlockBegin
  2
*Model_Space
 70
     0
 10
0.0
 20
0.0
 30
0.0
  3
*Model_Space
  1

  0
ENDBLK
  5
21
330
1F
100
AcDbEntity
  8
0
100
AcDbBlockEnd
  0
BLOCK
  5
1C
330
1B
100
AcDbEntity
 67
     1
  8
0
100
AcDbBlockBegin
  2
*Paper_Space
 70
     0
 10
0.0
 20
0.0
 30
0.0
  3
*Paper_Space
  1

  0
ENDBLK
  5
1D
330
1B
100
AcDbEntity
 67
     1
  8
0
100
AcDbBlockEnd
  0
BLOCK
  5
24
330
23
100
AcDbEntity
  8
0
100
AcDbBlockBegin
  2
*Paper_Space0
 70
     0
 10
0.0
 20
0.0
 30
0.0
  3
*Paper_Space0
  1

  0
ENDBLK
  5
25
330
23
100
AcDbEntity
  8
0
100
AcDbBlockEnd
  0
BLOCK
  5
12F
330
12E
100
AcDbEntity
  8
0
100
AcDbBlockBegin
  2
_D
 70
     0
 10
0.0
 20
0.0
 30
0.0
  3
_D
  1

  0
SOLID
  5
131
330
12E
100
AcDbEntity
  8
VERMASSUNG
100
AcDbTrace
 10
262.3190895331
 20
109.2122339108
 30
0.0
 11
262.7690895331
 21
112.2122339108
 31
0.0
 12
261.8690895331
 22
112.2122339108
 32
0.0
 13
261.8690895331
 23
112.2122339108
 33
0.0
  0
SOLID
  5
132
330
12E
100
AcDbEntity
  8
VERMASSUNG
100
AcDbTrace
 10
262.3190895331
 20
154.2122339108
 30
0.0
 11
261.8690895331
 21
151.2122339108
 31
0.0
 12
262.7690895331
 22
151.2122339108
 32
0.0
 13
262.7690895331
 23
151.2122339108
 33
0.0
  0
LINE
  5
133
330
12E
100
AcDbEntity
  8
VERMASSUNG
100
AcDbLine
 10
252.1542310441
 20
109.2122339108
 30
0.0
 11
263.3190895331
 21
109.2122339108
 31
0.0
  0
LINE
  5
134
330
12E
100
AcDbEntity
  8
VERMASSUNG
100
AcDbLine
 10
257.2008662977
 20
154.2122339108
 30
0.0
 11
263.3190895331
 21
154.2122339108
 31
0.0
  0
LINE
  5
135
330
12E
100
AcDbEntity
  8
VERMASSUNG
100
AcDbLine
 10
262.3190895331
 20
109.2122339108
 30
0.0
 11
262.3190895331
 21
154.2122339108
 31
0.0
  0
MTEXT
  5
136
330
12E
100
AcDbEntity
  8
VERMASSUNG
100
AcDbMText
 10
259.7409539372
 20
127.962233529
 30
0.0
 40
2.0
 41
0.0
 71
     1
 72
     1
  1
45
  7
SLDTEXTSTYLE0
 11
6.123233995736766E-17
 21
1.0
 31
0.0
 73
     1
 44
1.0
  0
MTEXT
  5
137
330
12E
100
AcDbEntity
  8
VERMASSUNG
100
AcDbMText
 10
259.7409539372
 20
132.1497335551
 30
0.0
 40
2.0
 41
0.0
 71
     1
 72
     1
  1

  7
SLDTEXTSTYLE0
 11
6.123233995736766E-17
 21
1.0
 31
0.0
 73
     1
 44
1.0
  0
MTEXT
  5
138
330
12E
100
AcDbEntity
  8
VERMASSUNG
100
AcDbMText
 10
260.2354877708
 20
132.1622333792
 30
0.0
 40
1.5
 41
0.0
 71
     1
 72
     1
  1
±0.1
  7
SLDTEXTSTYLE0
 11
6.123233995736766E-17
 21
1.0
 31
0.0
 73
     1
 44
1.0
  0
ENDBLK
  5
130
330
12E
100
AcDbEntity
  8
0
100
AcDbBlockEnd
  0
BLOCK
  5
13B
330
13A
100
AcDbEntity
  8
0
100
AcDbBlockBegin
  2
_D_1
 70
     0
 10
0.0
 20
0.0
 30
0.0
  3
_D_1
  1

  0
SOLID
  5
13D
330
13A
100
AcDbEntity
  8
VERMASSUNG
100
AcDbTrace
 10
252.1542310441
 20
93.0473657619
 30
0.0
 11
249.1542310441
 21
93.4973657619
 31
0.0
 12
249.1542310441
 22
92.5973657619
 32
0.0
 13
249.1542310441
 23
92.5973657619
 33
0.0
  0
SOLID
  5
13E
330
13A
100
AcDbEntity
  8
VERMASSUNG
100
AcDbTrace
 10
187.1542310441
 20
93.0473657619
 30
0.0
 11
190.1542310441
 21
92.5973657619
 31
0.0
 12
190.1542310441
 22
93.4973657619
 32
0.0
 13
190.1542310441
 23
93.4973657619
 33
0.0
  0
LINE
  5
13F
330
13A
100
AcDbEntity
  8
VERMASSUNG
100
AcDbLine
 10
252.1542310441
 20
109.2122339108
 30
0.0
 11
252.1542310441
 21
92.0473657619
 31
0.0
  0
LINE
  5
140
330
13A
100
AcDbEntity
  8
VERMASSUNG
100
AcDbLine
 10
187.1542310441
 20
123.2122339108
 30
0.0
 11
187.1542310441
 21
92.0473657619
 31
0.0
  0
LINE
  5
141
330
13A
100
AcDbEntity
  8
VERMASSUNG
100
AcDbLine
 10
252.1542310441
 20
93.0473657619
 30
0.0
 11
187.1542310441
 21
93.0473657619
 31
0.0
  0
MTEXT
  5
142
330
13A
100
AcDbEntity
  8
VERMASSUNG
100
AcDbMText
 10
216.004230958
 20
95.6255013578
 30
0.0
 40
2.0
 41
0.0
 71
     1
 72
     1
  1
65
  7
SLDTEXTSTYLE0
 73
     1
 44
1.0
  0
MTEXT
  5
143
330
13A
100
AcDbEntity
  8
VERMASSUNG
100
AcDbMText
 10
219.9917308582
 20
95.6255013578
 30
0.0
 40
2.0
 41
0.0
 71
     1
 72
     1
  1

  7
SLDTEXTSTYLE0
 73
     1
 44
1.0
  0
MTEXT
  5
144
330
13A
100
AcDbEntity
  8
VERMASSUNG
100
AcDbMText
 10
220.0042306824
 20
95.1309675242
 30
0.0
 40
1.5
 41
0.0
 71
     1
 72
     1
  1
±0.1
  7
SLDTEXTSTYLE0
 73
     1
 44
1.0
  0
ENDBLK
  5
13C
330
13A
100
AcDbEntity
  8
0
100
AcDbBlockEnd
  0
BLOCK
  5
148
330
147
100
AcDbEntity
  8
0
100
AcDbBlockBegin
  2
_D_2
 70
     0
 10
0.0
 20
0.0
 30
0.0
  3
_D_2
  1

  0
SOLID
  5
14A
330
147
100
AcDbEntity
  8
VERMASSUNG
100
AcDbTrace
 10
252.1542310441
 20
84.3582879907
 30
0.0
 11
249.1542310441
 21
84.8082879907
 31
0.0
 12
249.1542310441
 22
83.9082879907
 32
0.0
 13
249.1542310441
 23
83.9082879907
 33
0.0
  0
SOLID
  5
14B
330
147
100
AcDbEntity
  8
VERMASSUNG
100
AcDbTrace
 10
149.1542310441
 20
84.3582879907
 30
0.0
 11
152.1542310441
 21
83.9082879907
 31
0.0
 12
152.1542310441
 22
84.8082879907
 32
0.0
 13
152.1542310441
 23
84.8082879907
 33
0.0
  0
LINE
  5
14C
330
147
100
AcDbEntity
  8
VERMASSUNG
100
AcDbLine
 10
252.1542310441
 20
109.2122339108
 30
0.0
 11
252.1542310441
 21
83.3582879907
 31
0.0
  0
LINE
  5
14D
330
147
100
AcDbEntity
  8
VERMASSUNG
100
AcDbLine
 10
149.1542310441
 20
133.9198959183
 30
0.0
 11
149.1542310441
 21
83.3582879907
 31
0.0
  0
LINE
  5
14E
330
147
100
AcDbEntity
  8
VERMASSUNG
100
AcDbLine
 10
252.1542310441
 20
84.3582879907
 30
0.0
 11
149.1542310441
 21
84.3582879907
 31
0.0
  0
MTEXT
  5
14F
330
147
100
AcDbEntity
  8
VERMASSUNG
100
AcDbMText
 10
198.754231012
 20
86.9364235867
 30
0.0
 40
2.0
 41
0.0
 71
     1
 72
     1
  1
103
  7
SLDTEXTSTYLE0
 73
     1
 44
1.0
  0
ENDBLK
  5
149
330
147
100
AcDbEntity
  8
0
100
AcDbBlockEnd
  0
BLOCK
  5
153
330
152
100
AcDbEntity
  8
0
100
AcDbBlockBegin
  2
_D_3
 70
     0
 10
0.0
 20
0.0
 30
0.0
  3
_D_3
  1

  0
ARC
  5
155
330
152
100
AcDbEntity
  8
VERMASSUNG
100
AcDbCircle
 10
252.1542310441
 20
117.8605815178
 30
0.0
 40
17.32483826600665
100
AcDbArc
 50
224.9855550804
 51
270.0
  0
SOLID
  5
156
330
152
100
AcDbEntity
  8
VERMASSUNG
100
AcDbTrace
 10
239.9006323191
 20
105.6131597797
 30
0.0
 11
241.9054441705
 21
103.3364890876
 31
0.0
 12
242.4851846833
 22
104.0248937199
 32
0.0
 13
242.4851846833
 23
104.0248937199
 33
0.0
  0
SOLID
  5
157
330
152
100
AcDbEntity
  8
VERMASSUNG
100
AcDbTrace
 10
252.1542310441
 20
100.5357432518
 30
0.0
 11
249.2037805412
 21
101.2409679183
 31
0.0
 12
249.126717336
 22
100.3442732866
 32
0.0
 13
249.126717336
 23
100.3442732866
 33
0.0
  0
LINE
  5
158
330
152
100
AcDbEntity
  8
VERMASSUNG
100
AcDbLine
 10
243.6194843332
 20
109.3301371364
 30
0.0
 11
239.1933472907
 21
104.9062312907
 31
0.0
  0
LINE
  5
159
330
152
100
AcDbEntity
  8
VERMASSUNG
100
AcDbLine
 10
252.1542310441
 20
109.2122339108
 30
0.0
 11
252.1542310441
 21
99.5357432518
 31
0.0
  0
MTEXT
  5
15A
330
152
100
AcDbEntity
  8
VERMASSUNG
100
AcDbMText
 10
244.5691490439
 20
105.0409960584
 30
0.0
 40
2.0
 41
0.0
 71
     1
 72
     1
  1
45°
  7
SLDTEXTSTYLE0
 11
0.9238312857419068
 21
-0.3827998896087295
 31
0.0
 73
     1
 44
1.0
  0
ENDBLK
  5
154
330
152
100
AcDbEntity
  8
0
100
AcDbBlockEnd
  0
BLOCK
  5
15D
330
15C
100
AcDbEntity
  8
0
100
AcDbBlockBegin
  2
_D_4
 70
     0
 10
0.0
 20
0.0
 30
0.0
  3
_D_4
  1

  0
SOLID
  5
15F
330
15C
100
AcDbEntity
  8
VERMASSUNG
100
AcDbTrace
 10
139.1542310441
 20
122.7122339108
 30
0.0
 11
139.6042310441
 21
125.7122339108
 31
0.0
 12
138.7042310441
 22
125.7122339108
 32
0.0
 13
138.7042310441
 23
125.7122339108
 33
0.0
  0
SOLID
  5
160
330
15C
100
AcDbEntity
  8
VERMASSUNG
100
AcDbTrace
 10
139.1542310441
 20
185.7122339108
 30
0.0
 11
138.7042310441
 21
182.7122339108
 31
0.0
 12
139.6042310441
 22
182.7122339108
 32
0.0
 13
139.6042310441
 23
182.7122339108
 33
0.0
  0
LINE
  5
161
330
15C
100
AcDbEntity
  8
VERMASSUNG
100
AcDbLine
 10
187.6542310441
 20
122.7122339108
 30
0.0
 11
138.1542310441
 21
122.7122339108
 31
0.0
  0
LINE
  5
162
330
15C
100
AcDbEntity
  8
VERMASSUNG
100
AcDbLine
 10
187.6542310441
 20
185.7122339108
 30
0.0
 11
138.1542310441
 21
185.7122339108
 31
0.0
  0
LINE
  5
163
330
15C
100
AcDbEntity
  8
VERMASSUNG
100
AcDbLine
 10
139.1542310441
 20
122.7122339108
 30
0.0
 11
139.1542310441
 21
185.7122339108
 31
0.0
  0
MTEXT
  5
164
330
15C
100
AcDbEntity
  8
VERMASSUNG
100
AcDbMText
 10
136.3760957879
 20
148.7072346011
 30
0.0
 40
2.0
 41
0.0
 71
     1
 72
     1
  1
PSC
  7
SLDTEXTSTYLE0
 11
6.123233995736766E-17
 21
1.0
 31
0.0
 73
     1
 44
1.0
  0
MTEXT
  5
165
330
15C
100
AcDbEntity
  8
VERMASSUNG
100
AcDbMText
 10
136.5760957392
 20
153.3072342375
 30
0.0
 40
2.0
 41
0.0
 71
     1
 72
     1
  1
%%c
  7
SLDTEXTSTYLE0
 11
6.123233995736766E-17
 21
1.0
 31
0.0
 73
     1
 44
1.0
  0
MTEXT
  5
166
330
15C
100
AcDbEntity
  8
VERMASSUNG
100
AcDbMText
 10
136.3760957879
 20
156.9172342518
 30
0.0
 40
2.0
 41
0.0
 71
     1
 72
     1
  1
63
  7
SLDTEXTSTYLE0
 11
6.123233995736766E-17
 21
1.0
 31
0.0
 73
     1
 44
1.0
  0
ENDBLK
  5
15E
330
15C
100
AcDbEntity
  8
0
100
AcDbBlockEnd
  0
BLOCK
  5
1C6
330
1C5
100
AcDbEntity
  8
0
100
AcDbBlockBegin
  2
SW_CENTERMARKSYMBOL_0
 70
     0
 10
0.0
 20
0.0
 30
0.0
  3
SW_CENTERMARKSYMBOL_0
  1

  0
LINE
  5
1C8
330
1C5
100
AcDbEntity
  8
VERMASSUNG
 62
     0
100
AcDbLine
 10
0.0
 20
0.0
 30
0.0
 11
0.0
 21
2.5
 31
0.0
  0
LINE
  5
1C9
330
1C5
100
AcDbEntity
  8
VERMASSUNG
 62
     0
100
AcDbLine
 10
0.0
 20
0.0
 30
0.0
 11
-2.5
 21
0.0
 31
0.0
  0
LINE
  5
1CA
330
1C5
100
AcDbEntity
  8
VERMASSUNG
 62
     0
100
AcDbLine
 10
0.0
 20
0.0
 30
0.0
 11
0.0
 21
-2.5
 31
0.0
  0
LINE
  5
1CB
330
1C5
100
AcDbEntity
  8
VERMASSUNG
 62
     0
100
AcDbLine
 10
0.0
 20
0.0
 30
0.0
 11
2.5
 21
0.0
 31
0.0
  0
LINE
  5
1CC
330
1C5
100
AcDbEntity
  8
VERMASSUNG
 62
     0
100
AcDbLine
 10
0.0
 20
5.0
 30
0.0
 11
0.0
 21
34.5
 31
0.0
  0
LINE
  5
1CD
330
1C5
100
AcDbEntity
  8
VERMASSUNG
 62
     0
100
AcDbLine
 10
-5.0
 20
0.0
 30
0.0
 11
-34.5
 21
0.0
 31
0.0
  0
LINE
  5
1CE
330
1C5
100
AcDbEntity
  8
VERMASSUNG
 62
     0
100
AcDbLine
 10
0.0
 20
-5.0
 30
0.0
 11
0.0
 21
-49.2291468361
 31
0.0
  0
LINE
  5
1CF
330
1C5
100
AcDbEntity
  8
VERMASSUNG
 62
     0
100
AcDbLine
 10
5.0
 20
0.0
 30
0.0
 11
34.5
 21
0.0
 31
0.0
  0
ENDBLK
  5
1C7
330
1C5
100
AcDbEntity
  8
0
100
AcDbBlockEnd
  0
ENDSEC
  0
SECTION
  2
ENTITIES
  0
MTEXT
  5
78
330
1F
100
AcDbEntity
  8
KOPF_DÜNN
100
AcDbMText
 10
13.8892156294
 20
23.8442973028
 30
0.0
 40
3.0
 41
0.0
 71
     1
 72
     1
  1
PS6.PSD.LSA.065
  7
SLDTEXTSTYLE0
 73
     1
 44
1.0
  0
MTEXT
  5
79
330
1F
100
AcDbEntity
  8
VERMASSUNG
100
AcDbMText
 10
13.9329988022
 20
28.8834360957
 30
0.0
 40
3.0
 41
0.0
 71
     1
 72
     1
  1
Klemmhalter links_Turning tool left 90°/45°
  7
SLDTEXTSTYLE0
 73
     1
 44
1.0
  0
MTEXT
  5
7A
330
1F
100
AcDbEntity
  8
VERMASSUNG
100
AcDbMText
 10
98.8601118557
 20
13.8365368761
 30
0.0
 40
2.0
 41
0.0
 71
     1
 72
     1
  1
Datum: 12.02.2018
  7
SLDTEXTSTYLE0
 73
     1
 44
1.0
  0
MTEXT
  5
7C
330
1F
100
AcDbEntity
  8
VERMASSUNG
100
AcDbMText
 10
13.933048693
 20
18.0482802738
 30
0.0
 40
2.0
 41
0.0
 71
     1
 72
     1
  1
PSC Ø63 / SN .. 12 04 ..
  7
SLDTEXTSTYLE1
 73
     1
 44
1.0
  0
MTEXT
  5
7D
330
1F
100
AcDbEntity
  8
VERMASSUNG
100
AcDbMText
 10
13.9808475933
 20
13.9090974274
 30
0.0
 40
2.0
 41
0.0
 71
     1
 72
     1
  1
Gewicht: 1237g
  7
SLDTEXTSTYLE0
 73
     1
 44
1.0
  0
ARC
  5
7E
330
1F
100
AcDbEntity
  8
0
  6
Continuous
 62
     7
370
    25
100
AcDbCircle
 10
208.1542310441
 20
140.5622339108
 30
0.0
 40
2.49999999999999
100
AcDbArc
 50
248.5196745971
 51
338.6286669096
  0
ARC
  5
7F
330
1F
100
AcDbEntity
  8
0
  6
Continuous
 62
     7
370
    25
100
AcDbCircle
 10
208.1542310441
 20
140.5622339108
 30
0.0
 40
2.50000000000003
100
AcDbArc
 50
201.3713330904
 51
248.5196745971
  0
LINE
  5
80
330
1F
100
AcDbEntity
  8
0
  6
Continuous
 62
     7
370
    25
100
AcDbLine
 10
240.9115472638
 20
117.2655949097
 30
0.0
 11
241.1887302978
 21
116.8931000819
 31
0.0
  0
LINE
  5
81
330
1F
100
AcDbEntity
  8
0
  6
Continuous
 62
     7
370
    25
100
AcDbLine
 10
244.7938308886
 20
119.5862991785
 30
0.0
 11
244.2419687787
 21
120.3279238681
 31
0.0
  0
LINE
  5
82
330
1F
100
AcDbEntity
  8
0
  6
Continuous
 62
     7
370
    25
100
AcDbLine
 10
244.1783614674
 20
120.4044848925
 30
0.0
 11
244.1376850645
 21
120.4449601738
 31
0.0
  0
LINE
  5
83
330
1F
100
AcDbEntity
  8
0
  6
Continuous
 62
     7
370
    25
100
AcDbLine
 10
187.6542310441
 20
122.7122339108
 30
0.0
 11
224.3869040561
 21
122.7122339108
 31
0.0
  0
LINE
  5
84
330
1F
100
AcDbEntity
  8
0
  6
Continuous
 62
     7
370
    25
100
AcDbLine
 10
224.3869040561
 20
185.7122339108
 30
0.0
 11
187.6542310441
 21
185.7122339108
 31
0.0
  0
ARC
  5
85
330
1F
100
AcDbEntity
  8
0
  6
Continuous
 62
     7
370
    25
100
AcDbCircle
 10
187.6542310441
 20
123.2122339108
 30
0.0
 40
0.5
100
AcDbArc
 50
180.0
 51
270.0
  0
ARC
  5
86
330
1F
100
AcDbEntity
  8
0
  6
Continuous
 62
     7
370
    25
100
AcDbCircle
 10
187.6542310441
 20
185.2122339108
 30
0.0
 40
0.5
100
AcDbArc
 50
90.0
 51
180.0
  0
LWPOLYLINE
  5
87
330
1F
100
AcDbEntity
  8
0
  6
Continuous
 62
     7
370
    25
100
AcDbPolyline
 90
        3
 70
   128
 43
0.0
 10
186.9542310441
 20
131.672413632
 10
187.0796859876
 20
131.604111517
 10
187.1542310441
 20
131.5513737589
  0
LWPOLYLINE
  5
88
330
1F
100
AcDbEntity
  8
0
  6
Continuous
 62
     7
370
    25
100
AcDbPolyline
 90
        3
 70
   128
 43
0.0
 10
187.1542310441
 20
176.8730940628
 10
187.0796859876
 20
176.8203563047
 10
186.9542310441
 20
176.7520541897
  0
ARC
  5
89
330
1F
100
AcDbEntity
  8
0
  6
Continuous
 62
     7
370
    25
100
AcDbCircle
 10
224.3869040561
 20
121.7122339108
 30
0.0
 40
1.0
100
AcDbArc
 50
15.0
 51
90.0
  0
ARC
  5
8A
330
1F
100
AcDbEntity
  8
0
  6
Continuous
 62
     7
370
    25
100
AcDbCircle
 10
224.3869040561
 20
186.7122339108
 30
0.0
 40
1.000000000000008
100
AcDbArc
 50
270.0
 51
330.0
  0
LINE
  5
8B
330
1F
100
AcDbEntity
  8
0
  6
Continuous
 62
     7
370
    25
100
AcDbLine
 10
226.1328569039
 20
186.2122339108
 30
0.0
 11
225.2529294599
 21
186.2122339108
 31
0.0
  0
LINE
  5
8C
330
1F
100
AcDbEntity
  8
0
  6
Continuous
 62
     7
370
    25
100
AcDbLine
 10
225.3528298824
 20
121.9710529559
 30
0.0
 11
228.5729463036
 21
109.9534148657
 31
0.0
  0
ARC
  5
8D
330
1F
100
AcDbEntity
  8
0
  6
Continuous
 62
     7
370
    25
100
AcDbCircle
 10
229.5388721299
 20
110.2122339108
 30
0.0
 40
1.000000000000016
100
AcDbArc
 50
195.0
 51
200.7006092142
  0
LWPOLYLINE
  5
8E
330
1F
100
AcDbEntity
  8
0
  6
Continuous
 62
     7
370
    25
100
AcDbPolyline
 90
       16
 70
   128
 43
0.0
 10
211.1446181965
 20
138.7244154589
 10
211.0931728426
 20
138.4107304796
 10
210.8854897145
 20
137.857445766
 10
210.540849872
 20
137.3580554179
 10
210.0765349958
 20
136.9376009526
 10
209.5158277726
 20
136.6171657128
 10
208.8868444039
 20
136.4128176593
 10
208.2211247422
 20
136.3348036567
 10
207.5520507512
 20
136.3870356531
 10
206.9131725946
 20
136.5668945179
 10
206.3365262908
 20
136.8653613767
 10
205.8510272934
 20
137.2674698548
 10
205.4810205494
 20
137.7530565542
 10
205.245059742
 20
138.2977721301
 10
205.1549769313
 20
138.8743022689
 10
205.1542310441
 20
138.9322339108
  0
LWPOLYLINE
  5
8F
330
1F
100
AcDbEntity
  8
0
  6
Continuous
 62
     7
370
    25
100
AcDbPolyline
 90
       19
 70
   128
 43
0.0
 10
210.8942677114
 20
139.5720573369
 10
210.9493230017
 20
139.3869202087
 10
211.0137008416
 20
138.8145436847
 10
210.9239239246
 20
138.2447381531
 10
210.6848321474
 20
137.7082219777
 10
210.3093150098
 20
137.2339188843
 10
209.8176167377
 20
136.8473986755
 10
209.2362449124
 20
136.5694987557
 10
208.5965414393
 20
136.4152007816
 10
207.9329928983
 20
136.3928229968
 10
207.2813713631
 20
136.5035717937
 10
206.6768059191
 20
136.7414766757
 10
206.1518888461
 20
137.0937121293
 10
205.7349185593
 20
137.5412890499
 10
205.4483740347
 20
138.0600784498
 10
205.3077029619
 20
138.6221122583
 10
205.3204889548
 20
139.1970910872
 10
205.4860427172
 20
139.7540176791
 10
205.4902081835
 20
139.7633091845
  0
LWPOLYLINE
  5
90
330
1F
100
AcDbEntity
  8
0
  6
Continuous
 62
     7
370
    25
100
AcDbPolyline
 90
       27
 70
   128
 43
0.0
 10
209.1884464187
 20
140.8333500716
 10
209.703088152
 20
140.5617283193
 10
210.1277159402
 20
140.1913381293
 10
210.4376519595
 20
139.7437052333
 10
210.614883855
 20
139.2448444281
 10
210.6491115534
 20
138.7237476903
 10
210.538345865
 20
138.2106992683
 10
210.2890240892
 20
137.7355156714
 10
209.9156359012
 20
137.3258128432
 10
209.4398812654
 20
137.0054012228
 10
208.8894093118
 20
136.7929019689
 10
208.2962114697
 20
136.7006647657
 10
207.6947622412
 20
136.7340501043
 10
207.1200156695
 20
136.8911177501
 10
206.6053739361
 20
137.1627395024
 10
206.180746148
 20
137.5331296923
 10
205.8708101287
 20
137.9807625883
 10
205.6935782331
 20
138.4796233936
 10
205.6593505348
 20
139.0007201314
 10
205.7701162231
 20
139.5137685534
 10
206.019437999
 20
139.9889521502
 10
206.392826187
 20
140.3986549784
 10
206.8685808228
 20
140.7190665989
 10
207.4190527763
 20
140.9315658528
 10
208.0122506185
 20
141.0238030559
 10
208.6136998469
 20
140.9904177174
 10
209.1884464187
 20
140.8333500716
  0
LINE
  5
91
330
1F
100
AcDbEntity
  8
0
  6
Continuous
 62
     7
370
    25
100
AcDbLine
 10
243.1472319681
 20
126.6369848075
 30
0.0
 11
234.7305407584
 21
118.224536416
 31
0.0
  0
ARC
  5
92
330
1F
100
AcDbEntity
  8
0
  6
Continuous
 62
     7
370
    25
100
AcDbCircle
 10
243.4299887019
 20
126.3568676845
 30
0.0
 40
0.3980162976131388
100
AcDbArc
 50
45.267297894
 51
135.2686879921
  0
LINE
  5
93
330
1F
100
AcDbEntity
  8
0
  6
Continuous
 62
     7
370
    25
100
AcDbLine
 10
252.0391228063
 20
118.3054954624
 30
0.0
 11
243.7101126851
 21
126.639617622
 31
0.0
  0
ARC
  5
94
330
1F
100
AcDbEntity
  8
0
  6
Continuous
 62
     7
370
    25
100
AcDbCircle
 10
251.7561597185
 20
118.0255143075
 30
0.0
 40
0.3980672759353663
100
AcDbArc
 50
314.7035257987
 51
44.6965053433
  0
LINE
  5
95
330
1F
100
AcDbEntity
  8
0
  6
Continuous
 62
     7
370
    25
100
AcDbLine
 10
243.6194843332
 20
109.3301371364
 30
0.0
 11
252.0361755429
 21
117.7425855279
 31
0.0
  0
ARC
  5
96
330
1F
100
AcDbEntity
  8
0
  6
Continuous
 62
     7
370
    25
100
AcDbCircle
 10
243.3367275994
 20
109.6102542595
 30
0.0
 40
0.398016297613249
100
AcDbArc
 50
225.267297894
 51
315.2686879921
  0
LINE
  5
97
330
1F
100
AcDbEntity
  8
0
  6
Continuous
 62
     7
370
    25
100
AcDbLine
 10
234.7275934949
 20
117.6616264815
 30
0.0
 11
243.0566036162
 21
109.3275043219
 31
0.0
  0
ARC
  5
98
330
1F
100
AcDbEntity
  8
0
  6
Continuous
 62
     7
370
    25
100
AcDbCircle
 10
235.0105565827
 20
117.9416076365
 30
0.0
 40
0.3980672759352462
100
AcDbArc
 50
134.7035257987
 51
224.6965053434
  0
ARC
  5
99
330
1F
100
AcDbEntity
  8
0
  6
Continuous
 62
     7
370
    25
100
AcDbCircle
 10
251.7561621734
 20
118.0253747965
 30
0.0
 40
0.378163912138503
100
AcDbArc
 50
314.7035257987
 51
44.6965053434
  0
LINE
  5
9A
330
1F
100
AcDbEntity
  8
0
  6
Continuous
 62
     7
370
    25
100
AcDbLine
 10
252.0249771068
 20
118.2913568937
 30
0.0
 11
243.6959669856
 21
126.6254790533
 31
0.0
  0
ARC
  5
9B
330
1F
100
AcDbEntity
  8
0
  6
Continuous
 62
     7
370
    25
100
AcDbCircle
 10
243.4298492016
 20
126.3568666126
 30
0.0
 40
0.3781154827325412
100
AcDbArc
 50
45.267297894
 51
135.2686879921
  0
LINE
  5
9C
330
1F
100
AcDbEntity
  8
0
  6
Continuous
 62
     7
370
    25
100
AcDbLine
 10
243.1612303044
 20
126.6229778795
 30
0.0
 11
234.7445390947
 21
118.210529488
 31
0.0
  0
ARC
  5
9D
330
1F
100
AcDbEntity
  8
0
  6
Continuous
 62
     7
370
    25
100
AcDbCircle
 10
235.0105541278
 20
117.9417471474
 30
0.0
 40
0.3781639121385462
100
AcDbArc
 50
134.7035257987
 51
224.6965053434
  0
LINE
  5
9E
330
1F
100
AcDbEntity
  8
0
  6
Continuous
 62
     7
370
    25
100
AcDbLine
 10
234.7417391944
 20
117.6757650502
 30
0.0
 11
243.0707493157
 21
109.3416428906
 31
0.0
  0
ARC
  5
9F
330
1F
100
AcDbEntity
  8
0
  6
Continuous
 62
     7
370
    25
100
AcDbCircle
 10
243.3368670995
 20
109.6102553306
 30
0.0
 40
0.3781154821041975
100
AcDbArc
 50
225.2672978468
 51
315.2686880876
  0
LINE
  5
A0
330
1F
100
AcDbEntity
  8
0
  6
Continuous
 62
     7
370
    25
100
AcDbLine
 10
243.6054859966
 20
109.3441440646
 30
0.0
 11
252.0221772065
 21
117.7565924559
 31
0.0
  0
LINE
  5
A1
330
1F
100
AcDbEntity
  8
0
  6
Continuous
 62
     7
370
    25
100
AcDbLine
 10
234.9887174172
 20
117.9660801846
 30
0.0
 11
234.7417391944
 21
117.6757650502
 31
0.0
  0
LINE
  5
A2
330
1F
100
AcDbEntity
  8
0
  6
Continuous
 62
     7
370
    25
100
AcDbLine
 10
234.9887174172
 20
117.9660801846
 30
0.0
 11
234.7445390947
 21
118.210529488
 31
0.0
  0
LINE
  5
A3
330
1F
100
AcDbEntity
  8
0
  6
Continuous
 62
     7
370
    25
100
AcDbLine
 10
236.751135271
 20
118.0491715535
 30
0.0
 11
234.9887174172
 21
117.9660801846
 31
0.0
  0
LINE
  5
A4
330
1F
100
AcDbEntity
  8
0
  6
Continuous
 62
     7
370
    25
100
AcDbLine
 10
243.4054086268
 20
126.3785285761
 30
0.0
 11
243.1612303044
 21
126.6229778795
 31
0.0
  0
LINE
  5
A5
330
1F
100
AcDbEntity
  8
0
  6
Continuous
 62
     7
370
    25
100
AcDbLine
 10
243.3209206936
 20
124.6156451753
 30
0.0
 11
243.4054086268
 21
126.3785285761
 31
0.0
  0
ARC
  5
A6
330
1F
100
AcDbEntity
  8
0
  6
Continuous
 62
     7
370
    25
100
AcDbCircle
 10
242.9584601542
 20
126.8304423775
 30
0.0
 40
0.3949125520377474
100
AcDbArc
 50
45.0727563619
 51
97.6775359556
  0
LINE
  5
A7
330
1F
100
AcDbEntity
  8
0
  6
Continuous
 62
     7
370
    25
100
AcDbLine
 10
243.2373506763
 20
127.1100420922
 30
0.0
 11
243.7101126851
 21
126.639617622
 31
0.0
  0
LINE
  5
A8
330
1F
100
AcDbEntity
  8
0
  6
Continuous
 62
     7
370
    25
100
AcDbLine
 10
243.4054086268
 20
126.3785285761
 30
0.0
 11
243.6959669856
 21
126.6254790533
 31
0.0
  0
LINE
  5
A9
330
1F
100
AcDbEntity
  8
0
  6
Continuous
 62
     7
370
    25
100
AcDbLine
 10
242.6417445545
 20
109.7403121419
 30
0.0
 11
243.0566036162
 21
109.3275043219
 31
0.0
  0
LINE
  5
AA
330
1F
100
AcDbEntity
  8
0
  6
Continuous
 62
     7
370
    25
100
AcDbLine
 10
234.4157205577
 20
117.9710631323
 30
0.0
 11
237.2644737988
 21
115.1205614318
 31
0.0
  0
LINE
  5
AB
330
1F
100
AcDbEntity
  8
0
  6
Continuous
 62
     7
370
    25
100
AcDbLine
 10
243.2524797918
 20
111.5438367478
 30
0.0
 11
243.3177275384
 21
109.6319580249
 31
0.0
  0
LINE
  5
AC
330
1F
100
AcDbEntity
  8
0
  6
Continuous
 62
     7
370
    25
100
AcDbLine
 10
243.3177275384
 20
109.6319580249
 30
0.0
 11
243.0707493157
 21
109.3416428906
 31
0.0
  0
LINE
  5
AD
330
1F
100
AcDbEntity
  8
0
  6
Continuous
 62
     7
370
    25
100
AcDbLine
 10
251.7344187481
 20
118.0444064164
 30
0.0
 11
252.0249771068
 21
118.2913568937
 31
0.0
  0
LINE
  5
AE
330
1F
100
AcDbEntity
  8
0
  6
Continuous
 62
     7
370
    25
100
AcDbLine
 10
249.8222652145
 20
118.1103103696
 30
0.0
 11
251.7344187481
 21
118.0444064164
 31
0.0
  0
ARC
  5
AF
330
1F
100
AcDbEntity
  8
0
  6
Continuous
 62
     7
370
    25
100
AcDbCircle
 10
240.104700718
 20
117.9612492785
 30
0.0
 40
0.99516818983812
100
AcDbArc
 50
134.7035257987
 51
224.6965053434
  0
ARC
  5
B0
330
1F
100
AcDbEntity
  8
0
  6
Continuous
 62
     7
370
    25
100
AcDbCircle
 10
243.407500978
 20
121.2625649326
 30
0.0
 40
0.9950407440330928
100
AcDbArc
 50
45.267297894
 51
135.2686879921
  0
LINE
  5
B1
330
1F
100
AcDbEntity
  8
0
  6
Continuous
 62
     7
370
    25
100
AcDbLine
 10
242.7006091435
 20
121.9628577403
 30
0.0
 11
239.4046611572
 21
118.6685712274
 31
0.0
  0
LINE
  5
B2
330
1F
100
AcDbEntity
  8
0
  6
Continuous
 62
     7
370
    25
100
AcDbLine
 10
247.3694233028
 20
118.7058255528
 30
0.0
 11
244.107810936
 21
121.9694397766
 31
0.0
  0
ARC
  5
B3
330
1F
100
AcDbEntity
  8
0
  6
Continuous
 62
     7
370
    25
100
AcDbCircle
 10
246.6620155833
 20
118.0058726654
 30
0.0
 40
0.99516818983809
100
AcDbArc
 50
314.7035257987
 51
44.6965053434
  0
LINE
  5
B4
330
1F
100
AcDbEntity
  8
0
  6
Continuous
 62
     7
370
    25
100
AcDbLine
 10
244.0661071578
 20
114.0042642035
 30
0.0
 11
247.3620551441
 21
117.2985507165
 31
0.0
  0
ARC
  5
B5
330
1F
100
AcDbEntity
  8
0
  6
Continuous
 62
     7
370
    25
100
AcDbCircle
 10
243.359215323
 20
114.7045570107
 30
0.0
 40
0.9950407437739527
100
AcDbArc
 50
225.2672978777
 51
315.2686880241
  0
LINE
  5
B6
330
1F
100
AcDbEntity
  8
0
  6
Continuous
 62
     7
370
    25
100
AcDbLine
 10
239.3972929985
 20
117.2612963911
 30
0.0
 11
242.6589053651
 21
113.9976821671
 31
0.0
  0
CIRCLE
  5
B7
330
1F
100
AcDbEntity
  8
0
  6
Continuous
 62
     7
370
    25
100
AcDbCircle
 10
243.3729890822
 20
117.9675811062
 30
0.0
 40
2.561372378172917
  0
ARC
  5
B8
330
1F
100
AcDbEntity
  8
0
  6
Continuous
 62
     7
370
    25
100
AcDbCircle
 10
242.8942129354
 20
118.4702876428
 30
0.0
 40
2.582657880609207
100
AcDbArc
 50
233.0780082084
 51
37.2059882853
  0
SPLINE
  5
B9
330
1F
100
AcDbEntity
  8
0
  6
Continuous
 62
     7
370
    25
100
AcDbSpline
210
0.0
220
0.0
230
1.0
 70
     8
 71
     3
 72
    11
 73
     7
 74
     0
 42
0.000000001
 43
0.00000001
 40
0.0
 40
0.0
 40
0.0
 40
0.0
 40
0.0079305662173021
 40
0.3127032304055316
 40
0.6558289395553427
 40
1.0
 40
1.0
 40
1.0
 40
1.0
 10
237.4478927339531
 20
118.0463138664865
 30
0.0
 10
237.4461599827059
 20
118.0463997183971
 30
0.0
 10
237.3778373815633
 20
118.0497848701058
 30
0.0
 10
237.2261229760232
 20
118.055023530923
 30
0.0
 10
236.9825732025007
 20
118.0571606697362
 30
0.0
 10
236.8283594325104
 20
118.0518372911384
 30
0.0
 10
236.7511352709825
 20
118.0491715535149
 30
0.0
  0
SPLINE
  5
BA
330
1F
100
AcDbEntity
  8
0
  6
Continuous
 62
     7
370
    25
100
AcDbSpline
210
0.0
220
0.0
230
1.0
 70
     8
 71
     3
 72
    11
 73
     7
 74
     0
 42
0.000000001
 43
0.00000001
 40
0.0
 40
0.0
 40
0.0
 40
0.0
 40
0.344171060444634
 40
0.6872967695943965
 40
0.9920694337825691
 40
1.0
 40
1.0
 40
1.0
 40
1.0
 10
243.3209206936301
 20
124.6156451753429
 30
0.0
 10
243.3181991299443
 20
124.5384054880518
 30
0.0
 10
243.3127642687822
 20
124.3841607136915
 30
0.0
 10
243.3147833850232
 20
124.1406146721707
 30
0.0
 10
243.3199700343665
 20
123.988922119175
 30
0.0
 10
243.3233374109894
 20
123.9206144865978
 30
0.0
 10
243.3234228121005
 20
123.9188821149731
 30
0.0
  0
LINE
  5
BB
330
1F
100
AcDbEntity
  8
0
  6
Continuous
 62
     7
370
    25
100
AcDbLine
 10
251.7344187481
 20
118.0444064164
 30
0.0
 11
252.0221772065
 21
117.7565924559
 31
0.0
  0
LINE
  5
BC
330
1F
100
AcDbEntity
  8
0
  6
Continuous
 62
     7
370
    25
100
AcDbLine
 10
243.3177275384
 20
109.6319580249
 30
0.0
 11
243.6054859966
 21
109.3441440646
 31
0.0
  0
SPLINE
  5
BD
330
1F
100
AcDbEntity
  8
0
  6
Continuous
 62
     7
370
    25
100
AcDbSpline
210
0.0
220
0.0
230
1.0
 70
     8
 71
     3
 72
    14
 73
    10
 74
     0
 42
0.000000001
 43
0.00000001
 40
0.0
 40
0.0
 40
0.0
 40
0.0
 40
0.0079076435816377
 40
0.1589409773736382
 40
0.3124106599274737
 40
0.4819804447792176
 40
0.6555576736910484
 40
0.8252779581719895
 40
1.0
 40
1.0
 40
1.0
 40
1.0
 10
243.2622143324958
 20
112.2284236523697
 30
0.0
 10
243.2621117764525
 20
112.2268783298927
 30
0.0
 10
243.2600504344619
 20
112.1958178676552
 30
0.0
 10
243.2564141810445
 20
112.1317939936188
 30
0.0
 10
243.2521880517546
 20
112.0279413847803
 30
0.0
 10
243.249312051601
 20
111.9131777668715
 30
0.0
 10
243.2482406933251
 20
111.7907125218415
 30
0.0
 10
243.2490158532696
 20
111.6654111982554
 30
0.0
 10
243.2513140215037
 20
111.5847519906957
 30
0.0
 10
243.2524797918392
 20
111.5438367478216
 30
0.0
  0
SPLINE
  5
BE
330
1F
100
AcDbEntity
  8
0
  6
Continuous
 62
     7
370
    25
100
AcDbSpline
210
0.0
220
0.0
230
1.0
 70
     8
 71
     3
 72
    19
 73
    15
 74
     0
 42
0.000000001
 43
0.00000001
 40
0.0
 40
0.0
 40
0.0
 40
0.0
 40
0.0845162381881556
 40
0.1696774300683588
 40
0.2567893739569375
 40
0.3445367275459753
 40
0.4290373436978809
 40
0.51405717557522
 40
0.6006334786725102
 40
0.6877153837248411
 40
0.7630578547208824
 40
0.9152106641645745
 40
0.9920974941879186
 40
1.0
 40
1.0
 40
1.0
 40
1.0
 10
249.8222652144871
 20
118.1103103696497
 30
0.0
 10
249.8026351416051
 20
118.110933330307
 30
0.0
 10
249.7632251963678
 20
118.1121840055102
 30
0.0
 10
249.7021020055852
 20
118.1134263292686
 30
0.0
 10
249.6397118008859
 20
118.1141973691247
 30
0.0
 10
249.5773000516818
 20
118.114434533446
 30
0.0
 10
249.5156825483353
 20
118.1141750823991
 30
0.0
 10
249.4549849779349
 20
118.1134431248814
 30
0.0
 10
249.3946802909547
 20
118.112236946644
 30
0.0
 10
249.3379194537106
 20
118.1106379920927
 30
0.0
 10
249.2680970917965
 20
118.1081237308755
 30
0.0
 10
249.2033835599124
 20
118.1050392175255
 30
0.0
 10
249.1558637335428
 20
118.1021786990406
 30
0.0
 10
249.1392891858033
 20
118.1010930821403
 30
0.0
 10
249.1377444106432
 20
118.1009919008564
 30
0.0
  0
CIRCLE
  5
BF
330
1F
100
AcDbEntity
  8
0
  6
Continuous
 62
     7
370
    25
100
AcDbCircle
 10
232.3728909552
 20
124.3244026537
 30
0.0
 40
3.490342238472995
  0
CIRCLE
  5
C0
330
1F
100
AcDbEntity
  8
0
  6
Continuous
 62
     7
370
    25
100
AcDbCircle
 10
232.379487591
 20
124.3146682826
 30
0.0
 40
1.993703833112871
  0
SPLINE
  5
C1
330
1F
100
AcDbEntity
  8
0
  6
Continuous
 62
     7
370
    25
100
AcDbSpline
210
0.0
220
0.0
230
1.0
 70
     8
 71
     3
 72
    11
 73
     7
 74
     0
 42
0.000000001
 43
0.00000001
 40
0.0
 40
0.0
 40
0.0
 40
0.0
 40
0.1081100880371264
 40
0.4711580666043604
 40
0.8135808430836201
 40
1.0
 40
1.0
 40
1.0
 40
1.0
 10
231.809412111268
 20
125.9559739531833
 30
0.0
 10
231.7681022489705
 20
125.9146552080242
 30
0.0
 10
231.5880684037934
 20
125.7345826501607
 30
0.0
 10
231.2557034856023
 20
125.3814345424169
 30
0.0
 10
230.9081499775272
 20
124.9633126044215
 30
0.0
 10
230.7317574587061
 20
124.7330865502134
 30
0.0
 10
230.669578303521
 20
124.6519308320008
 30
0.0
  0
SPLINE
  5
C2
330
1F
100
AcDbEntity
  8
0
  6
Continuous
 62
     7
370
    25
100
AcDbSpline
210
0.0
220
0.0
230
1.0
 70
     8
 71
     3
 72
    13
 73
     9
 74
     0
 42
0.000000001
 43
0.00000001
 40
0.0
 40
0.0
 40
0.0
 40
0.0
 40
0.2161241182544817
 40
0.4396369202065112
 40
0.5932538221761703
 40
0.7520048557756863
 40
0.8754343578245684
 40
1.0
 40
1.0
 40
1.0
 40
1.0
 10
230.669578303521
 20
124.6519308320008
 30
0.0
 10
230.7018140508875
 20
124.545826733048
 30
0.0
 10
230.7673875963447
 20
124.3299911305172
 30
0.0
 10
230.8727144586307
 20
124.0038669716118
 30
0.0
 10
230.9763199295926
 20
123.6982119152482
 30
0.0
 10
231.0636496438982
 20
123.4500917303057
 30
0.0
 10
231.1452596524324
 20
123.2240961152008
 30
0.0
 10
231.1944847633733
 20
123.0908240941421
 30
0.0
 10
231.2192100763415
 20
123.0238828040652
 30
0.0
  0
SPLINE
  5
C3
330
1F
100
AcDbEntity
  8
0
  6
Continuous
 62
     7
370
    25
100
AcDbSpline
210
0.0
220
0.0
230
1.0
 70
     8
 71
     3
 72
    13
 73
     9
 74
     0
 42
0.000000001
 43
0.00000001
 40
0.0
 40
0.0
 40
0.0
 40
0.0
 40
0.216124118254484
 40
0.4396369202065148
 40
0.5932538221761685
 40
0.7520048557756818
 40
0.8754343578245659
 40
0.9999999999999999
 40
0.9999999999999999
 40
0.9999999999999999
 40
0.9999999999999999
 10
231.2192100763415
 20
123.0238828040652
 30
0.0
 10
231.3294928832545
 20
123.0070695564966
 30
0.0
 10
231.5538287601321
 20
122.9728682630944
 30
0.0
 10
231.8924901189643
 20
122.9136937621897
 30
0.0
 10
232.2096554987877
 20
122.852364964811
 30
0.0
 10
232.4669610085295
 20
122.7987080124025
 30
0.0
 10
232.7012214336008
 20
122.7473542830513
 30
0.0
 10
232.8393133689502
 20
122.7157516196512
 30
0.0
 10
232.9086756569089
 20
122.6998778973121
 30
0.0
  0
SPLINE
  5
C4
330
1F
100
AcDbEntity
  8
0
  6
Continuous
 62
     7
370
    25
100
AcDbSpline
210
0.0
220
0.0
230
1.0
 70
     8
 71
     3
 72
    11
 73
     7
 74
     0
 42
0.000000001
 43
0.00000001
 40
0.0
 40
0.0
 40
0.0
 40
0.0
 40
0.1864191569163784
 40
0.5288419333956421
 40
0.8918899119628726
 40
0.9999999999999999
 40
0.9999999999999999
 40
0.9999999999999999
 40
0.9999999999999999
 10
232.9086756569089
 20
122.6998778973121
 30
0.0
 10
232.970854812094
 20
122.7810336155247
 30
0.0
 10
233.1472473309151
 20
123.0112596697328
 30
0.0
 10
233.4948008389903
 20
123.4293816077281
 30
0.0
 10
233.8271657571813
 20
123.782529715472
 30
0.0
 10
234.0071996023584
 20
123.9626022733354
 30
0.0
 10
234.0485094646559
 20
124.0039210184946
 30
0.0
  0
SPLINE
  5
C5
330
1F
100
AcDbEntity
  8
0
  6
Continuous
 62
     7
370
    25
100
AcDbSpline
210
0.0
220
0.0
230
1.0
 70
     8
 71
     3
 72
    13
 73
     9
 74
     0
 42
0.000000001
 43
0.00000001
 40
0.0
 40
0.0
 40
0.0
 40
0.0
 40
0.2161241182544791
 40
0.4396369202065127
 40
0.5932538221761702
 40
0.7520048557756874
 40
0.875434357824569
 40
1.0
 40
1.0
 40
1.0
 40
1.0
 10
234.0485094646559
 20
124.0039210184946
 30
0.0
 10
234.0054760922429
 20
124.1207693543922
 30
0.0
 10
233.9179381558638
 20
124.3584607464506
 30
0.0
 10
233.7982356285577
 20
124.6988894909061
 30
0.0
 10
233.6958824579822
 20
125.003298438795
 30
0.0
 10
233.6192863488086
 20
125.2407380901651
 30
0.0
 10
233.5536792481595
 20
125.4508099226434
 30
0.0
 10
233.5172005838437
 20
125.5713985209905
 30
0.0
 10
233.4988776918354
 20
125.6319690464301
 30
0.0
  0
SPLINE
  5
C6
330
1F
100
AcDbEntity
  8
0
  6
Continuous
 62
     7
370
    25
100
AcDbSpline
210
0.0
220
0.0
230
1.0
 70
     8
 71
     3
 72
    13
 73
     9
 74
     0
 42
0.000000001
 43
0.00000001
 40
0.0
 40
0.0
 40
0.0
 40
0.0
 40
0.2161241182544861
 40
0.4396369202065206
 40
0.5932538221761742
 40
0.7520048557756954
 40
0.8754343578245726
 40
1.0
 40
1.0
 40
1.0
 40
1.0
 10
233.4988776918354
 20
125.6319690464301
 30
0.0
 10
233.3777972598758
 20
125.6595265309436
 30
0.0
 10
233.1314969920764
 20
125.7155836138733
 30
0.0
 10
232.7784599682241
 20
125.7890627003282
 30
0.0
 10
232.462546888787
 20
125.8491453892322
 30
0.0
 10
232.2159749841773
 20
125.8921218080683
 30
0.0
 10
231.9977174669911
 20
125.9275517547929
 30
0.0
 10
231.8723719782668
 20
125.9464709954814
 30
0.0
 10
231.809412111268
 20
125.9559739531833
 30
0.0
  0
LINE
  5
C7
330
1F
100
AcDbEntity
  8
0
  6
Continuous
 62
     7
370
    25
100
AcDbLine
 10
233.6778431124
 20
124.3727546369
 30
0.0
 11
234.0485094647
 21
124.0039210185
 31
0.0
  0
LINE
  5
C8
330
1F
100
AcDbEntity
  8
0
  6
Continuous
 62
     7
370
    25
100
AcDbLine
 10
233.6778431124
 20
124.3727546369
 30
0.0
 11
233.403027226
 21
125.1867786509
 31
0.0
  0
LINE
  5
C9
330
1F
100
AcDbEntity
  8
0
  6
Continuous
 62
     7
370
    25
100
AcDbLine
 10
233.403027226
 20
125.1867786509
 30
0.0
 11
233.2325693609
 21
125.6916868546
 31
0.0
  0
LINE
  5
CA
330
1F
100
AcDbEntity
  8
0
  6
Continuous
 62
     7
370
    25
100
AcDbLine
 10
231.1022136948
 20
123.3440677159
 30
0.0
 11
231.6932765144
 21
123.2307139691
 31
0.0
  0
LINE
  5
CB
330
1F
100
AcDbEntity
  8
0
  6
Continuous
 62
     7
370
    25
100
AcDbLine
 10
231.6932765144
 20
123.2307139691
 30
0.0
 11
232.5380093047
 21
123.0687115157
 31
0.0
  0
LINE
  5
CC
330
1F
100
AcDbEntity
  8
0
  6
Continuous
 62
     7
370
    25
100
AcDbLine
 10
232.5380093047
 20
123.0687115157
 30
0.0
 11
232.9086756569
 21
122.6998778973
 31
0.0
  0
LINE
  5
CD
330
1F
100
AcDbEntity
  8
0
  6
Continuous
 62
     7
370
    25
100
AcDbLine
 10
232.5380093047
 20
123.0687115157
 30
0.0
 11
233.1079262085
 21
123.7207330763
 31
0.0
  0
LINE
  5
CE
330
1F
100
AcDbEntity
  8
0
  6
Continuous
 62
     7
370
    25
100
AcDbLine
 10
233.1079262085
 20
123.7207330763
 30
0.0
 11
233.6778431124
 21
124.3727546369
 31
0.0
  0
ARC
  5
CF
330
1F
100
AcDbEntity
  8
0
  6
Continuous
 62
     7
370
    25
100
AcDbCircle
 10
231.9702291805
 20
124.6794089326
 30
0.0
 40
1.474930465049932
100
AcDbArc
 50
228.707823272
 51
259.1771308625
  0
ARC
  5
D0
330
1F
100
AcDbEntity
  8
0
  6
Continuous
 62
     7
370
    25
100
AcDbCircle
 10
232.0072086966
 20
124.7160183357
 30
0.0
 40
1.473066407688238
100
AcDbArc
 50
18.637434723
 51
44.9542391139
  0
ARC
  5
D1
330
1F
100
AcDbEntity
  8
0
  6
Continuous
 62
     7
370
    25
100
AcDbCircle
 10
231.9803410323
 20
124.7104285377
 30
0.0
 40
1.500315112280446
100
AcDbArc
 50
318.7261746188
 51
18.511805285
  0
ARC
  5
D2
330
1F
100
AcDbEntity
  8
0
  6
Continuous
 62
     7
370
    25
100
AcDbCircle
 10
231.973322901
 20
124.7092455109
 30
0.0
 40
1.504819423963224
100
AcDbArc
 50
259.2747481457
 51
318.9362984597
  0
LINE
  5
D3
330
1F
100
AcDbEntity
  8
0
  6
Continuous
 62
     7
370
    25
100
AcDbLine
 10
244.2959389269
 20
120.1839403322
 30
0.0
 11
244.5015585682
 21
119.9076165912
 31
0.0
  0
LINE
  5
D4
330
1F
100
AcDbEntity
  8
0
  6
Continuous
 62
     7
370
    25
100
AcDbLine
 10
244.5015585682
 20
119.9076165912
 30
0.0
 11
243.6899479162
 21
120.373837719
 31
0.0
  0
LINE
  5
D5
330
1F
100
AcDbEntity
  8
0
  6
Continuous
 62
     7
370
    25
100
AcDbLine
 10
243.6899479162
 20
120.373837719
 30
0.0
 11
243.5615555567
 21
120.5463789065
 31
0.0
  0
ELLIPSE
  5
D6
330
1F
100
AcDbEntity
  8
0
  6
Continuous
 62
     7
370
    25
100
AcDbEllipse
 10
242.9912805932
 20
118.2396996302
 30
0.0
 11
1.647968403595286
 21
1.532235296726555
 31
0.0
210
0.0
220
0.0
230
1.0
 40
0.9912898008
 41
3.650700966171387
 42
6.369871859042821
  0
ELLIPSE
  5
D7
330
1F
100
AcDbEntity
  8
0
  6
Continuous
 62
     7
370
    25
100
AcDbEllipse
 10
242.9912805932
 20
118.2396996302
 30
0.0
 11
1.647968403595286
 21
1.532235296726555
 31
0.0
210
0.0
220
0.0
230
1.0
 40
0.9912898008
 41
0.5091083125816059
 42
0.9368557517717455
  0
ELLIPSE
  5
D8
330
1F
100
AcDbEntity
  8
0
  6
Continuous
 62
     7
370
    25
100
AcDbEllipse
 10
242.9912805932
 20
118.2396996302
 30
0.0
 11
1.647968403595286
 21
1.532235296726555
 31
0.0
210
0.0
220
0.0
230
1.0
 40
0.9912898008
 41
2.688098262941836
 42
3.228279205453054
  0
LINE
  5
D9
330
1F
100
AcDbEntity
  8
0
  6
Continuous
 62
     7
370
    25
100
AcDbLine
 10
241.4810026181
 20
116.5717826693
 30
0.0
 11
242.2926132702
 21
116.1055615414
 31
0.0
  0
SPLINE
  5
DA
330
1F
100
AcDbEntity
  8
0
  6
Continuous
 62
     7
370
    25
100
AcDbSpline
210
0.0
220
0.0
230
1.0
 70
     8
 71
     3
 72
    18
 73
    14
 74
     0
 42
0.000000001
 43
0.00000001
 40
0.0
 40
0.0
 40
0.0
 40
0.0
 40
0.0344016437281097
 40
0.072506014597161
 40
0.2033357694079987
 40
0.3341568151447736
 40
0.4378297645014259
 40
0.5415453169963987
 40
0.6006512542058674
 40
0.6597321040092301
 40
0.7780248455590757
 40
0.8890105980194267
 40
1.0
 40
1.0
 40
1.0
 40
1.0
 10
244.2408169611643
 20
120.3270772974539
 30
0.0
 10
244.2306297820773
 20
120.3413271968482
 30
0.0
 10
244.2091589546531
 20
120.3713607447118
 30
0.0
 10
244.1729469823208
 20
120.4108243280738
 30
0.0
 10
244.1415456322487
 20
120.4380359073371
 30
0.0
 10
244.1363156467601
 20
120.4286926981129
 30
0.0
 10
244.1457021314864
 20
120.405001980749
 30
0.0
 10
244.1605845606417
 20
120.3785116703158
 30
0.0
 10
244.1764038746101
 20
120.3531240121202
 30
0.0
 10
244.1955332793242
 20
120.3238783413085
 30
0.0
 10
244.2223890021015
 20
120.2848926357821
 30
0.0
 10
244.2578208332708
 20
120.2354486520725
 30
0.0
 10
244.2832327564026
 20
120.2011099603271
 30
0.0
 10
244.2959389268688
 20
120.1839403321711
 30
0.0
  0
SPLINE
  5
DB
330
1F
100
AcDbEntity
  8
0
  6
Continuous
 62
     7
370
    25
100
AcDbSpline
210
0.0
220
0.0
230
1.0
 70
     8
 71
     3
 72
     9
 73
     5
 74
     0
 42
0.000000001
 43
0.00000001
 40
0.0
 40
0.0
 40
0.0
 40
0.0
 40
0.7788470004731919
 40
1.0
 40
1.0
 40
1.0
 40
1.0
 10
241.0250546792994
 20
117.0736828740711
 30
0.0
 10
241.0412997043261
 20
117.063260581205
 30
0.0
 10
241.062157491564
 20
117.0498788863923
 30
0.0
 10
241.0783028504384
 20
117.0390872045565
 30
0.0
 10
241.0818734449819
 20
117.0367005917486
 30
0.0
  0
LWPOLYLINE
  5
DC
330
1F
100
AcDbEntity
  8
0
  6
Continuous
 62
     7
370
    25
100
AcDbPolyline
 90
        3
 70
   128
 43
0.0
 10
242.185442006
 20
116.167124937
 10
241.5604325249
 20
116.2836260341
 10
241.476004767
 20
116.3107531288
  0
LWPOLYLINE
  5
DD
330
1F
100
AcDbEntity
  8
0
  6
Continuous
 62
     7
370
    25
100
AcDbPolyline
 90
        3
 70
   128
 43
0.0
 10
244.8725061488
 20
120.0895377188
 10
244.9618598357
 20
119.7978048675
 10
245.0425328173
 20
119.1598551637
  0
LINE
  5
DE
330
1F
100
AcDbEntity
  8
0
  6
Continuous
 62
     7
370
    25
100
AcDbLine
 10
244.7518566658
 20
116.8691916783
 30
0.0
 11
244.8408997792
 21
116.7805888323
 31
0.0
  0
LINE
  5
DF
330
1F
100
AcDbEntity
  8
0
  6
Continuous
 62
     7
370
    25
100
AcDbLine
 10
234.4931770975
 20
117.8935590525
 30
0.0
 11
234.5287240604
 21
117.8564004018
 31
0.0
  0
LINE
  5
E0
330
1F
100
AcDbEntity
  8
0
  6
Continuous
 62
     7
370
    25
100
AcDbLine
 10
234.8147649397
 20
117.5717738316
 30
0.0
 11
237.2644737989
 21
115.1205614317
 31
0.0
  0
LINE
  5
E1
330
1F
100
AcDbEntity
  8
0
  6
Continuous
 62
     7
370
    25
100
AcDbLine
 10
234.5287240604
 20
117.8564004018
 30
0.0
 11
236.9784329197
 21
115.4051880018
 31
0.0
  0
ELLIPSE
  5
E2
330
1F
100
AcDbEntity
  8
0
  6
Continuous
 62
     7
370
    25
100
AcDbEllipse
 10
220.9112445925
 20
154.2122339108
 30
0.0
 11
0.9023734997072951
 21
31.49908256339234
 31
0.0
210
0.0
220
0.0
230
1.0
 40
0.2664212198
 41
0.4490688577338602
 42
2.90675569773047
  0
ELLIPSE
  5
E3
330
1F
100
AcDbEntity
  8
0
  6
Continuous
 62
     7
370
    25
100
AcDbEllipse
 10
216.7502730271
 20
137.8638709635
 30
0.0
 11
-0.2371374472745629
 21
3.343481664962753
 31
0.0
210
0.0
220
0.0
230
1.0
 40
0.217817511
 41
0.0
 42
6.283185307179586
  0
SPLINE
  5
E4
330
1F
100
AcDbEntity
  8
0
  6
Continuous
 62
     7
370
    25
100
AcDbSpline
210
0.0
220
0.0
230
1.0
 70
    11
 71
     3
 72
    68
 73
    64
 74
     0
 42
0.000000001
 43
0.00000001
 40
0.0
 40
0.0
 40
0.0
 40
0.0
 40
0.03125
 40
0.03125
 40
0.0625
 40
0.0625
 40
0.09375
 40
0.09375
 40
0.125
 40
0.125
 40
0.15625
 40
0.15625
 40
0.1875000000000001
 40
0.1875000000000001
 40
0.2187500000000001
 40
0.2187500000000001
 40
0.2500000000000001
 40
0.2500000000000001
 40
0.2812500000000001
 40
0.2812500000000001
 40
0.3125000000000001
 40
0.3125000000000001
 40
0.3437500000000001
 40
0.3437500000000001
 40
0.3750000000000001
 40
0.3750000000000001
 40
0.4062500000000001
 40
0.4062500000000001
 40
0.4375000000000001
 40
0.4375000000000001
 40
0.4687500000000001
 40
0.4687500000000001
 40
0.5000000000000001
 40
0.5000000000000001
 40
0.5312500000000001
 40
0.5312500000000001
 40
0.5625000000000001
 40
0.5625000000000001
 40
0.5937500000000001
 40
0.5937500000000001
 40
0.6250000000000001
 40
0.6250000000000001
 40
0.6562500000000001
 40
0.6562500000000001
 40
0.6875000000000001
 40
0.6875000000000001
 40
0.7187500000000001
 40
0.7187500000000001
 40
0.7500000000000002
 40
0.7500000000000002
 40
0.7812500000000002
 40
0.7812500000000002
 40
0.8125000000000002
 40
0.8125000000000002
 40
0.8437500000000002
 40
0.8437500000000002
 40
0.8750000000000002
 40
0.8750000000000002
 40
0.9062500000000002
 40
0.9062500000000002
 40
0.9375000000000002
 40
0.9375000000000002
 40
1.0
 40
1.0
 40
1.0
 40
1.0
 10
205.1542310440778
 20
138.4622339108323
 30
0.0
 10
205.1542310440778
 20
138.290488319769
 30
0.0
 10
205.1737017171781
 20
138.1225677235761
 30
0.0
 10
205.2499707432984
 20
137.7939544706986
 30
0.0
 10
205.3077028503128
 20
137.6315754705176
 30
0.0
 10
205.4583217612913
 20
137.3236210164385
 30
0.0
 10
205.5504752256015
 20
137.1783619469305
 30
0.0
 10
205.7681757338613
 20
136.9046518452404
 30
0.0
 10
205.8948161349967
 20
136.7757806467843
 30
0.0
 10
206.1714348411857
 20
136.5456048124732
 30
0.0
 10
206.3223897581932
 20
136.4427386921699
 30
0.0
 10
206.6502777864218
 20
136.2615156539966
 30
0.0
 10
206.8247267556355
 20
136.1848452319704
 30
0.0
 10
207.1856583583838
 20
136.0618499942626
 30
0.0
 10
207.3748100963931
 20
136.0146011033864
 30
0.0
 10
207.7621047816509
 20
135.9514418043572
 30
0.0
 10
207.9568263262001
 20
135.935836671994
 30
0.0
 10
208.3483645637149
 20
135.9356620160157
 30
0.0
 10
208.5472309602922
 20
135.9516040309484
 30
0.0
 10
208.9320711715183
 20
136.0143235896648
 30
0.0
 10
209.1191304228648
 20
136.0607562019324
 30
0.0
 10
209.4824751400201
 20
136.1842599586554
 30
0.0
 10
209.6580183630402
 20
136.2615525728346
 30
0.0
 10
209.9829997892793
 20
136.4409131482182
 30
0.0
 10
210.1345126878317
 20
136.5435935506497
 30
0.0
 10
210.4147167859421
 20
136.7765909934936
 30
0.0
 10
210.5388208859185
 20
136.9031124384759
 30
0.0
 10
210.756129204678
 20
137.1757278627794
 30
0.0
 10
210.8501272055624
 20
137.3235938960037
 30
0.0
 10
211.0007738766344
 20
137.6316056936049
 30
0.0
 10
211.0575759067537
 20
137.7909194442967
 30
0.0
 10
211.1344599093965
 20
138.120378219518
 30
0.0
 10
211.1541591317016
 20
138.2916907303317
 30
0.0
 10
211.1543025541729
 20
138.6308743414258
 30
0.0
 10
211.1353836951764
 20
138.8004060425002
 30
0.0
 10
211.0586916934386
 20
139.1392429546311
 30
0.0
 10
211.0011535257854
 20
139.305989485029
 30
0.0
 10
210.8517890374343
 20
139.6253170498297
 30
0.0
 10
210.7588766518991
 20
139.7803333018247
 30
0.0
 10
210.5397765240474
 20
140.0732517409336
 30
0.0
 10
210.4157431648812
 20
140.2087285499552
 30
0.0
 10
210.1394398196913
 20
140.457808893484
 30
0.0
 10
209.9852914781937
 20
140.5723300388701
 30
0.0
 10
209.6594272395651
 20
140.7697821205726
 30
0.0
 10
209.487266169574
 20
140.8536424219027
 30
0.0
 10
209.1243126929274
 20
140.9909674969821
 30
0.0
 10
208.9336710097082
 20
141.0438394111426
 30
0.0
 10
208.5501615044018
 20
141.113780550875
 30
0.0
 10
208.3552684525098
 20
141.1317264956335
 30
0.0
 10
207.9589469400101
 20
141.1320737874121
 30
0.0
 10
207.7635841006012
 20
141.1144163152778
 30
0.0
 10
207.3799830234926
 20
141.0451052382357
 30
0.0
 10
207.1894907314568
 20
140.9926337959364
 30
0.0
 10
206.825924708056
 20
140.8557765085536
 30
0.0
 10
206.6535653553603
 20
140.7721506250285
 30
0.0
 10
206.327444606692
 20
140.5752864389234
 30
0.0
 10
206.1730201234913
 20
140.4609789686943
 30
0.0
 10
205.8961505936163
 20
140.2122445017989
 30
0.0
 10
205.7719008476451
 20
140.0769813792813
 30
0.0
 10
205.5524019796893
 20
139.7846522661765
 30
0.0
 10
205.4590042099832
 20
139.6295071922471
 30
0.0
 10
205.2340429752829
 20
139.1509099021889
 30
0.0
 10
205.1542310440778
 20
138.8057250929587
 30
0.0
 10
205.1542310440778
 20
138.4622339108323
 30
0.0
  0
SPLINE
  5
E5
330
1F
100
AcDbEntity
  8
0
  6
Continuous
 62
     7
370
    25
100
AcDbSpline
210
0.0
220
0.0
230
1.0
 70
     8
 71
     3
 72
    12
 73
     8
 74
     0
 42
0.000000001
 43
0.00000001
 40
0.0
 40
0.0
 40
0.0
 40
0.0
 40
0.25
 40
0.25
 40
0.5
 40
0.5
 40
1.0
 40
1.0
 40
1.0
 40
1.0
 10
197.6819878576443
 20
163.6003003421683
 30
0.0
 10
197.6189078191509
 20
163.6003003421683
 30
0.0
 10
197.5597591969695
 20
163.6256646613832
 30
0.0
 10
197.4612866469004
 20
163.6998295217562
 30
0.0
 10
197.4222500349157
 20
163.7463498623103
 30
0.0
 10
197.3223535681367
 20
163.8964922051555
 30
0.0
 10
197.27993268707
 20
164.0081854121277
 30
0.0
 10
197.248975155752
 20
164.1216032315174
 30
0.0
  0
LINE
  5
E6
330
1F
100
AcDbEntity
  8
0
  6
Continuous
 62
     7
370
    25
100
AcDbLine
 10
200.6264742305
 20
163.6003003422
 30
0.0
 11
197.6819878576
 21
163.6003003422
 31
0.0
  0
SPLINE
  5
E7
330
1F
100
AcDbEntity
  8
0
  6
Continuous
 62
     7
370
    25
100
AcDbSpline
210
0.0
220
0.0
230
1.0
 70
     8
 71
     3
 72
    12
 73
     8
 74
     0
 42
0.000000001
 43
0.00000001
 40
0.0
 40
0.0
 40
0.0
 40
0.0
 40
0.5000000000000018
 40
0.5000000000000018
 40
0.7500000000000009
 40
0.7500000000000009
 40
1.0
 40
1.0
 40
1.0
 40
1.0
 10
201.0594869324036
 20
164.1216032315174
 30
0.0
 10
201.0287646904845
 20
164.0090474321082
 30
0.0
 10
200.9859274759494
 20
163.8962895723687
 30
0.0
 10
200.8865004517496
 20
163.7467486865723
 30
0.0
 10
200.8467482569329
 20
163.6994559548654
 30
0.0
 10
200.7487068000747
 20
163.625719661544
 30
0.0
 10
200.6891507444872
 20
163.6003003421683
 30
0.0
 10
200.6264742305114
 20
163.6003003421683
 30
0.0
  0
ELLIPSE
  5
E8
330
1F
100
AcDbEntity
  8
0
  6
Continuous
 62
     7
370
    25
100
AcDbEllipse
 10
184.8070768547
 20
154.2122339108
 30
0.0
 11
14.75368316065606
 21
31.09325491558118
 31
0.0
210
0.0
220
0.0
230
1.0
 40
0.3419987131
 41
5.193281737408618
 42
6.124043104552323
  0
SPLINE
  5
E9
330
1F
100
AcDbEntity
  8
0
  6
Continuous
 62
     7
370
    25
100
AcDbSpline
210
0.0
220
0.0
230
1.0
 70
     8
 71
     3
 72
    12
 73
     8
 74
     0
 42
0.000000001
 43
0.00000001
 40
0.0
 40
0.0
 40
0.0
 40
0.0
 40
0.2500000000000023
 40
0.2500000000000023
 40
0.5000000000000046
 40
0.5000000000000046
 40
1.0
 40
1.0
 40
1.0
 40
1.0
 10
200.6264742305114
 20
184.2807258697055
 30
0.0
 10
200.6895542690048
 20
184.2807258697055
 30
0.0
 10
200.7487028911862
 20
184.272819943493
 30
0.0
 10
200.8471754412552
 20
184.2494947820568
 30
0.0
 10
200.88621205324
 20
184.2347819922251
 30
0.0
 10
200.986108520019
 20
184.1868261914942
 30
0.0
 10
201.0285294010856
 20
184.1505640349141
 30
0.0
 10
201.0594869324036
 20
184.1129763709496
 30
0.0
  0
LINE
  5
EA
330
1F
100
AcDbEntity
  8
0
  6
Continuous
 62
     7
370
    25
100
AcDbLine
 10
197.6819878576
 20
184.2807258697
 30
0.0
 11
200.6264742305
 21
184.2807258697
 31
0.0
  0
SPLINE
  5
EB
330
1F
100
AcDbEntity
  8
0
  6
Continuous
 62
     7
370
    25
100
AcDbSpline
210
0.0
220
0.0
230
1.0
 70
     8
 71
     3
 72
    12
 73
     8
 74
     0
 42
0.000000001
 43
0.00000001
 40
0.0
 40
0.0
 40
0.0
 40
0.0
 40
0.4999999999999991
 40
0.4999999999999991
 40
0.7499999999999996
 40
0.7499999999999996
 40
1.0
 40
1.0
 40
1.0
 40
1.0
 10
197.248975155752
 20
184.1129763709496
 30
0.0
 10
197.2796973976712
 20
184.1502783539026
 30
0.0
 10
197.3225346122063
 20
184.186890185949
 30
0.0
 10
197.4219616364061
 20
184.2346549692342
 30
0.0
 10
197.4617138312227
 20
184.2496124847166
 30
0.0
 10
197.559755288081
 20
184.2728024304858
 30
0.0
 10
197.6193113436684
 20
184.2807258697055
 30
0.0
 10
197.6819878576443
 20
184.2807258697055
 30
0.0
  0
ELLIPSE
  5
EC
330
1F
100
AcDbEntity
  8
0
  6
Continuous
 62
     7
370
    25
100
AcDbEllipse
 10
213.5013852334
 20
154.2122339108
 30
0.0
 11
-14.75368316065606
 21
31.09325491558118
 31
0.0
210
0.0
220
0.0
230
1.0
 40
0.3419987131
 41
0.1591422026273022
 42
1.089903569770981
  0
SPLINE
  5
ED
330
1F
100
AcDbEntity
  8
0
  6
Continuous
 62
     7
370
    25
100
AcDbSpline
210
0.0
220
0.0
230
1.0
 70
     8
 71
     3
 72
    12
 73
     8
 74
     0
 42
0.000000001
 43
0.00000001
 40
0.0
 40
0.0
 40
0.0
 40
0.0
 40
0.2499999999999991
 40
0.2499999999999991
 40
0.4999999999999982
 40
0.4999999999999982
 40
1.0
 40
1.0
 40
1.0
 40
1.0
 10
197.6819878576443
 20
124.1437419519593
 30
0.0
 10
197.6189309027465
 20
124.1437419519593
 30
0.0
 10
197.5598007530009
 20
124.1516422830389
 30
0.0
 10
197.4613532024676
 20
124.1749530310439
 30
0.0
 10
197.4223209642795
 20
124.1896581573275
 30
0.0
 10
197.3224310798226
 20
124.2375916855142
 30
0.0
 10
197.2801321062132
 20
124.273661658279
 30
0.0
 10
197.248975155752
 20
124.3114914507152
 30
0.0
  0
LINE
  5
EE
330
1F
100
AcDbEntity
  8
0
  6
Continuous
 62
     7
370
    25
100
AcDbLine
 10
200.6264742305
 20
124.143741952
 30
0.0
 11
197.6819878576
 21
124.143741952
 31
0.0
  0
SPLINE
  5
EF
330
1F
100
AcDbEntity
  8
0
  6
Continuous
 62
     7
370
    25
100
AcDbSpline
210
0.0
220
0.0
230
1.0
 70
     8
 71
     3
 72
    12
 73
     8
 74
     0
 42
0.000000001
 43
0.00000001
 40
0.0
 40
0.0
 40
0.0
 40
0.0
 40
0.5
 40
0.5
 40
0.75
 40
0.75
 40
1.0
 40
1.0
 40
1.0
 40
1.0
 10
201.0594869324036
 20
124.3114914507152
 30
0.0
 10
201.0283417344415
 20
124.273675927795
 30
0.0
 10
200.9860674681071
 20
124.2376090697114
 30
0.0
 10
200.8861219342818
 20
124.1896490047001
 30
0.0
 10
200.8463916295777
 20
124.1747880308024
 30
0.0
 10
200.7495035795715
 20
124.1518368846713
 30
0.0
 10
200.689438337825
 20
124.1437419519592
 30
0.0
 10
200.6264742305114
 20
124.1437419519592
 30
0.0
  0
ELLIPSE
  5
F0
330
1F
100
AcDbEntity
  8
0
  6
Continuous
 62
     7
370
    25
100
AcDbEllipse
 10
184.8070768547
 20
154.2122339108
 30
0.0
 11
-14.75368316065615
 21
31.09325491558118
 31
0.0
210
0.0
220
0.0
230
1.0
 40
0.3419987131
 41
3.300734856217126
 42
4.231496223360773
  0
SPLINE
  5
F1
330
1F
100
AcDbEntity
  8
0
  6
Continuous
 62
     7
370
    25
100
AcDbSpline
210
0.0
220
0.0
230
1.0
 70
     8
 71
     3
 72
    12
 73
     8
 74
     0
 42
0.000000001
 43
0.00000001
 40
0.0
 40
0.0
 40
0.0
 40
0.0
 40
0.2500000000000004
 40
0.2500000000000004
 40
0.5000000000000009
 40
0.5000000000000009
 40
1.0
 40
1.0
 40
1.0
 40
1.0
 10
200.6264742305114
 20
144.8241674794962
 30
0.0
 10
200.6895311854092
 20
144.8241674794962
 30
0.0
 10
200.7486613351548
 20
144.7988211261155
 30
0.0
 10
200.8471088856881
 20
144.724701743976
 30
0.0
 10
200.8861411238761
 20
144.678205229278
 30
0.0
 10
200.9860310083331
 20
144.5281307222694
 30
0.0
 10
201.0283299819424
 20
144.4170130131545
 30
0.0
 10
201.0594869324037
 20
144.302864590147
 30
0.0
  0
LINE
  5
F2
330
1F
100
AcDbEntity
  8
0
  6
Continuous
 62
     7
370
    25
100
AcDbLine
 10
197.6819878576
 20
144.8241674795
 30
0.0
 11
200.6264742305
 21
144.8241674795
 31
0.0
  0
SPLINE
  5
F3
330
1F
100
AcDbEntity
  8
0
  6
Continuous
 62
     7
370
    25
100
AcDbSpline
210
0.0
220
0.0
230
1.0
 70
     8
 71
     3
 72
    12
 73
     8
 74
     0
 42
0.000000001
 43
0.00000001
 40
0.0
 40
0.0
 40
0.0
 40
0.0
 40
0.5
 40
0.5
 40
0.75
 40
0.75
 40
1.0
 40
1.0
 40
1.0
 40
1.0
 10
197.248975155752
 20
144.302864590147
 30
0.0
 10
197.2801203537142
 20
144.4169699560123
 30
0.0
 10
197.3223946200486
 20
144.5280762832311
 30
0.0
 10
197.4223401538739
 20
144.6782338906614
 30
0.0
 10
197.462070458578
 20
144.7252265822788
 30
0.0
 10
197.5589585085841
 20
144.7982021668173
 30
0.0
 10
197.6190237503307
 20
144.8241674794963
 30
0.0
 10
197.6819878576442
 20
144.8241674794963
 30
0.0
  0
ELLIPSE
  5
F4
330
1F
100
AcDbEntity
  8
0
  6
Continuous
 62
     7
370
    25
100
AcDbEllipse
 10
213.5013852334
 20
154.2122339108
 30
0.0
 11
14.75368316065621
 21
31.09325491558119
 31
0.0
210
0.0
220
0.0
230
1.0
 40
0.3419987131
 41
2.051689083818828
 42
2.982450450962504
  0
ELLIPSE
  5
F5
330
1F
100
AcDbEntity
  8
0
  6
Continuous
 62
     7
370
    25
100
AcDbEllipse
 10
284.8495425699
 20
154.2122339108
 30
0.0
 11
315.5891455672079
 21
3.159736421071899
 31
0.0
210
0.0
220
0.0
230
1.0
 40
0.0993098927
 41
1.7625803177859
 42
1.766153309205052
  0
SPLINE
  5
F6
330
1F
100
AcDbEntity
  8
0
  6
Continuous
 62
     7
370
    25
100
AcDbSpline
210
0.0
220
0.0
230
1.0
 70
     8
 71
     3
 72
    20
 73
    16
 74
     0
 42
0.000000001
 43
0.00000001
 40
0.0
 40
0.0
 40
0.0
 40
0.0
 40
0.2500000000000003
 40
0.2500000000000003
 40
0.3750000000000003
 40
0.3750000000000003
 40
0.5000000000000002
 40
0.5000000000000002
 40
0.6250000000000001
 40
0.6250000000000001
 40
0.7500000000000001
 40
0.7500000000000001
 40
0.875
 40
0.875
 40
1.0
 40
1.0
 40
1.0
 40
1.0
 10
223.2805824020321
 20
184.3438431675044
 30
0.0
 10
222.6626453596623
 20
184.3255092620622
 30
0.0
 10
222.0707024803213
 20
184.2800376267199
 30
0.0
 10
221.2212719920825
 20
184.1657150145525
 30
0.0
 10
220.9482165239324
 20
184.1200651593672
 30
0.0
 10
220.4327921883217
 20
184.0143877830201
 30
0.0
 10
220.1885972246064
 20
183.9541263077229
 30
0.0
 10
219.7275377916593
 20
183.8166596610517
 30
0.0
 10
219.5113272998337
 20
183.7393539160921
 30
0.0
 10
219.1207395987069
 20
183.5711468240105
 30
0.0
 10
218.9442599946927
 20
183.4796778935606
 30
0.0
 10
218.6283794850886
 20
183.2803374913307
 30
0.0
 10
218.4886639626395
 20
183.1718439121392
 30
0.0
 10
218.253486704195
 20
182.942524203811
 30
0.0
 10
218.1569119378637
 20
182.8211759471287
 30
0.0
 10
218.0809459427595
 20
182.6926059057313
 30
0.0
  0
SPLINE
  5
F7
330
1F
100
AcDbEntity
  8
0
  6
Continuous
 62
     7
370
    25
100
AcDbSpline
210
0.0
220
0.0
230
1.0
 70
     8
 71
     3
 72
    20
 73
    16
 74
     0
 42
0.000000001
 43
0.00000001
 40
0.0
 40
0.0
 40
0.0
 40
0.0
 40
0.2499999999999992
 40
0.2499999999999992
 40
0.3749999999999994
 40
0.3749999999999994
 40
0.4999999999999996
 40
0.4999999999999996
 40
0.6249999999999997
 40
0.6249999999999997
 40
0.7499999999999999
 40
0.7499999999999999
 40
0.8749999999999999
 40
0.8749999999999999
 40
1.0
 40
1.0
 40
1.0
 40
1.0
 10
218.0809459427595
 20
123.6336689634379
 30
0.0
 10
218.2328989824385
 20
123.4891410129393
 30
0.0
 10
218.4649214534662
 20
123.3698041968049
 30
0.0
 10
218.9392821833125
 20
123.220682417132
 30
0.0
 10
219.1184413326145
 20
123.1763124503004
 30
0.0
 10
219.5082746123932
 20
123.0988460986842
 30
0.0
 10
219.7202062175519
 20
123.065322019309
 30
0.0
 10
220.178886150712
 20
123.0068152805749
 30
0.0
 10
220.4277285957097
 20
122.9817291338476
 30
0.0
 10
220.9448107521964
 20
122.9399695767773
 30
0.0
 10
221.2143480869272
 20
122.923046005018
 30
0.0
 10
221.7753269719672
 20
122.8953414906605
 30
0.0
 10
222.0689631806002
 20
122.8845143071861
 30
0.0
 10
222.6673728367037
 20
122.8683380433941
 30
0.0
 10
222.9714922723133
 20
122.8629479051907
 30
0.0
 10
223.2805824020321
 20
122.8599056304779
 30
0.0
  0
ELLIPSE
  5
F8
330
1F
100
AcDbEntity
  8
0
  6
Continuous
 62
     7
370
    25
100
AcDbEllipse
 10
284.8495425699
 20
154.2122339108
 30
0.0
 11
315.5891455672079
 21
3.159736421071899
 31
0.0
210
0.0
220
0.0
230
1.0
 40
0.0993098927
 41
4.515043380900479
 42
4.518616372319631
  0
LINE
  5
F9
330
1F
100
AcDbEntity
  8
0
  6
Continuous
 62
     7
370
    25
100
AcDbLine
 10
187.1542310441
 20
123.2122339108
 30
0.0
 11
187.1542310441
 21
185.2122339106
 31
0.0
  0
SPLINE
  5
FA
330
1F
100
AcDbEntity
  8
0
  6
Continuous
 62
     7
370
    25
100
AcDbSpline
210
0.0
220
0.0
230
1.0
 70
     8
 71
     3
 72
    12
 73
     8
 74
     0
 42
0.000000001
 43
0.00000001
 40
0.0
 40
0.0
 40
0.0
 40
0.0
 40
0.5000000000000003
 40
0.5000000000000003
 40
0.7500000000000001
 40
0.7500000000000001
 40
1.0
 40
1.0
 40
1.0
 40
1.0
 10
186.3377187576213
 20
132.3574402083566
 30
0.0
 10
186.3941552585285
 20
132.3560223270148
 30
0.0
 10
186.4632398892173
 20
132.3544579907665
 30
0.0
 10
186.5820421609352
 20
132.3515137987921
 30
0.0
 10
186.6222274364053
 20
132.3504755956947
 30
0.0
 10
186.6956084838091
 20
132.3485417004801
 30
0.0
 10
186.7290180475518
 20
132.3476468131913
 30
0.0
 10
186.7592541552082
 20
132.3468630229189
 30
0.0
  0
SPLINE
  5
FB
330
1F
100
AcDbEntity
  8
0
  6
Continuous
 62
     7
370
    25
100
AcDbSpline
210
0.0
220
0.0
230
1.0
 70
     8
 71
     3
 72
    16
 73
    12
 74
     0
 42
0.000000001
 43
0.00000001
 40
0.0
 40
0.0
 40
0.0
 40
0.0
 40
0.0624999999999992
 40
0.0624999999999992
 40
0.1249999999999983
 40
0.1249999999999983
 40
0.2499999999999965
 40
0.2499999999999965
 40
0.4999999999999977
 40
0.4999999999999977
 40
1.0
 40
1.0
 40
1.0
 40
1.0
 10
186.759254155171
 20
132.3468630229432
 30
0.0
 10
186.7708345627589
 20
132.3465628318318
 30
0.0
 10
186.7841440895202
 20
132.3452350835728
 30
0.0
 10
186.8134455196063
 20
132.3385364087978
 30
0.0
 10
186.8282596194906
 20
132.3331782256921
 30
0.0
 10
186.8640880211935
 20
132.3161325765248
 30
0.0
 10
186.8782076455565
 20
132.304670038749
 30
0.0
 10
186.912711789645
 20
132.2731067133768
 30
0.0
 10
186.9238163403496
 20
132.2552094143315
 30
0.0
 10
186.9499925175658
 20
132.2050479967173
 30
0.0
 10
186.9542310440778
 20
132.1773035845207
 30
0.0
 10
186.9542310440778
 20
132.1526394225912
 30
0.0
  0
LINE
  5
FC
330
1F
100
AcDbEntity
  8
0
  6
Continuous
 62
     7
370
    25
100
AcDbLine
 10
186.9542310441
 20
147.1903465851
 30
0.0
 11
186.9542310441
 21
131.672413632
 31
0.0
  0
SPLINE
  5
FD
330
1F
100
AcDbEntity
  8
0
  6
Continuous
 62
     7
370
    25
100
AcDbSpline
210
0.0
220
0.0
230
1.0
 70
     8
 71
     3
 72
    16
 73
    12
 74
     0
 42
0.000000001
 43
0.00000001
 40
0.0
 40
0.0
 40
0.0
 40
0.0
 40
0.5000000000000033
 40
0.5000000000000033
 40
0.7500000000000033
 40
0.7500000000000033
 40
0.8750000000000033
 40
0.8750000000000033
 40
0.9375000000000017
 40
0.9375000000000017
 40
1.0
 40
1.0
 40
1.0
 40
1.0
 10
186.9542310440778
 20
147.1903465850824
 30
0.0
 10
186.9542310440778
 20
147.3040391292103
 30
0.0
 10
186.9500847689999
 20
147.4183592905598
 30
0.0
 10
186.9241191736064
 20
147.5914075810568
 30
0.0
 10
186.9126582682289
 20
147.6505830882186
 30
0.0
 10
186.8783465304546
 20
147.7337062076867
 30
0.0
 10
186.864321794525
 20
147.7618275237874
 30
0.0
 10
186.8282988314912
 20
147.7904433377648
 30
0.0
 10
186.8135443224015
 20
147.7962363856666
 30
0.0
 10
186.7841921612546
 20
147.7946429597296
 30
0.0
 10
186.7708522867505
 20
147.7881465564058
 30
0.0
 10
186.7592541552022
 20
147.7796308102027
 30
0.0
  0
SPLINE
  5
FE
330
1F
100
AcDbEntity
  8
0
  6
Continuous
 62
     7
370
    25
100
AcDbSpline
210
0.0
220
0.0
230
1.0
 70
     8
 71
     3
 72
    12
 73
     8
 74
     0
 42
0.000000001
 43
0.00000001
 40
0.0
 40
0.0
 40
0.0
 40
0.0
 40
0.25
 40
0.25
 40
0.5
 40
0.5
 40
1.0
 40
1.0
 40
1.0
 40
1.0
 10
186.7592541552092
 20
147.7796308101935
 30
0.0
 10
186.7290557137686
 20
147.7574580781484
 30
0.0
 10
186.6956883584326
 20
147.7383784222712
 30
0.0
 10
186.6225330826027
 20
147.7132053778285
 30
0.0
 10
186.5822803835788
 20
147.7076488414117
 30
0.0
 10
186.4645516403039
 20
147.7185606523985
 30
0.0
 10
186.394093192245
 20
147.7604964078093
 30
0.0
 10
186.3377187576267
 20
147.8097081901908
 30
0.0
  0
SPLINE
  5
FF
330
1F
100
AcDbEntity
  8
0
  6
Continuous
 62
     7
370
    25
100
AcDbSpline
210
0.0
220
0.0
230
1.0
 70
     8
 71
     3
 72
    12
 73
     8
 74
     0
 42
0.000000001
 43
0.00000001
 40
0.0
 40
0.0
 40
0.0
 40
0.0
 40
0.4999999999999991
 40
0.4999999999999991
 40
0.7499999999999996
 40
0.7499999999999996
 40
1.0
 40
1.0
 40
1.0
 40
1.0
 10
185.8329107005182
 20
149.0260595820714
 30
0.0
 10
185.8766610524026
 20
148.8056125970969
 30
0.0
 10
185.9295512035271
 20
148.5900676072913
 30
0.0
 10
186.0411627466688
 20
148.2776535307194
 30
0.0
 10
186.0837220905723
 20
148.1755740551035
 30
0.0
 10
186.1886993259097
 20
147.9811340424617
 30
0.0
 10
186.2502665690043
 20
147.886049143398
 30
0.0
 10
186.3377187576267
 20
147.8097081901909
 30
0.0
  0
SPLINE
  5
100
330
1F
100
AcDbEntity
  8
0
  6
Continuous
 62
     7
370
    25
100
AcDbSpline
210
0.0
220
0.0
230
1.0
 70
     8
 71
     3
 72
    12
 73
     8
 74
     0
 42
0.000000001
 43
0.00000001
 40
0.0
 40
0.0
 40
0.0
 40
0.0
 40
0.2499999999999997
 40
0.2499999999999997
 40
0.4999999999999993
 40
0.4999999999999993
 40
1.0
 40
1.0
 40
1.0
 40
1.0
 10
186.3377187576266
 20
160.614759631474
 30
0.0
 10
186.2492253500587
 20
160.5375097513657
 30
0.0
 10
186.1891673092929
 20
160.4441904274765
 30
0.0
 10
186.0833190363103
 20
160.248157374507
 30
0.0
 10
186.0407855150328
 20
160.1458310162953
 30
0.0
 10
185.9296342082092
 20
159.8344866105194
 30
0.0
 10
185.8767033511614
 20
159.6190683573414
 30
0.0
 10
185.8329107005182
 20
159.3984082395935
 30
0.0
  0
SPLINE
  5
101
330
1F
100
AcDbEntity
  8
0
  6
Continuous
 62
     7
370
    25
100
AcDbSpline
210
0.0
220
0.0
230
1.0
 70
     8
 71
     3
 72
    12
 73
     8
 74
     0
 42
0.000000001
 43
0.00000001
 40
0.0
 40
0.0
 40
0.0
 40
0.0
 40
0.5000000000000002
 40
0.5000000000000002
 40
0.7500000000000003
 40
0.7500000000000003
 40
1.0
 40
1.0
 40
1.0
 40
1.0
 10
186.3377187576266
 20
160.614759631474
 30
0.0
 10
186.3940273059222
 20
160.6639138987179
 30
0.0
 10
186.4643019666403
 20
160.7058712173216
 30
0.0
 10
186.5823398809639
 20
160.716830894854
 30
0.0
 10
186.6225161218179
 20
160.7113221366067
 30
0.0
 10
186.6964732164958
 20
160.6857649078177
 30
0.0
 10
186.7290896042072
 20
160.6669848599784
 30
0.0
 10
186.759254155203
 20
160.6448370114617
 30
0.0
  0
SPLINE
  5
102
330
1F
100
AcDbEntity
  8
0
  6
Continuous
 62
     7
370
    25
100
AcDbSpline
210
0.0
220
0.0
230
1.0
 70
     8
 71
     3
 72
    16
 73
    12
 74
     0
 42
0.000000001
 43
0.00000001
 40
0.0
 40
0.0
 40
0.0
 40
0.0
 40
0.0624999999999996
 40
0.0624999999999996
 40
0.1249999999999992
 40
0.1249999999999992
 40
0.2499999999999993
 40
0.2499999999999993
 40
0.4999999999999996
 40
0.4999999999999996
 40
1.0
 40
1.0
 40
1.0
 40
1.0
 10
186.7592541551712
 20
160.6448370114072
 30
0.0
 10
186.7708670550106
 20
160.6363104218119
 30
0.0
 10
186.7842182394431
 20
160.6298101602792
 30
0.0
 10
186.8136180790623
 20
160.6282407631616
 30
0.0
 10
186.8284588036175
 20
160.6341241537922
 30
0.0
 10
186.8642920115861
 20
160.6626717898428
 30
0.0
 10
186.8784052194077
 20
160.6908388091485
 30
0.0
 10
186.9128965906266
 20
160.7745930675705
 30
0.0
 10
186.9239806617369
 20
160.8323064811919
 30
0.0
 10
186.9501034795329
 20
161.0058970178378
 30
0.0
 10
186.9542310440778
 20
161.1209250704797
 30
0.0
 10
186.9542310440778
 20
161.2341212365825
 30
0.0
  0
LINE
  5
103
330
1F
100
AcDbEntity
  8
0
  6
Continuous
 62
     7
370
    25
100
AcDbLine
 10
186.9542310441
 20
176.7520541897
 30
0.0
 11
186.9542310441
 21
161.2341212366
 31
0.0
  0
SPLINE
  5
104
330
1F
100
AcDbEntity
  8
0
  6
Continuous
 62
     7
370
    25
100
AcDbSpline
210
0.0
220
0.0
230
1.0
 70
     8
 71
     3
 72
    16
 73
    12
 74
     0
 42
0.000000001
 43
0.00000001
 40
0.0
 40
0.0
 40
0.0
 40
0.0
 40
0.5000000000000022
 40
0.5000000000000022
 40
0.7500000000000036
 40
0.7500000000000036
 40
0.8750000000000043
 40
0.8750000000000043
 40
0.9375000000000021
 40
0.9375000000000021
 40
1.0
 40
1.0
 40
1.0
 40
1.0
 10
186.9542310440778
 20
176.2718283990737
 30
0.0
 10
186.9542310440778
 20
176.2471572430308
 30
0.0
 10
186.9500653456178
 20
176.2195754116396
 30
0.0
 10
186.9238070172929
 20
176.1692325408162
 30
0.0
 10
186.9123032355553
 20
176.1509430427543
 30
0.0
 10
186.8781724762088
 20
176.1197880117173
 30
0.0
 10
186.8637505895381
 20
176.1081486365055
 30
0.0
 10
186.8281836211002
 20
176.0912666105745
 30
0.0
 10
186.8132318528056
 20
176.0858775067668
 30
0.0
 10
186.7842280344458
 20
176.0792570108223
 30
0.0
 10
186.7708126804366
 20
176.0779044226159
 30
0.0
 10
186.7592541552
 20
176.0776047987443
 30
0.0
  0
SPLINE
  5
105
330
1F
100
AcDbEntity
  8
0
  6
Continuous
 62
     7
370
    25
100
AcDbSpline
210
0.0
220
0.0
230
1.0
 70
     8
 71
     3
 72
    12
 73
     8
 74
     0
 42
0.000000001
 43
0.00000001
 40
0.0
 40
0.0
 40
0.0
 40
0.0
 40
0.2499999999999999
 40
0.2499999999999999
 40
0.4999999999999998
 40
0.4999999999999998
 40
1.0
 40
1.0
 40
1.0
 40
1.0
 10
186.7592541552092
 20
176.0776047987461
 30
0.0
 10
186.7290663786596
 20
176.0768222613285
 30
0.0
 10
186.6957125745679
 20
176.0759289295099
 30
0.0
 10
186.6225863713719
 20
176.0740016207063
 30
0.0
 10
186.5823511683478
 20
176.0729620894937
 30
0.0
 10
186.4646595382147
 20
176.0700442061464
 30
0.0
 10
186.3942788650546
 20
176.0684486000762
 30
0.0
 10
186.337718757624
 20
176.0670276133083
 30
0.0
  0
SPLINE
  5
106
330
1F
100
AcDbEntity
  8
0
  6
Continuous
 62
     7
370
    25
100
AcDbSpline
210
0.0
220
0.0
230
1.0
 70
     8
 71
     3
 72
    16
 73
    12
 74
     0
 42
0.000000001
 43
0.00000001
 40
0.0
 40
0.0
 40
0.0
 40
0.0
 40
0.25
 40
0.25
 40
0.375
 40
0.375
 40
0.5
 40
0.5
 40
0.75
 40
0.75
 40
1.0
 40
1.0
 40
1.0
 40
1.0
 10
185.8329107005182
 20
159.3984082395935
 30
0.0
 10
185.6716782230337
 20
158.5859984643467
 30
0.0
 10
185.5511983833941
 20
157.7459201699619
 30
0.0
 10
185.4288178660807
 20
156.4446251205992
 30
0.0
 10
185.3978402056833
 20
156.0039440850144
 30
0.0
 10
185.3562264680554
 20
155.1081044440833
 30
0.0
 10
185.3459905551225
 20
154.6614463128808
 30
0.0
 10
185.3458021580664
 20
153.3261363557409
 30
0.0
 10
185.3859468607041
 20
152.4416409824334
 30
0.0
 10
185.5501006156436
 20
150.6843910944074
 30
0.0
 10
185.6716522660532
 20
149.8386001479943
 30
0.0
 10
185.8329107005182
 20
149.0260595820714
 30
0.0
  0
LINE
  5
107
330
1F
100
AcDbEntity
  8
0
  6
Continuous
 62
     7
370
    25
100
AcDbLine
 10
184.9542310441
 20
160.6974121725
 30
0.0
 11
184.9542310441
 21
147.7270556491
 31
0.0
  0
LINE
  5
108
330
1F
100
AcDbEntity
  8
0
  6
Continuous
 62
     7
370
    25
100
AcDbLine
 10
150.6542310441
 20
160.2665444784
 30
0.0
 11
150.6542310441
 21
148.1579233433
 31
0.0
  0
LINE
  5
109
330
1F
100
AcDbEntity
  8
0
  6
Continuous
 62
     7
370
    25
100
AcDbLine
 10
149.1542310441
 20
159.8335317765
 30
0.0
 11
149.1542310441
 21
148.5909360452
 31
0.0
  0
LINE
  5
10A
330
1F
100
AcDbEntity
  8
0
  6
Continuous
 62
     7
370
    25
100
AcDbLine
 10
150.6542310441
 20
160.2665444784
 30
0.0
 11
150.6542310441
 21
175.3705973071
 31
0.0
  0
LINE
  5
10B
330
1F
100
AcDbEntity
  8
0
  6
Continuous
 62
     7
370
    25
100
AcDbLine
 10
150.6542310441
 20
175.3705973071
 30
0.0
 11
184.9542310441
 21
176.2323326954
 31
0.0
  0
LINE
  5
10C
330
1F
100
AcDbEntity
  8
0
  6
Continuous
 62
     7
370
    25
100
AcDbLine
 10
184.9542310441
 20
160.6974121725
 30
0.0
 11
184.9542310441
 21
176.2323326954
 31
0.0
  0
ARC
  5
10D
330
1F
100
AcDbEntity
  8
0
  6
Continuous
 62
     7
370
    25
100
AcDbCircle
 10
185.154167955
 20
176.2373558065
 30
0.0
 40
0.2000000000000066
100
AcDbArc
 50
181.4391666667
 51
271.4391666667
  0
LINE
  5
10E
330
1F
100
AcDbEntity
  8
0
  6
Continuous
 62
     7
370
    25
100
AcDbLine
 10
150.6542310441
 20
133.0538705145
 30
0.0
 11
150.6542310441
 21
148.1579233433
 31
0.0
  0
LINE
  5
10F
330
1F
100
AcDbEntity
  8
0
  6
Continuous
 62
     7
370
    25
100
AcDbLine
 10
184.9542310441
 20
132.1921351263
 30
0.0
 11
184.9542310441
 21
147.7270556491
 31
0.0
  0
LINE
  5
110
330
1F
100
AcDbEntity
  8
0
  6
Continuous
 62
     7
370
    25
100
AcDbLine
 10
150.6542310441
 20
133.0538705145
 30
0.0
 11
184.9542310441
 21
132.1921351263
 31
0.0
  0
ARC
  5
111
330
1F
100
AcDbEntity
  8
0
  6
Continuous
 62
     7
370
    25
100
AcDbCircle
 10
185.154167955
 20
132.1871120151
 30
0.0
 40
0.2000000000000059
100
AcDbArc
 50
88.5608333333
 51
178.5608333333
  0
LINE
  5
112
330
1F
100
AcDbEntity
  8
0
  6
Continuous
 62
     7
370
    25
100
AcDbLine
 10
185.1591910661
 20
176.0374188956
 30
0.0
 11
186.3377187576
 21
176.0670276133
 31
0.0
  0
LINE
  5
113
330
1F
100
AcDbEntity
  8
0
  6
Continuous
 62
     7
370
    25
100
AcDbLine
 10
185.1591910661
 20
132.3870489261
 30
0.0
 11
186.3377187576
 21
132.3574402084
 31
0.0
  0
LINE
  5
114
330
1F
100
AcDbEntity
  8
0
  6
Continuous
 62
     7
370
    25
100
AcDbLine
 10
149.1542310441
 20
174.5045719033
 30
0.0
 11
150.6542310441
 21
175.3705973071
 31
0.0
  0
LINE
  5
115
330
1F
100
AcDbEntity
  8
0
  6
Continuous
 62
     7
370
    25
100
AcDbLine
 10
149.1542310441
 20
159.8335317765
 30
0.0
 11
149.1542310441
 21
174.5045719033
 31
0.0
  0
LINE
  5
116
330
1F
100
AcDbEntity
  8
0
  6
Continuous
 62
     7
370
    25
100
AcDbLine
 10
149.1542310441
 20
133.9198959183
 30
0.0
 11
150.6542310441
 21
133.0538705145
 31
0.0
  0
LINE
  5
117
330
1F
100
AcDbEntity
  8
0
  6
Continuous
 62
     7
370
    25
100
AcDbLine
 10
149.1542310441
 20
133.9198959183
 30
0.0
 11
149.1542310441
 21
148.5909360452
 31
0.0
  0
LINE
  5
118
330
1F
100
AcDbEntity
  8
0
  6
Continuous
 62
     7
370
    25
100
AcDbLine
 10
236.5395379151
 20
113.514231041
 30
0.0
 11
237.7065581248
 21
114.6806629608
 31
0.0
  0
LINE
  5
119
330
1F
100
AcDbEntity
  8
0
  6
Continuous
 62
     7
370
    25
100
AcDbLine
 10
242.643878599
 20
109.7403121419
 30
0.0
 11
237.7065581248
 21
114.6806629608
 31
0.0
  0
LINE
  5
11A
330
1F
100
AcDbEntity
  8
0
  6
Continuous
 62
     7
370
    25
100
AcDbLine
 10
242.643878599
 20
109.7403121419
 30
0.0
 11
228.6660416929
 21
109.7403121419
 31
0.0
  0
SPLINE
  5
11B
330
1F
100
AcDbEntity
  8
0
  6
Continuous
 62
     7
370
    25
100
AcDbSpline
210
0.0
220
0.0
230
1.0
 70
     8
 71
     3
 72
     8
 73
     4
 74
     0
 42
0.000000001
 43
0.00000001
 40
0.0
 40
0.0
 40
0.0
 40
0.0
 40
1.0
 40
1.0
 40
1.0
 40
1.0
 10
228.5729463035878
 20
109.9704860299632
 30
0.0
 10
228.5945930363529
 20
109.8893829203961
 30
0.0
 10
228.6257440282775
 20
109.812713900163
 30
0.0
 10
228.6660416929018
 20
109.7403121419203
 30
0.0
  0
SPLINE
  5
11C
330
1F
100
AcDbEntity
  8
0
  6
Continuous
 62
     7
370
    25
100
AcDbSpline
210
0.0
220
0.0
230
1.0
 70
     8
 71
     3
 72
     8
 73
     4
 74
     0
 42
0.000000001
 43
0.00000001
 40
0.0
 40
0.0
 40
0.0
 40
0.0
 40
1.0
 40
1.0
 40
1.0
 40
1.0
 10
225.3528298823879
 20
122.0895596021103
 30
0.0
 10
226.420021071278
 20
118.0481691328619
 30
0.0
 10
227.4950678092335
 20
114.0089383255794
 30
0.0
 10
228.5729463035878
 20
109.9704860299632
 30
0.0
  0
SPLINE
  5
11D
330
1F
100
AcDbEntity
  8
0
  6
Continuous
 62
     7
370
    25
100
AcDbSpline
210
0.0
220
0.0
230
1.0
 70
     8
 71
     3
 72
    10
 73
     6
 74
     0
 42
0.000000001
 43
0.00000001
 40
0.0
 40
0.0
 40
0.0
 40
0.0
 40
0.5
 40
0.5
 40
1.0
 40
1.0
 40
1.0
 40
1.0
 10
224.3869040560989
 20
122.8492204564316
 30
0.0
 10
224.6086949935583
 20
122.8471192026383
 30
0.0
 10
224.8247969515158
 20
122.7694020425255
 30
0.0
 10
225.1715742153345
 20
122.4948488738191
 30
0.0
 10
225.2961477809111
 20
122.3042113974684
 30
0.0
 10
225.3528298823879
 20
122.0895596021103
 30
0.0
  0
SPLINE
  5
11E
330
1F
100
AcDbEntity
  8
0
  6
Continuous
 62
     7
370
    25
100
AcDbSpline
210
0.0
220
0.0
230
1.0
 70
     8
 71
     3
 72
    10
 73
     6
 74
     0
 42
0.000000001
 43
0.00000001
 40
0.0
 40
0.0
 40
0.0
 40
0.0
 40
0.5
 40
0.5
 40
1.0
 40
1.0
 40
1.0
 40
1.0
 10
225.2529294598833
 20
184.9082110972187
 30
0.0
 10
225.1666610403442
 20
184.7544149269979
 30
0.0
 10
225.041048159739
 20
184.6221909955759
 30
0.0
 10
224.7384753506939
 20
184.4350256313725
 30
0.0
 10
224.5644695354188
 20
184.3816660498075
 30
0.0
 10
224.3869040560989
 20
184.3764632237665
 30
0.0
  0
ELLIPSE
  5
11F
330
1F
100
AcDbEntity
  8
0
  6
Continuous
 62
     7
370
    25
100
AcDbEllipse
 10
284.8495425699
 20
154.2122339108
 30
0.0
 11
320.5984970841478
 21
3.209890967438071
 31
0.0
210
0.0
220
0.0
230
1.0
 40
0.0993098927
 41
1.750846694320075
 42
1.756781269875848
  0
LINE
  5
120
330
1F
100
AcDbEntity
  8
0
  6
Continuous
 62
     7
370
    25
100
AcDbLine
 10
227.1234227606
 20
184.9613304165
 30
0.0
 11
242.1002451895
 21
129.2155398412
 31
0.0
  0
ARC
  5
121
330
1F
100
AcDbEntity
  8
0
  6
Continuous
 62
     7
370
    25
100
AcDbCircle
 10
250.655946737
 20
131.5126167056
 30
0.0
 40
8.858701433681338
100
AcDbArc
 50
195.0286350386
 51
212.5811559001
  0
LINE
  5
122
330
1F
100
AcDbEntity
  8
0
  6
Continuous
 62
     7
370
    25
100
AcDbLine
 10
233.2499288756
 20
116.8058591208
 30
0.0
 11
243.1913431466
 21
126.7422619673
 31
0.0
  0
ARC
  5
123
330
1F
100
AcDbEntity
  8
0
  6
Continuous
 62
     7
370
    25
100
AcDbCircle
 10
234.8816036041
 20
115.1469233433
 30
0.0
 40
2.326892849623007
100
AcDbArc
 50
134.5253442118
 51
315.4395005472
  0
LINE
  5
124
330
1F
100
AcDbEntity
  8
0
  6
Continuous
 62
     7
370
    25
100
AcDbLine
 10
225.2529294599
 20
186.2122339108
 30
0.0
 11
225.2529294599
 21
184.9082110972
 31
0.0
  0
ELLIPSE
  5
125
330
1F
100
AcDbEntity
  8
0
  6
Continuous
 62
     7
370
    25
100
AcDbEllipse
 10
235.0244607879
 20
154.2122339108
 30
0.0
 11
-8.933698817262069
 21
31.99434296433031
 31
0.0
210
0.0
220
0.0
230
1.0
 40
0.067349433
 41
5.983853269757349
 42
6.264381713183267
  0
ARC
  5
126
330
1F
100
AcDbEntity
  8
0
  6
Continuous
 62
     7
370
    25
100
AcDbCircle
 10
234.1184315773
 20
115.9186833404
 30
0.0
 40
2.342990542345586
100
AcDbArc
 50
238.7382378115
 51
315.2231764555
  0
LINE
  5
127
330
1F
100
AcDbEntity
  8
0
  6
Continuous
 62
     7
370
    25
100
AcDbLine
 10
235.7816167849
 20
114.2684046831
 30
0.0
 11
236.9486369947
 21
115.4348366029
 31
0.0
  0
LINE
  5
128
330
1F
100
AcDbEntity
  8
0
  6
Continuous
 62
     7
370
    25
100
AcDbLine
 10
236.9486369947
 20
115.4348366029
 30
0.0
 11
237.7065581248
 21
114.6806629608
 31
0.0
  0
LWPOLYLINE
  5
129
330
1F
100
AcDbEntity
  8
0
  6
Continuous
 62
     7
370
    25
100
AcDbPolyline
 90
        3
 70
   128
 43
0.0
 10
241.7615555344
 20
116.1468497055
 10
241.9025585999
 20
116.1390811352
 10
242.2243270455
 20
116.1447878387
  0
LINE
  5
12A
330
1F
100
AcDbEntity
  8
VERMASSUNG
100
AcDbLine
 10
252.1542310441
 20
109.2122339108
 30
0.0
 11
252.1542310441
 21
154.2122339108
 31
0.0
  0
LINE
  5
12B
330
1F
100
AcDbEntity
  8
VERMASSUNG
100
AcDbLine
 10
252.1542310441
 20
109.2122339108
 30
0.0
 11
207.365577778
 21
109.2122339108
 31
0.0
  0
DIMENSION
  5
12C
330
1F
100
AcDbEntity
  8
VERMASSUNG
100
AcDbDimension
  2
_D
 10
262.3190895331
 20
154.2122339108
 30
0.0
 11
262.3190895331
 21
131.7122339108
 31
0.0
 70
   160
  1
<>
 71
     2
 42
-1.0
  3
SLDDIMSTYLE0
100
AcDbAlignedDimension
 13
252.1542310441
 23
109.2122339108
 33
0.0
 14
257.2008662977
 24
154.2122339108
 34
0.0
 50
90.0
100
AcDbRotatedDimension
  0
DIMENSION
  5
139
330
1F
100
AcDbEntity
  8
VERMASSUNG
100
AcDbDimension
  2
_D_1
 10
187.1542310441
 20
93.0473657619
 30
0.0
 11
219.6542310441
 21
93.0473657619
 31
0.0
 70
   160
  1
<>
 71
     2
 42
-1.0
  3
SLDDIMSTYLE0
100
AcDbAlignedDimension
 13
252.1542310441
 23
109.2122339108
 33
0.0
 14
187.1542310441
 24
123.2122339108
 34
0.0
100
AcDbRotatedDimension
  0
DIMENSION
  5
145
330
1F
100
AcDbEntity
  8
VERMASSUNG
100
AcDbDimension
  2
_D_2
 10
149.1542310441
 20
84.3582879907
 30
0.0
 11
200.6542310441
 21
84.3582879907
 31
0.0
 70
   160
  1
<>
 71
     2
 42
-1.0
  3
SLDDIMSTYLE1
100
AcDbAlignedDimension
 13
252.1542310441
 23
109.2122339108
 33
0.0
 14
149.1542310441
 24
133.9198959183
 34
0.0
100
AcDbRotatedDimension
  0
DIMENSION
  5
150
330
1F
100
AcDbEntity
  8
VERMASSUNG
100
AcDbDimension
  2
_D_3
 10
252.1542310441
 20
154.2122339108
 30
0.0
 11
245.5222848684
 21
101.8553539073
 31
0.0
 70
   162
  1
<>
 71
     1
 42
-1.0
  3
SLDDIMSTYLE2
100
AcDb2LineAngularDimension
 13
243.6194843332
 23
109.3301371364
 33
0.0
 14
252.0361755429
 24
117.7425855279
 34
0.0
 15
252.1542310441
 25
109.2122339108
 35
0.0
 16
245.5222848684
 26
101.8553539073
 36
0.0
  0
DIMENSION
  5
15B
330
1F
100
AcDbEntity
  8
VERMASSUNG
100
AcDbDimension
  2
_D_4
 10
139.1542310441
 20
185.7122339108
 30
0.0
 11
139.1542310441
 21
154.2122339108
 31
0.0
 70
   160
  1
PSC%%c<>
 71
     2
 42
-1.0
  3
SLDDIMSTYLE1
100
AcDbAlignedDimension
 13
187.6542310441
 23
122.7122339108
 33
0.0
 14
187.6542310441
 24
185.7122339108
 34
0.0
 50
90.0
100
AcDbRotatedDimension
  0
LINE
  5
167
330
1F
100
AcDbEntity
  8
VERMASSUNG
  6
CENTERX2
370
    18
100
AcDbLine
 10
257.2008662977
 20
154.2122339108
 30
0.0
 11
144.2498971604
 21
154.2122339108
 31
0.0
  0
LINE
  5
168
330
1F
100
AcDbEntity
  8
0
  6
Continuous
 62
     7
370
    25
100
AcDbLine
 10
66.2176688465
 20
122.9995389679
 30
0.0
 11
65.883009779
 21
122.2408798733
 31
0.0
  0
LINE
  5
169
330
1F
100
AcDbEntity
  8
0
  6
Continuous
 62
     7
370
    25
100
AcDbLine
 10
66.7297796435
 20
113.7228322425
 30
0.0
 11
67.2101114223
 21
113.0419981876
 31
0.0
  0
LINE
  5
16A
330
1F
100
AcDbEntity
  8
0
  6
Continuous
 62
     7
370
    25
100
AcDbLine
 10
70.1654306294
 20
127.2252922156
 30
0.0
 11
65.4523850798
 21
126.7548681447
 31
0.0
  0
LINE
  5
16B
330
1F
100
AcDbEntity
  8
0
  6
Continuous
 62
     7
370
    25
100
AcDbLine
 10
67.1945756557
 20
109.2122544744
 30
0.0
 11
71.907621078
 21
109.6826766827
 31
0.0
  0
LINE
  5
16C
330
1F
100
AcDbEntity
  8
0
  6
Continuous
 62
     7
370
    25
100
AcDbLine
 10
64.4826925972
 20
128.0896806368
 30
0.0
 11
64.2182584533
 21
127.7633005032
 31
0.0
  0
LINE
  5
16D
330
1F
100
AcDbEntity
  8
0
  6
Continuous
 62
     7
370
    25
100
AcDbLine
 10
64.9100248383
 20
120.8326977887
 30
0.0
 11
65.2337532637
 21
120.5650245049
 31
0.0
  0
LINE
  5
16E
330
1F
100
AcDbEntity
  8
0
  6
Continuous
 62
     7
370
    25
100
AcDbLine
 10
73.0493457203
 20
127.1801435598
 30
0.0
 11
70.247242661
 21
126.9004562148
 31
0.0
  0
LINE
  5
16F
330
1F
100
AcDbEntity
  8
0
  6
Continuous
 62
     7
370
    25
100
AcDbLine
 10
71.9240565931
 20
110.0173195103
 30
0.0
 11
74.7268867826
 21
110.2970813611
 31
0.0
  0
LINE
  5
170
330
1F
100
AcDbEntity
  8
0
  6
Continuous
 62
     7
370
    25
100
AcDbLine
 10
73.3855066036
 20
126.9076907286
 30
0.0
 11
73.0617779454
 21
127.1753621497
 31
0.0
  0
LINE
  5
171
330
1F
100
AcDbEntity
  8
0
  6
Continuous
 62
     7
370
    25
100
AcDbLine
 10
74.7381287774
 20
110.3042227426
 30
0.0
 11
75.0025633869
 21
110.6306028762
 31
0.0
  0
LINE
  5
172
330
1F
100
AcDbEntity
  8
0
  6
Continuous
 62
     7
370
    25
100
AcDbLine
 10
65.4360681919
 20
126.6369850585
 30
0.0
 11
65.4314702524
 21
118.2245363691
 31
0.0
  0
LWPOLYLINE
  5
173
330
1F
100
AcDbEntity
  8
0
  6
Continuous
 62
     7
370
    25
100
AcDbPolyline
 90
        9
 70
   128
 43
0.0
 10
65.4922675721
 20
126.6396169761
 10
65.4813308183
 20
126.6888373741
 10
65.4708083866
 20
126.7252967903
 10
65.4611047038
 20
126.7475982406
 10
65.4525926483
 20
126.7548830458
 10
65.4455993471
 20
126.746871809
 10
65.4403934868
 20
126.7238718667
 10
65.4371753016
 20
126.6867679754
 10
65.4360681919
 20
126.6369850585
  0
LINE
  5
174
330
1F
100
AcDbEntity
  8
0
  6
Continuous
 62
     7
370
    25
100
AcDbLine
 10
67.1596002402
 20
118.3054943779
 30
0.0
 11
65.4922675721
 21
126.6396169761
 31
0.0
  0
ARC
  5
175
330
1F
100
AcDbEntity
  8
0
  6
Continuous
 62
     7
370
    25
100
AcDbCircle
 10
63.8734235869
 20
117.694986649
 30
0.0
 40
3.342405822802923
100
AcDbArc
 50
0.8159516969
 51
10.5244547379
  0
LINE
  5
176
330
1F
100
AcDbEntity
  8
0
  6
Continuous
 62
     7
370
    25
100
AcDbLine
 10
67.2108925509
 20
109.3301375606
 30
0.0
 11
67.2154904832
 21
117.7425843873
 31
0.0
  0
LWPOLYLINE
  5
177
330
1F
100
AcDbEntity
  8
0
  6
Continuous
 62
     7
370
    25
100
AcDbPolyline
 90
        9
 70
   128
 43
0.0
 10
67.1546932035
 20
109.3275037804
 10
67.16562997
 20
109.278285245
 10
67.1761523819
 20
109.2418258288
 10
67.1858560694
 20
109.2195225158
 10
67.1943681254
 20
109.2122395733
 10
67.2013614357
 20
109.2202489474
 10
67.2065672506
 20
109.2432488897
 10
67.209785514
 20
109.2803527811
 10
67.2108925509
 20
109.3301375606
  0
LINE
  5
178
330
1F
100
AcDbEntity
  8
0
  6
Continuous
 62
     7
370
    25
100
AcDbLine
 10
65.4873605499
 20
117.6616263786
 30
0.0
 11
67.1546932035
 21
109.3275037804
 31
0.0
  0
ARC
  5
179
330
1F
100
AcDbEntity
  8
0
  6
Continuous
 62
     7
370
    25
100
AcDbCircle
 10
68.7735417466
 20
118.2721348825
 30
0.0
 40
3.34241043127547
100
AcDbArc
 50
180.8159638598
 51
190.5244535754
  0
ARC
  5
17A
330
1F
100
AcDbEntity
  8
0
  6
Continuous
 62
     7
370
    25
100
AcDbCircle
 10
64.0376733023
 20
117.7113695427
 30
0.0
 40
3.175336973541782
100
AcDbArc
 50
0.8160121907
 51
10.5243743527
  0
LINE
  5
17B
330
1F
100
AcDbEntity
  8
0
  6
Continuous
 62
     7
370
    25
100
AcDbLine
 10
67.1595925132
 20
118.2913569012
 30
0.0
 11
65.4922598887
 21
126.6254794994
 31
0.0
  0
LWPOLYLINE
  5
17C
330
1F
100
AcDbEntity
  8
0
  6
Continuous
 62
     7
370
    25
100
AcDbPolyline
 90
        9
 70
   128
 43
0.0
 10
65.4922598887
 20
126.6254794994
 10
65.4818699376
 20
126.6722374806
 10
65.4718735868
 20
126.7068752297
 10
65.4626551231
 20
126.7280609557
 10
65.454568682
 20
126.7349825451
 10
65.447924976
 20
126.727371777
 10
65.4429795367
 20
126.7055210867
 10
65.4399221211
 20
126.6702723899
 10
65.4388704251
 20
126.6229779669
  0
LINE
  5
17D
330
1F
100
AcDbEntity
  8
0
  6
Continuous
 62
     7
370
    25
100
AcDbLine
 10
65.4388704251
 20
126.6229779669
 30
0.0
 11
65.4342724856
 21
118.2105292776
 31
0.0
  0
ARC
  5
17E
330
1F
100
AcDbEntity
  8
0
  6
Continuous
 62
     7
370
    25
100
AcDbCircle
 10
68.6093157127
 20
118.2557541285
 30
0.0
 40
3.175365298856606
100
AcDbArc
 50
180.8160575091
 51
190.5243328941
  0
LINE
  5
17F
330
1F
100
AcDbEntity
  8
0
  6
Continuous
 62
     7
370
    25
100
AcDbLine
 10
65.4873682333
 20
117.6757638553
 30
0.0
 11
67.1547009305
 21
109.3416412571
 31
0.0
  0
LWPOLYLINE
  5
180
330
1F
100
AcDbEntity
  8
0
  6
Continuous
 62
     7
370
    25
100
AcDbPolyline
 90
        9
 70
   128
 43
0.0
 10
67.1547009305
 20
109.3416412571
 10
67.1650908589
 20
109.2948851385
 10
67.1750871506
 20
109.2602473893
 10
67.1843056538
 20
109.2390616634
 10
67.1923921063
 20
109.232140074
 10
67.1990357504
 20
109.2397508421
 10
67.2039812752
 20
109.2615996697
 10
67.2070386253
 20
109.2968483665
 10
67.2080903104
 20
109.3441446522
  0
LINE
  5
181
330
1F
100
AcDbEntity
  8
0
  6
Continuous
 62
     7
370
    25
100
AcDbLine
 10
67.2080903104
 20
109.3441446522
 30
0.0
 11
67.2126882427
 21
117.7565914789
 31
0.0
  0
ARC
  5
182
330
1F
100
AcDbEntity
  8
0
  6
Continuous
 62
     7
370
    25
100
AcDbCircle
 10
68.5864628571
 20
118.165413024
 30
0.0
 40
3.342411851522131
100
AcDbArc
 50
0.8159426579
 51
10.5244278426
  0
LINE
  5
183
330
1F
100
AcDbEntity
  8
0
  6
Continuous
 62
     7
370
    25
100
AcDbLine
 10
71.8726457243
 20
118.7759203115
 30
0.0
 11
70.2053128888
 21
127.1100429097
 31
0.0
  0
LINE
  5
184
330
1F
100
AcDbEntity
  8
0
  6
Continuous
 62
     7
370
    25
100
AcDbLine
 10
71.9239378495
 20
109.8005597689
 30
0.0
 11
71.928535789
 21
118.2130103209
 31
0.0
  0
ARC
  5
185
330
1F
100
AcDbEntity
  8
0
  6
Continuous
 62
     7
370
    25
100
AcDbCircle
 10
58.4356919658
 20
117.1795464538
 30
0.0
 40
8.356109069068474
100
AcDbArc
 50
0.8160202028
 51
10.5244004109
  0
LINE
  5
186
330
1F
100
AcDbEntity
  8
0
  6
Continuous
 62
     7
370
    25
100
AcDbLine
 10
66.6512279685
 20
118.7058252492
 30
0.0
 11
65.9983061168
 21
121.969440321
 31
0.0
  0
LINE
  5
187
330
1F
100
AcDbEntity
  8
0
  6
Continuous
 62
     7
370
    25
100
AcDbLine
 10
66.7891530292
 20
114.0042630234
 30
0.0
 11
66.7909535668
 21
117.2985521355
 31
0.0
  0
LINE
  5
188
330
1F
100
AcDbEntity
  8
0
  6
Continuous
 62
     7
370
    25
100
AcDbLine
 10
65.8578077245
 20
121.962857733
 30
0.0
 11
65.8560072451
 21
118.6685723462
 31
0.0
  0
LWPOLYLINE
  5
189
330
1F
100
AcDbEntity
  8
0
  6
Continuous
 62
     7
370
    25
100
AcDbPolyline
 90
        9
 70
   128
 43
0.0
 10
65.9983061168
 20
121.969440321
 10
65.9709642322
 20
122.0924866596
 10
65.9446580948
 20
122.1836407879
 10
65.920398888
 20
122.2393934825
 10
65.8991187492
 20
122.2576064267
 10
65.8816354962
 20
122.2375755408
 10
65.8686209617
 20
122.1800756851
 10
65.860575266
 20
122.0873159566
 10
65.8578077245
 20
121.962857733
  0
LWPOLYLINE
  5
18A
330
1F
100
AcDbEntity
  8
0
  6
Continuous
 62
     7
370
    25
100
AcDbPolyline
 90
        9
 70
   128
 43
0.0
 10
66.648654666
 20
113.9976804355
 10
66.6759966088
 20
113.8746340969
 10
66.7023026298
 20
113.7834836939
 10
66.7265618367
 20
113.7277309993
 10
66.7478419754
 20
113.709518055
 10
66.7653252576
 20
113.7295452156
 10
66.7783397921
 20
113.7870450714
 10
66.7863854587
 20
113.8798047998
 10
66.7891530292
 20
114.0042630234
  0
LINE
  5
18B
330
1F
100
AcDbEntity
  8
0
  6
Continuous
 62
     7
370
    25
100
AcDbLine
 10
65.9957327561
 20
117.2612955072
 30
0.0
 11
66.648654666
 21
113.9976804355
 31
0.0
  0
ARC
  5
18C
330
1F
100
AcDbEntity
  8
0
  6
Continuous
 62
     7
370
    25
100
AcDbCircle
 10
74.2112832542
 20
118.7875749084
 30
0.0
 40
8.356123431160675
100
AcDbArc
 50
180.8159974085
 51
190.5243863407
  0
LWPOLYLINE
  5
18D
330
1F
100
AcDbEntity
  8
0
  6
Continuous
 62
     7
370
    25
100
AcDbPolyline
 90
       27
 70
   128
 43
0.0
 10
66.3224834979
 20
116.1596861878
 10
66.4090224572
 20
115.7802653709
 10
66.4905900166
 20
115.5288939574
 10
66.5624457442
 20
115.4201788106
 10
66.6204136477
 20
115.4604380229
 10
66.6611249007
 20
115.6473321119
 10
66.682213478
 20
115.9699981311
 10
66.6824538175
 20
116.4096866944
 10
66.6618318909
 20
116.9408423105
 10
66.6215462524
 20
117.5325972238
 10
66.5639380722
 20
118.1505595544
 10
66.4923553385
 20
118.7588175037
 10
66.4109582694
 20
119.3220180669
 10
66.3244772267
 20
119.8074345687
 10
66.2379383256
 20
120.1868553856
 10
66.1563707662
 20
120.438226799
 10
66.0845150387
 20
120.5469419458
 10
66.0265470769
 20
120.5066864589
 10
65.9858358239
 20
120.3197923699
 10
65.9647473048
 20
119.9971226254
 10
65.9645069072
 20
119.5574377873
 10
65.9851288337
 20
119.0262821713
 10
66.0254145886
 20
118.434527258
 10
66.0830227106
 20
117.8165612021
 10
66.1546054443
 20
117.2083032527
 10
66.2360025135
 20
116.6451026895
 10
66.3224834979
 20
116.1596861878
  0
LINE
  5
18E
330
1F
100
AcDbEntity
  8
0
  6
Continuous
 62
     7
370
    25
100
AcDbLine
 10
65.894855038
 20
117.9830705026
 30
0.0
 11
65.7047440445
 21
117.9660794535
 31
0.0
  0
LINE
  5
18F
330
1F
100
AcDbEntity
  8
0
  6
Continuous
 62
     7
370
    25
100
AcDbLine
 10
65.7047440445
 20
117.9660794535
 30
0.0
 11
65.4342724856
 21
118.2105292776
 31
0.0
  0
LINE
  5
190
330
1F
100
AcDbEntity
  8
0
  6
Continuous
 62
     7
370
    25
100
AcDbLine
 10
65.5046548608
 20
126.5635223338
 30
0.0
 11
65.4388704251
 21
126.6229779669
 31
0.0
  0
LINE
  5
191
330
1F
100
AcDbEntity
  8
0
  6
Continuous
 62
     7
370
    25
100
AcDbLine
 10
67.2081279435
 20
109.4129954675
 30
0.0
 11
67.1547009305
 21
109.3416412571
 31
0.0
  0
LINE
  5
192
330
1F
100
AcDbEntity
  8
0
  6
Continuous
 62
     7
370
    25
100
AcDbLine
 10
65.7047440445
 20
117.9660794535
 30
0.0
 11
65.4873682333
 21
117.6757638553
 31
0.0
  0
LWPOLYLINE
  5
193
330
1F
100
AcDbEntity
  8
0
  6
Continuous
 62
     7
370
    25
100
AcDbPolyline
 90
        6
 70
   128
 43
0.0
 10
70.2053128888
 20
127.1100429097
 10
70.194376135
 20
127.1592614451
 10
70.1838538197
 20
127.1957208612
 10
70.174150137
 20
127.2180223116
 10
70.1656380815
 20
127.2253089794
 10
70.1654306294
 20
127.2252922156
  0
ARC
  5
194
330
1F
100
AcDbEntity
  8
0
  6
Continuous
 62
     7
370
    25
100
AcDbCircle
 10
71.7304945368
 20
109.7672644141
 30
0.0
 40
0.196287788402959
100
AcDbArc
 50
334.472941161
 51
9.7660279728
  0
LWPOLYLINE
  5
195
330
1F
100
AcDbEntity
  8
0
  6
Continuous
 62
     7
370
    25
100
AcDbPolyline
 90
       31
 70
   128
 43
0.0
 10
65.0880171133
 20
122.0240493515
 10
65.0839721465
 20
121.525944511
 10
65.0587172394
 20
121.1491425732
 10
65.0133557764
 20
120.9101130464
 10
64.9498703105
 20
120.8192979195
 10
64.8710357172
 20
120.8806720772
 10
64.7802974244
 20
121.0915495851
 10
64.6816207708
 20
121.4427140751
 10
64.5793187113
 20
121.9188173511
 10
64.4778622927
 20
122.4990573922
 10
64.3816855417
 20
123.1580668339
 10
64.2949922157
 20
123.8670491823
 10
64.221570702
 20
124.5950156101
 10
64.1646301055
 20
125.3101521381
 10
64.12665892
 20
125.9812017181
 10
64.1093169951
 20
126.5788407275
 10
64.1133619619
 20
127.0769437054
 10
64.138616869
 20
127.4537456432
 10
64.183978332
 20
127.6927770325
 10
64.2474637979
 20
127.7835902968
 10
64.3262983912
 20
127.7222180018
 10
64.417036684
 20
127.5113404938
 10
64.5157133376
 20
127.1601760038
 10
64.6180153971
 20
126.6840708652
 10
64.7194718158
 20
126.1038326868
 10
64.8156485667
 20
125.4448232451
 10
64.9023418927
 20
124.7358408966
 10
64.9757634064
 20
124.0078744688
 10
65.0327040029
 20
123.2927379408
 10
65.0706751885
 20
122.6216864982
 10
65.0880171133
 20
122.0240493515
  0
LWPOLYLINE
  5
196
330
1F
100
AcDbEntity
  8
0
  6
Continuous
 62
     7
370
    25
100
AcDbPolyline
 90
       24
 70
   128
 43
0.0
 10
64.8782956095
 20
123.0000754097
 10
64.87285622
 20
122.6420787373
 10
64.8470816349
 20
122.4071507552
 10
64.802883161
 20
122.3127146461
 10
64.7435388209
 20
122.3657702306
 10
64.6734500451
 20
122.5623873272
 10
64.5978150105
 20
122.8879851499
 10
64.522243073
 20
123.3184089163
 10
64.4523391647
 20
123.8217422017
 10
64.3932879584
 20
124.3606520095
 10
64.3494685327
 20
124.8951715627
 10
64.3241309708
 20
125.3856563219
 10
64.3191546814
 20
125.7957288274
 10
64.3349084684
 20
126.0949795344
 10
64.3702239876
 20
126.2612094381
 10
64.4224821271
 20
126.2820952782
 10
64.487807188
 20
126.1560836085
 10
64.5613539645
 20
125.8925230452
 10
64.6376683989
 20
125.5109583238
 10
64.7110899126
 20
125.0396904745
 10
64.7761737609
 20
124.5136701712
 10
64.828092899
 20
123.9719086537
 10
64.8629963079
 20
123.4545887658
 10
64.8782956095
 20
123.0000754097
  0
LINE
  5
197
330
1F
100
AcDbEntity
  8
0
  6
Continuous
 62
     7
370
    25
100
AcDbLine
 10
64.7394135275
 20
124.8003890016
 30
0.0
 11
64.6621640453
 21
124.6519305953
 31
0.0
  0
LINE
  5
198
330
1F
100
AcDbEntity
  8
0
  6
Continuous
 62
     7
370
    25
100
AcDbLine
 10
64.7593936564
 20
124.6616349765
 30
0.0
 11
64.6621640453
 21
124.6519305953
 31
0.0
  0
LINE
  5
199
330
1F
100
AcDbEntity
  8
0
  6
Continuous
 62
     7
370
    25
100
AcDbLine
 10
71.9242470486
 20
110.3661035397
 30
0.0
 11
71.9282265899
 21
117.6474665501
 31
0.0
  0
LINE
  5
19A
330
1F
100
AcDbEntity
  8
0
  6
Continuous
 62
     7
370
    25
100
AcDbLine
 10
71.7605559302
 20
119.3361965218
 30
0.0
 11
70.3174024501
 21
126.5497648367
 31
0.0
  0
ARC
  5
19B
330
1F
100
AcDbEntity
  8
0
  6
Continuous
 62
     7
370
    25
100
AcDbCircle
 10
64.7535946447
 20
117.7892986571
 30
0.0
 40
10.02723926160353
100
AcDbArc
 50
0.8159599698
 51
10.5244418205
  0
ARC
  5
19C
330
1F
100
AcDbEntity
  8
0
  6
Continuous
 62
     7
370
    25
100
AcDbCircle
 10
67.515153111
 20
118.0647468227
 30
0.0
 40
7.520433931153305
100
AcDbArc
 50
0.815980899
 51
10.5244500357
  0
LINE
  5
19D
330
1F
100
AcDbEntity
  8
0
  6
Continuous
 62
     7
370
    25
100
AcDbLine
 10
74.6121464444
 20
119.6208236018
 30
0.0
 11
73.1689931972
 21
126.8343919167
 31
0.0
  0
LINE
  5
19E
330
1F
100
AcDbEntity
  8
0
  6
Continuous
 62
     7
370
    25
100
AcDbLine
 10
74.7758375628
 20
110.6507306197
 30
0.0
 11
74.7798171041
 21
117.9320936301
 31
0.0
  0
LINE
  5
19F
330
1F
100
AcDbEntity
  8
0
  6
Continuous
 62
     7
370
    25
100
AcDbLine
 10
73.4659179261
 20
126.6519607255
 30
0.0
 11
74.9090711733
 21
119.4383924106
 31
0.0
  0
LINE
  5
1A0
330
1F
100
AcDbEntity
  8
0
  6
Continuous
 62
     7
370
    25
100
AcDbLine
 10
75.0348244009
 20
118.1718458631
 30
0.0
 11
75.0308448596
 21
110.8904828527
 31
0.0
  0
LWPOLYLINE
  5
1A1
330
1F
100
AcDbEntity
  8
0
  6
Continuous
 62
     7
370
    25
100
AcDbPolyline
 90
        6
 70
   128
 43
0.0
 10
73.1689931972
 20
126.8343919167
 10
73.1361827029
 20
126.9820475229
 10
73.1046155242
 20
127.0914313593
 10
73.0755042432
 20
127.1583338478
 10
73.0499683095
 20
127.180190126
 10
73.0493457203
 20
127.1801435598
  0
ARC
  5
1A2
330
1F
100
AcDbEntity
  8
0
  6
Continuous
 62
     7
370
    25
100
AcDbCircle
 10
74.1955577211
 20
110.5508383206
 30
0.0
 40
0.588815052503398
100
AcDbArc
 50
334.4713683698
 51
9.7674527141
  0
ARC
  5
1A3
330
1F
100
AcDbEntity
  8
0
  6
Continuous
 62
     7
370
    25
100
AcDbCircle
 10
72.4117022481
 20
126.4856843929
 30
0.0
 40
1.067248103508838
100
AcDbArc
 50
8.9631464592
 51
21.8832368789
  0
ARC
  5
1A4
330
1F
100
AcDbEntity
  8
0
  6
Continuous
 62
     7
370
    25
100
AcDbCircle
 10
74.4468206166
 20
110.822560512
 30
0.0
 40
0.587960679553335
100
AcDbArc
 50
340.9447114886
 51
6.6337289232
  0
LINE
  5
1A5
330
1F
100
AcDbEntity
  8
0
  6
Continuous
 62
     7
370
    25
100
AcDbLine
 10
74.9558757206
 20
119.1588205495
 30
0.0
 11
98.0412217004
 21
121.4630467096
 31
0.0
  0
ARC
  5
1A6
330
1F
100
AcDbEntity
  8
0
  6
Continuous
 62
     7
370
    25
100
AcDbCircle
 10
67.178774826
 20
154.2122339108
 30
0.0
 40
45.00000000000001
100
AcDbArc
 50
311.799858116
 51
313.301086379
  0
LINE
  5
1A7
330
1F
100
AcDbEntity
  8
0
  6
Continuous
 62
     7
370
    25
100
AcDbLine
 10
97.1726535035
 20
120.6657414534
 30
0.0
 11
75.0258231682
 21
118.4551914432
 31
0.0
  0
LINE
  5
1A8
330
1F
100
AcDbEntity
  8
0
  6
Continuous
 62
     7
370
    25
100
AcDbLine
 10
99.1787763459
 20
122.5736488798
 30
0.0
 11
99.1787763459
 21
128.5674807825
 31
0.0
  0
ARC
  5
1A9
330
1F
100
AcDbEntity
  8
0
  6
Continuous
 62
     7
370
    25
100
AcDbCircle
 10
67.178774826
 20
154.2122339108
 30
0.0
 40
45.00000000000001
100
AcDbArc
 50
313.301086379
 51
315.3253904356
  0
LINE
  5
1AA
330
1F
100
AcDbEntity
  8
0
  6
Continuous
 62
     7
370
    25
100
AcDbLine
 10
74.9398900343
 20
110.494484494
 30
0.0
 11
75.002528928
 21
110.494484494
 31
0.0
  0
LINE
  5
1AB
330
1F
100
AcDbEntity
  8
0
  6
Continuous
 62
     7
370
    25
100
AcDbLine
 10
74.9398900343
 20
110.494484494
 30
0.0
 11
74.9304617902
 21
110.5416131416
 31
0.0
  0
LINE
  5
1AC
330
1F
100
AcDbEntity
  8
0
  6
Continuous
 62
     7
370
    25
100
AcDbLine
 10
73.2975036053
 20
126.9804549613
 30
0.0
 11
73.297785796
 21
127.4964356073
 31
0.0
  0
ARC
  5
1AD
330
1F
100
AcDbEntity
  8
0
  6
Continuous
 62
     7
370
    25
100
AcDbCircle
 10
122.6428818479
 20
135.5745294701
 30
0.0
 40
50.00194101053807
100
AcDbArc
 50
189.2972006729
 51
190.0096789648
  0
LINE
  5
1AE
330
1F
100
AcDbEntity
  8
0
  6
Continuous
 62
     7
370
    25
100
AcDbLine
 10
75.002528928
 20
110.494484494
 30
0.0
 11
75.0026034338
 21
110.6306550303
 31
0.0
  0
LINE
  5
1AF
330
1F
100
AcDbEntity
  8
0
  6
Continuous
 62
     7
370
    25
100
AcDbLine
 10
79.5619154496
 20
110.9495734074
 30
0.0
 11
75.002528928
 21
110.494484494
 31
0.0
  0
ARC
  5
1B0
330
1F
100
AcDbEntity
  8
0
  6
Continuous
 62
     7
370
    25
100
AcDbCircle
 10
67.178774826
 20
154.2122339108
 30
0.0
 40
45.0
100
AcDbArc
 50
285.9727952163
 51
311.799858116
  0
LINE
  5
1B1
330
1F
100
AcDbEntity
  8
0
  6
Continuous
 62
     7
370
    25
100
AcDbLine
 10
70.1870273014
 20
127.1859401116
 30
0.0
 11
73.297785796
 21
127.4964356073
 31
0.0
  0
ARC
  5
1B2
330
1F
100
AcDbEntity
  8
0
  6
Continuous
 62
     7
370
    25
100
AcDbCircle
 10
134.0666385384
 20
137.8477756183
 30
0.0
 40
69.22136122386216
100
AcDbArc
 50
187.1637085772
 51
189.2321332966
  0
LINE
  5
1B3
330
1F
100
AcDbEntity
  8
0
  6
Continuous
 62
     7
370
    25
100
AcDbLine
 10
99.1787763459
 20
128.5674807825
 30
0.0
 11
99.1787763459
 21
132.5885442295
 31
0.0
  0
LINE
  5
1B4
330
1F
100
AcDbEntity
  8
0
  6
Continuous
 62
     7
370
    25
100
AcDbLine
 10
67.0721064643
 20
109.740310649
 30
0.0
 11
65.9819383554
 21
109.740310649
 31
0.0
  0
SPLINE
  5
1B5
330
1F
100
AcDbEntity
  8
0
  6
Continuous
 62
     7
370
    25
100
AcDbSpline
210
0.0
220
0.0
230
1.0
 70
     8
 71
     3
 72
     8
 73
     4
 74
     0
 42
0.000000001
 43
0.00000001
 40
0.0
 40
0.0
 40
0.0
 40
0.0
 40
1.0
 40
1.0
 40
1.0
 40
1.0
 10
65.94962564355296
 20
109.9704860299632
 30
0.0
 10
65.95989217742772
 20
109.8893829203961
 30
0.0
 10
65.97066949537624
 20
109.812713900163
 30
0.0
 10
65.98193837975455
 20
109.7403121419203
 30
0.0
  0
SPLINE
  5
1B6
330
1F
100
AcDbEntity
  8
0
  6
Continuous
 62
     7
370
    25
100
AcDbSpline
210
0.0
220
0.0
230
1.0
 70
     8
 71
     3
 72
     8
 73
     4
 74
     0
 42
0.000000001
 43
0.00000001
 40
0.0
 40
0.0
 40
0.0
 40
0.0
 40
1.0
 40
1.0
 40
1.0
 40
1.0
 10
64.41697385160472
 20
122.0895596021103
 30
0.0
 10
64.92740738624252
 20
118.0481691328619
 30
0.0
 10
65.43841334212685
 20
114.0089383255794
 30
0.0
 10
65.94962564355295
 20
109.9704860299632
 30
0.0
  0
SPLINE
  5
1B7
330
1F
100
AcDbEntity
  8
0
  6
Continuous
 62
     7
370
    25
100
AcDbSpline
210
0.0
220
0.0
230
1.0
 70
     8
 71
     3
 72
    10
 73
     6
 74
     0
 42
0.000000001
 43
0.00000001
 40
0.0
 40
0.0
 40
0.0
 40
0.0
 40
0.5
 40
0.5
 40
1.0
 40
1.0
 40
1.0
 40
1.0
 10
64.24425833106673
 20
122.8492204564316
 30
0.0
 10
64.26671574478559
 20
122.8471192026383
 30
0.0
 10
64.2961499721195
 20
122.7694020425255
 30
0.0
 10
64.35833898583434
 20
122.4948488738191
 30
0.0
 10
64.38986301550642
 20
122.3042113974684
 30
0.0
 10
64.41697385160472
 20
122.0895596021103
 30
0.0
  0
ARC
  5
1B8
330
1F
100
AcDbEntity
  8
0
  6
Continuous
 62
     7
370
    25
100
AcDbCircle
 10
67.178774826
 20
154.2122339108
 30
0.0
 40
31.50000000000002
100
AcDbArc
 50
264.4498997268
 51
264.6546170553
  0
ARC
  5
1B9
330
1F
100
AcDbEntity
  8
0
  6
Continuous
 62
     7
370
    25
100
AcDbCircle
 10
67.178774826
 20
154.2122339108
 30
0.0
 40
31.5
100
AcDbArc
 50
106.7453829447
 51
106.9501002732
  0
SPLINE
  5
1BA
330
1F
100
AcDbEntity
  8
0
  6
Continuous
 62
     7
370
    25
100
AcDbSpline
210
0.0
220
0.0
230
1.0
 70
     8
 71
     3
 72
    10
 73
     6
 74
     0
 42
0.000000001
 43
0.00000001
 40
0.0
 40
0.0
 40
0.0
 40
0.0
 40
0.5
 40
0.5
 40
1.0
 40
1.0
 40
1.0
 40
1.0
 10
58.13681792648153
 20
184.9082110972187
 30
0.0
 10
58.14351530533423
 20
184.7544149269979
 30
0.0
 10
58.14411287545592
 20
184.6221909955759
 30
0.0
 10
58.13244361341555
 20
184.4350256313725
 30
0.0
 10
58.12031521636263
 20
184.3816660498075
 30
0.0
 10
58.10302306889342
 20
184.3764632237665
 30
0.0
  0
ARC
  5
1BB
330
1F
100
AcDbEntity
  8
0
  6
Continuous
 62
     7
370
    25
100
AcDbCircle
 10
67.178774826
 20
154.2122339108
 30
0.0
 40
32.00000000000003
100
AcDbArc
 50
106.0730958417
 51
106.4131219742
  0
LINE
  5
1BC
330
1F
100
AcDbEntity
  8
0
  6
Continuous
 62
     7
370
    25
100
AcDbLine
 10
58.3191432206
 20
184.9613295147
 30
0.0
 11
65.3856269464
 21
129.2155397334
 31
0.0
  0
LWPOLYLINE
  5
1BD
330
1F
100
AcDbEntity
  8
0
  6
Continuous
 62
     7
370
    25
100
AcDbPolyline
 90
       13
 70
   128
 43
0.0
 10
65.7454286383
 20
116.3716775575
 10
65.7474936133
 20
116.3198066154
 10
65.7801681345
 20
115.7547210553
 10
65.8323061334
 20
115.1491080621
 10
65.9003544978
 20
114.5442401269
 10
65.9796758236
 20
113.9813375869
 10
66.0648644816
 20
113.4987634817
 10
66.1501149561
 20
113.1294009486
 10
66.2296177151
 20
112.8984254995
 10
66.297954615
 20
112.8215764859
 10
66.3504687518
 20
112.9040879407
 10
66.3835812274
 20
113.1403384009
 10
66.3856915461
 20
113.1713402667
  0
LINE
  5
1BE
330
1F
100
AcDbEntity
  8
0
  6
Continuous
 62
     7
370
    25
100
AcDbLine
 10
74.9398900343
 20
110.494484494
 30
0.0
 11
74.888090804
 21
110.4893137911
 31
0.0
  0
ARC
  5
1BF
330
1F
100
AcDbEntity
  8
0
  6
Continuous
 62
     7
370
    25
100
AcDbCircle
 10
67.178774826
 20
154.2122339108
 30
0.0
 40
32.00000000000003
100
AcDbArc
 50
0.0
 51
106.0730958417
  0
LINE
  5
1C0
330
1F
100
AcDbEntity
  8
0
  6
Continuous
 62
     7
370
    25
100
AcDbLine
 10
99.1787763459
 20
132.5885442295
 30
0.0
 11
99.1787763459
 21
154.2122339108
 31
0.0
  0
SPLINE
  5
1C1
330
1F
100
AcDbEntity
  8
0
  6
Continuous
 62
     7
370
    25
100
AcDbSpline
210
0.0
220
0.0
230
1.0
 70
     8
 71
     3
 72
    20
 73
    16
 74
     0
 42
0.000000001
 43
0.00000001
 40
0.0
 40
0.0
 40
0.0
 40
0.0
 40
0.2500000000000003
 40
0.2500000000000003
 40
0.3750000000000003
 40
0.3750000000000003
 40
0.5000000000000002
 40
0.5000000000000002
 40
0.6250000000000001
 40
0.6250000000000001
 40
0.7500000000000001
 40
0.7500000000000001
 40
0.875
 40
0.875
 40
1.0
 40
1.0
 40
1.0
 40
1.0
 10
57.99530469738669
 20
184.3438431675044
 30
0.0
 10
57.93514986841725
 20
184.3255092620622
 30
0.0
 10
57.78519621365176
 20
184.2800376267199
 30
0.0
 10
57.42918485360266
 20
184.1657150145525
 30
0.0
 10
57.2894331998173
 20
184.1200651593672
 30
0.0
 10
56.97538948736723
 20
184.0143877830201
 30
0.0
 10
56.80034609139043
 20
183.9541263077229
 30
0.0
 10
56.41448560899484
 20
183.8166596610517
 30
0.0
 10
56.20356766642799
 20
183.7393539160921
 30
0.0
 10
55.76123478635297
 20
183.5711468240105
 30
0.0
 10
55.5281787440087
 20
183.4796778935606
 30
0.0
 10
55.03937531114484
 20
183.2803374913307
 30
0.0
 10
54.78230724786111
 20
183.1718439121392
 30
0.0
 10
54.25972534375058
 20
182.942524203811
 30
0.0
 10
53.99283549995249
 20
182.8211759471287
 30
0.0
 10
53.72075078708475
 20
182.6926059057313
 30
0.0
  0
SPLINE
  5
1C2
330
1F
100
AcDbEntity
  8
0
  6
Continuous
 62
     7
370
    25
100
AcDbSpline
210
0.0
220
0.0
230
1.0
 70
     8
 71
     3
 72
    20
 73
    16
 74
     0
 42
0.000000001
 43
0.00000001
 40
0.0
 40
0.0
 40
0.0
 40
0.0
 40
0.2499999999999992
 40
0.2499999999999992
 40
0.3749999999999994
 40
0.3749999999999994
 40
0.4999999999999996
 40
0.4999999999999996
 40
0.6249999999999997
 40
0.6249999999999997
 40
0.7499999999999999
 40
0.7499999999999999
 40
0.8749999999999999
 40
0.8749999999999999
 40
1.0
 40
1.0
 40
1.0
 40
1.0
 10
59.61561637480515
 20
123.6336689634379
 30
0.0
 10
60.19995654823274
 20
123.4891410129393
 30
0.0
 10
60.75414199666553
 20
123.3698041968049
 30
0.0
 10
61.53571887843139
 20
123.220682417132
 30
0.0
 10
61.7864182542682
 20
123.1763124503004
 30
0.0
 10
62.25302319280952
 20
123.0988460986842
 30
0.0
 10
62.47115171852182
 20
123.065322019309
 30
0.0
 10
62.87602177582784
 20
123.0068152805749
 30
0.0
 10
63.06376576632857
 20
122.9817291338476
 30
0.0
 10
63.39417291728628
 20
122.9399695767773
 30
0.0
 10
63.53842971783849
 20
122.923046005018
 30
0.0
 10
63.78500974054344
 20
122.8953414906605
 30
0.0
 10
63.88783636023991
 20
122.8845143071861
 30
0.0
 10
64.04564804891488
 20
122.8683380433941
 30
0.0
 10
64.10090926708529
 20
122.8629479051907
 30
0.0
 10
64.1322175229377
 20
122.8599056304779
 30
0.0
  0
ELLIPSE
  5
1C3
330
1F
100
AcDbEntity
  8
0
  6
Continuous
 62
     7
370
    25
100
AcDbEllipse
 10
53.2044377197
 20
137.8638709635
 30
0.0
 11
-2.266777643225289
 21
3.003838829096338
 31
0.0
210
0.0
220
0.0
230
1.0
 40
0.6481359233
 41
0.0
 42
6.283185307179586
  0
ARC
  5
1C4
330
1F
100
AcDbEntity
  8
0
  6
Continuous
 62
     7
370
    25
100
AcDbCircle
 10
67.178774826
 20
154.2122339108
 30
0.0
 40
31.50000000000004
100
AcDbArc
 50
115.2924583517
 51
256.1075416483
  0
INSERT
  5
1D0
330
1F
100
AcDbEntity
  8
VERMASSUNG
100
AcDbBlockReference
  2
SW_CENTERMARKSYMBOL_0
 10
67.178774826
 20
154.2122339108
 30
0.0
  0
ARC
  5
1D1
330
1F
100
AcDbEntity
  8
0
  6
Continuous
 62
     7
370
    25
100
AcDbCircle
 10
233.5849588772
 20
52.7408526294
 30
0.0
 40
1.250000000000039
100
AcDbArc
 50
62.973586428
 51
187.2277565647
  0
LINE
  5
1D2
330
1F
100
AcDbEntity
  8
0
  6
Continuous
 62
     7
370
    25
100
AcDbLine
 10
237.0367882706
 20
36.9965961589
 30
0.0
 11
236.9868007912
 21
37.008743789
 31
0.0
  0
LINE
  5
1D3
330
1F
100
AcDbEntity
  8
0
  6
Continuous
 62
     7
370
    25
100
AcDbLine
 10
235.820289294
 20
37.0093004177
 30
0.0
 11
235.7702899608
 21
36.9972006942
 31
0.0
  0
LINE
  5
1D4
330
1F
100
AcDbEntity
  8
0
  6
Continuous
 62
     7
370
    25
100
AcDbLine
 10
239.1404751156
 20
31.1576577221
 30
0.0
 11
239.1345324099
 21
31.5008678431
 31
0.0
  0
LINE
  5
1D5
330
1F
100
AcDbEntity
  8
0
  6
Continuous
 62
     7
370
    25
100
AcDbLine
 10
236.8844847066
 20
31.4841148135
 30
0.0
 11
236.8882726546
 21
31.2653629646
 31
0.0
  0
LINE
  5
1D6
330
1F
100
AcDbEntity
  8
0
  6
Continuous
 62
     7
370
    25
100
AcDbLine
 10
235.2803032124
 20
26.7061535847
 30
0.0
 11
235.3302906918
 21
26.6940058596
 31
0.0
  0
LINE
  5
1D7
330
1F
100
AcDbEntity
  8
0
  6
Continuous
 62
     7
370
    25
100
AcDbLine
 10
240.7802509405
 20
26.6914880966
 30
0.0
 11
240.8302489566
 21
26.7035886755
 31
0.0
  0
LINE
  5
1D8
330
1F
100
AcDbEntity
  8
0
  6
Continuous
 62
     7
370
    25
100
AcDbLine
 10
228.7120474613
 20
33.2873384769
 30
0.0
 11
229.9679115944
 21
32.5623435448
 31
0.0
  0
LINE
  5
1D9
330
1F
100
AcDbEntity
  8
0
  6
Continuous
 62
     7
370
    25
100
AcDbLine
 10
223.2887579154
 20
36.4181368908
 30
0.0
 11
225.9971964101
 21
34.8545886289
 31
0.0
  0
LINE
  5
1DA
330
1F
100
AcDbEntity
  8
0
  6
Continuous
 62
     7
370
    25
100
AcDbLine
 10
241.7459168994
 20
62.1351277493
 30
0.0
 11
239.0374784047
 21
63.6986760112
 31
0.0
  0
LINE
  5
1DB
330
1F
100
AcDbEntity
  8
0
  6
Continuous
 62
     7
370
    25
100
AcDbLine
 10
248.9053282989
 20
58.0020875226
 30
0.0
 11
244.4607679506
 21
60.5678775973
 31
0.0
  0
LINE
  5
1DC
330
1F
100
AcDbEntity
  8
0
  6
Continuous
 62
     7
370
    25
100
AcDbLine
 10
234.7224883552
 20
22.0235670287
 30
0.0
 11
240.976307543
 21
18.413314058
 31
0.0
  0
SPLINE
  5
1DD
330
1F
100
AcDbEntity
  8
0
  6
Continuous
 62
     7
370
    25
100
AcDbSpline
210
0.0
220
0.0
230
1.0
 70
     8
 71
     3
 72
    10
 73
     6
 74
     0
 42
0.000000001
 43
0.00000001
 40
0.0
 40
0.0
 40
0.0
 40
0.0
 40
0.0195159579054463
 40
0.5961194035946384
 40
1.0
 40
1.0
 40
1.0
 40
1.0
 10
233.5075580317164
 20
22.89006168497138
 30
0.0
 10
233.5150176083061
 20
22.88288678721154
 30
0.0
 10
233.7428720835634
 20
22.66372789200506
 30
0.0
 10
234.1682816811184
 20
22.35585913734653
 30
0.0
 10
234.6112568929721
 20
22.10039023111328
 30
0.0
 10
234.7937270659431
 20
21.99515758092951
 30
0.0
  0
SPLINE
  5
1DE
330
1F
100
AcDbEntity
  8
0
  6
Continuous
 62
     7
370
    25
100
AcDbSpline
210
0.0
220
0.0
230
1.0
 70
     8
 71
     3
 72
    14
 73
    10
 74
     0
 42
0.000000001
 43
0.00000001
 40
0.0
 40
0.0
 40
0.0
 40
0.0
 40
0.0081837305179871
 40
0.1755430180256592
 40
0.3426161014795022
 40
0.5092669816065649
 40
0.675361921927132
 40
0.8408008703904167
 40
1.0
 40
1.0
 40
1.0
 40
1.0
 10
230.496903275462
 20
27.9372751328186
 30
0.0
 10
230.5011098643538
 20
27.91962326844134
 30
0.0
 10
230.5913422233051
 20
27.54098646707639
 30
0.0
 10
230.8353927764085
 20
26.85771896422347
 30
0.0
 10
231.2333065654543
 20
25.8990969341308
 30
0.0
 10
231.7087336189359
 20
25.01929794834892
 30
0.0
 10
232.2501453215727
 20
24.21662488301491
 30
0.0
 10
232.8445918337542
 20
23.4970530940176
 30
0.0
 10
233.2894192858732
 20
23.08978279460558
 30
0.0
 10
233.5075580317164
 20
22.89006168497138
 30
0.0
  0
SPLINE
  5
1DF
330
1F
100
AcDbEntity
  8
0
  6
Continuous
 62
     7
370
    25
100
AcDbSpline
210
0.0
220
0.0
230
1.0
 70
     8
 71
     3
 72
    32
 73
    28
 74
     0
 42
0.000000001
 43
0.00000001
 40
0.0
 40
0.0
 40
0.0
 40
0.0
 40
0.018210597138974
 40
0.0590420647808277
 40
0.099977495341465
 40
0.1409847170350234
 40
0.1820343410816539
 40
0.223103754251786
 40
0.2641759142661452
 40
0.3052411417256798
 40
0.3462956817661456
 40
0.3873383474144345
 40
0.4283695450826197
 40
0.4693906958216273
 40
0.5104036669601918
 40
0.551410715041577
 40
0.5924141702376621
 40
0.6334165013335793
 40
0.6744200392797585
 40
0.7154266199594126
 40
0.7564388025496747
 40
0.7974590955284214
 40
0.8384899500301103
 40
0.8795336954138393
 40
0.9205922743245817
 40
0.961666968033857
 40
1.0
 40
1.0
 40
1.0
 40
1.0
 10
235.55379094312
 20
64.42870377039756
 30
0.0
 10
235.4300025071411
 20
64.4226721547716
 30
0.0
 10
235.0286579054015
 20
64.40311656097072
 30
0.0
 10
234.3220712349328
 20
64.26932117836371
 30
0.0
 10
233.4412534838999
 20
64.03197890311829
 30
0.0
 10
232.5438506957287
 20
63.69687689882934
 30
0.0
 10
231.6379419050274
 20
63.27325061668168
 30
0.0
 10
230.7291255510799
 20
62.76219819866988
 30
0.0
 10
229.8236003557783
 20
62.16778853234073
 30
0.0
 10
228.9272739391575
 20
61.49397757966954
 30
0.0
 10
228.0459652250105
 20
60.74536383030517
 30
0.0
 10
227.1853415722969
 20
59.92693948514366
 30
0.0
 10
226.3509311399267
 20
59.04412460460029
 30
0.0
 10
225.5480937889406
 20
58.10272715782211
 30
0.0
 10
224.7819914490115
 20
57.10891632726543
 30
0.0
 10
224.0575604655196
 20
56.06918351934909
 30
0.0
 10
223.3794799202178
 20
54.99030402706666
 30
0.0
 10
222.7521431884263
 20
53.87929738783245
 30
0.0
 10
222.1796311111152
 20
52.74338852534508
 30
0.0
 10
221.6656781450029
 20
51.58995214875971
 30
0.0
 10
221.2136685096649
 20
50.42647071128578
 30
0.0
 10
220.8265495811565
 20
49.26045172905144
 30
0.0
 10
220.5070356950278
 20
48.09949660174935
 30
0.0
 10
220.2568311622103
 20
46.95083493821694
 30
0.0
 10
220.079432925005
 20
45.82284480677961
 30
0.0
 10
219.9721086859605
 20
44.74386906406823
 30
0.0
 10
219.9591966738274
 20
44.06092576395242
 30
0.0
 10
219.9529635703146
 20
43.73124389569929
 30
0.0
  0
SPLINE
  5
1E0
330
1F
100
AcDbEntity
  8
0
  6
Continuous
 62
     7
370
    25
100
AcDbSpline
210
0.0
220
0.0
230
1.0
 70
     8
 71
     3
 72
    13
 73
     9
 74
     0
 42
0.000000001
 43
0.00000001
 40
0.0
 40
0.0
 40
0.0
 40
0.0
 40
0.102965836713767
 40
0.2985204824644898
 40
0.4941438735781545
 40
0.689705070614791
 40
0.8850959287259581
 40
0.9999999999999999
 40
0.9999999999999999
 40
0.9999999999999999
 40
0.9999999999999999
 10
219.9529635703146
 20
43.73124389569929
 30
0.0
 10
219.955024011002
 20
43.54825545718712
 30
0.0
 10
219.9609976792373
 20
43.01773194867686
 30
0.0
 10
220.0277398538919
 20
42.17312533951888
 30
0.0
 10
220.1763423752573
 20
41.21845878239409
 30
0.0
 10
220.4023788203422
 20
40.32494071885905
 30
0.0
 10
220.6493227107845
 20
39.59820768996111
 30
0.0
 10
220.8489400118886
 20
39.19996984922484
 30
0.0
 10
220.9228594943598
 20
39.05249999102688
 30
0.0
  0
LINE
  5
1E1
330
1F
100
AcDbEntity
  8
0
  6
Continuous
 62
     7
370
    25
100
AcDbLine
 10
211.8018579502
 20
48.4184990077
 30
0.0
 11
219.9597821916
 21
43.3682403564
 31
0.0
  0
LINE
  5
1E2
330
1F
100
AcDbEntity
  8
0
  6
Continuous
 62
     7
370
    25
100
AcDbLine
 10
230.3193955668
 20
62.4789908842
 30
0.0
 11
222.2981130546
 21
66.7861960063
 31
0.0
  0
LINE
  5
1E3
330
1F
100
AcDbEntity
  8
0
  6
Continuous
 62
     7
370
    25
100
AcDbLine
 10
219.6087435599
 20
67.3764526368
 30
0.0
 11
218.9691934512
 21
67.2892416418
 31
0.0
  0
LINE
  5
1E4
330
1F
100
AcDbEntity
  8
0
  6
Continuous
 62
     7
370
    25
100
AcDbLine
 10
210.6386075654
 20
50.1545412313
 30
0.0
 11
210.8829111143
 21
49.5570917204
 31
0.0
  0
LWPOLYLINE
  5
1E5
330
1F
100
AcDbEntity
  8
0
  6
Continuous
 62
     7
370
    25
100
AcDbPolyline
 90
       12
 70
   128
 43
0.0
 10
231.7027904658
 20
52.8327775828
 10
231.6202643022
 20
53.0959096205
 10
231.6193963406
 20
53.4556840153
 10
231.7310782451
 20
53.8239751607
 10
231.9462632608
 20
54.1709469676
 10
232.2475177387
 20
54.4684893217
 10
232.6104363487
 20
54.6924966246
 10
233.0056170541
 20
54.8248216695
 10
233.4010443845
 20
54.8547451666
 10
233.7646841007
 20
54.7798403888
 10
234.0670755557
 20
54.6061787554
 10
234.1355631967
 20
54.5433294324
  0
LINE
  5
1E6
330
1F
100
AcDbEntity
  8
0
  6
Continuous
 62
     7
370
    25
100
AcDbLine
 10
234.1994700021
 20
54.3463123376
 30
0.0
 11
234.2591100977
 21
54.2192980415
 31
0.0
  0
LWPOLYLINE
  5
1E7
330
1F
100
AcDbEntity
  8
0
  6
Continuous
 62
     7
370
    25
100
AcDbPolyline
 90
       14
 70
   128
 43
0.0
 10
231.9525750806
 20
52.6186390201
 10
231.7683663523
 20
52.8457394055
 10
231.6603077596
 20
53.1528181314
 10
231.6594799692
 20
53.4958028567
 10
231.7659501525
 20
53.8469076118
 10
231.9710936814
 20
54.1776874454
 10
232.2582898805
 20
54.4613441246
 10
232.6042717135
 20
54.6748976494
 10
232.9810105386
 20
54.8010477385
 10
233.3579851225
 20
54.8295743457
 10
233.7046544761
 20
54.7581654233
 10
233.9929343101
 20
54.5926072935
 10
234.1994700021
 20
54.3463123376
 10
234.1994700021
 20
54.3463123376
  0
ARC
  5
1E8
330
1F
100
AcDbEntity
  8
0
  6
Continuous
 62
     7
370
    25
100
AcDbCircle
 10
233.2001028508
 20
53.8153770756
 30
0.0
 40
0.9522879898279119
100
AcDbArc
 50
337.0504650252
 51
27.28153125
  0
LWPOLYLINE
  5
1E9
330
1F
100
AcDbEntity
  8
0
  6
Continuous
 62
     7
370
    25
100
AcDbPolyline
 90
       15
 70
   128
 43
0.0
 10
232.9619703705
 20
52.5378908148
 10
232.754204188
 20
52.5160115978
 10
232.4111650611
 20
52.5608393122
 10
232.1241911208
 20
52.7069981762
 10
231.9213732418
 20
52.9401809987
 10
231.8225645653
 20
53.2375620979
 10
231.8374371345
 20
53.5700323848
 10
231.9645349074
 20
53.9050477313
 10
232.1914176491
 20
54.2098136555
 10
232.495875946
 20
54.4544968476
 10
232.8481070372
 20
54.6151474029
 10
233.2136318371
 20
54.6760399552
 10
233.5566712933
 20
54.6312124309
 10
233.8436449043
 20
54.4850541372
 10
234.0464631126
 20
54.2518707443
  0
LINE
  5
1EA
330
1F
100
AcDbEntity
  8
0
  6
Continuous
 62
     7
370
    25
100
AcDbLine
 10
241.0335344022
 20
33.8155035619
 30
0.0
 11
235.0835340647
 21
33.8182471712
 31
0.0
  0
ARC
  5
1EB
330
1F
100
AcDbEntity
  8
0
  6
Continuous
 62
     7
370
    25
100
AcDbCircle
 10
241.0599223944
 20
33.6397009077
 30
0.0
 40
0.1777720431643844
100
AcDbArc
 50
12.5110230146
 51
98.5363734369
  0
LINE
  5
1EC
330
1F
100
AcDbEntity
  8
0
  6
Continuous
 62
     7
370
    25
100
AcDbLine
 10
241.2316660785
 20
29.5965091631
 30
0.0
 11
241.2334731246
 21
33.6782112099
 31
0.0
  0
ARC
  5
1ED
330
1F
100
AcDbEntity
  8
0
  6
Continuous
 62
     7
370
    25
100
AcDbCircle
 10
241.0581565254
 20
29.6351728885
 30
0.0
 40
0.1777651503686925
100
AcDbArc
 50
261.4097321373
 51
347.4378260796
  0
LINE
  5
1EE
330
1F
100
AcDbEntity
  8
0
  6
Continuous
 62
     7
370
    25
100
AcDbLine
 10
235.0816058463
 20
29.4621451752
 30
0.0
 11
241.0316042083
 21
29.4594019491
 31
0.0
  0
ARC
  5
1EF
330
1F
100
AcDbEntity
  8
0
  6
Continuous
 62
     7
370
    25
100
AcDbCircle
 10
235.0552178188
 20
29.6379487208
 30
0.0
 40
0.177772929987048
100
AcDbArc
 50
192.511383817
 51
278.536342037
  0
LINE
  5
1F0
330
1F
100
AcDbEntity
  8
0
  6
Continuous
 62
     7
370
    25
100
AcDbLine
 10
234.8834735115
 20
33.6811391745
 30
0.0
 11
234.8816664654
 21
29.5994371336
 31
0.0
  0
ARC
  5
1F1
330
1F
100
AcDbEntity
  8
0
  6
Continuous
 62
     7
370
    25
100
AcDbCircle
 10
235.0569838764
 20
33.6424750128
 30
0.0
 40
0.1777660376205037
100
AcDbArc
 50
81.4104692815
 51
167.4377457375
  0
ARC
  5
1F2
330
1F
100
AcDbEntity
  8
0
  6
Continuous
 62
     7
370
    25
100
AcDbCircle
 10
241.0568337281
 20
29.6332410677
 30
0.0
 40
0.1688736827021394
100
AcDbArc
 50
261.4088180844
 51
347.4389982168
  0
LINE
  5
1F3
330
1F
100
AcDbEntity
  8
0
  6
Continuous
 62
     7
370
    25
100
AcDbLine
 10
241.2216654216
 20
29.5965145989
 30
0.0
 11
241.2234737848
 21
33.6782158675
 31
0.0
  0
ARC
  5
1F4
330
1F
100
AcDbEntity
  8
0
  6
Continuous
 62
     7
370
    25
100
AcDbCircle
 10
241.0585994835
 20
33.6416303034
 30
0.0
 40
0.168884690648602
100
AcDbArc
 50
12.51119897
 51
98.5364607358
  0
LINE
  5
1F5
330
1F
100
AcDbEntity
  8
0
  6
Continuous
 62
     7
370
    25
100
AcDbLine
 10
241.0335304509
 20
33.8086440224
 30
0.0
 11
235.0835314305
 21
33.8113868714
 31
0.0
  0
ARC
  5
1F6
330
1F
100
AcDbEntity
  8
0
  6
Continuous
 62
     7
370
    25
100
AcDbCircle
 10
235.0583075186
 20
33.6444037184
 30
0.0
 40
0.1688775269766386
100
AcDbArc
 50
81.4100355089
 51
167.4377838389
  0
LINE
  5
1F7
330
1F
100
AcDbEntity
  8
0
  6
Continuous
 62
     7
370
    25
100
AcDbLine
 10
234.8934728513
 20
33.6811345169
 30
0.0
 11
234.8916658052
 21
29.5994324582
 31
0.0
  0
ARC
  5
1F8
330
1F
100
AcDbEntity
  8
0
  6
Continuous
 62
     7
370
    25
100
AcDbCircle
 10
235.0565393383
 20
29.6360185344
 30
0.0
 40
0.1688840516824222
100
AcDbArc
 50
192.5114250325
 51
278.5365308734
  0
LINE
  5
1F9
330
1F
100
AcDbEntity
  8
0
  6
Continuous
 62
     7
370
    25
100
AcDbLine
 10
235.0816084805
 20
29.469005478
 30
0.0
 11
241.0316068424
 21
29.4662622518
 31
0.0
  0
ARC
  5
1FA
330
1F
100
AcDbEntity
  8
0
  6
Continuous
 62
     7
370
    25
100
AcDbCircle
 10
235.0543899187
 20
27.9062545627
 30
0.0
 40
0.17777008977454
100
AcDbArc
 50
192.5103609607
 51
278.5367298056
  0
LINE
  5
1FB
330
1F
100
AcDbEntity
  8
0
  6
Continuous
 62
     7
370
    25
100
AcDbLine
 10
235.0807787144
 20
27.7304540044
 30
0.0
 11
241.0307783934
 21
27.7277115357
 31
0.0
  0
LINE
  5
1FC
330
1F
100
AcDbEntity
  8
0
  6
Continuous
 62
     7
370
    25
100
AcDbLine
 10
241.2308402637
 20
27.864818677
 30
0.0
 11
241.2316660785
 21
29.5965091631
 31
0.0
  0
ARC
  5
1FD
330
1F
100
AcDbEntity
  8
0
  6
Continuous
 62
     7
370
    25
100
AcDbCircle
 10
241.0573301614
 20
27.9034832969
 30
0.0
 40
0.1777658809454088
100
AcDbArc
 50
261.4099467121
 51
347.4375831404
  0
LINE
  5
1FE
330
1F
100
AcDbEntity
  8
0
  6
Continuous
 62
     7
370
    25
100
AcDbLine
 10
235.0816282369
 20
29.5195294014
 30
0.0
 11
235.0816084805
 21
29.469005478
 31
0.0
  0
LINE
  5
1FF
330
1F
100
AcDbEntity
  8
0
  6
Continuous
 62
     7
370
    25
100
AcDbLine
 10
235.0816282369
 20
29.5195294014
 30
0.0
 11
234.8916658052
 21
29.5994324582
 31
0.0
  0
LINE
  5
200
330
1F
100
AcDbEntity
  8
0
  6
Continuous
 62
     7
370
    25
100
AcDbLine
 10
240.3788799166
 20
29.6906844569
 30
0.0
 11
241.0316279159
 21
29.5167869386
 31
0.0
  0
LINE
  5
201
330
1F
100
AcDbEntity
  8
0
  6
Continuous
 62
     7
370
    25
100
AcDbLine
 10
241.0316279159
 20
29.5167869386
 30
0.0
 11
241.0316068424
 21
29.4662622518
 31
0.0
  0
LINE
  5
202
330
1F
100
AcDbEntity
  8
0
  6
Continuous
 62
     7
370
    25
100
AcDbLine
 10
235.7345105792
 20
29.6928249076
 30
0.0
 11
235.0816282369
 21
29.5195294014
 31
0.0
  0
LINE
  5
203
330
1F
100
AcDbEntity
  8
0
  6
Continuous
 62
     7
370
    25
100
AcDbLine
 10
241.0316279159
 20
29.5167869386
 30
0.0
 11
241.2216654216
 21
29.5965145989
 31
0.0
  0
LINE
  5
204
330
1F
100
AcDbEntity
  8
0
  6
Continuous
 62
     7
370
    25
100
AcDbLine
 10
234.8809618227
 20
28.1421467051
 30
0.0
 11
234.8808406505
 21
27.867746689
 31
0.0
  0
LINE
  5
205
330
1F
100
AcDbEntity
  8
0
  6
Continuous
 62
     7
370
    25
100
AcDbLine
 10
234.8827161853
 20
32.0938682598
 30
0.0
 11
234.8834735115
 21
33.6811391745
 31
0.0
  0
LINE
  5
206
330
1F
100
AcDbEntity
  8
0
  6
Continuous
 62
     7
370
    25
100
AcDbLine
 10
235.083435283
 20
33.6012314333
 30
0.0
 11
234.8934728513
 21
33.6811345169
 31
0.0
  0
LINE
  5
207
330
1F
100
AcDbEntity
  8
0
  6
Continuous
 62
     7
370
    25
100
AcDbLine
 10
235.7359224986
 20
32.8788637246
 30
0.0
 11
235.083435283
 21
33.6012314333
 31
0.0
  0
LINE
  5
208
330
1F
100
AcDbEntity
  8
0
  6
Continuous
 62
     7
370
    25
100
AcDbLine
 10
240.380290519
 20
32.8767224898
 30
0.0
 11
241.0334356205
 21
33.598487824
 31
0.0
  0
LINE
  5
209
330
1F
100
AcDbEntity
  8
0
  6
Continuous
 62
     7
370
    25
100
AcDbLine
 10
241.0334356205
 20
33.598487824
 30
0.0
 11
241.2234737848
 21
33.6782158675
 31
0.0
  0
SPLINE
  5
20A
330
1F
100
AcDbEntity
  8
0
  6
Continuous
 62
     7
370
    25
100
AcDbSpline
210
0.0
220
0.0
230
1.0
 70
     8
 71
     3
 72
    11
 73
     7
 74
     0
 42
0.000000001
 43
0.00000001
 40
0.0
 40
0.0
 40
0.0
 40
0.0
 40
0.0079327034035299
 40
0.312701405807042
 40
0.655829729529582
 40
0.9999999999999999
 40
0.9999999999999999
 40
0.9999999999999999
 40
0.9999999999999999
 10
235.9799909470416
 20
29.88346396928437
 30
0.0
 10
235.9794082895677
 20
29.88272029202854
 30
0.0
 10
235.9564403551918
 20
29.85340507481507
 30
0.0
 10
235.9046137586934
 20
29.79610844513725
 30
0.0
 10
235.8192126563529
 20
29.72557717752135
 30
0.0
 10
235.762773125722
 20
29.70375335924871
 30
0.0
 10
235.734510579157
 20
29.69282490762513
 30
0.0
  0
SPLINE
  5
20B
330
1F
100
AcDbEntity
  8
0
  6
Continuous
 62
     7
370
    25
100
AcDbSpline
210
0.0
220
0.0
230
1.0
 70
     8
 71
     3
 72
    11
 73
     7
 74
     0
 42
0.000000001
 43
0.00000001
 40
0.0
 40
0.0
 40
0.0
 40
0.0
 40
0.3441695960887416
 40
0.6872951314312735
 40
0.9920693125704806
 40
0.9999999999999999
 40
0.9999999999999999
 40
0.9999999999999999
 40
0.9999999999999999
 10
240.3788799166369
 20
29.69068445691804
 30
0.0
 10
240.3506266396918
 20
29.70163874550816
 30
0.0
 10
240.2942057939459
 20
29.72351409214494
 30
0.0
 10
240.2088605451637
 20
29.79411975114814
 30
0.0
 10
240.1571099297174
 20
29.85147729820131
 30
0.0
 10
240.134152994323
 20
29.88080451102876
 30
0.0
 10
240.1335707703244
 20
29.88154829528508
 30
0.0
  0
ARC
  5
20C
330
1F
100
AcDbEntity
  8
0
  6
Continuous
 62
     7
370
    25
100
AcDbCircle
 10
236.8260925293
 20
30.9366773774
 30
0.0
 40
0.4444298540949723
100
AcDbArc
 50
192.5111121897
 51
278.5364731107
  0
ARC
  5
20D
330
1F
100
AcDbEntity
  8
0
  6
Continuous
 62
     7
370
    25
100
AcDbCircle
 10
239.288442585
 20
30.9355241823
 30
0.0
 40
0.4444123663927472
100
AcDbArc
 50
261.4101181516
 51
347.4379690735
  0
LINE
  5
20E
330
1F
100
AcDbEntity
  8
0
  6
Continuous
 62
     7
370
    25
100
AcDbLine
 10
236.8920632368
 20
30.4971711079
 30
0.0
 11
239.2220648288
 21
30.4960968904
 31
0.0
  0
LINE
  5
20F
330
1F
100
AcDbEntity
  8
0
  6
Continuous
 62
     7
370
    25
100
AcDbLine
 10
239.2230750361
 20
32.7804780049
 30
0.0
 11
236.8930760782
 21
32.7815521987
 31
0.0
  0
ARC
  5
210
330
1F
100
AcDbEntity
  8
0
  6
Continuous
 62
     7
370
    25
100
AcDbCircle
 10
239.2890471244
 20
32.3409722979
 30
0.0
 40
0.4444295027138049
100
AcDbArc
 50
12.5109459731
 51
98.5366599207
  0
LINE
  5
211
330
1F
100
AcDbEntity
  8
0
  6
Continuous
 62
     7
370
    25
100
AcDbLine
 10
239.7222162118
 20
30.8388660624
 30
0.0
 11
239.7229234886
 21
32.4372473388
 31
0.0
  0
LINE
  5
212
330
1F
100
AcDbEntity
  8
0
  6
Continuous
 62
     7
370
    25
100
AcDbLine
 10
236.3929233782
 20
32.438782302
 30
0.0
 11
236.3922161014
 21
30.8404010017
 31
0.0
  0
ARC
  5
213
330
1F
100
AcDbEntity
  8
0
  6
Continuous
 62
     7
370
    25
100
AcDbCircle
 10
236.8266975793
 20
32.3421245281
 30
0.0
 40
0.4444128516962343
100
AcDbArc
 50
81.4100307556
 51
167.4380287284
  0
LWPOLYLINE
  5
214
330
1F
100
AcDbEntity
  8
0
  6
Continuous
 62
     7
370
    25
100
AcDbPolyline
 90
       22
 70
   128
 43
0.0
 10
236.7675706659
 20
31.6394189762
 10
236.8247665735
 20
31.37855182
 10
236.9915021404
 20
31.1408113151
 10
237.2529614322
 20
30.9473204982
 10
237.5859162671
 20
30.8152739354
 10
237.9607769232
 20
30.7564027457
 10
238.3442394877
 20
30.775939466
 10
238.7022308677
 20
30.8721459148
 10
239.0029394122
 20
31.0364758142
 10
239.2196492876
 20
31.2543274036
 10
239.3331033354
 20
31.5063433698
 10
239.3332205563
 20
31.7701298069
 10
239.2199890966
 20
32.0222499512
 10
239.0034741503
 20
32.2403006054
 10
238.7029091685
 20
32.4049076555
 10
238.3450047164
 20
32.5014448649
 10
237.961557957
 20
32.5213345644
 10
237.5866446173
 20
32.4628093913
 10
237.2535751957
 20
32.3310695408
 10
236.9919433652
 20
32.1378205624
 10
236.824995747
 20
31.9002332117
 10
236.7675706659
 20
31.6394189762
  0
SPLINE
  5
215
330
1F
100
AcDbEntity
  8
0
  6
Continuous
 62
     7
370
    25
100
AcDbSpline
210
0.0
220
0.0
230
1.0
 70
     8
 71
     3
 72
    11
 73
     7
 74
     0
 42
0.000000001
 43
0.00000001
 40
0.0
 40
0.0
 40
0.0
 40
0.0
 40
0.007930178551061
 40
0.3127021649380377
 40
0.6558291274797985
 40
1.0
 40
1.0
 40
1.0
 40
1.0
 10
235.981252718319
 20
32.7328212620799
 30
0.0
 10
235.9806704978775
 20
32.73287670450424
 30
0.0
 10
235.9577124281007
 20
32.73506290573648
 30
0.0
 10
235.9059238870013
 20
32.74882290567481
 30
0.0
 10
235.8205733679864
 20
32.79542392752504
 30
0.0
 10
235.7641680123513
 20
32.85102231015586
 30
0.0
 10
235.7359224985821
 20
32.87886372458289
 30
0.0
  0
SPLINE
  5
216
330
1F
100
AcDbEntity
  8
0
  6
Continuous
 62
     7
370
    25
100
AcDbSpline
210
0.0
220
0.0
230
1.0
 70
     8
 71
     3
 72
    11
 73
     7
 74
     0
 42
0.000000001
 43
0.00000001
 40
0.0
 40
0.0
 40
0.0
 40
0.0
 40
0.3441696066047933
 40
0.687297713485133
 40
0.9920706743550747
 40
1.0
 40
1.0
 40
1.0
 40
1.0
 10
240.380290518973
 20
32.87672248977204
 30
0.0
 10
240.3520195701668
 20
32.84890728868071
 30
0.0
 10
240.2955632239359
 20
32.79336105873094
 30
0.0
 10
240.2101763995899
 20
32.74683771743198
 30
0.0
 10
240.1583669548867
 20
32.733128040079
 30
0.0
 10
240.135415197672
 20
32.73096092082033
 30
0.0
 10
240.1348332001462
 20
32.73090596825025
 30
0.0
  0
LINE
  5
217
330
1F
100
AcDbEntity
  8
0
  6
Continuous
 62
     7
370
    25
100
AcDbLine
 10
235.083435283
 20
33.6012314333
 30
0.0
 11
235.0835314305
 21
33.8113868714
 31
0.0
  0
LINE
  5
218
330
1F
100
AcDbEntity
  8
0
  6
Continuous
 62
     7
370
    25
100
AcDbLine
 10
241.0334356205
 20
33.598487824
 30
0.0
 11
241.0335304509
 21
33.8086440224
 31
0.0
  0
LWPOLYLINE
  5
219
330
1F
100
AcDbEntity
  8
0
  6
Continuous
 62
     7
370
    25
100
AcDbPolyline
 90
       25
 70
   128
 43
0.0
 10
236.5214040947
 20
34.6793808337
 10
236.0654739754
 20
34.6992866937
 10
235.6325468159
 20
34.7994618479
 10
235.2521240929
 20
34.9730817799
 10
234.9501327037
 20
35.2083123419
 10
234.7471521642
 20
35.4891241958
 10
234.6570145432
 20
35.7963799374
 10
234.6858627439
 20
36.1091405851
 10
234.831732328
 20
36.4060923952
 10
235.0846812492
 20
36.6669980089
 10
235.4274721048
 20
36.8740777409
 10
235.8367430286
 20
37.0132199773
 10
236.284605319
 20
37.0749404651
 10
236.7405341211
 20
37.0550353654
 10
237.1734619392
 20
36.9548590707
 10
237.5538840037
 20
36.7812402793
 10
237.85587671
 20
36.5460089569
 10
238.0588579081
 20
36.2651974832
 10
238.1489935534
 20
35.9579421217
 10
238.1201453527
 20
35.6451815691
 10
237.9742757685
 20
35.3482296639
 10
237.7213261889
 20
35.08732367
 10
237.3785373088
 20
34.8802435579
 10
236.9692657266
 20
34.7411024619
 10
236.5214040947
 20
34.6793808337
  0
LWPOLYLINE
  5
21A
330
1F
100
AcDbEntity
  8
0
  6
Continuous
 62
     7
370
    25
100
AcDbPolyline
 90
       19
 70
   128
 43
0.0
 10
236.4706606061
 20
35.1927153052
 10
236.1253448908
 20
35.218205054
 10
235.8135174809
 20
35.3231737025
 10
235.5727931214
 20
35.4949616369
 10
235.4322017715
 20
35.7128489533
 10
235.4087049035
 20
35.9505539058
 10
235.5051342587
 20
36.1794075989
 10
235.7098612582
 20
36.3718050714
 10
235.9981911416
 20
36.5045410903
 10
236.3353468319
 20
36.5616063738
 10
236.6806638643
 20
36.5361173853
 10
236.9924906157
 20
36.4311483566
 10
237.2332169508
 20
36.259360042
 10
237.3738063251
 20
36.0414731058
 10
237.3973045102
 20
35.803767393
 10
237.3008738379
 20
35.5749144602
 10
237.0961481555
 20
35.3825162273
 10
236.8078176135
 20
35.2497798283
 10
236.4706606061
 20
35.1927153052
  0
SPLINE
  5
21B
330
1F
100
AcDbEntity
  8
0
  6
Continuous
 62
     7
370
    25
100
AcDbSpline
210
0.0
220
0.0
230
1.0
 70
     8
 71
     3
 72
    11
 73
     7
 74
     0
 42
0.000000001
 43
0.00000001
 40
0.0
 40
0.0
 40
0.0
 40
0.0
 40
0.1081098449007154
 40
0.4711576634913468
 40
0.813580357113917
 40
1.0
 40
1.0
 40
1.0
 40
1.0
 10
236.7842357932375
 20
36.31300293671703
 30
0.0
 10
236.7550222371169
 20
36.30147614302463
 30
0.0
 10
236.6277055171947
 20
36.25124078112349
 30
0.0
 10
236.3853399954221
 20
36.19362601912648
 30
0.0
 10
236.1146328858051
 20
36.21620003005208
 30
0.0
 10
235.9708711856786
 20
36.25821593879714
 30
0.0
 10
235.9201944471723
 20
36.27302676267237
 30
0.0
  0
SPLINE
  5
21C
330
1F
100
AcDbEntity
  8
0
  6
Continuous
 62
     7
370
    25
100
AcDbSpline
210
0.0
220
0.0
230
1.0
 70
     8
 71
     3
 72
    10
 73
     6
 74
     0
 42
0.000000001
 43
0.00000001
 40
0.0
 40
0.0
 40
0.0
 40
0.0
 40
0.4391163437169811
 40
0.7513669257379545
 40
1.0
 40
1.0
 40
1.0
 40
1.0
 10
235.9201944471723
 20
36.27302676267237
 30
0.0
 10
235.8655939597425
 20
36.15930257074747
 30
0.0
 10
235.7721676936266
 20
35.96471041381395
 30
0.0
 10
235.6364132716083
 20
35.80322801222717
 30
0.0
 10
235.5688617305552
 20
35.75921459327382
 30
0.0
 10
235.5389169333856
 20
35.7397039665323
 30
0.0
  0
SPLINE
  5
21D
330
1F
100
AcDbEntity
  8
0
  6
Continuous
 62
     7
370
    25
100
AcDbSpline
210
0.0
220
0.0
230
1.0
 70
     8
 71
     3
 72
    10
 73
     6
 74
     0
 42
0.000000001
 43
0.00000001
 40
0.0
 40
0.0
 40
0.0
 40
0.0
 40
0.4391172020403717
 40
0.7513668280059972
 40
1.0
 40
1.0
 40
1.0
 40
1.0
 10
235.5389169333856
 20
35.7397039665323
 30
0.0
 10
235.6080108278106
 20
35.63170291451517
 30
0.0
 10
235.7262363494881
 20
35.44690394171619
 30
0.0
 10
235.8981532895783
 20
35.29965587938741
 30
0.0
 10
235.9837398626057
 20
35.26272794622466
 30
0.0
 10
236.021679448575
 20
35.24635819983407
 30
0.0
  0
LINE
  5
21E
330
1F
100
AcDbEntity
  8
0
  6
Continuous
 62
     7
370
    25
100
AcDbLine
 10
236.0216794486
 20
35.2463581998
 30
0.0
 11
236.1304341228
 21
35.2175135901
 31
0.0
  0
SPLINE
  5
21F
330
1F
100
AcDbEntity
  8
0
  6
Continuous
 62
     7
370
    25
100
AcDbSpline
210
0.0
220
0.0
230
1.0
 70
     8
 71
     3
 72
     9
 73
     5
 74
     0
 42
0.000000001
 43
0.00000001
 40
0.0
 40
0.0
 40
0.0
 40
0.0
 40
0.5878156501218172
 40
0.9999999999999999
 40
0.9999999999999999
 40
0.9999999999999999
 40
0.9999999999999999
 10
236.6624485231983
 20
35.22326070536181
 30
0.0
 10
236.7083100101331
 20
35.23122573424609
 30
0.0
 10
236.7863301971174
 20
35.2447759500027
 30
0.0
 10
236.8567114161671
 20
35.27420475588569
 30
0.0
 10
236.8857214531847
 20
35.28633484910626
 30
0.0
  0
SPLINE
  5
220
330
1F
100
AcDbEntity
  8
0
  6
Continuous
 62
     7
370
    25
100
AcDbSpline
210
0.0
220
0.0
230
1.0
 70
     8
 71
     3
 72
    10
 73
     6
 74
     0
 42
0.000000001
 43
0.00000001
 40
0.0
 40
0.0
 40
0.0
 40
0.0
 40
0.4391162808185833
 40
0.7513664121444839
 40
1.0
 40
1.0
 40
1.0
 40
1.0
 10
236.8857214531847
 20
35.28633484910626
 30
0.0
 10
236.940286228407
 20
35.32530914937222
 30
0.0
 10
237.0336513373295
 20
35.39199759030657
 30
0.0
 10
237.1694339853296
 20
35.61033180563494
 30
0.0
 10
237.2370325899827
 20
35.75536538042579
 30
0.0
 10
237.266998308427
 20
35.81965717001881
 30
0.0
  0
SPLINE
  5
221
330
1F
100
AcDbEntity
  8
0
  6
Continuous
 62
     7
370
    25
100
AcDbSpline
210
0.0
220
0.0
230
1.0
 70
     8
 71
     3
 72
    10
 73
     6
 74
     0
 42
0.000000001
 43
0.00000001
 40
0.0
 40
0.0
 40
0.0
 40
0.0
 40
0.4391166922033887
 40
0.7513673966276105
 40
0.9999999999999999
 40
0.9999999999999999
 40
0.9999999999999999
 40
0.9999999999999999
 10
237.266998308427
 20
35.81965717001881
 30
0.0
 10
237.1978691998282
 20
35.85290854697936
 30
0.0
 10
237.0795831968561
 20
35.90980458619795
 30
0.0
 10
236.9076921202276
 20
36.113904212648
 30
0.0
 10
236.8221538471743
 20
36.251852274438
 30
0.0
 10
236.7842357932375
 20
36.31300293671703
 30
0.0
  0
LINE
  5
222
330
1F
100
AcDbEntity
  8
0
  6
Continuous
 62
     7
370
    25
100
AcDbLine
 10
235.9197295147
 20
35.2974285027
 30
0.0
 11
235.9201944472
 21
36.2730267627
 31
0.0
  0
LINE
  5
223
330
1F
100
AcDbEntity
  8
0
  6
Continuous
 62
     7
370
    25
100
AcDbLine
 10
236.7837280554
 20
35.2496666043
 30
0.0
 11
236.7842357932
 21
36.3130029367
 31
0.0
  0
LINE
  5
224
330
1F
100
AcDbEntity
  8
0
  6
Continuous
 62
     7
370
    25
100
AcDbLine
 10
237.0079604848
 20
31.1411535285
 30
0.0
 11
237.0082515614
 21
31.1243470518
 31
0.0
  0
ELLIPSE
  5
225
330
1F
100
AcDbEntity
  8
0
  6
Continuous
 62
     7
370
    25
100
AcDbEllipse
 10
238.009508182
 20
31.4924913273
 30
0.0
 11
1.125102687655016
 21
-0.001540032800068758
 31
0.0
210
0.0
220
0.0
230
1.0
 40
0.6868151037
 41
3.615581962106694
 42
3.713134279779283
  0
ELLIPSE
  5
226
330
1F
100
AcDbEntity
  8
0
  6
Continuous
 62
     7
370
    25
100
AcDbEllipse
 10
238.009508182
 20
31.4924913273
 30
0.0
 11
1.125102687655016
 21
-0.001540032800068758
 31
0.0
210
0.0
220
0.0
230
1.0
 40
0.6868151037
 41
5.280326323119204
 42
6.334752854978103
  0
LINE
  5
227
330
1F
100
AcDbEntity
  8
0
  6
Continuous
 62
     7
370
    25
100
AcDbLine
 10
239.1331692228
 20
31.5307835624
 30
0.0
 11
239.0110566318
 21
31.8438291312
 31
0.0
  0
LINE
  5
228
330
1F
100
AcDbEntity
  8
0
  6
Continuous
 62
     7
370
    25
100
AcDbLine
 10
236.8858465766
 20
31.4541983339
 30
0.0
 11
237.0079604848
 21
31.1411535285
 31
0.0
  0
ELLIPSE
  5
229
330
1F
100
AcDbEntity
  8
0
  6
Continuous
 62
     7
370
    25
100
AcDbEllipse
 10
238.009508182
 20
31.4924913273
 30
0.0
 11
1.125102687655016
 21
-0.001540032800068758
 31
0.0
210
0.0
220
0.0
230
1.0
 40
0.6868151037
 41
0.4739893085169181
 42
3.193160201388344
  0
LINE
  5
22A
330
1F
100
AcDbEntity
  8
0
  6
Continuous
 62
     7
370
    25
100
AcDbLine
 10
236.8891392992
 20
31.2640905756
 30
0.0
 11
236.8858465766
 21
31.4541983339
 31
0.0
  0
LINE
  5
22B
330
1F
100
AcDbEntity
  8
0
  6
Continuous
 62
     7
370
    25
100
AcDbLine
 10
235.4807786486
 20
27.7302699818
 30
0.0
 11
240.6307784593
 21
27.7278955583
 31
0.0
  0
ARC
  5
22C
330
1F
100
AcDbEntity
  8
0
  6
Continuous
 62
     7
370
    25
100
AcDbCircle
 10
235.4011126234
 20
27.2099302197
 30
0.0
 40
0.53331477105082
100
AcDbArc
 50
192.5108097289
 51
278.5367073214
  0
LINE
  5
22D
330
1F
100
AcDbEntity
  8
0
  6
Continuous
 62
     7
370
    25
100
AcDbLine
 10
235.4802794719
 20
26.6825240621
 30
0.0
 11
240.6302779655
 21
26.6801503989
 31
0.0
  0
LINE
  5
22E
330
1F
100
AcDbEntity
  8
0
  6
Continuous
 62
     7
370
    25
100
AcDbLine
 10
241.2308284099
 20
27.8634816534
 30
0.0
 11
241.2304609421
 21
27.0914735336
 31
0.0
  0
ARC
  5
22F
330
1F
100
AcDbEntity
  8
0
  6
Continuous
 62
     7
370
    25
100
AcDbCircle
 10
240.7099325847
 20
27.2074628657
 30
0.0
 40
0.533294755284418
100
AcDbArc
 50
261.4099742486
 51
347.4380123812
  0
LWPOLYLINE
  5
230
330
1F
100
AcDbEntity
  8
0
  6
Continuous
 62
     7
370
    25
100
AcDbPolyline
 90
        3
 70
   128
 43
0.0
 10
235.4802728864
 20
26.6762837651
 10
235.3924849522
 20
26.6822560155
 10
235.3302906918
 20
26.6940058596
  0
LINE
  5
231
330
1F
100
AcDbEntity
  8
0
  6
Continuous
 62
     7
370
    25
100
AcDbLine
 10
240.6302726971
 20
26.6739093416
 30
0.0
 11
235.4802728864
 21
26.6762837651
 31
0.0
  0
LWPOLYLINE
  5
232
330
1F
100
AcDbEntity
  8
0
  6
Continuous
 62
     7
370
    25
100
AcDbPolyline
 90
        3
 70
   128
 43
0.0
 10
240.7802509405
 20
26.6914880966
 10
240.7180645826
 20
26.679800987
 10
240.6302726971
 20
26.6739093416
  0
LINE
  5
233
330
1F
100
AcDbEntity
  8
0
  6
Continuous
 62
     7
370
    25
100
AcDbLine
 10
234.0577666998
 20
32.0942490394
 30
0.0
 11
234.8827675518
 21
32.0938686136
 31
0.0
  0
LINE
  5
234
330
1F
100
AcDbEntity
  8
0
  6
Continuous
 62
     7
370
    25
100
AcDbLine
 10
234.8816954413
 20
29.6742924592
 30
0.0
 11
229.9397838413
 21
33.099635783
 31
0.0
  0
SPLINE
  5
235
330
1F
100
AcDbEntity
  8
0
  6
Continuous
 62
     7
370
    25
100
AcDbSpline
210
0.0
220
0.0
230
1.0
 70
     8
 71
     3
 72
     8
 73
     4
 74
     0
 42
0.000000001
 43
0.00000001
 40
0.0
 40
0.0
 40
0.0
 40
0.0
 40
1.0
 40
1.0
 40
1.0
 40
1.0
 10
229.9882487012918
 20
33.17880846294941
 30
0.0
 10
229.9672276976811
 20
33.15364548980462
 30
0.0
 10
229.9511346444395
 20
33.1272391466952
 30
0.0
 10
229.9397841332888
 20
33.09963621393894
 30
0.0
  0
SPLINE
  5
236
330
1F
100
AcDbEntity
  8
0
  6
Continuous
 62
     7
370
    25
100
AcDbSpline
210
0.0
220
0.0
230
1.0
 70
     8
 71
     3
 72
     8
 73
     4
 74
     0
 42
0.000000001
 43
0.00000001
 40
0.0
 40
0.0
 40
0.0
 40
0.0
 40
1.0
 40
1.0
 40
1.0
 40
1.0
 10
233.1345051747535
 20
36.93530461705674
 30
0.0
 10
232.0829669348827
 20
35.68423783426007
 30
0.0
 10
231.0349696068296
 20
34.4317748067007
 30
0.0
 10
229.9882487012918
 20
33.17880846294941
 30
0.0
  0
SPLINE
  5
237
330
1F
100
AcDbEntity
  8
0
  6
Continuous
 62
     7
370
    25
100
AcDbSpline
210
0.0
220
0.0
230
1.0
 70
     8
 71
     3
 72
    10
 73
     6
 74
     0
 42
0.000000001
 43
0.00000001
 40
0.0
 40
0.0
 40
0.0
 40
0.0
 40
0.5
 40
0.5
 40
1.0
 40
1.0
 40
1.0
 40
1.0
 10
233.0615794945537
 20
37.3580149936653
 30
0.0
 10
233.1392515270922
 20
37.30314944597175
 30
0.0
 10
233.1881779415767
 20
37.23116324417921
 30
0.0
 10
233.2137130152862
 20
37.07895850899575
 30
0.0
 10
233.1903558956362
 20
37.00175296771319
 30
0.0
 10
233.1345051747535
 20
36.93530461705674
 30
0.0
  0
ELLIPSE
  5
238
330
1F
100
AcDbEntity
  8
0
  6
Continuous
 62
     7
370
    25
100
AcDbEllipse
 10
265.5268500913
 20
30.2206462657
 30
0.0
 11
113.0089869387175
 21
-76.24591643234248
 31
0.0
210
0.0
220
0.0
230
1.0
 40
0.0921933582
 41
4.480129906805017
 42
4.483702898224169
  0
ELLIPSE
  5
239
330
1F
100
AcDbEntity
  8
0
  6
Continuous
 62
     7
370
    25
100
AcDbEllipse
 10
265.5268500913
 20
30.2206462657
 30
0.0
 11
113.0089869387175
 21
-76.24591643234248
 31
0.0
210
0.0
220
0.0
230
1.0
 40
0.0921933582
 41
1.727666843690435
 42
1.731239835109588
  0
SPLINE
  5
23A
330
1F
100
AcDbEntity
  8
0
  6
Continuous
 62
     7
370
    25
100
AcDbSpline
210
0.0
220
0.0
230
1.0
 70
     8
 71
     3
 72
    10
 73
     6
 74
     0
 42
0.000000001
 43
0.00000001
 40
0.0
 40
0.0
 40
0.0
 40
0.0
 40
0.5
 40
0.5
 40
1.0
 40
1.0
 40
1.0
 40
1.0
 10
255.3089322702481
 20
52.34111046841068
 30
0.0
 10
255.2240566205771
 20
52.32459357597034
 30
0.0
 10
255.1328975414652
 20
52.32300027689553
 30
0.0
 10
254.9597489498101
 20
52.35131938477917
 30
0.0
 10
254.8793631428537
 20
52.38089519133288
 30
0.0
 10
254.8147447888005
 20
52.42313463047778
 30
0.0
  0
ELLIPSE
  5
23B
330
1F
100
AcDbEntity
  8
0
  6
Continuous
 62
     7
370
    25
100
AcDbEllipse
 10
265.5268500913
 20
30.2206462657
 30
0.0
 11
114.8027803821889
 21
-77.45616907412541
 31
0.0
210
0.0
220
0.0
230
1.0
 40
0.0921933582
 41
1.715933220224611
 42
1.721867795780384
  0
LINE
  5
23C
330
1F
100
AcDbEntity
  8
0
  6
Continuous
 62
     7
370
    25
100
AcDbLine
 10
255.9890314462
 20
51.8957427027
 30
0.0
 11
241.5750245995
 21
34.5760780693
 31
0.0
  0
ARC
  5
23D
330
1F
100
AcDbEntity
  8
0
  6
Continuous
 62
     7
370
    25
100
AcDbCircle
 10
243.5806465227
 20
32.8771604036
 30
0.0
 40
2.628467335384727
100
AcDbArc
 50
139.7328076249
 51
159.4014064444
  0
LINE
  5
23E
330
1F
100
AcDbEntity
  8
0
  6
Continuous
 62
     7
370
    25
100
AcDbLine
 10
234.0584818791
 20
33.7063494185
 30
0.0
 11
234.8867873075
 21
33.705967163
 31
0.0
  0
LWPOLYLINE
  5
23F
330
1F
100
AcDbEntity
  8
0
  6
Continuous
 62
     7
370
    25
100
AcDbPolyline
 90
       11
 70
   128
 43
0.0
 10
234.0584818791
 20
33.7063494185
 10
233.695369657
 20
33.6670660555
 10
233.3677648377
 20
33.5527256632
 10
233.1077398559
 20
33.3745218313
 10
232.9407421883
 20
33.1498977379
 10
232.8831248122
 20
32.9008406151
 10
232.9405222344
 20
32.6517312131
 10
233.1073197045
 20
32.4269531577
 10
233.3671879528
 20
32.2485085567
 10
233.6946900391
 20
32.1338672028
 10
234.0577666998
 20
32.0942490394
  0
ELLIPSE
  5
240
330
1F
100
AcDbEntity
  8
0
  6
Continuous
 62
     7
370
    25
100
AcDbEllipse
 10
-1336.324956279
 20
954.9500106653
 30
0.0
 11
1597.011096618851
 21
-942.1118890392979
 31
0.0
210
0.0
220
0.0
230
1.0
 40
0.0076446012
 41
6.093689459588262
 42
6.108395978168752
  0
SPLINE
  5
241
330
1F
100
AcDbEntity
  8
0
  6
Continuous
 62
     7
370
    25
100
AcDbSpline
210
0.0
220
0.0
230
1.0
 70
     8
 71
     3
 72
    20
 73
    16
 74
     0
 42
0.000000001
 43
0.00000001
 40
0.0
 40
0.0
 40
0.0
 40
0.0
 40
0.0312500000000008
 40
0.0312500000000008
 40
0.0625000000000016
 40
0.0625000000000016
 40
0.1250000000000011
 40
0.1250000000000011
 40
0.2500000000000012
 40
0.2500000000000012
 40
0.5000000000000008
 40
0.5000000000000008
 40
0.7500000000000004
 40
0.7500000000000004
 40
1.0
 40
1.0
 40
1.0
 40
1.0
 10
230.7419529488125
 20
27.40291953284851
 30
0.0
 10
230.720712993097
 20
27.41433447278775
 30
0.0
 10
230.6994855630361
 20
27.43704505817081
 30
0.0
 10
230.6642617991666
 20
27.4857570985088
 30
0.0
 10
230.6493391957434
 20
27.51203905849509
 30
0.0
 10
230.6094068822101
 20
27.59020699932072
 30
0.0
 10
230.588708917439
 20
27.64220308931641
 30
0.0
 10
230.5323808968554
 20
27.79807857357931
 30
0.0
 10
230.5043896105063
 20
27.89859793450316
 30
0.0
 10
230.4294548884848
 20
28.19655122071582
 30
0.0
 10
230.392979273503
 20
28.39048666983557
 30
0.0
 10
230.3293560214681
 20
28.77313069468711
 30
0.0
 10
230.3029370651526
 20
28.96158317552729
 30
0.0
 10
230.2552896998237
 20
29.33572615840061
 30
0.0
 10
230.234166964639
 20
29.52136042958596
 30
0.0
 10
230.2144022001065
 20
29.7062721014107
 30
0.0
  0
SPLINE
  5
242
330
1F
100
AcDbEntity
  8
0
  6
Continuous
 62
     7
370
    25
100
AcDbSpline
210
0.0
220
0.0
230
1.0
 70
     8
 71
     3
 72
     8
 73
     4
 74
     0
 42
0.000000001
 43
0.00000001
 40
0.0
 40
0.0
 40
0.0
 40
0.0
 40
1.0
 40
1.0
 40
1.0
 40
1.0
 10
230.2144022001064
 20
29.70627210141071
 30
0.0
 10
230.1234109347057
 20
30.55755201314423
 30
0.0
 10
230.0475818653585
 20
31.39988827040282
 30
0.0
 10
229.9869149920647
 20
32.23328087318647
 30
0.0
  0
SPLINE
  5
243
330
1F
100
AcDbEntity
  8
0
  6
Continuous
 62
     7
370
    25
100
AcDbSpline
210
0.0
220
0.0
230
1.0
 70
     8
 71
     3
 72
     8
 73
     4
 74
     0
 42
0.000000001
 43
0.00000001
 40
0.0
 40
0.0
 40
0.0
 40
0.0
 40
1.0
 40
1.0
 40
1.0
 40
1.0
 10
229.9869149920647
 20
32.23328087318649
 30
0.0
 10
229.9656379127514
 20
32.52556823770261
 30
0.0
 10
229.9475321294967
 20
32.81593198490576
 30
0.0
 10
229.9397841332883
 20
33.09963621393791
 30
0.0
  0
LINE
  5
244
330
1F
100
AcDbEntity
  8
0
  6
Continuous
 62
     7
370
    25
100
AcDbLine
 10
234.8803704498
 20
26.8980860975
 30
0.0
 11
234.8816598799
 21
29.5994373955
 31
0.0
  0
LINE
  5
245
330
1F
100
AcDbEntity
  8
0
  6
Continuous
 62
     7
370
    25
100
AcDbLine
 10
234.8803704498
 20
26.8980860975
 30
0.0
 11
235.1011501302
 21
26.7450590943
 31
0.0
  0
LINE
  5
246
330
1F
100
AcDbEntity
  8
0
  6
Continuous
 62
     7
370
    25
100
AcDbLine
 10
235.1003519743
 20
25.0698264142
 30
0.0
 11
235.1011501302
 21
26.7450590943
 31
0.0
  0
LINE
  5
247
330
1F
100
AcDbEntity
  8
0
  6
Continuous
 62
     7
370
    25
100
AcDbLine
 10
235.1011501302
 20
26.7450590943
 30
0.0
 11
235.1627846278
 21
26.7450305784
 31
0.0
  0
SPLINE
  5
248
330
1F
100
AcDbEntity
  8
0
  6
Continuous
 62
     7
370
    25
100
AcDbSpline
210
0.0
220
0.0
230
1.0
 70
    11
 71
     3
 72
    68
 73
    64
 74
     0
 42
0.000000001
 43
0.00000001
 40
0.0
 40
0.0
 40
0.0
 40
0.0
 40
0.03125
 40
0.03125
 40
0.0625
 40
0.0625
 40
0.09375
 40
0.09375
 40
0.125
 40
0.125
 40
0.15625
 40
0.15625
 40
0.1875000000000001
 40
0.1875000000000001
 40
0.2187500000000001
 40
0.2187500000000001
 40
0.2500000000000001
 40
0.2500000000000001
 40
0.2812500000000001
 40
0.2812500000000001
 40
0.3125000000000001
 40
0.3125000000000001
 40
0.3437500000000001
 40
0.3437500000000001
 40
0.3750000000000001
 40
0.3750000000000001
 40
0.4062500000000001
 40
0.4062500000000001
 40
0.4375000000000001
 40
0.4375000000000001
 40
0.4687500000000001
 40
0.4687500000000001
 40
0.5000000000000001
 40
0.5000000000000001
 40
0.5312500000000001
 40
0.5312500000000001
 40
0.5625000000000001
 40
0.5625000000000001
 40
0.5937500000000001
 40
0.5937500000000001
 40
0.6250000000000001
 40
0.6250000000000001
 40
0.6562500000000001
 40
0.6562500000000001
 40
0.6875000000000001
 40
0.6875000000000001
 40
0.7187500000000001
 40
0.7187500000000001
 40
0.7500000000000002
 40
0.7500000000000002
 40
0.7812500000000002
 40
0.7812500000000002
 40
0.8125000000000002
 40
0.8125000000000002
 40
0.8437500000000002
 40
0.8437500000000002
 40
0.8750000000000002
 40
0.8750000000000002
 40
0.9062500000000002
 40
0.9062500000000002
 40
0.9375000000000002
 40
0.9375000000000002
 40
1.0
 40
1.0
 40
1.0
 40
1.0
 10
231.7818365851637
 20
54.40954913587197
 30
0.0
 10
231.7211153491238
 20
54.33401249550435
 30
0.0
 10
231.6686303754811
 20
54.25530197654935
 30
0.0
 10
231.5794132185144
 20
54.09184643920695
 30
0.0
 10
231.5424149546203
 20
54.00612948910756
 30
0.0
 10
231.4867884398963
 20
53.83369329029084
 30
0.0
 10
231.4680127731191
 20
53.74729289073171
 30
0.0
 10
231.4482103914561
 20
53.57433732727153
 30
0.0
 10
231.4474216854996
 20
53.48734518915491
 30
0.0
 10
231.4638417203209
 20
53.32085037562158
 30
0.0
 10
231.4808436774452
 20
53.24041893872433
 30
0.0
 10
231.5326975819606
 20
53.08558089985718
 30
0.0
 10
231.5672675188461
 20
53.0124996259939
 30
0.0
 10
231.6513907274516
 20
52.87850641303102
 30
0.0
 10
231.7015609601903
 20
52.81659748488148
 30
0.0
 10
231.8161601250027
 20
52.70636110925999
 30
0.0
 10
231.8794873398419
 20
52.65888542940949
 30
0.0
 10
232.0178552610489
 20
52.57888523642649
 30
0.0
 10
232.0938015032663
 20
52.54619533000896
 30
0.0
 10
232.2520377774226
 20
52.49862034527
 30
0.0
 10
232.3345896174793
 20
52.48334313070875
 30
0.0
 10
232.506716546124
 20
52.46976194410436
 30
0.0
 10
232.5961075136294
 20
52.47171098959862
 30
0.0
 10
232.7744193383217
 20
52.49239724546381
 30
0.0
 10
232.8642902417506
 20
52.51101507175434
 30
0.0
 10
233.0457343866127
 20
52.5652132686647
 30
0.0
 10
233.1343438978021
 20
52.59990983339362
 30
0.0
 10
233.3075580982943
 20
52.68357771349616
 30
0.0
 10
233.393069947616
 20
52.73320239133626
 30
0.0
 10
233.5552302043397
 20
52.84417604835399
 30
0.0
 10
233.6316386714061
 20
52.90512762174993
 30
0.0
 10
233.7753025382631
 20
53.03772258269664
 30
0.0
 10
233.8428353841503
 20
53.10994061717786
 30
0.0
 10
233.9628056073873
 20
53.25909652127887
 30
0.0
 10
234.0160552883709
 20
53.33666313819116
 30
0.0
 10
234.1087375102671
 20
53.49796412591097
 30
0.0
 10
234.1473484971966
 20
53.58053800881606
 30
0.0
 10
234.2074395191511
 20
53.74526815494707
 30
0.0
 10
234.2293965517069
 20
53.82867256070529
 30
0.0
 10
234.2554952659397
 20
53.99402883664266
 30
0.0
 10
234.2595411364362
 20
54.07455527274581
 30
0.0
 10
234.2499163518968
 20
54.23169874359255
 30
0.0
 10
234.2359060223518
 20
54.30905899220085
 30
0.0
 10
234.1905054688772
 20
54.45425044281068
 30
0.0
 10
234.1592864327252
 20
54.52255443424085
 30
0.0
 10
234.0795147463369
 20
54.65075232035132
 30
0.0
 10
234.0308057773649
 20
54.71038130429594
 30
0.0
 10
233.9199426185335
 20
54.81602978341495
 30
0.0
 10
233.8573823688508
 20
54.86280735100764
 30
0.0
 10
233.7173843405273
 20
54.94383297990537
 30
0.0
 10
233.6420702871159
 20
54.9768200742602
 30
0.0
 10
233.4819416593751
 20
55.02798815065373
 30
0.0
 10
233.3960410073097
 20
55.04630778440729
 30
0.0
 10
233.2191146490502
 20
55.06658287421869
 30
0.0
 10
233.1286102008426
 20
55.06869208816327
 30
0.0
 10
232.9437071039242
 20
55.05681559290045
 30
0.0
 10
232.8486960106283
 20
55.04252774867962
 30
0.0
 10
232.6628669354608
 20
54.9984427817696
 30
0.0
 10
232.571115280904
 20
54.96868705467977
 30
0.0
 10
232.3901567627995
 20
54.8931139704324
 30
0.0
 10
232.3022835977245
 20
54.84769487648089
 30
0.0
 10
232.0535380958153
 20
54.69244760053858
 30
0.0
 10
231.9032790572434
 20
54.56062241660718
 30
0.0
 10
231.7818365851637
 20
54.40954913587197
 30
0.0
  0
ELLIPSE
  5
249
330
1F
100
AcDbEntity
  8
0
  6
Continuous
 62
     7
370
    25
100
AcDbEllipse
 10
230.1564971344
 20
50.6395163998
 30
0.0
 11
-0.7461041289971605
 21
17.93477386060238
 31
0.0
210
0.0
220
0.0
230
1.0
 40
0.4444802122
 41
2.401404845694034
 42
2.866866793327967
  0
SPLINE
  5
24A
330
1F
100
AcDbEntity
  8
0
  6
Continuous
 62
     7
370
    25
100
AcDbSpline
210
0.0
220
0.0
230
1.0
 70
     8
 71
     3
 72
    12
 73
     8
 74
     0
 42
0.000000001
 43
0.00000001
 40
0.0
 40
0.0
 40
0.0
 40
0.0
 40
0.2500000000000014
 40
0.2500000000000014
 40
0.5000000000000029
 40
0.5000000000000029
 40
1.0
 40
1.0
 40
1.0
 40
1.0
 10
225.1186814317034
 20
37.44083543506038
 30
0.0
 10
225.1409835931915
 20
37.42796067128036
 30
0.0
 10
225.1646909561308
 20
37.40714643221283
 30
0.0
 10
225.20775295
 20
37.36152938014614
 30
0.0
 10
225.2267562332546
 20
37.33757196039443
 30
0.0
 10
225.2790299037397
 20
37.26567208985801
 30
0.0
 10
225.3068485584818
 20
37.2188140507491
 30
0.0
 10
225.3310829446828
 20
37.17386213510446
 30
0.0
  0
LINE
  5
24B
330
1F
100
AcDbEntity
  8
0
  6
Continuous
 62
     7
370
    25
100
AcDbLine
 10
224.0776481584
 20
38.0418107618
 30
0.0
 11
225.1186812435
 21
37.4408351539
 31
0.0
  0
SPLINE
  5
24C
330
1F
100
AcDbEntity
  8
0
  6
Continuous
 62
     7
370
    25
100
AcDbSpline
210
0.0
220
0.0
230
1.0
 70
     8
 71
     3
 72
    12
 73
     8
 74
     0
 42
0.000000001
 43
0.00000001
 40
0.0
 40
0.0
 40
0.0
 40
0.0
 40
0.5000000000000001
 40
0.5000000000000001
 40
0.75
 40
0.75
 40
1.0
 40
1.0
 40
1.0
 40
1.0
 10
223.983863586152
 20
37.95159531626803
 30
0.0
 10
223.9815372964003
 20
37.98366463593752
 30
0.0
 10
223.9837383014869
 20
38.01348462158022
 30
0.0
 10
224.0020036619279
 20
38.04449559332321
 30
0.0
 10
224.0107699048752
 20
38.05263745327442
 30
0.0
 10
224.0372339104118
 20
38.05799822455333
 30
0.0
 10
224.0554887969938
 20
38.05460347865807
 30
0.0
 10
224.0776482910206
 20
38.04181107505041
 30
0.0
  0
ELLIPSE
  5
24D
330
1F
100
AcDbEntity
  8
0
  6
Continuous
 62
     7
370
    25
100
AcDbEllipse
 10
240.3014671525
 20
44.7829498689
 30
0.0
 11
15.90471575942232
 21
8.322204981098977
 31
0.0
210
0.0
220
0.0
230
1.0
 40
0.4445305117
 41
2.950908281021528
 42
3.578705763440488
  0
SPLINE
  5
24E
330
1F
100
AcDbEntity
  8
0
  6
Continuous
 62
     7
370
    25
100
AcDbSpline
210
0.0
220
0.0
230
1.0
 70
     8
 71
     3
 72
    12
 73
     8
 74
     0
 42
0.000000001
 43
0.00000001
 40
0.0
 40
0.0
 40
0.0
 40
0.0
 40
0.25
 40
0.25
 40
0.5
 40
0.5
 40
1.0
 40
1.0
 40
1.0
 40
1.0
 10
238.0276482910204
 20
62.20391976972326
 30
0.0
 10
238.0053461295323
 20
62.21679453350328
 30
0.0
 10
237.9934015746697
 20
62.23081604052666
 30
0.0
 10
237.9848075085602
 20
62.25652871297063
 30
0.0
 10
237.9874534061701
 20
62.26798426381237
 30
0.0
 10
238.0052180060167
 20
62.29943875769258
 30
0.0
 10
238.0297094717149
 20
62.31608899021055
 30
0.0
 10
238.0588635861519
 20
62.33021036125157
 30
0.0
  0
LINE
  5
24F
330
1F
100
AcDbEntity
  8
0
  6
Continuous
 62
     7
370
    25
100
AcDbLine
 10
239.0686815811
 20
61.6029444333
 30
0.0
 11
238.027648496
 21
62.2039200412
 31
0.0
  0
SPLINE
  5
250
330
1F
100
AcDbEntity
  8
0
  6
Continuous
 62
     7
370
    25
100
AcDbSpline
210
0.0
220
0.0
230
1.0
 70
     8
 71
     3
 72
    12
 73
     8
 74
     0
 42
0.000000001
 43
0.00000001
 40
0.0
 40
0.0
 40
0.0
 40
0.0
 40
0.5000000000000018
 40
0.5000000000000018
 40
0.7500000000000009
 40
0.7500000000000009
 40
1.0
 40
1.0
 40
1.0
 40
1.0
 10
239.4060829446827
 20
61.552477180088
 30
0.0
 10
239.3554265073735
 20
61.55100408077217
 30
0.0
 10
239.300415341304
 20
61.55168066282186
 30
0.0
 10
239.212391892576
 20
61.56095326950292
 30
0.0
 10
239.1816168636697
 20
61.56552094154965
 30
0.0
 10
239.1208842576652
 20
61.57994944329026
 30
0.0
 10
239.09084092573
 20
61.59015172612556
 30
0.0
 10
239.0686814317033
 20
61.60294412973322
 30
0.0
  0
ELLIPSE
  5
251
330
1F
100
AcDbEntity
  8
0
  6
Continuous
 62
     7
370
    25
100
AcDbEllipse
 10
230.1564971344
 20
50.6395163998
 30
0.0
 11
15.90471575942229
 21
8.322204981099006
 31
0.0
210
0.0
220
0.0
230
1.0
 40
0.4445305117
 41
0.2747775750656681
 42
0.7400769945754355
  0
ELLIPSE
  5
252
330
1F
100
AcDbEntity
  8
0
  6
Continuous
 62
     7
370
    25
100
AcDbEllipse
 10
240.3014671525
 20
44.7829498689
 30
0.0
 11
-0.7461041289971889
 21
17.9347738606024
 31
0.0
210
0.0
220
0.0
230
1.0
 40
0.4444802122
 41
5.846123912132794
 42
6.473758866427504
  0
SPLINE
  5
253
330
1F
100
AcDbEntity
  8
0
  6
Continuous
 62
     7
370
    25
100
AcDbSpline
210
0.0
220
0.0
230
1.0
 70
     8
 71
     3
 72
    12
 73
     8
 74
     0
 42
0.000000001
 43
0.00000001
 40
0.0
 40
0.0
 40
0.0
 40
0.0
 40
0.2499999999999991
 40
0.2499999999999991
 40
0.4999999999999982
 40
0.4999999999999982
 40
1.0
 40
1.0
 40
1.0
 40
1.0
 10
224.0776482910205
 20
45.70755046093107
 30
0.0
 10
224.0553542908159
 20
45.72042051330242
 30
0.0
 10
224.0372418147271
 20
45.74444973635757
 30
0.0
 10
224.0106769434349
 20
45.799561602244
 30
0.0
 10
224.0020760105377
 20
45.82951265824037
 30
0.0
 10
223.9837066646155
 20
45.92095469643832
 30
0.0
 10
223.9815043802469
 20
45.9823160295298
 30
0.0
 10
223.983863586152
 20
46.04299978665623
 30
0.0
  0
LINE
  5
254
330
1F
100
AcDbEntity
  8
0
  6
Continuous
 62
     7
370
    25
100
AcDbLine
 10
225.1186812435
 20
45.1065748638
 30
0.0
 11
224.0776481584
 21
45.7075504718
 31
0.0
  0
SPLINE
  5
255
330
1F
100
AcDbEntity
  8
0
  6
Continuous
 62
     7
370
    25
100
AcDbSpline
210
0.0
220
0.0
230
1.0
 70
     8
 71
     3
 72
    12
 73
     8
 74
     0
 42
0.000000001
 43
0.00000001
 40
0.0
 40
0.0
 40
0.0
 40
0.0
 40
0.5
 40
0.5
 40
0.75
 40
0.75
 40
1.0
 40
1.0
 40
1.0
 40
1.0
 10
225.3310829446828
 20
45.26526660549266
 30
0.0
 10
225.3067016479971
 20
45.21731933459949
 30
0.0
 10
225.2790038778362
 20
45.17322485389541
 30
0.0
 10
225.2267113518798
 20
45.1225302861636
 30
0.0
 10
225.2074104202333
 20
45.10842044173212
 30
0.0
 10
225.165040866113
 20
45.09371734223033
 30
0.0
 10
225.1409426053297
 20
45.09372371894986
 30
0.0
 10
225.1186814317034
 20
45.10657482094097
 30
0.0
  0
ELLIPSE
  5
256
330
1F
100
AcDbEntity
  8
0
  6
Continuous
 62
     7
370
    25
100
AcDbEllipse
 10
230.1564971344
 20
50.6395163998
 30
0.0
 11
7.874888476696753
 21
13.63996451050157
 31
0.0
210
0.0
220
0.0
230
1.0
 40
0.1059897947
 41
1.105338485463664
 42
2.036099852607342
  0
SPLINE
  5
257
330
1F
100
AcDbEntity
  8
0
  6
Continuous
 62
     7
370
    25
100
AcDbSpline
210
0.0
220
0.0
230
1.0
 70
     8
 71
     3
 72
    12
 73
     8
 74
     0
 42
0.000000001
 43
0.00000001
 40
0.0
 40
0.0
 40
0.0
 40
0.0
 40
0.2500000000000004
 40
0.2500000000000004
 40
0.5000000000000009
 40
0.5000000000000009
 40
1.0
 40
1.0
 40
1.0
 40
1.0
 10
232.4303159958757
 20
57.77069733529657
 30
0.0
 10
232.4526099960804
 20
57.75782728292521
 30
0.0
 10
232.4645543718323
 20
57.73735998594559
 30
0.0
 10
232.4731556782548
 20
57.69262163647814
 30
0.0
 10
232.4705166579864
 20
57.66916137668831
 30
0.0
 10
232.4527737145276
 20
57.59857329646245
 30
0.0
 10
232.4284426172533
 20
57.55253433797319
 30
0.0
 10
232.3991007007443
 20
57.5074324318607
 30
0.0
  0
LINE
  5
258
330
1F
100
AcDbEntity
  8
0
  6
Continuous
 62
     7
370
    25
100
AcDbLine
 10
231.3892827795
 20
58.3716730848
 30
0.0
 11
232.4303158646
 21
57.7706974768
 31
0.0
  0
SPLINE
  5
259
330
1F
100
AcDbEntity
  8
0
  6
Continuous
 62
     7
370
    25
100
AcDbSpline
210
0.0
220
0.0
230
1.0
 70
     8
 71
     3
 72
    12
 73
     8
 74
     0
 42
0.000000001
 43
0.00000001
 40
0.0
 40
0.0
 40
0.0
 40
0.0
 40
0.5
 40
0.5
 40
0.75
 40
0.75
 40
1.0
 40
1.0
 40
1.0
 40
1.0
 10
231.0518813422135
 20
58.28516561302428
 30
0.0
 10
231.1032351715402
 20
58.31753691042644
 30
0.0
 10
231.1574634004422
 20
58.34631070443218
 30
0.0
 10
231.2458882140311
 20
58.37613976569401
 30
0.0
 10
231.276549423423
 20
58.38368932943672
 30
0.0
 10
231.3366052873548
 20
58.38817902048915
 30
0.0
 10
231.3670216815665
 20
58.38452407727775
 30
0.0
 10
231.3892828551929
 20
58.37167297528664
 30
0.0
  0
ELLIPSE
  5
25A
330
1F
100
AcDbEntity
  8
0
  6
Continuous
 62
     7
370
    25
100
AcDbEllipse
 10
240.3014671525
 20
44.7829498689
 30
0.0
 11
14.30238360604708
 21
-8.263902107297771
 31
0.0
210
0.0
220
0.0
230
1.0
 40
0.9534948969
 41
2.676532761479946
 42
3.607294128623636
  0
SPLINE
  5
25B
330
1F
100
AcDbEntity
  8
0
  6
Continuous
 62
     7
370
    25
100
AcDbSpline
210
0.0
220
0.0
230
1.0
 70
     8
 71
     3
 72
    20
 73
    16
 74
     0
 42
0.000000001
 43
0.00000001
 40
0.0
 40
0.0
 40
0.0
 40
0.0
 40
0.2500000000000003
 40
0.2500000000000003
 40
0.3750000000000003
 40
0.3750000000000003
 40
0.5000000000000002
 40
0.5000000000000002
 40
0.6250000000000001
 40
0.6250000000000001
 40
0.7500000000000001
 40
0.7500000000000001
 40
0.875
 40
0.875
 40
1.0
 40
1.0
 40
1.0
 40
1.0
 10
254.4120680854255
 20
52.68625752727153
 30
0.0
 10
254.1871123344906
 20
52.83319717992981
 30
0.0
 10
253.961752271611
 20
53.00595470855316
 30
0.0
 10
253.6210140952676
 20
53.30134061931302
 30
0.0
 10
253.5083347476022
 20
53.40481103050977
 30
0.0
 10
253.2887421314363
 20
53.61665596980998
 30
0.0
 10
253.1811005251354
 20
53.72566220613813
 30
0.0
 10
252.9694896003279
 20
53.94924356583382
 30
0.0
 10
252.8657159396183
 20
54.06370586039424
 30
0.0
 10
252.6681521458337
 20
54.28968561818851
 30
0.0
 10
252.5734180329694
 20
54.40218635407619
 30
0.0
 10
252.3912599326858
 20
54.62553640229103
 30
0.0
 10
252.3035047632248
 20
54.73686214677841
 30
0.0
 10
252.1392802857019
 20
54.95141241076563
 30
0.0
 10
252.0622328620271
 20
55.05531931601491
 30
0.0
 10
251.9899184528235
 20
55.15566685966116
 30
0.0
  0
ELLIPSE
  5
25C
330
1F
100
AcDbEntity
  8
0
  6
Continuous
 62
     7
370
    25
100
AcDbEllipse
 10
242.9212480527
 20
43.2705825469
 30
0.0
 11
3.721747905630338
 21
15.63536207904303
 31
0.0
210
0.0
220
0.0
230
1.0
 40
0.7170283842
 41
5.728450265932884
 42
8.186137105929475
  0
SPLINE
  5
25D
330
1F
100
AcDbEntity
  8
0
  6
Continuous
 62
     7
370
    25
100
AcDbSpline
210
0.0
220
0.0
230
1.0
 70
     8
 71
     3
 72
    20
 73
    16
 74
     0
 42
0.000000001
 43
0.00000001
 40
0.0
 40
0.0
 40
0.0
 40
0.0
 40
0.2499999999999992
 40
0.2499999999999992
 40
0.3749999999999994
 40
0.3749999999999994
 40
0.4999999999999996
 40
0.4999999999999996
 40
0.6249999999999997
 40
0.6249999999999997
 40
0.7499999999999999
 40
0.7499999999999999
 40
0.8749999999999999
 40
0.8749999999999999
 40
1.0
 40
1.0
 40
1.0
 40
1.0
 10
231.1094310520413
 20
40.69491889435535
 30
0.0
 10
231.1120562174965
 20
40.39583772319577
 30
0.0
 10
231.1518966128552
 20
40.09786706214565
 30
0.0
 10
231.266885946442
 20
39.65151830676378
 30
0.0
 10
231.3145411189198
 20
39.50354242491124
 30
0.0
 10
231.4249795054808
 20
39.21766463480738
 30
0.0
 10
231.4880560911289
 20
39.07851121008049
 30
0.0
 10
231.6295386808427
 20
38.80765589886479
 30
0.0
 10
231.7086484787629
 20
38.6750962025636
 30
0.0
 10
231.8767003954121
 20
38.42614001387247
 30
0.0
 10
231.9660128478212
 20
38.30877697940634
 30
0.0
 10
232.1545538096925
 20
38.08795417779833
 30
0.0
 10
232.2545418994277
 20
37.98383151626572
 30
0.0
 10
232.4603924893961
 20
37.79396344146417
 30
0.0
 10
232.5660092453636
 20
37.7082303898019
 30
0.0
 10
232.6742135021848
 20
37.63174129874053
 30
0.0
  0
ARC
  5
25E
330
1F
100
AcDbEntity
  8
0
  6
Continuous
 62
     7
370
    25
100
AcDbCircle
 10
236.1852507536
 20
58.6135829806
 30
0.0
 40
5.830383666936356
100
AcDbArc
 50
60.711941917
 51
95.3140858083
  0
ARC
  5
25F
330
1F
100
AcDbEntity
  8
0
  6
Continuous
 62
     7
370
    25
100
AcDbCircle
 10
226.3282948082
 20
41.4863215088
 30
0.0
 40
5.90976140345225
100
AcDbArc
 50
205.1109621509
 51
239.0476651847
  0
LINE
  5
260
330
1F
100
AcDbEntity
  8
0
  6
Continuous
 62
     7
370
    25
100
AcDbLine
 10
240.726416244
 20
18.5982046739
 30
0.0
 11
240.7302739977
 21
26.6815815295
 31
0.0
  0
ELLIPSE
  5
261
330
1F
100
AcDbEntity
  8
0
  6
Continuous
 62
     7
370
    25
100
AcDbEllipse
 10
266.5774850273
 20
29.6141276272
 30
0.0
 11
31.96816302892626
 21
2.226279539829324
 31
0.0
210
0.0
220
0.0
230
1.0
 40
0.5124783305
 41
3.284967178125556
 42
3.735734461844862
  0
ELLIPSE
  5
262
330
1F
100
AcDbEntity
  8
0
  6
Continuous
 62
     7
370
    25
100
AcDbEllipse
 10
235.6701032969
 20
46.4884195335
 30
0.0
 11
0.7676868811579141
 21
1.714598648514425
 31
0.0
210
0.0
220
0.0
230
1.0
 40
0.4854687942
 41
0.0
 42
6.283185307179586
  0
ELLIPSE
  5
263
330
1F
100
AcDbEntity
  8
0
  6
Continuous
 62
     7
370
    25
100
AcDbEllipse
 10
253.5901885482
 20
37.1115342979
 30
0.0
 11
12.69884359983786
 21
18.62987944540824
 31
0.0
210
0.0
220
0.0
230
1.0
 40
0.5149243991
 41
3.124198825350316
 42
3.150400201362289
  0
ELLIPSE
  5
264
330
1F
100
AcDbEntity
  8
0
  6
Continuous
 62
     7
370
    25
100
AcDbEllipse
 10
240.9881245652
 20
44.3865509821
 30
0.0
 11
0.01181684462437715
 21
25.97323665407131
 31
0.0
210
0.0
220
0.0
230
1.0
 40
0.0000182427
 41
3.141582133468052
 42
3.171315034726966
  0
LINE
  5
265
330
1F
100
AcDbEntity
  8
0
  6
Continuous
 62
     7
370
    25
100
AcDbLine
 10
240.9803049082
 20
26.757268645
 30
0.0
 11
240.9763272993
 21
18.4247866416
 31
0.0
  0
LINE
  5
266
330
1F
100
AcDbEntity
  8
0
  6
Continuous
 62
     7
370
    25
100
AcDbLine
 10
241.5690990161
 20
22.1596301282
 30
0.0
 11
247.0899331417
 21
27.7993982587
 31
0.0
  0
ELLIPSE
  5
267
330
1F
100
AcDbEntity
  8
0
  6
Continuous
 62
     7
370
    25
100
AcDbEllipse
 10
247.9110234907
 20
40.3900465004
 30
0.0
 11
6.085654488554582
 21
14.9377822096479
 31
0.0
210
0.0
220
0.0
230
1.0
 40
0.3690373021
 41
3.876195700651182
 42
5.727520470871973
  0
ELLIPSE
  5
268
330
1F
100
AcDbEntity
  8
0
  6
Continuous
 62
     7
370
    25
100
AcDbEllipse
 10
245.4773736292
 20
20.859015586
 30
0.0
 11
4.500000275295861
 21
-0.0001953173681918941
 31
0.0
210
0.0
220
0.0
230
1.0
 40
0.5830389775
 41
2.623000548808043
 42
3.141363336650352
  0
ARC
  5
269
330
1F
100
AcDbEntity
  8
0
  6
Continuous
 62
     7
370
    25
100
AcDbCircle
 10
233.7595663437
 20
50.0910204418
 30
0.0
 40
23.18312663837355
100
AcDbArc
 50
140.2279278766
 51
177.3607126482
  0
LINE
  5
26A
330
1F
100
AcDbEntity
  8
0
  6
Continuous
 62
     7
370
    25
100
AcDbLine
 10
224.0776481584
 20
38.0418107618
 30
0.0
 11
225.1201958959
 21
37.4397654929
 31
0.0
  0
LWPOLYLINE
  5
26B
330
1F
100
AcDbEntity
  8
0
  6
Continuous
 62
     7
370
    25
100
AcDbPolyline
 90
        9
 70
   128
 43
0.0
 10
220.2221649275
 20
67.3934752642
 10
219.7199276048
 20
67.3895468808
 10
219.1896585943
 20
67.2912887004
 10
218.640431281
 20
67.1003819917
 10
218.0816428893
 20
66.8200934632
 10
217.5228544976
 20
66.4552186474
 10
216.9736271844
 20
66.0120009979
 10
216.4433581739
 20
65.4980236106
 10
215.9411208512
 20
64.9220811241
  0
ARC
  5
26C
330
1F
100
AcDbEntity
  8
0
  6
Continuous
 62
     7
370
    25
100
AcDbCircle
 10
213.6719671106
 20
50.8712305903
 30
0.0
 40
3.084347660107909
100
AcDbArc
 50
174.6548011447
 51
232.6759370834
  0
ARC
  5
26D
330
1F
100
AcDbEntity
  8
0
  6
Continuous
 62
     7
370
    25
100
AcDbCircle
 10
219.7869362999
 20
62.0537796075
 30
0.0
 40
5.357403630880757
100
AcDbArc
 50
62.0480988642
 51
85.340228905
  0
LWPOLYLINE
  5
26E
330
1F
100
AcDbEntity
  8
0
  6
Continuous
 62
     7
370
    25
100
AcDbPolyline
 90
       12
 70
   128
 43
0.0
 10
210.3768881485
 20
51.6414667509
 10
210.4238621283
 20
52.8073083247
 10
210.5643599649
 20
54.0168277197
 10
210.7971080333
 20
55.2590704926
 10
211.1199983324
 20
56.522786648
 10
211.5301082419
 20
57.7965324443
 10
212.023722912
 20
59.0687724833
 10
212.5963714842
 20
60.3279844607
 10
213.2428689082
 20
61.5627659121
 10
213.9573600649
 20
62.7619332591
 10
214.7333744251
 20
63.9146278889
 10
215.5638841665
 20
65.0104094006
  0
ARC
  5
26F
330
1F
100
AcDbEntity
  8
0
  6
Continuous
 62
     7
370
    25
100
AcDbCircle
 10
220.3432430986
 20
61.5522384349
 30
0.0
 40
5.899255735221979
100
AcDbArc
 50
103.4689956258
 51
144.1118634589
  0
ARC
  5
270
330
1F
100
AcDbEntity
  8
0
  6
Continuous
 62
     7
370
    25
100
AcDbCircle
 10
214.2879214227
 20
51.56336672
 30
0.0
 40
3.911812992292459
100
AcDbArc
 50
178.8560037274
 51
201.1091891358
  0
LINE
  5
271
330
1F
100
AcDbEntity
  8
0
  6
Continuous
 62
     7
370
    18
100
AcDbLine
 10
235.0807787144
 20
27.7304540044
 30
0.0
 11
235.0816058463
 21
29.4621451752
 31
0.0
  0
LINE
  5
272
330
1F
100
AcDbEntity
  8
0
  6
Continuous
 62
     7
370
    18
100
AcDbLine
 10
234.8808406505
 20
27.867746689
 30
0.0
 11
234.8816664654
 21
29.5994371336
 31
0.0
  0
LINE
  5
273
330
1F
100
AcDbEntity
  8
0
  6
Continuous
 62
     7
370
    18
100
AcDbLine
 10
241.0307783934
 20
27.7277115357
 30
0.0
 11
241.0316042083
 21
29.4594019491
 31
0.0
  0
SPLINE
  5
274
330
1F
100
AcDbEntity
  8
0
  6
Continuous
 62
     7
370
    18
100
AcDbSpline
210
0.0
220
0.0
230
1.0
 70
     8
 71
     3
 72
     9
 73
     5
 74
     0
 42
0.000000001
 43
0.00000001
 40
0.0
 40
0.0
 40
0.0
 40
0.0
 40
0.4031491330600834
 40
1.0
 40
1.0
 40
1.0
 40
1.0
 10
240.3788799166369
 20
29.69068445691804
 30
0.0
 10
240.2322450881974
 20
29.67420188423426
 30
0.0
 10
239.8685215516328
 20
29.63331732977999
 30
0.0
 10
239.4634410397501
 20
29.62497765106369
 30
0.0
 10
239.2216683850525
 20
29.62000010659187
 30
0.0
  0
SPLINE
  5
275
330
1F
100
AcDbEntity
  8
0
  6
Continuous
 62
     7
370
    18
100
AcDbSpline
210
0.0
220
0.0
230
1.0
 70
     8
 71
     3
 72
     9
 73
     5
 74
     0
 42
0.000000001
 43
0.00000001
 40
0.0
 40
0.0
 40
0.0
 40
0.0
 40
0.5968509291523277
 40
1.0
 40
1.0
 40
1.0
 40
1.0
 10
236.8916667930028
 20
29.62107432412842
 30
0.0
 10
236.6498982323897
 20
29.62627489605021
 30
0.0
 10
236.2448246222062
 20
29.63498824752168
 30
0.0
 10
235.8811326570033
 20
29.67620743178733
 30
0.0
 10
235.734510579157
 20
29.69282490762513
 30
0.0
  0
LWPOLYLINE
  5
276
330
1F
100
AcDbEntity
  8
0
  6
Continuous
 62
     7
370
    18
100
AcDbPolyline
 90
        3
 70
   128
 43
0.0
 10
239.2216683851
 20
29.6200001066
 10
237.9168678096
 20
29.6206018633
 10
236.891666793
 20
29.6210743241
  0
SPLINE
  5
277
330
1F
100
AcDbEntity
  8
0
  6
Continuous
 62
     7
370
    18
100
AcDbSpline
210
0.0
220
0.0
230
1.0
 70
     8
 71
     3
 72
     9
 73
     5
 74
     0
 42
0.000000001
 43
0.00000001
 40
0.0
 40
0.0
 40
0.0
 40
0.0
 40
0.4031479248391983
 40
1.0
 40
1.0
 40
1.0
 40
1.0
 10
235.734510579157
 20
29.69282490762513
 30
0.0
 10
235.6723308522849
 20
29.819585257549
 30
0.0
 10
235.5180953396082
 20
30.1340116556867
 30
0.0
 10
235.4861608472122
 20
30.42537887168466
 30
0.0
 10
235.4671006791565
 20
30.59928199918688
 30
0.0
  0
SPLINE
  5
278
330
1F
100
AcDbEntity
  8
0
  6
Continuous
 62
     7
370
    18
100
AcDbSpline
210
0.0
220
0.0
230
1.0
 70
     8
 71
     3
 72
     9
 73
     5
 74
     0
 42
0.000000001
 43
0.00000001
 40
0.0
 40
0.0
 40
0.0
 40
0.0
 40
0.5968516116922966
 40
1.0
 40
1.0
 40
1.0
 40
1.0
 10
235.4678092730471
 20
32.1976625331482
 30
0.0
 10
235.4870157536498
 20
32.35546958897852
 30
0.0
 10
235.519195411418
 20
32.61986873399024
 30
0.0
 10
235.6736531216432
 20
32.80445006034947
 30
0.0
 10
235.7359224985821
 20
32.87886372458289
 30
0.0
  0
LWPOLYLINE
  5
279
330
1F
100
AcDbEntity
  8
0
  6
Continuous
 62
     7
370
    18
100
AcDbPolyline
 90
        3
 70
   128
 43
0.0
 10
235.4671006792
 20
30.5992819992
 10
235.467497123
 20
31.4943750036
 10
235.467809273
 20
32.1976625331
  0
SPLINE
  5
27A
330
1F
100
AcDbEntity
  8
0
  6
Continuous
 62
     7
370
    18
100
AcDbSpline
210
0.0
220
0.0
230
1.0
 70
     8
 71
     3
 72
     9
 73
     5
 74
     0
 42
0.000000001
 43
0.00000001
 40
0.0
 40
0.0
 40
0.0
 40
0.0
 40
0.403148330742485
 40
0.9999999999999999
 40
0.9999999999999999
 40
0.9999999999999999
 40
0.9999999999999999
 10
240.380290518973
 20
32.87672248977204
 30
0.0
 10
240.4424953254958
 20
32.8022513947414
 30
0.0
 10
240.5967928923694
 20
32.61752758627745
 30
0.0
 10
240.6287400483521
 20
32.35309901099954
 30
0.0
 10
240.6478077617283
 20
32.19527437444552
 30
0.0
  0
SPLINE
  5
27B
330
1F
100
AcDbEntity
  8
0
  6
Continuous
 62
     7
370
    18
100
AcDbSpline
210
0.0
220
0.0
230
1.0
 70
     8
 71
     3
 72
     9
 73
     5
 74
     0
 42
0.000000001
 43
0.00000001
 40
0.0
 40
0.0
 40
0.0
 40
0.0
 40
0.5968512816097609
 40
1.0
 40
1.0
 40
1.0
 40
1.0
 10
240.6471011434712
 20
30.59689347813789
 30
0.0
 10
240.6278868420301
 20
30.4230082347017
 30
0.0
 10
240.595694062969
 20
30.13167059533665
 30
0.0
 10
240.4411743435049
 20
29.817387346071
 30
0.0
 10
240.3788799166369
 20
29.69068445691804
 30
0.0
  0
LWPOLYLINE
  5
27C
330
1F
100
AcDbEntity
  8
0
  6
Continuous
 62
     7
370
    18
100
AcDbPolyline
 90
        3
 70
   128
 43
0.0
 10
240.6478077617
 20
32.1952743744
 10
240.6474106594
 20
31.3001809958
 10
240.6471011435
 20
30.5968934781
  0
SPLINE
  5
27D
330
1F
100
AcDbEntity
  8
0
  6
Continuous
 62
     7
370
    18
100
AcDbSpline
210
0.0
220
0.0
230
1.0
 70
     8
 71
     3
 72
     9
 73
     5
 74
     0
 42
0.000000001
 43
0.00000001
 40
0.0
 40
0.0
 40
0.0
 40
0.0
 40
0.3335720032182772
 40
1.0
 40
1.0
 40
1.0
 40
1.0
 10
235.9799909470416
 20
29.88346396928437
 30
0.0
 10
236.0768336001122
 20
29.87862563470158
 30
0.0
 10
236.3671536873382
 20
29.86412101639995
 30
0.0
 10
236.6819714340258
 20
29.8623527134437
 30
0.0
 10
236.8917747943021
 20
29.86117426684686
 30
0.0
  0
SPLINE
  5
27E
330
1F
100
AcDbEntity
  8
0
  6
Continuous
 62
     7
370
    18
100
AcDbSpline
210
0.0
220
0.0
230
1.0
 70
     8
 71
     3
 72
    10
 73
     6
 74
     0
 42
0.000000001
 43
0.00000001
 40
0.0
 40
0.0
 40
0.0
 40
0.0
 40
0.2765326254805121
 40
0.5626671686514743
 40
1.0
 40
1.0
 40
1.0
 40
1.0
 10
236.8916667930028
 20
29.62107432412842
 30
0.0
 10
236.8916718975649
 20
29.63165156463957
 30
0.0
 10
236.8916822839324
 20
29.65317331441576
 30
0.0
 10
236.8917140498
 20
29.73074978208239
 30
0.0
 10
236.8917519087401
 20
29.81203669010379
 30
0.0
 10
236.8917747943021
 20
29.86117426684686
 30
0.0
  0
LWPOLYLINE
  5
27F
330
1F
100
AcDbEntity
  8
0
  6
Continuous
 62
     7
370
    18
100
AcDbPolyline
 90
        9
 70
   128
 43
0.0
 10
239.2216683851
 20
29.6200001066
 10
239.2216736534
 20
29.6334346881
 10
239.2216815559
 20
29.6524668255
 10
239.2216920927
 20
29.6767712079
 10
239.2217052635
 20
29.7059318405
 10
239.2217197515
 20
29.7394498378
 10
239.2217355566
 20
29.7767518115
 10
239.2217539958
 20
29.8171997906
 10
239.2217737522
 20
29.8601000493
  0
SPLINE
  5
280
330
1F
100
AcDbEntity
  8
0
  6
Continuous
 62
     7
370
    18
100
AcDbSpline
210
0.0
220
0.0
230
1.0
 70
     8
 71
     3
 72
     9
 73
     5
 74
     0
 42
0.000000001
 43
0.00000001
 40
0.0
 40
0.0
 40
0.0
 40
0.0
 40
0.6664271567418725
 40
1.0
 40
1.0
 40
1.0
 40
1.0
 10
239.2217737521738
 20
29.86010004931032
 30
0.0
 10
239.4315770638798
 20
29.86108511308075
 30
0.0
 10
239.7463951345175
 20
29.86256323977543
 30
0.0
 10
240.0367247087618
 20
29.8767994741181
 30
0.0
 10
240.1335707703244
 20
29.88154829528508
 30
0.0
  0
LINE
  5
281
330
1F
100
AcDbEntity
  8
0
  6
Continuous
 62
     7
370
    18
100
AcDbLine
 10
235.8171012801
 20
30.5991198745
 30
0.0
 11
236.3922161014
 21
30.8404010017
 31
0.0
  0
LINE
  5
282
330
1F
100
AcDbEntity
  8
0
  6
Continuous
 62
     7
370
    18
100
AcDbLine
 10
236.8917747943
 20
29.8611742668
 30
0.0
 11
236.8920632368
 21
30.4971711079
 31
0.0
  0
SPLINE
  5
283
330
1F
100
AcDbEntity
  8
0
  6
Continuous
 62
     7
370
    18
100
AcDbSpline
210
0.0
220
0.0
230
1.0
 70
     8
 71
     3
 72
     9
 73
     5
 74
     0
 42
0.000000001
 43
0.00000001
 40
0.0
 40
0.0
 40
0.0
 40
0.0
 40
0.6664257492221356
 40
1.0
 40
1.0
 40
1.0
 40
1.0
 10
235.8171012800811
 20
30.59911987452591
 30
0.0
 10
235.8306709756648
 20
30.4469152224402
 30
0.0
 10
235.8510328773463
 20
30.218525709785
 30
0.0
 10
235.9477339568851
 20
29.96727480245443
 30
0.0
 10
235.9799909470416
 20
29.88346396928437
 30
0.0
  0
LINE
  5
284
330
1F
100
AcDbEntity
  8
0
  6
Continuous
 62
     7
370
    18
100
AcDbLine
 10
240.2971005425
 20
30.5970556028
 30
0.0
 11
239.7222162118
 21
30.8388660624
 31
0.0
  0
SPLINE
  5
285
330
1F
100
AcDbEntity
  8
0
  6
Continuous
 62
     7
370
    18
100
AcDbSpline
210
0.0
220
0.0
230
1.0
 70
     8
 71
     3
 72
     9
 73
     5
 74
     0
 42
0.000000001
 43
0.00000001
 40
0.0
 40
0.0
 40
0.0
 40
0.0
 40
0.3335729740172819
 40
1.0
 40
1.0
 40
1.0
 40
1.0
 10
240.1335707703244
 20
29.88154829528508
 30
0.0
 10
240.1659032628226
 20
29.96532932142264
 30
0.0
 10
240.2628310567886
 20
30.21649183356676
 30
0.0
 10
240.2833957051193
 20
30.44486293130965
 30
0.0
 10
240.2971005425466
 20
30.59705560279886
 30
0.0
  0
LINE
  5
286
330
1F
100
AcDbEntity
  8
0
  6
Continuous
 62
     7
370
    18
100
AcDbLine
 10
239.2217737522
 20
29.8601000493
 30
0.0
 11
239.2220648288
 21
30.4960968904
 31
0.0
  0
LWPOLYLINE
  5
287
330
1F
100
AcDbEntity
  8
0
  6
Continuous
 62
     7
370
    18
100
AcDbPolyline
 90
        3
 70
   128
 43
0.0
 10
236.8917747943
 20
29.8611742668
 10
238.1965740527
 20
29.8605732824
 10
239.2217737522
 20
29.8601000493
  0
SPLINE
  5
288
330
1F
100
AcDbEntity
  8
0
  6
Continuous
 62
     7
370
    18
100
AcDbSpline
210
0.0
220
0.0
230
1.0
 70
     8
 71
     3
 72
    10
 73
     6
 74
     0
 42
0.000000001
 43
0.00000001
 40
0.0
 40
0.0
 40
0.0
 40
0.0
 40
0.2765303992101412
 40
0.5626664216584248
 40
1.0
 40
1.0
 40
1.0
 40
1.0
 10
235.8171012800811
 20
30.59911987452591
 30
0.0
 10
235.7865484359224
 20
30.58875543981643
 30
0.0
 10
235.7243814570176
 20
30.56766654902123
 30
0.0
 10
235.5994914545353
 20
30.55962880343976
 30
0.0
 10
235.5169790156193
 20
30.58434262419159
 30
0.0
 10
235.4671006791565
 20
30.59928199918688
 30
0.0
  0
SPLINE
  5
289
330
1F
100
AcDbEntity
  8
0
  6
Continuous
 62
     7
370
    18
100
AcDbSpline
210
0.0
220
0.0
230
1.0
 70
     8
 71
     3
 72
    10
 73
     6
 74
     0
 42
0.000000001
 43
0.00000001
 40
0.0
 40
0.0
 40
0.0
 40
0.0
 40
0.2765336896392764
 40
0.5626698365611276
 40
1.0
 40
1.0
 40
1.0
 40
1.0
 10
240.6471011434712
 20
30.59689347813789
 30
0.0
 10
240.6165478514947
 20
30.5865287416991
 30
0.0
 10
240.5543803238228
 20
30.56543935991121
 30
0.0
 10
240.4294904659477
 20
30.55740151300697
 30
0.0
 10
240.3469784566732
 20
30.58211592132916
 30
0.0
 10
240.2971005425466
 20
30.59705560279885
 30
0.0
  0
LWPOLYLINE
  5
28A
330
1F
100
AcDbEntity
  8
0
  6
Continuous
 62
     7
370
    18
100
AcDbPolyline
 90
        3
 70
   128
 43
0.0
 10
235.8178085569
 20
32.1975011569
 10
235.8174121131
 20
31.3024081584
 10
235.8171012801
 20
30.5991198745
  0
LINE
  5
28B
330
1F
100
AcDbEntity
  8
0
  6
Continuous
 62
     7
370
    18
100
AcDbLine
 10
235.8178085569
 20
32.1975011569
 30
0.0
 11
236.3929233782
 21
32.438782302
 31
0.0
  0
LINE
  5
28C
330
1F
100
AcDbEntity
  8
0
  6
Continuous
 62
     7
370
    18
100
AcDbLine
 10
240.2978078193
 20
32.1954353705
 30
0.0
 11
239.7229234886
 21
32.4372473388
 31
0.0
  0
LWPOLYLINE
  5
28D
330
1F
100
AcDbEntity
  8
0
  6
Continuous
 62
     7
370
    18
100
AcDbPolyline
 90
        3
 70
   128
 43
0.0
 10
240.2971005425
 20
30.5970556028
 10
240.2974969863
 20
31.4921486072
 10
240.2978078193
 20
32.1954353705
  0
ARC
  5
28E
330
1F
100
AcDbEntity
  8
0
  6
Continuous
 62
     7
370
    18
100
AcDbCircle
 10
235.6430067965
 20
32.6267552932
 30
0.0
 40
0.4634811419490414
100
AcDbArc
 50
247.7899264873
 51
292.1572381203
  0
ARC
  5
28F
330
1F
100
AcDbEntity
  8
0
  6
Continuous
 62
     7
370
    18
100
AcDbCircle
 10
240.4730052101
 20
32.6245383626
 30
0.0
 40
0.4634905647331576
100
AcDbArc
 50
247.7904197939
 51
292.1568693824
  0
SPLINE
  5
290
330
1F
100
AcDbEntity
  8
0
  6
Continuous
 62
     7
370
    18
100
AcDbSpline
210
0.0
220
0.0
230
1.0
 70
     8
 71
     3
 72
     9
 73
     5
 74
     0
 42
0.000000001
 43
0.00000001
 40
0.0
 40
0.0
 40
0.0
 40
0.0
 40
0.3335739575521753
 40
1.0
 40
1.0
 40
1.0
 40
1.0
 10
235.981252718319
 20
32.7328212620799
 30
0.0
 10
235.9489365071387
 20
32.68376112603404
 30
0.0
 10
235.8520578076819
 20
32.53668688676828
 30
0.0
 10
235.8315052899423
 20
32.33314606276283
 30
0.0
 10
235.8178085568827
 20
32.1975011569443
 30
0.0
  0
SPLINE
  5
291
330
1F
100
AcDbEntity
  8
0
  6
Continuous
 62
     7
370
    18
100
AcDbSpline
210
0.0
220
0.0
230
1.0
 70
     8
 71
     3
 72
     9
 73
     5
 74
     0
 42
0.000000001
 43
0.00000001
 40
0.0
 40
0.0
 40
0.0
 40
0.0
 40
0.6664277414887397
 40
0.9999999999999999
 40
0.9999999999999999
 40
0.9999999999999999
 40
0.9999999999999999
 10
236.8931353472556
 20
32.93445520163647
 30
0.0
 10
236.683323995697
 20
32.91692299422149
 30
0.0
 10
236.3684941371893
 20
32.89061525472699
 30
0.0
 10
236.0781151071826
 20
32.77229096323097
 30
0.0
 10
235.981252718319
 20
32.7328212620799
 30
0.0
  0
LINE
  5
292
330
1F
100
AcDbEntity
  8
0
  6
Continuous
 62
     7
370
    18
100
AcDbLine
 10
236.8931353473
 20
32.9344552016
 30
0.0
 11
236.8930760782
 21
32.7815521987
 31
0.0
  0
LINE
  5
293
330
1F
100
AcDbEntity
  8
0
  6
Continuous
 62
     7
370
    18
100
AcDbLine
 10
239.2231356222
 20
32.9333817444
 30
0.0
 11
239.2230750361
 21
32.7804780049
 31
0.0
  0
SPLINE
  5
294
330
1F
100
AcDbEntity
  8
0
  6
Continuous
 62
     7
370
    18
100
AcDbSpline
210
0.0
220
0.0
230
1.0
 70
     8
 71
     3
 72
     9
 73
     5
 74
     0
 42
0.000000001
 43
0.00000001
 40
0.0
 40
0.0
 40
0.0
 40
0.0
 40
0.3335733154524994
 40
0.9999999999999999
 40
0.9999999999999999
 40
0.9999999999999999
 40
0.9999999999999999
 10
240.1348332001462
 20
32.73090596825025
 30
0.0
 10
240.0380066399065
 20
32.77046501243581
 30
0.0
 10
239.7477359385217
 20
32.88905676529199
 30
0.0
 10
239.4329304201212
 20
32.91565558272467
 30
0.0
 10
239.2231356222163
 20
32.93338174443923
 30
0.0
  0
SPLINE
  5
295
330
1F
100
AcDbEntity
  8
0
  6
Continuous
 62
     7
370
    18
100
AcDbSpline
210
0.0
220
0.0
230
1.0
 70
     8
 71
     3
 72
     9
 73
     5
 74
     0
 42
0.000000001
 43
0.00000001
 40
0.0
 40
0.0
 40
0.0
 40
0.0
 40
0.6664278478020954
 40
1.0
 40
1.0
 40
1.0
 40
1.0
 10
240.2978078193482
 20
32.19543537047975
 30
0.0
 10
240.2842295515044
 20
32.33109303586135
 30
0.0
 10
240.2638548509445
 20
32.53465245467767
 30
0.0
 10
240.1671059419442
 20
32.68181623074268
 30
0.0
 10
240.1348332001462
 20
32.73090596825025
 30
0.0
  0
LWPOLYLINE
  5
296
330
1F
100
AcDbEntity
  8
0
  6
Continuous
 62
     7
370
    18
100
AcDbPolyline
 90
        3
 70
   128
 43
0.0
 10
239.2231356222
 20
32.9333817444
 10
237.9183350468
 20
32.9339834773
 10
236.8931353473
 20
32.9344552016
  0
SPLINE
  5
297
330
1F
100
AcDbEntity
  8
0
  6
Continuous
 62
     7
370
    18
100
AcDbSpline
210
0.0
220
0.0
230
1.0
 70
     8
 71
     3
 72
     9
 73
     5
 74
     0
 42
0.000000001
 43
0.00000001
 40
0.0
 40
0.0
 40
0.0
 40
0.0
 40
0.4031478985458858
 40
1.0
 40
1.0
 40
1.0
 40
1.0
 10
235.7359224985821
 20
32.87886372458289
 30
0.0
 10
235.8825819628455
 20
32.94763522334113
 30
0.0
 10
236.2463677218494
 20
33.11822149951
 30
0.0
 10
236.6514611610147
 20
33.15349989590529
 30
0.0
 10
236.8932420314659
 20
33.17455588092974
 30
0.0
  0
SPLINE
  5
298
330
1F
100
AcDbEntity
  8
0
  6
Continuous
 62
     7
370
    18
100
AcDbSpline
210
0.0
220
0.0
230
1.0
 70
     8
 71
     3
 72
    10
 73
     6
 74
     0
 42
0.000000001
 43
0.00000001
 40
0.0
 40
0.0
 40
0.0
 40
0.0
 40
0.2765316399935941
 40
0.5626687552454132
 40
1.0
 40
1.0
 40
1.0
 40
1.0
 10
236.8931353472556
 20
32.93445520163647
 30
0.0
 10
236.8931392151149
 20
32.94503245087197
 30
0.0
 10
236.8931470851857
 20
32.96655435578453
 30
0.0
 10
236.8931822958145
 20
33.04413101506491
 30
0.0
 10
236.8932195260595
 20
33.12541831342742
 30
0.0
 10
236.8932420314659
 20
33.17455588092974
 30
0.0
  0
LWPOLYLINE
  5
299
330
1F
100
AcDbEntity
  8
0
  6
Continuous
 62
     7
370
    18
100
AcDbPolyline
 90
        9
 70
   128
 43
0.0
 10
239.2231356222
 20
32.9333817444
 10
239.2231408906
 20
32.9468163259
 10
239.2231487931
 20
32.9658484633
 10
239.2231593298
 20
32.9901528457
 10
239.2231725007
 20
33.0193134783
 10
239.2231869887
 20
33.0528314519
 10
239.2232027938
 20
33.0901334493
 10
239.2232218915
 20
33.130580276
 10
239.2232409893
 20
33.1734816872
  0
SPLINE
  5
29A
330
1F
100
AcDbEntity
  8
0
  6
Continuous
 62
     7
370
    18
100
AcDbSpline
210
0.0
220
0.0
230
1.0
 70
     8
 71
     3
 72
     9
 73
     5
 74
     0
 42
0.000000001
 43
0.00000001
 40
0.0
 40
0.0
 40
0.0
 40
0.0
 40
0.5968517461967257
 40
1.0
 40
1.0
 40
1.0
 40
1.0
 10
239.2232409893376
 20
33.17348168715767
 30
0.0
 10
239.4650025063461
 20
33.15220293509012
 30
0.0
 10
239.8700637607517
 20
33.11655128088427
 30
0.0
 10
240.2336937313114
 20
32.94562936264636
 30
0.0
 10
240.380290518973
 20
32.87672248977204
 30
0.0
  0
LWPOLYLINE
  5
29B
330
1F
100
AcDbEntity
  8
0
  6
Continuous
 62
     7
370
    18
100
AcDbPolyline
 90
        3
 70
   128
 43
0.0
 10
236.8932420315
 20
33.1745558809
 10
238.1980412898
 20
33.1739549084
 10
239.2232409893
 20
33.1734816872
  0
LINE
  5
29C
330
1F
100
AcDbEntity
  8
0
  6
Continuous
 62
     7
370
    18
100
AcDbLine
 10
235.4807786486
 20
27.7302699818
 30
0.0
 11
235.4802794719
 21
26.6825240621
 31
0.0
  0
LINE
  5
29D
330
1F
100
AcDbEntity
  8
0
  6
Continuous
 62
     7
370
    18
100
AcDbLine
 10
240.6302779655
 20
26.6801503989
 30
0.0
 11
240.6307784593
 21
27.7278955583
 31
0.0
  0
LINE
  5
29E
330
1F
100
AcDbEntity
  8
0
  6
Continuous
 62
     7
370
    18
100
AcDbLine
 10
235.4802794719
 20
26.6825240621
 30
0.0
 11
235.4802728864
 21
26.6762837651
 31
0.0
  0
LINE
  5
29F
330
1F
100
AcDbEntity
  8
0
  6
Continuous
 62
     7
370
    18
100
AcDbLine
 10
240.6302726971
 20
26.6739093416
 30
0.0
 11
240.6302779655
 21
26.6801503989
 31
0.0
  0
LINE
  5
2A0
330
1F
100
AcDbEntity
  8
0
  6
Continuous
 62
     7
370
    18
100
AcDbLine
 10
232.6742134208
 20
37.6317406458
 30
0.0
 11
254.4120689136
 21
52.6862574104
 31
0.0
  0
LINE
  5
2A1
330
1F
100
AcDbEntity
  8
0
  6
Continuous
 62
     7
370
    18
100
AcDbLine
 10
233.0287066124
 20
36.8205217314
 30
0.0
 11
233.0615798371
 21
37.3580144837
 31
0.0
  0
LWPOLYLINE
  5
2A2
330
1F
100
AcDbEntity
  8
0
  6
Continuous
 62
     7
370
    18
100
AcDbPolyline
 90
       25
 70
   128
 43
0.0
 10
220.0261861772
 20
43.629192467
 10
220.0674136976
 20
44.7585444336
 10
220.1907887184
 20
45.9271340906
 10
220.3953998142
 20
47.1263106877
 10
220.6797316738
 20
48.3471953926
 10
221.0416782721
 20
49.5807493509
 10
221.47856065
 20
50.8178396545
 10
221.9871440368
 20
52.0493072117
 10
222.563662875
 20
53.2660348061
 10
223.2038491378
 20
54.4590143947
 10
223.9029632802
 20
55.6194132654
 10
224.6558291424
 20
56.7386409548
 10
225.4568728037
 20
57.8084104612
 10
226.3001630831
 20
58.8208011697
 10
227.1794573078
 20
59.7683179733
 10
228.0882451068
 20
60.6439469732
 10
229.0197979663
 20
61.441203098
 10
229.9672194435
 20
62.1541857078
 10
230.9234948458
 20
62.7776148776
 10
231.8815443671
 20
63.3068765215
 10
232.8342749478
 20
63.7380508101
 10
233.774632712
 20
64.0679447225
 10
234.6956559387
 20
64.2941180635
 10
235.5905253995
 20
64.4148950328
 10
235.6452675703
 20
64.4189074216
  0
ARC
  5
2A3
330
1F
100
AcDbEntity
  8
0
  6
Continuous
 62
     7
370
    18
100
AcDbCircle
 10
230.6493325691
 20
43.3785584096
 30
0.0
 40
10.62610261071854
100
AcDbArc
 50
178.6484597357
 51
204.4621132491
  0
LINE
  5
2A4
330
1F
100
AcDbEntity
  8
0
  6
Continuous
 62
     7
370
    18
100
AcDbLine
 10
234.0577126991
 20
32.0942488942
 30
0.0
 11
234.0584818791
 21
33.7063494185
 31
0.0
  0
LINE
  5
2A5
330
1F
100
AcDbEntity
  8
0
  6
Continuous
 62
     7
370
    18
100
AcDbLine
 10
231.1094313274
 20
40.6949187549
 30
0.0
 11
251.9899185056
 21
55.1556665049
 31
0.0
  0
ARC
  5
2A6
330
1F
100
AcDbEntity
  8
0
  6
Continuous
 62
     7
370
    18
100
AcDbCircle
 10
239.5021824709
 20
29.7227812468
 30
0.0
 40
9.062194845287008
100
AcDbArc
 50
194.8324485913
 51
238.1678718651
  0
LINE
  5
2A7
330
1F
100
AcDbEntity
  8
0
  6
Continuous
 62
     7
370
    18
100
AcDbLine
 10
241.5690990161
 20
22.1596301282
 30
0.0
 11
241.5750245995
 21
34.5760780693
 31
0.0
  0
LINE
  5
2A8
330
1F
100
AcDbEntity
  8
0
  6
Continuous
 62
     7
370
    18
100
AcDbLine
 10
232.4303158646
 20
57.7706974768
 30
0.0
 11
231.0768399597
 21
55.4264080693
 31
0.0
  0
LINE
  5
2A9
330
1F
100
AcDbEntity
  8
0
  6
Continuous
 62
     7
370
    18
100
AcDbLine
 10
226.4722476983
 20
47.4510203479
 30
0.0
 11
225.1186812435
 21
45.1065748638
 31
0.0
  0
LINE
  5
2AA
330
1F
100
AcDbEntity
  8
0
  6
Continuous
 62
     7
370
    18
100
AcDbLine
 10
231.3892827795
 20
58.3716730848
 30
0.0
 11
224.0776481584
 21
45.7075504718
 31
0.0
  0
LINE
  5
2AB
330
1F
100
AcDbEntity
  8
0
  6
Continuous
 62
     7
370
    18
100
AcDbLine
 10
231.0518814521
 20
58.2851657553
 30
0.0
 11
223.9838635179
 21
46.0429996204
 31
0.0
  0
LINE
  5
2AC
330
1F
100
AcDbEntity
  8
0
  6
Continuous
 62
     7
370
    18
100
AcDbLine
 10
215.9411208512
 20
64.9220811241
 30
0.0
 11
226.3488623054
 21
59.0257702182
 31
0.0
  0
LINE
  5
2AD
330
1F
100
AcDbEntity
  8
0
  6
Continuous
 62
     7
370
    18
100
AcDbLine
 10
210.6010316744
 20
51.15855625
 30
0.0
 11
220.0518065426
 21
45.4215369208
 31
0.0
  0
LINE
  5
2AE
330
1F
100
AcDbEntity
  8
0
  6
Continuous
 62
     7
370
    18
100
AcDbLine
 10
239.4056499155
 20
61.5524740218
 30
0.0
 11
238.0588635057
 21
62.3302103936
 31
0.0
  0
LINE
  5
2AF
330
1F
100
AcDbEntity
  8
0
  6
Continuous
 62
     7
370
    18
100
AcDbLine
 10
223.9838635179
 20
37.9515953698
 30
0.0
 11
225.3312811427
 21
37.1734952474
 31
0.0
  0
LINE
  5
2B0
330
1F
100
AcDbEntity
  8
0
  6
Continuous
 62
     7
370
    18
100
AcDbLine
 10
220.2221649275
 20
67.3934752642
 30
0.0
 11
229.8846335376
 21
62.1936073276
 31
0.0
  0
LINE
  5
2B1
330
1F
100
AcDbEntity
  8
0
  6
Continuous
 62
     7
370
    18
100
AcDbLine
 10
215.5638841665
 20
65.0104094006
 30
0.0
 11
215.9411208512
 21
64.9220811241
 31
0.0
  0
LINE
  5
2B2
330
1F
100
AcDbEntity
  8
0
  6
Continuous
 62
     7
370
    18
100
AcDbLine
 10
210.3768881485
 20
51.6414667509
 30
0.0
 11
210.6010316744
 21
51.15855625
 31
0.0
  0
OLE2FRAME
  5
2B3
330
1F
100
AcDbEntity
  8
0
100
AcDbOle2Frame
 70
     2
  3
Paintbrush-Bild
 10
13.8511154363
 20
38.264191557
 30
0.0
 11
51.6290888628
 21
31.9806341108
 31
0.0
 71
     2
 72
     0
 73
     1
 90
    12928
310
80552BED0767C5B32B40DDAF6807D121434000000000000000006FFBDDFB85D0
310
4940DDAF6807D121434000000000000000006FFBDDFB85D04940416F4BD60AFB
310
3F4000000000000000002BED0767C5B32B40416F4BD60AFB3F40000000000000
310
0000000000000100000000010000010000000100000000000100000000320000
310
D0CF11E0A1B11AE1000000000000000000000000000000003E000300FEFF0900
310
0600000000000000000000000100000001000000000000000010000002000000
310
01000000FEFFFFFF0000000000000000FFFFFFFFFFFFFFFFFFFFFFFFFFFFFFFF
310
FFFFFFFFFFFFFFFFFFFFFFFFFFFFFFFFFFFFFFFFFFFFFFFFFFFFFFFFFFFFFFFF
310
FFFFFFFFFFFFFFFFFFFFFFFFFFFFFFFFFFFFFFFFFFFFFFFFFFFFFFFFFFFFFFFF
310
FFFFFFFFFFFFFFFFFFFFFFFFFFFFFFFFFFFFFFFFFFFFFFFFFFFFFFFFFFFFFFFF
310
FFFFFFFFFFFFFFFFFFFFFFFFFFFFFFFFFFFFFFFFFFFFFFFFFFFFFFFFFFFFFFFF
310
FFFFFFFFFFFFFFFFFFFFFFFFFFFFFFFFFFFFFFFFFFFFFFFFFFFFFFFFFFFFFFFF
310
FFFFFFFFFFFFFFFFFFFFFFFFFFFFFFFFFFFFFFFFFFFFFFFFFFFFFFFFFFFFFFFF
310
FFFFFFFFFFFFFFFFFFFFFFFFFFFFFFFFFFFFFFFFFFFFFFFFFFFFFFFFFFFFFFFF
310
FFFFFFFFFFFFFFFFFFFFFFFFFFFFFFFFFFFFFFFFFFFFFFFFFFFFFFFFFFFFFFFF
310
FFFFFFFFFFFFFFFFFFFFFFFFFFFFFFFFFFFFFFFFFFFFFFFFFFFFFFFFFFFFFFFF
310
FFFFFFFFFFFFFFFFFFFFFFFFFFFFFFFFFFFFFFFFFFFFFFFFFFFFFFFFFFFFFFFF
310
FFFFFFFFFFFFFFFFFFFFFFFFFFFFFFFFFFFFFFFFFFFFFFFFFFFFFFFFFFFFFFFF
310
FFFFFFFFFFFFFFFFFFFFFFFFFFFFFFFFFFFFFFFFFFFFFFFFFFFFFFFFFFFFFFFF
310
FFFFFFFFFFFFFFFFFFFFFFFFFFFFFFFFFFFFFFFFFFFFFFFFFFFFFFFFFFFFFFFF
310
FDFFFFFFFEFFFFFFFEFFFFFFFEFFFFFF05000000060000000700000008000000
310
090000000A0000000B0000000C0000000D0000000E0000000F00000010000000
310
11000000120000001300000014000000150000001600000017000000FEFFFFFF
310
FFFFFFFFFFFFFFFFFFFFFFFFFFFFFFFFFFFFFFFFFFFFFFFFFFFFFFFFFFFFFFFF
310
FFFFFFFFFFFFFFFFFFFFFFFFFFFFFFFFFFFFFFFFFFFFFFFFFFFFFFFFFFFFFFFF
310
FFFFFFFFFFFFFFFFFFFFFFFFFFFFFFFFFFFFFFFFFFFFFFFFFFFFFFFFFFFFFFFF
310
FFFFFFFFFFFFFFFFFFFFFFFFFFFFFFFFFFFFFFFFFFFFFFFFFFFFFFFFFFFFFFFF
310
FFFFFFFFFFFFFFFFFFFFFFFFFFFFFFFFFFFFFFFFFFFFFFFFFFFFFFFFFFFFFFFF
310
FFFFFFFFFFFFFFFFFFFFFFFFFFFFFFFFFFFFFFFFFFFFFFFFFFFFFFFFFFFFFFFF
310
FFFFFFFFFFFFFFFFFFFFFFFFFFFFFFFFFFFFFFFFFFFFFFFFFFFFFFFFFFFFFFFF
310
FFFFFFFFFFFFFFFFFFFFFFFFFFFFFFFFFFFFFFFFFFFFFFFFFFFFFFFFFFFFFFFF
310
FFFFFFFFFFFFFFFFFFFFFFFFFFFFFFFFFFFFFFFFFFFFFFFFFFFFFFFFFFFFFFFF
310
FFFFFFFFFFFFFFFFFFFFFFFFFFFFFFFFFFFFFFFFFFFFFFFFFFFFFFFFFFFFFFFF
310
FFFFFFFFFFFFFFFFFFFFFFFFFFFFFFFFFFFFFFFFFFFFFFFFFFFFFFFFFFFFFFFF
310
FFFFFFFFFFFFFFFFFFFFFFFFFFFFFFFFFFFFFFFFFFFFFFFFFFFFFFFFFFFFFFFF
310
FFFFFFFFFFFFFFFFFFFFFFFFFFFFFFFFFFFFFFFFFFFFFFFFFFFFFFFFFFFFFFFF
310
52006F006F007400200045006E00740072007900000000000000000000000000
310
0000000000000000000000000000000000000000000000000000000000000000
310
16000500FFFFFFFFFFFFFFFF020000000A00030000000000C000000000000046
310
000000000000000000000000F05ED1ECECA3D30103000000C000000000000000
310
01004F006C006500000000000000000000000000000000000000000000000000
310
0000000000000000000000000000000000000000000000000000000000000000
310
0A000200FFFFFFFFFFFFFFFFFFFFFFFF00000000000000000000000000000000
310
0000000000000000000000000000000000000000000000001400000000000000
310
010043006F006D0070004F0062006A0000000000000000000000000000000000
310
0000000000000000000000000000000000000000000000000000000000000000
310
120002010100000003000000FFFFFFFF00000000000000000000000000000000
310
0000000000000000000000000000000000000000010000004D00000000000000
310
01004F006C006500310030004E00610074006900760065000000000000000000
310
0000000000000000000000000000000000000000000000000000000000000000
310
1A000200FFFFFFFFFFFFFFFFFFFFFFFF00000000000000000000000000000000
310
0000000000000000000000000000000000000000040000002426000000000000
310
FEFFFFFF02000000FEFFFFFFFFFFFFFFFFFFFFFFFFFFFFFFFFFFFFFFFFFFFFFF
310
FFFFFFFFFFFFFFFFFFFFFFFFFFFFFFFFFFFFFFFFFFFFFFFFFFFFFFFFFFFFFFFF
310
FFFFFFFFFFFFFFFFFFFFFFFFFFFFFFFFFFFFFFFFFFFFFFFFFFFFFFFFFFFFFFFF
310
FFFFFFFFFFFFFFFFFFFFFFFFFFFFFFFFFFFFFFFFFFFFFFFFFFFFFFFFFFFFFFFF
310
FFFFFFFFFFFFFFFFFFFFFFFFFFFFFFFFFFFFFFFFFFFFFFFFFFFFFFFFFFFFFFFF
310
FFFFFFFFFFFFFFFFFFFFFFFFFFFFFFFFFFFFFFFFFFFFFFFFFFFFFFFFFFFFFFFF
310
FFFFFFFFFFFFFFFFFFFFFFFFFFFFFFFFFFFFFFFFFFFFFFFFFFFFFFFFFFFFFFFF
310
FFFFFFFFFFFFFFFFFFFFFFFFFFFFFFFFFFFFFFFFFFFFFFFFFFFFFFFFFFFFFFFF
310
FFFFFFFFFFFFFFFFFFFFFFFFFFFFFFFFFFFFFFFFFFFFFFFFFFFFFFFFFFFFFFFF
310
FFFFFFFFFFFFFFFFFFFFFFFFFFFFFFFFFFFFFFFFFFFFFFFFFFFFFFFFFFFFFFFF
310
FFFFFFFFFFFFFFFFFFFFFFFFFFFFFFFFFFFFFFFFFFFFFFFFFFFFFFFFFFFFFFFF
310
FFFFFFFFFFFFFFFFFFFFFFFFFFFFFFFFFFFFFFFFFFFFFFFFFFFFFFFFFFFFFFFF
310
FFFFFFFFFFFFFFFFFFFFFFFFFFFFFFFFFFFFFFFFFFFFFFFFFFFFFFFFFFFFFFFF
310
FFFFFFFFFFFFFFFFFFFFFFFFFFFFFFFFFFFFFFFFFFFFFFFFFFFFFFFFFFFFFFFF
310
FFFFFFFFFFFFFFFFFFFFFFFFFFFFFFFFFFFFFFFFFFFFFFFFFFFFFFFFFFFFFFFF
310
FFFFFFFFFFFFFFFFFFFFFFFFFFFFFFFFFFFFFFFFFFFFFFFFFFFFFFFFFFFFFFFF
310
0100000200000000000000000000000000000000000000000000000000000000
310
0000000000000000000000000000000000000000000000000000000000000000
310
0100FEFF030A0000FFFFFFFF0A00030000000000C00000000000004607000000
310
5042727573680007000000504272757368000700000050427275736800F439B2
310
7100000000000000000000000000000000000000000000000000000000000000
310
0000000000000000000000000000000000000000000000000000000000000000
310
0000000000000000000000000000000000000000000000000000000000000000
310
0000000000000000000000000000000000000000000000000000000000000000
310
0000000000000000000000000000000000000000000000000000000000000000
310
0000000000000000000000000000000000000000000000000000000000000000
310
0000000000000000000000000000000000000000000000000000000000000000
310
0000000000000000000000000000000000000000000000000000000000000000
310
0000000000000000000000000000000000000000000000000000000000000000
310
0000000000000000000000000000000000000000000000000000000000000000
310
0000000000000000000000000000000000000000000000000000000000000000
310
0000000000000000000000000000000000000000000000000000000000000000
310
20260000424D0E260000000000003E00000028000000B40200006E0000000100
310
01000000000000000000130B0000130B00000200000002000000000000FFFFFF
310
FFFFFFFFFFFFFFFFFFFFFFFFFFFFFFFFFFFFFFFFFFFFFFFFFFFFFFFFFFFFFFFF
310
FFFFFFFFFFFFFFFFFFFFFFFFFFFFFFFFFFFFFFFFFFFFFFFFFFFFFFFFFFFFFFFF
310
FFFFFFFFFFFFFFFFFFFFFFFFFFFFFFFFFFFFFFFFFFFFFFFFF000FFFFFFFFFFFF
310
FFFFFFFFFFFFFFFFFFFFFFFFFFFFFFFFFFFFFFFFFFFFFFFFFFFFFFFFFFFFFFFF
310
FFFFFFFFFFFFFFFFFFFFFFFFFFFFFFFFFFFFFFFFFFFFFFFFFFFFFFFFFFFFFFFF
310
FFFFFFFFFFFFFFFFFFFFFFFFFFFFFFFFF000FFFFFFFFFFFFFFFFFFFFFFFFFFFF
310
FFFFFFFFFFFFFFFFFFFFFFFFFFFFFFFFFFFFFFFFFFFFFFFFFFFFFFFFFFFFFFFF
310
FFFFFFFFFFFFFFFFFFFFFFFFFFFFFFFFFFFFFFFFFFFFFFFFFFFFFFFFFFFFFFFF
310
FFFFFFFFFFFFFFFFF000FFFFFFFFFFFFFFFFFFFFFFFFFFFFFFFFFFFFFFFFFFFF
310
FFFFFFFFFFFFFFFFFFFFFFFFFFFFFFFFFFFFFFFFFFFFFFFFFFFFFFFFFFFFFFFF
310
FFFFFFFFFFFFFFFFFFFFFFFFFFFFFFFFFFFFFFFFFFFFFFFFFFFFFFFFFFFFFFFF
310
F000FFFFFFFFFFFFFFFFFFFFFFFFFFFFFFFFFFFFFFFFFFFFFFFFFFFFFFFFFFFF
310
FFFFFFFFFFFFFFFFFFFFFFFFFFFFFFFFFFFFFFFFFFFFFFFFFFFFFFFFFFFFFFFF
310
FFFFFFFFFFFFFFFFFFFFFFFFFFFFFFFFFFFFFFFFFFFFFFFFF000FFFFFFFFFFFF
310
FFFFFFFFFFFFFFFFFFFFFFFFFFFFFFFFFFFFFFFFFFFFFFFFFFFFFFFFFFFFFFFF
310
FFFFFFFFFFFFFFFFFFFFFFFFFFFFFFFFFFFFFFFFFFFFFFFFFFFFFFFFFFFFFFFF
310
FFFFFFFFFFFFFFFFFFFFFFFFFFFFFFFFF000FFFFFFFFFFFFFFFFFFFFFFFFFFFF
310
FFFFFFFFFFFFFFFFFFFFFFFFFFFFFFFFFFFFFFFFFFFFFFFFFFFFFFFFFFFFFFFF
310
FFFFFFFFFFFFFFFFFFFFFFFFFFFFFFFFFFFFFFFFFFFFFFFFFFFFFFFFFFFFFFFF
310
FFFFFFFFFFFFFFFFF000FFFFFFFFFFFFFFFFFFFFFFFFFFFFFFFFFFFFFFFFFFFF
310
FFFFFFFFFFFFFFFFFFFFFFFFFFFFFFFFFFFFFFFFFFFFFFFFFFFFFFFFFFFFFFFF
310
FFFFFFFFFFFFFFFFFFFFFFFFFFFFFFFFFFFFFFFFFFFFFFFFFFFFFFFFFFFFFFFF
310
F000FFFFFFFFFFFFFFFFFFFFFFFFFFFFFFFFFFFFFFFFFFFFFFFFFFFFFFFFFFFF
310
FFFFFFFFFFFFFFFFFFFFFFFFFFFFFFFFFFFFFFFFFFFFFFFFFFFFFFFFFFFFFFFF
310
FFFFFFFFFFFFFFFFFFFFFFFFFFFFFFFFFFFFFFFFFFFFFFFFF000FFFFFFFFFFFF
310
FFFFFFFFFFFFFFFFFFFFFFFFFFFFFFFFFFFFFFFFFFFFFFFFFFFFFFFFFFFFFFFF
310
FFFFFFFFFFFFFFFFFFFFFFFFFFFFFFFFFFFFFFFFFFFFFFFFFFFFFFFFFFFFFFFF
310
FFFFFFFFFFFFFFFFFFFFFFFFFFFFFFFFF000FFFFFFFFFFFFFFFFFFFFFFFFFFFF
310
FFFFFFFFFFFFFFFFFFFFFFFFFFFFFFFFFFFFFFFFFFFFFFFFFFFFFFFFFFFFFFFF
310
FFFFFFFFFFFFFFFFFFFFFFFFFFFFFFFFFFFFFFFFFFFFFFFFFFFFFFFFFFFFFFFF
310
FFFFFFFFFFFFFFFFF000FFFFFFFFFFFFFFFFFFFFFFFFFFFFFFFFFFFFFFFFFFFF
310
FFFFFFFFFFFFFFFFFFFFFFFFFFFFFFFFFFFFFFFFFFFFFFFFFFFFFFFFFFFFFFFF
310
FFFFFFFFFFFFFFFFFFFFFFFFFFFFFFFFFFFFFFFFFFFFFFFFFFFFFFFFFFFFFFFF
310
F000FFFFFFFFFFFFFFFFFFFFFFFFFFFFFFFFFFFFFFFFFFFFFFFFFFFFFFFFFFFF
310
FFFFFFFFFFFFFFFFFFFFFFFFFFFFFFFFFFFFFFFFFFFFFFFFFFFFFFFFFFFFFFFF
310
FFFFFFFFFFFFFFFFFFFFFFFFFFFFFFFFFFFFFFFFFFFFFFFFF000FFFFFFFFFFFF
310
FFFFFFFFFFFFFFFFFFFFFFFFFFFFFFFFFFFFFFFFFFFFFFFFFFFFFFFFFFFFFFFF
310
FFFFFFFFFFFFFFFFFFFFFFFFFFFFFFFFFFFFFFFFFFFFFFFFFFFFFFFFFFFFFFFF
310
FFFFFFFFFFFFFFFFFFFFFFFFFFFFFFFFF000FFFFFFFFFFFFFFFFFFFFFFFFFFFF
310
FFFFFFFFFFFFFFFFFFFFFFFFFFFFFFFFFFFFFFFFFFFFFFFFFFFFFFFFFFFFFFFF
310
FFFFFFFFFFFFFFFFFFFFFFFFFFFFFFFFFFFFFFFFFFFFFFFFFFFFFFFFFFFFFFFF
310
FFFFFFFFFFFFFFFFF000FFFFFFFFFFFFFFFFFFFFFFFFFFFFFFFFFFFFFFFFFFFF
310
FFFFFFFFFFFFFFFFFFFFFFFFFFFFFFFFFFFFFFFFFFFFFFFFFFFFFFFFFFFFFFFF
310
FFFFFFFFFFFFFFFFFFFFFFFFFFFFFFFFFFFFFFFFFFFFFFFFFFFFFFFFFFFFFFFF
310
F000FFFFFFFFFFFFFFFFFFFFFFFFFFFFFFFFFFFFFFFFFFFFFFFFFFFFFFFFFFFF
310
FFFFFFFFFFFFFFFFFFFFFFFFFFFFFFFFFFFFFFFFFFFFFFFFFFFFFFFFFFFFFFFF
310
FFFFFFFFFFFFFFFFFFFFFFFFFFFFFFFFFFFFFFFFFFFFFFFFF000FFFFFFFFFFFF
310
FFFFFFFFFFFFFFFFFFFFFFFFFFFFFFFFFFFFFFFFFFFFFFFFFFFFFFFFFFFFFFFF
310
FFFFFFFFFFFFFFFFFFFFFFFFFFFFFFFFFFFFFFFFFFFFFFFFFFFFFFFFFFFFFFFF
310
FFFFFFFFFFFFFFFFFFFFFFFFFFFFFFFFF000FFFFFFFFFFFFFFFFFFFFFFFFFFFF
310
FFFFFFFFFFFFFFFFFFFFFFFFFFFFFFFFFFFFFFFFFFFFFFFFFFFFFFFFFFFFFFFF
310
FFFFFFFFFFFFFFFFFFFFFFFFFFFFFFFFFFFFFFFFFFFFFFFFFFFFFFFFFFFFFFFF
310
FFFFFFFFFFFFFFFFF000FFFFF80003FFFFFFFFFFFFFFFFFFFFFFFFFFFFFFFFFF
310
FFFFF00007FFFFFFFFFF00007FFFFFF800000000000000007FFFFFFFFFFFFFFF
310
FFFFFFFC001FFFFFFFFFFFFFFC001FFFFFFFFFFFFFFFFFFFFFFFFFFE0007FFFF
310
F000FFFF8000007FFFFFFFF8000FFFFFC0007FFFFF80007FFFFF0000007FFFFF
310
FFF8000007FFFFF800000000000000007FFFFFF0001FFFFFFFFFFFC00001FFFF
310
FFFFFFFFC00001FFFFFFFF000000000003FFFFE000007FFFF000FFFE0000000F
310
FFFFFFF0000FFFFF80007FFFFF80007FFFFC0000001FFFFFFFC0000001FFFFF8
310
00000000000000007FFFFFF0001FFFFFFFFFFE0000003FFFFFFFFFFE0000003F
310
FFFFFF000000000003FFFF0000000FFFF000FFF800000003FFFFFFF00007FFFF
310
80007FFFFF80007FFFF000000007FFFFFF000000003FFFF80000000000000000
310
7FFFFFF0001FFFFFFFFFF80000000FFFFFFFFFF80000000FFFFFFF0000000000
310
03FFFC00000003FFF000FFE000000000FFFFFFF00007FFFF80003FFFFF80007F
310
FFC000000001FFFFFC000000001FFFF800000000000000007FFFFFF0001FFFFF
310
FFFFE000000003FFFFFFFFE000000003FFFFFF000000000003FFF000000000FF
310
F000FF80000000007FFFFFF00007FFFF80003FFFFF80007FFF8000000000FFFF
310
F80000000007FFF800000000000000007FFFFFF0001FFFFFFFFFC000000001FF
310
FFFFFFC000000001FFFFFF000000000003FFC0000000007FF000FF0000000000
310
3FFFFFE00007FFFF00003FFFFF80007FFE00000000003FFFF00000000003FFF8
310
00000000000000007FFFFFF0001FFFFFFFFF8000000000FFFFFFFF8000000000
310
FFFFFF000000000003FF80000000003FF000FE00000000001FFFFFE00003FFFF
310
00003FFFFF80007FFC00000000001FFFE00000000001FFF8000001FFFE000000
310
7FFFFFF0001FFFFFFFFE00000000003FFFFFFE00000000003FFFFF0000000000
310
03FF00000000001FF000FC00000000000FFFFFE00003FFFF00001FFFFF80007F
310
F800000000001FFFC00000000000FFF8000001FFFE0000007FFFFFF0001FFFFF
310
FFFC00000000001FFFFFFC00000000001FFFFF000000000003FE00000000000F
310
F000F8000000000007FFFFE00003FFFF00001FFFFF80007FF800000000000FFF
310
800000000000FFF8000001FFFE0000007FFFFFF0001FFFFFFFF800000000000F
310
FFFFF800000000000FFFFF000000000003FC000000000007F000F80000000000
310
03FFFFC00003FFFE00001FFFFF80007FF0000000000007FF0000000000007FF8
310
000001FFFE0000007FFFFFF0001FFFFFFFF0000000000007FFFFF00000000000
310
07FFFF000000000003F8000000000003F000F0000000000003FFFFC00001FFFE
310
00001FFFFF80007FE0000000000007FE0000000000003FF8000001FFFE000000
310
7FFFFFF0001FFFFFFFF0000000000007FFFFF0000000000007FFFF0000000000
310
03F800001F800003F000E00001FFF00001FFFFC00001FFFE00000FFFFF80007F
310
E00001FFE00003FE00001FFF00003FF8000001FFFE0000007FFFFFF0001FFFFF
310
FFE000003E000003FFFFE000003E000003FFFF000000000003F00001FFF80001
310
F000E00007FFFC0001FFFFC00001FFFE00000FFFFF80007FC0000FFFFC0003FC
310
0000FFFFC0001FF8000001FFFE0000007FFFFFF0001FFFFFFFC00003FFE00001
310
FFFFC00003FFE00001FFFF0001FFFFFFFFF00007FFFE0001F000E0000FFFFF00
310
00FFFF800001FFFC00000FFFFF80007FC0001FFFFE0001FC0001FFFFE0001FF8
310
000001FFFE0000007FFFFFF0001FFFFFFF80000FFFF80000FFFF80000FFFF800
310
00FFFF0003FFFFFFFFE0000FFFFF8000F000C0003FFFFF8000FFFF800000FFFC
310
000007FFFF80007F80003FFFFF0001FC0003FFFFF0001FF8000001FFFE000000
310
7FFFFFF0001FFFFFFF80003FFFFE0000FFFF80003FFFFE0000FFFF0003FFFFFF
310
FFE0003FFFFF8000F000C0003FFFFF8000FFFF800000FFFC000007FFFF80007F
310
80007FFFFF8001F80007FFFFF8000FF8000001FFFE0000007FFFFFF0001FFFFF
310
FF00007FFFFF00007FFF00007FFFFF00007FFF0003FFFFFFFFE0003FFFFFC000
310
F000C0007FFFFFC000FFFF000000FFFC000007FFFF80007F8000FFFFFF8000F8
310
000FFFFFF8000FF8000001FFFE0000007FFFFFF0001FFFFFFF0000FFFFFF8000
310
7FFF0000FFFFFF80007FFF0003FFFFFFFFC0007FFFFFC00070008000FFFFFFC0
310
00FFFF000000FFF8000007FFFF80007F8000FFFFFF8000F8000FFFFFF8000FF8
310
000001FFFE0000007FFFFFF0001FFFFFFE0001FFFFFFC0003FFE0001FFFFFFC0
310
003FFF0003FFFFFFFFC0007FFFFFE00070008000FFFFFFC0007FFF0000007FF8
310
000003FFFF80007F0001FFFFFF8000F8000FFFFFF8000FF8000001FFFE000000
310
7FFFFFF0001FFFFFFE0001FFFFFFC0003FFE0001FFFFFFC0003FFF0003FFFFFF
310
FFC000FFFFFFE00070008000FFFFFFC0007FFF0000007FF8000003FFFF80007F
310
0001FFFFFF8000F8001FFFFFF8000FF8000001FFFE0000007FFFFFF0001FFFFF
310
FE0003FFFFFFE0003FFE0003FFFFFFE0003FFF0003FFFFFFFFC000FFFFFFE000
310
70008000FFFFFFC0007FFE0000007FF8000003FFFF80007F0001FFFFFF8000F0
310
001FFFFFF8000FF8000001FFFE0000007FFFFFF0001FFFFFFC0003FFFFFFE000
310
1FFC0003FFFFFFE0001FFF0003FFFFFFFFC000FFFFFFC00070008000FFFFFF80
310
007FFE0000007FF0000003FFFF80007F0001FFFFFF0000F0001FFFFFF8000FF8
310
000001FFFE0000007FFFFFF0001FFFFFFC0007FFFFFFF0001FFC0007FFFFFFF0
310
001FFF0003FFFFFFFFC000FFFFFFC00070008001FFFFFF0000FFFE0000003FF0
310
000001FFFF80007F0001FFFFFF0000F8001FFFFFF0000FF8000001FFFE000000
310
7FFFFFF0001FFFFFFC0007FFFFFFF0001FFC0007FFFFFFF0001FFF0003FFFFFF
310
FFC001FFFFFF80007000FFFFFFFFFE0000FFFE0008003FF0008001FFFF80007F
310
FFFFFFFFFC0000FFFFFFFFFFE0000FF8000001FFFE0000007FFFFFF0001FFFFF
310
F8000FFFFFFFF8000FF8000FFFFFFFF8000FFF0003FFFFFFFFFFFFFFFFFF0000
310
7000FFFFFFFFFC0000FFFC0008003FF0008001FFFF80007FFFFFFFFFF80001FF
310
FFFFFFFF80000FF8000001FFFE0000007FFFFFF0001FFFFFF8000FFFFFFFF800
310
0FF8000FFFFFFFF8000FFF0003FFFFFFFFFFFFFFFFFE0000F000FFFFFFFFE000
310
00FFFC000C003FE000C001FFFF80007FFFFFFFFFC00001FFFFFFFFFE00001FF8
310
000001FFFE0000007FFFFFF0001FFFFFF8000FFFFFFFF8000FF8000FFFFFFFF8
310
000FFF0003FFFFFFFFFFFFFFFFF00000F000FFFFFFFE000001FFFC000C001FE0
310
00C000FFFF80007FFFFFFFFE000001FFFFFFFFE000001FF80FFFFFFFFFFFFFC0
310
7FFFFFF0001FFFFFF8000FFFFFFFF8000FF8000FFFFFFFF8000FFF0003FFFFFF
310
FFFFFFFFFF800000F000FFFFFFC0000001FFFC001C001FE001C000FFFF80007F
310
FFFFFF80000003FFFFFFF80000001FF80FFFFFFFFFFFFFC07FFFFFF0001FFFFF
310
F8001FFFFFFFFC000FF8001FFFFFFFFC000FFF0003FFFFFFFFFFFFFFF0000001
310
F000FFFFF800000001FFF8001C001FE001C000FFFF80007FFFFFF800000003FF
310
FFFF800000003FF80FFFFFFFFFFFFFC07FFFFFF0001FFFFFF8001FFFFFFFFC00
310
0FF8001FFFFFFFFC000FFF0003FFFFFFFFFFFFFE00000001F000FFFFC0000000
310
03FFF8001E001FC001E000FFFF80007FFFFF8000000007FFFFFC000000003FF8
310
0FFFFFFFFFFFFFC07FFFFFF0001FFFFFF8001FFFFFFFFC000FF8001FFFFFFFFC
310
000FFF0003FFFFFFFFFFFFE000000003F000FFFE0000000007FFF8001E000FC0
310
01E0007FFF80007FFFFE0000000007FFFFE0000000007FF80FFFFFFFFFFFFFC0
310
7FFFFFF0001FFFFFF0001FFFFFFFFC0007F0001FFFFFFFFC0007FF0003FFFFFF
310
FFFFFF0000000003F000FFF80000000007FFF8001E000FC003E0007FFF80007F
310
FFF0000000000FFFFF8000000000FFF80FFFFFFFFFFFFFC07FFFFFF0001FFFFF
310
F0001FFFFFFFFC0007F0001FFFFFFFFC0007FF0003FFFFFFFFFFFC0000000007
310
F000FFE0000000000FFFF0003E000FC003E0007FFF80007FFFC0000000001FFF
310
FE0000000001FFF80FFFFFFFFFFFFFC07FFFFFF0001FFFFFF0001FFFFFFFFC00
310
07F0001FFFFFFFFC0007FF0003FFFFFFFFFFF0000000000FF000FFC000000000
310
1FFFF0003F000F8003F0003FFF80007FFF80000000003FFFF80000000003FFF8
310
0FFFFFFFFFFFFFC07FFFFFF0001FFFFFF0001FFFFFFFFC0007F0001FFFFFFFFC
310
0007FF0003FFFFFFFFFFE0000000001FF000FF00000000007FFFF0003F000780
310
03F0003FFF80007FFF00000000007FFFF00000000007FFF80FFFFFFFFFFFFFC0
310
7FFFFFF0001FFFFFF0001FFFFFFFFC0007F0001FFFFFFFFC0007FF0003FFFFFF
310
FFFF80000000007FF000FE0000000000FFFFE0003F00078007F0003FFF80007F
310
FE0000000001FFFFE0000000001FFFF80FFFFFFFFFFFFFC07FFFFFF0001FFFFF
310
F0001FFFFFFFFC0007F0001FFFFFFFFC0007FF0003FFFFFFFFFF0000000000FF
310
F000FC0000000003FFFFE0007F00078007F0003FFF80007FFC0000000007FFFF
310
C0000000007FFFF80FFFFFFFFFFFFFC07FFFFFF0001FFFFFF8001FFFFFFFFC00
310
0FF8001FFFFFFFFC000FFF0003FFFFFFFFFE0000000003FFF000FC000000000F
310
FFFFE0007F80070007F8001FFF80007FF8000000001FFFFF8000000001FFFFF8
310
0FFFFFFFFFFFFFC07FFFFFF0001FFFFFF8001FFFFFFFFC000FF8001FFFFFFFFC
310
000FFF0003FFFFFFFFFC000000000FFFF000F8000000007FFFFFE0007F800700
310
07F8001FFF80007FF000000000FFFFFF800000000FFFFFF80FFFFFFFFFFFFFC0
310
7FFFFFF0001FFFFFF8000FFFFFFFF8000FF8000FFFFFFFF8000FFF0003FFFFFF
310
FFFC000000007FFFF000F800000007FFFFFFC0007F8003000FF8001FFF80007F
310
F000000007FFFFFF000000007FFFFFF80FFFFFFFFFFFFFC07FFFFFF0001FFFFF
310
F8000FFFFFFFF8000FF8000FFFFFFFF8000FFF0003FFFFFFFFF80000000FFFFF
310
F000F0000000FFFFFFFFC000FF8003000FF8001FFF80007FE0000000FFFFFFFF
310
0000000FFFFFFFF8000001FFFE0000007FFFFFF0001FFFFFF8000FFFFFFFF800
310
0FF8000FFFFFFFF8000FFF0003FFFFFFFFF8000000FFFFFFF000F000000FFFFF
310
FFFFC000FFC002000FF8000FFF80007FE000001FFFFFFFFE000001FFFFFFFFF8
310
000001FFFE0000007FFFFFF0001FFFFFF8000FFFFFFFF8000FF8000FFFFFFFF8
310
000FFF0003FFFFFFFFF000001FFFFFFFF000E00000FFFFFFFFFFC000FFC00200
310
0FFC000FFF80007FE00001FFFFFFFFFE00001FFFFFFFFFF8000001FFFE000000
310
7FFFFFF0001FFFFFFC000FFFFFFFF8001FFC000FFFFFFFF8001FFF0003FFFFFF
310
FFF00001FFFFFFFFF000E00007FFFFFFFFFF8000FFC000001FFC000FFF80007F
310
C0000FFFFFFFFFFE0000FFFFFFFFFFF8000001FFFE0000007FFFFFF0001FFFFF
310
FC0007FFFFFFF0001FFC0007FFFFFFF0001FFF0003FFFFFFFFF00007FFFFFFFF
310
F000E0001FFFFFFFFFFF8000FFC000001FFC000FFF80007FC0003FFFFFFFFFFE
310
0001FFFFFFFFFFF8000001FFFE0000007FFFFFF0001FFFFFFC0007FFFFFFF000
310
1FFC0007FFFFFFF0001FFF0003FFFFFFFFF0001FFFFFFFFFF000E0003FFFFF00
310
03FF8001FFE000001FFC0007FF80007FC0007FFFFF0007FC0003FFFFF0003FF8
310
000001FFFE0000007FFFFFF0001FFFFFFC0003FFFFFFE0001FFC0003FFFFFFE0
310
001FFF0003FFFFFFFFF0003FFFFFFFFFF000E0003FFFFF0001FF8001FFE00000
310
1FFE0007FF80007FC0007FFFFE0003FC0007FFFFE0003FF8000001FFFE000000
310
7FFFFFF0001FFFFFFE0003FFFFFFE0003FFE0003FFFFFFE0003FFF0003FFFFFF
310
FFF0003FFFFF8001F000E0003FFFFF0001FF0001FFE000001FFE0007FF80007F
310
C0007FFFFE0003FC0007FFFFE0003FF8000001FFFE0000007FFFFFF0001FFFFF
310
FE0001FFFFFFC0003FFE0001FFFFFFC0003FFF0003FFFFFFFFF0003FFFFF0001
310
F000E0003FFFFF0003FF0001FFE000003FFE0007FF80007FC0007FFFFE0003FC
310
0007FFFFE0003FF8000001FFFE0000007FFFFFF0001FFFFFFF0001FFFFFFC000
310
7FFF0001FFFFFFC0007FFF0003FFFFFFFFF0003FFFFF0001F000E0003FFFFE00
310
03FF0003FFF000003FFE0003FF80007FC0007FFFFC0003FE0007FFFFE0003FF8
310
000001FFFE0000007FFFFFF0001FFFFFFF0000FFFFFF80007FFF0000FFFFFF80
310
007FFF0003FFFFFFFFF0003FFFFF0001F000E0003FFFFE0003FF0003FFF00000
310
3FFF0003FF80007FC0007FFFFC0007FE0007FFFFC0003FF8000001FFFE000000
310
7FFFFFF0001FFFFFFF80007FFFFF0000FFFF80007FFFFF0000FFFF0003FFFFFF
310
FFF0003FFFFF0003F000E0003FFFFC0003FE0003FFF000003FFF0003FF80007F
310
E0003FFFF80007FE0003FFFFC0007FF8000001FFFE0000007FFFFFF0001FFFFF
310
FF80003FFFFE0000FFFF80003FFFFE0000FFFF0003FFFFFFFFF0001FFFFE0003
310
F000F0001FFFF80003FE0003FFF000007FFF0001FF80007FE0003FFFF00007FE
310
0001FFFF80007FF8000001FFFE0000007FFFFFF0001FFFFFFFC0000FFFF80001
310
FFFFC0000FFFF80001FFFF0003FFFFFFFFF0001FFFFC0003F000F0000FFFF000
310
07FE0007FFF800007FFF0001FF80007FE0001FFFE00007FF0000FFFE00007FF8
310
000001FFFE0000007FFFFFF0001FFFFFFFC00003FFE00001FFFFC00003FFE000
310
01FFFF0003FFFFFFFFF8000FFFF80003F000F00003FFC00007FC0007FFF80000
310
7FFF8001FF80007FF00007FF80000FFF00007FF80000FFF8000001FFFE000000
310
7F80000000000001FFE000003E000003FFFFE000003E000003FFFF0003FFFFFF
310
FFF80003FFE00007F000F800000000000FFC0007FFF800007FFF8001FF80007F
310
F000000000000FFF000000000000FFF8000001FFFE0000007F80000000000001
310
FFF0000000000007FFFFF0000000000007FFFF0003FFFFFFFFFC00007E000007
310
F000F800000000000FFC0007FFF80000FFFF8000FF80007FF800000000001FFF
310
800000000001FFF8000001FFFE0000007F80000000000001FFF800000000000F
310
FFFFF800000000000FFFFF0003FFFFFFFFFC00000000000FF000FC0000000000
310
1FFC0007FFFC0000FFFF8000FF80007FF800000000003FFFC00000000001FFF8
310
000001FFFE0000007F80000000000001FFF800000000000FFFFFF80000000000
310
0FFFFF0003FFFFFFFFFE00000000001FF000FE00000000003FF8000FFFFC0000
310
FFFF8000FF80007FFC00000000003FFFC00000000003FFF8000001FFFE000000
310
7F80000000000001FFFC00000000001FFFFFFC00000000001FFFFF0003FFFFFF
310
FFFF00000000001FF000FF00000000003FF8000FFFFC0000FFFFC000FF80007F
310
FE00000000007FFFE00000000007FFF8000001FFFE0000007F80000000000001
310
FFFE00000000003FFFFFFE00000000003FFFFF0003FFFFFFFFFF80000000003F
310
F000FF80000000007FF8000FFFFC0001FFFFC0007F80007FFF0000000000FFFF
310
F0000000000FFFF800000000000000007F80000000000001FFFF8000000000FF
310
FFFFFF8000000000FFFFFF0003FFFFFFFFFFC0000000007FF000FFC000000000
310
FFF8000FFFFE0001FFFFC0007F80007FFF8000000001FFFFF8000000001FFFF8
310
00000000000000007F80000000000001FFFFC000000001FFFFFFFFC000000001
310
FFFFFF0003FFFFFFFFFFE000000000FFF000FFE000000003FFF0001FFFFE0001
310
FFFFC0007F80007FFFC000000007FFFFFE000000003FFFF80000000000000000
310
7F80000000000001FFFFE000000003FFFFFFFFE000000003FFFFFF0003FFFFFF
310
FFFFF000000003FFF000FFF80000000FFFF0001FFFFE0001FFFFE0007F80007F
310
FFF00000000FFFFFFF00000000FFFFF800000000000000007F80000000000001
310
FFFFF80000000FFFFFFFFFF80000000FFFFFFF0003FFFFFFFFFFFC0000000FFF
310
F000FFFE0000003FFFF0001FFFFE0003FFFFE0003F80007FFFFC0000003FFFFF
310
FFC0000003FFFFF800000000000000007F80000000000001FFFFFE0000003FFF
310
FFFFFFFE0000003FFFFFFF0003FFFFFFFFFFFF0000003FFFF000FFFF800000FF
310
FFF0001FFFFF0003FFFFE0003F80007FFFFF000001FFFFFFFFF800001FFFFFF8
310
00000000000000007F80000000000001FFFFFFC00001FFFFFFFFFFFFC00001FF
310
FFFFFF0003FFFFFFFFFFFFC00000FFFFF000FFFFF8000FFFFFFFFFFFFFFFFFFF
310
FFFFFFFFFFFFFFFFFFFFF0001FFFFFFFFFFF0000FFFFFFF80000000000000000
310
7FFFFFFFFFFFFFFFFFFFFFFC001FFFFFFFFFFFFFFC001FFFFFFFFFFFFFFFFFFF
310
FFFFFFFC001FFFFFF000FFFFFFFFFFFFFFFFFFFFFFFFFFFFFFFFFFFFFFFFFFFF
310
FFFFFFFFFFFFFFFFFFFFFFFFFFFFFFFFFFFFFFFFFFFFFFFFFFFFFFFFFFFFFFFF
310
FFFFFFFFFFFFFFFFFFFFFFFFFFFFFFFFFFFFFFFFFFFFFFFFFFFFFFFFFFFFFFFF
310
F000FFFFFFFFFFFFFFFFFFFFFFFFFFFFFFFFFFFFFFFFFFFFFFFFFFFFFFFFFFFF
310
FFFFFFFFFFFFFFFFFFFFFFFFFFFFFFFFFFFFFFFFFFFFFFFFFFFFFFFFFFFFFFFF
310
FFFFFFFFFFFFFFFFFFFFFFFFFFFFFFFFFFFFFFFFFFFFFFFFF000FFFFFFFFFFFF
310
FFFFFFFFFFFFFFFFFFFFFFFFFFFFFFFFFFFFFFFFFFFFFFFFFFFFFFFFFFFFFFFF
310
FFFFFFFFFFFFFFFFFFFFFFFFFFFFFFFFFFFFFFFFFFFFFFFFFFFFFFFFFFFFFFFF
310
FFFFFFFFFFFFFFFFFFFFFFFFFFFFFFFFF000FFFFFFFFFFFFFFFFFFFFFFFFFFFF
310
FFFFFFFFFFFFFFFFFFFFFFFFFFFFFFFFFFFFFFFFFFFFFFFFFFFFFFFFFFFFFFFF
310
FFFFFFFFFFFFFFFFFFFFFFFFFFFFFFFFFFFFFFFFFFFFFFFFFFFFFFFFFFFFFFFF
310
FFFFFFFFFFFFFFFFF000FFFFFFFFFFFFFFFFFFFFFFFFFFFFFFFFFFFFFFFFFFFF
310
FFFFFFFFFFFFFFFFFFFFFFFFFFFFFFFFFFFFFFFFFFFFFFFFFFFFFFFFFFFFFFFF
310
FFFFFFFFFFFFFFFFFFFFFFFFFFFFFFFFFFFFFFFFFFFFFFFFFFFFFFFFFFFFFFFF
310
F000FFFFFFFFFFFFFFFFFFFFFFFFFFFFFFFFFFFFFFFFFFFFFFFFFFFFFFFFFFFF
310
FFFFFFFFFFFFFFFFFFFFFFFFFFFFFFFFFFFFFFFFFFFFFFFFFFFFFFFFFFFFFFFF
310
FFFFFFFFFFFFFFFFFFFFFFFFFFFFFFFFFFFFFFFFFFFFFFFFF000FFFFFFFFFFFF
310
FFFFFFFFFFFFFFFFFFFFFFFFFFFFFFFFFFFFFFFFFFFFFFFFFFFFFFFFFFFFFFFF
310
FFFFFFFFFFFFFFFFFFFFFFFFFFFFFFFFFFFFFFFFFFFFFFFFFFFFFFFFFFFFFFFF
310
FFFFFFFFFFFFFFFFFFFFFFFFFFFFFFFFF000FFFFFFFFFFFFFFFFFFFFFFFFFFFF
310
FFFFFFFFFFFFFFFFFFFFFFFFFFFFFFFFFFFFFFFFFFFFFFFFFFFFFFFFFFFFFFFF
310
FFFFFFFFFFFFFFFFFFFFFFFFFFFFFFFFFFFFFFFFFFFFFFFFFFFFFFFFFFFFFFFF
310
FFFFFFFFFFFFFFFFF000FFFFFFFFFFFFFFFFFFFFFFFFFFFFFFFFFFFFFFFFFFFF
310
FFFFFFFFFFFFFFFFFFFFFFFFFFFFFFFFFFFFFFFFFFFFFFFFFFFFFFFFFFFFFFFF
310
FFFFFFFFFFFFFFFFFFFFFFFFFFFFFFFFFFFFFFFFFFFFFFFFFFFFFFFFFFFFFFFF
310
F000FFFFFFFFFFFFFFFFFFFFFFFFFFFFFFFFFFFFFFFFFFFFFFFFFFFFFFFFFFFF
310
FFFFFFFFFFFFFFFFFFFFFFFFFFFFFFFFFFFFFFFFFFFFFFFFFFFFFFFFFFFFFFFF
310
FFFFFFFFFFFFFFFFFFFFFFFFFFFFFFFFFFFFFFFFFFFFFFFFF000FFFFFFFFFFFF
310
FFFFFFFFFFFFFFFFFFFFFFFFFFFFFFFFFFFFFFFFFFFFFFFFFFFFFFFFFFFFFFFF
310
FFFFFFFFFFFFFFFFFFFFFFFFFFFFFFFFFFFFFFFFFFFFFFFFFFFFFFFFFFFFFFFF
310
FFFFFFFFFFFFFFFFFFFFFFFFFFFFFFFFF000FFFFFFFFFFFFFFFFFFFFFFFFFFFF
310
FFFFFFFFFFFFFFFFFFFFFFFFFFFFFFFFFFFFFFFFFFFFFFFFFFFFFFFFFFFFFFFF
310
FFFFFFFFFFFFFFFFFFFFFFFFFFFFFFFFFFFFFFFFFFFFFFFFFFFFFFFFFFFFFFFF
310
FFFFFFFFFFFFFFFFF000FFFFFFFFFFFFFFFFFFFFFFFFFFFFFFFFFFFFFFFFFFFF
310
FFFFFFFFFFFFFFFFFFFFFFFFFFFFFFFFFFFFFFFFFFFFFFFFFFFFFFFFFFFFFFFF
310
FFFFFFFFFFFFFFFFFFFFFFFFFFFFFFFFFFFFFFFFFFFFFFFFFFFFFFFFFFFFFFFF
310
F000FFFFFFFFFFFFFFFFFFFFFFFFFFFFFFFFFFFFFFFFFFFFFFFFFFFFFFFFFFFF
310
FFFFFFFFFFFFFFFFFFFFFFFFFFFFFFFFFFFFFFFFFFFFFFFFFFFFFFFFFFFFFFFF
310
FFFFFFFFFFFFFFFFFFFFFFFFFFFFFFFFFFFFFFFFFFFFFFFFF000FFFFFFFFFFFF
310
FFFFFFFFFFFFFFFFFFFFFFFFFFFFFFFFFFFFFFFFFFFFFFFFFFFFFFFFFFFFFFFF
310
FFFFFFFFFFFFFFFFFFFFFFFFFFFFFFFFFFFFFFFFFFFFFFFFFFFFFFFFFFFFFFFF
310
FFFFFFFFFFFFFFFFFFFFFFFFFFFFFFFFF000FFFFFFFFFFFFFFFFFFFFFFFFFFFF
310
FFFFFFFFFFFFFFFFFFFFFFFFFFFFFFFFFFFFFFFFFFFFFFFFFFFFFFFFFFFFFFFF
310
FFFFFFFFFFFFFFFFFFFFFFFFFFFFFFFFFFFFFFFFFFFFFFFFFFFFFFFFFFFFFFFF
310
FFFFFFFFFFFFFFFFF000FFFFFFFFFFFFFFFFFFFFFFFFFFFFFFFFFFFFFFFFFFFF
310
FFFFFFFFFFFFFFFFFFFFFFFFFFFFFFFFFFFFFFFFFFFFFFFFFFFFFFFFFFFFFFFF
310
FFFFFFFFFFFFFFFFFFFFFFFFFFFFFFFFFFFFFFFFFFFFFFFFFFFFFFFFFFFFFFFF
310
F000FFFFFFFFFFFFFFFFFFFFFFFFFFFFFFFFFFFFFFFFFFFFFFFFFFFFFFFFFFFF
310
FFFFFFFFFFFFFFFFFFFFFFFFFFFFFFFFFFFFFFFFFFFFFFFFFFFFFFFFFFFFFFFF
310
FFFFFFFFFFFFFFFFFFFFFFFFFFFFFFFFFFFFFFFFFFFFFFFFF000FFFFFFFFFFFF
310
FFFFFFFFFFFFFFFFFFFFFFFFFFFFFFFFFFFFFFFFFFFFFFFFFFFFFFFFFFFFFFFF
310
FFFFFFFFFFFFFFFFFFFFFFFFFFFFFFFFFFFFFFFFFFFFFFFFFFFFFFFFFFFFFFFF
310
FFFFFFFFFFFFFFFFFFFFFFFFFFFFFFFFF000FFFFFFFFFFFFFFFFFFFFFFFFFFFF
310
FFFFFFFFFFFFFFFFFFFFFFFFFFFFFFFFFFFFFFFFFFFFFFFFFFFFFFFFFFFFFFFF
310
FFFFFFFFFFFFFFFFFFFFFFFFFFFFFFFFFFFFFFFFFFFFFFFFFFFFFFFFFFFFFFFF
310
FFFFFFFFFFFFFFFFF000FFFFFFFFFFFFFFFFFFFFFFFFFFFFFFFFFFFFFFFFFFFF
310
FFFFFFFFFFFFFFFFFFFFFFFFFFFFFFFFFFFFFFFFFFFFFFFFFFFFFFFFFFFFFFFF
310
FFFFFFFFFFFFFFFFFFFFFFFFFFFFFFFFFFFFFFFFFFFFFFFFFFFFFFFFFFFFFFFF
310
F000FFFFFFFFFFFFFFFFFFFFFFFFFFFFFFFFFFFFFFFFFFFFFFFFFFFFFFFFFFFF
310
FFFFFFFFFFFFFFFFFFFFFFFFFFFFFFFFFFFFFFFFFFFFFFFFFFFFFFFFFFFFFFFF
310
FFFFFFFFFFFFFFFFFFFFFFFFFFFFFFFFFFFFFFFFFFFFFFFFF000FFFFFFFFFFFF
310
FFFFFFFFFFFFFFFFFFFFFFFFFFFFFFFFFFFFFFFFFFFFFFFFFFFFFFFFFFFFFFFF
310
FFFFFFFFFFFFFFFFFFFFFFFFFFFFFFFFFFFFFFFFFFFFFFFFFFFFFFFFFFFFFFFF
310
FFFFFFFFFFFFFFFFFFFFFFFFFFFFFFFFF0000000000000000000000000000000
310
0000000000000000000000000000000000000000000000000000000000000000
310
0000000000000000000000000000000000000000000000000000000000000000
310
0000000000000000000000000000000000000000000000000000000000000000
310
0000000000000000000000000000000000000000000000000000000000000000
310
0000000000000000000000000000000000000000000000000000000000000000
310
0000000000000000000000000000000000000000000000000000000000000000
310
0000000000000000000000000000000000000000000000000000000000000000
310
0000000000000000000000000000000000000000000000000000000000000000
310
0000000000000000000000000000000000000000000000000000000000000000
310
0000000000000000000000000000000000000000000000000000000000000000
310
0000000000000000000000000000000000000000000000000000000000000000
310
0000000000000000000000000000000000000000000000000000000000000000
310
0000000000000000000000000000000000000000000000000000000000000000
310
0000000000000000000000000000000000000000000000000000000000000000
310
0000000000000000000000000000000000000000000000000000000000000000
  1
OLE
  0
ENDSEC
  0
SECTION
  2
OBJECTS
  0
DICTIONARY
  5
C
330
0
100
AcDbDictionary
281
     1
  3
ACAD_GROUP
350
D
  3
ACAD_LAYOUT
350
1A
  3
ACAD_MLINESTYLE
350
17
  3
ACAD_PLOTSETTINGS
350
19
  3
ACAD_PLOTSTYLENAME
350
E
  3
ACAD_SCALELIST
350
47
  0
DICTIONARY
  5
D
102
{ACAD_REACTORS
330
C
102
}
330
C
100
AcDbDictionary
281
     1
  0
DICTIONARY
  5
1A
102
{ACAD_REACTORS
330
C
102
}
330
C
100
AcDbDictionary
281
     1
  3
Layout1
350
1E
  3
Layout2
350
26
  3
Model
350
22
  0
DICTIONARY
  5
17
102
{ACAD_REACTORS
330
C
102
}
330
C
100
AcDbDictionary
281
     1
  3
Standard
350
18
  0
DICTIONARY
  5
19
102
{ACAD_REACTORS
330
C
102
}
330
C
100
AcDbDictionary
281
     1
  0
ACDBDICTIONARYWDFLT
  5
E
102
{ACAD_REACTORS
330
C
102
}
330
C
100
AcDbDictionary
281
     1
  3
Normal
350
F
100
AcDbDictionaryWithDefault
340
F
  0
DICTIONARY
  5
47
102
{ACAD_REACTORS
330
C
102
}
330
C
100
AcDbDictionary
281
     1
  3
A0
350
48
  3
A1
350
49
  3
A2
350
4A
  3
A3
350
4B
  3
A4
350
4C
  3
A5
350
4D
  3
A6
350
4E
  3
A7
350
4F
  3
A8
350
50
  3
A9
350
51
  3
B0
350
52
  3
B1
350
53
  3
B2
350
54
  3
B3
350
55
  3
B4
350
56
  3
B5
350
57
  3
B6
350
58
  3
B7
350
59
  3
B8
350
5A
  3
B9
350
5B
  3
C0
350
5C
  3
C1
350
5D
  3
C2
350
5E
  3
C3
350
5F
  3
C4
350
60
  3
C5
350
61
  3
C6
350
62
  3
C7
350
63
  3
C8
350
64
  3
C9
350
65
  3
D0
350
66
  3
D1
350
67
  3
D2
350
68
  0
LAYOUT
  5
1E
102
{ACAD_REACTORS
330
1A
102
}
330
1A
100
AcDbPlotSettings
  1

  2
none_device
  4

  6

 40
0.0
 41
0.0
 42
0.0
 43
0.0
 44
0.0
 45
0.0
 46
0.0
 47
0.0
 48
0.0
 49
0.0
140
0.0
141
0.0
142
1.0
143
1.0
 70
   688
 72
     1
 73
     0
 74
     5
  7

 75
    16
147
1.0
148
0.0
149
0.0
100
AcDbLayout
  1
Layout1
 70
     1
 71
     1
 10
0.0
 20
0.0
 11
420.0
 21
297.0
 12
0.0
 22
0.0
 32
0.0
 14
1.0000000000E+20
 24
1.0000000000E+20
 34
1.0000000000E+20
 15
-1.0000000000E+20
 25
-1.0000000000E+20
 35
-1.0000000000E+20
146
0.0
 13
0.0
 23
0.0
 33
0.0
 16
1.0
 26
0.0
 36
0.0
 17
0.0
 27
1.0
 37
0.0
 76
     0
330
1B
  0
LAYOUT
  5
26
102
{ACAD_REACTORS
330
1A
102
}
330
1A
100
AcDbPlotSettings
  1

  2
none_device
  4

  6

 40
0.0
 41
0.0
 42
0.0
 43
0.0
 44
0.0
 45
0.0
 46
0.0
 47
0.0
 48
0.0
 49
0.0
140
0.0
141
0.0
142
1.0
143
1.0
 70
   688
 72
     1
 73
     0
 74
     5
  7

 75
    16
147
1.0
148
0.0
149
0.0
100
AcDbLayout
  1
Layout2
 70
     1
 71
     2
 10
0.0
 20
0.0
 11
0.0
 21
0.0
 12
0.0
 22
0.0
 32
0.0
 14
0.0
 24
0.0
 34
0.0
 15
0.0
 25
0.0
 35
0.0
146
0.0
 13
0.0
 23
0.0
 33
0.0
 16
1.0
 26
0.0
 36
0.0
 17
0.0
 27
1.0
 37
0.0
 76
     0
330
23
  0
LAYOUT
  5
22
102
{ACAD_REACTORS
330
1A
102
}
330
1A
100
AcDbPlotSettings
  1

  2
none_device
  4
Letter_(8.50_x_11.00_Inches)
  6

 40
6.35
 41
6.35
 42
6.35000508
 43
6.35000508
 44
215.9
 45
279.4
 46
0.0
 47
0.0
 48
0.0
 49
0.0
140
0.0
141
0.0
142
1.0
143
1.0
 70
  1712
 72
     1
 73
     0
 74
     0
  7

 75
     0
147
1.0
148
0.0
149
0.0
100
AcDbLayout
  1
Model
 70
     1
 71
     0
 10
0.0
 20
0.0
 11
297.0
 21
210.0
 12
0.0
 22
0.0
 32
0.0
 14
0.0
 24
0.0
 34
0.0
 15
297.0
 25
210.0
 35
0.0
146
0.0
 13
0.0
 23
0.0
 33
0.0
 16
1.0
 26
0.0
 36
0.0
 17
0.0
 27
1.0
 37
0.0
 76
     0
330
1F
331
29
  0
MLINESTYLE
  5
18
102
{ACAD_REACTORS
330
17
102
}
330
17
100
AcDbMlineStyle
  2
Standard
 70
     0
  3

 62
   256
 51
90.0
 52
90.0
 71
     2
 49
0.5
 62
   256
  6
BYLAYER
 49
-0.5
 62
   256
  6
BYLAYER
  0
ACDBPLACEHOLDER
  5
F
102
{ACAD_REACTORS
330
E
102
}
330
E
  0
SCALE
  5
48
102
{ACAD_REACTORS
330
47
102
}
330
47
100
AcDbScale
 70
     0
300
1:1
140
1.0
141
1.0
290
     1
  0
SCALE
  5
49
102
{ACAD_REACTORS
330
47
102
}
330
47
100
AcDbScale
 70
     0
300
1:2
140
1.0
141
2.0
290
     0
  0
SCALE
  5
4A
102
{ACAD_REACTORS
330
47
102
}
330
47
100
AcDbScale
 70
     0
300
1:4
140
1.0
141
4.0
290
     0
  0
SCALE
  5
4B
102
{ACAD_REACTORS
330
47
102
}
330
47
100
AcDbScale
 70
     0
300
1:5
140
1.0
141
5.0
290
     0
  0
SCALE
  5
4C
102
{ACAD_REACTORS
330
47
102
}
330
47
100
AcDbScale
 70
     0
300
1:8
140
1.0
141
8.0
290
     0
  0
SCALE
  5
4D
102
{ACAD_REACTORS
330
47
102
}
330
47
100
AcDbScale
 70
     0
300
1:10
140
1.0
141
10.0
290
     0
  0
SCALE
  5
4E
102
{ACAD_REACTORS
330
47
102
}
330
47
100
AcDbScale
 70
     0
300
1:16
140
1.0
141
16.0
290
     0
  0
SCALE
  5
4F
102
{ACAD_REACTORS
330
47
102
}
330
47
100
AcDbScale
 70
     0
300
1:20
140
1.0
141
20.0
290
     0
  0
SCALE
  5
50
102
{ACAD_REACTORS
330
47
102
}
330
47
100
AcDbScale
 70
     0
300
1:30
140
1.0
141
30.0
290
     0
  0
SCALE
  5
51
102
{ACAD_REACTORS
330
47
102
}
330
47
100
AcDbScale
 70
     0
300
1:40
140
1.0
141
40.0
290
     0
  0
SCALE
  5
52
102
{ACAD_REACTORS
330
47
102
}
330
47
100
AcDbScale
 70
     0
300
1:50
140
1.0
141
50.0
290
     0
  0
SCALE
  5
53
102
{ACAD_REACTORS
330
47
102
}
330
47
100
AcDbScale
 70
     0
300
1:100
140
1.0
141
100.0
290
     0
  0
SCALE
  5
54
102
{ACAD_REACTORS
330
47
102
}
330
47
100
AcDbScale
 70
     0
300
2:1
140
2.0
141
1.0
290
     0
  0
SCALE
  5
55
102
{ACAD_REACTORS
330
47
102
}
330
47
100
AcDbScale
 70
     0
300
4:1
140
4.0
141
1.0
290
     0
  0
SCALE
  5
56
102
{ACAD_REACTORS
330
47
102
}
330
47
100
AcDbScale
 70
     0
300
8:1
140
8.0
141
1.0
290
     0
  0
SCALE
  5
57
102
{ACAD_REACTORS
330
47
102
}
330
47
100
AcDbScale
 70
     0
300
10:1
140
10.0
141
1.0
290
     0
  0
SCALE
  5
58
102
{ACAD_REACTORS
330
47
102
}
330
47
100
AcDbScale
 70
     0
300
100:1
140
100.0
141
1.0
290
     0
  0
SCALE
  5
59
102
{ACAD_REACTORS
330
47
102
}
330
47
100
AcDbScale
 70
     0
300
1/128" = 1'-0"
140
0.0078125
141
12.0
290
     0
  0
SCALE
  5
5A
102
{ACAD_REACTORS
330
47
102
}
330
47
100
AcDbScale
 70
     0
300
1/64" = 1'-0"
140
0.015625
141
12.0
290
     0
  0
SCALE
  5
5B
102
{ACAD_REACTORS
330
47
102
}
330
47
100
AcDbScale
 70
     0
300
1/32" = 1'-0"
140
0.03125
141
12.0
290
     0
  0
SCALE
  5
5C
102
{ACAD_REACTORS
330
47
102
}
330
47
100
AcDbScale
 70
     0
300
1/16" = 1'-0"
140
0.0625
141
12.0
290
     0
  0
SCALE
  5
5D
102
{ACAD_REACTORS
330
47
102
}
330
47
100
AcDbScale
 70
     0
300
3/32" = 1'-0"
140
0.09375
141
12.0
290
     0
  0
SCALE
  5
5E
102
{ACAD_REACTORS
330
47
102
}
330
47
100
AcDbScale
 70
     0
300
1/8" = 1'-0"
140
0.125
141
12.0
290
     0
  0
SCALE
  5
5F
102
{ACAD_REACTORS
330
47
102
}
330
47
100
AcDbScale
 70
     0
300
3/16" = 1'-0"
140
0.1875
141
12.0
290
     0
  0
SCALE
  5
60
102
{ACAD_REACTORS
330
47
102
}
330
47
100
AcDbScale
 70
     0
300
1/4" = 1'-0"
140
0.25
141
12.0
290
     0
  0
SCALE
  5
61
102
{ACAD_REACTORS
330
47
102
}
330
47
100
AcDbScale
 70
     0
300
3/8" = 1'-0"
140
0.375
141
12.0
290
     0
  0
SCALE
  5
62
102
{ACAD_REACTORS
330
47
102
}
330
47
100
AcDbScale
 70
     0
300
1/2" = 1'-0"
140
0.5
141
12.0
290
     0
  0
SCALE
  5
63
102
{ACAD_REACTORS
330
47
102
}
330
47
100
AcDbScale
 70
     0
300
3/4" = 1'-0"
140
0.75
141
12.0
290
     0
  0
SCALE
  5
64
102
{ACAD_REACTORS
330
47
102
}
330
47
100
AcDbScale
 70
     0
300
1" = 1'-0"
140
1.0
141
12.0
290
     0
  0
SCALE
  5
65
102
{ACAD_REACTORS
330
47
102
}
330
47
100
AcDbScale
 70
     0
300
1-1/2" = 1'-0"
140
1.5
141
12.0
290
     0
  0
SCALE
  5
66
102
{ACAD_REACTORS
330
47
102
}
330
47
100
AcDbScale
 70
     0
300
3" = 1'-0"
140
3.0
141
12.0
290
     0
  0
SCALE
  5
67
102
{ACAD_REACTORS
330
47
102
}
330
47
100
AcDbScale
 70
     0
300
6" = 1'-0"
140
6.0
141
12.0
290
     0
  0
SCALE
  5
68
102
{ACAD_REACTORS
330
47
102
}
330
47
100
AcDbScale
 70
     0
300
1'-0" = 1'-0"
140
12.0
141
12.0
290
     0
  0
ENDSEC
  0
EOF
