  0
SECTION
  2
HEADER
  9
$ACADVER
  1
AC1015
  9
$ACADMAINTVER
 70
     6
  9
$DWGCODEPAGE
  3
ANSI_1252
  9
$INSBASE
 10
0.0
 20
0.0
 30
0.0
  9
$EXTMIN
 10
0.0
 20
0.0
 30
0.0
  9
$EXTMAX
 10
297.0
 20
210.0
 30
0.0
  9
$LIMMIN
 10
0.0
 20
0.0
  9
$LIMMAX
 10
297.0
 20
210.0
  9
$ORTHOMODE
 70
     0
  9
$REGENMODE
 70
     1
  9
$FILLMODE
 70
     1
  9
$QTEXTMODE
 70
     0
  9
$MIRRTEXT
 70
     1
  9
$LTSCALE
 40
1.0
  9
$ATTMODE
 70
     1
  9
$TEXTSIZE
 40
2.0
  9
$TRACEWID
 40
1.0
  9
$TEXTSTYLE
  7
Standard
  9
$CLAYER
  8
0
  9
$CELTYPE
  6
ByLayer
  9
$CECOLOR
 62
   256
  9
$CELTSCALE
 40
1.0
  9
$DISPSILH
 70
     0
  9
$DIMSCALE
 40
1.0
  9
$DIMASZ
 40
3.0
  9
$DIMEXO
 40
0.0
  9
$DIMDLI
 40
3.75
  9
$DIMRND
 40
0.0
  9
$DIMDLE
 40
0.0
  9
$DIMEXE
 40
1.0
  9
$DIMTP
 40
0.0
  9
$DIMTM
 40
0.0
  9
$DIMTXT
 40
2.0
  9
$DIMCEN
 40
2.5
  9
$DIMTSZ
 40
0.0
  9
$DIMTOL
 70
     0
  9
$DIMLIM
 70
     0
  9
$DIMTIH
 70
     1
  9
$DIMTOH
 70
     1
  9
$DIMSE1
 70
     0
  9
$DIMSE2
 70
     0
  9
$DIMTAD
 70
     1
  9
$DIMZIN
 70
     0
  9
$DIMBLK
  1

  9
$DIMASO
 70
     1
  9
$DIMSHO
 70
     1
  9
$DIMPOST
  1

  9
$DIMAPOST
  1

  9
$DIMALT
 70
     0
  9
$DIMALTD
 70
     3
  9
$DIMALTF
 40
0.0393700787
  9
$DIMLFAC
 40
2.0
  9
$DIMTOFL
 70
     1
  9
$DIMTVP
 40
0.0
  9
$DIMTIX
 70
     0
  9
$DIMSOXD
 70
     0
  9
$DIMSAH
 70
     0
  9
$DIMBLK1
  1

  9
$DIMBLK2
  1

  9
$DIMSTYLE
  2
ISO-25
  9
$DIMCLRD
 70
     0
  9
$DIMCLRE
 70
     0
  9
$DIMCLRT
 70
     0
  9
$DIMTFAC
 40
1.0
  9
$DIMGAP
 40
1.524
  9
$DIMJUST
 70
     0
  9
$DIMSD1
 70
     0
  9
$DIMSD2
 70
     0
  9
$DIMTOLJ
 70
     0
  9
$DIMTZIN
 70
     0
  9
$DIMALTZ
 70
     0
  9
$DIMALTTZ
 70
     0
  9
$DIMUPT
 70
     0
  9
$DIMDEC
 70
     2
  9
$DIMTDEC
 70
     3
  9
$DIMALTU
 70
     2
  9
$DIMALTTD
 70
     3
  9
$DIMTXSTY
  7
Standard
  9
$DIMAUNIT
 70
     0
  9
$DIMADEC
 70
     2
  9
$DIMALTRND
 40
0.0
  9
$DIMAZIN
 70
     0
  9
$DIMDSEP
 70
    44
  9
$DIMATFIT
 70
     3
  9
$DIMFRAC
 70
     0
  9
$DIMLDRBLK
  1

  9
$DIMLUNIT
 70
     2
  9
$DIMLWD
 70
    -2
  9
$DIMLWE
 70
    -2
  9
$DIMTMOVE
 70
     0
  9
$LUNITS
 70
     2
  9
$LUPREC
 70
     2
  9
$SKETCHINC
 40
1.0
  9
$FILLETRAD
 40
10.0
  9
$AUNITS
 70
     0
  9
$AUPREC
 70
     2
  9
$MENU
  1
.
  9
$ELEVATION
 40
0.0
  9
$PELEVATION
 40
0.0
  9
$THICKNESS
 40
0.0
  9
$LIMCHECK
 70
     0
  9
$CHAMFERA
 40
0.0
  9
$CHAMFERB
 40
0.0
  9
$CHAMFERC
 40
0.0
  9
$CHAMFERD
 40
0.0
  9
$SKPOLY
 70
     0
  9
$TDCREATE
 40
2458162.406948542
  9
$TDUCREATE
 40
2458162.365281875
  9
$TDUPDATE
 40
2458162.406950799
  9
$TDUUPDATE
 40
2458162.365284132
  9
$TDINDWG
 40
0.0000000116
  9
$TDUSRTIMER
 40
0.0000000116
  9
$USRTIMER
 70
     1
  9
$ANGBASE
 50
0.0
  9
$ANGDIR
 70
     0
  9
$PDMODE
 70
     0
  9
$PDSIZE
 40
-1.0
  9
$PLINEWID
 40
0.0
  9
$SPLFRAME
 70
     0
  9
$SPLINETYPE
 70
     6
  9
$SPLINESEGS
 70
     8
  9
$HANDSEED
  5
309
  9
$SURFTAB1
 70
     6
  9
$SURFTAB2
 70
     6
  9
$SURFTYPE
 70
     6
  9
$SURFU
 70
     6
  9
$SURFV
 70
     6
  9
$UCSBASE
  2

  9
$UCSNAME
  2

  9
$UCSORG
 10
0.0
 20
0.0
 30
0.0
  9
$UCSXDIR
 10
1.0
 20
0.0
 30
0.0
  9
$UCSYDIR
 10
0.0
 20
1.0
 30
0.0
  9
$UCSORTHOREF
  2

  9
$UCSORTHOVIEW
 70
     0
  9
$UCSORGTOP
 10
0.0
 20
0.0
 30
0.0
  9
$UCSORGBOTTOM
 10
0.0
 20
0.0
 30
0.0
  9
$UCSORGLEFT
 10
0.0
 20
0.0
 30
0.0
  9
$UCSORGRIGHT
 10
0.0
 20
0.0
 30
0.0
  9
$UCSORGFRONT
 10
0.0
 20
0.0
 30
0.0
  9
$UCSORGBACK
 10
0.0
 20
0.0
 30
0.0
  9
$PUCSBASE
  2

  9
$PUCSNAME
  2

  9
$PUCSORG
 10
0.0
 20
0.0
 30
0.0
  9
$PUCSXDIR
 10
1.0
 20
0.0
 30
0.0
  9
$PUCSYDIR
 10
0.0
 20
1.0
 30
0.0
  9
$PUCSORTHOREF
  2

  9
$PUCSORTHOVIEW
 70
     0
  9
$PUCSORGTOP
 10
0.0
 20
0.0
 30
0.0
  9
$PUCSORGBOTTOM
 10
0.0
 20
0.0
 30
0.0
  9
$PUCSORGLEFT
 10
0.0
 20
0.0
 30
0.0
  9
$PUCSORGRIGHT
 10
0.0
 20
0.0
 30
0.0
  9
$PUCSORGFRONT
 10
0.0
 20
0.0
 30
0.0
  9
$PUCSORGBACK
 10
0.0
 20
0.0
 30
0.0
  9
$USERI1
 70
     0
  9
$USERI2
 70
     0
  9
$USERI3
 70
     0
  9
$USERI4
 70
     0
  9
$USERI5
 70
     0
  9
$USERR1
 40
0.0
  9
$USERR2
 40
0.0
  9
$USERR3
 40
0.0
  9
$USERR4
 40
0.0
  9
$USERR5
 40
0.0
  9
$WORLDVIEW
 70
     1
  9
$SHADEDGE
 70
     3
  9
$SHADEDIF
 70
    70
  9
$TILEMODE
 70
     1
  9
$MAXACTVP
 70
    64
  9
$PINSBASE
 10
0.0
 20
0.0
 30
0.0
  9
$PLIMCHECK
 70
     0
  9
$PEXTMIN
 10
1.0000000000E+20
 20
1.0000000000E+20
 30
1.0000000000E+20
  9
$PEXTMAX
 10
-1.0000000000E+20
 20
-1.0000000000E+20
 30
-1.0000000000E+20
  9
$PLIMMIN
 10
0.0
 20
0.0
  9
$PLIMMAX
 10
420.0
 20
297.0
  9
$UNITMODE
 70
     0
  9
$VISRETAIN
 70
     1
  9
$PLINEGEN
 70
     0
  9
$PSLTSCALE
 70
     1
  9
$TREEDEPTH
 70
  3020
  9
$CMLSTYLE
  2
Standard
  9
$CMLJUST
 70
     0
  9
$CMLSCALE
 40
20.0
  9
$PROXYGRAPHICS
 70
     1
  9
$MEASUREMENT
 70
     1
  9
$CELWEIGHT
370
    -1
  9
$ENDCAPS
280
     0
  9
$JOINSTYLE
280
     0
  9
$LWDISPLAY
290
     1
  9
$INSUNITS
 70
     4
  9
$HYPERLINKBASE
  1

  9
$STYLESHEET
  1

  9
$XEDIT
290
     1
  9
$CEPSNTYPE
380
     0
  9
$PSTYLEMODE
290
     1
  9
$FINGERPRINTGUID
  2
{86DAA8D0-9BDB-40D3-9A4B-8D73CF8E23A1}
  9
$VERSIONGUID
  2
{FAEB1C32-E019-11D5-929B-00C0DF256EC4}
  9
$EXTNAMES
290
     1
  9
$PSVPSCALE
 40
0.0
  9
$OLESTARTUP
290
     0
  0
ENDSEC
  0
SECTION
  2
CLASSES
  0
CLASS
  1
ACDBDICTIONARYWDFLT
  2
AcDbDictionaryWithDefault
  3
ObjectDBX Classes
 90
        0
280
     0
281
     0
  0
CLASS
  1
VISUALSTYLE
  2
AcDbVisualStyle
  3
ObjectDBX Classes
 90
     4095
280
     0
281
     0
  0
CLASS
  1
MATERIAL
  2
AcDbMaterial
  3
ObjectDBX Classes
 90
     1153
280
     0
281
     0
  0
CLASS
  1
SCALE
  2
AcDbScale
  3
ObjectDBX Classes
 90
     1153
280
     0
281
     0
  0
CLASS
  1
TABLESTYLE
  2
AcDbTableStyle
  3
ObjectDBX Classes
 90
     4095
280
     0
281
     0
  0
CLASS
  1
MLEADERSTYLE
  2
AcDbMLeaderStyle
  3
ACDB_MLEADERSTYLE_CLASS
 90
     4095
280
     0
281
     0
  0
CLASS
  1
SUN
  2
AcDbSun
  3
SCENEOE
 90
     1153
280
     0
281
     0
  0
CLASS
  1
ACDBPLACEHOLDER
  2
AcDbPlaceHolder
  3
ObjectDBX Classes
 90
        0
280
     0
281
     0
  0
CLASS
  1
LAYOUT
  2
AcDbLayout
  3
ObjectDBX Classes
 90
        0
280
     0
281
     0
  0
ENDSEC
  0
SECTION
  2
TABLES
  0
TABLE
  2
VPORT
  5
8
330
0
100
AcDbSymbolTable
 70
     1
  0
VPORT
  5
29
330
8
100
AcDbSymbolTableRecord
100
AcDbViewportTableRecord
  2
*Active
 70
     0
 10
0.0
 20
0.0
 11
1.0
 21
1.0
 12
148.5
 22
105.0
 13
0.0
 23
0.0
 14
10.0
 24
10.0
 15
10.0
 25
10.0
 16
0.0
 26
0.0
 36
1.0
 17
0.0
 27
0.0
 37
0.0
 40
210.0
 41
1.4142857143
 42
50.0
 43
0.0
 44
0.0
 50
0.0
 51
0.0
 71
     0
 72
  2000
 73
     1
 74
     3
 75
     0
 76
     0
 77
     0
 78
     0
281
     0
 65
     1
110
0.0
120
0.0
130
0.0
111
1.0
121
0.0
131
0.0
112
0.0
122
1.0
132
0.0
 79
     0
146
0.0
  0
ENDTAB
  0
TABLE
  2
LTYPE
  5
5
330
0
100
AcDbSymbolTable
 70
     6
  0
LTYPE
  5
14
330
5
100
AcDbSymbolTableRecord
100
AcDbLinetypeTableRecord
  2
ByBlock
 70
     0
  3

 72
    65
 73
     0
 40
0.0
  0
LTYPE
  5
15
330
5
100
AcDbSymbolTableRecord
100
AcDbLinetypeTableRecord
  2
ByLayer
 70
     0
  3

 72
    65
 73
     0
 40
0.0
  0
LTYPE
  5
16
330
5
100
AcDbSymbolTableRecord
100
AcDbLinetypeTableRecord
  2
Continuous
 70
     0
  3
Solid line
 72
    65
 73
     0
 40
0.0
  0
LTYPE
  5
6E
330
5
100
AcDbSymbolTableRecord
100
AcDbLinetypeTableRecord
  2
HIDDEN
 70
     0
  3
Hidden __ __ __ __ __ __ __ __ __ __ __ __ __ __
 72
    65
 73
     2
 40
1.905
 49
1.27
 74
     0
 49
-0.635
 74
     0
  0
LTYPE
  5
6F
330
5
100
AcDbSymbolTableRecord
100
AcDbLinetypeTableRecord
  2
PHANTOM
 70
     0
  3
Phantom ______  __  __  ______  __  __  ______
 72
    65
 73
     6
 40
12.7
 49
6.35
 74
     0
 49
-1.27
 74
     0
 49
1.27
 74
     0
 49
-1.27
 74
     0
 49
1.27
 74
     0
 49
-1.27
 74
     0
  0
LTYPE
  5
70
330
5
100
AcDbSymbolTableRecord
100
AcDbLinetypeTableRecord
  2
CENTER
 70
     0
  3
Center ____ _ ____ _ ____ _ ____ _ ____ _ ____
 72
    65
 73
     4
 40
10.16
 49
6.35
 74
     0
 49
-1.27
 74
     0
 49
1.27
 74
     0
 49
-1.27
 74
     0
  0
LTYPE
  5
71
330
5
100
AcDbSymbolTableRecord
100
AcDbLinetypeTableRecord
  2
CENTERX2
 70
     0
  3
Center (2x) ________  __  ________  __  _____
 72
    65
 73
     4
 40
20.32
 49
12.7
 74
     0
 49
-2.54
 74
     0
 49
2.54
 74
     0
 49
-2.54
 74
     0
  0
LTYPE
  5
72
330
5
100
AcDbSymbolTableRecord
100
AcDbLinetypeTableRecord
  2
DOT2
 70
     0
  3
Dot (.5x) ........................................
 72
    65
 73
     2
 40
0.635
 49
0.0
 74
     0
 49
-0.635
 74
     0
  0
ENDTAB
  0
TABLE
  2
LAYER
  5
2
330
0
100
AcDbSymbolTable
 70
     5
  0
LAYER
  5
10
330
2
100
AcDbSymbolTableRecord
100
AcDbLayerTableRecord
  2
0
 70
     0
 62
     7
  6
Continuous
370
    -3
390
F
  0
LAYER
  5
73
330
2
100
AcDbSymbolTableRecord
100
AcDbLayerTableRecord
  2
FORMAT
 70
     0
 62
     7
  6
Continuous
370
    -3
390
F
  0
LAYER
  5
74
330
2
100
AcDbSymbolTableRecord
100
AcDbLayerTableRecord
  2
VERMASSUNG
 70
     0
 62
     7
  6
Continuous
370
    -3
390
F
  0
LAYER
  5
75
330
2
100
AcDbSymbolTableRecord
100
AcDbLayerTableRecord
  2
KOPF_DÜNN
 70
     0
 62
     7
  6
Continuous
370
    -3
390
F
  0
LAYER
  5
76
330
2
100
AcDbSymbolTableRecord
100
AcDbLayerTableRecord
  2
KOPF_DICK
 70
     0
 62
     7
  6
Continuous
370
    25
390
F
  0
ENDTAB
  0
TABLE
  2
STYLE
  5
3
330
0
100
AcDbSymbolTable
 70
     3
  0
STYLE
  5
11
330
3
100
AcDbSymbolTableRecord
100
AcDbTextStyleTableRecord
  2
Standard
 70
     0
 40
0.0
 41
1.0
 50
0.0
 71
     0
 42
2.0
  3
txt
  4

  0
STYLE
  5
77
330
3
100
AcDbSymbolTableRecord
100
AcDbTextStyleTableRecord
  2
SLDTEXTSTYLE0
 70
     0
 40
0.0
 41
0.7
 50
0.0
 71
     0
 42
2.0
  3
TXT
  4

  0
STYLE
  5
7B
330
3
100
AcDbSymbolTableRecord
100
AcDbTextStyleTableRecord
  2
SLDTEXTSTYLE1
 70
     0
 40
0.0
 41
0.6416666667
 50
0.0
 71
     0
 42
2.0
  3
TXT
  4

  0
ENDTAB
  0
TABLE
  2
VIEW
  5
6
330
0
100
AcDbSymbolTable
 70
     0
  0
ENDTAB
  0
TABLE
  2
UCS
  5
7
330
0
100
AcDbSymbolTable
 70
     0
  0
ENDTAB
  0
TABLE
  2
APPID
  5
9
330
0
100
AcDbSymbolTable
 70
     1
  0
APPID
  5
12
330
9
100
AcDbSymbolTableRecord
100
AcDbRegAppTableRecord
  2
ACAD
 70
     0
  0
ENDTAB
  0
TABLE
  2
DIMSTYLE
  5
A
330
0
100
AcDbSymbolTable
 70
     4
100
AcDbDimStyleTable
  0
DIMSTYLE
105
27
330
A
100
AcDbSymbolTableRecord
100
AcDbDimStyleTableRecord
  2
ISO-25
 70
     0
 41
2.5
 42
0.625
 43
3.75
 44
1.25
 73
     0
 74
     0
 77
     1
 78
     8
140
2.5
141
2.5
143
0.0393700787
147
0.625
171
     3
172
     1
178
     0
271
     2
272
     2
274
     3
278
    44
283
     0
284
     8
340
11
  0
DIMSTYLE
105
16B
102
{ACAD_REACTORS
330
16A
330
182
102
}
330
A
100
AcDbSymbolTableRecord
100
AcDbDimStyleTableRecord
  2
SLDDIMSTYLE0
 70
     0
 41
3.0
 44
0.0
 45
0.000000001
 47
0.1
 48
0.1
 71
     1
 73
     0
 74
     0
 77
     1
 78
    12
 79
     3
140
2.0
147
0.5
173
     1
178
     0
271
     2
272
     1
276
     2
284
     8
340
77
  0
DIMSTYLE
105
178
102
{ACAD_REACTORS
330
177
102
}
330
A
100
AcDbSymbolTableRecord
100
AcDbDimStyleTableRecord
  2
SLDDIMSTYLE1
 70
     0
 41
3.0
 44
0.0
 73
     0
 74
     0
 77
     1
 78
    12
 79
     3
140
2.0
147
0.5
173
     1
178
     0
179
     1
272
     3
276
     2
284
    12
340
77
  0
DIMSTYLE
105
18F
102
{ACAD_REACTORS
330
18E
330
199
102
}
330
A
100
AcDbSymbolTableRecord
100
AcDbDimStyleTableRecord
  2
SLDDIMSTYLE2
 70
     0
 41
3.0
 44
0.0
 45
0.000000001
 73
     0
 74
     0
 77
     1
 78
    12
 79
     3
140
2.0
147
0.5
173
     1
178
     0
271
     2
272
     3
276
     2
284
    12
340
77
  0
ENDTAB
  0
TABLE
  2
BLOCK_RECORD
  5
1
330
0
100
AcDbSymbolTable
 70
     7
  0
BLOCK_RECORD
  5
1F
330
1
100
AcDbSymbolTableRecord
100
AcDbBlockTableRecord
  2
*Model_Space
340
22
  0
BLOCK_RECORD
  5
1B
330
1
100
AcDbSymbolTableRecord
100
AcDbBlockTableRecord
  2
*Paper_Space
340
1E
  0
BLOCK_RECORD
  5
23
330
1
100
AcDbSymbolTableRecord
100
AcDbBlockTableRecord
  2
*Paper_Space0
340
26
  0
BLOCK_RECORD
  5
16C
330
1
100
AcDbSymbolTableRecord
100
AcDbBlockTableRecord
  2
_D
340
0
  0
BLOCK_RECORD
  5
179
330
1
100
AcDbSymbolTableRecord
100
AcDbBlockTableRecord
  2
_D_1
340
0
  0
BLOCK_RECORD
  5
183
330
1
100
AcDbSymbolTableRecord
100
AcDbBlockTableRecord
  2
_D_2
340
0
  0
BLOCK_RECORD
  5
190
330
1
100
AcDbSymbolTableRecord
100
AcDbBlockTableRecord
  2
_D_3
340
0
  0
BLOCK_RECORD
  5
19A
330
1
100
AcDbSymbolTableRecord
100
AcDbBlockTableRecord
  2
_D_4
340
0
  0
BLOCK_RECORD
  5
21B
330
1
100
AcDbSymbolTableRecord
100
AcDbBlockTableRecord
  2
SW_CENTERMARKSYMBOL_0
340
0
102
{BLKREFS
331
226
102
}
  0
ENDTAB
  0
ENDSEC
  0
SECTION
  2
BLOCKS
  0
BLOCK
  5
20
330
1F
100
AcDbEntity
  8
0
100
AcDbBlockBegin
  2
*Model_Space
 70
     0
 10
0.0
 20
0.0
 30
0.0
  3
*Model_Space
  1

  0
ENDBLK
  5
21
330
1F
100
AcDbEntity
  8
0
100
AcDbBlockEnd
  0
BLOCK
  5
1C
330
1B
100
AcDbEntity
 67
     1
  8
0
100
AcDbBlockBegin
  2
*Paper_Space
 70
     0
 10
0.0
 20
0.0
 30
0.0
  3
*Paper_Space
  1

  0
ENDBLK
  5
1D
330
1B
100
AcDbEntity
 67
     1
  8
0
100
AcDbBlockEnd
  0
BLOCK
  5
24
330
23
100
AcDbEntity
  8
0
100
AcDbBlockBegin
  2
*Paper_Space0
 70
     0
 10
0.0
 20
0.0
 30
0.0
  3
*Paper_Space0
  1

  0
ENDBLK
  5
25
330
23
100
AcDbEntity
  8
0
100
AcDbBlockEnd
  0
BLOCK
  5
16D
330
16C
100
AcDbEntity
  8
0
100
AcDbBlockBegin
  2
_D
 70
     0
 10
0.0
 20
0.0
 30
0.0
  3
_D
  1

  0
SOLID
  5
16F
330
16C
100
AcDbEntity
  8
VERMASSUNG
100
AcDbTrace
 10
261.3930460555
 20
149.1456297119
 30
0.0
 11
260.9430460555
 21
146.1456297119
 31
0.0
 12
261.8430460555
 22
146.1456297119
 32
0.0
 13
261.8430460555
 23
146.1456297119
 33
0.0
  0
SOLID
  5
170
330
16C
100
AcDbEntity
  8
VERMASSUNG
100
AcDbTrace
 10
261.3930460555
 20
104.1456297119
 30
0.0
 11
261.8430460555
 21
107.1456297119
 31
0.0
 12
260.9430460555
 22
107.1456297119
 32
0.0
 13
260.9430460555
 23
107.1456297119
 33
0.0
  0
LINE
  5
171
330
16C
100
AcDbEntity
  8
VERMASSUNG
100
AcDbLine
 10
254.6230150065
 20
149.1456297119
 30
0.0
 11
262.3930460555
 21
149.1456297119
 31
0.0
  0
LINE
  5
172
330
16C
100
AcDbEntity
  8
VERMASSUNG
100
AcDbLine
 10
246.9017857638
 20
104.1456297119
 30
0.0
 11
262.3930460555
 21
104.1456297119
 31
0.0
  0
LINE
  5
173
330
16C
100
AcDbEntity
  8
VERMASSUNG
100
AcDbLine
 10
261.3930460555
 20
149.1456297119
 30
0.0
 11
261.3930460555
 21
104.1456297119
 31
0.0
  0
MTEXT
  5
174
330
16C
100
AcDbEntity
  8
VERMASSUNG
100
AcDbMText
 10
258.8149104596
 20
122.89562933
 30
0.0
 40
2.0
 41
0.0
 71
     1
 72
     1
  1
45
  7
SLDTEXTSTYLE0
 11
-7.044195017643634E-15
 21
1.0
 31
0.0
 73
     1
 44
1.0
  0
MTEXT
  5
175
330
16C
100
AcDbEntity
  8
VERMASSUNG
100
AcDbMText
 10
258.8149104596
 20
127.0831293561
 30
0.0
 40
2.0
 41
0.0
 71
     1
 72
     1
  1

  7
SLDTEXTSTYLE0
 11
-7.044195017643634E-15
 21
1.0
 31
0.0
 73
     1
 44
1.0
  0
MTEXT
  5
176
330
16C
100
AcDbEntity
  8
VERMASSUNG
100
AcDbMText
 10
259.3094442932
 20
127.0956291803
 30
0.0
 40
1.5
 41
0.0
 71
     1
 72
     1
  1
±0.1
  7
SLDTEXTSTYLE0
 11
-7.044195017643634E-15
 21
1.0
 31
0.0
 73
     1
 44
1.0
  0
ENDBLK
  5
16E
330
16C
100
AcDbEntity
  8
0
100
AcDbBlockEnd
  0
BLOCK
  5
17A
330
179
100
AcDbEntity
  8
0
100
AcDbBlockBegin
  2
_D_1
 70
     0
 10
0.0
 20
0.0
 30
0.0
  3
_D_1
  1

  0
ARC
  5
17C
330
179
100
AcDbEntity
  8
VERMASSUNG
100
AcDbCircle
 10
246.9017857638
 20
107.308395458
 30
0.0
 40
14.80446070529166
100
AcDbArc
 50
194.9889632044
 51
270.0
  0
SOLID
  5
17D
330
179
100
AcDbEntity
  8
VERMASSUNG
100
AcDbTrace
 10
232.6010369998
 20
103.4794737346
 30
0.0
 11
233.2413738773
 21
100.5142640147
 31
0.0
 12
234.0831809741
 22
100.8326361424
 32
0.0
 13
234.0831809741
 23
100.8326361424
 33
0.0
  0
SOLID
  5
17E
330
179
100
AcDbEntity
  8
VERMASSUNG
100
AcDbTrace
 10
246.9017857638
 20
92.5039347527
 30
0.0
 11
243.9616737562
 21
93.2510902806
 31
0.0
 12
243.8718531029
 22
92.3555835803
 32
0.0
 13
243.8718531029
 23
92.3555835803
 33
0.0
  0
LINE
  5
17F
330
179
100
AcDbEntity
  8
VERMASSUNG
100
AcDbLine
 10
235.1399098022
 20
104.1592385068
 30
0.0
 11
231.6350613355
 21
103.2208407591
 31
0.0
  0
LINE
  5
180
330
179
100
AcDbEntity
  8
VERMASSUNG
100
AcDbLine
 10
246.9017857638
 20
104.1456297119
 30
0.0
 11
246.9017857638
 21
91.5039347527
 31
0.0
  0
MTEXT
  5
181
330
179
100
AcDbEntity
  8
VERMASSUNG
100
AcDbMText
 10
237.8713471259
 20
98.8269920874
 30
0.0
 40
2.0
 41
0.0
 71
     1
 72
     1
  1
75°
  7
SLDTEXTSTYLE0
 11
0.7932947042346218
 21
-0.6088378373863633
 31
0.0
 73
     1
 44
1.0
  0
ENDBLK
  5
17B
330
179
100
AcDbEntity
  8
0
100
AcDbBlockEnd
  0
BLOCK
  5
184
330
183
100
AcDbEntity
  8
0
100
AcDbBlockBegin
  2
_D_2
 70
     0
 10
0.0
 20
0.0
 30
0.0
  3
_D_2
  1

  0
SOLID
  5
186
330
183
100
AcDbEntity
  8
VERMASSUNG
100
AcDbTrace
 10
181.9017857638
 20
85.4649073006
 30
0.0
 11
184.9017857638
 21
85.0149073006
 31
0.0
 12
184.9017857638
 22
85.9149073006
 32
0.0
 13
184.9017857638
 23
85.9149073006
 33
0.0
  0
SOLID
  5
187
330
183
100
AcDbEntity
  8
VERMASSUNG
100
AcDbTrace
 10
246.9017857638
 20
85.4649073006
 30
0.0
 11
243.9017857638
 21
85.9149073006
 31
0.0
 12
243.9017857638
 22
85.0149073006
 32
0.0
 13
243.9017857638
 23
85.0149073006
 33
0.0
  0
LINE
  5
188
330
183
100
AcDbEntity
  8
VERMASSUNG
100
AcDbLine
 10
181.9017857638
 20
118.1456297119
 30
0.0
 11
181.9017857638
 21
84.4649073006
 31
0.0
  0
LINE
  5
189
330
183
100
AcDbEntity
  8
VERMASSUNG
100
AcDbLine
 10
246.9017857638
 20
104.1456297119
 30
0.0
 11
246.9017857638
 21
84.4649073006
 31
0.0
  0
LINE
  5
18A
330
183
100
AcDbEntity
  8
VERMASSUNG
100
AcDbLine
 10
181.9017857638
 20
85.4649073006
 30
0.0
 11
246.9017857638
 21
85.4649073006
 31
0.0
  0
MTEXT
  5
18B
330
183
100
AcDbEntity
  8
VERMASSUNG
100
AcDbMText
 10
210.7517856777
 20
88.0430428965
 30
0.0
 40
2.0
 41
0.0
 71
     1
 72
     1
  1
65
  7
SLDTEXTSTYLE0
 73
     1
 44
1.0
  0
MTEXT
  5
18C
330
183
100
AcDbEntity
  8
VERMASSUNG
100
AcDbMText
 10
214.7392855779
 20
88.0430428965
 30
0.0
 40
2.0
 41
0.0
 71
     1
 72
     1
  1

  7
SLDTEXTSTYLE0
 73
     1
 44
1.0
  0
MTEXT
  5
18D
330
183
100
AcDbEntity
  8
VERMASSUNG
100
AcDbMText
 10
214.7517854021
 20
87.5485090629
 30
0.0
 40
1.5
 41
0.0
 71
     1
 72
     1
  1
±0.1
  7
SLDTEXTSTYLE0
 73
     1
 44
1.0
  0
ENDBLK
  5
185
330
183
100
AcDbEntity
  8
0
100
AcDbBlockEnd
  0
BLOCK
  5
191
330
190
100
AcDbEntity
  8
0
100
AcDbBlockBegin
  2
_D_3
 70
     0
 10
0.0
 20
0.0
 30
0.0
  3
_D_3
  1

  0
SOLID
  5
193
330
190
100
AcDbEntity
  8
VERMASSUNG
100
AcDbTrace
 10
143.9017857638
 20
76.0560743184
 30
0.0
 11
146.9017857638
 21
75.6060743184
 31
0.0
 12
146.9017857638
 22
76.5060743184
 32
0.0
 13
146.9017857638
 23
76.5060743184
 33
0.0
  0
SOLID
  5
194
330
190
100
AcDbEntity
  8
VERMASSUNG
100
AcDbTrace
 10
246.9017857638
 20
76.0560743184
 30
0.0
 11
243.9017857638
 21
76.5060743184
 31
0.0
 12
243.9017857638
 22
75.6060743184
 32
0.0
 13
243.9017857638
 23
75.6060743184
 33
0.0
  0
LINE
  5
195
330
190
100
AcDbEntity
  8
VERMASSUNG
100
AcDbLine
 10
143.9017857638
 20
128.8532917194
 30
0.0
 11
143.9017857638
 21
75.0560743184
 31
0.0
  0
LINE
  5
196
330
190
100
AcDbEntity
  8
VERMASSUNG
100
AcDbLine
 10
246.9017857638
 20
104.1456297119
 30
0.0
 11
246.9017857638
 21
75.0560743184
 31
0.0
  0
LINE
  5
197
330
190
100
AcDbEntity
  8
VERMASSUNG
100
AcDbLine
 10
143.9017857638
 20
76.0560743184
 30
0.0
 11
246.9017857638
 21
76.0560743184
 31
0.0
  0
MTEXT
  5
198
330
190
100
AcDbEntity
  8
VERMASSUNG
100
AcDbMText
 10
193.5017857318
 20
78.6342099144
 30
0.0
 40
2.0
 41
0.0
 71
     1
 72
     1
  1
103
  7
SLDTEXTSTYLE0
 73
     1
 44
1.0
  0
ENDBLK
  5
192
330
190
100
AcDbEntity
  8
0
100
AcDbBlockEnd
  0
BLOCK
  5
19B
330
19A
100
AcDbEntity
  8
0
100
AcDbBlockBegin
  2
_D_4
 70
     0
 10
0.0
 20
0.0
 30
0.0
  3
_D_4
  1

  0
SOLID
  5
19D
330
19A
100
AcDbEntity
  8
VERMASSUNG
100
AcDbTrace
 10
133.9017857638
 20
117.6456297119
 30
0.0
 11
134.3517857638
 21
120.6456297119
 31
0.0
 12
133.4517857638
 22
120.6456297119
 32
0.0
 13
133.4517857638
 23
120.6456297119
 33
0.0
  0
SOLID
  5
19E
330
19A
100
AcDbEntity
  8
VERMASSUNG
100
AcDbTrace
 10
133.9017857638
 20
180.6456297119
 30
0.0
 11
133.4517857638
 21
177.6456297119
 31
0.0
 12
134.3517857638
 22
177.6456297119
 32
0.0
 13
134.3517857638
 23
177.6456297119
 33
0.0
  0
LINE
  5
19F
330
19A
100
AcDbEntity
  8
VERMASSUNG
100
AcDbLine
 10
182.4017857638
 20
117.6456297119
 30
0.0
 11
132.9017857638
 21
117.6456297119
 31
0.0
  0
LINE
  5
1A0
330
19A
100
AcDbEntity
  8
VERMASSUNG
100
AcDbLine
 10
182.4017857638
 20
180.6456297119
 30
0.0
 11
132.9017857638
 21
180.6456297119
 31
0.0
  0
LINE
  5
1A1
330
19A
100
AcDbEntity
  8
VERMASSUNG
100
AcDbLine
 10
133.9017857638
 20
117.6456297119
 30
0.0
 11
133.9017857638
 21
180.6456297119
 31
0.0
  0
MTEXT
  5
1A2
330
19A
100
AcDbEntity
  8
VERMASSUNG
100
AcDbMText
 10
131.1236505076
 20
143.6406304021
 30
0.0
 40
2.0
 41
0.0
 71
     1
 72
     1
  1
PSC
  7
SLDTEXTSTYLE0
 11
6.123233995736766E-17
 21
1.0
 31
0.0
 73
     1
 44
1.0
  0
MTEXT
  5
1A3
330
19A
100
AcDbEntity
  8
VERMASSUNG
100
AcDbMText
 10
131.3236504589
 20
148.2406300385
 30
0.0
 40
2.0
 41
0.0
 71
     1
 72
     1
  1
%%c
  7
SLDTEXTSTYLE0
 11
6.123233995736766E-17
 21
1.0
 31
0.0
 73
     1
 44
1.0
  0
MTEXT
  5
1A4
330
19A
100
AcDbEntity
  8
VERMASSUNG
100
AcDbMText
 10
131.1236505076
 20
151.8506300528
 30
0.0
 40
2.0
 41
0.0
 71
     1
 72
     1
  1
63
  7
SLDTEXTSTYLE0
 11
6.123233995736766E-17
 21
1.0
 31
0.0
 73
     1
 44
1.0
  0
ENDBLK
  5
19C
330
19A
100
AcDbEntity
  8
0
100
AcDbBlockEnd
  0
BLOCK
  5
21C
330
21B
100
AcDbEntity
  8
0
100
AcDbBlockBegin
  2
SW_CENTERMARKSYMBOL_0
 70
     0
 10
0.0
 20
0.0
 30
0.0
  3
SW_CENTERMARKSYMBOL_0
  1

  0
LINE
  5
21E
330
21B
100
AcDbEntity
  8
VERMASSUNG
 62
     0
100
AcDbLine
 10
0.0
 20
0.0
 30
0.0
 11
0.0
 21
2.5
 31
0.0
  0
LINE
  5
21F
330
21B
100
AcDbEntity
  8
VERMASSUNG
 62
     0
100
AcDbLine
 10
0.0
 20
0.0
 30
0.0
 11
-2.5
 21
0.0
 31
0.0
  0
LINE
  5
220
330
21B
100
AcDbEntity
  8
VERMASSUNG
 62
     0
100
AcDbLine
 10
0.0
 20
0.0
 30
0.0
 11
0.0
 21
-2.5
 31
0.0
  0
LINE
  5
221
330
21B
100
AcDbEntity
  8
VERMASSUNG
 62
     0
100
AcDbLine
 10
0.0
 20
0.0
 30
0.0
 11
2.5
 21
0.0
 31
0.0
  0
LINE
  5
222
330
21B
100
AcDbEntity
  8
VERMASSUNG
 62
     0
100
AcDbLine
 10
0.0
 20
5.0
 30
0.0
 11
0.0
 21
34.0
 31
0.0
  0
LINE
  5
223
330
21B
100
AcDbEntity
  8
VERMASSUNG
 62
     0
100
AcDbLine
 10
-5.0
 20
0.0
 30
0.0
 11
-34.0
 21
0.0
 31
0.0
  0
LINE
  5
224
330
21B
100
AcDbEntity
  8
VERMASSUNG
 62
     0
100
AcDbLine
 10
0.0
 20
-5.0
 30
0.0
 11
0.0
 21
-48.8569986403
 31
0.0
  0
LINE
  5
225
330
21B
100
AcDbEntity
  8
VERMASSUNG
 62
     0
100
AcDbLine
 10
5.0
 20
0.0
 30
0.0
 11
34.0
 21
0.0
 31
0.0
  0
ENDBLK
  5
21D
330
21B
100
AcDbEntity
  8
0
100
AcDbBlockEnd
  0
ENDSEC
  0
SECTION
  2
ENTITIES
  0
MTEXT
  5
78
330
1F
100
AcDbEntity
  8
KOPF_DÜNN
100
AcDbMText
 10
13.8892156294
 20
23.8442973028
 30
0.0
 40
3.0
 41
0.0
 71
     1
 72
     1
  1
PS6.PSD.LBA.065
  7
SLDTEXTSTYLE0
 73
     1
 44
1.0
  0
MTEXT
  5
79
330
1F
100
AcDbEntity
  8
VERMASSUNG
100
AcDbMText
 10
13.9329988022
 20
28.8834360957
 30
0.0
 40
3.0
 41
0.0
 71
     1
 72
     1
  1
Klemmhalter links_Turning tool 90°/75°
  7
SLDTEXTSTYLE0
 73
     1
 44
1.0
  0
MTEXT
  5
7A
330
1F
100
AcDbEntity
  8
VERMASSUNG
100
AcDbMText
 10
98.8601118557
 20
13.8365368761
 30
0.0
 40
2.0
 41
0.0
 71
     1
 72
     1
  1
Datum: 07.02.2018
  7
SLDTEXTSTYLE0
 73
     1
 44
1.0
  0
MTEXT
  5
7C
330
1F
100
AcDbEntity
  8
VERMASSUNG
100
AcDbMText
 10
13.933048693
 20
18.0482802738
 30
0.0
 40
2.0
 41
0.0
 71
     1
 72
     1
  1
PSC Ø63 / SN .. 12 04 ..
  7
SLDTEXTSTYLE1
 73
     1
 44
1.0
  0
MTEXT
  5
7D
330
1F
100
AcDbEntity
  8
VERMASSUNG
100
AcDbMText
 10
13.9808475933
 20
13.9090974274
 30
0.0
 40
2.0
 41
0.0
 71
     1
 72
     1
  1
Gewicht: 1337g
  7
SLDTEXTSTYLE0
 73
     1
 44
1.0
  0
ARC
  5
7E
330
1F
100
AcDbEntity
  8
0
  6
Continuous
 62
     7
370
    25
100
AcDbCircle
 10
202.9017857638
 20
135.4956297119
 30
0.0
 40
2.499999999999997
100
AcDbArc
 50
246.7915012335
 51
338.6286669096
  0
ARC
  5
7F
330
1F
100
AcDbEntity
  8
0
  6
Continuous
 62
     7
370
    25
100
AcDbCircle
 10
202.9017857638
 20
135.4956297119
 30
0.0
 40
2.500000000000003
100
AcDbArc
 50
201.3713330904
 51
246.7915012335
  0
LINE
  5
80
330
1F
100
AcDbEntity
  8
0
  6
Continuous
 62
     7
370
    25
100
AcDbLine
 10
243.8428441039
 20
119.3268786906
 30
0.0
 11
243.3452886187
 21
119.8217085147
 31
0.0
  0
LINE
  5
81
330
1F
100
AcDbEntity
  8
0
  6
Continuous
 62
     7
370
    25
100
AcDbLine
 10
234.3419118324
 20
104.6745617591
 30
0.0
 11
234.7589139873
 21
104.2598439856
 31
0.0
  0
LINE
  5
82
330
1F
100
AcDbEntity
  8
0
  6
Continuous
 62
     7
370
    25
100
AcDbLine
 10
182.4017857638
 20
117.6456297119
 30
0.0
 11
219.1344587758
 21
117.6456297119
 31
0.0
  0
LINE
  5
83
330
1F
100
AcDbEntity
  8
0
  6
Continuous
 62
     7
370
    25
100
AcDbLine
 10
219.1344587758
 20
180.6456297119
 30
0.0
 11
182.4017857638
 21
180.6456297119
 31
0.0
  0
ARC
  5
84
330
1F
100
AcDbEntity
  8
0
  6
Continuous
 62
     7
370
    25
100
AcDbCircle
 10
182.4017857638
 20
118.1456297119
 30
0.0
 40
0.5
100
AcDbArc
 50
180.0
 51
270.0
  0
ARC
  5
85
330
1F
100
AcDbEntity
  8
0
  6
Continuous
 62
     7
370
    25
100
AcDbCircle
 10
182.4017857638
 20
180.1456297119
 30
0.0
 40
0.5
100
AcDbArc
 50
90.0
 51
180.0
  0
LWPOLYLINE
  5
86
330
1F
100
AcDbEntity
  8
0
  6
Continuous
 62
     7
370
    25
100
AcDbPolyline
 90
        3
 70
   128
 43
0.0
 10
181.7017857638
 20
126.605809433
 10
181.8272407073
 20
126.537507318
 10
181.9017857638
 20
126.4847695599
  0
LWPOLYLINE
  5
87
330
1F
100
AcDbEntity
  8
0
  6
Continuous
 62
     7
370
    25
100
AcDbPolyline
 90
        3
 70
   128
 43
0.0
 10
181.9017857638
 20
171.8064898638
 10
181.8272407073
 20
171.7537521057
 10
181.7017857638
 20
171.6854499907
  0
ARC
  5
88
330
1F
100
AcDbEntity
  8
0
  6
Continuous
 62
     7
370
    25
100
AcDbCircle
 10
219.1344587758
 20
116.6456297119
 30
0.0
 40
1.0
100
AcDbArc
 50
15.0
 51
90.0
  0
ARC
  5
89
330
1F
100
AcDbEntity
  8
0
  6
Continuous
 62
     7
370
    25
100
AcDbCircle
 10
219.1344587758
 20
181.6456297119
 30
0.0
 40
1.000000000000004
100
AcDbArc
 50
270.0
 51
330.0
  0
LINE
  5
8A
330
1F
100
AcDbEntity
  8
0
  6
Continuous
 62
     7
370
    25
100
AcDbLine
 10
226.7117297941
 20
181.1456297119
 30
0.0
 11
220.0004841796
 21
181.1456297119
 31
0.0
  0
LINE
  5
8B
330
1F
100
AcDbEntity
  8
0
  6
Continuous
 62
     7
370
    25
100
AcDbLine
 10
220.1003846021
 20
116.904448757
 30
0.0
 11
223.3205010233
 21
104.8868106668
 31
0.0
  0
ARC
  5
8C
330
1F
100
AcDbEntity
  8
0
  6
Continuous
 62
     7
370
    25
100
AcDbCircle
 10
202.9131035686
 20
134.2077054906
 30
0.0
 40
3.030684866456891
100
AcDbArc
 50
186.4808303491
 51
349.2694806798
  0
LWPOLYLINE
  5
8D
330
1F
100
AcDbEntity
  8
0
  6
Continuous
 62
     7
370
    25
100
AcDbPolyline
 90
       18
 70
   128
 43
0.0
 10
205.6512613501
 20
134.4775299979
 10
205.7154620782
 20
134.2396107907
 10
205.7578477984
 20
133.6656980334
 10
205.646262475
 20
133.0987899266
 10
205.3867217017
 20
132.5694486329
 10
204.9932173888
 20
132.1062110786
 10
204.4869634557
 20
131.7340505201
 10
203.8952521829
 20
131.4730302295
 10
203.2499828783
 20
131.3372218781
 10
202.5859421771
 20
131.3339469294
 10
201.9389286854
 20
131.4633819367
 10
201.3438230681
 20
131.7185490252
 10
200.8327076229
 20
132.0856920711
 10
200.4331367159
 20
132.5450182979
 10
200.166651318
 20
133.0717653097
 10
200.0476177261
 20
133.6375360388
 10
200.0824530719
 20
134.2118296387
 10
200.253305117
 20
134.7304359473
  0
LWPOLYLINE
  5
8E
330
1F
100
AcDbEntity
  8
0
  6
Continuous
 62
     7
370
    25
100
AcDbPolyline
 90
       27
 70
   128
 43
0.0
 10
204.0110430591
 20
135.7359031951
 10
204.514981209
 20
135.4496249784
 10
204.9251663035
 20
135.0672225688
 10
205.2177598756
 20
134.6109198044
 10
205.3757574506
 20
134.1072353433
 10
205.3899767837
 20
133.5854414955
 10
205.2595914989
 20
133.0758630229
 10
204.9921791151
 20
132.608114774
 10
204.6032806679
 20
132.2093805768
 10
204.1154975216
 20
131.9028334136
 10
203.5571778597
 20
131.7062886912
 10
202.9607691913
 20
131.6311688745
 10
202.3609326205
 20
131.6818396542
 10
201.7925284685
 20
131.8553562287
 10
201.2885903185
 20
132.1416344454
 10
200.8784052241
 20
132.524036855
 10
200.585811652
 20
132.9803396193
 10
200.427814077
 20
133.4840240804
 10
200.4135947439
 20
134.0058179282
 10
200.5439800287
 20
134.5153964008
 10
200.8113924125
 20
134.9831446497
 10
201.2002908596
 20
135.3818788469
 10
201.6880740059
 20
135.6884260101
 10
202.2463936679
 20
135.8849707325
 10
202.8428023363
 20
135.9600905492
 10
203.4426389071
 20
135.9094197696
 10
204.0110430591
 20
135.7359031951
  0
LINE
  5
8F
330
1F
100
AcDbEntity
  8
0
  6
Continuous
 62
     7
370
    25
100
AcDbLine
 10
243.461848289
 20
119.4274841694
 30
0.0
 11
231.9988500703
 21
116.3583495654
 31
0.0
  0
ARC
  5
90
330
1F
100
AcDbEntity
  8
0
  6
Continuous
 62
     7
370
    25
100
AcDbCircle
 10
243.5652416259
 20
119.0479385263
 30
0.0
 40
0.3933765083402885
100
AcDbArc
 50
14.4988339705
 51
105.2383813171
  0
LINE
  5
91
330
1F
100
AcDbEntity
  8
0
  6
Continuous
 62
     7
370
    25
100
AcDbLine
 10
246.8892878701
 20
107.7157612695
 30
0.0
 11
243.9460901686
 21
119.1464243874
 31
0.0
  0
ARC
  5
92
330
1F
100
AcDbEntity
  8
0
  6
Continuous
 62
     7
370
    25
100
AcDbCircle
 10
246.4992490889
 20
107.6171108008
 30
0.0
 40
0.4023209736283977
100
AcDbArc
 50
284.9308045476
 51
14.1938540645
  0
LINE
  5
93
330
1F
100
AcDbEntity
  8
0
  6
Continuous
 62
     7
370
    25
100
AcDbLine
 10
235.1399098022
 20
104.1592385068
 30
0.0
 11
246.6029080208
 21
107.2283731108
 31
0.0
  0
ARC
  5
94
330
1F
100
AcDbEntity
  8
0
  6
Continuous
 62
     7
370
    25
100
AcDbCircle
 10
235.0365164652
 20
104.5387841499
 30
0.0
 40
0.3933765083403146
100
AcDbArc
 50
194.4988339705
 51
285.2383813171
  0
LINE
  5
95
330
1F
100
AcDbEntity
  8
0
  6
Continuous
 62
     7
370
    25
100
AcDbLine
 10
231.712470221
 20
115.8709614067
 30
0.0
 11
234.6556679225
 21
104.4402982888
 31
0.0
  0
ARC
  5
96
330
1F
100
AcDbEntity
  8
0
  6
Continuous
 62
     7
370
    25
100
AcDbCircle
 10
232.1025090022
 20
115.9696118754
 30
0.0
 40
0.4023209736284227
100
AcDbArc
 50
104.9308045476
 51
194.1938540645
  0
ARC
  5
97
330
1F
100
AcDbEntity
  8
0
  6
Continuous
 62
     7
370
    25
100
AcDbCircle
 10
246.4994854848
 20
107.6168851148
 30
0.0
 40
0.3822049249469437
100
AcDbArc
 50
284.9308045476
 51
14.1938540645
  0
LINE
  5
98
330
1F
100
AcDbEntity
  8
0
  6
Continuous
 62
     7
370
    25
100
AcDbLine
 10
246.8700223269
 20
107.7106030601
 30
0.0
 11
243.9268246254
 21
119.141266178
 31
0.0
  0
ARC
  5
99
330
1F
100
AcDbEntity
  8
0
  6
Continuous
 62
     7
370
    25
100
AcDbCircle
 10
243.5650185099
 20
119.0477046099
 30
0.0
 40
0.3737076829232618
100
AcDbArc
 50
14.4988339705
 51
105.2383813172
  0
LINE
  5
9A
330
1F
100
AcDbEntity
  8
0
  6
Continuous
 62
     7
370
    25
100
AcDbLine
 10
243.4667948397
 20
119.4082729709
 30
0.0
 11
232.0037966211
 21
116.3391383669
 31
0.0
  0
ARC
  5
9B
330
1F
100
AcDbEntity
  8
0
  6
Continuous
 62
     7
370
    25
100
AcDbCircle
 10
232.1022726064
 20
115.9698375613
 30
0.0
 40
0.3822049249471052
100
AcDbArc
 50
104.9308045476
 51
194.1938540645
  0
LINE
  5
9C
330
1F
100
AcDbEntity
  8
0
  6
Continuous
 62
     7
370
    25
100
AcDbLine
 10
231.7317357643
 20
115.8761196161
 30
0.0
 11
234.6749334658
 21
104.4454564982
 31
0.0
  0
ARC
  5
9D
330
1F
100
AcDbEntity
  8
0
  6
Continuous
 62
     7
370
    25
100
AcDbCircle
 10
235.0367395808
 20
104.5390180658
 30
0.0
 40
0.3737076823080774
100
AcDbArc
 50
194.4988339232
 51
285.2383814108
  0
LINE
  5
9E
330
1F
100
AcDbEntity
  8
0
  6
Continuous
 62
     7
370
    25
100
AcDbLine
 10
235.1349632514
 20
104.1784497056
 30
0.0
 11
246.5979614701
 21
107.2475843093
 31
0.0
  0
LINE
  5
9F
330
1F
100
AcDbEntity
  8
0
  6
Continuous
 62
     7
370
    25
100
AcDbLine
 10
232.0748482617
 20
115.9969327905
 30
0.0
 11
231.7317357643
 21
115.8761196161
 31
0.0
  0
LINE
  5
A0
330
1F
100
AcDbEntity
  8
0
  6
Continuous
 62
     7
370
    25
100
AcDbLine
 10
232.0748482617
 20
115.9969327905
 30
0.0
 11
232.0037966211
 21
116.3391383669
 31
0.0
  0
LINE
  5
A1
330
1F
100
AcDbEntity
  8
0
  6
Continuous
 62
     7
370
    25
100
AcDbLine
 10
233.576656578
 20
115.1578947319
 30
0.0
 11
232.0748482617
 21
115.9969327905
 31
0.0
  0
LINE
  5
A2
330
1F
100
AcDbEntity
  8
0
  6
Continuous
 62
     7
370
    25
100
AcDbLine
 10
243.5378464803
 20
119.0660673945
 30
0.0
 11
243.4667948397
 21
119.4082729709
 31
0.0
  0
LINE
  5
A3
330
1F
100
AcDbEntity
  8
0
  6
Continuous
 62
     7
370
    25
100
AcDbLine
 10
242.5242865575
 20
117.5535577399
 30
0.0
 11
243.5378464803
 21
119.0660673945
 31
0.0
  0
LINE
  5
A4
330
1F
100
AcDbEntity
  8
0
  6
Continuous
 62
     7
370
    25
100
AcDbLine
 10
231.2575921464
 20
116.2000425617
 30
0.0
 11
232.278423149
 21
112.2353835496
 31
0.0
  0
LINE
  5
A5
330
1F
100
AcDbEntity
  8
0
  6
Continuous
 62
     7
370
    25
100
AcDbLine
 10
235.8740174854
 20
106.2355044419
 30
0.0
 11
235.0180459632
 21
104.5662696726
 31
0.0
  0
LINE
  5
A6
330
1F
100
AcDbEntity
  8
0
  6
Continuous
 62
     7
370
    25
100
AcDbLine
 10
235.0180459632
 20
104.5662696726
 30
0.0
 11
234.6749334658
 21
104.4454564982
 31
0.0
  0
ARC
  5
A7
330
1F
100
AcDbEntity
  8
0
  6
Continuous
 62
     7
370
    25
100
AcDbCircle
 10
236.4919898883
 20
113.4192502689
 30
0.0
 40
1.005802434071053
100
AcDbArc
 50
104.9308045476
 51
194.1938540645
  0
LINE
  5
A8
330
1F
100
AcDbEntity
  8
0
  6
Continuous
 62
     7
370
    25
100
AcDbLine
 10
240.7217141299
 20
115.5929572885
 30
0.0
 11
236.2328425586
 21
114.391094494
 31
0.0
  0
ARC
  5
A9
330
1F
100
AcDbEntity
  8
0
  6
Continuous
 62
     7
370
    25
100
AcDbCircle
 10
240.9801974723
 20
114.6440931808
 30
0.0
 40
0.983441270850821
100
AcDbArc
 50
14.4988339705
 51
105.2383813171
  0
LINE
  5
AA
330
1F
100
AcDbEntity
  8
0
  6
Continuous
 62
     7
370
    25
100
AcDbLine
 10
243.0848651559
 20
110.414098579
 30
0.0
 11
241.9323188291
 21
114.8903078335
 31
0.0
  0
ARC
  5
AB
330
1F
100
AcDbEntity
  8
0
  6
Continuous
 62
     7
370
    25
100
AcDbCircle
 10
242.1097682029
 20
110.1674724073
 30
0.0
 40
1.005802434071127
100
AcDbArc
 50
284.9308045476
 51
14.1938540645
  0
LINE
  5
AC
330
1F
100
AcDbEntity
  8
0
  6
Continuous
 62
     7
370
    25
100
AcDbLine
 10
237.8800439613
 20
107.9937653877
 30
0.0
 11
242.3689155326
 21
109.1956281822
 31
0.0
  0
ARC
  5
AD
330
1F
100
AcDbEntity
  8
0
  6
Continuous
 62
     7
370
    25
100
AcDbCircle
 10
237.6215606184
 20
108.942629495
 30
0.0
 40
0.9834412705999275
100
AcDbArc
 50
194.4988339543
 51
285.2383813499
  0
LINE
  5
AE
330
1F
100
AcDbEntity
  8
0
  6
Continuous
 62
     7
370
    25
100
AcDbLine
 10
235.5168929353
 20
113.1726240972
 30
0.0
 11
236.6694392618
 21
108.6964148426
 31
0.0
  0
CIRCLE
  5
AF
330
1F
100
AcDbEntity
  8
0
  6
Continuous
 62
     7
370
    25
100
AcDbCircle
 10
239.3000565763
 20
111.7659857243
 30
0.0
 40
2.565052045882584
  0
SPLINE
  5
B0
330
1F
100
AcDbEntity
  8
0
  6
Continuous
 62
     7
370
    25
100
AcDbSpline
210
0.0
220
0.0
230
1.0
 70
     8
 71
     3
 72
    11
 73
     7
 74
     0
 42
0.000000001
 43
0.00000001
 40
0.0
 40
0.0
 40
0.0
 40
0.0
 40
0.0079305662173071
 40
0.3127032304055393
 40
0.6558289395553404
 40
1.0
 40
1.0
 40
1.0
 40
1.0
 10
234.1772472228665
 20
114.8066381981585
 30
0.0
 10
234.1757384917603
 20
114.8075548435825
 30
0.0
 10
234.1162490331555
 20
114.8436982887472
 30
0.0
 10
233.9845870372069
 20
114.9227096068743
 30
0.0
 10
233.7744333533317
 20
115.0461136102319
 30
0.0
 10
233.6426489827077
 20
115.1205965961053
 30
0.0
 10
233.5766565779791
 20
115.1578947318848
 30
0.0
  0
ARC
  5
B1
330
1F
100
AcDbEntity
  8
0
  6
Continuous
 62
     7
370
    25
100
AcDbCircle
 10
238.7850037596
 20
112.3064106053
 30
0.0
 40
2.58311117357913
100
AcDbArc
 50
233.5428167742
 51
36.7719167833
  0
LINE
  5
B2
330
1F
100
AcDbEntity
  8
0
  6
Continuous
 62
     7
370
    25
100
AcDbLine
 10
243.5378464803
 20
119.0660673945
 30
0.0
 11
243.9268246254
 21
119.141266178
 31
0.0
  0
LINE
  5
B3
330
1F
100
AcDbEntity
  8
0
  6
Continuous
 62
     7
370
    25
100
AcDbLine
 10
246.4810441818
 20
107.6354042766
 30
0.0
 11
246.8700223269
 21
107.7106030601
 31
0.0
  0
LINE
  5
B4
330
1F
100
AcDbEntity
  8
0
  6
Continuous
 62
     7
370
    25
100
AcDbLine
 10
244.821647465
 20
108.6311674499
 30
0.0
 11
246.4810441818
 21
107.6354042766
 31
0.0
  0
ARC
  5
B5
330
1F
100
AcDbEntity
  8
0
  6
Continuous
 62
     7
370
    25
100
AcDbCircle
 10
243.0689903902
 20
119.5438282232
 30
0.0
 40
0.3918649863280266
100
AcDbArc
 50
45.1635669451
 51
68.7151967577
  0
SPLINE
  5
B6
330
1F
100
AcDbEntity
  8
0
  6
Continuous
 62
     7
370
    25
100
AcDbSpline
210
0.0
220
0.0
230
1.0
 70
     8
 71
     3
 72
    11
 73
     7
 74
     0
 42
0.000000001
 43
0.00000001
 40
0.0
 40
0.0
 40
0.0
 40
0.0
 40
0.3441710604446265
 40
0.6872967695943976
 40
0.9920694337825762
 40
1.0
 40
1.0
 40
1.0
 40
1.0
 10
242.5242865575464
 20
117.553557739948
 30
0.0
 10
242.4813979682025
 20
117.4871075079849
 30
0.0
 10
242.3957510550937
 20
117.354408873451
 30
0.0
 10
242.2769553424436
 20
117.142931055845
 30
0.0
 10
242.2090558520066
 20
117.0104885976448
 30
0.0
 10
242.1800804252528
 20
116.9506593212762
 30
0.0
 10
242.1793455702267
 20
116.9491419719435
 30
0.0
  0
LINE
  5
B7
330
1F
100
AcDbEntity
  8
0
  6
Continuous
 62
     7
370
    25
100
AcDbLine
 10
246.4810441818
 20
107.6354042766
 30
0.0
 11
246.5979614701
 21
107.2475843093
 31
0.0
  0
LINE
  5
B8
330
1F
100
AcDbEntity
  8
0
  6
Continuous
 62
     7
370
    25
100
AcDbLine
 10
235.0180459632
 20
104.5662696726
 30
0.0
 11
235.1349632514
 21
104.1784497056
 31
0.0
  0
SPLINE
  5
B9
330
1F
100
AcDbEntity
  8
0
  6
Continuous
 62
     7
370
    25
100
AcDbSpline
210
0.0
220
0.0
230
1.0
 70
     8
 71
     3
 72
    11
 73
     7
 74
     0
 42
0.000000001
 43
0.00000001
 40
0.0
 40
0.0
 40
0.0
 40
0.0
 40
0.0079305662173201
 40
0.3127032304055246
 40
0.6558289395553359
 40
1.0
 40
1.0
 40
1.0
 40
1.0
 10
236.2318368698393
 20
106.8271123620235
 30
0.0
 10
236.2309041937426
 20
106.8257917500768
 30
0.0
 10
236.1941286571229
 20
106.7737198537558
 30
0.0
 10
236.1137053420881
 20
106.6537326133325
 30
0.0
 10
235.98801150801
 20
106.4491151285234
 30
0.0
 10
235.9120540024274
 20
106.3067801660515
 30
0.0
 10
235.8740174854501
 20
106.2355044418819
 30
0.0
  0
SPLINE
  5
BA
330
1F
100
AcDbEntity
  8
0
  6
Continuous
 62
     7
370
    25
100
AcDbSpline
210
0.0
220
0.0
230
1.0
 70
     8
 71
     3
 72
    11
 73
     7
 74
     0
 42
0.000000001
 43
0.00000001
 40
0.0
 40
0.0
 40
0.0
 40
0.0
 40
0.3441710604446194
 40
0.687296769594382
 40
0.9920694337826217
 40
1.0
 40
1.0
 40
1.0
 40
1.0
 10
244.8216474650174
 20
108.6311674499452
 30
0.0
 10
244.7508029879223
 20
108.6732910779311
 30
0.0
 10
244.6093292097721
 20
108.7574103917425
 30
0.0
 10
244.4060736473243
 20
108.8739540623031
 30
0.0
 10
244.286935475975
 20
108.9405101626537
 30
0.0
 10
244.2352461272351
 20
108.9688962277706
 30
0.0
 10
244.2339352171995
 20
108.9696161358085
 30
0.0
  0
CIRCLE
  5
BB
330
1F
100
AcDbEntity
  8
0
  6
Continuous
 62
     7
370
    25
100
AcDbCircle
 10
233.0893067249
 20
122.8137581632
 30
0.0
 40
3.482890063001464
  0
CIRCLE
  5
BC
330
1F
100
AcDbEntity
  8
0
  6
Continuous
 62
     7
370
    25
100
AcDbCircle
 10
233.0729499939
 20
122.8131964118
 30
0.0
 40
1.99157836674147
  0
SPLINE
  5
BD
330
1F
100
AcDbEntity
  8
0
  6
Continuous
 62
     7
370
    25
100
AcDbSpline
210
0.0
220
0.0
230
1.0
 70
     8
 71
     3
 72
    21
 73
    17
 74
     0
 42
0.000000001
 43
0.00000001
 40
0.0
 40
0.0
 40
0.0
 40
0.0
 40
0.0538225851026
 40
0.1077053067888385
 40
0.1969453270510085
 40
0.2866814239005956
 40
0.3784666495718891
 40
0.4712197678989249
 40
0.5549646986906588
 40
0.6395553515604687
 40
0.7265347692485074
 40
0.8141859457773424
 40
0.860508445501261
 40
0.9068906106970706
 40
0.9534250615553947
 40
1.0
 40
1.0
 40
1.0
 40
1.0
 10
232.0613884929836
 20
121.403906005934
 30
0.0
 10
232.0888305999911
 20
121.4037113075552
 30
0.0
 10
232.1437454753828
 20
121.403321693259
 30
0.0
 10
232.2467283234545
 20
121.402018510871
 30
0.0
 10
232.3717877133996
 20
121.3996697840036
 30
0.0
 10
232.5225188334782
 20
121.395461592506
 30
0.0
 10
232.6803874795577
 20
121.3894652248936
 30
0.0
 10
232.8390537354177
 20
121.3817042041739
 30
0.0
 10
232.9957896099409
 20
121.3723704012951
 30
0.0
 10
233.1496482004299
 20
121.3616922395093
 30
0.0
 10
233.3049347812458
 20
121.3494586753284
 30
0.0
 10
233.4355451630639
 20
121.3380466949152
 30
0.0
 10
233.5407253246879
 20
121.3282534034549
 30
0.0
 10
233.621135532971
 20
121.320464826315
 30
0.0
 10
233.7009468365969
 20
121.3124770424126
 30
0.0
 10
233.7535539380227
 20
121.3070053942549
 30
0.0
 10
233.7798689265431
 20
121.3042683805333
 30
0.0
  0
SPLINE
  5
BE
330
1F
100
AcDbEntity
  8
0
  6
Continuous
 62
     7
370
    25
100
AcDbSpline
210
0.0
220
0.0
230
1.0
 70
     8
 71
     3
 72
    13
 73
     9
 74
     0
 42
0.000000001
 43
0.00000001
 40
0.0
 40
0.0
 40
0.0
 40
0.0
 40
0.2161241182544832
 40
0.4396369202065141
 40
0.5932538221761772
 40
0.7520048557756949
 40
0.8754343578245731
 40
1.0
 40
1.0
 40
1.0
 40
1.0
 10
233.7798689265431
 20
121.3042683805333
 30
0.0
 10
233.8400490880978
 20
121.408488969802
 30
0.0
 10
233.9624668038858
 20
121.6204931609967
 30
0.0
 10
234.1518075994913
 20
121.9227070141136
 30
0.0
 10
234.3326848561328
 20
122.1917677647074
 30
0.0
 10
234.4817717578998
 20
122.4008218894495
 30
0.0
 10
234.6190109957783
 20
122.5852372419405
 30
0.0
 10
234.7007111138305
 20
122.6908011490895
 30
0.0
 10
234.7417483192274
 20
122.743824912622
 30
0.0
  0
SPLINE
  5
BF
330
1F
100
AcDbEntity
  8
0
  6
Continuous
 62
     7
370
    25
100
AcDbSpline
210
0.0
220
0.0
230
1.0
 70
     8
 71
     3
 72
    13
 73
     9
 74
     0
 42
0.000000001
 43
0.00000001
 40
0.0
 40
0.0
 40
0.0
 40
0.0
 40
0.2161241182544768
 40
0.4396369202065188
 40
0.5932538221761655
 40
0.752004855775684
 40
0.875434357824566
 40
1.0
 40
1.0
 40
1.0
 40
1.0
 10
234.7417483192274
 20
122.743824912622
 30
0.0
 10
234.6842601471915
 20
122.8548679207643
 30
0.0
 10
234.5673184420905
 20
123.0807501892701
 30
0.0
 10
234.4048704382554
 20
123.4033607835627
 30
0.0
 10
234.2637722259495
 20
123.6910896961772
 30
0.0
 10
234.1565936294918
 20
123.915002113872
 30
0.0
 10
234.0636881285403
 20
124.112761275712
 30
0.0
 10
234.0114073996474
 20
124.2260934024916
 30
0.0
 10
233.9851472783521
 20
124.2830190701113
 30
0.0
  0
SPLINE
  5
C0
330
1F
100
AcDbEntity
  8
0
  6
Continuous
 62
     7
370
    25
100
AcDbSpline
210
0.0
220
0.0
230
1.0
 70
     8
 71
     3
 72
    21
 73
    17
 74
     0
 42
0.000000001
 43
0.00000001
 40
0.0
 40
0.0
 40
0.0
 40
0.0
 40
0.0463441181621944
 40
0.092725534486076
 40
0.1392414439767101
 40
0.1858139143786095
 40
0.2698632151425042
 40
0.3544578695509243
 40
0.4411629460629661
 40
0.5287781323350398
 40
0.6175745932653405
 40
0.7073069233145554
 40
0.7994891714232248
 40
0.892294764127083
 40
0.9461148247570723
 40
0.9999999999999999
 40
0.9999999999999999
 40
0.9999999999999999
 40
0.9999999999999999
 10
233.9851472783521
 20
124.2830190701113
 30
0.0
 10
233.9589630524556
 20
124.285742587963
 30
0.0
 10
233.9065735273628
 20
124.2911918155778
 30
0.0
 10
233.8269107395042
 20
124.299166503038
 30
0.0
 10
233.7463727802046
 20
124.3069694310764
 30
0.0
 10
233.6430711790294
 20
124.316588921913
 30
0.0
 10
233.5159021946874
 20
124.3277196091565
 30
0.0
 10
233.3630349884852
 20
124.3398376191715
 30
0.0
 10
233.207009960427
 20
124.3507544531771
 30
0.0
 10
233.048993381917
 20
124.3602010873416
 30
0.0
 10
232.8915491641945
 20
124.3679407410492
 30
0.0
 10
232.7354755689352
 20
124.3739603076169
 30
0.0
 10
232.582249346467
 20
124.378314941311
 30
0.0
 10
232.4539039603639
 20
124.3807450623401
 30
0.0
 10
232.3490563956285
 20
124.3820720370476
 30
0.0
 10
232.294141094993
 20
124.3824617308257
 30
0.0
 10
232.2666668447926
 20
124.382656695512
 30
0.0
  0
SPLINE
  5
C1
330
1F
100
AcDbEntity
  8
0
  6
Continuous
 62
     7
370
    25
100
AcDbSpline
210
0.0
220
0.0
230
1.0
 70
     8
 71
     3
 72
    10
 73
     6
 74
     0
 42
0.000000001
 43
0.00000001
 40
0.0
 40
0.0
 40
0.0
 40
0.0
 40
0.4391165375904103
 40
0.7513669429073462
 40
1.0
 40
1.0
 40
1.0
 40
1.0
 10
232.2666668447926
 20
124.382656695512
 30
0.0
 10
232.1182277108383
 20
124.1872529360141
 30
0.0
 10
231.8642353221685
 20
123.8528999503302
 30
0.0
 10
231.5298910670017
 20
123.33217135852
 30
0.0
 10
231.3739252628697
 20
123.0625986027177
 30
0.0
 10
231.3047874521084
 20
122.9431001634233
 30
0.0
  0
SPLINE
  5
C2
330
1F
100
AcDbEntity
  8
0
  6
Continuous
 62
     7
370
    25
100
AcDbSpline
210
0.0
220
0.0
230
1.0
 70
     8
 71
     3
 72
    10
 73
     6
 74
     0
 42
0.000000001
 43
0.00000001
 40
0.0
 40
0.0
 40
0.0
 40
0.0
 40
0.439116537590417
 40
0.7513669429073498
 40
1.0
 40
1.0
 40
1.0
 40
1.0
 10
231.3047874521084
 20
122.9431001634233
 30
0.0
 10
231.4023620403554
 20
122.7334325097213
 30
0.0
 10
231.5693207262634
 20
122.3746727489227
 30
0.0
 10
231.8469032064431
 20
121.8184645987548
 30
0.0
 10
231.9955119713695
 20
121.5312325864224
 30
0.0
 10
232.0613884929836
 20
121.403906005934
 30
0.0
  0
LINE
  5
C3
330
1F
100
AcDbEntity
  8
0
  6
Continuous
 62
     7
370
    25
100
AcDbLine
 10
234.3516427835
 20
123.1317934094
 30
0.0
 11
234.7417483192
 21
122.7438249126
 31
0.0
  0
LINE
  5
C4
330
1F
100
AcDbEntity
  8
0
  6
Continuous
 62
     7
370
    25
100
AcDbLine
 10
234.3516427835
 20
123.1317934094
 30
0.0
 11
233.973342263
 21
123.9013904882
 31
0.0
  0
LINE
  5
C5
330
1F
100
AcDbEntity
  8
0
  6
Continuous
 62
     7
370
    25
100
AcDbLine
 10
233.973342263
 20
123.9013904882
 30
0.0
 11
233.7753824742
 21
124.3041107251
 31
0.0
  0
LINE
  5
C6
330
1F
100
AcDbEntity
  8
0
  6
Continuous
 62
     7
370
    25
100
AcDbLine
 10
233.3897633908
 20
121.6922368773
 30
0.0
 11
233.7798689265
 21
121.3042683805
 31
0.0
  0
LINE
  5
C7
330
1F
100
AcDbEntity
  8
0
  6
Continuous
 62
     7
370
    25
100
AcDbLine
 10
233.3897633908
 20
121.6922368773
 30
0.0
 11
233.8707030871
 21
122.4120151434
 31
0.0
  0
LINE
  5
C8
330
1F
100
AcDbEntity
  8
0
  6
Continuous
 62
     7
370
    25
100
AcDbLine
 10
233.8707030871
 20
122.4120151434
 30
0.0
 11
234.3516427835
 21
123.1317934094
 31
0.0
  0
LINE
  5
C9
330
1F
100
AcDbEntity
  8
0
  6
Continuous
 62
     7
370
    25
100
AcDbLine
 10
231.8676441694
 20
121.7804894648
 30
0.0
 11
232.530523174
 21
121.74205569
 31
0.0
  0
LINE
  5
CA
330
1F
100
AcDbEntity
  8
0
  6
Continuous
 62
     7
370
    25
100
AcDbLine
 10
232.530523174
 20
121.74205569
 30
0.0
 11
233.3897633908
 21
121.6922368773
 31
0.0
  0
ARC
  5
CB
330
1F
100
AcDbEntity
  8
0
  6
Continuous
 62
     7
370
    25
100
AcDbCircle
 10
232.629999695
 20
123.2457416027
 30
0.0
 40
1.494805912516417
100
AcDbArc
 50
326.0997334165
 51
26.0157418148
  0
ARC
  5
CC
330
1F
100
AcDbEntity
  8
0
  6
Continuous
 62
     7
370
    25
100
AcDbCircle
 10
232.6146751429
 20
123.2491396649
 30
0.0
 40
1.509431568923296
100
AcDbArc
 50
266.8040592644
 51
326.3171158408
  0
ARC
  5
CD
330
1F
100
AcDbEntity
  8
0
  6
Continuous
 62
     7
370
    25
100
AcDbCircle
 10
232.6145802863
 20
123.2151638155
 30
0.0
 40
1.475504370479665
100
AcDbArc
 50
231.6390351602
 51
266.7341834294
  0
ARC
  5
CE
330
1F
100
AcDbEntity
  8
0
  6
Continuous
 62
     7
370
    25
100
AcDbCircle
 10
232.6552329388
 20
123.2536987337
 30
0.0
 40
1.46864454498331
100
AcDbArc
 50
26.1685505531
 51
47.5410561282
  0
ELLIPSE
  5
CF
330
1F
100
AcDbEntity
  8
0
  6
Continuous
 62
     7
370
    25
100
AcDbEllipse
 10
235.9179154763
 20
117.7004890446
 30
0.0
 11
1.528630479212893
 21
1.651333159154191
 31
0.0
210
0.0
220
0.0
230
1.0
 40
0.9902135798
 41
3.246960513168232
 42
3.319147251979827
  0
ELLIPSE
  5
D0
330
1F
100
AcDbEntity
  8
0
  6
Continuous
 62
     7
370
    25
100
AcDbEllipse
 10
235.9179154763
 20
117.7004890446
 30
0.0
 11
1.528630479212893
 21
1.651333159154191
 31
0.0
210
0.0
220
0.0
230
1.0
 40
0.9902135798
 41
4.73982395435809
 42
4.955474438880309
  0
ARC
  5
D1
330
1F
100
AcDbEntity
  8
0
  6
Continuous
 62
     7
370
    25
100
AcDbCircle
 10
238.1089896119
 20
113.0008385204
 30
0.0
 40
2.790531413466322
100
AcDbArc
 50
330.5152428201
 51
19.542293768
  0
LINE
  5
D2
330
1F
100
AcDbEntity
  8
0
  6
Continuous
 62
     7
370
    25
100
AcDbLine
 10
240.5381100046
 20
111.6273612955
 30
0.0
 11
241.0657419357
 21
111.1026197873
 31
0.0
  0
LINE
  5
D3
330
1F
100
AcDbEntity
  8
0
  6
Continuous
 62
     7
370
    25
100
AcDbLine
 10
231.4127767662
 20
115.5973432902
 30
0.0
 11
232.278423149
 21
112.2353835496
 31
0.0
  0
LWPOLYLINE
  5
D4
330
1F
100
AcDbEntity
  8
0
  6
Continuous
 62
     7
370
    25
100
AcDbPolyline
 90
        3
 70
   128
 43
0.0
 10
231.0749795437
 20
116.1511493623
 10
231.0760442619
 20
116.1275580721
 10
231.111734792
 20
115.8967361249
  0
LINE
  5
D5
330
1F
100
AcDbEntity
  8
0
  6
Continuous
 62
     7
370
    25
100
AcDbLine
 10
231.111734792
 20
115.8967361249
 30
0.0
 11
231.9773811748
 21
112.5347763844
 31
0.0
  0
ELLIPSE
  5
D6
330
1F
100
AcDbEntity
  8
0
  6
Continuous
 62
     7
370
    25
100
AcDbEllipse
 10
215.9029280848
 20
149.1456297119
 30
0.0
 11
0.9496107280742194
 21
31.49898525208675
 31
0.0
210
0.0
220
0.0
230
1.0
 40
0.266256518
 41
0.4848126013508586
 42
2.882273071111316
  0
ELLIPSE
  5
D7
330
1F
100
AcDbEntity
  8
0
  6
Continuous
 62
     7
370
    25
100
AcDbEllipse
 10
211.7412219626
 20
132.6002932305
 30
0.0
 11
-0.2315443019953705
 21
3.339233589693862
 31
0.0
210
0.0
220
0.0
230
1.0
 40
0.2180210538
 41
0.0
 42
6.283185307179586
  0
SPLINE
  5
D8
330
1F
100
AcDbEntity
  8
0
  6
Continuous
 62
     7
370
    25
100
AcDbSpline
210
0.0
220
0.0
230
1.0
 70
    11
 71
     3
 72
    68
 73
    64
 74
     0
 42
0.000000001
 43
0.00000001
 40
0.0
 40
0.0
 40
0.0
 40
0.0
 40
0.03125
 40
0.03125
 40
0.0625
 40
0.0625
 40
0.09375
 40
0.09375
 40
0.125
 40
0.125
 40
0.15625
 40
0.15625
 40
0.1875000000000001
 40
0.1875000000000001
 40
0.2187500000000001
 40
0.2187500000000001
 40
0.2500000000000001
 40
0.2500000000000001
 40
0.2812500000000001
 40
0.2812500000000001
 40
0.3125000000000001
 40
0.3125000000000001
 40
0.3437500000000001
 40
0.3437500000000001
 40
0.3750000000000001
 40
0.3750000000000001
 40
0.4062500000000001
 40
0.4062500000000001
 40
0.4375000000000001
 40
0.4375000000000001
 40
0.4687500000000001
 40
0.4687500000000001
 40
0.5000000000000001
 40
0.5000000000000001
 40
0.5312500000000001
 40
0.5312500000000001
 40
0.5625000000000001
 40
0.5625000000000001
 40
0.5937500000000001
 40
0.5937500000000001
 40
0.6250000000000001
 40
0.6250000000000001
 40
0.6562500000000001
 40
0.6562500000000001
 40
0.6875000000000001
 40
0.6875000000000001
 40
0.7187500000000001
 40
0.7187500000000001
 40
0.7500000000000002
 40
0.7500000000000002
 40
0.7812500000000002
 40
0.7812500000000002
 40
0.8125000000000002
 40
0.8125000000000002
 40
0.8437500000000002
 40
0.8437500000000002
 40
0.8750000000000002
 40
0.8750000000000002
 40
0.9062500000000002
 40
0.9062500000000002
 40
0.9375000000000002
 40
0.9375000000000002
 40
1.0
 40
1.0
 40
1.0
 40
1.0
 10
199.9017857637934
 20
133.3956297118698
 30
0.0
 10
199.9017857637934
 20
133.2238841208065
 30
0.0
 10
199.9212564368937
 20
133.0559635246137
 30
0.0
 10
199.997525463014
 20
132.7273502717362
 30
0.0
 10
200.0552575700283
 20
132.5649712715552
 30
0.0
 10
200.2058764810068
 20
132.257016817476
 30
0.0
 10
200.2980299453171
 20
132.111757747968
 30
0.0
 10
200.5157304535769
 20
131.838047646278
 30
0.0
 10
200.6423708547123
 20
131.7091764478218
 30
0.0
 10
200.9189895609013
 20
131.4790006135107
 30
0.0
 10
201.0699444779088
 20
131.3761344932074
 30
0.0
 10
201.3978325061373
 20
131.1949114550341
 30
0.0
 10
201.5722814753511
 20
131.1182410330079
 30
0.0
 10
201.9332130780994
 20
130.9952457953002
 30
0.0
 10
202.1223648161087
 20
130.9479969044239
 30
0.0
 10
202.5096595013665
 20
130.8848376053948
 30
0.0
 10
202.7043810459157
 20
130.8692324730315
 30
0.0
 10
203.0959192834305
 20
130.8690578170533
 30
0.0
 10
203.2947856800078
 20
130.884999831986
 30
0.0
 10
203.6796258912339
 20
130.9477193907024
 30
0.0
 10
203.8666851425804
 20
130.9941520029699
 30
0.0
 10
204.2300298597356
 20
131.1176557596929
 30
0.0
 10
204.4055730827558
 20
131.1949483738721
 30
0.0
 10
204.7305545089949
 20
131.3743089492557
 30
0.0
 10
204.8820674075473
 20
131.4769893516873
 30
0.0
 10
205.1622715056576
 20
131.7099867945312
 30
0.0
 10
205.2863756056341
 20
131.8365082395134
 30
0.0
 10
205.5036839243936
 20
132.109123663817
 30
0.0
 10
205.597681925278
 20
132.2569896970413
 30
0.0
 10
205.74832859635
 20
132.5650014946424
 30
0.0
 10
205.8051306264693
 20
132.7243152453342
 30
0.0
 10
205.8820146291121
 20
133.0537740205556
 30
0.0
 10
205.9017138514172
 20
133.2250865313692
 30
0.0
 10
205.9018572738885
 20
133.5642701424633
 30
0.0
 10
205.882938414892
 20
133.7338018435377
 30
0.0
 10
205.8062464131542
 20
134.0726387556686
 30
0.0
 10
205.7487082455009
 20
134.2393852860665
 30
0.0
 10
205.5993437571498
 20
134.5587128508672
 30
0.0
 10
205.5064313716147
 20
134.7137291028623
 30
0.0
 10
205.2873312437629
 20
135.0066475419711
 30
0.0
 10
205.1632978845968
 20
135.1421243509927
 30
0.0
 10
204.8869945394069
 20
135.3912046945216
 30
0.0
 10
204.7328461979093
 20
135.5057258399076
 30
0.0
 10
204.4069819592807
 20
135.7031779216101
 30
0.0
 10
204.2348208892896
 20
135.7870382229402
 30
0.0
 10
203.871867412643
 20
135.9243632980196
 30
0.0
 10
203.6812257294238
 20
135.9772352121801
 30
0.0
 10
203.2977162241173
 20
136.0471763519126
 30
0.0
 10
203.1028231722254
 20
136.065122296671
 30
0.0
 10
202.7065016597257
 20
136.0654695884496
 30
0.0
 10
202.5111388203167
 20
136.0478121163153
 30
0.0
 10
202.1275377432082
 20
135.9785010392732
 30
0.0
 10
201.9370454511724
 20
135.9260295969739
 30
0.0
 10
201.5734794277715
 20
135.7891723095912
 30
0.0
 10
201.4011200750759
 20
135.705546426066
 30
0.0
 10
201.0749993264075
 20
135.5086822399609
 30
0.0
 10
200.9205748432069
 20
135.3943747697318
 30
0.0
 10
200.6437053133319
 20
135.1456403028364
 30
0.0
 10
200.5194555673606
 20
135.0103771803189
 30
0.0
 10
200.2999566994048
 20
134.718048067214
 30
0.0
 10
200.2065589296988
 20
134.5629029932846
 30
0.0
 10
199.9815976949985
 20
134.0843057032264
 30
0.0
 10
199.9017857637934
 20
133.7391208939962
 30
0.0
 10
199.9017857637934
 20
133.3956297118698
 30
0.0
  0
ELLIPSE
  5
D9
330
1F
100
AcDbEntity
  8
0
  6
Continuous
 62
     7
370
    25
100
AcDbEllipse
 10
284.9585304919
 20
149.1456297119
 30
0.0
 11
299.7022783439962
 21
3.329013400823214
 31
0.0
210
0.0
220
0.0
230
1.0
 40
0.1045157088
 41
1.791072011205094
 42
1.794943875089368
  0
SPLINE
  5
DA
330
1F
100
AcDbEntity
  8
0
  6
Continuous
 62
     7
370
    25
100
AcDbSpline
210
0.0
220
0.0
230
1.0
 70
     8
 71
     3
 72
    20
 73
    16
 74
     0
 42
0.000000001
 43
0.00000001
 40
0.0
 40
0.0
 40
0.0
 40
0.0
 40
0.2500000000000023
 40
0.2500000000000023
 40
0.3750000000000019
 40
0.3750000000000019
 40
0.5000000000000016
 40
0.5000000000000016
 40
0.6250000000000012
 40
0.6250000000000012
 40
0.7500000000000008
 40
0.7500000000000008
 40
0.8750000000000004
 40
0.8750000000000004
 40
1.0
 40
1.0
 40
1.0
 40
1.0
 10
218.0028815333874
 20
178.9456753097241
 30
0.0
 10
217.3854132120127
 20
178.9240983043998
 30
0.0
 10
216.7946746374876
 20
178.8721880303663
 30
0.0
 10
215.94808656879
 20
178.7434340429173
 30
0.0
 10
215.6763594133583
 20
178.6922501240351
 30
0.0
 10
215.1637180383333
 20
178.5742749849573
 30
0.0
 10
214.921054743192
 20
178.5072282177913
 30
0.0
 10
214.4632886753787
 20
178.3549420568959
 30
0.0
 10
214.2490629928511
 20
178.2696864286814
 30
0.0
 10
213.8622447527767
 20
178.0849236790878
 30
0.0
 10
213.6876107119108
 20
177.9847921095053
 30
0.0
 10
213.3752260876054
 20
177.7674414550368
 30
0.0
 10
213.2372575124892
 20
177.6496270220301
 30
0.0
 10
213.0050256016264
 20
177.4015777095292
 30
0.0
 10
212.9096416472375
 20
177.2707336303267
 30
0.0
 10
212.8344973552589
 20
177.1325785868554
 30
0.0
  0
SPLINE
  5
DB
330
1F
100
AcDbEntity
  8
0
  6
Continuous
 62
     7
370
    25
100
AcDbSpline
210
0.0
220
0.0
230
1.0
 70
     8
 71
     3
 72
    20
 73
    16
 74
     0
 42
0.000000001
 43
0.00000001
 40
0.0
 40
0.0
 40
0.0
 40
0.0
 40
0.2499999999999992
 40
0.2499999999999992
 40
0.3749999999999993
 40
0.3749999999999993
 40
0.4999999999999994
 40
0.4999999999999994
 40
0.6249999999999996
 40
0.6249999999999996
 40
0.7499999999999997
 40
0.7499999999999997
 40
0.8749999999999999
 40
0.8749999999999999
 40
1.0
 40
1.0
 40
1.0
 40
1.0
 10
212.8344973552589
 20
118.7646572095653
 30
0.0
 10
212.9848203571886
 20
118.6055675145516
 30
0.0
 10
213.2138442438193
 20
118.4721942955651
 30
0.0
 10
213.6826162079737
 20
118.3031787387237
 30
0.0
 10
213.8599832438865
 20
118.252328700121
 30
0.0
 10
214.2461529994906
 20
118.1628201432016
 30
0.0
 10
214.4562177429164
 20
118.1236611452663
 30
0.0
 10
214.9111348297038
 20
118.0546867316812
 30
0.0
 10
215.1583164555524
 20
118.0247038763173
 30
0.0
 10
215.6730032383152
 20
117.9742672631644
 30
0.0
 10
215.94138385663
 20
117.9535614909353
 30
0.0
 10
216.5000923055135
 20
117.9193641703484
 30
0.0
 10
216.7924495098942
 20
117.9058137493345
 30
0.0
 10
217.3901346957996
 20
117.8853327041796
 30
0.0
 10
217.6939810160737
 20
117.8783900633728
 30
0.0
 10
218.0028815333874
 20
117.8743831470155
 30
0.0
  0
ELLIPSE
  5
DC
330
1F
100
AcDbEntity
  8
0
  6
Continuous
 62
     7
370
    25
100
AcDbEllipse
 10
284.9585304919
 20
149.1456297119
 30
0.0
 11
299.7022783439962
 21
3.329013400823214
 31
0.0
210
0.0
220
0.0
230
1.0
 40
0.1045157088
 41
4.485919567599568
 42
4.489791431483842
  0
SPLINE
  5
DD
330
1F
100
AcDbEntity
  8
0
  6
Continuous
 62
     7
370
    25
100
AcDbSpline
210
0.0
220
0.0
230
1.0
 70
     8
 71
     3
 72
    12
 73
     8
 74
     0
 42
0.000000001
 43
0.00000001
 40
0.0
 40
0.0
 40
0.0
 40
0.0
 40
0.25
 40
0.25
 40
0.5
 40
0.5
 40
1.0
 40
1.0
 40
1.0
 40
1.0
 10
192.4295425773598
 20
119.0771377529968
 30
0.0
 10
192.366485622462
 20
119.0771377529968
 30
0.0
 10
192.3073554727165
 20
119.0850380840764
 30
0.0
 10
192.2089079221832
 20
119.1083488320814
 30
0.0
 10
192.1698756839951
 20
119.1230539583651
 30
0.0
 10
192.0699857995381
 20
119.1709874865517
 30
0.0
 10
192.0276868259288
 20
119.2070574593165
 30
0.0
 10
191.9965298754676
 20
119.2448872517527
 30
0.0
  0
LINE
  5
DE
330
1F
100
AcDbEntity
  8
0
  6
Continuous
 62
     7
370
    25
100
AcDbLine
 10
195.3740289502
 20
119.077137753
 30
0.0
 11
192.4295425774
 21
119.077137753
 31
0.0
  0
SPLINE
  5
DF
330
1F
100
AcDbEntity
  8
0
  6
Continuous
 62
     7
370
    25
100
AcDbSpline
210
0.0
220
0.0
230
1.0
 70
     8
 71
     3
 72
    12
 73
     8
 74
     0
 42
0.000000001
 43
0.00000001
 40
0.0
 40
0.0
 40
0.0
 40
0.0
 40
0.4999999999999972
 40
0.4999999999999972
 40
0.7499999999999986
 40
0.7499999999999986
 40
1.0
 40
1.0
 40
1.0
 40
1.0
 10
195.8070416521192
 20
119.2448872517527
 30
0.0
 10
195.7758964541571
 20
119.2070717288325
 30
0.0
 10
195.7336221878226
 20
119.1710048707489
 30
0.0
 10
195.6336766539974
 20
119.1230448057376
 30
0.0
 10
195.5939463492933
 20
119.10818383184
 30
0.0
 10
195.4970582992871
 20
119.0852326857088
 30
0.0
 10
195.4369930575405
 20
119.0771377529968
 30
0.0
 10
195.374028950227
 20
119.0771377529968
 30
0.0
  0
ELLIPSE
  5
E0
330
1F
100
AcDbEntity
  8
0
  6
Continuous
 62
     7
370
    25
100
AcDbEllipse
 10
179.5546315744
 20
149.1456297119
 30
0.0
 11
-14.75368316065618
 21
31.09325491558116
 31
0.0
210
0.0
220
0.0
230
1.0
 40
0.3419987131
 41
3.300734856217121
 42
4.231496223360772
  0
SPLINE
  5
E1
330
1F
100
AcDbEntity
  8
0
  6
Continuous
 62
     7
370
    25
100
AcDbSpline
210
0.0
220
0.0
230
1.0
 70
     8
 71
     3
 72
    12
 73
     8
 74
     0
 42
0.000000001
 43
0.00000001
 40
0.0
 40
0.0
 40
0.0
 40
0.0
 40
0.2500000000000032
 40
0.2500000000000032
 40
0.5000000000000064
 40
0.5000000000000064
 40
1.0
 40
1.0
 40
1.0
 40
1.0
 10
195.374028950227
 20
139.7575632805337
 30
0.0
 10
195.4370859051248
 20
139.7575632805337
 30
0.0
 10
195.4962160548704
 20
139.732216927153
 30
0.0
 10
195.5946636054036
 20
139.6580975450135
 30
0.0
 10
195.6336958435917
 20
139.6116010303155
 30
0.0
 10
195.7335857280487
 20
139.4615265233069
 30
0.0
 10
195.775884701658
 20
139.3504088141921
 30
0.0
 10
195.8070416521192
 20
139.2362603911846
 30
0.0
  0
LINE
  5
E2
330
1F
100
AcDbEntity
  8
0
  6
Continuous
 62
     7
370
    25
100
AcDbLine
 10
192.4295425774
 20
139.7575632805
 30
0.0
 11
195.3740289502
 21
139.7575632805
 31
0.0
  0
SPLINE
  5
E3
330
1F
100
AcDbEntity
  8
0
  6
Continuous
 62
     7
370
    25
100
AcDbSpline
210
0.0
220
0.0
230
1.0
 70
     8
 71
     3
 72
    12
 73
     8
 74
     0
 42
0.000000001
 43
0.00000001
 40
0.0
 40
0.0
 40
0.0
 40
0.0
 40
0.4999999999999953
 40
0.4999999999999953
 40
0.7499999999999977
 40
0.7499999999999977
 40
1.0
 40
1.0
 40
1.0
 40
1.0
 10
191.9965298754676
 20
139.2362603911845
 30
0.0
 10
192.0276750734297
 20
139.3503657570499
 30
0.0
 10
192.0699493397642
 20
139.4614720842686
 30
0.0
 10
192.1698948735895
 20
139.6116296916989
 30
0.0
 10
192.2096251782935
 20
139.6586223833163
 30
0.0
 10
192.3065132282997
 20
139.7315979678548
 30
0.0
 10
192.3665784700463
 20
139.7575632805338
 30
0.0
 10
192.4295425773598
 20
139.7575632805338
 30
0.0
  0
ELLIPSE
  5
E4
330
1F
100
AcDbEntity
  8
0
  6
Continuous
 62
     7
370
    25
100
AcDbEllipse
 10
208.2489399532
 20
149.1456297119
 30
0.0
 11
14.75368316065621
 21
31.09325491558116
 31
0.0
210
0.0
220
0.0
230
1.0
 40
0.3419987131
 41
2.051689083818828
 42
2.982450450962507
  0
SPLINE
  5
E5
330
1F
100
AcDbEntity
  8
0
  6
Continuous
 62
     7
370
    25
100
AcDbSpline
210
0.0
220
0.0
230
1.0
 70
     8
 71
     3
 72
    12
 73
     8
 74
     0
 42
0.000000001
 43
0.00000001
 40
0.0
 40
0.0
 40
0.0
 40
0.0
 40
0.2500000000000005
 40
0.2500000000000005
 40
0.500000000000001
 40
0.500000000000001
 40
1.0
 40
1.0
 40
1.0
 40
1.0
 10
192.4295425773598
 20
158.5336961432058
 30
0.0
 10
192.3664625388665
 20
158.5336961432058
 30
0.0
 10
192.3073139166851
 20
158.5590604624208
 30
0.0
 10
192.208841366616
 20
158.6332253227937
 30
0.0
 10
192.1698047546313
 20
158.6797456633478
 30
0.0
 10
192.0699082878522
 20
158.8298880061931
 30
0.0
 10
192.0274874067856
 20
158.9415812131652
 30
0.0
 10
191.9965298754676
 20
159.054999032555
 30
0.0
  0
LINE
  5
E6
330
1F
100
AcDbEntity
  8
0
  6
Continuous
 62
     7
370
    25
100
AcDbLine
 10
195.3740289502
 20
158.5336961432
 30
0.0
 11
192.4295425774
 21
158.5336961432
 31
0.0
  0
SPLINE
  5
E7
330
1F
100
AcDbEntity
  8
0
  6
Continuous
 62
     7
370
    25
100
AcDbSpline
210
0.0
220
0.0
230
1.0
 70
     8
 71
     3
 72
    12
 73
     8
 74
     0
 42
0.000000001
 43
0.00000001
 40
0.0
 40
0.0
 40
0.0
 40
0.0
 40
0.5000000000000018
 40
0.5000000000000018
 40
0.7500000000000009
 40
0.7500000000000009
 40
1.0
 40
1.0
 40
1.0
 40
1.0
 10
195.8070416521192
 20
159.054999032555
 30
0.0
 10
195.7763194102001
 20
158.9424432331458
 30
0.0
 10
195.7334821956649
 20
158.8296853734062
 30
0.0
 10
195.6340551714651
 20
158.6801444876099
 30
0.0
 10
195.5943029766485
 20
158.632851755903
 30
0.0
 10
195.4962615197903
 20
158.5591154625816
 30
0.0
 10
195.4367054642028
 20
158.5336961432058
 30
0.0
 10
195.374028950227
 20
158.5336961432058
 30
0.0
  0
ELLIPSE
  5
E8
330
1F
100
AcDbEntity
  8
0
  6
Continuous
 62
     7
370
    25
100
AcDbEllipse
 10
179.5546315744
 20
149.1456297119
 30
0.0
 11
14.75368316065601
 21
31.09325491558116
 31
0.0
210
0.0
220
0.0
230
1.0
 40
0.3419987131
 41
5.193281737408619
 42
6.124043104552324
  0
SPLINE
  5
E9
330
1F
100
AcDbEntity
  8
0
  6
Continuous
 62
     7
370
    25
100
AcDbSpline
210
0.0
220
0.0
230
1.0
 70
     8
 71
     3
 72
    12
 73
     8
 74
     0
 42
0.000000001
 43
0.00000001
 40
0.0
 40
0.0
 40
0.0
 40
0.0
 40
0.2500000000000009
 40
0.2500000000000009
 40
0.5000000000000018
 40
0.5000000000000018
 40
1.0
 40
1.0
 40
1.0
 40
1.0
 10
195.374028950227
 20
179.214121670743
 30
0.0
 10
195.4371089887203
 20
179.214121670743
 30
0.0
 10
195.4962576109018
 20
179.2062157445305
 30
0.0
 10
195.5947301609708
 20
179.1828905830943
 30
0.0
 10
195.6337667729555
 20
179.1681777932626
 30
0.0
 10
195.7336632397346
 20
179.1202219925317
 30
0.0
 10
195.7760841208012
 20
179.0839598359516
 30
0.0
 10
195.8070416521192
 20
179.0463721719871
 30
0.0
  0
LINE
  5
EA
330
1F
100
AcDbEntity
  8
0
  6
Continuous
 62
     7
370
    25
100
AcDbLine
 10
192.4295425774
 20
179.2141216707
 30
0.0
 11
195.3740289502
 21
179.2141216707
 31
0.0
  0
SPLINE
  5
EB
330
1F
100
AcDbEntity
  8
0
  6
Continuous
 62
     7
370
    25
100
AcDbSpline
210
0.0
220
0.0
230
1.0
 70
     8
 71
     3
 72
    12
 73
     8
 74
     0
 42
0.000000001
 43
0.00000001
 40
0.0
 40
0.0
 40
0.0
 40
0.0
 40
0.5
 40
0.5
 40
0.75
 40
0.75
 40
1.0
 40
1.0
 40
1.0
 40
1.0
 10
191.9965298754676
 20
179.0463721719871
 30
0.0
 10
192.0272521173867
 20
179.0836741549402
 30
0.0
 10
192.0700893319219
 20
179.1202859869866
 30
0.0
 10
192.1695163561217
 20
179.1680507702717
 30
0.0
 10
192.2092685509383
 20
179.1830082857541
 30
0.0
 10
192.3073100077966
 20
179.2061982315233
 30
0.0
 10
192.366866063384
 20
179.214121670743
 30
0.0
 10
192.4295425773598
 20
179.214121670743
 30
0.0
  0
ELLIPSE
  5
EC
330
1F
100
AcDbEntity
  8
0
  6
Continuous
 62
     7
370
    25
100
AcDbEllipse
 10
208.2489399532
 20
149.1456297119
 30
0.0
 11
-14.75368316065604
 21
31.09325491558116
 31
0.0
210
0.0
220
0.0
230
1.0
 40
0.3419987131
 41
0.1591422026273012
 42
1.089903569770979
  0
LINE
  5
ED
330
1F
100
AcDbEntity
  8
0
  6
Continuous
 62
     7
370
    25
100
AcDbLine
 10
181.9017857638
 20
118.1456297119
 30
0.0
 11
181.9017857638
 21
180.1456297094
 31
0.0
  0
SPLINE
  5
EE
330
1F
100
AcDbEntity
  8
0
  6
Continuous
 62
     7
370
    25
100
AcDbSpline
210
0.0
220
0.0
230
1.0
 70
     8
 71
     3
 72
    12
 73
     8
 74
     0
 42
0.000000001
 43
0.00000001
 40
0.0
 40
0.0
 40
0.0
 40
0.0
 40
0.5000000000000002
 40
0.5000000000000002
 40
0.7500000000000001
 40
0.7500000000000001
 40
1.0
 40
1.0
 40
1.0
 40
1.0
 10
181.0852734773369
 20
127.2908360093941
 30
0.0
 10
181.1417099782441
 20
127.2894181280524
 30
0.0
 10
181.2107946089328
 20
127.2878537918041
 30
0.0
 10
181.3295968806508
 20
127.2849095998296
 30
0.0
 10
181.3697821561209
 20
127.2838713967323
 30
0.0
 10
181.4431632035247
 20
127.2819375015176
 30
0.0
 10
181.4765727672673
 20
127.2810426142288
 30
0.0
 10
181.5068088749238
 20
127.2802588239564
 30
0.0
  0
SPLINE
  5
EF
330
1F
100
AcDbEntity
  8
0
  6
Continuous
 62
     7
370
    25
100
AcDbSpline
210
0.0
220
0.0
230
1.0
 70
     8
 71
     3
 72
    16
 73
    12
 74
     0
 42
0.000000001
 43
0.00000001
 40
0.0
 40
0.0
 40
0.0
 40
0.0
 40
0.0624999999999958
 40
0.0624999999999958
 40
0.1249999999999916
 40
0.1249999999999916
 40
0.2499999999999902
 40
0.2499999999999902
 40
0.4999999999999922
 40
0.4999999999999922
 40
1.0
 40
1.0
 40
1.0
 40
1.0
 10
181.5068088748866
 20
127.2802588239807
 30
0.0
 10
181.5183892824745
 20
127.2799586328693
 30
0.0
 10
181.5316988092358
 20
127.2786308846104
 30
0.0
 10
181.5610002393219
 20
127.2719322098353
 30
0.0
 10
181.5758143392062
 20
127.2665740267296
 30
0.0
 10
181.6116427409091
 20
127.2495283775623
 30
0.0
 10
181.6257623652721
 20
127.2380658397866
 30
0.0
 10
181.6602665093606
 20
127.2065025144143
 30
0.0
 10
181.6713710600652
 20
127.1886052153691
 30
0.0
 10
181.6975472372814
 20
127.1384437977548
 30
0.0
 10
181.7017857637934
 20
127.1106993855582
 30
0.0
 10
181.7017857637934
 20
127.0860352236287
 30
0.0
  0
LINE
  5
F0
330
1F
100
AcDbEntity
  8
0
  6
Continuous
 62
     7
370
    25
100
AcDbLine
 10
181.7017857638
 20
142.1237423861
 30
0.0
 11
181.7017857638
 21
126.605809433
 31
0.0
  0
SPLINE
  5
F1
330
1F
100
AcDbEntity
  8
0
  6
Continuous
 62
     7
370
    25
100
AcDbSpline
210
0.0
220
0.0
230
1.0
 70
     8
 71
     3
 72
    16
 73
    12
 74
     0
 42
0.000000001
 43
0.00000001
 40
0.0
 40
0.0
 40
0.0
 40
0.0
 40
0.4999999999999994
 40
0.4999999999999994
 40
0.7500000000000008
 40
0.7500000000000008
 40
0.8750000000000014
 40
0.8750000000000014
 40
0.9375000000000008
 40
0.9375000000000008
 40
1.0
 40
1.0
 40
1.0
 40
1.0
 10
181.7017857637934
 20
142.1237423861199
 30
0.0
 10
181.7017857637934
 20
142.2374349302478
 30
0.0
 10
181.6976394887155
 20
142.3517550915973
 30
0.0
 10
181.671673893322
 20
142.5248033820943
 30
0.0
 10
181.6602129879445
 20
142.5839788892561
 30
0.0
 10
181.6259012501701
 20
142.6671020087242
 30
0.0
 10
181.6118765142406
 20
142.6952233248249
 30
0.0
 10
181.5758535512067
 20
142.7238391388023
 30
0.0
 10
181.5610990421171
 20
142.7296321867042
 30
0.0
 10
181.5317468809702
 20
142.7280387607671
 30
0.0
 10
181.5184070064661
 20
142.7215423574433
 30
0.0
 10
181.5068088749177
 20
142.7130266112402
 30
0.0
  0
SPLINE
  5
F2
330
1F
100
AcDbEntity
  8
0
  6
Continuous
 62
     7
370
    25
100
AcDbSpline
210
0.0
220
0.0
230
1.0
 70
     8
 71
     3
 72
    12
 73
     8
 74
     0
 42
0.000000001
 43
0.00000001
 40
0.0
 40
0.0
 40
0.0
 40
0.0
 40
0.2499999999999997
 40
0.2499999999999997
 40
0.4999999999999997
 40
0.4999999999999997
 40
1.0
 40
1.0
 40
1.0
 40
1.0
 10
181.5068088749248
 20
142.713026611231
 30
0.0
 10
181.4766104334842
 20
142.690853879186
 30
0.0
 10
181.4432430781482
 20
142.6717742233087
 30
0.0
 10
181.3700878023183
 20
142.646601178866
 30
0.0
 10
181.3298351032943
 20
142.6410446424492
 30
0.0
 10
181.2121063600195
 20
142.651956453436
 30
0.0
 10
181.1416479119605
 20
142.6938922088468
 30
0.0
 10
181.0852734773423
 20
142.7431039912284
 30
0.0
  0
SPLINE
  5
F3
330
1F
100
AcDbEntity
  8
0
  6
Continuous
 62
     7
370
    25
100
AcDbSpline
210
0.0
220
0.0
230
1.0
 70
     8
 71
     3
 72
    12
 73
     8
 74
     0
 42
0.000000001
 43
0.00000001
 40
0.0
 40
0.0
 40
0.0
 40
0.0
 40
0.5000000000000017
 40
0.5000000000000017
 40
0.7500000000000009
 40
0.7500000000000009
 40
1.0
 40
1.0
 40
1.0
 40
1.0
 10
180.5804654202338
 20
143.9594553831089
 30
0.0
 10
180.6242157508195
 20
143.7390085054532
 30
0.0
 10
180.6771058701999
 20
143.523463688415
 30
0.0
 10
180.7887171908141
 20
143.211050037305
 30
0.0
 10
180.8312766439971
 20
143.1089702641336
 30
0.0
 10
180.9362535671937
 20
142.9145306296693
 30
0.0
 10
180.9978207080286
 20
142.8194454513472
 30
0.0
 10
181.0852734773423
 20
142.7431039912284
 30
0.0
  0
SPLINE
  5
F4
330
1F
100
AcDbEntity
  8
0
  6
Continuous
 62
     7
370
    25
100
AcDbSpline
210
0.0
220
0.0
230
1.0
 70
     8
 71
     3
 72
    12
 73
     8
 74
     0
 42
0.000000001
 43
0.00000001
 40
0.0
 40
0.0
 40
0.0
 40
0.0
 40
0.2500000000000013
 40
0.2500000000000013
 40
0.5000000000000024
 40
0.5000000000000024
 40
1.0
 40
1.0
 40
1.0
 40
1.0
 10
181.0852734773422
 20
155.5481554325115
 30
0.0
 10
180.9967791869248
 20
155.4709047817241
 30
0.0
 10
180.936721827763
 20
155.3775857727308
 30
0.0
 10
180.8308744885683
 20
155.1815546152996
 30
0.0
 10
180.7883403846442
 20
155.0792272086037
 30
0.0
 10
180.6771888915901
 20
154.7678823669807
 30
0.0
 10
180.6242580525125
 20
154.5524640658448
 30
0.0
 10
180.5804654202338
 20
154.3318040406311
 30
0.0
  0
SPLINE
  5
F5
330
1F
100
AcDbEntity
  8
0
  6
Continuous
 62
     7
370
    25
100
AcDbSpline
210
0.0
220
0.0
230
1.0
 70
     8
 71
     3
 72
    12
 73
     8
 74
     0
 42
0.000000001
 43
0.00000001
 40
0.0
 40
0.0
 40
0.0
 40
0.0
 40
0.5000000000000004
 40
0.5000000000000004
 40
0.75
 40
0.75
 40
1.0
 40
1.0
 40
1.0
 40
1.0
 10
181.0852734773422
 20
155.5481554325115
 30
0.0
 10
181.1415820256378
 20
155.5973096997554
 30
0.0
 10
181.2118566863559
 20
155.6392670183591
 30
0.0
 10
181.3298946006795
 20
155.6502266958916
 30
0.0
 10
181.3700708415334
 20
155.6447179376442
 30
0.0
 10
181.4440279362114
 20
155.6191607088552
 30
0.0
 10
181.4766443239228
 20
155.6003806610159
 30
0.0
 10
181.5068088749185
 20
155.5782328124992
 30
0.0
  0
SPLINE
  5
F6
330
1F
100
AcDbEntity
  8
0
  6
Continuous
 62
     7
370
    25
100
AcDbSpline
210
0.0
220
0.0
230
1.0
 70
     8
 71
     3
 72
    16
 73
    12
 74
     0
 42
0.000000001
 43
0.00000001
 40
0.0
 40
0.0
 40
0.0
 40
0.0
 40
0.0625000000000007
 40
0.0625000000000007
 40
0.1250000000000014
 40
0.1250000000000014
 40
0.2500000000000007
 40
0.2500000000000007
 40
0.4999999999999993
 40
0.4999999999999993
 40
1.0
 40
1.0
 40
1.0
 40
1.0
 10
181.5068088748868
 20
155.5782328124447
 30
0.0
 10
181.5184217747262
 20
155.5697062228495
 30
0.0
 10
181.5317729591586
 20
155.5632059613167
 30
0.0
 10
181.5611727987778
 20
155.5616365641992
 30
0.0
 10
181.5760135233331
 20
155.5675199548297
 30
0.0
 10
181.6118467313017
 20
155.5960675908803
 30
0.0
 10
181.6259599391232
 20
155.6242346101861
 30
0.0
 10
181.6604513103422
 20
155.707988868608
 30
0.0
 10
181.6715353814525
 20
155.7657022822295
 30
0.0
 10
181.6976581992485
 20
155.9392928188753
 30
0.0
 10
181.7017857637934
 20
156.0543208715172
 30
0.0
 10
181.7017857637934
 20
156.1675170376201
 30
0.0
  0
LINE
  5
F7
330
1F
100
AcDbEntity
  8
0
  6
Continuous
 62
     7
370
    25
100
AcDbLine
 10
181.7017857638
 20
171.6854499907
 30
0.0
 11
181.7017857638
 21
156.1675170376
 31
0.0
  0
SPLINE
  5
F8
330
1F
100
AcDbEntity
  8
0
  6
Continuous
 62
     7
370
    25
100
AcDbSpline
210
0.0
220
0.0
230
1.0
 70
     8
 71
     3
 72
    16
 73
    12
 74
     0
 42
0.000000001
 43
0.00000001
 40
0.0
 40
0.0
 40
0.0
 40
0.0
 40
0.4999999999999957
 40
0.4999999999999957
 40
0.7499999999999936
 40
0.7499999999999936
 40
0.874999999999994
 40
0.874999999999994
 40
0.937499999999997
 40
0.937499999999997
 40
1.0
 40
1.0
 40
1.0
 40
1.0
 10
181.7017857637934
 20
171.2052242001112
 30
0.0
 10
181.7017857637934
 20
171.1805530440683
 30
0.0
 10
181.6976200653334
 20
171.1529712126771
 30
0.0
 10
181.6713617370085
 20
171.1026283418538
 30
0.0
 10
181.6598579552709
 20
171.0843388437918
 30
0.0
 10
181.6257271959244
 20
171.0531838127548
 30
0.0
 10
181.6113053092537
 20
171.0415444375431
 30
0.0
 10
181.5757383408158
 20
171.024662411612
 30
0.0
 10
181.5607865725212
 20
171.0192733078044
 30
0.0
 10
181.5317827541614
 20
171.0126528118599
 30
0.0
 10
181.5183674001522
 20
171.0113002236534
 30
0.0
 10
181.5068088749156
 20
171.0110005997818
 30
0.0
  0
SPLINE
  5
F9
330
1F
100
AcDbEntity
  8
0
  6
Continuous
 62
     7
370
    25
100
AcDbSpline
210
0.0
220
0.0
230
1.0
 70
     8
 71
     3
 72
    12
 73
     8
 74
     0
 42
0.000000001
 43
0.00000001
 40
0.0
 40
0.0
 40
0.0
 40
0.0
 40
0.2500000000000004
 40
0.2500000000000004
 40
0.5000000000000004
 40
0.5000000000000004
 40
1.0
 40
1.0
 40
1.0
 40
1.0
 10
181.5068088749248
 20
171.0110005997836
 30
0.0
 10
181.4766210983752
 20
171.010218062366
 30
0.0
 10
181.4432672942835
 20
171.0093247305474
 30
0.0
 10
181.3701410910875
 20
171.0073974217438
 30
0.0
 10
181.3299058880634
 20
171.0063578905312
 30
0.0
 10
181.2122142579303
 20
171.0034400071839
 30
0.0
 10
181.1418335847702
 20
171.0018444011137
 30
0.0
 10
181.0852734773396
 20
171.0004234143458
 30
0.0
  0
SPLINE
  5
FA
330
1F
100
AcDbEntity
  8
0
  6
Continuous
 62
     7
370
    25
100
AcDbSpline
210
0.0
220
0.0
230
1.0
 70
     8
 71
     3
 72
    16
 73
    12
 74
     0
 42
0.000000001
 43
0.00000001
 40
0.0
 40
0.0
 40
0.0
 40
0.0
 40
0.25
 40
0.25
 40
0.375
 40
0.375
 40
0.5
 40
0.5
 40
0.75
 40
0.75
 40
1.0
 40
1.0
 40
1.0
 40
1.0
 10
180.5804654202338
 20
154.3318040406311
 30
0.0
 10
180.4192329427493
 20
153.5193942653842
 30
0.0
 10
180.2987531031097
 20
152.6793159709995
 30
0.0
 10
180.1763725857963
 20
151.3780209216367
 30
0.0
 10
180.1453949253989
 20
150.9373398860519
 30
0.0
 10
180.1037811877709
 20
150.0415002451208
 30
0.0
 10
180.0935452748381
 20
149.5948421139183
 30
0.0
 10
180.093356877782
 20
148.2595321567784
 30
0.0
 10
180.1335015804196
 20
147.3750367834709
 30
0.0
 10
180.2976553353592
 20
145.6177868954449
 30
0.0
 10
180.4192069857687
 20
144.7719959490318
 30
0.0
 10
180.5804654202338
 20
143.9594553831089
 30
0.0
  0
LINE
  5
FB
330
1F
100
AcDbEntity
  8
0
  6
Continuous
 62
     7
370
    25
100
AcDbLine
 10
179.7017857638
 20
155.6308079736
 30
0.0
 11
179.7017857638
 21
142.6604514502
 31
0.0
  0
LINE
  5
FC
330
1F
100
AcDbEntity
  8
0
  6
Continuous
 62
     7
370
    25
100
AcDbLine
 10
145.4017857638
 20
155.1999402794
 30
0.0
 11
145.4017857638
 21
143.0913191443
 31
0.0
  0
LINE
  5
FD
330
1F
100
AcDbEntity
  8
0
  6
Continuous
 62
     7
370
    25
100
AcDbLine
 10
143.9017857638
 20
154.7669275775
 30
0.0
 11
143.9017857638
 21
143.5243318462
 31
0.0
  0
LINE
  5
FE
330
1F
100
AcDbEntity
  8
0
  6
Continuous
 62
     7
370
    25
100
AcDbLine
 10
179.7017857638
 20
155.6308079736
 30
0.0
 11
179.7017857638
 21
171.1657284964
 31
0.0
  0
ARC
  5
FF
330
1F
100
AcDbEntity
  8
0
  6
Continuous
 62
     7
370
    25
100
AcDbCircle
 10
179.9017226747
 20
171.1707516076
 30
0.0
 40
0.1999999999999775
100
AcDbArc
 50
181.4391666667
 51
271.4391666667
  0
LINE
  5
100
330
1F
100
AcDbEntity
  8
0
  6
Continuous
 62
     7
370
    25
100
AcDbLine
 10
145.4017857638
 20
155.1999402794
 30
0.0
 11
145.4017857638
 21
170.3039931082
 31
0.0
  0
LINE
  5
101
330
1F
100
AcDbEntity
  8
0
  6
Continuous
 62
     7
370
    25
100
AcDbLine
 10
145.4017857638
 20
170.3039931082
 30
0.0
 11
179.7017857638
 21
171.1657284964
 31
0.0
  0
LINE
  5
102
330
1F
100
AcDbEntity
  8
0
  6
Continuous
 62
     7
370
    25
100
AcDbLine
 10
145.4017857638
 20
127.9872663156
 30
0.0
 11
145.4017857638
 21
143.0913191443
 31
0.0
  0
LINE
  5
103
330
1F
100
AcDbEntity
  8
0
  6
Continuous
 62
     7
370
    25
100
AcDbLine
 10
179.7017857638
 20
127.1255309273
 30
0.0
 11
179.7017857638
 21
142.6604514502
 31
0.0
  0
LINE
  5
104
330
1F
100
AcDbEntity
  8
0
  6
Continuous
 62
     7
370
    25
100
AcDbLine
 10
145.4017857638
 20
127.9872663156
 30
0.0
 11
179.7017857638
 21
127.1255309273
 31
0.0
  0
ARC
  5
105
330
1F
100
AcDbEntity
  8
0
  6
Continuous
 62
     7
370
    25
100
AcDbCircle
 10
179.9017226747
 20
127.1205078162
 30
0.0
 40
0.1999999999999775
100
AcDbArc
 50
88.5608333333
 51
178.5608333333
  0
LINE
  5
106
330
1F
100
AcDbEntity
  8
0
  6
Continuous
 62
     7
370
    25
100
AcDbLine
 10
179.9067457859
 20
170.9708146966
 30
0.0
 11
181.0852734773
 21
171.0004234143
 31
0.0
  0
LINE
  5
107
330
1F
100
AcDbEntity
  8
0
  6
Continuous
 62
     7
370
    25
100
AcDbLine
 10
179.9067457859
 20
127.3204447271
 30
0.0
 11
181.0852734773
 21
127.2908360094
 31
0.0
  0
LINE
  5
108
330
1F
100
AcDbEntity
  8
0
  6
Continuous
 62
     7
370
    25
100
AcDbLine
 10
143.9017857638
 20
169.4379677044
 30
0.0
 11
145.4017857638
 21
170.3039931082
 31
0.0
  0
LINE
  5
109
330
1F
100
AcDbEntity
  8
0
  6
Continuous
 62
     7
370
    25
100
AcDbLine
 10
143.9017857638
 20
154.7669275775
 30
0.0
 11
143.9017857638
 21
169.4379677044
 31
0.0
  0
LINE
  5
10A
330
1F
100
AcDbEntity
  8
0
  6
Continuous
 62
     7
370
    25
100
AcDbLine
 10
143.9017857638
 20
128.8532917194
 30
0.0
 11
145.4017857638
 21
127.9872663156
 31
0.0
  0
LINE
  5
10B
330
1F
100
AcDbEntity
  8
0
  6
Continuous
 62
     7
370
    25
100
AcDbLine
 10
143.9017857638
 20
128.8532917194
 30
0.0
 11
143.9017857638
 21
143.5243318462
 31
0.0
  0
LINE
  5
10C
330
1F
100
AcDbEntity
  8
0
  6
Continuous
 62
     7
370
    25
100
AcDbLine
 10
231.1547559396
 20
111.346642539
 30
0.0
 11
232.7441632557
 21
111.772194816
 31
0.0
  0
LINE
  5
10D
330
1F
100
AcDbEntity
  8
0
  6
Continuous
 62
     7
370
    25
100
AcDbLine
 10
234.571680792
 20
104.6745617591
 30
0.0
 11
232.7441632557
 21
111.772194816
 31
0.0
  0
LINE
  5
10E
330
1F
100
AcDbEntity
  8
0
  6
Continuous
 62
     7
370
    25
100
AcDbLine
 10
234.571680792
 20
104.6745617591
 30
0.0
 11
223.4254593184
 21
104.6745617591
 31
0.0
  0
SPLINE
  5
10F
330
1F
100
AcDbEntity
  8
0
  6
Continuous
 62
     7
370
    25
100
AcDbSpline
210
0.0
220
0.0
230
1.0
 70
     8
 71
     3
 72
     8
 73
     4
 74
     0
 42
0.000000001
 43
0.00000001
 40
0.0
 40
0.0
 40
0.0
 40
0.0
 40
1.0
 40
1.0
 40
1.0
 40
1.0
 10
223.3205010233034
 20
104.9261835269821
 30
0.0
 10
223.3438744836089
 20
104.8383811316224
 30
0.0
 10
223.3796620428116
 20
104.752681354568
 30
0.0
 10
223.4254593184034
 20
104.674561759055
 30
0.0
  0
SPLINE
  5
110
330
1F
100
AcDbEntity
  8
0
  6
Continuous
 62
     7
370
    25
100
AcDbSpline
210
0.0
220
0.0
230
1.0
 70
     8
 71
     3
 72
     8
 73
     4
 74
     0
 42
0.000000001
 43
0.00000001
 40
0.0
 40
0.0
 40
0.0
 40
0.0
 40
1.0
 40
1.0
 40
1.0
 40
1.0
 10
220.1003846021035
 20
117.0934160533612
 30
0.0
 10
221.1657204764721
 20
113.0354629184193
 30
0.0
 10
222.2412693141604
 20
108.9803170601502
 30
0.0
 10
223.3205010233034
 20
104.9261835269821
 30
0.0
  0
SPLINE
  5
111
330
1F
100
AcDbEntity
  8
0
  6
Continuous
 62
     7
370
    25
100
AcDbSpline
210
0.0
220
0.0
230
1.0
 70
     8
 71
     3
 72
    10
 73
     6
 74
     0
 42
0.000000001
 43
0.00000001
 40
0.0
 40
0.0
 40
0.0
 40
0.0
 40
0.5
 40
0.5
 40
1.0
 40
1.0
 40
1.0
 40
1.0
 10
219.1344587758144
 20
117.8599457527124
 30
0.0
 10
219.3570346572775
 20
117.8571533295884
 30
0.0
 10
219.5735262700049
 20
117.7777361824024
 30
0.0
 10
219.9196813507024
 20
117.500572570216
 30
0.0
 10
220.0438121326101
 20
117.3089053046439
 30
0.0
 10
220.1003846021035
 20
117.0934160533612
 30
0.0
  0
SPLINE
  5
112
330
1F
100
AcDbEntity
  8
0
  6
Continuous
 62
     7
370
    25
100
AcDbSpline
210
0.0
220
0.0
230
1.0
 70
     8
 71
     3
 72
    10
 73
     6
 74
     0
 42
0.000000001
 43
0.00000001
 40
0.0
 40
0.0
 40
0.0
 40
0.0
 40
0.5
 40
0.5
 40
1.0
 40
1.0
 40
1.0
 40
1.0
 10
220.0004841795989
 20
179.5239030700149
 30
0.0
 10
219.9144524867428
 20
179.3693064055157
 30
0.0
 10
219.7892448150659
 20
179.235892074376
 30
0.0
 10
219.486738489617
 20
179.0459208702093
 30
0.0
 10
219.312574078465
 20
178.9911248984588
 30
0.0
 10
219.1344587758144
 20
178.984976588691
 30
0.0
  0
ELLIPSE
  5
113
330
1F
100
AcDbEntity
  8
0
  6
Continuous
 62
     7
370
    25
100
AcDbEllipse
 10
284.9585304919
 20
149.1456297119
 30
0.0
 11
304.45945736533
 21
3.381854883375979
 31
0.0
210
0.0
220
0.0
230
1.0
 40
0.1045157088
 41
1.758505678428198
 42
1.784643329637586
  0
LINE
  5
114
330
1F
100
AcDbEntity
  8
0
  6
Continuous
 62
     7
370
    25
100
AcDbLine
 10
227.7964149731
 20
179.7763856472
 30
0.0
 11
243.3337051943
 21
119.4333342129
 31
0.0
  0
LINE
  5
115
330
1F
100
AcDbEntity
  8
0
  6
Continuous
 62
     7
370
    25
100
AcDbLine
 10
229.9923165113
 20
115.8612741906
 30
0.0
 11
243.3337051943
 21
119.4333342129
 31
0.0
  0
ARC
  5
116
330
1F
100
AcDbEntity
  8
0
  6
Continuous
 62
     7
370
    25
100
AcDbCircle
 10
230.5638256595
 20
113.6014580623
 30
0.0
 40
2.330963671994165
100
AcDbArc
 50
104.1925595231
 51
284.6855087223
  0
LINE
  5
117
330
1F
100
AcDbEntity
  8
0
  6
Continuous
 62
     7
370
    25
100
AcDbLine
 10
220.0004841796
 20
181.1456297119
 30
0.0
 11
220.0004841796
 21
179.52390307
 31
0.0
  0
ELLIPSE
  5
118
330
1F
100
AcDbEntity
  8
0
  6
Continuous
 62
     7
370
    25
100
AcDbEllipse
 10
235.2794976201
 20
149.1456297119
 30
0.0
 11
-8.614457663682773
 21
31.99393359580617
 31
0.0
210
0.0
220
0.0
230
1.0
 40
0.0723281128
 41
5.970123179379867
 42
6.263713218378189
  0
ARC
  5
119
330
1F
100
AcDbEntity
  8
0
  6
Continuous
 62
     7
370
    25
100
AcDbCircle
 10
229.7506336501
 20
114.3844463193
 30
0.0
 40
2.32441582389849
100
AcDbArc
 50
239.3782967042
 51
285.1117667642
  0
LINE
  5
11A
330
1F
100
AcDbEntity
  8
0
  6
Continuous
 62
     7
370
    25
100
AcDbLine
 10
230.3566153198
 20
112.140410861
 30
0.0
 11
231.9460226358
 21
112.565963138
 31
0.0
  0
LINE
  5
11B
330
1F
100
AcDbEntity
  8
0
  6
Continuous
 62
     7
370
    25
100
AcDbLine
 10
231.9460226358
 20
112.565963138
 30
0.0
 11
232.7441632557
 21
111.772194816
 31
0.0
  0
ARC
  5
11C
330
1F
100
AcDbEntity
  8
0
  6
Continuous
 62
     7
370
    25
100
AcDbCircle
 10
237.8466576531
 20
113.2385487386
 30
0.0
 40
3.219753458046577
100
AcDbArc
 50
264.8308258076
 51
328.7281466571
  0
LINE
  5
11D
330
1F
100
AcDbEntity
  8
0
  6
Continuous
 62
     7
370
    18
100
AcDbLine
 10
231.3552777236
 20
116.2261971663
 30
0.0
 11
231.712470221
 21
115.8709614067
 31
0.0
  0
LINE
  5
11E
330
1F
100
AcDbEntity
  8
0
  6
Continuous
 62
     7
370
    18
100
AcDbLine
 10
231.9670346918
 20
116.389990656
 30
0.0
 11
231.9988500703
 21
116.3583495654
 31
0.0
  0
LINE
  5
11F
330
1F
100
AcDbEntity
  8
0
  6
Continuous
 62
     7
370
    18
100
AcDbLine
 10
243.2916210136
 20
119.5967789219
 30
0.0
 11
243.461848289
 21
119.4274841694
 31
0.0
  0
SPLINE
  5
120
330
1F
100
AcDbEntity
  8
0
  6
Continuous
 62
     7
370
    18
100
AcDbSpline
210
0.0
220
0.0
230
1.0
 70
     8
 71
     3
 72
    10
 73
     6
 74
     0
 42
0.000000001
 43
0.00000001
 40
0.0
 40
0.0
 40
0.0
 40
0.0
 40
0.4023842853214459
 40
0.697500537017033
 40
0.9999999999999999
 40
0.9999999999999999
 40
0.9999999999999999
 40
0.9999999999999999
 10
233.5766565779791
 20
115.1578947318848
 30
0.0
 10
233.8364420715814
 20
115.3426299585764
 30
0.0
 10
234.2867591637414
 20
115.6628534974267
 30
0.0
 10
235.0128120141646
 20
116.0213324567793
 30
0.0
 10
235.4729654554108
 20
116.1646221523074
 30
0.0
 10
235.7058846465362
 20
116.2371521324997
 30
0.0
  0
SPLINE
  5
121
330
1F
100
AcDbEntity
  8
0
  6
Continuous
 62
     7
370
    18
100
AcDbSpline
210
0.0
220
0.0
230
1.0
 70
     8
 71
     3
 72
    10
 73
     6
 74
     0
 42
0.000000001
 43
0.00000001
 40
0.0
 40
0.0
 40
0.0
 40
0.0
 40
0.2949154208495588
 40
0.5976167223288056
 40
1.0
 40
1.0
 40
1.0
 40
1.0
 10
240.1947562178561
 20
117.4390149269955
 30
0.0
 10
240.4256775994514
 20
117.4911493939968
 30
0.0
 10
240.8936167760028
 20
117.5967946979959
 30
0.0
 10
241.6845831049745
 20
117.6457117656023
 30
0.0
 10
242.2191918088035
 20
117.5870406430093
 30
0.0
 10
242.5242865575462
 20
117.5535577399481
 30
0.0
  0
LINE
  5
122
330
1F
100
AcDbEntity
  8
0
  6
Continuous
 62
     7
370
    18
100
AcDbLine
 10
235.7058846465
 20
116.2371521325
 30
0.0
 11
240.1947562179
 21
117.439014927
 31
0.0
  0
LINE
  5
123
330
1F
100
AcDbEntity
  8
0
  6
Continuous
 62
     7
370
    18
100
AcDbLine
 10
234.4201140636
 20
104.6745617591
 30
0.0
 11
234.6556679225
 21
104.4402982888
 31
0.0
  0
SPLINE
  5
124
330
1F
100
AcDbEntity
  8
0
  6
Continuous
 62
     7
370
    18
100
AcDbSpline
210
0.0
220
0.0
230
1.0
 70
     8
 71
     3
 72
    13
 73
     9
 74
     0
 42
0.000000001
 43
0.00000001
 40
0.0
 40
0.0
 40
0.0
 40
0.0
 40
0.2004789267618159
 40
0.4024209239810308
 40
0.5495476870985535
 40
0.6974946593544524
 40
0.8482239884041097
 40
1.0
 40
1.0
 40
1.0
 40
1.0
 10
235.87401748545
 20
106.2355044418819
 30
0.0
 10
235.7811722327407
 20
106.354022561679
 30
0.0
 10
235.5948041541301
 20
106.5919237318798
 30
0.0
 10
235.3693778185932
 20
106.9478607846941
 30
0.0
 10
235.1864899438626
 20
107.2869957921946
 30
0.0
 10
235.0420871105559
 20
107.6052562106512
 30
0.0
 10
234.9156480062805
 20
107.9387310677812
 30
0.0
 10
234.8506073812781
 20
108.1715100452727
 30
0.0
 10
234.8179745469833
 20
108.2883022470621
 30
0.0
  0
SPLINE
  5
125
330
1F
100
AcDbEntity
  8
0
  6
Continuous
 62
     7
370
    18
100
AcDbSpline
210
0.0
220
0.0
230
1.0
 70
     8
 71
     3
 72
     9
 73
     5
 74
     0
 42
0.000000001
 43
0.00000001
 40
0.0
 40
0.0
 40
0.0
 40
0.0
 40
0.5968512361547859
 40
1.0
 40
1.0
 40
1.0
 40
1.0
 10
233.6654282201731
 20
112.7645115016328
 30
0.0
 10
233.5803939592899
 20
113.2411510213328
 30
0.0
 10
233.4379225095682
 20
114.0397411738318
 30
0.0
 10
233.5367958949038
 20
114.8366299905163
 30
0.0
 10
233.576656577979
 20
115.1578947318848
 30
0.0
  0
LINE
  5
126
330
1F
100
AcDbEntity
  8
0
  6
Continuous
 62
     7
370
    18
100
AcDbLine
 10
234.817974547
 20
108.2883022471
 30
0.0
 11
233.6654282202
 21
112.7645115016
 31
0.0
  0
LINE
  5
127
330
1F
100
AcDbEntity
  8
0
  6
Continuous
 62
     7
370
    18
100
AcDbLine
 10
234.339722233
 20
112.9450488313
 30
0.0
 11
235.5168929353
 21
113.1726240972
 31
0.0
  0
SPLINE
  5
128
330
1F
100
AcDbEntity
  8
0
  6
Continuous
 62
     7
370
    18
100
AcDbSpline
210
0.0
220
0.0
230
1.0
 70
     8
 71
     3
 72
     9
 73
     5
 74
     0
 42
0.000000001
 43
0.00000001
 40
0.0
 40
0.0
 40
0.0
 40
0.0
 40
0.3335731961829014
 40
0.9999999999999999
 40
0.9999999999999999
 40
0.9999999999999999
 40
0.9999999999999999
 10
234.1772472228665
 20
114.8066381981585
 30
0.0
 10
234.1679227461082
 20
114.5989692265346
 30
0.0
 10
234.139969430719
 20
113.9764102979387
 30
0.0
 10
234.2598383633692
 20
113.3575043464153
 30
0.0
 10
234.3397222330323
 20
112.9450488312781
 30
0.0
  0
SPLINE
  5
129
330
1F
100
AcDbEntity
  8
0
  6
Continuous
 62
     7
370
    18
100
AcDbSpline
210
0.0
220
0.0
230
1.0
 70
     8
 71
     3
 72
    10
 73
     6
 74
     0
 42
0.000000001
 43
0.00000001
 40
0.0
 40
0.0
 40
0.0
 40
0.0
 40
0.3297289057863734
 40
0.6670428892051485
 40
0.9999999999999999
 40
0.9999999999999999
 40
0.9999999999999999
 40
0.9999999999999999
 10
235.8790139230957
 20
115.5647601843882
 30
0.0
 10
235.6809612314997
 20
115.5048333185263
 30
0.0
 10
235.2802998478639
 20
115.3836010302918
 30
0.0
 10
234.7070278838938
 20
115.1252804649561
 30
0.0
 10
234.3530738566972
 20
114.9123910149159
 30
0.0
 10
234.1772472228665
 20
114.8066381981585
 30
0.0
  0
LINE
  5
12A
330
1F
100
AcDbEntity
  8
0
  6
Continuous
 62
     7
370
    18
100
AcDbLine
 10
235.8790139231
 20
115.5647601844
 30
0.0
 11
236.2328425586
 21
114.391094494
 31
0.0
  0
LINE
  5
12B
330
1F
100
AcDbEntity
  8
0
  6
Continuous
 62
     7
370
    18
100
AcDbLine
 10
240.3678854944
 20
116.7666229789
 30
0.0
 11
235.8790139231
 21
115.5647601844
 31
0.0
  0
LINE
  5
12C
330
1F
100
AcDbEntity
  8
0
  6
Continuous
 62
     7
370
    18
100
AcDbLine
 10
240.3678854944
 20
116.7666229789
 30
0.0
 11
240.7217141299
 21
115.5929572885
 31
0.0
  0
LINE
  5
12D
330
1F
100
AcDbEntity
  8
0
  6
Continuous
 62
     7
370
    18
100
AcDbLine
 10
235.4922685598
 20
108.4688395767
 30
0.0
 11
236.6694392618
 21
108.6964148426
 31
0.0
  0
LINE
  5
12E
330
1F
100
AcDbEntity
  8
0
  6
Continuous
 62
     7
370
    18
100
AcDbLine
 10
234.339722233
 20
112.9450488313
 30
0.0
 11
235.4922685598
 21
108.4688395767
 31
0.0
  0
SPLINE
  5
12F
330
1F
100
AcDbEntity
  8
0
  6
Continuous
 62
     7
370
    18
100
AcDbSpline
210
0.0
220
0.0
230
1.0
 70
     8
 71
     3
 72
    10
 73
     6
 74
     0
 42
0.000000001
 43
0.00000001
 40
0.0
 40
0.0
 40
0.0
 40
0.0
 40
0.2765306019330325
 40
0.5626682704062689
 40
1.0
 40
1.0
 40
1.0
 40
1.0
 10
235.8790139230957
 20
115.5647601843882
 30
0.0
 10
235.8609212094877
 20
115.626412033847
 30
0.0
 10
235.8241072156599
 20
115.7518576057289
 30
0.0
 10
235.7600057677883
 20
115.9940917481986
 30
0.0
 10
235.7262747745269
 20
116.1455791526592
 30
0.0
 10
235.7058846465362
 20
116.2371521324997
 30
0.0
  0
ARC
  5
130
330
1F
100
AcDbEntity
  8
0
  6
Continuous
 62
     7
370
    18
100
AcDbCircle
 10
235.3027324569
 20
107.9987859081
 30
0.0
 40
5.039137386151497
100
AcDbArc
 50
101.0173457929
 51
108.9605806158
  0
SPLINE
  5
131
330
1F
100
AcDbEntity
  8
0
  6
Continuous
 62
     7
370
    18
100
AcDbSpline
210
0.0
220
0.0
230
1.0
 70
     8
 71
     3
 72
    10
 73
     6
 74
     0
 42
0.000000001
 43
0.00000001
 40
0.0
 40
0.0
 40
0.0
 40
0.0
 40
0.4023842853214642
 40
0.6975005370170436
 40
1.0
 40
1.0
 40
1.0
 40
1.0
 10
242.5242865575466
 20
117.553557739948
 30
0.0
 10
242.7208324281986
 20
117.2958912969598
 30
0.0
 10
243.0615287608566
 20
116.8492474072464
 30
0.0
 10
243.4329222701878
 20
116.1272174492247
 30
0.0
 10
243.5737140289785
 20
115.6686037760047
 30
0.0
 10
243.6449796104894
 20
115.4364639803832
 30
0.0
  0
SPLINE
  5
132
330
1F
100
AcDbEntity
  8
0
  6
Continuous
 62
     7
370
    18
100
AcDbSpline
210
0.0
220
0.0
230
1.0
 70
     8
 71
     3
 72
    13
 73
     9
 74
     0
 42
0.000000001
 43
0.00000001
 40
0.0
 40
0.0
 40
0.0
 40
0.0
 40
0.1469623780453481
 40
0.2949091824196923
 40
0.4457832504406354
 40
0.5975792237242086
 40
0.7980008377570802
 40
1.0
 40
1.0
 40
1.0
 40
1.0
 10
244.7975259372996
 20
110.9602547258125
 30
0.0
 10
244.8243516334829
 20
110.8458852344474
 30
0.0
 10
244.8781827175636
 20
110.6163801485823
 30
0.0
 10
244.9259182584913
 20
110.2654148132616
 30
0.0
 10
244.9494491457545
 20
109.9105995927792
 30
0.0
 10
244.9457388947026
 20
109.5165811294852
 30
0.0
 10
244.9092843037952
 20
109.0869397345699
 30
0.0
 10
244.850935989248
 20
108.7834880697668
 30
0.0
 10
244.8216474650175
 20
108.6311674499452
 30
0.0
  0
LINE
  5
133
330
1F
100
AcDbEntity
  8
0
  6
Continuous
 62
     7
370
    18
100
AcDbLine
 10
243.6449796105
 20
115.4364639804
 30
0.0
 11
244.7975259373
 21
110.9602547258
 31
0.0
  0
SPLINE
  5
134
330
1F
100
AcDbEntity
  8
0
  6
Continuous
 62
     7
370
    18
100
AcDbSpline
210
0.0
220
0.0
230
1.0
 70
     8
 71
     3
 72
    10
 73
     6
 74
     0
 42
0.000000001
 43
0.00000001
 40
0.0
 40
0.0
 40
0.0
 40
0.0
 40
0.3329578885837204
 40
0.6628995140873175
 40
1.0
 40
1.0
 40
1.0
 40
1.0
 10
242.1793455702268
 20
116.9491419719436
 30
0.0
 10
241.9820053855049
 20
116.9549863076962
 30
0.0
 10
241.5891127193529
 20
116.9666220354067
 30
0.0
 10
240.9785854589376
 20
116.9087109522993
 30
0.0
 10
240.5729034423991
 20
116.8143233005396
 30
0.0
 10
240.3678854944156
 20
116.766622978884
 30
0.0
  0
SPLINE
  5
135
330
1F
100
AcDbEntity
  8
0
  6
Continuous
 62
     7
370
    18
100
AcDbSpline
210
0.0
220
0.0
230
1.0
 70
     8
 71
     3
 72
    10
 73
     6
 74
     0
 42
0.000000001
 43
0.00000001
 40
0.0
 40
0.0
 40
0.0
 40
0.0
 40
0.329728905786364
 40
0.6670428892051339
 40
0.9999999999999999
 40
0.9999999999999999
 40
0.9999999999999999
 40
0.9999999999999999
 10
242.9706855976302
 20
115.2559266507379
 30
0.0
 10
242.9116736197292
 20
115.4533344774904
 30
0.0
 10
242.7922921534822
 20
115.8526912969801
 30
0.0
 10
242.5214942866481
 20
116.4230397398368
 30
0.0
 10
242.2928998418402
 20
116.7745361561277
 30
0.0
 10
242.1793455702268
 20
116.9491419719436
 30
0.0
  0
LINE
  5
136
330
1F
100
AcDbEntity
  8
0
  6
Continuous
 62
     7
370
    18
100
AcDbLine
 10
242.9706855976
 20
115.2559266507
 30
0.0
 11
241.9323188291
 21
114.8903078335
 31
0.0
  0
ARC
  5
137
330
1F
100
AcDbEntity
  8
0
  6
Continuous
 62
     7
370
    18
100
AcDbCircle
 10
248.4330303559
 20
119.20174291
 30
0.0
 40
8.424747516455207
100
AcDbArc
 50
192.0773577093
 51
196.8007105362
  0
LINE
  5
138
330
1F
100
AcDbEntity
  8
0
  6
Continuous
 62
     7
370
    18
100
AcDbLine
 10
238.0950686631
 20
106.9581432486
 30
0.0
 11
237.8800439613
 21
107.9937653877
 31
0.0
  0
SPLINE
  5
139
330
1F
100
AcDbEntity
  8
0
  6
Continuous
 62
     7
370
    18
100
AcDbSpline
210
0.0
220
0.0
230
1.0
 70
     8
 71
     3
 72
    10
 73
     6
 74
     0
 42
0.000000001
 43
0.00000001
 40
0.0
 40
0.0
 40
0.0
 40
0.0
 40
0.3329578885837177
 40
0.6628995140873283
 40
1.0
 40
1.0
 40
1.0
 40
1.0
 10
236.2318368698393
 20
106.8271123620235
 30
0.0
 10
236.4388838324332
 20
106.8116144231435
 30
0.0
 10
236.8511021206997
 20
106.7807589410986
 30
0.0
 10
237.4804626388741
 20
106.8199399370035
 30
0.0
 10
237.8887394126617
 20
106.9117470458657
 30
0.0
 10
238.0950686630571
 20
106.9581432485612
 30
0.0
  0
SPLINE
  5
13A
330
1F
100
AcDbEntity
  8
0
  6
Continuous
 62
     7
370
    18
100
AcDbSpline
210
0.0
220
0.0
230
1.0
 70
     8
 71
     3
 72
    13
 73
     9
 74
     0
 42
0.000000001
 43
0.00000001
 40
0.0
 40
0.0
 40
0.0
 40
0.0
 40
0.1643983652206157
 40
0.3297669727366149
 40
0.4979856378296589
 40
0.6670906575137492
 40
0.8332227241189144
 40
1.0
 40
1.0
 40
1.0
 40
1.0
 10
235.4922685598425
 20
108.4688395767073
 30
0.0
 10
235.5193718413717
 20
108.3703325199984
 30
0.0
 10
235.5737383619212
 20
108.1727370400158
 30
0.0
 10
235.6763325072285
 20
107.8842502530541
 30
0.0
 10
235.7941420986614
 20
107.602260530046
 30
0.0
 10
235.9272890981874
 20
107.3310946986914
 30
0.0
 10
236.07248578561
 20
107.0712403762779
 30
0.0
 10
236.1786512555771
 20
106.9085934417383
 30
0.0
 10
236.2318368698393
 20
106.8271123620235
 30
0.0
  0
LINE
  5
13B
330
1F
100
AcDbEntity
  8
0
  6
Continuous
 62
     7
370
    18
100
AcDbLine
 10
244.1232319244
 20
110.7797173962
 30
0.0
 11
242.9706855976
 21
115.2559266507
 31
0.0
  0
LINE
  5
13C
330
1F
100
AcDbEntity
  8
0
  6
Continuous
 62
     7
370
    18
100
AcDbLine
 10
244.1232319244
 20
110.7797173962
 30
0.0
 11
243.0848651559
 21
110.414098579
 31
0.0
  0
SPLINE
  5
13D
330
1F
100
AcDbEntity
  8
0
  6
Continuous
 62
     7
370
    18
100
AcDbSpline
210
0.0
220
0.0
230
1.0
 70
     8
 71
     3
 72
    10
 73
     6
 74
     0
 42
0.000000001
 43
0.00000001
 40
0.0
 40
0.0
 40
0.0
 40
0.0
 40
0.276530601933031
 40
0.562668270406265
 40
0.9999999999999999
 40
0.9999999999999999
 40
0.9999999999999999
 40
0.9999999999999999
 10
235.4922685598425
 20
108.4688395767073
 30
0.0
 10
235.43043436285
 20
108.4560480562941
 30
0.0
 10
235.3046177608879
 20
108.4300206198496
 30
0.0
 10
235.0616921873728
 20
108.3679150486819
 30
0.0
 10
234.9097951480012
 20
108.3182963635395
 30
0.0
 10
234.8179745469833
 20
108.2883022470621
 30
0.0
  0
SPLINE
  5
13E
330
1F
100
AcDbEntity
  8
0
  6
Continuous
 62
     7
370
    18
100
AcDbSpline
210
0.0
220
0.0
230
1.0
 70
     8
 71
     3
 72
    13
 73
     9
 74
     0
 42
0.000000001
 43
0.00000001
 40
0.0
 40
0.0
 40
0.0
 40
0.0
 40
0.2004789267618134
 40
0.402420923981053
 40
0.5495476870985675
 40
0.6974946593544664
 40
0.8482239884041177
 40
1.0
 40
1.0
 40
1.0
 40
1.0
 10
244.8216474650174
 20
108.6311674499452
 30
0.0
 10
244.702088272068
 20
108.529348394245
 30
0.0
 10
244.462097357939
 20
108.3249672199461
 30
0.0
 10
244.1036385268925
 20
108.0791611873938
 30
0.0
 10
243.7624619838265
 20
107.8807798042444
 30
0.0
 10
243.4425940178243
 20
107.7251868412898
 30
0.0
 10
243.1077163557179
 20
107.5900819232774
 30
0.0
 10
242.8742210940182
 20
107.5218487343918
 30
0.0
 10
242.7570695109364
 20
107.4876140949456
 30
0.0
  0
SPLINE
  5
13F
330
1F
100
AcDbEntity
  8
0
  6
Continuous
 62
     7
370
    18
100
AcDbSpline
210
0.0
220
0.0
230
1.0
 70
     8
 71
     3
 72
    13
 73
     9
 74
     0
 42
0.000000001
 43
0.00000001
 40
0.0
 40
0.0
 40
0.0
 40
0.0
 40
0.1469623780453504
 40
0.2949091824196904
 40
0.4457832504406283
 40
0.5975792237242021
 40
0.7980008377570064
 40
1.0
 40
1.0
 40
1.0
 40
1.0
 10
238.2681979396165
 20
106.2857513004497
 30
0.0
 10
238.1532383587859
 20
106.2576634254061
 30
0.0
 10
237.9225491412801
 20
106.2012995289097
 30
0.0
 10
237.5662576682571
 20
106.1496628211956
 30
0.0
 10
237.2035443783959
 20
106.1221680089768
 30
0.0
 10
236.7977220006518
 20
106.1214522717686
 30
0.0
 10
236.3519153044729
 20
106.1530545582674
 30
0.0
 10
236.0337325327678
 20
106.2079494153916
 30
0.0
 10
235.87401748545
 20
106.2355044418819
 30
0.0
  0
LINE
  5
140
330
1F
100
AcDbEntity
  8
0
  6
Continuous
 62
     7
370
    18
100
AcDbLine
 10
242.7570695109
 20
107.4876140949
 30
0.0
 11
238.2681979396
 21
106.2857513004
 31
0.0
  0
ARC
  5
141
330
1F
100
AcDbEntity
  8
0
  6
Continuous
 62
     7
370
    18
100
AcDbCircle
 10
244.6079898344
 20
110.4902010572
 30
0.0
 40
5.039137386148357
100
AcDbArc
 50
101.0173457929
 51
108.9605806158
  0
LINE
  5
142
330
1F
100
AcDbEntity
  8
0
  6
Continuous
 62
     7
370
    18
100
AcDbLine
 10
242.5839402344
 20
108.1600060431
 30
0.0
 11
242.3689155326
 21
109.1956281822
 31
0.0
  0
LINE
  5
143
330
1F
100
AcDbEntity
  8
0
  6
Continuous
 62
     7
370
    18
100
AcDbLine
 10
238.0950686631
 20
106.9581432486
 30
0.0
 11
242.5839402344
 21
108.1600060431
 31
0.0
  0
SPLINE
  5
144
330
1F
100
AcDbEntity
  8
0
  6
Continuous
 62
     7
370
    18
100
AcDbSpline
210
0.0
220
0.0
230
1.0
 70
     8
 71
     3
 72
    10
 73
     6
 74
     0
 42
0.000000001
 43
0.00000001
 40
0.0
 40
0.0
 40
0.0
 40
0.0
 40
0.3329578885836988
 40
0.6628995140873213
 40
1.0
 40
1.0
 40
1.0
 40
1.0
 10
244.2339352171996
 20
108.9696161358085
 30
0.0
 10
244.251681119734
 20
109.1671245500104
 30
0.0
 10
244.2870121648014
 20
109.5603521511329
 30
0.0
 10
244.2546936959221
 20
110.170472479008
 30
0.0
 10
244.1673649262305
 20
110.5751879218072
 30
0.0
 10
244.1232319244404
 20
110.7797173961672
 30
0.0
  0
SPLINE
  5
145
330
1F
100
AcDbEntity
  8
0
  6
Continuous
 62
     7
370
    18
100
AcDbSpline
210
0.0
220
0.0
230
1.0
 70
     8
 71
     3
 72
    15
 73
    11
 74
     0
 42
0.000000001
 43
0.00000001
 40
0.0
 40
0.0
 40
0.0
 40
0.0
 40
0.082149490167117
 40
0.2470264641781013
 40
0.413813977868594
 40
0.5824734098959787
 40
0.6670867568645054
 40
0.7501166623779121
 40
0.9165692622173672
 40
0.9999999999999999
 40
0.9999999999999999
 40
0.9999999999999999
 40
0.9999999999999999
 10
242.583940234377
 20
108.1600060430571
 30
0.0
 10
242.6334466484907
 20
108.1737935260722
 30
0.0
 10
242.782314211853
 20
108.2152529821467
 30
0.0
 10
243.0266076893317
 20
108.2990809437779
 30
0.0
 10
243.3134262241309
 20
108.418222359858
 30
0.0
 10
243.545656333255
 20
108.5333961455322
 30
0.0
 10
243.7260101766386
 20
108.633776718897
 30
0.0
 10
243.9013876478105
 20
108.7387505967325
 30
0.0
 10
244.0709466338877
 20
108.8502680687989
 30
0.0
 10
244.1931380869273
 20
108.9397425180459
 30
0.0
 10
244.2339352171996
 20
108.9696161358085
 30
0.0
  0
SPLINE
  5
146
330
1F
100
AcDbEntity
  8
0
  6
Continuous
 62
     7
370
    18
100
AcDbSpline
210
0.0
220
0.0
230
1.0
 70
     8
 71
     3
 72
    10
 73
     6
 74
     0
 42
0.000000001
 43
0.00000001
 40
0.0
 40
0.0
 40
0.0
 40
0.0
 40
0.2765306019330385
 40
0.5626682704062679
 40
1.0
 40
1.0
 40
1.0
 40
1.0
 10
238.2681979396165
 20
106.2857513004497
 30
0.0
 10
238.2501052260086
 20
106.3474031499085
 30
0.0
 10
238.2132912321808
 20
106.4728487217905
 30
0.0
 10
238.1491897843092
 20
106.7150828642601
 30
0.0
 10
238.1154587910477
 20
106.8665702687207
 30
0.0
 10
238.0950686630571
 20
106.9581432485612
 30
0.0
  0
SPLINE
  5
147
330
1F
100
AcDbEntity
  8
0
  6
Continuous
 62
     7
370
    18
100
AcDbSpline
210
0.0
220
0.0
230
1.0
 70
     8
 71
     3
 72
    10
 73
     6
 74
     0
 42
0.000000001
 43
0.00000001
 40
0.0
 40
0.0
 40
0.0
 40
0.0
 40
0.2765306019330456
 40
0.5626682704062761
 40
0.9999999999999999
 40
0.9999999999999999
 40
0.9999999999999999
 40
0.9999999999999999
 10
244.7975259372996
 20
110.9602547258125
 30
0.0
 10
244.7356917403071
 20
110.9474632053993
 30
0.0
 10
244.609875138345
 20
110.9214357689548
 30
0.0
 10
244.3669495648299
 20
110.8593301977871
 30
0.0
 10
244.2150525254583
 20
110.8097115126447
 30
0.0
 10
244.1232319244404
 20
110.7797173961672
 30
0.0
  0
ARC
  5
148
330
1F
100
AcDbEntity
  8
0
  6
Continuous
 62
     7
370
    18
100
AcDbCircle
 10
250.8222143724
 20
109.9227340261
 30
0.0
 40
8.424747516440213
100
AcDbArc
 50
192.0773577093
 51
196.8007105362
  0
LINE
  5
149
330
1F
100
AcDbEntity
  8
0
  6
Continuous
 62
     7
370
    18
100
AcDbLine
 10
231.4127767662
 20
115.5973432902
 30
0.0
 11
231.111734792
 21
115.8967361249
 31
0.0
  0
LINE
  5
14A
330
1F
100
AcDbEntity
  8
0
  6
Continuous
 62
     7
370
    18
100
AcDbLine
 10
212.8344973553
 20
118.7646572096
 30
0.0
 11
212.8344973553
 21
177.1325785869
 31
0.0
  0
LINE
  5
14B
330
1F
100
AcDbEntity
  8
0
  6
Continuous
 62
     7
370
    18
100
AcDbLine
 10
182.4017857638
 20
117.6456297119
 30
0.0
 11
182.4017857638
 21
180.6456297119
 31
0.0
  0
LINE
  5
14C
330
1F
100
AcDbEntity
  8
0
  6
Continuous
 62
     7
370
    18
100
AcDbLine
 10
219.1344587758
 20
178.9849765887
 30
0.0
 11
219.1344587758
 21
180.6456297119
 31
0.0
  0
LINE
  5
14D
330
1F
100
AcDbEntity
  8
0
  6
Continuous
 62
     7
370
    18
100
AcDbLine
 10
219.1344587758
 20
117.6456297119
 30
0.0
 11
219.1344587758
 21
117.8599457527
 31
0.0
  0
LINE
  5
14E
330
1F
100
AcDbEntity
  8
0
  6
Continuous
 62
     7
370
    18
100
AcDbLine
 10
191.9965298755
 20
139.2362603912
 30
0.0
 11
191.9965298755
 21
119.2448872518
 31
0.0
  0
LINE
  5
14F
330
1F
100
AcDbEntity
  8
0
  6
Continuous
 62
     7
370
    18
100
AcDbLine
 10
192.4295425774
 20
139.7575632805
 30
0.0
 11
192.4295425774
 21
119.077137753
 31
0.0
  0
LINE
  5
150
330
1F
100
AcDbEntity
  8
0
  6
Continuous
 62
     7
370
    18
100
AcDbLine
 10
192.4295425774
 20
179.2141216707
 30
0.0
 11
192.4295425774
 21
158.5336961432
 31
0.0
  0
LINE
  5
151
330
1F
100
AcDbEntity
  8
0
  6
Continuous
 62
     7
370
    18
100
AcDbLine
 10
191.9965298755
 20
179.046372172
 30
0.0
 11
191.9965298755
 21
159.0549990326
 31
0.0
  0
LINE
  5
152
330
1F
100
AcDbEntity
  8
0
  6
Continuous
 62
     7
370
    18
100
AcDbLine
 10
195.3740289502
 20
139.7575632805
 30
0.0
 11
195.3740289502
 21
119.077137753
 31
0.0
  0
LINE
  5
153
330
1F
100
AcDbEntity
  8
0
  6
Continuous
 62
     7
370
    18
100
AcDbLine
 10
195.8070416521
 20
139.2362603912
 30
0.0
 11
195.8070416521
 21
119.2448872518
 31
0.0
  0
LINE
  5
154
330
1F
100
AcDbEntity
  8
0
  6
Continuous
 62
     7
370
    18
100
AcDbLine
 10
195.8070416521
 20
179.046372172
 30
0.0
 11
195.8070416521
 21
159.0549990326
 31
0.0
  0
LINE
  5
155
330
1F
100
AcDbEntity
  8
0
  6
Continuous
 62
     7
370
    18
100
AcDbLine
 10
195.3740289502
 20
179.2141216707
 30
0.0
 11
195.3740289502
 21
158.5336961432
 31
0.0
  0
LINE
  5
156
330
1F
100
AcDbEntity
  8
0
  6
Continuous
 62
     7
370
    18
100
AcDbLine
 10
180.5804654202
 20
143.9594553831
 30
0.0
 11
180.5804654202
 21
154.3318040406
 31
0.0
  0
LINE
  5
157
330
1F
100
AcDbEntity
  8
0
  6
Continuous
 62
     7
370
    18
100
AcDbLine
 10
179.9067457859
 20
142.7579083501
 30
0.0
 11
181.0852734773
 21
142.7431039912
 31
0.0
  0
LINE
  5
158
330
1F
100
AcDbEntity
  8
0
  6
Continuous
 62
     7
370
    18
100
AcDbLine
 10
179.9067457859
 20
155.5333510737
 30
0.0
 11
179.9067457859
 21
142.7579083501
 31
0.0
  0
LINE
  5
159
330
1F
100
AcDbEntity
  8
0
  6
Continuous
 62
     7
370
    18
100
AcDbLine
 10
179.9067457859
 20
155.5333510737
 30
0.0
 11
181.0852734773
 21
155.5481554325
 31
0.0
  0
LINE
  5
15A
330
1F
100
AcDbEntity
  8
0
  6
Continuous
 62
     7
370
    18
100
AcDbLine
 10
145.4017857638
 20
143.0913191443
 30
0.0
 11
179.7017857638
 21
142.6604514502
 31
0.0
  0
LINE
  5
15B
330
1F
100
AcDbEntity
  8
0
  6
Continuous
 62
     7
370
    18
100
AcDbLine
 10
145.4017857638
 20
155.1999402794
 30
0.0
 11
179.7017857638
 21
155.6308079736
 31
0.0
  0
LWPOLYLINE
  5
15C
330
1F
100
AcDbEntity
  8
0
  6
Continuous
 62
     7
370
    18
100
AcDbPolyline
 90
        9
 70
   128
 43
0.0
 10
179.7017857638
 20
142.6604514502
 10
179.7066074558
 20
142.6799060695
 10
179.7189273163
 20
142.6985165411
 10
179.7382718999
 20
142.7155676748
 10
179.7638978051
 20
142.7304042054
 10
179.7948202428
 20
142.742455973
 10
179.829850881
 20
142.7512598352
 10
179.8676435118
 20
142.7564774644
 10
179.9067457859
 20
142.7579083501
  0
LWPOLYLINE
  5
15D
330
1F
100
AcDbEntity
  8
0
  6
Continuous
 62
     7
370
    18
100
AcDbPolyline
 90
        9
 70
   128
 43
0.0
 10
179.7017857638
 20
155.6308079736
 10
179.7066074558
 20
155.6113533542
 10
179.7189273163
 20
155.5927428827
 10
179.7382718999
 20
155.5756917489
 10
179.7638978051
 20
155.5608552184
 10
179.7948202428
 20
155.5488034507
 10
179.829850881
 20
155.5399995885
 10
179.8676435118
 20
155.5347819593
 10
179.9067457859
 20
155.5333510737
  0
LINE
  5
15E
330
1F
100
AcDbEntity
  8
0
  6
Continuous
 62
     7
370
    18
100
AcDbLine
 10
143.9017857638
 20
143.5243318462
 30
0.0
 11
145.4017857638
 21
143.0913191443
 31
0.0
  0
LINE
  5
15F
330
1F
100
AcDbEntity
  8
0
  6
Continuous
 62
     7
370
    18
100
AcDbLine
 10
143.9017857638
 20
154.7669275775
 30
0.0
 11
145.4017857638
 21
155.1999402794
 31
0.0
  0
LINE
  5
160
330
1F
100
AcDbEntity
  8
0
  6
Continuous
 62
     7
370
    18
100
AcDbLine
 10
179.9067457859
 20
155.5333510737
 30
0.0
 11
179.9067457859
 21
170.9708146966
 31
0.0
  0
LINE
  5
161
330
1F
100
AcDbEntity
  8
0
  6
Continuous
 62
     7
370
    18
100
AcDbLine
 10
179.9067457859
 20
127.3204447271
 30
0.0
 11
179.9067457859
 21
142.7579083501
 31
0.0
  0
LINE
  5
162
330
1F
100
AcDbEntity
  8
0
  6
Continuous
 62
     7
370
    18
100
AcDbLine
 10
181.5068088749
 20
127.280258824
 30
0.0
 11
181.5068088749
 21
142.7130266112
 31
0.0
  0
LINE
  5
163
330
1F
100
AcDbEntity
  8
0
  6
Continuous
 62
     7
370
    18
100
AcDbLine
 10
181.5068088749
 20
155.5782328125
 30
0.0
 11
181.5068088749
 21
171.0110005998
 31
0.0
  0
LINE
  5
164
330
1F
100
AcDbEntity
  8
0
  6
Continuous
 62
     7
370
    18
100
AcDbLine
 10
218.0028815334
 20
117.874383147
 30
0.0
 11
218.0028815334
 21
178.9456753097
 31
0.0
  0
LINE
  5
165
330
1F
100
AcDbEntity
  8
0
  6
Continuous
 62
     7
370
    18
100
AcDbLine
 10
220.1003846021
 20
116.904448757
 30
0.0
 11
220.1003846021
 21
117.0934160534
 31
0.0
  0
LINE
  5
166
330
1F
100
AcDbEntity
  8
0
  6
Continuous
 62
     7
370
    18
100
AcDbLine
 10
223.3205010233
 20
104.8868106668
 30
0.0
 11
223.3205010233
 21
104.926183527
 31
0.0
  0
LINE
  5
167
330
1F
100
AcDbEntity
  8
0
  6
Continuous
 62
     7
370
    18
100
AcDbLine
 10
230.3566153198
 20
112.140410861
 30
0.0
 11
231.1547559396
 21
111.346642539
 31
0.0
  0
LINE
  5
168
330
1F
100
AcDbEntity
  8
VERMASSUNG
  6
CENTERX2
100
AcDbLine
 10
246.9017857638
 20
104.1456297119
 30
0.0
 11
246.9017857638
 21
149.1456297119
 31
0.0
  0
LINE
  5
169
330
1F
100
AcDbEntity
  8
VERMASSUNG
  6
CENTERX2
100
AcDbLine
 10
246.9017857638
 20
104.1456297119
 30
0.0
 11
203.3995440444
 21
104.1456297119
 31
0.0
  0
DIMENSION
  5
16A
330
1F
100
AcDbEntity
  8
VERMASSUNG
100
AcDbDimension
  2
_D
 10
261.3930460555
 20
104.1456297119
 30
0.0
 11
261.3930460555
 21
126.6456297119
 31
0.0
 70
   160
  1
<>
 71
     2
 42
-1.0
  3
SLDDIMSTYLE0
100
AcDbAlignedDimension
 13
254.6230150065
 23
149.1456297119
 33
0.0
 14
246.9017857638
 24
104.1456297119
 34
0.0
 50
90.0
100
AcDbRotatedDimension
  0
DIMENSION
  5
177
330
1F
100
AcDbEntity
  8
VERMASSUNG
100
AcDbDimension
  2
_D_1
 10
246.9017857638
 20
149.1456297119
 30
0.0
 11
237.8882699243
 21
95.5640951814
 31
0.0
 70
   162
  1
<>
 71
     1
 42
-1.0
  3
SLDDIMSTYLE1
100
AcDb2LineAngularDimension
 13
235.1399098022
 23
104.1592385068
 33
0.0
 14
246.6029080208
 24
107.2283731108
 34
0.0
 15
246.9017857638
 25
104.1456297119
 35
0.0
 16
237.8882699243
 26
95.5640951814
 36
0.0
  0
DIMENSION
  5
182
330
1F
100
AcDbEntity
  8
VERMASSUNG
100
AcDbDimension
  2
_D_2
 10
246.9017857638
 20
85.4649073006
 30
0.0
 11
214.4017857638
 21
85.4649073006
 31
0.0
 70
   160
  1
<>
 71
     2
 42
-1.0
  3
SLDDIMSTYLE0
100
AcDbAlignedDimension
 13
181.9017857638
 23
118.1456297119
 33
0.0
 14
246.9017857638
 24
104.1456297119
 34
0.0
100
AcDbRotatedDimension
  0
DIMENSION
  5
18E
330
1F
100
AcDbEntity
  8
VERMASSUNG
100
AcDbDimension
  2
_D_3
 10
246.9017857638
 20
76.0560743184
 30
0.0
 11
195.4017857638
 21
76.0560743184
 31
0.0
 70
   160
  1
<>
 71
     2
 42
-1.0
  3
SLDDIMSTYLE2
100
AcDbAlignedDimension
 13
143.9017857638
 23
128.8532917194
 33
0.0
 14
246.9017857638
 24
104.1456297119
 34
0.0
100
AcDbRotatedDimension
  0
DIMENSION
  5
199
330
1F
100
AcDbEntity
  8
VERMASSUNG
100
AcDbDimension
  2
_D_4
 10
133.9017857638
 20
180.6456297119
 30
0.0
 11
133.9017857638
 21
149.1456297119
 31
0.0
 70
   160
  1
PSC%%c<>
 71
     2
 42
-1.0
  3
SLDDIMSTYLE2
100
AcDbAlignedDimension
 13
182.4017857638
 23
117.6456297119
 33
0.0
 14
182.4017857638
 24
180.6456297119
 34
0.0
 50
90.0
100
AcDbRotatedDimension
  0
LINE
  5
1A5
330
1F
100
AcDbEntity
  8
VERMASSUNG
  6
CENTERX2
370
    18
100
AcDbLine
 10
254.6230150065
 20
149.1456297119
 30
0.0
 11
139.9872180451
 21
149.1456297119
 31
0.0
  0
LINE
  5
1A6
330
1F
100
AcDbEntity
  8
0
  6
Continuous
 62
     7
370
    25
100
AcDbLine
 10
72.0201292143
 20
119.9358987813
 30
0.0
 11
67.3121379245
 21
119.4410689572
 31
0.0
  0
LINE
  5
1A7
330
1F
100
AcDbEntity
  8
0
  6
Continuous
 62
     7
370
    25
100
AcDbLine
 10
67.7497884877
 20
116.3641592463
 30
0.0
 11
67.4219400734
 21
115.6083117655
 31
0.0
  0
SPLINE
  5
1A8
330
1F
100
AcDbEntity
  8
0
  6
Continuous
 62
     7
370
    25
100
AcDbSpline
210
0.0
220
0.0
230
1.0
 70
     8
 71
     3
 72
     9
 73
     5
 74
     0
 42
0.000000001
 43
0.00000001
 40
0.0
 40
0.0
 40
0.0
 40
0.0
 40
0.0726523256627856
 40
1.0
 40
1.0
 40
1.0
 40
1.0
 10
68.72049474795759
 20
106.8212878150459
 30
0.0
 10
68.7222297231428
 20
106.8195024542811
 30
0.0
 10
68.74611024134198
 20
106.7949284196793
 30
0.0
 10
68.75652065422028
 20
106.7636965676618
 30
0.0
 10
68.76617472639184
 20
106.7347337823282
 30
0.0
  0
LINE
  5
1A9
330
1F
100
AcDbEntity
  8
0
  6
Continuous
 62
     7
370
    25
100
AcDbLine
 10
67.8716996299
 20
107.9744327715
 30
0.0
 11
68.7017902065
 21
106.8084845731
 31
0.0
  0
LINE
  5
1AA
330
1F
100
AcDbEntity
  8
0
  6
Continuous
 62
     7
370
    25
100
AcDbLine
 10
68.019351245
 20
104.145653719
 30
0.0
 11
72.7273425347
 21
104.6404835432
 31
0.0
  0
LINE
  5
1AB
330
1F
100
AcDbEntity
  8
0
  6
Continuous
 62
     7
370
    25
100
AcDbLine
 10
65.7113951539
 20
126.6006816285
 30
0.0
 11
65.4491357243
 21
126.2731353574
 31
0.0
  0
LINE
  5
1AC
330
1F
100
AcDbEntity
  8
0
  6
Continuous
 62
     7
370
    25
100
AcDbLine
 10
66.1767822393
 20
119.35004122
 30
0.0
 11
66.5014113701
 21
119.0841794222
 31
0.0
  0
LINE
  5
1AD
330
1F
100
AcDbEntity
  8
0
  6
Continuous
 62
     7
370
    25
100
AcDbLine
 10
74.8269610425
 20
120.056132815
 30
0.0
 11
72.0725944652
 21
119.7666372222
 31
0.0
  0
LINE
  5
1AE
330
1F
100
AcDbEntity
  8
0
  6
Continuous
 62
     7
370
    25
100
AcDbLine
 10
75.1653963662
 20
119.7850389484
 30
0.0
 11
74.8407672354
 21
120.0509007462
 31
0.0
  0
LINE
  5
1AF
330
1F
100
AcDbEntity
  8
0
  6
Continuous
 62
     7
370
    25
100
AcDbLine
 10
72.7848024644
 20
104.8212987043
 30
0.0
 11
75.6175757966
 21
105.1190351791
 31
0.0
  0
LINE
  5
1B0
330
1F
100
AcDbEntity
  8
0
  6
Continuous
 62
     7
370
    25
100
AcDbLine
 10
75.6299924828
 20
105.1270233835
 30
0.0
 11
75.8922519124
 21
105.4545696546
 31
0.0
  0
LINE
  5
1B1
330
1F
100
AcDbEntity
  8
0
  6
Continuous
 62
     7
370
    25
100
AcDbLine
 10
67.3031103991
 20
119.4274841694
 30
0.0
 11
66.4142433545
 21
116.3583495654
 31
0.0
  0
LWPOLYLINE
  5
1B2
330
1F
100
AcDbEntity
  8
0
  6
Continuous
 62
     7
370
    25
100
AcDbPolyline
 90
        9
 70
   128
 43
0.0
 10
67.3838271937
 20
119.1464243874
 10
67.373334919
 20
119.2194004946
 10
67.3620976663
 20
119.2856076289
 10
67.3505472768
 20
119.3425014875
 10
67.3391276256
 20
119.3878956711
 10
67.3282775633
 20
119.4200457069
 10
67.3184140519
 20
119.4377160869
 10
67.3099161405
 20
119.4402277483
 10
67.3031103991
 20
119.4274841694
  0
LINE
  5
1B3
330
1F
100
AcDbEntity
  8
0
  6
Continuous
 62
     7
370
    25
100
AcDbLine
 10
68.8962847881
 20
107.7157612695
 30
0.0
 11
67.3838271937
 21
119.1464243874
 31
0.0
  0
ARC
  5
1B4
330
1F
100
AcDbEntity
  8
0
  6
Continuous
 62
     7
370
    25
100
AcDbCircle
 10
66.9827026137
 20
107.3893193248
 30
0.0
 40
1.941226695039464
100
AcDbArc
 50
355.2441739924
 51
9.6810123722
  0
LINE
  5
1B5
330
1F
100
AcDbEntity
  8
0
  6
Continuous
 62
     7
370
    25
100
AcDbLine
 10
68.0283787704
 20
104.1592385068
 30
0.0
 11
68.917245815
 21
107.2283731108
 31
0.0
  0
LWPOLYLINE
  5
1B6
330
1F
100
AcDbEntity
  8
0
  6
Continuous
 62
     7
370
    25
100
AcDbPolyline
 90
        9
 70
   128
 43
0.0
 10
67.9476619758
 20
104.4402982888
 10
67.9581542505
 20
104.3673221817
 10
67.9693915032
 20
104.3011150473
 10
67.9809418927
 20
104.2442211887
 10
67.9923615439
 20
104.1988270051
 10
68.0032116062
 20
104.1666769693
 10
68.0130751176
 20
104.1490065894
 10
68.021573029
 20
104.146494928
 10
68.0283787704
 20
104.1592385068
  0
LINE
  5
1B7
330
1F
100
AcDbEntity
  8
0
  6
Continuous
 62
     7
370
    25
100
AcDbLine
 10
66.4352043814
 20
115.8709614067
 30
0.0
 11
67.9476619758
 21
104.4402982888
 31
0.0
  0
ARC
  5
1B8
330
1F
100
AcDbEntity
  8
0
  6
Continuous
 62
     7
370
    25
100
AcDbCircle
 10
68.3487865558
 20
116.1974033514
 30
0.0
 40
1.941226695037682
100
AcDbArc
 50
175.2441739924
 51
189.6810123722
  0
ARC
  5
1B9
330
1F
100
AcDbEntity
  8
0
  6
Continuous
 62
     7
370
    25
100
AcDbCircle
 10
67.0768878281
 20
107.4004832126
 30
0.0
 40
1.844165360285115
100
AcDbArc
 50
355.2441739924
 51
9.6810123722
  0
LINE
  5
1BA
330
1F
100
AcDbEntity
  8
0
  6
Continuous
 62
     7
370
    25
100
AcDbLine
 10
68.8947908938
 20
107.7106030601
 30
0.0
 11
67.3823332993
 21
119.141266178
 31
0.0
  0
LWPOLYLINE
  5
1BB
330
1F
100
AcDbEntity
  8
0
  6
Continuous
 62
     7
370
    25
100
AcDbPolyline
 90
        9
 70
   128
 43
0.0
 10
67.3823332993
 20
119.141266178
 10
67.3723656384
 20
119.2105934798
 10
67.3616902483
 20
119.2734902574
 10
67.3507173783
 20
119.327539423
 10
67.3398687096
 20
119.3706638975
 10
67.3295611505
 20
119.4012064315
 10
67.3201908146
 20
119.4179932924
 10
67.3121177988
 20
119.4203793708
 10
67.3056523444
 20
119.4082729709
  0
LINE
  5
1BC
330
1F
100
AcDbEntity
  8
0
  6
Continuous
 62
     7
370
    25
100
AcDbLine
 10
67.3056523444
 20
119.4082729709
 30
0.0
 11
66.4167852999
 21
116.3391383669
 31
0.0
  0
ARC
  5
1BD
330
1F
100
AcDbEntity
  8
0
  6
Continuous
 62
     7
370
    25
100
AcDbCircle
 10
68.2546013411
 20
116.1862394636
 30
0.0
 40
1.844165360286328
100
AcDbArc
 50
175.2441739924
 51
189.6810123722
  0
LINE
  5
1BE
330
1F
100
AcDbEntity
  8
0
  6
Continuous
 62
     7
370
    25
100
AcDbLine
 10
66.4366982754
 20
115.8761196161
 30
0.0
 11
67.9491558699
 21
104.4454564982
 31
0.0
  0
LWPOLYLINE
  5
1BF
330
1F
100
AcDbEntity
  8
0
  6
Continuous
 62
     7
370
    25
100
AcDbPolyline
 90
        9
 70
   128
 43
0.0
 10
67.9491558699
 20
104.4454564982
 10
67.9591235308
 20
104.3761291964
 10
67.9697989208
 20
104.3132324188
 10
67.9807717909
 20
104.2591832531
 10
67.9916204596
 20
104.2160587787
 10
68.0019280187
 20
104.1855162447
 10
68.0112983546
 20
104.1687293837
 10
68.0193713704
 20
104.1663433054
 10
68.0258368249
 20
104.1784497056
  0
LINE
  5
1C0
330
1F
100
AcDbEntity
  8
0
  6
Continuous
 62
     7
370
    25
100
AcDbLine
 10
68.0258368249
 20
104.1784497056
 30
0.0
 11
68.9147038693
 21
107.2475843093
 31
0.0
  0
ARC
  5
1C1
330
1F
100
AcDbEntity
  8
0
  6
Continuous
 62
     7
370
    25
100
AcDbCircle
 10
71.6906939034
 20
107.884149149
 30
0.0
 40
1.941226695039594
100
AcDbArc
 50
355.2441739924
 51
9.6810123722
  0
LINE
  5
1C2
330
1F
100
AcDbEntity
  8
0
  6
Continuous
 62
     7
370
    25
100
AcDbLine
 10
73.6042760779
 20
108.2105910937
 30
0.0
 11
72.0918184834
 21
119.6412542116
 31
0.0
  0
LINE
  5
1C3
330
1F
100
AcDbEntity
  8
0
  6
Continuous
 62
     7
370
    25
100
AcDbLine
 10
72.7363700602
 20
104.654068331
 30
0.0
 11
73.6252371048
 21
107.7232029349
 31
0.0
  0
ARC
  5
1C4
330
1F
100
AcDbEntity
  8
0
  6
Continuous
 62
     7
370
    25
100
AcDbCircle
 10
63.4266591866
 20
109.5979937172
 30
0.0
 40
4.853066737597503
100
AcDbArc
 50
355.2441739924
 51
9.6810123722
  0
LINE
  5
1C5
330
1F
100
AcDbEntity
  8
0
  6
Continuous
 62
     7
370
    25
100
AcDbLine
 10
68.2106146227
 20
110.414098579
 30
0.0
 11
67.6183413126
 21
114.8903078335
 31
0.0
  0
ARC
  5
1C6
330
1F
100
AcDbEntity
  8
0
  6
Continuous
 62
     7
370
    25
100
AcDbCircle
 10
71.5349425054
 20
119.6618056001
 30
0.0
 40
0.5572550712989668
100
AcDbArc
 50
357.8864707152
 51
29.4631084341
  0
LINE
  5
1C7
330
1F
100
AcDbEntity
  8
0
  6
Continuous
 62
     7
370
    25
100
AcDbLine
 10
67.368291464
 20
115.4263295849
 30
0.0
 11
66.6820782345
 21
115.9969327905
 31
0.0
  0
LINE
  5
1C8
330
1F
100
AcDbEntity
  8
0
  6
Continuous
 62
     7
370
    25
100
AcDbLine
 10
66.6820782345
 20
115.9969327905
 30
0.0
 11
66.4167852999
 21
116.3391383669
 31
0.0
  0
LINE
  5
1C9
330
1F
100
AcDbEntity
  8
0
  6
Continuous
 62
     7
370
    25
100
AcDbLine
 10
67.3426779558
 20
119.3605130457
 30
0.0
 11
67.3056523444
 21
119.4082729709
 31
0.0
  0
LINE
  5
1CA
330
1F
100
AcDbEntity
  8
0
  6
Continuous
 62
     7
370
    25
100
AcDbLine
 10
67.4165493261
 20
115.5929572885
 30
0.0
 11
67.0684719793
 21
114.391094494
 31
0.0
  0
LWPOLYLINE
  5
1CB
330
1F
100
AcDbEntity
  8
0
  6
Continuous
 62
     7
370
    25
100
AcDbPolyline
 90
        9
 70
   128
 43
0.0
 10
67.6183413126
 20
114.8903078335
 10
67.592110626
 20
115.0727481014
 10
67.5640174942
 20
115.2382659374
 10
67.5351415205
 20
115.3805005837
 10
67.5065923923
 20
115.4939860429
 10
67.4794672367
 20
115.5743611322
 10
67.4548084581
 20
115.6185370821
 10
67.4335636796
 20
115.6248162357
 10
67.4165493261
 20
115.5929572885
  0
LINE
  5
1CC
330
1F
100
AcDbEntity
  8
0
  6
Continuous
 62
     7
370
    25
100
AcDbLine
 10
67.914939843
 20
107.9937653877
 30
0.0
 11
68.2630171899
 21
109.1956281822
 31
0.0
  0
LWPOLYLINE
  5
1CD
330
1F
100
AcDbEntity
  8
0
  6
Continuous
 62
     7
370
    25
100
AcDbPolyline
 90
        9
 70
   128
 43
0.0
 10
67.7131478567
 20
108.6964148426
 10
67.7393785433
 20
108.5139745746
 10
67.7674716751
 20
108.3484567387
 10
67.7963476488
 20
108.2062220922
 10
67.824896777
 20
108.0927366331
 10
67.8520219326
 20
108.0123615437
 10
67.8766807111
 20
107.9681855938
 10
67.8979254896
 20
107.9619064402
 10
67.914939843
 20
107.9937653877
  0
LINE
  5
1CE
330
1F
100
AcDbEntity
  8
0
  6
Continuous
 62
     7
370
    25
100
AcDbLine
 10
67.1208745465
 20
113.1726240972
 30
0.0
 11
67.7131478567
 21
108.6964148426
 31
0.0
  0
ARC
  5
1CF
330
1F
100
AcDbEntity
  8
0
  6
Continuous
 62
     7
370
    25
100
AcDbCircle
 10
71.9048299825
 20
113.988728959
 30
0.0
 40
4.853066737596568
100
AcDbArc
 50
175.2441739924
 51
189.6810123722
  0
LWPOLYLINE
  5
1D0
330
1F
100
AcDbEntity
  8
0
  6
Continuous
 62
     7
370
    25
100
AcDbPolyline
 90
       27
 70
   128
 43
0.0
 10
67.4730322339
 20
111.1279523231
 10
67.5571063372
 20
110.554205145
 10
67.6474941006
 20
110.0524732206
 10
67.7389425158
 20
109.6519153857
 10
67.8261369332
 20
109.3758106058
 10
67.9040099304
 20
109.240205087
 10
67.9680358118
 20
109.2529797291
 10
68.0144936258
 20
109.4133921165
 10
68.0406834132
 20
109.7121196642
 10
68.0450831188
 20
110.1318014129
 10
68.0274370476
 20
110.648046985
 10
67.9887707251
 20
111.2308540643
 10
67.9313312976
 20
111.8463520216
 10
67.8584569356
 20
112.4587703531
 10
67.7743828323
 20
113.0325175313
 10
67.6839950689
 20
113.5342494556
 10
67.5925466537
 20
113.9348072905
 10
67.5053522363
 20
114.2109120704
 10
67.4274792391
 20
114.3465175892
 10
67.3634533577
 20
114.3337429471
 10
67.3169955437
 20
114.1733305597
 10
67.2908057563
 20
113.874603012
 10
67.2864060507
 20
113.4549212633
 10
67.3040521219
 20
112.9386756912
 10
67.3427184444
 20
112.355868612
 10
67.400157872
 20
111.7403706546
 10
67.4730322339
 20
111.1279523231
  0
LINE
  5
1D1
330
1F
100
AcDbEntity
  8
0
  6
Continuous
 62
     7
370
    25
100
AcDbLine
 10
68.1287788132
 20
104.5338941117
 30
0.0
 11
67.9491558699
 21
104.4454564982
 31
0.0
  0
LINE
  5
1D2
330
1F
100
AcDbEntity
  8
0
  6
Continuous
 62
     7
370
    25
100
AcDbLine
 10
66.6820782345
 20
115.9969327905
 30
0.0
 11
66.4366982754
 21
115.8761196161
 31
0.0
  0
LWPOLYLINE
  5
1D3
330
1F
100
AcDbEntity
  8
0
  6
Continuous
 62
     7
370
    25
100
AcDbPolyline
 90
        3
 70
   128
 43
0.0
 10
72.7273425347
 20
104.6404835432
 10
72.7295643188
 20
104.6413247521
 10
72.7363700602
 20
104.654068331
  0
LWPOLYLINE
  5
1D4
330
1F
100
AcDbEntity
  8
0
  6
Continuous
 62
     7
370
    25
100
AcDbPolyline
 90
       31
 70
   128
 43
0.0
 10
65.5112516952
 20
126.290816791
 10
65.5993823175
 20
126.1730141241
 10
65.6985186106
 20
125.9084766837
 10
65.8043278429
 20
125.5087660254
 10
65.912185643
 20
124.9913514231
 10
66.0173781077
 20
124.3788463777
 10
66.1153078213
 20
123.6980202987
 10
66.2016947856
 20
122.9786285529
 10
66.2727634757
 20
122.2521120114
 10
66.3254078487
 20
121.5502229335
 10
66.3573270929
 20
120.9036372398
 10
66.3671261843
 20
120.3406138279
 10
66.3543768555
 20
119.8857595224
 10
66.3196363133
 20
119.5589536392
 10
66.2644228862
 20
119.3744791636
 10
66.1911496658
 20
119.3403985154
 10
66.1030190435
 20
119.4582011823
 10
66.0038827504
 20
119.7227386227
 10
65.8980735181
 20
120.122449281
 10
65.790215718
 20
120.6398638833
 10
65.6850232534
 20
121.2523689287
 10
65.5870935397
 20
121.9331950077
 10
65.5007065754
 20
122.6525867535
 10
65.4296378854
 20
123.379103295
 10
65.3769935123
 20
124.0809923729
 10
65.3450742681
 20
124.7275780666
 10
65.3352751767
 20
125.2906014785
 10
65.3480245055
 20
125.745455784
 10
65.3827650477
 20
126.0722616672
 10
65.4379784748
 20
126.2567361428
 10
65.5112516952
 20
126.290816791
  0
LWPOLYLINE
  5
1D5
330
1F
100
AcDbEntity
  8
0
  6
Continuous
 62
     7
370
    25
100
AcDbPolyline
 90
       24
 70
   128
 43
0.0
 10
65.6569441175
 20
124.8014414462
 10
65.7239893421
 20
124.6967607868
 10
65.8004692497
 20
124.4525636052
 10
65.8807116754
 20
124.0869608891
 10
65.9587654057
 20
123.6270677196
 10
66.0288415524
 20
123.1069922692
 10
66.0857428882
 20
122.5653061548
 10
66.1252493015
 20
122.0421837575
 10
66.1444307822
 20
121.5764226723
 10
66.1418647278
 20
121.2025662683
 10
66.1177414506
 20
120.9483417646
 10
66.0738500639
 20
120.8326038297
 10
66.0134457909
 20
120.8639362168
 10
65.9410085404
 20
121.040015146
 10
65.8619106517
 20
121.3477816486
 10
65.7820184535
 20
121.7644100912
 10
65.7072571845
 20
122.259001048
 10
65.6431715461
 20
122.7948729704
 10
65.594514477
 20
123.3322826894
 10
65.5648946493
 20
123.8313729846
 10
65.5565088302
 20
124.255128612
 10
65.5699789575
 20
124.5721215552
 10
65.6043060135
 20
124.7588418978
 10
65.6569441175
 20
124.8014414462
  0
LINE
  5
1D6
330
1F
100
AcDbEntity
  8
0
  6
Continuous
 62
     7
370
    25
100
AcDbLine
 10
66.0178634496
 20
123.1665438407
 30
0.0
 11
65.9241353953
 21
122.9431001634
 31
0.0
  0
LINE
  5
1D7
330
1F
100
AcDbEntity
  8
0
  6
Continuous
 62
     7
370
    25
100
AcDbLine
 10
65.9241353953
 20
122.9431001634
 30
0.0
 11
66.0787600386
 21
122.6401041986
 31
0.0
  0
LINE
  5
1D8
330
1F
100
AcDbEntity
  8
0
  6
Continuous
 62
     7
370
    25
100
AcDbLine
 10
66.0462862667
 20
122.9559387373
 30
0.0
 11
65.9241353953
 21
122.9431001634
 31
0.0
  0
ELLIPSE
  5
1D9
330
1F
100
AcDbEntity
  8
0
  6
Continuous
 62
     7
370
    25
100
AcDbEllipse
 10
67.4355328071
 20
117.7004890446
 30
0.0
 11
-0.2357115583023699
 21
2.239976310166327
 31
0.0
210
0.0
220
0.0
230
1.0
 40
0.1044541566
 41
2.49207693195245
 42
2.569163737966623
  0
LINE
  5
1DA
330
1F
100
AcDbEntity
  8
0
  6
Continuous
 62
     7
370
    25
100
AcDbLine
 10
72.7961258279
 20
104.8603967077
 30
0.0
 11
73.565481337
 21
107.5168745582
 31
0.0
  0
LWPOLYLINE
  5
1DB
330
1F
100
AcDbEntity
  8
0
  6
Continuous
 62
     7
370
    25
100
AcDbPolyline
 90
        3
 70
   128
 43
0.0
 10
72.7690432516
 20
104.8196423443
 10
72.7757086037
 20
104.8221659711
 10
72.7961258279
 20
104.8603967077
  0
LINE
  5
1DC
330
1F
100
AcDbEntity
  8
0
  6
Continuous
 62
     7
370
    25
100
AcDbLine
 10
73.5025982564
 20
108.9790390344
 30
0.0
 11
72.1934963049
 21
118.8728062709
 31
0.0
  0
ARC
  5
1DD
330
1F
100
AcDbEntity
  8
0
  6
Continuous
 62
     7
370
    25
100
AcDbCircle
 10
70.6103842782
 20
108.299106035
 30
0.0
 40
5.823680085117402
100
AcDbArc
 50
355.2441739924
 51
9.6810123722
  0
LINE
  5
1DE
330
1F
100
AcDbEntity
  8
0
  6
Continuous
 62
     7
370
    25
100
AcDbLine
 10
76.3511308014
 20
109.2784318691
 30
0.0
 11
75.0420288499
 21
119.1721991056
 31
0.0
  0
ARC
  5
1DF
330
1F
100
AcDbEntity
  8
0
  6
Continuous
 62
     7
370
    25
100
AcDbCircle
 10
72.3198846362
 20
108.4977511059
 30
0.0
 40
4.36776006383803
100
AcDbArc
 50
355.2441739924
 51
9.6810123722
  0
LINE
  5
1E0
330
1F
100
AcDbEntity
  8
0
  6
Continuous
 62
     7
370
    25
100
AcDbLine
 10
75.3163425772
 20
119.126012718
 30
0.0
 11
76.6254445287
 21
109.2322454815
 31
0.0
  0
LINE
  5
1E1
330
1F
100
AcDbEntity
  8
0
  6
Continuous
 62
     7
370
    25
100
AcDbLine
 10
75.6446583729
 20
105.1597895425
 30
0.0
 11
76.4140138821
 21
107.816267393
 31
0.0
  0
LINE
  5
1E2
330
1F
100
AcDbEntity
  8
0
  6
Continuous
 62
     7
370
    25
100
AcDbLine
 10
76.6726068392
 20
108.1356221244
 30
0.0
 11
75.90325133
 21
105.4791442739
 31
0.0
  0
ARC
  5
1E3
330
1F
100
AcDbEntity
  8
0
  6
Continuous
 62
     7
370
    25
100
AcDbCircle
 10
73.3714009158
 20
119.2338532712
 30
0.0
 40
1.671765213896857
100
AcDbArc
 50
357.8864707152
 51
29.4631084341
  0
ARC
  5
1E4
330
1F
100
AcDbEntity
  8
0
  6
Continuous
 62
     7
370
    25
100
AcDbCircle
 10
73.2779507936
 20
119.0059304709
 30
0.0
 40
2.041925759978934
100
AcDbArc
 50
3.3714143986
 51
22.430081601
  0
LWPOLYLINE
  5
1E5
330
1F
100
AcDbEntity
  8
0
  6
Continuous
 62
     7
370
    25
100
AcDbPolyline
 90
        3
 70
   128
 43
0.0
 10
75.6175757966
 20
105.1190351791
 10
75.6242411487
 20
105.1215588059
 10
75.6446583729
 20
105.1597895425
  0
LINE
  5
1E6
330
1F
100
AcDbEntity
  8
0
  6
Continuous
 62
     7
370
    25
100
AcDbLine
 10
75.90325133
 20
105.4791442739
 30
0.0
 11
75.8922519124
 21
105.4545696546
 31
0.0
  0
LINE
  5
1E7
330
1F
100
AcDbEntity
  8
0
  6
Continuous
 62
     7
370
    25
100
AcDbLine
 10
75.2295065582
 20
119.6178053737
 30
0.0
 11
75.148886903
 21
120.2271025348
 31
0.0
  0
LINE
  5
1E8
330
1F
100
AcDbEntity
  8
0
  6
Continuous
 62
     7
370
    25
100
AcDbLine
 10
72.0416065894
 20
119.9005142137
 30
0.0
 11
75.148886903
 21
120.2271025348
 31
0.0
  0
LINE
  5
1E9
330
1F
100
AcDbEntity
  8
0
  6
Continuous
 62
     7
370
    25
100
AcDbLine
 10
59.6123453006
 20
179.7763856472
 30
0.0
 11
67.5917734876
 21
119.4704598392
 31
0.0
  0
ARC
  5
1EA
330
1F
100
AcDbEntity
  8
0
  6
Continuous
 62
     7
370
    25
100
AcDbCircle
 10
68.8728415524
 20
149.1456297119
 30
0.0
 40
32.00000000000006
100
AcDbArc
 50
0.0
 51
106.8214701417
  0
LINE
  5
1EB
330
1F
100
AcDbEntity
  8
0
  6
Continuous
 62
     7
370
    25
100
AcDbLine
 10
100.8728415524
 20
118.1925106066
 30
0.0
 11
100.8728415524
 21
149.1456297119
 31
0.0
  0
SPLINE
  5
1EC
330
1F
100
AcDbEntity
  8
0
  6
Continuous
 62
     7
370
    25
100
AcDbSpline
210
0.0
220
0.0
230
1.0
 70
     8
 71
     3
 72
    26
 73
    22
 74
     0
 42
0.000000001
 43
0.00000001
 40
0.0
 40
0.0
 40
0.0
 40
0.0
 40
0.0526848671791605
 40
0.1052983990642863
 40
0.1578520730436221
 40
0.2103574057592932
 40
0.2628259456856021
 40
0.3152692656031282
 40
0.3676989549928565
 40
0.4201266123751254
 40
0.4725638376186473
 40
0.5250222242450538
 40
0.5775133517544621
 40
0.6300487779974308
 40
0.6826400316182546
 40
0.7352986045940535
 40
0.788035944893343
 40
0.8408634492769194
 40
0.8937924562627722
 40
0.9468342392755837
 40
0.9999999999999999
 40
0.9999999999999999
 40
0.9999999999999999
 40
0.9999999999999999
 10
90.90372652772909
 20
110.4879956673026
 30
0.0
 10
91.0973143629296
 20
110.5989233623979
 30
0.0
 10
91.48422791546102
 20
110.8206285565233
 30
0.0
 10
92.05753812057526
 20
111.1635687964787
 30
0.0
 10
92.62511288810828
 20
111.5137933021474
 30
0.0
 10
93.18648145449355
 20
111.8720639034519
 30
0.0
 10
93.74176964432677
 20
112.2381767479543
 30
0.0
 10
94.29094367453136
 20
112.6121863342289
 30
0.0
 10
94.83401248035945
 20
112.9940780130116
 30
0.0
 10
95.37097356607718
 20
113.3838556393619
 30
0.0
 10
95.90182749614833
 20
113.7815181117919
 30
0.0
 10
96.42657404033194
 20
114.1870656324266
 30
0.0
 10
96.94521311079826
 20
114.6004981180015
 30
0.0
 10
97.45774487023078
 20
115.02181529808
 30
0.0
 10
97.96416836201996
 20
115.4510179150192
 30
0.0
 10
98.46448689155937
 20
115.8881028199243
 30
0.0
 10
98.95868783420673
 20
116.3330814257702
 30
0.0
 10
99.44681818772182
 20
116.7859106508595
 30
0.0
 10
99.92870185652023
 20
117.2467513330398
 30
0.0
 10
100.4049978885535
 20
117.7150009575635
 30
0.0
 10
100.7167723513444
 20
118.0332169041276
 30
0.0
 10
100.8728415523207
 20
118.1925106066125
 30
0.0
  0
LINE
  5
1ED
330
1F
100
AcDbEntity
  8
0
  6
Continuous
 62
     7
370
    25
100
AcDbLine
 10
76.6359250421
 20
108.9885514021
 30
0.0
 11
90.9037053737
 21
110.4881555428
 31
0.0
  0
SPLINE
  5
1EE
330
1F
100
AcDbEntity
  8
0
  6
Continuous
 62
     7
370
    25
100
AcDbSpline
210
0.0
220
0.0
230
1.0
 70
     8
 71
     3
 72
     8
 73
     4
 74
     0
 42
0.000000001
 43
0.00000001
 40
0.0
 40
0.0
 40
0.0
 40
0.0
 40
1.0
 40
1.0
 40
1.0
 40
1.0
 10
90.90405780697522
 20
110.4880446083596
 30
0.0
 10
90.87700202639054
 20
110.2813359493327
 30
0.0
 10
90.84897435018314
 20
110.0744547482614
 30
0.0
 10
90.81997192138395
 20
109.8674104568097
 30
0.0
  0
LINE
  5
1EF
330
1F
100
AcDbEntity
  8
0
  6
Continuous
 62
     7
370
    25
100
AcDbLine
 10
90.8351585229
 20
109.8689619142
 30
0.0
 11
76.6883563655
 21
108.382073092
 31
0.0
  0
LINE
  5
1F0
330
1F
100
AcDbEntity
  8
0
  6
Continuous
 62
     7
370
    25
100
AcDbLine
 10
75.0485686314
 20
119.8807174587
 30
0.0
 11
75.148886903
 21
120.2271025348
 31
0.0
  0
LINE
  5
1F1
330
1F
100
AcDbEntity
  8
0
  6
Continuous
 62
     7
370
    25
100
AcDbLine
 10
82.0751185395
 20
106.1258681789
 30
0.0
 11
75.9026493697
 21
105.4771155271
 31
0.0
  0
ARC
  5
1F2
330
1F
100
AcDbEntity
  8
0
  6
Continuous
 62
     7
370
    25
100
AcDbCircle
 10
68.8728415524
 20
149.1456297119
 30
0.0
 40
45.00000000000001
100
AcDbArc
 50
287.0606561961
 51
299.2076589298
  0
SPLINE
  5
1F3
330
1F
100
AcDbEntity
  8
0
  6
Continuous
 62
     7
370
    25
100
AcDbSpline
210
0.0
220
0.0
230
1.0
 70
     8
 71
     3
 72
    27
 73
    23
 74
     0
 42
0.000000001
 43
0.00000001
 40
0.0
 40
0.0
 40
0.0
 40
0.0
 40
0.0532547960438071
 40
0.1061656547124897
 40
0.1587327786693344
 40
0.2109563745818629
 40
0.2628366532253938
 40
0.3143738295899636
 40
0.3655681229906178
 40
0.4164197571812268
 40
0.4669289604720299
 40
0.5170959658508896
 40
0.5669210111086161
 40
0.6164043389682963
 40
0.6655461972189295
 40
0.7143468388534825
 40
0.7628065222115163
 40
0.8109255111266397
 40
0.8587040750788462
 40
0.9061424893520872
 40
0.953241035197118
 40
1.0
 40
1.0
 40
1.0
 40
1.0
 10
100.8728456170805
 20
117.5070497838575
 30
0.0
 10
100.714884808331
 20
117.3486531973664
 30
0.0
 10
100.3999833548354
 20
117.0328830027869
 30
0.0
 10
99.92003763023425
 20
116.5694343872719
 30
0.0
 10
99.43674220711307
 20
116.1153939881476
 30
0.0
 10
98.94966485447387
 20
115.6713428737816
 30
0.0
 10
98.45920397496357
 20
115.2370832777865
 30
0.0
 10
97.96553356452075
 20
114.8126187885619
 30
0.0
 10
97.46888308693393
 20
114.3978944351584
 30
0.0
 10
96.96946316502427
 20
113.9928658044975
 30
0.0
 10
96.4674852463605
 20
113.5974808595733
 30
0.0
 10
95.96315633680148
 20
113.2116849256715
 30
0.0
 10
95.45668037313622
 20
112.8354194951628
 30
0.0
 10
94.94825776187267
 20
112.4686227968719
 30
0.0
 10
94.43808569274637
 20
112.1112294297014
 30
0.0
 10
93.9263572010295
 20
111.7631719650831
 30
0.0
 10
93.41326444242794
 20
111.4243756653421
 30
0.0
 10
92.89898653724579
 20
111.0947785149778
 30
0.0
 10
92.38373438100405
 20
110.7742577983194
 30
0.0
 10
91.8675851258307
 20
110.4629017442065
 30
0.0
 10
91.35109326859626
 20
110.1600070797654
 30
0.0
 10
91.00446736540327
 20
109.9644823931507
 30
0.0
 10
90.83178146850186
 20
109.8670737587602
 30
0.0
  0
LINE
  5
1F4
330
1F
100
AcDbEntity
  8
0
  6
Continuous
 62
     7
370
    25
100
AcDbLine
 10
100.8728415524
 20
118.1925857327
 30
0.0
 11
100.8728415524
 21
117.5068722206
 31
0.0
  0
LINE
  5
1F5
330
1F
100
AcDbEntity
  8
0
  6
Continuous
 62
     7
370
    25
100
AcDbLine
 10
67.916665212
 20
104.6745617591
 30
0.0
 11
67.0439285795
 21
104.6745617591
 31
0.0
  0
SPLINE
  5
1F6
330
1F
100
AcDbEntity
  8
0
  6
Continuous
 62
     7
370
    25
100
AcDbSpline
210
0.0
220
0.0
230
1.0
 70
     8
 71
     3
 72
     8
 73
     4
 74
     0
 42
0.000000001
 43
0.00000001
 40
0.0
 40
0.0
 40
0.0
 40
0.0
 40
1.0
 40
1.0
 40
1.0
 40
1.0
 10
67.00638973976464
 20
104.9261835269821
 30
0.0
 10
67.01808832496752
 20
104.8383811316224
 30
0.0
 10
67.03087787751447
 20
104.752681354568
 30
0.0
 10
67.04392857952398
 20
104.674561759055
 30
0.0
  0
SPLINE
  5
1F7
330
1F
100
AcDbEntity
  8
0
  6
Continuous
 62
     7
370
    25
100
AcDbSpline
210
0.0
220
0.0
230
1.0
 70
     8
 71
     3
 72
     8
 73
     4
 74
     0
 42
0.000000001
 43
0.00000001
 40
0.0
 40
0.0
 40
0.0
 40
0.0
 40
1.0
 40
1.0
 40
1.0
 40
1.0
 10
65.38724993035605
 20
117.0934160533612
 30
0.0
 10
65.92634607301633
 20
113.0354629184193
 30
0.0
 10
66.46622649743709
 20
108.9803170601502
 30
0.0
 10
67.00638973976464
 20
104.9261835269821
 30
0.0
  0
SPLINE
  5
1F8
330
1F
100
AcDbEntity
  8
0
  6
Continuous
 62
     7
370
    25
100
AcDbSpline
210
0.0
220
0.0
230
1.0
 70
     8
 71
     3
 72
    10
 73
     6
 74
     0
 42
0.000000001
 43
0.00000001
 40
0.0
 40
0.0
 40
0.0
 40
0.0
 40
0.5
 40
0.5
 40
1.0
 40
1.0
 40
1.0
 40
1.0
 10
65.20460230071244
 20
117.8599457527124
 30
0.0
 10
65.22841832288151
 20
117.8571533295884
 30
0.0
 10
65.259644923215
 20
117.7777361824024
 30
0.0
 10
65.32535876199522
 20
117.500572570216
 30
0.0
 10
65.35862233898469
 20
117.3089053046439
 30
0.0
 10
65.38724993035603
 20
117.0934160533612
 30
0.0
  0
ARC
  5
1F9
330
1F
100
AcDbEntity
  8
0
  6
Continuous
 62
     7
370
    25
100
AcDbCircle
 10
68.8728415524
 20
149.1456297119
 30
0.0
 40
31.5
100
AcDbArc
 50
263.0907749766
 51
263.312616436
  0
ARC
  5
1FA
330
1F
100
AcDbEntity
  8
0
  6
Continuous
 62
     7
370
    25
100
AcDbCircle
 10
68.8728415524
 20
149.1456297119
 30
0.0
 40
31.50000000000001
100
AcDbArc
 50
108.687383564
 51
108.9092250234
  0
SPLINE
  5
1FB
330
1F
100
AcDbEntity
  8
0
  6
Continuous
 62
     7
370
    25
100
AcDbSpline
210
0.0
220
0.0
230
1.0
 70
     8
 71
     3
 72
    10
 73
     6
 74
     0
 42
0.000000001
 43
0.00000001
 40
0.0
 40
0.0
 40
0.0
 40
0.0
 40
0.5
 40
0.5
 40
1.0
 40
1.0
 40
1.0
 40
1.0
 10
58.81498354099547
 20
179.5239030700149
 30
0.0
 10
58.8221402024157
 20
179.3693064055157
 30
0.0
 10
58.82293026891356
 20
179.235892074376
 30
0.0
 10
58.81092721697647
 20
179.0459208702093
 30
0.0
 10
58.79828025708262
 20
178.9911248984588
 30
0.0
 10
58.78010267910602
 20
178.984976588691
 30
0.0
  0
ARC
  5
1FC
330
1F
100
AcDbEntity
  8
0
  6
Continuous
 62
     7
370
    25
100
AcDbCircle
 10
68.8728415524
 20
149.1456297119
 30
0.0
 40
32.00000000000004
100
AcDbArc
 50
106.8214701417
 51
108.3190472424
  0
ARC
  5
1FD
330
1F
100
AcDbEntity
  8
0
  6
Continuous
 62
     7
370
    25
100
AcDbCircle
 10
79.6703132501
 20
115.0124044597
 30
0.0
 40
13.15841799053012
100
AcDbArc
 50
178.8695615858
 51
196.2051484354
  0
SPLINE
  5
1FE
330
1F
100
AcDbEntity
  8
0
  6
Continuous
 62
     7
370
    25
100
AcDbSpline
210
0.0
220
0.0
230
1.0
 70
     8
 71
     3
 72
    20
 73
    16
 74
     0
 42
0.000000001
 43
0.00000001
 40
0.0
 40
0.0
 40
0.0
 40
0.0
 40
0.2500000000000023
 40
0.2500000000000023
 40
0.3750000000000019
 40
0.3750000000000019
 40
0.5000000000000016
 40
0.5000000000000016
 40
0.6250000000000012
 40
0.6250000000000012
 40
0.7500000000000008
 40
0.7500000000000008
 40
0.8750000000000004
 40
0.8750000000000004
 40
1.0
 40
1.0
 40
1.0
 40
1.0
 10
58.66464472996559
 20
178.9456753097241
 30
0.0
 10
58.60165654961267
 20
178.9240983043998
 30
0.0
 10
58.44950036449626
 20
178.8721880303663
 30
0.0
 10
58.09155885846976
 20
178.7434340429173
 30
0.0
 10
57.95151591245605
 20
178.6922501240351
 30
0.0
 10
57.63749692461694
 20
178.5742749849573
 30
0.0
 10
57.46279030043434
 20
178.5072282177913
 30
0.0
 10
57.07840181470524
 20
178.3549420568959
 30
0.0
 10
56.86884233921121
 20
178.2696864286814
 30
0.0
 10
56.43001464557445
 20
178.0849236790878
 30
0.0
 10
56.19912998319272
 20
177.9847921095053
 30
0.0
 10
55.71563268139125
 20
177.7674414550368
 30
0.0
 10
55.46188212878074
 20
177.6496270220301
 30
0.0
 10
54.94685512151678
 20
177.4015777095292
 30
0.0
 10
54.6841434210879
 20
177.2707336303267
 30
0.0
 10
54.41667703104132
 20
177.1325785868554
 30
0.0
  0
SPLINE
  5
1FF
330
1F
100
AcDbEntity
  8
0
  6
Continuous
 62
     7
370
    25
100
AcDbSpline
210
0.0
220
0.0
230
1.0
 70
     8
 71
     3
 72
    20
 73
    16
 74
     0
 42
0.000000001
 43
0.00000001
 40
0.0
 40
0.0
 40
0.0
 40
0.0
 40
0.2499999999999992
 40
0.2499999999999992
 40
0.3749999999999993
 40
0.3749999999999993
 40
0.4999999999999994
 40
0.4999999999999994
 40
0.6249999999999996
 40
0.6249999999999996
 40
0.7499999999999997
 40
0.7499999999999997
 40
0.8749999999999999
 40
0.8749999999999999
 40
1.0
 40
1.0
 40
1.0
 40
1.0
 10
60.55139277144855
 20
118.7646572095653
 30
0.0
 10
61.13221706981704
 20
118.6055675145516
 30
0.0
 10
61.68440113441705
 20
118.4721942955651
 30
0.0
 10
62.46471804085389
 20
118.3031787387237
 30
0.0
 10
62.71568346355713
 20
118.252328700121
 30
0.0
 10
63.18318827955694
 20
118.1628201432016
 30
0.0
 10
63.40200985556896
 20
118.1236611452663
 30
0.0
 10
63.80867352546227
 20
118.0546867316812
 30
0.0
 10
63.99775780789221
 20
118.0247038763173
 30
0.0
 10
64.33140681551676
 20
117.9742672631644
 30
0.0
 10
64.47729989693312
 20
117.9535614909353
 30
0.0
 10
64.72721172392058
 20
117.9193641703484
 30
0.0
 10
64.83173611645273
 20
117.9058137493345
 30
0.0
 10
64.99334860763028
 20
117.8853327041796
 30
0.0
 10
65.05042945693877
 20
117.8783900633728
 30
0.0
 10
65.0834961894138
 20
117.8743831470155
 30
0.0
  0
ELLIPSE
  5
200
330
1F
100
AcDbEntity
  8
0
  6
Continuous
 62
     7
370
    25
100
AcDbEllipse
 10
54.9945748577
 20
132.6002932305
 30
0.0
 11
-2.266853502313118
 21
2.998331141371068
 31
0.0
210
0.0
220
0.0
230
1.0
 40
0.6487969398
 41
0.0
 42
6.283185307179586
  0
ARC
  5
201
330
1F
100
AcDbEntity
  8
0
  6
Continuous
 62
     7
370
    25
100
AcDbCircle
 10
68.8728415524
 20
149.1456297119
 30
0.0
 40
31.50000000000001
100
AcDbArc
 50
117.3178167666
 51
254.6821832334
  0
LINE
  5
202
330
1F
100
AcDbEntity
  8
0
  6
Continuous
 62
     7
370
    18
100
AcDbLine
 10
73.6042760779
 20
108.2105910937
 30
0.0
 11
68.8962847881
 21
107.7157612695
 31
0.0
  0
LINE
  5
203
330
1F
100
AcDbEntity
  8
0
  6
Continuous
 62
     7
370
    18
100
AcDbLine
 10
73.6252371048
 20
107.7232029349
 30
0.0
 11
68.917245815
 21
107.2283731108
 31
0.0
  0
LINE
  5
204
330
1F
100
AcDbEntity
  8
0
  6
Continuous
 62
     7
370
    18
100
AcDbLine
 10
72.0918184834
 20
119.6412542116
 30
0.0
 11
67.3838271937
 21
119.1464243874
 31
0.0
  0
LINE
  5
205
330
1F
100
AcDbEntity
  8
0
  6
Continuous
 62
     7
370
    18
100
AcDbLine
 10
72.7363700602
 20
104.654068331
 30
0.0
 11
68.0283787704
 21
104.1592385068
 31
0.0
  0
LINE
  5
206
330
1F
100
AcDbEntity
  8
0
  6
Continuous
 62
     7
370
    18
100
AcDbLine
 10
68.5171088241
 20
110.5650014381
 30
0.0
 11
68.2106146227
 21
110.414098579
 31
0.0
  0
LINE
  5
207
330
1F
100
AcDbEntity
  8
0
  6
Continuous
 62
     7
370
    18
100
AcDbLine
 10
68.7878802499
 20
108.5185989721
 30
0.0
 11
68.2630171899
 21
109.1956281822
 31
0.0
  0
LINE
  5
208
330
1F
100
AcDbEntity
  8
0
  6
Continuous
 62
     7
370
    18
100
AcDbLine
 10
67.924835514
 20
115.0412106926
 30
0.0
 11
67.6183413126
 21
114.8903078335
 31
0.0
  0
SPLINE
  5
209
330
1F
100
AcDbEntity
  8
0
  6
Continuous
 62
     7
370
    18
100
AcDbSpline
210
0.0
220
0.0
230
1.0
 70
     8
 71
     3
 72
     9
 73
     5
 74
     0
 42
0.000000001
 43
0.00000001
 40
0.0
 40
0.0
 40
0.0
 40
0.0
 40
0.3834958053253933
 40
1.0
 40
1.0
 40
1.0
 40
1.0
 10
67.50596993713917
 20
115.8020408123361
 30
0.0
 10
67.49205632587818
 20
115.8718565428839
 30
0.0
 10
67.45577532601384
 20
116.0539073751965
 30
0.0
 10
67.47697231382138
 20
116.1672660400901
 30
0.0
 10
67.49004034571921
 20
116.2371521324997
 30
0.0
  0
LINE
  5
20A
330
1F
100
AcDbEntity
  8
0
  6
Continuous
 62
     7
370
    18
100
AcDbLine
 10
67.4900403457
 20
116.2371521325
 30
0.0
 11
67.6798675355
 21
116.8925990865
 31
0.0
  0
LINE
  5
20B
330
1F
100
AcDbEntity
  8
0
  6
Continuous
 62
     7
370
    18
100
AcDbLine
 10
68.7871344664
 20
106.8071048572
 30
0.0
 11
68.71780004
 21
106.9581432486
 31
0.0
  0
LINE
  5
20C
330
1F
100
AcDbEntity
  8
0
  6
Continuous
 62
     7
370
    18
100
AcDbLine
 10
68.71780004
 20
106.9581432486
 30
0.0
 11
68.9062202036
 21
107.6087319363
 31
0.0
  0
LINE
  5
20D
330
1F
100
AcDbEntity
  8
0
  6
Continuous
 62
     7
370
    18
100
AcDbLine
 10
68.71780004
 20
106.9581432486
 30
0.0
 11
67.914939843
 21
107.9937653877
 31
0.0
  0
LINE
  5
20E
330
1F
100
AcDbEntity
  8
0
  6
Continuous
 62
     7
370
    18
100
AcDbLine
 10
67.5952698312
 20
116.007919801
 30
0.0
 11
67.4900403457
 21
116.2371521325
 31
0.0
  0
SPLINE
  5
20F
330
1F
100
AcDbEntity
  8
0
  6
Continuous
 62
     7
370
    18
100
AcDbSpline
210
0.0
220
0.0
230
1.0
 70
     8
 71
     3
 72
     9
 73
     5
 74
     0
 42
0.000000001
 43
0.00000001
 40
0.0
 40
0.0
 40
0.0
 40
0.0
 40
0.3604004131296494
 40
1.0
 40
1.0
 40
1.0
 40
1.0
 10
68.71091859180127
 20
106.8122544853805
 30
0.0
 10
68.70442953129111
 20
106.8173451813011
 30
0.0
 10
68.6864243895827
 20
106.8314702925251
 30
0.0
 10
68.70556055594076
 20
106.9087287628556
 30
0.0
 10
68.71780004003766
 20
106.9581432485612
 30
0.0
  0
SPLINE
  5
210
330
1F
100
AcDbEntity
  8
0
  6
Continuous
 62
     7
370
    18
100
AcDbSpline
210
0.0
220
0.0
230
1.0
 70
     8
 71
     3
 72
    10
 73
     6
 74
     0
 42
0.000000001
 43
0.00000001
 40
0.0
 40
0.0
 40
0.0
 40
0.0
 40
0.0773720727961037
 40
0.8466379522120745
 40
1.0
 40
1.0
 40
1.0
 40
1.0
 10
68.71560083477314
 20
106.560109150018
 30
0.0
 10
68.70971388371282
 20
106.5722744656789
 30
0.0
 10
68.6452963747801
 20
106.7053924960865
 30
0.0
 10
68.57833189910335
 20
106.8765174155836
 30
0.0
 10
68.5246253908933
 20
107.0423113871788
 30
0.0
 10
68.51569813014629
 20
107.0698701703514
 30
0.0
  0
LINE
  5
211
330
1F
100
AcDbEntity
  8
0
  6
Continuous
 62
     7
370
    18
100
AcDbLine
 10
73.5025982564
 20
108.9790390344
 30
0.0
 11
76.3511308014
 21
109.2784318691
 31
0.0
  0
LINE
  5
212
330
1F
100
AcDbEntity
  8
0
  6
Continuous
 62
     7
370
    18
100
AcDbLine
 10
76.4140138821
 20
107.816267393
 30
0.0
 11
73.565481337
 21
107.5168745582
 31
0.0
  0
LINE
  5
213
330
1F
100
AcDbEntity
  8
0
  6
Continuous
 62
     7
370
    18
100
AcDbLine
 10
75.0420288499
 20
119.1721991056
 30
0.0
 11
72.1934963049
 21
118.8728062709
 31
0.0
  0
LINE
  5
214
330
1F
100
AcDbEntity
  8
0
  6
Continuous
 62
     7
370
    18
100
AcDbLine
 10
76.6726068392
 20
108.1356221244
 30
0.0
 11
76.4140138821
 21
107.816267393
 31
0.0
  0
LINE
  5
215
330
1F
100
AcDbEntity
  8
0
  6
Continuous
 62
     7
370
    18
100
AcDbLine
 10
76.6254445287
 20
109.2322454815
 30
0.0
 11
76.3511308014
 21
109.2784318691
 31
0.0
  0
LINE
  5
216
330
1F
100
AcDbEntity
  8
0
  6
Continuous
 62
     7
370
    18
100
AcDbLine
 10
75.3163425772
 20
119.126012718
 30
0.0
 11
75.0420288499
 21
119.1721991056
 31
0.0
  0
LINE
  5
217
330
1F
100
AcDbEntity
  8
0
  6
Continuous
 62
     7
370
    18
100
AcDbLine
 10
72.7961258279
 20
104.8603967077
 30
0.0
 11
75.6446583729
 21
105.1597895425
 31
0.0
  0
LINE
  5
218
330
1F
100
AcDbEntity
  8
0
  6
Continuous
 62
     7
370
    18
100
AcDbLine
 10
75.6446583729
 20
105.1597895425
 30
0.0
 11
75.90325133
 21
105.4791442739
 31
0.0
  0
LINE
  5
219
330
1F
100
AcDbEntity
  8
0
  6
Continuous
 62
     7
370
    18
100
AcDbLine
 10
65.0834961894
 20
117.874383147
 30
0.0
 11
58.66464473
 21
178.9456753097
 31
0.0
  0
LINE
  5
21A
330
1F
100
AcDbEntity
  8
0
  6
Continuous
 62
     7
370
    18
100
AcDbLine
 10
60.5513927714
 20
118.7646572096
 30
0.0
 11
54.416677031
 21
177.1325785869
 31
0.0
  0
INSERT
  5
226
330
1F
100
AcDbEntity
  8
VERMASSUNG
100
AcDbBlockReference
  2
SW_CENTERMARKSYMBOL_0
 10
68.8728415524
 20
149.1456297119
 30
0.0
  0
ARC
  5
227
330
1F
100
AcDbEntity
  8
0
  6
Continuous
 62
     7
370
    25
100
AcDbCircle
 10
181.1986413303
 20
44.1561418591
 30
0.0
 40
1.249999999999984
100
AcDbArc
 50
62.973586428
 51
187.2277565647
  0
LINE
  5
228
330
1F
100
AcDbEntity
  8
0
  6
Continuous
 62
     7
370
    25
100
AcDbLine
 10
181.4183178149
 20
21.9921737421
 30
0.0
 11
181.4173537057
 21
20.2725885227
 31
0.0
  0
LINE
  5
229
330
1F
100
AcDbEntity
  8
0
  6
Continuous
 62
     7
370
    25
100
AcDbLine
 10
189.9560115032
 20
21.7474874902
 30
0.0
 11
189.9569756123
 21
23.4670726858
 31
0.0
  0
LINE
  5
22A
330
1F
100
AcDbEntity
  8
0
  6
Continuous
 62
     7
370
    25
100
AcDbLine
 10
187.9276377837
 20
28.1439044875
 30
0.0
 11
187.8840665035
 21
28.1530755699
 31
0.0
  0
LINE
  5
22B
330
1F
100
AcDbEntity
  8
0
  6
Continuous
 62
     7
370
    25
100
AcDbLine
 10
186.8672928809
 20
28.1536459811
 30
0.0
 11
186.8237117225
 21
28.1445237558
 31
0.0
  0
LINE
  5
22C
330
1F
100
AcDbEntity
  8
0
  6
Continuous
 62
     7
370
    25
100
AcDbLine
 10
186.4364585758
 20
17.1374339842
 30
0.0
 11
186.4800291976
 21
17.1282639472
 31
0.0
  0
LINE
  5
22D
330
1F
100
AcDbEntity
  8
0
  6
Continuous
 62
     7
370
    25
100
AcDbLine
 10
186.7414858552
 20
17.1281168057
 30
0.0
 11
186.7850656966
 21
17.1372398864
 31
0.0
  0
LINE
  5
22E
330
1F
100
AcDbEntity
  8
0
  6
Continuous
 62
     7
370
    25
100
AcDbLine
 10
181.564357962
 20
20.133764367
 30
0.0
 11
181.5639088347
 21
19.3315593282
 31
0.0
  0
LINE
  5
22F
330
1F
100
AcDbEntity
  8
0
  6
Continuous
 62
     7
370
    25
100
AcDbLine
 10
189.8082920675
 20
20.607673663
 30
0.0
 11
189.8088116591
 21
21.5359188085
 31
0.0
  0
LINE
  5
230
330
1F
100
AcDbEntity
  8
0
  6
Continuous
 62
     7
370
    25
100
AcDbLine
 10
176.3257299144
 20
24.7026277065
 30
0.0
 11
177.5614320488
 21
23.9892720485
 31
0.0
  0
LINE
  5
231
330
1F
100
AcDbEntity
  8
0
  6
Continuous
 62
     7
370
    25
100
AcDbLine
 10
170.9024403684
 20
27.8334261204
 30
0.0
 11
173.6108788631
 21
26.2698778585
 31
0.0
  0
LINE
  5
232
330
1F
100
AcDbEntity
  8
0
  6
Continuous
 62
     7
370
    25
100
AcDbLine
 10
189.3595993524
 20
53.5504169789
 30
0.0
 11
186.6511608577
 21
55.1139652408
 31
0.0
  0
LINE
  5
233
330
1F
100
AcDbEntity
  8
0
  6
Continuous
 62
     7
370
    25
100
AcDbLine
 10
196.6174401069
 20
49.3605546951
 30
0.0
 11
192.0744504037
 21
51.9831668269
 31
0.0
  0
LINE
  5
234
330
1F
100
AcDbEntity
  8
0
  6
Continuous
 62
     7
370
    25
100
AcDbLine
 10
182.3361708083
 20
13.4388562584
 30
0.0
 11
188.1851339547
 21
10.0623217055
 31
0.0
  0
SPLINE
  5
235
330
1F
100
AcDbEntity
  8
0
  6
Continuous
 62
     7
370
    25
100
AcDbSpline
210
0.0
220
0.0
230
1.0
 70
     8
 71
     3
 72
    14
 73
    10
 74
     0
 42
0.000000001
 43
0.00000001
 40
0.0
 40
0.0
 40
0.0
 40
0.0
 40
0.0375212484419602
 40
0.2042720530275403
 40
0.370680424233061
 40
0.5366092753469562
 40
0.70193582180898
 40
0.8665871390985731
 40
1.0
 40
1.0
 40
1.0
 40
1.0
 10
178.1947319115746
 20
19.08130400975283
 30
0.0
 10
178.2161165315941
 20
19.00202043065381
 30
0.0
 10
178.3325380371671
 20
18.5703871522734
 30
0.0
 10
178.6152187486846
 20
17.84808313303591
 30
0.0
 10
179.0443240834388
 20
16.92405267483594
 30
0.0
 10
179.5471724144855
 20
16.07865415337132
 30
0.0
 10
180.115468638569
 20
15.31297670754929
 30
0.0
 10
180.7012179535206
 20
14.66342687994442
 30
0.0
 10
181.1244013806762
 20
14.31021328611931
 30
0.0
 10
181.3138173381575
 20
14.15211566986942
 30
0.0
  0
SPLINE
  5
236
330
1F
100
AcDbEntity
  8
0
  6
Continuous
 62
     7
370
    25
100
AcDbSpline
210
0.0
220
0.0
230
1.0
 70
     8
 71
     3
 72
    33
 73
    29
 74
     0
 42
0.000000001
 43
0.00000001
 40
0.0
 40
0.0
 40
0.0
 40
0.0
 40
0.0136787914862414
 40
0.0543537159703988
 40
0.095136058753029
 40
0.1359940871890329
 40
0.1768979607079243
 40
0.2178242115660928
 40
0.2587553969332027
 40
0.299680506571026
 40
0.3405953668509464
 40
0.3814984622257365
 40
0.4223900303669512
 40
0.463271321855775
 40
0.5041441589485668
 40
0.5450107482229776
 40
0.5858733602201934
 40
0.6267344275023764
 40
0.66759642178165
 40
0.708461016929718
 40
0.7493307069608113
 40
0.7902080400746917
 40
0.831095444032161
 40
0.871995244497937
 40
0.912909468508287
 40
0.9538395409282596
 40
0.9926296432862717
 40
1.0
 40
1.0
 40
1.0
 40
1.0
 10
183.187095625005
 20
55.84648425250746
 30
0.0
 10
183.0943698574914
 20
55.84310367749745
 30
0.0
 10
182.7259169838849
 20
55.82967070616397
 30
0.0
 10
182.0544283047676
 20
55.70958798319488
 30
0.0
 10
181.1786221918872
 20
55.48653082634732
 30
0.0
 10
180.2851270825069
 20
55.16481993965813
 30
0.0
 10
179.3824013970713
 20
54.75496679101416
 30
0.0
 10
178.4758832313578
 20
54.2575795534641
 30
0.0
 10
177.5717717390915
 20
53.67671737484585
 30
0.0
 10
176.6759379808117
 20
53.01621118024256
 30
0.0
 10
175.79418195375
 20
52.28056155470191
 30
0.0
 10
174.9321473279519
 20
51.4746562130051
 30
0.0
 10
174.0953449725729
 20
50.60381214123622
 30
0.0
 10
173.2891210773456
 20
49.67373669180201
 30
0.0
 10
172.5186342684549
 20
48.69049444461522
 30
0.0
 10
171.7888209116074
 20
47.66048070544233
 30
0.0
 10
171.104370632633
 20
46.59037498259968
 30
0.0
 10
170.4696909755399
 20
45.48710721621997
 30
0.0
 10
169.888889039568
 20
44.35781578651749
 30
0.0
 10
169.3657334506864
 20
43.20979991843017
 30
0.0
 10
168.903638366683
 20
42.05046703520755
 30
0.0
 10
168.5056363750304
 20
40.88728295601257
 30
0.0
 10
168.1743557433526
 20
39.72771790642305
 30
0.0
 10
167.9120709920832
 20
38.5792439266999
 30
0.0
 10
167.7204424203508
 20
37.4491294788149
 30
0.0
 10
167.6035415965367
 20
36.36438458830576
 30
0.0
 10
167.5684842810273
 20
35.60343515120611
 30
0.0
 10
167.5668991227243
 20
35.20944139348121
 30
0.0
 10
167.5666460233753
 20
35.14653312532683
 30
0.0
  0
SPLINE
  5
237
330
1F
100
AcDbEntity
  8
0
  6
Continuous
 62
     7
370
    25
100
AcDbSpline
210
0.0
220
0.0
230
1.0
 70
     8
 71
     3
 72
    13
 73
     9
 74
     0
 42
0.000000001
 43
0.00000001
 40
0.0
 40
0.0
 40
0.0
 40
0.0
 40
0.1016691088306783
 40
0.2947601030081325
 40
0.4879187714901307
 40
0.6810165188068674
 40
0.8739474394922028
 40
1.0
 40
1.0
 40
1.0
 40
1.0
 10
167.5666460233753
 20
35.14653312532683
 30
0.0
 10
167.568696242426
 20
34.96399916249123
 30
0.0
 10
167.5746402581211
 20
34.43479486133513
 30
0.0
 10
167.641032808916
 20
33.59218242595913
 30
0.0
 10
167.7889680739904
 20
32.63971291012943
 30
0.0
 10
168.0136047323611
 20
31.74769634597634
 30
0.0
 10
168.2664383477263
 20
31.00484944015935
 30
0.0
 10
168.4736362352448
 20
30.5911467726478
 30
0.0
 10
168.5555145323774
 20
30.42766407337547
 30
0.0
  0
LINE
  5
238
330
1F
100
AcDbEntity
  8
0
  6
Continuous
 62
     7
370
    25
100
AcDbLine
 10
159.4155404032
 20
39.8337882373
 30
0.0
 11
167.5734478518
 21
34.7835404209
 31
0.0
  0
LINE
  5
239
330
1F
100
AcDbEntity
  8
0
  6
Continuous
 62
     7
370
    25
100
AcDbLine
 10
177.9327418329
 20
53.8944608834
 30
0.0
 11
169.9117955076
 21
58.2014852359
 31
0.0
  0
LINE
  5
23A
330
1F
100
AcDbEntity
  8
0
  6
Continuous
 62
     7
370
    25
100
AcDbLine
 10
167.222426013
 20
58.7917418664
 30
0.0
 11
166.5828759042
 21
58.7045308714
 31
0.0
  0
LINE
  5
23B
330
1F
100
AcDbEntity
  8
0
  6
Continuous
 62
     7
370
    25
100
AcDbLine
 10
158.2522900185
 20
41.5698304609
 30
0.0
 11
158.4965935674
 21
40.97238095
 31
0.0
  0
LWPOLYLINE
  5
23C
330
1F
100
AcDbEntity
  8
0
  6
Continuous
 62
     7
370
    25
100
AcDbPolyline
 90
       12
 70
   128
 43
0.0
 10
179.3951347433
 20
44.11357954
 10
179.3285433812
 20
44.2237451868
 10
179.2279796835
 20
44.5516583264
 10
179.2403787595
 20
44.9139568932
 10
179.3647376459
 20
45.2812903895
 10
179.5909809408
 20
45.6238987293
 10
179.9007793752
 20
45.9140268671
 10
180.2690351592
 20
46.1281700748
 10
180.6659142509
 20
46.2489795344
 10
181.0592638733
 20
46.2666672322
 10
181.417217387
 20
46.1798019807
 10
181.7007728227
 20
46.0043419612
  0
LINE
  5
23D
330
1F
100
AcDbEntity
  8
0
  6
Continuous
 62
     7
370
    25
100
AcDbLine
 10
181.8310293044
 20
45.7285619522
 30
0.0
 11
181.866620013
 21
45.6504498212
 31
0.0
  0
LWPOLYLINE
  5
23E
330
1F
100
AcDbEntity
  8
0
  6
Continuous
 62
     7
370
    25
100
AcDbPolyline
 90
       14
 70
   128
 43
0.0
 10
179.551547625
 20
44.0472781961
 10
179.3641719561
 20
44.2940690106
 10
179.2683010467
 20
44.606678812
 10
179.2801219206
 20
44.9520702087
 10
179.3986777127
 20
45.3022613965
 10
179.6143628929
 20
45.6288813383
 10
179.9097036411
 20
45.9054703329
 10
180.2607740476
 20
46.1096199767
 10
180.6391322336
 20
46.2247913091
 10
181.0141252571
 20
46.24165469
 10
181.3553744601
 20
46.1588426649
 10
181.6352338147
 20
45.9830644875
 10
181.8310293044
 20
45.7285619522
 10
181.8310293044
 20
45.7285619522
  0
ARC
  5
23F
330
1F
100
AcDbEntity
  8
0
  6
Continuous
 62
     7
370
    25
100
AcDbCircle
 10
180.7977238813
 20
45.23138921
 30
0.0
 40
0.9677439621516647
100
AcDbArc
 50
336.545991813
 51
24.8630974211
  0
LWPOLYLINE
  5
240
330
1F
100
AcDbEntity
  8
0
  6
Continuous
 62
     7
370
    25
100
AcDbPolyline
 90
       15
 70
   128
 43
0.0
 10
180.5473360682
 20
43.9482126202
 10
180.32992616
 20
43.9310337693
 10
179.9912986227
 20
43.9869659108
 10
179.7120204336
 20
44.1431681982
 10
179.5194284337
 20
44.3843513777
 10
179.4323760937
 20
44.6869057766
 10
179.4593836625
 20
45.0212154704
 10
179.5978077425
 20
45.3545564588
 10
179.8340987803
 20
45.6542982752
 10
180.1451267173
 20
45.8911003072
 10
180.5004460529
 20
46.0417828976
 10
180.8652747712
 20
46.0915962429
 10
181.2039023085
 20
46.0356641014
 10
181.4831811562
 20
45.8794614339
 10
181.6757724975
 20
45.6382786346
  0
LINE
  5
241
330
1F
100
AcDbEntity
  8
0
  6
Continuous
 62
     7
370
    25
100
AcDbLine
 10
189.8578409563
 20
23.5865544113
 30
0.0
 11
184.7199570474
 21
25.6626574162
 31
0.0
  0
LWPOLYLINE
  5
242
330
1F
100
AcDbEntity
  8
0
  6
Continuous
 62
     7
370
    25
100
AcDbPolyline
 90
        9
 70
   128
 43
0.0
 10
189.9296769668
 20
23.3974002073
 10
189.946037188
 20
23.4220286737
 10
189.9551310292
 20
23.4483929967
 10
189.9566101201
 20
23.4754786173
 10
189.9504178261
 20
23.5022458846
 10
189.9367905646
 20
23.5276667434
 10
189.9162531956
 20
23.5507622765
 10
189.8895959724
 20
23.5706462834
 10
189.8578409563
 20
23.5865544113
  0
LINE
  5
243
330
1F
100
AcDbEntity
  8
0
  6
Continuous
 62
     7
370
    25
100
AcDbLine
 10
186.928904988
 20
19.8461739174
 30
0.0
 11
189.9296769668
 21
23.3974002073
 31
0.0
  0
ARC
  5
244
330
1F
100
AcDbEntity
  8
0
  6
Continuous
 62
     7
370
    25
100
AcDbCircle
 10
186.7546818106
 20
20.0279444237
 30
0.0
 40
0.251782113203619
100
AcDbArc
 50
246.761226262
 51
313.7854691217
  0
LINE
  5
245
330
1F
100
AcDbEntity
  8
0
  6
Continuous
 62
     7
370
    25
100
AcDbLine
 10
181.5174524709
 20
21.8726935135
 30
0.0
 11
186.6553376969
 21
19.7965897618
 31
0.0
  0
LWPOLYLINE
  5
246
330
1F
100
AcDbEntity
  8
0
  6
Continuous
 62
     7
370
    25
100
AcDbPolyline
 90
        9
 70
   128
 43
0.0
 10
181.4456158018
 20
22.0618473374
 10
181.4292575562
 20
22.0372184908
 10
181.4201617395
 20
22.010854548
 10
181.4186839656
 20
21.9837681433
 10
181.4248769182
 20
21.9570012562
 10
181.438502204
 20
21.9315808251
 10
181.4590395731
 20
21.908485292
 10
181.4856974547
 20
21.8886016415
 10
181.5174524709
 20
21.8726935135
  0
LINE
  5
247
330
1F
100
AcDbEntity
  8
0
  6
Continuous
 62
     7
370
    25
100
AcDbLine
 10
184.4463884392
 20
25.6130724935
 30
0.0
 11
181.4456158018
 21
22.0618473374
 31
0.0
  0
ARC
  5
248
330
1F
100
AcDbEntity
  8
0
  6
Continuous
 62
     7
370
    25
100
AcDbCircle
 10
184.620612891
 20
25.4313011736
 30
0.0
 40
0.2517835823978358
100
AcDbArc
 50
66.7613592566
 51
133.7855503812
  0
ARC
  5
249
330
1F
100
AcDbEntity
  8
0
  6
Continuous
 62
     7
370
    25
100
AcDbCircle
 10
186.7547580972
 20
20.0223421964
 30
0.0
 40
0.2391903039648071
100
AcDbArc
 50
246.760854722
 51
313.7861020124
  0
LINE
  5
24A
330
1F
100
AcDbEntity
  8
0
  6
Continuous
 62
     7
370
    25
100
AcDbLine
 10
186.9202701524
 20
19.8496639954
 30
0.0
 11
189.9210427898
 21
23.4008891233
 31
0.0
  0
LWPOLYLINE
  5
24B
330
1F
100
AcDbEntity
  8
0
  6
Continuous
 62
     7
370
    25
100
AcDbPolyline
 90
        9
 70
   128
 43
0.0
 10
189.9210427898
 20
23.4008891233
 10
189.9365844402
 20
23.4242864705
 10
189.9452225685
 20
23.449332613
 10
189.9466292196
 20
23.4750639834
 10
189.9407457829
 20
23.5004929682
 10
189.9277994564
 20
23.5246423136
 10
189.9082900754
 20
23.5465833813
 10
189.8829657463
 20
23.5654727887
 10
189.8527978224
 20
23.5805858167
  0
LINE
  5
24C
330
1F
100
AcDbEntity
  8
0
  6
Continuous
 62
     7
370
    25
100
AcDbLine
 10
189.8527978224
 20
23.5805858167
 30
0.0
 11
184.7149139136
 21
25.656688774
 31
0.0
  0
ARC
  5
24D
330
1F
100
AcDbEntity
  8
0
  6
Continuous
 62
     7
370
    25
100
AcDbCircle
 10
184.6205365774
 20
25.4368977092
 30
0.0
 40
0.2391969769410778
100
AcDbArc
 50
66.7615229299
 51
133.7849838453
  0
LINE
  5
24E
330
1F
100
AcDbEntity
  8
0
  6
Continuous
 62
     7
370
    25
100
AcDbLine
 10
184.4550232748
 20
25.6095839577
 30
0.0
 11
181.4542519545
 21
22.0583580175
 31
0.0
  0
LWPOLYLINE
  5
24F
330
1F
100
AcDbEntity
  8
0
  6
Continuous
 62
     7
370
    25
100
AcDbPolyline
 90
        9
 70
   128
 43
0.0
 10
181.4542519545
 20
22.0583580175
 10
181.4387103041
 20
22.034960694
 10
181.4300702002
 20
22.0099149317
 10
181.4286648662
 20
21.9841828009
 10
181.4345483028
 20
21.9587537924
 10
181.4474926537
 20
21.9346048747
 10
181.4670040103
 20
21.9126633793
 10
181.4923289979
 20
21.8937743758
 10
181.5224956048
 20
21.8786621081
  0
LINE
  5
250
330
1F
100
AcDbEntity
  8
0
  6
Continuous
 62
     7
370
    25
100
AcDbLine
 10
181.5224956048
 20
21.8786621081
 30
0.0
 11
186.6603808307
 21
19.8025583638
 31
0.0
  0
ARC
  5
251
330
1F
100
AcDbEntity
  8
0
  6
Continuous
 62
     7
370
    25
100
AcDbCircle
 10
186.7537175868
 20
18.3083594266
 30
0.0
 40
0.2517823063434309
100
AcDbArc
 50
246.7612735207
 51
313.7854631249
  0
LINE
  5
252
330
1F
100
AcDbEntity
  8
0
  6
Continuous
 62
     7
370
    25
100
AcDbLine
 10
186.7561582269
 20
19.8367026844
 30
0.0
 11
186.9202701524
 21
19.8496639954
 31
0.0
  0
LINE
  5
253
330
1F
100
AcDbEntity
  8
0
  6
Continuous
 62
     7
370
    25
100
AcDbLine
 10
186.7561582269
 20
19.8367026844
 30
0.0
 11
186.6603808307
 21
19.8025583638
 31
0.0
  0
LINE
  5
254
330
1F
100
AcDbEntity
  8
0
  6
Continuous
 62
     7
370
    25
100
AcDbLine
 10
181.5164883618
 20
20.1531067497
 30
0.0
 11
186.6543735877
 21
18.0770045052
 31
0.0
  0
LINE
  5
255
330
1F
100
AcDbEntity
  8
0
  6
Continuous
 62
     7
370
    25
100
AcDbLine
 10
186.5215293554
 20
20.1817965481
 30
0.0
 11
186.7561582269
 21
19.8367026844
 31
0.0
  0
LINE
  5
256
330
1F
100
AcDbEntity
  8
0
  6
Continuous
 62
     7
370
    25
100
AcDbLine
 10
181.618274318
 20
21.9128041685
 30
0.0
 11
181.5224956048
 21
21.8786621081
 31
0.0
  0
LINE
  5
257
330
1F
100
AcDbEntity
  8
0
  6
Continuous
 62
     7
370
    25
100
AcDbLine
 10
182.5110696929
 20
21.8023321395
 30
0.0
 11
181.618274318
 21
21.9128041685
 31
0.0
  0
LINE
  5
258
330
1F
100
AcDbEntity
  8
0
  6
Continuous
 62
     7
370
    25
100
AcDbLine
 10
186.9279408788
 20
18.1265887625
 30
0.0
 11
189.9287141748
 21
21.6778142038
 31
0.0
  0
LINE
  5
259
330
1F
100
AcDbEntity
  8
0
  6
Continuous
 62
     7
370
    25
100
AcDbLine
 10
188.8638312417
 20
22.9537636782
 30
0.0
 11
189.7569308642
 21
23.3879278405
 31
0.0
  0
LINE
  5
25A
330
1F
100
AcDbEntity
  8
0
  6
Continuous
 62
     7
370
    25
100
AcDbLine
 10
189.7569308642
 20
23.3879278405
 30
0.0
 11
189.9210427898
 21
23.4008891233
 31
0.0
  0
SPLINE
  5
25B
330
1F
100
AcDbEntity
  8
0
  6
Continuous
 62
     7
370
    25
100
AcDbSpline
210
0.0
220
0.0
230
1.0
 70
     8
 71
     3
 72
    11
 73
     7
 74
     0
 42
0.000000001
 43
0.00000001
 40
0.0
 40
0.0
 40
0.0
 40
0.0
 40
0.344175344403064
 40
0.6872998932427319
 40
0.992068551001421
 40
1.0
 40
1.0
 40
1.0
 40
1.0
 10
186.5215293553681
 20
20.18179654810253
 30
0.0
 10
186.511375026253
 20
20.20013784171853
 30
0.0
 10
186.4910973700226
 20
20.23676443147636
 30
0.0
 10
186.4604332597993
 20
20.32942520315624
 30
0.0
 10
186.4418608177907
 20
20.40005488717709
 30
0.0
 10
186.4336095827168
 20
20.43524457751651
 30
0.0
 10
186.4334002951318
 20
20.4361371427193
 30
0.0
  0
ARC
  5
25C
330
1F
100
AcDbEntity
  8
0
  6
Continuous
 62
     7
370
    25
100
AcDbCircle
 10
186.1022855963
 20
21.9077713365
 30
0.0
 40
0.6294604457084372
100
AcDbArc
 50
246.7613567305
 51
313.7852600567
  0
LINE
  5
25D
330
1F
100
AcDbEntity
  8
0
  6
Continuous
 62
     7
370
    25
100
AcDbLine
 10
183.8419459967
 20
22.1423751909
 30
0.0
 11
185.853924592
 21
21.3293793722
 31
0.0
  0
LINE
  5
25E
330
1F
100
AcDbEntity
  8
0
  6
Continuous
 62
     7
370
    25
100
AcDbLine
 10
187.5333474305
 20
23.3168727339
 30
0.0
 11
185.5213688351
 21
24.1298670557
 31
0.0
  0
LWPOLYLINE
  5
25F
330
1F
100
AcDbEntity
  8
0
  6
Continuous
 62
     7
370
    25
100
AcDbPolyline
 90
        9
 70
   128
 43
0.0
 10
187.7129377862
 20
22.8439874139
 10
187.7538360343
 20
22.90555877
 10
187.7765716249
 20
22.9714686507
 10
187.7802686937
 20
23.0391846269
 10
187.7647876295
 20
23.1061033655
 10
187.730719805
 20
23.1696533264
 10
187.679378358
 20
23.2273933235
 10
187.6127336538
 20
23.2771024379
 10
187.5333474305
 20
23.3168727339
  0
LINE
  5
260
330
1F
100
AcDbEntity
  8
0
  6
Continuous
 62
     7
370
    25
100
AcDbLine
 10
186.5378454541
 20
21.4533397542
 30
0.0
 11
187.7129377862
 21
22.8439874139
 31
0.0
  0
LWPOLYLINE
  5
261
330
1F
100
AcDbEntity
  8
0
  6
Continuous
 62
     7
370
    25
100
AcDbPolyline
 90
        9
 70
   128
 43
0.0
 10
183.6623569581
 20
22.6152597506
 10
183.6214573929
 20
22.5536876342
 10
183.5987218023
 20
22.4877777535
 10
183.5950234163
 20
22.4200625377
 10
183.6105071148
 20
22.353143799
 10
183.6445723051
 20
22.2895938381
 10
183.6959150691
 20
22.2318546014
 10
183.7625597734
 20
22.1821439663
 10
183.8419459967
 20
22.1423751909
  0
LINE
  5
262
330
1F
100
AcDbEntity
  8
0
  6
Continuous
 62
     7
370
    25
100
AcDbLine
 10
184.8374492902
 20
24.0059074104
 30
0.0
 11
183.6623569581
 21
22.6152597506
 31
0.0
  0
ARC
  5
263
330
1F
100
AcDbEntity
  8
0
  6
Continuous
 62
     7
370
    25
100
AcDbCircle
 10
185.2730069784
 20
23.5514817228
 30
0.0
 40
0.629454688774059
100
AcDbArc
 50
66.7610472617
 51
133.7854887628
  0
LWPOLYLINE
  5
264
330
1F
100
AcDbEntity
  8
0
  6
Continuous
 62
     7
370
    25
100
AcDbPolyline
 90
       22
 70
   128
 43
0.0
 10
184.5737180198
 20
23.1797364228
 10
184.4314434301
 20
22.932797895
 10
184.4007881833
 20
22.667807731
 10
184.4844747022
 20
22.4083088878
 10
184.6750680196
 20
22.1773608756
 10
184.9556343218
 20
21.9954839093
 10
185.3012437479
 20
21.8788380809
 10
185.6811857334
 20
21.8377879891
 10
186.0617019698
 20
21.8759821791
 10
186.4089827819
 20
21.990025784
 10
186.6921687741
 20
22.1697855717
 10
186.8860982779
 20
22.399289475
 10
186.9735411348
 20
22.6581455681
 10
186.9467252024
 20
22.9233526751
 10
186.8080370461
 20
23.1713455508
 10
186.5697953994
 20
23.3800898886
 10
186.2531711513
 20
23.5310372555
 10
185.886297323
 20
23.6107755033
 10
185.5017745018
 20
23.6122196358
 10
185.1337666599
 20
23.5352412457
 10
184.8149705319
 20
23.386679967
 10
184.5737180198
 20
23.1797364228
  0
ARC
  5
265
330
1F
100
AcDbEntity
  8
0
  6
Continuous
 62
     7
370
    25
100
AcDbCircle
 10
185.6861486678
 20
20.0589096129
 30
0.0
 40
1.843071106617154
100
AcDbArc
 50
79.2505370104
 51
100.6851730626
  0
SPLINE
  5
266
330
1F
100
AcDbEntity
  8
0
  6
Continuous
 62
     7
370
    25
100
AcDbSpline
210
0.0
220
0.0
230
1.0
 70
     8
 71
     3
 72
    11
 73
     7
 74
     0
 42
0.000000001
 43
0.00000001
 40
0.0
 40
0.0
 40
0.0
 40
0.0
 40
0.0079282830239058
 40
0.312703581758998
 40
0.6558291946490071
 40
1.0
 40
1.0
 40
1.0
 40
1.0
 10
182.8467416824362
 20
21.8854245147755
 30
0.0
 10
182.845945353292
 20
21.88493831882066
 30
0.0
 10
182.8145369165721
 20
21.8657620083816
 30
0.0
 10
182.743675445826
 20
21.83128875350809
 30
0.0
 10
182.6268950557856
 20
21.79819993032125
 30
0.0
 10
182.5497172694044
 20
21.80095334070692
 30
0.0
 10
182.5110696929162
 20
21.80233213949699
 30
0.0
  0
LINE
  5
267
330
1F
100
AcDbEntity
  8
0
  6
Continuous
 62
     7
370
    25
100
AcDbLine
 10
181.618274318
 20
21.9128041685
 30
0.0
 11
181.4542519545
 21
22.0583580175
 31
0.0
  0
LINE
  5
268
330
1F
100
AcDbEntity
  8
0
  6
Continuous
 62
     7
370
    25
100
AcDbLine
 10
184.6190456383
 20
25.4640300849
 30
0.0
 11
184.4550232748
 21
25.6095839577
 31
0.0
  0
LINE
  5
269
330
1F
100
AcDbEntity
  8
0
  6
Continuous
 62
     7
370
    25
100
AcDbLine
 10
184.8533715793
 20
24.5742992866
 30
0.0
 11
184.6190456383
 21
25.4640300849
 31
0.0
  0
ARC
  5
26A
330
1F
100
AcDbEntity
  8
0
  6
Continuous
 62
     7
370
    25
100
AcDbCircle
 10
181.5539948752
 20
20.2850932608
 30
0.0
 40
0.1372121629965231
100
AcDbArc
 50
185.2288674255
 51
254.1364781953
  0
SPLINE
  5
26B
330
1F
100
AcDbEntity
  8
0
  6
Continuous
 62
     7
370
    25
100
AcDbSpline
210
0.0
220
0.0
230
1.0
 70
     8
 71
     3
 72
    11
 73
     7
 74
     0
 42
0.000000001
 43
0.00000001
 40
0.0
 40
0.0
 40
0.0
 40
0.0
 40
0.3441744109794577
 40
0.6872962002550923
 40
0.9920661331065244
 40
1.0
 40
1.0
 40
1.0
 40
1.0
 10
188.8638312417379
 20
22.95376367819312
 30
0.0
 10
188.8251738289782
 20
22.9383735658839
 30
0.0
 10
188.7479772331422
 20
22.90764041032617
 30
0.0
 10
188.6312038215681
 20
22.89839399635392
 30
0.0
 10
188.5603821611519
 20
22.90719754470793
 30
0.0
 10
188.5289784132097
 20
22.91498247666986
 30
0.0
 10
188.5281816427313
 20
22.91517999462139
 30
0.0
  0
LINE
  5
26C
330
1F
100
AcDbEntity
  8
0
  6
Continuous
 62
     7
370
    25
100
AcDbLine
 10
184.6190456383
 20
25.4640300849
 30
0.0
 11
184.7149139136
 21
25.656688774
 31
0.0
  0
LINE
  5
26D
330
1F
100
AcDbEntity
  8
0
  6
Continuous
 62
     7
370
    25
100
AcDbLine
 10
189.7569308642
 20
23.3879278405
 30
0.0
 11
189.8527978224
 21
23.5805858167
 31
0.0
  0
ARC
  5
26E
330
1F
100
AcDbEntity
  8
0
  6
Continuous
 62
     7
370
    25
100
AcDbCircle
 10
189.8487182276
 20
21.7493399116
 30
0.0
 40
0.1073092654311312
100
AcDbArc
 50
318.1995716318
 51
359.010884999
  0
SPLINE
  5
26F
330
1F
100
AcDbEntity
  8
0
  6
Continuous
 62
     7
370
    25
100
AcDbSpline
210
0.0
220
0.0
230
1.0
 70
     8
 71
     3
 72
    11
 73
     7
 74
     0
 42
0.000000001
 43
0.00000001
 40
0.0
 40
0.0
 40
0.0
 40
0.0
 40
0.0079296299117977
 40
0.3127029606113491
 40
0.6558293570469369
 40
0.9999999999999999
 40
0.9999999999999999
 40
0.9999999999999999
 40
0.9999999999999999
 10
184.9415230300356
 20
24.36446734588368
 30
0.0
 10
184.941314192017
 20
24.36467621960154
 30
0.0
 10
184.9330787172916
 20
24.37291310211608
 30
0.0
 10
184.9144356653207
 20
24.40025259523871
 30
0.0
 10
184.8837764498642
 20
24.4690758922699
 30
0.0
 10
184.8635167966641
 20
24.53918931283616
 30
0.0
 10
184.8533715792861
 20
24.57429928662187
 30
0.0
  0
LWPOLYLINE
  5
270
330
1F
100
AcDbEntity
  8
0
  6
Continuous
 62
     7
370
    25
100
AcDbPolyline
 90
       25
 70
   128
 43
0.0
 10
188.6883765456
 20
27.7948751591
 10
188.942964584
 20
27.5325507599
 10
189.0906991662
 20
27.2336387532
 10
189.1215157564
 20
26.918509301
 10
189.0333116221
 20
26.608637369
 10
188.8320979575
 20
26.3251419787
 10
188.5315882935
 20
26.0873411417
 10
188.15226073
 20
25.9114418528
 10
187.7199670902
 20
25.8094299637
 10
187.2641653872
 20
25.7882589727
 10
186.8159191653
 20
25.8493705226
 10
186.4057763287
 20
25.9886000206
 10
186.0616861647
 20
26.1964596833
 10
185.8070987848
 20
26.4587844628
 10
185.659362227
 20
26.7576968496
 10
185.6285469538
 20
27.0728256366
 10
185.7167510881
 20
27.3826974735
 10
185.9179634356
 20
27.6661937192
 10
186.2184744168
 20
27.9039937958
 10
186.5978006632
 20
28.07989375
 10
187.03009562
 20
28.1819048788
 10
187.485896006
 20
28.2030766301
 10
187.9341422278
 20
28.1419650803
 10
188.3442863816
 20
28.0027348219
 10
188.6883765456
 20
27.7948751591
  0
LWPOLYLINE
  5
271
330
1F
100
AcDbEntity
  8
0
  6
Continuous
 62
     7
370
    25
100
AcDbPolyline
 90
       19
 70
   128
 43
0.0
 10
188.1255139448
 20
27.4523573467
 10
188.3062916562
 20
27.2472929678
 10
188.3747453822
 20
27.0118779364
 10
188.3226202673
 20
26.7745077376
 10
188.1562001432
 20
26.5638129024
 10
187.8955607393
 20
26.4052060191
 10
187.5721370191
 20
26.3178173844
 10
187.2249405007
 20
26.3121877835
 10
186.8958453952
 20
26.3889963118
 10
186.6245487655
 20
26.5389774958
 10
186.443769737
 20
26.7440427301
 10
186.375316011
 20
26.9794577615
 10
186.427442443
 20
27.2168271999
 10
186.5938612499
 20
27.4275227004
 10
186.8545019709
 20
27.5861289184
 10
187.1779256912
 20
27.6735174581
 10
187.5251228681
 20
27.6791475342
 10
187.854215998
 20
27.602339386
 10
188.1255139448
 20
27.4523573467
  0
SPLINE
  5
272
330
1F
100
AcDbEntity
  8
0
  6
Continuous
 62
     7
370
    25
100
AcDbSpline
210
0.0
220
0.0
230
1.0
 70
     8
 71
     3
 72
    11
 73
     7
 74
     0
 42
0.000000001
 43
0.00000001
 40
0.0
 40
0.0
 40
0.0
 40
0.0
 40
0.1081101901330692
 40
0.4711570774455718
 40
0.8135808071451606
 40
1.0
 40
1.0
 40
1.0
 40
1.0
 10
186.5259409450271
 20
26.78110354962453
 30
0.0
 10
186.5452835370588
 20
26.75580382979766
 30
0.0
 10
186.6295808555694
 20
26.64554463925188
 30
0.0
 10
186.7900849189339
 20
26.47339060264589
 30
0.0
 10
186.9694337672415
 20
26.36740541806994
 30
0.0
 10
187.064705060055
 20
26.34093112390415
 30
0.0
 10
187.0982885623599
 20
26.33159883195259
 30
0.0
  0
SPLINE
  5
273
330
1F
100
AcDbEntity
  8
0
  6
Continuous
 62
     7
370
    25
100
AcDbSpline
210
0.0
220
0.0
230
1.0
 70
     8
 71
     3
 72
     9
 73
     5
 74
     0
 42
0.000000001
 43
0.00000001
 40
0.0
 40
0.0
 40
0.0
 40
0.0
 40
0.4073838446139033
 40
1.0
 40
1.0
 40
1.0
 40
1.0
 10
187.5934481779122
 20
26.3280404564766
 30
0.0
 10
187.6441056983539
 20
26.33719841869855
 30
0.0
 10
187.7684540766992
 20
26.35967835339166
 30
0.0
 10
187.8807658709866
 20
26.41599197256302
 30
0.0
 10
187.9473236547217
 20
26.44936433305223
 30
0.0
  0
SPLINE
  5
274
330
1F
100
AcDbEntity
  8
0
  6
Continuous
 62
     7
370
    25
100
AcDbSpline
210
0.0
220
0.0
230
1.0
 70
     8
 71
     3
 72
    10
 73
     6
 74
     0
 42
0.000000001
 43
0.00000001
 40
0.0
 40
0.0
 40
0.0
 40
0.0
 40
0.439116161071153
 40
0.7513671896631167
 40
0.9999999999999999
 40
0.9999999999999999
 40
0.9999999999999999
 40
0.9999999999999999
 10
187.9473236547217
 20
26.44936433305223
 30
0.0
 10
187.986913333291
 20
26.49345969610465
 30
0.0
 10
188.0546548289666
 20
26.56891082259713
 30
0.0
 10
188.1531939375064
 20
26.79913520702052
 30
0.0
 10
188.2022618927919
 20
26.94983211283142
 30
0.0
 10
188.2240131053842
 20
27.01663417165414
 30
0.0
  0
SPLINE
  5
275
330
1F
100
AcDbEntity
  8
0
  6
Continuous
 62
     7
370
    25
100
AcDbSpline
210
0.0
220
0.0
230
1.0
 70
     8
 71
     3
 72
    11
 73
     7
 74
     0
 42
0.000000001
 43
0.00000001
 40
0.0
 40
0.0
 40
0.0
 40
0.0
 40
0.1864192131843145
 40
0.5288429042775087
 40
0.8918898644643516
 40
1.0
 40
1.0
 40
1.0
 40
1.0
 10
188.2240131053842
 20
27.01663417165414
 30
0.0
 10
188.1904296431836
 20
27.02596648402056
 30
0.0
 10
188.0951584778219
 20
27.05244083229816
 30
0.0
 10
187.9158081997141
 20
27.15842526943084
 30
0.0
 10
187.7553055317406
 20
27.33058004718975
 30
0.0
 10
187.6710080963771
 20
27.44083911610782
 30
0.0
 10
187.6516654880513
 20
27.46613879426821
 30
0.0
  0
SPLINE
  5
276
330
1F
100
AcDbEntity
  8
0
  6
Continuous
 62
     7
370
    25
100
AcDbSpline
210
0.0
220
0.0
230
1.0
 70
     8
 71
     3
 72
    10
 73
     6
 74
     0
 42
0.000000001
 43
0.00000001
 40
0.0
 40
0.0
 40
0.0
 40
0.0
 40
0.4391166823999397
 40
0.7513669788954037
 40
1.0
 40
1.0
 40
1.0
 40
1.0
 10
187.6516654880513
 20
27.46613879426821
 30
0.0
 10
187.5300984411341
 20
27.41216654101465
 30
0.0
 10
187.3220866109386
 20
27.31981530386812
 30
0.0
 10
187.0197727454312
 20
27.30610755419009
 30
0.0
 10
186.8693220943144
 20
27.33539248216944
 30
0.0
 10
186.8026290786005
 20
27.34837414856575
 30
0.0
  0
SPLINE
  5
277
330
1F
100
AcDbEntity
  8
0
  6
Continuous
 62
     7
370
    25
100
AcDbSpline
210
0.0
220
0.0
230
1.0
 70
     8
 71
     3
 72
    10
 73
     6
 74
     0
 42
0.000000001
 43
0.00000001
 40
0.0
 40
0.0
 40
0.0
 40
0.0
 40
0.4391161363250237
 40
0.7513660444060476
 40
1.0
 40
1.0
 40
1.0
 40
1.0
 10
186.8026290786005
 20
27.34837414856575
 30
0.0
 10
186.7629980405482
 20
27.2300514594941
 30
0.0
 10
186.6951858746228
 20
27.02759100883682
 30
0.0
 10
186.5966768190414
 20
26.85382148271665
 30
0.0
 10
186.5476666436342
 20
26.80343801455779
 30
0.0
 10
186.5259409450271
 20
26.78110354962453
 30
0.0
  0
LINE
  5
278
330
1F
100
AcDbEntity
  8
0
  6
Continuous
 62
     7
370
    25
100
AcDbLine
 10
186.8021443898
 20
26.4819374495
 30
0.0
 11
186.8026290786
 21
27.3483741486
 31
0.0
  0
LINE
  5
279
330
1F
100
AcDbEntity
  8
0
  6
Continuous
 62
     7
370
    25
100
AcDbLine
 10
187.6510286755
 20
26.3310853497
 30
0.0
 11
187.6516654881
 21
27.4661387943
 31
0.0
  0
ELLIPSE
  5
27A
330
1F
100
AcDbEntity
  8
0
  6
Continuous
 62
     7
370
    25
100
AcDbEllipse
 10
186.5800736154
 20
24.7197387282
 30
0.0
 11
1.125107261321972
 21
0.0004110095926002089
 31
0.0
210
0.0
220
0.0
230
1.0
 40
0.6921718353
 41
3.085393454018209
 42
3.336458549913811
  0
ELLIPSE
  5
27B
330
1F
100
AcDbEntity
  8
0
  6
Continuous
 62
     7
370
    25
100
AcDbEllipse
 10
186.5800736154
 20
24.7197387282
 30
0.0
 11
1.125107261321972
 21
0.0004110095926002089
 31
0.0
210
0.0
220
0.0
230
1.0
 40
0.6921718353
 41
4.777761090854231
 42
4.993411575376507
  0
LINE
  5
27C
330
1F
100
AcDbEntity
  8
0
  6
Continuous
 62
     7
370
    25
100
AcDbLine
 10
181.861892322
 20
20.0135370881
 30
0.0
 11
186.3089696274
 21
18.2165742618
 31
0.0
  0
LINE
  5
27D
330
1F
100
AcDbEntity
  8
0
  6
Continuous
 62
     7
370
    25
100
AcDbLine
 10
187.1296754522
 20
18.3653258933
 30
0.0
 11
189.7269815771
 21
21.4390765978
 31
0.0
  0
ARC
  5
27E
330
1F
100
AcDbEntity
  8
0
  6
Continuous
 62
     7
370
    25
100
AcDbCircle
 10
186.6064198633
 20
17.8702185397
 30
0.0
 40
0.755348058853875
100
AcDbArc
 50
246.7612782946
 51
313.7854774641
  0
LINE
  5
27F
330
1F
100
AcDbEntity
  8
0
  6
Continuous
 62
     7
370
    25
100
AcDbLine
 10
181.8613088516
 20
18.97311629
 30
0.0
 11
186.3083874741
 21
17.1761527034
 31
0.0
  0
LINE
  5
280
330
1F
100
AcDbEntity
  8
0
  6
Continuous
 62
     7
370
    25
100
AcDbLine
 10
187.1290906646
 20
17.3249058556
 30
0.0
 11
189.7263974481
 21
20.3986554195
 31
0.0
  0
ARC
  5
281
330
1F
100
AcDbEntity
  8
0
  6
Continuous
 62
     7
370
    25
100
AcDbCircle
 10
186.6111107919
 20
17.7559099151
 30
0.0
 40
0.6411878393329837
100
AcDbArc
 50
258.2035407912
 51
281.7319698345
  0
ARC
  5
282
330
1F
100
AcDbEntity
  8
0
  6
Continuous
 62
     7
370
    25
100
AcDbCircle
 10
181.9737875301
 20
19.3690376405
 30
0.0
 40
0.4115885917808746
100
AcDbArc
 50
185.2244589602
 51
254.1404968556
  0
ARC
  5
283
330
1F
100
AcDbEntity
  8
0
  6
Continuous
 62
     7
370
    25
100
AcDbCircle
 10
189.48641013
 20
20.6132364376
 30
0.0
 40
0.3219300019505351
100
AcDbArc
 50
318.1989928457
 51
359.0099109497
  0
LINE
  5
284
330
1F
100
AcDbEntity
  8
0
  6
Continuous
 62
     7
370
    25
100
AcDbLine
 10
182.6496195549
 20
24.5077635252
 30
0.0
 11
183.2927975853
 21
24.2478695543
 31
0.0
  0
LINE
  5
285
330
1F
100
AcDbEntity
  8
0
  6
Continuous
 62
     7
370
    25
100
AcDbLine
 10
181.4405832047
 20
22.0555168181
 30
0.0
 11
177.5579628363
 21
24.7707371094
 31
0.0
  0
SPLINE
  5
286
330
1F
100
AcDbEntity
  8
0
  6
Continuous
 62
     7
370
    25
100
AcDbSpline
210
0.0
220
0.0
230
1.0
 70
     8
 71
     3
 72
     8
 73
     4
 74
     0
 42
0.000000001
 43
0.00000001
 40
0.0
 40
0.0
 40
0.0
 40
0.0
 40
1.0
 40
1.0
 40
1.0
 40
1.0
 10
177.6098159945827
 20
24.85884131749167
 30
0.0
 10
177.587036926142
 20
24.83137391376092
 30
0.0
 10
177.5693902922885
 20
24.80135650624976
 30
0.0
 10
177.5579626264885
 20
24.77073660615209
 30
0.0
  0
SPLINE
  5
287
330
1F
100
AcDbEntity
  8
0
  6
Continuous
 62
     7
370
    25
100
AcDbSpline
210
0.0
220
0.0
230
1.0
 70
     8
 71
     3
 72
     8
 73
     4
 74
     0
 42
0.000000001
 43
0.00000001
 40
0.0
 40
0.0
 40
0.0
 40
0.0
 40
1.0
 40
1.0
 40
1.0
 40
1.0
 10
180.7730992296005
 20
28.6604773098197
 30
0.0
 10
179.7150492503769
 20
27.39470663221023
 30
0.0
 10
178.6616026211489
 20
26.12710423990503
 30
0.0
 10
177.6098159945827
 20
24.85884131749166
 30
0.0
  0
SPLINE
  5
288
330
1F
100
AcDbEntity
  8
0
  6
Continuous
 62
     7
370
    25
100
AcDbSpline
210
0.0
220
0.0
230
1.0
 70
     8
 71
     3
 72
    10
 73
     6
 74
     0
 42
0.000000001
 43
0.00000001
 40
0.0
 40
0.0
 40
0.0
 40
0.0
 40
0.5
 40
0.5
 40
1.0
 40
1.0
 40
1.0
 40
1.0
 10
180.7026020528505
 20
29.088644617845
 30
0.0
 10
180.7803072397426
 20
29.03292311280292
 30
0.0
 10
180.8287703817985
 20
28.9597786380204
 30
0.0
 10
180.8531625494126
 20
28.80572901310524
 30
0.0
 10
180.8292847966243
 20
28.72769345710955
 30
0.0
 10
180.7730992296005
 20
28.6604773098197
 30
0.0
  0
ELLIPSE
  5
289
330
1F
100
AcDbEntity
  8
0
  6
Continuous
 62
     7
370
    25
100
AcDbEllipse
 10
215.0360854315
 20
20.5416561059
 30
0.0
 11
107.462062163605
 21
-72.95045781926522
 31
0.0
210
0.0
220
0.0
230
1.0
 40
0.0972559465
 41
4.449980398253338
 42
4.453852262137612
  0
ELLIPSE
  5
28A
330
1F
100
AcDbEntity
  8
0
  6
Continuous
 62
     7
370
    25
100
AcDbEllipse
 10
215.0360854315
 20
20.5416561059
 30
0.0
 11
107.462062163605
 21
-72.95045781926522
 31
0.0
210
0.0
220
0.0
230
1.0
 40
0.0972559465
 41
1.755132841858863
 42
1.759004705743137
  0
SPLINE
  5
28B
330
1F
100
AcDbEntity
  8
0
  6
Continuous
 62
     7
370
    25
100
AcDbSpline
210
0.0
220
0.0
230
1.0
 70
     8
 71
     3
 72
    10
 73
     6
 74
     0
 42
0.000000001
 43
0.00000001
 40
0.0
 40
0.0
 40
0.0
 40
0.0
 40
0.5
 40
0.5
 40
1.0
 40
1.0
 40
1.0
 40
1.0
 10
202.8102894576296
 20
44.10631806175504
 30
0.0
 10
202.7252144860138
 20
44.08940195893273
 30
0.0
 10
202.6337778000359
 20
44.08740440232383
 30
0.0
 10
202.4596606996493
 20
44.11527353968068
 30
0.0
 10
202.3787109799626
 20
44.14480025968621
 30
0.0
 10
202.3135639550291
 20
44.1873204388146
 30
0.0
  0
ELLIPSE
  5
28C
330
1F
100
AcDbEntity
  8
0
  6
Continuous
 62
     7
370
    25
100
AcDbEllipse
 10
215.0360854315
 20
20.5416561059
 30
0.0
 11
109.167809182075
 21
-74.10840159417427
 31
0.0
210
0.0
220
0.0
230
1.0
 40
0.0972559465
 41
1.722566509081966
 42
1.748704160291354
  0
LINE
  5
28D
330
1F
100
AcDbEntity
  8
0
  6
Continuous
 62
     7
370
    25
100
AcDbLine
 10
205.6558337457
 20
42.2411455565
 30
0.0
 11
189.8827299874
 21
23.5746662709
 31
0.0
  0
LINE
  5
28E
330
1F
100
AcDbEntity
  8
0
  6
Continuous
 62
     7
370
    25
100
AcDbLine
 10
183.8347981546
 20
25.9103483741
 30
0.0
 11
184.4866623871
 21
25.6469447199
 31
0.0
  0
LWPOLYLINE
  5
28F
330
1F
100
AcDbEntity
  8
0
  6
Continuous
 62
     7
370
    25
100
AcDbPolyline
 90
       11
 70
   128
 43
0.0
 10
183.8347981546
 20
25.9103483741
 10
183.4922575459
 20
26.0027178773
 10
183.125241472
 20
26.0173984652
 10
182.7696748528
 20
25.9529514387
 10
182.4603630829
 20
25.8156877907
 10
182.2275834044
 20
25.6190424305
 10
182.0941227744
 20
25.3822647465
 10
182.0730440818
 20
25.1285333873
 10
182.166411205
 20
24.8826825451
 10
182.3650861806
 20
24.6687801589
 10
182.6496195549
 20
24.5077635252
  0
LINE
  5
290
330
1F
100
AcDbEntity
  8
0
  6
Continuous
 62
     7
370
    25
100
AcDbLine
 10
189.8083605561
 20
20.7300559345
 30
0.0
 11
189.8130586126
 21
20.7356158827
 31
0.0
  0
LINE
  5
291
330
1F
100
AcDbEntity
  8
0
  6
Continuous
 62
     7
370
    25
100
AcDbLine
 10
189.8135103742
 20
21.5414786279
 30
0.0
 11
189.8130586126
 21
20.7356158827
 31
0.0
  0
ELLIPSE
  5
292
330
1F
100
AcDbEntity
  8
0
  6
Continuous
 62
     7
370
    25
100
AcDbEllipse
 10
197.4718949183
 20
30.681247462
 30
0.0
 11
6.221337192023015
 21
14.86227310197443
 31
0.0
210
0.0
220
0.0
230
1.0
 40
0.3727965289
 41
3.879300582871212
 42
5.743686948664398
  0
LINE
  5
293
330
1F
100
AcDbEntity
  8
0
  6
Continuous
 62
     7
370
    25
100
AcDbLine
 10
188.58108845
 20
10.1139586295
 30
0.0
 11
196.594603759
 21
18.1230432575
 31
0.0
  0
SPLINE
  5
294
330
1F
100
AcDbEntity
  8
0
  6
Continuous
 62
     7
370
    25
100
AcDbSpline
210
0.0
220
0.0
230
1.0
 70
     8
 71
     3
 72
    26
 73
    22
 74
     0
 42
0.000000001
 43
0.00000001
 40
0.0
 40
0.0
 40
0.0
 40
0.0
 40
0.0526848671791605
 40
0.1052983990642863
 40
0.1578520730436221
 40
0.2103574057592932
 40
0.2628259456856021
 40
0.3152692656031282
 40
0.3676989549928565
 40
0.4201266123751254
 40
0.4725638376186473
 40
0.5250222242450538
 40
0.5775133517544621
 40
0.6300487779974308
 40
0.6826400316182546
 40
0.7352986045940535
 40
0.788035944893343
 40
0.8408634492769194
 40
0.8937924562627722
 40
0.9468342392755837
 40
0.9999999999999999
 40
0.9999999999999999
 40
0.9999999999999999
 40
0.9999999999999999
 10
186.8597572224024
 20
12.03274279167788
 30
0.0
 10
186.8831682434622
 20
11.98547284788057
 30
0.0
 10
186.9299585870665
 20
11.89099696377537
 30
0.0
 10
187.0030255914361
 20
11.75474028670573
 30
0.0
 10
187.0781356731361
 20
11.62261924243641
 30
0.0
 10
187.1554989700077
 20
11.49501570187061
 30
0.0
 10
187.2350592567546
 20
11.37182753933028
 30
0.0
 10
187.316831568798
 20
11.25308211422089
 30
0.0
 10
187.4008118685972
 20
11.13877212947709
 30
0.0
 10
187.4870012226178
 20
11.02889956202661
 30
0.0
 10
187.5753993302183
 20
10.92346390534039
 30
0.0
 10
187.6660062500395
 20
10.82246530207458
 30
0.0
 10
187.7588219629326
 20
10.72590376515297
 30
0.0
 10
187.853846394424
 20
10.63377916075619
 30
0.0
 10
187.9510797629295
 20
10.54609205638386
 30
0.0
 10
188.0505211626069
 20
10.46284034008155
 30
0.0
 10
188.1521738942935
 20
10.38403191940707
 30
0.0
 10
188.2560255160214
 20
10.30963720303739
 30
0.0
 10
188.3621224951481
 20
10.23976691521554
 30
0.0
 10
188.4702907773827
 20
10.17400651660643
 30
0.0
 10
188.5441269495836
 20
10.13399055524431
 30
0.0
 10
188.581088130738
 20
10.11395921893736
 30
0.0
  0
LINE
  5
295
330
1F
100
AcDbEntity
  8
0
  6
Continuous
 62
     7
370
    25
100
AcDbLine
 10
186.8626712156
 20
17.1576338664
 30
0.0
 11
186.8597986444
 21
12.0327922946
 31
0.0
  0
LINE
  5
296
330
1F
100
AcDbEntity
  8
0
  6
Continuous
 62
     7
370
    25
100
AcDbLine
 10
181.4972009102
 20
19.2564122176
 30
0.0
 11
181.6045265429
 21
19.1813564259
 31
0.0
  0
LINE
  5
297
330
1F
100
AcDbEntity
  8
0
  6
Continuous
 62
     7
370
    25
100
AcDbLine
 10
181.4972009102
 20
19.2564122176
 30
0.0
 11
181.5639101518
 21
19.3353591479
 31
0.0
  0
LINE
  5
298
330
1F
100
AcDbEntity
  8
0
  6
Continuous
 62
     7
370
    25
100
AcDbLine
 10
189.8083651659
 20
20.737512603
 30
0.0
 11
189.8130586126
 21
20.7356158827
 31
0.0
  0
SPLINE
  5
299
330
1F
100
AcDbEntity
  8
0
  6
Continuous
 62
     7
370
    25
100
AcDbSpline
210
0.0
220
0.0
230
1.0
 70
    11
 71
     3
 72
    68
 73
    64
 74
     0
 42
0.000000001
 43
0.00000001
 40
0.0
 40
0.0
 40
0.0
 40
0.0
 40
0.03125
 40
0.03125
 40
0.0625
 40
0.0625
 40
0.09375
 40
0.09375
 40
0.125
 40
0.125
 40
0.15625
 40
0.15625
 40
0.1875000000000001
 40
0.1875000000000001
 40
0.2187500000000001
 40
0.2187500000000001
 40
0.2500000000000001
 40
0.2500000000000001
 40
0.2812500000000001
 40
0.2812500000000001
 40
0.3125000000000001
 40
0.3125000000000001
 40
0.3437500000000001
 40
0.3437500000000001
 40
0.3750000000000001
 40
0.3750000000000001
 40
0.4062500000000001
 40
0.4062500000000001
 40
0.4375000000000001
 40
0.4375000000000001
 40
0.4687500000000001
 40
0.4687500000000001
 40
0.5000000000000001
 40
0.5000000000000001
 40
0.5312500000000001
 40
0.5312500000000001
 40
0.5625000000000001
 40
0.5625000000000001
 40
0.5937500000000001
 40
0.5937500000000001
 40
0.6250000000000001
 40
0.6250000000000001
 40
0.6562500000000001
 40
0.6562500000000001
 40
0.6875000000000001
 40
0.6875000000000001
 40
0.7187500000000001
 40
0.7187500000000001
 40
0.7500000000000002
 40
0.7500000000000002
 40
0.7812500000000002
 40
0.7812500000000002
 40
0.8125000000000002
 40
0.8125000000000002
 40
0.8437500000000002
 40
0.8437500000000002
 40
0.8750000000000002
 40
0.8750000000000002
 40
0.9062500000000002
 40
0.9062500000000002
 40
0.9375000000000002
 40
0.9375000000000002
 40
1.0
 40
1.0
 40
1.0
 40
1.0
 10
179.3955190382244
 20
45.8248383654995
 30
0.0
 10
179.3347978021845
 20
45.74930172513188
 30
0.0
 10
179.2823128285418
 20
45.67059120617688
 30
0.0
 10
179.1930956715751
 20
45.50713566883447
 30
0.0
 10
179.156097407681
 20
45.42141871873509
 30
0.0
 10
179.1004708929569
 20
45.24898251991836
 30
0.0
 10
179.0816952261798
 20
45.16258212035923
 30
0.0
 10
179.0618928445167
 20
44.98962655689905
 30
0.0
 10
179.0611041385603
 20
44.90263441878243
 30
0.0
 10
179.0775241733816
 20
44.73613960524911
 30
0.0
 10
179.0945261305059
 20
44.65570816835186
 30
0.0
 10
179.1463800350213
 20
44.50087012948471
 30
0.0
 10
179.1809499719067
 20
44.42778885562143
 30
0.0
 10
179.2650731805122
 20
44.29379564265854
 30
0.0
 10
179.315243413251
 20
44.231886714509
 30
0.0
 10
179.4298425780634
 20
44.12165033888751
 30
0.0
 10
179.4931697929026
 20
44.07417465903701
 30
0.0
 10
179.6315377141096
 20
43.99417446605402
 30
0.0
 10
179.7074839563269
 20
43.96148455963648
 30
0.0
 10
179.8657202304832
 20
43.91390957489752
 30
0.0
 10
179.9482720705399
 20
43.89863236033626
 30
0.0
 10
180.1203989991847
 20
43.88505117373187
 30
0.0
 10
180.20978996669
 20
43.88700021922615
 30
0.0
 10
180.3881017913824
 20
43.90768647509134
 30
0.0
 10
180.4779726948113
 20
43.92630430138187
 30
0.0
 10
180.6594168396734
 20
43.98050249829222
 30
0.0
 10
180.7480263508628
 20
44.01519906302114
 30
0.0
 10
180.9212405513549
 20
44.09886694312369
 30
0.0
 10
181.0067524006766
 20
44.1484916209638
 30
0.0
 10
181.1689126574003
 20
44.25946527798153
 30
0.0
 10
181.2453211244668
 20
44.32041685137746
 30
0.0
 10
181.3889849913238
 20
44.45301181232416
 30
0.0
 10
181.456517837211
 20
44.52522984680539
 30
0.0
 10
181.576488060448
 20
44.6743857509064
 30
0.0
 10
181.6297377414315
 20
44.75195236781869
 30
0.0
 10
181.7224199633278
 20
44.91325335553849
 30
0.0
 10
181.7610309502573
 20
44.99582723844359
 30
0.0
 10
181.8211219722117
 20
45.16055738457459
 30
0.0
 10
181.8430790047676
 20
45.24396179033282
 30
0.0
 10
181.8691777190004
 20
45.40931806627018
 30
0.0
 10
181.8732235894968
 20
45.48984450237333
 30
0.0
 10
181.8635988049575
 20
45.64698797322006
 30
0.0
 10
181.8495884754125
 20
45.72434822182838
 30
0.0
 10
181.8041879219379
 20
45.8695396724382
 30
0.0
 10
181.7729688857858
 20
45.93784366386837
 30
0.0
 10
181.6931971993976
 20
46.06604154997884
 30
0.0
 10
181.6444882304257
 20
46.12567053392347
 30
0.0
 10
181.5336250715941
 20
46.23131901304248
 30
0.0
 10
181.4710648219115
 20
46.27809658063517
 30
0.0
 10
181.331066793588
 20
46.35912220953288
 30
0.0
 10
181.2557527401766
 20
46.39210930388774
 30
0.0
 10
181.0956241124357
 20
46.44327738028125
 30
0.0
 10
181.0097234603704
 20
46.46159701403482
 30
0.0
 10
180.8327971021109
 20
46.48187210384621
 30
0.0
 10
180.7422926539032
 20
46.48398131779079
 30
0.0
 10
180.5573895569849
 20
46.47210482252797
 30
0.0
 10
180.462378463689
 20
46.45781697830714
 30
0.0
 10
180.2765493885215
 20
46.41373201139712
 30
0.0
 10
180.1847977339647
 20
46.38397628430729
 30
0.0
 10
180.0038392158602
 20
46.30840320005993
 30
0.0
 10
179.9159660507852
 20
46.26298410610842
 30
0.0
 10
179.667220548876
 20
46.1077368301661
 30
0.0
 10
179.516961510304
 20
45.97591164623471
 30
0.0
 10
179.3955190382243
 20
45.8248383654995
 30
0.0
  0
ARC
  5
29A
330
1F
100
AcDbEntity
  8
0
  6
Continuous
 62
     7
370
    25
100
AcDbCircle
 10
183.80051091
 20
50.0327497603
 30
0.0
 40
5.826229988904568
100
AcDbArc
 50
60.7068195991
 51
95.1471036689
  0
ARC
  5
29B
330
1F
100
AcDbEntity
  8
0
  6
Continuous
 62
     7
370
    25
100
AcDbCircle
 10
173.9355544092
 20
32.8939610727
 30
0.0
 40
5.899897862446524
100
AcDbArc
 50
205.4924950816
 51
239.0629488166
  0
SPLINE
  5
29C
330
1F
100
AcDbEntity
  8
0
  6
Continuous
 62
     7
370
    25
100
AcDbSpline
210
0.0
220
0.0
230
1.0
 70
     8
 71
     3
 72
    20
 73
    16
 74
     0
 42
0.000000001
 43
0.00000001
 40
0.0
 40
0.0
 40
0.0
 40
0.0
 40
0.2500000000000023
 40
0.2500000000000023
 40
0.3750000000000019
 40
0.3750000000000019
 40
0.5000000000000016
 40
0.5000000000000016
 40
0.6250000000000012
 40
0.6250000000000012
 40
0.7500000000000008
 40
0.7500000000000008
 40
0.8750000000000004
 40
0.8750000000000004
 40
1.0
 40
1.0
 40
1.0
 40
1.0
 10
201.8995958838175
 20
44.45739424180895
 30
0.0
 10
201.6736592418203
 20
44.6047330778183
 30
0.0
 10
201.4464485624515
 20
44.77682989413275
 30
0.0
 10
201.1016130715126
 20
45.06947820982052
 30
0.0
 10
200.9874467663289
 20
45.17166692207064
 30
0.0
 10
200.7644901596037
 20
45.38042376083196
 30
0.0
 10
200.6549911169741
 20
45.48759499471018
 30
0.0
 10
200.4393050830752
 20
45.70687850632022
 30
0.0
 10
200.333422450243
 20
45.8187584880802
 30
0.0
 10
200.1313380533472
 20
46.03915878406699
 30
0.0
 10
200.0341937401547
 20
46.14862826438022
 30
0.0
 10
199.8469040362274
 20
46.36542253002736
 30
0.0
 10
199.7564710864494
 20
46.47313487242613
 30
0.0
 10
199.5866660314908
 20
46.68017679400201
 30
0.0
 10
199.5066823431673
 20
46.78019672319601
 30
0.0
 10
199.4312696399078
 20
46.87653471267377
 30
0.0
  0
ELLIPSE
  5
29D
330
1F
100
AcDbEntity
  8
0
  6
Continuous
 62
     7
370
    25
100
AcDbEllipse
 10
190.621243061
 20
34.6360445989
 30
0.0
 11
3.736944006191806
 21
15.62842138757157
 31
0.0
210
0.0
220
0.0
230
1.0
 40
0.71801106
 41
5.764281615595944
 42
8.161742085356389
  0
SPLINE
  5
29E
330
1F
100
AcDbEntity
  8
0
  6
Continuous
 62
     7
370
    25
100
AcDbSpline
210
0.0
220
0.0
230
1.0
 70
     8
 71
     3
 72
    20
 73
    16
 74
     0
 42
0.000000001
 43
0.00000001
 40
0.0
 40
0.0
 40
0.0
 40
0.0
 40
0.2499999999999992
 40
0.2499999999999992
 40
0.3749999999999993
 40
0.3749999999999993
 40
0.4999999999999994
 40
0.4999999999999994
 40
0.6249999999999996
 40
0.6249999999999996
 40
0.7499999999999997
 40
0.7499999999999997
 40
0.8749999999999999
 40
0.8749999999999999
 40
1.0
 40
1.0
 40
1.0
 40
1.0
 10
178.7950931350852
 20
32.45890070633114
 30
0.0
 10
178.791993641021
 20
32.15861557533336
 30
0.0
 10
178.8258112588791
 20
31.85920917894219
 30
0.0
 10
178.9317911530367
 20
31.41045515234706
 30
0.0
 10
178.9765216664034
 20
31.26141382961967
 30
0.0
 10
179.0814072390558
 20
30.9734585403706
 30
0.0
 10
179.1418315448458
 20
30.83325309567661
 30
0.0
 10
179.2782828855312
 20
30.56029703643229
 30
0.0
 10
179.3550742472687
 20
30.42652968699444
 30
0.0
 10
179.5192114688178
 20
30.17496784005753
 30
0.0
 10
179.606777750416
 20
30.05640089391902
 30
0.0
 10
179.7922204382292
 20
29.83335602092939
 30
0.0
 10
179.890793521809
 20
29.72824543804921
 30
0.0
 10
180.0948660028358
 20
29.5360948592976
 30
0.0
 10
180.1998373053911
 20
29.44935778055601
 30
0.0
 10
180.3076334717794
 20
29.37199257049057
 30
0.0
  0
SPLINE
  5
29F
330
1F
100
AcDbEntity
  8
0
  6
Continuous
 62
     7
370
    25
100
AcDbSpline
210
0.0
220
0.0
230
1.0
 70
     8
 71
     3
 72
    12
 73
     8
 74
     0
 42
0.000000001
 43
0.00000001
 40
0.0
 40
0.0
 40
0.0
 40
0.0
 40
0.25
 40
0.25
 40
0.5
 40
0.5
 40
1.0
 40
1.0
 40
1.0
 40
1.0
 10
171.6913307440812
 20
37.12283969055859
 30
0.0
 10
171.6690367438766
 20
37.13570974292995
 30
0.0
 10
171.6509242677878
 20
37.15973896598511
 30
0.0
 10
171.6243593964955
 20
37.21485083187154
 30
0.0
 10
171.6157584635984
 20
37.2448018878679
 30
0.0
 10
171.5973891176761
 20
37.33624392606586
 30
0.0
 10
171.5951868333075
 20
37.39760525915732
 30
0.0
 10
171.5975460392127
 20
37.45828901628376
 30
0.0
  0
LINE
  5
2A0
330
1F
100
AcDbEntity
  8
0
  6
Continuous
 62
     7
370
    25
100
AcDbLine
 10
172.7323636966
 20
36.5218640935
 30
0.0
 11
171.6913306115
 21
37.1228397014
 31
0.0
  0
SPLINE
  5
2A1
330
1F
100
AcDbEntity
  8
0
  6
Continuous
 62
     7
370
    25
100
AcDbSpline
210
0.0
220
0.0
230
1.0
 70
     8
 71
     3
 72
    12
 73
     8
 74
     0
 42
0.000000001
 43
0.00000001
 40
0.0
 40
0.0
 40
0.0
 40
0.0
 40
0.4999999999999972
 40
0.4999999999999972
 40
0.7499999999999986
 40
0.7499999999999986
 40
1.0
 40
1.0
 40
1.0
 40
1.0
 10
172.9447653977435
 20
36.68055583512018
 30
0.0
 10
172.9203841010577
 20
36.63260856422702
 30
0.0
 10
172.8926863308969
 20
36.58851408352292
 30
0.0
 10
172.8403938049405
 20
36.53781951579112
 30
0.0
 10
172.821092873294
 20
36.52370967135965
 30
0.0
 10
172.7787233191737
 20
36.50900657185786
 30
0.0
 10
172.7546250583904
 20
36.5090129485774
 30
0.0
 10
172.732363884764
 20
36.52186405056851
 30
0.0
  0
ELLIPSE
  5
2A2
330
1F
100
AcDbEntity
  8
0
  6
Continuous
 62
     7
370
    25
100
AcDbEllipse
 10
177.7701795875
 20
42.0548056294
 30
0.0
 11
7.874888476696726
 21
13.63996451050158
 31
0.0
210
0.0
220
0.0
230
1.0
 40
0.1059897947
 41
1.10533848546366
 42
2.036099852607332
  0
SPLINE
  5
2A3
330
1F
100
AcDbEntity
  8
0
  6
Continuous
 62
     7
370
    25
100
AcDbSpline
210
0.0
220
0.0
230
1.0
 70
     8
 71
     3
 72
    12
 73
     8
 74
     0
 42
0.000000001
 43
0.00000001
 40
0.0
 40
0.0
 40
0.0
 40
0.0
 40
0.2500000000000032
 40
0.2500000000000032
 40
0.5000000000000064
 40
0.5000000000000064
 40
1.0
 40
1.0
 40
1.0
 40
1.0
 10
180.0439984489364
 20
49.18598656492408
 30
0.0
 10
180.066292449141
 20
49.17311651255273
 30
0.0
 10
180.0782368248929
 20
49.15264921557312
 30
0.0
 10
180.0868381313155
 20
49.10791086610566
 30
0.0
 10
180.0841991110471
 20
49.08445060631583
 30
0.0
 10
180.0664561675883
 20
49.01386252608997
 30
0.0
 10
180.042125070314
 20
48.96782356760072
 30
0.0
 10
180.0127831538049
 20
48.92272166148823
 30
0.0
  0
LINE
  5
2A4
330
1F
100
AcDbEntity
  8
0
  6
Continuous
 62
     7
370
    25
100
AcDbLine
 10
179.0029652326
 20
49.7869623144
 30
0.0
 11
180.0439983177
 21
49.1859867065
 31
0.0
  0
SPLINE
  5
2A5
330
1F
100
AcDbEntity
  8
0
  6
Continuous
 62
     7
370
    25
100
AcDbSpline
210
0.0
220
0.0
230
1.0
 70
     8
 71
     3
 72
    12
 73
     8
 74
     0
 42
0.000000001
 43
0.00000001
 40
0.0
 40
0.0
 40
0.0
 40
0.0
 40
0.4999999999999953
 40
0.4999999999999953
 40
0.7499999999999977
 40
0.7499999999999977
 40
1.0
 40
1.0
 40
1.0
 40
1.0
 10
178.6655637952742
 20
49.7004548426518
 30
0.0
 10
178.7169176246009
 20
49.73282614005396
 30
0.0
 10
178.7711458535029
 20
49.76159993405971
 30
0.0
 10
178.8595706670918
 20
49.79142899532155
 30
0.0
 10
178.8902318764837
 20
49.79897855906425
 30
0.0
 10
178.9502877404154
 20
49.80346825011668
 30
0.0
 10
178.9807041346272
 20
49.79981330690526
 30
0.0
 10
179.0029653082536
 20
49.78696220491416
 30
0.0
  0
ELLIPSE
  5
2A6
330
1F
100
AcDbEntity
  8
0
  6
Continuous
 62
     7
370
    25
100
AcDbEllipse
 10
187.9151496055
 20
36.1982390986
 30
0.0
 11
14.30238360604707
 21
-8.263902107297778
 31
0.0
210
0.0
220
0.0
230
1.0
 40
0.9534948969
 41
2.676532761479947
 42
3.607294128623635
  0
SPLINE
  5
2A7
330
1F
100
AcDbEntity
  8
0
  6
Continuous
 62
     7
370
    25
100
AcDbSpline
210
0.0
220
0.0
230
1.0
 70
     8
 71
     3
 72
    12
 73
     8
 74
     0
 42
0.000000001
 43
0.00000001
 40
0.0
 40
0.0
 40
0.0
 40
0.0
 40
0.2500000000000005
 40
0.2500000000000005
 40
0.500000000000001
 40
0.500000000000001
 40
1.0
 40
1.0
 40
1.0
 40
1.0
 10
185.6413307440811
 20
53.61920899935078
 30
0.0
 10
185.619028582593
 20
53.6320837631308
 30
0.0
 10
185.6070840277304
 20
53.64610527015419
 30
0.0
 10
185.5984899616208
 20
53.67181794259816
 30
0.0
 10
185.6011358592308
 20
53.68327349343991
 30
0.0
 10
185.6189004590774
 20
53.71472798732012
 30
0.0
 10
185.6433919247755
 20
53.73137821983808
 30
0.0
 10
185.6725460392126
 20
53.74549959087911
 30
0.0
  0
LINE
  5
2A8
330
1F
100
AcDbEntity
  8
0
  6
Continuous
 62
     7
370
    25
100
AcDbLine
 10
186.6823640342
 20
53.0182336629
 30
0.0
 11
185.6413309491
 21
53.6192092709
 31
0.0
  0
SPLINE
  5
2A9
330
1F
100
AcDbEntity
  8
0
  6
Continuous
 62
     7
370
    25
100
AcDbSpline
210
0.0
220
0.0
230
1.0
 70
     8
 71
     3
 72
    12
 73
     8
 74
     0
 42
0.000000001
 43
0.00000001
 40
0.0
 40
0.0
 40
0.0
 40
0.0
 40
0.5000000000000018
 40
0.5000000000000018
 40
0.7500000000000009
 40
0.7500000000000009
 40
1.0
 40
1.0
 40
1.0
 40
1.0
 10
187.0197653977434
 20
52.96776640971552
 30
0.0
 10
186.9691089604342
 20
52.96629331039968
 30
0.0
 10
186.9140977943647
 20
52.96696989244938
 30
0.0
 10
186.8260743456367
 20
52.97624249913045
 30
0.0
 10
186.7952993167304
 20
52.98081017117718
 30
0.0
 10
186.7345667107259
 20
52.99523867291778
 30
0.0
 10
186.7045233787907
 20
53.00544095575309
 30
0.0
 10
186.682363884764
 20
53.01823335936075
 30
0.0
  0
ELLIPSE
  5
2AA
330
1F
100
AcDbEntity
  8
0
  6
Continuous
 62
     7
370
    25
100
AcDbEllipse
 10
177.7701795875
 20
42.0548056294
 30
0.0
 11
15.90471575942229
 21
8.322204981098992
 31
0.0
210
0.0
220
0.0
230
1.0
 40
0.4445305117
 41
0.2747775750656706
 42
0.7400769945754289
  0
ELLIPSE
  5
2AB
330
1F
100
AcDbEntity
  8
0
  6
Continuous
 62
     7
370
    25
100
AcDbEllipse
 10
187.9151496055
 20
36.1982390986
 30
0.0
 11
-0.7461041289972173
 21
17.9347738606024
 31
0.0
210
0.0
220
0.0
230
1.0
 40
0.4444802122
 41
5.846123912132791
 42
6.473758866427506
  0
ELLIPSE
  5
2AC
330
1F
100
AcDbEntity
  8
0
  6
Continuous
 62
     7
370
    25
100
AcDbEllipse
 10
177.7701795875
 20
42.0548056294
 30
0.0
 11
-0.746104128997189
 21
17.93477386060239
 31
0.0
210
0.0
220
0.0
230
1.0
 40
0.4444802122
 41
2.401404845694029
 42
2.866866793327966
  0
SPLINE
  5
2AD
330
1F
100
AcDbEntity
  8
0
  6
Continuous
 62
     7
370
    25
100
AcDbSpline
210
0.0
220
0.0
230
1.0
 70
     8
 71
     3
 72
    12
 73
     8
 74
     0
 42
0.000000001
 43
0.00000001
 40
0.0
 40
0.0
 40
0.0
 40
0.0
 40
0.2500000000000009
 40
0.2500000000000009
 40
0.5000000000000018
 40
0.5000000000000018
 40
1.0
 40
1.0
 40
1.0
 40
1.0
 10
172.7323638847641
 20
28.85612466468789
 30
0.0
 10
172.7546660462522
 20
28.84324990090787
 30
0.0
 10
172.7783734091915
 20
28.82243566184034
 30
0.0
 10
172.8214354030607
 20
28.77681860977366
 30
0.0
 10
172.8404386863153
 20
28.75286119002196
 30
0.0
 10
172.8927123568003
 20
28.68096131948553
 30
0.0
 10
172.9205310115425
 20
28.63410328037661
 30
0.0
 10
172.9447653977435
 20
28.58915136473198
 30
0.0
  0
LINE
  5
2AE
330
1F
100
AcDbEntity
  8
0
  6
Continuous
 62
     7
370
    25
100
AcDbLine
 10
171.6913306115
 20
29.4570999914
 30
0.0
 11
172.7323636966
 21
28.8561243835
 31
0.0
  0
SPLINE
  5
2AF
330
1F
100
AcDbEntity
  8
0
  6
Continuous
 62
     7
370
    25
100
AcDbSpline
210
0.0
220
0.0
230
1.0
 70
     8
 71
     3
 72
    12
 73
     8
 74
     0
 42
0.000000001
 43
0.00000001
 40
0.0
 40
0.0
 40
0.0
 40
0.0
 40
0.4999999999999971
 40
0.4999999999999971
 40
0.7499999999999986
 40
0.7499999999999986
 40
1.0
 40
1.0
 40
1.0
 40
1.0
 10
171.5975460392127
 20
29.36688454589556
 30
0.0
 10
171.595219749461
 20
29.39895386556505
 30
0.0
 10
171.5974207545476
 20
29.42877385120774
 30
0.0
 10
171.6156861149886
 20
29.45978482295073
 30
0.0
 10
171.6244523579359
 20
29.46792668290194
 30
0.0
 10
171.6509163634724
 20
29.47328745418084
 30
0.0
 10
171.6691712500545
 20
29.46989270828559
 30
0.0
 10
171.6913307440812
 20
29.45710030467793
 30
0.0
  0
ELLIPSE
  5
2B0
330
1F
100
AcDbEntity
  8
0
  6
Continuous
 62
     7
370
    25
100
AcDbEllipse
 10
187.9151496055
 20
36.1982390986
 30
0.0
 11
15.90471575942232
 21
8.32220498109897
 31
0.0
210
0.0
220
0.0
230
1.0
 40
0.4445305117
 41
2.950908281021528
 42
3.57870576344048
  0
LINE
  5
2B1
330
1F
100
AcDbEntity
  8
0
  6
Continuous
 62
     7
370
    25
100
AcDbLine
 10
181.646342802
 20
16.8662045609
 30
0.0
 11
181.6476058904
 21
19.1200504041
 31
0.0
  0
LINE
  5
2B2
330
1F
100
AcDbEntity
  8
0
  6
Continuous
 62
     7
370
    25
100
AcDbLine
 10
186.5178586283
 20
12.0054193053
 30
0.0
 11
186.5207259311
 21
17.1233698109
 31
0.0
  0
ELLIPSE
  5
2B3
330
1F
100
AcDbEntity
  8
0
  6
Continuous
 62
     7
370
    25
100
AcDbEllipse
 10
258.3258703711
 20
-4.4490047985
 30
0.0
 11
77.97532188834157
 21
-25.88812129888528
 31
0.0
210
0.0
220
0.0
230
1.0
 40
0.1892252736
 41
3.397261372023139
 42
3.609266563974312
  0
ELLIPSE
  5
2B4
330
1F
100
AcDbEntity
  8
0
  6
Continuous
 62
     7
370
    25
100
AcDbEllipse
 10
-1231.8991253781
 20
855.8395734903
 30
0.0
 11
1440.283532160693
 21
-851.7279360087524
 31
0.0
210
0.0
220
0.0
230
1.0
 40
0.0084115574
 41
6.083793280549568
 42
6.095108307475517
  0
SPLINE
  5
2B5
330
1F
100
AcDbEntity
  8
0
  6
Continuous
 62
     7
370
    25
100
AcDbSpline
210
0.0
220
0.0
230
1.0
 70
     8
 71
     3
 72
    18
 73
    14
 74
     0
 42
0.000000001
 43
0.00000001
 40
0.0
 40
0.0
 40
0.0
 40
0.0
 40
0.0312499999999993
 40
0.0312499999999993
 40
0.0624999999999986
 40
0.0624999999999986
 40
0.1249999999999992
 40
0.1249999999999992
 40
0.2500000000000003
 40
0.2500000000000003
 40
0.5000000000000007
 40
0.5000000000000007
 40
1.0
 40
1.0
 40
1.0
 40
1.0
 10
178.4292626994322
 20
18.58710256290943
 30
0.0
 10
178.4103962389453
 20
18.59722496219378
 30
0.0
 10
178.3914456978527
 20
18.61572356527277
 30
0.0
 10
178.3581926999885
 20
18.65785746992166
 30
0.0
 10
178.3440527893633
 20
18.68054385306441
 30
0.0
 10
178.3052139928663
 20
18.75000492709236
 30
0.0
 10
178.285111153034
 20
18.7961989204501
 30
0.0
 10
178.2302977509671
 20
18.93467328033216
 30
0.0
 10
178.2024561925905
 20
19.02554564813397
 30
0.0
 10
178.1286330469736
 20
19.29220735508266
 30
0.0
 10
178.0925506443142
 20
19.46510360794421
 30
0.0
 10
177.997627086735
 20
19.97854020521095
 30
0.0
 10
177.9542021833036
 20
20.31034945185471
 30
0.0
 10
177.9155509791478
 20
20.63963888845894
 30
0.0
  0
SPLINE
  5
2B6
330
1F
100
AcDbEntity
  8
0
  6
Continuous
 62
     7
370
    25
100
AcDbSpline
210
0.0
220
0.0
230
1.0
 70
     8
 71
     3
 72
     8
 73
     4
 74
     0
 42
0.000000001
 43
0.00000001
 40
0.0
 40
0.0
 40
0.0
 40
0.0
 40
1.0
 40
1.0
 40
1.0
 40
1.0
 10
177.9155509791478
 20
20.63963888845894
 30
0.0
 10
177.7820200105733
 20
21.77725771228085
 30
0.0
 10
177.6755250385801
 20
22.89889045250417
 30
0.0
 10
177.5960660755892
 20
24.00453710178451
 30
0.0
  0
SPLINE
  5
2B7
330
1F
100
AcDbEntity
  8
0
  6
Continuous
 62
     7
370
    25
100
AcDbSpline
210
0.0
220
0.0
230
1.0
 70
     8
 71
     3
 72
     8
 73
     4
 74
     0
 42
0.000000001
 43
0.00000001
 40
0.0
 40
0.0
 40
0.0
 40
0.0
 40
1.0
 40
1.0
 40
1.0
 40
1.0
 10
177.5960660755892
 20
24.0045371017845
 30
0.0
 10
177.5774361704823
 20
24.26376641189006
 30
0.0
 10
177.5624394251195
 20
24.52064900761711
 30
0.0
 10
177.5579626264887
 20
24.77073660615245
 30
0.0
  0
LINE
  5
2B8
330
1F
100
AcDbEntity
  8
0
  6
Continuous
 62
     7
370
    25
100
AcDbLine
 10
181.4972009102
 20
19.2564122176
 30
0.0
 11
181.4977079895
 21
20.1617117622
 31
0.0
  0
SPLINE
  5
2B9
330
1F
100
AcDbEntity
  8
0
  6
Continuous
 62
     7
370
    25
100
AcDbSpline
210
0.0
220
0.0
230
1.0
 70
     8
 71
     3
 72
     8
 73
     4
 74
     0
 42
0.000000001
 43
0.00000001
 40
0.0
 40
0.0
 40
0.0
 40
0.0
 40
1.0
 40
1.0
 40
1.0
 40
1.0
 10
186.8597164372508
 20
12.03265106287039
 30
0.0
 10
186.7458556572843
 20
12.02504825354917
 30
0.0
 10
186.631911222901
 20
12.01782010075291
 30
0.0
 10
186.5178863036818
 20
12.01096979934494
 30
0.0
  0
ELLIPSE
  5
2BA
330
1F
100
AcDbEntity
  8
0
  6
Continuous
 62
     7
370
    25
100
AcDbEllipse
 10
183.3001979394
 20
37.7746061064
 30
0.0
 11
0.7676692615306705
 21
1.712303783590869
 31
0.0
210
0.0
220
0.0
230
1.0
 40
0.4863985363
 41
0.0
 42
6.283185307179586
  0
LWPOLYLINE
  5
2BB
330
1F
100
AcDbEntity
  8
0
  6
Continuous
 62
     7
370
    25
100
AcDbPolyline
 90
        3
 70
   128
 43
0.0
 10
182.3361708083
 20
13.4388562584
 10
181.738388885
 20
13.8227377433
 10
181.3525647799
 20
14.1159772583
  0
SPLINE
  5
2BC
330
1F
100
AcDbEntity
  8
0
  6
Continuous
 62
     7
370
    25
100
AcDbSpline
210
0.0
220
0.0
230
1.0
 70
     8
 71
     3
 72
    10
 73
     6
 74
     0
 42
0.000000001
 43
0.00000001
 40
0.0
 40
0.0
 40
0.0
 40
0.0
 40
0.3352726140477192
 40
0.6753669021919384
 40
1.0
 40
1.0
 40
1.0
 40
1.0
 10
188.1881566740136
 20
10.06726823296662
 30
0.0
 10
187.9676396292192
 20
10.2137501170387
 30
0.0
 10
187.5234342059809
 20
10.50882049298928
 30
0.0
 10
186.9651624886716
 20
11.16458812133301
 30
0.0
 10
186.6628555757147
 20
11.73095484627679
 30
0.0
 10
186.5152178648036
 20
12.00755152079248
 30
0.0
  0
LINE
  5
2BD
330
1F
100
AcDbEntity
  8
0
  6
Continuous
 62
     7
370
    25
100
AcDbLine
 10
188.5811266455
 20
10.1139669932
 30
0.0
 11
188.2272860716
 21
10.0383242573
 31
0.0
  0
ARC
  5
2BE
330
1F
100
AcDbEntity
  8
0
  6
Continuous
 62
     7
370
    25
100
AcDbCircle
 10
181.3732487967
 20
41.5063096714
 30
0.0
 40
23.18312663837228
100
AcDbArc
 50
140.2279278766
 51
177.3607126482
  0
LINE
  5
2BF
330
1F
100
AcDbEntity
  8
0
  6
Continuous
 62
     7
370
    25
100
AcDbLine
 10
171.6913306115
 20
29.4570999914
 30
0.0
 11
172.7338783489
 21
28.8550547225
 31
0.0
  0
LWPOLYLINE
  5
2C0
330
1F
100
AcDbEntity
  8
0
  6
Continuous
 62
     7
370
    25
100
AcDbPolyline
 90
        9
 70
   128
 43
0.0
 10
167.8358473805
 20
58.8087644938
 10
167.3336100579
 20
58.8048361105
 10
166.8033410474
 20
58.70657793
 10
166.2541137341
 20
58.5156712214
 10
165.6953253424
 20
58.2353826929
 10
165.1365369507
 20
57.870507877
 10
164.5873096374
 20
57.4272902275
 10
164.0570406269
 20
56.9133128402
 10
163.5548033043
 20
56.3373703537
  0
ARC
  5
2C1
330
1F
100
AcDbEntity
  8
0
  6
Continuous
 62
     7
370
    25
100
AcDbCircle
 10
161.2856495637
 20
42.2865198199
 30
0.0
 40
3.084347660107857
100
AcDbArc
 50
174.6548011447
 51
232.6759370834
  0
ARC
  5
2C2
330
1F
100
AcDbEntity
  8
0
  6
Continuous
 62
     7
370
    25
100
AcDbCircle
 10
167.400618753
 20
53.4690688372
 30
0.0
 40
5.357403630879504
100
AcDbArc
 50
62.0480988642
 51
85.340228905
  0
LWPOLYLINE
  5
2C3
330
1F
100
AcDbEntity
  8
0
  6
Continuous
 62
     7
370
    25
100
AcDbPolyline
 90
       12
 70
   128
 43
0.0
 10
157.9905706016
 20
43.0567559805
 10
158.0375445814
 20
44.2225975543
 10
158.178042418
 20
45.4321169494
 10
158.4107904863
 20
46.6743597222
 10
158.7336807855
 20
47.9380758776
 10
159.1437906949
 20
49.2118216739
 10
159.6374053651
 20
50.4840617129
 10
160.2100539372
 20
51.7432736903
 10
160.8565513613
 20
52.9780551417
 10
161.5710425179
 20
54.1772224887
 10
162.3470568781
 20
55.3299171185
 10
163.1775666196
 20
56.4256986302
  0
ARC
  5
2C4
330
1F
100
AcDbEntity
  8
0
  6
Continuous
 62
     7
370
    25
100
AcDbCircle
 10
167.9569255517
 20
52.9675276645
 30
0.0
 40
5.899255735221437
100
AcDbArc
 50
103.4689956258
 51
144.1118634589
  0
ARC
  5
2C5
330
1F
100
AcDbEntity
  8
0
  6
Continuous
 62
     7
370
    25
100
AcDbCircle
 10
161.9016038758
 20
42.9786559497
 30
0.0
 40
3.911812992294188
100
AcDbArc
 50
178.8560037274
 51
201.1091891358
  0
LINE
  5
2C6
330
1F
100
AcDbEntity
  8
0
  6
Continuous
 62
     7
370
    18
100
AcDbLine
 10
186.9279408788
 20
18.1265887625
 30
0.0
 11
186.928904988
 21
19.8461739174
 31
0.0
  0
LINE
  5
2C7
330
1F
100
AcDbEntity
  8
0
  6
Continuous
 62
     7
370
    18
100
AcDbLine
 10
186.6543735877
 20
18.0770045052
 30
0.0
 11
186.6553376969
 21
19.7965897618
 31
0.0
  0
LINE
  5
2C8
330
1F
100
AcDbEntity
  8
0
  6
Continuous
 62
     7
370
    18
100
AcDbLine
 10
181.5164883618
 20
20.1531067497
 30
0.0
 11
181.5174524709
 21
21.8726935135
 31
0.0
  0
SPLINE
  5
2C9
330
1F
100
AcDbEntity
  8
0
  6
Continuous
 62
     7
370
    18
100
AcDbSpline
210
0.0
220
0.0
230
1.0
 70
     8
 71
     3
 72
     9
 73
     5
 74
     0
 42
0.000000001
 43
0.00000001
 40
0.0
 40
0.0
 40
0.0
 40
0.0
 40
0.4031495274744274
 40
1.0
 40
1.0
 40
1.0
 40
1.0
 10
186.5215293553681
 20
20.18179654810253
 30
0.0
 10
186.3635403839655
 20
20.22177485700829
 30
0.0
 10
185.9716536009339
 20
20.32093982231584
 30
0.0
 10
185.6057021821673
 20
20.45651978463329
 30
0.0
 10
185.387283904955
 20
20.53744074920746
 30
0.0
  0
SPLINE
  5
2CA
330
1F
100
AcDbEntity
  8
0
  6
Continuous
 62
     7
370
    18
100
AcDbSpline
210
0.0
220
0.0
230
1.0
 70
     8
 71
     3
 72
     9
 73
     5
 74
     0
 42
0.000000001
 43
0.00000001
 40
0.0
 40
0.0
 40
0.0
 40
0.0
 40
0.5968512915867963
 40
1.0
 40
1.0
 40
1.0
 40
1.0
 10
183.3753053096113
 20
21.35043505318803
 30
0.0
 10
183.1761804423179
 20
21.4382338208869
 30
0.0
 10
182.842554847299
 20
21.58533707581235
 30
0.0
 10
182.6063110675804
 20
21.73998573306696
 30
0.0
 10
182.5110696929162
 20
21.80233213949699
 30
0.0
  0
LINE
  5
2CB
330
1F
100
AcDbEntity
  8
0
  6
Continuous
 62
     7
370
    18
100
AcDbLine
 10
185.387283905
 20
20.5374407492
 30
0.0
 11
183.3753053096
 21
21.3504350532
 31
0.0
  0
LINE
  5
2CC
330
1F
100
AcDbEntity
  8
0
  6
Continuous
 62
     7
370
    18
100
AcDbLine
 10
189.9287141748
 20
21.6778142038
 30
0.0
 11
189.9296769668
 21
23.3974002073
 31
0.0
  0
SPLINE
  5
2CD
330
1F
100
AcDbEntity
  8
0
  6
Continuous
 62
     7
370
    18
100
AcDbSpline
210
0.0
220
0.0
230
1.0
 70
     8
 71
     3
 72
     9
 73
     5
 74
     0
 42
0.000000001
 43
0.00000001
 40
0.0
 40
0.0
 40
0.0
 40
0.0
 40
0.403148462002119
 40
1.0
 40
1.0
 40
1.0
 40
1.0
 10
188.8638312417379
 20
22.95376367819312
 30
0.0
 10
188.8436387636617
 20
22.87049519426452
 30
0.0
 10
188.7935518106423
 20
22.66394973576257
 30
0.0
 10
188.6169528211344
 20
22.42436904889234
 30
0.0
 10
188.5115494426377
 20
22.28137494745925
 30
0.0
  0
SPLINE
  5
2CE
330
1F
100
AcDbEntity
  8
0
  6
Continuous
 62
     7
370
    18
100
AcDbSpline
210
0.0
220
0.0
230
1.0
 70
     8
 71
     3
 72
     9
 73
     5
 74
     0
 42
0.000000001
 43
0.00000001
 40
0.0
 40
0.0
 40
0.0
 40
0.0
 40
0.5968514721998367
 40
1.0
 40
1.0
 40
1.0
 40
1.0
 10
187.3364557934834
 20
20.89072652144599
 30
0.0
 10
187.1979932381291
 20
20.74512161139011
 30
0.0
 10
186.9660049432121
 20
20.50116659605067
 30
0.0
 10
186.6492347802267
 20
20.27355701543924
 30
0.0
 10
186.5215293553681
 20
20.18179654810253
 30
0.0
  0
LWPOLYLINE
  5
2CF
330
1F
100
AcDbEntity
  8
0
  6
Continuous
 62
     7
370
    18
100
AcDbPolyline
 90
        3
 70
   128
 43
0.0
 10
188.5115494426
 20
22.2813749475
 10
187.853498843
 20
21.5026114292
 10
187.3364557935
 20
20.8907265214
  0
ARC
  5
2D0
330
1F
100
AcDbEntity
  8
0
  6
Continuous
 62
     7
370
    18
100
AcDbCircle
 10
185.169372574
 20
20.9005989789
 30
0.0
 40
0.4235200679474015
100
AcDbArc
 50
300.9656582246
 51
338.6391358216
  0
SPLINE
  5
2D1
330
1F
100
AcDbEntity
  8
0
  6
Continuous
 62
     7
370
    18
100
AcDbSpline
210
0.0
220
0.0
230
1.0
 70
     8
 71
     3
 72
     9
 73
     5
 74
     0
 42
0.000000001
 43
0.00000001
 40
0.0
 40
0.0
 40
0.0
 40
0.0
 40
0.6664272942173891
 40
1.0
 40
1.0
 40
1.0
 40
1.0
 10
185.5637988577857
 20
20.74633571487267
 30
0.0
 10
185.751839221725
 20
20.67305387230426
 30
0.0
 10
186.0340010802968
 20
20.56309162555314
 30
0.0
 10
186.3334967231689
 20
20.46789285440003
 30
0.0
 10
186.4334002951318
 20
20.4361371427193
 30
0.0
  0
LINE
  5
2D2
330
1F
100
AcDbEntity
  8
0
  6
Continuous
 62
     7
370
    18
100
AcDbLine
 10
187.0342286453
 20
21.0128503614
 30
0.0
 11
186.5378454541
 21
21.4533397542
 31
0.0
  0
SPLINE
  5
2D3
330
1F
100
AcDbEntity
  8
0
  6
Continuous
 62
     7
370
    18
100
AcDbSpline
210
0.0
220
0.0
230
1.0
 70
     8
 71
     3
 72
     9
 73
     5
 74
     0
 42
0.000000001
 43
0.00000001
 40
0.0
 40
0.0
 40
0.0
 40
0.0
 40
0.3335733831091353
 40
1.0
 40
1.0
 40
1.0
 40
1.0
 10
186.4334002951318
 20
20.4361371427193
 30
0.0
 10
186.5101383330982
 20
20.49990924062815
 30
0.0
 10
186.7401867777646
 20
20.69108785720256
 30
0.0
 10
186.9166373124602
 20
20.88417316979628
 30
0.0
 10
187.0342286453459
 20
21.01285036143942
 30
0.0
  0
LINE
  5
2D4
330
1F
100
AcDbEntity
  8
0
  6
Continuous
 62
     7
370
    18
100
AcDbLine
 10
185.5637988578
 20
20.7463357149
 30
0.0
 11
185.853924592
 21
21.3293793722
 31
0.0
  0
SPLINE
  5
2D5
330
1F
100
AcDbEntity
  8
0
  6
Continuous
 62
     7
370
    18
100
AcDbSpline
210
0.0
220
0.0
230
1.0
 70
     8
 71
     3
 72
    10
 73
     6
 74
     0
 42
0.000000001
 43
0.00000001
 40
0.0
 40
0.0
 40
0.0
 40
0.0
 40
0.2765299914868562
 40
0.5626636036830126
 40
1.0
 40
1.0
 40
1.0
 40
1.0
 10
187.3364557934834
 20
20.89072652144599
 30
0.0
 10
187.3100718189977
 20
20.89107922337856
 30
0.0
 10
187.2563875799617
 20
20.89179687624267
 30
0.0
 10
187.1485438632363
 20
20.9273347266121
 30
0.0
 10
187.077297158087
 20
20.98063215570888
 30
0.0
 10
187.0342286453459
 20
21.01285036143942
 30
0.0
  0
LWPOLYLINE
  5
2D6
330
1F
100
AcDbEntity
  8
0
  6
Continuous
 62
     7
370
    18
100
AcDbPolyline
 90
        3
 70
   128
 43
0.0
 10
183.5518215795
 20
21.5593307851
 10
184.6785280124
 20
21.1040535466
 10
185.5637988578
 20
20.7463357149
  0
LINE
  5
2D7
330
1F
100
AcDbEntity
  8
0
  6
Continuous
 62
     7
370
    18
100
AcDbLine
 10
183.5518215795
 20
21.5593307851
 30
0.0
 11
183.8419459967
 21
22.1423751909
 31
0.0
  0
SPLINE
  5
2D8
330
1F
100
AcDbEntity
  8
0
  6
Continuous
 62
     7
370
    18
100
AcDbSpline
210
0.0
220
0.0
230
1.0
 70
     8
 71
     3
 72
    10
 73
     6
 74
     0
 42
0.000000001
 43
0.00000001
 40
0.0
 40
0.0
 40
0.0
 40
0.0
 40
0.276529519178049
 40
0.5626695848094957
 40
1.0
 40
1.0
 40
1.0
 40
1.0
 10
183.3753053096113
 20
21.35043505318803
 30
0.0
 10
183.3907056119318
 20
21.35836122483109
 30
0.0
 10
183.4220414408821
 20
21.37448903541993
 30
0.0
 10
183.4850202779155
 20
21.44098810751379
 30
0.0
 10
183.5266542652473
 20
21.51474531615612
 30
0.0
 10
183.551821579531
 20
21.55933078513365
 30
0.0
  0
LINE
  5
2D9
330
1F
100
AcDbEntity
  8
0
  6
Continuous
 62
     7
370
    18
100
AcDbLine
 10
188.2093209774
 20
22.4034980093
 30
0.0
 11
187.7129377862
 21
22.8439874139
 31
0.0
  0
LWPOLYLINE
  5
2DA
330
1F
100
AcDbEntity
  8
0
  6
Continuous
 62
     7
370
    18
100
AcDbPolyline
 90
        3
 70
   128
 43
0.0
 10
187.0342286453
 20
21.0128503614
 10
187.692280562
 20
21.7916131074
 10
188.2093209774
 20
22.4034980093
  0
ARC
  5
2DB
330
1F
100
AcDbEntity
  8
0
  6
Continuous
 62
     7
370
    18
100
AcDbCircle
 10
188.5111999858
 20
22.7155470613
 30
0.0
 40
0.4341722544402479
100
AcDbArc
 50
225.9490481411
 51
270.046116272
  0
SPLINE
  5
2DC
330
1F
100
AcDbEntity
  8
0
  6
Continuous
 62
     7
370
    18
100
AcDbSpline
210
0.0
220
0.0
230
1.0
 70
     8
 71
     3
 72
     9
 73
     5
 74
     0
 42
0.000000001
 43
0.00000001
 40
0.0
 40
0.0
 40
0.0
 40
0.0
 40
0.3335732063516868
 40
1.0
 40
1.0
 40
1.0
 40
1.0
 10
182.8467416824362
 20
21.8854245147755
 30
0.0
 10
182.9140905738988
 20
21.84959727603391
 30
0.0
 10
183.1159919562047
 20
21.74219285008065
 30
0.0
 10
183.3775273713741
 20
21.63245981791627
 30
0.0
 10
183.551821579531
 20
21.55933078513366
 30
0.0
  0
SPLINE
  5
2DD
330
1F
100
AcDbEntity
  8
0
  6
Continuous
 62
     7
370
    18
100
AcDbSpline
210
0.0
220
0.0
230
1.0
 70
     8
 71
     3
 72
     9
 73
     5
 74
     0
 42
0.000000001
 43
0.00000001
 40
0.0
 40
0.0
 40
0.0
 40
0.0
 40
0.4031490318852785
 40
1.0
 40
1.0
 40
1.0
 40
1.0
 10
182.5110696929162
 20
21.80233213949699
 30
0.0
 10
182.5312911640723
 20
21.937524577094
 30
0.0
 10
182.5814499628212
 20
22.272865671589
 30
0.0
 10
182.7580633983854
 20
22.53919715644429
 30
0.0
 10
182.863475298384
 20
22.69815736101961
 30
0.0
  0
SPLINE
  5
2DE
330
1F
100
AcDbEntity
  8
0
  6
Continuous
 62
     7
370
    18
100
AcDbSpline
210
0.0
220
0.0
230
1.0
 70
     8
 71
     3
 72
     9
 73
     5
 74
     0
 42
0.000000001
 43
0.00000001
 40
0.0
 40
0.0
 40
0.0
 40
0.0
 40
0.5968508984292745
 40
1.0
 40
1.0
 40
1.0
 40
1.0
 10
184.0385676304492
 20
24.08880502075244
 30
0.0
 10
184.1770208596511
 20
24.21844433045571
 30
0.0
 10
184.4089937519868
 20
24.4356498503677
 30
0.0
 10
184.7256941131971
 20
24.53446289603688
 30
0.0
 10
184.8533715792861
 20
24.57429928662187
 30
0.0
  0
LWPOLYLINE
  5
2DF
330
1F
100
AcDbEntity
  8
0
  6
Continuous
 62
     7
370
    18
100
AcDbPolyline
 90
        3
 70
   128
 43
0.0
 10
182.8634752984
 20
22.698157361
 10
183.5215272151
 20
23.4769201189
 10
184.0385676304
 20
24.0888050208
  0
LINE
  5
2E0
330
1F
100
AcDbEntity
  8
0
  6
Continuous
 62
     7
370
    18
100
AcDbLine
 10
183.1657037636
 20
22.5760327785
 30
0.0
 11
183.6623569581
 21
22.6152597506
 31
0.0
  0
SPLINE
  5
2E1
330
1F
100
AcDbEntity
  8
0
  6
Continuous
 62
     7
370
    18
100
AcDbSpline
210
0.0
220
0.0
230
1.0
 70
     8
 71
     3
 72
     9
 73
     5
 74
     0
 42
0.000000001
 43
0.00000001
 40
0.0
 40
0.0
 40
0.0
 40
0.0
 40
0.6664262061264316
 40
1.0
 40
1.0
 40
1.0
 40
1.0
 10
183.1657037636106
 20
22.57603277851022
 30
0.0
 10
183.0716655097223
 20
22.43783861616788
 30
0.0
 10
182.930557232431
 20
22.2304725776299
 30
0.0
 10
182.8677069047027
 20
21.97173319294826
 30
0.0
 10
182.8467416824362
 20
21.8854245147755
 30
0.0
  0
SPLINE
  5
2E2
330
1F
100
AcDbEntity
  8
0
  6
Continuous
 62
     7
370
    18
100
AcDbSpline
210
0.0
220
0.0
230
1.0
 70
     8
 71
     3
 72
    10
 73
     6
 74
     0
 42
0.000000001
 43
0.00000001
 40
0.0
 40
0.0
 40
0.0
 40
0.0
 40
0.2765334844226522
 40
0.5626670477679326
 40
1.0
 40
1.0
 40
1.0
 40
1.0
 10
183.1657037636106
 20
22.57603277851022
 30
0.0
 10
183.1393194716197
 20
22.57638586022911
 30
0.0
 10
183.0856349360454
 20
22.57710428117841
 30
0.0
 10
182.9777888317786
 20
22.61264008790656
 30
0.0
 10
182.9065430946968
 20
22.66593859924852
 30
0.0
 10
182.863475298384
 20
22.69815736101961
 30
0.0
  0
LINE
  5
2E3
330
1F
100
AcDbEntity
  8
0
  6
Continuous
 62
     7
370
    18
100
AcDbLine
 10
187.8232044786
 20
23.420200763
 30
0.0
 11
187.5333474305
 21
23.3168727339
 31
0.0
  0
SPLINE
  5
2E4
330
1F
100
AcDbEntity
  8
0
  6
Continuous
 62
     7
370
    18
100
AcDbSpline
210
0.0
220
0.0
230
1.0
 70
     8
 71
     3
 72
     9
 73
     5
 74
     0
 42
0.000000001
 43
0.00000001
 40
0.0
 40
0.0
 40
0.0
 40
0.0
 40
0.3335730264795038
 40
1.0
 40
1.0
 40
1.0
 40
1.0
 10
188.5281816427313
 20
22.91517999462139
 30
0.0
 10
188.4608523851989
 20
22.9854854311512
 30
0.0
 10
188.259009753488
 20
23.19625018414044
 30
0.0
 10
187.9974889777005
 20
23.33063985883007
 30
0.0
 10
187.8232044785797
 20
23.4202007630059
 30
0.0
  0
SPLINE
  5
2E5
330
1F
100
AcDbEntity
  8
0
  6
Continuous
 62
     7
370
    18
100
AcDbSpline
210
0.0
220
0.0
230
1.0
 70
     8
 71
     3
 72
     9
 73
     5
 74
     0
 42
0.000000001
 43
0.00000001
 40
0.0
 40
0.0
 40
0.0
 40
0.0
 40
0.6664264997283359
 40
0.9999999999999999
 40
0.9999999999999999
 40
0.9999999999999999
 40
0.9999999999999999
 10
188.2093209774111
 20
22.40349800929003
 30
0.0
 10
188.3033501267582
 20
22.52526049222438
 30
0.0
 10
188.4444446801492
 20
22.70797003781419
 30
0.0
 10
188.5072360917699
 20
22.86334951765912
 30
0.0
 10
188.5281816427313
 20
22.91517999462139
 30
0.0
  0
LWPOLYLINE
  5
2E6
330
1F
100
AcDbEntity
  8
0
  6
Continuous
 62
     7
370
    18
100
AcDbPolyline
 90
        3
 70
   128
 43
0.0
 10
184.3407960957
 20
23.9666819352
 10
183.6827454961
 20
23.1879184407
 10
183.1657037636
 20
22.5760327785
  0
LINE
  5
2E7
330
1F
100
AcDbEntity
  8
0
  6
Continuous
 62
     7
370
    18
100
AcDbLine
 10
184.3407960957
 20
23.9666819352
 30
0.0
 11
184.8374492902
 21
24.0059074104
 31
0.0
  0
SPLINE
  5
2E8
330
1F
100
AcDbEntity
  8
0
  6
Continuous
 62
     7
370
    18
100
AcDbSpline
210
0.0
220
0.0
230
1.0
 70
     8
 71
     3
 72
     9
 73
     5
 74
     0
 42
0.000000001
 43
0.00000001
 40
0.0
 40
0.0
 40
0.0
 40
0.0
 40
0.4031483870600771
 40
1.0
 40
1.0
 40
1.0
 40
1.0
 10
184.8533715792861
 20
24.57429928662187
 30
0.0
 10
185.0113890744834
 20
24.58624461855771
 30
0.0
 10
185.4033477186681
 20
24.61587473074285
 30
0.0
 10
185.7693143681376
 20
24.50704563321101
 30
0.0
 10
185.9877421531557
 20
24.44209081081433
 30
0.0
  0
SPLINE
  5
2E9
330
1F
100
AcDbEntity
  8
0
  6
Continuous
 62
     7
370
    18
100
AcDbSpline
210
0.0
220
0.0
230
1.0
 70
     8
 71
     3
 72
     9
 73
     5
 74
     0
 42
0.000000001
 43
0.00000001
 40
0.0
 40
0.0
 40
0.0
 40
0.0
 40
0.5968505957833775
 40
1.0
 40
1.0
 40
1.0
 40
1.0
 10
187.9997194314104
 20
23.62909572867111
 30
0.0
 10
188.1988351420613
 20
23.52533104158978
 30
0.0
 10
188.532445784419
 20
23.35147733713779
 30
0.0
 10
188.7686183946365
 20
23.06803377955974
 30
0.0
 10
188.8638312417379
 20
22.95376367819312
 30
0.0
  0
LWPOLYLINE
  5
2EA
330
1F
100
AcDbEntity
  8
0
  6
Continuous
 62
     7
370
    18
100
AcDbPolyline
 90
        3
 70
   128
 43
0.0
 10
185.9877421532
 20
24.4420908108
 10
187.114448586
 20
23.9868135515
 10
187.9997194314
 20
23.6290957287
  0
ARC
  5
2EB
330
1F
100
AcDbEntity
  8
0
  6
Continuous
 62
     7
370
    18
100
AcDbCircle
 10
184.340446727
 20
24.4008542066
 30
0.0
 40
0.43417241198321
100
AcDbArc
 50
225.9490520547
 51
270.0461046127
  0
ARC
  5
2EC
330
1F
100
AcDbEntity
  8
0
  6
Continuous
 62
     7
370
    18
100
AcDbCircle
 10
187.6053122819
 20
23.7833428244
 30
0.0
 40
0.4234963590498227
100
AcDbArc
 50
300.964563959
 51
338.6402300872
  0
LINE
  5
2ED
330
1F
100
AcDbEntity
  8
0
  6
Continuous
 62
     7
370
    18
100
AcDbLine
 10
185.8112258832
 20
24.2331950848
 30
0.0
 11
185.5213688351
 21
24.1298670557
 31
0.0
  0
LWPOLYLINE
  5
2EE
330
1F
100
AcDbEntity
  8
0
  6
Continuous
 62
     7
370
    18
100
AcDbPolyline
 90
        3
 70
   128
 43
0.0
 10
187.8232044786
 20
23.420200763
 10
186.6964967286
 20
23.875477262
 10
185.8112258832
 20
24.2331950848
  0
SPLINE
  5
2EF
330
1F
100
AcDbEntity
  8
0
  6
Continuous
 62
     7
370
    18
100
AcDbSpline
210
0.0
220
0.0
230
1.0
 70
     8
 71
     3
 72
     9
 73
     5
 74
     0
 42
0.000000001
 43
0.00000001
 40
0.0
 40
0.0
 40
0.0
 40
0.0
 40
0.3335735708277089
 40
0.9999999999999999
 40
0.9999999999999999
 40
0.9999999999999999
 40
0.9999999999999999
 10
184.9415230300356
 20
24.36446734588368
 30
0.0
 10
184.8648046827508
 20
24.33517342874522
 30
0.0
 10
184.6348153970453
 20
24.2473549691899
 30
0.0
 10
184.458378384152
 20
24.07892687112373
 30
0.0
 10
184.3407960956758
 20
23.9666819351572
 30
0.0
  0
SPLINE
  5
2F0
330
1F
100
AcDbEntity
  8
0
  6
Continuous
 62
     7
370
    18
100
AcDbSpline
210
0.0
220
0.0
230
1.0
 70
     8
 71
     3
 72
     9
 73
     5
 74
     0
 42
0.000000001
 43
0.00000001
 40
0.0
 40
0.0
 40
0.0
 40
0.0
 40
0.6664268088932375
 40
1.0
 40
1.0
 40
1.0
 40
1.0
 10
185.811225883236
 20
24.23319508480981
 30
0.0
 10
185.6231762845262
 20
24.29004541276091
 30
0.0
 10
185.3410003633292
 20
24.37535159671458
 30
0.0
 10
185.0414462511458
 20
24.36718987683038
 30
0.0
 10
184.9415230300356
 20
24.36446734588368
 30
0.0
  0
SPLINE
  5
2F1
330
1F
100
AcDbEntity
  8
0
  6
Continuous
 62
     7
370
    18
100
AcDbSpline
210
0.0
220
0.0
230
1.0
 70
     8
 71
     3
 72
    10
 73
     6
 74
     0
 42
0.000000001
 43
0.00000001
 40
0.0
 40
0.0
 40
0.0
 40
0.0
 40
0.2765295205282556
 40
0.5626695942807292
 40
0.9999999999999999
 40
0.9999999999999999
 40
0.9999999999999999
 40
0.9999999999999999
 10
185.811225883236
 20
24.23319508480981
 30
0.0
 10
185.8266261857036
 20
24.2411212593738
 30
0.0
 10
185.8579620153276
 20
24.25724907609873
 30
0.0
 10
185.9209408494252
 20
24.32374814904959
 30
0.0
 10
185.9625748383855
 20
24.39750534836014
 30
0.0
 10
185.9877421531557
 20
24.44209081081432
 30
0.0
  0
LINE
  5
2F2
330
1F
100
AcDbEntity
  8
0
  6
Continuous
 62
     7
370
    18
100
AcDbLine
 10
187.1296754522
 20
18.3653258933
 30
0.0
 11
187.1290906646
 21
17.3249058556
 31
0.0
  0
LINE
  5
2F3
330
1F
100
AcDbEntity
  8
0
  6
Continuous
 62
     7
370
    18
100
AcDbLine
 10
186.3083874741
 20
17.1761527034
 30
0.0
 11
186.3089696274
 21
18.2165742618
 31
0.0
  0
LINE
  5
2F4
330
1F
100
AcDbEntity
  8
0
  6
Continuous
 62
     7
370
    18
100
AcDbLine
 10
181.861892322
 20
20.0135370881
 30
0.0
 11
181.8613088516
 21
18.97311629
 31
0.0
  0
LINE
  5
2F5
330
1F
100
AcDbEntity
  8
0
  6
Continuous
 62
     7
370
    18
100
AcDbLine
 10
189.7263974481
 20
20.3986554195
 30
0.0
 11
189.7269815771
 21
21.4390765978
 31
0.0
  0
LINE
  5
2F6
330
1F
100
AcDbEntity
  8
0
  6
Continuous
 62
     7
370
    18
100
AcDbLine
 10
180.3076337699
 20
29.3719928635
 30
0.0
 11
201.8995959709
 21
44.457394499
 31
0.0
  0
LWPOLYLINE
  5
2F7
330
1F
100
AcDbEntity
  8
0
  6
Continuous
 62
     7
370
    18
100
AcDbPolyline
 90
       25
 70
   128
 43
0.0
 10
167.6398686303
 20
35.0444816966
 10
167.6810961506
 20
36.1738336632
 10
167.8044711715
 20
37.3424233202
 10
168.0090822672
 20
38.5415999174
 10
168.2934141269
 20
39.7624846223
 10
168.6553607252
 20
40.9960385805
 10
169.0922431031
 20
42.2331288841
 10
169.6008264899
 20
43.4645964414
 10
170.1773453281
 20
44.6813240357
 10
170.8175315908
 20
45.8743036243
 10
171.5166457332
 20
47.0347024951
 10
172.2695115955
 20
48.1539301844
 10
173.0705552568
 20
49.2236996909
 10
173.9138455362
 20
50.2360903993
 10
174.7931397608
 20
51.1836072029
 10
175.7019275599
 20
52.0592362028
 10
176.6334804193
 20
52.8564923277
 10
177.5809018966
 20
53.5694749374
 10
178.5371772989
 20
54.1929041072
 10
179.4952268201
 20
54.7221657512
 10
180.4479574009
 20
55.1533400398
 10
181.388315165
 20
55.4832339521
 10
182.3093383918
 20
55.7094072932
 10
183.2042078526
 20
55.8301842624
 10
183.2778216041
 20
55.8354863366
  0
ARC
  5
2F8
330
1F
100
AcDbEntity
  8
0
  6
Continuous
 62
     7
370
    18
100
AcDbCircle
 10
178.237063628
 20
34.7915052089
 30
0.0
 40
10.60021409801904
100
AcDbArc
 50
178.6324935359
 51
204.7436628636
  0
LINE
  5
2F9
330
1F
100
AcDbEntity
  8
0
  6
Continuous
 62
     7
370
    18
100
AcDbLine
 10
180.6586761882
 20
28.537523275
 30
0.0
 11
180.702602424
 21
29.0886441962
 31
0.0
  0
LINE
  5
2FA
330
1F
100
AcDbEntity
  8
0
  6
Continuous
 62
     7
370
    18
100
AcDbLine
 10
183.8342252209
 20
24.8886153114
 30
0.0
 11
183.8347981546
 21
25.9103483741
 31
0.0
  0
LINE
  5
2FB
330
1F
100
AcDbEntity
  8
0
  6
Continuous
 62
     7
370
    18
100
AcDbLine
 10
178.7950933537
 20
32.4589010505
 30
0.0
 11
199.4312697391
 21
46.8765346575
 31
0.0
  0
ARC
  5
2FC
330
1F
100
AcDbEntity
  8
0
  6
Continuous
 62
     7
370
    18
100
AcDbCircle
 10
187.5255883777
 20
21.3432285441
 30
0.0
 40
9.50470312459669
100
AcDbArc
 50
196.8564545432
 51
229.4983137625
  0
LINE
  5
2FD
330
1F
100
AcDbEntity
  8
0
  6
Continuous
 62
     7
370
    18
100
AcDbLine
 10
180.0439983177
 20
49.1859867065
 30
0.0
 11
178.6905224128
 21
46.841697299
 31
0.0
  0
LINE
  5
2FE
330
1F
100
AcDbEntity
  8
0
  6
Continuous
 62
     7
370
    18
100
AcDbLine
 10
174.0859301514
 20
38.8663095775
 30
0.0
 11
172.7323636966
 21
36.5218640935
 31
0.0
  0
LINE
  5
2FF
330
1F
100
AcDbEntity
  8
0
  6
Continuous
 62
     7
370
    18
100
AcDbLine
 10
179.0029652326
 20
49.7869623144
 30
0.0
 11
171.6913306115
 21
37.1228397014
 31
0.0
  0
LINE
  5
300
330
1F
100
AcDbEntity
  8
0
  6
Continuous
 62
     7
370
    18
100
AcDbLine
 10
178.6655639052
 20
49.7004549849
 30
0.0
 11
171.597545971
 21
37.45828885
 31
0.0
  0
LINE
  5
301
330
1F
100
AcDbEntity
  8
0
  6
Continuous
 62
     7
370
    18
100
AcDbLine
 10
163.5548033043
 20
56.3373703537
 30
0.0
 11
173.9661443627
 21
50.4390206129
 31
0.0
  0
LINE
  5
302
330
1F
100
AcDbEntity
  8
0
  6
Continuous
 62
     7
370
    18
100
AcDbLine
 10
158.2147141274
 20
42.5738454796
 30
0.0
 11
167.6658972933
 21
36.8365782798
 31
0.0
  0
LINE
  5
303
330
1F
100
AcDbEntity
  8
0
  6
Continuous
 62
     7
370
    18
100
AcDbLine
 10
187.0193323686
 20
52.9677632515
 30
0.0
 11
185.6725459588
 21
53.7454996232
 31
0.0
  0
LINE
  5
304
330
1F
100
AcDbEntity
  8
0
  6
Continuous
 62
     7
370
    18
100
AcDbLine
 10
171.597545971
 20
29.3668845994
 30
0.0
 11
172.9449635957
 21
28.5887844771
 31
0.0
  0
LINE
  5
305
330
1F
100
AcDbEntity
  8
0
  6
Continuous
 62
     7
370
    18
100
AcDbLine
 10
167.8358473805
 20
58.8087644938
 30
0.0
 11
177.4988064417
 21
53.6086326264
 31
0.0
  0
LINE
  5
306
330
1F
100
AcDbEntity
  8
0
  6
Continuous
 62
     7
370
    18
100
AcDbLine
 10
163.1775666196
 20
56.4256986302
 30
0.0
 11
163.5548033043
 21
56.3373703537
 31
0.0
  0
LINE
  5
307
330
1F
100
AcDbEntity
  8
0
  6
Continuous
 62
     7
370
    18
100
AcDbLine
 10
157.9905706016
 20
43.0567559805
 30
0.0
 11
158.2147141274
 21
42.5738454796
 31
0.0
  0
OLE2FRAME
  5
308
330
1F
100
AcDbEntity
  8
0
100
AcDbOle2Frame
 70
     2
  3
Paintbrush-Bild
 10
13.8511154363
 20
38.264191557
 30
0.0
 11
51.6290888628
 21
31.9806341108
 31
0.0
 71
     2
 72
     0
 73
     1
 90
    12928
310
80552BED0767C5B32B40DDAF6807D121434000000000000000006FFBDDFB85D0
310
4940DDAF6807D121434000000000000000006FFBDDFB85D04940416F4BD60AFB
310
3F4000000000000000002BED0767C5B32B40416F4BD60AFB3F40000000000000
310
0000000000000100000000010000010000000100000000000100000000320000
310
D0CF11E0A1B11AE1000000000000000000000000000000003E000300FEFF0900
310
0600000000000000000000000100000001000000000000000010000002000000
310
01000000FEFFFFFF0000000000000000FFFFFFFFFFFFFFFFFFFFFFFFFFFFFFFF
310
FFFFFFFFFFFFFFFFFFFFFFFFFFFFFFFFFFFFFFFFFFFFFFFFFFFFFFFFFFFFFFFF
310
FFFFFFFFFFFFFFFFFFFFFFFFFFFFFFFFFFFFFFFFFFFFFFFFFFFFFFFFFFFFFFFF
310
FFFFFFFFFFFFFFFFFFFFFFFFFFFFFFFFFFFFFFFFFFFFFFFFFFFFFFFFFFFFFFFF
310
FFFFFFFFFFFFFFFFFFFFFFFFFFFFFFFFFFFFFFFFFFFFFFFFFFFFFFFFFFFFFFFF
310
FFFFFFFFFFFFFFFFFFFFFFFFFFFFFFFFFFFFFFFFFFFFFFFFFFFFFFFFFFFFFFFF
310
FFFFFFFFFFFFFFFFFFFFFFFFFFFFFFFFFFFFFFFFFFFFFFFFFFFFFFFFFFFFFFFF
310
FFFFFFFFFFFFFFFFFFFFFFFFFFFFFFFFFFFFFFFFFFFFFFFFFFFFFFFFFFFFFFFF
310
FFFFFFFFFFFFFFFFFFFFFFFFFFFFFFFFFFFFFFFFFFFFFFFFFFFFFFFFFFFFFFFF
310
FFFFFFFFFFFFFFFFFFFFFFFFFFFFFFFFFFFFFFFFFFFFFFFFFFFFFFFFFFFFFFFF
310
FFFFFFFFFFFFFFFFFFFFFFFFFFFFFFFFFFFFFFFFFFFFFFFFFFFFFFFFFFFFFFFF
310
FFFFFFFFFFFFFFFFFFFFFFFFFFFFFFFFFFFFFFFFFFFFFFFFFFFFFFFFFFFFFFFF
310
FFFFFFFFFFFFFFFFFFFFFFFFFFFFFFFFFFFFFFFFFFFFFFFFFFFFFFFFFFFFFFFF
310
FFFFFFFFFFFFFFFFFFFFFFFFFFFFFFFFFFFFFFFFFFFFFFFFFFFFFFFFFFFFFFFF
310
FDFFFFFFFEFFFFFFFEFFFFFFFEFFFFFF05000000060000000700000008000000
310
090000000A0000000B0000000C0000000D0000000E0000000F00000010000000
310
11000000120000001300000014000000150000001600000017000000FEFFFFFF
310
FFFFFFFFFFFFFFFFFFFFFFFFFFFFFFFFFFFFFFFFFFFFFFFFFFFFFFFFFFFFFFFF
310
FFFFFFFFFFFFFFFFFFFFFFFFFFFFFFFFFFFFFFFFFFFFFFFFFFFFFFFFFFFFFFFF
310
FFFFFFFFFFFFFFFFFFFFFFFFFFFFFFFFFFFFFFFFFFFFFFFFFFFFFFFFFFFFFFFF
310
FFFFFFFFFFFFFFFFFFFFFFFFFFFFFFFFFFFFFFFFFFFFFFFFFFFFFFFFFFFFFFFF
310
FFFFFFFFFFFFFFFFFFFFFFFFFFFFFFFFFFFFFFFFFFFFFFFFFFFFFFFFFFFFFFFF
310
FFFFFFFFFFFFFFFFFFFFFFFFFFFFFFFFFFFFFFFFFFFFFFFFFFFFFFFFFFFFFFFF
310
FFFFFFFFFFFFFFFFFFFFFFFFFFFFFFFFFFFFFFFFFFFFFFFFFFFFFFFFFFFFFFFF
310
FFFFFFFFFFFFFFFFFFFFFFFFFFFFFFFFFFFFFFFFFFFFFFFFFFFFFFFFFFFFFFFF
310
FFFFFFFFFFFFFFFFFFFFFFFFFFFFFFFFFFFFFFFFFFFFFFFFFFFFFFFFFFFFFFFF
310
FFFFFFFFFFFFFFFFFFFFFFFFFFFFFFFFFFFFFFFFFFFFFFFFFFFFFFFFFFFFFFFF
310
FFFFFFFFFFFFFFFFFFFFFFFFFFFFFFFFFFFFFFFFFFFFFFFFFFFFFFFFFFFFFFFF
310
FFFFFFFFFFFFFFFFFFFFFFFFFFFFFFFFFFFFFFFFFFFFFFFFFFFFFFFFFFFFFFFF
310
FFFFFFFFFFFFFFFFFFFFFFFFFFFFFFFFFFFFFFFFFFFFFFFFFFFFFFFFFFFFFFFF
310
52006F006F007400200045006E00740072007900000000000000000000000000
310
0000000000000000000000000000000000000000000000000000000000000000
310
16000500FFFFFFFFFFFFFFFF020000000A00030000000000C000000000000046
310
000000000000000000000000304B5EE8DDA3D30103000000C000000000000000
310
01004F006C006500000000000000000000000000000000000000000000000000
310
0000000000000000000000000000000000000000000000000000000000000000
310
0A000200FFFFFFFFFFFFFFFFFFFFFFFF00000000000000000000000000000000
310
0000000000000000000000000000000000000000000000001400000000000000
310
010043006F006D0070004F0062006A0000000000000000000000000000000000
310
0000000000000000000000000000000000000000000000000000000000000000
310
120002010100000003000000FFFFFFFF00000000000000000000000000000000
310
0000000000000000000000000000000000000000010000004D00000000000000
310
01004F006C006500310030004E00610074006900760065000000000000000000
310
0000000000000000000000000000000000000000000000000000000000000000
310
1A000200FFFFFFFFFFFFFFFFFFFFFFFF00000000000000000000000000000000
310
0000000000000000000000000000000000000000040000002426000000000000
310
FEFFFFFF02000000FEFFFFFFFFFFFFFFFFFFFFFFFFFFFFFFFFFFFFFFFFFFFFFF
310
FFFFFFFFFFFFFFFFFFFFFFFFFFFFFFFFFFFFFFFFFFFFFFFFFFFFFFFFFFFFFFFF
310
FFFFFFFFFFFFFFFFFFFFFFFFFFFFFFFFFFFFFFFFFFFFFFFFFFFFFFFFFFFFFFFF
310
FFFFFFFFFFFFFFFFFFFFFFFFFFFFFFFFFFFFFFFFFFFFFFFFFFFFFFFFFFFFFFFF
310
FFFFFFFFFFFFFFFFFFFFFFFFFFFFFFFFFFFFFFFFFFFFFFFFFFFFFFFFFFFFFFFF
310
FFFFFFFFFFFFFFFFFFFFFFFFFFFFFFFFFFFFFFFFFFFFFFFFFFFFFFFFFFFFFFFF
310
FFFFFFFFFFFFFFFFFFFFFFFFFFFFFFFFFFFFFFFFFFFFFFFFFFFFFFFFFFFFFFFF
310
FFFFFFFFFFFFFFFFFFFFFFFFFFFFFFFFFFFFFFFFFFFFFFFFFFFFFFFFFFFFFFFF
310
FFFFFFFFFFFFFFFFFFFFFFFFFFFFFFFFFFFFFFFFFFFFFFFFFFFFFFFFFFFFFFFF
310
FFFFFFFFFFFFFFFFFFFFFFFFFFFFFFFFFFFFFFFFFFFFFFFFFFFFFFFFFFFFFFFF
310
FFFFFFFFFFFFFFFFFFFFFFFFFFFFFFFFFFFFFFFFFFFFFFFFFFFFFFFFFFFFFFFF
310
FFFFFFFFFFFFFFFFFFFFFFFFFFFFFFFFFFFFFFFFFFFFFFFFFFFFFFFFFFFFFFFF
310
FFFFFFFFFFFFFFFFFFFFFFFFFFFFFFFFFFFFFFFFFFFFFFFFFFFFFFFFFFFFFFFF
310
FFFFFFFFFFFFFFFFFFFFFFFFFFFFFFFFFFFFFFFFFFFFFFFFFFFFFFFFFFFFFFFF
310
FFFFFFFFFFFFFFFFFFFFFFFFFFFFFFFFFFFFFFFFFFFFFFFFFFFFFFFFFFFFFFFF
310
FFFFFFFFFFFFFFFFFFFFFFFFFFFFFFFFFFFFFFFFFFFFFFFFFFFFFFFFFFFFFFFF
310
0100000200000000000000000000000000000000000000000000000000000000
310
0000000000000000000000000000000000000000000000000000000000000000
310
0100FEFF030A0000FFFFFFFF0A00030000000000C00000000000004607000000
310
5042727573680007000000504272757368000700000050427275736800F439B2
310
7100000000000000000000000000000000000000000000000000000000000000
310
0000000000000000000000000000000000000000000000000000000000000000
310
0000000000000000000000000000000000000000000000000000000000000000
310
0000000000000000000000000000000000000000000000000000000000000000
310
0000000000000000000000000000000000000000000000000000000000000000
310
0000000000000000000000000000000000000000000000000000000000000000
310
0000000000000000000000000000000000000000000000000000000000000000
310
0000000000000000000000000000000000000000000000000000000000000000
310
0000000000000000000000000000000000000000000000000000000000000000
310
0000000000000000000000000000000000000000000000000000000000000000
310
0000000000000000000000000000000000000000000000000000000000000000
310
0000000000000000000000000000000000000000000000000000000000000000
310
20260000424D0E260000000000003E00000028000000B40200006E0000000100
310
01000000000000000000130B0000130B00000200000002000000000000FFFFFF
310
FFFFFFFFFFFFFFFFFFFFFFFFFFFFFFFFFFFFFFFFFFFFFFFFFFFFFFFFFFFFFFFF
310
FFFFFFFFFFFFFFFFFFFFFFFFFFFFFFFFFFFFFFFFFFFFFFFFFFFFFFFFFFFFFFFF
310
FFFFFFFFFFFFFFFFFFFFFFFFFFFFFFFFFFFFFFFFFFFFFFFFF000FFFFFFFFFFFF
310
FFFFFFFFFFFFFFFFFFFFFFFFFFFFFFFFFFFFFFFFFFFFFFFFFFFFFFFFFFFFFFFF
310
FFFFFFFFFFFFFFFFFFFFFFFFFFFFFFFFFFFFFFFFFFFFFFFFFFFFFFFFFFFFFFFF
310
FFFFFFFFFFFFFFFFFFFFFFFFFFFFFFFFF000FFFFFFFFFFFFFFFFFFFFFFFFFFFF
310
FFFFFFFFFFFFFFFFFFFFFFFFFFFFFFFFFFFFFFFFFFFFFFFFFFFFFFFFFFFFFFFF
310
FFFFFFFFFFFFFFFFFFFFFFFFFFFFFFFFFFFFFFFFFFFFFFFFFFFFFFFFFFFFFFFF
310
FFFFFFFFFFFFFFFFF000FFFFFFFFFFFFFFFFFFFFFFFFFFFFFFFFFFFFFFFFFFFF
310
FFFFFFFFFFFFFFFFFFFFFFFFFFFFFFFFFFFFFFFFFFFFFFFFFFFFFFFFFFFFFFFF
310
FFFFFFFFFFFFFFFFFFFFFFFFFFFFFFFFFFFFFFFFFFFFFFFFFFFFFFFFFFFFFFFF
310
F000FFFFFFFFFFFFFFFFFFFFFFFFFFFFFFFFFFFFFFFFFFFFFFFFFFFFFFFFFFFF
310
FFFFFFFFFFFFFFFFFFFFFFFFFFFFFFFFFFFFFFFFFFFFFFFFFFFFFFFFFFFFFFFF
310
FFFFFFFFFFFFFFFFFFFFFFFFFFFFFFFFFFFFFFFFFFFFFFFFF000FFFFFFFFFFFF
310
FFFFFFFFFFFFFFFFFFFFFFFFFFFFFFFFFFFFFFFFFFFFFFFFFFFFFFFFFFFFFFFF
310
FFFFFFFFFFFFFFFFFFFFFFFFFFFFFFFFFFFFFFFFFFFFFFFFFFFFFFFFFFFFFFFF
310
FFFFFFFFFFFFFFFFFFFFFFFFFFFFFFFFF000FFFFFFFFFFFFFFFFFFFFFFFFFFFF
310
FFFFFFFFFFFFFFFFFFFFFFFFFFFFFFFFFFFFFFFFFFFFFFFFFFFFFFFFFFFFFFFF
310
FFFFFFFFFFFFFFFFFFFFFFFFFFFFFFFFFFFFFFFFFFFFFFFFFFFFFFFFFFFFFFFF
310
FFFFFFFFFFFFFFFFF000FFFFFFFFFFFFFFFFFFFFFFFFFFFFFFFFFFFFFFFFFFFF
310
FFFFFFFFFFFFFFFFFFFFFFFFFFFFFFFFFFFFFFFFFFFFFFFFFFFFFFFFFFFFFFFF
310
FFFFFFFFFFFFFFFFFFFFFFFFFFFFFFFFFFFFFFFFFFFFFFFFFFFFFFFFFFFFFFFF
310
F000FFFFFFFFFFFFFFFFFFFFFFFFFFFFFFFFFFFFFFFFFFFFFFFFFFFFFFFFFFFF
310
FFFFFFFFFFFFFFFFFFFFFFFFFFFFFFFFFFFFFFFFFFFFFFFFFFFFFFFFFFFFFFFF
310
FFFFFFFFFFFFFFFFFFFFFFFFFFFFFFFFFFFFFFFFFFFFFFFFF000FFFFFFFFFFFF
310
FFFFFFFFFFFFFFFFFFFFFFFFFFFFFFFFFFFFFFFFFFFFFFFFFFFFFFFFFFFFFFFF
310
FFFFFFFFFFFFFFFFFFFFFFFFFFFFFFFFFFFFFFFFFFFFFFFFFFFFFFFFFFFFFFFF
310
FFFFFFFFFFFFFFFFFFFFFFFFFFFFFFFFF000FFFFFFFFFFFFFFFFFFFFFFFFFFFF
310
FFFFFFFFFFFFFFFFFFFFFFFFFFFFFFFFFFFFFFFFFFFFFFFFFFFFFFFFFFFFFFFF
310
FFFFFFFFFFFFFFFFFFFFFFFFFFFFFFFFFFFFFFFFFFFFFFFFFFFFFFFFFFFFFFFF
310
FFFFFFFFFFFFFFFFF000FFFFFFFFFFFFFFFFFFFFFFFFFFFFFFFFFFFFFFFFFFFF
310
FFFFFFFFFFFFFFFFFFFFFFFFFFFFFFFFFFFFFFFFFFFFFFFFFFFFFFFFFFFFFFFF
310
FFFFFFFFFFFFFFFFFFFFFFFFFFFFFFFFFFFFFFFFFFFFFFFFFFFFFFFFFFFFFFFF
310
F000FFFFFFFFFFFFFFFFFFFFFFFFFFFFFFFFFFFFFFFFFFFFFFFFFFFFFFFFFFFF
310
FFFFFFFFFFFFFFFFFFFFFFFFFFFFFFFFFFFFFFFFFFFFFFFFFFFFFFFFFFFFFFFF
310
FFFFFFFFFFFFFFFFFFFFFFFFFFFFFFFFFFFFFFFFFFFFFFFFF000FFFFFFFFFFFF
310
FFFFFFFFFFFFFFFFFFFFFFFFFFFFFFFFFFFFFFFFFFFFFFFFFFFFFFFFFFFFFFFF
310
FFFFFFFFFFFFFFFFFFFFFFFFFFFFFFFFFFFFFFFFFFFFFFFFFFFFFFFFFFFFFFFF
310
FFFFFFFFFFFFFFFFFFFFFFFFFFFFFFFFF000FFFFFFFFFFFFFFFFFFFFFFFFFFFF
310
FFFFFFFFFFFFFFFFFFFFFFFFFFFFFFFFFFFFFFFFFFFFFFFFFFFFFFFFFFFFFFFF
310
FFFFFFFFFFFFFFFFFFFFFFFFFFFFFFFFFFFFFFFFFFFFFFFFFFFFFFFFFFFFFFFF
310
FFFFFFFFFFFFFFFFF000FFFFFFFFFFFFFFFFFFFFFFFFFFFFFFFFFFFFFFFFFFFF
310
FFFFFFFFFFFFFFFFFFFFFFFFFFFFFFFFFFFFFFFFFFFFFFFFFFFFFFFFFFFFFFFF
310
FFFFFFFFFFFFFFFFFFFFFFFFFFFFFFFFFFFFFFFFFFFFFFFFFFFFFFFFFFFFFFFF
310
F000FFFFFFFFFFFFFFFFFFFFFFFFFFFFFFFFFFFFFFFFFFFFFFFFFFFFFFFFFFFF
310
FFFFFFFFFFFFFFFFFFFFFFFFFFFFFFFFFFFFFFFFFFFFFFFFFFFFFFFFFFFFFFFF
310
FFFFFFFFFFFFFFFFFFFFFFFFFFFFFFFFFFFFFFFFFFFFFFFFF000FFFFFFFFFFFF
310
FFFFFFFFFFFFFFFFFFFFFFFFFFFFFFFFFFFFFFFFFFFFFFFFFFFFFFFFFFFFFFFF
310
FFFFFFFFFFFFFFFFFFFFFFFFFFFFFFFFFFFFFFFFFFFFFFFFFFFFFFFFFFFFFFFF
310
FFFFFFFFFFFFFFFFFFFFFFFFFFFFFFFFF000FFFFFFFFFFFFFFFFFFFFFFFFFFFF
310
FFFFFFFFFFFFFFFFFFFFFFFFFFFFFFFFFFFFFFFFFFFFFFFFFFFFFFFFFFFFFFFF
310
FFFFFFFFFFFFFFFFFFFFFFFFFFFFFFFFFFFFFFFFFFFFFFFFFFFFFFFFFFFFFFFF
310
FFFFFFFFFFFFFFFFF000FFFFF80003FFFFFFFFFFFFFFFFFFFFFFFFFFFFFFFFFF
310
FFFFF00007FFFFFFFFFF00007FFFFFF800000000000000007FFFFFFFFFFFFFFF
310
FFFFFFFC001FFFFFFFFFFFFFFC001FFFFFFFFFFFFFFFFFFFFFFFFFFE0007FFFF
310
F000FFFF8000007FFFFFFFF8000FFFFFC0007FFFFF80007FFFFF0000007FFFFF
310
FFF8000007FFFFF800000000000000007FFFFFF0001FFFFFFFFFFFC00001FFFF
310
FFFFFFFFC00001FFFFFFFF000000000003FFFFE000007FFFF000FFFE0000000F
310
FFFFFFF0000FFFFF80007FFFFF80007FFFFC0000001FFFFFFFC0000001FFFFF8
310
00000000000000007FFFFFF0001FFFFFFFFFFE0000003FFFFFFFFFFE0000003F
310
FFFFFF000000000003FFFF0000000FFFF000FFF800000003FFFFFFF00007FFFF
310
80007FFFFF80007FFFF000000007FFFFFF000000003FFFF80000000000000000
310
7FFFFFF0001FFFFFFFFFF80000000FFFFFFFFFF80000000FFFFFFF0000000000
310
03FFFC00000003FFF000FFE000000000FFFFFFF00007FFFF80003FFFFF80007F
310
FFC000000001FFFFFC000000001FFFF800000000000000007FFFFFF0001FFFFF
310
FFFFE000000003FFFFFFFFE000000003FFFFFF000000000003FFF000000000FF
310
F000FF80000000007FFFFFF00007FFFF80003FFFFF80007FFF8000000000FFFF
310
F80000000007FFF800000000000000007FFFFFF0001FFFFFFFFFC000000001FF
310
FFFFFFC000000001FFFFFF000000000003FFC0000000007FF000FF0000000000
310
3FFFFFE00007FFFF00003FFFFF80007FFE00000000003FFFF00000000003FFF8
310
00000000000000007FFFFFF0001FFFFFFFFF8000000000FFFFFFFF8000000000
310
FFFFFF000000000003FF80000000003FF000FE00000000001FFFFFE00003FFFF
310
00003FFFFF80007FFC00000000001FFFE00000000001FFF8000001FFFE000000
310
7FFFFFF0001FFFFFFFFE00000000003FFFFFFE00000000003FFFFF0000000000
310
03FF00000000001FF000FC00000000000FFFFFE00003FFFF00001FFFFF80007F
310
F800000000001FFFC00000000000FFF8000001FFFE0000007FFFFFF0001FFFFF
310
FFFC00000000001FFFFFFC00000000001FFFFF000000000003FE00000000000F
310
F000F8000000000007FFFFE00003FFFF00001FFFFF80007FF800000000000FFF
310
800000000000FFF8000001FFFE0000007FFFFFF0001FFFFFFFF800000000000F
310
FFFFF800000000000FFFFF000000000003FC000000000007F000F80000000000
310
03FFFFC00003FFFE00001FFFFF80007FF0000000000007FF0000000000007FF8
310
000001FFFE0000007FFFFFF0001FFFFFFFF0000000000007FFFFF00000000000
310
07FFFF000000000003F8000000000003F000F0000000000003FFFFC00001FFFE
310
00001FFFFF80007FE0000000000007FE0000000000003FF8000001FFFE000000
310
7FFFFFF0001FFFFFFFF0000000000007FFFFF0000000000007FFFF0000000000
310
03F800001F800003F000E00001FFF00001FFFFC00001FFFE00000FFFFF80007F
310
E00001FFE00003FE00001FFF00003FF8000001FFFE0000007FFFFFF0001FFFFF
310
FFE000003E000003FFFFE000003E000003FFFF000000000003F00001FFF80001
310
F000E00007FFFC0001FFFFC00001FFFE00000FFFFF80007FC0000FFFFC0003FC
310
0000FFFFC0001FF8000001FFFE0000007FFFFFF0001FFFFFFFC00003FFE00001
310
FFFFC00003FFE00001FFFF0001FFFFFFFFF00007FFFE0001F000E0000FFFFF00
310
00FFFF800001FFFC00000FFFFF80007FC0001FFFFE0001FC0001FFFFE0001FF8
310
000001FFFE0000007FFFFFF0001FFFFFFF80000FFFF80000FFFF80000FFFF800
310
00FFFF0003FFFFFFFFE0000FFFFF8000F000C0003FFFFF8000FFFF800000FFFC
310
000007FFFF80007F80003FFFFF0001FC0003FFFFF0001FF8000001FFFE000000
310
7FFFFFF0001FFFFFFF80003FFFFE0000FFFF80003FFFFE0000FFFF0003FFFFFF
310
FFE0003FFFFF8000F000C0003FFFFF8000FFFF800000FFFC000007FFFF80007F
310
80007FFFFF8001F80007FFFFF8000FF8000001FFFE0000007FFFFFF0001FFFFF
310
FF00007FFFFF00007FFF00007FFFFF00007FFF0003FFFFFFFFE0003FFFFFC000
310
F000C0007FFFFFC000FFFF000000FFFC000007FFFF80007F8000FFFFFF8000F8
310
000FFFFFF8000FF8000001FFFE0000007FFFFFF0001FFFFFFF0000FFFFFF8000
310
7FFF0000FFFFFF80007FFF0003FFFFFFFFC0007FFFFFC00070008000FFFFFFC0
310
00FFFF000000FFF8000007FFFF80007F8000FFFFFF8000F8000FFFFFF8000FF8
310
000001FFFE0000007FFFFFF0001FFFFFFE0001FFFFFFC0003FFE0001FFFFFFC0
310
003FFF0003FFFFFFFFC0007FFFFFE00070008000FFFFFFC0007FFF0000007FF8
310
000003FFFF80007F0001FFFFFF8000F8000FFFFFF8000FF8000001FFFE000000
310
7FFFFFF0001FFFFFFE0001FFFFFFC0003FFE0001FFFFFFC0003FFF0003FFFFFF
310
FFC000FFFFFFE00070008000FFFFFFC0007FFF0000007FF8000003FFFF80007F
310
0001FFFFFF8000F8001FFFFFF8000FF8000001FFFE0000007FFFFFF0001FFFFF
310
FE0003FFFFFFE0003FFE0003FFFFFFE0003FFF0003FFFFFFFFC000FFFFFFE000
310
70008000FFFFFFC0007FFE0000007FF8000003FFFF80007F0001FFFFFF8000F0
310
001FFFFFF8000FF8000001FFFE0000007FFFFFF0001FFFFFFC0003FFFFFFE000
310
1FFC0003FFFFFFE0001FFF0003FFFFFFFFC000FFFFFFC00070008000FFFFFF80
310
007FFE0000007FF0000003FFFF80007F0001FFFFFF0000F0001FFFFFF8000FF8
310
000001FFFE0000007FFFFFF0001FFFFFFC0007FFFFFFF0001FFC0007FFFFFFF0
310
001FFF0003FFFFFFFFC000FFFFFFC00070008001FFFFFF0000FFFE0000003FF0
310
000001FFFF80007F0001FFFFFF0000F8001FFFFFF0000FF8000001FFFE000000
310
7FFFFFF0001FFFFFFC0007FFFFFFF0001FFC0007FFFFFFF0001FFF0003FFFFFF
310
FFC001FFFFFF80007000FFFFFFFFFE0000FFFE0008003FF0008001FFFF80007F
310
FFFFFFFFFC0000FFFFFFFFFFE0000FF8000001FFFE0000007FFFFFF0001FFFFF
310
F8000FFFFFFFF8000FF8000FFFFFFFF8000FFF0003FFFFFFFFFFFFFFFFFF0000
310
7000FFFFFFFFFC0000FFFC0008003FF0008001FFFF80007FFFFFFFFFF80001FF
310
FFFFFFFF80000FF8000001FFFE0000007FFFFFF0001FFFFFF8000FFFFFFFF800
310
0FF8000FFFFFFFF8000FFF0003FFFFFFFFFFFFFFFFFE0000F000FFFFFFFFE000
310
00FFFC000C003FE000C001FFFF80007FFFFFFFFFC00001FFFFFFFFFE00001FF8
310
000001FFFE0000007FFFFFF0001FFFFFF8000FFFFFFFF8000FF8000FFFFFFFF8
310
000FFF0003FFFFFFFFFFFFFFFFF00000F000FFFFFFFE000001FFFC000C001FE0
310
00C000FFFF80007FFFFFFFFE000001FFFFFFFFE000001FF80FFFFFFFFFFFFFC0
310
7FFFFFF0001FFFFFF8000FFFFFFFF8000FF8000FFFFFFFF8000FFF0003FFFFFF
310
FFFFFFFFFF800000F000FFFFFFC0000001FFFC001C001FE001C000FFFF80007F
310
FFFFFF80000003FFFFFFF80000001FF80FFFFFFFFFFFFFC07FFFFFF0001FFFFF
310
F8001FFFFFFFFC000FF8001FFFFFFFFC000FFF0003FFFFFFFFFFFFFFF0000001
310
F000FFFFF800000001FFF8001C001FE001C000FFFF80007FFFFFF800000003FF
310
FFFF800000003FF80FFFFFFFFFFFFFC07FFFFFF0001FFFFFF8001FFFFFFFFC00
310
0FF8001FFFFFFFFC000FFF0003FFFFFFFFFFFFFE00000001F000FFFFC0000000
310
03FFF8001E001FC001E000FFFF80007FFFFF8000000007FFFFFC000000003FF8
310
0FFFFFFFFFFFFFC07FFFFFF0001FFFFFF8001FFFFFFFFC000FF8001FFFFFFFFC
310
000FFF0003FFFFFFFFFFFFE000000003F000FFFE0000000007FFF8001E000FC0
310
01E0007FFF80007FFFFE0000000007FFFFE0000000007FF80FFFFFFFFFFFFFC0
310
7FFFFFF0001FFFFFF0001FFFFFFFFC0007F0001FFFFFFFFC0007FF0003FFFFFF
310
FFFFFF0000000003F000FFF80000000007FFF8001E000FC003E0007FFF80007F
310
FFF0000000000FFFFF8000000000FFF80FFFFFFFFFFFFFC07FFFFFF0001FFFFF
310
F0001FFFFFFFFC0007F0001FFFFFFFFC0007FF0003FFFFFFFFFFFC0000000007
310
F000FFE0000000000FFFF0003E000FC003E0007FFF80007FFFC0000000001FFF
310
FE0000000001FFF80FFFFFFFFFFFFFC07FFFFFF0001FFFFFF0001FFFFFFFFC00
310
07F0001FFFFFFFFC0007FF0003FFFFFFFFFFF0000000000FF000FFC000000000
310
1FFFF0003F000F8003F0003FFF80007FFF80000000003FFFF80000000003FFF8
310
0FFFFFFFFFFFFFC07FFFFFF0001FFFFFF0001FFFFFFFFC0007F0001FFFFFFFFC
310
0007FF0003FFFFFFFFFFE0000000001FF000FF00000000007FFFF0003F000780
310
03F0003FFF80007FFF00000000007FFFF00000000007FFF80FFFFFFFFFFFFFC0
310
7FFFFFF0001FFFFFF0001FFFFFFFFC0007F0001FFFFFFFFC0007FF0003FFFFFF
310
FFFF80000000007FF000FE0000000000FFFFE0003F00078007F0003FFF80007F
310
FE0000000001FFFFE0000000001FFFF80FFFFFFFFFFFFFC07FFFFFF0001FFFFF
310
F0001FFFFFFFFC0007F0001FFFFFFFFC0007FF0003FFFFFFFFFF0000000000FF
310
F000FC0000000003FFFFE0007F00078007F0003FFF80007FFC0000000007FFFF
310
C0000000007FFFF80FFFFFFFFFFFFFC07FFFFFF0001FFFFFF8001FFFFFFFFC00
310
0FF8001FFFFFFFFC000FFF0003FFFFFFFFFE0000000003FFF000FC000000000F
310
FFFFE0007F80070007F8001FFF80007FF8000000001FFFFF8000000001FFFFF8
310
0FFFFFFFFFFFFFC07FFFFFF0001FFFFFF8001FFFFFFFFC000FF8001FFFFFFFFC
310
000FFF0003FFFFFFFFFC000000000FFFF000F8000000007FFFFFE0007F800700
310
07F8001FFF80007FF000000000FFFFFF800000000FFFFFF80FFFFFFFFFFFFFC0
310
7FFFFFF0001FFFFFF8000FFFFFFFF8000FF8000FFFFFFFF8000FFF0003FFFFFF
310
FFFC000000007FFFF000F800000007FFFFFFC0007F8003000FF8001FFF80007F
310
F000000007FFFFFF000000007FFFFFF80FFFFFFFFFFFFFC07FFFFFF0001FFFFF
310
F8000FFFFFFFF8000FF8000FFFFFFFF8000FFF0003FFFFFFFFF80000000FFFFF
310
F000F0000000FFFFFFFFC000FF8003000FF8001FFF80007FE0000000FFFFFFFF
310
0000000FFFFFFFF8000001FFFE0000007FFFFFF0001FFFFFF8000FFFFFFFF800
310
0FF8000FFFFFFFF8000FFF0003FFFFFFFFF8000000FFFFFFF000F000000FFFFF
310
FFFFC000FFC002000FF8000FFF80007FE000001FFFFFFFFE000001FFFFFFFFF8
310
000001FFFE0000007FFFFFF0001FFFFFF8000FFFFFFFF8000FF8000FFFFFFFF8
310
000FFF0003FFFFFFFFF000001FFFFFFFF000E00000FFFFFFFFFFC000FFC00200
310
0FFC000FFF80007FE00001FFFFFFFFFE00001FFFFFFFFFF8000001FFFE000000
310
7FFFFFF0001FFFFFFC000FFFFFFFF8001FFC000FFFFFFFF8001FFF0003FFFFFF
310
FFF00001FFFFFFFFF000E00007FFFFFFFFFF8000FFC000001FFC000FFF80007F
310
C0000FFFFFFFFFFE0000FFFFFFFFFFF8000001FFFE0000007FFFFFF0001FFFFF
310
FC0007FFFFFFF0001FFC0007FFFFFFF0001FFF0003FFFFFFFFF00007FFFFFFFF
310
F000E0001FFFFFFFFFFF8000FFC000001FFC000FFF80007FC0003FFFFFFFFFFE
310
0001FFFFFFFFFFF8000001FFFE0000007FFFFFF0001FFFFFFC0007FFFFFFF000
310
1FFC0007FFFFFFF0001FFF0003FFFFFFFFF0001FFFFFFFFFF000E0003FFFFF00
310
03FF8001FFE000001FFC0007FF80007FC0007FFFFF0007FC0003FFFFF0003FF8
310
000001FFFE0000007FFFFFF0001FFFFFFC0003FFFFFFE0001FFC0003FFFFFFE0
310
001FFF0003FFFFFFFFF0003FFFFFFFFFF000E0003FFFFF0001FF8001FFE00000
310
1FFE0007FF80007FC0007FFFFE0003FC0007FFFFE0003FF8000001FFFE000000
310
7FFFFFF0001FFFFFFE0003FFFFFFE0003FFE0003FFFFFFE0003FFF0003FFFFFF
310
FFF0003FFFFF8001F000E0003FFFFF0001FF0001FFE000001FFE0007FF80007F
310
C0007FFFFE0003FC0007FFFFE0003FF8000001FFFE0000007FFFFFF0001FFFFF
310
FE0001FFFFFFC0003FFE0001FFFFFFC0003FFF0003FFFFFFFFF0003FFFFF0001
310
F000E0003FFFFF0003FF0001FFE000003FFE0007FF80007FC0007FFFFE0003FC
310
0007FFFFE0003FF8000001FFFE0000007FFFFFF0001FFFFFFF0001FFFFFFC000
310
7FFF0001FFFFFFC0007FFF0003FFFFFFFFF0003FFFFF0001F000E0003FFFFE00
310
03FF0003FFF000003FFE0003FF80007FC0007FFFFC0003FE0007FFFFE0003FF8
310
000001FFFE0000007FFFFFF0001FFFFFFF0000FFFFFF80007FFF0000FFFFFF80
310
007FFF0003FFFFFFFFF0003FFFFF0001F000E0003FFFFE0003FF0003FFF00000
310
3FFF0003FF80007FC0007FFFFC0007FE0007FFFFC0003FF8000001FFFE000000
310
7FFFFFF0001FFFFFFF80007FFFFF0000FFFF80007FFFFF0000FFFF0003FFFFFF
310
FFF0003FFFFF0003F000E0003FFFFC0003FE0003FFF000003FFF0003FF80007F
310
E0003FFFF80007FE0003FFFFC0007FF8000001FFFE0000007FFFFFF0001FFFFF
310
FF80003FFFFE0000FFFF80003FFFFE0000FFFF0003FFFFFFFFF0001FFFFE0003
310
F000F0001FFFF80003FE0003FFF000007FFF0001FF80007FE0003FFFF00007FE
310
0001FFFF80007FF8000001FFFE0000007FFFFFF0001FFFFFFFC0000FFFF80001
310
FFFFC0000FFFF80001FFFF0003FFFFFFFFF0001FFFFC0003F000F0000FFFF000
310
07FE0007FFF800007FFF0001FF80007FE0001FFFE00007FF0000FFFE00007FF8
310
000001FFFE0000007FFFFFF0001FFFFFFFC00003FFE00001FFFFC00003FFE000
310
01FFFF0003FFFFFFFFF8000FFFF80003F000F00003FFC00007FC0007FFF80000
310
7FFF8001FF80007FF00007FF80000FFF00007FF80000FFF8000001FFFE000000
310
7F80000000000001FFE000003E000003FFFFE000003E000003FFFF0003FFFFFF
310
FFF80003FFE00007F000F800000000000FFC0007FFF800007FFF8001FF80007F
310
F000000000000FFF000000000000FFF8000001FFFE0000007F80000000000001
310
FFF0000000000007FFFFF0000000000007FFFF0003FFFFFFFFFC00007E000007
310
F000F800000000000FFC0007FFF80000FFFF8000FF80007FF800000000001FFF
310
800000000001FFF8000001FFFE0000007F80000000000001FFF800000000000F
310
FFFFF800000000000FFFFF0003FFFFFFFFFC00000000000FF000FC0000000000
310
1FFC0007FFFC0000FFFF8000FF80007FF800000000003FFFC00000000001FFF8
310
000001FFFE0000007F80000000000001FFF800000000000FFFFFF80000000000
310
0FFFFF0003FFFFFFFFFE00000000001FF000FE00000000003FF8000FFFFC0000
310
FFFF8000FF80007FFC00000000003FFFC00000000003FFF8000001FFFE000000
310
7F80000000000001FFFC00000000001FFFFFFC00000000001FFFFF0003FFFFFF
310
FFFF00000000001FF000FF00000000003FF8000FFFFC0000FFFFC000FF80007F
310
FE00000000007FFFE00000000007FFF8000001FFFE0000007F80000000000001
310
FFFE00000000003FFFFFFE00000000003FFFFF0003FFFFFFFFFF80000000003F
310
F000FF80000000007FF8000FFFFC0001FFFFC0007F80007FFF0000000000FFFF
310
F0000000000FFFF800000000000000007F80000000000001FFFF8000000000FF
310
FFFFFF8000000000FFFFFF0003FFFFFFFFFFC0000000007FF000FFC000000000
310
FFF8000FFFFE0001FFFFC0007F80007FFF8000000001FFFFF8000000001FFFF8
310
00000000000000007F80000000000001FFFFC000000001FFFFFFFFC000000001
310
FFFFFF0003FFFFFFFFFFE000000000FFF000FFE000000003FFF0001FFFFE0001
310
FFFFC0007F80007FFFC000000007FFFFFE000000003FFFF80000000000000000
310
7F80000000000001FFFFE000000003FFFFFFFFE000000003FFFFFF0003FFFFFF
310
FFFFF000000003FFF000FFF80000000FFFF0001FFFFE0001FFFFE0007F80007F
310
FFF00000000FFFFFFF00000000FFFFF800000000000000007F80000000000001
310
FFFFF80000000FFFFFFFFFF80000000FFFFFFF0003FFFFFFFFFFFC0000000FFF
310
F000FFFE0000003FFFF0001FFFFE0003FFFFE0003F80007FFFFC0000003FFFFF
310
FFC0000003FFFFF800000000000000007F80000000000001FFFFFE0000003FFF
310
FFFFFFFE0000003FFFFFFF0003FFFFFFFFFFFF0000003FFFF000FFFF800000FF
310
FFF0001FFFFF0003FFFFE0003F80007FFFFF000001FFFFFFFFF800001FFFFFF8
310
00000000000000007F80000000000001FFFFFFC00001FFFFFFFFFFFFC00001FF
310
FFFFFF0003FFFFFFFFFFFFC00000FFFFF000FFFFF8000FFFFFFFFFFFFFFFFFFF
310
FFFFFFFFFFFFFFFFFFFFF0001FFFFFFFFFFF0000FFFFFFF80000000000000000
310
7FFFFFFFFFFFFFFFFFFFFFFC001FFFFFFFFFFFFFFC001FFFFFFFFFFFFFFFFFFF
310
FFFFFFFC001FFFFFF000FFFFFFFFFFFFFFFFFFFFFFFFFFFFFFFFFFFFFFFFFFFF
310
FFFFFFFFFFFFFFFFFFFFFFFFFFFFFFFFFFFFFFFFFFFFFFFFFFFFFFFFFFFFFFFF
310
FFFFFFFFFFFFFFFFFFFFFFFFFFFFFFFFFFFFFFFFFFFFFFFFFFFFFFFFFFFFFFFF
310
F000FFFFFFFFFFFFFFFFFFFFFFFFFFFFFFFFFFFFFFFFFFFFFFFFFFFFFFFFFFFF
310
FFFFFFFFFFFFFFFFFFFFFFFFFFFFFFFFFFFFFFFFFFFFFFFFFFFFFFFFFFFFFFFF
310
FFFFFFFFFFFFFFFFFFFFFFFFFFFFFFFFFFFFFFFFFFFFFFFFF000FFFFFFFFFFFF
310
FFFFFFFFFFFFFFFFFFFFFFFFFFFFFFFFFFFFFFFFFFFFFFFFFFFFFFFFFFFFFFFF
310
FFFFFFFFFFFFFFFFFFFFFFFFFFFFFFFFFFFFFFFFFFFFFFFFFFFFFFFFFFFFFFFF
310
FFFFFFFFFFFFFFFFFFFFFFFFFFFFFFFFF000FFFFFFFFFFFFFFFFFFFFFFFFFFFF
310
FFFFFFFFFFFFFFFFFFFFFFFFFFFFFFFFFFFFFFFFFFFFFFFFFFFFFFFFFFFFFFFF
310
FFFFFFFFFFFFFFFFFFFFFFFFFFFFFFFFFFFFFFFFFFFFFFFFFFFFFFFFFFFFFFFF
310
FFFFFFFFFFFFFFFFF000FFFFFFFFFFFFFFFFFFFFFFFFFFFFFFFFFFFFFFFFFFFF
310
FFFFFFFFFFFFFFFFFFFFFFFFFFFFFFFFFFFFFFFFFFFFFFFFFFFFFFFFFFFFFFFF
310
FFFFFFFFFFFFFFFFFFFFFFFFFFFFFFFFFFFFFFFFFFFFFFFFFFFFFFFFFFFFFFFF
310
F000FFFFFFFFFFFFFFFFFFFFFFFFFFFFFFFFFFFFFFFFFFFFFFFFFFFFFFFFFFFF
310
FFFFFFFFFFFFFFFFFFFFFFFFFFFFFFFFFFFFFFFFFFFFFFFFFFFFFFFFFFFFFFFF
310
FFFFFFFFFFFFFFFFFFFFFFFFFFFFFFFFFFFFFFFFFFFFFFFFF000FFFFFFFFFFFF
310
FFFFFFFFFFFFFFFFFFFFFFFFFFFFFFFFFFFFFFFFFFFFFFFFFFFFFFFFFFFFFFFF
310
FFFFFFFFFFFFFFFFFFFFFFFFFFFFFFFFFFFFFFFFFFFFFFFFFFFFFFFFFFFFFFFF
310
FFFFFFFFFFFFFFFFFFFFFFFFFFFFFFFFF000FFFFFFFFFFFFFFFFFFFFFFFFFFFF
310
FFFFFFFFFFFFFFFFFFFFFFFFFFFFFFFFFFFFFFFFFFFFFFFFFFFFFFFFFFFFFFFF
310
FFFFFFFFFFFFFFFFFFFFFFFFFFFFFFFFFFFFFFFFFFFFFFFFFFFFFFFFFFFFFFFF
310
FFFFFFFFFFFFFFFFF000FFFFFFFFFFFFFFFFFFFFFFFFFFFFFFFFFFFFFFFFFFFF
310
FFFFFFFFFFFFFFFFFFFFFFFFFFFFFFFFFFFFFFFFFFFFFFFFFFFFFFFFFFFFFFFF
310
FFFFFFFFFFFFFFFFFFFFFFFFFFFFFFFFFFFFFFFFFFFFFFFFFFFFFFFFFFFFFFFF
310
F000FFFFFFFFFFFFFFFFFFFFFFFFFFFFFFFFFFFFFFFFFFFFFFFFFFFFFFFFFFFF
310
FFFFFFFFFFFFFFFFFFFFFFFFFFFFFFFFFFFFFFFFFFFFFFFFFFFFFFFFFFFFFFFF
310
FFFFFFFFFFFFFFFFFFFFFFFFFFFFFFFFFFFFFFFFFFFFFFFFF000FFFFFFFFFFFF
310
FFFFFFFFFFFFFFFFFFFFFFFFFFFFFFFFFFFFFFFFFFFFFFFFFFFFFFFFFFFFFFFF
310
FFFFFFFFFFFFFFFFFFFFFFFFFFFFFFFFFFFFFFFFFFFFFFFFFFFFFFFFFFFFFFFF
310
FFFFFFFFFFFFFFFFFFFFFFFFFFFFFFFFF000FFFFFFFFFFFFFFFFFFFFFFFFFFFF
310
FFFFFFFFFFFFFFFFFFFFFFFFFFFFFFFFFFFFFFFFFFFFFFFFFFFFFFFFFFFFFFFF
310
FFFFFFFFFFFFFFFFFFFFFFFFFFFFFFFFFFFFFFFFFFFFFFFFFFFFFFFFFFFFFFFF
310
FFFFFFFFFFFFFFFFF000FFFFFFFFFFFFFFFFFFFFFFFFFFFFFFFFFFFFFFFFFFFF
310
FFFFFFFFFFFFFFFFFFFFFFFFFFFFFFFFFFFFFFFFFFFFFFFFFFFFFFFFFFFFFFFF
310
FFFFFFFFFFFFFFFFFFFFFFFFFFFFFFFFFFFFFFFFFFFFFFFFFFFFFFFFFFFFFFFF
310
F000FFFFFFFFFFFFFFFFFFFFFFFFFFFFFFFFFFFFFFFFFFFFFFFFFFFFFFFFFFFF
310
FFFFFFFFFFFFFFFFFFFFFFFFFFFFFFFFFFFFFFFFFFFFFFFFFFFFFFFFFFFFFFFF
310
FFFFFFFFFFFFFFFFFFFFFFFFFFFFFFFFFFFFFFFFFFFFFFFFF000FFFFFFFFFFFF
310
FFFFFFFFFFFFFFFFFFFFFFFFFFFFFFFFFFFFFFFFFFFFFFFFFFFFFFFFFFFFFFFF
310
FFFFFFFFFFFFFFFFFFFFFFFFFFFFFFFFFFFFFFFFFFFFFFFFFFFFFFFFFFFFFFFF
310
FFFFFFFFFFFFFFFFFFFFFFFFFFFFFFFFF000FFFFFFFFFFFFFFFFFFFFFFFFFFFF
310
FFFFFFFFFFFFFFFFFFFFFFFFFFFFFFFFFFFFFFFFFFFFFFFFFFFFFFFFFFFFFFFF
310
FFFFFFFFFFFFFFFFFFFFFFFFFFFFFFFFFFFFFFFFFFFFFFFFFFFFFFFFFFFFFFFF
310
FFFFFFFFFFFFFFFFF000FFFFFFFFFFFFFFFFFFFFFFFFFFFFFFFFFFFFFFFFFFFF
310
FFFFFFFFFFFFFFFFFFFFFFFFFFFFFFFFFFFFFFFFFFFFFFFFFFFFFFFFFFFFFFFF
310
FFFFFFFFFFFFFFFFFFFFFFFFFFFFFFFFFFFFFFFFFFFFFFFFFFFFFFFFFFFFFFFF
310
F000FFFFFFFFFFFFFFFFFFFFFFFFFFFFFFFFFFFFFFFFFFFFFFFFFFFFFFFFFFFF
310
FFFFFFFFFFFFFFFFFFFFFFFFFFFFFFFFFFFFFFFFFFFFFFFFFFFFFFFFFFFFFFFF
310
FFFFFFFFFFFFFFFFFFFFFFFFFFFFFFFFFFFFFFFFFFFFFFFFF000FFFFFFFFFFFF
310
FFFFFFFFFFFFFFFFFFFFFFFFFFFFFFFFFFFFFFFFFFFFFFFFFFFFFFFFFFFFFFFF
310
FFFFFFFFFFFFFFFFFFFFFFFFFFFFFFFFFFFFFFFFFFFFFFFFFFFFFFFFFFFFFFFF
310
FFFFFFFFFFFFFFFFFFFFFFFFFFFFFFFFF000FFFFFFFFFFFFFFFFFFFFFFFFFFFF
310
FFFFFFFFFFFFFFFFFFFFFFFFFFFFFFFFFFFFFFFFFFFFFFFFFFFFFFFFFFFFFFFF
310
FFFFFFFFFFFFFFFFFFFFFFFFFFFFFFFFFFFFFFFFFFFFFFFFFFFFFFFFFFFFFFFF
310
FFFFFFFFFFFFFFFFF000FFFFFFFFFFFFFFFFFFFFFFFFFFFFFFFFFFFFFFFFFFFF
310
FFFFFFFFFFFFFFFFFFFFFFFFFFFFFFFFFFFFFFFFFFFFFFFFFFFFFFFFFFFFFFFF
310
FFFFFFFFFFFFFFFFFFFFFFFFFFFFFFFFFFFFFFFFFFFFFFFFFFFFFFFFFFFFFFFF
310
F000FFFFFFFFFFFFFFFFFFFFFFFFFFFFFFFFFFFFFFFFFFFFFFFFFFFFFFFFFFFF
310
FFFFFFFFFFFFFFFFFFFFFFFFFFFFFFFFFFFFFFFFFFFFFFFFFFFFFFFFFFFFFFFF
310
FFFFFFFFFFFFFFFFFFFFFFFFFFFFFFFFFFFFFFFFFFFFFFFFF000FFFFFFFFFFFF
310
FFFFFFFFFFFFFFFFFFFFFFFFFFFFFFFFFFFFFFFFFFFFFFFFFFFFFFFFFFFFFFFF
310
FFFFFFFFFFFFFFFFFFFFFFFFFFFFFFFFFFFFFFFFFFFFFFFFFFFFFFFFFFFFFFFF
310
FFFFFFFFFFFFFFFFFFFFFFFFFFFFFFFFF0000000000000000000000000000000
310
0000000000000000000000000000000000000000000000000000000000000000
310
0000000000000000000000000000000000000000000000000000000000000000
310
0000000000000000000000000000000000000000000000000000000000000000
310
0000000000000000000000000000000000000000000000000000000000000000
310
0000000000000000000000000000000000000000000000000000000000000000
310
0000000000000000000000000000000000000000000000000000000000000000
310
0000000000000000000000000000000000000000000000000000000000000000
310
0000000000000000000000000000000000000000000000000000000000000000
310
0000000000000000000000000000000000000000000000000000000000000000
310
0000000000000000000000000000000000000000000000000000000000000000
310
0000000000000000000000000000000000000000000000000000000000000000
310
0000000000000000000000000000000000000000000000000000000000000000
310
0000000000000000000000000000000000000000000000000000000000000000
310
0000000000000000000000000000000000000000000000000000000000000000
310
0000000000000000000000000000000000000000000000000000000000000000
  1
OLE
  0
ENDSEC
  0
SECTION
  2
OBJECTS
  0
DICTIONARY
  5
C
330
0
100
AcDbDictionary
281
     1
  3
ACAD_GROUP
350
D
  3
ACAD_LAYOUT
350
1A
  3
ACAD_MLINESTYLE
350
17
  3
ACAD_PLOTSETTINGS
350
19
  3
ACAD_PLOTSTYLENAME
350
E
  3
ACAD_SCALELIST
350
47
  0
DICTIONARY
  5
D
102
{ACAD_REACTORS
330
C
102
}
330
C
100
AcDbDictionary
281
     1
  0
DICTIONARY
  5
1A
102
{ACAD_REACTORS
330
C
102
}
330
C
100
AcDbDictionary
281
     1
  3
Layout1
350
1E
  3
Layout2
350
26
  3
Model
350
22
  0
DICTIONARY
  5
17
102
{ACAD_REACTORS
330
C
102
}
330
C
100
AcDbDictionary
281
     1
  3
Standard
350
18
  0
DICTIONARY
  5
19
102
{ACAD_REACTORS
330
C
102
}
330
C
100
AcDbDictionary
281
     1
  0
ACDBDICTIONARYWDFLT
  5
E
102
{ACAD_REACTORS
330
C
102
}
330
C
100
AcDbDictionary
281
     1
  3
Normal
350
F
100
AcDbDictionaryWithDefault
340
F
  0
DICTIONARY
  5
47
102
{ACAD_REACTORS
330
C
102
}
330
C
100
AcDbDictionary
281
     1
  3
A0
350
48
  3
A1
350
49
  3
A2
350
4A
  3
A3
350
4B
  3
A4
350
4C
  3
A5
350
4D
  3
A6
350
4E
  3
A7
350
4F
  3
A8
350
50
  3
A9
350
51
  3
B0
350
52
  3
B1
350
53
  3
B2
350
54
  3
B3
350
55
  3
B4
350
56
  3
B5
350
57
  3
B6
350
58
  3
B7
350
59
  3
B8
350
5A
  3
B9
350
5B
  3
C0
350
5C
  3
C1
350
5D
  3
C2
350
5E
  3
C3
350
5F
  3
C4
350
60
  3
C5
350
61
  3
C6
350
62
  3
C7
350
63
  3
C8
350
64
  3
C9
350
65
  3
D0
350
66
  3
D1
350
67
  3
D2
350
68
  0
LAYOUT
  5
1E
102
{ACAD_REACTORS
330
1A
102
}
330
1A
100
AcDbPlotSettings
  1

  2
none_device
  4

  6

 40
0.0
 41
0.0
 42
0.0
 43
0.0
 44
0.0
 45
0.0
 46
0.0
 47
0.0
 48
0.0
 49
0.0
140
0.0
141
0.0
142
1.0
143
1.0
 70
   688
 72
     1
 73
     0
 74
     5
  7

 75
    16
147
1.0
148
0.0
149
0.0
100
AcDbLayout
  1
Layout1
 70
     1
 71
     1
 10
0.0
 20
0.0
 11
420.0
 21
297.0
 12
0.0
 22
0.0
 32
0.0
 14
1.0000000000E+20
 24
1.0000000000E+20
 34
1.0000000000E+20
 15
-1.0000000000E+20
 25
-1.0000000000E+20
 35
-1.0000000000E+20
146
0.0
 13
0.0
 23
0.0
 33
0.0
 16
1.0
 26
0.0
 36
0.0
 17
0.0
 27
1.0
 37
0.0
 76
     0
330
1B
  0
LAYOUT
  5
26
102
{ACAD_REACTORS
330
1A
102
}
330
1A
100
AcDbPlotSettings
  1

  2
none_device
  4

  6

 40
0.0
 41
0.0
 42
0.0
 43
0.0
 44
0.0
 45
0.0
 46
0.0
 47
0.0
 48
0.0
 49
0.0
140
0.0
141
0.0
142
1.0
143
1.0
 70
   688
 72
     1
 73
     0
 74
     5
  7

 75
    16
147
1.0
148
0.0
149
0.0
100
AcDbLayout
  1
Layout2
 70
     1
 71
     2
 10
0.0
 20
0.0
 11
0.0
 21
0.0
 12
0.0
 22
0.0
 32
0.0
 14
0.0
 24
0.0
 34
0.0
 15
0.0
 25
0.0
 35
0.0
146
0.0
 13
0.0
 23
0.0
 33
0.0
 16
1.0
 26
0.0
 36
0.0
 17
0.0
 27
1.0
 37
0.0
 76
     0
330
23
  0
LAYOUT
  5
22
102
{ACAD_REACTORS
330
1A
102
}
330
1A
100
AcDbPlotSettings
  1

  2
none_device
  4
Letter_(8.50_x_11.00_Inches)
  6

 40
6.35
 41
6.35
 42
6.35000508
 43
6.35000508
 44
215.9
 45
279.4
 46
0.0
 47
0.0
 48
0.0
 49
0.0
140
0.0
141
0.0
142
1.0
143
1.0
 70
  1712
 72
     1
 73
     0
 74
     0
  7

 75
     0
147
1.0
148
0.0
149
0.0
100
AcDbLayout
  1
Model
 70
     1
 71
     0
 10
0.0
 20
0.0
 11
297.0
 21
210.0
 12
0.0
 22
0.0
 32
0.0
 14
0.0
 24
0.0
 34
0.0
 15
297.0
 25
210.0
 35
0.0
146
0.0
 13
0.0
 23
0.0
 33
0.0
 16
1.0
 26
0.0
 36
0.0
 17
0.0
 27
1.0
 37
0.0
 76
     0
330
1F
331
29
  0
MLINESTYLE
  5
18
102
{ACAD_REACTORS
330
17
102
}
330
17
100
AcDbMlineStyle
  2
Standard
 70
     0
  3

 62
   256
 51
90.0
 52
90.0
 71
     2
 49
0.5
 62
   256
  6
BYLAYER
 49
-0.5
 62
   256
  6
BYLAYER
  0
ACDBPLACEHOLDER
  5
F
102
{ACAD_REACTORS
330
E
102
}
330
E
  0
SCALE
  5
48
102
{ACAD_REACTORS
330
47
102
}
330
47
100
AcDbScale
 70
     0
300
1:1
140
1.0
141
1.0
290
     1
  0
SCALE
  5
49
102
{ACAD_REACTORS
330
47
102
}
330
47
100
AcDbScale
 70
     0
300
1:2
140
1.0
141
2.0
290
     0
  0
SCALE
  5
4A
102
{ACAD_REACTORS
330
47
102
}
330
47
100
AcDbScale
 70
     0
300
1:4
140
1.0
141
4.0
290
     0
  0
SCALE
  5
4B
102
{ACAD_REACTORS
330
47
102
}
330
47
100
AcDbScale
 70
     0
300
1:5
140
1.0
141
5.0
290
     0
  0
SCALE
  5
4C
102
{ACAD_REACTORS
330
47
102
}
330
47
100
AcDbScale
 70
     0
300
1:8
140
1.0
141
8.0
290
     0
  0
SCALE
  5
4D
102
{ACAD_REACTORS
330
47
102
}
330
47
100
AcDbScale
 70
     0
300
1:10
140
1.0
141
10.0
290
     0
  0
SCALE
  5
4E
102
{ACAD_REACTORS
330
47
102
}
330
47
100
AcDbScale
 70
     0
300
1:16
140
1.0
141
16.0
290
     0
  0
SCALE
  5
4F
102
{ACAD_REACTORS
330
47
102
}
330
47
100
AcDbScale
 70
     0
300
1:20
140
1.0
141
20.0
290
     0
  0
SCALE
  5
50
102
{ACAD_REACTORS
330
47
102
}
330
47
100
AcDbScale
 70
     0
300
1:30
140
1.0
141
30.0
290
     0
  0
SCALE
  5
51
102
{ACAD_REACTORS
330
47
102
}
330
47
100
AcDbScale
 70
     0
300
1:40
140
1.0
141
40.0
290
     0
  0
SCALE
  5
52
102
{ACAD_REACTORS
330
47
102
}
330
47
100
AcDbScale
 70
     0
300
1:50
140
1.0
141
50.0
290
     0
  0
SCALE
  5
53
102
{ACAD_REACTORS
330
47
102
}
330
47
100
AcDbScale
 70
     0
300
1:100
140
1.0
141
100.0
290
     0
  0
SCALE
  5
54
102
{ACAD_REACTORS
330
47
102
}
330
47
100
AcDbScale
 70
     0
300
2:1
140
2.0
141
1.0
290
     0
  0
SCALE
  5
55
102
{ACAD_REACTORS
330
47
102
}
330
47
100
AcDbScale
 70
     0
300
4:1
140
4.0
141
1.0
290
     0
  0
SCALE
  5
56
102
{ACAD_REACTORS
330
47
102
}
330
47
100
AcDbScale
 70
     0
300
8:1
140
8.0
141
1.0
290
     0
  0
SCALE
  5
57
102
{ACAD_REACTORS
330
47
102
}
330
47
100
AcDbScale
 70
     0
300
10:1
140
10.0
141
1.0
290
     0
  0
SCALE
  5
58
102
{ACAD_REACTORS
330
47
102
}
330
47
100
AcDbScale
 70
     0
300
100:1
140
100.0
141
1.0
290
     0
  0
SCALE
  5
59
102
{ACAD_REACTORS
330
47
102
}
330
47
100
AcDbScale
 70
     0
300
1/128" = 1'-0"
140
0.0078125
141
12.0
290
     0
  0
SCALE
  5
5A
102
{ACAD_REACTORS
330
47
102
}
330
47
100
AcDbScale
 70
     0
300
1/64" = 1'-0"
140
0.015625
141
12.0
290
     0
  0
SCALE
  5
5B
102
{ACAD_REACTORS
330
47
102
}
330
47
100
AcDbScale
 70
     0
300
1/32" = 1'-0"
140
0.03125
141
12.0
290
     0
  0
SCALE
  5
5C
102
{ACAD_REACTORS
330
47
102
}
330
47
100
AcDbScale
 70
     0
300
1/16" = 1'-0"
140
0.0625
141
12.0
290
     0
  0
SCALE
  5
5D
102
{ACAD_REACTORS
330
47
102
}
330
47
100
AcDbScale
 70
     0
300
3/32" = 1'-0"
140
0.09375
141
12.0
290
     0
  0
SCALE
  5
5E
102
{ACAD_REACTORS
330
47
102
}
330
47
100
AcDbScale
 70
     0
300
1/8" = 1'-0"
140
0.125
141
12.0
290
     0
  0
SCALE
  5
5F
102
{ACAD_REACTORS
330
47
102
}
330
47
100
AcDbScale
 70
     0
300
3/16" = 1'-0"
140
0.1875
141
12.0
290
     0
  0
SCALE
  5
60
102
{ACAD_REACTORS
330
47
102
}
330
47
100
AcDbScale
 70
     0
300
1/4" = 1'-0"
140
0.25
141
12.0
290
     0
  0
SCALE
  5
61
102
{ACAD_REACTORS
330
47
102
}
330
47
100
AcDbScale
 70
     0
300
3/8" = 1'-0"
140
0.375
141
12.0
290
     0
  0
SCALE
  5
62
102
{ACAD_REACTORS
330
47
102
}
330
47
100
AcDbScale
 70
     0
300
1/2" = 1'-0"
140
0.5
141
12.0
290
     0
  0
SCALE
  5
63
102
{ACAD_REACTORS
330
47
102
}
330
47
100
AcDbScale
 70
     0
300
3/4" = 1'-0"
140
0.75
141
12.0
290
     0
  0
SCALE
  5
64
102
{ACAD_REACTORS
330
47
102
}
330
47
100
AcDbScale
 70
     0
300
1" = 1'-0"
140
1.0
141
12.0
290
     0
  0
SCALE
  5
65
102
{ACAD_REACTORS
330
47
102
}
330
47
100
AcDbScale
 70
     0
300
1-1/2" = 1'-0"
140
1.5
141
12.0
290
     0
  0
SCALE
  5
66
102
{ACAD_REACTORS
330
47
102
}
330
47
100
AcDbScale
 70
     0
300
3" = 1'-0"
140
3.0
141
12.0
290
     0
  0
SCALE
  5
67
102
{ACAD_REACTORS
330
47
102
}
330
47
100
AcDbScale
 70
     0
300
6" = 1'-0"
140
6.0
141
12.0
290
     0
  0
SCALE
  5
68
102
{ACAD_REACTORS
330
47
102
}
330
47
100
AcDbScale
 70
     0
300
1'-0" = 1'-0"
140
12.0
141
12.0
290
     0
  0
ENDSEC
  0
EOF
