  0
SECTION
  2
HEADER
  9
$ACADVER
  1
AC1015
  9
$ACADMAINTVER
 70
     6
  9
$DWGCODEPAGE
  3
ANSI_1252
  9
$INSBASE
 10
0.0
 20
0.0
 30
0.0
  9
$EXTMIN
 10
0.0
 20
0.0
 30
0.0
  9
$EXTMAX
 10
297.0
 20
210.0
 30
0.0
  9
$LIMMIN
 10
0.0
 20
0.0
  9
$LIMMAX
 10
297.0
 20
210.0
  9
$ORTHOMODE
 70
     0
  9
$REGENMODE
 70
     1
  9
$FILLMODE
 70
     1
  9
$QTEXTMODE
 70
     0
  9
$MIRRTEXT
 70
     1
  9
$LTSCALE
 40
1.0
  9
$ATTMODE
 70
     1
  9
$TEXTSIZE
 40
2.0
  9
$TRACEWID
 40
1.0
  9
$TEXTSTYLE
  7
Standard
  9
$CLAYER
  8
0
  9
$CELTYPE
  6
ByLayer
  9
$CECOLOR
 62
   256
  9
$CELTSCALE
 40
1.0
  9
$DISPSILH
 70
     0
  9
$DIMSCALE
 40
1.0
  9
$DIMASZ
 40
3.0
  9
$DIMEXO
 40
0.0
  9
$DIMDLI
 40
3.75
  9
$DIMRND
 40
0.0
  9
$DIMDLE
 40
0.0
  9
$DIMEXE
 40
1.0
  9
$DIMTP
 40
0.0
  9
$DIMTM
 40
0.0
  9
$DIMTXT
 40
2.0
  9
$DIMCEN
 40
2.5
  9
$DIMTSZ
 40
0.0
  9
$DIMTOL
 70
     0
  9
$DIMLIM
 70
     0
  9
$DIMTIH
 70
     1
  9
$DIMTOH
 70
     1
  9
$DIMSE1
 70
     0
  9
$DIMSE2
 70
     0
  9
$DIMTAD
 70
     1
  9
$DIMZIN
 70
     0
  9
$DIMBLK
  1

  9
$DIMASO
 70
     1
  9
$DIMSHO
 70
     1
  9
$DIMPOST
  1

  9
$DIMAPOST
  1

  9
$DIMALT
 70
     0
  9
$DIMALTD
 70
     3
  9
$DIMALTF
 40
0.0393700787
  9
$DIMLFAC
 40
1.0
  9
$DIMTOFL
 70
     1
  9
$DIMTVP
 40
0.0
  9
$DIMTIX
 70
     0
  9
$DIMSOXD
 70
     0
  9
$DIMSAH
 70
     0
  9
$DIMBLK1
  1

  9
$DIMBLK2
  1

  9
$DIMSTYLE
  2
ISO-25
  9
$DIMCLRD
 70
     0
  9
$DIMCLRE
 70
     0
  9
$DIMCLRT
 70
     0
  9
$DIMTFAC
 40
1.0
  9
$DIMGAP
 40
1.524
  9
$DIMJUST
 70
     0
  9
$DIMSD1
 70
     0
  9
$DIMSD2
 70
     0
  9
$DIMTOLJ
 70
     0
  9
$DIMTZIN
 70
     0
  9
$DIMALTZ
 70
     0
  9
$DIMALTTZ
 70
     0
  9
$DIMUPT
 70
     0
  9
$DIMDEC
 70
     2
  9
$DIMTDEC
 70
     3
  9
$DIMALTU
 70
     2
  9
$DIMALTTD
 70
     3
  9
$DIMTXSTY
  7
Standard
  9
$DIMAUNIT
 70
     0
  9
$DIMADEC
 70
     2
  9
$DIMALTRND
 40
0.0
  9
$DIMAZIN
 70
     0
  9
$DIMDSEP
 70
    44
  9
$DIMATFIT
 70
     3
  9
$DIMFRAC
 70
     0
  9
$DIMLDRBLK
  1

  9
$DIMLUNIT
 70
     2
  9
$DIMLWD
 70
    -2
  9
$DIMLWE
 70
    -2
  9
$DIMTMOVE
 70
     0
  9
$LUNITS
 70
     2
  9
$LUPREC
 70
     2
  9
$SKETCHINC
 40
1.0
  9
$FILLETRAD
 40
10.0
  9
$AUNITS
 70
     0
  9
$AUPREC
 70
     2
  9
$MENU
  1
.
  9
$ELEVATION
 40
0.0
  9
$PELEVATION
 40
0.0
  9
$THICKNESS
 40
0.0
  9
$LIMCHECK
 70
     0
  9
$CHAMFERA
 40
10.0
  9
$CHAMFERB
 40
10.0
  9
$CHAMFERC
 40
20.0
  9
$CHAMFERD
 40
0.0
  9
$SKPOLY
 70
     0
  9
$TDCREATE
 40
2456079.682418692
  9
$TDUCREATE
 40
2456079.599085359
  9
$TDUPDATE
 40
2456079.682420127
  9
$TDUUPDATE
 40
2456079.599086794
  9
$TDINDWG
 40
0.0000000116
  9
$TDUSRTIMER
 40
0.0000000116
  9
$USRTIMER
 70
     1
  9
$ANGBASE
 50
0.0
  9
$ANGDIR
 70
     0
  9
$PDMODE
 70
     0
  9
$PDSIZE
 40
-1.0
  9
$PLINEWID
 40
0.0
  9
$SPLFRAME
 70
     0
  9
$SPLINETYPE
 70
     6
  9
$SPLINESEGS
 70
     8
  9
$HANDSEED
  5
2EC
  9
$SURFTAB1
 70
     6
  9
$SURFTAB2
 70
     6
  9
$SURFTYPE
 70
     6
  9
$SURFU
 70
     6
  9
$SURFV
 70
     6
  9
$UCSBASE
  2

  9
$UCSNAME
  2

  9
$UCSORG
 10
0.0
 20
0.0
 30
0.0
  9
$UCSXDIR
 10
1.0
 20
0.0
 30
0.0
  9
$UCSYDIR
 10
0.0
 20
1.0
 30
0.0
  9
$UCSORTHOREF
  2

  9
$UCSORTHOVIEW
 70
     0
  9
$UCSORGTOP
 10
0.0
 20
0.0
 30
0.0
  9
$UCSORGBOTTOM
 10
0.0
 20
0.0
 30
0.0
  9
$UCSORGLEFT
 10
0.0
 20
0.0
 30
0.0
  9
$UCSORGRIGHT
 10
0.0
 20
0.0
 30
0.0
  9
$UCSORGFRONT
 10
0.0
 20
0.0
 30
0.0
  9
$UCSORGBACK
 10
0.0
 20
0.0
 30
0.0
  9
$PUCSBASE
  2

  9
$PUCSNAME
  2

  9
$PUCSORG
 10
0.0
 20
0.0
 30
0.0
  9
$PUCSXDIR
 10
1.0
 20
0.0
 30
0.0
  9
$PUCSYDIR
 10
0.0
 20
1.0
 30
0.0
  9
$PUCSORTHOREF
  2

  9
$PUCSORTHOVIEW
 70
     0
  9
$PUCSORGTOP
 10
0.0
 20
0.0
 30
0.0
  9
$PUCSORGBOTTOM
 10
0.0
 20
0.0
 30
0.0
  9
$PUCSORGLEFT
 10
0.0
 20
0.0
 30
0.0
  9
$PUCSORGRIGHT
 10
0.0
 20
0.0
 30
0.0
  9
$PUCSORGFRONT
 10
0.0
 20
0.0
 30
0.0
  9
$PUCSORGBACK
 10
0.0
 20
0.0
 30
0.0
  9
$USERI1
 70
     0
  9
$USERI2
 70
     0
  9
$USERI3
 70
     0
  9
$USERI4
 70
     0
  9
$USERI5
 70
     0
  9
$USERR1
 40
0.0
  9
$USERR2
 40
0.0
  9
$USERR3
 40
0.0
  9
$USERR4
 40
0.0
  9
$USERR5
 40
0.0
  9
$WORLDVIEW
 70
     1
  9
$SHADEDGE
 70
     3
  9
$SHADEDIF
 70
    70
  9
$TILEMODE
 70
     1
  9
$MAXACTVP
 70
    64
  9
$PINSBASE
 10
0.0
 20
0.0
 30
0.0
  9
$PLIMCHECK
 70
     0
  9
$PEXTMIN
 10
1.0000000000E+20
 20
1.0000000000E+20
 30
1.0000000000E+20
  9
$PEXTMAX
 10
-1.0000000000E+20
 20
-1.0000000000E+20
 30
-1.0000000000E+20
  9
$PLIMMIN
 10
0.0
 20
0.0
  9
$PLIMMAX
 10
420.0
 20
297.0
  9
$UNITMODE
 70
     0
  9
$VISRETAIN
 70
     1
  9
$PLINEGEN
 70
     0
  9
$PSLTSCALE
 70
     1
  9
$TREEDEPTH
 70
  3020
  9
$CMLSTYLE
  2
Standard
  9
$CMLJUST
 70
     0
  9
$CMLSCALE
 40
20.0
  9
$PROXYGRAPHICS
 70
     1
  9
$MEASUREMENT
 70
     1
  9
$CELWEIGHT
370
    -1
  9
$ENDCAPS
280
     0
  9
$JOINSTYLE
280
     0
  9
$LWDISPLAY
290
     1
  9
$INSUNITS
 70
     4
  9
$HYPERLINKBASE
  1

  9
$STYLESHEET
  1

  9
$XEDIT
290
     1
  9
$CEPSNTYPE
380
     0
  9
$PSTYLEMODE
290
     1
  9
$FINGERPRINTGUID
  2
{2F243029-E643-483E-A81C-4F92A2258BB1}
  9
$VERSIONGUID
  2
{FAEB1C32-E019-11D5-929B-00C0DF256EC4}
  9
$EXTNAMES
290
     1
  9
$PSVPSCALE
 40
0.0
  9
$OLESTARTUP
290
     0
  0
ENDSEC
  0
SECTION
  2
CLASSES
  0
CLASS
  1
ACDBDICTIONARYWDFLT
  2
AcDbDictionaryWithDefault
  3
ObjectDBX Classes
 90
        0
280
     0
281
     0
  0
CLASS
  1
VISUALSTYLE
  2
AcDbVisualStyle
  3
ObjectDBX Classes
 90
     4095
280
     0
281
     0
  0
CLASS
  1
MATERIAL
  2
AcDbMaterial
  3
ObjectDBX Classes
 90
     1153
280
     0
281
     0
  0
CLASS
  1
ACDBPLACEHOLDER
  2
AcDbPlaceHolder
  3
ObjectDBX Classes
 90
        0
280
     0
281
     0
  0
CLASS
  1
LAYOUT
  2
AcDbLayout
  3
ObjectDBX Classes
 90
        0
280
     0
281
     0
  0
ENDSEC
  0
SECTION
  2
TABLES
  0
TABLE
  2
VPORT
  5
8
330
0
100
AcDbSymbolTable
 70
     1
  0
VPORT
  5
29
330
8
100
AcDbSymbolTableRecord
100
AcDbViewportTableRecord
  2
*Active
 70
     0
 10
0.0
 20
0.0
 11
1.0
 21
1.0
 12
148.5
 22
105.0
 13
0.0
 23
0.0
 14
10.0
 24
10.0
 15
10.0
 25
10.0
 16
0.0
 26
0.0
 36
1.0
 17
0.0
 27
0.0
 37
0.0
 40
210.0
 41
1.4142857143
 42
50.0
 43
0.0
 44
0.0
 50
0.0
 51
0.0
 71
     0
 72
  2000
 73
     1
 74
     3
 75
     0
 76
     0
 77
     0
 78
     0
281
     0
 65
     1
110
0.0
120
0.0
130
0.0
111
1.0
121
0.0
131
0.0
112
0.0
122
1.0
132
0.0
 79
     0
146
0.0
  0
ENDTAB
  0
TABLE
  2
LTYPE
  5
5
330
0
100
AcDbSymbolTable
 70
     6
  0
LTYPE
  5
14
330
5
100
AcDbSymbolTableRecord
100
AcDbLinetypeTableRecord
  2
ByBlock
 70
     0
  3

 72
    65
 73
     0
 40
0.0
  0
LTYPE
  5
15
330
5
100
AcDbSymbolTableRecord
100
AcDbLinetypeTableRecord
  2
ByLayer
 70
     0
  3

 72
    65
 73
     0
 40
0.0
  0
LTYPE
  5
16
330
5
100
AcDbSymbolTableRecord
100
AcDbLinetypeTableRecord
  2
Continuous
 70
     0
  3
Solid line
 72
    65
 73
     0
 40
0.0
  0
LTYPE
  5
3F
330
5
100
AcDbSymbolTableRecord
100
AcDbLinetypeTableRecord
  2
HIDDEN
 70
     0
  3
Hidden __ __ __ __ __ __ __ __ __ __ __ __ __ __
 72
    65
 73
     2
 40
1.905
 49
1.27
 74
     0
 49
-0.635
 74
     0
  0
LTYPE
  5
40
330
5
100
AcDbSymbolTableRecord
100
AcDbLinetypeTableRecord
  2
PHANTOM
 70
     0
  3
Phantom ______  __  __  ______  __  __  ______
 72
    65
 73
     6
 40
12.7
 49
6.35
 74
     0
 49
-1.27
 74
     0
 49
1.27
 74
     0
 49
-1.27
 74
     0
 49
1.27
 74
     0
 49
-1.27
 74
     0
  0
LTYPE
  5
41
330
5
100
AcDbSymbolTableRecord
100
AcDbLinetypeTableRecord
  2
CENTER
 70
     0
  3
Center ____ _ ____ _ ____ _ ____ _ ____ _ ____
 72
    65
 73
     4
 40
10.16
 49
6.35
 74
     0
 49
-1.27
 74
     0
 49
1.27
 74
     0
 49
-1.27
 74
     0
  0
LTYPE
  5
42
330
5
100
AcDbSymbolTableRecord
100
AcDbLinetypeTableRecord
  2
CENTERX2
 70
     0
  3
Center (2x) ________  __  ________  __  _____
 72
    65
 73
     4
 40
20.32
 49
12.7
 74
     0
 49
-2.54
 74
     0
 49
2.54
 74
     0
 49
-2.54
 74
     0
  0
LTYPE
  5
43
330
5
100
AcDbSymbolTableRecord
100
AcDbLinetypeTableRecord
  2
DOT2
 70
     0
  3
Dot (.5x) ........................................
 72
    65
 73
     2
 40
0.635
 49
0.0
 74
     0
 49
-0.635
 74
     0
  0
ENDTAB
  0
TABLE
  2
LAYER
  5
2
330
0
100
AcDbSymbolTable
 70
     5
  0
LAYER
  5
10
330
2
100
AcDbSymbolTableRecord
100
AcDbLayerTableRecord
  2
0
 70
     0
 62
     7
  6
Continuous
370
    -3
390
F
  0
LAYER
  5
44
330
2
100
AcDbSymbolTableRecord
100
AcDbLayerTableRecord
  2
FORMAT
 70
     0
 62
     7
  6
Continuous
370
    -3
390
F
  0
LAYER
  5
45
330
2
100
AcDbSymbolTableRecord
100
AcDbLayerTableRecord
  2
VERMASSUNG
 70
     0
 62
     7
  6
Continuous
370
    -3
390
F
  0
LAYER
  5
46
330
2
100
AcDbSymbolTableRecord
100
AcDbLayerTableRecord
  2
KOPF_DÜNN
 70
     0
 62
     7
  6
Continuous
370
    -3
390
F
  0
LAYER
  5
47
330
2
100
AcDbSymbolTableRecord
100
AcDbLayerTableRecord
  2
KOPF_DICK
 70
     0
 62
     7
  6
Continuous
370
    15
390
F
  0
ENDTAB
  0
TABLE
  2
STYLE
  5
3
330
0
100
AcDbSymbolTable
 70
     3
  0
STYLE
  5
11
330
3
100
AcDbSymbolTableRecord
100
AcDbTextStyleTableRecord
  2
Standard
 70
     0
 40
0.0
 41
1.0
 50
0.0
 71
     0
 42
2.0
  3
txt
  4

  0
STYLE
  5
48
330
3
100
AcDbSymbolTableRecord
100
AcDbTextStyleTableRecord
  2
SLDTEXTSTYLE0
 70
     0
 40
0.0
 41
0.7
 50
0.0
 71
     0
 42
0.2
  3
TXT
  4

  0
STYLE
  5
4C
330
3
100
AcDbSymbolTableRecord
100
AcDbTextStyleTableRecord
  2
SLDTEXTSTYLE1
 70
     0
 40
0.0
 41
0.6466666667
 50
0.0
 71
     0
 42
0.2
  3
TXT
  4

  0
ENDTAB
  0
TABLE
  2
VIEW
  5
6
330
0
100
AcDbSymbolTable
 70
     0
  0
ENDTAB
  0
TABLE
  2
UCS
  5
7
330
0
100
AcDbSymbolTable
 70
     0
  0
ENDTAB
  0
TABLE
  2
APPID
  5
9
330
0
100
AcDbSymbolTable
 70
     1
  0
APPID
  5
12
330
9
100
AcDbSymbolTableRecord
100
AcDbRegAppTableRecord
  2
ACAD
 70
     0
  0
ENDTAB
  0
TABLE
  2
DIMSTYLE
  5
A
330
0
100
AcDbSymbolTable
 70
     2
100
AcDbDimStyleTable
  0
DIMSTYLE
105
27
330
A
100
AcDbSymbolTableRecord
100
AcDbDimStyleTableRecord
  2
ISO-25
 70
     0
 41
2.5
 42
0.625
 43
3.75
 44
1.25
 73
     0
 74
     0
 77
     1
 78
     8
140
2.5
141
2.5
143
0.0393700787
147
0.625
171
     3
172
     1
178
     0
271
     2
272
     2
274
     3
278
    44
283
     0
284
     8
340
11
  0
DIMSTYLE
105
19C
102
{ACAD_REACTORS
330
19B
330
2D7
330
2E1
102
}
330
A
100
AcDbSymbolTableRecord
100
AcDbDimStyleTableRecord
  2
SLDDIMSTYLE0
 70
     0
 41
3.0
 44
0.0
 45
0.000000001
 73
     0
 74
     0
 77
     1
 78
    12
 79
     3
140
2.0
147
0.5
173
     1
178
     0
271
     2
272
     3
276
     2
284
    12
340
48
  0
ENDTAB
  0
TABLE
  2
BLOCK_RECORD
  5
1
330
0
100
AcDbSymbolTable
 70
     4
  0
BLOCK_RECORD
  5
1F
330
1
100
AcDbSymbolTableRecord
100
AcDbBlockTableRecord
  2
*Model_Space
340
22
  0
BLOCK_RECORD
  5
1B
330
1
100
AcDbSymbolTableRecord
100
AcDbBlockTableRecord
  2
*Paper_Space
340
1E
  0
BLOCK_RECORD
  5
23
330
1
100
AcDbSymbolTableRecord
100
AcDbBlockTableRecord
  2
*Paper_Space0
340
26
  0
BLOCK_RECORD
  5
19D
330
1
100
AcDbSymbolTableRecord
100
AcDbBlockTableRecord
  2
_D
340
0
  0
BLOCK_RECORD
  5
2D8
330
1
100
AcDbSymbolTableRecord
100
AcDbBlockTableRecord
  2
_D_1
340
0
  0
BLOCK_RECORD
  5
2E2
330
1
100
AcDbSymbolTableRecord
100
AcDbBlockTableRecord
  2
_D_2
340
0
  0
ENDTAB
  0
ENDSEC
  0
SECTION
  2
BLOCKS
  0
BLOCK
  5
20
330
1F
100
AcDbEntity
  8
0
100
AcDbBlockBegin
  2
*Model_Space
 70
     0
 10
0.0
 20
0.0
 30
0.0
  3
*Model_Space
  1

  0
ENDBLK
  5
21
330
1F
100
AcDbEntity
  8
0
100
AcDbBlockEnd
  0
BLOCK
  5
1C
330
1B
100
AcDbEntity
 67
     1
  8
0
100
AcDbBlockBegin
  2
*Paper_Space
 70
     0
 10
0.0
 20
0.0
 30
0.0
  3
*Paper_Space
  1

  0
ENDBLK
  5
1D
330
1B
100
AcDbEntity
 67
     1
  8
0
100
AcDbBlockEnd
  0
BLOCK
  5
24
330
23
100
AcDbEntity
  8
0
100
AcDbBlockBegin
  2
*Paper_Space0
 70
     0
 10
0.0
 20
0.0
 30
0.0
  3
*Paper_Space0
  1

  0
ENDBLK
  5
25
330
23
100
AcDbEntity
  8
0
100
AcDbBlockEnd
  0
BLOCK
  5
19E
330
19D
100
AcDbEntity
  8
0
100
AcDbBlockBegin
  2
_D
 70
     0
 10
0.0
 20
0.0
 30
0.0
  3
_D
  1

  0
SOLID
  5
1A0
330
19D
100
AcDbEntity
  8
VERMASSUNG
100
AcDbTrace
 10
88.8930174747
 20
98.4199016047
 30
0.0
 11
88.4430174747
 21
95.4199016047
 31
0.0
 12
89.3430174747
 22
95.4199016047
 32
0.0
 13
89.3430174747
 23
95.4199016047
 33
0.0
  0
SOLID
  5
1A1
330
19D
100
AcDbEntity
  8
VERMASSUNG
100
AcDbTrace
 10
88.8930174747
 20
35.4199016047
 30
0.0
 11
89.3430174747
 21
38.4199016047
 31
0.0
 12
88.4430174747
 22
38.4199016047
 32
0.0
 13
88.4430174747
 23
38.4199016047
 33
0.0
  0
LINE
  5
1A2
330
19D
100
AcDbEntity
  8
VERMASSUNG
100
AcDbLine
 10
137.3930174747
 20
98.4199016047
 30
0.0
 11
87.8930174747
 21
98.4199016047
 31
0.0
  0
LINE
  5
1A3
330
19D
100
AcDbEntity
  8
VERMASSUNG
100
AcDbLine
 10
137.3930174747
 20
35.4199016047
 30
0.0
 11
87.8930174747
 21
35.4199016047
 31
0.0
  0
LINE
  5
1A4
330
19D
100
AcDbEntity
  8
VERMASSUNG
100
AcDbLine
 10
88.8930174747
 20
98.4199016047
 30
0.0
 11
88.8930174747
 21
35.4199016047
 31
0.0
  0
MTEXT
  5
1A5
330
19D
100
AcDbEntity
  8
VERMASSUNG
100
AcDbMText
 10
86.1148819857
 20
60.5149014955
 30
0.1
 40
2.0
 41
0.0
 71
     1
 72
     1
  1
PSC
  7
SLDTEXTSTYLE0
 11
-7.044195017643634E-15
 21
1.0
 31
0.0
 73
     1
 44
1.0
  0
MTEXT
  5
1A6
330
19D
100
AcDbEntity
  8
VERMASSUNG
100
AcDbMText
 10
86.3148819952
 20
65.1149015976
 30
0.1
 40
2.0
 41
0.0
 71
     1
 72
     1
  1
%%c
  7
SLDTEXTSTYLE0
 11
-7.044195017643634E-15
 21
1.0
 31
0.0
 73
     1
 44
1.0
  0
MTEXT
  5
1A7
330
19D
100
AcDbEntity
  8
VERMASSUNG
100
AcDbMText
 10
86.1148819857
 20
68.7249020775
 30
0.1
 40
2.0
 41
0.0
 71
     1
 72
     1
  1
63
  7
SLDTEXTSTYLE0
 11
-7.044195017643634E-15
 21
1.0
 31
0.0
 73
     1
 44
1.0
  0
ENDBLK
  5
19F
330
19D
100
AcDbEntity
  8
0
100
AcDbBlockEnd
  0
BLOCK
  5
2D9
330
2D8
100
AcDbEntity
  8
0
100
AcDbBlockBegin
  2
_D_1
 70
     0
 10
0.0
 20
0.0
 30
0.0
  3
_D_1
  1

  0
SOLID
  5
2DB
330
2D8
100
AcDbEntity
  8
VERMASSUNG
100
AcDbTrace
 10
136.8930174747
 20
186.9545817995
 30
0.0
 11
139.8930174747
 21
186.5045817995
 31
0.0
 12
139.8930174747
 22
187.4045817995
 32
0.0
 13
139.8930174747
 23
187.4045817995
 33
0.0
  0
SOLID
  5
2DC
330
2D8
100
AcDbEntity
  8
VERMASSUNG
100
AcDbTrace
 10
236.8930174747
 20
186.9545817995
 30
0.0
 11
233.8930174747
 21
187.4045817995
 31
0.0
 12
233.8930174747
 22
186.5045817995
 32
0.0
 13
233.8930174747
 23
186.5045817995
 33
0.0
  0
LINE
  5
2DD
330
2D8
100
AcDbEntity
  8
VERMASSUNG
100
AcDbLine
 10
136.8930174747
 20
176.4545817995
 30
0.0
 11
136.8930174747
 21
187.9545817995
 31
0.0
  0
LINE
  5
2DE
330
2D8
100
AcDbEntity
  8
VERMASSUNG
100
AcDbLine
 10
236.8930174747
 20
149.2880005197
 30
0.0
 11
236.8930174747
 21
187.9545817995
 31
0.0
  0
LINE
  5
2DF
330
2D8
100
AcDbEntity
  8
VERMASSUNG
100
AcDbLine
 10
136.8930174747
 20
186.9545817995
 30
0.0
 11
236.8930174747
 21
186.9545817995
 31
0.0
  0
MTEXT
  5
2E0
330
2D8
100
AcDbEntity
  8
VERMASSUNG
100
AcDbMText
 10
184.0930173417
 20
189.5327171626
 30
0.1
 40
2.0
 41
0.0
 71
     1
 72
     1
  1
100
  7
SLDTEXTSTYLE0
 73
     1
 44
1.0
  0
ENDBLK
  5
2DA
330
2D8
100
AcDbEntity
  8
0
100
AcDbBlockEnd
  0
BLOCK
  5
2E3
330
2E2
100
AcDbEntity
  8
0
100
AcDbBlockBegin
  2
_D_2
 70
     0
 10
0.0
 20
0.0
 30
0.0
  3
_D_2
  1

  0
SOLID
  5
2E5
330
2E2
100
AcDbEntity
  8
VERMASSUNG
100
AcDbTrace
 10
98.8930174747
 20
192.9545817995
 30
0.0
 11
101.8930174747
 21
192.5045817995
 31
0.0
 12
101.8930174747
 22
193.4045817995
 32
0.0
 13
101.8930174747
 23
193.4045817995
 33
0.0
  0
SOLID
  5
2E6
330
2E2
100
AcDbEntity
  8
VERMASSUNG
100
AcDbTrace
 10
236.8930174747
 20
192.9545817995
 30
0.0
 11
233.8930174747
 21
193.4045817995
 31
0.0
 12
233.8930174747
 22
192.5045817995
 32
0.0
 13
233.8930174747
 23
192.5045817995
 33
0.0
  0
LINE
  5
2E7
330
2E2
100
AcDbEntity
  8
VERMASSUNG
100
AcDbLine
 10
98.8930174747
 20
165.6406975685
 30
0.0
 11
98.8930174747
 21
193.9545817995
 31
0.0
  0
LINE
  5
2E8
330
2E2
100
AcDbEntity
  8
VERMASSUNG
100
AcDbLine
 10
236.8930174747
 20
149.2880005197
 30
0.0
 11
236.8930174747
 21
193.9545817995
 31
0.0
  0
LINE
  5
2E9
330
2E2
100
AcDbEntity
  8
VERMASSUNG
100
AcDbLine
 10
98.8930174747
 20
192.9545817995
 30
0.0
 11
236.8930174747
 21
192.9545817995
 31
0.0
  0
MTEXT
  5
2EA
330
2E2
100
AcDbEntity
  8
VERMASSUNG
100
AcDbMText
 10
165.0930173417
 20
195.5327171626
 30
0.1
 40
2.0
 41
0.0
 71
     1
 72
     1
  1
138
  7
SLDTEXTSTYLE0
 73
     1
 44
1.0
  0
ENDBLK
  5
2E4
330
2E2
100
AcDbEntity
  8
0
100
AcDbBlockEnd
  0
ENDSEC
  0
SECTION
  2
ENTITIES
  0
MTEXT
  5
49
330
1F
100
AcDbEntity
  8
KOPF_DÜNN
100
AcDbMText
 10
13.8892156294
 20
23.8442973028
 30
0.0
 40
3.0
 41
0.0
 71
     1
 72
     1
  1
PS6.PDF.NNA.100
  7
SLDTEXTSTYLE0
 73
     1
 44
1.0
  0
MTEXT
  5
4A
330
1F
100
AcDbEntity
  8
VERMASSUNG
100
AcDbMText
 10
13.9329988022
 20
28.8834360957
 30
0.0
 40
3.0
 41
0.0
 71
     1
 72
     1
  1
Klemmhalter_Turning tool neutral
  7
SLDTEXTSTYLE0
 73
     1
 44
1.0
  0
MTEXT
  5
4B
330
1F
100
AcDbEntity
  8
VERMASSUNG
100
AcDbMText
 10
98.8601118557
 20
13.8365368179
 30
0.0
 40
2.0
 41
0.0
 71
     1
 72
     1
  1
Datum: 31.05.2012
  7
SLDTEXTSTYLE0
 73
     1
 44
1.0
  0
MTEXT
  5
4D
330
1F
100
AcDbEntity
  8
VERMASSUNG
100
AcDbMText
 10
13.933048693
 20
18.0482802738
 30
0.0
 40
2.0
 41
0.0
 71
     1
 72
     1
  1
PSC ø63 / DN.. 15 06 .. / 62.5° / 55° / 62.5°
  7
SLDTEXTSTYLE1
 73
     1
 44
1.0
  0
MTEXT
  5
4E
330
1F
100
AcDbEntity
  8
VERMASSUNG
100
AcDbMText
 10
13.9808475933
 20
13.9090973692
 30
0.0
 40
2.0
 41
0.0
 71
     1
 72
     1
  1
Gewicht: 1677g
  7
SLDTEXTSTYLE0
 73
     1
 44
1.0
  0
LINE
  5
4F
330
1F
100
AcDbEntity
  8
0
  6
Continuous
 62
     7
370
    15
100
AcDbLine
 10
222.2917224857
 20
59.888408189
 30
0.0
 11
222.4671488574
 21
59.888408189
 31
0.0
  0
LINE
  5
50
330
1F
100
AcDbEntity
  8
0
  6
Continuous
 62
     7
370
    15
100
AcDbLine
 10
222.4671488574
 20
73.9513950205
 30
0.0
 11
222.2917224857
 21
73.9513950205
 31
0.0
  0
LINE
  5
51
330
1F
100
AcDbEntity
  8
0
  6
Continuous
 62
     7
370
    15
100
AcDbLine
 10
223.5001887719
 20
68.9834030106
 30
0.0
 11
222.6977717666
 21
69.1111599962
 31
0.0
  0
LINE
  5
52
330
1F
100
AcDbEntity
  8
0
  6
Continuous
 62
     7
370
    15
100
AcDbLine
 10
222.7081297814
 20
59.8119790209
 30
0.0
 11
223.8107957096
 21
59.8119790209
 31
0.0
  0
LINE
  5
53
330
1F
100
AcDbEntity
  8
0
  6
Continuous
 62
     7
370
    15
100
AcDbLine
 10
223.8107957096
 20
74.0278241886
 30
0.0
 11
222.7081297814
 21
74.0278241886
 31
0.0
  0
LINE
  5
54
330
1F
100
AcDbEntity
  8
0
  6
Continuous
 62
     7
370
    15
100
AcDbLine
 10
174.1627952169
 20
98.4199016047
 30
0.0
 11
137.3930174747
 21
98.4199016047
 31
0.0
  0
LINE
  5
55
330
1F
100
AcDbEntity
  8
0
  6
Continuous
 62
     7
370
    15
100
AcDbLine
 10
137.3930174747
 20
35.4199016047
 30
0.0
 11
174.1627952169
 21
35.4199016047
 31
0.0
  0
ARC
  5
56
330
1F
100
AcDbEntity
  8
0
  6
Continuous
 62
     7
370
    15
100
AcDbCircle
 10
137.3930174747
 20
35.9199016047
 30
0.0
 40
0.5
100
AcDbArc
 50
180.0
 51
270.0
  0
ARC
  5
57
330
1F
100
AcDbEntity
  8
0
  6
Continuous
 62
     7
370
    15
100
AcDbCircle
 10
137.3930174747
 20
97.9199016047
 30
0.0
 40
0.5
100
AcDbArc
 50
90.0
 51
180.0
  0
LWPOLYLINE
  5
58
330
1F
100
AcDbEntity
  8
0
  6
Continuous
 62
     7
370
    15
100
AcDbPolyline
 90
        3
 70
   128
 43
0.0
 10
136.6930174747
 20
44.3800813259
 10
136.8184724182
 20
44.3117792109
 10
136.8930174747
 20
44.2590414528
  0
LWPOLYLINE
  5
59
330
1F
100
AcDbEntity
  8
0
  6
Continuous
 62
     7
370
    15
100
AcDbPolyline
 90
        3
 70
   128
 43
0.0
 10
136.8930174747
 20
89.5807617567
 10
136.8184724182
 20
89.5280239986
 10
136.6930174747
 20
89.4597218836
  0
LINE
  5
5A
330
1F
100
AcDbEntity
  8
0
  6
Continuous
 62
     7
370
    15
100
AcDbLine
 10
213.6438189631
 20
69.2874036932
 30
0.0
 11
210.8430284311
 21
67.8069124379
 31
0.0
  0
ARC
  5
5B
330
1F
100
AcDbEntity
  8
0
  6
Continuous
 62
     7
370
    15
100
AcDbCircle
 10
210.8099102963
 20
66.9279832129
 30
0.0
 40
0.9952863662893338
100
AcDbArc
 50
117.9823958742
 51
157.9379682415
  0
LINE
  5
5C
330
1F
100
AcDbEntity
  8
0
  6
Continuous
 62
     7
370
    15
100
AcDbLine
 10
213.1437122114
 20
69.2874036932
 30
0.0
 11
210.3429216795
 21
67.8069124379
 31
0.0
  0
LWPOLYLINE
  5
5D
330
1F
100
AcDbEntity
  8
0
  6
Continuous
 62
     7
370
    15
100
AcDbPolyline
 90
        3
 70
   128
 43
0.0
 10
224.7512644258
 20
68.4535944449
 10
224.8322832533
 20
68.3199016047
 10
224.9037846201
 20
68.1858463195
  0
LWPOLYLINE
  5
5E
330
1F
100
AcDbEntity
  8
0
  6
Continuous
 62
     7
370
    15
100
AcDbPolyline
 90
        3
 70
   128
 43
0.0
 10
222.9431874421
 20
69.3448247321
 10
222.9432761387
 20
69.3447727353
 10
223.0119353581
 20
69.3031615211
  0
CIRCLE
  5
5F
330
1F
100
AcDbEntity
  8
0
  6
Continuous
 62
     7
370
    15
100
AcDbCircle
 10
209.5623721691
 20
60.9850590646
 30
0.0
 40
3.464542878956855
  0
CIRCLE
  5
60
330
1F
100
AcDbEntity
  8
0
  6
Continuous
 62
     7
370
    15
100
AcDbCircle
 10
209.5642863053
 20
60.9716153705
 30
0.0
 40
1.978001621684383
  0
SPLINE
  5
61
330
1F
100
AcDbEntity
  8
0
  6
Continuous
 62
     7
370
    15
100
AcDbSpline
210
0.0
220
0.0
230
1.0
 70
     8
 71
     3
 72
    11
 73
     7
 74
     0
 42
0.00000001
 43
0.00000001
 12
1.0
 22
0.0
 32
0.0
 13
1.0
 23
0.0
 33
0.0
 40
0.0
 40
0.0
 40
0.0
 40
0.0
 40
0.1081100880371269
 40
0.4711580666043609
 40
0.8135808430835869
 40
1.0
 40
1.0
 40
1.0
 40
1.0
 10
208.4841406006607
 20
59.5715255356608
 30
0.0
 10
208.5364834427703
 20
59.56412521538774
 30
0.0
 10
208.7646004736293
 20
59.53187364057715
 30
0.0
 10
209.2170345827716
 20
59.47047364943197
 30
0.0
 10
209.7639493576737
 20
59.40188316421626
 30
0.0
 10
210.0687538740731
 20
59.3654539625711
 30
0.0
 10
210.1761988351916
 20
59.35261250536247
 30
0.0
  0
SPLINE
  5
62
330
1F
100
AcDbEntity
  8
0
  6
Continuous
 62
     7
370
    15
100
AcDbSpline
210
0.0
220
0.0
230
1.0
 70
     8
 71
     3
 72
    11
 73
     7
 74
     0
 42
0.00000001
 43
0.00000001
 12
1.0
 22
0.0
 32
0.0
 13
1.0
 23
0.0
 33
0.0
 40
0.0
 40
0.0
 40
0.0
 40
0.0
 40
0.2164499953511804
 40
0.4402998152333218
 40
0.751891476001036
 40
1.0
 40
1.0
 40
1.0
 40
1.0
 10
210.1761988351916
 20
59.35261250536247
 30
0.0
 10
210.2375063380605
 20
59.44703969224335
 30
0.0
 10
210.3622172771476
 20
59.63912226941875
 30
0.0
 10
210.613266651025
 20
59.99558033692186
 30
0.0
 10
210.9093708311839
 20
60.37795482806167
 30
0.0
 10
211.1169254571369
 20
60.62265452525087
 30
0.0
 10
211.2089319872327
 20
60.73112702953978
 30
0.0
  0
SPLINE
  5
63
330
1F
100
AcDbEntity
  8
0
  6
Continuous
 62
     7
370
    15
100
AcDbSpline
210
0.0
220
0.0
230
1.0
 70
     8
 71
     3
 72
    10
 73
     6
 74
     0
 42
0.00000001
 43
0.00000001
 12
1.0
 22
0.0
 32
0.0
 13
1.0
 23
0.0
 33
0.0
 40
0.0
 40
0.0
 40
0.0
 40
0.0
 40
0.4391165375903725
 40
0.7513669429073215
 40
1.0
 40
1.0
 40
1.0
 40
1.0
 10
211.2089319872327
 20
60.73112702953978
 30
0.0
 10
211.0967048531991
 20
60.95981109887735
 30
0.0
 10
210.9046743752016
 20
61.35110961615175
 30
0.0
 10
210.683466226225
 20
61.91993112221805
 30
0.0
 10
210.5907201513768
 20
62.20305090613006
 30
0.0
 10
210.5496069047431
 20
62.32855458401537
 30
0.0
  0
SPLINE
  5
64
330
1F
100
AcDbEntity
  8
0
  6
Continuous
 62
     7
370
    15
100
AcDbSpline
210
0.0
220
0.0
230
1.0
 70
     8
 71
     3
 72
    11
 73
     7
 74
     0
 42
0.00000001
 43
0.00000001
 12
1.0
 22
0.0
 32
0.0
 13
1.0
 23
0.0
 33
0.0
 40
0.0
 40
0.0
 40
0.0
 40
0.0
 40
0.1864191569163753
 40
0.528841933395656
 40
0.8918899119628679
 40
1.0
 40
1.0
 40
1.0
 40
1.0
 10
210.5496069047431
 20
62.32855458401537
 30
0.0
 10
210.4421619436246
 20
62.34139604122397
 30
0.0
 10
210.1373574272252
 20
62.37782524286909
 30
0.0
 10
209.5904426523232
 20
62.44641572808495
 30
0.0
 10
209.1380085431809
 20
62.50781571923002
 30
0.0
 10
208.9098915123219
 20
62.54006729404058
 30
0.0
 10
208.8575486702123
 20
62.54746761431364
 30
0.0
  0
SPLINE
  5
65
330
1F
100
AcDbEntity
  8
0
  6
Continuous
 62
     7
370
    15
100
AcDbSpline
210
0.0
220
0.0
230
1.0
 70
     8
 71
     3
 72
    10
 73
     6
 74
     0
 42
0.00000001
 43
0.00000001
 12
1.0
 22
0.0
 32
0.0
 13
1.0
 23
0.0
 33
0.0
 40
0.0
 40
0.0
 40
0.0
 40
0.0
 40
0.4391165375904122
 40
0.7513669429073517
 40
1.0
 40
1.0
 40
1.0
 40
1.0
 10
208.8575486702123
 20
62.54746761431364
 30
0.0
 10
208.6918652923388
 20
62.35012263291113
 30
0.0
 10
208.4083664885669
 20
62.01244804614158
 30
0.0
 10
208.0541929729266
 20
61.52157839413152
 30
0.0
 10
207.8952659863581
 20
61.27725762157998
 30
0.0
 10
207.8248155181711
 20
61.1689530901364
 30
0.0
  0
SPLINE
  5
66
330
1F
100
AcDbEntity
  8
0
  6
Continuous
 62
     7
370
    15
100
AcDbSpline
210
0.0
220
0.0
230
1.0
 70
     8
 71
     3
 72
    10
 73
     6
 74
     0
 42
0.00000001
 43
0.00000001
 12
1.0
 22
0.0
 32
0.0
 13
1.0
 23
0.0
 33
0.0
 40
0.0
 40
0.0
 40
0.0
 40
0.0
 40
0.4391165375904341
 40
0.7513669429073818
 40
1.0
 40
1.0
 40
1.0
 40
1.0
 10
207.8248155181711
 20
61.1689530901364
 30
0.0
 10
207.9013633210135
 20
60.94026902079879
 30
0.0
 10
208.032343331294
 20
60.54897050352435
 30
0.0
 10
208.2806879771948
 20
59.98014899745802
 30
0.0
 10
208.4216526260151
 20
59.69702921354607
 30
0.0
 10
208.4841406006607
 20
59.5715255356608
 30
0.0
  0
LINE
  5
67
330
1F
100
AcDbEntity
  8
0
  6
Continuous
 62
     7
370
    15
100
AcDbLine
 10
209.901543083
 20
62.328554584
 30
0.0
 11
210.5496069047
 21
62.328554584
 31
0.0
  0
LINE
  5
68
330
1F
100
AcDbEntity
  8
0
  6
Continuous
 62
     7
370
    15
100
AcDbLine
 10
209.901543083
 20
62.328554584
 30
0.0
 11
209.0555139658
 21
62.4380110992
 31
0.0
  0
LINE
  5
69
330
1F
100
AcDbEntity
  8
0
  6
Continuous
 62
     7
370
    15
100
AcDbLine
 10
209.0555139658
 20
62.4380110992
 30
0.0
 11
208.7957410041
 21
62.4716196861
 31
0.0
  0
LINE
  5
6A
330
1F
100
AcDbEntity
  8
0
  6
Continuous
 62
     7
370
    15
100
AcDbLine
 10
209.5827053286
 20
59.425454141
 30
0.0
 11
210.0445015895
 21
60.0418697675
 31
0.0
  0
LINE
  5
6B
330
1F
100
AcDbEntity
  8
0
  6
Continuous
 62
     7
370
    15
100
AcDbLine
 10
210.0445015895
 20
60.0418697675
 30
0.0
 11
210.5608681655
 21
60.7311270295
 31
0.0
  0
LINE
  5
6C
330
1F
100
AcDbEntity
  8
0
  6
Continuous
 62
     7
370
    15
100
AcDbLine
 10
210.5608681655
 20
60.7311270295
 30
0.0
 11
211.2089319872
 21
60.7311270295
 31
0.0
  0
LINE
  5
6D
330
1F
100
AcDbEntity
  8
0
  6
Continuous
 62
     7
370
    15
100
AcDbLine
 10
210.5608681655
 20
60.7311270295
 30
0.0
 11
210.2312056243
 21
61.5298408068
 31
0.0
  0
LINE
  5
6E
330
1F
100
AcDbEntity
  8
0
  6
Continuous
 62
     7
370
    15
100
AcDbLine
 10
210.2312056243
 20
61.5298408068
 30
0.0
 11
209.901543083
 21
62.328554584
 31
0.0
  0
ARC
  5
6F
330
1F
100
AcDbEntity
  8
0
  6
Continuous
 62
     7
370
    15
100
AcDbCircle
 10
208.8275306246
 20
60.9502688282
 30
0.0
 40
1.518620157578404
100
AcDbArc
 50
323.2607699085
 51
22.4355410829
  0
ARC
  5
70
330
1F
100
AcDbEntity
  8
0
  6
Continuous
 62
     7
370
    15
100
AcDbCircle
 10
208.8632700797
 20
60.923044129
 30
0.0
 40
1.473694722510192
100
AcDbArc
 50
280.061783807
 51
323.2778200452
  0
LWPOLYLINE
  5
71
330
1F
100
AcDbEntity
  8
0
  6
Continuous
 62
     7
370
    15
100
AcDbPolyline
 90
        3
 70
   128
 43
0.0
 10
208.7691059017
 20
62.4466195038
 10
208.8626481189
 20
62.4500270103
 10
209.0555139658
 20
62.4380110992
  0
ARC
  5
72
330
1F
100
AcDbEntity
  8
0
  6
Continuous
 62
     7
370
    15
100
AcDbCircle
 10
208.8603952211
 20
60.9703220879
 30
0.0
 40
1.480602025646639
100
AcDbArc
 50
22.2036314677
 51
82.4273405958
  0
ELLIPSE
  5
73
330
1F
100
AcDbEntity
  8
0
  6
Continuous
 62
     7
370
    15
100
AcDbEllipse
 10
223.1387694235
 20
66.6613472329
 30
0.0
 11
0.0793419451684656
 21
2.349171028772062
 31
0.0
210
0.0
220
0.0
230
1.0
 40
0.9857309248
 41
5.138853383767566
 42
6.855090201137361
  0
ELLIPSE
  5
74
330
1F
100
AcDbEntity
  8
0
  6
Continuous
 62
     7
370
    15
100
AcDbEllipse
 10
223.1387694235
 20
66.6613472329
 30
0.0
 11
0.0793419451684656
 21
2.349171028772062
 31
0.0
210
0.0
220
0.0
230
1.0
 40
0.9857309248
 41
3.361755438960996
 42
5.138853383767583
  0
LINE
  5
75
330
1F
100
AcDbEntity
  8
0
  6
Continuous
 62
     7
370
    15
100
AcDbLine
 10
222.5785275858
 20
69.1269767444
 30
0.0
 11
222.6977717666
 21
69.1111599962
 31
0.0
  0
SPLINE
  5
76
330
1F
100
AcDbEntity
  8
0
  6
Continuous
 62
     7
370
    15
100
AcDbSpline
210
0.0
220
0.0
230
1.0
 70
     8
 71
     3
 72
    11
 73
     7
 74
     0
 42
0.00000001
 43
0.00000001
 12
1.0
 22
0.0
 32
0.0
 13
1.0
 23
0.0
 33
0.0
 40
0.0
 40
0.0
 40
0.0
 40
0.0
 40
0.1974212442311575
 40
0.4967538591536373
 40
0.8047403469576663
 40
1.0
 40
1.0
 40
1.0
 40
1.0
 10
223.9922143931068
 20
68.76102119797348
 30
0.0
 10
223.9296138232245
 20
68.8153579930955
 30
0.0
 10
223.7720974688152
 20
68.9520809317844
 30
0.0
 10
223.4788692119702
 20
69.11072834537
 30
0.0
 10
223.1732162895748
 20
69.23180927649348
 30
0.0
 10
222.9769463964303
 20
69.26268770030065
 30
0.0
 10
222.9007936192355
 20
69.27466853796577
 30
0.0
  0
LINE
  5
77
330
1F
100
AcDbEntity
  8
0
  6
Continuous
 62
     7
370
    15
100
AcDbLine
 10
210.9388671182
 20
66.5650972715
 30
0.0
 11
223.6289022639
 21
59.8571746876
 31
0.0
  0
ARC
  5
78
330
1F
100
AcDbEntity
  8
0
  6
Continuous
 62
     7
370
    15
100
AcDbCircle
 10
211.1291196544
 20
66.9199016047
 30
0.0
 40
0.4025942652865603
100
AcDbArc
 50
118.2010186808
 51
241.7989813192
  0
LINE
  5
79
330
1F
100
AcDbEntity
  8
0
  6
Continuous
 62
     7
370
    15
100
AcDbLine
 10
223.6289022639
 20
73.9826285219
 30
0.0
 11
210.9388671182
 21
67.274705938
 31
0.0
  0
ARC
  5
7A
330
1F
100
AcDbEntity
  8
0
  6
Continuous
 62
     7
370
    15
100
AcDbCircle
 10
223.8107957096
 20
73.6390890374
 30
0.0
 40
0.3887217552079126
100
AcDbArc
 50
62.1001756221
 51
117.8998243779
  0
LINE
  5
7B
330
1F
100
AcDbEntity
  8
0
  6
Continuous
 62
     7
370
    15
100
AcDbLine
 10
236.682724301
 20
67.274705938
 30
0.0
 11
223.9926891553
 21
73.9826285219
 31
0.0
  0
ARC
  5
7C
330
1F
100
AcDbEntity
  8
0
  6
Continuous
 62
     7
370
    15
100
AcDbCircle
 10
236.4924717648
 20
66.9199016047
 30
0.0
 40
0.4025942652865612
100
AcDbArc
 50
298.2010186808
 51
61.7989813192
  0
LINE
  5
7D
330
1F
100
AcDbEntity
  8
0
  6
Continuous
 62
     7
370
    15
100
AcDbLine
 10
223.9926891553
 20
59.8571746876
 30
0.0
 11
236.682724301
 21
66.5650972715
 31
0.0
  0
ARC
  5
7E
330
1F
100
AcDbEntity
  8
0
  6
Continuous
 62
     7
370
    15
100
AcDbCircle
 10
223.8107957096
 20
60.2007141721
 30
0.0
 40
0.3887217552080947
100
AcDbArc
 50
242.1001756221
 51
297.8998243779
  0
ARC
  5
7F
330
1F
100
AcDbEntity
  8
0
  6
Continuous
 62
     7
370
    15
100
AcDbCircle
 10
236.4928897193
 20
66.9199016047
 30
0.0
 40
0.3824645520222306
100
AcDbArc
 50
298.2010186808
 51
61.7989813192
  0
LINE
  5
80
330
1F
100
AcDbEntity
  8
0
  6
Continuous
 62
     7
370
    15
100
AcDbLine
 10
236.6736296287
 20
67.2569657213
 30
0.0
 11
223.9835944829
 21
73.9648883049
 31
0.0
  0
ARC
  5
81
330
1F
100
AcDbEntity
  8
0
  6
Continuous
 62
     7
370
    15
100
AcDbCircle
 10
223.8107957093
 20
73.6385257935
 30
0.0
 40
0.3692856686140196
100
AcDbArc
 50
62.1001756889
 51
117.8998242242
  0
LINE
  5
82
330
1F
100
AcDbEntity
  8
0
  6
Continuous
 62
     7
370
    15
100
AcDbLine
 10
223.6379969362
 20
73.9648883052
 30
0.0
 11
210.9479617905
 21
67.2569657213
 31
0.0
  0
ARC
  5
83
330
1F
100
AcDbEntity
  8
0
  6
Continuous
 62
     7
370
    15
100
AcDbCircle
 10
211.1287016999
 20
66.9199016047
 30
0.0
 40
0.3824645520222431
100
AcDbArc
 50
118.2010186808
 51
241.7989813192
  0
LINE
  5
84
330
1F
100
AcDbEntity
  8
0
  6
Continuous
 62
     7
370
    15
100
AcDbLine
 10
210.9479617905
 20
66.5828374881
 30
0.0
 11
223.6379969362
 21
59.8749149043
 31
0.0
  0
ARC
  5
85
330
1F
100
AcDbEntity
  8
0
  6
Continuous
 62
     7
370
    15
100
AcDbCircle
 10
223.8107957096
 20
60.2012774145
 30
0.0
 40
0.3692856674475684
100
AcDbArc
 50
242.1001756221
 51
297.8998243779
  0
LINE
  5
86
330
1F
100
AcDbEntity
  8
0
  6
Continuous
 62
     7
370
    15
100
AcDbLine
 10
223.9835944831
 20
59.8749149043
 30
0.0
 11
236.6736296287
 21
66.5828374881
 31
0.0
  0
LWPOLYLINE
  5
87
330
1F
100
AcDbEntity
  8
0
  6
Continuous
 62
     7
370
    15
100
AcDbPolyline
 90
        3
 70
   128
 43
0.0
 10
209.83620119
 20
67.274705938
 10
209.7488118362
 20
67.2118472338
 10
209.740857199
 20
67.2040665484
  0
LINE
  5
88
330
1F
100
AcDbEntity
  8
0
  6
Continuous
 62
     7
370
    15
100
AcDbLine
 10
211.0826633515
 20
66.9199016047
 30
0.0
 11
210.9479617905
 21
66.5828374881
 31
0.0
  0
LINE
  5
89
330
1F
100
AcDbEntity
  8
0
  6
Continuous
 62
     7
370
    15
100
AcDbLine
 10
211.0826633515
 20
66.9199016047
 30
0.0
 11
210.9479617905
 21
67.2569657213
 31
0.0
  0
LINE
  5
8A
330
1F
100
AcDbEntity
  8
0
  6
Continuous
 62
     7
370
    15
100
AcDbLine
 10
223.7726984972
 20
60.2119790209
 30
0.0
 11
223.6379969362
 21
59.8749149043
 31
0.0
  0
LINE
  5
8B
330
1F
100
AcDbEntity
  8
0
  6
Continuous
 62
     7
370
    15
100
AcDbLine
 10
213.1266512894
 20
66.9199016047
 30
0.0
 11
211.0826633515
 21
66.9199016047
 31
0.0
  0
LINE
  5
8C
330
1F
100
AcDbEntity
  8
0
  6
Continuous
 62
     7
370
    15
100
AcDbLine
 10
213.1266512894
 20
66.9199016047
 30
0.0
 11
213.7164864805
 21
66.6081161169
 31
0.0
  0
LINE
  5
8D
330
1F
100
AcDbEntity
  8
0
  6
Continuous
 62
     7
370
    15
100
AcDbLine
 10
223.7293735468
 20
60.6991703468
 30
0.0
 11
223.7726984972
 21
60.2119790209
 31
0.0
  0
LINE
  5
8E
330
1F
100
AcDbEntity
  8
0
  6
Continuous
 62
     7
370
    15
100
AcDbLine
 10
222.3794356716
 20
59.9347731717
 30
0.0
 11
222.5262363357
 21
59.8571746876
 31
0.0
  0
LINE
  5
8F
330
1F
100
AcDbEntity
  8
0
  6
Continuous
 62
     7
370
    15
100
AcDbLine
 10
222.5262363357
 20
73.9826285219
 30
0.0
 11
222.3794356716
 21
73.9050300378
 31
0.0
  0
LINE
  5
90
330
1F
100
AcDbEntity
  8
0
  6
Continuous
 62
     7
370
    15
100
AcDbLine
 10
213.6438189631
 20
69.2874036932
 30
0.0
 11
209.83620119
 21
67.274705938
 31
0.0
  0
LINE
  5
91
330
1F
100
AcDbEntity
  8
0
  6
Continuous
 62
     7
370
    15
100
AcDbLine
 10
223.7726984972
 20
73.6278241886
 30
0.0
 11
223.6379969362
 21
73.9648883052
 31
0.0
  0
LINE
  5
92
330
1F
100
AcDbEntity
  8
0
  6
Continuous
 62
     7
370
    15
100
AcDbLine
 10
223.7293735468
 20
73.1406328626
 30
0.0
 11
223.7726984972
 21
73.6278241886
 31
0.0
  0
LINE
  5
93
330
1F
100
AcDbEntity
  8
0
  6
Continuous
 62
     7
370
    15
100
AcDbLine
 10
213.7164864805
 20
67.2316870926
 30
0.0
 11
213.1266512894
 21
66.9199016047
 31
0.0
  0
ARC
  5
94
330
1F
100
AcDbEntity
  8
0
  6
Continuous
 62
     7
370
    15
100
AcDbCircle
 10
216.7295393124
 20
66.9199016047
 30
0.0
 40
1.006485663216447
100
AcDbArc
 50
118.2010186808
 51
241.7989813192
  0
LINE
  5
95
330
1F
100
AcDbEntity
  8
0
  6
Continuous
 62
     7
370
    15
100
AcDbLine
 10
214.2203259182
 20
66.9210629227
 30
0.0
 11
214.2203259182
 21
66.9187402868
 31
0.0
  0
SPLINE
  5
96
330
1F
100
AcDbEntity
  8
0
  6
Continuous
 62
     7
370
    15
100
AcDbSpline
210
0.0
220
0.0
230
1.0
 70
     8
 71
     3
 72
    14
 73
    10
 74
     0
 42
0.00000001
 43
0.00000001
 12
1.0
 22
0.0
 32
0.0
 13
1.0
 23
0.0
 33
0.0
 40
0.0
 40
0.0
 40
0.0
 40
0.0
 40
0.221059190477964
 40
0.3460797326519365
 40
0.4396016244131731
 40
0.5338897453200011
 40
0.6146561933587854
 40
0.7517253237593896
 40
1.0
 40
1.0
 40
1.0
 40
1.0
 10
214.2203259181859
 20
66.92106292271245
 30
0.0
 10
214.2184692090681
 20
66.98016213917512
 30
0.0
 10
214.2155624337662
 20
67.07268505572576
 30
0.0
 10
214.1806261442009
 20
67.18575662716363
 30
0.0
 10
214.1337499431639
 20
67.25585679953183
 30
0.0
 10
214.0732908780709
 20
67.29652338508564
 30
0.0
 10
213.9924053997102
 20
67.31498982967518
 30
0.0
 10
213.8682881644733
 20
67.30319347113463
 30
0.0
 10
213.7759678797211
 20
67.25970588222192
 30
0.0
 10
213.7164864804816
 20
67.2316870925808
 30
0.0
  0
SPLINE
  5
97
330
1F
100
AcDbEntity
  8
0
  6
Continuous
 62
     7
370
    15
100
AcDbSpline
210
0.0
220
0.0
230
1.0
 70
     8
 71
     3
 72
    14
 73
    10
 74
     0
 42
0.00000001
 43
0.00000001
 12
1.0
 22
0.0
 32
0.0
 13
1.0
 23
0.0
 33
0.0
 40
0.0
 40
0.0
 40
0.0
 40
0.0
 40
0.2234968253973481
 40
0.356762296377479
 40
0.4531212562341175
 40
0.5344619041500475
 40
0.6157317558035357
 40
0.7396161778922128
 40
1.0
 40
1.0
 40
1.0
 40
1.0
 10
213.7164864804816
 20
66.60811611688617
 30
0.0
 10
213.7698670976318
 20
66.58280075596498
 30
0.0
 10
213.8550772187273
 20
66.54239048937704
 30
0.0
 10
213.9742739290185
 20
66.52465147184168
 30
0.0
 10
214.0562902677978
 20
66.53684224493392
 30
0.0
 10
214.11723400302
 20
66.57047145553915
 30
0.0
 10
214.167709362086
 20
66.62867396353346
 30
0.0
 10
214.214613199218
 20
66.74571144264607
 30
0.0
 10
214.2180184725462
 20
66.8488515605427
 30
0.0
 10
214.2203259181859
 20
66.91874028675458
 30
0.0
  0
LINE
  5
98
330
1F
100
AcDbEntity
  8
0
  6
Continuous
 62
     7
370
    15
100
AcDbLine
 10
216.2539079718
 20
66.0328907716
 30
0.0
 11
223.3560620954
 21
62.2787088885
 31
0.0
  0
LINE
  5
99
330
1F
100
AcDbEntity
  8
0
  6
Continuous
 62
     7
370
    15
100
AcDbLine
 10
223.3560620954
 20
71.561094321
 30
0.0
 11
216.2539079718
 21
67.8069124379
 31
0.0
  0
ARC
  5
9A
330
1F
100
AcDbEntity
  8
0
  6
Continuous
 62
     7
370
    15
100
AcDbCircle
 10
223.8107957096
 20
70.7022456098
 30
0.0
 40
0.9718043880199336
100
AcDbArc
 50
62.1001756221
 51
117.8998243779
  0
LINE
  5
9B
330
1F
100
AcDbEntity
  8
0
  6
Continuous
 62
     7
370
    15
100
AcDbLine
 10
231.3676834474
 20
67.8069124379
 30
0.0
 11
224.2655293239
 21
71.561094321
 31
0.0
  0
ARC
  5
9C
330
1F
100
AcDbEntity
  8
0
  6
Continuous
 62
     7
370
    15
100
AcDbCircle
 10
230.8920521073
 20
66.9199016046
 30
0.0
 40
1.006485663199414
100
AcDbArc
 50
298.2010186666
 51
61.7989813402
  0
LINE
  5
9D
330
1F
100
AcDbEntity
  8
0
  6
Continuous
 62
     7
370
    15
100
AcDbLine
 10
224.2655293239
 20
62.2787088885
 30
0.0
 11
231.3676834475
 21
66.0328907713
 31
0.0
  0
ARC
  5
9E
330
1F
100
AcDbEntity
  8
0
  6
Continuous
 62
     7
370
    15
100
AcDbCircle
 10
223.8107957096
 20
63.1375575996
 30
0.0
 40
0.9718043880201087
100
AcDbArc
 50
242.1001756221
 51
297.8998243779
  0
CIRCLE
  5
9F
330
1F
100
AcDbEntity
  8
0
  6
Continuous
 62
     7
370
    15
100
AcDbCircle
 10
223.794359826
 20
66.891893391
 30
0.0
 40
2.554414306198378
  0
ARC
  5
A0
330
1F
100
AcDbEntity
  8
0
  6
Continuous
 62
     7
370
    15
100
AcDbCircle
 10
222.694410547
 20
66.9582913536
 30
0.0
 40
2.543691747623985
100
AcDbArc
 50
27.1462291322
 51
77.1653238865
  0
SPLINE
  5
A1
330
1F
100
AcDbEntity
  8
0
  6
Continuous
 62
     7
370
    15
100
AcDbSpline
210
0.0
220
0.0
230
1.0
 70
     8
 71
     3
 72
    11
 73
     7
 74
     0
 42
0.00000001
 43
0.00000001
 12
1.0
 22
0.0
 32
0.0
 13
1.0
 23
0.0
 33
0.0
 40
0.0
 40
0.0
 40
0.0
 40
0.0
 40
0.3280455501580001
 40
0.655702817371191
 40
0.9906967996087607
 40
0.9999999999999999
 40
0.9999999999999999
 40
0.9999999999999999
 40
0.9999999999999999
 10
223.7293735468475
 20
60.69917034682458
 30
0.0
 10
223.7243243590809
 20
60.77359874946413
 30
0.0
 10
223.7142319598929
 20
60.92236745941825
 30
0.0
 10
223.7164138507394
 20
61.16744694229155
 30
0.0
 10
223.7262543375666
 20
61.32197726140453
 30
0.0
 10
223.7334294462549
 20
61.39401845168184
 30
0.0
 10
223.7336233237459
 20
61.39596506543121
 30
0.0
  0
LINE
  5
A2
330
1F
100
AcDbEntity
  8
0
  6
Continuous
 62
     7
370
    15
100
AcDbLine
 10
234.2171030456
 20
66.9199016047
 30
0.0
 11
236.4627336429
 21
66.9199016047
 31
0.0
  0
LINE
  5
A3
330
1F
100
AcDbEntity
  8
0
  6
Continuous
 62
     7
370
    15
100
AcDbLine
 10
236.4627336429
 20
66.9199016047
 30
0.0
 11
236.6736296287
 21
66.5828374881
 31
0.0
  0
LINE
  5
A4
330
1F
100
AcDbEntity
  8
0
  6
Continuous
 62
     7
370
    15
100
AcDbLine
 10
223.7726984972
 20
60.2119790209
 30
0.0
 11
223.9835944831
 21
59.8749149043
 31
0.0
  0
LINE
  5
A5
330
1F
100
AcDbEntity
  8
0
  6
Continuous
 62
     7
370
    15
100
AcDbLine
 10
233.6272678545
 20
66.6081161169
 30
0.0
 11
234.2171030456
 21
66.9199016047
 31
0.0
  0
SPLINE
  5
A6
330
1F
100
AcDbEntity
  8
0
  6
Continuous
 62
     7
370
    15
100
AcDbSpline
210
0.0
220
0.0
230
1.0
 70
     8
 71
     3
 72
    11
 73
     7
 74
     0
 42
0.00000001
 43
0.00000001
 12
1.0
 22
0.0
 32
0.0
 13
1.0
 23
0.0
 33
0.0
 40
0.0
 40
0.0
 40
0.0
 40
0.0
 40
0.3280455501580118
 40
0.6557028173712005
 40
0.9906967996087764
 40
1.0
 40
1.0
 40
1.0
 40
1.0
 10
223.7293735468475
 20
73.14063286264249
 30
0.0
 10
223.7243243590809
 20
73.06620446000295
 30
0.0
 10
223.714231959893
 20
72.91743575004884
 30
0.0
 10
223.7164138507391
 20
72.67235626717554
 30
0.0
 10
223.7262543375672
 20
72.51782594806251
 30
0.0
 10
223.7334294462549
 20
72.44578475778525
 30
0.0
 10
223.7336233237459
 20
72.4438381440359
 30
0.0
  0
LINE
  5
A7
330
1F
100
AcDbEntity
  8
0
  6
Continuous
 62
     7
370
    15
100
AcDbLine
 10
223.7726984972
 20
73.6278241886
 30
0.0
 11
223.9835944829
 21
73.9648883049
 31
0.0
  0
LINE
  5
A8
330
1F
100
AcDbEntity
  8
0
  6
Continuous
 62
     7
370
    15
100
AcDbLine
 10
236.4627336429
 20
66.9199016047
 30
0.0
 11
236.6736296287
 21
67.2569657213
 31
0.0
  0
LINE
  5
A9
330
1F
100
AcDbEntity
  8
0
  6
Continuous
 62
     7
370
    15
100
AcDbLine
 10
234.2171030456
 20
66.9199016047
 30
0.0
 11
233.6272678545
 21
67.2316870926
 31
0.0
  0
ARC
  5
AA
330
1F
100
AcDbEntity
  8
0
  6
Continuous
 62
     7
370
    15
100
AcDbCircle
 10
222.7082587173
 20
60.2011178653
 30
0.0
 40
0.3891388657726166
100
AcDbArc
 50
242.1112110269
 51
269.9810158279
  0
ARC
  5
AB
330
1F
100
AcDbEntity
  8
0
  6
Continuous
 62
     7
370
    15
100
AcDbCircle
 10
222.7082587173
 20
73.6386853442
 30
0.0
 40
0.3891388657718461
100
AcDbArc
 50
90.0189841721
 51
117.8887889731
  0
LINE
  5
AC
330
1F
100
AcDbEntity
  8
0
  6
Continuous
 62
     7
370
    15
100
AcDbLine
 10
233.1234284168
 20
66.9187402868
 30
0.0
 11
233.1234284168
 21
66.9210629227
 31
0.0
  0
SPLINE
  5
AD
330
1F
100
AcDbEntity
  8
0
  6
Continuous
 62
     7
370
    15
100
AcDbSpline
210
0.0
220
0.0
230
1.0
 70
     8
 71
     3
 72
    14
 73
    10
 74
     0
 42
0.00000001
 43
0.00000001
 12
1.0
 22
0.0
 32
0.0
 13
1.0
 23
0.0
 33
0.0
 40
0.0
 40
0.0
 40
0.0
 40
0.0
 40
0.2234968253974141
 40
0.3567622963774722
 40
0.453121256234159
 40
0.5344619041500507
 40
0.6157317558035351
 40
0.7396161778922089
 40
0.9999999999999999
 40
0.9999999999999999
 40
0.9999999999999999
 40
0.9999999999999999
 10
233.6272678545272
 20
67.23168709258091
 30
0.0
 10
233.5738872373769
 20
67.25700245350211
 30
0.0
 10
233.4886771162814
 20
67.29741272009005
 30
0.0
 10
233.3694804059903
 20
67.31515173762543
 30
0.0
 10
233.2874640672109
 20
67.30296096453318
 30
0.0
 10
233.2265203319888
 20
67.26933175392793
 30
0.0
 10
233.1760449729229
 20
67.21112924593365
 30
0.0
 10
233.1291411357908
 20
67.09409176682104
 30
0.0
 10
233.1257358624625
 20
66.99095164892441
 30
0.0
 10
233.1234284168228
 20
66.92106292271251
 30
0.0
  0
SPLINE
  5
AE
330
1F
100
AcDbEntity
  8
0
  6
Continuous
 62
     7
370
    15
100
AcDbSpline
210
0.0
220
0.0
230
1.0
 70
     8
 71
     3
 72
    14
 73
    10
 74
     0
 42
0.00000001
 43
0.00000001
 12
1.0
 22
0.0
 32
0.0
 13
1.0
 23
0.0
 33
0.0
 40
0.0
 40
0.0
 40
0.0
 40
0.0
 40
0.2210591904779648
 40
0.3460797326519294
 40
0.4396016244131447
 40
0.5338897453199714
 40
0.6146561933587544
 40
0.7517253237593721
 40
1.0
 40
1.0
 40
1.0
 40
1.0
 10
233.1234284168228
 20
66.91874028675463
 30
0.0
 10
233.1252851259407
 20
66.85964107029196
 30
0.0
 10
233.1281919012426
 20
66.76711815374132
 30
0.0
 10
233.1631281908079
 20
66.65404658230345
 30
0.0
 10
233.2100043918448
 20
66.58394640993524
 30
0.0
 10
233.2704634569378
 20
66.54327982438143
 30
0.0
 10
233.3513489352985
 20
66.5248133797919
 30
0.0
 10
233.4754661705355
 20
66.53660973833243
 30
0.0
 10
233.5677864552877
 20
66.58009732724516
 30
0.0
 10
233.6272678545272
 20
66.60811611688628
 30
0.0
  0
ELLIPSE
  5
AF
330
1F
100
AcDbEntity
  8
0
  6
Continuous
 62
     7
370
    15
100
AcDbEllipse
 10
186.7102196646
 20
66.9199016047
 30
0.0
 11
0.0
 21
2.5
 31
0.0
210
0.0
220
0.0
230
1.0
 40
0.3086063289
 41
0.0
 42
6.283185307179586
  0
LINE
  5
B0
330
1F
100
AcDbEntity
  8
0
  6
Continuous
 62
     7
370
    15
100
AcDbLine
 10
187.9037019753
 20
41.3929945518
 30
0.0
 11
186.58019506
 21
40.2679883423
 31
0.0
  0
ELLIPSE
  5
B1
330
1F
100
AcDbEntity
  8
0
  6
Continuous
 62
     7
370
    15
100
AcDbEllipse
 10
191.0792329126
 20
66.9199016047
 30
0.0
 11
0.0
 21
31.49999999999997
 31
0.0
210
0.0
220
0.0
230
1.0
 40
0.2679491924
 41
0.562184930738726
 42
2.579407722851061
  0
LINE
  5
B2
330
1F
100
AcDbEntity
  8
0
  6
Continuous
 62
     7
370
    15
100
AcDbLine
 10
187.9037019753
 20
92.4468086577
 30
0.0
 11
186.58019506
 21
93.5718148671
 31
0.0
  0
SPLINE
  5
B3
330
1F
100
AcDbEntity
  8
0
  6
Continuous
 62
     7
370
    15
100
AcDbSpline
210
0.0
220
0.0
230
1.0
 70
     8
 71
     3
 72
    12
 73
     8
 74
     0
 42
0.00000001
 43
0.00000001
 12
1.0
 22
0.0
 32
0.0
 13
1.0
 23
0.0
 33
0.0
 40
0.0
 40
0.0
 40
0.0
 40
0.0
 40
0.5
 40
0.5
 40
0.75
 40
0.75
 40
1.0
 40
1.0
 40
1.0
 40
1.0
 10
146.9877615864125
 20
76.82927092541833
 30
0.0
 10
147.0184838283316
 20
76.71671512600912
 30
0.0
 10
147.0613210428668
 20
76.60395726626957
 30
0.0
 10
147.1607480670666
 20
76.4544163804732
 30
0.0
 10
147.2005002618832
 20
76.40712364876643
 30
0.0
 10
147.2985417187415
 20
76.333387355445
 30
0.0
 10
147.3580977743289
 20
76.30796803606918
 30
0.0
 10
147.4207742883047
 20
76.30796803606918
 30
0.0
  0
LINE
  5
B4
330
1F
100
AcDbEntity
  8
0
  6
Continuous
 62
     7
370
    15
100
AcDbLine
 10
147.4207742883
 20
76.3079680361
 30
0.0
 11
150.3652606612
 21
76.3079680361
 31
0.0
  0
SPLINE
  5
B5
330
1F
100
AcDbEntity
  8
0
  6
Continuous
 62
     7
370
    15
100
AcDbSpline
210
0.0
220
0.0
230
1.0
 70
     8
 71
     3
 72
    12
 73
     8
 74
     0
 42
0.00000001
 43
0.00000001
 12
1.0
 22
0.0
 32
0.0
 13
1.0
 23
0.0
 33
0.0
 40
0.0
 40
0.0
 40
0.0
 40
0.0
 40
0.2499999999999991
 40
0.2499999999999991
 40
0.4999999999999982
 40
0.4999999999999982
 40
1.0
 40
1.0
 40
1.0
 40
1.0
 10
150.3652606611718
 20
76.30796803606918
 30
0.0
 10
150.4283406996651
 20
76.30796803606918
 30
0.0
 10
150.4874893218465
 20
76.33333235528424
 30
0.0
 10
150.5859618719155
 20
76.40749721565713
 30
0.0
 10
150.6249984839002
 20
76.45401755621117
 30
0.0
 10
150.7248949506793
 20
76.60415989905641
 30
0.0
 10
150.767315831746
 20
76.71585310602852
 30
0.0
 10
150.7982733630639
 20
76.8292709254183
 30
0.0
  0
ELLIPSE
  5
B6
330
1F
100
AcDbEntity
  8
0
  6
Continuous
 62
     7
370
    15
100
AcDbEllipse
 10
134.5458632854
 20
66.9199016047
 30
0.0
 11
14.75368316065604
 21
31.09325491558116
 31
0.0
210
0.0
220
0.0
230
1.0
 40
0.3419987131
 41
5.193281737408618
 42
6.124043104552322
  0
SPLINE
  5
B7
330
1F
100
AcDbEntity
  8
0
  6
Continuous
 62
     7
370
    15
100
AcDbSpline
210
0.0
220
0.0
230
1.0
 70
     8
 71
     3
 72
    12
 73
     8
 74
     0
 42
0.00000001
 43
0.00000001
 12
1.0
 22
0.0
 32
0.0
 13
1.0
 23
0.0
 33
0.0
 40
0.0
 40
0.0
 40
0.0
 40
0.0
 40
0.5
 40
0.5
 40
0.75
 40
0.75
 40
1.0
 40
1.0
 40
1.0
 40
1.0
 10
150.798273363064
 20
96.82064406485041
 30
0.0
 10
150.7675511211448
 20
96.85794604780345
 30
0.0
 10
150.7247139066097
 20
96.89455787984984
 30
0.0
 10
150.6252868824099
 20
96.94232266313504
 30
0.0
 10
150.5855346875933
 20
96.95728017861742
 30
0.0
 10
150.487493230735
 20
96.98047012438656
 30
0.0
 10
150.4279371751476
 20
96.98839356360632
 30
0.0
 10
150.3652606611718
 20
96.98839356360632
 30
0.0
  0
LINE
  5
B8
330
1F
100
AcDbEntity
  8
0
  6
Continuous
 62
     7
370
    15
100
AcDbLine
 10
150.3652606612
 20
96.9883935636
 30
0.0
 11
147.4207742883
 21
96.9883935636
 31
0.0
  0
SPLINE
  5
B9
330
1F
100
AcDbEntity
  8
0
  6
Continuous
 62
     7
370
    15
100
AcDbSpline
210
0.0
220
0.0
230
1.0
 70
     8
 71
     3
 72
    12
 73
     8
 74
     0
 42
0.00000001
 43
0.00000001
 12
1.0
 22
0.0
 32
0.0
 13
1.0
 23
0.0
 33
0.0
 40
0.0
 40
0.0
 40
0.0
 40
0.0
 40
0.2499999999999986
 40
0.2499999999999986
 40
0.4999999999999971
 40
0.4999999999999971
 40
1.0
 40
1.0
 40
1.0
 40
1.0
 10
147.4207742883047
 20
96.98839356360631
 30
0.0
 10
147.3576942498113
 20
96.98839356360632
 30
0.0
 10
147.2985456276299
 20
96.98048763739382
 30
0.0
 10
147.2000730775609
 20
96.95716247595759
 30
0.0
 10
147.1610364655762
 20
96.9424496861259
 30
0.0
 10
147.0611399987971
 20
96.89449388539498
 30
0.0
 10
147.0187191177305
 20
96.85823172881491
 30
0.0
 10
146.9877615864125
 20
96.82064406485041
 30
0.0
  0
ELLIPSE
  5
BA
330
1F
100
AcDbEntity
  8
0
  6
Continuous
 62
     7
370
    15
100
AcDbEllipse
 10
163.2401716641
 20
66.9199016047
 30
0.0
 11
-14.75368316065604
 21
31.09325491558116
 31
0.0
210
0.0
220
0.0
230
1.0
 40
0.3419987131
 41
0.1591422026273034
 42
1.089903569770978
  0
SPLINE
  5
BB
330
1F
100
AcDbEntity
  8
0
  6
Continuous
 62
     7
370
    15
100
AcDbSpline
210
0.0
220
0.0
230
1.0
 70
     8
 71
     3
 72
    12
 73
     8
 74
     0
 42
0.00000001
 43
0.00000001
 12
1.0
 22
0.0
 32
0.0
 13
1.0
 23
0.0
 33
0.0
 40
0.0
 40
0.0
 40
0.0
 40
0.0
 40
0.5000000000000027
 40
0.5000000000000027
 40
0.7500000000000013
 40
0.7500000000000013
 40
1.0
 40
1.0
 40
1.0
 40
1.0
 10
146.9877615864124
 20
37.01915914461602
 30
0.0
 10
147.0189067843745
 20
36.98134362169582
 30
0.0
 10
147.061181050709
 20
36.94527676361224
 30
0.0
 10
147.1611265845343
 20
36.89731669860097
 30
0.0
 10
147.2008568892384
 20
36.88245572470332
 30
0.0
 10
147.2977449392446
 20
36.85950457857218
 30
0.0
 10
147.3578101809911
 20
36.85140964586014
 30
0.0
 10
147.4207742883047
 20
36.85140964586014
 30
0.0
  0
LINE
  5
BC
330
1F
100
AcDbEntity
  8
0
  6
Continuous
 62
     7
370
    15
100
AcDbLine
 10
147.4207742883
 20
36.8514096459
 30
0.0
 11
150.3652606612
 21
36.8514096459
 31
0.0
  0
SPLINE
  5
BD
330
1F
100
AcDbEntity
  8
0
  6
Continuous
 62
     7
370
    15
100
AcDbSpline
210
0.0
220
0.0
230
1.0
 70
     8
 71
     3
 72
    12
 73
     8
 74
     0
 42
0.00000001
 43
0.00000001
 12
1.0
 22
0.0
 32
0.0
 13
1.0
 23
0.0
 33
0.0
 40
0.0
 40
0.0
 40
0.0
 40
0.0
 40
0.2499999999999986
 40
0.2499999999999986
 40
0.4999999999999971
 40
0.4999999999999971
 40
1.0
 40
1.0
 40
1.0
 40
1.0
 10
150.3652606611718
 20
36.8514096458602
 30
0.0
 10
150.4283176160696
 20
36.8514096458602
 30
0.0
 10
150.4874477658151
 20
36.85930997693974
 30
0.0
 10
150.5858953163484
 20
36.88262072494479
 30
0.0
 10
150.6249275545365
 20
36.89732585122843
 30
0.0
 10
150.7248174389934
 20
36.94525937941506
 30
0.0
 10
150.7671164126028
 20
36.98132935217982
 30
0.0
 10
150.7982733630641
 20
37.01915914461604
 30
0.0
  0
ELLIPSE
  5
BE
330
1F
100
AcDbEntity
  8
0
  6
Continuous
 62
     7
370
    15
100
AcDbEllipse
 10
134.5458632854
 20
66.9199016047
 30
0.0
 11
-14.75368316065618
 21
31.09325491558114
 31
0.0
210
0.0
220
0.0
230
1.0
 40
0.3419987131
 41
3.300734856217122
 42
4.231496223360772
  0
SPLINE
  5
BF
330
1F
100
AcDbEntity
  8
0
  6
Continuous
 62
     7
370
    15
100
AcDbSpline
210
0.0
220
0.0
230
1.0
 70
     8
 71
     3
 72
    12
 73
     8
 74
     0
 42
0.00000001
 43
0.00000001
 12
1.0
 22
0.0
 32
0.0
 13
1.0
 23
0.0
 33
0.0
 40
0.0
 40
0.0
 40
0.0
 40
0.0
 40
0.5
 40
0.5
 40
0.75
 40
0.75
 40
1.0
 40
1.0
 40
1.0
 40
1.0
 10
150.798273363064
 20
57.01053228404789
 30
0.0
 10
150.7671281651019
 20
57.12463764991318
 30
0.0
 10
150.7248538987674
 20
57.23574397713194
 30
0.0
 10
150.6249083649421
 20
57.38590158456219
 30
0.0
 10
150.5851780602381
 20
57.43289427617954
 30
0.0
 10
150.4882900102318
 20
57.505869860718
 30
0.0
 10
150.4282247684854
 20
57.53183517339709
 30
0.0
 10
150.3652606611718
 20
57.5318351733971
 30
0.0
  0
LINE
  5
C0
330
1F
100
AcDbEntity
  8
0
  6
Continuous
 62
     7
370
    15
100
AcDbLine
 10
150.3652606612
 20
57.5318351734
 30
0.0
 11
147.4207742883
 21
57.5318351734
 31
0.0
  0
SPLINE
  5
C1
330
1F
100
AcDbEntity
  8
0
  6
Continuous
 62
     7
370
    15
100
AcDbSpline
210
0.0
220
0.0
230
1.0
 70
     8
 71
     3
 72
    12
 73
     8
 74
     0
 42
0.00000001
 43
0.00000001
 12
1.0
 22
0.0
 32
0.0
 13
1.0
 23
0.0
 33
0.0
 40
0.0
 40
0.0
 40
0.0
 40
0.0
 40
0.2499999999999977
 40
0.2499999999999977
 40
0.4999999999999953
 40
0.4999999999999953
 40
1.0
 40
1.0
 40
1.0
 40
1.0
 10
147.4207742883047
 20
57.53183517339701
 30
0.0
 10
147.3577173334069
 20
57.53183517339701
 30
0.0
 10
147.2985871836613
 20
57.50648882001623
 30
0.0
 10
147.200139633128
 20
57.43236943787675
 30
0.0
 10
147.16110739494
 20
57.38587292317878
 30
0.0
 10
147.061217510483
 20
57.23579841617022
 30
0.0
 10
147.0189185368737
 20
57.12468070705538
 30
0.0
 10
146.9877615864124
 20
57.0105322840479
 30
0.0
  0
ELLIPSE
  5
C2
330
1F
100
AcDbEntity
  8
0
  6
Continuous
 62
     7
370
    15
100
AcDbEllipse
 10
163.2401716641
 20
66.9199016047
 30
0.0
 11
14.75368316065618
 21
31.09325491558116
 31
0.0
210
0.0
220
0.0
230
1.0
 40
0.3419987131
 41
2.051689083818826
 42
2.982450450962502
  0
ELLIPSE
  5
C3
330
1F
100
AcDbEntity
  8
0
  6
Continuous
 62
     7
370
    15
100
AcDbEllipse
 10
235.6072109565
 20
66.9199016047
 30
0.0
 11
61.68428152047539
 21
31.41939029509028
 31
0.0
210
0.0
220
0.0
230
1.0
 40
0.0365099643
 41
3.213148651838471
 42
3.77533358257709
  0
ELLIPSE
  5
C4
330
1F
100
AcDbEntity
  8
0
  6
Continuous
 62
     7
370
    15
100
AcDbEllipse
 10
235.6072109565
 20
66.9199016047
 30
0.0
 11
61.68428152047489
 21
-31.41939029509004
 31
0.0
210
0.0
220
0.0
230
1.0
 40
0.0365099643
 41
2.507851724602759
 42
3.070036655341484
  0
SPLINE
  5
C5
330
1F
100
AcDbEntity
  8
0
  6
Continuous
 62
     7
370
    15
100
AcDbSpline
210
0.0
220
0.0
230
1.0
 70
     8
 71
     3
 72
    68
 73
    64
 74
     0
 42
0.00000001
 43
0.00000001
 12
1.0
 22
0.0
 32
0.0
 13
1.0
 23
0.0
 33
0.0
 40
-0.0625000000000002
 40
-0.0625000000000002
 40
0.0
 40
0.0
 40
0.03125
 40
0.03125
 40
0.0625
 40
0.0625
 40
0.09375
 40
0.09375
 40
0.125
 40
0.125
 40
0.15625
 40
0.15625
 40
0.1874999999999999
 40
0.1874999999999999
 40
0.2187499999999999
 40
0.2187499999999999
 40
0.2499999999999999
 40
0.2499999999999999
 40
0.2812499999999999
 40
0.2812499999999999
 40
0.3124999999999999
 40
0.3124999999999999
 40
0.3437499999999999
 40
0.3437499999999999
 40
0.3749999999999999
 40
0.3749999999999999
 40
0.4062499999999999
 40
0.4062499999999999
 40
0.4374999999999999
 40
0.4374999999999999
 40
0.4687499999999999
 40
0.4687499999999999
 40
0.4999999999999999
 40
0.4999999999999999
 40
0.5312499999999999
 40
0.5312499999999999
 40
0.5624999999999999
 40
0.5624999999999999
 40
0.5937499999999999
 40
0.5937499999999999
 40
0.6249999999999999
 40
0.6249999999999999
 40
0.6562499999999999
 40
0.6562499999999999
 40
0.6874999999999999
 40
0.6874999999999999
 40
0.7187499999999999
 40
0.7187499999999999
 40
0.7499999999999998
 40
0.7499999999999998
 40
0.7812499999999998
 40
0.7812499999999998
 40
0.8124999999999998
 40
0.8124999999999998
 40
0.8437499999999998
 40
0.8437499999999998
 40
0.8749999999999998
 40
0.8749999999999998
 40
0.9062499999999998
 40
0.9062499999999998
 40
0.9374999999999998
 40
0.9374999999999998
 40
1.0
 40
1.0
 40
1.03125
 40
1.03125
 10
170.8930174747382
 20
66.52327215180334
 30
0.0
 10
170.8930174747382
 20
67.11821633119831
 30
0.0
 10
170.9124881478385
 20
67.31319471200096
 30
0.0
 10
170.9887571739588
 20
67.69675850407187
 30
0.0
 10
171.0464892809731
 20
67.8873397176249
 30
0.0
 10
171.1971081919516
 20
68.25059029829012
 30
0.0
 10
171.2892616562619
 20
68.42285756912727
 30
0.0
 10
171.5069621645217
 20
68.74887974832725
 30
0.0
 10
171.633602565657
 20
68.90315536492412
 30
0.0
 10
171.9102212718461
 20
69.17971806331703
 30
0.0
 10
172.0611761888536
 20
69.30386044357537
 30
0.0
 10
172.3890642170821
 20
69.5231739379229
 30
0.0
 10
172.5635131862959
 20
69.61630389290767
 30
0.0
 10
172.9244447890442
 20
69.76595745541262
 30
0.0
 10
173.1135965270535
 20
69.8236041776781
 30
0.0
 10
173.5008912123112
 20
69.90071066271254
 30
0.0
 10
173.6956127568605
 20
69.91979442558721
 30
0.0
 10
174.0871509943753
 20
69.92000789215122
 30
0.0
 10
174.2860173909526
 20
69.90051266529589
 30
0.0
 10
174.6708576021787
 20
69.82394292066459
 30
0.0
 10
174.8579168535252
 20
69.76728982923792
 30
0.0
 10
175.2212615706805
 20
69.61701453040507
 30
0.0
 10
175.3968047937005
 20
69.52313154842014
 30
0.0
 10
175.7217862199397
 20
69.30606742398264
 30
0.0
 10
175.8732991184922
 20
69.18213659487193
 30
0.0
 10
176.1535032166025
 20
68.90217977643997
 30
0.0
 10
176.2776073165789
 20
68.75072109116175
 30
0.0
 10
176.4949156353384
 20
68.42598748128918
 30
0.0
 10
176.5889136362229
 20
68.25062228221847
 30
0.0
 10
176.7395603072949
 20
67.88730407393354
 30
0.0
 10
176.7963623374141
 20
67.70031200066519
 30
0.0
 10
176.8732463400569
 20
67.31573956151115
 30
0.0
 10
176.8929455623621
 20
67.1168318612292
 30
0.0
 10
176.8930889848333
 20
66.72516847669922
 30
0.0
 10
176.8741701258368
 20
66.53046053006824
 30
0.0
 10
176.7974781240991
 20
66.14334264618422
 30
0.0
 10
176.7399399564458
 20
65.95387151556444
 30
0.0
 10
176.5905754680947
 20
65.59273823027245
 30
0.0
 10
176.4976630825595
 20
65.41831871948386
 30
0.0
 10
176.2785629547078
 20
65.09011946835376
 30
0.0
 10
176.1545295955416
 20
64.9390411113199
 30
0.0
 10
175.8782262503517
 20
64.66220554810089
 30
0.0
 10
175.724077908854
 20
64.53544234751331
 30
0.0
 10
175.3982136702255
 20
64.31743879504374
 30
0.0
 10
175.2260526002345
 20
64.22515815301142
 30
0.0
 10
174.8630991235877
 20
64.07427926314087
 30
0.0
 10
174.6724574403686
 20
64.01633301171185
 30
0.0
 10
174.2889479350621
 20
63.93972102211919
 30
0.0
 10
174.0940548831702
 20
63.92009299719955
 30
0.0
 10
173.6977333706704
 20
63.91971297064359
 30
0.0
 10
173.5023705312615
 20
63.93902532577832
 30
0.0
 10
173.118769454153
 20
64.0149457655674
 30
0.0
 10
172.9282771621172
 20
64.07245131028526
 30
0.0
 10
172.5647111387163
 20
64.222810703812
 30
0.0
 10
172.3923517860206
 20
64.31482949649313
 30
0.0
 10
172.0662310373523
 20
64.53217266060919
 30
0.0
 10
171.9118065541517
 20
64.65869147304606
 30
0.0
 10
171.6349370242767
 20
64.93512437523376
 30
0.0
 10
171.5106872783054
 20
65.08595397892033
 30
0.0
 10
171.2911884103496
 20
65.41346654846191
 30
0.0
 10
171.1977906406435
 20
65.58801559556404
 30
0.0
 10
170.9728294059433
 20
66.12922230347023
 30
0.0
 10
170.8930174747382
 20
66.52327215180334
 30
0.0
 10
170.8930174747382
 20
67.11821633119831
 30
0.0
  0
LINE
  5
C6
330
1F
100
AcDbEntity
  8
0
  6
Continuous
 62
     7
370
    15
100
AcDbLine
 10
136.8930174747
 20
35.9199016047
 30
0.0
 11
136.8930174747
 21
97.9199016047
 31
0.0
  0
SPLINE
  5
C7
330
1F
100
AcDbEntity
  8
0
  6
Continuous
 62
     7
370
    15
100
AcDbSpline
210
0.0
220
0.0
230
1.0
 70
     8
 71
     3
 72
    12
 73
     8
 74
     0
 42
0.00000001
 43
0.00000001
 12
1.0
 22
0.0
 32
0.0
 13
1.0
 23
0.0
 33
0.0
 40
0.0
 40
0.0
 40
0.0
 40
0.0
 40
0.4999999999999996
 40
0.4999999999999996
 40
0.7499999999999997
 40
0.7499999999999997
 40
1.0
 40
1.0
 40
1.0
 40
1.0
 10
136.0765051882817
 20
45.06510790225743
 30
0.0
 10
136.1329416891889
 20
45.06369002091567
 30
0.0
 10
136.2020263198777
 20
45.06212568466737
 30
0.0
 10
136.3208285915956
 20
45.05918149269293
 30
0.0
 10
136.3610138670657
 20
45.05814328959554
 30
0.0
 10
136.4343949144695
 20
45.05620939438091
 30
0.0
 10
136.4678044782122
 20
45.05531450709211
 30
0.0
 10
136.4980405858686
 20
45.05453071681976
 30
0.0
  0
SPLINE
  5
C8
330
1F
100
AcDbEntity
  8
0
  6
Continuous
 62
     7
370
    15
100
AcDbSpline
210
0.0
220
0.0
230
1.0
 70
     8
 71
     3
 72
    16
 73
    12
 74
     0
 42
0.00000001
 43
0.00000001
 12
1.0
 22
0.0
 32
0.0
 13
1.0
 23
0.0
 33
0.0
 40
0.0
 40
0.0
 40
0.0
 40
0.0
 40
0.0625000000000005
 40
0.0625000000000005
 40
0.125000000000001
 40
0.125000000000001
 40
0.2500000000000035
 40
0.2500000000000035
 40
0.5000000000000037
 40
0.5000000000000037
 40
1.0
 40
1.0
 40
1.0
 40
1.0
 10
136.4980405858314
 20
45.05453071684402
 30
0.0
 10
136.5096209934193
 20
45.05423052573266
 30
0.0
 10
136.5229305201806
 20
45.05290277747366
 30
0.0
 10
136.5522319502668
 20
45.04620410269865
 30
0.0
 10
136.567046050151
 20
45.04084591959298
 30
0.0
 10
136.6028744518539
 20
45.02380027042562
 30
0.0
 10
136.6169940762169
 20
45.01233773264989
 30
0.0
 10
136.6514982203054
 20
44.98077440727765
 30
0.0
 10
136.66260277101
 20
44.96287710823238
 30
0.0
 10
136.6887789482262
 20
44.91271569061814
 30
0.0
 10
136.6930174747382
 20
44.88497127842157
 30
0.0
 10
136.6930174747382
 20
44.86030711649202
 30
0.0
  0
LINE
  5
C9
330
1F
100
AcDbEntity
  8
0
  6
Continuous
 62
     7
370
    15
100
AcDbLine
 10
136.6930174747
 20
59.898014279
 30
0.0
 11
136.6930174747
 21
44.3800813259
 31
0.0
  0
SPLINE
  5
CA
330
1F
100
AcDbEntity
  8
0
  6
Continuous
 62
     7
370
    15
100
AcDbSpline
210
0.0
220
0.0
230
1.0
 70
     8
 71
     3
 72
    16
 73
    12
 74
     0
 42
0.00000001
 43
0.00000001
 12
1.0
 22
0.0
 32
0.0
 13
1.0
 23
0.0
 33
0.0
 40
0.0
 40
0.0
 40
0.0
 40
0.0
 40
0.5000000000000038
 40
0.5000000000000038
 40
0.750000000000004
 40
0.750000000000004
 40
0.8750000000000016
 40
0.8750000000000016
 40
0.9375000000000009
 40
0.9375000000000009
 40
1.0
 40
1.0
 40
1.0
 40
1.0
 10
136.6930174747382
 20
59.89801427898323
 30
0.0
 10
136.6930174747382
 20
60.0117068231111
 30
0.0
 10
136.6888711996603
 20
60.1260269844606
 30
0.0
 10
136.6629056042668
 20
60.29907527495768
 30
0.0
 10
136.6514446988894
 20
60.35825078211941
 30
0.0
 10
136.617132961115
 20
60.44137390158756
 30
0.0
 10
136.6031082251855
 20
60.46949521768825
 30
0.0
 10
136.5670852621516
 20
60.49811103166571
 30
0.0
 10
136.5523307530619
 20
60.50390407956752
 30
0.0
 10
136.522978591915
 20
60.50231065363048
 30
0.0
 10
136.5096387174109
 20
60.49581425030667
 30
0.0
 10
136.4980405858626
 20
60.48729850410353
 30
0.0
  0
SPLINE
  5
CB
330
1F
100
AcDbEntity
  8
0
  6
Continuous
 62
     7
370
    15
100
AcDbSpline
210
0.0
220
0.0
230
1.0
 70
     8
 71
     3
 72
    12
 73
     8
 74
     0
 42
0.00000001
 43
0.00000001
 12
1.0
 22
0.0
 32
0.0
 13
1.0
 23
0.0
 33
0.0
 40
0.0
 40
0.0
 40
0.0
 40
0.0
 40
0.2499999999999998
 40
0.2499999999999998
 40
0.4999999999999999
 40
0.4999999999999999
 40
1.0
 40
1.0
 40
1.0
 40
1.0
 10
136.4980405858696
 20
60.48729850409435
 30
0.0
 10
136.467842144429
 20
60.46512577204929
 30
0.0
 10
136.434474789093
 20
60.44604611617208
 30
0.0
 10
136.3613195132631
 20
60.42087307172939
 30
0.0
 10
136.3210668142392
 20
60.41531653531259
 30
0.0
 10
136.2033380709643
 20
60.42622834629934
 30
0.0
 10
136.1328796229054
 20
60.46816410171016
 30
0.0
 10
136.0765051882871
 20
60.51737588409171
 30
0.0
  0
SPLINE
  5
CC
330
1F
100
AcDbEntity
  8
0
  6
Continuous
 62
     7
370
    15
100
AcDbSpline
210
0.0
220
0.0
230
1.0
 70
     8
 71
     3
 72
    12
 73
     8
 74
     0
 42
0.00000001
 43
0.00000001
 12
1.0
 22
0.0
 32
0.0
 13
1.0
 23
0.0
 33
0.0
 40
0.0
 40
0.0
 40
0.0
 40
0.0
 40
0.5000000000000009
 40
0.5000000000000009
 40
0.7500000000000006
 40
0.7500000000000006
 40
1.0
 40
1.0
 40
1.0
 40
1.0
 10
135.5716971311786
 20
61.73372727597223
 30
0.0
 10
135.615447483063
 20
61.51328029099769
 30
0.0
 10
135.6683376341875
 20
61.29773530119214
 30
0.0
 10
135.7799491773292
 20
60.98532122462021
 30
0.0
 10
135.8225085212327
 20
60.88324174900431
 30
0.0
 10
135.9274857565701
 20
60.68880173636255
 30
0.0
 10
135.9890529996647
 20
60.59371683729889
 30
0.0
 10
136.0765051882871
 20
60.5173758840917
 30
0.0
  0
SPLINE
  5
CD
330
1F
100
AcDbEntity
  8
0
  6
Continuous
 62
     7
370
    15
100
AcDbSpline
210
0.0
220
0.0
230
1.0
 70
     8
 71
     3
 72
    12
 73
     8
 74
     0
 42
0.00000001
 43
0.00000001
 12
1.0
 22
0.0
 32
0.0
 13
1.0
 23
0.0
 33
0.0
 40
0.0
 40
0.0
 40
0.0
 40
0.0
 40
0.2500000000000007
 40
0.2500000000000007
 40
0.5000000000000014
 40
0.5000000000000014
 40
1.0
 40
1.0
 40
1.0
 40
1.0
 10
136.076505188287
 20
73.32242732537483
 30
0.0
 10
135.9880117807191
 20
73.24517744526653
 30
0.0
 10
135.9279537399532
 20
73.15185812137733
 30
0.0
 10
135.8221054669707
 20
72.95582506840788
 30
0.0
 10
135.7795719456932
 20
72.85349871019615
 30
0.0
 10
135.6684206388695
 20
72.54215430442027
 30
0.0
 10
135.6154897818218
 20
72.32673605124226
 30
0.0
 10
135.5716971311786
 20
72.1060759334944
 30
0.0
  0
SPLINE
  5
CE
330
1F
100
AcDbEntity
  8
0
  6
Continuous
 62
     7
370
    15
100
AcDbSpline
210
0.0
220
0.0
230
1.0
 70
     8
 71
     3
 72
    12
 73
     8
 74
     0
 42
0.00000001
 43
0.00000001
 12
1.0
 22
0.0
 32
0.0
 13
1.0
 23
0.0
 33
0.0
 40
0.0
 40
0.0
 40
0.0
 40
0.0
 40
0.4999999999999998
 40
0.4999999999999998
 40
0.7499999999999999
 40
0.7499999999999999
 40
1.0
 40
1.0
 40
1.0
 40
1.0
 10
136.076505188287
 20
73.32242732537482
 30
0.0
 10
136.1328137365826
 20
73.37158159261867
 30
0.0
 10
136.2030883973007
 20
73.41353891122237
 30
0.0
 10
136.3211263116243
 20
73.42449858875482
 30
0.0
 10
136.3613025524782
 20
73.41898983050747
 30
0.0
 10
136.4352596471562
 20
73.39343260171852
 30
0.0
 10
136.4678760348676
 20
73.3746525538792
 30
0.0
 10
136.4980405858634
 20
73.35250470536249
 30
0.0
  0
SPLINE
  5
CF
330
1F
100
AcDbEntity
  8
0
  6
Continuous
 62
     7
370
    15
100
AcDbSpline
210
0.0
220
0.0
230
1.0
 70
     8
 71
     3
 72
    16
 73
    12
 74
     0
 42
0.00000001
 43
0.00000001
 12
1.0
 22
0.0
 32
0.0
 13
1.0
 23
0.0
 33
0.0
 40
0.0
 40
0.0
 40
0.0
 40
0.0
 40
0.0625000000000011
 40
0.0625000000000011
 40
0.1250000000000022
 40
0.1250000000000022
 40
0.2500000000000021
 40
0.2500000000000021
 40
0.5000000000000037
 40
0.5000000000000037
 40
1.0
 40
1.0
 40
1.0
 40
1.0
 10
136.4980405858316
 20
73.35250470530796
 30
0.0
 10
136.509653485671
 20
73.3439781157127
 30
0.0
 10
136.5230046701034
 20
73.33747785417994
 30
0.0
 10
136.5524045097225
 20
73.33590845706239
 30
0.0
 10
136.5672452342779
 20
73.341791847693
 30
0.0
 10
136.6030784422465
 20
73.37033948374352
 30
0.0
 10
136.6171916500681
 20
73.39850650304933
 30
0.0
 10
136.6516830212869
 20
73.48226076147127
 30
0.0
 10
136.6627670923973
 20
73.5399741750927
 30
0.0
 10
136.6888899101934
 20
73.71356471173856
 30
0.0
 10
136.6930174747382
 20
73.8285927643805
 30
0.0
 10
136.6930174747382
 20
73.94178893048336
 30
0.0
  0
LINE
  5
D0
330
1F
100
AcDbEntity
  8
0
  6
Continuous
 62
     7
370
    15
100
AcDbLine
 10
136.6930174747
 20
89.4597218836
 30
0.0
 11
136.6930174747
 21
73.9417889305
 31
0.0
  0
SPLINE
  5
D1
330
1F
100
AcDbEntity
  8
0
  6
Continuous
 62
     7
370
    15
100
AcDbSpline
210
0.0
220
0.0
230
1.0
 70
     8
 71
     3
 72
    16
 73
    12
 74
     0
 42
0.00000001
 43
0.00000001
 12
1.0
 22
0.0
 32
0.0
 13
1.0
 23
0.0
 33
0.0
 40
0.0
 40
0.0
 40
0.0
 40
0.0
 40
0.5000000000000024
 40
0.5000000000000024
 40
0.7500000000000019
 40
0.7500000000000019
 40
0.875
 40
0.875
 40
0.9375
 40
0.9375
 40
1.0
 40
1.0
 40
1.0
 40
1.0
 10
136.6930174747382
 20
88.97949609297456
 30
0.0
 10
136.6930174747382
 20
88.95482493693162
 30
0.0
 10
136.6888517762782
 20
88.92724310554038
 30
0.0
 10
136.6625934479533
 20
88.87690023471704
 30
0.0
 10
136.6510896662157
 20
88.85861073665515
 30
0.0
 10
136.6169589068691
 20
88.82745570561812
 30
0.0
 10
136.6025370201984
 20
88.81581633040638
 30
0.0
 10
136.5669700517606
 20
88.79893430447532
 30
0.0
 10
136.552018283466
 20
88.79354520066767
 30
0.0
 10
136.5230144651062
 20
88.78692470472318
 30
0.0
 10
136.509599111097
 20
88.78557211651672
 30
0.0
 10
136.4980405858604
 20
88.78527249264512
 30
0.0
  0
SPLINE
  5
D2
330
1F
100
AcDbEntity
  8
0
  6
Continuous
 62
     7
370
    15
100
AcDbSpline
210
0.0
220
0.0
230
1.0
 70
     8
 71
     3
 72
    12
 73
     8
 74
     0
 42
0.00000001
 43
0.00000001
 12
1.0
 22
0.0
 32
0.0
 13
1.0
 23
0.0
 33
0.0
 40
0.0
 40
0.0
 40
0.0
 40
0.0
 40
0.2500000000000002
 40
0.2500000000000002
 40
0.5000000000000003
 40
0.5000000000000003
 40
1.0
 40
1.0
 40
1.0
 40
1.0
 10
136.4980405858696
 20
88.78527249264687
 30
0.0
 10
136.46785280932
 20
88.78448995522928
 30
0.0
 10
136.4344990052283
 20
88.78359662341076
 30
0.0
 10
136.3613728020324
 20
88.78166931460717
 30
0.0
 10
136.3211375990082
 20
88.78062978339452
 30
0.0
 10
136.2034459688751
 20
88.77771190004725
 30
0.0
 10
136.1330652957151
 20
88.77611629397704
 30
0.0
 10
136.0765051882844
 20
88.77469530720916
 30
0.0
  0
SPLINE
  5
D3
330
1F
100
AcDbEntity
  8
0
  6
Continuous
 62
     7
370
    15
100
AcDbSpline
210
0.0
220
0.0
230
1.0
 70
     8
 71
     3
 72
    16
 73
    12
 74
     0
 42
0.00000001
 43
0.00000001
 12
1.0
 22
0.0
 32
0.0
 13
1.0
 23
0.0
 33
0.0
 40
0.0
 40
0.0
 40
0.0
 40
0.0
 40
0.2500000000000002
 40
0.2500000000000002
 40
0.3750000000000002
 40
0.3750000000000002
 40
0.5000000000000002
 40
0.5000000000000002
 40
0.7500000000000002
 40
0.7500000000000002
 40
1.0
 40
1.0
 40
1.0
 40
1.0
 10
135.5716971311786
 20
72.1060759334944
 30
0.0
 10
135.4104646536941
 20
71.29366615824756
 30
0.0
 10
135.2899848140545
 20
70.45358786386281
 30
0.0
 10
135.1676042967411
 20
69.15229281450003
 30
0.0
 10
135.1366266363437
 20
68.71161177891527
 30
0.0
 10
135.0950128987157
 20
67.81577213798413
 30
0.0
 10
135.0847769857829
 20
67.36911400678167
 30
0.0
 10
135.0845885887268
 20
66.03380404964176
 30
0.0
 10
135.1247332913644
 20
65.14930867633424
 30
0.0
 10
135.288887046304
 20
63.39205878830823
 30
0.0
 10
135.4104386967136
 20
62.5462678418951
 30
0.0
 10
135.5716971311786
 20
61.73372727597223
 30
0.0
  0
LINE
  5
D4
330
1F
100
AcDbEntity
  8
0
  6
Continuous
 62
     7
370
    15
100
AcDbLine
 10
134.6930174747
 20
73.4050798664
 30
0.0
 11
134.6930174747
 21
60.434723343
 31
0.0
  0
LINE
  5
D5
330
1F
100
AcDbEntity
  8
0
  6
Continuous
 62
     7
370
    15
100
AcDbLine
 10
100.3930174747
 20
72.9742121723
 30
0.0
 11
100.3930174747
 21
60.8655910372
 31
0.0
  0
LINE
  5
D6
330
1F
100
AcDbEntity
  8
0
  6
Continuous
 62
     7
370
    15
100
AcDbLine
 10
98.8930174747
 20
72.5411994704
 30
0.0
 11
98.8930174747
 21
61.2986037391
 31
0.0
  0
LINE
  5
D7
330
1F
100
AcDbEntity
  8
0
  6
Continuous
 62
     7
370
    15
100
AcDbLine
 10
134.6930174747
 20
73.4050798664
 30
0.0
 11
134.6930174747
 21
88.9400003893
 31
0.0
  0
ARC
  5
D8
330
1F
100
AcDbEntity
  8
0
  6
Continuous
 62
     7
370
    15
100
AcDbCircle
 10
134.8929543857
 20
88.9450235004
 30
0.0
 40
0.2000000000000201
100
AcDbArc
 50
181.4391666667
 51
271.4391666667
  0
LINE
  5
D9
330
1F
100
AcDbEntity
  8
0
  6
Continuous
 62
     7
370
    15
100
AcDbLine
 10
100.3930174747
 20
72.9742121723
 30
0.0
 11
100.3930174747
 21
88.078265001
 31
0.0
  0
LINE
  5
DA
330
1F
100
AcDbEntity
  8
0
  6
Continuous
 62
     7
370
    15
100
AcDbLine
 10
100.3930174747
 20
88.078265001
 30
0.0
 11
134.6930174747
 21
88.9400003893
 31
0.0
  0
LINE
  5
DB
330
1F
100
AcDbEntity
  8
0
  6
Continuous
 62
     7
370
    15
100
AcDbLine
 10
100.3930174747
 20
45.7615382084
 30
0.0
 11
100.3930174747
 21
60.8655910372
 31
0.0
  0
LINE
  5
DC
330
1F
100
AcDbEntity
  8
0
  6
Continuous
 62
     7
370
    15
100
AcDbLine
 10
134.6930174747
 20
44.8998028202
 30
0.0
 11
134.6930174747
 21
60.434723343
 31
0.0
  0
LINE
  5
DD
330
1F
100
AcDbEntity
  8
0
  6
Continuous
 62
     7
370
    15
100
AcDbLine
 10
100.3930174747
 20
45.7615382084
 30
0.0
 11
134.6930174747
 21
44.8998028202
 31
0.0
  0
ARC
  5
DE
330
1F
100
AcDbEntity
  8
0
  6
Continuous
 62
     7
370
    15
100
AcDbCircle
 10
134.8929543857
 20
44.894779709
 30
0.0
 40
0.1999999999999789
100
AcDbArc
 50
88.5608333333
 51
178.5608333333
  0
LINE
  5
DF
330
1F
100
AcDbEntity
  8
0
  6
Continuous
 62
     7
370
    15
100
AcDbLine
 10
134.8979774968
 20
88.7450865895
 30
0.0
 11
136.0765051883
 21
88.7746953072
 31
0.0
  0
LINE
  5
E0
330
1F
100
AcDbEntity
  8
0
  6
Continuous
 62
     7
370
    15
100
AcDbLine
 10
134.8979774968
 20
45.09471662
 30
0.0
 11
136.0765051883
 21
45.0651079023
 31
0.0
  0
LINE
  5
E1
330
1F
100
AcDbEntity
  8
0
  6
Continuous
 62
     7
370
    15
100
AcDbLine
 10
98.8930174747
 20
87.2122395972
 30
0.0
 11
100.3930174747
 21
88.078265001
 31
0.0
  0
LINE
  5
E2
330
1F
100
AcDbEntity
  8
0
  6
Continuous
 62
     7
370
    15
100
AcDbLine
 10
98.8930174747
 20
72.5411994704
 30
0.0
 11
98.8930174747
 21
87.2122395972
 31
0.0
  0
LINE
  5
E3
330
1F
100
AcDbEntity
  8
0
  6
Continuous
 62
     7
370
    15
100
AcDbLine
 10
98.8930174747
 20
46.6275636122
 30
0.0
 11
100.3930174747
 21
45.7615382084
 31
0.0
  0
LINE
  5
E4
330
1F
100
AcDbEntity
  8
0
  6
Continuous
 62
     7
370
    15
100
AcDbLine
 10
98.8930174747
 20
46.6275636122
 30
0.0
 11
98.8930174747
 21
61.2986037391
 31
0.0
  0
ELLIPSE
  5
E5
330
1F
100
AcDbEntity
  8
0
  6
Continuous
 62
     7
370
    15
100
AcDbEllipse
 10
193.6992569331
 20
44.2237583813
 30
0.0
 11
5.995922419881709
 21
3.093852800366499
 31
0.0
210
0.0
220
0.0
230
1.0
 40
0.0714855773
 41
1.70845992393938
 42
2.84292393773569
  0
ELLIPSE
  5
E6
330
1F
100
AcDbEntity
  8
0
  6
Continuous
 62
     7
370
    15
100
AcDbEllipse
 10
193.6992569331
 20
89.6160448282
 30
0.0
 11
5.995922419881708
 21
-3.093852800366506
 31
0.0
210
0.0
220
0.0
230
1.0
 40
0.0714855773
 41
3.440261369444086
 42
4.574725383240207
  0
LINE
  5
E7
330
1F
100
AcDbEntity
  8
0
  6
Continuous
 62
     7
370
    15
100
AcDbLine
 10
214.6926539562
 20
69.2874036932
 30
0.0
 11
211.9474516995
 21
70.7385111175
 31
0.0
  0
ARC
  5
E8
330
1F
100
AcDbEntity
  8
0
  6
Continuous
 62
     7
370
    15
100
AcDbCircle
 10
211.0075356817
 20
68.8680858937
 30
0.0
 40
2.093306627883834
100
AcDbArc
 50
63.3198031748
 51
242.3955369036
  0
LINE
  5
E9
330
1F
100
AcDbEntity
  8
0
  6
Continuous
 62
     7
370
    15
100
AcDbLine
 10
210.0375705196
 20
67.0130656182
 30
0.0
 11
222.9038531681
 21
60.2119790209
 31
0.0
  0
LINE
  5
EA
330
1F
100
AcDbEntity
  8
0
  6
Continuous
 62
     7
370
    15
100
AcDbLine
 10
222.9038531681
 20
73.6278241886
 30
0.0
 11
214.6926539562
 21
69.2874036932
 31
0.0
  0
CIRCLE
  5
EB
330
1F
100
AcDbEntity
  8
0
  6
Continuous
 62
     7
370
    15
100
AcDbCircle
 10
209.5986768311
 20
60.9578681915
 30
0.0
 40
3.482110124198695
  0
LINE
  5
EC
330
1F
100
AcDbEntity
  8
0
  6
Continuous
 62
     7
370
    15
100
AcDbLine
 10
222.9038531681
 20
60.2119790209
 30
0.0
 11
192.6573678671
 21
44.2237583813
 31
0.0
  0
LINE
  5
ED
330
1F
100
AcDbEntity
  8
0
  6
Continuous
 62
     7
370
    15
100
AcDbLine
 10
222.9038531681
 20
73.6278241886
 30
0.0
 11
192.6573678671
 21
89.6160448282
 31
0.0
  0
LINE
  5
EE
330
1F
100
AcDbEntity
  8
0
  6
Continuous
 62
     7
370
    15
100
AcDbLine
 10
210.3464155013
 20
70.7385111175
 30
0.0
 11
210.1919930105
 21
70.8120855095
 31
0.0
  0
LINE
  5
EF
330
1F
100
AcDbEntity
  8
0
  6
Continuous
 62
     7
370
    15
100
AcDbLine
 10
213.0916177581
 20
69.2874036932
 30
0.0
 11
214.6926539562
 21
69.2874036932
 31
0.0
  0
LINE
  5
F0
330
1F
100
AcDbEntity
  8
0
  6
Continuous
 62
     7
370
    15
100
AcDbLine
 10
213.0916177581
 20
69.2874036932
 30
0.0
 11
210.3464155013
 21
70.7385111175
 31
0.0
  0
ARC
  5
F1
330
1F
100
AcDbEntity
  8
0
  6
Continuous
 62
     7
370
    15
100
AcDbCircle
 10
173.8930174747
 20
66.9199016047
 30
0.0
 40
3.000000000000031
100
AcDbArc
 50
167.5036830064
 51
189.0881590541
  0
CIRCLE
  5
F2
330
1F
100
AcDbEntity
  8
0
  6
Continuous
 62
     7
370
    15
100
AcDbCircle
 10
173.8930174747
 20
66.9199016047
 30
0.0
 40
2.860000000000047
  0
CIRCLE
  5
F3
330
1F
100
AcDbEntity
  8
0
  6
Continuous
 62
     7
370
    15
100
AcDbCircle
 10
173.8930174747
 20
66.9199016047
 30
0.0
 40
2.500000000000029
  0
SPLINE
  5
F4
330
1F
100
AcDbEntity
  8
0
  6
HIDDEN
 62
     7
370
     0
100
AcDbSpline
210
0.0
220
0.0
230
1.0
 70
     8
 71
     3
 72
    60
 73
    56
 74
     0
 42
0.00000001
 43
0.00000001
 12
1.0
 22
0.0
 32
0.0
 13
1.0
 23
0.0
 33
0.0
 40
-0.0625000000000003
 40
-0.0625000000000003
 40
0.0
 40
0.0
 40
0.0312499999999996
 40
0.0312499999999996
 40
0.0624999999999992
 40
0.0624999999999992
 40
0.0937499999999988
 40
0.0937499999999988
 40
0.1249999999999985
 40
0.1249999999999985
 40
0.1874999999999981
 40
0.1874999999999981
 40
0.2499999999999977
 40
0.2499999999999977
 40
0.2812499999999978
 40
0.2812499999999978
 40
0.3124999999999978
 40
0.3124999999999978
 40
0.3437499999999979
 40
0.3437499999999979
 40
0.3749999999999979
 40
0.3749999999999979
 40
0.4062499999999979
 40
0.4062499999999979
 40
0.437499999999998
 40
0.437499999999998
 40
0.4687499999999981
 40
0.4687499999999981
 40
0.4999999999999981
 40
0.4999999999999981
 40
0.5624999999999981
 40
0.5624999999999981
 40
0.6249999999999981
 40
0.6249999999999981
 40
0.6562499999999982
 40
0.6562499999999982
 40
0.6874999999999984
 40
0.6874999999999984
 40
0.7187499999999986
 40
0.7187499999999986
 40
0.7499999999999987
 40
0.7499999999999987
 40
0.7812499999999989
 40
0.7812499999999989
 40
0.812499999999999
 40
0.812499999999999
 40
0.8437499999999992
 40
0.8437499999999992
 40
0.8749999999999993
 40
0.8749999999999993
 40
0.9062499999999996
 40
0.9062499999999996
 40
0.9374999999999997
 40
0.9374999999999997
 40
1.0
 40
1.0
 40
1.03125
 40
1.03125
 10
150.8930174747382
 20
66.65557107964658
 30
0.0
 10
150.8930174747382
 20
67.05206686727665
 30
0.0
 10
150.8800456162494
 20
67.18201692828079
 30
0.0
 10
150.829225446557
 20
67.43766986164087
 30
0.0
 10
150.7907581230901
 20
67.56469936819019
 30
0.0
 10
150.690359887018
 20
67.80688749931471
 30
0.0
 10
150.6289268560448
 20
67.92174899186757
 30
0.0
 10
150.4837920244999
 20
68.13912918769172
 30
0.0
 10
150.399336907092
 20
68.24202675489035
 30
0.0
 10
150.1226174567337
 20
68.51869379389812
 30
0.0
 10
149.8995405648157
 20
68.66769188437812
 30
0.0
 10
149.4182572025954
 20
68.8672030248428
 30
0.0
 10
149.1550267836043
 20
68.9197611278395
 30
0.0
 10
148.7636245819164
 20
68.9199714102176
 30
0.0
 10
148.6311015538076
 20
68.90698563949046
 30
0.0
 10
148.3745711005665
 20
68.85595849127664
 30
0.0
 10
148.2498842662699
 20
68.81820329212624
 30
0.0
 10
148.0077050040344
 20
68.7180649592175
 30
0.0
 10
147.8906114718843
 20
68.65545929180597
 30
0.0
 10
147.6738964685289
 20
68.51072599854102
 30
0.0
 10
147.5728776416661
 20
68.42809865126144
 30
0.0
 10
147.386092754214
 20
68.24149359800988
 30
0.0
 10
147.3032358730178
 20
68.1403785341337
 30
0.0
 10
147.158351607944
 20
67.92384573014384
 30
0.0
 10
147.095714100123
 20
67.80697552254274
 30
0.0
 10
146.9952652767233
 20
67.56467765189257
 30
0.0
 10
146.957414175706
 20
67.44001365343159
 30
0.0
 10
146.9061926104497
 20
67.18372660936774
 30
0.0
 10
146.8930644838325
 20
67.05115461362215
 30
0.0
 10
146.8929238434922
 20
66.65955042084816
 30
0.0
 10
146.9452485928641
 20
66.39638508952422
 30
0.0
 10
147.1443596549213
 20
65.91487972035108
 30
0.0
 10
147.2932219913786
 20
65.69162818086697
 30
0.0
 10
147.5695429507041
 20
65.4147718819781
 30
0.0
 10
147.6723065990776
 20
65.3302584351344
 30
0.0
 10
147.8896901564571
 20
65.18484116169414
 30
0.0
 10
148.0044889244135
 20
65.12332996263575
 30
0.0
 10
148.2463656478376
 20
65.02280011438093
 30
0.0
 10
148.3735192558378
 20
64.98415509116295
 30
0.0
 10
148.6291852652704
 20
64.93309876361195
 30
0.0
 10
148.7590513030264
 20
64.92003390506632
 30
0.0
 10
149.0230038297581
 20
64.91977128426838
 30
0.0
 10
149.1534081531821
 20
64.93264828451241
 30
0.0
 10
149.4090589165614
 20
64.9832342883182
 30
0.0
 10
149.5359244656758
 20
65.02151065294004
 30
0.0
 10
149.7784449236217
 20
65.12178152042007
 30
0.0
 10
149.893371562282
 20
65.18313754456095
 30
0.0
 10
150.110743031114
 20
65.32798383973376
 30
0.0
 10
150.2137568437763
 20
65.4123613542284
 30
0.0
 10
150.3984573893582
 20
65.59676867441667
 30
0.0
 10
150.4812871236148
 20
65.69734173768612
 30
0.0
 10
150.6275395622123
 20
65.9155678782651
 30
0.0
 10
150.6899080430047
 20
66.03212298818634
 30
0.0
 10
150.8398641945714
 20
66.39297258222011
 30
0.0
 10
150.8930174747382
 20
66.65557107964658
 30
0.0
 10
150.8930174747382
 20
67.05206686727665
 30
0.0
  0
SPLINE
  5
F5
330
1F
100
AcDbEntity
  8
0
  6
HIDDEN
 62
     7
370
     0
100
AcDbSpline
210
0.0
220
0.0
230
1.0
 70
     8
 71
     3
 72
    12
 73
     8
 74
     0
 42
0.00000001
 43
0.00000001
 12
1.0
 22
0.0
 32
0.0
 13
1.0
 23
0.0
 33
0.0
 40
0.0
 40
0.0
 40
0.0
 40
0.0
 40
0.5000000000000019
 40
0.5000000000000019
 40
0.7500000000000009
 40
0.7500000000000009
 40
1.0
 40
1.0
 40
1.0
 40
1.0
 10
146.9877615864124
 20
57.01053228404809
 30
0.0
 10
147.0184838283315
 20
57.12308808345727
 30
0.0
 10
147.0613210428667
 20
57.23584594319686
 30
0.0
 10
147.1607480670665
 20
57.38538682899322
 30
0.0
 10
147.2005002618832
 20
57.43267956070008
 30
0.0
 10
147.2985417187414
 20
57.50641585402151
 30
0.0
 10
147.3580977743288
 20
57.53183517339721
 30
0.0
 10
147.4207742883046
 20
57.53183517339721
 30
0.0
  0
LINE
  5
F6
330
1F
100
AcDbEntity
  8
0
  6
HIDDEN
 62
     7
370
     0
100
AcDbLine
 10
147.4207742883
 20
57.5318351734
 30
0.0
 11
150.3652606612
 21
57.5318351734
 31
0.0
  0
SPLINE
  5
F7
330
1F
100
AcDbEntity
  8
0
  6
HIDDEN
 62
     7
370
     0
100
AcDbSpline
210
0.0
220
0.0
230
1.0
 70
     8
 71
     3
 72
    12
 73
     8
 74
     0
 42
0.00000001
 43
0.00000001
 12
1.0
 22
0.0
 32
0.0
 13
1.0
 23
0.0
 33
0.0
 40
0.0
 40
0.0
 40
0.0
 40
0.0
 40
0.2499999999999977
 40
0.2499999999999977
 40
0.4999999999999953
 40
0.4999999999999953
 40
1.0
 40
1.0
 40
1.0
 40
1.0
 10
150.3652606611718
 20
57.53183517339723
 30
0.0
 10
150.4283406996651
 20
57.53183517339723
 30
0.0
 10
150.4874893218465
 20
57.50647085418225
 30
0.0
 10
150.5859618719156
 20
57.43230599380935
 30
0.0
 10
150.6249984839003
 20
57.38578565325523
 30
0.0
 10
150.7248949506794
 20
57.23564331040999
 30
0.0
 10
150.767315831746
 20
57.12395010343786
 30
0.0
 10
150.798273363064
 20
57.0105322840481
 30
0.0
  0
ELLIPSE
  5
F8
330
1F
100
AcDbEntity
  8
0
  6
HIDDEN
 62
     7
370
     0
100
AcDbEllipse
 10
134.5458632854
 20
66.9199016047
 30
0.0
 11
-14.7536831606561
 21
31.09325491558116
 31
0.0
210
0.0
220
0.0
230
1.0
 40
0.3419987131
 41
3.300734856217129
 42
4.23149622336078
  0
SPLINE
  5
F9
330
1F
100
AcDbEntity
  8
0
  6
HIDDEN
 62
     7
370
     0
100
AcDbSpline
210
0.0
220
0.0
230
1.0
 70
     8
 71
     3
 72
    12
 73
     8
 74
     0
 42
0.00000001
 43
0.00000001
 12
1.0
 22
0.0
 32
0.0
 13
1.0
 23
0.0
 33
0.0
 40
0.0
 40
0.0
 40
0.0
 40
0.0
 40
0.4999999999999981
 40
0.4999999999999981
 40
0.749999999999999
 40
0.749999999999999
 40
1.0
 40
1.0
 40
1.0
 40
1.0
 10
150.798273363064
 20
37.01915914461609
 30
0.0
 10
150.7675511211449
 20
36.98185716166305
 30
0.0
 10
150.7247139066097
 20
36.94524532961666
 30
0.0
 10
150.6252868824099
 20
36.89748054633147
 30
0.0
 10
150.5855346875933
 20
36.88252303084909
 30
0.0
 10
150.4874932307351
 20
36.85933308507994
 30
0.0
 10
150.4279371751476
 20
36.85140964586022
 30
0.0
 10
150.3652606611718
 20
36.85140964586022
 30
0.0
  0
LINE
  5
FA
330
1F
100
AcDbEntity
  8
0
  6
HIDDEN
 62
     7
370
     0
100
AcDbLine
 10
150.3652606612
 20
36.8514096459
 30
0.0
 11
147.4207742883
 21
36.8514096459
 31
0.0
  0
SPLINE
  5
FB
330
1F
100
AcDbEntity
  8
0
  6
HIDDEN
 62
     7
370
     0
100
AcDbSpline
210
0.0
220
0.0
230
1.0
 70
     8
 71
     3
 72
    12
 73
     8
 74
     0
 42
0.00000001
 43
0.00000001
 12
1.0
 22
0.0
 32
0.0
 13
1.0
 23
0.0
 33
0.0
 40
0.0
 40
0.0
 40
0.0
 40
0.0
 40
0.2500000000000014
 40
0.2500000000000014
 40
0.5000000000000028
 40
0.5000000000000028
 40
1.0
 40
1.0
 40
1.0
 40
1.0
 10
147.4207742883047
 20
36.85140964586029
 30
0.0
 10
147.3576942498113
 20
36.85140964586029
 30
0.0
 10
147.2985456276299
 20
36.85931557207266
 30
0.0
 10
147.2000730775608
 20
36.88264073350891
 30
0.0
 10
147.1610364655761
 20
36.89735352334061
 30
0.0
 10
147.061139998797
 20
36.94530932407154
 30
0.0
 10
147.0187191177304
 20
36.9815714806516
 30
0.0
 10
146.9877615864124
 20
37.01915914461609
 30
0.0
  0
ELLIPSE
  5
FC
330
1F
100
AcDbEntity
  8
0
  6
HIDDEN
 62
     7
370
     0
100
AcDbEllipse
 10
163.2401716641
 20
66.9199016047
 30
0.0
 11
14.75368316065609
 21
31.09325491558116
 31
0.0
210
0.0
220
0.0
230
1.0
 40
0.3419987131
 41
2.051689083818819
 42
2.982450450962492
  0
SPLINE
  5
FD
330
1F
100
AcDbEntity
  8
0
  6
HIDDEN
 62
     7
370
     0
100
AcDbSpline
210
0.0
220
0.0
230
1.0
 70
     8
 71
     3
 72
    12
 73
     8
 74
     0
 42
0.00000001
 43
0.00000001
 12
1.0
 22
0.0
 32
0.0
 13
1.0
 23
0.0
 33
0.0
 40
0.0
 40
0.0
 40
0.0
 40
0.0
 40
0.5000000000000009
 40
0.5000000000000009
 40
0.7500000000000004
 40
0.7500000000000004
 40
1.0
 40
1.0
 40
1.0
 40
1.0
 10
146.9877615864124
 20
96.82064406485065
 30
0.0
 10
147.0184838283315
 20
96.85794604780371
 30
0.0
 10
147.0613210428667
 20
96.89455787985007
 30
0.0
 10
147.1607480670665
 20
96.94232266313529
 30
0.0
 10
147.2005002618832
 20
96.95728017861764
 30
0.0
 10
147.2985417187414
 20
96.9804701243868
 30
0.0
 10
147.3580977743289
 20
96.98839356360651
 30
0.0
 10
147.4207742883047
 20
96.98839356360651
 30
0.0
  0
LINE
  5
FE
330
1F
100
AcDbEntity
  8
0
  6
HIDDEN
 62
     7
370
     0
100
AcDbLine
 10
147.4207742883
 20
96.9883935636
 30
0.0
 11
150.3652606612
 21
96.9883935636
 31
0.0
  0
SPLINE
  5
FF
330
1F
100
AcDbEntity
  8
0
  6
HIDDEN
 62
     7
370
     0
100
AcDbSpline
210
0.0
220
0.0
230
1.0
 70
     8
 71
     3
 72
    12
 73
     8
 74
     0
 42
0.00000001
 43
0.00000001
 12
1.0
 22
0.0
 32
0.0
 13
1.0
 23
0.0
 33
0.0
 40
0.0
 40
0.0
 40
0.0
 40
0.0
 40
0.2499999999999986
 40
0.2499999999999986
 40
0.4999999999999971
 40
0.4999999999999971
 40
1.0
 40
1.0
 40
1.0
 40
1.0
 10
150.3652606611718
 20
96.9883935636065
 30
0.0
 10
150.4283406996651
 20
96.9883935636065
 30
0.0
 10
150.4874893218465
 20
96.98048763739406
 30
0.0
 10
150.5859618719156
 20
96.9571624759578
 30
0.0
 10
150.6249984839003
 20
96.94244968612612
 30
0.0
 10
150.7248949506793
 20
96.89449388539519
 30
0.0
 10
150.767315831746
 20
96.85823172881516
 30
0.0
 10
150.798273363064
 20
96.82064406485064
 30
0.0
  0
ELLIPSE
  5
100
330
1F
100
AcDbEntity
  8
0
  6
HIDDEN
 62
     7
370
     0
100
AcDbEllipse
 10
134.5458632854
 20
66.9199016047
 30
0.0
 11
14.75368316065627
 21
31.09325491558116
 31
0.0
210
0.0
220
0.0
230
1.0
 40
0.3419987131
 41
5.193281737408638
 42
6.12404310455234
  0
SPLINE
  5
101
330
1F
100
AcDbEntity
  8
0
  6
HIDDEN
 62
     7
370
     0
100
AcDbSpline
210
0.0
220
0.0
230
1.0
 70
     8
 71
     3
 72
    12
 73
     8
 74
     0
 42
0.00000001
 43
0.00000001
 12
1.0
 22
0.0
 32
0.0
 13
1.0
 23
0.0
 33
0.0
 40
0.0
 40
0.0
 40
0.0
 40
0.0
 40
0.500000000000001
 40
0.500000000000001
 40
0.7500000000000004
 40
0.7500000000000004
 40
1.0
 40
1.0
 40
1.0
 40
1.0
 10
150.798273363064
 20
76.82927092541894
 30
0.0
 10
150.7675511211449
 20
76.71671512600976
 30
0.0
 10
150.7247139066097
 20
76.60395726627017
 30
0.0
 10
150.6252868824099
 20
76.45441638047384
 30
0.0
 10
150.5855346875933
 20
76.40712364876698
 30
0.0
 10
150.4874932307351
 20
76.33338735544555
 30
0.0
 10
150.4279371751476
 20
76.3079680360698
 30
0.0
 10
150.3652606611718
 20
76.3079680360698
 30
0.0
  0
LINE
  5
102
330
1F
100
AcDbEntity
  8
0
  6
HIDDEN
 62
     7
370
     0
100
AcDbLine
 10
150.3652606612
 20
76.3079680361
 30
0.0
 11
147.4207742883
 21
76.3079680361
 31
0.0
  0
SPLINE
  5
103
330
1F
100
AcDbEntity
  8
0
  6
HIDDEN
 62
     7
370
     0
100
AcDbSpline
210
0.0
220
0.0
230
1.0
 70
     8
 71
     3
 72
    12
 73
     8
 74
     0
 42
0.00000001
 43
0.00000001
 12
1.0
 22
0.0
 32
0.0
 13
1.0
 23
0.0
 33
0.0
 40
0.0
 40
0.0
 40
0.0
 40
0.0
 40
0.2500000000000009
 40
0.2500000000000009
 40
0.5000000000000019
 40
0.5000000000000019
 40
1.0
 40
1.0
 40
1.0
 40
1.0
 10
147.4207742883047
 20
76.30796803606981
 30
0.0
 10
147.3576942498113
 20
76.30796803606981
 30
0.0
 10
147.2985456276299
 20
76.33333235528477
 30
0.0
 10
147.2000730775608
 20
76.40749721565766
 30
0.0
 10
147.1610364655761
 20
76.45401755621181
 30
0.0
 10
147.061139998797
 20
76.60415989905702
 30
0.0
 10
147.0187191177304
 20
76.71585310602919
 30
0.0
 10
146.9877615864124
 20
76.82927092541894
 30
0.0
  0
ELLIPSE
  5
104
330
1F
100
AcDbEntity
  8
0
  6
HIDDEN
 62
     7
370
     0
100
AcDbEllipse
 10
163.2401716641
 20
66.9199016047
 30
0.0
 11
-14.75368316065629
 21
31.09325491558115
 31
0.0
210
0.0
220
0.0
230
1.0
 40
0.3419987131
 41
0.1591422026272827
 42
1.08990356977096
  0
ELLIPSE
  5
105
330
1F
100
AcDbEntity
  8
0
  6
HIDDEN
 62
     7
370
     0
100
AcDbEllipse
 10
235.6072109565
 20
66.9199016047
 30
0.0
 11
61.68428152047539
 21
31.41939029509028
 31
0.0
210
0.0
220
0.0
230
1.0
 40
0.0365099643
 41
1.651147650121173
 42
3.213148651838471
  0
ELLIPSE
  5
106
330
1F
100
AcDbEntity
  8
0
  6
HIDDEN
 62
     7
370
     0
100
AcDbEllipse
 10
235.0667943134
 20
66.9199016047
 30
0.0
 11
5.684341886080800E-14
 21
31.49999999999998
 31
0.0
210
0.0
220
0.0
230
1.0
 40
0.1763269807
 41
1.562001001716921
 42
1.579591651872874
  0
ELLIPSE
  5
107
330
1F
100
AcDbEntity
  8
0
  6
HIDDEN
 62
     7
370
     0
100
AcDbEllipse
 10
235.6072109565
 20
66.9199016047
 30
0.0
 11
61.68428152047489
 21
-31.41939029509004
 31
0.0
210
0.0
220
0.0
230
1.0
 40
0.0365099643
 41
3.070036655341484
 42
4.632037657058415
  0
SPLINE
  5
108
330
1F
100
AcDbEntity
  8
0
  6
HIDDEN
 62
     7
370
     0
100
AcDbSpline
210
0.0
220
0.0
230
1.0
 70
     8
 71
     3
 72
    70
 73
    66
 74
     0
 42
0.00000001
 43
0.00000001
 12
1.0
 22
0.0
 32
0.0
 13
1.0
 23
0.0
 33
0.0
 40
-0.03125
 40
-0.03125
 40
0.0
 40
0.0
 40
0.0312500000000003
 40
0.0312500000000003
 40
0.0625000000000006
 40
0.0625000000000006
 40
0.0937500000000005
 40
0.0937500000000005
 40
0.1250000000000005
 40
0.1250000000000005
 40
0.1562500000000005
 40
0.1562500000000005
 40
0.1875000000000004
 40
0.1875000000000004
 40
0.2187500000000004
 40
0.2187500000000004
 40
0.2500000000000004
 40
0.2500000000000004
 40
0.2812500000000003
 40
0.2812500000000003
 40
0.3125000000000003
 40
0.3125000000000003
 40
0.3437500000000002
 40
0.3437500000000002
 40
0.3750000000000002
 40
0.3750000000000002
 40
0.4062500000000001
 40
0.4062500000000001
 40
0.4375000000000001
 40
0.4375000000000001
 40
0.46875
 40
0.46875
 40
0.4999999999999999
 40
0.4999999999999999
 40
0.5312499999999999
 40
0.5312499999999999
 40
0.5624999999999999
 40
0.5624999999999999
 40
0.5937499999999999
 40
0.5937499999999999
 40
0.625
 40
0.625
 40
0.65625
 40
0.65625
 40
0.6875000000000001
 40
0.6875000000000001
 40
0.7187500000000001
 40
0.7187500000000001
 40
0.7500000000000002
 40
0.7500000000000002
 40
0.7812500000000002
 40
0.7812500000000002
 40
0.8125000000000003
 40
0.8125000000000003
 40
0.8437500000000002
 40
0.8437500000000002
 40
0.8750000000000002
 40
0.8750000000000002
 40
0.9062500000000001
 40
0.9062500000000001
 40
0.9375000000000001
 40
0.9375000000000001
 40
0.96875
 40
0.96875
 40
1.0
 40
1.0
 40
1.03125
 40
1.03125
 10
199.0395345009308
 20
61.22742878358684
 30
0.0
 10
199.058415901193
 20
60.67265133608754
 30
0.0
 10
199.0959279959795
 20
60.40180813496367
 30
0.0
 10
199.2226550367103
 20
59.87211791820139
 30
0.0
 10
199.3131038473727
 20
59.61086325377537
 30
0.0
 10
199.5412989878472
 20
59.11297924452401
 30
0.0
 10
199.677761244186
 20
58.87767520209121
 30
0.0
 10
199.9937043022685
 20
58.43290538565645
 30
0.0
 10
200.1750003384038
 20
58.22216302852561
 30
0.0
 10
200.568235550874
 20
57.84144635709823
 30
0.0
 10
200.7810564717135
 20
57.66960132269755
 30
0.0
 10
201.2397749709903
 20
57.36311968177506
 30
0.0
 10
201.4863415371288
 20
57.22889200365318
 30
0.0
 10
201.9934471830223
 20
57.00994887194494
 30
0.0
 10
202.2563351801474
 20
56.9234302809194
 30
0.0
 10
202.802044824029
 20
56.79897480505915
 30
0.0
 10
203.0826087317866
 20
56.76223510470984
 30
0.0
 10
203.6385101555849
 20
56.74303031500822
 30
0.0
 10
203.9167833886027
 20
56.75977866531869
 30
0.0
 10
204.4740275123425
 20
56.85037692152249
 30
0.0
 10
204.7428790509749
 20
56.92264922530861
 30
0.0
 10
205.2602718983266
 20
57.1193982366451
 30
0.0
 10
205.511838777945
 20
57.24594560506495
 30
0.0
 10
205.9767052378831
 20
57.54432658008744
 30
0.0
 10
206.1905260783081
 20
57.71539536388011
 30
0.0
 10
206.5816314602947
 20
58.10116385379811
 30
0.0
 10
206.7573258909857
 20
58.31531733199683
 30
0.0
 10
207.0574919987013
 20
58.76880765958922
 30
0.0
 10
207.184827854589
 20
59.01184632940304
 30
0.0
 10
207.3886327453427
 20
59.52122450913644
 30
0.0
 10
207.4636004466136
 20
59.78279285112237
 30
0.0
 10
207.5618505213677
 20
60.31940192766932
 30
0.0
 10
207.5847634117359
 20
60.59719162316078
 30
0.0
 10
207.5762425942592
 20
61.14597448497639
 30
0.0
 10
207.5456182298691
 20
61.4185439111524
 30
0.0
 10
207.4312560227079
 20
61.95992919998107
 30
0.0
 10
207.3469839964407
 20
62.22782883809685
 30
0.0
 10
207.1316428632532
 20
62.73692435868124
 30
0.0
 10
207.0000793534616
 20
62.98109938678352
 30
0.0
 10
206.6871384111286
 20
63.44757002176335
 30
0.0
 10
206.509909026793
 20
63.66341536048262
 30
0.0
 10
206.1181536889398
 20
64.0578249038346
 30
0.0
 10
205.9009805238038
 20
64.23845566443491
 30
0.0
 10
205.4367014209203
 20
64.55392533828922
 30
0.0
 10
205.192299074263
 20
64.6876111302693
 30
0.0
 10
204.6793899391144
 20
64.90757987884945
 30
0.0
 10
204.4080748662289
 20
64.9941222241204
 30
0.0
 10
203.861591754173
 20
65.11166383396183
 30
0.0
 10
203.5848541543973
 20
65.14389892188481
 30
0.0
 10
203.024299116868
 20
65.15460218837897
 30
0.0
 10
202.7411859780345
 20
65.13231259221985
 30
0.0
 10
202.1924107592916
 20
65.0348247282866
 30
0.0
 10
201.9235996315105
 20
64.9598446790977
 30
0.0
 10
201.3977175008578
 20
64.75472115551086
 30
0.0
 10
201.1483693255028
 20
64.62743184871283
 30
0.0
 10
200.6800598373631
 20
64.32660989990238
 30
0.0
 10
200.458229041996
 20
64.15054459133707
 30
0.0
 10
200.0576396429017
 20
63.75897302779417
 30
0.0
 10
199.8799493155622
 20
63.54552709598292
 30
0.0
 10
199.5697869878563
 20
63.08354289554162
 30
0.0
 10
199.4371754613693
 20
62.83293688532463
 30
0.0
 10
199.2307405446522
 20
62.31918692457331
 30
0.0
 10
199.1548255289537
 20
62.05360528295612
 30
0.0
 10
199.0586173972388
 20
61.50489576085852
 30
0.0
 10
199.0395345009308
 20
61.22742878358684
 30
0.0
 10
199.058415901193
 20
60.67265133608754
 30
0.0
  0
LINE
  5
109
330
1F
100
AcDbEntity
  8
0
  6
HIDDEN
 62
     7
370
     0
100
AcDbLine
 10
136.8930174747
 20
97.9199016036
 30
0.0
 11
136.8930174747
 21
35.9199016047
 31
0.0
  0
CIRCLE
  5
10A
330
1F
100
AcDbEntity
  8
0
  6
HIDDEN
 62
     7
370
     0
100
AcDbCircle
 10
173.8930174747
 20
66.9199016047
 30
0.0
 40
2.5
  0
CIRCLE
  5
10B
330
1F
100
AcDbEntity
  8
0
  6
HIDDEN
 62
     7
370
     0
100
AcDbCircle
 10
173.8930174747
 20
66.9199016047
 30
0.0
 40
3.000000000000028
  0
LINE
  5
10C
330
1F
100
AcDbEntity
  8
0
  6
HIDDEN
 62
     7
370
     0
100
AcDbLine
 10
136.8930174747
 20
42.6699016047
 30
0.0
 11
136.8930174747
 21
91.1699016047
 31
0.0
  0
SPLINE
  5
10D
330
1F
100
AcDbEntity
  8
0
  6
HIDDEN
 62
     7
370
     0
100
AcDbSpline
210
0.0
220
0.0
230
1.0
 70
     8
 71
     3
 72
    12
 73
     8
 74
     0
 42
0.00000001
 43
0.00000001
 12
1.0
 22
0.0
 32
0.0
 13
1.0
 23
0.0
 33
0.0
 40
0.0
 40
0.0
 40
0.0
 40
0.0
 40
0.5000000000000003
 40
0.5000000000000003
 40
0.7500000000000001
 40
0.7500000000000001
 40
1.0
 40
1.0
 40
1.0
 40
1.0
 10
136.0765051882828
 20
82.37216958657127
 30
0.0
 10
136.1329113669635
 20
82.32434721290923
 30
0.0
 10
136.2030742684356
 20
82.28407636596809
 30
0.0
 10
136.3210849818275
 20
82.27603049748836
 30
0.0
 10
136.3612907654241
 20
82.28259309582675
 30
0.0
 10
136.4350114621592
 20
82.30997519028035
 30
0.0
 10
136.4678721839467
 20
82.32973668081112
 30
0.0
 10
136.4980405858767
 20
82.35266939199974
 30
0.0
  0
SPLINE
  5
10E
330
1F
100
AcDbEntity
  8
0
  6
HIDDEN
 62
     7
370
     0
100
AcDbSpline
210
0.0
220
0.0
230
1.0
 70
     8
 71
     3
 72
    16
 73
    12
 74
     0
 42
0.00000001
 43
0.00000001
 12
1.0
 22
0.0
 32
0.0
 13
1.0
 23
0.0
 33
0.0
 40
0.0
 40
0.0
 40
0.0
 40
0.0
 40
0.0625000000000011
 40
0.0625000000000011
 40
0.1250000000000021
 40
0.1250000000000021
 40
0.2500000000000058
 40
0.2500000000000058
 40
0.4999999999999988
 40
0.4999999999999988
 40
1.0
 40
1.0
 40
1.0
 40
1.0
 10
136.4980405858316
 20
82.35266939204782
 30
0.0
 10
136.5096534856709
 20
82.3614970150292
 30
0.0
 10
136.5230046701034
 20
82.36933139691114
 30
0.0
 10
136.5524045097225
 20
82.37764152298352
 30
0.0
 10
136.5672452342778
 20
82.3771457037485
 30
0.0
 10
136.6030784422464
 20
82.36569473277916
 30
0.0
 10
136.617191650068
 20
82.3490142319205
 30
0.0
 10
136.6516830212869
 20
82.29689354616347
 30
0.0
 10
136.6627670923973
 20
82.25710405213847
 30
0.0
 10
136.6888899101934
 20
82.13376742004135
 30
0.0
 10
136.6930174747382
 20
82.04634600954272
 30
0.0
 10
136.6930174747382
 20
81.95760876722449
 30
0.0
  0
LINE
  5
10F
330
1F
100
AcDbEntity
  8
0
  6
HIDDEN
 62
     7
370
     0
100
AcDbLine
 10
136.6930174747
 20
51.8821944422
 30
0.0
 11
136.6930174747
 21
81.9576087672
 31
0.0
  0
SPLINE
  5
110
330
1F
100
AcDbEntity
  8
0
  6
HIDDEN
 62
     7
370
     0
100
AcDbSpline
210
0.0
220
0.0
230
1.0
 70
     8
 71
     3
 72
    16
 73
    12
 74
     0
 42
0.00000001
 43
0.00000001
 12
1.0
 22
0.0
 32
0.0
 13
1.0
 23
0.0
 33
0.0
 40
0.0
 40
0.0
 40
0.0
 40
0.0
 40
0.5000000000000012
 40
0.5000000000000012
 40
0.7499999999999993
 40
0.7499999999999993
 40
0.8750000000000006
 40
0.8750000000000006
 40
0.9375000000000003
 40
0.9375000000000003
 40
1.0
 40
1.0
 40
1.0
 40
1.0
 10
136.6930174747382
 20
51.88219444224212
 30
0.0
 10
136.6930174747382
 20
51.79306807705338
 30
0.0
 10
136.6888711996603
 20
51.70620670943994
 30
0.0
 10
136.6629056042667
 20
51.58322446294591
 30
0.0
 10
136.6514446988893
 20
51.54245316771462
 30
0.0
 10
136.6171329611149
 20
51.49074884771485
 30
0.0
 10
136.6031082251852
 20
51.47407848112446
 30
0.0
 10
136.5670852621515
 20
51.46262626066775
 30
0.0
 10
136.5523307530618
 20
51.46217321439276
 30
0.0
 10
136.522978591915
 20
51.47048853560891
 30
0.0
 10
136.5096387174109
 20
51.47831742068717
 30
0.0
 10
136.4980405858626
 20
51.4871338174498
 30
0.0
  0
SPLINE
  5
111
330
1F
100
AcDbEntity
  8
0
  6
HIDDEN
 62
     7
370
     0
100
AcDbSpline
210
0.0
220
0.0
230
1.0
 70
     8
 71
     3
 72
    12
 73
     8
 74
     0
 42
0.00000001
 43
0.00000001
 12
1.0
 22
0.0
 32
0.0
 13
1.0
 23
0.0
 33
0.0
 40
0.0
 40
0.0
 40
0.0
 40
0.0
 40
0.2499999999999998
 40
0.2499999999999998
 40
0.4999999999999996
 40
0.4999999999999996
 40
1.0
 40
1.0
 40
1.0
 40
1.0
 10
136.4980405858696
 20
51.48713381745869
 30
0.0
 10
136.4678487441524
 20
51.5100843465565
 30
0.0
 10
136.4344897747378
 20
51.53005382058068
 30
0.0
 10
136.3613524901572
 20
51.55715495420618
 30
0.0
 10
136.3211106175033
 20
51.56375569485158
 30
0.0
 10
136.2034048405348
 20
51.55578682034488
 30
0.0
 10
136.1329943627554
 20
51.51552636217705
 30
0.0
 10
136.0765051882871
 20
51.46763362289889
 30
0.0
  0
SPLINE
  5
112
330
1F
100
AcDbEntity
  8
0
  6
HIDDEN
 62
     7
370
     0
100
AcDbSpline
210
0.0
220
0.0
230
1.0
 70
     8
 71
     3
 72
    12
 73
     8
 74
     0
 42
0.00000001
 43
0.00000001
 12
1.0
 22
0.0
 32
0.0
 13
1.0
 23
0.0
 33
0.0
 40
0.0
 40
0.0
 40
0.0
 40
0.0
 40
0.2500000000000029
 40
0.2500000000000029
 40
0.5000000000000032
 40
0.5000000000000032
 40
1.0
 40
1.0
 40
1.0
 40
1.0
 10
136.0765051882867
 20
51.46763362289914
 30
0.0
 10
135.9883512505489
 20
51.39289481504504
 30
0.0
 10
135.9279978259202
 20
51.30191431456265
 30
0.0
 10
135.8217358678534
 20
51.11300049181004
 30
0.0
 10
135.7795037012913
 20
51.01649603226946
 30
0.0
 10
135.6684330059742
 20
50.72572827810232
 30
0.0
 10
135.6154962295473
 20
50.53006146355858
 30
0.0
 10
135.5716971311786
 20
50.33599497849227
 30
0.0
  0
SPLINE
  5
113
330
1F
100
AcDbEntity
  8
0
  6
HIDDEN
 62
     7
370
     0
100
AcDbSpline
210
0.0
220
0.0
230
1.0
 70
     8
 71
     3
 72
    12
 73
     8
 74
     0
 42
0.00000001
 43
0.00000001
 12
1.0
 22
0.0
 32
0.0
 13
1.0
 23
0.0
 33
0.0
 40
0.0
 40
0.0
 40
0.0
 40
0.0
 40
0.5000000000000008
 40
0.5000000000000008
 40
0.7500000000000003
 40
0.7500000000000003
 40
1.0
 40
1.0
 40
1.0
 40
1.0
 10
135.5716971311786
 20
45.14982064973118
 30
0.0
 10
135.6154436720151
 20
45.12322647909001
 30
0.0
 10
135.6683280272466
 20
45.10346625376428
 30
0.0
 10
135.7798951145828
 20
45.0830152635352
 30
0.0
 10
135.8224787111258
 20
45.07775503887876
 30
0.0
 10
135.9273954382076
 20
45.06987224495612
 30
0.0
 10
135.9889290460524
 20
45.06730811977697
 30
0.0
 10
136.0765051882785
 20
45.06510790225732
 30
0.0
  0
LINE
  5
114
330
1F
100
AcDbEntity
  8
0
  6
HIDDEN
 62
     7
370
     0
100
AcDbLine
 10
136.6930174747
 20
44.3800813259
 30
0.0
 11
136.6930174747
 21
44.8603071165
 31
0.0
  0
LINE
  5
115
330
1F
100
AcDbEntity
  8
0
  6
HIDDEN
 62
     7
370
     0
100
AcDbLine
 10
136.6930174747
 20
88.979496093
 30
0.0
 11
136.6930174747
 21
89.4597218836
 31
0.0
  0
SPLINE
  5
116
330
1F
100
AcDbEntity
  8
0
  6
HIDDEN
 62
     7
370
     0
100
AcDbSpline
210
0.0
220
0.0
230
1.0
 70
     8
 71
     3
 72
    12
 73
     8
 74
     0
 42
0.00000001
 43
0.00000001
 12
1.0
 22
0.0
 32
0.0
 13
1.0
 23
0.0
 33
0.0
 40
0.0
 40
0.0
 40
0.0
 40
0.0
 40
0.25
 40
0.25
 40
0.5000000000000001
 40
0.5000000000000001
 40
1.0
 40
1.0
 40
1.0
 40
1.0
 10
136.0765051882865
 20
88.7746953072092
 30
0.0
 10
135.9878205284301
 20
88.7724672398682
 30
0.0
 10
135.9279021127068
 20
88.76996545583788
 30
0.0
 10
135.822242885386
 20
88.76203402000186
 30
0.0
 10
135.7796016472711
 20
88.75674186510504
 30
0.0
 10
135.6684123051685
 20
88.73633692461789
 30
0.0
 10
135.6154856230476
 20
88.71660223303104
 30
0.0
 10
135.5716971311786
 20
88.68998255973541
 30
0.0
  0
SPLINE
  5
117
330
1F
100
AcDbEntity
  8
0
  6
HIDDEN
 62
     7
370
     0
100
AcDbSpline
210
0.0
220
0.0
230
1.0
 70
     8
 71
     3
 72
    12
 73
     8
 74
     0
 42
0.00000001
 43
0.00000001
 12
1.0
 22
0.0
 32
0.0
 13
1.0
 23
0.0
 33
0.0
 40
0.0
 40
0.0
 40
0.0
 40
0.0
 40
0.5000000000000001
 40
0.5000000000000001
 40
0.7500000000000002
 40
0.7500000000000002
 40
1.0
 40
1.0
 40
1.0
 40
1.0
 10
135.571697131177
 20
83.50380823097451
 30
0.0
 10
135.6154586074755
 20
83.30990844301368
 30
0.0
 10
135.6683649231281
 20
83.11405207907809
 30
0.0
 10
135.7800761207743
 20
82.82190993258101
 30
0.0
 10
135.8225955643603
 20
82.72519199588365
 30
0.0
 10
135.9277189069261
 20
82.5384675594601
 30
0.0
 10
135.989284870643
 20
82.44611685119081
 30
0.0
 10
136.0765051882836
 20
82.37216958657055
 30
0.0
  0
ARC
  5
118
330
1F
100
AcDbEntity
  8
0
  6
HIDDEN
 62
     7
370
     0
100
AcDbCircle
 10
174.1235577957
 20
64.6688826946
 30
0.0
 40
0.2488548281382288
100
AcDbArc
 50
257.3188891217
 51
294.3763415642
  0
ARC
  5
119
330
1F
100
AcDbEntity
  8
0
  6
HIDDEN
 62
     7
370
     0
100
AcDbCircle
 10
174.1235577957
 20
69.1709205149
 30
0.0
 40
0.2488548281378413
100
AcDbArc
 50
65.6236584357
 51
102.6811108783
  0
ARC
  5
11A
330
1F
100
AcDbEntity
  8
0
  6
HIDDEN
 62
     7
370
     0
100
AcDbCircle
 10
173.8930174747
 20
66.9199016047
 30
0.0
 40
2.500000000000038
100
AcDbArc
 50
277.6603231745
 51
82.3396768255
  0
ARC
  5
11B
330
1F
100
AcDbEntity
  8
0
  6
HIDDEN
 62
     7
370
     0
100
AcDbCircle
 10
173.8930174747
 20
66.9199016047
 30
0.0
 40
2.500000000000016
100
AcDbArc
 50
274.0349075114
 51
85.9650924886
  0
LINE
  5
11C
330
1F
100
AcDbEntity
  8
0
  6
HIDDEN
 62
     7
370
     0
100
AcDbLine
 10
136.6930174747
 20
44.8603071165
 30
0.0
 11
136.6930174747
 21
59.898014279
 31
0.0
  0
LINE
  5
11D
330
1F
100
AcDbEntity
  8
0
  6
HIDDEN
 62
     7
370
     0
100
AcDbLine
 10
136.6930174747
 20
73.9417889305
 30
0.0
 11
136.6930174747
 21
88.979496093
 31
0.0
  0
SPLINE
  5
11E
330
1F
100
AcDbEntity
  8
0
  6
HIDDEN
 62
     7
370
     0
100
AcDbSpline
210
0.0
220
0.0
230
1.0
 70
     8
 71
     3
 72
     8
 73
     4
 74
     0
 42
0.00000001
 43
0.00000001
 12
1.0
 22
0.0
 32
0.0
 13
1.0
 23
0.0
 33
0.0
 40
0.0
 40
0.0
 40
0.0
 40
0.0
 40
1.0
 40
1.0
 40
1.0
 40
1.0
 10
174.0689280438977
 20
69.41370501953129
 30
0.0
 10
174.1125440516172
 20
69.41062838698804
 30
0.0
 10
174.1658262440835
 20
69.40572029790755
 30
0.0
 10
174.2262672401381
 20
69.39759097062665
 30
0.0
  0
SPLINE
  5
11F
330
1F
100
AcDbEntity
  8
0
  6
HIDDEN
 62
     7
370
     0
100
AcDbSpline
210
0.0
220
0.0
230
1.0
 70
     8
 71
     3
 72
     8
 73
     4
 74
     0
 42
0.00000001
 43
0.00000001
 12
1.0
 22
0.0
 32
0.0
 13
1.0
 23
0.0
 33
0.0
 40
0.0
 40
0.0
 40
0.0
 40
0.0
 40
1.0
 40
1.0
 40
1.0
 40
1.0
 10
174.2262672401381
 20
64.44221223883997
 30
0.0
 10
174.1654426326966
 20
64.43403131574304
 30
0.0
 10
174.1124655494119
 20
64.42916928500617
 30
0.0
 10
174.0689280438977
 20
64.42609818993533
 30
0.0
  0
CIRCLE
  5
120
330
1F
100
AcDbEntity
  8
0
  6
HIDDEN
 62
     7
370
     0
100
AcDbCircle
 10
121.3930174747
 20
66.9199016047
 30
0.0
 40
4.050000000000011
  0
LINE
  5
121
330
1F
100
AcDbEntity
  8
0
  6
HIDDEN
 62
     7
370
     0
100
AcDbLine
 10
100.4232459144
 20
82.2328526476
 30
0.0
 11
100.4232459144
 21
51.6069505618
 31
0.0
  0
LINE
  5
122
330
1F
100
AcDbEntity
  8
0
  6
HIDDEN
 62
     7
370
     0
100
AcDbLine
 10
98.8930174747
 20
50.7234727603
 30
0.0
 11
98.8930174747
 21
83.1163304492
 31
0.0
  0
LINE
  5
123
330
1F
100
AcDbEntity
  8
0
  6
HIDDEN
 62
     7
370
     0
100
AcDbLine
 10
106.9232459144
 20
81.2663117662
 30
0.0
 11
106.9232459144
 21
52.5734914432
 31
0.0
  0
LINE
  5
124
330
1F
100
AcDbEntity
  8
0
  6
HIDDEN
 62
     7
370
     0
100
AcDbLine
 10
112.7232459144
 20
80.9199016047
 30
0.0
 11
112.7232459144
 21
52.9199016047
 31
0.0
  0
LINE
  5
125
330
1F
100
AcDbEntity
  8
0
  6
HIDDEN
 62
     7
370
     0
100
AcDbLine
 10
105.3232459144
 20
80.9199016047
 30
0.0
 11
105.3232459144
 21
52.9199016047
 31
0.0
  0
LINE
  5
126
330
1F
100
AcDbEntity
  8
0
  6
HIDDEN
 62
     7
370
     0
100
AcDbLine
 10
106.3232459144
 20
80.9199016047
 30
0.0
 11
106.3232459144
 21
52.9199016047
 31
0.0
  0
SPLINE
  5
127
330
1F
100
AcDbEntity
  8
0
  6
HIDDEN
 62
     7
370
     0
100
AcDbSpline
210
0.0
220
0.0
230
1.0
 70
     8
 71
     3
 72
    10
 73
     6
 74
     0
 42
0.00000001
 43
0.00000001
 12
1.0
 22
0.0
 32
0.0
 13
1.0
 23
0.0
 33
0.0
 40
0.0
 40
0.0
 40
0.0
 40
0.0
 40
0.5
 40
0.5
 40
1.0
 40
1.0
 40
1.0
 40
1.0
 10
125.3930174747382
 20
67.55433048175581
 30
0.0
 10
125.4261648928147
 20
67.3453398807478
 30
0.0
 10
125.4430237381763
 20
67.13377741472618
 30
0.0
 10
125.4430112078286
 20
66.70578864875856
 30
0.0
 10
125.4260962500882
 20
66.49403054434285
 30
0.0
 10
125.3930174747382
 20
66.28547272771077
 30
0.0
  0
LINE
  5
128
330
1F
100
AcDbEntity
  8
0
  6
HIDDEN
 62
     7
370
     0
100
AcDbLine
 10
125.8930174747
 20
80.4199016047
 30
0.0
 11
125.8930174747
 21
53.4199016047
 31
0.0
  0
SPLINE
  5
129
330
1F
100
AcDbEntity
  8
0
  6
HIDDEN
 62
     7
370
     0
100
AcDbSpline
210
0.0
220
0.0
230
1.0
 70
     8
 71
     3
 72
    10
 73
     6
 74
     0
 42
0.00000001
 43
0.00000001
 12
1.0
 22
0.0
 32
0.0
 13
1.0
 23
0.0
 33
0.0
 40
0.0
 40
0.0
 40
0.0
 40
0.0
 40
0.5
 40
0.5
 40
1.0
 40
1.0
 40
1.0
 40
1.0
 10
125.3930174747382
 20
66.28547272771078
 30
0.0
 10
125.4262064372119
 20
66.49472526129327
 30
0.0
 10
125.4429072134666
 20
66.70554202219222
 30
0.0
 10
125.4431266539112
 20
67.13007430339552
 30
0.0
 10
125.4262469385178
 20
67.34482259216814
 30
0.0
 10
125.3930174747382
 20
67.55433048175583
 30
0.0
  0
SPLINE
  5
12A
330
1F
100
AcDbEntity
  8
0
  6
HIDDEN
 62
     7
370
     0
100
AcDbSpline
210
0.0
220
0.0
230
1.0
 70
     8
 71
     3
 72
    68
 73
    64
 74
     0
 42
0.00000001
 43
0.00000001
 12
1.0
 22
0.0
 32
0.0
 13
1.0
 23
0.0
 33
0.0
 40
0.0
 40
0.0
 40
0.0
 40
0.0
 40
0.0312499999999999
 40
0.0312499999999999
 40
0.0624999999999998
 40
0.0624999999999998
 40
0.0937499999999997
 40
0.0937499999999997
 40
0.1249999999999996
 40
0.1249999999999996
 40
0.1562499999999994
 40
0.1562499999999994
 40
0.1874999999999993
 40
0.1874999999999993
 40
0.2187499999999992
 40
0.2187499999999992
 40
0.2499999999999991
 40
0.2499999999999991
 40
0.2812499999999989
 40
0.2812499999999989
 40
0.3124999999999988
 40
0.3124999999999988
 40
0.3437499999999987
 40
0.3437499999999987
 40
0.3749999999999986
 40
0.3749999999999986
 40
0.4062499999999985
 40
0.4062499999999985
 40
0.4374999999999984
 40
0.4374999999999984
 40
0.4687499999999983
 40
0.4687499999999983
 40
0.4999999999999982
 40
0.4999999999999982
 40
0.5624999999999979
 40
0.5624999999999979
 40
0.5937499999999978
 40
0.5937499999999978
 40
0.6249999999999977
 40
0.6249999999999977
 40
0.6562499999999976
 40
0.6562499999999976
 40
0.6874999999999974
 40
0.6874999999999974
 40
0.7187499999999973
 40
0.7187499999999973
 40
0.7499999999999972
 40
0.7499999999999972
 40
0.7812499999999976
 40
0.7812499999999976
 40
0.8124999999999979
 40
0.8124999999999979
 40
0.8437499999999982
 40
0.8437499999999982
 40
0.8749999999999986
 40
0.8749999999999986
 40
0.9062499999999989
 40
0.9062499999999989
 40
0.9374999999999992
 40
0.9374999999999992
 40
0.9687499999999996
 40
0.9687499999999996
 40
1.0
 40
1.0
 40
1.0
 40
1.0
 10
125.3930174747382
 20
66.28547272771077
 30
0.0
 10
125.3530025223885
 20
66.03318312489517
 30
0.0
 10
125.2900607209772
 20
65.78918427451936
 30
0.0
 10
125.1206740589052
 20
65.31676588545685
 30
0.0
 10
125.0129804963196
 20
65.08635249929692
 30
0.0
 10
124.7576957277818
 20
64.65164790349982
 30
0.0
 10
124.6116564973095
 20
64.4490059368485
 30
0.0
 10
124.2834350607503
 20
64.07201664609067
 30
0.0
 10
124.0991877729753
 20
63.8963586925133
 30
0.0
 10
123.706227605667
 20
63.58610072356706
 30
0.0
 10
123.4969330087078
 20
63.45015551591715
 30
0.0
 10
123.0520475817705
 20
63.21676542051132
 30
0.0
 10
122.8152499892715
 20
63.11951881409691
 30
0.0
 10
122.3345149203522
 20
62.97284735622555
 30
0.0
 10
122.0882718271694
 20
62.92195501128313
 30
0.0
 10
121.58355504719
 20
62.86642766104765
 30
0.0
 10
121.3273603462535
 20
62.86260277397771
 30
0.0
 10
120.8249815970534
 20
62.90202655662213
 30
0.0
 10
120.5757318978698
 20
62.94505400583338
 30
0.0
 10
120.084204100391
 20
63.07875897528466
 30
0.0
 10
119.8489084991652
 20
63.16742882118985
 30
0.0
 10
119.3979946045031
 20
63.38646018496727
 30
0.0
 10
119.1803822540397
 20
63.51846175065083
 30
0.0
 10
118.7771750844914
 20
63.81781903165372
 30
0.0
 10
118.591563592057
 20
63.9844379590916
 30
0.0
 10
118.2515755216545
 20
64.35154938451907
 30
0.0
 10
118.0965025908315
 20
64.55385313005979
 30
0.0
 10
117.8301595141682
 20
64.9779338096538
 30
0.0
 10
117.7171754134514
 20
65.20109341512001
 30
0.0
 10
117.5323201565205
 20
65.67044865671416
 30
0.0
 10
117.4611793950171
 20
65.91665916004966
 30
0.0
 10
117.367218983729
 20
66.41118498642082
 30
0.0
 10
117.3432096537726
 20
66.66211598151284
 30
0.0
 10
117.3426365331
 20
67.42636136106906
 30
0.0
 10
117.4380356444186
 20
67.92858566312002
 30
0.0
 10
117.7158994366198
 20
68.6361501693924
 30
0.0
 10
117.8290613927003
 20
68.85985643313322
 30
0.0
 10
118.0951925747442
 20
69.2841263444538
 30
0.0
 10
118.2500203489439
 20
69.48637830650986
 30
0.0
 10
118.5902014547317
 20
69.85408904787803
 30
0.0
 10
118.7757039116814
 20
70.02070592312737
 30
0.0
 10
119.1779977127408
 20
70.3197553019228
 30
0.0
 10
119.3960057609928
 20
70.45221200995121
 30
0.0
 10
119.8466041281431
 20
70.67141841065589
 30
0.0
 10
120.0811531270238
 20
70.75990354065952
 30
0.0
 10
120.5696131205762
 20
70.89338977059818
 30
0.0
 10
120.8218785162901
 20
70.93733148309192
 30
0.0
 10
121.3240591544503
 20
70.9771404795654
 30
0.0
 10
121.576541271802
 20
70.9737962667519
 30
0.0
 10
122.0844063148715
 20
70.91861694676138
 30
0.0
 10
122.3319517880553
 20
70.86757101829197
 30
0.0
 10
122.812919325526
 20
70.72116063005639
 30
0.0
 10
123.0488791906313
 20
70.62451442528278
 30
0.0
 10
123.4954496401529
 20
70.39060948096974
 30
0.0
 10
123.7050945027264
 20
70.25448446714323
 30
0.0
 10
124.0980812094809
 20
69.94443020281413
 30
0.0
 10
124.2824771132958
 20
69.76877295523902
 30
0.0
 10
124.6110275311562
 20
69.3916330325746
 30
0.0
 10
124.7569696276794
 20
69.18916682730473
 30
0.0
 10
125.0118549828816
 20
68.7555905291714
 30
0.0
 10
125.1201662956899
 20
68.52429868558987
 30
0.0
 10
125.2900012731068
 20
68.05093900545664
 30
0.0
 10
125.3529966342439
 20
67.80665720863587
 30
0.0
 10
125.3930174747382
 20
67.55433048175583
 30
0.0
  0
SPLINE
  5
12B
330
1F
100
AcDbEntity
  8
0
  6
HIDDEN
 62
     7
370
     0
100
AcDbSpline
210
0.0
220
0.0
230
1.0
 70
     8
 71
     3
 72
    68
 73
    64
 74
     0
 42
0.00000001
 43
0.00000001
 12
1.0
 22
0.0
 32
0.0
 13
1.0
 23
0.0
 33
0.0
 40
0.0
 40
0.0
 40
0.0
 40
0.0
 40
0.0312499999999999
 40
0.0312499999999999
 40
0.0624999999999997
 40
0.0624999999999997
 40
0.0937499999999996
 40
0.0937499999999996
 40
0.1249999999999995
 40
0.1249999999999995
 40
0.1562499999999994
 40
0.1562499999999994
 40
0.1874999999999992
 40
0.1874999999999992
 40
0.2187499999999991
 40
0.2187499999999991
 40
0.2499999999999989
 40
0.2499999999999989
 40
0.2812499999999988
 40
0.2812499999999988
 40
0.3124999999999987
 40
0.3124999999999987
 40
0.3437499999999985
 40
0.3437499999999985
 40
0.3749999999999983
 40
0.3749999999999983
 40
0.4062499999999982
 40
0.4062499999999982
 40
0.4374999999999981
 40
0.4374999999999981
 40
0.4687499999999981
 40
0.4687499999999981
 40
0.4999999999999979
 40
0.4999999999999979
 40
0.5624999999999977
 40
0.5624999999999977
 40
0.5937499999999977
 40
0.5937499999999977
 40
0.6249999999999977
 40
0.6249999999999977
 40
0.6562499999999976
 40
0.6562499999999976
 40
0.6874999999999976
 40
0.6874999999999976
 40
0.7187499999999976
 40
0.7187499999999976
 40
0.7499999999999974
 40
0.7499999999999974
 40
0.7812499999999978
 40
0.7812499999999978
 40
0.8124999999999981
 40
0.8124999999999981
 40
0.8437499999999984
 40
0.8437499999999984
 40
0.8749999999999987
 40
0.8749999999999987
 40
0.906249999999999
 40
0.906249999999999
 40
0.9374999999999993
 40
0.9374999999999993
 40
0.9687499999999996
 40
0.9687499999999996
 40
1.0
 40
1.0
 40
1.0
 40
1.0
 10
125.3930174747382
 20
67.55433048175584
 30
0.0
 10
125.3530025223885
 20
67.80662008457143
 30
0.0
 10
125.2900607209772
 20
68.05061893494724
 30
0.0
 10
125.1206740589052
 20
68.52303732400975
 30
0.0
 10
125.0129804963196
 20
68.75345071016969
 30
0.0
 10
124.7576957277818
 20
69.18815530596677
 30
0.0
 10
124.6116564973095
 20
69.3907972726181
 30
0.0
 10
124.2834350607503
 20
69.7677865633759
 30
0.0
 10
124.0991877729753
 20
69.94344451695329
 30
0.0
 10
123.706227605667
 20
70.25370248589954
 30
0.0
 10
123.4969330087079
 20
70.38964769354945
 30
0.0
 10
123.0520475817705
 20
70.62303778895529
 30
0.0
 10
122.8152499892715
 20
70.72028439536969
 30
0.0
 10
122.3345149203522
 20
70.86695585324105
 30
0.0
 10
122.0882718271694
 20
70.91784819818346
 30
0.0
 10
121.58355504719
 20
70.97337554841896
 30
0.0
 10
121.3273603462535
 20
70.97720043548888
 30
0.0
 10
120.8249815970534
 20
70.93777665284448
 30
0.0
 10
120.5757318978698
 20
70.89474920363322
 30
0.0
 10
120.084204100391
 20
70.76104423418195
 30
0.0
 10
119.8489084991652
 20
70.67237438827675
 30
0.0
 10
119.3979946045031
 20
70.45334302449933
 30
0.0
 10
119.1803822540397
 20
70.32134145881577
 30
0.0
 10
118.7771750844914
 20
70.02198417781288
 30
0.0
 10
118.591563592057
 20
69.85536525037502
 30
0.0
 10
118.2515755216545
 20
69.48825382494752
 30
0.0
 10
118.0965025908316
 20
69.28595007940683
 30
0.0
 10
117.8301595141682
 20
68.86186939981282
 30
0.0
 10
117.7171754134514
 20
68.63870979434661
 30
0.0
 10
117.5323201565206
 20
68.16935455275245
 30
0.0
 10
117.4611793950171
 20
67.92314404941695
 30
0.0
 10
117.367218983729
 20
67.42861822304579
 30
0.0
 10
117.3432096537726
 20
67.17768722795378
 30
0.0
 10
117.3426365331
 20
66.41344184839757
 30
0.0
 10
117.4380356444186
 20
65.91121754634659
 30
0.0
 10
117.7158994366198
 20
65.20365304007422
 30
0.0
 10
117.8290613927003
 20
64.97994677633339
 30
0.0
 10
118.0951925747442
 20
64.55567686501281
 30
0.0
 10
118.2500203489439
 20
64.35342490295676
 30
0.0
 10
118.5902014547317
 20
63.98571416158859
 30
0.0
 10
118.7757039116814
 20
63.81909728633924
 30
0.0
 10
119.1779977127408
 20
63.52004790754381
 30
0.0
 10
119.3960057609928
 20
63.3875911995154
 30
0.0
 10
119.8466041281431
 20
63.16838479881072
 30
0.0
 10
120.0811531270238
 20
63.07989966880709
 30
0.0
 10
120.5696131205762
 20
62.94641343886843
 30
0.0
 10
120.82187851629
 20
62.90247172637469
 30
0.0
 10
121.3240591544503
 20
62.8626627299012
 30
0.0
 10
121.576541271802
 20
62.8660069427147
 30
0.0
 10
122.0844063148715
 20
62.92118626270521
 30
0.0
 10
122.3319517880553
 20
62.97223219117462
 30
0.0
 10
122.812919325526
 20
63.11864257941021
 30
0.0
 10
123.0488791906313
 20
63.21528878418381
 30
0.0
 10
123.4954496401529
 20
63.44919372849684
 30
0.0
 10
123.7050945027264
 20
63.58531874232336
 30
0.0
 10
124.0980812094808
 20
63.89537300665245
 30
0.0
 10
124.2824771132958
 20
64.07103025422757
 30
0.0
 10
124.6110275311562
 20
64.44817017689199
 30
0.0
 10
124.7569696276794
 20
64.65063638216184
 30
0.0
 10
125.0118549828816
 20
65.08421268029518
 30
0.0
 10
125.1201662956899
 20
65.31550452387671
 30
0.0
 10
125.2900012731068
 20
65.78886420400995
 30
0.0
 10
125.3529966342439
 20
66.03314600083073
 30
0.0
 10
125.3930174747382
 20
66.28547272771078
 30
0.0
  0
LINE
  5
12C
330
1F
100
AcDbEntity
  8
0
  6
HIDDEN
 62
     7
370
     0
100
AcDbLine
 10
127.1430174747
 20
75.9199016047
 30
0.0
 11
127.1430174747
 21
57.9199016047
 31
0.0
  0
LINE
  5
12D
330
1F
100
AcDbEntity
  8
0
  6
HIDDEN
 62
     7
370
     0
100
AcDbLine
 10
125.8930174747
 20
56.6699016047
 30
0.0
 11
125.8930174747
 21
77.1488418804
 31
0.0
  0
LINE
  5
12E
330
1F
100
AcDbEntity
  8
0
  6
HIDDEN
 62
     7
370
     0
100
AcDbLine
 10
163.8930174747
 20
57.9199016047
 30
0.0
 11
163.8930174747
 21
75.9199016047
 31
0.0
  0
LINE
  5
12F
330
1F
100
AcDbEntity
  8
0
  6
HIDDEN
 62
     7
370
     0
100
AcDbLine
 10
166.7471054151
 20
62.6699016047
 30
0.0
 11
166.7471054151
 21
71.1699016047
 31
0.0
  0
CIRCLE
  5
130
330
1F
100
AcDbEntity
  8
0
  6
HIDDEN
 62
     7
370
     0
100
AcDbCircle
 10
208.8034727888
 20
60.9578681915
 30
0.0
 40
3.482110124198667
  0
ARC
  5
131
330
1F
100
AcDbEntity
  8
0
  6
HIDDEN
 62
     7
370
     0
100
AcDbCircle
 10
209.4086703537
 20
68.8689519333
 30
0.0
 40
2.095080542531292
100
AcDbArc
 50
68.0444819508
 51
242.3539009596
  0
LINE
  5
132
330
1F
100
AcDbEntity
  8
0
  6
HIDDEN
 62
     7
370
     0
100
AcDbLine
 10
222.9038531681
 20
60.2119790209
 30
0.0
 11
221.30281697
 21
60.2119790209
 31
0.0
  0
LINE
  5
133
330
1F
100
AcDbEntity
  8
0
  6
HIDDEN
 62
     7
370
     0
100
AcDbLine
 10
177.8930174747
 20
62.6699016047
 30
0.0
 11
177.8930174747
 21
71.1699016047
 31
0.0
  0
SPLINE
  5
134
330
1F
100
AcDbEntity
  8
0
  6
HIDDEN
 62
     7
370
     0
100
AcDbSpline
210
0.0
220
0.0
230
1.0
 70
     8
 71
     3
 72
    64
 73
    60
 74
     0
 42
0.00000001
 43
0.00000001
 12
1.0
 22
0.0
 32
0.0
 13
1.0
 23
0.0
 33
0.0
 40
-0.0312500000000006
 40
-0.0312500000000006
 40
0.0
 40
0.0
 40
0.0312500000000001
 40
0.0312500000000001
 40
0.0625000000000001
 40
0.0625000000000001
 40
0.1249999999999998
 40
0.1249999999999998
 40
0.1562499999999996
 40
0.1562499999999996
 40
0.1874999999999994
 40
0.1874999999999994
 40
0.2187499999999993
 40
0.2187499999999993
 40
0.2499999999999991
 40
0.2499999999999991
 40
0.2812499999999989
 40
0.2812499999999989
 40
0.3124999999999988
 40
0.3124999999999988
 40
0.3437499999999986
 40
0.3437499999999986
 40
0.3749999999999984
 40
0.3749999999999984
 40
0.4062499999999983
 40
0.4062499999999983
 40
0.4374999999999981
 40
0.4374999999999981
 40
0.4687499999999979
 40
0.4687499999999979
 40
0.4999999999999978
 40
0.4999999999999978
 40
0.5312499999999976
 40
0.5312499999999976
 40
0.5624999999999974
 40
0.5624999999999974
 40
0.6249999999999976
 40
0.6249999999999976
 40
0.6562499999999976
 40
0.6562499999999976
 40
0.6874999999999977
 40
0.6874999999999977
 40
0.7187499999999977
 40
0.7187499999999977
 40
0.7499999999999978
 40
0.7499999999999978
 40
0.7812499999999978
 40
0.7812499999999978
 40
0.8124999999999979
 40
0.8124999999999979
 40
0.8437499999999979
 40
0.8437499999999979
 40
0.874999999999998
 40
0.874999999999998
 40
0.937499999999999
 40
0.937499999999999
 40
0.9687499999999994
 40
0.9687499999999994
 40
1.0
 40
1.0
 40
1.03125
 40
1.03125
 10
171.3930174747382
 20
67.08929259807348
 30
0.0
 10
171.3930174747382
 20
66.75051061139312
 30
0.0
 10
171.4100495981394
 20
66.58465850357693
 30
0.0
 10
171.4761117951446
 20
66.25953477558241
 30
0.0
 10
171.5260429447116
 20
66.09880127717368
 30
0.0
 10
171.7168710400783
 20
65.64652680139756
 30
0.0
 10
171.9017534431785
 20
65.37521491923984
 30
0.0
 10
172.2394660365728
 20
65.0381298355562
 30
0.0
 10
172.364015514752
 20
64.93552224252643
 30
0.0
 10
172.6294999078054
 20
64.75677151043791
 30
0.0
 10
172.7699064649339
 20
64.68052424959794
 30
0.0
 10
173.0679902957247
 20
64.55441657351338
 30
0.0
 10
173.2277437163729
 20
64.50435058197365
 30
0.0
 10
173.55248409802
 20
64.43766210451065
 30
0.0
 10
173.7192287281558
 20
64.42021682831172
 30
0.0
 10
174.057615567092
 20
64.4195948279745
 30
0.0
 10
174.2234901898179
 20
64.43628028687883
 30
0.0
 10
174.5491461763157
 20
64.50182753786116
 30
0.0
 10
174.708872749924
 20
64.55118518135384
 30
0.0
 10
175.0088161749327
 20
64.67681654502643
 30
0.0
 10
175.1522413608669
 20
64.75423081247541
 30
0.0
 10
175.4189061755715
 20
64.93308544602478
 30
0.0
 10
175.54180705161
 20
65.03390089864455
 30
0.0
 10
175.7683884518337
 20
65.25903152238601
 30
0.0
 10
175.8720180568775
 20
65.38392216764542
 30
0.0
 10
176.0519163208115
 20
65.64914123877605
 30
0.0
 10
176.1294207339549
 20
65.79051591205882
 30
0.0
 10
176.2580275423519
 20
66.09301650948808
 30
0.0
 10
176.3080006093481
 20
66.25269031559996
 30
0.0
 10
176.374816594052
 20
66.576408408046
 30
0.0
 10
176.3924942564142
 20
66.7431068842101
 30
0.0
 10
176.3935178298329
 20
67.08157575082193
 30
0.0
 10
176.3770159802325
 20
67.24773670042956
 30
0.0
 10
176.3115992370553
 20
67.57426135613545
 30
0.0
 10
176.261952372805
 20
67.73537404176014
 30
0.0
 10
176.0718991420325
 20
68.18870658078211
 30
0.0
 10
175.8872829043443
 20
68.4609259300107
 30
0.0
 10
175.5489662025099
 20
68.79960808572872
 30
0.0
 10
175.4240002472503
 20
68.90273179509862
 30
0.0
 10
175.1591530260017
 20
69.08148079120315
 30
0.0
 10
175.0186043589709
 20
69.15810673268818
 30
0.0
 10
174.7188011708764
 20
69.2851900260368
 30
0.0
 10
174.5591904054911
 20
69.33520265787946
 30
0.0
 10
174.2345369792679
 20
69.40200353233875
 30
0.0
 10
174.0653408257494
 20
69.41962841977133
 30
0.0
 10
173.7287139448235
 20
69.42016835793812
 30
0.0
 10
173.5627500913408
 20
69.40361300003372
 30
0.0
 10
173.2352779969392
 20
69.33760250001087
 30
0.0
 10
173.0762728231161
 20
69.2883322554885
 30
0.0
 10
172.7758346660422
 20
69.16231952861463
 30
0.0
 10
172.6317669181257
 20
69.08437840563839
 30
0.0
 10
172.3655770430224
 20
68.90550945014775
 30
0.0
 10
172.2424282706976
 20
68.80440768681503
 30
0.0
 10
171.9009939317662
 20
68.46427001280132
 30
0.0
 10
171.7190087338319
 20
68.19796807504444
 30
0.0
 10
171.5256144616468
 20
67.74017287121991
 30
0.0
 10
171.4768391131068
 20
67.58284142003171
 30
0.0
 10
171.4105202673584
 20
67.25844951755361
 30
0.0
 10
171.3930174747382
 20
67.08929259807348
 30
0.0
 10
171.3930174747382
 20
66.75051061139312
 30
0.0
  0
LINE
  5
135
330
1F
100
AcDbEntity
  8
0
  6
HIDDEN
 62
     7
370
     0
100
AcDbLine
 10
222.9038531681
 20
73.6278241886
 30
0.0
 11
221.30281697
 21
73.6278241886
 31
0.0
  0
SPLINE
  5
136
330
1F
100
AcDbEntity
  8
0
  6
HIDDEN
 62
     7
370
     0
100
AcDbSpline
210
0.0
220
0.0
230
1.0
 70
     8
 71
     3
 72
    40
 73
    36
 74
     0
 42
0.00000001
 43
0.00000001
 12
1.0
 22
0.0
 32
0.0
 13
1.0
 23
0.0
 33
0.0
 40
0.0
 40
0.0
 40
0.0
 40
0.0
 40
0.1250000000000008
 40
0.1250000000000008
 40
0.2500000000000016
 40
0.2500000000000016
 40
0.3125000000000026
 40
0.3125000000000026
 40
0.3750000000000037
 40
0.3750000000000037
 40
0.4062500000000034
 40
0.4062500000000034
 40
0.4375000000000032
 40
0.4375000000000032
 40
0.4687500000000029
 40
0.4687500000000029
 40
0.4843750000000028
 40
0.4843750000000028
 40
0.5000000000000028
 40
0.5000000000000028
 40
0.5312500000000027
 40
0.5312500000000027
 40
0.5625000000000024
 40
0.5625000000000024
 40
0.5937500000000023
 40
0.5937500000000023
 40
0.6250000000000022
 40
0.6250000000000022
 40
0.687500000000002
 40
0.687500000000002
 40
0.7500000000000019
 40
0.7500000000000019
 40
0.875000000000001
 40
0.875000000000001
 40
1.0
 40
1.0
 40
1.0
 40
1.0
 10
209.7146054424977
 20
64.55126004121067
 30
0.0
 10
209.811097755981
 20
64.55126004121061
 30
0.0
 10
209.9644598655495
 20
64.51697494531417
 30
0.0
 10
210.3338933789486
 20
64.39659981294969
 30
0.0
 10
210.5491610338509
 20
64.31042175683673
 30
0.0
 10
210.9023659515505
 20
64.12764523953784
 30
0.0
 10
211.0255447315087
 20
64.05754469611375
 30
0.0
 10
211.2837554062265
 20
63.89000269839831
 30
0.0
 10
211.4195258505318
 20
63.79216852274017
 30
0.0
 10
211.6280711746177
 20
63.61513984662285
 30
0.0
 10
211.6985951966069
 20
63.55091387689922
 30
0.0
 10
211.8420836761985
 20
63.40721514086489
 30
0.0
 10
211.9158395537118
 20
63.32692895519824
 30
0.0
 10
212.0629713381619
 20
63.14566494267618
 30
0.0
 10
212.1357637131823
 20
63.04563843075181
 30
0.0
 10
212.2408788099961
 20
62.8745848928899
 30
0.0
 10
212.2743640233882
 20
62.815381738802
 30
0.0
 10
212.33766745867
 20
62.69185272754429
 30
0.0
 10
212.3677332382656
 20
62.62677509497033
 30
0.0
 10
212.4473877121111
 20
62.43267320087696
 30
0.0
 10
212.4881219788765
 20
62.30017772012633
 30
0.0
 10
212.5429027980895
 20
62.05339674817466
 30
0.0
 10
212.5578718205287
 20
61.93788079657798
 30
0.0
 10
212.5715936323696
 20
61.72706263933082
 30
0.0
 10
212.570562228201
 20
61.62914655616881
 30
0.0
 10
212.5587675035901
 20
61.44895015604771
 30
0.0
 10
212.5480452954296
 20
61.36615927425284
 30
0.0
 10
212.5064924040588
 20
61.13296479112363
 30
0.0
 10
212.4661583041016
 20
60.99686303382358
 30
0.0
 10
212.3747832439755
 20
60.75471087049237
 30
0.0
 10
212.3234654629595
 20
60.64827478177542
 30
0.0
 10
212.1612521138838
 20
60.36171719671232
 30
0.0
 10
212.0415808397701
 20
60.21271029580433
 30
0.0
 10
211.8083936367401
 20
59.99796208510134
 30
0.0
 10
211.6956674612357
 20
59.93186237865399
 30
0.0
 10
211.5989534982101
 20
59.93186237865397
 30
0.0
  0
ELLIPSE
  5
137
330
1F
100
AcDbEntity
  8
0
  6
HIDDEN
 62
     7
370
     0
100
AcDbEllipse
 10
215.2509395426
 20
63.7477099423
 30
0.0
 11
3.476472107873605
 21
-1.479748949970962
 31
0.0
210
0.0
220
0.0
230
1.0
 40
0.0819499016
 41
6.092982334712281
 42
9.23457498830154
  0
LINE
  5
138
330
1F
100
AcDbEntity
  8
0
  6
HIDDEN
 62
     7
370
     0
100
AcDbLine
 10
211.5989534982
 20
59.9318623787
 30
0.0
 11
210.871049038
 21
59.9318623787
 31
0.0
  0
LINE
  5
139
330
1F
100
AcDbEntity
  8
0
  6
HIDDEN
 62
     7
370
     0
100
AcDbLine
 10
210.871049038
 20
59.9318623787
 30
0.0
 11
215.2452886307
 21
62.043523877
 31
0.0
  0
LINE
  5
13A
330
1F
100
AcDbEntity
  8
0
  6
HIDDEN
 62
     7
370
     0
100
AcDbLine
 10
221.2806911841
 20
63.845793216
 30
0.0
 11
220.7426964621
 21
63.845793216
 31
0.0
  0
LINE
  5
13B
330
1F
100
AcDbEntity
  8
0
  6
HIDDEN
 62
     7
370
     0
100
AcDbLine
 10
217.464725825
 20
62.2407849284
 30
0.0
 11
221.2806911841
 21
63.845793216
 31
0.0
  0
LINE
  5
13C
330
1F
100
AcDbEntity
  8
0
  6
HIDDEN
 62
     7
370
     0
100
AcDbLine
 10
218.6417903443
 20
62.2407849284
 30
0.0
 11
217.464725825
 21
62.2407849284
 31
0.0
  0
LINE
  5
13D
330
1F
100
AcDbEntity
  8
0
  6
HIDDEN
 62
     7
370
     0
100
AcDbLine
 10
208.9867009823
 20
64.5512600412
 30
0.0
 11
209.7146054425
 21
64.5512600412
 31
0.0
  0
ELLIPSE
  5
13E
330
1F
100
AcDbEntity
  8
0
  6
HIDDEN
 62
     7
370
     0
100
AcDbEllipse
 10
207.2535300488
 20
60.9500400598
 30
0.0
 11
-0.7805620055364956
 21
4.144830946102793
 31
0.0
210
0.0
220
0.0
230
1.0
 40
0.8692588716
 41
4.305264950631823
 42
5.580388791870179
  0
CIRCLE
  5
13F
330
1F
100
AcDbEntity
  8
0
  6
HIDDEN
 62
     7
370
     0
100
AcDbCircle
 10
208.7396400225
 20
60.9583325519
 30
0.0
 40
4.180679055965291
  0
ARC
  5
140
330
1F
100
AcDbEntity
  8
0
  6
HIDDEN
 62
     7
370
     0
100
AcDbCircle
 10
222.167758964
 20
66.9016776965
 30
0.0
 40
3.182030673069506
100
AcDbArc
 50
253.8129464047
 51
150.5701848456
  0
LINE
  5
141
330
1F
100
AcDbEntity
  8
0
  6
HIDDEN
 62
     7
370
     0
100
AcDbLine
 10
219.3963431284
 20
68.4651908786
 30
0.0
 11
211.7631300928
 21
65.2546349562
 31
0.0
  0
LINE
  5
142
330
1F
100
AcDbEntity
  8
0
  6
HIDDEN
 62
     7
370
     0
100
AcDbLine
 10
233.4687310284
 20
66.6428524368
 30
0.0
 11
233.4687310284
 21
67.1969507727
 31
0.0
  0
LINE
  5
143
330
1F
100
AcDbEntity
  8
0
  6
HIDDEN
 62
     7
370
     0
100
AcDbLine
 10
221.30281697
 20
73.6278241886
 30
0.0
 11
213.0916177581
 21
69.2874036932
 31
0.0
  0
LINE
  5
144
330
1F
100
AcDbEntity
  8
0
  6
HIDDEN
 62
     7
370
     0
100
AcDbLine
 10
208.4365343215
 20
67.0130656182
 30
0.0
 11
211.7631300928
 21
65.2546349562
 31
0.0
  0
LINE
  5
145
330
1F
100
AcDbEntity
  8
0
  6
HIDDEN
 62
     7
370
     0
100
AcDbLine
 10
217.464725825
 20
62.2407849284
 30
0.0
 11
221.30281697
 21
60.2119790209
 31
0.0
  0
LINE
  5
146
330
1F
100
AcDbEntity
  8
0
  6
HIDDEN
 62
     7
370
     0
100
AcDbLine
 10
221.30281697
 20
60.2119790209
 30
0.0
 11
233.4687310284
 21
66.6428524368
 31
0.0
  0
LINE
  5
147
330
1F
100
AcDbEntity
  8
0
  6
HIDDEN
 62
     7
370
     0
100
AcDbLine
 10
221.30281697
 20
73.6278241886
 30
0.0
 11
233.4687310284
 21
67.1969507727
 31
0.0
  0
LINE
  5
148
330
1F
100
AcDbEntity
  8
0
  6
HIDDEN
 62
     7
370
     0
100
AcDbLine
 10
211.7631300928
 20
65.2546349562
 30
0.0
 11
211.8600887409
 21
65.2546349562
 31
0.0
  0
LINE
  5
149
330
1F
100
AcDbEntity
  8
0
  6
HIDDEN
 62
     7
370
     0
100
AcDbLine
 10
100.3930174747
 20
88.078265001
 30
0.0
 11
100.3930174747
 21
82.0239544335
 31
0.0
  0
LINE
  5
14A
330
1F
100
AcDbEntity
  8
0
  6
HIDDEN
 62
     7
370
     0
100
AcDbLine
 10
98.8930174747
 20
87.2122395972
 30
0.0
 11
98.8930174747
 21
81.5909417316
 31
0.0
  0
LINE
  5
14B
330
1F
100
AcDbEntity
  8
0
  6
HIDDEN
 62
     7
370
     0
100
AcDbLine
 10
134.6930174747
 20
88.9400003893
 30
0.0
 11
134.6930174747
 21
82.4548221276
 31
0.0
  0
SPLINE
  5
14C
330
1F
100
AcDbEntity
  8
0
  6
HIDDEN
 62
     7
370
     0
100
AcDbSpline
210
0.0
220
0.0
230
1.0
 70
     8
 71
     3
 72
    16
 73
    12
 74
     0
 42
0.00000001
 43
0.00000001
 12
1.0
 22
0.0
 32
0.0
 13
1.0
 23
0.0
 33
0.0
 40
0.0
 40
0.0
 40
0.0
 40
0.0
 40
0.25
 40
0.25
 40
0.375
 40
0.375
 40
0.5
 40
0.5
 40
0.75
 40
0.75
 40
1.0
 40
1.0
 40
1.0
 40
1.0
 10
135.5716971311786
 20
88.68998255973541
 30
0.0
 10
135.4104646536941
 20
88.5919669466807
 30
0.0
 10
135.2899848140545
 20
88.40523091500464
 30
0.0
 10
135.1676042967411
 20
87.99219110744575
 30
0.0
 10
135.1366266363437
 20
87.83219060821281
 30
0.0
 10
135.0950128987157
 20
87.46538495712166
 30
0.0
 10
135.0847769857829
 20
87.26204780449766
 30
0.0
 10
135.0845885887268
 20
86.594760537871
 30
0.0
 10
135.1247332913644
 20
86.07394607398292
 30
0.0
 10
135.288887046304
 20
84.87658705850522
 30
0.0
 10
135.4104386967136
 20
84.21831740420923
 30
0.0
 10
135.5716971311786
 20
83.50380823097431
 30
0.0
  0
SPLINE
  5
14D
330
1F
100
AcDbEntity
  8
0
  6
HIDDEN
 62
     7
370
     0
100
AcDbSpline
210
0.0
220
0.0
230
1.0
 70
     8
 71
     3
 72
    16
 73
    12
 74
     0
 42
0.00000001
 43
0.00000001
 12
1.0
 22
0.0
 32
0.0
 13
1.0
 23
0.0
 33
0.0
 40
0.0
 40
0.0
 40
0.0
 40
0.0
 40
0.2499999999999997
 40
0.2499999999999997
 40
0.3749999999999999
 40
0.3749999999999999
 40
0.5000000000000001
 40
0.5000000000000001
 40
0.75
 40
0.75
 40
1.0
 40
1.0
 40
1.0
 40
1.0
 10
135.5716971311786
 20
50.33599497849227
 30
0.0
 10
135.4104646536941
 20
49.62160081630014
 30
0.0
 10
135.2899848140545
 20
48.96825855359147
 30
0.0
 10
135.1676042967411
 20
48.08000331178756
 30
0.0
 10
135.1366266363437
 20
47.79932277543573
 30
0.0
 10
135.0950128987157
 20
47.27028878559573
 30
0.0
 10
135.0847769857829
 20
47.02696780701729
 30
0.0
 10
135.0845885887268
 20
46.35894511650407
 30
0.0
 10
135.1247332913644
 20
45.9952642070846
 30
0.0
 10
135.288887046304
 20
45.43537333453627
 30
0.0
 10
135.4104386967136
 20
45.24785204241913
 30
0.0
 10
135.5716971311786
 20
45.14982064973118
 30
0.0
  0
LINE
  5
14E
330
1F
100
AcDbEntity
  8
0
  6
HIDDEN
 62
     7
370
     0
100
AcDbLine
 10
134.6930174747
 20
51.3849810819
 30
0.0
 11
134.6930174747
 21
44.8998028202
 31
0.0
  0
LINE
  5
14F
330
1F
100
AcDbEntity
  8
0
  6
HIDDEN
 62
     7
370
     0
100
AcDbLine
 10
100.3930174747
 20
51.815848776
 30
0.0
 11
100.3930174747
 21
45.7615382084
 31
0.0
  0
LINE
  5
150
330
1F
100
AcDbEntity
  8
0
  6
HIDDEN
 62
     7
370
     0
100
AcDbLine
 10
98.8930174747
 20
52.2488614779
 30
0.0
 11
98.8930174747
 21
46.6275636122
 31
0.0
  0
SPLINE
  5
151
330
1F
100
AcDbEntity
  8
0
  6
HIDDEN
 62
     7
370
     0
100
AcDbSpline
210
0.0
220
0.0
230
1.0
 70
     8
 71
     3
 72
    10
 73
     6
 74
     0
 42
0.00000001
 43
0.00000001
 12
1.0
 22
0.0
 32
0.0
 13
1.0
 23
0.0
 33
0.0
 40
0.0
 40
0.0
 40
0.0
 40
0.0
 40
0.5
 40
0.5
 40
1.0
 40
1.0
 40
1.0
 40
1.0
 10
220.7426964621102
 20
63.84579321599681
 30
0.0
 10
220.6685173688915
 20
63.84579321599681
 30
0.0
 10
220.5466996936556
 20
63.85961899149155
 30
0.0
 10
220.2641126592355
 20
63.9061612186978
 30
0.0
 10
220.1014830755043
 20
63.93953013724789
 30
0.0
 10
219.9256656274574
 20
63.98584894894406
 30
0.0
  0
ARC
  5
152
330
1F
100
AcDbEntity
  8
0
  6
HIDDEN
 62
     7
370
     0
100
AcDbCircle
 10
221.1974134769
 20
66.8990046491
 30
0.0
 40
3.178650456706655
100
AcDbArc
 50
246.41616383
 51
157.9669674203
  0
SPLINE
  5
153
330
1F
100
AcDbEntity
  8
0
  6
HIDDEN
 62
     7
370
     0
100
AcDbSpline
210
0.0
220
0.0
230
1.0
 70
     8
 71
     3
 72
    10
 73
     6
 74
     0
 42
0.00000001
 43
0.00000001
 12
1.0
 22
0.0
 32
0.0
 13
1.0
 23
0.0
 33
0.0
 40
0.0
 40
0.0
 40
0.0
 40
0.0
 40
0.5
 40
0.5
 40
1.0
 40
1.0
 40
1.0
 40
1.0
 10
218.2509070799691
 20
68.09144700772895
 30
0.0
 10
218.3637936733933
 20
68.1994521117685
 30
0.0
 10
218.476515780864
 20
68.28845115044895
 30
0.0
 10
218.686250861093
 20
68.4204855851271
 30
0.0
 10
218.7840821753049
 20
68.46519087855334
 30
0.0
 10
218.8583484063953
 20
68.4651908785534
 30
0.0
  0
LINE
  5
154
330
1F
100
AcDbEntity
  8
0
  6
HIDDEN
 62
     7
370
     0
100
AcDbLine
 10
218.8583484064
 20
68.4651908786
 30
0.0
 11
219.3963431284
 21
68.4651908786
 31
0.0
  0
LINE
  5
155
330
1F
100
AcDbEntity
  8
0
  6
HIDDEN
 62
     7
370
     0
100
AcDbLine
 10
229.5127092538
 20
66.6428524368
 30
0.0
 11
233.4687310284
 21
66.6428524368
 31
0.0
  0
LINE
  5
156
330
1F
100
AcDbEntity
  8
0
  6
HIDDEN
 62
     7
370
     0
100
AcDbLine
 10
233.4687310284
 20
67.1969507727
 30
0.0
 11
229.5127092538
 21
67.1969507727
 31
0.0
  0
ELLIPSE
  5
157
330
1F
100
AcDbEntity
  8
0
  6
HIDDEN
 62
     7
370
     0
100
AcDbEllipse
 10
217.8307320622
 20
65.5097162743
 30
0.0
 11
2.71372826694153
 21
1.223760679025943
 31
0.0
210
0.0
220
0.0
230
1.0
 40
0.8377797594
 41
5.158083190168369
 42
7.347407560711669
  0
LWPOLYLINE
  5
158
330
1F
100
AcDbEntity
  8
0
  6
HIDDEN
 62
     7
370
     0
100
AcDbPolyline
 90
       13
 70
   128
 43
0.0
 10
215.2452886307
 20
62.043523877
 10
215.6384192183
 20
62.3275065984
 10
215.9405510029
 20
62.7495385251
 10
216.131094203
 20
63.2808588786
 10
216.1970636141
 20
63.885259055
 10
216.13396353
 20
64.521550181
 10
215.9460941172
 20
65.1463700679
 10
215.6462583656
 20
65.7171382729
 10
215.2548895863
 20
66.1949578863
 10
214.7986589147
 20
66.5472662908
 10
214.3086577171
 20
66.7500542511
 10
213.8182787655
 20
66.7895021026
 10
213.360940575
 20
66.6629215396
  0
LINE
  5
159
330
1F
100
AcDbEntity
  8
0
  6
HIDDEN
 62
     7
370
     0
100
AcDbLine
 10
213.360940575
 20
66.6629215396
 30
0.0
 11
208.9867009823
 21
64.5512600412
 31
0.0
  0
LINE
  5
15A
330
1F
100
AcDbEntity
  8
0
  6
HIDDEN
 62
     7
370
     0
100
AcDbLine
 10
98.8930174747
 20
81.5909417316
 30
0.0
 11
98.8930174747
 21
69.8218889377
 31
0.0
  0
LINE
  5
15B
330
1F
100
AcDbEntity
  8
0
  6
HIDDEN
 62
     7
370
     0
100
AcDbLine
 10
98.8930174747
 20
64.0179142718
 30
0.0
 11
98.8930174747
 21
52.2488614779
 31
0.0
  0
LINE
  5
15C
330
1F
100
AcDbEntity
  8
0
  6
HIDDEN
 62
     7
370
     0
100
AcDbLine
 10
100.3930174747
 20
62.9546907079
 30
0.0
 11
100.3930174747
 21
51.815848776
 31
0.0
  0
LINE
  5
15D
330
1F
100
AcDbEntity
  8
0
  6
HIDDEN
 62
     7
370
     0
100
AcDbLine
 10
100.3930174747
 20
82.0239544335
 30
0.0
 11
100.3930174747
 21
70.8851125016
 31
0.0
  0
LINE
  5
15E
330
1F
100
AcDbEntity
  8
0
  6
HIDDEN
 62
     7
370
     0
100
AcDbLine
 10
136.6930174747
 20
81.9576087672
 30
0.0
 11
136.6930174747
 21
51.8821944422
 31
0.0
  0
LINE
  5
15F
330
1F
100
AcDbEntity
  8
0
  6
HIDDEN
 62
     7
370
     0
100
AcDbLine
 10
134.6930174747
 20
82.4548221276
 30
0.0
 11
134.6930174747
 21
51.3849810819
 31
0.0
  0
SPLINE
  5
160
330
1F
100
AcDbEntity
  8
0
  6
HIDDEN
 62
     7
370
     0
100
AcDbSpline
210
0.0
220
0.0
230
1.0
 70
     8
 71
     3
 72
    24
 73
    20
 74
     0
 42
0.00000001
 43
0.00000001
 12
1.0
 22
0.0
 32
0.0
 13
1.0
 23
0.0
 33
0.0
 40
0.0
 40
0.0
 40
0.0
 40
0.0
 40
0.1249999999999998
 40
0.1249999999999998
 40
0.2499999999999996
 40
0.2499999999999996
 40
0.3749999999999994
 40
0.3749999999999994
 40
0.4374999999999996
 40
0.4374999999999996
 40
0.4999999999999996
 40
0.4999999999999996
 40
0.6249999999999997
 40
0.6249999999999997
 40
0.7499999999999998
 40
0.7499999999999998
 40
0.8749999999999999
 40
0.8749999999999999
 40
1.0
 40
1.0
 40
1.0
 40
1.0
 10
105.3430174747382
 20
62.83394055163405
 30
0.0
 10
105.5808211070133
 20
63.13294765396418
 30
0.0
 10
105.8109067682246
 20
63.43728550528291
 30
0.0
 10
106.2456601668344
 20
64.0630190426789
 30
0.0
 10
106.4505929591206
 20
64.3842437700064
 30
0.0
 10
106.8156949096193
 20
65.05616954073916
 30
0.0
 10
106.9774952954108
 20
65.41148477261802
 30
0.0
 10
107.1493554999905
 20
65.96171599397049
 30
0.0
 10
107.1949406916506
 20
66.14811977895096
 30
0.0
 10
107.2574154312255
 20
66.52825428104721
 30
0.0
 10
107.2740865769739
 20
66.7239240733331
 30
0.0
 10
107.2746076201504
 20
67.30240445200751
 30
0.0
 10
107.2101653192638
 20
67.6803162909763
 30
0.0
 10
106.9803162258904
 20
68.42228431607472
 30
0.0
 10
106.8217955482273
 20
68.77099977623567
 30
0.0
 10
106.4575612183271
 20
69.44409217396883
 30
0.0
 10
106.2508249782636
 20
69.76904466121046
 30
0.0
 10
105.8128870325232
 20
70.39996847167227
 30
0.0
 10
105.5816143052436
 20
70.70585821201288
 30
0.0
 10
105.3430174747383
 20
71.0058626578324
 30
0.0
  0
LINE
  5
161
330
1F
100
AcDbEntity
  8
0
  6
HIDDEN
 62
     7
370
     0
100
AcDbLine
 10
105.3430174747
 20
62.8339405516
 30
0.0
 11
105.3430174747
 21
71.0058626578
 31
0.0
  0
SPLINE
  5
162
330
1F
100
AcDbEntity
  8
0
  6
HIDDEN
 62
     7
370
     0
100
AcDbSpline
210
0.0
220
0.0
230
1.0
 70
     8
 71
     3
 72
     8
 73
     4
 74
     0
 42
0.00000001
 43
0.00000001
 12
1.0
 22
0.0
 32
0.0
 13
1.0
 23
0.0
 33
0.0
 40
0.0000249638557296
 40
0.0000249638557296
 40
0.0000249638557296
 40
0.0000249638557296
 40
0.0049776420541172
 40
0.0049776420541172
 40
0.0049776420541172
 40
0.0049776420541172
 10
100.3930174747382
 20
62.95469070789679
 30
0.0
 10
102.0429937092477
 20
62.91341147012858
 30
0.0
 10
103.6929950289928
 20
62.87318978888909
 30
0.0
 10
105.3430174747382
 20
62.83394055163408
 30
0.0
  0
SPLINE
  5
163
330
1F
100
AcDbEntity
  8
0
  6
HIDDEN
 62
     7
370
     0
100
AcDbSpline
210
0.0
220
0.0
230
1.0
 70
     8
 71
     3
 72
     8
 73
     4
 74
     0
 42
0.00000001
 43
0.00000001
 12
1.0
 22
0.0
 32
0.0
 13
1.0
 23
0.0
 33
0.0
 40
0.0000249631533153
 40
0.0000249631533153
 40
0.0000249631533153
 40
0.0000249631533153
 40
0.0049776413517029
 40
0.0049776413517029
 40
0.0049776413517029
 40
0.0049776413517029
 10
105.3430174747382
 20
71.00586265783248
 30
0.0
 10
103.6929950289928
 20
70.96661342057747
 30
0.0
 10
102.0429937092477
 20
70.92639173933799
 30
0.0
 10
100.3930174747382
 20
70.88511250156978
 30
0.0
  0
SPLINE
  5
164
330
1F
100
AcDbEntity
  8
0
  6
HIDDEN
 62
     7
370
     0
100
AcDbSpline
210
0.0
220
0.0
230
1.0
 70
     8
 71
     3
 72
     8
 73
     4
 74
     0
 42
0.00000001
 43
0.00000001
 12
1.0
 22
0.0
 32
0.0
 13
1.0
 23
0.0
 33
0.0
 40
0.0
 40
0.0
 40
0.0
 40
0.0
 40
1.0
 40
1.0
 40
1.0
 40
1.0
 10
98.893017474736
 20
64.01791427175297
 30
0.0
 10
99.35977808611378
 20
63.60255102612994
 30
0.0
 10
99.86552563289386
 20
63.25796059682536
 30
0.0
 10
100.3930174747382
 20
62.95469070789677
 30
0.0
  0
SPLINE
  5
165
330
1F
100
AcDbEntity
  8
0
  6
HIDDEN
 62
     7
370
     0
100
AcDbSpline
210
0.0
220
0.0
230
1.0
 70
     8
 71
     3
 72
     8
 73
     4
 74
     0
 42
0.00000001
 43
0.00000001
 12
1.0
 22
0.0
 32
0.0
 13
1.0
 23
0.0
 33
0.0
 40
0.0
 40
0.0
 40
0.0
 40
0.0
 40
1.0
 40
1.0
 40
1.0
 40
1.0
 10
100.3930174747382
 20
70.88511250156978
 30
0.0
 10
99.86552563289472
 20
70.58184261264171
 30
0.0
 10
99.35977808611543
 20
70.23725218333773
 30
0.0
 10
98.89301747473826
 20
69.82188893771561
 30
0.0
  0
LINE
  5
166
330
1F
100
AcDbEntity
  8
0
  6
HIDDEN
 62
     7
370
     0
100
AcDbLine
 10
98.8930174747
 20
64.0179142718
 30
0.0
 11
98.8930174747
 21
69.8218889377
 31
0.0
  0
SPLINE
  5
167
330
1F
100
AcDbEntity
  8
0
  6
HIDDEN
 62
     7
370
     0
100
AcDbSpline
210
0.0
220
0.0
230
1.0
 70
     8
 71
     3
 72
    72
 73
    68
 74
     0
 42
0.00000001
 43
0.00000001
 12
1.0
 22
0.0
 32
0.0
 13
1.0
 23
0.0
 33
0.0
 40
-0.03125
 40
-0.03125
 40
0.0
 40
0.0
 40
0.0312500000000001
 40
0.0312500000000001
 40
0.0625000000000001
 40
0.0625000000000001
 40
0.0937500000000002
 40
0.0937500000000002
 40
0.1250000000000002
 40
0.1250000000000002
 40
0.1562500000000003
 40
0.1562500000000003
 40
0.1875000000000004
 40
0.1875000000000004
 40
0.2187500000000004
 40
0.2187500000000004
 40
0.2500000000000005
 40
0.2500000000000005
 40
0.2812500000000006
 40
0.2812500000000006
 40
0.3125000000000006
 40
0.3125000000000006
 40
0.3437500000000006
 40
0.3437500000000006
 40
0.3750000000000006
 40
0.3750000000000006
 40
0.3906250000000007
 40
0.3906250000000007
 40
0.4062500000000007
 40
0.4062500000000007
 40
0.4375000000000008
 40
0.4375000000000008
 40
0.4687500000000008
 40
0.4687500000000008
 40
0.5000000000000009
 40
0.5000000000000009
 40
0.531250000000001
 40
0.531250000000001
 40
0.562500000000001
 40
0.562500000000001
 40
0.5937500000000011
 40
0.5937500000000011
 40
0.6250000000000011
 40
0.6250000000000011
 40
0.6562500000000012
 40
0.6562500000000012
 40
0.687500000000001
 40
0.687500000000001
 40
0.7187500000000009
 40
0.7187500000000009
 40
0.7500000000000007
 40
0.7500000000000007
 40
0.7812500000000006
 40
0.7812500000000006
 40
0.8125000000000004
 40
0.8125000000000004
 40
0.8437500000000002
 40
0.8437500000000002
 40
0.8750000000000002
 40
0.8750000000000002
 40
0.9062500000000001
 40
0.9062500000000001
 40
0.9375000000000001
 40
0.9375000000000001
 40
0.96875
 40
0.96875
 40
1.0
 40
1.0
 40
1.03125
 40
1.03125
 10
118.0169637935634
 20
69.36073525454813
 30
0.0
 10
118.3913940134373
 20
69.77109105503328
 30
0.0
 10
118.5962466147029
 20
69.95474013769174
 30
0.0
 10
119.0391148115499
 20
70.28169504118706
 30
0.0
 10
119.2790702288682
 20
70.4254732493669
 30
0.0
 10
119.7746812116427
 20
70.66299060481279
 30
0.0
 10
120.0319475027972
 20
70.7583101697105
 30
0.0
 10
120.5653012706343
 20
70.90239570234499
 30
0.0
 10
120.8395814105326
 20
70.95013170931458
 30
0.0
 10
121.3860099451121
 20
70.99571384984841
 30
0.0
 10
121.6605862635799
 20
70.99428008977617
 30
0.0
 10
122.2125534378506
 20
70.9413667816853
 30
0.0
 10
122.4831704004223
 20
70.89039705548115
 30
0.0
 10
123.0094555715015
 20
70.74179042853756
 30
0.0
 10
123.267087134909
 20
70.64350505778044
 30
0.0
 10
123.7630132995826
 20
70.39925169859472
 30
0.0
 10
123.9959969773742
 20
70.25617156757254
 30
0.0
 10
124.4323302526992
 20
69.92831301710372
 30
0.0
 10
124.6376115065575
 20
69.74131937940349
 30
0.0
 10
125.0056458044177
 20
69.3318887595805
 30
0.0
 10
125.1671607944029
 20
69.11178331859601
 30
0.0
 10
125.44431847755
 20
68.64003323715798
 30
0.0
 10
125.5607126569837
 20
68.38501671071676
 30
0.0
 10
125.7339866936303
 20
67.86377888731977
 30
0.0
 10
125.7924332480961
 20
67.59629476953884
 30
0.0
 10
125.836297973572
 20
67.18437911020641
 30
0.0
 10
125.8434781902013
 20
67.04467180713091
 30
0.0
 10
125.8425101629059
 20
66.76854875166848
 30
0.0
 10
125.8345073734922
 20
66.6313721853377
 30
0.0
 10
125.7884346415799
 20
66.22243874407444
 30
0.0
 10
125.7274998091278
 20
65.95051249507023
 30
0.0
 10
125.5493796527193
 20
65.42733197861513
 30
0.0
 10
125.4338117413769
 20
65.17861997825175
 30
0.0
 10
125.1519649574376
 20
64.70573545325978
 30
0.0
 10
124.985095012023
 20
64.48212623602767
 30
0.0
 10
124.6157694572242
 20
64.07746884784005
 30
0.0
 10
124.4109843009267
 20
63.89305525967051
 30
0.0
 10
123.9663313534105
 20
63.56402922477612
 30
0.0
 10
123.7314822238997
 20
63.42286114878791
 30
0.0
 10
123.2380724614227
 20
63.18445162000741
 30
0.0
 10
122.9767855077181
 20
63.08666906360254
 30
0.0
 10
122.4460472272054
 20
62.94134103541241
 30
0.0
 10
122.1764075263082
 20
62.89305164521744
 30
0.0
 10
121.6286561865629
 20
62.8446364214308
 30
0.0
 10
121.3487521447043
 20
62.84509460706675
 30
0.0
 10
120.8016742368693
 20
62.89524646266894
 30
0.0
 10
120.5320691321819
 20
62.94442002970095
 30
0.0
 10
120.0009143755258
 20
63.09209455300799
 30
0.0
 10
119.7396195590823
 20
63.19124971737357
 30
0.0
 10
119.2473055809069
 20
63.43226248785028
 30
0.0
 10
119.0133487053283
 20
63.57475061247501
 30
0.0
 10
118.5711800847978
 20
63.90623804145995
 30
0.0
 10
118.3659865536861
 20
64.09367166944831
 30
0.0
 10
118.0002923373282
 20
64.50057538849873
 30
0.0
 10
117.8375217149398
 20
64.7217544631677
 30
0.0
 10
117.5565692841743
 20
65.20150179238297
 30
0.0
 10
117.4433654319007
 20
65.45151375919328
 30
0.0
 10
117.2707567077618
 20
65.97158896921368
 30
0.0
 10
117.2111504250854
 20
66.24532043384345
 30
0.0
 10
117.1532586550156
 20
66.79393808374192
 30
0.0
 10
117.1540481938756
 20
67.0682779476335
 30
0.0
 10
117.215238669492
 20
67.61701989877245
 30
0.0
 10
117.276367393226
 20
67.89008521262959
 30
0.0
 10
117.4524470788558
 20
68.41025046139798
 30
0.0
 10
117.5687776738458
 20
68.66256959495689
 30
0.0
 10
117.8519789035865
 20
69.13897393636388
 30
0.0
 10
118.0169637935634
 20
69.36073525454813
 30
0.0
 10
118.3913940134373
 20
69.77109105503328
 30
0.0
  0
CIRCLE
  5
168
330
1F
100
AcDbEntity
  8
0
  6
HIDDEN
 62
     7
370
     0
100
AcDbCircle
 10
121.3930174747
 20
66.9199016047
 30
0.0
 40
4.050000000000011
  0
CIRCLE
  5
169
330
1F
100
AcDbEntity
  8
0
  6
HIDDEN
 62
     7
370
     0
100
AcDbCircle
 10
148.8930174747
 20
66.9199016047
 30
0.0
 40
2.0
  0
LINE
  5
16A
330
1F
100
AcDbEntity
  8
0
  6
HIDDEN
 62
     7
370
     0
100
AcDbLine
 10
136.8930174747
 20
42.6699016047
 30
0.0
 11
136.9859106936
 21
42.7627948235
 31
0.0
  0
LINE
  5
16B
330
1F
100
AcDbEntity
  8
0
  6
HIDDEN
 62
     7
370
     0
100
AcDbLine
 10
136.9859106936
 20
91.0770083859
 30
0.0
 11
136.8930174747
 21
91.1699016047
 31
0.0
  0
ARC
  5
16C
330
1F
100
AcDbEntity
  8
0
  6
HIDDEN
 62
     7
370
     0
100
AcDbCircle
 10
136.2788039124
 20
43.4699016047
 30
0.0
 40
1.0
100
AcDbArc
 50
315.0
 51
0.0
  0
ARC
  5
16D
330
1F
100
AcDbEntity
  8
0
  6
HIDDEN
 62
     7
370
     0
100
AcDbCircle
 10
136.2788039124
 20
43.4699016047
 30
0.0
 40
1.00000000000001
100
AcDbArc
 50
0.0
 51
52.1052014664
  0
ARC
  5
16E
330
1F
100
AcDbEntity
  8
0
  6
HIDDEN
 62
     7
370
     0
100
AcDbCircle
 10
136.2788039124
 20
90.3699016047
 30
0.0
 40
1.000000000000006
100
AcDbArc
 50
351.8087250651
 51
45.0
  0
ARC
  5
16F
330
1F
100
AcDbEntity
  8
0
  6
HIDDEN
 62
     7
370
     0
100
AcDbCircle
 10
136.2788039124
 20
90.3699016047
 30
0.0
 40
1.000000000000006
100
AcDbArc
 50
307.8947985336
 51
351.8087250651
  0
LINE
  5
170
330
1F
100
AcDbEntity
  8
0
  6
HIDDEN
 62
     7
370
     0
100
AcDbLine
 10
137.2788039124
 20
43.4699016047
 30
0.0
 11
137.2788039124
 21
90.3699016047
 31
0.0
  0
LINE
  5
171
330
1F
100
AcDbEntity
  8
0
  6
HIDDEN
 62
     7
370
     0
100
AcDbLine
 10
137.2788039124
 20
43.4699016047
 30
0.0
 11
137.2788039124
 21
90.3699016047
 31
0.0
  0
LINE
  5
172
330
1F
100
AcDbEntity
  8
0
  6
HIDDEN
 62
     7
370
     0
100
AcDbLine
 10
174.1232873993
 20
64.4199016047
 30
0.0
 11
186.7102196646
 21
64.4199016047
 31
0.0
  0
LINE
  5
173
330
1F
100
AcDbEntity
  8
0
  6
HIDDEN
 62
     7
370
     0
100
AcDbLine
 10
186.7102196646
 20
69.4199016047
 30
0.0
 11
174.1232873993
 21
69.4199016047
 31
0.0
  0
LINE
  5
174
330
1F
100
AcDbEntity
  8
0
  6
HIDDEN
 62
     7
370
     0
100
AcDbLine
 10
98.8930174747
 20
50.7234727603
 30
0.0
 11
100.4232459144
 21
51.6069505618
 31
0.0
  0
LINE
  5
175
330
1F
100
AcDbEntity
  8
0
  6
HIDDEN
 62
     7
370
     0
100
AcDbLine
 10
100.4232459144
 20
82.2328526476
 30
0.0
 11
98.8930174747
 21
83.1163304492
 31
0.0
  0
ARC
  5
176
330
1F
100
AcDbEntity
  8
0
  6
HIDDEN
 62
     7
370
     0
100
AcDbCircle
 10
109.8948187896
 20
52.9199016047
 30
0.0
 40
2.000000000000007
100
AcDbArc
 50
270.0
 51
315.0
  0
ARC
  5
177
330
1F
100
AcDbEntity
  8
0
  6
HIDDEN
 62
     7
370
     0
100
AcDbCircle
 10
109.8948187896
 20
80.9199016047
 30
0.0
 40
2.000000000000006
100
AcDbArc
 50
45.0
 51
90.0
  0
ARC
  5
178
330
1F
100
AcDbEntity
  8
0
  6
HIDDEN
 62
     7
370
     0
100
AcDbCircle
 10
108.8930174747
 20
52.9199016047
 30
0.0
 40
2.000000000000037
100
AcDbArc
 50
189.9742217944
 51
270.0
  0
ARC
  5
179
330
1F
100
AcDbEntity
  8
0
  6
HIDDEN
 62
     7
370
     0
100
AcDbCircle
 10
108.8930174747
 20
80.9199016047
 30
0.0
 40
2.000000000000021
100
AcDbArc
 50
90.0
 51
170.0257782056
  0
LINE
  5
17A
330
1F
100
AcDbEntity
  8
0
  6
HIDDEN
 62
     7
370
     0
100
AcDbLine
 10
108.8930174747
 20
50.9199016047
 30
0.0
 11
109.8948187896
 21
50.9199016047
 31
0.0
  0
LINE
  5
17B
330
1F
100
AcDbEntity
  8
0
  6
HIDDEN
 62
     7
370
     0
100
AcDbLine
 10
109.8948187896
 20
82.9199016047
 30
0.0
 11
108.8930174747
 21
82.9199016047
 31
0.0
  0
LINE
  5
17C
330
1F
100
AcDbEntity
  8
0
  6
HIDDEN
 62
     7
370
     0
100
AcDbLine
 10
111.309032352
 20
51.5056880424
 30
0.0
 11
112.7232459144
 21
52.9199016047
 31
0.0
  0
LINE
  5
17D
330
1F
100
AcDbEntity
  8
0
  6
HIDDEN
 62
     7
370
     0
100
AcDbLine
 10
112.7232459144
 20
80.9199016047
 30
0.0
 11
111.309032352
 21
82.3341151671
 31
0.0
  0
LINE
  5
17E
330
1F
100
AcDbEntity
  8
0
  6
HIDDEN
 62
     7
370
     0
100
AcDbLine
 10
100.4232459144
 20
51.6069505618
 30
0.0
 11
105.3232459144
 21
52.9199016047
 31
0.0
  0
LINE
  5
17F
330
1F
100
AcDbEntity
  8
0
  6
HIDDEN
 62
     7
370
     0
100
AcDbLine
 10
105.3232459144
 20
80.9199016047
 30
0.0
 11
100.4232459144
 21
82.2328526476
 31
0.0
  0
LINE
  5
180
330
1F
100
AcDbEntity
  8
0
  6
HIDDEN
 62
     7
370
     0
100
AcDbLine
 10
106.9232459144
 20
81.2663117662
 30
0.0
 11
106.3232459144
 21
80.9199016047
 31
0.0
  0
LINE
  5
181
330
1F
100
AcDbEntity
  8
0
  6
HIDDEN
 62
     7
370
     0
100
AcDbLine
 10
106.3232459144
 20
52.9199016047
 30
0.0
 11
106.9232459144
 21
52.5734914432
 31
0.0
  0
ARC
  5
182
330
1F
100
AcDbEntity
  8
0
  6
HIDDEN
 62
     7
370
     0
100
AcDbCircle
 10
125.3930174747
 20
53.4199016047
 30
0.0
 40
0.5
100
AcDbArc
 50
270.0
 51
0.0
  0
ARC
  5
183
330
1F
100
AcDbEntity
  8
0
  6
HIDDEN
 62
     7
370
     0
100
AcDbCircle
 10
125.3930174747
 20
80.4199016047
 30
0.0
 40
0.5
100
AcDbArc
 50
0.0
 51
90.0
  0
LINE
  5
184
330
1F
100
AcDbEntity
  8
0
  6
HIDDEN
 62
     7
370
     0
100
AcDbLine
 10
112.7232459144
 20
52.9199016047
 30
0.0
 11
125.3930174747
 21
52.9199016047
 31
0.0
  0
LINE
  5
185
330
1F
100
AcDbEntity
  8
0
  6
HIDDEN
 62
     7
370
     0
100
AcDbLine
 10
125.3930174747
 20
80.9199016047
 30
0.0
 11
112.7232459144
 21
80.9199016047
 31
0.0
  0
LINE
  5
186
330
1F
100
AcDbEntity
  8
0
  6
HIDDEN
 62
     7
370
     0
100
AcDbLine
 10
105.3232459144
 20
52.9199016047
 30
0.0
 11
106.3232459144
 21
52.9199016047
 31
0.0
  0
LINE
  5
187
330
1F
100
AcDbEntity
  8
0
  6
HIDDEN
 62
     7
370
     0
100
AcDbLine
 10
106.3232459144
 20
80.9199016047
 30
0.0
 11
105.3232459144
 21
80.9199016047
 31
0.0
  0
LINE
  5
188
330
1F
100
AcDbEntity
  8
0
  6
HIDDEN
 62
     7
370
     0
100
AcDbLine
 10
125.8930174747
 20
56.6699016047
 30
0.0
 11
127.1430174747
 21
57.9199016047
 31
0.0
  0
LINE
  5
189
330
1F
100
AcDbEntity
  8
0
  6
HIDDEN
 62
     7
370
     0
100
AcDbLine
 10
127.1430174747
 20
75.9199016047
 30
0.0
 11
125.8930174747
 21
77.1699016047
 31
0.0
  0
LINE
  5
18A
330
1F
100
AcDbEntity
  8
0
  6
HIDDEN
 62
     7
370
     0
100
AcDbLine
 10
163.8930174747
 20
75.9199016047
 30
0.0
 11
127.1430174747
 21
75.9199016047
 31
0.0
  0
LINE
  5
18B
330
1F
100
AcDbEntity
  8
0
  6
HIDDEN
 62
     7
370
     0
100
AcDbLine
 10
127.1430174747
 20
57.9199016047
 30
0.0
 11
163.8930174747
 21
57.9199016047
 31
0.0
  0
LINE
  5
18C
330
1F
100
AcDbEntity
  8
0
  6
HIDDEN
 62
     7
370
     0
100
AcDbLine
 10
163.8930174747
 20
57.9199016047
 30
0.0
 11
166.7471054151
 21
62.6699016047
 31
0.0
  0
LINE
  5
18D
330
1F
100
AcDbEntity
  8
0
  6
HIDDEN
 62
     7
370
     0
100
AcDbLine
 10
166.7471054151
 20
71.1699016047
 30
0.0
 11
163.8930174747
 21
75.9199016047
 31
0.0
  0
LINE
  5
18E
330
1F
100
AcDbEntity
  8
0
  6
HIDDEN
 62
     7
370
     0
100
AcDbLine
 10
209.5634026417
 20
64.4500400598
 30
0.0
 11
208.7681985994
 21
64.4500400598
 31
0.0
  0
LINE
  5
18F
330
1F
100
AcDbEntity
  8
0
  6
HIDDEN
 62
     7
370
     0
100
AcDbLine
 10
208.7681985994
 20
57.4500400598
 30
0.0
 11
209.5634026417
 21
57.4500400598
 31
0.0
  0
LINE
  5
190
330
1F
100
AcDbEntity
  8
0
  6
HIDDEN
 62
     7
370
     0
100
AcDbLine
 10
210.9925111095
 20
70.9757883678
 30
0.0
 11
209.3914749114
 21
70.9757883678
 31
0.0
  0
LINE
  5
191
330
1F
100
AcDbEntity
  8
0
  6
HIDDEN
 62
     7
370
     0
100
AcDbLine
 10
177.8930174747
 20
71.1699016047
 30
0.0
 11
166.7471054151
 21
71.1699016047
 31
0.0
  0
LINE
  5
192
330
1F
100
AcDbEntity
  8
0
  6
HIDDEN
 62
     7
370
     0
100
AcDbLine
 10
166.7471054151
 20
62.6699016047
 30
0.0
 11
177.8930174747
 21
62.6699016047
 31
0.0
  0
LINE
  5
193
330
1F
100
AcDbEntity
  8
0
  6
HIDDEN
 62
     7
370
     0
100
AcDbLine
 10
177.8930174747
 20
62.6699016047
 30
0.0
 11
180.4466751056
 21
66.9199016047
 31
0.0
  0
LINE
  5
194
330
1F
100
AcDbEntity
  8
0
  6
HIDDEN
 62
     7
370
     0
100
AcDbLine
 10
180.4466751056
 20
66.9199016047
 30
0.0
 11
177.8930174747
 21
71.1699016047
 31
0.0
  0
LINE
  5
195
330
1F
100
AcDbEntity
  8
0
  6
HIDDEN
 62
     7
370
     0
100
AcDbLine
 10
211.6804183334
 20
59.9462301554
 30
0.0
 11
218.7009883901
 21
62.2478527644
 31
0.0
  0
LINE
  5
196
330
1F
100
AcDbEntity
  8
0
  6
HIDDEN
 62
     7
370
     0
100
AcDbLine
 10
208.6951617533
 20
65.1500400598
 30
0.0
 11
203.2131062485
 21
65.1500400598
 31
0.0
  0
LINE
  5
197
330
1F
100
AcDbEntity
  8
0
  6
HIDDEN
 62
     7
370
     0
100
AcDbLine
 10
203.5104013037
 20
56.7500400598
 30
0.0
 11
208.6951617533
 21
56.7500400598
 31
0.0
  0
LINE
  5
198
330
1F
100
AcDbEntity
  8
0
  6
HIDDEN
 62
     7
370
     0
100
AcDbLine
 10
222.1559285764
 20
70.1199016047
 30
0.0
 11
221.1834987815
 21
70.1199016047
 31
0.0
  0
LINE
  5
199
330
1F
100
AcDbEntity
  8
0
  6
HIDDEN
 62
     7
370
     0
100
AcDbLine
 10
221.1834987815
 20
63.7199016047
 30
0.0
 11
222.1559285764
 21
63.7199016047
 31
0.0
  0
LINE
  5
19A
330
1F
100
AcDbEntity
  8
0
  6
HIDDEN
 62
     7
370
     0
100
AcDbLine
 10
218.748632939
 20
68.4415614189
 30
0.0
 11
213.5243001485
 21
66.7288169594
 31
0.0
  0
DIMENSION
  5
19B
330
1F
100
AcDbEntity
  8
VERMASSUNG
100
AcDbDimension
  2
_D
 10
88.8930174747
 20
35.4199016047
 30
0.0
 11
88.8930174747
 21
66.9199016047
 31
0.0
 70
   160
  1
PSC%%c<>
 71
     2
 42
-1.0
  3
SLDDIMSTYLE0
100
AcDbAlignedDimension
 13
137.3930174747
 23
98.4199016047
 33
0.0
 14
137.3930174747
 24
35.4199016047
 34
0.0
 50
90.0
100
AcDbRotatedDimension
  0
LINE
  5
1A8
330
1F
100
AcDbEntity
  8
VERMASSUNG
  6
CENTERX2
370
     0
100
AcDbLine
 10
95.5258084135
 20
66.9199016047
 30
0.0
 11
240.0423881627
 21
66.9199016047
 31
0.0
  0
LINE
  5
1A9
330
1F
100
AcDbEntity
  8
0
  6
Continuous
 62
     7
370
    15
100
AcDbLine
 10
234.6031985188
 20
136.4961053007
 30
0.0
 11
235.1033052705
 21
139.3323516293
 31
0.0
  0
LINE
  5
1AA
330
1F
100
AcDbEntity
  8
0
  6
Continuous
 62
     7
370
    15
100
AcDbLine
 10
234.2556617396
 20
136.2527574281
 30
0.0
 11
234.6031985188
 21
136.4961053007
 31
0.0
  0
LINE
  5
1AB
330
1F
100
AcDbEntity
  8
0
  6
Continuous
 62
     7
370
    15
100
AcDbLine
 10
210.7268374627
 20
150.0785395837
 30
0.0
 11
210.6730065277
 21
149.7732491804
 31
0.0
  0
LINE
  5
1AC
330
1F
100
AcDbEntity
  8
0
  6
Continuous
 62
     7
370
    15
100
AcDbLine
 10
235.7920880283
 20
139.2109006453
 30
0.0
 11
236.8947539565
 21
145.4644298769
 31
0.0
  0
LINE
  5
1AD
330
1F
100
AcDbEntity
  8
0
  6
Continuous
 62
     7
370
    15
100
AcDbLine
 10
170.8930174747
 20
176.9545817995
 30
0.0
 11
137.3930174747
 21
176.9545817995
 31
0.0
  0
LINE
  5
1AE
330
1F
100
AcDbEntity
  8
0
  6
Continuous
 62
     7
370
    15
100
AcDbLine
 10
182.638833351
 20
176.9545817995
 30
0.0
 11
176.8837787959
 21
176.9545817995
 31
0.0
  0
LINE
  5
1AF
330
1F
100
AcDbEntity
  8
0
  6
Continuous
 62
     7
370
    15
100
AcDbLine
 10
150.8930174747
 20
113.9545817995
 30
0.0
 11
229.5124944211
 21
113.9545817995
 31
0.0
  0
LINE
  5
1B0
330
1F
100
AcDbEntity
  8
0
  6
Continuous
 62
     7
370
    15
100
AcDbLine
 10
137.3930174747
 20
113.9545817995
 30
0.0
 11
146.9176358304
 21
113.9545817995
 31
0.0
  0
ARC
  5
1B1
330
1F
100
AcDbEntity
  8
0
  6
Continuous
 62
     7
370
    15
100
AcDbCircle
 10
137.3930174747
 20
114.4545817995
 30
0.0
 40
0.5
100
AcDbArc
 50
180.0
 51
270.0
  0
ARC
  5
1B2
330
1F
100
AcDbEntity
  8
0
  6
Continuous
 62
     7
370
    15
100
AcDbCircle
 10
137.3930174747
 20
176.4545817995
 30
0.0
 40
0.5
100
AcDbArc
 50
90.0
 51
180.0
  0
LWPOLYLINE
  5
1B3
330
1F
100
AcDbEntity
  8
0
  6
Continuous
 62
     7
370
    15
100
AcDbPolyline
 90
        3
 70
   128
 43
0.0
 10
136.6930174747
 20
122.9147615206
 10
136.8184724182
 20
122.8464594057
 10
136.8930174747
 20
122.7937216475
  0
ARC
  5
1B4
330
1F
100
AcDbEntity
  8
0
  6
Continuous
 62
     7
370
    15
100
AcDbCircle
 10
136.2788039124
 20
168.9045817995
 30
0.0
 40
1.000000000000008
100
AcDbArc
 50
225.0
 51
307.8947985336
  0
ARC
  5
1B5
330
1F
100
AcDbEntity
  8
0
  6
Continuous
 62
     7
370
    15
100
AcDbCircle
 10
134.8929543857
 20
124.8294599038
 30
0.0
 40
0.2000000000000066
100
AcDbArc
 50
88.5608333333
 51
178.5608333334
  0
LINE
  5
1B6
330
1F
100
AcDbEntity
  8
0
  6
Continuous
 62
     7
370
    15
100
AcDbLine
 10
125.8313071806
 20
125.0571200225
 30
0.0
 11
134.6930174747
 21
124.8344830149
 31
0.0
  0
LINE
  5
1B7
330
1F
100
AcDbEntity
  8
0
  6
Continuous
 62
     7
370
    15
100
AcDbLine
 10
107.2589248801
 20
125.523722911
 30
0.0
 11
117.1623309453
 21
125.2749148797
 31
0.0
  0
ARC
  5
1B8
330
1F
100
AcDbEntity
  8
0
  6
Continuous
 62
     7
370
    15
100
AcDbCircle
 10
136.4930174747
 20
124.7892607496
 30
0.0
 40
0.199999999999991
100
AcDbArc
 50
0.0
 51
88.5608333333
  0
LINE
  5
1B9
330
1F
100
AcDbEntity
  8
0
  6
Continuous
 62
     7
370
    15
100
AcDbLine
 10
134.8979774968
 20
125.0293968147
 30
0.0
 11
136.4980405859
 21
124.9891976606
 31
0.0
  0
ARC
  5
1BA
330
1F
100
AcDbEntity
  8
0
  6
Continuous
 62
     7
370
    15
100
AcDbCircle
 10
134.8929543857
 20
168.8797036952
 30
0.0
 40
0.2000000000000066
100
AcDbArc
 50
181.4391666666
 51
271.4391666667
  0
LINE
  5
1BB
330
1F
100
AcDbEntity
  8
0
  6
Continuous
 62
     7
370
    15
100
AcDbLine
 10
134.6930174747
 20
168.8746805841
 30
0.0
 11
100.3930174747
 21
168.0129451958
 31
0.0
  0
LINE
  5
1BC
330
1F
100
AcDbEntity
  8
0
  6
Continuous
 62
     7
370
    15
100
AcDbLine
 10
135.0987566238
 20
168.6848110548
 30
0.0
 11
134.8979774968
 21
168.6797667842
 31
0.0
  0
LINE
  5
1BD
330
1F
100
AcDbEntity
  8
0
  6
Continuous
 62
     7
370
    15
100
AcDbLine
 10
100.3930174747
 20
168.0129451958
 30
0.0
 11
98.8930174747
 21
167.146919792
 31
0.0
  0
LINE
  5
1BE
330
1F
100
AcDbEntity
  8
0
  6
Continuous
 62
     7
370
    15
100
AcDbLine
 10
135.5716971312
 20
168.1974750183
 30
0.0
 11
135.1089520351
 21
168.6602201144
 31
0.0
  0
LINE
  5
1BF
330
1F
100
AcDbEntity
  8
0
  6
Continuous
 62
     7
370
    15
100
AcDbLine
 10
222.662756644
 20
138.6015273648
 30
0.0
 11
234.07312438
 21
136.5895716731
 31
0.0
  0
LINE
  5
1C0
330
1F
100
AcDbEntity
  8
0
  6
Continuous
 62
     7
370
    15
100
AcDbLine
 10
223.1628633957
 20
141.4377736934
 30
0.0
 11
234.5732311317
 21
139.4258180018
 31
0.0
  0
LINE
  5
1C1
330
1F
100
AcDbEntity
  8
0
  6
Continuous
 62
     7
370
    15
100
AcDbLine
 10
233.8846098425
 20
136.3181838888
 30
0.0
 11
222.4742421064
 21
138.3301395804
 31
0.0
  0
LINE
  5
1C2
330
1F
100
AcDbEntity
  8
0
  6
Continuous
 62
     7
370
    15
100
AcDbLine
 10
221.7532894155
 20
138.7618909752
 30
0.0
 11
222.662756644
 21
138.6015273648
 31
0.0
  0
LINE
  5
1C3
330
1F
100
AcDbEntity
  8
0
  6
Continuous
 62
     7
370
    15
100
AcDbLine
 10
222.4742421064
 20
138.3301395804
 30
0.0
 11
221.8376150465
 21
138.4423941077
 31
0.0
  0
LINE
  5
1C4
330
1F
100
AcDbEntity
  8
0
  6
Continuous
 62
     7
370
    15
100
AcDbLine
 10
221.3549114233
 20
138.8321357638
 30
0.0
 11
221.7532894155
 21
138.7618909752
 31
0.0
  0
LINE
  5
1C5
330
1F
100
AcDbEntity
  8
0
  6
Continuous
 62
     7
370
    15
100
AcDbLine
 10
221.8376150465
 20
138.4423941077
 30
0.0
 11
221.6227338224
 21
138.4802834652
 31
0.0
  0
LINE
  5
1C6
330
1F
100
AcDbEntity
  8
0
  6
Continuous
 62
     7
370
    15
100
AcDbLine
 10
221.855018175
 20
141.6683820924
 30
0.0
 11
222.2533961672
 21
141.5981373039
 31
0.0
  0
LINE
  5
1C7
330
1F
100
AcDbEntity
  8
0
  6
Continuous
 62
     7
370
    15
100
AcDbLine
 10
234.07312438
 20
136.5895716731
 30
0.0
 11
234.6031985188
 21
136.4961053007
 31
0.0
  0
LINE
  5
1C8
330
1F
100
AcDbEntity
  8
0
  6
Continuous
 62
     7
370
    15
100
AcDbLine
 10
234.2556617396
 20
136.2527574281
 30
0.0
 11
233.8846098425
 21
136.3181838888
 31
0.0
  0
LINE
  5
1C9
330
1F
100
AcDbEntity
  8
0
  6
Continuous
 62
     7
370
    15
100
AcDbLine
 10
210.9388671182
 20
150.0411530347
 30
0.0
 11
223.6289022639
 21
147.8035574524
 31
0.0
  0
LINE
  5
1CA
330
1F
100
AcDbEntity
  8
0
  6
Continuous
 62
     7
370
    15
100
AcDbLine
 10
221.855018175
 20
141.6683820924
 30
0.0
 11
222.5262363357
 21
141.5500282208
 31
0.0
  0
LINE
  5
1CB
330
1F
100
AcDbEntity
  8
0
  6
Continuous
 62
     7
370
    15
100
AcDbLine
 10
223.6289022639
 20
147.8035574524
 30
0.0
 11
223.9926891553
 21
147.7394120082
 31
0.0
  0
LINE
  5
1CC
330
1F
100
AcDbEntity
  8
0
  6
Continuous
 62
     7
370
    15
100
AcDbLine
 10
222.5262363357
 20
141.5500282208
 30
0.0
 11
222.8900232271
 21
141.4858827766
 31
0.0
  0
LINE
  5
1CD
330
1F
100
AcDbEntity
  8
0
  6
Continuous
 62
     7
370
    15
100
AcDbLine
 10
223.9926891553
 20
147.7394120082
 30
0.0
 11
236.682724301
 21
145.5018164259
 31
0.0
  0
LINE
  5
1CE
330
1F
100
AcDbEntity
  8
0
  6
Continuous
 62
     7
370
    15
100
AcDbLine
 10
222.8900232271
 20
141.4858827766
 30
0.0
 11
235.5800583728
 21
139.2482871943
 31
0.0
  0
LINE
  5
1CF
330
1F
100
AcDbEntity
  8
0
  6
Continuous
 62
     7
370
    15
100
AcDbLine
 10
210.7268374627
 20
150.0785395837
 30
0.0
 11
210.9388671182
 21
150.0411530347
 31
0.0
  0
LINE
  5
1D0
330
1F
100
AcDbEntity
  8
0
  6
Continuous
 62
     7
370
    15
100
AcDbLine
 10
236.682724301
 20
145.5018164259
 30
0.0
 11
236.8947539565
 21
145.4644298769
 31
0.0
  0
LINE
  5
1D1
330
1F
100
AcDbEntity
  8
0
  6
Continuous
 62
     7
370
    15
100
AcDbLine
 10
235.5800583728
 20
139.2482871943
 30
0.0
 11
235.7920880283
 21
139.2109006453
 31
0.0
  0
LWPOLYLINE
  5
1D2
330
1F
100
AcDbEntity
  8
0
  6
Continuous
 62
     7
370
    15
100
AcDbPolyline
 90
       12
 70
   128
 43
0.0
 10
146.9176358304
 20
113.9561294877
 10
146.9455745951
 20
113.9578750864
 10
147.2053393844
 20
113.9728687372
 10
147.6551774409
 20
113.9937768519
 10
148.2452984583
 20
114.0114658609
 10
148.9082104799
 20
114.0181343089
 10
149.5682760011
 20
114.0108865001
 10
150.1523024183
 20
113.9929257946
 10
150.5954969136
 20
113.9720717941
 10
150.8470328618
 20
113.9574680248
 10
150.8930174747
 20
113.9545817995
 10
150.8930174747
 20
113.9545817995
  0
SPLINE
  5
1D3
330
1F
100
AcDbEntity
  8
0
  6
Continuous
 62
     7
370
    15
100
AcDbSpline
210
0.0
220
0.0
230
1.0
 70
     8
 71
     3
 72
    12
 73
     8
 74
     0
 42
0.00000001
 43
0.00000001
 12
1.0
 22
0.0
 32
0.0
 13
1.0
 23
0.0
 33
0.0
 40
0.0
 40
0.0
 40
0.0
 40
0.0
 40
0.5000000000000019
 40
0.5000000000000019
 40
0.7500000000000009
 40
0.7500000000000009
 40
1.0
 40
1.0
 40
1.0
 40
1.0
 10
146.9877615864124
 20
115.5538393393672
 30
0.0
 10
147.0184838283315
 20
115.5165373564141
 30
0.0
 10
147.0613210428667
 20
115.4799255243678
 30
0.0
 10
147.1607480670665
 20
115.4321607410826
 30
0.0
 10
147.2005002618832
 20
115.4172032256002
 30
0.0
 10
147.2985417187414
 20
115.3940132798311
 30
0.0
 10
147.3580977743288
 20
115.3860898406113
 30
0.0
 10
147.4207742883046
 20
115.3860898406113
 30
0.0
  0
LINE
  5
1D4
330
1F
100
AcDbEntity
  8
0
  6
Continuous
 62
     7
370
    15
100
AcDbLine
 10
147.4207742883
 20
115.3860898406
 30
0.0
 11
150.3652606612
 21
115.3860898406
 31
0.0
  0
SPLINE
  5
1D5
330
1F
100
AcDbEntity
  8
0
  6
Continuous
 62
     7
370
    15
100
AcDbSpline
210
0.0
220
0.0
230
1.0
 70
     8
 71
     3
 72
    12
 73
     8
 74
     0
 42
0.00000001
 43
0.00000001
 12
1.0
 22
0.0
 32
0.0
 13
1.0
 23
0.0
 33
0.0
 40
0.0
 40
0.0
 40
0.0
 40
0.0
 40
0.2499999999999977
 40
0.2499999999999977
 40
0.4999999999999953
 40
0.4999999999999953
 40
1.0
 40
1.0
 40
1.0
 40
1.0
 10
150.3652606611718
 20
115.3860898406113
 30
0.0
 10
150.4283406996651
 20
115.3860898406113
 30
0.0
 10
150.4874893218465
 20
115.3939957668238
 30
0.0
 10
150.5859618719156
 20
115.41732092826
 30
0.0
 10
150.6249984839003
 20
115.4320337180917
 30
0.0
 10
150.7248949506794
 20
115.4799895188226
 30
0.0
 10
150.767315831746
 20
115.5162516754027
 30
0.0
 10
150.798273363064
 20
115.5538393393672
 30
0.0
  0
ELLIPSE
  5
1D6
330
1F
100
AcDbEntity
  8
0
  6
Continuous
 62
     7
370
    15
100
AcDbEllipse
 10
134.5458632854
 20
145.4545817995
 30
0.0
 11
-14.75368316065621
 21
31.09325491558116
 31
0.0
210
0.0
220
0.0
230
1.0
 40
0.3419987131
 41
3.300734856217119
 42
4.231496223360768
  0
SPLINE
  5
1D7
330
1F
100
AcDbEntity
  8
0
  6
Continuous
 62
     7
370
    15
100
AcDbSpline
210
0.0
220
0.0
230
1.0
 70
     8
 71
     3
 72
    12
 73
     8
 74
     0
 42
0.00000001
 43
0.00000001
 12
1.0
 22
0.0
 32
0.0
 13
1.0
 23
0.0
 33
0.0
 40
0.0
 40
0.0
 40
0.0
 40
0.0
 40
0.4999999999999981
 40
0.4999999999999981
 40
0.749999999999999
 40
0.749999999999999
 40
1.0
 40
1.0
 40
1.0
 40
1.0
 10
150.798273363064
 20
135.545212478799
 30
0.0
 10
150.7675511211449
 20
135.6577682782082
 30
0.0
 10
150.7247139066097
 20
135.7705261379477
 30
0.0
 10
150.6252868824099
 20
135.9200670237441
 30
0.0
 10
150.5855346875933
 20
135.967359755451
 30
0.0
 10
150.4874932307351
 20
136.0410960487724
 30
0.0
 10
150.4279371751476
 20
136.0665153681481
 30
0.0
 10
150.3652606611718
 20
136.0665153681481
 30
0.0
  0
LINE
  5
1D8
330
1F
100
AcDbEntity
  8
0
  6
Continuous
 62
     7
370
    15
100
AcDbLine
 10
150.3652606612
 20
136.0665153681
 30
0.0
 11
147.4207742883
 21
136.0665153681
 31
0.0
  0
SPLINE
  5
1D9
330
1F
100
AcDbEntity
  8
0
  6
Continuous
 62
     7
370
    15
100
AcDbSpline
210
0.0
220
0.0
230
1.0
 70
     8
 71
     3
 72
    12
 73
     8
 74
     0
 42
0.00000001
 43
0.00000001
 12
1.0
 22
0.0
 32
0.0
 13
1.0
 23
0.0
 33
0.0
 40
0.0
 40
0.0
 40
0.0
 40
0.0
 40
0.2500000000000014
 40
0.2500000000000014
 40
0.5000000000000028
 40
0.5000000000000028
 40
1.0
 40
1.0
 40
1.0
 40
1.0
 10
147.4207742883047
 20
136.0665153681481
 30
0.0
 10
147.3576942498113
 20
136.0665153681481
 30
0.0
 10
147.2985456276299
 20
136.0411510489332
 30
0.0
 10
147.2000730775608
 20
135.9669861885603
 30
0.0
 10
147.1610364655761
 20
135.9204658480061
 30
0.0
 10
147.061139998797
 20
135.7703235051609
 30
0.0
 10
147.0187191177304
 20
135.6586302981887
 30
0.0
 10
146.9877615864124
 20
135.545212478799
 30
0.0
  0
ELLIPSE
  5
1DA
330
1F
100
AcDbEntity
  8
0
  6
Continuous
 62
     7
370
    15
100
AcDbEllipse
 10
163.2401716641
 20
145.4545817995
 30
0.0
 11
14.75368316065621
 21
31.09325491558113
 31
0.0
210
0.0
220
0.0
230
1.0
 40
0.3419987131
 41
2.051689083818831
 42
2.982450450962508
  0
SPLINE
  5
1DB
330
1F
100
AcDbEntity
  8
0
  6
Continuous
 62
     7
370
    15
100
AcDbSpline
210
0.0
220
0.0
230
1.0
 70
     8
 71
     3
 72
    12
 73
     8
 74
     0
 42
0.00000001
 43
0.00000001
 12
1.0
 22
0.0
 32
0.0
 13
1.0
 23
0.0
 33
0.0
 40
0.0
 40
0.0
 40
0.0
 40
0.0
 40
0.5000000000000027
 40
0.5000000000000027
 40
0.7500000000000013
 40
0.7500000000000013
 40
1.0
 40
1.0
 40
1.0
 40
1.0
 10
146.9877615864124
 20
155.3639511201698
 30
0.0
 10
147.0189067843745
 20
155.2498457543045
 30
0.0
 10
147.061181050709
 20
155.1387394270858
 30
0.0
 10
147.1611265845343
 20
154.9885818196555
 30
0.0
 10
147.2008568892384
 20
154.9415891280381
 30
0.0
 10
147.2977449392446
 20
154.8686135434997
 30
0.0
 10
147.3578101809911
 20
154.8426482308206
 30
0.0
 10
147.4207742883047
 20
154.8426482308206
 30
0.0
  0
LINE
  5
1DC
330
1F
100
AcDbEntity
  8
0
  6
Continuous
 62
     7
370
    15
100
AcDbLine
 10
147.4207742883
 20
154.8426482308
 30
0.0
 11
150.3652606612
 21
154.8426482308
 31
0.0
  0
SPLINE
  5
1DD
330
1F
100
AcDbEntity
  8
0
  6
Continuous
 62
     7
370
    15
100
AcDbSpline
210
0.0
220
0.0
230
1.0
 70
     8
 71
     3
 72
    12
 73
     8
 74
     0
 42
0.00000001
 43
0.00000001
 12
1.0
 22
0.0
 32
0.0
 13
1.0
 23
0.0
 33
0.0
 40
0.0
 40
0.0
 40
0.0
 40
0.0
 40
0.2499999999999986
 40
0.2499999999999986
 40
0.4999999999999971
 40
0.4999999999999971
 40
1.0
 40
1.0
 40
1.0
 40
1.0
 10
150.3652606611718
 20
154.8426482308207
 30
0.0
 10
150.4283176160696
 20
154.8426482308207
 30
0.0
 10
150.4874477658151
 20
154.8679945842015
 30
0.0
 10
150.5858953163484
 20
154.942113966341
 30
0.0
 10
150.6249275545365
 20
154.9886104810389
 30
0.0
 10
150.7248174389934
 20
155.1386849880475
 30
0.0
 10
150.7671164126028
 20
155.2498026971624
 30
0.0
 10
150.7982733630641
 20
155.3639511201698
 30
0.0
  0
ELLIPSE
  5
1DE
330
1F
100
AcDbEntity
  8
0
  6
Continuous
 62
     7
370
    15
100
AcDbEllipse
 10
134.5458632854
 20
145.4545817995
 30
0.0
 11
14.75368316065615
 21
31.09325491558116
 31
0.0
210
0.0
220
0.0
230
1.0
 40
0.3419987131
 41
5.193281737408629
 42
6.124043104552332
  0
SPLINE
  5
1DF
330
1F
100
AcDbEntity
  8
0
  6
Continuous
 62
     7
370
    15
100
AcDbSpline
210
0.0
220
0.0
230
1.0
 70
     8
 71
     3
 72
    12
 73
     8
 74
     0
 42
0.00000001
 43
0.00000001
 12
1.0
 22
0.0
 32
0.0
 13
1.0
 23
0.0
 33
0.0
 40
0.0
 40
0.0
 40
0.0
 40
0.0
 40
0.5
 40
0.5
 40
0.75
 40
0.75
 40
1.0
 40
1.0
 40
1.0
 40
1.0
 10
150.798273363064
 20
175.3553242596018
 30
0.0
 10
150.7671281651019
 20
175.393139782522
 30
0.0
 10
150.7248538987674
 20
175.4292066406055
 30
0.0
 10
150.6249083649421
 20
175.4771667056168
 30
0.0
 10
150.5851780602381
 20
175.4920276795145
 30
0.0
 10
150.4882900102318
 20
175.5149788256456
 30
0.0
 10
150.4282247684854
 20
175.5230737583577
 30
0.0
 10
150.3652606611718
 20
175.5230737583577
 30
0.0
  0
LINE
  5
1E0
330
1F
100
AcDbEntity
  8
0
  6
Continuous
 62
     7
370
    15
100
AcDbLine
 10
150.3652606612
 20
175.5230737584
 30
0.0
 11
147.4207742883
 21
175.5230737584
 31
0.0
  0
SPLINE
  5
1E1
330
1F
100
AcDbEntity
  8
0
  6
Continuous
 62
     7
370
    15
100
AcDbSpline
210
0.0
220
0.0
230
1.0
 70
     8
 71
     3
 72
    12
 73
     8
 74
     0
 42
0.00000001
 43
0.00000001
 12
1.0
 22
0.0
 32
0.0
 13
1.0
 23
0.0
 33
0.0
 40
0.0
 40
0.0
 40
0.0
 40
0.0
 40
0.2499999999999977
 40
0.2499999999999977
 40
0.4999999999999953
 40
0.4999999999999953
 40
1.0
 40
1.0
 40
1.0
 40
1.0
 10
147.4207742883047
 20
175.5230737583577
 30
0.0
 10
147.3577173334069
 20
175.5230737583577
 30
0.0
 10
147.2985871836613
 20
175.515173427278
 30
0.0
 10
147.200139633128
 20
175.491862679273
 30
0.0
 10
147.16110739494
 20
175.4771575529894
 30
0.0
 10
147.061217510483
 20
175.4292240248027
 30
0.0
 10
147.0189185368737
 20
175.393154052038
 30
0.0
 10
146.9877615864124
 20
175.3553242596018
 30
0.0
  0
ELLIPSE
  5
1E2
330
1F
100
AcDbEntity
  8
0
  6
Continuous
 62
     7
370
    15
100
AcDbEllipse
 10
163.2401716641
 20
145.4545817995
 30
0.0
 11
-14.75368316065615
 21
31.09325491558116
 31
0.0
210
0.0
220
0.0
230
1.0
 40
0.3419987131
 41
0.1591422026272944
 42
1.089903569770969
  0
LINE
  5
1E3
330
1F
100
AcDbEntity
  8
0
  6
Continuous
 62
     7
370
    15
100
AcDbLine
 10
186.58019506
 20
162.2452196508
 30
0.0
 11
182.638833351
 21
176.9545817995
 31
0.0
  0
ELLIPSE
  5
1E4
330
1F
100
AcDbEntity
  8
0
  6
Continuous
 62
     7
370
    15
100
AcDbEllipse
 10
235.6072109565
 20
145.4545817995
 30
0.0
 11
61.66454471312181
 21
3.819263116778757
 31
0.0
210
0.0
220
0.0
230
1.0
 40
0.5070597189
 41
2.457862224163362
 42
4.582048156619013
  0
LINE
  5
1E5
330
1F
100
AcDbEntity
  8
0
  6
Continuous
 62
     7
370
    15
100
AcDbLine
 10
229.5124944211
 20
113.9545817995
 30
0.0
 11
229.5127092538
 21
113.9558001761
 31
0.0
  0
SPLINE
  5
1E6
330
1F
100
AcDbEntity
  8
0
  6
Continuous
 62
     7
370
    15
100
AcDbSpline
210
0.0
220
0.0
230
1.0
 70
     8
 71
     3
 72
    70
 73
    66
 74
     0
 42
0.00000001
 43
0.00000001
 12
1.0
 22
0.0
 32
0.0
 13
1.0
 23
0.0
 33
0.0
 40
-0.03125
 40
-0.03125
 40
0.0
 40
0.0
 40
0.0312500000000003
 40
0.0312500000000003
 40
0.0625000000000006
 40
0.0625000000000006
 40
0.0937500000000005
 40
0.0937500000000005
 40
0.1250000000000005
 40
0.1250000000000005
 40
0.1562500000000005
 40
0.1562500000000005
 40
0.1875000000000004
 40
0.1875000000000004
 40
0.2187500000000004
 40
0.2187500000000004
 40
0.2500000000000004
 40
0.2500000000000004
 40
0.2812500000000003
 40
0.2812500000000003
 40
0.3125000000000003
 40
0.3125000000000003
 40
0.3437500000000002
 40
0.3437500000000002
 40
0.3750000000000002
 40
0.3750000000000002
 40
0.4062500000000001
 40
0.4062500000000001
 40
0.4375000000000001
 40
0.4375000000000001
 40
0.46875
 40
0.46875
 40
0.4999999999999999
 40
0.4999999999999999
 40
0.5312499999999999
 40
0.5312499999999999
 40
0.5624999999999999
 40
0.5624999999999999
 40
0.5937499999999999
 40
0.5937499999999999
 40
0.625
 40
0.625
 40
0.65625
 40
0.65625
 40
0.6875000000000001
 40
0.6875000000000001
 40
0.7187500000000001
 40
0.7187500000000001
 40
0.7500000000000002
 40
0.7500000000000002
 40
0.7812500000000002
 40
0.7812500000000002
 40
0.8125000000000003
 40
0.8125000000000003
 40
0.8437500000000002
 40
0.8437500000000002
 40
0.8750000000000002
 40
0.8750000000000002
 40
0.9062500000000001
 40
0.9062500000000001
 40
0.9375000000000001
 40
0.9375000000000001
 40
0.96875
 40
0.96875
 40
1.0
 40
1.0
 40
1.03125
 40
1.03125
 10
199.0395345009308
 20
114.4719162539017
 30
0.0
 10
199.058415901193
 20
114.5789979959377
 30
0.0
 10
199.0959279959795
 20
114.6351397061072
 30
0.0
 10
199.2226550367103
 20
114.7519386146454
 30
0.0
 10
199.3131038473727
 20
114.8132091780025
 30
0.0
 10
199.5412989878472
 20
114.936264004987
 30
0.0
 10
199.677761244186
 20
114.9976334041168
 30
0.0
 10
199.9937043022685
 20
115.118563500327
 30
0.0
 10
200.1750003384038
 20
115.1785398772887
 30
0.0
 10
200.568235550874
 20
115.2905134211756
 30
0.0
 10
200.7810564717135
 20
115.3429939153739
 30
0.0
 10
201.2397749709903
 20
115.4388575955382
 30
0.0
 10
201.4863415371288
 20
115.4821344300807
 30
0.0
 10
201.9934471830223
 20
115.5538108188926
 30
0.0
 10
202.2563351801474
 20
115.582774471413
 30
0.0
 10
202.802044824029
 20
115.6247116574792
 30
0.0
 10
203.0826087317866
 20
115.6372728296339
 30
0.0
 10
203.6385101555849
 20
115.6438221029991
 30
0.0
 10
203.9167833886027
 20
115.6380731210517
 30
0.0
 10
204.4740275123425
 20
115.6073547830716
 30
0.0
 10
204.7428790509749
 20
115.5829282996956
 30
0.0
 10
205.2602718983266
 20
115.5178005482969
 30
0.0
 10
205.511838777945
 20
115.4764385459692
 30
0.0
 10
205.9767052378831
 20
115.3817852788906
 30
0.0
 10
206.1905260783081
 20
115.3287193959926
 30
0.0
 10
206.5816314602947
 20
115.2135437026819
 30
0.0
 10
206.7573258909857
 20
115.1516701160281
 30
0.0
 10
207.0574919987013
 20
115.0265520489499
 30
0.0
 10
207.184827854589
 20
114.9622614927846
 30
0.0
 10
207.3886327453427
 20
114.834677927017
 30
0.0
 10
207.4636004466136
 20
114.7725469945739
 30
0.0
 10
207.5618505213677
 20
114.6526502830407
 30
0.0
 10
207.5847634117359
 20
114.5943888122557
 30
0.0
 10
207.5762425942592
 20
114.4870191195476
 30
0.0
 10
207.5456182298691
 20
114.4374830350317
 30
0.0
 10
207.4312560227079
 20
114.3463188138943
 30
0.0
 10
207.3469839964407
 20
114.3049339744084
 30
0.0
 10
207.1316428632532
 20
114.232493339026
 30
0.0
 10
207.0000793534616
 20
114.2009260267575
 30
0.0
 10
206.6871384111286
 20
114.145668125418
 30
0.0
 10
206.509909026793
 20
114.1227360610743
 30
0.0
 10
206.1181536889398
 20
114.0842490471418
 30
0.0
 10
205.9009805238038
 20
114.0685197865002
 30
0.0
 10
205.4367014209203
 20
114.0431635360526
 30
0.0
 10
205.192299074263
 20
114.0335851418148
 30
0.0
 10
204.6793899391144
 20
114.0187310396401
 30
0.0
 10
204.4080748662289
 20
114.0134488688595
 30
0.0
 10
203.861591754173
 20
114.0064698951367
 30
0.0
 10
203.5848541543973
 20
114.0046876311209
 30
0.0
 10
203.024299116868
 20
114.0040850355004
 30
0.0
 10
202.7411859780345
 20
114.0053066155409
 30
0.0
 10
202.1924107592916
 20
114.0109994774437
 30
0.0
 10
201.9235996315105
 20
114.0154542502248
 30
0.0
 10
201.3977175008578
 20
114.0289146175032
 30
0.0
 10
201.1483693255028
 20
114.0377496427251
 30
0.0
 10
200.6800598373631
 20
114.0611493894738
 30
0.0
 10
200.458229041996
 20
114.0759372065168
 30
0.0
 10
200.0576396429017
 20
114.1129608252764
 30
0.0
 10
199.8799493155622
 20
114.1349767206329
 30
0.0
 10
199.5697869878563
 20
114.1882034119107
 30
0.0
 10
199.4371754613693
 20
114.2197617543961
 30
0.0
 10
199.2307405446522
 20
114.2912910827052
 30
0.0
 10
199.1548255289537
 20
114.3314956711592
 30
0.0
 10
199.0586173972388
 20
114.4222592671103
 30
0.0
 10
199.0395345009308
 20
114.4719162539017
 30
0.0
 10
199.058415901193
 20
114.5789979959377
 30
0.0
  0
SPLINE
  5
1E7
330
1F
100
AcDbEntity
  8
0
  6
Continuous
 62
     7
370
    15
100
AcDbSpline
210
0.0
220
0.0
230
1.0
 70
     8
 71
     3
 72
    27
 73
    23
 74
     0
 42
0.00000001
 43
0.00000001
 12
1.0
 22
0.0
 32
0.0
 13
1.0
 23
0.0
 33
0.0
 40
0.0
 40
0.0
 40
0.0
 40
0.0
 40
0.0178846554864561
 40
0.0721835123532709
 40
0.124855048465519
 40
0.1790452615330514
 40
0.2318792323749043
 40
0.2862354015542172
 40
0.3392347306808755
 40
0.39377547214986
 40
0.4466845481327462
 40
0.5011401284874731
 40
0.5538426295263555
 40
0.6080743275583975
 40
0.6607769009101556
 40
0.7149962492363832
 40
0.7679045851266918
 40
0.8223412625637423
 40
0.8753408738265911
 40
0.9298864953702423
 40
0.9647285114613954
 40
1.0
 40
1.0
 40
1.0
 40
1.0
 10
176.883778795856
 20
176.9537038913273
 30
0.0
 10
176.886306192598
 20
176.9539440102579
 30
0.0
 10
176.8965069132148
 20
176.9549131442629
 30
0.0
 10
176.8275355330415
 20
176.9483443698047
 30
0.0
 10
176.6772391902572
 20
176.9345799334573
 30
0.0
 10
176.4446247130426
 20
176.9146604428265
 30
0.0
 10
176.1390400819448
 20
176.8911398557449
 30
0.0
 10
175.7719584718803
 20
176.8668080421001
 30
0.0
 10
175.3476364656474
 20
176.8440714715364
 30
0.0
 10
174.8855371737152
 20
176.8258763935166
 30
0.0
 10
174.3909497268371
 20
176.8140164930855
 30
0.0
 10
173.8875548113571
 20
176.8100294419486
 30
0.0
 10
173.3804235822204
 20
176.8142638031809
 30
0.0
 10
172.8930719625833
 20
176.8261303518454
 30
0.0
 10
172.4297886135587
 20
176.8444823370962
 30
0.0
 10
172.0112947967775
 20
176.8669853111316
 30
0.0
 10
171.6418592690332
 20
176.891501687874
 30
0.0
 10
171.338638509852
 20
176.9148918543354
 30
0.0
 10
171.1049154527412
 20
176.9349161160326
 30
0.0
 10
170.9705247802657
 20
176.9472540971654
 30
0.0
 10
170.9036391259501
 20
176.9535668174657
 30
0.0
 10
170.8965724538459
 20
176.9542420933692
 30
0.0
 10
170.8930174747382
 20
176.9545817994845
 30
0.0
  0
LINE
  5
1E8
330
1F
100
AcDbEntity
  8
0
  6
Continuous
 62
     7
370
    15
100
AcDbLine
 10
187.9037019753
 20
157.3058245984
 30
0.0
 11
186.58019506
 21
162.2452196508
 31
0.0
  0
ARC
  5
1E9
330
1F
100
AcDbEntity
  8
0
  6
Continuous
 62
     7
370
    15
100
AcDbCircle
 10
193.6992569331
 20
158.858738869
 30
0.0
 40
6.000000000000044
100
AcDbArc
 50
195.0
 51
260.0
  0
LINE
  5
1EA
330
1F
100
AcDbEntity
  8
0
  6
Continuous
 62
     7
370
    15
100
AcDbLine
 10
222.9038531681
 20
147.6166209207
 30
0.0
 11
192.6573678671
 21
152.9498923509
 31
0.0
  0
LINE
  5
1EB
330
1F
100
AcDbEntity
  8
0
  6
Continuous
 62
     7
370
    15
100
AcDbLine
 10
222.9038531681
 20
147.6166209207
 30
0.0
 11
221.30281697
 21
138.5366934379
 31
0.0
  0
LINE
  5
1EC
330
1F
100
AcDbEntity
  8
0
  6
Continuous
 62
     7
370
    15
100
AcDbLine
 10
221.30281697
 20
138.5366934379
 30
0.0
 11
221.6227338224
 21
138.4802834652
 31
0.0
  0
LINE
  5
1ED
330
1F
100
AcDbEntity
  8
0
  6
Continuous
 62
     7
370
    15
100
AcDbLine
 10
229.5127092538
 20
113.9558001761
 30
0.0
 11
233.4687310284
 21
136.3915145444
 31
0.0
  0
LINE
  5
1EE
330
1F
100
AcDbEntity
  8
0
  6
Continuous
 62
     7
370
    15
100
AcDbLine
 10
136.8930174747
 20
145.4545817995
 30
0.0
 11
136.8930174747
 21
176.4545817995
 31
0.0
  0
LINE
  5
1EF
330
1F
100
AcDbEntity
  8
0
  6
Continuous
 62
     7
370
    15
100
AcDbLine
 10
136.8930174747
 20
114.4545817995
 30
0.0
 11
136.8930174747
 21
145.4545817995
 31
0.0
  0
LINE
  5
1F0
330
1F
100
AcDbEntity
  8
0
  6
Continuous
 62
     7
370
    15
100
AcDbLine
 10
136.6930174747
 20
128.6643804457
 30
0.0
 11
136.6930174747
 21
122.9147615206
 31
0.0
  0
SPLINE
  5
1F1
330
1F
100
AcDbEntity
  8
0
  6
Continuous
 62
     7
370
    15
100
AcDbSpline
210
0.0
220
0.0
230
1.0
 70
     8
 71
     3
 72
    16
 73
    12
 74
     0
 42
0.00000001
 43
0.00000001
 12
1.0
 22
0.0
 32
0.0
 13
1.0
 23
0.0
 33
0.0
 40
0.0
 40
0.0
 40
0.0
 40
0.0
 40
0.5000000000000012
 40
0.5000000000000012
 40
0.7499999999999993
 40
0.7499999999999993
 40
0.8750000000000006
 40
0.8750000000000006
 40
0.9375000000000003
 40
0.9375000000000003
 40
1.0
 40
1.0
 40
1.0
 40
1.0
 10
136.6930174747382
 20
128.6643804457434
 30
0.0
 10
136.6930174747382
 20
128.7442041567239
 30
0.0
 10
136.6888711996603
 20
128.826060274608
 30
0.0
 10
136.6629056042667
 20
128.9548753956919
 30
0.0
 10
136.6514446988893
 20
128.9996660673935
 30
0.0
 10
136.6171329611149
 20
129.0657968751249
 30
0.0
 10
136.6031082251852
 20
129.0886439333279
 30
0.0
 10
136.5670852621515
 20
129.1150746865701
 30
0.0
 10
136.5523307530618
 20
129.1215023557123
 30
0.0
 10
136.522978591915
 20
129.1244632788675
 30
0.0
 10
136.5096387174109
 20
129.1214818873594
 30
0.0
 10
136.4980405858626
 20
129.1167388996781
 30
0.0
  0
SPLINE
  5
1F2
330
1F
100
AcDbEntity
  8
0
  6
Continuous
 62
     7
370
    15
100
AcDbSpline
210
0.0
220
0.0
230
1.0
 70
     8
 71
     3
 72
    12
 73
     8
 74
     0
 42
0.00000001
 43
0.00000001
 12
1.0
 22
0.0
 32
0.0
 13
1.0
 23
0.0
 33
0.0
 40
0.0
 40
0.0
 40
0.0
 40
0.0
 40
0.2499999999999998
 40
0.2499999999999998
 40
0.4999999999999996
 40
0.4999999999999996
 40
1.0
 40
1.0
 40
1.0
 40
1.0
 10
136.4980405858696
 20
129.1167388996727
 30
0.0
 10
136.4678487441524
 20
129.1043921235782
 30
0.0
 10
136.4344897747378
 20
129.0938944371084
 30
0.0
 10
136.3613524901572
 20
129.0804733825291
 30
0.0
 10
136.3211106175033
 20
129.0778629712822
 30
0.0
 10
136.2034048405348
 20
129.0858334240243
 30
0.0
 10
136.1329943627554
 20
129.1109211816422
 30
0.0
 10
136.0765051882871
 20
129.1402108239704
 30
0.0
  0
SPLINE
  5
1F3
330
1F
100
AcDbEntity
  8
0
  6
Continuous
 62
     7
370
    15
100
AcDbSpline
210
0.0
220
0.0
230
1.0
 70
     8
 71
     3
 72
    12
 73
     8
 74
     0
 42
0.00000001
 43
0.00000001
 12
1.0
 22
0.0
 32
0.0
 13
1.0
 23
0.0
 33
0.0
 40
0.0
 40
0.0
 40
0.0
 40
0.0
 40
0.2500000000000029
 40
0.2500000000000029
 40
0.5000000000000032
 40
0.5000000000000032
 40
1.0
 40
1.0
 40
1.0
 40
1.0
 10
136.0765051882867
 20
129.1402108239703
 30
0.0
 10
135.9883512505489
 20
129.185918649062
 30
0.0
 10
135.9279978259202
 20
129.2413358873812
 30
0.0
 10
135.8217358678534
 20
129.3596286144365
 30
0.0
 10
135.7795037012913
 20
129.4214237298454
 30
0.0
 10
135.6684330059742
 20
129.6128443563603
 30
0.0
 10
135.6154962295473
 20
129.7485910212458
 30
0.0
 10
135.5716971311786
 20
129.8913805550596
 30
0.0
  0
SPLINE
  5
1F4
330
1F
100
AcDbEntity
  8
0
  6
Continuous
 62
     7
370
    15
100
AcDbSpline
210
0.0
220
0.0
230
1.0
 70
     8
 71
     3
 72
    12
 73
     8
 74
     0
 42
0.00000001
 43
0.00000001
 12
1.0
 22
0.0
 32
0.0
 13
1.0
 23
0.0
 33
0.0
 40
0.0
 40
0.0
 40
0.0
 40
0.0
 40
0.5000000000000008
 40
0.5000000000000008
 40
0.7500000000000003
 40
0.7500000000000003
 40
1.0
 40
1.0
 40
1.0
 40
1.0
 10
135.5716971311786
 20
138.8740979893832
 30
0.0
 10
135.6154436720151
 20
139.1132719164298
 30
0.0
 10
135.6683280272466
 20
139.3507147713457
 30
0.0
 10
135.7798951145828
 20
139.6995528077613
 30
0.0
 10
135.8224787111258
 20
139.8144617153717
 30
0.0
 10
135.9273954382076
 20
140.0343441602819
 30
0.0
 10
135.9889290460524
 20
140.1427050812962
 30
0.0
 10
136.0765051882785
 20
140.2297106688953
 30
0.0
  0
SPLINE
  5
1F5
330
1F
100
AcDbEntity
  8
0
  6
Continuous
 62
     7
370
    15
100
AcDbSpline
210
0.0
220
0.0
230
1.0
 70
     8
 71
     3
 72
    12
 73
     8
 74
     0
 42
0.00000001
 43
0.00000001
 12
1.0
 22
0.0
 32
0.0
 13
1.0
 23
0.0
 33
0.0
 40
0.0
 40
0.0
 40
0.0
 40
0.0
 40
0.4999999999999996
 40
0.4999999999999996
 40
0.7499999999999997
 40
0.7499999999999997
 40
1.0
 40
1.0
 40
1.0
 40
1.0
 10
136.0765051882817
 20
140.2297106688954
 30
0.0
 10
136.1329416891889
 20
140.2857794885373
 30
0.0
 10
136.2020263198777
 20
140.3328921672917
 30
0.0
 10
136.3208285915956
 20
140.3442126137875
 30
0.0
 10
136.3610138670657
 20
140.337211723296
 30
0.0
 10
136.4343949144695
 20
140.3070004266372
 30
0.0
 10
136.4678044782122
 20
140.2844216162556
 30
0.0
 10
136.4980405858686
 20
140.2583342949015
 30
0.0
  0
SPLINE
  5
1F6
330
1F
100
AcDbEntity
  8
0
  6
Continuous
 62
     7
370
    15
100
AcDbSpline
210
0.0
220
0.0
230
1.0
 70
     8
 71
     3
 72
    16
 73
    12
 74
     0
 42
0.00000001
 43
0.00000001
 12
1.0
 22
0.0
 32
0.0
 13
1.0
 23
0.0
 33
0.0
 40
0.0
 40
0.0
 40
0.0
 40
0.0
 40
0.0625000000000005
 40
0.0625000000000005
 40
0.125000000000001
 40
0.125000000000001
 40
0.2500000000000035
 40
0.2500000000000035
 40
0.5000000000000037
 40
0.5000000000000037
 40
1.0
 40
1.0
 40
1.0
 40
1.0
 10
136.4980405858314
 20
140.2583342948445
 30
0.0
 10
136.5096209934193
 20
140.2483428694347
 30
0.0
 10
136.5229305201806
 20
140.240085463053
 30
0.0
 10
136.5522319502668
 20
140.2343361782409
 30
0.0
 10
136.567046050151
 20
140.237946476949
 30
0.0
 10
136.6028744518539
 20
140.2608669362317
 30
0.0
 10
136.6169940762169
 20
140.2866624444772
 30
0.0
 10
136.6514982203054
 20
140.3648174688962
 30
0.0
 10
136.66260277101
 20
140.4209603116322
 30
0.0
 10
136.6887789482262
 20
140.5918663671659
 30
0.0
 10
136.6930174747382
 20
140.7090814597447
 30
0.0
 10
136.6930174747382
 20
140.8266460589665
 30
0.0
  0
LINE
  5
1F7
330
1F
100
AcDbEntity
  8
0
  6
Continuous
 62
     7
370
    15
100
AcDbLine
 10
136.6930174747
 20
166.8727188937
 30
0.0
 11
136.6930174747
 21
140.826646059
 31
0.0
  0
SPLINE
  5
1F8
330
1F
100
AcDbEntity
  8
0
  6
Continuous
 62
     7
370
    15
100
AcDbSpline
210
0.0
220
0.0
230
1.0
 70
     8
 71
     3
 72
    16
 73
    12
 74
     0
 42
0.00000001
 43
0.00000001
 12
1.0
 22
0.0
 32
0.0
 13
1.0
 23
0.0
 33
0.0
 40
0.0
 40
0.0
 40
0.0
 40
0.0
 40
0.5000000000000038
 40
0.5000000000000038
 40
0.750000000000004
 40
0.750000000000004
 40
0.8750000000000016
 40
0.8750000000000016
 40
0.9375000000000009
 40
0.9375000000000009
 40
1.0
 40
1.0
 40
1.0
 40
1.0
 10
136.6930174747382
 20
166.8727188937437
 30
0.0
 10
136.6930174747382
 20
166.9099927346539
 30
0.0
 10
136.6888711996603
 20
166.9442888266725
 30
0.0
 10
136.6629056042668
 20
166.9863870158088
 30
0.0
 10
136.6514446988894
 20
166.9993006573735
 30
0.0
 10
136.617132961115
 20
167.0110125081131
 30
0.0
 10
136.6031082251855
 20
167.0140259399693
 30
0.0
 10
136.5670852621516
 20
167.0107284771934
 30
0.0
 10
136.5523307530619
 20
167.0079069922056
 30
0.0
 10
136.522978591915
 20
166.9992252512141
 30
0.0
 10
136.5096387174109
 20
166.9939359336071
 30
0.0
 10
136.4980405858626
 20
166.9886722038814
 30
0.0
  0
SPLINE
  5
1F9
330
1F
100
AcDbEntity
  8
0
  6
Continuous
 62
     7
370
    15
100
AcDbSpline
210
0.0
220
0.0
230
1.0
 70
     8
 71
     3
 72
    12
 73
     8
 74
     0
 42
0.00000001
 43
0.00000001
 12
1.0
 22
0.0
 32
0.0
 13
1.0
 23
0.0
 33
0.0
 40
0.0
 40
0.0
 40
0.0
 40
0.0
 40
0.2499999999999998
 40
0.2499999999999998
 40
0.4999999999999999
 40
0.4999999999999999
 40
1.0
 40
1.0
 40
1.0
 40
1.0
 10
136.4980405858696
 20
166.9886722038764
 30
0.0
 10
136.467842144429
 20
166.974966855457
 30
0.0
 10
136.434474789093
 20
166.9629192500066
 30
0.0
 10
136.3613195132631
 20
166.946159261777
 30
0.0
 10
136.3210668142392
 20
166.941750372236
 30
0.0
 10
136.2033380709643
 20
166.9446801373336
 30
0.0
 10
136.1328796229054
 20
166.9670468975894
 30
0.0
 10
136.0765051882871
 20
166.993823905595
 30
0.0
  0
SPLINE
  5
1FA
330
1F
100
AcDbEntity
  8
0
  6
Continuous
 62
     7
370
    15
100
AcDbSpline
210
0.0
220
0.0
230
1.0
 70
     8
 71
     3
 72
    12
 73
     8
 74
     0
 42
0.00000001
 43
0.00000001
 12
1.0
 22
0.0
 32
0.0
 13
1.0
 23
0.0
 33
0.0
 40
0.0
 40
0.0
 40
0.0
 40
0.0
 40
0.5000000000000009
 40
0.5000000000000009
 40
0.7500000000000006
 40
0.7500000000000006
 40
1.0
 40
1.0
 40
1.0
 40
1.0
 10
135.5716971311786
 20
167.5982668540108
 30
0.0
 10
135.615447483063
 20
167.5017027062524
 30
0.0
 10
135.6683376341875
 20
167.4000784430667
 30
0.0
 10
135.7799491773292
 20
167.2433239788837
 30
0.0
 10
135.8225085212327
 20
167.1904574092101
 30
0.0
 10
135.9274857565701
 20
167.0873012948958
 30
0.0
 10
135.9890529996647
 20
167.0353623790309
 30
0.0
 10
136.0765051882871
 20
166.993823905595
 30
0.0
  0
SPLINE
  5
1FB
330
1F
100
AcDbEntity
  8
0
  6
Continuous
 62
     7
370
    15
100
AcDbSpline
210
0.0
220
0.0
230
1.0
 70
     8
 71
     3
 72
    16
 73
    12
 74
     0
 42
0.00000001
 43
0.00000001
 12
1.0
 22
0.0
 32
0.0
 13
1.0
 23
0.0
 33
0.0
 40
0.0
 40
0.0
 40
0.0
 40
0.0
 40
0.2499999999999997
 40
0.2499999999999997
 40
0.3749999999999999
 40
0.3749999999999999
 40
0.5000000000000001
 40
0.5000000000000001
 40
0.75
 40
0.75
 40
1.0
 40
1.0
 40
1.0
 40
1.0
 10
135.5716971311786
 20
129.8913805550596
 30
0.0
 10
135.4104646536941
 20
130.4170148980725
 30
0.0
 10
135.2899848140545
 20
131.0098464256315
 30
0.0
 10
135.1676042967411
 20
131.9996181167564
 30
0.0
 10
135.1366266363437
 20
132.3464217625806
 30
0.0
 10
135.0950128987157
 20
133.0754103618207
 30
0.0
 10
135.0847769857829
 20
133.4506853139099
 30
0.0
 10
135.0845885887268
 20
134.6068853601299
 30
0.0
 10
135.1247332913644
 20
135.4182413729296
 30
0.0
 10
135.288887046304
 20
137.1240856187176
 30
0.0
 10
135.4104386967136
 20
137.9924554114145
 30
0.0
 10
135.5716971311786
 20
138.8740979893832
 30
0.0
  0
LINE
  5
1FC
330
1F
100
AcDbEntity
  8
0
  6
Continuous
 62
     7
370
    15
100
AcDbLine
 10
134.6930174747
 20
128.9970524235
 30
0.0
 11
134.6930174747
 21
140.2297106689
 31
0.0
  0
LINE
  5
1FD
330
1F
100
AcDbEntity
  8
0
  6
Continuous
 62
     7
370
    15
100
AcDbLine
 10
100.3930174747
 20
129.7433371611
 30
0.0
 11
100.3930174747
 21
140.2297106689
 31
0.0
  0
LINE
  5
1FE
330
1F
100
AcDbEntity
  8
0
  6
Continuous
 62
     7
370
    15
100
AcDbLine
 10
100.3930174747
 20
140.2297106689
 30
0.0
 11
100.3930174747
 21
166.3906975685
 31
0.0
  0
LINE
  5
1FF
330
1F
100
AcDbEntity
  8
0
  6
Continuous
 62
     7
370
    15
100
AcDbLine
 10
134.6930174747
 20
140.2297106689
 30
0.0
 11
134.6930174747
 21
167.1369823061
 31
0.0
  0
LINE
  5
200
330
1F
100
AcDbEntity
  8
0
  6
Continuous
 62
     7
370
    15
100
AcDbLine
 10
98.8930174747
 20
130.4933371611
 30
0.0
 11
98.8930174747
 21
140.2297106689
 31
0.0
  0
LINE
  5
201
330
1F
100
AcDbEntity
  8
0
  6
Continuous
 62
     7
370
    15
100
AcDbLine
 10
98.8930174747
 20
140.2297106689
 30
0.0
 11
98.8930174747
 21
165.6406975685
 31
0.0
  0
LINE
  5
202
330
1F
100
AcDbEntity
  8
0
  6
Continuous
 62
     7
370
    15
100
AcDbLine
 10
134.6930174747
 20
124.8344830149
 30
0.0
 11
134.6930174747
 21
128.9970524235
 31
0.0
  0
SPLINE
  5
203
330
1F
100
AcDbEntity
  8
0
  6
Continuous
 62
     7
370
    15
100
AcDbSpline
210
0.0
220
0.0
230
1.0
 70
     8
 71
     3
 72
     8
 73
     4
 74
     0
 42
0.00000001
 43
0.00000001
 12
1.0
 22
0.0
 32
0.0
 13
1.0
 23
0.0
 33
0.0
 40
0.0000249638557296
 40
0.0000249638557296
 40
0.0000249638557296
 40
0.0000249638557296
 40
0.0049776420541172
 40
0.0049776420541172
 40
0.0049776420541172
 40
0.0049776420541172
 10
100.3930174747382
 20
125.9575921862823
 30
0.0
 10
102.0429937092477
 20
125.9212429733444
 30
0.0
 10
103.6929950289928
 20
125.8848183872122
 30
0.0
 10
105.3430174747382
 20
125.8483185090014
 30
0.0
  0
LINE
  5
204
330
1F
100
AcDbEntity
  8
0
  6
Continuous
 62
     7
370
    15
100
AcDbLine
 10
100.3930174747
 20
125.9575921863
 30
0.0
 11
100.3930174747
 21
129.7433371611
 31
0.0
  0
SPLINE
  5
205
330
1F
100
AcDbEntity
  8
0
  6
Continuous
 62
     7
370
    15
100
AcDbSpline
210
0.0
220
0.0
230
1.0
 70
     8
 71
     3
 72
    12
 73
     8
 74
     0
 42
0.00000001
 43
0.00000001
 12
1.0
 22
0.0
 32
0.0
 13
1.0
 23
0.0
 33
0.0
 40
0.0
 40
0.0
 40
0.0
 40
0.0
 40
0.3217007750382274
 40
0.6482385293902485
 40
0.7953300047197293
 40
0.9461094724574203
 40
1.0
 40
1.0
 40
1.0
 40
1.0
 10
105.3430174747382
 20
125.8483185090014
 30
0.0
 10
105.6417098283293
 20
125.7920400433836
 30
0.0
 10
106.2435855683207
 20
125.6786369290017
 30
0.0
 10
106.8574904733199
 20
125.5836374418529
 30
0.0
 10
107.1657260369836
 20
125.5385527237746
 30
0.0
 10
107.2782761316919
 20
125.522773683007
 30
0.0
 10
107.2629932514781
 20
125.524921489374
 30
0.0
 10
107.258969200586
 20
125.5254870164217
 30
0.0
  0
SPLINE
  5
206
330
1F
100
AcDbEntity
  8
0
  6
Continuous
 62
     7
370
    15
100
AcDbSpline
210
0.0
220
0.0
230
1.0
 70
     8
 71
     3
 72
    27
 73
    23
 74
     0
 42
0.00000001
 43
0.00000001
 12
1.0
 22
0.0
 32
0.0
 13
1.0
 23
0.0
 33
0.0
 40
0.0
 40
0.0
 40
0.0
 40
0.0
 40
0.0322524045785737
 40
0.0816430999251099
 40
0.1290586612648784
 40
0.1777432041577064
 40
0.2272475226158283
 40
0.2780116234121242
 40
0.3309569209659097
 40
0.3852748754781229
 40
0.4412837295085764
 40
0.4988337213646138
 40
0.5562818536597487
 40
0.6154087749742452
 40
0.6725513772536973
 40
0.7314550518215078
 40
0.7867561477595304
 40
0.8438515416930663
 40
0.8960134612747833
 40
0.949884652353124
 40
0.9989419924478987
 40
0.9999999999999999
 40
0.9999999999999999
 40
0.9999999999999999
 40
0.9999999999999999
 10
125.8313431340646
 20
125.0585510929642
 30
0.0
 10
125.8313008838932
 20
125.0585594313375
 30
0.0
 10
125.8311939326438
 20
125.058580538931
 30
0.0
 10
125.7075906932378
 20
125.0767720543253
 30
0.0
 10
125.481669519637
 20
125.1088686355459
 30
0.0
 10
125.1584565522823
 20
125.1523982757358
 30
0.0
 10
124.7432258684816
 20
125.2040545401427
 30
0.0
 10
124.2392121333132
 20
125.2603216541315
 30
0.0
 10
123.6528244592308
 20
125.3167764553111
 30
0.0
 10
122.9926202272993
 20
125.3685879239969
 30
0.0
 10
122.2744803362844
 20
125.4107066535385
 30
0.0
 10
121.5213644249678
 20
125.4387045113388
 30
0.0
 10
120.7534329422961
 20
125.4502048209592
 30
0.0
 10
120.0075229369993
 20
125.4447452259831
 30
0.0
 10
119.2984488925297
 20
125.4244832102878
 30
0.0
 10
118.6680185735961
 20
125.394074747179
 30
0.0
 10
118.1214665077234
 20
125.3584197597958
 30
0.0
 10
117.6954040715816
 20
125.3246195735075
 30
0.0
 10
117.3807847718211
 20
125.2963445724959
 30
0.0
 10
117.2116677334118
 20
125.2799850243421
 30
0.0
 10
117.1430549184467
 20
125.2731631286549
 30
0.0
 10
117.1619360573549
 20
125.2750236782813
 30
0.0
 10
117.1623346655357
 20
125.2750629571779
 30
0.0
  0
SPLINE
  5
207
330
1F
100
AcDbEntity
  8
0
  6
Continuous
 62
     7
370
    15
100
AcDbSpline
210
0.0
220
0.0
230
1.0
 70
     8
 71
     3
 72
     8
 73
     4
 74
     0
 42
0.00000001
 43
0.00000001
 12
1.0
 22
0.0
 32
0.0
 13
1.0
 23
0.0
 33
0.0
 40
0.0
 40
0.0
 40
0.0
 40
0.0
 40
1.0
 40
1.0
 40
1.0
 40
1.0
 10
98.893017474736
 20
126.7061024858402
 30
0.0
 10
99.35977808611378
 20
126.4765729934561
 30
0.0
 10
99.86552563289386
 20
126.2246422183648
 30
0.0
 10
100.3930174747382
 20
125.9575921862823
 30
0.0
  0
LINE
  5
208
330
1F
100
AcDbEntity
  8
0
  6
Continuous
 62
     7
370
    15
100
AcDbLine
 10
98.8930174747
 20
126.7061024858
 30
0.0
 11
98.8930174747
 21
130.4933371611
 31
0.0
  0
LINE
  5
209
330
1F
100
AcDbEntity
  8
0
  6
Continuous
 62
     7
370
    15
100
AcDbLine
 10
134.6930174747
 20
168.8746805841
 30
0.0
 11
134.6930174747
 21
167.1369823061
 31
0.0
  0
LINE
  5
20A
330
1F
100
AcDbEntity
  8
0
  6
Continuous
 62
     7
370
    15
100
AcDbLine
 10
100.3930174747
 20
168.0129451958
 30
0.0
 11
100.3930174747
 21
166.3906975685
 31
0.0
  0
SPLINE
  5
20B
330
1F
100
AcDbEntity
  8
0
  6
Continuous
 62
     7
370
    15
100
AcDbSpline
210
0.0
220
0.0
230
1.0
 70
     8
 71
     3
 72
    10
 73
     6
 74
     0
 42
0.00000001
 43
0.00000001
 12
1.0
 22
0.0
 32
0.0
 13
1.0
 23
0.0
 33
0.0
 40
0.0
 40
0.0
 40
0.0
 40
0.0
 40
0.1209913321306029
 40
0.5024128609468611
 40
1.0
 40
1.0
 40
1.0
 40
1.0
 10
135.099608429032
 20
168.6509063093792
 30
0.0
 10
135.0955811600755
 20
168.6599895208275
 30
0.0
 10
135.0788580470836
 20
168.6977072826699
 30
0.0
 10
135.1972490075109
 20
168.4297634306511
 30
0.0
 10
135.4363483456871
 20
167.8988213091547
 30
0.0
 10
135.5716971311786
 20
167.5982668540108
 30
0.0
  0
LINE
  5
20C
330
1F
100
AcDbEntity
  8
0
  6
Continuous
 62
     7
370
    15
100
AcDbLine
 10
98.8930174747
 20
167.146919792
 30
0.0
 11
98.8930174747
 21
165.6406975685
 31
0.0
  0
SPLINE
  5
20D
330
1F
100
AcDbEntity
  8
0
  6
HIDDEN
 62
     7
370
     0
100
AcDbSpline
210
0.0
220
0.0
230
1.0
 70
     8
 71
     3
 72
    17
 73
    13
 74
     0
 42
0.00000001
 43
0.00000001
 12
1.0
 22
0.0
 32
0.0
 13
1.0
 23
0.0
 33
0.0
 40
0.0
 40
0.0
 40
0.0
 40
0.0
 40
0.1072234106502359
 40
0.2144416097158163
 40
0.321795160324243
 40
0.4292380196980143
 40
0.5365334049072608
 40
0.6436746584774119
 40
0.7508956629553145
 40
0.8583056864987276
 40
0.9657193504048541
 40
0.9999999999999999
 40
0.9999999999999999
 40
0.9999999999999999
 40
0.9999999999999999
 10
150.8930174747382
 20
113.9545817994845
 30
0.0
 10
150.8709500149057
 20
113.9560227967211
 30
0.0
 10
150.8268161678276
 20
113.9589047211548
 30
0.0
 10
150.4828339819238
 20
113.9789455835464
 30
0.0
 10
149.9758875177095
 20
114.0012524795788
 30
0.0
 10
149.3422854941666
 20
114.0173251495352
 30
0.0
 10
148.6591454024628
 20
114.0197207254888
 30
0.0
 10
148.0037882690478
 20
114.0075995962913
 30
0.0
 10
147.4442202956374
 20
113.9859417493323
 30
0.0
 10
147.0630949032923
 20
113.9653895755852
 30
0.0
 10
146.8819750852171
 20
113.9538900690737
 30
0.0
 10
146.9106889699519
 20
113.9556932397126
 30
0.0
 10
146.9176358303924
 20
113.9561294877123
 30
0.0
  0
SPLINE
  5
20E
330
1F
100
AcDbEntity
  8
0
  6
HIDDEN
 62
     7
370
     0
100
AcDbSpline
210
0.0
220
0.0
230
1.0
 70
     8
 71
     3
 72
    12
 73
     8
 74
     0
 42
0.00000001
 43
0.00000001
 12
1.0
 22
0.0
 32
0.0
 13
1.0
 23
0.0
 33
0.0
 40
0.0
 40
0.0
 40
0.0
 40
0.0
 40
0.5000000000000009
 40
0.5000000000000009
 40
0.7500000000000004
 40
0.7500000000000004
 40
1.0
 40
1.0
 40
1.0
 40
1.0
 10
146.9877615864124
 20
135.5452124787994
 30
0.0
 10
147.0184838283315
 20
135.6577682782086
 30
0.0
 10
147.0613210428667
 20
135.7705261379482
 30
0.0
 10
147.1607480670665
 20
135.9200670237446
 30
0.0
 10
147.2005002618832
 20
135.9673597554514
 30
0.0
 10
147.2985417187414
 20
136.0410960487729
 30
0.0
 10
147.3580977743289
 20
136.0665153681485
 30
0.0
 10
147.4207742883047
 20
136.0665153681485
 30
0.0
  0
LINE
  5
20F
330
1F
100
AcDbEntity
  8
0
  6
HIDDEN
 62
     7
370
     0
100
AcDbLine
 10
147.4207742883
 20
136.0665153681
 30
0.0
 11
150.3652606612
 21
136.0665153681
 31
0.0
  0
SPLINE
  5
210
330
1F
100
AcDbEntity
  8
0
  6
HIDDEN
 62
     7
370
     0
100
AcDbSpline
210
0.0
220
0.0
230
1.0
 70
     8
 71
     3
 72
    12
 73
     8
 74
     0
 42
0.00000001
 43
0.00000001
 12
1.0
 22
0.0
 32
0.0
 13
1.0
 23
0.0
 33
0.0
 40
0.0
 40
0.0
 40
0.0
 40
0.0
 40
0.2499999999999986
 40
0.2499999999999986
 40
0.4999999999999971
 40
0.4999999999999971
 40
1.0
 40
1.0
 40
1.0
 40
1.0
 10
150.3652606611718
 20
136.0665153681485
 30
0.0
 10
150.4283406996651
 20
136.0665153681485
 30
0.0
 10
150.4874893218465
 20
136.0411510489336
 30
0.0
 10
150.5859618719156
 20
135.9669861885606
 30
0.0
 10
150.6249984839003
 20
135.9204658480066
 30
0.0
 10
150.7248949506793
 20
135.7703235051613
 30
0.0
 10
150.767315831746
 20
135.6586302981892
 30
0.0
 10
150.798273363064
 20
135.5452124787994
 30
0.0
  0
ELLIPSE
  5
211
330
1F
100
AcDbEntity
  8
0
  6
HIDDEN
 62
     7
370
     0
100
AcDbEllipse
 10
134.5458632854
 20
145.4545817995
 30
0.0
 11
-14.7536831606561
 21
31.09325491558116
 31
0.0
210
0.0
220
0.0
230
1.0
 40
0.3419987131
 41
3.300734856217132
 42
4.231496223360782
  0
SPLINE
  5
212
330
1F
100
AcDbEntity
  8
0
  6
HIDDEN
 62
     7
370
     0
100
AcDbSpline
210
0.0
220
0.0
230
1.0
 70
     8
 71
     3
 72
    12
 73
     8
 74
     0
 42
0.00000001
 43
0.00000001
 12
1.0
 22
0.0
 32
0.0
 13
1.0
 23
0.0
 33
0.0
 40
0.0
 40
0.0
 40
0.0
 40
0.0
 40
0.500000000000001
 40
0.500000000000001
 40
0.7500000000000004
 40
0.7500000000000004
 40
1.0
 40
1.0
 40
1.0
 40
1.0
 10
150.798273363064
 20
115.5538393393673
 30
0.0
 10
150.7675511211449
 20
115.5165373564143
 30
0.0
 10
150.7247139066097
 20
115.4799255243679
 30
0.0
 10
150.6252868824099
 20
115.4321607410827
 30
0.0
 10
150.5855346875933
 20
115.4172032256003
 30
0.0
 10
150.4874932307351
 20
115.3940132798312
 30
0.0
 10
150.4279371751476
 20
115.3860898406115
 30
0.0
 10
150.3652606611718
 20
115.3860898406115
 30
0.0
  0
LINE
  5
213
330
1F
100
AcDbEntity
  8
0
  6
HIDDEN
 62
     7
370
     0
100
AcDbLine
 10
150.3652606612
 20
115.3860898406
 30
0.0
 11
147.4207742883
 21
115.3860898406
 31
0.0
  0
SPLINE
  5
214
330
1F
100
AcDbEntity
  8
0
  6
HIDDEN
 62
     7
370
     0
100
AcDbSpline
210
0.0
220
0.0
230
1.0
 70
     8
 71
     3
 72
    12
 73
     8
 74
     0
 42
0.00000001
 43
0.00000001
 12
1.0
 22
0.0
 32
0.0
 13
1.0
 23
0.0
 33
0.0
 40
0.0
 40
0.0
 40
0.0
 40
0.0
 40
0.2500000000000009
 40
0.2500000000000009
 40
0.5000000000000019
 40
0.5000000000000019
 40
1.0
 40
1.0
 40
1.0
 40
1.0
 10
147.4207742883047
 20
115.3860898406115
 30
0.0
 10
147.3576942498113
 20
115.3860898406115
 30
0.0
 10
147.2985456276299
 20
115.3939957668239
 30
0.0
 10
147.2000730775608
 20
115.4173209282602
 30
0.0
 10
147.1610364655761
 20
115.4320337180919
 30
0.0
 10
147.061139998797
 20
115.4799895188228
 30
0.0
 10
147.0187191177304
 20
115.5162516754028
 30
0.0
 10
146.9877615864124
 20
115.5538393393673
 30
0.0
  0
ELLIPSE
  5
215
330
1F
100
AcDbEntity
  8
0
  6
HIDDEN
 62
     7
370
     0
100
AcDbEllipse
 10
163.2401716641
 20
145.4545817995
 30
0.0
 11
14.75368316065604
 21
31.09325491558113
 31
0.0
210
0.0
220
0.0
230
1.0
 40
0.3419987131
 41
2.051689083818816
 42
2.982450450962492
  0
SPLINE
  5
216
330
1F
100
AcDbEntity
  8
0
  6
HIDDEN
 62
     7
370
     0
100
AcDbSpline
210
0.0
220
0.0
230
1.0
 70
     8
 71
     3
 72
    12
 73
     8
 74
     0
 42
0.00000001
 43
0.00000001
 12
1.0
 22
0.0
 32
0.0
 13
1.0
 23
0.0
 33
0.0
 40
0.0
 40
0.0
 40
0.0
 40
0.0
 40
0.5
 40
0.5
 40
0.75
 40
0.75
 40
1.0
 40
1.0
 40
1.0
 40
1.0
 10
146.9877615864125
 20
175.3553242596019
 30
0.0
 10
147.0184838283316
 20
175.3926262425549
 30
0.0
 10
147.0613210428668
 20
175.4292380746013
 30
0.0
 10
147.1607480670666
 20
175.4770028578865
 30
0.0
 10
147.2005002618832
 20
175.4919603733688
 30
0.0
 10
147.2985417187415
 20
175.515150319138
 30
0.0
 10
147.3580977743289
 20
175.5230737583578
 30
0.0
 10
147.4207742883047
 20
175.5230737583578
 30
0.0
  0
LINE
  5
217
330
1F
100
AcDbEntity
  8
0
  6
HIDDEN
 62
     7
370
     0
100
AcDbLine
 10
147.4207742883
 20
175.5230737584
 30
0.0
 11
150.3652606612
 21
175.5230737584
 31
0.0
  0
SPLINE
  5
218
330
1F
100
AcDbEntity
  8
0
  6
HIDDEN
 62
     7
370
     0
100
AcDbSpline
210
0.0
220
0.0
230
1.0
 70
     8
 71
     3
 72
    12
 73
     8
 74
     0
 42
0.00000001
 43
0.00000001
 12
1.0
 22
0.0
 32
0.0
 13
1.0
 23
0.0
 33
0.0
 40
0.0
 40
0.0
 40
0.0
 40
0.0
 40
0.2499999999999991
 40
0.2499999999999991
 40
0.4999999999999982
 40
0.4999999999999982
 40
1.0
 40
1.0
 40
1.0
 40
1.0
 10
150.3652606611718
 20
175.5230737583578
 30
0.0
 10
150.4283406996651
 20
175.5230737583578
 30
0.0
 10
150.4874893218465
 20
175.5151678321453
 30
0.0
 10
150.5859618719155
 20
175.491842670709
 30
0.0
 10
150.6249984839002
 20
175.4771298808774
 30
0.0
 10
150.7248949506793
 20
175.4291740801464
 30
0.0
 10
150.767315831746
 20
175.3929119235664
 30
0.0
 10
150.7982733630639
 20
175.3553242596019
 30
0.0
  0
ELLIPSE
  5
219
330
1F
100
AcDbEntity
  8
0
  6
HIDDEN
 62
     7
370
     0
100
AcDbEllipse
 10
134.5458632854
 20
145.4545817995
 30
0.0
 11
14.75368316065629
 21
31.09325491558118
 31
0.0
210
0.0
220
0.0
230
1.0
 40
0.3419987131
 41
5.193281737408642
 42
6.124043104552345
  0
SPLINE
  5
21A
330
1F
100
AcDbEntity
  8
0
  6
HIDDEN
 62
     7
370
     0
100
AcDbSpline
210
0.0
220
0.0
230
1.0
 70
     8
 71
     3
 72
    12
 73
     8
 74
     0
 42
0.00000001
 43
0.00000001
 12
1.0
 22
0.0
 32
0.0
 13
1.0
 23
0.0
 33
0.0
 40
0.0
 40
0.0
 40
0.0
 40
0.0
 40
0.5
 40
0.5
 40
0.75
 40
0.75
 40
1.0
 40
1.0
 40
1.0
 40
1.0
 10
150.798273363064
 20
155.3639511201703
 30
0.0
 10
150.7675511211448
 20
155.2513953207611
 30
0.0
 10
150.7247139066097
 20
155.1386374610215
 30
0.0
 10
150.6252868824099
 20
154.9890965752252
 30
0.0
 10
150.5855346875933
 20
154.9418038435184
 30
0.0
 10
150.487493230735
 20
154.8680675501969
 30
0.0
 10
150.4279371751476
 20
154.8426482308211
 30
0.0
 10
150.3652606611718
 20
154.8426482308211
 30
0.0
  0
LINE
  5
21B
330
1F
100
AcDbEntity
  8
0
  6
HIDDEN
 62
     7
370
     0
100
AcDbLine
 10
150.3652606612
 20
154.8426482308
 30
0.0
 11
147.4207742883
 21
154.8426482308
 31
0.0
  0
SPLINE
  5
21C
330
1F
100
AcDbEntity
  8
0
  6
HIDDEN
 62
     7
370
     0
100
AcDbSpline
210
0.0
220
0.0
230
1.0
 70
     8
 71
     3
 72
    12
 73
     8
 74
     0
 42
0.00000001
 43
0.00000001
 12
1.0
 22
0.0
 32
0.0
 13
1.0
 23
0.0
 33
0.0
 40
0.0
 40
0.0
 40
0.0
 40
0.0
 40
0.2499999999999986
 40
0.2499999999999986
 40
0.4999999999999971
 40
0.4999999999999971
 40
1.0
 40
1.0
 40
1.0
 40
1.0
 10
147.4207742883047
 20
154.8426482308211
 30
0.0
 10
147.3576942498113
 20
154.8426482308211
 30
0.0
 10
147.2985456276299
 20
154.8680125500362
 30
0.0
 10
147.2000730775609
 20
154.942177410409
 30
0.0
 10
147.1610364655762
 20
154.9886977509632
 30
0.0
 10
147.0611399987971
 20
155.1388400938084
 30
0.0
 10
147.0187191177305
 20
155.2505333007805
 30
0.0
 10
146.9877615864125
 20
155.3639511201703
 30
0.0
  0
ELLIPSE
  5
21D
330
1F
100
AcDbEntity
  8
0
  6
HIDDEN
 62
     7
370
     0
100
AcDbEllipse
 10
163.2401716641
 20
145.4545817995
 30
0.0
 11
-14.75368316065629
 21
31.09325491558115
 31
0.0
210
0.0
220
0.0
230
1.0
 40
0.3419987131
 41
0.1591422026272811
 42
1.089903569770957
  0
LINE
  5
21E
330
1F
100
AcDbEntity
  8
0
  6
HIDDEN
 62
     7
370
     0
100
AcDbLine
 10
182.638833351
 20
176.9545817995
 30
0.0
 11
186.58019506
 21
162.2452196508
 31
0.0
  0
LINE
  5
21F
330
1F
100
AcDbEntity
  8
0
  6
HIDDEN
 62
     7
370
     0
100
AcDbLine
 10
229.5127092538
 20
113.9558001761
 30
0.0
 11
229.5124944211
 21
113.9545817995
 31
0.0
  0
ELLIPSE
  5
220
330
1F
100
AcDbEntity
  8
0
  6
HIDDEN
 62
     7
370
     0
100
AcDbEllipse
 10
235.6072109565
 20
145.4545817995
 30
0.0
 11
61.66454471312181
 21
3.819263116778728
 31
0.0
210
0.0
220
0.0
230
1.0
 40
0.5070597189
 41
2.457862224163362
 42
4.582048156619013
  0
SPLINE
  5
221
330
1F
100
AcDbEntity
  8
0
  6
HIDDEN
 62
     7
370
     0
100
AcDbSpline
210
0.0
220
0.0
230
1.0
 70
     8
 71
     3
 72
    26
 73
    22
 74
     0
 42
0.00000001
 43
0.00000001
 12
1.0
 22
0.0
 32
0.0
 13
1.0
 23
0.0
 33
0.0
 40
0.0
 40
0.0
 40
0.0
 40
0.0
 40
0.0527625552250809
 40
0.1070594446264173
 40
0.159820799924372
 40
0.2141040980287358
 40
0.2670140416952791
 40
0.3214521871605536
 40
0.3744568055100892
 40
0.4290074694630612
 40
0.4818484700504193
 40
0.5362320166743647
 40
0.5889063255395531
 40
0.6431037498409679
 40
0.6958683256755102
 40
0.750151095440328
 40
0.8031217470050814
 40
0.8576276344775302
 40
0.9105994454411664
 40
0.9651191011263869
 40
1.0
 40
1.0
 40
1.0
 40
1.0
 10
170.8930174747382
 20
176.9545817994845
 30
0.0
 10
170.9009898841498
 20
176.9538174159022
 30
0.0
 10
170.9171665404982
 20
176.9522664204764
 30
0.0
 10
171.0472869471539
 20
176.9401164816535
 30
0.0
 10
171.2530745720268
 20
176.9220279590584
 30
0.0
 10
171.5328547761626
 20
176.8995713242311
 30
0.0
 10
171.881966906929
 20
176.8750720851396
 30
0.0
 10
172.2853746431661
 20
176.8516030395379
 30
0.0
 10
172.7387064464722
 20
176.831467641658
 30
0.0
 10
173.2206650302276
 20
176.8172994228752
 30
0.0
 10
173.7258529123872
 20
176.8104777625343
 30
0.0
 10
174.2301758262351
 20
176.811862726118
 30
0.0
 10
174.7288660355518
 20
176.8212807700349
 30
0.0
 10
175.199187281641
 20
176.8374913435995
 30
0.0
 10
175.6368924961355
 20
176.8589493541172
 30
0.0
 10
176.0224413260425
 20
176.8829459482054
 30
0.0
 10
176.3512529506054
 20
176.9071517769272
 30
0.0
 10
176.6090024437427
 20
176.9285585930323
 30
0.0
 10
176.788332205334
 20
176.9446789561536
 30
0.0
 10
176.8843001845695
 20
176.9537487014114
 30
0.0
 10
176.8839251290899
 20
176.9537164677493
 30
0.0
 10
176.883778795856
 20
176.9537038913273
 30
0.0
  0
LINE
  5
222
330
1F
100
AcDbEntity
  8
0
  6
HIDDEN
 62
     7
370
     0
100
AcDbLine
 10
221.6227338224
 20
138.4802834652
 30
0.0
 11
233.4687310284
 21
136.3915145444
 31
0.0
  0
LINE
  5
223
330
1F
100
AcDbEntity
  8
0
  6
HIDDEN
 62
     7
370
     0
100
AcDbLine
 10
136.8930174747
 20
176.4545817995
 30
0.0
 11
136.8930174747
 21
114.4545817995
 31
0.0
  0
LINE
  5
224
330
1F
100
AcDbEntity
  8
0
  6
HIDDEN
 62
     7
370
     0
100
AcDbLine
 10
136.8930174747
 20
121.2045817995
 30
0.0
 11
136.8930174747
 21
169.7045817995
 31
0.0
  0
SPLINE
  5
225
330
1F
100
AcDbEntity
  8
0
  6
HIDDEN
 62
     7
370
     0
100
AcDbSpline
210
0.0
220
0.0
230
1.0
 70
     8
 71
     3
 72
    12
 73
     8
 74
     0
 42
0.00000001
 43
0.00000001
 12
1.0
 22
0.0
 32
0.0
 13
1.0
 23
0.0
 33
0.0
 40
0.0
 40
0.0
 40
0.0
 40
0.0
 40
0.5000000000000003
 40
0.5000000000000003
 40
0.7500000000000001
 40
0.7500000000000001
 40
1.0
 40
1.0
 40
1.0
 40
1.0
 10
136.0765051882828
 20
129.1402108239726
 30
0.0
 10
136.1329113669635
 20
129.1109642149676
 30
0.0
 10
136.2030742684356
 20
129.0858773390343
 30
0.0
 10
136.3210849818275
 20
129.0778539681549
 30
0.0
 10
136.3612907654241
 20
129.0804434891355
 30
0.0
 10
136.4350114621592
 20
129.0940088521403
 30
0.0
 10
136.4678721839467
 20
129.1044017091358
 30
0.0
 10
136.4980405858767
 20
129.1167388996677
 30
0.0
  0
SPLINE
  5
226
330
1F
100
AcDbEntity
  8
0
  6
HIDDEN
 62
     7
370
     0
100
AcDbSpline
210
0.0
220
0.0
230
1.0
 70
     8
 71
     3
 72
    16
 73
    12
 74
     0
 42
0.00000001
 43
0.00000001
 12
1.0
 22
0.0
 32
0.0
 13
1.0
 23
0.0
 33
0.0
 40
0.0
 40
0.0
 40
0.0
 40
0.0
 40
0.0625000000000011
 40
0.0625000000000011
 40
0.1250000000000021
 40
0.1250000000000021
 40
0.2500000000000058
 40
0.2500000000000058
 40
0.4999999999999988
 40
0.4999999999999988
 40
1.0
 40
1.0
 40
1.0
 40
1.0
 10
136.4980405858316
 20
129.1167388997238
 30
0.0
 10
136.5096534856709
 20
129.1214879268153
 30
0.0
 10
136.5230046701034
 20
129.1244705998184
 30
0.0
 10
136.5524045097225
 20
129.1214849299901
 30
0.0
 10
136.5672452342778
 20
129.1149776370303
 30
0.0
 10
136.6030784422464
 20
129.088624887485
 30
0.0
 10
136.617191650068
 20
129.065730906789
 30
0.0
 10
136.6516830212869
 20
128.9991117114498
 30
0.0
 10
136.6627670923973
 20
128.9554424767557
 30
0.0
 10
136.6888899101934
 20
128.8262058283754
 30
0.0
 10
136.6930174747382
 20
128.7438556489452
 30
0.0
 10
136.6930174747382
 20
128.6643804457434
 30
0.0
  0
LINE
  5
227
330
1F
100
AcDbEntity
  8
0
  6
HIDDEN
 62
     7
370
     0
100
AcDbLine
 10
136.6930174747
 20
122.9147615206
 30
0.0
 11
136.6930174747
 21
128.6643804457
 31
0.0
  0
SPLINE
  5
228
330
1F
100
AcDbEntity
  8
0
  6
HIDDEN
 62
     7
370
     0
100
AcDbSpline
210
0.0
220
0.0
230
1.0
 70
     8
 71
     3
 72
    12
 73
     8
 74
     0
 42
0.00000001
 43
0.00000001
 12
1.0
 22
0.0
 32
0.0
 13
1.0
 23
0.0
 33
0.0
 40
0.0
 40
0.0
 40
0.0
 40
0.0
 40
0.2500000000000007
 40
0.2500000000000007
 40
0.5000000000000014
 40
0.5000000000000014
 40
1.0
 40
1.0
 40
1.0
 40
1.0
 10
136.076505188287
 20
166.9938239055951
 30
0.0
 10
135.9880117807191
 20
167.0358569423597
 30
0.0
 10
135.9279537399532
 20
167.0868463025221
 30
0.0
 10
135.8221054669707
 20
167.1908486018259
 30
0.0
 10
135.7795719456932
 20
167.2438237316686
 30
0.0
 10
135.6684206388695
 20
167.4000222504829
 30
0.0
 10
135.6154897818218
 20
167.501609346007
 30
0.0
 10
135.5716971311786
 20
167.5982668540108
 30
0.0
  0
SPLINE
  5
229
330
1F
100
AcDbEntity
  8
0
  6
HIDDEN
 62
     7
370
     0
100
AcDbSpline
210
0.0
220
0.0
230
1.0
 70
     8
 71
     3
 72
    12
 73
     8
 74
     0
 42
0.00000001
 43
0.00000001
 12
1.0
 22
0.0
 32
0.0
 13
1.0
 23
0.0
 33
0.0
 40
0.0
 40
0.0
 40
0.0
 40
0.0
 40
0.4999999999999998
 40
0.4999999999999998
 40
0.7499999999999999
 40
0.7499999999999999
 40
1.0
 40
1.0
 40
1.0
 40
1.0
 10
136.076505188287
 20
166.993823905595
 30
0.0
 10
136.1328137365826
 20
166.967078192601
 30
0.0
 10
136.2030883973007
 20
166.9446938071373
 30
0.0
 10
136.3211263116243
 20
166.9417451664484
 30
0.0
 10
136.3613025524782
 20
166.9461241576978
 30
0.0
 10
136.4352596471562
 20
166.9631306063565
 30
0.0
 10
136.4678760348676
 20
166.9749822364008
 30
0.0
 10
136.4980405858634
 20
166.9886722038818
 30
0.0
  0
SPLINE
  5
22A
330
1F
100
AcDbEntity
  8
0
  6
HIDDEN
 62
     7
370
     0
100
AcDbSpline
210
0.0
220
0.0
230
1.0
 70
     8
 71
     3
 72
    16
 73
    12
 74
     0
 42
0.00000001
 43
0.00000001
 12
1.0
 22
0.0
 32
0.0
 13
1.0
 23
0.0
 33
0.0
 40
0.0
 40
0.0
 40
0.0
 40
0.0
 40
0.0625000000000011
 40
0.0625000000000011
 40
0.1250000000000022
 40
0.1250000000000022
 40
0.2500000000000021
 40
0.2500000000000021
 40
0.5000000000000037
 40
0.5000000000000037
 40
1.0
 40
1.0
 40
1.0
 40
1.0
 10
136.4980405858316
 20
166.9886722038855
 30
0.0
 10
136.509653485671
 20
166.9939426360966
 30
0.0
 10
136.5230046701034
 20
166.9992360733278
 30
0.0
 10
136.5524045097225
 20
167.0079256885292
 30
0.0
 10
136.5672452342779
 20
167.010749942956
 30
0.0
 10
136.6030784422465
 20
167.0140094859711
 30
0.0
 10
136.6171916500681
 20
167.0110107388277
 30
0.0
 10
136.6516830212869
 20
166.999182498569
 30
0.0
 10
136.6627670923973
 20
166.9865584032867
 30
0.0
 10
136.6888899101934
 20
166.9443640708635
 30
0.0
 10
136.6930174747382
 20
166.9098299982521
 30
0.0
 10
136.6930174747382
 20
166.8727188937437
 30
0.0
  0
LINE
  5
22B
330
1F
100
AcDbEntity
  8
0
  6
HIDDEN
 62
     7
370
     0
100
AcDbLine
 10
136.6930174747
 20
140.826646059
 30
0.0
 11
136.6930174747
 21
166.8727188937
 31
0.0
  0
SPLINE
  5
22C
330
1F
100
AcDbEntity
  8
0
  6
HIDDEN
 62
     7
370
     0
100
AcDbSpline
210
0.0
220
0.0
230
1.0
 70
     8
 71
     3
 72
    16
 73
    12
 74
     0
 42
0.00000001
 43
0.00000001
 12
1.0
 22
0.0
 32
0.0
 13
1.0
 23
0.0
 33
0.0
 40
0.0
 40
0.0
 40
0.0
 40
0.0
 40
0.5000000000000024
 40
0.5000000000000024
 40
0.7500000000000019
 40
0.7500000000000019
 40
0.875
 40
0.875
 40
0.9375
 40
0.9375
 40
1.0
 40
1.0
 40
1.0
 40
1.0
 10
136.6930174747382
 20
140.8266460589665
 30
0.0
 10
136.6930174747382
 20
140.7090481214889
 30
0.0
 10
136.6888517762782
 20
140.5924137218281
 30
0.0
 10
136.6625934479533
 20
140.4208635686657
 30
0.0
 10
136.6510896662157
 20
140.363718268231
 30
0.0
 10
136.6169589068691
 20
140.2866705951052
 30
0.0
 10
136.6025370201984
 20
140.2605603175973
 30
0.0
 10
136.5669700517606
 20
140.2379437055905
 30
0.0
 10
136.552018283466
 20
140.2343613789128
 30
0.0
 10
136.5230144651062
 20
140.2400857903041
 30
0.0
 10
136.509599111097
 20
140.2483617492958
 30
0.0
 10
136.4980405858604
 20
140.2583342948912
 30
0.0
  0
SPLINE
  5
22D
330
1F
100
AcDbEntity
  8
0
  6
HIDDEN
 62
     7
370
     0
100
AcDbSpline
210
0.0
220
0.0
230
1.0
 70
     8
 71
     3
 72
    12
 73
     8
 74
     0
 42
0.00000001
 43
0.00000001
 12
1.0
 22
0.0
 32
0.0
 13
1.0
 23
0.0
 33
0.0
 40
0.0
 40
0.0
 40
0.0
 40
0.0
 40
0.2500000000000002
 40
0.2500000000000002
 40
0.5000000000000003
 40
0.5000000000000003
 40
1.0
 40
1.0
 40
1.0
 40
1.0
 10
136.4980405858696
 20
140.2583342949044
 30
0.0
 10
136.46785280932
 20
140.2843799168069
 30
0.0
 10
136.4344990052283
 20
140.3069201494807
 30
0.0
 10
136.3613728020324
 20
140.3371011345413
 30
0.0
 10
136.3211375990082
 20
140.3441258690194
 30
0.0
 10
136.2034459688751
 20
140.333256830427
 30
0.0
 10
136.1330652957151
 20
140.2859022897633
 30
0.0
 10
136.0765051882844
 20
140.2297106688896
 30
0.0
  0
SPLINE
  5
22E
330
1F
100
AcDbEntity
  8
0
  6
HIDDEN
 62
     7
370
     0
100
AcDbSpline
210
0.0
220
0.0
230
1.0
 70
     8
 71
     3
 72
    12
 73
     8
 74
     0
 42
0.00000001
 43
0.00000001
 12
1.0
 22
0.0
 32
0.0
 13
1.0
 23
0.0
 33
0.0
 40
0.0
 40
0.0
 40
0.0
 40
0.0
 40
0.25
 40
0.25
 40
0.5000000000000001
 40
0.5000000000000001
 40
1.0
 40
1.0
 40
1.0
 40
1.0
 10
136.0765051882865
 20
140.2297106688876
 30
0.0
 10
135.9878205284301
 20
140.1416037856036
 30
0.0
 10
135.9279021127068
 20
140.0353592246154
 30
0.0
 10
135.822242885386
 20
139.8140141707723
 30
0.0
 10
135.7796016472711
 20
139.6986936313164
 30
0.0
 10
135.6684123051685
 20
139.3508610650582
 30
0.0
 10
135.6154856230476
 20
139.1135012738366
 30
0.0
 10
135.5716971311786
 20
138.8740979893832
 30
0.0
  0
SPLINE
  5
22F
330
1F
100
AcDbEntity
  8
0
  6
HIDDEN
 62
     7
370
     0
100
AcDbSpline
210
0.0
220
0.0
230
1.0
 70
     8
 71
     3
 72
    12
 73
     8
 74
     0
 42
0.00000001
 43
0.00000001
 12
1.0
 22
0.0
 32
0.0
 13
1.0
 23
0.0
 33
0.0
 40
0.0
 40
0.0
 40
0.0
 40
0.0
 40
0.5000000000000001
 40
0.5000000000000001
 40
0.7500000000000002
 40
0.7500000000000002
 40
1.0
 40
1.0
 40
1.0
 40
1.0
 10
135.571697131177
 20
129.8913805550586
 30
0.0
 10
135.6154586074755
 20
129.748713673036
 30
0.0
 10
135.6683649231281
 20
129.6128072720464
 30
0.0
 10
135.7800761207743
 20
129.420514984151
 30
0.0
 10
135.8225955643603
 20
129.3586152683513
 30
0.0
 10
135.9277189069261
 20
129.2417030135082
 30
0.0
 10
135.989284870643
 20
129.1854345669555
 30
0.0
 10
136.0765051882836
 20
129.1402108239722
 30
0.0
  0
LINE
  5
230
330
1F
100
AcDbEntity
  8
0
  6
HIDDEN
 62
     7
370
     0
100
AcDbLine
 10
136.6930174747
 20
140.826646059
 30
0.0
 11
136.6930174747
 21
166.8727188937
 31
0.0
  0
LINE
  5
231
330
1F
100
AcDbEntity
  8
0
  6
HIDDEN
 62
     7
370
     0
100
AcDbLine
 10
100.4232459144
 20
130.1416307566
 30
0.0
 11
100.4232459144
 21
160.7675328424
 31
0.0
  0
LINE
  5
232
330
1F
100
AcDbEntity
  8
0
  6
HIDDEN
 62
     7
370
     0
100
AcDbLine
 10
98.8930174747
 20
129.2789409553
 30
0.0
 11
98.8930174747
 21
161.6302226437
 31
0.0
  0
LINE
  5
233
330
1F
100
AcDbEntity
  8
0
  6
HIDDEN
 62
     7
370
     0
100
AcDbLine
 10
106.9232459144
 20
131.108171638
 30
0.0
 11
106.9232459144
 21
159.800991961
 31
0.0
  0
LINE
  5
234
330
1F
100
AcDbEntity
  8
0
  6
HIDDEN
 62
     7
370
     0
100
AcDbLine
 10
134.6930174747
 20
128.9970524235
 30
0.0
 11
134.6930174747
 21
124.8344830149
 31
0.0
  0
LINE
  5
235
330
1F
100
AcDbEntity
  8
0
  6
HIDDEN
 62
     7
370
     0
100
AcDbLine
 10
100.3930174747
 20
129.7433371611
 30
0.0
 11
100.3930174747
 21
125.9575921863
 31
0.0
  0
SPLINE
  5
236
330
1F
100
AcDbEntity
  8
0
  6
HIDDEN
 62
     7
370
     0
100
AcDbSpline
210
0.0
220
0.0
230
1.0
 70
     8
 71
     3
 72
     8
 73
     4
 74
     0
 42
0.00000001
 43
0.00000001
 12
1.0
 22
0.0
 32
0.0
 13
1.0
 23
0.0
 33
0.0
 40
0.0000249631533153
 40
0.0000249631533153
 40
0.0000249631533153
 40
0.0000249631533153
 40
0.0049776413517029
 40
0.0049776413517029
 40
0.0049776413517029
 40
0.0049776413517029
 10
105.3430174747382
 20
125.8483185090014
 30
0.0
 10
103.6929950289928
 20
125.8848183872122
 30
0.0
 10
102.0429937092477
 20
125.9212429733443
 30
0.0
 10
100.3930174747382
 20
125.9575921862823
 30
0.0
  0
SPLINE
  5
237
330
1F
100
AcDbEntity
  8
0
  6
HIDDEN
 62
     7
370
     0
100
AcDbSpline
210
0.0
220
0.0
230
1.0
 70
     8
 71
     3
 72
    12
 73
     8
 74
     0
 42
0.00000001
 43
0.00000001
 12
1.0
 22
0.0
 32
0.0
 13
1.0
 23
0.0
 33
0.0
 40
0.0
 40
0.0
 40
0.0
 40
0.0
 40
0.0935650969290579
 40
0.2465637248281209
 40
0.4594929404502429
 40
0.6775099591433587
 40
1.0
 40
1.0
 40
1.0
 40
1.0
 10
107.258969200586
 20
125.5254870164217
 30
0.0
 10
107.2597277999982
 20
125.5253785874564
 30
0.0
 10
107.261726869126
 20
125.5250928543098
 30
0.0
 10
107.0905623391871
 20
125.5492442034587
 30
0.0
 10
106.7408980225347
 20
125.6014551522437
 30
0.0
 10
106.1460555009596
 20
125.6969602051319
 30
0.0
 10
105.6431016416069
 20
125.7917580112016
 30
0.0
 10
105.3430174747382
 20
125.8483185090016
 30
0.0
  0
SPLINE
  5
238
330
1F
100
AcDbEntity
  8
0
  6
HIDDEN
 62
     7
370
     0
100
AcDbSpline
210
0.0
220
0.0
230
1.0
 70
     8
 71
     3
 72
    23
 73
    19
 74
     0
 42
0.00000001
 43
0.00000001
 12
1.0
 22
0.0
 32
0.0
 13
1.0
 23
0.0
 33
0.0
 40
0.0
 40
0.0
 40
0.0
 40
0.0
 40
0.0590543542813695
 40
0.0605265748706946
 40
0.1193586220126309
 40
0.1882688117774998
 40
0.2590144674574136
 40
0.3309448053364095
 40
0.4048654755148611
 40
0.4784639153686766
 40
0.5542036025367576
 40
0.6275546244683803
 40
0.7031937148771834
 40
0.7736970554037217
 40
0.84655323058711
 40
0.9121236125012532
 40
0.9798587759005858
 40
1.0
 40
1.0
 40
1.0
 40
1.0
 10
118.2041789035003
 20
125.3631476757398
 30
0.0
 10
118.3421601162859
 20
125.3730020203894
 30
0.0
 10
118.4835811902786
 20
125.3831020331063
 30
0.0
 10
118.8187132367624
 20
125.3997292354474
 30
0.0
 10
119.1685696600747
 20
125.4192045453329
 30
0.0
 10
119.7874246753443
 20
125.4395694670058
 30
0.0
 10
120.4822953835465
 20
125.4498940312361
 30
0.0
 10
121.2225060563632
 20
125.4451308287897
 30
0.0
 10
121.9790298402026
 20
125.4237063134138
 30
0.0
 10
122.7349561220704
 20
125.3856446876104
 30
0.0
 10
123.45400336347
 20
125.3340018255537
 30
0.0
 10
124.1224143642455
 20
125.2727169042042
 30
0.0
 10
124.6993062681247
 20
125.2095198900569
 30
0.0
 10
125.1784343817593
 20
125.149991091286
 30
0.0
 10
125.5308317050672
 20
125.1020633635574
 30
0.0
 10
125.7521101597955
 20
125.070291275237
 30
0.0
 10
125.8485660413578
 20
125.0560058739433
 30
0.0
 10
125.8345545588527
 20
125.0580765052935
 30
0.0
 10
125.8313431340646
 20
125.0585510929642
 30
0.0
  0
SPLINE
  5
239
330
1F
100
AcDbEntity
  8
0
  6
HIDDEN
 62
     7
370
     0
100
AcDbSpline
210
0.0
220
0.0
230
1.0
 70
     8
 71
     3
 72
    12
 73
     8
 74
     0
 42
0.00000001
 43
0.00000001
 12
1.0
 22
0.0
 32
0.0
 13
1.0
 23
0.0
 33
0.0
 40
0.0
 40
0.0
 40
0.0
 40
0.0
 40
0.2248154263062788
 40
0.4418133834436957
 40
0.6648545650420526
 40
0.8312150911298742
 40
1.0
 40
1.0
 40
1.0
 40
1.0
 10
117.1623346655357
 20
125.2750629571779
 30
0.0
 10
117.1726893375532
 20
125.2760987075948
 30
0.0
 10
117.1930386203122
 20
125.278134192453
 30
0.0
 10
117.3620157934851
 20
125.2945587110758
 30
0.0
 10
117.6012633818238
 20
125.316218196106
 30
0.0
 10
117.8873402693903
 20
125.3401566632737
 30
0.0
 10
118.0980579273778
 20
125.3554471353944
 30
0.0
 10
118.2041789035003
 20
125.3631476757398
 30
0.0
  0
LINE
  5
23A
330
1F
100
AcDbEntity
  8
0
  6
HIDDEN
 62
     7
370
     0
100
AcDbLine
 10
136.6930174747
 20
128.6643804457
 30
0.0
 11
136.6930174747
 21
124.8126799329
 31
0.0
  0
LINE
  5
23B
330
1F
100
AcDbEntity
  8
0
  6
HIDDEN
 62
     7
370
     0
100
AcDbLine
 10
112.7232459144
 20
131.4545817995
 30
0.0
 11
112.7232459144
 21
159.4545817995
 31
0.0
  0
LINE
  5
23C
330
1F
100
AcDbEntity
  8
0
  6
HIDDEN
 62
     7
370
     0
100
AcDbLine
 10
105.3232459144
 20
131.4545817995
 30
0.0
 11
105.3232459144
 21
159.4545817995
 31
0.0
  0
LINE
  5
23D
330
1F
100
AcDbEntity
  8
0
  6
HIDDEN
 62
     7
370
     0
100
AcDbLine
 10
106.3232459144
 20
131.4545817995
 30
0.0
 11
106.3232459144
 21
159.4545817995
 31
0.0
  0
SPLINE
  5
23E
330
1F
100
AcDbEntity
  8
0
  6
HIDDEN
 62
     7
370
     0
100
AcDbSpline
210
0.0
220
0.0
230
1.0
 70
    11
 71
     3
 72
    68
 73
    64
 74
     0
 42
0.00000001
 43
0.00000001
 12
1.0
 22
0.0
 32
0.0
 13
1.0
 23
0.0
 33
0.0
 40
0.0
 40
0.0
 40
0.0
 40
0.0
 40
0.0312499999999999
 40
0.0312499999999999
 40
0.0624999999999998
 40
0.0624999999999998
 40
0.0937499999999997
 40
0.0937499999999997
 40
0.1249999999999996
 40
0.1249999999999996
 40
0.1562499999999994
 40
0.1562499999999994
 40
0.1874999999999993
 40
0.1874999999999993
 40
0.2187499999999992
 40
0.2187499999999992
 40
0.2499999999999991
 40
0.2499999999999991
 40
0.2812499999999989
 40
0.2812499999999989
 40
0.3124999999999988
 40
0.3124999999999988
 40
0.3437499999999987
 40
0.3437499999999987
 40
0.3749999999999986
 40
0.3749999999999986
 40
0.4062499999999985
 40
0.4062499999999985
 40
0.4374999999999984
 40
0.4374999999999984
 40
0.4687499999999983
 40
0.4687499999999983
 40
0.4999999999999982
 40
0.4999999999999982
 40
0.5624999999999979
 40
0.5624999999999979
 40
0.5937499999999978
 40
0.5937499999999978
 40
0.6249999999999977
 40
0.6249999999999977
 40
0.6562499999999976
 40
0.6562499999999976
 40
0.6874999999999974
 40
0.6874999999999974
 40
0.7187499999999973
 40
0.7187499999999973
 40
0.7499999999999972
 40
0.7499999999999972
 40
0.7812499999999976
 40
0.7812499999999976
 40
0.8124999999999979
 40
0.8124999999999979
 40
0.8437499999999982
 40
0.8437499999999982
 40
0.8749999999999986
 40
0.8749999999999986
 40
0.9062499999999989
 40
0.9062499999999989
 40
0.9374999999999992
 40
0.9374999999999992
 40
0.9687499999999996
 40
0.9687499999999996
 40
1.0
 40
1.0
 40
1.0
 40
1.0
 10
125.3930174747382
 20
131.4689641870943
 30
0.0
 10
125.3530025223885
 20
131.4804087878144
 30
0.0
 10
125.2900607209772
 20
131.4982996971633
 30
0.0
 10
125.1206740589052
 20
131.5446469446407
 30
0.0
 10
125.0129804963196
 20
131.5734299828695
 30
0.0
 10
124.7576957277818
 20
131.6378056478346
 30
0.0
 10
124.6116564973095
 20
131.6730167622378
 30
0.0
 10
124.2834350607503
 20
131.745956356364
 30
0.0
 10
124.0991877729753
 20
131.7840455533086
 30
0.0
 10
123.706227605667
 20
131.8563780694038
 30
0.0
 10
123.4969330087078
 20
131.8908272953817
 30
0.0
 10
123.0520475817705
 20
131.9526798382966
 30
0.0
 10
122.8152499892715
 20
131.9800534345162
 30
0.0
 10
122.3345149203522
 20
132.0222853922041
 30
0.0
 10
122.0882718271694
 20
132.0375305832769
 30
0.0
 10
121.58355504719
 20
132.0542016074795
 30
0.0
 10
121.3273603462535
 20
132.0553747331516
 30
0.0
 10
120.8249815970534
 20
132.043500414813
 30
0.0
 10
120.5757318978698
 20
132.0305200633465
 30
0.0
 10
120.084204100391
 20
131.9916523177425
 30
0.0
 10
119.8489084991652
 20
131.9663716600923
 30
0.0
 10
119.3979946045031
 20
131.9073438341752
 30
0.0
 10
119.1803822540397
 20
131.8732015975719
 30
0.0
 10
118.7771750844914
 20
131.8017152514061
 30
0.0
 10
118.591563592057
 20
131.7645087531077
 30
0.0
 10
118.2515755216545
 20
131.6909117328585
 30
0.0
 10
118.0965025908315
 20
131.6542968076693
 30
0.0
 10
117.8301595141682
 20
131.5882624492496
 30
0.0
 10
117.7171754134514
 20
131.5584888974081
 30
0.0
 10
117.5323201565205
 20
131.5084509071364
 30
0.0
 10
117.4611793950171
 20
131.4883789390692
 30
0.0
 10
117.367218983729
 20
131.4616362502679
 30
0.0
 10
117.3432096537726
 20
131.4546373941195
 30
0.0
 10
117.3426365331
 20
131.4544715985391
 30
0.0
 10
117.4380356444186
 20
131.4829110832105
 30
0.0
 10
117.7158994366198
 20
131.5581524956053
 30
0.0
 10
117.8290613927003
 20
131.5879792732429
 30
0.0
 10
118.0951925747442
 20
131.6539828365012
 30
0.0
 10
118.2500203489439
 20
131.6905577849066
 30
0.0
 10
118.5902014547317
 20
131.7642310449154
 30
0.0
 10
118.7757039116814
 20
131.8014267072482
 30
0.0
 10
119.1779977127408
 20
131.8728062811166
 30
0.0
 10
119.3960057609928
 20
131.907048149756
 30
0.0
 10
119.8466041281431
 20
131.9661049972575
 30
0.0
 10
120.0811531270238
 20
131.9913275140216
 30
0.0
 10
120.5696131205762
 20
132.0301182117398
 30
0.0
 10
120.8218785162901
 20
132.0433667427232
 30
0.0
 10
121.3240591544503
 20
132.0553562681793
 30
0.0
 10
121.576541271802
 20
132.0543292685351
 30
0.0
 10
122.0844063148715
 20
132.0377600656539
 30
0.0
 10
122.3319517880553
 20
132.0224669367527
 30
0.0
 10
122.812919325526
 20
131.9803013620449
 30
0.0
 10
123.0488791906313
 20
131.9530825090956
 30
0.0
 10
123.4954496401529
 20
131.8910709679785
 30
0.0
 10
123.7050945027264
 20
131.8565710040527
 30
0.0
 10
124.0980812094809
 20
131.7842647871271
 30
0.0
 10
124.2824771132958
 20
131.746160201279
 30
0.0
 10
124.6110275311562
 20
131.6731655284875
 30
0.0
 10
124.7569696276794
 20
131.6379807429442
 30
0.0
 10
125.0118549828816
 20
131.5737217548526
 30
0.0
 10
125.1201662956899
 20
131.5447842760636
 30
0.0
 10
125.2900012731068
 20
131.4983175595887
 30
0.0
 10
125.3529966342439
 20
131.4804104718715
 30
0.0
 10
125.3930174747382
 20
131.4689641870943
 30
0.0
  0
SPLINE
  5
23F
330
1F
100
AcDbEntity
  8
0
  6
HIDDEN
 62
     7
370
     0
100
AcDbSpline
210
0.0
220
0.0
230
1.0
 70
    11
 71
     3
 72
    68
 73
    64
 74
     0
 42
0.00000001
 43
0.00000001
 12
1.0
 22
0.0
 32
0.0
 13
1.0
 23
0.0
 33
0.0
 40
0.0
 40
0.0
 40
0.0
 40
0.0
 40
0.0312499999999999
 40
0.0312499999999999
 40
0.0624999999999997
 40
0.0624999999999997
 40
0.0937499999999996
 40
0.0937499999999996
 40
0.1249999999999995
 40
0.1249999999999995
 40
0.1562499999999994
 40
0.1562499999999994
 40
0.1874999999999992
 40
0.1874999999999992
 40
0.2187499999999991
 40
0.2187499999999991
 40
0.2499999999999989
 40
0.2499999999999989
 40
0.2812499999999988
 40
0.2812499999999988
 40
0.3124999999999987
 40
0.3124999999999987
 40
0.3437499999999985
 40
0.3437499999999985
 40
0.3749999999999983
 40
0.3749999999999983
 40
0.4062499999999982
 40
0.4062499999999982
 40
0.4374999999999981
 40
0.4374999999999981
 40
0.4687499999999981
 40
0.4687499999999981
 40
0.4999999999999979
 40
0.4999999999999979
 40
0.5624999999999977
 40
0.5624999999999977
 40
0.5937499999999977
 40
0.5937499999999977
 40
0.6249999999999977
 40
0.6249999999999977
 40
0.6562499999999976
 40
0.6562499999999976
 40
0.6874999999999976
 40
0.6874999999999976
 40
0.7187499999999976
 40
0.7187499999999976
 40
0.7499999999999974
 40
0.7499999999999974
 40
0.7812499999999978
 40
0.7812499999999978
 40
0.8124999999999981
 40
0.8124999999999981
 40
0.8437499999999984
 40
0.8437499999999984
 40
0.8749999999999987
 40
0.8749999999999987
 40
0.906249999999999
 40
0.906249999999999
 40
0.9374999999999993
 40
0.9374999999999993
 40
0.9687499999999996
 40
0.9687499999999996
 40
1.0
 40
1.0
 40
1.0
 40
1.0
 10
125.3930174747382
 20
159.4401994118748
 30
0.0
 10
125.3530025223885
 20
159.4287548111546
 30
0.0
 10
125.2900607209772
 20
159.4108639018058
 30
0.0
 10
125.1206740589052
 20
159.3645166543283
 30
0.0
 10
125.0129804963196
 20
159.3357336160996
 30
0.0
 10
124.7576957277818
 20
159.2713579511345
 30
0.0
 10
124.6116564973095
 20
159.2361468367313
 30
0.0
 10
124.2834350607503
 20
159.1632072426051
 30
0.0
 10
124.0991877729753
 20
159.1251180456604
 30
0.0
 10
123.706227605667
 20
159.0527855295652
 30
0.0
 10
123.4969330087079
 20
159.0183363035873
 30
0.0
 10
123.0520475817705
 20
158.9564837606725
 30
0.0
 10
122.8152499892715
 20
158.9291101644529
 30
0.0
 10
122.3345149203522
 20
158.8868782067649
 30
0.0
 10
122.0882718271694
 20
158.8716330156921
 30
0.0
 10
121.58355504719
 20
158.8549619914895
 30
0.0
 10
121.3273603462535
 20
158.8537888658175
 30
0.0
 10
120.8249815970534
 20
158.8656631841561
 30
0.0
 10
120.5757318978698
 20
158.8786435356226
 30
0.0
 10
120.084204100391
 20
158.9175112812266
 30
0.0
 10
119.8489084991652
 20
158.9427919388768
 30
0.0
 10
119.3979946045031
 20
159.0018197647939
 30
0.0
 10
119.1803822540397
 20
159.0359620013971
 30
0.0
 10
118.7771750844914
 20
159.107448347563
 30
0.0
 10
118.591563592057
 20
159.1446548458613
 30
0.0
 10
118.2515755216545
 20
159.2182518661106
 30
0.0
 10
118.0965025908316
 20
159.2548667912997
 30
0.0
 10
117.8301595141682
 20
159.3209011497194
 30
0.0
 10
117.7171754134514
 20
159.3506747015609
 30
0.0
 10
117.5323201565206
 20
159.4007126918326
 30
0.0
 10
117.4611793950171
 20
159.4207846598999
 30
0.0
 10
117.367218983729
 20
159.4475273487011
 30
0.0
 10
117.3432096537726
 20
159.4545262048496
 30
0.0
 10
117.3426365331
 20
159.45469200043
 30
0.0
 10
117.4380356444186
 20
159.4262525157586
 30
0.0
 10
117.7158994366198
 20
159.3510111033638
 30
0.0
 10
117.8290613927003
 20
159.3211843257262
 30
0.0
 10
118.0951925747442
 20
159.2551807624679
 30
0.0
 10
118.2500203489439
 20
159.2186058140624
 30
0.0
 10
118.5902014547317
 20
159.1449325540536
 30
0.0
 10
118.7757039116814
 20
159.1077368917209
 30
0.0
 10
119.1779977127408
 20
159.0363573178525
 30
0.0
 10
119.3960057609928
 20
159.002115449213
 30
0.0
 10
119.8466041281431
 20
158.9430586017116
 30
0.0
 10
120.0811531270238
 20
158.9178360849475
 30
0.0
 10
120.5696131205762
 20
158.8790453872293
 30
0.0
 10
120.82187851629
 20
158.8657968562459
 30
0.0
 10
121.3240591544503
 20
158.8538073307897
 30
0.0
 10
121.576541271802
 20
158.854834330434
 30
0.0
 10
122.0844063148715
 20
158.8714035333151
 30
0.0
 10
122.3319517880553
 20
158.8866966622164
 30
0.0
 10
122.812919325526
 20
158.9288622369241
 30
0.0
 10
123.0488791906313
 20
158.9560810898734
 30
0.0
 10
123.4954496401529
 20
159.0180926309906
 30
0.0
 10
123.7050945027264
 20
159.0525925949163
 30
0.0
 10
124.0980812094808
 20
159.124898811842
 30
0.0
 10
124.2824771132958
 20
159.1630033976901
 30
0.0
 10
124.6110275311562
 20
159.2359980704816
 30
0.0
 10
124.7569696276794
 20
159.2711828560248
 30
0.0
 10
125.0118549828816
 20
159.3354418441164
 30
0.0
 10
125.1201662956899
 20
159.3643793229055
 30
0.0
 10
125.2900012731068
 20
159.4108460393803
 30
0.0
 10
125.3529966342439
 20
159.4287531270975
 30
0.0
 10
125.3930174747382
 20
159.4401994118748
 30
0.0
  0
SPLINE
  5
240
330
1F
100
AcDbEntity
  8
0
  6
HIDDEN
 62
     7
370
     0
100
AcDbSpline
210
0.0
220
0.0
230
1.0
 70
    11
 71
     3
 72
    10
 73
     6
 74
     0
 42
0.00000001
 43
0.00000001
 12
1.0
 22
0.0
 32
0.0
 13
1.0
 23
0.0
 33
0.0
 40
0.0
 40
0.0
 40
0.0
 40
0.0
 40
0.5
 40
0.5
 40
1.0
 40
1.0
 40
1.0
 40
1.0
 10
125.3930174747382
 20
159.4401994118747
 30
0.0
 10
125.4262064372119
 20
159.4496917241611
 30
0.0
 10
125.4429072134666
 20
159.4520546968739
 30
0.0
 10
125.4431266539112
 20
159.4520961348644
 30
0.0
 10
125.4262469385178
 20
159.4497033078629
 30
0.0
 10
125.3930174747382
 20
159.4401994118747
 30
0.0
  0
SPLINE
  5
241
330
1F
100
AcDbEntity
  8
0
  6
HIDDEN
 62
     7
370
     0
100
AcDbSpline
210
0.0
220
0.0
230
1.0
 70
    11
 71
     3
 72
    10
 73
     6
 74
     0
 42
0.00000001
 43
0.00000001
 12
1.0
 22
0.0
 32
0.0
 13
1.0
 23
0.0
 33
0.0
 40
0.0
 40
0.0
 40
0.0
 40
0.0
 40
0.5
 40
0.5
 40
1.0
 40
1.0
 40
1.0
 40
1.0
 10
125.3930174747382
 20
131.4689641870943
 30
0.0
 10
125.4261648928147
 20
131.4594837568422
 30
0.0
 10
125.4430237381763
 20
131.4570868981828
 30
0.0
 10
125.4430112078286
 20
131.4570892643351
 30
0.0
 10
125.4260962500882
 20
131.4595033892184
 30
0.0
 10
125.3930174747382
 20
131.4689641870943
 30
0.0
  0
LINE
  5
242
330
1F
100
AcDbEntity
  8
0
  6
HIDDEN
 62
     7
370
     0
100
AcDbLine
 10
125.8930174747
 20
131.9545817995
 30
0.0
 11
125.8930174747
 21
158.9545817995
 31
0.0
  0
LINE
  5
243
330
1F
100
AcDbEntity
  8
0
  6
HIDDEN
 62
     7
370
     0
100
AcDbLine
 10
211.5989534982
 20
138.0477279859
 30
0.0
 11
210.871049038
 21
133.9195766542
 31
0.0
  0
SPLINE
  5
244
330
1F
100
AcDbEntity
  8
0
  6
HIDDEN
 62
     7
370
     0
100
AcDbSpline
210
0.0
220
0.0
230
1.0
 70
     8
 71
     3
 72
    40
 73
    36
 74
     0
 42
0.00000001
 43
0.00000001
 12
1.0
 22
0.0
 32
0.0
 13
1.0
 23
0.0
 33
0.0
 40
0.0
 40
0.0
 40
0.0
 40
0.0
 40
0.1250000000000008
 40
0.1250000000000008
 40
0.2500000000000016
 40
0.2500000000000016
 40
0.3125000000000026
 40
0.3125000000000026
 40
0.3750000000000037
 40
0.3750000000000037
 40
0.4062500000000034
 40
0.4062500000000034
 40
0.4375000000000032
 40
0.4375000000000032
 40
0.4687500000000029
 40
0.4687500000000029
 40
0.4843750000000028
 40
0.4843750000000028
 40
0.5000000000000028
 40
0.5000000000000028
 40
0.5312500000000027
 40
0.5312500000000027
 40
0.5625000000000024
 40
0.5625000000000024
 40
0.5937500000000023
 40
0.5937500000000023
 40
0.6250000000000022
 40
0.6250000000000022
 40
0.687500000000002
 40
0.687500000000002
 40
0.7500000000000019
 40
0.7500000000000019
 40
0.875000000000001
 40
0.875000000000001
 40
1.0
 40
1.0
 40
1.0
 40
1.0
 10
209.7146054424977
 20
138.3799893891982
 30
0.0
 10
209.811097755981
 20
138.9272244923884
 30
0.0
 10
209.9644598655495
 20
139.4582451348995
 30
0.0
 10
210.3338933789486
 20
140.501712009733
 30
0.0
 10
210.5491610338509
 20
141.0084532893214
 30
0.0
 10
210.9023659515505
 20
141.7369398326143
 30
0.0
 10
211.0255447315087
 20
141.9749123931899
 30
0.0
 10
211.2837554062265
 20
142.4384610422676
 30
0.0
 10
211.4195258505318
 20
142.6652933428589
 30
0.0
 10
211.6280711746177
 20
142.9792745302561
 30
0.0
 10
211.6985951966069
 20
143.0798634488185
 30
0.0
 10
211.8420836761985
 20
143.2694976482623
 30
0.0
 10
211.9158395537118
 20
143.3595464737949
 30
0.0
 10
212.0629713381619
 20
143.5165998929061
 30
0.0
 10
212.1357637131823
 20
143.5832295762266
 30
0.0
 10
212.2408788099961
 20
143.6522621695366
 30
0.0
 10
212.2743640233882
 20
143.6694426379995
 30
0.0
 10
212.33766745867
 20
143.6901973376154
 30
0.0
 10
212.3677332382656
 20
143.6935829178835
 30
0.0
 10
212.4473877121111
 20
143.6807137915357
 30
0.0
 10
212.4881219788765
 20
143.6406978583193
 30
0.0
 10
212.5429027980895
 20
143.5173542735486
 30
0.0
 10
212.5578718205287
 20
143.43486157621
 30
0.0
 10
212.5715936323696
 20
143.2517823960851
 30
0.0
 10
212.570562228201
 20
143.1490319439219
 30
0.0
 10
212.5587675035901
 20
142.9351597181605
 30
0.0
 10
212.5480452954296
 20
142.8236286341811
 30
0.0
 10
212.5064924040588
 20
142.4794210574037
 30
0.0
 10
212.4661583041016
 20
142.2358630443127
 30
0.0
 10
212.3747832439755
 20
141.7423069580635
 30
0.0
 10
212.3234654629595
 20
141.4913434489162
 30
0.0
 10
212.1612521138838
 20
140.7281856884946
 30
0.0
 10
212.0415808397701
 20
140.2037768720505
 30
0.0
 10
211.8083936367401
 20
139.1352169567709
 30
0.0
 10
211.6956674612357
 20
138.5962201261406
 30
0.0
 10
211.5989534982101
 20
138.04772798593
 30
0.0
  0
LINE
  5
245
330
1F
100
AcDbEntity
  8
0
  6
HIDDEN
 62
     7
370
     0
100
AcDbLine
 10
208.9867009823
 20
134.2518380575
 30
0.0
 11
209.7146054425
 21
138.3799893892
 31
0.0
  0
ELLIPSE
  5
246
330
1F
100
AcDbEntity
  8
0
  6
HIDDEN
 62
     7
370
     0
100
AcDbEllipse
 10
207.2535300488
 20
136.868963842
 30
0.0
 11
3.633080354321265
 21
-3.410468302316189
 31
0.0
210
0.0
220
0.0
230
1.0
 40
0.1833745429
 41
5.372304092507864
 42
6.647427933746235
  0
LINE
  5
247
330
1F
100
AcDbEntity
  8
0
  6
HIDDEN
 62
     7
370
     0
100
AcDbLine
 10
212.831354316
 20
144.3155411721
 30
0.0
 11
204.5589691907
 21
145.7741858645
 31
0.0
  0
LINE
  5
248
330
1F
100
AcDbEntity
  8
0
  6
HIDDEN
 62
     7
370
     0
100
AcDbLine
 10
127.1430174747
 20
136.4545817995
 30
0.0
 11
127.1430174747
 21
154.4545817995
 31
0.0
  0
LINE
  5
249
330
1F
100
AcDbEntity
  8
0
  6
HIDDEN
 62
     7
370
     0
100
AcDbLine
 10
125.8930174747
 20
135.2098480834
 30
0.0
 11
125.8930174747
 21
155.6993155155
 31
0.0
  0
LINE
  5
24A
330
1F
100
AcDbEntity
  8
0
  6
HIDDEN
 62
     7
370
     0
100
AcDbLine
 10
212.215025735
 20
144.8513074337
 30
0.0
 11
205.3213714639
 21
146.0668446774
 31
0.0
  0
LINE
  5
24B
330
1F
100
AcDbEntity
  8
0
  6
HIDDEN
 62
     7
370
     0
100
AcDbLine
 10
206.1165755061
 20
150.5766709052
 30
0.0
 11
213.0102297772
 21
149.3611336615
 31
0.0
  0
LINE
  5
24C
330
1F
100
AcDbEntity
  8
0
  6
HIDDEN
 62
     7
370
     0
100
AcDbLine
 10
163.8930174747
 20
136.4545817995
 30
0.0
 11
163.8930174747
 21
154.4545817995
 31
0.0
  0
LINE
  5
24D
330
1F
100
AcDbEntity
  8
0
  6
HIDDEN
 62
     7
370
     0
100
AcDbLine
 10
166.7471054151
 20
141.2045817995
 30
0.0
 11
166.7471054151
 21
149.7045817995
 31
0.0
  0
ELLIPSE
  5
24E
330
1F
100
AcDbEntity
  8
0
  6
HIDDEN
 62
     7
370
     0
100
AcDbEllipse
 10
215.2509395426
 20
143.3287972549
 30
0.0
 11
2.880650777134151
 21
4.965821622052971
 31
0.0
210
0.0
220
0.0
230
1.0
 40
0.392679857
 41
5.46304534662906
 42
8.604638000218682
  0
LINE
  5
24F
330
1F
100
AcDbEntity
  8
0
  6
HIDDEN
 62
     7
370
     0
100
AcDbLine
 10
210.871049038
 20
133.9195766542
 30
0.0
 11
215.2452886307
 21
129.3688996782
 31
0.0
  0
LINE
  5
250
330
1F
100
AcDbEntity
  8
0
  6
HIDDEN
 62
     7
370
     0
100
AcDbLine
 10
217.464725825
 20
139.2134524611
 30
0.0
 11
221.2806911841
 21
138.5405948109
 31
0.0
  0
LINE
  5
251
330
1F
100
AcDbEntity
  8
0
  6
HIDDEN
 62
     7
370
     0
100
AcDbLine
 10
217.464725825
 20
139.2134524611
 30
0.0
 11
221.30281697
 21
138.5366934379
 31
0.0
  0
LINE
  5
252
330
1F
100
AcDbEntity
  8
0
  6
HIDDEN
 62
     7
370
     0
100
AcDbLine
 10
208.4365343215
 20
140.8053662102
 30
0.0
 11
211.7631300928
 21
140.2187976218
 31
0.0
  0
LINE
  5
253
330
1F
100
AcDbEntity
  8
0
  6
HIDDEN
 62
     7
370
     0
100
AcDbLine
 10
218.6417903443
 20
145.8889170697
 30
0.0
 11
217.464725825
 21
139.2134524611
 31
0.0
  0
LINE
  5
254
330
1F
100
AcDbEntity
  8
0
  6
HIDDEN
 62
     7
370
     0
100
AcDbLine
 10
210.0375705196
 20
149.8852936931
 30
0.0
 11
222.9038531681
 21
147.6166209207
 31
0.0
  0
LINE
  5
255
330
1F
100
AcDbEntity
  8
0
  6
HIDDEN
 62
     7
370
     0
100
AcDbLine
 10
134.6930174747
 20
167.1369823061
 30
0.0
 11
134.6930174747
 21
168.8746805841
 31
0.0
  0
LINE
  5
256
330
1F
100
AcDbEntity
  8
0
  6
HIDDEN
 62
     7
370
     0
100
AcDbLine
 10
100.3930174747
 20
166.3906975685
 30
0.0
 11
100.3930174747
 21
168.0129451958
 31
0.0
  0
SPLINE
  5
257
330
1F
100
AcDbEntity
  8
0
  6
HIDDEN
 62
     7
370
     0
100
AcDbSpline
210
0.0
220
0.0
230
1.0
 70
     8
 71
     3
 72
    10
 73
     6
 74
     0
 42
0.00000001
 43
0.00000001
 12
1.0
 22
0.0
 32
0.0
 13
1.0
 23
0.0
 33
0.0
 40
0.0
 40
0.0
 40
0.0
 40
0.0
 40
0.3700749405053218
 40
0.7506758864502898
 40
1.0
 40
1.0
 40
1.0
 40
1.0
 10
135.5716971311786
 20
167.5982668540108
 30
0.0
 10
135.4662567274346
 20
167.8320788585432
 30
0.0
 10
135.2523768888266
 20
168.3063531596493
 30
0.0
 10
135.1007377155011
 20
168.6484450632613
 30
0.0
 10
135.0999286549208
 20
168.6502083866226
 30
0.0
 10
135.099608429032
 20
168.6509063093792
 30
0.0
  0
LINE
  5
258
330
1F
100
AcDbEntity
  8
0
  6
HIDDEN
 62
     7
370
     0
100
AcDbLine
 10
98.8930174747
 20
165.6406975685
 30
0.0
 11
98.8930174747
 21
167.146919792
 31
0.0
  0
SPLINE
  5
259
330
1F
100
AcDbEntity
  8
0
  6
HIDDEN
 62
     7
370
     0
100
AcDbSpline
210
0.0
220
0.0
230
1.0
 70
     8
 71
     3
 72
    10
 73
     6
 74
     0
 42
0.00000001
 43
0.00000001
 12
1.0
 22
0.0
 32
0.0
 13
1.0
 23
0.0
 33
0.0
 40
0.0
 40
0.0
 40
0.0
 40
0.0
 40
0.5
 40
0.5
 40
1.0
 40
1.0
 40
1.0
 40
1.0
 10
218.2509070799691
 20
133.3884384676001
 30
0.0
 10
218.3637936733933
 20
133.7839506809871
 30
0.0
 10
218.476515780864
 20
134.1824658205489
 30
0.0
 10
218.686250861093
 20
134.9905968160556
 30
0.0
 10
218.7840821753049
 20
135.4005518021156
 30
0.0
 10
218.8583484063953
 20
135.8217365283098
 30
0.0
  0
LINE
  5
25A
330
1F
100
AcDbEntity
  8
0
  6
HIDDEN
 62
     7
370
     0
100
AcDbLine
 10
218.25090708
 20
133.3884384676
 30
0.0
 11
220.7299831948
 21
132.9513104613
 31
0.0
  0
SPLINE
  5
25B
330
1F
100
AcDbEntity
  8
0
  6
HIDDEN
 62
     7
370
     0
100
AcDbSpline
210
0.0
220
0.0
230
1.0
 70
     8
 71
     3
 72
    10
 73
     6
 74
     0
 42
0.00000001
 43
0.00000001
 12
1.0
 22
0.0
 32
0.0
 13
1.0
 23
0.0
 33
0.0
 40
0.0
 40
0.0
 40
0.0
 40
0.0
 40
0.5
 40
0.5
 40
1.0
 40
1.0
 40
1.0
 40
1.0
 10
220.7426964621102
 20
135.4894751250452
 30
0.0
 10
220.6685173688915
 20
135.0687845822785
 30
0.0
 10
220.5466996936556
 20
134.6624668057582
 30
0.0
 10
220.2641126592355
 20
133.8671763620307
 30
0.0
 10
220.1014830755043
 20
133.4774933865352
 30
0.0
 10
219.9256656274574
 20
133.0931333495058
 30
0.0
  0
LWPOLYLINE
  5
25C
330
1F
100
AcDbEntity
  8
0
  6
HIDDEN
 62
     7
370
     0
100
AcDbPolyline
 90
       13
 70
   128
 43
0.0
 10
215.2452886307
 20
129.3688996782
 10
215.6384192183
 20
128.9321739903
 10
215.9405510029
 20
128.5365319691
 10
216.131094203
 20
128.2089359645
 10
216.1970636141
 20
127.9717111028
 10
216.13396353
 20
127.8410238663
 10
215.9460941172
 20
127.8257803743
 10
215.6462583656
 20
127.9270194454
 10
215.2548895863
 20
128.1378418044
 10
214.7986589147
 20
128.4438802558
 10
214.3086577171
 20
128.824278785
 10
213.8182787655
 20
129.2531138608
 10
213.360940575
 20
129.7011610814
  0
LINE
  5
25D
330
1F
100
AcDbEntity
  8
0
  6
HIDDEN
 62
     7
370
     0
100
AcDbLine
 10
117.3430174747
 20
125.4568258192
 30
0.0
 11
125.4430174747
 21
125.4568258192
 31
0.0
  0
SPLINE
  5
25E
330
1F
100
AcDbEntity
  8
0
  6
HIDDEN
 62
     7
370
     0
100
AcDbSpline
210
0.0
220
0.0
230
1.0
 70
    11
 71
     3
 72
    64
 73
    60
 74
     0
 42
0.00000001
 43
0.00000001
 12
1.0
 22
0.0
 32
0.0
 13
1.0
 23
0.0
 33
0.0
 40
-0.0312500000000006
 40
-0.0312500000000006
 40
0.0
 40
0.0
 40
0.0312500000000001
 40
0.0312500000000001
 40
0.0625000000000001
 40
0.0625000000000001
 40
0.1249999999999998
 40
0.1249999999999998
 40
0.1562499999999996
 40
0.1562499999999996
 40
0.1874999999999994
 40
0.1874999999999994
 40
0.2187499999999993
 40
0.2187499999999993
 40
0.2499999999999991
 40
0.2499999999999991
 40
0.2812499999999989
 40
0.2812499999999989
 40
0.3124999999999988
 40
0.3124999999999988
 40
0.3437499999999986
 40
0.3437499999999986
 40
0.3749999999999984
 40
0.3749999999999984
 40
0.4062499999999983
 40
0.4062499999999983
 40
0.4374999999999981
 40
0.4374999999999981
 40
0.4687499999999979
 40
0.4687499999999979
 40
0.4999999999999978
 40
0.4999999999999978
 40
0.5312499999999976
 40
0.5312499999999976
 40
0.5624999999999974
 40
0.5624999999999974
 40
0.6249999999999976
 40
0.6249999999999976
 40
0.6562499999999976
 40
0.6562499999999976
 40
0.6874999999999977
 40
0.6874999999999977
 40
0.7187499999999977
 40
0.7187499999999977
 40
0.7499999999999978
 40
0.7499999999999978
 40
0.7812499999999978
 40
0.7812499999999978
 40
0.8124999999999979
 40
0.8124999999999979
 40
0.8437499999999979
 40
0.8437499999999979
 40
0.874999999999998
 40
0.874999999999998
 40
0.937499999999999
 40
0.937499999999999
 40
0.9687499999999994
 40
0.9687499999999994
 40
1.0
 40
1.0
 40
1.03125
 40
1.03125
 10
171.3930174747382
 20
149.7045817994845
 30
0.0
 10
171.3930174747382
 20
149.7045817994845
 30
0.0
 10
171.4100495981394
 20
149.694499961956
 30
0.0
 10
171.4761117951446
 20
149.6561540780828
 30
0.0
 10
171.5260429447116
 20
149.6273837747337
 30
0.0
 10
171.7168710400783
 20
149.5211460619154
 30
0.0
 10
171.9017534431785
 20
149.4216376843783
 30
0.0
 10
172.2394660365728
 20
149.2672852165209
 30
0.0
 10
172.364015514752
 20
149.2142656472478
 30
0.0
 10
172.6294999078054
 20
149.1143430326032
 30
0.0
 10
172.7699064649339
 20
149.0675191686384
 30
0.0
 10
173.0679902957247
 20
148.9862397584602
 30
0.0
 10
173.2277437163729
 20
148.9516202224361
 30
0.0
 10
173.55248409802
 20
148.9046037615435
 30
0.0
 10
173.7192287281558
 20
148.8917428615276
 30
0.0
 10
174.057615567092
 20
148.8912904240252
 30
0.0
 10
174.2234901898179
 20
148.9036011413254
 30
0.0
 10
174.5491461763157
 20
148.949868208066
 30
0.0
 10
174.708872749924
 20
148.9840682288035
 30
0.0
 10
175.0088161749327
 20
149.0652135120875
 30
0.0
 10
175.1522413608669
 20
149.1128428867679
 30
0.0
 10
175.4189061755715
 20
149.2129811548837
 30
0.0
 10
175.54180705161
 20
149.2652042853136
 30
0.0
 10
175.7683884518337
 20
149.3685763015804
 30
0.0
 10
175.8720180568775
 20
149.4198061970143
 30
0.0
 10
176.0519163208115
 20
149.512586906213
 30
0.0
 10
176.1294207339549
 20
149.5547213255963
 30
0.0
 10
176.2580275423519
 20
149.6262621822157
 30
0.0
 10
176.3080006093481
 20
149.655046436912
 30
0.0
 10
176.374816594052
 20
149.6938136283016
 30
0.0
 10
176.3924942564142
 20
149.7042740249101
 30
0.0
 10
176.3935178298329
 20
149.7048761251205
 30
0.0
 10
176.3770159802325
 20
149.6951052878435
 30
0.0
 10
176.3115992370553
 20
149.657120153984
 30
0.0
 10
176.261952372805
 20
149.6284989922842
 30
0.0
 10
176.0718991420325
 20
149.5226223652056
 30
0.0
 10
175.8872829043443
 20
149.4231301114443
 30
0.0
 10
175.5489662025099
 20
149.268321625976
 30
0.0
 10
175.4240002472503
 20
149.2150822219673
 30
0.0
 10
175.1591530260017
 20
149.1152585691458
 30
0.0
 10
175.0186043589709
 20
149.0682573762786
 30
0.0
 10
174.7188011708764
 20
148.9863836134556
 30
0.0
 10
174.5591904054911
 20
148.9517936577835
 30
0.0
 10
174.2345369792679
 20
148.904703533588
 30
0.0
 10
174.0653408257494
 20
148.891712283133
 30
0.0
 10
173.7287139448235
 20
148.8913195366801
 30
0.0
 10
173.5627500913408
 20
148.9035395708918
 30
0.0
 10
173.2352779969392
 20
148.9501295941899
 30
0.0
 10
173.0762728231161
 20
148.9842646794488
 30
0.0
 10
172.7758346660422
 20
149.0656324547932
 30
0.0
 10
172.6317669181257
 20
149.1135491696365
 30
0.0
 10
172.3655770430224
 20
149.2136193786691
 30
0.0
 10
172.2424282706976
 20
149.2659717502963
 30
0.0
 10
171.9009939317662
 20
149.421904869562
 30
0.0
 10
171.7190087338319
 20
149.5199651623745
 30
0.0
 10
171.5256144616468
 20
149.6276177443124
 30
0.0
 10
171.4768391131068
 20
149.6557350543958
 30
0.0
 10
171.4105202673584
 20
149.6942236688745
 30
0.0
 10
171.3930174747382
 20
149.7045817994845
 30
0.0
 10
171.3930174747382
 20
149.7045817994845
 30
0.0
  0
SPLINE
  5
25F
330
1F
100
AcDbEntity
  8
0
  6
HIDDEN
 62
     7
370
     0
100
AcDbSpline
210
0.0
220
0.0
230
1.0
 70
    11
 71
     3
 72
    64
 73
    60
 74
     0
 42
0.00000001
 43
0.00000001
 12
1.0
 22
0.0
 32
0.0
 13
1.0
 23
0.0
 33
0.0
 40
-0.0312500000000006
 40
-0.0312500000000006
 40
0.0
 40
0.0
 40
0.0312500000000001
 40
0.0312500000000001
 40
0.0625000000000001
 40
0.0625000000000001
 40
0.1249999999999998
 40
0.1249999999999998
 40
0.1562499999999996
 40
0.1562499999999996
 40
0.1874999999999994
 40
0.1874999999999994
 40
0.2187499999999993
 40
0.2187499999999993
 40
0.2499999999999991
 40
0.2499999999999991
 40
0.2812499999999989
 40
0.2812499999999989
 40
0.3124999999999988
 40
0.3124999999999988
 40
0.3437499999999986
 40
0.3437499999999986
 40
0.3749999999999984
 40
0.3749999999999984
 40
0.4062499999999983
 40
0.4062499999999983
 40
0.4374999999999981
 40
0.4374999999999981
 40
0.4687499999999979
 40
0.4687499999999979
 40
0.4999999999999978
 40
0.4999999999999978
 40
0.5312499999999976
 40
0.5312499999999976
 40
0.5624999999999974
 40
0.5624999999999974
 40
0.6249999999999976
 40
0.6249999999999976
 40
0.6562499999999976
 40
0.6562499999999976
 40
0.6874999999999977
 40
0.6874999999999977
 40
0.7187499999999977
 40
0.7187499999999977
 40
0.7499999999999978
 40
0.7499999999999978
 40
0.7812499999999978
 40
0.7812499999999978
 40
0.8124999999999979
 40
0.8124999999999979
 40
0.8437499999999979
 40
0.8437499999999979
 40
0.874999999999998
 40
0.874999999999998
 40
0.937499999999999
 40
0.937499999999999
 40
0.9687499999999994
 40
0.9687499999999994
 40
1.0
 40
1.0
 40
1.03125
 40
1.03125
 10
171.3930174747382
 20
149.7045817994845
 30
0.0
 10
171.3930174747382
 20
149.7045817994845
 30
0.0
 10
171.4100495981394
 20
149.694499961956
 30
0.0
 10
171.4761117951446
 20
149.6561540780828
 30
0.0
 10
171.5260429447116
 20
149.6273837747337
 30
0.0
 10
171.7168710400783
 20
149.5211460619154
 30
0.0
 10
171.9017534431785
 20
149.4216376843783
 30
0.0
 10
172.2394660365728
 20
149.2672852165209
 30
0.0
 10
172.364015514752
 20
149.2142656472478
 30
0.0
 10
172.6294999078054
 20
149.1143430326032
 30
0.0
 10
172.7699064649339
 20
149.0675191686384
 30
0.0
 10
173.0679902957247
 20
148.9862397584602
 30
0.0
 10
173.2277437163729
 20
148.9516202224361
 30
0.0
 10
173.55248409802
 20
148.9046037615435
 30
0.0
 10
173.7192287281558
 20
148.8917428615276
 30
0.0
 10
174.057615567092
 20
148.8912904240252
 30
0.0
 10
174.2234901898179
 20
148.9036011413254
 30
0.0
 10
174.5491461763157
 20
148.949868208066
 30
0.0
 10
174.708872749924
 20
148.9840682288035
 30
0.0
 10
175.0088161749327
 20
149.0652135120875
 30
0.0
 10
175.1522413608669
 20
149.1128428867679
 30
0.0
 10
175.4189061755715
 20
149.2129811548837
 30
0.0
 10
175.54180705161
 20
149.2652042853136
 30
0.0
 10
175.7683884518337
 20
149.3685763015804
 30
0.0
 10
175.8720180568775
 20
149.4198061970143
 30
0.0
 10
176.0519163208115
 20
149.512586906213
 30
0.0
 10
176.1294207339549
 20
149.5547213255963
 30
0.0
 10
176.2580275423519
 20
149.6262621822157
 30
0.0
 10
176.3080006093481
 20
149.655046436912
 30
0.0
 10
176.374816594052
 20
149.6938136283016
 30
0.0
 10
176.3924942564142
 20
149.7042740249101
 30
0.0
 10
176.3935178298329
 20
149.7048761251205
 30
0.0
 10
176.3770159802325
 20
149.6951052878435
 30
0.0
 10
176.3115992370553
 20
149.657120153984
 30
0.0
 10
176.261952372805
 20
149.6284989922842
 30
0.0
 10
176.0718991420325
 20
149.5226223652056
 30
0.0
 10
175.8872829043443
 20
149.4231301114443
 30
0.0
 10
175.5489662025099
 20
149.268321625976
 30
0.0
 10
175.4240002472503
 20
149.2150822219673
 30
0.0
 10
175.1591530260017
 20
149.1152585691458
 30
0.0
 10
175.0186043589709
 20
149.0682573762786
 30
0.0
 10
174.7188011708764
 20
148.9863836134556
 30
0.0
 10
174.5591904054911
 20
148.9517936577835
 30
0.0
 10
174.2345369792679
 20
148.904703533588
 30
0.0
 10
174.0653408257494
 20
148.891712283133
 30
0.0
 10
173.7287139448235
 20
148.8913195366801
 30
0.0
 10
173.5627500913408
 20
148.9035395708918
 30
0.0
 10
173.2352779969392
 20
148.9501295941899
 30
0.0
 10
173.0762728231161
 20
148.9842646794488
 30
0.0
 10
172.7758346660422
 20
149.0656324547932
 30
0.0
 10
172.6317669181257
 20
149.1135491696365
 30
0.0
 10
172.3655770430224
 20
149.2136193786691
 30
0.0
 10
172.2424282706976
 20
149.2659717502963
 30
0.0
 10
171.9009939317662
 20
149.421904869562
 30
0.0
 10
171.7190087338319
 20
149.5199651623745
 30
0.0
 10
171.5256144616468
 20
149.6276177443124
 30
0.0
 10
171.4768391131068
 20
149.6557350543958
 30
0.0
 10
171.4105202673584
 20
149.6942236688745
 30
0.0
 10
171.3930174747382
 20
149.7045817994845
 30
0.0
 10
171.3930174747382
 20
149.7045817994845
 30
0.0
  0
LINE
  5
260
330
1F
100
AcDbEntity
  8
0
  6
HIDDEN
 62
     7
370
     0
100
AcDbLine
 10
177.8930174747
 20
141.2045817995
 30
0.0
 11
177.8930174747
 21
149.7045817995
 31
0.0
  0
LINE
  5
261
330
1F
100
AcDbEntity
  8
0
  6
HIDDEN
 62
     7
370
     0
100
AcDbLine
 10
105.3430174747
 20
125.848318509
 30
0.0
 11
105.3430174747
 21
127.4545817995
 31
0.0
  0
SPLINE
  5
262
330
1F
100
AcDbEntity
  8
0
  6
HIDDEN
 62
     7
370
     0
100
AcDbSpline
210
0.0
220
0.0
230
1.0
 70
     8
 71
     3
 72
     8
 73
     4
 74
     0
 42
0.00000001
 43
0.00000001
 12
1.0
 22
0.0
 32
0.0
 13
1.0
 23
0.0
 33
0.0
 40
0.0
 40
0.0
 40
0.0
 40
0.0
 40
1.0
 40
1.0
 40
1.0
 40
1.0
 10
100.3930174747382
 20
125.9575921862823
 30
0.0
 10
99.86552563289472
 20
126.2246422183643
 30
0.0
 10
99.35977808611543
 20
126.4765729934553
 30
0.0
 10
98.89301747473826
 20
126.7061024858391
 30
0.0
  0
LINE
  5
263
330
1F
100
AcDbEntity
  8
0
  6
HIDDEN
 62
     7
370
     0
100
AcDbLine
 10
98.8930174747
 20
126.7061024858
 30
0.0
 11
98.8930174747
 21
127.4545817995
 31
0.0
  0
LINE
  5
264
330
1F
100
AcDbEntity
  8
0
  6
HIDDEN
 62
     7
370
     0
100
AcDbLine
 10
117.3430174747
 20
162.9545817995
 30
0.0
 11
125.4430174747
 21
162.9545817995
 31
0.0
  0
LINE
  5
265
330
1F
100
AcDbEntity
  8
0
  6
HIDDEN
 62
     7
370
     0
100
AcDbLine
 10
218.25090708
 20
133.3884384676
 30
0.0
 11
224.3348835911
 21
132.3156692587
 31
0.0
  0
LINE
  5
266
330
1F
100
AcDbEntity
  8
0
  6
HIDDEN
 62
     7
370
     0
100
AcDbLine
 10
218.8583484064
 20
135.8217365283
 30
0.0
 11
219.3963431284
 21
138.8728562141
 31
0.0
  0
LINE
  5
267
330
1F
100
AcDbEntity
  8
0
  6
HIDDEN
 62
     7
370
     0
100
AcDbLine
 10
219.3963431284
 20
138.8728562141
 30
0.0
 11
225.3050099031
 21
137.8309988418
 31
0.0
  0
LINE
  5
268
330
1F
100
AcDbEntity
  8
0
  6
HIDDEN
 62
     7
370
     0
100
AcDbLine
 10
221.2806911841
 20
138.5405948109
 30
0.0
 11
220.7426964621
 21
135.489475125
 31
0.0
  0
LINE
  5
269
330
1F
100
AcDbEntity
  8
0
  6
HIDDEN
 62
     7
370
     0
100
AcDbLine
 10
176.8930174747
 20
169.9545817995
 30
0.0
 11
170.8930174747
 21
169.9545817995
 31
0.0
  0
LINE
  5
26A
330
1F
100
AcDbEntity
  8
0
  6
HIDDEN
 62
     7
370
     0
100
AcDbLine
 10
176.3930174747
 20
169.65415149
 30
0.0
 11
171.3930174747
 21
169.65415149
 31
0.0
  0
LINE
  5
26B
330
1F
100
AcDbEntity
  8
0
  6
HIDDEN
 62
     7
370
     0
100
AcDbLine
 10
174.2262672401
 20
166.1666427892
 30
0.0
 11
176.3930174747
 21
167.7408789822
 31
0.0
  0
LINE
  5
26C
330
1F
100
AcDbEntity
  8
0
  6
HIDDEN
 62
     7
370
     0
100
AcDbLine
 10
174.0689280439
 20
165.6824025351
 30
0.0
 11
176.3930174747
 21
162.483567861
 31
0.0
  0
LINE
  5
26D
330
1F
100
AcDbEntity
  8
0
  6
HIDDEN
 62
     7
370
     0
100
AcDbLine
 10
174.2262672401
 20
166.1666427892
 30
0.0
 11
174.0689280439
 21
165.6824025351
 31
0.0
  0
LINE
  5
26E
330
1F
100
AcDbEntity
  8
0
  6
HIDDEN
 62
     7
370
     0
100
AcDbLine
 10
174.0689280439
 20
165.6824025351
 30
0.0
 11
174.2262672401
 21
166.1666427892
 31
0.0
  0
LINE
  5
26F
330
1F
100
AcDbEntity
  8
0
  6
HIDDEN
 62
     7
370
     0
100
AcDbLine
 10
185.9387038424
 20
164.6392974673
 30
0.0
 11
187.4817354867
 21
158.8806249729
 31
0.0
  0
SPLINE
  5
270
330
1F
100
AcDbEntity
  8
0
  6
HIDDEN
 62
     7
370
     0
100
AcDbSpline
210
0.0
220
0.0
230
1.0
 70
     8
 71
     3
 72
     8
 73
     4
 74
     0
 42
0.00000001
 43
0.00000001
 12
1.0
 22
0.0
 32
0.0
 13
1.0
 23
0.0
 33
0.0
 40
0.0
 40
0.0
 40
0.0
 40
0.0
 40
1.0
 40
1.0
 40
1.0
 40
1.0
 10
174.0689280438977
 20
165.6824025351469
 30
0.0
 10
174.1125440516172
 20
165.8456986710068
 30
0.0
 10
174.1658262440835
 20
166.0087269332857
 30
0.0
 10
174.2262672401381
 20
166.1666427891685
 30
0.0
  0
SPLINE
  5
271
330
1F
100
AcDbEntity
  8
0
  6
HIDDEN
 62
     7
370
     0
100
AcDbSpline
210
0.0
220
0.0
230
1.0
 70
     8
 71
     3
 72
     8
 73
     4
 74
     0
 42
0.00000001
 43
0.00000001
 12
1.0
 22
0.0
 32
0.0
 13
1.0
 23
0.0
 33
0.0
 40
0.0
 40
0.0
 40
0.0
 40
0.0
 40
1.0
 40
1.0
 40
1.0
 40
1.0
 10
174.2262672401381
 20
166.1666427891685
 30
0.0
 10
174.1654426326966
 20
166.0077246612445
 30
0.0
 10
174.1124655494119
 20
165.8454047627042
 30
0.0
 10
174.0689280438977
 20
165.6824025351469
 30
0.0
  0
LINE
  5
272
330
1F
100
AcDbEntity
  8
0
  6
HIDDEN
 62
     7
370
     0
100
AcDbLine
 10
211.7631300928
 20
140.2187976218
 30
0.0
 11
211.8600887409
 21
140.7686774401
 31
0.0
  0
LINE
  5
273
330
1F
100
AcDbEntity
  8
0
  6
HIDDEN
 62
     7
370
     0
100
AcDbLine
 10
219.3963431284
 20
138.8728562141
 30
0.0
 11
211.7631300928
 21
140.2187976218
 31
0.0
  0
LINE
  5
274
330
1F
100
AcDbEntity
  8
0
  6
HIDDEN
 62
     7
370
     0
100
AcDbLine
 10
213.360940575
 20
129.7011610814
 30
0.0
 11
208.9867009823
 21
134.2518380575
 31
0.0
  0
LINE
  5
275
330
1F
100
AcDbEntity
  8
0
  6
HIDDEN
 62
     7
370
     0
100
AcDbLine
 10
146.8930174747
 20
114.4545817995
 30
0.0
 11
150.8930174747
 21
114.4545817995
 31
0.0
  0
LINE
  5
276
330
1F
100
AcDbEntity
  8
0
  6
HIDDEN
 62
     7
370
     0
100
AcDbLine
 10
210.3464155013
 20
140.4686026283
 30
0.0
 11
207.3233786301
 21
141.0016455923
 31
0.0
  0
LINE
  5
277
330
1F
100
AcDbEntity
  8
0
  6
HIDDEN
 62
     7
370
     0
100
AcDbLine
 10
211.9474516995
 20
149.5485301111
 30
0.0
 11
208.9271638653
 21
150.0810883458
 31
0.0
  0
LINE
  5
278
330
1F
100
AcDbEntity
  8
0
  6
HIDDEN
 62
     7
370
     0
100
AcDbLine
 10
233.4687310284
 20
136.3915145444
 30
0.0
 11
229.5127092538
 21
113.9558001761
 31
0.0
  0
LINE
  5
279
330
1F
100
AcDbEntity
  8
0
  6
HIDDEN
 62
     7
370
     0
100
AcDbLine
 10
221.30281697
 20
138.5366934379
 30
0.0
 11
233.4687310284
 21
136.3915145444
 31
0.0
  0
LINE
  5
27A
330
1F
100
AcDbEntity
  8
0
  6
HIDDEN
 62
     7
370
     0
100
AcDbLine
 10
222.9038531681
 20
147.6166209207
 30
0.0
 11
192.6573678671
 21
152.9498923509
 31
0.0
  0
ARC
  5
27B
330
1F
100
AcDbEntity
  8
0
  6
HIDDEN
 62
     7
370
     0
100
AcDbCircle
 10
193.6992569331
 20
158.858738869
 30
0.0
 40
6.000000000000009
100
AcDbArc
 50
195.0
 51
260.0
  0
LINE
  5
27C
330
1F
100
AcDbEntity
  8
0
  6
HIDDEN
 62
     7
370
     0
100
AcDbLine
 10
187.9037019753
 20
157.3058245984
 30
0.0
 11
186.58019506
 21
162.2452196508
 31
0.0
  0
LINE
  5
27D
330
1F
100
AcDbEntity
  8
0
  6
HIDDEN
 62
     7
370
     0
100
AcDbLine
 10
213.0916177581
 20
139.9845494029
 30
0.0
 11
214.6926539562
 21
149.0644768858
 31
0.0
  0
LINE
  5
27E
330
1F
100
AcDbEntity
  8
0
  6
HIDDEN
 62
     7
370
     0
100
AcDbLine
 10
222.9038531681
 20
147.6166209207
 30
0.0
 11
221.30281697
 21
138.5366934379
 31
0.0
  0
LINE
  5
27F
330
1F
100
AcDbEntity
  8
0
  6
HIDDEN
 62
     7
370
     0
100
AcDbLine
 10
221.30281697
 20
138.5366934379
 30
0.0
 11
213.0916177581
 21
139.9845494029
 31
0.0
  0
LINE
  5
280
330
1F
100
AcDbEntity
  8
0
  6
HIDDEN
 62
     7
370
     0
100
AcDbLine
 10
222.9038531681
 20
147.6166209207
 30
0.0
 11
214.6926539562
 21
149.0644768858
 31
0.0
  0
LINE
  5
281
330
1F
100
AcDbEntity
  8
0
  6
HIDDEN
 62
     7
370
     0
100
AcDbLine
 10
213.0916177581
 20
139.9845494029
 30
0.0
 11
210.3464155013
 21
140.4686026283
 31
0.0
  0
LINE
  5
282
330
1F
100
AcDbEntity
  8
0
  6
HIDDEN
 62
     7
370
     0
100
AcDbLine
 10
214.6926539562
 20
149.0644768858
 30
0.0
 11
211.9474516995
 21
149.5485301111
 31
0.0
  0
LINE
  5
283
330
1F
100
AcDbEntity
  8
0
  6
HIDDEN
 62
     7
370
     0
100
AcDbLine
 10
98.8930174747
 20
130.4933371611
 30
0.0
 11
98.8930174747
 21
126.7061024858
 31
0.0
  0
LINE
  5
284
330
1F
100
AcDbEntity
  8
0
  6
HIDDEN
 62
     7
370
     0
100
AcDbLine
 10
98.8930174747
 20
165.6406975685
 30
0.0
 11
98.8930174747
 21
140.2297106689
 31
0.0
  0
LINE
  5
285
330
1F
100
AcDbEntity
  8
0
  6
HIDDEN
 62
     7
370
     0
100
AcDbLine
 10
100.3930174747
 20
166.3906975685
 30
0.0
 11
100.3930174747
 21
140.2297106689
 31
0.0
  0
LINE
  5
286
330
1F
100
AcDbEntity
  8
0
  6
HIDDEN
 62
     7
370
     0
100
AcDbLine
 10
136.6930174747
 20
166.8727188937
 30
0.0
 11
136.6930174747
 21
140.826646059
 31
0.0
  0
LINE
  5
287
330
1F
100
AcDbEntity
  8
0
  6
HIDDEN
 62
     7
370
     0
100
AcDbLine
 10
134.6930174747
 20
167.1369823061
 30
0.0
 11
134.6930174747
 21
140.2297106689
 31
0.0
  0
LINE
  5
288
330
1F
100
AcDbEntity
  8
0
  6
HIDDEN
 62
     7
370
     0
100
AcDbLine
 10
98.8930174747
 20
140.2297106689
 30
0.0
 11
98.8930174747
 21
130.4933371611
 31
0.0
  0
LINE
  5
289
330
1F
100
AcDbEntity
  8
0
  6
HIDDEN
 62
     7
370
     0
100
AcDbLine
 10
100.3930174747
 20
140.2297106689
 30
0.0
 11
100.3930174747
 21
129.7433371611
 31
0.0
  0
LINE
  5
28A
330
1F
100
AcDbEntity
  8
0
  6
HIDDEN
 62
     7
370
     0
100
AcDbLine
 10
134.6930174747
 20
140.2297106689
 30
0.0
 11
134.6930174747
 21
128.9970524235
 31
0.0
  0
SPLINE
  5
28B
330
1F
100
AcDbEntity
  8
0
  6
HIDDEN
 62
     7
370
     0
100
AcDbSpline
210
0.0
220
0.0
230
1.0
 70
     8
 71
     3
 72
    16
 73
    12
 74
     0
 42
0.00000001
 43
0.00000001
 12
1.0
 22
0.0
 32
0.0
 13
1.0
 23
0.0
 33
0.0
 40
0.0
 40
0.0
 40
0.0
 40
0.0
 40
0.25
 40
0.25
 40
0.375
 40
0.375
 40
0.5
 40
0.5
 40
0.75
 40
0.75
 40
1.0
 40
1.0
 40
1.0
 40
1.0
 10
135.5716971311786
 20
138.8740979893832
 30
0.0
 10
135.4104646536941
 20
137.992597325103
 30
0.0
 10
135.2899848140545
 20
137.1303705644518
 30
0.0
 10
135.1676042967411
 20
135.8662331144425
 30
0.0
 10
135.1366266363437
 20
135.4497548167019
 30
0.0
 10
135.0950128987157
 20
134.627103642415
 30
0.0
 10
135.0847769857829
 20
134.2287440176477
 30
0.0
 10
135.0845885887268
 20
133.0721193742488
 30
0.0
 10
135.1247332913644
 20
132.3514844614203
 30
0.0
 10
135.288887046304
 20
131.0136826195524
 30
0.0
 10
135.4104386967136
 20
130.41709952048
 30
0.0
 10
135.5716971311786
 20
129.8913805550596
 30
0.0
  0
LINE
  5
28C
330
1F
100
AcDbEntity
  8
0
  6
HIDDEN
 62
     7
370
     0
100
AcDbLine
 10
136.8930174747
 20
121.2045817995
 30
0.0
 11
136.9859106936
 21
121.2974750183
 31
0.0
  0
LINE
  5
28D
330
1F
100
AcDbEntity
  8
0
  6
HIDDEN
 62
     7
370
     0
100
AcDbLine
 10
136.9859106936
 20
169.6116885807
 30
0.0
 11
136.8930174747
 21
169.7045817995
 31
0.0
  0
ARC
  5
28E
330
1F
100
AcDbEntity
  8
0
  6
HIDDEN
 62
     7
370
     0
100
AcDbCircle
 10
136.2788039124
 20
122.0045817995
 30
0.0
 40
1.0
100
AcDbArc
 50
315.0
 51
0.0
  0
ARC
  5
28F
330
1F
100
AcDbEntity
  8
0
  6
HIDDEN
 62
     7
370
     0
100
AcDbCircle
 10
136.2788039124
 20
122.0045817995
 30
0.0
 40
1.0
100
AcDbArc
 50
0.0
 51
52.1052014664
  0
ARC
  5
290
330
1F
100
AcDbEntity
  8
0
  6
HIDDEN
 62
     7
370
     0
100
AcDbCircle
 10
136.2788039124
 20
168.9045817995
 30
0.0
 40
1.000000000000008
100
AcDbArc
 50
343.125
 51
45.0
  0
ARC
  5
291
330
1F
100
AcDbEntity
  8
0
  6
HIDDEN
 62
     7
370
     0
100
AcDbCircle
 10
136.2788039124
 20
168.9045817995
 30
0.0
 40
1.000000000000008
100
AcDbArc
 50
307.8947985336
 51
343.125
  0
LINE
  5
292
330
1F
100
AcDbEntity
  8
0
  6
HIDDEN
 62
     7
370
     0
100
AcDbLine
 10
137.2788039124
 20
122.0045817995
 30
0.0
 11
137.2788039124
 21
168.9045817995
 31
0.0
  0
LINE
  5
293
330
1F
100
AcDbEntity
  8
0
  6
HIDDEN
 62
     7
370
     0
100
AcDbLine
 10
137.2788039124
 20
122.0045817995
 30
0.0
 11
137.2788039124
 21
168.9045817995
 31
0.0
  0
LINE
  5
294
330
1F
100
AcDbEntity
  8
0
  6
HIDDEN
 62
     7
370
     0
100
AcDbLine
 10
98.8930174747
 20
129.258152955
 30
0.0
 11
100.4232459144
 21
130.1416307566
 31
0.0
  0
LINE
  5
295
330
1F
100
AcDbEntity
  8
0
  6
HIDDEN
 62
     7
370
     0
100
AcDbLine
 10
100.4232459144
 20
160.7675328424
 30
0.0
 11
98.8930174747
 21
161.6510106439
 31
0.0
  0
LINE
  5
296
330
1F
100
AcDbEntity
  8
0
  6
HIDDEN
 62
     7
370
     0
100
AcDbLine
 10
108.8930174747
 20
129.4545817995
 30
0.0
 11
109.8948187896
 21
129.4545817995
 31
0.0
  0
LINE
  5
297
330
1F
100
AcDbEntity
  8
0
  6
HIDDEN
 62
     7
370
     0
100
AcDbLine
 10
109.8948187896
 20
161.4545817995
 30
0.0
 11
108.8930174747
 21
161.4545817995
 31
0.0
  0
ARC
  5
298
330
1F
100
AcDbEntity
  8
0
  6
HIDDEN
 62
     7
370
     0
100
AcDbCircle
 10
109.8948187896
 20
131.4545817995
 30
0.0
 40
2.0
100
AcDbArc
 50
270.0
 51
315.0
  0
ARC
  5
299
330
1F
100
AcDbEntity
  8
0
  6
HIDDEN
 62
     7
370
     0
100
AcDbCircle
 10
109.8948187896
 20
159.4545817995
 30
0.0
 40
2.000000000000026
100
AcDbArc
 50
45.0
 51
90.0
  0
ARC
  5
29A
330
1F
100
AcDbEntity
  8
0
  6
HIDDEN
 62
     7
370
     0
100
AcDbCircle
 10
108.8930174747
 20
131.4545817995
 30
0.0
 40
2.000000000000021
100
AcDbArc
 50
189.9742217944
 51
270.0
  0
ARC
  5
29B
330
1F
100
AcDbEntity
  8
0
  6
HIDDEN
 62
     7
370
     0
100
AcDbCircle
 10
108.8930174747
 20
159.4545817995
 30
0.0
 40
2.000000000000026
100
AcDbArc
 50
90.0
 51
170.0257782056
  0
LINE
  5
29C
330
1F
100
AcDbEntity
  8
0
  6
HIDDEN
 62
     7
370
     0
100
AcDbLine
 10
111.309032352
 20
130.0403682371
 30
0.0
 11
112.7232459144
 21
131.4545817995
 31
0.0
  0
LINE
  5
29D
330
1F
100
AcDbEntity
  8
0
  6
HIDDEN
 62
     7
370
     0
100
AcDbLine
 10
112.7232459144
 20
159.4545817995
 30
0.0
 11
111.309032352
 21
160.8687953619
 31
0.0
  0
LINE
  5
29E
330
1F
100
AcDbEntity
  8
0
  6
HIDDEN
 62
     7
370
     0
100
AcDbLine
 10
100.4232459144
 20
130.1416307566
 30
0.0
 11
105.3232459144
 21
131.4545817995
 31
0.0
  0
LINE
  5
29F
330
1F
100
AcDbEntity
  8
0
  6
HIDDEN
 62
     7
370
     0
100
AcDbLine
 10
105.3232459144
 20
159.4545817995
 30
0.0
 11
100.4232459144
 21
160.7675328424
 31
0.0
  0
LINE
  5
2A0
330
1F
100
AcDbEntity
  8
0
  6
HIDDEN
 62
     7
370
     0
100
AcDbLine
 10
106.9232459144
 20
159.800991961
 30
0.0
 11
106.3232459144
 21
159.4545817995
 31
0.0
  0
LINE
  5
2A1
330
1F
100
AcDbEntity
  8
0
  6
HIDDEN
 62
     7
370
     0
100
AcDbLine
 10
106.3232459144
 20
131.4545817995
 30
0.0
 11
106.9232459144
 21
131.108171638
 31
0.0
  0
LINE
  5
2A2
330
1F
100
AcDbEntity
  8
0
  6
HIDDEN
 62
     7
370
     0
100
AcDbLine
 10
105.3232459144
 20
131.4545817995
 30
0.0
 11
106.3232459144
 21
131.4545817995
 31
0.0
  0
LINE
  5
2A3
330
1F
100
AcDbEntity
  8
0
  6
HIDDEN
 62
     7
370
     0
100
AcDbLine
 10
106.3232459144
 20
159.4545817995
 30
0.0
 11
105.3232459144
 21
159.4545817995
 31
0.0
  0
LINE
  5
2A4
330
1F
100
AcDbEntity
  8
0
  6
HIDDEN
 62
     7
370
     0
100
AcDbLine
 10
112.7232459144
 20
131.4545817995
 30
0.0
 11
117.3496259106
 21
131.4545817995
 31
0.0
  0
LINE
  5
2A5
330
1F
100
AcDbEntity
  8
0
  6
HIDDEN
 62
     7
370
     0
100
AcDbLine
 10
117.3496259106
 20
159.4545817995
 30
0.0
 11
112.7232459144
 21
159.4545817995
 31
0.0
  0
ARC
  5
2A6
330
1F
100
AcDbEntity
  8
0
  6
HIDDEN
 62
     7
370
     0
100
AcDbCircle
 10
125.3930174747
 20
131.9545817995
 30
0.0
 40
0.5
100
AcDbArc
 50
275.5682401931
 51
0.0
  0
ARC
  5
2A7
330
1F
100
AcDbEntity
  8
0
  6
HIDDEN
 62
     7
370
     0
100
AcDbCircle
 10
125.3930174747
 20
158.9545817995
 30
0.0
 40
0.5
100
AcDbArc
 50
0.0
 51
86.7052363418
  0
LINE
  5
2A8
330
1F
100
AcDbEntity
  8
0
  6
HIDDEN
 62
     7
370
     0
100
AcDbLine
 10
204.5589691907
 20
145.7741858645
 30
0.0
 11
199.0489752011
 21
114.5254571249
 31
0.0
  0
LINE
  5
2A9
330
1F
100
AcDbEntity
  8
0
  6
HIDDEN
 62
     7
370
     0
100
AcDbLine
 10
212.44635818
 20
142.1321195854
 30
0.0
 11
212.831354316
 21
144.3155411721
 31
0.0
  0
LINE
  5
2AA
330
1F
100
AcDbEntity
  8
0
  6
HIDDEN
 62
     7
370
     0
100
AcDbLine
 10
207.5784688748
 20
114.5249474689
 30
0.0
 11
210.9352347337
 21
133.5621126573
 31
0.0
  0
LINE
  5
2AB
330
1F
100
AcDbEntity
  8
0
  6
HIDDEN
 62
     7
370
     0
100
AcDbLine
 10
125.8930174747
 20
135.2045817995
 30
0.0
 11
127.1430174747
 21
136.4545817995
 31
0.0
  0
LINE
  5
2AC
330
1F
100
AcDbEntity
  8
0
  6
HIDDEN
 62
     7
370
     0
100
AcDbLine
 10
127.1430174747
 20
154.4545817995
 30
0.0
 11
125.8930174747
 21
155.7045817995
 31
0.0
  0
LINE
  5
2AD
330
1F
100
AcDbEntity
  8
0
  6
HIDDEN
 62
     7
370
     0
100
AcDbLine
 10
212.831354316
 20
144.3155411721
 30
0.0
 11
212.215025735
 21
144.8513074337
 31
0.0
  0
LINE
  5
2AE
330
1F
100
AcDbEntity
  8
0
  6
HIDDEN
 62
     7
370
     0
100
AcDbLine
 10
205.3213714639
 20
146.0668446774
 30
0.0
 11
204.5589691907
 21
145.7741858645
 31
0.0
  0
LINE
  5
2AF
330
1F
100
AcDbEntity
  8
0
  6
HIDDEN
 62
     7
370
     0
100
AcDbLine
 10
206.1165755061
 20
150.5766709052
 30
0.0
 11
205.3213714639
 21
146.0668446774
 31
0.0
  0
LINE
  5
2B0
330
1F
100
AcDbEntity
  8
0
  6
HIDDEN
 62
     7
370
     0
100
AcDbLine
 10
212.215025735
 20
144.8513074337
 30
0.0
 11
213.0102297772
 21
149.3611336615
 31
0.0
  0
LINE
  5
2B1
330
1F
100
AcDbEntity
  8
0
  6
HIDDEN
 62
     7
370
     0
100
AcDbLine
 10
163.8930174747
 20
154.4545817995
 30
0.0
 11
127.1430174747
 21
154.4545817995
 31
0.0
  0
LINE
  5
2B2
330
1F
100
AcDbEntity
  8
0
  6
HIDDEN
 62
     7
370
     0
100
AcDbLine
 10
127.1430174747
 20
136.4545817995
 30
0.0
 11
163.8930174747
 21
136.4545817995
 31
0.0
  0
LINE
  5
2B3
330
1F
100
AcDbEntity
  8
0
  6
HIDDEN
 62
     7
370
     0
100
AcDbLine
 10
163.8930174747
 20
136.4545817995
 30
0.0
 11
166.7471054151
 21
141.2045817995
 31
0.0
  0
LINE
  5
2B4
330
1F
100
AcDbEntity
  8
0
  6
HIDDEN
 62
     7
370
     0
100
AcDbLine
 10
166.7471054151
 20
149.7045817995
 30
0.0
 11
163.8930174747
 21
154.4545817995
 31
0.0
  0
LINE
  5
2B5
330
1F
100
AcDbEntity
  8
0
  6
HIDDEN
 62
     7
370
     0
100
AcDbLine
 10
214.8838983525
 20
146.6614418879
 30
0.0
 11
211.9556593604
 21
143.4012675973
 31
0.0
  0
LINE
  5
2B6
330
1F
100
AcDbEntity
  8
0
  6
HIDDEN
 62
     7
370
     0
100
AcDbLine
 10
216.1630277636
 20
127.8644846502
 30
0.0
 11
220.7316702064
 21
132.9510129957
 31
0.0
  0
LINE
  5
2B7
330
1F
100
AcDbEntity
  8
0
  6
HIDDEN
 62
     7
370
     0
100
AcDbLine
 10
125.8363196163
 20
125.0635236777
 30
0.0
 11
125.4430174747
 21
125.4568258192
 31
0.0
  0
LINE
  5
2B8
330
1F
100
AcDbEntity
  8
0
  6
HIDDEN
 62
     7
370
     0
100
AcDbLine
 10
117.3430174747
 20
125.4568258192
 30
0.0
 11
117.16179282
 21
125.2756011645
 31
0.0
  0
LINE
  5
2B9
330
1F
100
AcDbEntity
  8
0
  6
HIDDEN
 62
     7
370
     0
100
AcDbLine
 10
171.3930174747
 20
149.7045817995
 30
0.0
 11
166.7471054151
 21
149.7045817995
 31
0.0
  0
LINE
  5
2BA
330
1F
100
AcDbEntity
  8
0
  6
HIDDEN
 62
     7
370
     0
100
AcDbLine
 10
177.8930174747
 20
149.7045817995
 30
0.0
 11
176.3903612299
 21
149.7045817995
 31
0.0
  0
LINE
  5
2BB
330
1F
100
AcDbEntity
  8
0
  6
HIDDEN
 62
     7
370
     0
100
AcDbLine
 10
166.7471054151
 20
141.2045817995
 30
0.0
 11
177.8930174747
 21
141.2045817995
 31
0.0
  0
LINE
  5
2BC
330
1F
100
AcDbEntity
  8
0
  6
HIDDEN
 62
     7
370
     0
100
AcDbLine
 10
177.8930174747
 20
141.2045817995
 30
0.0
 11
180.4466751056
 21
145.4545817995
 31
0.0
  0
LINE
  5
2BD
330
1F
100
AcDbEntity
  8
0
  6
HIDDEN
 62
     7
370
     0
100
AcDbLine
 10
180.4466751056
 20
145.4545817995
 30
0.0
 11
177.8930174747
 21
149.7045817995
 31
0.0
  0
LINE
  5
2BE
330
1F
100
AcDbEntity
  8
0
  6
HIDDEN
 62
     7
370
     0
100
AcDbLine
 10
107.265542834
 20
125.5320564402
 30
0.0
 11
105.3430174747
 21
127.4545817995
 31
0.0
  0
LINE
  5
2BF
330
1F
100
AcDbEntity
  8
0
  6
HIDDEN
 62
     7
370
     0
100
AcDbLine
 10
105.3430174747
 20
127.4545817995
 30
0.0
 11
98.8930174747
 21
127.4545817995
 31
0.0
  0
LINE
  5
2C0
330
1F
100
AcDbEntity
  8
0
  6
HIDDEN
 62
     7
370
     0
100
AcDbLine
 10
125.4430174747
 20
159.4470928724
 30
0.0
 11
125.4430174747
 21
162.9545817995
 31
0.0
  0
LINE
  5
2C1
330
1F
100
AcDbEntity
  8
0
  6
HIDDEN
 62
     7
370
     0
100
AcDbLine
 10
117.3430174747
 20
162.9545817995
 30
0.0
 11
117.3430174747
 21
159.4526857998
 31
0.0
  0
LINE
  5
2C2
330
1F
100
AcDbEntity
  8
0
  6
HIDDEN
 62
     7
370
     0
100
AcDbLine
 10
125.4430174747
 20
125.4568258192
 30
0.0
 11
125.4430174747
 21
131.4573999923
 31
0.0
  0
LINE
  5
2C3
330
1F
100
AcDbEntity
  8
0
  6
HIDDEN
 62
     7
370
     0
100
AcDbLine
 10
117.3430174747
 20
131.4564777992
 30
0.0
 11
117.3430174747
 21
125.4568258192
 31
0.0
  0
LINE
  5
2C4
330
1F
100
AcDbEntity
  8
0
  6
HIDDEN
 62
     7
370
     0
100
AcDbLine
 10
125.4430174747
 20
162.9545817995
 30
0.0
 11
121.3930174747
 21
165.3880673065
 31
0.0
  0
LINE
  5
2C5
330
1F
100
AcDbEntity
  8
0
  6
HIDDEN
 62
     7
370
     0
100
AcDbLine
 10
121.3930174747
 20
165.3880673065
 30
0.0
 11
117.3430174747
 21
162.9545817995
 31
0.0
  0
LINE
  5
2C6
330
1F
100
AcDbEntity
  8
0
  6
HIDDEN
 62
     7
370
     0
100
AcDbLine
 10
224.3348835911
 20
132.3156692587
 30
0.0
 11
225.3073133861
 21
137.8305926756
 31
0.0
  0
LINE
  5
2C7
330
1F
100
AcDbEntity
  8
0
  6
HIDDEN
 62
     7
370
     0
100
AcDbLine
 10
170.8930174747
 20
176.9545817995
 30
0.0
 11
170.8930174747
 21
169.9545817995
 31
0.0
  0
LINE
  5
2C8
330
1F
100
AcDbEntity
  8
0
  6
HIDDEN
 62
     7
370
     0
100
AcDbLine
 10
176.8930174747
 20
169.9545817995
 30
0.0
 11
176.8930174747
 21
176.9545817995
 31
0.0
  0
LINE
  5
2C9
330
1F
100
AcDbEntity
  8
0
  6
HIDDEN
 62
     7
370
     0
100
AcDbLine
 10
170.8930174747
 20
169.9545817995
 30
0.0
 11
171.3930174747
 21
169.65415149
 31
0.0
  0
LINE
  5
2CA
330
1F
100
AcDbEntity
  8
0
  6
HIDDEN
 62
     7
370
     0
100
AcDbLine
 10
176.3930174747
 20
169.65415149
 30
0.0
 11
176.8930174747
 21
169.9545817995
 31
0.0
  0
LINE
  5
2CB
330
1F
100
AcDbEntity
  8
0
  6
HIDDEN
 62
     7
370
     0
100
AcDbLine
 10
176.3930174747
 20
162.483567861
 30
0.0
 11
187.4817354867
 21
158.8806249729
 31
0.0
  0
LINE
  5
2CC
330
1F
100
AcDbEntity
  8
0
  6
HIDDEN
 62
     7
370
     0
100
AcDbLine
 10
185.9387038424
 20
164.6392974673
 30
0.0
 11
176.3930174747
 21
167.7408789822
 31
0.0
  0
LINE
  5
2CD
330
1F
100
AcDbEntity
  8
0
  6
HIDDEN
 62
     7
370
     0
100
AcDbLine
 10
171.3930174747
 20
169.65415149
 30
0.0
 11
171.3930174747
 21
149.7045817995
 31
0.0
  0
LINE
  5
2CE
330
1F
100
AcDbEntity
  8
0
  6
HIDDEN
 62
     7
370
     0
100
AcDbLine
 10
176.3930174747
 20
167.7408789822
 30
0.0
 11
176.3930174747
 21
169.65415149
 31
0.0
  0
LINE
  5
2CF
330
1F
100
AcDbEntity
  8
0
  6
HIDDEN
 62
     7
370
     0
100
AcDbLine
 10
176.3930174747
 20
149.7030266969
 30
0.0
 11
176.3930174747
 21
162.483567861
 31
0.0
  0
LINE
  5
2D0
330
1F
100
AcDbEntity
  8
0
  6
HIDDEN
 62
     7
370
     0
100
AcDbLine
 10
146.8930174747
 20
114.4545817995
 30
0.0
 11
146.8930174747
 21
113.9545817995
 31
0.0
  0
LINE
  5
2D1
330
1F
100
AcDbEntity
  8
0
  6
HIDDEN
 62
     7
370
     0
100
AcDbLine
 10
150.8930174747
 20
113.9545817995
 30
0.0
 11
150.8930174747
 21
114.4545817995
 31
0.0
  0
LINE
  5
2D2
330
1F
100
AcDbEntity
  8
0
  6
HIDDEN
 62
     7
370
     0
100
AcDbLine
 10
150.8930174747
 20
114.4545817995
 30
0.0
 11
148.8930174747
 21
115.6563030375
 31
0.0
  0
LINE
  5
2D3
330
1F
100
AcDbEntity
  8
0
  6
HIDDEN
 62
     7
370
     0
100
AcDbLine
 10
148.8930174747
 20
115.6563030375
 30
0.0
 11
146.8930174747
 21
114.4545817995
 31
0.0
  0
LINE
  5
2D4
330
1F
100
AcDbEntity
  8
0
  6
HIDDEN
 62
     7
370
     0
100
AcDbLine
 10
208.9244148282
 20
150.0815730752
 30
0.0
 11
207.3233786301
 21
141.0016455923
 31
0.0
  0
LINE
  5
2D5
330
1F
100
AcDbEntity
  8
VERMASSUNG
100
AcDbLine
 10
236.8930174747
 20
145.4545817995
 30
0.0
 11
236.8930174747
 21
149.2880005197
 31
0.0
  0
LINE
  5
2D6
330
1F
100
AcDbEntity
  8
VERMASSUNG
  6
CENTERX2
100
AcDbLine
 10
94.7712736367
 20
145.4545817995
 30
0.0
 11
236.8930174747
 21
145.4545817995
 31
0.0
  0
DIMENSION
  5
2D7
330
1F
100
AcDbEntity
  8
VERMASSUNG
100
AcDbDimension
  2
_D_1
 10
236.8930174747
 20
186.9545817995
 30
0.0
 11
186.8930174747
 21
186.9545817995
 31
0.0
 70
   160
  1
<>
 71
     2
 42
-1.0
  3
SLDDIMSTYLE0
100
AcDbAlignedDimension
 13
136.8930174747
 23
176.4545817995
 33
0.0
 14
236.8930174747
 24
149.2880005197
 34
0.0
100
AcDbRotatedDimension
  0
DIMENSION
  5
2E1
330
1F
100
AcDbEntity
  8
VERMASSUNG
100
AcDbDimension
  2
_D_2
 10
236.8930174747
 20
192.9545817995
 30
0.0
 11
167.8930174747
 21
192.9545817995
 31
0.0
 70
   160
  1
<>
 71
     2
 42
-1.0
  3
SLDDIMSTYLE0
100
AcDbAlignedDimension
 13
98.8930174747
 23
165.6406975685
 33
0.0
 14
236.8930174747
 24
149.2880005197
 34
0.0
 50
0.0
100
AcDbRotatedDimension
  0
OLE2FRAME
  5
2EB
330
1F
100
AcDbEntity
  8
0
100
AcDbOle2Frame
 70
     2
  3
Paintbrush-Bild
 10
13.8511154363
 20
38.264191557
 30
0.0
 11
51.6290888628
 21
31.9806341108
 31
0.0
 71
     2
 72
     0
 73
     1
 90
    12928
310
80552BED0767C5B32B40DDAF6807D121434000000000000000006FFBDDFB85D0
310
4940DDAF6807D121434000000000000000006FFBDDFB85D04940416F4BD60AFB
310
3F4000000000000000002BED0767C5B32B40416F4BD60AFB3F40000000000000
310
0000000000000100000000010000010000000100000000000100000000320000
310
D0CF11E0A1B11AE1000000000000000000000000000000003E000300FEFF0900
310
0600000000000000000000000100000001000000000000000010000002000000
310
01000000FEFFFFFF0000000000000000FFFFFFFFFFFFFFFFFFFFFFFFFFFFFFFF
310
FFFFFFFFFFFFFFFFFFFFFFFFFFFFFFFFFFFFFFFFFFFFFFFFFFFFFFFFFFFFFFFF
310
FFFFFFFFFFFFFFFFFFFFFFFFFFFFFFFFFFFFFFFFFFFFFFFFFFFFFFFFFFFFFFFF
310
FFFFFFFFFFFFFFFFFFFFFFFFFFFFFFFFFFFFFFFFFFFFFFFFFFFFFFFFFFFFFFFF
310
FFFFFFFFFFFFFFFFFFFFFFFFFFFFFFFFFFFFFFFFFFFFFFFFFFFFFFFFFFFFFFFF
310
FFFFFFFFFFFFFFFFFFFFFFFFFFFFFFFFFFFFFFFFFFFFFFFFFFFFFFFFFFFFFFFF
310
FFFFFFFFFFFFFFFFFFFFFFFFFFFFFFFFFFFFFFFFFFFFFFFFFFFFFFFFFFFFFFFF
310
FFFFFFFFFFFFFFFFFFFFFFFFFFFFFFFFFFFFFFFFFFFFFFFFFFFFFFFFFFFFFFFF
310
FFFFFFFFFFFFFFFFFFFFFFFFFFFFFFFFFFFFFFFFFFFFFFFFFFFFFFFFFFFFFFFF
310
FFFFFFFFFFFFFFFFFFFFFFFFFFFFFFFFFFFFFFFFFFFFFFFFFFFFFFFFFFFFFFFF
310
FFFFFFFFFFFFFFFFFFFFFFFFFFFFFFFFFFFFFFFFFFFFFFFFFFFFFFFFFFFFFFFF
310
FFFFFFFFFFFFFFFFFFFFFFFFFFFFFFFFFFFFFFFFFFFFFFFFFFFFFFFFFFFFFFFF
310
FFFFFFFFFFFFFFFFFFFFFFFFFFFFFFFFFFFFFFFFFFFFFFFFFFFFFFFFFFFFFFFF
310
FFFFFFFFFFFFFFFFFFFFFFFFFFFFFFFFFFFFFFFFFFFFFFFFFFFFFFFFFFFFFFFF
310
FDFFFFFFFEFFFFFFFEFFFFFFFEFFFFFF05000000060000000700000008000000
310
090000000A0000000B0000000C0000000D0000000E0000000F00000010000000
310
11000000120000001300000014000000150000001600000017000000FEFFFFFF
310
FFFFFFFFFFFFFFFFFFFFFFFFFFFFFFFFFFFFFFFFFFFFFFFFFFFFFFFFFFFFFFFF
310
FFFFFFFFFFFFFFFFFFFFFFFFFFFFFFFFFFFFFFFFFFFFFFFFFFFFFFFFFFFFFFFF
310
FFFFFFFFFFFFFFFFFFFFFFFFFFFFFFFFFFFFFFFFFFFFFFFFFFFFFFFFFFFFFFFF
310
FFFFFFFFFFFFFFFFFFFFFFFFFFFFFFFFFFFFFFFFFFFFFFFFFFFFFFFFFFFFFFFF
310
FFFFFFFFFFFFFFFFFFFFFFFFFFFFFFFFFFFFFFFFFFFFFFFFFFFFFFFFFFFFFFFF
310
FFFFFFFFFFFFFFFFFFFFFFFFFFFFFFFFFFFFFFFFFFFFFFFFFFFFFFFFFFFFFFFF
310
FFFFFFFFFFFFFFFFFFFFFFFFFFFFFFFFFFFFFFFFFFFFFFFFFFFFFFFFFFFFFFFF
310
FFFFFFFFFFFFFFFFFFFFFFFFFFFFFFFFFFFFFFFFFFFFFFFFFFFFFFFFFFFFFFFF
310
FFFFFFFFFFFFFFFFFFFFFFFFFFFFFFFFFFFFFFFFFFFFFFFFFFFFFFFFFFFFFFFF
310
FFFFFFFFFFFFFFFFFFFFFFFFFFFFFFFFFFFFFFFFFFFFFFFFFFFFFFFFFFFFFFFF
310
FFFFFFFFFFFFFFFFFFFFFFFFFFFFFFFFFFFFFFFFFFFFFFFFFFFFFFFFFFFFFFFF
310
FFFFFFFFFFFFFFFFFFFFFFFFFFFFFFFFFFFFFFFFFFFFFFFFFFFFFFFFFFFFFFFF
310
FFFFFFFFFFFFFFFFFFFFFFFFFFFFFFFFFFFFFFFFFFFFFFFFFFFFFFFFFFFFFFFF
310
52006F006F007400200045006E00740072007900000000000000000000000000
310
0000000000000000000000000000000000000000000000000000000000000000
310
16000500FFFFFFFFFFFFFFFF020000000A00030000000000C000000000000046
310
000000000000000000000000B0A960D6383FCD0103000000C000000000000000
310
01004F006C006500000000000000000000000000000000000000000000000000
310
0000000000000000000000000000000000000000000000000000000000000000
310
0A000200FFFFFFFFFFFFFFFFFFFFFFFF00000000000000000000000000000000
310
0000000000000000000000000000000000000000000000001400000000000000
310
010043006F006D0070004F0062006A0000000000000000000000000000000000
310
0000000000000000000000000000000000000000000000000000000000000000
310
120002010100000003000000FFFFFFFF00000000000000000000000000000000
310
0000000000000000000000000000000000000000010000004D00000000000000
310
01004F006C006500310030004E00610074006900760065000000000000000000
310
0000000000000000000000000000000000000000000000000000000000000000
310
1A000200FFFFFFFFFFFFFFFFFFFFFFFF00000000000000000000000000000000
310
0000000000000000000000000000000000000000040000002426000000000000
310
FEFFFFFF02000000FEFFFFFFFFFFFFFFFFFFFFFFFFFFFFFFFFFFFFFFFFFFFFFF
310
FFFFFFFFFFFFFFFFFFFFFFFFFFFFFFFFFFFFFFFFFFFFFFFFFFFFFFFFFFFFFFFF
310
FFFFFFFFFFFFFFFFFFFFFFFFFFFFFFFFFFFFFFFFFFFFFFFFFFFFFFFFFFFFFFFF
310
FFFFFFFFFFFFFFFFFFFFFFFFFFFFFFFFFFFFFFFFFFFFFFFFFFFFFFFFFFFFFFFF
310
FFFFFFFFFFFFFFFFFFFFFFFFFFFFFFFFFFFFFFFFFFFFFFFFFFFFFFFFFFFFFFFF
310
FFFFFFFFFFFFFFFFFFFFFFFFFFFFFFFFFFFFFFFFFFFFFFFFFFFFFFFFFFFFFFFF
310
FFFFFFFFFFFFFFFFFFFFFFFFFFFFFFFFFFFFFFFFFFFFFFFFFFFFFFFFFFFFFFFF
310
FFFFFFFFFFFFFFFFFFFFFFFFFFFFFFFFFFFFFFFFFFFFFFFFFFFFFFFFFFFFFFFF
310
FFFFFFFFFFFFFFFFFFFFFFFFFFFFFFFFFFFFFFFFFFFFFFFFFFFFFFFFFFFFFFFF
310
FFFFFFFFFFFFFFFFFFFFFFFFFFFFFFFFFFFFFFFFFFFFFFFFFFFFFFFFFFFFFFFF
310
FFFFFFFFFFFFFFFFFFFFFFFFFFFFFFFFFFFFFFFFFFFFFFFFFFFFFFFFFFFFFFFF
310
FFFFFFFFFFFFFFFFFFFFFFFFFFFFFFFFFFFFFFFFFFFFFFFFFFFFFFFFFFFFFFFF
310
FFFFFFFFFFFFFFFFFFFFFFFFFFFFFFFFFFFFFFFFFFFFFFFFFFFFFFFFFFFFFFFF
310
FFFFFFFFFFFFFFFFFFFFFFFFFFFFFFFFFFFFFFFFFFFFFFFFFFFFFFFFFFFFFFFF
310
FFFFFFFFFFFFFFFFFFFFFFFFFFFFFFFFFFFFFFFFFFFFFFFFFFFFFFFFFFFFFFFF
310
FFFFFFFFFFFFFFFFFFFFFFFFFFFFFFFFFFFFFFFFFFFFFFFFFFFFFFFFFFFFFFFF
310
0100000200000000000000000000000000000000000000000000000000000000
310
0000000000000000000000000000000000000000000000000000000000000000
310
0100FEFF030A0000FFFFFFFF0A00030000000000C00000000000004607000000
310
5042727573680007000000504272757368000700000050427275736800F439B2
310
7100000000000000000000000000000000000000000000000000000000000000
310
0000000000000000000000000000000000000000000000000000000000000000
310
0000000000000000000000000000000000000000000000000000000000000000
310
0000000000000000000000000000000000000000000000000000000000000000
310
0000000000000000000000000000000000000000000000000000000000000000
310
0000000000000000000000000000000000000000000000000000000000000000
310
0000000000000000000000000000000000000000000000000000000000000000
310
0000000000000000000000000000000000000000000000000000000000000000
310
0000000000000000000000000000000000000000000000000000000000000000
310
0000000000000000000000000000000000000000000000000000000000000000
310
0000000000000000000000000000000000000000000000000000000000000000
310
0000000000000000000000000000000000000000000000000000000000000000
310
20260000424D0E260000000000003E00000028000000B40200006E0000000100
310
01000000000000000000130B0000130B00000200000002000000000000FFFFFF
310
FFFFFFFFFFFFFFFFFFFFFFFFFFFFFFFFFFFFFFFFFFFFFFFFFFFFFFFFFFFFFFFF
310
FFFFFFFFFFFFFFFFFFFFFFFFFFFFFFFFFFFFFFFFFFFFFFFFFFFFFFFFFFFFFFFF
310
FFFFFFFFFFFFFFFFFFFFFFFFFFFFFFFFFFFFFFFFFFFFFFFFF000FFFFFFFFFFFF
310
FFFFFFFFFFFFFFFFFFFFFFFFFFFFFFFFFFFFFFFFFFFFFFFFFFFFFFFFFFFFFFFF
310
FFFFFFFFFFFFFFFFFFFFFFFFFFFFFFFFFFFFFFFFFFFFFFFFFFFFFFFFFFFFFFFF
310
FFFFFFFFFFFFFFFFFFFFFFFFFFFFFFFFF000FFFFFFFFFFFFFFFFFFFFFFFFFFFF
310
FFFFFFFFFFFFFFFFFFFFFFFFFFFFFFFFFFFFFFFFFFFFFFFFFFFFFFFFFFFFFFFF
310
FFFFFFFFFFFFFFFFFFFFFFFFFFFFFFFFFFFFFFFFFFFFFFFFFFFFFFFFFFFFFFFF
310
FFFFFFFFFFFFFFFFF000FFFFFFFFFFFFFFFFFFFFFFFFFFFFFFFFFFFFFFFFFFFF
310
FFFFFFFFFFFFFFFFFFFFFFFFFFFFFFFFFFFFFFFFFFFFFFFFFFFFFFFFFFFFFFFF
310
FFFFFFFFFFFFFFFFFFFFFFFFFFFFFFFFFFFFFFFFFFFFFFFFFFFFFFFFFFFFFFFF
310
F000FFFFFFFFFFFFFFFFFFFFFFFFFFFFFFFFFFFFFFFFFFFFFFFFFFFFFFFFFFFF
310
FFFFFFFFFFFFFFFFFFFFFFFFFFFFFFFFFFFFFFFFFFFFFFFFFFFFFFFFFFFFFFFF
310
FFFFFFFFFFFFFFFFFFFFFFFFFFFFFFFFFFFFFFFFFFFFFFFFF000FFFFFFFFFFFF
310
FFFFFFFFFFFFFFFFFFFFFFFFFFFFFFFFFFFFFFFFFFFFFFFFFFFFFFFFFFFFFFFF
310
FFFFFFFFFFFFFFFFFFFFFFFFFFFFFFFFFFFFFFFFFFFFFFFFFFFFFFFFFFFFFFFF
310
FFFFFFFFFFFFFFFFFFFFFFFFFFFFFFFFF000FFFFFFFFFFFFFFFFFFFFFFFFFFFF
310
FFFFFFFFFFFFFFFFFFFFFFFFFFFFFFFFFFFFFFFFFFFFFFFFFFFFFFFFFFFFFFFF
310
FFFFFFFFFFFFFFFFFFFFFFFFFFFFFFFFFFFFFFFFFFFFFFFFFFFFFFFFFFFFFFFF
310
FFFFFFFFFFFFFFFFF000FFFFFFFFFFFFFFFFFFFFFFFFFFFFFFFFFFFFFFFFFFFF
310
FFFFFFFFFFFFFFFFFFFFFFFFFFFFFFFFFFFFFFFFFFFFFFFFFFFFFFFFFFFFFFFF
310
FFFFFFFFFFFFFFFFFFFFFFFFFFFFFFFFFFFFFFFFFFFFFFFFFFFFFFFFFFFFFFFF
310
F000FFFFFFFFFFFFFFFFFFFFFFFFFFFFFFFFFFFFFFFFFFFFFFFFFFFFFFFFFFFF
310
FFFFFFFFFFFFFFFFFFFFFFFFFFFFFFFFFFFFFFFFFFFFFFFFFFFFFFFFFFFFFFFF
310
FFFFFFFFFFFFFFFFFFFFFFFFFFFFFFFFFFFFFFFFFFFFFFFFF000FFFFFFFFFFFF
310
FFFFFFFFFFFFFFFFFFFFFFFFFFFFFFFFFFFFFFFFFFFFFFFFFFFFFFFFFFFFFFFF
310
FFFFFFFFFFFFFFFFFFFFFFFFFFFFFFFFFFFFFFFFFFFFFFFFFFFFFFFFFFFFFFFF
310
FFFFFFFFFFFFFFFFFFFFFFFFFFFFFFFFF000FFFFFFFFFFFFFFFFFFFFFFFFFFFF
310
FFFFFFFFFFFFFFFFFFFFFFFFFFFFFFFFFFFFFFFFFFFFFFFFFFFFFFFFFFFFFFFF
310
FFFFFFFFFFFFFFFFFFFFFFFFFFFFFFFFFFFFFFFFFFFFFFFFFFFFFFFFFFFFFFFF
310
FFFFFFFFFFFFFFFFF000FFFFFFFFFFFFFFFFFFFFFFFFFFFFFFFFFFFFFFFFFFFF
310
FFFFFFFFFFFFFFFFFFFFFFFFFFFFFFFFFFFFFFFFFFFFFFFFFFFFFFFFFFFFFFFF
310
FFFFFFFFFFFFFFFFFFFFFFFFFFFFFFFFFFFFFFFFFFFFFFFFFFFFFFFFFFFFFFFF
310
F000FFFFFFFFFFFFFFFFFFFFFFFFFFFFFFFFFFFFFFFFFFFFFFFFFFFFFFFFFFFF
310
FFFFFFFFFFFFFFFFFFFFFFFFFFFFFFFFFFFFFFFFFFFFFFFFFFFFFFFFFFFFFFFF
310
FFFFFFFFFFFFFFFFFFFFFFFFFFFFFFFFFFFFFFFFFFFFFFFFF000FFFFFFFFFFFF
310
FFFFFFFFFFFFFFFFFFFFFFFFFFFFFFFFFFFFFFFFFFFFFFFFFFFFFFFFFFFFFFFF
310
FFFFFFFFFFFFFFFFFFFFFFFFFFFFFFFFFFFFFFFFFFFFFFFFFFFFFFFFFFFFFFFF
310
FFFFFFFFFFFFFFFFFFFFFFFFFFFFFFFFF000FFFFFFFFFFFFFFFFFFFFFFFFFFFF
310
FFFFFFFFFFFFFFFFFFFFFFFFFFFFFFFFFFFFFFFFFFFFFFFFFFFFFFFFFFFFFFFF
310
FFFFFFFFFFFFFFFFFFFFFFFFFFFFFFFFFFFFFFFFFFFFFFFFFFFFFFFFFFFFFFFF
310
FFFFFFFFFFFFFFFFF000FFFFFFFFFFFFFFFFFFFFFFFFFFFFFFFFFFFFFFFFFFFF
310
FFFFFFFFFFFFFFFFFFFFFFFFFFFFFFFFFFFFFFFFFFFFFFFFFFFFFFFFFFFFFFFF
310
FFFFFFFFFFFFFFFFFFFFFFFFFFFFFFFFFFFFFFFFFFFFFFFFFFFFFFFFFFFFFFFF
310
F000FFFFFFFFFFFFFFFFFFFFFFFFFFFFFFFFFFFFFFFFFFFFFFFFFFFFFFFFFFFF
310
FFFFFFFFFFFFFFFFFFFFFFFFFFFFFFFFFFFFFFFFFFFFFFFFFFFFFFFFFFFFFFFF
310
FFFFFFFFFFFFFFFFFFFFFFFFFFFFFFFFFFFFFFFFFFFFFFFFF000FFFFFFFFFFFF
310
FFFFFFFFFFFFFFFFFFFFFFFFFFFFFFFFFFFFFFFFFFFFFFFFFFFFFFFFFFFFFFFF
310
FFFFFFFFFFFFFFFFFFFFFFFFFFFFFFFFFFFFFFFFFFFFFFFFFFFFFFFFFFFFFFFF
310
FFFFFFFFFFFFFFFFFFFFFFFFFFFFFFFFF000FFFFFFFFFFFFFFFFFFFFFFFFFFFF
310
FFFFFFFFFFFFFFFFFFFFFFFFFFFFFFFFFFFFFFFFFFFFFFFFFFFFFFFFFFFFFFFF
310
FFFFFFFFFFFFFFFFFFFFFFFFFFFFFFFFFFFFFFFFFFFFFFFFFFFFFFFFFFFFFFFF
310
FFFFFFFFFFFFFFFFF000FFFFF80003FFFFFFFFFFFFFFFFFFFFFFFFFFFFFFFFFF
310
FFFFF00007FFFFFFFFFF00007FFFFFF800000000000000007FFFFFFFFFFFFFFF
310
FFFFFFFC001FFFFFFFFFFFFFFC001FFFFFFFFFFFFFFFFFFFFFFFFFFE0007FFFF
310
F000FFFF8000007FFFFFFFF8000FFFFFC0007FFFFF80007FFFFF0000007FFFFF
310
FFF8000007FFFFF800000000000000007FFFFFF0001FFFFFFFFFFFC00001FFFF
310
FFFFFFFFC00001FFFFFFFF000000000003FFFFE000007FFFF000FFFE0000000F
310
FFFFFFF0000FFFFF80007FFFFF80007FFFFC0000001FFFFFFFC0000001FFFFF8
310
00000000000000007FFFFFF0001FFFFFFFFFFE0000003FFFFFFFFFFE0000003F
310
FFFFFF000000000003FFFF0000000FFFF000FFF800000003FFFFFFF00007FFFF
310
80007FFFFF80007FFFF000000007FFFFFF000000003FFFF80000000000000000
310
7FFFFFF0001FFFFFFFFFF80000000FFFFFFFFFF80000000FFFFFFF0000000000
310
03FFFC00000003FFF000FFE000000000FFFFFFF00007FFFF80003FFFFF80007F
310
FFC000000001FFFFFC000000001FFFF800000000000000007FFFFFF0001FFFFF
310
FFFFE000000003FFFFFFFFE000000003FFFFFF000000000003FFF000000000FF
310
F000FF80000000007FFFFFF00007FFFF80003FFFFF80007FFF8000000000FFFF
310
F80000000007FFF800000000000000007FFFFFF0001FFFFFFFFFC000000001FF
310
FFFFFFC000000001FFFFFF000000000003FFC0000000007FF000FF0000000000
310
3FFFFFE00007FFFF00003FFFFF80007FFE00000000003FFFF00000000003FFF8
310
00000000000000007FFFFFF0001FFFFFFFFF8000000000FFFFFFFF8000000000
310
FFFFFF000000000003FF80000000003FF000FE00000000001FFFFFE00003FFFF
310
00003FFFFF80007FFC00000000001FFFE00000000001FFF8000001FFFE000000
310
7FFFFFF0001FFFFFFFFE00000000003FFFFFFE00000000003FFFFF0000000000
310
03FF00000000001FF000FC00000000000FFFFFE00003FFFF00001FFFFF80007F
310
F800000000001FFFC00000000000FFF8000001FFFE0000007FFFFFF0001FFFFF
310
FFFC00000000001FFFFFFC00000000001FFFFF000000000003FE00000000000F
310
F000F8000000000007FFFFE00003FFFF00001FFFFF80007FF800000000000FFF
310
800000000000FFF8000001FFFE0000007FFFFFF0001FFFFFFFF800000000000F
310
FFFFF800000000000FFFFF000000000003FC000000000007F000F80000000000
310
03FFFFC00003FFFE00001FFFFF80007FF0000000000007FF0000000000007FF8
310
000001FFFE0000007FFFFFF0001FFFFFFFF0000000000007FFFFF00000000000
310
07FFFF000000000003F8000000000003F000F0000000000003FFFFC00001FFFE
310
00001FFFFF80007FE0000000000007FE0000000000003FF8000001FFFE000000
310
7FFFFFF0001FFFFFFFF0000000000007FFFFF0000000000007FFFF0000000000
310
03F800001F800003F000E00001FFF00001FFFFC00001FFFE00000FFFFF80007F
310
E00001FFE00003FE00001FFF00003FF8000001FFFE0000007FFFFFF0001FFFFF
310
FFE000003E000003FFFFE000003E000003FFFF000000000003F00001FFF80001
310
F000E00007FFFC0001FFFFC00001FFFE00000FFFFF80007FC0000FFFFC0003FC
310
0000FFFFC0001FF8000001FFFE0000007FFFFFF0001FFFFFFFC00003FFE00001
310
FFFFC00003FFE00001FFFF0001FFFFFFFFF00007FFFE0001F000E0000FFFFF00
310
00FFFF800001FFFC00000FFFFF80007FC0001FFFFE0001FC0001FFFFE0001FF8
310
000001FFFE0000007FFFFFF0001FFFFFFF80000FFFF80000FFFF80000FFFF800
310
00FFFF0003FFFFFFFFE0000FFFFF8000F000C0003FFFFF8000FFFF800000FFFC
310
000007FFFF80007F80003FFFFF0001FC0003FFFFF0001FF8000001FFFE000000
310
7FFFFFF0001FFFFFFF80003FFFFE0000FFFF80003FFFFE0000FFFF0003FFFFFF
310
FFE0003FFFFF8000F000C0003FFFFF8000FFFF800000FFFC000007FFFF80007F
310
80007FFFFF8001F80007FFFFF8000FF8000001FFFE0000007FFFFFF0001FFFFF
310
FF00007FFFFF00007FFF00007FFFFF00007FFF0003FFFFFFFFE0003FFFFFC000
310
F000C0007FFFFFC000FFFF000000FFFC000007FFFF80007F8000FFFFFF8000F8
310
000FFFFFF8000FF8000001FFFE0000007FFFFFF0001FFFFFFF0000FFFFFF8000
310
7FFF0000FFFFFF80007FFF0003FFFFFFFFC0007FFFFFC00070008000FFFFFFC0
310
00FFFF000000FFF8000007FFFF80007F8000FFFFFF8000F8000FFFFFF8000FF8
310
000001FFFE0000007FFFFFF0001FFFFFFE0001FFFFFFC0003FFE0001FFFFFFC0
310
003FFF0003FFFFFFFFC0007FFFFFE00070008000FFFFFFC0007FFF0000007FF8
310
000003FFFF80007F0001FFFFFF8000F8000FFFFFF8000FF8000001FFFE000000
310
7FFFFFF0001FFFFFFE0001FFFFFFC0003FFE0001FFFFFFC0003FFF0003FFFFFF
310
FFC000FFFFFFE00070008000FFFFFFC0007FFF0000007FF8000003FFFF80007F
310
0001FFFFFF8000F8001FFFFFF8000FF8000001FFFE0000007FFFFFF0001FFFFF
310
FE0003FFFFFFE0003FFE0003FFFFFFE0003FFF0003FFFFFFFFC000FFFFFFE000
310
70008000FFFFFFC0007FFE0000007FF8000003FFFF80007F0001FFFFFF8000F0
310
001FFFFFF8000FF8000001FFFE0000007FFFFFF0001FFFFFFC0003FFFFFFE000
310
1FFC0003FFFFFFE0001FFF0003FFFFFFFFC000FFFFFFC00070008000FFFFFF80
310
007FFE0000007FF0000003FFFF80007F0001FFFFFF0000F0001FFFFFF8000FF8
310
000001FFFE0000007FFFFFF0001FFFFFFC0007FFFFFFF0001FFC0007FFFFFFF0
310
001FFF0003FFFFFFFFC000FFFFFFC00070008001FFFFFF0000FFFE0000003FF0
310
000001FFFF80007F0001FFFFFF0000F8001FFFFFF0000FF8000001FFFE000000
310
7FFFFFF0001FFFFFFC0007FFFFFFF0001FFC0007FFFFFFF0001FFF0003FFFFFF
310
FFC001FFFFFF80007000FFFFFFFFFE0000FFFE0008003FF0008001FFFF80007F
310
FFFFFFFFFC0000FFFFFFFFFFE0000FF8000001FFFE0000007FFFFFF0001FFFFF
310
F8000FFFFFFFF8000FF8000FFFFFFFF8000FFF0003FFFFFFFFFFFFFFFFFF0000
310
7000FFFFFFFFFC0000FFFC0008003FF0008001FFFF80007FFFFFFFFFF80001FF
310
FFFFFFFF80000FF8000001FFFE0000007FFFFFF0001FFFFFF8000FFFFFFFF800
310
0FF8000FFFFFFFF8000FFF0003FFFFFFFFFFFFFFFFFE0000F000FFFFFFFFE000
310
00FFFC000C003FE000C001FFFF80007FFFFFFFFFC00001FFFFFFFFFE00001FF8
310
000001FFFE0000007FFFFFF0001FFFFFF8000FFFFFFFF8000FF8000FFFFFFFF8
310
000FFF0003FFFFFFFFFFFFFFFFF00000F000FFFFFFFE000001FFFC000C001FE0
310
00C000FFFF80007FFFFFFFFE000001FFFFFFFFE000001FF80FFFFFFFFFFFFFC0
310
7FFFFFF0001FFFFFF8000FFFFFFFF8000FF8000FFFFFFFF8000FFF0003FFFFFF
310
FFFFFFFFFF800000F000FFFFFFC0000001FFFC001C001FE001C000FFFF80007F
310
FFFFFF80000003FFFFFFF80000001FF80FFFFFFFFFFFFFC07FFFFFF0001FFFFF
310
F8001FFFFFFFFC000FF8001FFFFFFFFC000FFF0003FFFFFFFFFFFFFFF0000001
310
F000FFFFF800000001FFF8001C001FE001C000FFFF80007FFFFFF800000003FF
310
FFFF800000003FF80FFFFFFFFFFFFFC07FFFFFF0001FFFFFF8001FFFFFFFFC00
310
0FF8001FFFFFFFFC000FFF0003FFFFFFFFFFFFFE00000001F000FFFFC0000000
310
03FFF8001E001FC001E000FFFF80007FFFFF8000000007FFFFFC000000003FF8
310
0FFFFFFFFFFFFFC07FFFFFF0001FFFFFF8001FFFFFFFFC000FF8001FFFFFFFFC
310
000FFF0003FFFFFFFFFFFFE000000003F000FFFE0000000007FFF8001E000FC0
310
01E0007FFF80007FFFFE0000000007FFFFE0000000007FF80FFFFFFFFFFFFFC0
310
7FFFFFF0001FFFFFF0001FFFFFFFFC0007F0001FFFFFFFFC0007FF0003FFFFFF
310
FFFFFF0000000003F000FFF80000000007FFF8001E000FC003E0007FFF80007F
310
FFF0000000000FFFFF8000000000FFF80FFFFFFFFFFFFFC07FFFFFF0001FFFFF
310
F0001FFFFFFFFC0007F0001FFFFFFFFC0007FF0003FFFFFFFFFFFC0000000007
310
F000FFE0000000000FFFF0003E000FC003E0007FFF80007FFFC0000000001FFF
310
FE0000000001FFF80FFFFFFFFFFFFFC07FFFFFF0001FFFFFF0001FFFFFFFFC00
310
07F0001FFFFFFFFC0007FF0003FFFFFFFFFFF0000000000FF000FFC000000000
310
1FFFF0003F000F8003F0003FFF80007FFF80000000003FFFF80000000003FFF8
310
0FFFFFFFFFFFFFC07FFFFFF0001FFFFFF0001FFFFFFFFC0007F0001FFFFFFFFC
310
0007FF0003FFFFFFFFFFE0000000001FF000FF00000000007FFFF0003F000780
310
03F0003FFF80007FFF00000000007FFFF00000000007FFF80FFFFFFFFFFFFFC0
310
7FFFFFF0001FFFFFF0001FFFFFFFFC0007F0001FFFFFFFFC0007FF0003FFFFFF
310
FFFF80000000007FF000FE0000000000FFFFE0003F00078007F0003FFF80007F
310
FE0000000001FFFFE0000000001FFFF80FFFFFFFFFFFFFC07FFFFFF0001FFFFF
310
F0001FFFFFFFFC0007F0001FFFFFFFFC0007FF0003FFFFFFFFFF0000000000FF
310
F000FC0000000003FFFFE0007F00078007F0003FFF80007FFC0000000007FFFF
310
C0000000007FFFF80FFFFFFFFFFFFFC07FFFFFF0001FFFFFF8001FFFFFFFFC00
310
0FF8001FFFFFFFFC000FFF0003FFFFFFFFFE0000000003FFF000FC000000000F
310
FFFFE0007F80070007F8001FFF80007FF8000000001FFFFF8000000001FFFFF8
310
0FFFFFFFFFFFFFC07FFFFFF0001FFFFFF8001FFFFFFFFC000FF8001FFFFFFFFC
310
000FFF0003FFFFFFFFFC000000000FFFF000F8000000007FFFFFE0007F800700
310
07F8001FFF80007FF000000000FFFFFF800000000FFFFFF80FFFFFFFFFFFFFC0
310
7FFFFFF0001FFFFFF8000FFFFFFFF8000FF8000FFFFFFFF8000FFF0003FFFFFF
310
FFFC000000007FFFF000F800000007FFFFFFC0007F8003000FF8001FFF80007F
310
F000000007FFFFFF000000007FFFFFF80FFFFFFFFFFFFFC07FFFFFF0001FFFFF
310
F8000FFFFFFFF8000FF8000FFFFFFFF8000FFF0003FFFFFFFFF80000000FFFFF
310
F000F0000000FFFFFFFFC000FF8003000FF8001FFF80007FE0000000FFFFFFFF
310
0000000FFFFFFFF8000001FFFE0000007FFFFFF0001FFFFFF8000FFFFFFFF800
310
0FF8000FFFFFFFF8000FFF0003FFFFFFFFF8000000FFFFFFF000F000000FFFFF
310
FFFFC000FFC002000FF8000FFF80007FE000001FFFFFFFFE000001FFFFFFFFF8
310
000001FFFE0000007FFFFFF0001FFFFFF8000FFFFFFFF8000FF8000FFFFFFFF8
310
000FFF0003FFFFFFFFF000001FFFFFFFF000E00000FFFFFFFFFFC000FFC00200
310
0FFC000FFF80007FE00001FFFFFFFFFE00001FFFFFFFFFF8000001FFFE000000
310
7FFFFFF0001FFFFFFC000FFFFFFFF8001FFC000FFFFFFFF8001FFF0003FFFFFF
310
FFF00001FFFFFFFFF000E00007FFFFFFFFFF8000FFC000001FFC000FFF80007F
310
C0000FFFFFFFFFFE0000FFFFFFFFFFF8000001FFFE0000007FFFFFF0001FFFFF
310
FC0007FFFFFFF0001FFC0007FFFFFFF0001FFF0003FFFFFFFFF00007FFFFFFFF
310
F000E0001FFFFFFFFFFF8000FFC000001FFC000FFF80007FC0003FFFFFFFFFFE
310
0001FFFFFFFFFFF8000001FFFE0000007FFFFFF0001FFFFFFC0007FFFFFFF000
310
1FFC0007FFFFFFF0001FFF0003FFFFFFFFF0001FFFFFFFFFF000E0003FFFFF00
310
03FF8001FFE000001FFC0007FF80007FC0007FFFFF0007FC0003FFFFF0003FF8
310
000001FFFE0000007FFFFFF0001FFFFFFC0003FFFFFFE0001FFC0003FFFFFFE0
310
001FFF0003FFFFFFFFF0003FFFFFFFFFF000E0003FFFFF0001FF8001FFE00000
310
1FFE0007FF80007FC0007FFFFE0003FC0007FFFFE0003FF8000001FFFE000000
310
7FFFFFF0001FFFFFFE0003FFFFFFE0003FFE0003FFFFFFE0003FFF0003FFFFFF
310
FFF0003FFFFF8001F000E0003FFFFF0001FF0001FFE000001FFE0007FF80007F
310
C0007FFFFE0003FC0007FFFFE0003FF8000001FFFE0000007FFFFFF0001FFFFF
310
FE0001FFFFFFC0003FFE0001FFFFFFC0003FFF0003FFFFFFFFF0003FFFFF0001
310
F000E0003FFFFF0003FF0001FFE000003FFE0007FF80007FC0007FFFFE0003FC
310
0007FFFFE0003FF8000001FFFE0000007FFFFFF0001FFFFFFF0001FFFFFFC000
310
7FFF0001FFFFFFC0007FFF0003FFFFFFFFF0003FFFFF0001F000E0003FFFFE00
310
03FF0003FFF000003FFE0003FF80007FC0007FFFFC0003FE0007FFFFE0003FF8
310
000001FFFE0000007FFFFFF0001FFFFFFF0000FFFFFF80007FFF0000FFFFFF80
310
007FFF0003FFFFFFFFF0003FFFFF0001F000E0003FFFFE0003FF0003FFF00000
310
3FFF0003FF80007FC0007FFFFC0007FE0007FFFFC0003FF8000001FFFE000000
310
7FFFFFF0001FFFFFFF80007FFFFF0000FFFF80007FFFFF0000FFFF0003FFFFFF
310
FFF0003FFFFF0003F000E0003FFFFC0003FE0003FFF000003FFF0003FF80007F
310
E0003FFFF80007FE0003FFFFC0007FF8000001FFFE0000007FFFFFF0001FFFFF
310
FF80003FFFFE0000FFFF80003FFFFE0000FFFF0003FFFFFFFFF0001FFFFE0003
310
F000F0001FFFF80003FE0003FFF000007FFF0001FF80007FE0003FFFF00007FE
310
0001FFFF80007FF8000001FFFE0000007FFFFFF0001FFFFFFFC0000FFFF80001
310
FFFFC0000FFFF80001FFFF0003FFFFFFFFF0001FFFFC0003F000F0000FFFF000
310
07FE0007FFF800007FFF0001FF80007FE0001FFFE00007FF0000FFFE00007FF8
310
000001FFFE0000007FFFFFF0001FFFFFFFC00003FFE00001FFFFC00003FFE000
310
01FFFF0003FFFFFFFFF8000FFFF80003F000F00003FFC00007FC0007FFF80000
310
7FFF8001FF80007FF00007FF80000FFF00007FF80000FFF8000001FFFE000000
310
7F80000000000001FFE000003E000003FFFFE000003E000003FFFF0003FFFFFF
310
FFF80003FFE00007F000F800000000000FFC0007FFF800007FFF8001FF80007F
310
F000000000000FFF000000000000FFF8000001FFFE0000007F80000000000001
310
FFF0000000000007FFFFF0000000000007FFFF0003FFFFFFFFFC00007E000007
310
F000F800000000000FFC0007FFF80000FFFF8000FF80007FF800000000001FFF
310
800000000001FFF8000001FFFE0000007F80000000000001FFF800000000000F
310
FFFFF800000000000FFFFF0003FFFFFFFFFC00000000000FF000FC0000000000
310
1FFC0007FFFC0000FFFF8000FF80007FF800000000003FFFC00000000001FFF8
310
000001FFFE0000007F80000000000001FFF800000000000FFFFFF80000000000
310
0FFFFF0003FFFFFFFFFE00000000001FF000FE00000000003FF8000FFFFC0000
310
FFFF8000FF80007FFC00000000003FFFC00000000003FFF8000001FFFE000000
310
7F80000000000001FFFC00000000001FFFFFFC00000000001FFFFF0003FFFFFF
310
FFFF00000000001FF000FF00000000003FF8000FFFFC0000FFFFC000FF80007F
310
FE00000000007FFFE00000000007FFF8000001FFFE0000007F80000000000001
310
FFFE00000000003FFFFFFE00000000003FFFFF0003FFFFFFFFFF80000000003F
310
F000FF80000000007FF8000FFFFC0001FFFFC0007F80007FFF0000000000FFFF
310
F0000000000FFFF800000000000000007F80000000000001FFFF8000000000FF
310
FFFFFF8000000000FFFFFF0003FFFFFFFFFFC0000000007FF000FFC000000000
310
FFF8000FFFFE0001FFFFC0007F80007FFF8000000001FFFFF8000000001FFFF8
310
00000000000000007F80000000000001FFFFC000000001FFFFFFFFC000000001
310
FFFFFF0003FFFFFFFFFFE000000000FFF000FFE000000003FFF0001FFFFE0001
310
FFFFC0007F80007FFFC000000007FFFFFE000000003FFFF80000000000000000
310
7F80000000000001FFFFE000000003FFFFFFFFE000000003FFFFFF0003FFFFFF
310
FFFFF000000003FFF000FFF80000000FFFF0001FFFFE0001FFFFE0007F80007F
310
FFF00000000FFFFFFF00000000FFFFF800000000000000007F80000000000001
310
FFFFF80000000FFFFFFFFFF80000000FFFFFFF0003FFFFFFFFFFFC0000000FFF
310
F000FFFE0000003FFFF0001FFFFE0003FFFFE0003F80007FFFFC0000003FFFFF
310
FFC0000003FFFFF800000000000000007F80000000000001FFFFFE0000003FFF
310
FFFFFFFE0000003FFFFFFF0003FFFFFFFFFFFF0000003FFFF000FFFF800000FF
310
FFF0001FFFFF0003FFFFE0003F80007FFFFF000001FFFFFFFFF800001FFFFFF8
310
00000000000000007F80000000000001FFFFFFC00001FFFFFFFFFFFFC00001FF
310
FFFFFF0003FFFFFFFFFFFFC00000FFFFF000FFFFF8000FFFFFFFFFFFFFFFFFFF
310
FFFFFFFFFFFFFFFFFFFFF0001FFFFFFFFFFF0000FFFFFFF80000000000000000
310
7FFFFFFFFFFFFFFFFFFFFFFC001FFFFFFFFFFFFFFC001FFFFFFFFFFFFFFFFFFF
310
FFFFFFFC001FFFFFF000FFFFFFFFFFFFFFFFFFFFFFFFFFFFFFFFFFFFFFFFFFFF
310
FFFFFFFFFFFFFFFFFFFFFFFFFFFFFFFFFFFFFFFFFFFFFFFFFFFFFFFFFFFFFFFF
310
FFFFFFFFFFFFFFFFFFFFFFFFFFFFFFFFFFFFFFFFFFFFFFFFFFFFFFFFFFFFFFFF
310
F000FFFFFFFFFFFFFFFFFFFFFFFFFFFFFFFFFFFFFFFFFFFFFFFFFFFFFFFFFFFF
310
FFFFFFFFFFFFFFFFFFFFFFFFFFFFFFFFFFFFFFFFFFFFFFFFFFFFFFFFFFFFFFFF
310
FFFFFFFFFFFFFFFFFFFFFFFFFFFFFFFFFFFFFFFFFFFFFFFFF000FFFFFFFFFFFF
310
FFFFFFFFFFFFFFFFFFFFFFFFFFFFFFFFFFFFFFFFFFFFFFFFFFFFFFFFFFFFFFFF
310
FFFFFFFFFFFFFFFFFFFFFFFFFFFFFFFFFFFFFFFFFFFFFFFFFFFFFFFFFFFFFFFF
310
FFFFFFFFFFFFFFFFFFFFFFFFFFFFFFFFF000FFFFFFFFFFFFFFFFFFFFFFFFFFFF
310
FFFFFFFFFFFFFFFFFFFFFFFFFFFFFFFFFFFFFFFFFFFFFFFFFFFFFFFFFFFFFFFF
310
FFFFFFFFFFFFFFFFFFFFFFFFFFFFFFFFFFFFFFFFFFFFFFFFFFFFFFFFFFFFFFFF
310
FFFFFFFFFFFFFFFFF000FFFFFFFFFFFFFFFFFFFFFFFFFFFFFFFFFFFFFFFFFFFF
310
FFFFFFFFFFFFFFFFFFFFFFFFFFFFFFFFFFFFFFFFFFFFFFFFFFFFFFFFFFFFFFFF
310
FFFFFFFFFFFFFFFFFFFFFFFFFFFFFFFFFFFFFFFFFFFFFFFFFFFFFFFFFFFFFFFF
310
F000FFFFFFFFFFFFFFFFFFFFFFFFFFFFFFFFFFFFFFFFFFFFFFFFFFFFFFFFFFFF
310
FFFFFFFFFFFFFFFFFFFFFFFFFFFFFFFFFFFFFFFFFFFFFFFFFFFFFFFFFFFFFFFF
310
FFFFFFFFFFFFFFFFFFFFFFFFFFFFFFFFFFFFFFFFFFFFFFFFF000FFFFFFFFFFFF
310
FFFFFFFFFFFFFFFFFFFFFFFFFFFFFFFFFFFFFFFFFFFFFFFFFFFFFFFFFFFFFFFF
310
FFFFFFFFFFFFFFFFFFFFFFFFFFFFFFFFFFFFFFFFFFFFFFFFFFFFFFFFFFFFFFFF
310
FFFFFFFFFFFFFFFFFFFFFFFFFFFFFFFFF000FFFFFFFFFFFFFFFFFFFFFFFFFFFF
310
FFFFFFFFFFFFFFFFFFFFFFFFFFFFFFFFFFFFFFFFFFFFFFFFFFFFFFFFFFFFFFFF
310
FFFFFFFFFFFFFFFFFFFFFFFFFFFFFFFFFFFFFFFFFFFFFFFFFFFFFFFFFFFFFFFF
310
FFFFFFFFFFFFFFFFF000FFFFFFFFFFFFFFFFFFFFFFFFFFFFFFFFFFFFFFFFFFFF
310
FFFFFFFFFFFFFFFFFFFFFFFFFFFFFFFFFFFFFFFFFFFFFFFFFFFFFFFFFFFFFFFF
310
FFFFFFFFFFFFFFFFFFFFFFFFFFFFFFFFFFFFFFFFFFFFFFFFFFFFFFFFFFFFFFFF
310
F000FFFFFFFFFFFFFFFFFFFFFFFFFFFFFFFFFFFFFFFFFFFFFFFFFFFFFFFFFFFF
310
FFFFFFFFFFFFFFFFFFFFFFFFFFFFFFFFFFFFFFFFFFFFFFFFFFFFFFFFFFFFFFFF
310
FFFFFFFFFFFFFFFFFFFFFFFFFFFFFFFFFFFFFFFFFFFFFFFFF000FFFFFFFFFFFF
310
FFFFFFFFFFFFFFFFFFFFFFFFFFFFFFFFFFFFFFFFFFFFFFFFFFFFFFFFFFFFFFFF
310
FFFFFFFFFFFFFFFFFFFFFFFFFFFFFFFFFFFFFFFFFFFFFFFFFFFFFFFFFFFFFFFF
310
FFFFFFFFFFFFFFFFFFFFFFFFFFFFFFFFF000FFFFFFFFFFFFFFFFFFFFFFFFFFFF
310
FFFFFFFFFFFFFFFFFFFFFFFFFFFFFFFFFFFFFFFFFFFFFFFFFFFFFFFFFFFFFFFF
310
FFFFFFFFFFFFFFFFFFFFFFFFFFFFFFFFFFFFFFFFFFFFFFFFFFFFFFFFFFFFFFFF
310
FFFFFFFFFFFFFFFFF000FFFFFFFFFFFFFFFFFFFFFFFFFFFFFFFFFFFFFFFFFFFF
310
FFFFFFFFFFFFFFFFFFFFFFFFFFFFFFFFFFFFFFFFFFFFFFFFFFFFFFFFFFFFFFFF
310
FFFFFFFFFFFFFFFFFFFFFFFFFFFFFFFFFFFFFFFFFFFFFFFFFFFFFFFFFFFFFFFF
310
F000FFFFFFFFFFFFFFFFFFFFFFFFFFFFFFFFFFFFFFFFFFFFFFFFFFFFFFFFFFFF
310
FFFFFFFFFFFFFFFFFFFFFFFFFFFFFFFFFFFFFFFFFFFFFFFFFFFFFFFFFFFFFFFF
310
FFFFFFFFFFFFFFFFFFFFFFFFFFFFFFFFFFFFFFFFFFFFFFFFF000FFFFFFFFFFFF
310
FFFFFFFFFFFFFFFFFFFFFFFFFFFFFFFFFFFFFFFFFFFFFFFFFFFFFFFFFFFFFFFF
310
FFFFFFFFFFFFFFFFFFFFFFFFFFFFFFFFFFFFFFFFFFFFFFFFFFFFFFFFFFFFFFFF
310
FFFFFFFFFFFFFFFFFFFFFFFFFFFFFFFFF000FFFFFFFFFFFFFFFFFFFFFFFFFFFF
310
FFFFFFFFFFFFFFFFFFFFFFFFFFFFFFFFFFFFFFFFFFFFFFFFFFFFFFFFFFFFFFFF
310
FFFFFFFFFFFFFFFFFFFFFFFFFFFFFFFFFFFFFFFFFFFFFFFFFFFFFFFFFFFFFFFF
310
FFFFFFFFFFFFFFFFF000FFFFFFFFFFFFFFFFFFFFFFFFFFFFFFFFFFFFFFFFFFFF
310
FFFFFFFFFFFFFFFFFFFFFFFFFFFFFFFFFFFFFFFFFFFFFFFFFFFFFFFFFFFFFFFF
310
FFFFFFFFFFFFFFFFFFFFFFFFFFFFFFFFFFFFFFFFFFFFFFFFFFFFFFFFFFFFFFFF
310
F000FFFFFFFFFFFFFFFFFFFFFFFFFFFFFFFFFFFFFFFFFFFFFFFFFFFFFFFFFFFF
310
FFFFFFFFFFFFFFFFFFFFFFFFFFFFFFFFFFFFFFFFFFFFFFFFFFFFFFFFFFFFFFFF
310
FFFFFFFFFFFFFFFFFFFFFFFFFFFFFFFFFFFFFFFFFFFFFFFFF000FFFFFFFFFFFF
310
FFFFFFFFFFFFFFFFFFFFFFFFFFFFFFFFFFFFFFFFFFFFFFFFFFFFFFFFFFFFFFFF
310
FFFFFFFFFFFFFFFFFFFFFFFFFFFFFFFFFFFFFFFFFFFFFFFFFFFFFFFFFFFFFFFF
310
FFFFFFFFFFFFFFFFFFFFFFFFFFFFFFFFF000FFFFFFFFFFFFFFFFFFFFFFFFFFFF
310
FFFFFFFFFFFFFFFFFFFFFFFFFFFFFFFFFFFFFFFFFFFFFFFFFFFFFFFFFFFFFFFF
310
FFFFFFFFFFFFFFFFFFFFFFFFFFFFFFFFFFFFFFFFFFFFFFFFFFFFFFFFFFFFFFFF
310
FFFFFFFFFFFFFFFFF000FFFFFFFFFFFFFFFFFFFFFFFFFFFFFFFFFFFFFFFFFFFF
310
FFFFFFFFFFFFFFFFFFFFFFFFFFFFFFFFFFFFFFFFFFFFFFFFFFFFFFFFFFFFFFFF
310
FFFFFFFFFFFFFFFFFFFFFFFFFFFFFFFFFFFFFFFFFFFFFFFFFFFFFFFFFFFFFFFF
310
F000FFFFFFFFFFFFFFFFFFFFFFFFFFFFFFFFFFFFFFFFFFFFFFFFFFFFFFFFFFFF
310
FFFFFFFFFFFFFFFFFFFFFFFFFFFFFFFFFFFFFFFFFFFFFFFFFFFFFFFFFFFFFFFF
310
FFFFFFFFFFFFFFFFFFFFFFFFFFFFFFFFFFFFFFFFFFFFFFFFF000FFFFFFFFFFFF
310
FFFFFFFFFFFFFFFFFFFFFFFFFFFFFFFFFFFFFFFFFFFFFFFFFFFFFFFFFFFFFFFF
310
FFFFFFFFFFFFFFFFFFFFFFFFFFFFFFFFFFFFFFFFFFFFFFFFFFFFFFFFFFFFFFFF
310
FFFFFFFFFFFFFFFFFFFFFFFFFFFFFFFFF0000000000000000000000000000000
310
0000000000000000000000000000000000000000000000000000000000000000
310
0000000000000000000000000000000000000000000000000000000000000000
310
0000000000000000000000000000000000000000000000000000000000000000
310
0000000000000000000000000000000000000000000000000000000000000000
310
0000000000000000000000000000000000000000000000000000000000000000
310
0000000000000000000000000000000000000000000000000000000000000000
310
0000000000000000000000000000000000000000000000000000000000000000
310
0000000000000000000000000000000000000000000000000000000000000000
310
0000000000000000000000000000000000000000000000000000000000000000
310
0000000000000000000000000000000000000000000000000000000000000000
310
0000000000000000000000000000000000000000000000000000000000000000
310
0000000000000000000000000000000000000000000000000000000000000000
310
0000000000000000000000000000000000000000000000000000000000000000
310
0000000000000000000000000000000000000000000000000000000000000000
310
0000000000000000000000000000000000000000000000000000000000000000
  1
OLE
  0
ENDSEC
  0
SECTION
  2
OBJECTS
  0
DICTIONARY
  5
C
330
0
100
AcDbDictionary
281
     1
  3
ACAD_GROUP
350
D
  3
ACAD_LAYOUT
350
1A
  3
ACAD_MLINESTYLE
350
17
  3
ACAD_PLOTSETTINGS
350
19
  3
ACAD_PLOTSTYLENAME
350
E
  0
DICTIONARY
  5
D
102
{ACAD_REACTORS
330
C
102
}
330
C
100
AcDbDictionary
281
     1
  0
DICTIONARY
  5
1A
102
{ACAD_REACTORS
330
C
102
}
330
C
100
AcDbDictionary
281
     1
  3
Layout1
350
1E
  3
Layout2
350
26
  3
Model
350
22
  0
DICTIONARY
  5
17
102
{ACAD_REACTORS
330
C
102
}
330
C
100
AcDbDictionary
281
     1
  3
Standard
350
18
  0
DICTIONARY
  5
19
102
{ACAD_REACTORS
330
C
102
}
330
C
100
AcDbDictionary
281
     1
  0
ACDBDICTIONARYWDFLT
  5
E
102
{ACAD_REACTORS
330
C
102
}
330
C
100
AcDbDictionary
281
     1
  3
Normal
350
F
100
AcDbDictionaryWithDefault
340
F
  0
LAYOUT
  5
1E
102
{ACAD_REACTORS
330
1A
102
}
330
1A
100
AcDbPlotSettings
  1

  2
none_device
  4

  6

 40
0.0
 41
0.0
 42
0.0
 43
0.0
 44
0.0
 45
0.0
 46
0.0
 47
0.0
 48
0.0
 49
0.0
140
0.0
141
0.0
142
1.0
143
1.0
 70
   688
 72
     0
 73
     0
 74
     5
  7

 75
    16
147
1.0
148
0.0
149
0.0
100
AcDbLayout
  1
Layout1
 70
     1
 71
     1
 10
0.0
 20
0.0
 11
420.0
 21
297.0
 12
0.0
 22
0.0
 32
0.0
 14
1.0000000000E+20
 24
1.0000000000E+20
 34
1.0000000000E+20
 15
-1.0000000000E+20
 25
-1.0000000000E+20
 35
-1.0000000000E+20
146
0.0
 13
0.0
 23
0.0
 33
0.0
 16
1.0
 26
0.0
 36
0.0
 17
0.0
 27
1.0
 37
0.0
 76
     0
330
1B
  0
LAYOUT
  5
26
102
{ACAD_REACTORS
330
1A
102
}
330
1A
100
AcDbPlotSettings
  1

  2
none_device
  4

  6

 40
0.0
 41
0.0
 42
0.0
 43
0.0
 44
0.0
 45
0.0
 46
0.0
 47
0.0
 48
0.0
 49
0.0
140
0.0
141
0.0
142
1.0
143
1.0
 70
   688
 72
     0
 73
     0
 74
     5
  7

 75
    16
147
1.0
148
0.0
149
0.0
100
AcDbLayout
  1
Layout2
 70
     1
 71
     2
 10
0.0
 20
0.0
 11
0.0
 21
0.0
 12
0.0
 22
0.0
 32
0.0
 14
0.0
 24
0.0
 34
0.0
 15
0.0
 25
0.0
 35
0.0
146
0.0
 13
0.0
 23
0.0
 33
0.0
 16
1.0
 26
0.0
 36
0.0
 17
0.0
 27
1.0
 37
0.0
 76
     0
330
23
  0
LAYOUT
  5
22
102
{ACAD_REACTORS
330
1A
102
}
330
1A
100
AcDbPlotSettings
  1

  2
none_device
  4

  6

 40
0.0
 41
0.0
 42
0.0
 43
0.0
 44
0.0
 45
0.0
 46
0.0
 47
0.0
 48
0.0
 49
0.0
140
0.0
141
0.0
142
1.0
143
1.0
 70
  1712
 72
     0
 73
     0
 74
     0
  7

 75
     0
147
1.0
148
0.0
149
0.0
100
AcDbLayout
  1
Model
 70
     1
 71
     0
 10
0.0
 20
0.0
 11
297.0
 21
210.0
 12
0.0
 22
0.0
 32
0.0
 14
0.0
 24
0.0
 34
0.0
 15
297.0
 25
210.0
 35
0.0
146
0.0
 13
0.0
 23
0.0
 33
0.0
 16
1.0
 26
0.0
 36
0.0
 17
0.0
 27
1.0
 37
0.0
 76
     0
330
1F
331
29
  0
MLINESTYLE
  5
18
102
{ACAD_REACTORS
330
17
102
}
330
17
100
AcDbMlineStyle
  2
Standard
 70
     0
  3

 62
   256
 51
90.0
 52
90.0
 71
     2
 49
0.5
 62
   256
  6
BYLAYER
 49
-0.5
 62
   256
  6
BYLAYER
  0
ACDBPLACEHOLDER
  5
F
102
{ACAD_REACTORS
330
E
102
}
330
E
  0
ENDSEC
  0
EOF
