  0
SECTION
  2
HEADER
  9
$ACADVER
  1
AC1015
  9
$ACADMAINTVER
 70
     6
  9
$DWGCODEPAGE
  3
ANSI_1252
  9
$INSBASE
 10
0.0
 20
0.0
 30
0.0
  9
$EXTMIN
 10
0.0
 20
0.0
 30
0.0
  9
$EXTMAX
 10
297.0
 20
210.0
 30
0.0
  9
$LIMMIN
 10
0.0
 20
0.0
  9
$LIMMAX
 10
297.0
 20
210.0
  9
$ORTHOMODE
 70
     0
  9
$REGENMODE
 70
     1
  9
$FILLMODE
 70
     1
  9
$QTEXTMODE
 70
     0
  9
$MIRRTEXT
 70
     1
  9
$LTSCALE
 40
1.0
  9
$ATTMODE
 70
     1
  9
$TEXTSIZE
 40
2.0
  9
$TRACEWID
 40
1.0
  9
$TEXTSTYLE
  7
Standard
  9
$CLAYER
  8
0
  9
$CELTYPE
  6
ByLayer
  9
$CECOLOR
 62
   256
  9
$CELTSCALE
 40
1.0
  9
$DISPSILH
 70
     0
  9
$DIMSCALE
 40
1.0
  9
$DIMASZ
 40
3.0
  9
$DIMEXO
 40
0.0
  9
$DIMDLI
 40
3.75
  9
$DIMRND
 40
0.0
  9
$DIMDLE
 40
0.0
  9
$DIMEXE
 40
1.0
  9
$DIMTP
 40
0.0
  9
$DIMTM
 40
0.0
  9
$DIMTXT
 40
2.0
  9
$DIMCEN
 40
2.5
  9
$DIMTSZ
 40
0.0
  9
$DIMTOL
 70
     0
  9
$DIMLIM
 70
     0
  9
$DIMTIH
 70
     1
  9
$DIMTOH
 70
     1
  9
$DIMSE1
 70
     0
  9
$DIMSE2
 70
     0
  9
$DIMTAD
 70
     1
  9
$DIMZIN
 70
     0
  9
$DIMBLK
  1

  9
$DIMASO
 70
     1
  9
$DIMSHO
 70
     1
  9
$DIMPOST
  1

  9
$DIMAPOST
  1

  9
$DIMALT
 70
     0
  9
$DIMALTD
 70
     3
  9
$DIMALTF
 40
0.0393700787
  9
$DIMLFAC
 40
1.0
  9
$DIMTOFL
 70
     1
  9
$DIMTVP
 40
0.0
  9
$DIMTIX
 70
     0
  9
$DIMSOXD
 70
     0
  9
$DIMSAH
 70
     0
  9
$DIMBLK1
  1

  9
$DIMBLK2
  1

  9
$DIMSTYLE
  2
ISO-25
  9
$DIMCLRD
 70
     0
  9
$DIMCLRE
 70
     0
  9
$DIMCLRT
 70
     0
  9
$DIMTFAC
 40
1.0
  9
$DIMGAP
 40
1.524
  9
$DIMJUST
 70
     0
  9
$DIMSD1
 70
     0
  9
$DIMSD2
 70
     0
  9
$DIMTOLJ
 70
     0
  9
$DIMTZIN
 70
     0
  9
$DIMALTZ
 70
     0
  9
$DIMALTTZ
 70
     0
  9
$DIMUPT
 70
     0
  9
$DIMDEC
 70
     2
  9
$DIMTDEC
 70
     3
  9
$DIMALTU
 70
     2
  9
$DIMALTTD
 70
     3
  9
$DIMTXSTY
  7
Standard
  9
$DIMAUNIT
 70
     0
  9
$DIMADEC
 70
     2
  9
$DIMALTRND
 40
0.0
  9
$DIMAZIN
 70
     0
  9
$DIMDSEP
 70
    44
  9
$DIMATFIT
 70
     3
  9
$DIMFRAC
 70
     0
  9
$DIMLDRBLK
  1

  9
$DIMLUNIT
 70
     2
  9
$DIMLWD
 70
    -2
  9
$DIMLWE
 70
    -2
  9
$DIMTMOVE
 70
     0
  9
$LUNITS
 70
     2
  9
$LUPREC
 70
     2
  9
$SKETCHINC
 40
1.0
  9
$FILLETRAD
 40
10.0
  9
$AUNITS
 70
     0
  9
$AUPREC
 70
     2
  9
$MENU
  1
.
  9
$ELEVATION
 40
0.0
  9
$PELEVATION
 40
0.0
  9
$THICKNESS
 40
0.0
  9
$LIMCHECK
 70
     0
  9
$CHAMFERA
 40
10.0
  9
$CHAMFERB
 40
10.0
  9
$CHAMFERC
 40
20.0
  9
$CHAMFERD
 40
0.0
  9
$SKPOLY
 70
     0
  9
$TDCREATE
 40
2456045.42322096
  9
$TDUCREATE
 40
2456045.339887627
  9
$TDUPDATE
 40
2456045.423222407
  9
$TDUUPDATE
 40
2456045.339889074
  9
$TDINDWG
 40
0.0000000116
  9
$TDUSRTIMER
 40
0.0000000116
  9
$USRTIMER
 70
     1
  9
$ANGBASE
 50
0.0
  9
$ANGDIR
 70
     0
  9
$PDMODE
 70
     0
  9
$PDSIZE
 40
-1.0
  9
$PLINEWID
 40
0.0
  9
$SPLFRAME
 70
     0
  9
$SPLINETYPE
 70
     6
  9
$SPLINESEGS
 70
     8
  9
$HANDSEED
  5
256
  9
$SURFTAB1
 70
     6
  9
$SURFTAB2
 70
     6
  9
$SURFTYPE
 70
     6
  9
$SURFU
 70
     6
  9
$SURFV
 70
     6
  9
$UCSBASE
  2

  9
$UCSNAME
  2

  9
$UCSORG
 10
0.0
 20
0.0
 30
0.0
  9
$UCSXDIR
 10
1.0
 20
0.0
 30
0.0
  9
$UCSYDIR
 10
0.0
 20
1.0
 30
0.0
  9
$UCSORTHOREF
  2

  9
$UCSORTHOVIEW
 70
     0
  9
$UCSORGTOP
 10
0.0
 20
0.0
 30
0.0
  9
$UCSORGBOTTOM
 10
0.0
 20
0.0
 30
0.0
  9
$UCSORGLEFT
 10
0.0
 20
0.0
 30
0.0
  9
$UCSORGRIGHT
 10
0.0
 20
0.0
 30
0.0
  9
$UCSORGFRONT
 10
0.0
 20
0.0
 30
0.0
  9
$UCSORGBACK
 10
0.0
 20
0.0
 30
0.0
  9
$PUCSBASE
  2

  9
$PUCSNAME
  2

  9
$PUCSORG
 10
0.0
 20
0.0
 30
0.0
  9
$PUCSXDIR
 10
1.0
 20
0.0
 30
0.0
  9
$PUCSYDIR
 10
0.0
 20
1.0
 30
0.0
  9
$PUCSORTHOREF
  2

  9
$PUCSORTHOVIEW
 70
     0
  9
$PUCSORGTOP
 10
0.0
 20
0.0
 30
0.0
  9
$PUCSORGBOTTOM
 10
0.0
 20
0.0
 30
0.0
  9
$PUCSORGLEFT
 10
0.0
 20
0.0
 30
0.0
  9
$PUCSORGRIGHT
 10
0.0
 20
0.0
 30
0.0
  9
$PUCSORGFRONT
 10
0.0
 20
0.0
 30
0.0
  9
$PUCSORGBACK
 10
0.0
 20
0.0
 30
0.0
  9
$USERI1
 70
     0
  9
$USERI2
 70
     0
  9
$USERI3
 70
     0
  9
$USERI4
 70
     0
  9
$USERI5
 70
     0
  9
$USERR1
 40
0.0
  9
$USERR2
 40
0.0
  9
$USERR3
 40
0.0
  9
$USERR4
 40
0.0
  9
$USERR5
 40
0.0
  9
$WORLDVIEW
 70
     1
  9
$SHADEDGE
 70
     3
  9
$SHADEDIF
 70
    70
  9
$TILEMODE
 70
     1
  9
$MAXACTVP
 70
    64
  9
$PINSBASE
 10
0.0
 20
0.0
 30
0.0
  9
$PLIMCHECK
 70
     0
  9
$PEXTMIN
 10
1.0000000000E+20
 20
1.0000000000E+20
 30
1.0000000000E+20
  9
$PEXTMAX
 10
-1.0000000000E+20
 20
-1.0000000000E+20
 30
-1.0000000000E+20
  9
$PLIMMIN
 10
0.0
 20
0.0
  9
$PLIMMAX
 10
420.0
 20
297.0
  9
$UNITMODE
 70
     0
  9
$VISRETAIN
 70
     1
  9
$PLINEGEN
 70
     0
  9
$PSLTSCALE
 70
     1
  9
$TREEDEPTH
 70
  3020
  9
$CMLSTYLE
  2
Standard
  9
$CMLJUST
 70
     0
  9
$CMLSCALE
 40
20.0
  9
$PROXYGRAPHICS
 70
     1
  9
$MEASUREMENT
 70
     1
  9
$CELWEIGHT
370
    -1
  9
$ENDCAPS
280
     0
  9
$JOINSTYLE
280
     0
  9
$LWDISPLAY
290
     1
  9
$INSUNITS
 70
     4
  9
$HYPERLINKBASE
  1

  9
$STYLESHEET
  1

  9
$XEDIT
290
     1
  9
$CEPSNTYPE
380
     0
  9
$PSTYLEMODE
290
     1
  9
$FINGERPRINTGUID
  2
{35AE4A87-7B6A-4C04-9788-2CEA84762D09}
  9
$VERSIONGUID
  2
{FAEB1C32-E019-11D5-929B-00C0DF256EC4}
  9
$EXTNAMES
290
     1
  9
$PSVPSCALE
 40
0.0
  9
$OLESTARTUP
290
     0
  0
ENDSEC
  0
SECTION
  2
CLASSES
  0
CLASS
  1
ACDBDICTIONARYWDFLT
  2
AcDbDictionaryWithDefault
  3
ObjectDBX Classes
 90
        0
280
     0
281
     0
  0
CLASS
  1
VISUALSTYLE
  2
AcDbVisualStyle
  3
ObjectDBX Classes
 90
     4095
280
     0
281
     0
  0
CLASS
  1
MATERIAL
  2
AcDbMaterial
  3
ObjectDBX Classes
 90
     1153
280
     0
281
     0
  0
CLASS
  1
ACDBPLACEHOLDER
  2
AcDbPlaceHolder
  3
ObjectDBX Classes
 90
        0
280
     0
281
     0
  0
CLASS
  1
LAYOUT
  2
AcDbLayout
  3
ObjectDBX Classes
 90
        0
280
     0
281
     0
  0
ENDSEC
  0
SECTION
  2
TABLES
  0
TABLE
  2
VPORT
  5
8
330
0
100
AcDbSymbolTable
 70
     1
  0
VPORT
  5
29
330
8
100
AcDbSymbolTableRecord
100
AcDbViewportTableRecord
  2
*Active
 70
     0
 10
0.0
 20
0.0
 11
1.0
 21
1.0
 12
148.5
 22
105.0
 13
0.0
 23
0.0
 14
10.0
 24
10.0
 15
10.0
 25
10.0
 16
0.0
 26
0.0
 36
1.0
 17
0.0
 27
0.0
 37
0.0
 40
210.0
 41
1.4142857143
 42
50.0
 43
0.0
 44
0.0
 50
0.0
 51
0.0
 71
     0
 72
  2000
 73
     1
 74
     3
 75
     0
 76
     0
 77
     0
 78
     0
281
     0
 65
     1
110
0.0
120
0.0
130
0.0
111
1.0
121
0.0
131
0.0
112
0.0
122
1.0
132
0.0
 79
     0
146
0.0
  0
ENDTAB
  0
TABLE
  2
LTYPE
  5
5
330
0
100
AcDbSymbolTable
 70
     6
  0
LTYPE
  5
14
330
5
100
AcDbSymbolTableRecord
100
AcDbLinetypeTableRecord
  2
ByBlock
 70
     0
  3

 72
    65
 73
     0
 40
0.0
  0
LTYPE
  5
15
330
5
100
AcDbSymbolTableRecord
100
AcDbLinetypeTableRecord
  2
ByLayer
 70
     0
  3

 72
    65
 73
     0
 40
0.0
  0
LTYPE
  5
16
330
5
100
AcDbSymbolTableRecord
100
AcDbLinetypeTableRecord
  2
Continuous
 70
     0
  3
Solid line
 72
    65
 73
     0
 40
0.0
  0
LTYPE
  5
3F
330
5
100
AcDbSymbolTableRecord
100
AcDbLinetypeTableRecord
  2
HIDDEN
 70
     0
  3
Hidden __ __ __ __ __ __ __ __ __ __ __ __ __ __
 72
    65
 73
     2
 40
1.905
 49
1.27
 74
     0
 49
-0.635
 74
     0
  0
LTYPE
  5
40
330
5
100
AcDbSymbolTableRecord
100
AcDbLinetypeTableRecord
  2
PHANTOM
 70
     0
  3
Phantom ______  __  __  ______  __  __  ______
 72
    65
 73
     6
 40
12.7
 49
6.35
 74
     0
 49
-1.27
 74
     0
 49
1.27
 74
     0
 49
-1.27
 74
     0
 49
1.27
 74
     0
 49
-1.27
 74
     0
  0
LTYPE
  5
41
330
5
100
AcDbSymbolTableRecord
100
AcDbLinetypeTableRecord
  2
CENTER
 70
     0
  3
Center ____ _ ____ _ ____ _ ____ _ ____ _ ____
 72
    65
 73
     4
 40
10.16
 49
6.35
 74
     0
 49
-1.27
 74
     0
 49
1.27
 74
     0
 49
-1.27
 74
     0
  0
LTYPE
  5
42
330
5
100
AcDbSymbolTableRecord
100
AcDbLinetypeTableRecord
  2
CENTERX2
 70
     0
  3
Center (2x) ________  __  ________  __  _____
 72
    65
 73
     4
 40
20.32
 49
12.7
 74
     0
 49
-2.54
 74
     0
 49
2.54
 74
     0
 49
-2.54
 74
     0
  0
LTYPE
  5
43
330
5
100
AcDbSymbolTableRecord
100
AcDbLinetypeTableRecord
  2
DOT2
 70
     0
  3
Dot (.5x) ........................................
 72
    65
 73
     2
 40
0.635
 49
0.0
 74
     0
 49
-0.635
 74
     0
  0
ENDTAB
  0
TABLE
  2
LAYER
  5
2
330
0
100
AcDbSymbolTable
 70
     5
  0
LAYER
  5
10
330
2
100
AcDbSymbolTableRecord
100
AcDbLayerTableRecord
  2
0
 70
     0
 62
     7
  6
Continuous
370
    -3
390
F
  0
LAYER
  5
44
330
2
100
AcDbSymbolTableRecord
100
AcDbLayerTableRecord
  2
FORMAT
 70
     0
 62
     7
  6
Continuous
370
    -3
390
F
  0
LAYER
  5
45
330
2
100
AcDbSymbolTableRecord
100
AcDbLayerTableRecord
  2
VERMASSUNG
 70
     0
 62
     7
  6
Continuous
370
    -3
390
F
  0
LAYER
  5
46
330
2
100
AcDbSymbolTableRecord
100
AcDbLayerTableRecord
  2
KOPF_DÜNN
 70
     0
 62
     7
  6
Continuous
370
    -3
390
F
  0
LAYER
  5
47
330
2
100
AcDbSymbolTableRecord
100
AcDbLayerTableRecord
  2
KOPF_DICK
 70
     0
 62
     7
  6
Continuous
370
    15
390
F
  0
ENDTAB
  0
TABLE
  2
STYLE
  5
3
330
0
100
AcDbSymbolTable
 70
     2
  0
STYLE
  5
11
330
3
100
AcDbSymbolTableRecord
100
AcDbTextStyleTableRecord
  2
Standard
 70
     0
 40
0.0
 41
1.0
 50
0.0
 71
     0
 42
2.0
  3
txt
  4

  0
STYLE
  5
48
330
3
100
AcDbSymbolTableRecord
100
AcDbTextStyleTableRecord
  2
SLDTEXTSTYLE0
 70
     0
 40
0.0
 41
0.7
 50
0.0
 71
     0
 42
0.2
  3
TXT
  4

  0
ENDTAB
  0
TABLE
  2
VIEW
  5
6
330
0
100
AcDbSymbolTable
 70
     0
  0
ENDTAB
  0
TABLE
  2
UCS
  5
7
330
0
100
AcDbSymbolTable
 70
     0
  0
ENDTAB
  0
TABLE
  2
APPID
  5
9
330
0
100
AcDbSymbolTable
 70
     1
  0
APPID
  5
12
330
9
100
AcDbSymbolTableRecord
100
AcDbRegAppTableRecord
  2
ACAD
 70
     0
  0
ENDTAB
  0
TABLE
  2
DIMSTYLE
  5
A
330
0
100
AcDbSymbolTable
 70
     4
100
AcDbDimStyleTable
  0
DIMSTYLE
105
27
330
A
100
AcDbSymbolTableRecord
100
AcDbDimStyleTableRecord
  2
ISO-25
 70
     0
 41
2.5
 42
0.625
 43
3.75
 44
1.25
 73
     0
 74
     0
 77
     1
 78
     8
140
2.5
141
2.5
143
0.0393700787
147
0.625
171
     3
172
     1
178
     0
271
     2
272
     2
274
     3
278
    44
283
     0
284
     8
340
11
  0
DIMSTYLE
105
1B9
102
{ACAD_REACTORS
330
1B8
330
1D0
102
}
330
A
100
AcDbSymbolTableRecord
100
AcDbDimStyleTableRecord
  2
SLDDIMSTYLE0
 70
     0
 41
3.0
 44
0.0
 45
0.000000001
 47
0.1
 48
0.1
 71
     1
 73
     0
 74
     0
 77
     1
 78
    12
 79
     3
140
2.0
147
0.5
173
     1
178
     0
271
     2
272
     1
276
     2
284
     8
340
48
  0
DIMSTYLE
105
1C6
102
{ACAD_REACTORS
330
1C5
330
1E6
102
}
330
A
100
AcDbSymbolTableRecord
100
AcDbDimStyleTableRecord
  2
SLDDIMSTYLE1
 70
     0
 41
3.0
 44
0.0
 45
0.000000001
 73
     0
 74
     0
 77
     1
 78
    12
 79
     3
140
2.0
147
0.5
173
     1
178
     0
271
     2
272
     3
276
     2
284
    12
340
48
  0
DIMSTYLE
105
1DD
102
{ACAD_REACTORS
330
1DC
102
}
330
A
100
AcDbSymbolTableRecord
100
AcDbDimStyleTableRecord
  2
SLDDIMSTYLE2
 70
     0
 41
3.0
 44
0.0
 73
     0
 74
     0
 77
     1
 78
    12
 79
     3
140
2.0
147
0.5
173
     1
178
     0
179
     2
272
     3
276
     2
284
    12
340
48
  0
ENDTAB
  0
TABLE
  2
BLOCK_RECORD
  5
1
330
0
100
AcDbSymbolTable
 70
     7
  0
BLOCK_RECORD
  5
1F
330
1
100
AcDbSymbolTableRecord
100
AcDbBlockTableRecord
  2
*Model_Space
340
22
  0
BLOCK_RECORD
  5
1B
330
1
100
AcDbSymbolTableRecord
100
AcDbBlockTableRecord
  2
*Paper_Space
340
1E
  0
BLOCK_RECORD
  5
23
330
1
100
AcDbSymbolTableRecord
100
AcDbBlockTableRecord
  2
*Paper_Space0
340
26
  0
BLOCK_RECORD
  5
1BA
330
1
100
AcDbSymbolTableRecord
100
AcDbBlockTableRecord
  2
_D
340
0
  0
BLOCK_RECORD
  5
1C7
330
1
100
AcDbSymbolTableRecord
100
AcDbBlockTableRecord
  2
_D_1
340
0
  0
BLOCK_RECORD
  5
1D1
330
1
100
AcDbSymbolTableRecord
100
AcDbBlockTableRecord
  2
_D_2
340
0
  0
BLOCK_RECORD
  5
1DE
330
1
100
AcDbSymbolTableRecord
100
AcDbBlockTableRecord
  2
_D_3
340
0
  0
BLOCK_RECORD
  5
1E7
330
1
100
AcDbSymbolTableRecord
100
AcDbBlockTableRecord
  2
_D_4
340
0
  0
BLOCK_RECORD
  5
249
330
1
100
AcDbSymbolTableRecord
100
AcDbBlockTableRecord
  2
SW_CENTERMARKSYMBOL_0
340
0
102
{BLKREFS
331
254
102
}
  0
ENDTAB
  0
ENDSEC
  0
SECTION
  2
BLOCKS
  0
BLOCK
  5
20
330
1F
100
AcDbEntity
  8
0
100
AcDbBlockBegin
  2
*Model_Space
 70
     0
 10
0.0
 20
0.0
 30
0.0
  3
*Model_Space
  1

  0
ENDBLK
  5
21
330
1F
100
AcDbEntity
  8
0
100
AcDbBlockEnd
  0
BLOCK
  5
1C
330
1B
100
AcDbEntity
 67
     1
  8
0
100
AcDbBlockBegin
  2
*Paper_Space
 70
     0
 10
0.0
 20
0.0
 30
0.0
  3
*Paper_Space
  1

  0
ENDBLK
  5
1D
330
1B
100
AcDbEntity
 67
     1
  8
0
100
AcDbBlockEnd
  0
BLOCK
  5
24
330
23
100
AcDbEntity
  8
0
100
AcDbBlockBegin
  2
*Paper_Space0
 70
     0
 10
0.0
 20
0.0
 30
0.0
  3
*Paper_Space0
  1

  0
ENDBLK
  5
25
330
23
100
AcDbEntity
  8
0
100
AcDbBlockEnd
  0
BLOCK
  5
1BB
330
1BA
100
AcDbEntity
  8
0
100
AcDbBlockBegin
  2
_D
 70
     0
 10
0.0
 20
0.0
 30
0.0
  3
_D
  1

  0
SOLID
  5
1BD
330
1BA
100
AcDbEntity
  8
VERMASSUNG
100
AcDbTrace
 10
270.7971875614
 20
161.2113988654
 30
0.0
 11
270.3471875614
 21
158.2113988654
 31
0.0
 12
271.2471875614
 22
158.2113988654
 32
0.0
 13
271.2471875614
 23
158.2113988654
 33
0.0
  0
SOLID
  5
1BE
330
1BA
100
AcDbEntity
  8
VERMASSUNG
100
AcDbTrace
 10
270.7971875614
 20
116.2113988654
 30
0.0
 11
271.2471875614
 21
119.2113988654
 31
0.0
 12
270.3471875614
 22
119.2113988654
 32
0.0
 13
270.3471875614
 23
119.2113988654
 33
0.0
  0
LINE
  5
1BF
330
1BA
100
AcDbEntity
  8
VERMASSUNG
100
AcDbLine
 10
248.764030026
 20
161.2113988654
 30
0.0
 11
271.7971875614
 21
161.2113988654
 31
0.0
  0
LINE
  5
1C0
330
1BA
100
AcDbEntity
  8
VERMASSUNG
100
AcDbLine
 10
248.764030026
 20
116.2113988654
 30
0.0
 11
271.7971875614
 21
116.2113988654
 31
0.0
  0
LINE
  5
1C1
330
1BA
100
AcDbEntity
  8
VERMASSUNG
100
AcDbLine
 10
270.7971875614
 20
161.2113988654
 30
0.0
 11
270.7971875614
 21
116.2113988654
 31
0.0
  0
MTEXT
  5
1C2
330
1BA
100
AcDbEntity
  8
VERMASSUNG
100
AcDbMText
 10
268.2190521982
 20
134.0613988483
 30
0.1
 40
2.0
 41
0.0
 71
     1
 72
     1
  1
45
  7
SLDTEXTSTYLE0
 11
-7.044195017643634E-15
 21
1.0
 31
0.0
 73
     1
 44
1.0
  0
MTEXT
  5
1C3
330
1BA
100
AcDbEntity
  8
VERMASSUNG
100
AcDbMText
 10
268.2190521982
 20
140.0488990763
 30
0.1
 40
2.0
 41
0.0
 71
     1
 72
     1
  1

  7
SLDTEXTSTYLE0
 11
-7.044195017643634E-15
 21
1.0
 31
0.0
 73
     1
 44
1.0
  0
MTEXT
  5
1C4
330
1BA
100
AcDbEntity
  8
VERMASSUNG
100
AcDbMText
 10
268.713586061
 20
140.0613989004
 30
0.1
 40
1.5
 41
0.0
 71
     1
 72
     1
  1
±0.1
  7
SLDTEXTSTYLE0
 11
-7.044195017643634E-15
 21
1.0
 31
0.0
 73
     1
 44
1.0
  0
ENDBLK
  5
1BC
330
1BA
100
AcDbEntity
  8
0
100
AcDbBlockEnd
  0
BLOCK
  5
1C8
330
1C7
100
AcDbEntity
  8
0
100
AcDbBlockBegin
  2
_D_1
 70
     0
 10
0.0
 20
0.0
 30
0.0
  3
_D_1
  1

  0
SOLID
  5
1CA
330
1C7
100
AcDbEntity
  8
VERMASSUNG
100
AcDbTrace
 10
145.764030026
 20
178.719266298
 30
0.0
 11
148.764030026
 21
178.269266298
 31
0.0
 12
148.764030026
 22
179.169266298
 32
0.0
 13
148.764030026
 23
179.169266298
 33
0.0
  0
SOLID
  5
1CB
330
1C7
100
AcDbEntity
  8
VERMASSUNG
100
AcDbTrace
 10
248.764030026
 20
178.719266298
 30
0.0
 11
245.764030026
 21
179.169266298
 31
0.0
 12
245.764030026
 22
178.269266298
 32
0.0
 13
245.764030026
 23
178.269266298
 33
0.0
  0
LINE
  5
1CC
330
1C7
100
AcDbEntity
  8
VERMASSUNG
100
AcDbLine
 10
145.764030026
 20
136.5037368579
 30
0.0
 11
145.764030026
 21
179.719266298
 31
0.0
  0
LINE
  5
1CD
330
1C7
100
AcDbEntity
  8
VERMASSUNG
100
AcDbLine
 10
248.764030026
 20
161.2113988654
 30
0.0
 11
248.764030026
 21
179.719266298
 31
0.0
  0
LINE
  5
1CE
330
1C7
100
AcDbEntity
  8
VERMASSUNG
100
AcDbLine
 10
145.764030026
 20
178.719266298
 30
0.0
 11
248.764030026
 21
178.719266298
 31
0.0
  0
MTEXT
  5
1CF
330
1C7
100
AcDbEntity
  8
VERMASSUNG
100
AcDbMText
 10
194.464029893
 20
181.2974016612
 30
0.1
 40
2.0
 41
0.0
 71
     1
 72
     1
  1
103
  7
SLDTEXTSTYLE0
 73
     1
 44
1.0
  0
ENDBLK
  5
1C9
330
1C7
100
AcDbEntity
  8
0
100
AcDbBlockEnd
  0
BLOCK
  5
1D2
330
1D1
100
AcDbEntity
  8
0
100
AcDbBlockBegin
  2
_D_2
 70
     0
 10
0.0
 20
0.0
 30
0.0
  3
_D_2
  1

  0
SOLID
  5
1D4
330
1D1
100
AcDbEntity
  8
VERMASSUNG
100
AcDbTrace
 10
183.764030026
 20
169.7719859758
 30
0.0
 11
186.764030026
 21
169.3219859758
 31
0.0
 12
186.764030026
 22
170.2219859758
 32
0.0
 13
186.764030026
 23
170.2219859758
 33
0.0
  0
SOLID
  5
1D5
330
1D1
100
AcDbEntity
  8
VERMASSUNG
100
AcDbTrace
 10
248.764030026
 20
169.7719859758
 30
0.0
 11
245.764030026
 21
170.2219859758
 31
0.0
 12
245.764030026
 22
169.3219859758
 32
0.0
 13
245.764030026
 23
169.3219859758
 33
0.0
  0
LINE
  5
1D6
330
1D1
100
AcDbEntity
  8
VERMASSUNG
100
AcDbLine
 10
183.764030026
 20
147.2113988654
 30
0.0
 11
183.764030026
 21
170.7719859758
 31
0.0
  0
LINE
  5
1D7
330
1D1
100
AcDbEntity
  8
VERMASSUNG
100
AcDbLine
 10
248.764030026
 20
161.2113988654
 30
0.0
 11
248.764030026
 21
170.7719859758
 31
0.0
  0
LINE
  5
1D8
330
1D1
100
AcDbEntity
  8
VERMASSUNG
100
AcDbLine
 10
183.764030026
 20
169.7719859758
 30
0.0
 11
248.764030026
 21
169.7719859758
 31
0.0
  0
MTEXT
  5
1D9
330
1D1
100
AcDbEntity
  8
VERMASSUNG
100
AcDbMText
 10
211.714029839
 20
172.350121339
 30
0.1
 40
2.0
 41
0.0
 71
     1
 72
     1
  1
65
  7
SLDTEXTSTYLE0
 73
     1
 44
1.0
  0
MTEXT
  5
1DA
330
1D1
100
AcDbEntity
  8
VERMASSUNG
100
AcDbMText
 10
217.5015299411
 20
172.350121339
 30
0.1
 40
2.0
 41
0.0
 71
     1
 72
     1
  1

  7
SLDTEXTSTYLE0
 73
     1
 44
1.0
  0
MTEXT
  5
1DB
330
1D1
100
AcDbEntity
  8
VERMASSUNG
100
AcDbMText
 10
217.5140302309
 20
171.8555874762
 30
0.1
 40
1.5
 41
0.0
 71
     1
 72
     1
  1
±0.1
  7
SLDTEXTSTYLE0
 73
     1
 44
1.0
  0
ENDBLK
  5
1D3
330
1D1
100
AcDbEntity
  8
0
100
AcDbBlockEnd
  0
BLOCK
  5
1DF
330
1DE
100
AcDbEntity
  8
0
100
AcDbBlockBegin
  2
_D_3
 70
     0
 10
0.0
 20
0.0
 30
0.0
  3
_D_3
  1

  0
ARC
  5
1E1
330
1DE
100
AcDbEntity
  8
VERMASSUNG
100
AcDbCircle
 10
248.8007731321
 20
161.2113988654
 30
0.0
 40
12.32397803004964
100
AcDbArc
 50
264.9952138766
 51
0.0
  0
SOLID
  5
1E2
330
1DE
100
AcDbEntity
  8
VERMASSUNG
100
AcDbTrace
 10
247.7256421281
 20
148.9344070592
 30
0.0
 11
250.7385185974
 21
148.5807470804
 31
0.0
 12
250.7096858859
 22
149.4802851145
 32
0.0
 13
250.7096858859
 23
149.4802851145
 33
0.0
  0
SOLID
  5
1E3
330
1DE
100
AcDbEntity
  8
VERMASSUNG
100
AcDbTrace
 10
261.1247511621
 20
161.2113988654
 30
0.0
 11
260.3206294452
 21
158.2863538633
 31
0.0
 12
261.2142225776
 22
158.1791563181
 32
0.0
 13
261.2142225776
 23
158.1791563181
 33
0.0
  0
LINE
  5
1E4
330
1DE
100
AcDbEntity
  8
VERMASSUNG
100
AcDbLine
 10
260.7627334849
 20
161.2113988654
 30
0.0
 11
262.1247511621
 21
161.2113988654
 31
0.0
  0
MTEXT
  5
1E5
330
1DE
100
AcDbEntity
  8
VERMASSUNG
100
AcDbMText
 10
253.246482637
 20
152.0666125135
 30
0.1
 40
2.0
 41
0.0
 71
     1
 72
     1
  1
95°
  7
SLDTEXTSTYLE0
 11
0.7373055534122339
 21
0.6755594133068383
 31
0.0
 73
     1
 44
1.0
  0
ENDBLK
  5
1E0
330
1DE
100
AcDbEntity
  8
0
100
AcDbBlockEnd
  0
BLOCK
  5
1E8
330
1E7
100
AcDbEntity
  8
0
100
AcDbBlockBegin
  2
_D_4
 70
     0
 10
0.0
 20
0.0
 30
0.0
  3
_D_4
  1

  0
SOLID
  5
1EA
330
1E7
100
AcDbEntity
  8
VERMASSUNG
100
AcDbTrace
 10
133.8857233703
 20
147.7113988654
 30
0.0
 11
133.4357233703
 21
144.7113988654
 31
0.0
 12
134.3357233703
 22
144.7113988654
 32
0.0
 13
134.3357233703
 23
144.7113988654
 33
0.0
  0
SOLID
  5
1EB
330
1E7
100
AcDbEntity
  8
VERMASSUNG
100
AcDbTrace
 10
133.8857233703
 20
84.7113988654
 30
0.0
 11
134.3357233703
 21
87.7113988654
 31
0.0
 12
133.4357233703
 22
87.7113988654
 32
0.0
 13
133.4357233703
 23
87.7113988654
 33
0.0
  0
LINE
  5
1EC
330
1E7
100
AcDbEntity
  8
VERMASSUNG
100
AcDbLine
 10
184.264030026
 20
147.7113988654
 30
0.0
 11
132.8857233703
 21
147.7113988654
 31
0.0
  0
LINE
  5
1ED
330
1E7
100
AcDbEntity
  8
VERMASSUNG
100
AcDbLine
 10
184.264030026
 20
84.7113988654
 30
0.0
 11
132.8857233703
 21
84.7113988654
 31
0.0
  0
LINE
  5
1EE
330
1E7
100
AcDbEntity
  8
VERMASSUNG
100
AcDbLine
 10
133.8857233703
 20
147.7113988654
 30
0.0
 11
133.8857233703
 21
84.7113988654
 31
0.0
  0
MTEXT
  5
1EF
330
1E7
100
AcDbEntity
  8
VERMASSUNG
100
AcDbMText
 10
131.1075878812
 20
109.8063987562
 30
0.5038338481
 40
2.0
 41
0.0
 71
     1
 72
     1
  1
PSC
  7
SLDTEXTSTYLE0
 11
-7.044195017643634E-15
 21
1.0
 31
0.0
 73
     1
 44
1.0
  0
MTEXT
  5
1F0
330
1E7
100
AcDbEntity
  8
VERMASSUNG
100
AcDbMText
 10
131.3075878907
 20
114.4063988583
 30
0.5038338481
 40
2.0
 41
0.0
 71
     1
 72
     1
  1
%%c
  7
SLDTEXTSTYLE0
 11
-7.044195017643634E-15
 21
1.0
 31
0.0
 73
     1
 44
1.0
  0
MTEXT
  5
1F1
330
1E7
100
AcDbEntity
  8
VERMASSUNG
100
AcDbMText
 10
131.1075878812
 20
118.0163993382
 30
0.5038338481
 40
2.0
 41
0.0
 71
     1
 72
     1
  1
63
  7
SLDTEXTSTYLE0
 11
-7.044195017643634E-15
 21
1.0
 31
0.0
 73
     1
 44
1.0
  0
ENDBLK
  5
1E9
330
1E7
100
AcDbEntity
  8
0
100
AcDbBlockEnd
  0
BLOCK
  5
24A
330
249
100
AcDbEntity
  8
0
100
AcDbBlockBegin
  2
SW_CENTERMARKSYMBOL_0
 70
     0
 10
0.0
 20
0.0
 30
0.0
  3
SW_CENTERMARKSYMBOL_0
  1

  0
LINE
  5
24C
330
249
100
AcDbEntity
  8
VERMASSUNG
 62
     0
100
AcDbLine
 10
0.0
 20
0.0
 30
0.0
 11
0.0
 21
2.5
 31
0.0
  0
LINE
  5
24D
330
249
100
AcDbEntity
  8
VERMASSUNG
 62
     0
100
AcDbLine
 10
0.0
 20
0.0
 30
0.0
 11
-2.5
 21
0.0
 31
0.0
  0
LINE
  5
24E
330
249
100
AcDbEntity
  8
VERMASSUNG
 62
     0
100
AcDbLine
 10
0.0
 20
0.0
 30
0.0
 11
0.0
 21
-2.5
 31
0.0
  0
LINE
  5
24F
330
249
100
AcDbEntity
  8
VERMASSUNG
 62
     0
100
AcDbLine
 10
0.0
 20
0.0
 30
0.0
 11
2.5
 21
0.0
 31
0.0
  0
LINE
  5
250
330
249
100
AcDbEntity
  8
VERMASSUNG
 62
     0
100
AcDbLine
 10
0.0
 20
5.0
 30
0.0
 11
0.0
 21
34.0
 31
0.0
  0
LINE
  5
251
330
249
100
AcDbEntity
  8
VERMASSUNG
 62
     0
100
AcDbLine
 10
-5.0
 20
0.0
 30
0.0
 11
-34.0
 21
0.0
 31
0.0
  0
LINE
  5
252
330
249
100
AcDbEntity
  8
VERMASSUNG
 62
     0
100
AcDbLine
 10
0.0
 20
-5.0
 30
0.0
 11
0.0
 21
-34.0
 31
0.0
  0
LINE
  5
253
330
249
100
AcDbEntity
  8
VERMASSUNG
 62
     0
100
AcDbLine
 10
5.0
 20
0.0
 30
0.0
 11
34.0
 21
0.0
 31
0.0
  0
ENDBLK
  5
24B
330
249
100
AcDbEntity
  8
0
100
AcDbBlockEnd
  0
ENDSEC
  0
SECTION
  2
ENTITIES
  0
MTEXT
  5
49
330
1F
100
AcDbEntity
  8
KOPF_DÜNN
100
AcDbMText
 10
13.8892156294
 20
23.8442973028
 30
0.0
 40
3.0
 41
0.0
 71
     1
 72
     1
  1
PS6.PCE.RLA.065
  7
SLDTEXTSTYLE0
 73
     1
 44
1.0
  0
MTEXT
  5
4A
330
1F
100
AcDbEntity
  8
VERMASSUNG
100
AcDbMText
 10
13.9329988022
 20
28.8834360957
 30
0.0
 40
3.0
 41
0.0
 71
     1
 72
     1
  1
Klemmhalter rechts_Turning tool right 95° /80°
  7
SLDTEXTSTYLE0
 73
     1
 44
1.0
  0
MTEXT
  5
4B
330
1F
100
AcDbEntity
  8
VERMASSUNG
100
AcDbMText
 10
98.8601118557
 20
13.8365368179
 30
0.0
 40
2.0
 41
0.0
 71
     1
 72
     1
  1
Datum: 27.04.2012
  7
SLDTEXTSTYLE0
 73
     1
 44
1.0
  0
MTEXT
  5
4C
330
1F
100
AcDbEntity
  8
VERMASSUNG
100
AcDbMText
 10
13.933048693
 20
18.0482802738
 30
0.0
 40
2.0
 41
0.0
 71
     1
 72
     1
  1
PSC ø63 / CN..16 06..
  7
SLDTEXTSTYLE0
 73
     1
 44
1.0
  0
MTEXT
  5
4D
330
1F
100
AcDbEntity
  8
VERMASSUNG
100
AcDbMText
 10
13.9808475933
 20
13.9090973692
 30
0.0
 40
2.0
 41
0.0
 71
     1
 72
     1
  1
Gewicht: 1340g
  7
SLDTEXTSTYLE0
 73
     1
 44
1.0
  0
LINE
  5
4E
330
1F
100
AcDbEntity
  8
0
  6
Continuous
 62
     7
370
    15
100
AcDbLine
 10
238.3140730282
 20
154.4531736135
 30
0.0
 11
237.1272508057
 21
153.6979206255
 31
0.0
  0
LINE
  5
4F
330
1F
100
AcDbEntity
  8
0
  6
Continuous
 62
     7
370
    15
100
AcDbLine
 10
246.6576974642
 20
144.7186360798
 30
0.0
 11
247.3214532059
 21
145.3787556982
 31
0.0
  0
LINE
  5
50
330
1F
100
AcDbEntity
  8
0
  6
Continuous
 62
     7
370
    15
100
AcDbLine
 10
232.9183874621
 20
159.9369686949
 30
0.0
 11
232.2546317204
 21
159.2768490765
 31
0.0
  0
LINE
  5
51
330
1F
100
AcDbEntity
  8
0
  6
Continuous
 62
     7
370
    15
100
AcDbLine
 10
220.996703038
 20
147.7113988654
 30
0.0
 11
184.264030026
 21
147.7113988654
 31
0.0
  0
LINE
  5
52
330
1F
100
AcDbEntity
  8
0
  6
Continuous
 62
     7
370
    15
100
AcDbLine
 10
184.264030026
 20
84.7113988654
 30
0.0
 11
217.5918227057
 21
84.7113988654
 31
0.0
  0
ARC
  5
53
330
1F
100
AcDbEntity
  8
0
  6
Continuous
 62
     7
370
    15
100
AcDbCircle
 10
184.264030026
 20
85.2113988654
 30
0.0
 40
0.5000000000000142
100
AcDbArc
 50
180.0
 51
270.0
  0
ARC
  5
54
330
1F
100
AcDbEntity
  8
0
  6
Continuous
 62
     7
370
    15
100
AcDbCircle
 10
184.264030026
 20
147.2113988654
 30
0.0
 40
0.5
100
AcDbArc
 50
90.0
 51
180.0
  0
LWPOLYLINE
  5
55
330
1F
100
AcDbEntity
  8
0
  6
Continuous
 62
     7
370
    15
100
AcDbPolyline
 90
        3
 70
   128
 43
0.0
 10
183.564030026
 20
93.6715785866
 10
183.6894849695
 20
93.6032764716
 10
183.764030026
 20
93.5505387135
  0
LWPOLYLINE
  5
56
330
1F
100
AcDbEntity
  8
0
  6
Continuous
 62
     7
370
    15
100
AcDbPolyline
 90
        3
 70
   128
 43
0.0
 10
183.764030026
 20
138.8722590174
 10
183.6894849695
 20
138.8195212592
 10
183.564030026
 20
138.7512191443
  0
ARC
  5
57
330
1F
100
AcDbEntity
  8
0
  6
Continuous
 62
     7
370
    15
100
AcDbCircle
 10
220.996703038
 20
148.7113988654
 30
0.0
 40
1.0
100
AcDbArc
 50
270.0
 51
345.0
  0
LINE
  5
58
330
1F
100
AcDbEntity
  8
0
  6
Continuous
 62
     7
370
    15
100
AcDbLine
 10
224.655407829
 20
158.50216773
 30
0.0
 11
221.9626288643
 21
148.4525798203
 31
0.0
  0
LINE
  5
59
330
1F
100
AcDbEntity
  8
0
  6
Continuous
 62
     7
370
    15
100
AcDbLine
 10
232.5792008213
 20
159.1954097889
 30
0.0
 11
224.655407829
 21
158.50216773
 31
0.0
  0
ARC
  5
5A
330
1F
100
AcDbEntity
  8
0
  6
Continuous
 62
     7
370
    15
100
AcDbCircle
 10
204.764030026
 20
129.8613988654
 30
0.0
 40
2.499999999999999
100
AcDbArc
 50
115.3178079379
 51
158.6286669096
  0
ARC
  5
5B
330
1F
100
AcDbEntity
  8
0
  6
Continuous
 62
     7
370
    15
100
AcDbCircle
 10
204.764030026
 20
129.8613988654
 30
0.0
 40
2.499999999999999
100
AcDbArc
 50
21.3713330904
 51
115.3178079379
  0
ARC
  5
5C
330
1F
100
AcDbEntity
  8
0
  6
Continuous
 62
     7
370
    15
100
AcDbCircle
 10
239.1848789918
 20
151.47644775
 30
0.0
 40
3.579982770695951
100
AcDbArc
 50
72.70607313
 51
104.7507143712
  0
LWPOLYLINE
  5
5D
330
1F
100
AcDbEntity
  8
0
  6
Continuous
 62
     7
370
    15
100
AcDbPolyline
 90
        3
 70
   128
 43
0.0
 10
237.5312684702
 20
154.4944402979
 10
238.2556651325
 20
154.6242498949
 10
238.6387263305
 20
154.6321109055
  0
ELLIPSE
  5
5E
330
1F
100
AcDbEntity
  8
0
  6
Continuous
 62
     7
370
    15
100
AcDbEllipse
 10
239.9329186197
 20
151.9274195133
 30
0.0
 11
-2.003525727653056
 21
2.233993969098776
 31
0.0
210
0.0
220
0.0
230
1.0
 40
0.9898983231
 41
5.197565030201906
 42
6.977415694041166
  0
ELLIPSE
  5
5F
330
1F
100
AcDbEntity
  8
0
  6
Continuous
 62
     7
370
    15
100
AcDbEllipse
 10
239.9329186197
 20
151.9274195133
 30
0.0
 11
-2.003525727653056
 21
2.233993969098776
 31
0.0
210
0.0
220
0.0
230
1.0
 40
0.9898983231
 41
3.637591576589516
 42
5.197565030201927
  0
CIRCLE
  5
60
330
1F
100
AcDbEntity
  8
0
  6
Continuous
 62
     7
370
    15
100
AcDbCircle
 10
235.116157281
 20
138.8313136887
 30
0.0
 40
3.480141520656254
  0
CIRCLE
  5
61
330
1F
100
AcDbEntity
  8
0
  6
Continuous
 62
     7
370
    15
100
AcDbCircle
 10
235.1325161941
 20
138.8323255049
 30
0.0
 40
1.987256747362777
  0
SPLINE
  5
62
330
1F
100
AcDbEntity
  8
0
  6
Continuous
 62
     7
370
    15
100
AcDbSpline
210
0.0
220
0.0
230
1.0
 70
     8
 71
     3
 72
    11
 73
     7
 74
     0
 42
0.00000001
 43
0.00000001
 12
1.0
 22
0.0
 32
0.0
 13
1.0
 23
0.0
 33
0.0
 40
0.0
 40
0.0
 40
0.0
 40
0.0
 40
0.1081100880371221
 40
0.4711580666043583
 40
0.8135808430836163
 40
0.9999999999999999
 40
0.9999999999999999
 40
0.9999999999999999
 40
0.9999999999999999
 10
234.1136744766102
 20
137.4201001315427
 30
0.0
 10
234.1686627836264
 20
137.4104694645681
 30
0.0
 10
234.4083091005426
 20
137.3684977437581
 30
0.0
 10
234.8754684160144
 20
137.2994576553273
 30
0.0
 10
235.4223153790948
 20
137.2471745786634
 30
0.0
 10
235.7213792082141
 20
137.227986239916
 30
0.0
 10
235.8268005512809
 20
137.2212222643195
 30
0.0
  0
SPLINE
  5
63
330
1F
100
AcDbEntity
  8
0
  6
Continuous
 62
     7
370
    15
100
AcDbSpline
210
0.0
220
0.0
230
1.0
 70
     8
 71
     3
 72
    10
 73
     6
 74
     0
 42
0.00000001
 43
0.00000001
 12
1.0
 22
0.0
 32
0.0
 13
1.0
 23
0.0
 33
0.0
 40
0.0
 40
0.0
 40
0.0
 40
0.0
 40
0.4391165375904123
 40
0.7513669429073473
 40
0.9999999999999999
 40
0.9999999999999999
 40
0.9999999999999999
 40
0.9999999999999999
 10
235.8268005512809
 20
137.2212222643195
 30
0.0
 10
235.9610085909823
 20
137.408452017329
 30
0.0
 10
236.1906503281336
 20
137.72881856037
 30
0.0
 10
236.5593536943859
 20
138.2292153875111
 30
0.0
 10
236.753316098898
 20
138.488668404945
 30
0.0
 10
236.8392973567296
 20
138.6036808829728
 30
0.0
  0
SPLINE
  5
64
330
1F
100
AcDbEntity
  8
0
  6
Continuous
 62
     7
370
    15
100
AcDbSpline
210
0.0
220
0.0
230
1.0
 70
     8
 71
     3
 72
    10
 73
     6
 74
     0
 42
0.00000001
 43
0.00000001
 12
1.0
 22
0.0
 32
0.0
 13
1.0
 23
0.0
 33
0.0
 40
0.0
 40
0.0
 40
0.0
 40
0.0
 40
0.4391165375904134
 40
0.751366942907349
 40
1.0
 40
1.0
 40
1.0
 40
1.0
 10
236.8392973567296
 20
138.6036808829728
 30
0.0
 10
236.7282581919826
 20
138.8193815358677
 30
0.0
 10
236.5382604337184
 20
139.1884642878818
 30
0.0
 10
236.2969436765883
 20
139.75967872903
 30
0.0
 10
236.1872804908721
 20
140.0543798293177
 30
0.0
 10
236.1386680875075
 20
140.1850173688492
 30
0.0
  0
SPLINE
  5
65
330
1F
100
AcDbEntity
  8
0
  6
Continuous
 62
     7
370
    15
100
AcDbSpline
210
0.0
220
0.0
230
1.0
 70
     8
 71
     3
 72
    11
 73
     7
 74
     0
 42
0.00000001
 43
0.00000001
 12
1.0
 22
0.0
 32
0.0
 13
1.0
 23
0.0
 33
0.0
 40
0.0
 40
0.0
 40
0.0
 40
0.0
 40
0.186419156916384
 40
0.5288419333956432
 40
0.8918899119628771
 40
1.0
 40
1.0
 40
1.0
 40
1.0
 10
236.1386680875075
 20
140.1850173688492
 30
0.0
 10
236.0332467444407
 20
140.1917813444457
 30
0.0
 10
235.7341829153214
 20
140.2109696831931
 30
0.0
 10
235.187335952241
 20
140.263252759857
 30
0.0
 10
234.7201766367693
 20
140.3322928482878
 30
0.0
 10
234.480530319853
 20
140.3742645690978
 30
0.0
 10
234.4255420128368
 20
140.3838952360724
 30
0.0
  0
SPLINE
  5
66
330
1F
100
AcDbEntity
  8
0
  6
Continuous
 62
     7
370
    15
100
AcDbSpline
210
0.0
220
0.0
230
1.0
 70
     8
 71
     3
 72
    10
 73
     6
 74
     0
 42
0.00000001
 43
0.00000001
 12
1.0
 22
0.0
 32
0.0
 13
1.0
 23
0.0
 33
0.0
 40
0.0
 40
0.0
 40
0.0
 40
0.0
 40
0.43911653759041
 40
0.7513669429073461
 40
1.0
 40
1.0
 40
1.0
 40
1.0
 10
234.4255420128368
 20
140.3838952360724
 30
0.0
 10
234.2698566060247
 20
140.1753057712166
 30
0.0
 10
234.0034652083936
 20
139.8183908861809
 30
0.0
 10
233.6510968037865
 20
139.3342395360559
 30
0.0
 10
233.4861598316514
 20
139.1036529466435
 30
0.0
 10
233.4130452073881
 20
139.0014366174191
 30
0.0
  0
SPLINE
  5
67
330
1F
100
AcDbEntity
  8
0
  6
Continuous
 62
     7
370
    15
100
AcDbSpline
210
0.0
220
0.0
230
1.0
 70
     8
 71
     3
 72
    10
 73
     6
 74
     0
 42
0.00000001
 43
0.00000001
 12
1.0
 22
0.0
 32
0.0
 13
1.0
 23
0.0
 33
0.0
 40
0.0
 40
0.0
 40
0.0
 40
0.0
 40
0.4391165375904158
 40
0.7513669429073522
 40
1.0
 40
1.0
 40
1.0
 40
1.0
 10
233.4130452073881
 20
139.0014366174191
 30
0.0
 10
233.5026070050245
 20
138.7643762526778
 30
0.0
 10
233.6558551028087
 20
138.358745158669
 30
0.0
 10
233.9135068215841
 20
137.8037761945371
 30
0.0
 10
234.0521954396773
 20
137.5379415222709
 30
0.0
 10
234.1136744766102
 20
137.4201001315427
 30
0.0
  0
LINE
  5
68
330
1F
100
AcDbEntity
  8
0
  6
Continuous
 62
     7
370
    15
100
AcDbLine
 10
235.7258745306
 20
137.2280981865
 30
0.0
 11
235.9429434183
 21
137.5244830768
 31
0.0
  0
LINE
  5
69
330
1F
100
AcDbEntity
  8
0
  6
Continuous
 62
     7
370
    15
100
AcDbLine
 10
235.9429434183
 20
137.5244830768
 30
0.0
 11
236.449191821
 21
138.2157123862
 31
0.0
  0
LINE
  5
6A
330
1F
100
AcDbEntity
  8
0
  6
Continuous
 62
     7
370
    15
100
AcDbLine
 10
236.449191821
 20
138.2157123862
 30
0.0
 11
236.8392973567
 21
138.603680883
 31
0.0
  0
LINE
  5
6B
330
1F
100
AcDbEntity
  8
0
  6
Continuous
 62
     7
370
    15
100
AcDbLine
 10
236.449191821
 20
138.2157123862
 30
0.0
 11
236.0988771864
 21
139.0063806291
 31
0.0
  0
LINE
  5
6C
330
1F
100
AcDbEntity
  8
0
  6
Continuous
 62
     7
370
    15
100
AcDbLine
 10
236.0988771864
 20
139.0063806291
 30
0.0
 11
235.7485625518
 21
139.797048872
 31
0.0
  0
LINE
  5
6D
330
1F
100
AcDbEntity
  8
0
  6
Continuous
 62
     7
370
    15
100
AcDbLine
 10
235.7485625518
 20
139.797048872
 30
0.0
 11
236.1386680875
 21
140.1850173688
 31
0.0
  0
LINE
  5
6E
330
1F
100
AcDbEntity
  8
0
  6
Continuous
 62
     7
370
    15
100
AcDbLine
 10
235.7485625518
 20
139.797048872
 30
0.0
 11
234.8919995144
 21
139.8964878057
 31
0.0
  0
LINE
  5
6F
330
1F
100
AcDbEntity
  8
0
  6
Continuous
 62
     7
370
    15
100
AcDbLine
 10
234.8919995144
 20
139.8964878057
 30
0.0
 11
234.1293045528
 21
139.9850295362
 31
0.0
  0
ARC
  5
70
330
1F
100
AcDbEntity
  8
0
  6
Continuous
 62
     7
370
    15
100
AcDbCircle
 10
234.7408654706
 20
138.400125519
 30
0.0
 40
1.487192347545905
100
AcDbArc
 50
323.9288835421
 51
24.0573452248
  0
ARC
  5
71
330
1F
100
AcDbEntity
  8
0
  6
Continuous
 62
     7
370
    15
100
AcDbCircle
 10
234.7588998062
 20
138.3916319227
 30
0.0
 40
1.467619295340402
100
AcDbArc
 50
306.8407417276
 51
323.7823603725
  0
ARC
  5
72
330
1F
100
AcDbEntity
  8
0
  6
Continuous
 62
     7
370
    15
100
AcDbCircle
 10
234.719213707
 20
138.4269765214
 30
0.0
 40
1.479634532477504
100
AcDbArc
 50
83.2939271646
 51
127.9145172634
  0
ARC
  5
73
330
1F
100
AcDbEntity
  8
0
  6
Continuous
 62
     7
370
    15
100
AcDbCircle
 10
234.7154310109
 20
138.3938386078
 30
0.0
 40
1.512987458046509
100
AcDbArc
 50
23.882102474
 51
83.2982025035
  0
LINE
  5
74
330
1F
100
AcDbEntity
  8
0
  6
Continuous
 62
     7
370
    15
100
AcDbLine
 10
231.908290718
 20
144.1054824048
 30
0.0
 11
247.074059724
 21
145.2656983016
 31
0.0
  0
ARC
  5
75
330
1F
100
AcDbEntity
  8
0
  6
Continuous
 62
     7
370
    15
100
AcDbCircle
 10
231.8785460972
 20
144.5070530385
 30
0.0
 40
0.4026707293641615
100
AcDbArc
 50
175.1377687673
 51
274.2362029422
  0
LINE
  5
76
330
1F
100
AcDbEntity
  8
0
  6
Continuous
 62
     7
370
    15
100
AcDbLine
 10
232.8041572862
 20
159.69237537
 30
0.0
 11
231.4773244245
 21
144.5411834596
 31
0.0
  0
ARC
  5
77
330
1F
100
AcDbEntity
  8
0
  6
Continuous
 62
     7
370
    15
100
AcDbCircle
 10
233.1951641832
 20
159.6586707263
 30
0.0
 40
0.3924568722548757
100
AcDbArc
 50
94.2937518475
 51
175.073304225
  0
LINE
  5
78
330
1F
100
AcDbEntity
  8
0
  6
Continuous
 62
     7
370
    15
100
AcDbLine
 10
248.3315499501
 20
161.2102419883
 30
0.0
 11
233.1657809441
 21
160.0500260915
 31
0.0
  0
ARC
  5
79
330
1F
100
AcDbEntity
  8
0
  6
Continuous
 62
     7
370
    15
100
AcDbCircle
 10
248.3612945709
 20
160.8086713546
 30
0.0
 40
0.4026707293642862
100
AcDbArc
 50
355.1377687674
 51
94.2362029422
  0
LINE
  5
7A
330
1F
100
AcDbEntity
  8
0
  6
Continuous
 62
     7
370
    15
100
AcDbLine
 10
247.4356833819
 20
145.6233490231
 30
0.0
 11
248.7625162436
 21
160.7745409335
 31
0.0
  0
ARC
  5
7B
330
1F
100
AcDbEntity
  8
0
  6
Continuous
 62
     7
370
    15
100
AcDbCircle
 10
247.0446764848
 20
145.6570536667
 30
0.0
 40
0.392456872254846
100
AcDbArc
 50
274.2937518475
 51
355.073304225
  0
ARC
  5
7C
330
1F
100
AcDbEntity
  8
0
  6
Continuous
 62
     7
370
    15
100
AcDbCircle
 10
233.1954285872
 20
159.6584047002
 30
0.0
 40
0.3728340286422534
100
AcDbArc
 50
94.2937518475
 51
175.073304225
  0
LINE
  5
7D
330
1F
100
AcDbEntity
  8
0
  6
Continuous
 62
     7
370
    15
100
AcDbLine
 10
232.823972035
 20
159.6904241117
 30
0.0
 11
231.4971391733
 21
144.5392322013
 31
0.0
  0
ARC
  5
7E
330
1F
100
AcDbEntity
  8
0
  6
Continuous
 62
     7
370
    15
100
AcDbCircle
 10
231.8782997623
 20
144.5068083012
 30
0.0
 40
0.38253719289604
100
AcDbArc
 50
175.1377687674
 51
274.2362029422
  0
LINE
  5
7F
330
1F
100
AcDbEntity
  8
0
  6
Continuous
 62
     7
370
    15
100
AcDbLine
 10
231.9065571521
 20
144.1253161992
 30
0.0
 11
247.0723261581
 21
145.285532096
 31
0.0
  0
ARC
  5
80
330
1F
100
AcDbEntity
  8
0
  6
Continuous
 62
     7
370
    15
100
AcDbCircle
 10
247.0444120809
 20
145.6573196929
 30
0.0
 40
0.3728340286422509
100
AcDbArc
 50
274.2937518475
 51
355.073304225
  0
LINE
  5
81
330
1F
100
AcDbEntity
  8
0
  6
Continuous
 62
     7
370
    15
100
AcDbLine
 10
247.4158686331
 20
145.6253002814
 30
0.0
 11
248.7427014948
 21
160.7764921918
 31
0.0
  0
ARC
  5
82
330
1F
100
AcDbEntity
  8
0
  6
Continuous
 62
     7
370
    15
100
AcDbCircle
 10
248.3615409063
 20
160.8089160921
 30
0.0
 40
0.3825371923932511
100
AcDbArc
 50
355.1377687255
 51
94.2362027761
  0
LINE
  5
83
330
1F
100
AcDbEntity
  8
0
  6
Continuous
 62
     7
370
    15
100
AcDbLine
 10
248.3332835176
 20
161.1904081937
 30
0.0
 11
233.16751451
 21
160.0301922971
 31
0.0
  0
LINE
  5
84
330
1F
100
AcDbEntity
  8
0
  6
Continuous
 62
     7
370
    15
100
AcDbLine
 10
231.8506865764
 20
144.4793510976
 30
0.0
 11
231.9065571521
 21
144.1253161992
 31
0.0
  0
LINE
  5
85
330
1F
100
AcDbEntity
  8
0
  6
Continuous
 62
     7
370
    15
100
AcDbLine
 10
231.8506865764
 20
144.4793510976
 30
0.0
 11
231.4971391733
 21
144.5392322013
 31
0.0
  0
LINE
  5
86
330
1F
100
AcDbEntity
  8
0
  6
Continuous
 62
     7
370
    15
100
AcDbLine
 10
245.8553051291
 20
146.6698293588
 30
0.0
 11
247.0164555824
 21
145.6395669943
 31
0.0
  0
LINE
  5
87
330
1F
100
AcDbEntity
  8
0
  6
Continuous
 62
     7
370
    15
100
AcDbLine
 10
247.0164555824
 20
145.6395669943
 30
0.0
 11
247.0723261581
 21
145.285532096
 31
0.0
  0
LINE
  5
88
330
1F
100
AcDbEntity
  8
0
  6
Continuous
 62
     7
370
    15
100
AcDbLine
 10
233.3423709971
 20
145.9541675913
 30
0.0
 11
231.8506865764
 21
144.4793510976
 31
0.0
  0
LINE
  5
89
330
1F
100
AcDbEntity
  8
0
  6
Continuous
 62
     7
370
    15
100
AcDbLine
 10
231.3883571433
 20
150.4446111622
 30
0.0
 11
230.8224124259
 21
143.9820511271
 31
0.0
  0
LINE
  5
8A
330
1F
100
AcDbEntity
  8
0
  6
Continuous
 62
     7
370
    15
100
AcDbLine
 10
233.1775194381
 20
159.6305430079
 30
0.0
 11
232.823972035
 21
159.6904241117
 31
0.0
  0
LINE
  5
8B
330
1F
100
AcDbEntity
  8
0
  6
Continuous
 62
     7
370
    15
100
AcDbLine
 10
234.1954194891
 20
158.4578149821
 30
0.0
 11
233.1775194381
 21
159.6305430079
 31
0.0
  0
ARC
  5
8C
330
1F
100
AcDbEntity
  8
0
  6
Continuous
 62
     7
370
    15
100
AcDbCircle
 10
235.8463486641
 20
148.4312970647
 30
0.0
 40
1.006676823410638
100
AcDbArc
 50
175.1377687674
 51
274.2362029422
  0
LINE
  5
8D
330
1F
100
AcDbEntity
  8
0
  6
Continuous
 62
     7
370
    15
100
AcDbLine
 10
235.9207102161
 20
147.4273704806
 30
0.0
 11
243.8028860146
 21
148.0303748952
 31
0.0
  0
LINE
  5
8E
330
1F
100
AcDbEntity
  8
0
  6
Continuous
 62
     7
370
    15
100
AcDbLine
 10
235.5328955086
 20
156.3912226942
 30
0.0
 11
234.8432944824
 21
148.5166231175
 31
0.0
  0
ARC
  5
8F
330
1F
100
AcDbEntity
  8
0
  6
Continuous
 62
     7
370
    15
100
AcDbCircle
 10
236.5104127514
 20
156.306961085
 30
0.0
 40
0.9811421806372419
100
AcDbArc
 50
94.2937518475
 51
175.073304225
  0
LINE
  5
90
330
1F
100
AcDbEntity
  8
0
  6
Continuous
 62
     7
370
    15
100
AcDbLine
 10
244.3191304519
 20
157.8883539126
 30
0.0
 11
236.4369546535
 21
157.2853494979
 31
0.0
  0
ARC
  5
91
330
1F
100
AcDbEntity
  8
0
  6
Continuous
 62
     7
370
    15
100
AcDbCircle
 10
244.3934920045
 20
156.8844273286
 30
0.0
 40
1.006676823230213
100
AcDbArc
 50
355.1377687515
 51
94.2362029702
  0
LINE
  5
92
330
1F
100
AcDbEntity
  8
0
  6
Continuous
 62
     7
370
    15
100
AcDbLine
 10
244.7069451594
 20
148.924501699
 30
0.0
 11
245.396546186
 21
156.7991012756
 31
0.0
  0
ARC
  5
93
330
1F
100
AcDbEntity
  8
0
  6
Continuous
 62
     7
370
    15
100
AcDbCircle
 10
243.7294279167
 20
149.0087633081
 30
0.0
 40
0.9811421806372629
100
AcDbArc
 50
274.2937518475
 51
355.073304225
  0
CIRCLE
  5
94
330
1F
100
AcDbEntity
  8
0
  6
Continuous
 62
     7
370
    15
100
AcDbCircle
 10
240.1247594742
 20
152.6244025157
 30
0.0
 40
3.15288244044898
  0
SPLINE
  5
95
330
1F
100
AcDbEntity
  8
0
  6
Continuous
 62
     7
370
    15
100
AcDbSpline
210
0.0
220
0.0
230
1.0
 70
     8
 71
     3
 72
    11
 73
     7
 74
     0
 42
0.00000001
 43
0.00000001
 12
1.0
 22
0.0
 32
0.0
 13
1.0
 23
0.0
 33
0.0
 40
0.0
 40
0.0
 40
0.0
 40
0.0
 40
0.3517313814402229
 40
0.7021754471682691
 40
0.9922929354047921
 40
1.0
 40
1.0
 40
1.0
 40
1.0
 10
233.3423709971292
 20
145.9541675912518
 30
0.0
 10
233.3980345654885
 20
146.0092075690234
 30
0.0
 10
233.5091579768931
 20
146.1190860815568
 30
0.0
 10
233.6820290582388
 20
146.2900811062024
 30
0.0
 10
233.7892536566179
 20
146.3961627064874
 30
0.0
 10
233.8363703767032
 20
146.4427822120775
 30
0.0
 10
233.8375896569867
 20
146.4439886255097
 30
0.0
  0
ARC
  5
96
330
1F
100
AcDbEntity
  8
0
  6
Continuous
 62
     7
370
    15
100
AcDbCircle
 10
239.4275478345
 20
152.0019710956
 30
0.0
 40
3.153928307149704
100
AcDbArc
 50
56.7341395371
 51
125.9899654129
  0
LINE
  5
97
330
1F
100
AcDbEntity
  8
0
  6
Continuous
 62
     7
370
    15
100
AcDbLine
 10
246.6774266233
 20
159.1427191731
 30
0.0
 11
248.343288444
 21
160.7907589047
 31
0.0
  0
LINE
  5
98
330
1F
100
AcDbEntity
  8
0
  6
Continuous
 62
     7
370
    15
100
AcDbLine
 10
248.343288444
 20
160.7907589047
 30
0.0
 11
248.7427014948
 21
160.7764921918
 31
0.0
  0
LINE
  5
99
330
1F
100
AcDbEntity
  8
0
  6
Continuous
 62
     7
370
    15
100
AcDbLine
 10
247.0164555824
 20
145.6395669943
 30
0.0
 11
247.4158686331
 21
145.6253002814
 31
0.0
  0
LINE
  5
9A
330
1F
100
AcDbEntity
  8
0
  6
Continuous
 62
     7
370
    15
100
AcDbLine
 10
233.1775194381
 20
159.6305430079
 30
0.0
 11
233.16751451
 21
160.0301922971
 31
0.0
  0
LINE
  5
9B
330
1F
100
AcDbEntity
  8
0
  6
Continuous
 62
     7
370
    15
100
AcDbLine
 10
248.343288444
 20
160.7907589047
 30
0.0
 11
248.3332835176
 21
161.1904081937
 31
0.0
  0
ARC
  5
9C
330
1F
100
AcDbEntity
  8
0
  6
Continuous
 62
     7
370
    15
100
AcDbCircle
 10
246.381285981
 20
144.996664526
 30
0.0
 40
0.3920499010490804
100
AcDbArc
 50
287.7750876724
 51
314.8329036469
  0
ARC
  5
9D
330
1F
100
AcDbEntity
  8
0
  6
Continuous
 62
     7
370
    15
100
AcDbCircle
 10
232.5310584321
 20
158.9989918602
 30
0.0
 40
0.3919392295046991
100
AcDbArc
 50
134.8521304848
 51
155.7559007873
  0
SPLINE
  5
9E
330
1F
100
AcDbEntity
  8
0
  6
Continuous
 62
     7
370
    15
100
AcDbSpline
210
0.0
220
0.0
230
1.0
 70
     8
 71
     3
 72
    11
 73
     7
 74
     0
 42
0.00000001
 43
0.00000001
 12
1.0
 22
0.0
 32
0.0
 13
1.0
 23
0.0
 33
0.0
 40
0.0
 40
0.0
 40
0.0
 40
0.0
 40
0.0082250097086938
 40
0.3243955849042021
 40
0.6617848888873158
 40
1.0
 40
1.0
 40
1.0
 40
1.0
 10
245.3716710331524
 20
147.1691436114674
 30
0.0
 10
245.372772182797
 20
147.1678242540696
 30
0.0
 10
245.4162016857009
 20
147.1157886054921
 30
0.0
 10
245.5149599545094
 20
147.0035856866212
 30
0.0
 10
245.6829890033379
 20
146.8281926611933
 30
0.0
 10
245.7978196338151
 20
146.722660124537
 30
0.0
 10
245.8553051291407
 20
146.669829358761
 30
0.0
  0
SPLINE
  5
9F
330
1F
100
AcDbEntity
  8
0
  6
Continuous
 62
     7
370
    15
100
AcDbSpline
210
0.0
220
0.0
230
1.0
 70
     8
 71
     3
 72
    11
 73
     7
 74
     0
 42
0.00000001
 43
0.00000001
 12
1.0
 22
0.0
 32
0.0
 13
1.0
 23
0.0
 33
0.0
 40
0.0
 40
0.0
 40
0.0
 40
0.0
 40
0.33821511111307
 40
0.6756044150964055
 40
0.9917749902912731
 40
1.0
 40
1.0
 40
1.0
 40
1.0
 10
234.1954194891479
 20
158.4578149820674
 30
0.0
 10
234.2476332163729
 20
158.3997413274879
 30
0.0
 10
234.351933182527
 20
158.2837358145894
 30
0.0
 10
234.5254650208169
 20
158.113815433767
 30
0.0
 10
234.6365489966841
 20
158.0138707004418
 30
0.0
 10
234.688085185112
 20
157.9698973281172
 30
0.0
 10
234.6893918787598
 20
157.9687823887311
 30
0.0
  0
SPLINE
  5
A0
330
1F
100
AcDbEntity
  8
0
  6
Continuous
 62
     7
370
    15
100
AcDbSpline
210
0.0
220
0.0
230
1.0
 70
     8
 71
     3
 72
    11
 73
     7
 74
     0
 42
0.00000001
 43
0.00000001
 12
1.0
 22
0.0
 32
0.0
 13
1.0
 23
0.0
 33
0.0
 40
0.0
 40
0.0
 40
0.0
 40
0.0
 40
0.0077070645953265
 40
0.297824552830408
 40
0.6482686185591223
 40
1.0
 40
1.0
 40
1.0
 40
1.0
 10
246.1978342068174
 20
158.6684387799688
 30
0.0
 10
246.1988615468257
 20
158.6694543045946
 30
0.0
 10
246.2385611075063
 20
158.7086972827535
 30
0.0
 10
246.3330730109177
 20
158.802135829547
 30
0.0
 10
246.4975307880844
 20
158.9647636389729
 30
0.0
 10
246.6173880991245
 20
159.0833282059259
 30
0.0
 10
246.6774266233393
 20
159.1427191730872
 30
0.0
  0
SPLINE
  5
A1
330
1F
100
AcDbEntity
  8
0
  6
Continuous
 62
     7
370
    15
100
AcDbSpline
210
0.0
220
0.0
230
1.0
 70
     8
 71
     3
 72
    68
 73
    64
 74
     0
 42
0.00000001
 43
0.00000001
 12
1.0
 22
0.0
 32
0.0
 13
1.0
 23
0.0
 33
0.0
 40
-0.0624999999999993
 40
-0.0624999999999993
 40
0.0
 40
0.0
 40
0.0312500000000001
 40
0.0312500000000001
 40
0.0625000000000002
 40
0.0625000000000002
 40
0.0937500000000003
 40
0.0937500000000003
 40
0.1250000000000004
 40
0.1250000000000004
 40
0.1562500000000006
 40
0.1562500000000006
 40
0.1875000000000007
 40
0.1875000000000007
 40
0.2187500000000008
 40
0.2187500000000008
 40
0.2500000000000009
 40
0.2500000000000009
 40
0.281250000000001
 40
0.281250000000001
 40
0.3125000000000011
 40
0.3125000000000011
 40
0.3437500000000012
 40
0.3437500000000012
 40
0.3750000000000013
 40
0.3750000000000013
 40
0.4062500000000014
 40
0.4062500000000014
 40
0.4375000000000016
 40
0.4375000000000016
 40
0.4687500000000017
 40
0.4687500000000017
 40
0.5000000000000018
 40
0.5000000000000018
 40
0.5312500000000019
 40
0.5312500000000019
 40
0.562500000000002
 40
0.562500000000002
 40
0.5937500000000021
 40
0.5937500000000021
 40
0.6250000000000022
 40
0.6250000000000022
 40
0.6562500000000023
 40
0.6562500000000023
 40
0.6875000000000024
 40
0.6875000000000024
 40
0.7187500000000026
 40
0.7187500000000026
 40
0.7500000000000027
 40
0.7500000000000027
 40
0.7812500000000023
 40
0.7812500000000023
 40
0.812500000000002
 40
0.812500000000002
 40
0.8437500000000017
 40
0.8437500000000017
 40
0.8750000000000013
 40
0.8750000000000013
 40
0.906250000000001
 40
0.906250000000001
 40
0.9375000000000007
 40
0.9375000000000007
 40
1.0
 40
1.0
 40
1.03125
 40
1.03125
 10
205.1606596463665
 20
129.2917313743478
 30
0.0
 10
204.5657152158118
 20
129.2917313743478
 30
0.0
 10
204.3707369695622
 20
129.3095335375425
 30
0.0
 10
203.9871737444165
 20
129.3791620706622
 30
0.0
 10
203.7965929689543
 20
129.4318392603411
 30
0.0
 10
203.4333436821675
 20
129.5689294918619
 30
0.0
 10
203.2610769431716
 20
129.6526755241833
 30
0.0
 10
202.9350552264636
 20
129.8498573638413
 30
0.0
 10
202.780779859687
 20
129.9642704614566
 30
0.0
 10
202.5042169384359
 20
130.2131631664938
 30
0.0
 10
202.3800740481205
 20
130.3485340092254
 30
0.0
 10
202.1607592757496
 20
130.6411871358903
 30
0.0
 10
202.0676288203463
 20
130.796236707506
 30
0.0
 10
201.9179744898202
 20
131.1154010531808
 30
0.0
 10
201.8603275198283
 20
131.2818759350397
 30
0.0
 10
201.7832209580059
 20
131.6208849102938
 30
0.0
 10
201.7641371766625
 20
131.7904364342962
 30
0.0
 10
201.7639237665851
 20
132.1295290663982
 30
0.0
 10
201.7834190570846
 20
132.3008155458925
 30
0.0
 10
201.8599889315616
 20
132.6305203390475
 30
0.0
 10
201.9166421727708
 20
132.7898988148538
 30
0.0
 10
202.0669181235801
 20
133.0979482707724
 30
0.0
 10
202.1608017859926
 20
133.2459721405257
 30
0.0
 10
202.377866986089
 20
133.5188074129619
 30
0.0
 10
202.5017982423637
 20
133.6453789591906
 30
0.0
 10
202.781755087516
 20
133.8785898900882
 30
0.0
 10
202.9332142384178
 20
133.9814171602667
 30
0.0
 10
203.2579472473655
 20
134.16098370667
 30
0.0
 10
203.433311686182
 20
134.2383724717287
 30
0.0
 10
203.7966287050817
 20
134.3621833080166
 30
0.0
 10
203.9836201580723
 20
134.4087384639796
 30
0.0
 10
204.368191656429
 20
134.4717159430837
 30
0.0
 10
204.5670995095484
 20
134.4878249455883
 30
0.0
 10
204.958762909245
 20
134.4879423192273
 30
0.0
 10
205.1534706456318
 20
134.4724720983043
 30
0.0
 10
205.5405877092868
 20
134.4096532195616
 30
0.0
 10
205.7300587120137
 20
134.3624941794253
 30
0.0
 10
206.0911912100313
 20
134.2397394421763
 30
0.0
 10
206.2656104593916
 20
134.1632503791923
 30
0.0
 10
206.5938084971955
 20
133.9822100027372
 30
0.0
 10
206.7448867346461
 20
133.8794379167448
 30
0.0
 10
207.0217228276737
 20
133.6494863334055
 30
0.0
 10
207.1484866441862
 20
133.5207263786307
 30
0.0
 10
207.3664911823431
 20
133.2471596425321
 30
0.0
 10
207.4587723618731
 20
133.1019957535076
 30
0.0
 10
207.6096520490385
 20
132.7943065040332
 30
0.0
 10
207.6675984835086
 20
132.6318838344058
 30
0.0
 10
207.7442106659233
 20
132.3033322768535
 30
0.0
 10
207.7638386859387
 20
132.1354927663644
 30
0.0
 10
207.7642186091838
 20
131.7922859809397
 30
0.0
 10
207.7449062686792
 20
131.6221692270605
 30
0.0
 10
207.6689856520024
 20
131.2864134663558
 30
0.0
 10
207.6114798830364
 20
131.1187822950095
 30
0.0
 10
207.4611197364472
 20
130.7973030613585
 30
0.0
 10
207.3691004485559
 20
130.6441103091708
 30
0.0
 10
207.1517564335658
 20
130.3530567519109
 30
0.0
 10
207.0252370134342
 20
130.2145865069256
 30
0.0
 10
206.7488033939744
 20
129.9654741379445
 30
0.0
 10
206.5979738038981
 20
129.8532260229078
 30
0.0
 10
206.270462211658
 20
129.6544256142845
 30
0.0
 10
206.0959136785698
 20
129.5695494208516
 30
0.0
 10
205.5547088101982
 20
129.364797941607
 30
0.0
 10
205.1606596463665
 20
129.2917313743478
 30
0.0
 10
204.5657152158118
 20
129.2917313743478
 30
0.0
  0
SPLINE
  5
A2
330
1F
100
AcDbEntity
  8
0
  6
Continuous
 62
     7
370
    15
100
AcDbSpline
210
0.0
220
0.0
230
1.0
 70
     8
 71
     3
 72
    12
 73
     8
 74
     0
 42
0.00000001
 43
0.00000001
 12
1.0
 22
0.0
 32
0.0
 13
1.0
 23
0.0
 33
0.0
 40
0.0
 40
0.0
 40
0.0
 40
0.0
 40
0.5
 40
0.5
 40
0.75
 40
0.75
 40
1.0
 40
1.0
 40
1.0
 40
1.0
 10
193.8587741376709
 20
126.1207681861111
 30
0.0
 10
193.88949637959
 20
126.0082123867019
 30
0.0
 10
193.9323335941252
 20
125.8954545269623
 30
0.0
 10
194.031760618325
 20
125.745913641166
 30
0.0
 10
194.0715128131417
 20
125.6986209094591
 30
0.0
 10
194.1695542699999
 20
125.6248846161377
 30
0.0
 10
194.2291103255874
 20
125.599465296762
 30
0.0
 10
194.2917868395632
 20
125.599465296762
 30
0.0
  0
LINE
  5
A3
330
1F
100
AcDbEntity
  8
0
  6
Continuous
 62
     7
370
    15
100
AcDbLine
 10
194.2917868396
 20
125.5994652968
 30
0.0
 11
197.2362732124
 21
125.5994652968
 31
0.0
  0
SPLINE
  5
A4
330
1F
100
AcDbEntity
  8
0
  6
Continuous
 62
     7
370
    15
100
AcDbSpline
210
0.0
220
0.0
230
1.0
 70
     8
 71
     3
 72
    12
 73
     8
 74
     0
 42
0.00000001
 43
0.00000001
 12
1.0
 22
0.0
 32
0.0
 13
1.0
 23
0.0
 33
0.0
 40
0.0
 40
0.0
 40
0.0
 40
0.0
 40
0.2499999999999991
 40
0.2499999999999991
 40
0.4999999999999982
 40
0.4999999999999982
 40
1.0
 40
1.0
 40
1.0
 40
1.0
 10
197.2362732124303
 20
125.599465296762
 30
0.0
 10
197.2993532509236
 20
125.599465296762
 30
0.0
 10
197.358501873105
 20
125.6248296159769
 30
0.0
 10
197.4569744231741
 20
125.6989944763498
 30
0.0
 10
197.4960110351588
 20
125.7455148169039
 30
0.0
 10
197.5959075019378
 20
125.8956571597492
 30
0.0
 10
197.6383283830045
 20
126.0073503667213
 30
0.0
 10
197.6692859143225
 20
126.1207681861111
 30
0.0
  0
ELLIPSE
  5
A5
330
1F
100
AcDbEntity
  8
0
  6
Continuous
 62
     7
370
    15
100
AcDbEllipse
 10
181.4168758366
 20
116.2113988654
 30
0.0
 11
14.75368316065604
 21
31.09325491558115
 31
0.0
210
0.0
220
0.0
230
1.0
 40
0.3419987131
 41
5.193281737408619
 42
6.124043104552327
  0
SPLINE
  5
A6
330
1F
100
AcDbEntity
  8
0
  6
Continuous
 62
     7
370
    15
100
AcDbSpline
210
0.0
220
0.0
230
1.0
 70
     8
 71
     3
 72
    12
 73
     8
 74
     0
 42
0.00000001
 43
0.00000001
 12
1.0
 22
0.0
 32
0.0
 13
1.0
 23
0.0
 33
0.0
 40
0.0
 40
0.0
 40
0.0
 40
0.0
 40
0.4999999999999981
 40
0.4999999999999981
 40
0.749999999999999
 40
0.749999999999999
 40
1.0
 40
1.0
 40
1.0
 40
1.0
 10
197.6692859143225
 20
146.1121413255433
 30
0.0
 10
197.6385636724034
 20
146.1494433084963
 30
0.0
 10
197.5957264578682
 20
146.1860551405427
 30
0.0
 10
197.4962994336684
 20
146.2338199238279
 30
0.0
 10
197.4565472388518
 20
146.2487774393103
 30
0.0
 10
197.3585057819936
 20
146.2719673850794
 30
0.0
 10
197.2989497264061
 20
146.2798908242991
 30
0.0
 10
197.2362732124303
 20
146.2798908242991
 30
0.0
  0
LINE
  5
A7
330
1F
100
AcDbEntity
  8
0
  6
Continuous
 62
     7
370
    15
100
AcDbLine
 10
197.2362732124
 20
146.2798908243
 30
0.0
 11
194.2917868396
 21
146.2798908243
 31
0.0
  0
SPLINE
  5
A8
330
1F
100
AcDbEntity
  8
0
  6
Continuous
 62
     7
370
    15
100
AcDbSpline
210
0.0
220
0.0
230
1.0
 70
     8
 71
     3
 72
    12
 73
     8
 74
     0
 42
0.00000001
 43
0.00000001
 12
1.0
 22
0.0
 32
0.0
 13
1.0
 23
0.0
 33
0.0
 40
0.0
 40
0.0
 40
0.0
 40
0.0
 40
0.2499999999999995
 40
0.2499999999999995
 40
0.499999999999999
 40
0.499999999999999
 40
1.0
 40
1.0
 40
1.0
 40
1.0
 10
194.2917868395632
 20
146.2798908242991
 30
0.0
 10
194.2287068010698
 20
146.2798908242991
 30
0.0
 10
194.1695581788884
 20
146.2719848980867
 30
0.0
 10
194.0710856288193
 20
146.2486597366504
 30
0.0
 10
194.0320490168346
 20
146.2339469468187
 30
0.0
 10
193.9321525500555
 20
146.1859911460878
 30
0.0
 10
193.8897316689889
 20
146.1497289895077
 30
0.0
 10
193.8587741376709
 20
146.1121413255432
 30
0.0
  0
ELLIPSE
  5
A9
330
1F
100
AcDbEntity
  8
0
  6
Continuous
 62
     7
370
    15
100
AcDbEllipse
 10
210.1111842154
 20
116.2113988654
 30
0.0
 11
-14.75368316065604
 21
31.09325491558115
 31
0.0
210
0.0
220
0.0
230
1.0
 40
0.3419987131
 41
0.1591422026273047
 42
1.089903569770979
  0
SPLINE
  5
AA
330
1F
100
AcDbEntity
  8
0
  6
Continuous
 62
     7
370
    15
100
AcDbSpline
210
0.0
220
0.0
230
1.0
 70
     8
 71
     3
 72
    12
 73
     8
 74
     0
 42
0.00000001
 43
0.00000001
 12
1.0
 22
0.0
 32
0.0
 13
1.0
 23
0.0
 33
0.0
 40
0.0
 40
0.0
 40
0.0
 40
0.0
 40
0.4999999999999972
 40
0.4999999999999972
 40
0.7499999999999986
 40
0.7499999999999986
 40
1.0
 40
1.0
 40
1.0
 40
1.0
 10
193.8587741376709
 20
86.31065640530882
 30
0.0
 10
193.889919335633
 20
86.27284088238862
 30
0.0
 10
193.9321936019675
 20
86.23677402430502
 30
0.0
 10
194.0321391357928
 20
86.18881395929374
 30
0.0
 10
194.0718694404968
 20
86.1739529853961
 30
0.0
 10
194.1687574905031
 20
86.15100183926496
 30
0.0
 10
194.2288227322496
 20
86.14290690655291
 30
0.0
 10
194.2917868395631
 20
86.14290690655291
 30
0.0
  0
LINE
  5
AB
330
1F
100
AcDbEntity
  8
0
  6
Continuous
 62
     7
370
    15
100
AcDbLine
 10
194.2917868396
 20
86.1429069066
 30
0.0
 11
197.2362732124
 21
86.1429069066
 31
0.0
  0
SPLINE
  5
AC
330
1F
100
AcDbEntity
  8
0
  6
Continuous
 62
     7
370
    15
100
AcDbSpline
210
0.0
220
0.0
230
1.0
 70
     8
 71
     3
 72
    12
 73
     8
 74
     0
 42
0.00000001
 43
0.00000001
 12
1.0
 22
0.0
 32
0.0
 13
1.0
 23
0.0
 33
0.0
 40
0.0
 40
0.0
 40
0.0
 40
0.0
 40
0.2499999999999991
 40
0.2499999999999991
 40
0.4999999999999981
 40
0.4999999999999981
 40
1.0
 40
1.0
 40
1.0
 40
1.0
 10
197.2362732124303
 20
86.14290690655298
 30
0.0
 10
197.2993301673281
 20
86.14290690655297
 30
0.0
 10
197.3584603170736
 20
86.15080723763252
 30
0.0
 10
197.4569078676069
 20
86.17411798563757
 30
0.0
 10
197.495940105795
 20
86.18882311192121
 30
0.0
 10
197.595829990252
 20
86.23675664010786
 30
0.0
 10
197.6381289638613
 20
86.2728266128726
 30
0.0
 10
197.6692859143226
 20
86.31065640530883
 30
0.0
  0
ELLIPSE
  5
AD
330
1F
100
AcDbEntity
  8
0
  6
Continuous
 62
     7
370
    15
100
AcDbEllipse
 10
181.4168758366
 20
116.2113988654
 30
0.0
 11
-14.75368316065618
 21
31.09325491558114
 31
0.0
210
0.0
220
0.0
230
1.0
 40
0.3419987131
 41
3.300734856217118
 42
4.231496223360772
  0
SPLINE
  5
AE
330
1F
100
AcDbEntity
  8
0
  6
Continuous
 62
     7
370
    15
100
AcDbSpline
210
0.0
220
0.0
230
1.0
 70
     8
 71
     3
 72
    12
 73
     8
 74
     0
 42
0.00000001
 43
0.00000001
 12
1.0
 22
0.0
 32
0.0
 13
1.0
 23
0.0
 33
0.0
 40
0.0
 40
0.0
 40
0.0
 40
0.0
 40
0.5000000000000047
 40
0.5000000000000047
 40
0.7500000000000023
 40
0.7500000000000023
 40
1.0
 40
1.0
 40
1.0
 40
1.0
 10
197.6692859143225
 20
106.3020295447407
 30
0.0
 10
197.6381407163604
 20
106.416134910606
 30
0.0
 10
197.5958664500259
 20
106.5272412378248
 30
0.0
 10
197.4959209162006
 20
106.6773988452551
 30
0.0
 10
197.4561906114966
 20
106.7243915368724
 30
0.0
 10
197.3593025614904
 20
106.7973671214109
 30
0.0
 10
197.2992373197438
 20
106.8233324340899
 30
0.0
 10
197.2362732124303
 20
106.8233324340899
 30
0.0
  0
LINE
  5
AF
330
1F
100
AcDbEntity
  8
0
  6
Continuous
 62
     7
370
    15
100
AcDbLine
 10
197.2362732124
 20
106.8233324341
 30
0.0
 11
194.2917868396
 21
106.8233324341
 31
0.0
  0
SPLINE
  5
B0
330
1F
100
AcDbEntity
  8
0
  6
Continuous
 62
     7
370
    15
100
AcDbSpline
210
0.0
220
0.0
230
1.0
 70
     8
 71
     3
 72
    12
 73
     8
 74
     0
 42
0.00000001
 43
0.00000001
 12
1.0
 22
0.0
 32
0.0
 13
1.0
 23
0.0
 33
0.0
 40
0.0
 40
0.0
 40
0.0
 40
0.0
 40
0.2500000000000004
 40
0.2500000000000004
 40
0.5000000000000009
 40
0.5000000000000009
 40
1.0
 40
1.0
 40
1.0
 40
1.0
 10
194.2917868395632
 20
106.8233324340898
 30
0.0
 10
194.2287298846654
 20
106.8233324340898
 30
0.0
 10
194.1695997349198
 20
106.7979860807091
 30
0.0
 10
194.0711521843865
 20
106.7238666985696
 30
0.0
 10
194.0321199461984
 20
106.6773701838716
 30
0.0
 10
193.9322300617414
 20
106.527295676863
 30
0.0
 10
193.8899310881321
 20
106.4161779677482
 30
0.0
 10
193.8587741376708
 20
106.3020295447407
 30
0.0
  0
ELLIPSE
  5
B1
330
1F
100
AcDbEntity
  8
0
  6
Continuous
 62
     7
370
    15
100
AcDbEllipse
 10
210.1111842154
 20
116.2113988654
 30
0.0
 11
14.75368316065618
 21
31.09325491558114
 31
0.0
210
0.0
220
0.0
230
1.0
 40
0.3419987131
 41
2.051689083818828
 42
2.982450450962501
  0
ELLIPSE
  5
B2
330
1F
100
AcDbEntity
  8
0
  6
Continuous
 62
     7
370
    15
100
AcDbEllipse
 10
288.7341292008
 20
116.2113988654
 30
0.0
 11
299.7022783439748
 21
-3.329013400823243
 31
0.0
210
0.0
220
0.0
230
1.0
 40
0.1045157088
 41
1.799942714039603
 42
1.803820432404911
  0
SPLINE
  5
B3
330
1F
100
AcDbEntity
  8
0
  6
Continuous
 62
     7
370
    15
100
AcDbSpline
210
0.0
220
0.0
230
1.0
 70
     8
 71
     3
 72
    20
 73
    16
 74
     0
 42
0.00000001
 43
0.00000001
 12
1.0
 22
0.0
 32
0.0
 13
1.0
 23
0.0
 33
0.0
 40
0.0
 40
0.0
 40
0.0
 40
0.0
 40
0.2499999999999992
 40
0.2499999999999992
 40
0.3749999999999993
 40
0.3749999999999993
 40
0.4999999999999994
 40
0.4999999999999994
 40
0.6249999999999996
 40
0.6249999999999996
 40
0.7499999999999997
 40
0.7499999999999997
 40
0.8749999999999999
 40
0.8749999999999999
 40
1.0
 40
1.0
 40
1.0
 40
1.0
 10
214.6967416174622
 20
146.5345520174873
 30
0.0
 10
214.8468303391928
 20
146.697810630962
 30
0.0
 10
215.0754515021474
 20
146.8351563538669
 30
0.0
 10
215.5436250370563
 20
147.0097617444657
 30
0.0
 10
215.7208296325166
 20
147.0624171951661
 30
0.0
 10
216.1067234241227
 20
147.1552729706911
 30
0.0
 10
216.3166750986467
 20
147.1959925033496
 30
0.0
 10
216.7714361010104
 20
147.2678568026732
 30
0.0
 10
217.0186087840972
 20
147.2991830750792
 30
0.0
 10
217.5334762587455
 20
147.3519883127842
 30
0.0
 10
217.8019770404218
 20
147.3737220010348
 30
0.0
 10
218.3609841924834
 20
147.4096729968854
 30
0.0
 10
218.6535006679285
 20
147.4239524109293
 30
0.0
 10
219.2517595667104
 20
147.4455630676048
 30
0.0
 10
219.5559079920309
 20
147.452901485211
 30
0.0
 10
219.8651257955908
 20
147.4571358467922
 30
0.0
  0
ELLIPSE
  5
B4
330
1F
100
AcDbEntity
  8
0
  6
Continuous
 62
     7
370
    15
100
AcDbEllipse
 10
217.8190573733
 20
116.2113988654
 30
0.0
 11
-0.9496107280741342
 21
31.49898525208674
 31
0.0
210
0.0
220
0.0
230
1.0
 40
0.266256518
 41
0.2661819042407468
 42
2.649917730476675
  0
SPLINE
  5
B5
330
1F
100
AcDbEntity
  8
0
  6
Continuous
 62
     7
370
    15
100
AcDbSpline
210
0.0
220
0.0
230
1.0
 70
     8
 71
     3
 72
    18
 73
    14
 74
     0
 42
0.00000001
 43
0.00000001
 12
1.0
 22
0.0
 32
0.0
 13
1.0
 23
0.0
 33
0.0
 40
0.0
 40
0.0
 40
0.0
 40
0.0
 40
0.1250000000000009
 40
0.1250000000000009
 40
0.2500000000000017
 40
0.2500000000000017
 40
0.5000000000000008
 40
0.5000000000000008
 40
0.7499999999999998
 40
0.7499999999999998
 40
0.8749999999999996
 40
0.8749999999999996
 40
1.0
 40
1.0
 40
1.0
 40
1.0
 10
219.2001019146645
 20
86.51572987808387
 30
0.0
 10
218.928124056279
 20
86.53630654790301
 30
0.0
 10
218.661580533365
 20
86.56341916887233
 30
0.0
 10
218.1394238120984
 20
86.6316236315474
 30
0.0
 10
217.882092471463
 20
86.6731319401601
 30
0.0
 10
217.1487336698211
 20
86.8171948596355
 30
0.0
 10
216.7037472263357
 20
86.93968228385012
 30
0.0
 10
215.9121878242892
 20
87.24596594812046
 30
0.0
 10
215.5804617998326
 20
87.4237931782502
 30
0.0
 10
215.1734749502252
 20
87.7338748387199
 30
0.0
 10
215.0536460334101
 20
87.84440814710493
 30
0.0
 10
214.8498133030845
 20
88.07562852847371
 30
0.0
 10
214.7649312824674
 20
88.19693557390043
 30
0.0
 10
214.6967416174622
 20
88.32431103479053
 30
0.0
  0
ELLIPSE
  5
B6
330
1F
100
AcDbEntity
  8
0
  6
Continuous
 62
     7
370
    15
100
AcDbEllipse
 10
239.9944312615
 20
116.2113988654
 30
0.0
 11
22.41445668029294
 21
31.49663578142558
 31
0.0
210
0.0
220
0.0
230
1.0
 40
0.0205386817
 41
3.156207884742678
 42
3.496312866141636
  0
ELLIPSE
  5
B7
330
1F
100
AcDbEntity
  8
0
  6
Continuous
 62
     7
370
    15
100
AcDbEllipse
 10
213.6621975643
 20
132.8042653157
 30
0.0
 11
0.2315443019953421
 21
3.339233589693891
 31
0.0
210
0.0
220
0.0
230
1.0
 40
0.2180210538
 41
0.0
 42
6.283185307179586
  0
LINE
  5
B8
330
1F
100
AcDbEntity
  8
0
  6
Continuous
 62
     7
370
    15
100
AcDbLine
 10
183.764030026
 20
85.2113988654
 30
0.0
 11
183.764030026
 21
147.2113988648
 31
0.0
  0
SPLINE
  5
B9
330
1F
100
AcDbEntity
  8
0
  6
Continuous
 62
     7
370
    15
100
AcDbSpline
210
0.0
220
0.0
230
1.0
 70
     8
 71
     3
 72
    12
 73
     8
 74
     0
 42
0.00000001
 43
0.00000001
 12
1.0
 22
0.0
 32
0.0
 13
1.0
 23
0.0
 33
0.0
 40
0.0
 40
0.0
 40
0.0
 40
0.0
 40
0.5000000000000002
 40
0.5000000000000002
 40
0.7500000000000001
 40
0.7500000000000001
 40
1.0
 40
1.0
 40
1.0
 40
1.0
 10
182.9475177395402
 20
94.35660516295025
 30
0.0
 10
183.0039542404474
 20
94.3551872816085
 30
0.0
 10
183.0730388711362
 20
94.3536229453602
 30
0.0
 10
183.1918411428541
 20
94.35067875338576
 30
0.0
 10
183.2320264183242
 20
94.34964055028837
 30
0.0
 10
183.305407465728
 20
94.34770665507374
 30
0.0
 10
183.3388170294706
 20
94.34681176778494
 30
0.0
 10
183.3690531371271
 20
94.34602797751258
 30
0.0
  0
SPLINE
  5
BA
330
1F
100
AcDbEntity
  8
0
  6
Continuous
 62
     7
370
    15
100
AcDbSpline
210
0.0
220
0.0
230
1.0
 70
     8
 71
     3
 72
    16
 73
    12
 74
     0
 42
0.00000001
 43
0.00000001
 12
1.0
 22
0.0
 32
0.0
 13
1.0
 23
0.0
 33
0.0
 40
0.0
 40
0.0
 40
0.0
 40
0.0
 40
0.0624999999999973
 40
0.0624999999999973
 40
0.1249999999999945
 40
0.1249999999999945
 40
0.2499999999999961
 40
0.2499999999999961
 40
0.4999999999999974
 40
0.4999999999999974
 40
1.0
 40
1.0
 40
1.0
 40
1.0
 10
183.3690531370898
 20
94.34602797753685
 30
0.0
 10
183.3806335446778
 20
94.34572778642548
 30
0.0
 10
183.3939430714391
 20
94.3444000381665
 30
0.0
 10
183.4232445015252
 20
94.33770136339149
 30
0.0
 10
183.4380586014095
 20
94.3323431802858
 30
0.0
 10
183.4738870031124
 20
94.31529753111845
 30
0.0
 10
183.4880066274754
 20
94.30383499334272
 30
0.0
 10
183.5225107715639
 20
94.27227166797046
 30
0.0
 10
183.5336153222685
 20
94.2543743689252
 30
0.0
 10
183.5597914994847
 20
94.20421295131095
 30
0.0
 10
183.5640300259967
 20
94.17646853911438
 30
0.0
 10
183.5640300259967
 20
94.15180437718483
 30
0.0
  0
LINE
  5
BB
330
1F
100
AcDbEntity
  8
0
  6
Continuous
 62
     7
370
    15
100
AcDbLine
 10
183.564030026
 20
109.1895115397
 30
0.0
 11
183.564030026
 21
93.6715785866
 31
0.0
  0
SPLINE
  5
BC
330
1F
100
AcDbEntity
  8
0
  6
Continuous
 62
     7
370
    15
100
AcDbSpline
210
0.0
220
0.0
230
1.0
 70
     8
 71
     3
 72
    16
 73
    12
 74
     0
 42
0.00000001
 43
0.00000001
 12
1.0
 22
0.0
 32
0.0
 13
1.0
 23
0.0
 33
0.0
 40
0.0
 40
0.0
 40
0.0
 40
0.0
 40
0.500000000000001
 40
0.500000000000001
 40
0.7500000000000016
 40
0.7500000000000016
 40
0.8750000000000008
 40
0.8750000000000008
 40
0.9375000000000004
 40
0.9375000000000004
 40
1.0
 40
1.0
 40
1.0
 40
1.0
 10
183.5640300259967
 20
109.189511539676
 30
0.0
 10
183.5640300259967
 20
109.3032040838039
 30
0.0
 10
183.5598837509188
 20
109.4175242451534
 30
0.0
 10
183.5339181555252
 20
109.5905725356505
 30
0.0
 10
183.5224572501479
 20
109.6497480428122
 30
0.0
 10
183.4881455123735
 20
109.7328711622804
 30
0.0
 10
183.4741207764439
 20
109.7609924783811
 30
0.0
 10
183.4380978134101
 20
109.7896082923585
 30
0.0
 10
183.4233433043204
 20
109.7954013402603
 30
0.0
 10
183.3939911431735
 20
109.7938079143233
 30
0.0
 10
183.3806512686694
 20
109.7873115109994
 30
0.0
 10
183.369053137121
 20
109.7787957647963
 30
0.0
  0
SPLINE
  5
BD
330
1F
100
AcDbEntity
  8
0
  6
Continuous
 62
     7
370
    15
100
AcDbSpline
210
0.0
220
0.0
230
1.0
 70
     8
 71
     3
 72
    12
 73
     8
 74
     0
 42
0.00000001
 43
0.00000001
 12
1.0
 22
0.0
 32
0.0
 13
1.0
 23
0.0
 33
0.0
 40
0.0
 40
0.0
 40
0.0
 40
0.0
 40
0.2500000000000001
 40
0.2500000000000001
 40
0.5000000000000002
 40
0.5000000000000002
 40
1.0
 40
1.0
 40
1.0
 40
1.0
 10
183.3690531371281
 20
109.7787957647871
 30
0.0
 10
183.3388546956875
 20
109.7566230327421
 30
0.0
 10
183.3054873403515
 20
109.7375433768648
 30
0.0
 10
183.2323320645216
 20
109.7123703324222
 30
0.0
 10
183.1920793654977
 20
109.7068137960054
 30
0.0
 10
183.0743506222228
 20
109.7177256069921
 30
0.0
 10
183.0038921741639
 20
109.7596613624029
 30
0.0
 10
182.9475177395456
 20
109.8088731447845
 30
0.0
  0
SPLINE
  5
BE
330
1F
100
AcDbEntity
  8
0
  6
Continuous
 62
     7
370
    15
100
AcDbSpline
210
0.0
220
0.0
230
1.0
 70
     8
 71
     3
 72
    12
 73
     8
 74
     0
 42
0.00000001
 43
0.00000001
 12
1.0
 22
0.0
 32
0.0
 13
1.0
 23
0.0
 33
0.0
 40
0.0
 40
0.0
 40
0.0
 40
0.0
 40
0.4999999999999993
 40
0.4999999999999993
 40
0.7499999999999997
 40
0.7499999999999997
 40
1.0
 40
1.0
 40
1.0
 40
1.0
 10
182.4427096824371
 20
111.025224536665
 30
0.0
 10
182.4864600343215
 20
110.8047775516905
 30
0.0
 10
182.539350185446
 20
110.589232561885
 30
0.0
 10
182.6509617285877
 20
110.276818485313
 30
0.0
 10
182.6935210724912
 20
110.1747390096971
 30
0.0
 10
182.7984983078286
 20
109.9802989970553
 30
0.0
 10
182.8600655509232
 20
109.8852140979917
 30
0.0
 10
182.9475177395456
 20
109.8088731447845
 30
0.0
  0
SPLINE
  5
BF
330
1F
100
AcDbEntity
  8
0
  6
Continuous
 62
     7
370
    15
100
AcDbSpline
210
0.0
220
0.0
230
1.0
 70
     8
 71
     3
 72
    12
 73
     8
 74
     0
 42
0.00000001
 43
0.00000001
 12
1.0
 22
0.0
 32
0.0
 13
1.0
 23
0.0
 33
0.0
 40
0.0
 40
0.0
 40
0.0
 40
0.0
 40
0.2500000000000001
 40
0.2500000000000001
 40
0.5000000000000001
 40
0.5000000000000001
 40
1.0
 40
1.0
 40
1.0
 40
1.0
 10
182.9475177395455
 20
122.6139245860677
 30
0.0
 10
182.8590243319777
 20
122.5366747059594
 30
0.0
 10
182.7989662912118
 20
122.4433553820701
 30
0.0
 10
182.6931180182291
 20
122.2473223291007
 30
0.0
 10
182.6505844969517
 20
122.144995970889
 30
0.0
 10
182.5394331901281
 20
121.8336515651131
 30
0.0
 10
182.4865023330802
 20
121.6182333119351
 30
0.0
 10
182.4427096824371
 20
121.3975731941872
 30
0.0
  0
SPLINE
  5
C0
330
1F
100
AcDbEntity
  8
0
  6
Continuous
 62
     7
370
    15
100
AcDbSpline
210
0.0
220
0.0
230
1.0
 70
     8
 71
     3
 72
    12
 73
     8
 74
     0
 42
0.00000001
 43
0.00000001
 12
1.0
 22
0.0
 32
0.0
 13
1.0
 23
0.0
 33
0.0
 40
0.0
 40
0.0
 40
0.0
 40
0.0
 40
0.4999999999999997
 40
0.4999999999999997
 40
0.7499999999999998
 40
0.7499999999999998
 40
1.0
 40
1.0
 40
1.0
 40
1.0
 10
182.9475177395455
 20
122.6139245860677
 30
0.0
 10
183.0038262878412
 20
122.6630788533115
 30
0.0
 10
183.0741009485592
 20
122.7050361719152
 30
0.0
 10
183.1921388628828
 20
122.7159958494477
 30
0.0
 10
183.2323151037367
 20
122.7104870912003
 30
0.0
 10
183.3062721984147
 20
122.6849298624114
 30
0.0
 10
183.3388885861261
 20
122.6661498145721
 30
0.0
 10
183.3690531371219
 20
122.6440019660553
 30
0.0
  0
SPLINE
  5
C1
330
1F
100
AcDbEntity
  8
0
  6
Continuous
 62
     7
370
    15
100
AcDbSpline
210
0.0
220
0.0
230
1.0
 70
     8
 71
     3
 72
    16
 73
    12
 74
     0
 42
0.00000001
 43
0.00000001
 12
1.0
 22
0.0
 32
0.0
 13
1.0
 23
0.0
 33
0.0
 40
0.0
 40
0.0
 40
0.0
 40
0.0
 40
0.0624999999999993
 40
0.0624999999999993
 40
0.1249999999999987
 40
0.1249999999999987
 40
0.2499999999999993
 40
0.2499999999999993
 40
0.5000000000000007
 40
0.5000000000000007
 40
1.0
 40
1.0
 40
1.0
 40
1.0
 10
183.3690531370901
 20
122.6440019660008
 30
0.0
 10
183.3806660369295
 20
122.6354753764056
 30
0.0
 10
183.394017221362
 20
122.6289751148728
 30
0.0
 10
183.4234170609811
 20
122.6274057177553
 30
0.0
 10
183.4382577855364
 20
122.6332891083859
 30
0.0
 10
183.474090993505
 20
122.6618367444364
 30
0.0
 10
183.4882042013266
 20
122.6900037637422
 30
0.0
 10
183.5226955725455
 20
122.7737580221641
 30
0.0
 10
183.5337796436559
 20
122.8314714357856
 30
0.0
 10
183.5599024614519
 20
123.0050619724314
 30
0.0
 10
183.5640300259967
 20
123.1200900250734
 30
0.0
 10
183.5640300259967
 20
123.2332861911762
 30
0.0
  0
LINE
  5
C2
330
1F
100
AcDbEntity
  8
0
  6
Continuous
 62
     7
370
    15
100
AcDbLine
 10
183.564030026
 20
138.7512191443
 30
0.0
 11
183.564030026
 21
123.2332861912
 31
0.0
  0
SPLINE
  5
C3
330
1F
100
AcDbEntity
  8
0
  6
Continuous
 62
     7
370
    15
100
AcDbSpline
210
0.0
220
0.0
230
1.0
 70
     8
 71
     3
 72
    16
 73
    12
 74
     0
 42
0.00000001
 43
0.00000001
 12
1.0
 22
0.0
 32
0.0
 13
1.0
 23
0.0
 33
0.0
 40
0.0
 40
0.0
 40
0.0
 40
0.0
 40
0.5000000000000012
 40
0.5000000000000012
 40
0.7500000000000018
 40
0.7500000000000018
 40
0.8750000000000036
 40
0.8750000000000036
 40
0.9375000000000019
 40
0.9375000000000019
 40
1.0
 40
1.0
 40
1.0
 40
1.0
 10
183.5640300259967
 20
138.2709933536674
 30
0.0
 10
183.5640300259967
 20
138.2463221976244
 30
0.0
 10
183.5598643275367
 20
138.2187403662332
 30
0.0
 10
183.5336059992118
 20
138.1683974954099
 30
0.0
 10
183.5221022174742
 20
138.150107997348
 30
0.0
 10
183.4879714581277
 20
138.1189529663109
 30
0.0
 10
183.4735495714569
 20
138.1073135910992
 30
0.0
 10
183.4379826030191
 20
138.0904315651682
 30
0.0
 10
183.4230308347245
 20
138.0850424613605
 30
0.0
 10
183.3940270163647
 20
138.078421965416
 30
0.0
 10
183.3806116623555
 20
138.0770693772096
 30
0.0
 10
183.3690531371189
 20
138.076769753338
 30
0.0
  0
SPLINE
  5
C4
330
1F
100
AcDbEntity
  8
0
  6
Continuous
 62
     7
370
    15
100
AcDbSpline
210
0.0
220
0.0
230
1.0
 70
     8
 71
     3
 72
    12
 73
     8
 74
     0
 42
0.00000001
 43
0.00000001
 12
1.0
 22
0.0
 32
0.0
 13
1.0
 23
0.0
 33
0.0
 40
0.0
 40
0.0
 40
0.0
 40
0.0
 40
0.2499999999999999
 40
0.2499999999999999
 40
0.4999999999999996
 40
0.4999999999999996
 40
1.0
 40
1.0
 40
1.0
 40
1.0
 10
183.3690531371281
 20
138.0767697533397
 30
0.0
 10
183.3388653605785
 20
138.0759872159221
 30
0.0
 10
183.3055115564868
 20
138.0750938841036
 30
0.0
 10
183.2323853532909
 20
138.0731665753
 30
0.0
 10
183.1921501502667
 20
138.0721270440873
 30
0.0
 10
183.0744585201336
 20
138.0692091607401
 30
0.0
 10
183.0040778469736
 20
138.0676135546698
 30
0.0
 10
182.9475177395429
 20
138.066192567902
 30
0.0
  0
SPLINE
  5
C5
330
1F
100
AcDbEntity
  8
0
  6
Continuous
 62
     7
370
    15
100
AcDbSpline
210
0.0
220
0.0
230
1.0
 70
     8
 71
     3
 72
    16
 73
    12
 74
     0
 42
0.00000001
 43
0.00000001
 12
1.0
 22
0.0
 32
0.0
 13
1.0
 23
0.0
 33
0.0
 40
0.0
 40
0.0
 40
0.0
 40
0.0
 40
0.25
 40
0.25
 40
0.375
 40
0.375
 40
0.5
 40
0.5
 40
0.75
 40
0.75
 40
1.0
 40
1.0
 40
1.0
 40
1.0
 10
182.4427096824371
 20
121.3975731941872
 30
0.0
 10
182.2814772049526
 20
120.5851634189404
 30
0.0
 10
182.160997365313
 20
119.7450851245556
 30
0.0
 10
182.0386168479997
 20
118.4437900751928
 30
0.0
 10
182.0076391876022
 20
118.0031090396081
 30
0.0
 10
181.9660254499743
 20
117.1072693986769
 30
0.0
 10
181.9557895370415
 20
116.6606112674745
 30
0.0
 10
181.9556011399853
 20
115.3253013103346
 30
0.0
 10
181.9957458426229
 20
114.4408059370271
 30
0.0
 10
182.1598995975625
 20
112.683556049001
 30
0.0
 10
182.281451247972
 20
111.8377651025879
 30
0.0
 10
182.4427096824371
 20
111.025224536665
 30
0.0
  0
LINE
  5
C6
330
1F
100
AcDbEntity
  8
0
  6
Continuous
 62
     7
370
    15
100
AcDbLine
 10
181.564030026
 20
122.6965771271
 30
0.0
 11
181.564030026
 21
109.7262206037
 31
0.0
  0
LINE
  5
C7
330
1F
100
AcDbEntity
  8
0
  6
Continuous
 62
     7
370
    15
100
AcDbLine
 10
147.264030026
 20
122.265709433
 30
0.0
 11
147.264030026
 21
110.1570882979
 31
0.0
  0
LINE
  5
C8
330
1F
100
AcDbEntity
  8
0
  6
Continuous
 62
     7
370
    15
100
AcDbLine
 10
145.764030026
 20
121.8326967311
 30
0.0
 11
145.764030026
 21
110.5901009998
 31
0.0
  0
LINE
  5
C9
330
1F
100
AcDbEntity
  8
0
  6
Continuous
 62
     7
370
    15
100
AcDbLine
 10
181.564030026
 20
94.1913000809
 30
0.0
 11
181.564030026
 21
109.7262206037
 31
0.0
  0
ARC
  5
CA
330
1F
100
AcDbEntity
  8
0
  6
Continuous
 62
     7
370
    15
100
AcDbCircle
 10
181.7639669369
 20
94.1862769697
 30
0.0
 40
0.2000000000000055
100
AcDbArc
 50
88.5608333333
 51
178.5608333333
  0
LINE
  5
CB
330
1F
100
AcDbEntity
  8
0
  6
Continuous
 62
     7
370
    15
100
AcDbLine
 10
147.264030026
 20
95.0530354691
 30
0.0
 11
147.264030026
 21
110.1570882979
 31
0.0
  0
LINE
  5
CC
330
1F
100
AcDbEntity
  8
0
  6
Continuous
 62
     7
370
    15
100
AcDbLine
 10
147.264030026
 20
95.0530354691
 30
0.0
 11
181.564030026
 21
94.1913000809
 31
0.0
  0
LINE
  5
CD
330
1F
100
AcDbEntity
  8
0
  6
Continuous
 62
     7
370
    15
100
AcDbLine
 10
147.264030026
 20
122.265709433
 30
0.0
 11
147.264030026
 21
137.3697622617
 31
0.0
  0
LINE
  5
CE
330
1F
100
AcDbEntity
  8
0
  6
Continuous
 62
     7
370
    15
100
AcDbLine
 10
147.264030026
 20
137.3697622617
 30
0.0
 11
181.564030026
 21
138.23149765
 31
0.0
  0
LINE
  5
CF
330
1F
100
AcDbEntity
  8
0
  6
Continuous
 62
     7
370
    15
100
AcDbLine
 10
181.564030026
 20
122.6965771271
 30
0.0
 11
181.564030026
 21
138.23149765
 31
0.0
  0
ARC
  5
D0
330
1F
100
AcDbEntity
  8
0
  6
Continuous
 62
     7
370
    15
100
AcDbCircle
 10
181.7639669369
 20
138.2365207611
 30
0.0
 40
0.2000000000000059
100
AcDbArc
 50
181.4391666667
 51
271.4391666667
  0
LINE
  5
D1
330
1F
100
AcDbEntity
  8
0
  6
Continuous
 62
     7
370
    15
100
AcDbLine
 10
181.7689900481
 20
138.0365838502
 30
0.0
 11
182.9475177395
 21
138.0661925679
 31
0.0
  0
LINE
  5
D2
330
1F
100
AcDbEntity
  8
0
  6
Continuous
 62
     7
370
    15
100
AcDbLine
 10
181.7689900481
 20
94.3862138807
 30
0.0
 11
182.9475177395
 21
94.356605163
 31
0.0
  0
LINE
  5
D3
330
1F
100
AcDbEntity
  8
0
  6
Continuous
 62
     7
370
    15
100
AcDbLine
 10
145.764030026
 20
95.9190608729
 30
0.0
 11
147.264030026
 21
95.0530354691
 31
0.0
  0
LINE
  5
D4
330
1F
100
AcDbEntity
  8
0
  6
Continuous
 62
     7
370
    15
100
AcDbLine
 10
145.764030026
 20
95.9190608729
 30
0.0
 11
145.764030026
 21
110.5901009998
 31
0.0
  0
LINE
  5
D5
330
1F
100
AcDbEntity
  8
0
  6
Continuous
 62
     7
370
    15
100
AcDbLine
 10
145.764030026
 20
136.5037368579
 30
0.0
 11
147.264030026
 21
137.3697622617
 31
0.0
  0
LINE
  5
D6
330
1F
100
AcDbEntity
  8
0
  6
Continuous
 62
     7
370
    15
100
AcDbLine
 10
145.764030026
 20
121.8326967311
 30
0.0
 11
145.764030026
 21
136.5037368579
 31
0.0
  0
ELLIPSE
  5
D7
330
1F
100
AcDbEntity
  8
0
  6
Continuous
 62
     7
370
    15
100
AcDbEllipse
 10
220.4922965752
 20
88.0835823223
 30
0.0
 11
5.998711941226305
 21
8.478905253513147
 31
0.0
210
0.0
220
0.0
230
1.0
 40
0.0146620728
 41
1.654794878104614
 42
1.767141503905062
  0
LINE
  5
D8
330
1F
100
AcDbEntity
  8
0
  6
Continuous
 62
     7
370
    15
100
AcDbLine
 10
231.9998486534
 20
151.0527528578
 30
0.0
 11
230.4452159311
 21
150.933819911
 31
0.0
  0
ARC
  5
D9
330
1F
100
AcDbEntity
  8
0
  6
Continuous
 62
     7
370
    15
100
AcDbCircle
 10
230.7566253704
 20
147.4636082219
 30
0.0
 40
3.484156283260084
100
AcDbArc
 50
95.1278664963
 51
274.862579501
  0
LINE
  5
DA
330
1F
100
AcDbEntity
  8
0
  6
Continuous
 62
     7
370
    15
100
AcDbLine
 10
231.0519639924
 20
143.9919918686
 30
0.0
 11
246.5495095313
 21
145.1775894264
 31
0.0
  0
LINE
  5
DB
330
1F
100
AcDbEntity
  8
0
  6
Continuous
 62
     7
370
    15
100
AcDbLine
 10
246.5495095313
 20
145.1775894264
 30
0.0
 11
244.5597226831
 21
122.4560822431
 31
0.0
  0
SPLINE
  5
DC
330
1F
100
AcDbEntity
  8
0
  6
Continuous
 62
     7
370
    15
100
AcDbSpline
210
0.0
220
0.0
230
1.0
 70
     8
 71
     3
 72
    10
 73
     6
 74
     0
 42
0.00000001
 43
0.00000001
 12
1.0
 22
0.0
 32
0.0
 13
1.0
 23
0.0
 33
0.0
 40
0.0
 40
0.0
 40
0.0
 40
0.0
 40
0.5
 40
0.5
 40
1.0
 40
1.0
 40
1.0
 40
1.0
 10
220.9967030380178
 20
147.4723894138253
 30
0.0
 10
221.2204975930608
 20
147.4753583270617
 30
0.0
 10
221.4353608123822
 20
147.5547717217798
 30
0.0
 10
221.7819425551413
 20
147.8327837888805
 30
0.0
 10
221.9060643112279
 20
148.0248993705208
 30
0.0
 10
221.9626288643068
 20
148.2406995925831
 30
0.0
  0
SPLINE
  5
DD
330
1F
100
AcDbEntity
  8
0
  6
Continuous
 62
     7
370
    15
100
AcDbSpline
210
0.0
220
0.0
230
1.0
 70
     8
 71
     3
 72
     8
 73
     4
 74
     0
 42
0.00000001
 43
0.00000001
 12
1.0
 22
0.0
 32
0.0
 13
1.0
 23
0.0
 33
0.0
 40
0.0
 40
0.0
 40
0.0
 40
0.0
 40
1.0
 40
1.0
 40
1.0
 40
1.0
 10
221.9626288643068
 20
148.2406995925831
 30
0.0
 10
222.8540079232398
 20
151.6414123780471
 30
0.0
 10
223.753073790812
 20
155.0400145637834
 30
0.0
 10
224.6554078289587
 20
158.4377193940307
 30
0.0
  0
ELLIPSE
  5
DE
330
1F
100
AcDbEntity
  8
0
  6
Continuous
 62
     7
370
    15
100
AcDbEllipse
 10
1523.8919476784
 20
102.6414805299
 30
0.0
 11
1483.852721607917
 21
-16.35705661602161
 31
0.0
210
0.0
220
0.0
230
1.0
 40
0.057920228
 41
2.626948688592717
 42
2.638076252794102
  0
LINE
  5
DF
330
1F
100
AcDbEntity
  8
0
  6
Continuous
 62
     7
370
    15
100
AcDbLine
 10
232.7119331862
 20
159.1840930772
 30
0.0
 11
231.9998486534
 21
151.0527528578
 31
0.0
  0
CIRCLE
  5
E0
330
1F
100
AcDbEntity
  8
0
  6
Continuous
 62
     7
370
    15
100
AcDbCircle
 10
235.1519314993
 20
138.8714581985
 30
0.0
 40
3.776930073882185
  0
LINE
  5
E1
330
1F
100
AcDbEntity
  8
0
  6
Continuous
 62
     7
370
    15
100
AcDbLine
 10
244.5597226831
 20
122.4560822431
 30
0.0
 11
219.8651257956
 21
87.4598472499
 31
0.0
  0
LINE
  5
E2
330
1F
100
AcDbEntity
  8
0
  6
Continuous
 62
     7
370
    15
100
AcDbLine
 10
224.655407829
 20
158.437719394
 30
0.0
 11
224.655407829
 21
158.50216773
 31
0.0
  0
ARC
  5
E3
330
1F
100
AcDbEntity
  8
0
  6
Continuous
 62
     7
370
    15
100
AcDbCircle
 10
230.0779483367
 20
146.8770121546
 30
0.0
 40
3.442896704700373
100
AcDbArc
 50
94.3293589119
 51
127.3927506393
  0
LINE
  5
E4
330
1F
100
AcDbEntity
  8
0
  6
Continuous
 62
     7
370
    15
100
AcDbLine
 10
231.3726778738
 20
150.4290177853
 30
0.0
 11
231.9998486534
 21
151.0527528578
 31
0.0
  0
LINE
  5
E5
330
1F
100
AcDbEntity
  8
0
  6
Continuous
 62
     7
370
    15
100
AcDbLine
 10
231.3726778738
 20
150.4290177853
 30
0.0
 11
231.3870881289
 21
150.4301202027
 31
0.0
  0
LINE
  5
E6
330
1F
100
AcDbEntity
  8
0
  6
Continuous
 62
     7
370
    15
100
AcDbLine
 10
229.3361689359
 20
149.8308483912
 30
0.0
 11
231.3480870854
 21
149.9847647155
 31
0.0
  0
ELLIPSE
  5
E7
330
1F
100
AcDbEntity
  8
0
  6
Continuous
 62
     7
370
    15
100
AcDbEllipse
 10
228.4163955653
 20
116.5785877438
 30
0.0
 11
4.235066068645466
 21
42.61645465567357
 31
0.0
210
0.0
220
0.0
230
1.0
 40
0.0944088542
 41
6.268033834303417
 42
6.300979864487885
  0
LWPOLYLINE
  5
E8
330
1F
100
AcDbEntity
  8
0
  6
Continuous
 62
     7
370
    15
100
AcDbPolyline
 90
        3
 70
   128
 43
0.0
 10
230.3554505772
 20
144.1616085724
 10
229.6652881963
 20
144.1864025367
 10
229.5621594035
 20
144.2035504301
  0
ARC
  5
E9
330
1F
100
AcDbEntity
  8
0
  6
Continuous
 62
     7
370
    15
100
AcDbCircle
 10
230.0463926941
 20
147.2749035583
 30
0.0
 40
3.043758861084212
100
AcDbArc
 50
94.3024611771
 51
138.4823885339
  0
LINE
  5
EA
330
1F
100
AcDbEntity
  8
0
  6
Continuous
 62
     7
370
    15
100
AcDbLine
 10
230.8413923583
 20
144.1987842263
 30
0.0
 11
230.3554505772
 21
144.1616085724
 31
0.0
  0
ARC
  5
EB
330
1F
100
AcDbEntity
  8
0
  6
Continuous
 62
     7
370
    15
100
AcDbCircle
 10
229.5662069236
 20
146.7905207768
 30
0.0
 40
3.049017789177096
100
AcDbArc
 50
94.3268825932
 51
127.1433431029
  0
LWPOLYLINE
  5
EC
330
1F
100
AcDbEntity
  8
0
  6
Continuous
 62
     7
370
    15
100
AcDbPolyline
 90
       15
 70
   128
 43
0.0
 10
201.764030026
 20
131.4913988654
 10
201.8089296884
 20
131.9392118802
 10
201.9980835576
 20
132.4974580587
 10
202.3259335323
 20
133.0052562284
 10
202.7760398458
 20
133.4371432686
 10
203.325832288
 20
133.7714625597
 10
203.9477419702
 20
133.9914499364
 10
204.6105837441
 20
134.0860743131
 10
205.2811199552
 20
134.0505908285
 10
205.9257271182
 20
133.8867787726
 10
206.5120819381
 20
133.6028523659
 10
207.0107821359
 20
133.213048864
 10
207.3968208013
 20
132.7369146422
 10
207.6508403436
 20
132.1983250585
 10
207.7569581021
 20
131.6696855688
  0
LWPOLYLINE
  5
ED
330
1F
100
AcDbEntity
  8
0
  6
Continuous
 62
     7
370
    15
100
AcDbPolyline
 90
       18
 70
   128
 43
0.0
 10
202.0957340013
 20
130.6698568062
 10
202.0055649997
 20
130.9072941154
 10
201.9057367427
 20
131.475844029
 10
201.9599998165
 20
132.049006226
 10
202.1654288846
 20
132.5958813839
 10
202.5109492129
 20
133.0869873215
 10
202.9779337111
 20
133.4958483906
 10
203.5412071239
 20
133.800422785
 10
204.1704032358
 20
133.9842908204
 10
204.8316019217
 20
134.0375401233
 10
205.4891577892
 20
133.9573000102
 10
206.1076218312
 20
133.7478962461
 10
206.6536524913
 20
133.4206178423
 10
207.0978131152
 20
132.9931084622
 10
207.4161588886
 20
132.4884152472
 10
207.5915277086
 20
131.933746339
 10
207.6144653967
 20
131.3590040822
 10
207.49324086
 20
130.8209556416
  0
LWPOLYLINE
  5
EE
330
1F
100
AcDbEntity
  8
0
  6
Continuous
 62
     7
370
    15
100
AcDbPolyline
 90
       27
 70
   128
 43
0.0
 10
202.5700377133
 20
130.5234690514
 10
202.3469717699
 20
131.0083418701
 10
202.2643764668
 20
131.5253563511
 10
202.3270519426
 20
132.044465492
 10
202.5313557266
 20
132.5355005565
 10
202.8654144254
 20
132.9699243714
 10
203.3098137618
 20
133.3224898036
 10
203.8387268615
 20
133.5727070319
 10
204.4214152179
 20
133.7060343403
 10
205.0240151015
 20
133.7147232303
 10
205.6115055976
 20
133.5982687353
 10
206.1497438938
 20
133.3634387671
 10
206.607449537
 20
133.02388079
 10
206.9580223387
 20
132.5993286794
 10
207.1810882821
 20
132.1144558607
 10
207.2636835852
 20
131.5974413797
 10
207.2010081094
 20
131.0783322388
 10
206.9967043254
 20
130.5872971744
 10
206.6626456266
 20
130.1528733595
 10
206.2182462902
 20
129.8003079272
 10
205.6893331905
 20
129.550090699
 10
205.1066448341
 20
129.4167633906
 10
204.5040449505
 20
129.4080745005
 10
203.9165544544
 20
129.5245289956
 10
203.3783161581
 20
129.7593589637
 10
202.920610515
 20
130.0989169408
 10
202.5700377133
 20
130.5234690514
  0
SPLINE
  5
EF
330
1F
100
AcDbEntity
  8
0
  6
HIDDEN
 62
     7
370
     0
100
AcDbSpline
210
0.0
220
0.0
230
1.0
 70
     8
 71
     3
 72
    60
 73
    56
 74
     0
 42
0.00000001
 43
0.00000001
 12
1.0
 22
0.0
 32
0.0
 13
1.0
 23
0.0
 33
0.0
 40
-0.0625000000000001
 40
-0.0625000000000001
 40
0.0
 40
0.0
 40
0.03125
 40
0.03125
 40
0.0624999999999999
 40
0.0624999999999999
 40
0.0937499999999999
 40
0.0937499999999999
 40
0.1249999999999998
 40
0.1249999999999998
 40
0.1874999999999994
 40
0.1874999999999994
 40
0.2499999999999991
 40
0.2499999999999991
 40
0.2812499999999991
 40
0.2812499999999991
 40
0.3124999999999991
 40
0.3124999999999991
 40
0.3437499999999991
 40
0.3437499999999991
 40
0.3749999999999991
 40
0.3749999999999991
 40
0.4062499999999991
 40
0.4062499999999991
 40
0.4374999999999992
 40
0.4374999999999992
 40
0.4687499999999992
 40
0.4687499999999992
 40
0.4999999999999992
 40
0.4999999999999992
 40
0.5624999999999991
 40
0.5624999999999991
 40
0.6249999999999991
 40
0.6249999999999991
 40
0.6562499999999992
 40
0.6562499999999992
 40
0.6874999999999993
 40
0.6874999999999993
 40
0.7187499999999993
 40
0.7187499999999993
 40
0.7499999999999994
 40
0.7499999999999994
 40
0.7812499999999996
 40
0.7812499999999996
 40
0.8124999999999996
 40
0.8124999999999996
 40
0.8437499999999997
 40
0.8437499999999997
 40
0.8749999999999997
 40
0.8749999999999997
 40
0.9062499999999998
 40
0.9062499999999998
 40
0.9374999999999999
 40
0.9374999999999999
 40
1.0
 40
1.0
 40
1.03125
 40
1.03125
 10
197.7640300259967
 20
115.9470683403394
 30
0.0
 10
197.7640300259967
 20
116.3435641279695
 30
0.0
 10
197.7510581675079
 20
116.4735141889736
 30
0.0
 10
197.7002379978155
 20
116.7291671223337
 30
0.0
 10
197.6617706743486
 20
116.856196628883
 30
0.0
 10
197.5613724382765
 20
117.0983847600075
 30
0.0
 10
197.4999394073033
 20
117.2132462525604
 30
0.0
 10
197.3548045757584
 20
117.4306264483845
 30
0.0
 10
197.2703494583505
 20
117.5335240155832
 30
0.0
 10
196.9936300079922
 20
117.8101910545909
 30
0.0
 10
196.7705531160741
 20
117.9591891450709
 30
0.0
 10
196.2892697538539
 20
118.1587002855356
 30
0.0
 10
196.0260393348628
 20
118.2112583885323
 30
0.0
 10
195.6346371331749
 20
118.2114686709104
 30
0.0
 10
195.5021141050661
 20
118.1984829001833
 30
0.0
 10
195.245583651825
 20
118.1474557519695
 30
0.0
 10
195.1208968175284
 20
118.1097005528191
 30
0.0
 10
194.8787175552928
 20
118.0095622199103
 30
0.0
 10
194.7616240231428
 20
117.9469565524988
 30
0.0
 10
194.5449090197874
 20
117.8022232592338
 30
0.0
 10
194.4438901929246
 20
117.7195959119543
 30
0.0
 10
194.2571053054725
 20
117.5329908587027
 30
0.0
 10
194.1742484242763
 20
117.4318757948265
 30
0.0
 10
194.0293641592025
 20
117.2153429908367
 30
0.0
 10
193.9667266513815
 20
117.0984727832356
 30
0.0
 10
193.8662778279817
 20
116.8561749125854
 30
0.0
 10
193.8284267269645
 20
116.7315109141244
 30
0.0
 10
193.7772051617082
 20
116.4752238700606
 30
0.0
 10
193.7640770350909
 20
116.342651874315
 30
0.0
 10
193.7639363947507
 20
115.951047681541
 30
0.0
 10
193.8162611441225
 20
115.687882350217
 30
0.0
 10
194.0153722061798
 20
115.2063769810439
 30
0.0
 10
194.1642345426371
 20
114.9831254415598
 30
0.0
 10
194.4405555019625
 20
114.7062691426709
 30
0.0
 10
194.5433191503361
 20
114.6217556958272
 30
0.0
 10
194.7607027077156
 20
114.476338422387
 30
0.0
 10
194.875501475672
 20
114.4148272233286
 30
0.0
 10
195.1173781990961
 20
114.3142973750738
 30
0.0
 10
195.2445318070963
 20
114.2756523518558
 30
0.0
 10
195.5001978165289
 20
114.2245960243048
 30
0.0
 10
195.6300638542849
 20
114.2115311657591
 30
0.0
 10
195.8940163810165
 20
114.2112685449612
 30
0.0
 10
196.0244207044406
 20
114.2241455452052
 30
0.0
 10
196.2800714678199
 20
114.274731549011
 30
0.0
 10
196.4069370169343
 20
114.3130079136329
 30
0.0
 10
196.6494574748802
 20
114.4132787811129
 30
0.0
 10
196.7643841135405
 20
114.4746348052538
 30
0.0
 10
196.9817555823725
 20
114.6194811004266
 30
0.0
 10
197.0847693950348
 20
114.7038586149212
 30
0.0
 10
197.2694699406167
 20
114.8882659351095
 30
0.0
 10
197.3522996748733
 20
114.9888389983789
 30
0.0
 10
197.4985521134708
 20
115.2070651389579
 30
0.0
 10
197.5609205942632
 20
115.3236202488792
 30
0.0
 10
197.7108767458299
 20
115.6844698429129
 30
0.0
 10
197.7640300259967
 20
115.9470683403394
 30
0.0
 10
197.7640300259967
 20
116.3435641279695
 30
0.0
  0
SPLINE
  5
F0
330
1F
100
AcDbEntity
  8
0
  6
HIDDEN
 62
     7
370
     0
100
AcDbSpline
210
0.0
220
0.0
230
1.0
 70
     8
 71
     3
 72
    12
 73
     8
 74
     0
 42
0.00000001
 43
0.00000001
 12
1.0
 22
0.0
 32
0.0
 13
1.0
 23
0.0
 33
0.0
 40
0.0
 40
0.0
 40
0.0
 40
0.0
 40
0.5
 40
0.5
 40
0.75
 40
0.75
 40
1.0
 40
1.0
 40
1.0
 40
1.0
 10
193.8587741376709
 20
106.3020295447409
 30
0.0
 10
193.88949637959
 20
106.4145853441501
 30
0.0
 10
193.9323335941252
 20
106.5273432038897
 30
0.0
 10
194.031760618325
 20
106.676884089686
 30
0.0
 10
194.0715128131417
 20
106.7241768213929
 30
0.0
 10
194.1695542699998
 20
106.7979131147143
 30
0.0
 10
194.2291103255873
 20
106.82333243409
 30
0.0
 10
194.2917868395632
 20
106.82333243409
 30
0.0
  0
LINE
  5
F1
330
1F
100
AcDbEntity
  8
0
  6
HIDDEN
 62
     7
370
     0
100
AcDbLine
 10
194.2917868396
 20
106.8233324341
 30
0.0
 11
197.2362732124
 21
106.8233324341
 31
0.0
  0
SPLINE
  5
F2
330
1F
100
AcDbEntity
  8
0
  6
HIDDEN
 62
     7
370
     0
100
AcDbSpline
210
0.0
220
0.0
230
1.0
 70
     8
 71
     3
 72
    12
 73
     8
 74
     0
 42
0.00000001
 43
0.00000001
 12
1.0
 22
0.0
 32
0.0
 13
1.0
 23
0.0
 33
0.0
 40
0.0
 40
0.0
 40
0.0
 40
0.0
 40
0.2499999999999991
 40
0.2499999999999991
 40
0.4999999999999982
 40
0.4999999999999982
 40
1.0
 40
1.0
 40
1.0
 40
1.0
 10
197.2362732124303
 20
106.82333243409
 30
0.0
 10
197.2993532509236
 20
106.82333243409
 30
0.0
 10
197.358501873105
 20
106.7979681148751
 30
0.0
 10
197.4569744231741
 20
106.7238032545022
 30
0.0
 10
197.4960110351588
 20
106.6772829139481
 30
0.0
 10
197.5959075019379
 20
106.5271405711028
 30
0.0
 10
197.6383283830045
 20
106.4154473641307
 30
0.0
 10
197.6692859143225
 20
106.3020295447409
 30
0.0
  0
ELLIPSE
  5
F3
330
1F
100
AcDbEntity
  8
0
  6
HIDDEN
 62
     7
370
     0
100
AcDbEllipse
 10
181.4168758366
 20
116.2113988654
 30
0.0
 11
-14.75368316065612
 21
31.09325491558117
 31
0.0
210
0.0
220
0.0
230
1.0
 40
0.3419987131
 41
3.300734856217127
 42
4.23149622336078
  0
SPLINE
  5
F4
330
1F
100
AcDbEntity
  8
0
  6
HIDDEN
 62
     7
370
     0
100
AcDbSpline
210
0.0
220
0.0
230
1.0
 70
     8
 71
     3
 72
    12
 73
     8
 74
     0
 42
0.00000001
 43
0.00000001
 12
1.0
 22
0.0
 32
0.0
 13
1.0
 23
0.0
 33
0.0
 40
0.0
 40
0.0
 40
0.0
 40
0.0
 40
0.4999999999999971
 40
0.4999999999999971
 40
0.7499999999999986
 40
0.7499999999999986
 40
1.0
 40
1.0
 40
1.0
 40
1.0
 10
197.6692859143225
 20
86.3106564053089
 30
0.0
 10
197.6385636724034
 20
86.27335442235587
 30
0.0
 10
197.5957264578682
 20
86.23674259030948
 30
0.0
 10
197.4962994336684
 20
86.18897780702427
 30
0.0
 10
197.4565472388518
 20
86.1740202915419
 30
0.0
 10
197.3585057819935
 20
86.15083034577276
 30
0.0
 10
197.2989497264061
 20
86.14290690655304
 30
0.0
 10
197.2362732124303
 20
86.14290690655305
 30
0.0
  0
LINE
  5
F5
330
1F
100
AcDbEntity
  8
0
  6
HIDDEN
 62
     7
370
     0
100
AcDbLine
 10
197.2362732124
 20
86.1429069066
 30
0.0
 11
194.2917868396
 21
86.1429069066
 31
0.0
  0
SPLINE
  5
F6
330
1F
100
AcDbEntity
  8
0
  6
HIDDEN
 62
     7
370
     0
100
AcDbSpline
210
0.0
220
0.0
230
1.0
 70
     8
 71
     3
 72
    12
 73
     8
 74
     0
 42
0.00000001
 43
0.00000001
 12
1.0
 22
0.0
 32
0.0
 13
1.0
 23
0.0
 33
0.0
 40
0.0
 40
0.0
 40
0.0
 40
0.0
 40
0.2500000000000005
 40
0.2500000000000005
 40
0.500000000000001
 40
0.500000000000001
 40
1.0
 40
1.0
 40
1.0
 40
1.0
 10
194.2917868395632
 20
86.14290690655304
 30
0.0
 10
194.2287068010698
 20
86.14290690655304
 30
0.0
 10
194.1695581788884
 20
86.15081283276548
 30
0.0
 10
194.0710856288193
 20
86.17413799420171
 30
0.0
 10
194.0320490168346
 20
86.1888507840334
 30
0.0
 10
193.9321525500555
 20
86.23680658476435
 30
0.0
 10
193.8897316689889
 20
86.27306874134442
 30
0.0
 10
193.8587741376709
 20
86.3106564053089
 30
0.0
  0
ELLIPSE
  5
F7
330
1F
100
AcDbEntity
  8
0
  6
HIDDEN
 62
     7
370
     0
100
AcDbEllipse
 10
210.1111842154
 20
116.2113988654
 30
0.0
 11
14.75368316065613
 21
31.09325491558114
 31
0.0
210
0.0
220
0.0
230
1.0
 40
0.3419987131
 41
2.05168908381882
 42
2.982450450962498
  0
SPLINE
  5
F8
330
1F
100
AcDbEntity
  8
0
  6
HIDDEN
 62
     7
370
     0
100
AcDbSpline
210
0.0
220
0.0
230
1.0
 70
     8
 71
     3
 72
    12
 73
     8
 74
     0
 42
0.00000001
 43
0.00000001
 12
1.0
 22
0.0
 32
0.0
 13
1.0
 23
0.0
 33
0.0
 40
0.0
 40
0.0
 40
0.0
 40
0.0
 40
0.499999999999999
 40
0.499999999999999
 40
0.7499999999999994
 40
0.7499999999999994
 40
1.0
 40
1.0
 40
1.0
 40
1.0
 10
193.8587741376709
 20
146.1121413255435
 30
0.0
 10
193.88949637959
 20
146.1494433084965
 30
0.0
 10
193.9323335941252
 20
146.1860551405429
 30
0.0
 10
194.031760618325
 20
146.2338199238281
 30
0.0
 10
194.0715128131417
 20
146.2487774393105
 30
0.0
 10
194.1695542699998
 20
146.2719673850796
 30
0.0
 10
194.2291103255873
 20
146.2798908242993
 30
0.0
 10
194.2917868395632
 20
146.2798908242993
 30
0.0
  0
LINE
  5
F9
330
1F
100
AcDbEntity
  8
0
  6
HIDDEN
 62
     7
370
     0
100
AcDbLine
 10
194.2917868396
 20
146.2798908243
 30
0.0
 11
197.2362732124
 21
146.2798908243
 31
0.0
  0
SPLINE
  5
FA
330
1F
100
AcDbEntity
  8
0
  6
HIDDEN
 62
     7
370
     0
100
AcDbSpline
210
0.0
220
0.0
230
1.0
 70
     8
 71
     3
 72
    12
 73
     8
 74
     0
 42
0.00000001
 43
0.00000001
 12
1.0
 22
0.0
 32
0.0
 13
1.0
 23
0.0
 33
0.0
 40
0.0
 40
0.0
 40
0.0
 40
0.0
 40
0.25
 40
0.25
 40
0.5
 40
0.5
 40
1.0
 40
1.0
 40
1.0
 40
1.0
 10
197.2362732124303
 20
146.2798908242993
 30
0.0
 10
197.2993532509236
 20
146.2798908242993
 30
0.0
 10
197.358501873105
 20
146.2719848980869
 30
0.0
 10
197.4569744231741
 20
146.2486597366506
 30
0.0
 10
197.4960110351588
 20
146.2339469468189
 30
0.0
 10
197.5959075019378
 20
146.185991146088
 30
0.0
 10
197.6383283830045
 20
146.149728989508
 30
0.0
 10
197.6692859143225
 20
146.1121413255435
 30
0.0
  0
ELLIPSE
  5
FB
330
1F
100
AcDbEntity
  8
0
  6
HIDDEN
 62
     7
370
     0
100
AcDbEllipse
 10
181.4168758366
 20
116.2113988654
 30
0.0
 11
14.75368316065624
 21
31.09325491558117
 31
0.0
210
0.0
220
0.0
230
1.0
 40
0.3419987131
 41
5.193281737408637
 42
6.124043104552343
  0
SPLINE
  5
FC
330
1F
100
AcDbEntity
  8
0
  6
HIDDEN
 62
     7
370
     0
100
AcDbSpline
210
0.0
220
0.0
230
1.0
 70
     8
 71
     3
 72
    12
 73
     8
 74
     0
 42
0.00000001
 43
0.00000001
 12
1.0
 22
0.0
 32
0.0
 13
1.0
 23
0.0
 33
0.0
 40
0.0
 40
0.0
 40
0.0
 40
0.0
 40
0.5
 40
0.5
 40
0.75
 40
0.75
 40
1.0
 40
1.0
 40
1.0
 40
1.0
 10
197.6692859143225
 20
126.1207681861118
 30
0.0
 10
197.6385636724034
 20
126.0082123867026
 30
0.0
 10
197.5957264578682
 20
125.895454526963
 30
0.0
 10
197.4962994336684
 20
125.7459136411666
 30
0.0
 10
197.4565472388518
 20
125.6986209094598
 30
0.0
 10
197.3585057819935
 20
125.6248846161383
 30
0.0
 10
197.2989497264061
 20
125.5994652967626
 30
0.0
 10
197.2362732124303
 20
125.5994652967626
 30
0.0
  0
LINE
  5
FD
330
1F
100
AcDbEntity
  8
0
  6
HIDDEN
 62
     7
370
     0
100
AcDbLine
 10
197.2362732124
 20
125.5994652968
 30
0.0
 11
194.2917868396
 21
125.5994652968
 31
0.0
  0
SPLINE
  5
FE
330
1F
100
AcDbEntity
  8
0
  6
HIDDEN
 62
     7
370
     0
100
AcDbSpline
210
0.0
220
0.0
230
1.0
 70
     8
 71
     3
 72
    12
 73
     8
 74
     0
 42
0.00000001
 43
0.00000001
 12
1.0
 22
0.0
 32
0.0
 13
1.0
 23
0.0
 33
0.0
 40
0.0
 40
0.0
 40
0.0
 40
0.0
 40
0.2500000000000023
 40
0.2500000000000023
 40
0.5000000000000047
 40
0.5000000000000047
 40
1.0
 40
1.0
 40
1.0
 40
1.0
 10
194.2917868395632
 20
125.5994652967626
 30
0.0
 10
194.2287068010698
 20
125.5994652967626
 30
0.0
 10
194.1695581788884
 20
125.6248296159775
 30
0.0
 10
194.0710856288193
 20
125.6989944763505
 30
0.0
 10
194.0320490168346
 20
125.7455148169046
 30
0.0
 10
193.9321525500555
 20
125.8956571597498
 30
0.0
 10
193.8897316689889
 20
126.007350366722
 30
0.0
 10
193.8587741376709
 20
126.1207681861117
 30
0.0
  0
ELLIPSE
  5
FF
330
1F
100
AcDbEntity
  8
0
  6
HIDDEN
 62
     7
370
     0
100
AcDbEllipse
 10
210.1111842154
 20
116.2113988654
 30
0.0
 11
-14.75368316065624
 21
31.09325491558115
 31
0.0
210
0.0
220
0.0
230
1.0
 40
0.3419987131
 41
0.1591422026272847
 42
1.089903569770961
  0
ELLIPSE
  5
100
330
1F
100
AcDbEntity
  8
0
  6
HIDDEN
 62
     7
370
     0
100
AcDbEllipse
 10
239.9944312615
 20
116.2113988654
 30
0.0
 11
22.41445668029294
 21
31.49663578142558
 31
0.0
210
0.0
220
0.0
230
1.0
 40
0.0205386817
 41
2.552660750936
 42
3.156207884742678
  0
LINE
  5
101
330
1F
100
AcDbEntity
  8
0
  6
HIDDEN
 62
     7
370
     0
100
AcDbLine
 10
183.764030026
 20
85.2113988654
 30
0.0
 11
183.764030026
 21
147.2113988654
 31
0.0
  0
LWPOLYLINE
  5
102
330
1F
100
AcDbEntity
  8
0
  6
HIDDEN
 62
     7
370
     0
100
AcDbPolyline
 90
       29
 70
   128
 43
0.0
 10
204.764030026
 20
125.8633226541
 10
205.4315928279
 20
125.928461849
 10
206.0656812433
 20
126.1206130826
 10
206.6344994316
 20
126.4301410895
 10
207.1095244734
 20
126.8415248432
 10
207.4669366297
 20
127.3341358443
 10
207.6888137625
 20
127.8832725204
 10
207.764030026
 20
128.4613988654
 10
207.6888137625
 20
129.0395252105
 10
207.4669366297
 20
129.5886618865
 10
207.1095244734
 20
130.0812728877
 10
206.6344994316
 20
130.4926566413
 10
206.0656812433
 20
130.8021846483
 10
205.4315928279
 20
130.9943358818
 10
204.764030026
 20
131.0594750768
 10
204.0964672241
 20
130.9943358818
 10
203.4623788086
 20
130.8021846483
 10
202.8935606204
 20
130.4926566413
 10
202.4185355786
 20
130.0812728877
 10
202.0611234223
 20
129.5886618865
 10
201.8392462895
 20
129.0395252105
 10
201.764030026
 20
128.4613988654
 10
201.8392462895
 20
127.8832725204
 10
202.0611234223
 20
127.3341358443
 10
202.4185355786
 20
126.8415248432
 10
202.8935606204
 20
126.4301410895
 10
203.4623788086
 20
126.1206130826
 10
204.0964672241
 20
125.928461849
 10
204.764030026
 20
125.8633226541
  0
LINE
  5
103
330
1F
100
AcDbEntity
  8
0
  6
HIDDEN
 62
     7
370
     0
100
AcDbLine
 10
183.764030026
 20
91.9613988654
 30
0.0
 11
183.764030026
 21
140.4431617137
 31
0.0
  0
SPLINE
  5
104
330
1F
100
AcDbEntity
  8
0
  6
HIDDEN
 62
     7
370
     0
100
AcDbSpline
210
0.0
220
0.0
230
1.0
 70
     8
 71
     3
 72
    12
 73
     8
 74
     0
 42
0.00000001
 43
0.00000001
 12
1.0
 22
0.0
 32
0.0
 13
1.0
 23
0.0
 33
0.0
 40
0.0
 40
0.0
 40
0.0
 40
0.0
 40
0.5000000000000003
 40
0.5000000000000003
 40
0.7500000000000001
 40
0.7500000000000001
 40
1.0
 40
1.0
 40
1.0
 40
1.0
 10
182.9475177395497
 20
131.663666847257
 30
0.0
 10
183.00392391823
 20
131.6158444735972
 30
0.0
 10
183.0740868197017
 20
131.5755736266586
 30
0.0
 10
183.1920975330909
 20
131.5675277581817
 30
0.0
 10
183.2323033166864
 20
131.5740903565205
 30
0.0
 10
183.3060240134194
 20
131.6014724509741
 30
0.0
 10
183.3388847352059
 20
131.6212339415045
 30
0.0
 10
183.3690531371352
 20
131.6441666526925
 30
0.0
  0
SPLINE
  5
105
330
1F
100
AcDbEntity
  8
0
  6
HIDDEN
 62
     7
370
     0
100
AcDbSpline
210
0.0
220
0.0
230
1.0
 70
     8
 71
     3
 72
    16
 73
    12
 74
     0
 42
0.00000001
 43
0.00000001
 12
1.0
 22
0.0
 32
0.0
 13
1.0
 23
0.0
 33
0.0
 40
0.0
 40
0.0
 40
0.0
 40
0.0
 40
0.062500000000003
 40
0.062500000000003
 40
0.125000000000006
 40
0.125000000000006
 40
0.2500000000000022
 40
0.2500000000000022
 40
0.5000000000000049
 40
0.5000000000000049
 40
1.0
 40
1.0
 40
1.0
 40
1.0
 10
183.36905313709
 20
131.6441666527406
 30
0.0
 10
183.3806660369294
 20
131.6529942757221
 30
0.0
 10
183.3940172213619
 20
131.660828657604
 30
0.0
 10
183.423417060981
 20
131.6691387836764
 30
0.0
 10
183.4382577855364
 20
131.6686429644414
 30
0.0
 10
183.4740909935049
 20
131.657191993472
 30
0.0
 10
183.4882042013265
 20
131.6405114926133
 30
0.0
 10
183.5226955725454
 20
131.5883908068563
 30
0.0
 10
183.5337796436559
 20
131.5486013128313
 30
0.0
 10
183.5599024614519
 20
131.4252646807342
 30
0.0
 10
183.5640300259967
 20
131.3378432702356
 30
0.0
 10
183.5640300259967
 20
131.2491060279173
 30
0.0
  0
LINE
  5
106
330
1F
100
AcDbEntity
  8
0
  6
HIDDEN
 62
     7
370
     0
100
AcDbLine
 10
183.564030026
 20
101.1736917029
 30
0.0
 11
183.564030026
 21
131.2491060279
 31
0.0
  0
SPLINE
  5
107
330
1F
100
AcDbEntity
  8
0
  6
HIDDEN
 62
     7
370
     0
100
AcDbSpline
210
0.0
220
0.0
230
1.0
 70
     8
 71
     3
 72
    16
 73
    12
 74
     0
 42
0.00000001
 43
0.00000001
 12
1.0
 22
0.0
 32
0.0
 13
1.0
 23
0.0
 33
0.0
 40
0.0
 40
0.0
 40
0.0
 40
0.0
 40
0.5000000000000041
 40
0.5000000000000041
 40
0.7500000000000062
 40
0.7500000000000062
 40
0.8750000000000072
 40
0.8750000000000072
 40
0.9375000000000036
 40
0.9375000000000036
 40
1.0
 40
1.0
 40
1.0
 40
1.0
 10
183.5640300259967
 20
101.1736917029349
 30
0.0
 10
183.5640300259967
 20
101.0845653377462
 30
0.0
 10
183.5598837509188
 20
100.9977039701328
 30
0.0
 10
183.5339181555252
 20
100.8747217236387
 30
0.0
 10
183.5224572501478
 20
100.8339504284074
 30
0.0
 10
183.4881455123734
 20
100.7822461084077
 30
0.0
 10
183.4741207764438
 20
100.7655757418173
 30
0.0
 10
183.43809781341
 20
100.7541235213605
 30
0.0
 10
183.4233433043203
 20
100.7536704750855
 30
0.0
 10
183.3939911431735
 20
100.7619857963017
 30
0.0
 10
183.3806512686694
 20
100.76981468138
 30
0.0
 10
183.3690531371211
 20
100.7786310781426
 30
0.0
  0
SPLINE
  5
108
330
1F
100
AcDbEntity
  8
0
  6
HIDDEN
 62
     7
370
     0
100
AcDbSpline
210
0.0
220
0.0
230
1.0
 70
     8
 71
     3
 72
    12
 73
     8
 74
     0
 42
0.00000001
 43
0.00000001
 12
1.0
 22
0.0
 32
0.0
 13
1.0
 23
0.0
 33
0.0
 40
0.0
 40
0.0
 40
0.0
 40
0.0
 40
0.25
 40
0.25
 40
0.5
 40
0.5
 40
1.0
 40
1.0
 40
1.0
 40
1.0
 10
183.3690531371281
 20
100.7786310781515
 30
0.0
 10
183.3388612954109
 20
100.8015816072493
 30
0.0
 10
183.3055023259963
 20
100.8215510812735
 30
0.0
 10
183.2323650414157
 20
100.848652214899
 30
0.0
 10
183.1921231687617
 20
100.8552529555445
 30
0.0
 10
183.0744173917932
 20
100.8472840810377
 30
0.0
 10
183.0040069140138
 20
100.8070236228699
 30
0.0
 10
182.9475177395455
 20
100.7591308835917
 30
0.0
  0
SPLINE
  5
109
330
1F
100
AcDbEntity
  8
0
  6
HIDDEN
 62
     7
370
     0
100
AcDbSpline
210
0.0
220
0.0
230
1.0
 70
     8
 71
     3
 72
    12
 73
     8
 74
     0
 42
0.00000001
 43
0.00000001
 12
1.0
 22
0.0
 32
0.0
 13
1.0
 23
0.0
 33
0.0
 40
0.0
 40
0.0
 40
0.0
 40
0.0
 40
0.2500000000000024
 40
0.2500000000000024
 40
0.5000000000000048
 40
0.5000000000000048
 40
1.0
 40
1.0
 40
1.0
 40
1.0
 10
182.9475177395452
 20
100.7591308835919
 30
0.0
 10
182.8593638018074
 20
100.6843920757378
 30
0.0
 10
182.7990103771787
 20
100.5934115752555
 30
0.0
 10
182.6927484191119
 20
100.4044977525029
 30
0.0
 10
182.6505162525498
 20
100.3079932929623
 30
0.0
 10
182.5394455572326
 20
100.0172255387951
 30
0.0
 10
182.4865087808058
 20
99.82155872425139
 30
0.0
 10
182.442709682437
 20
99.62749223918507
 30
0.0
  0
SPLINE
  5
10A
330
1F
100
AcDbEntity
  8
0
  6
HIDDEN
 62
     7
370
     0
100
AcDbSpline
210
0.0
220
0.0
230
1.0
 70
     8
 71
     3
 72
    12
 73
     8
 74
     0
 42
0.00000001
 43
0.00000001
 12
1.0
 22
0.0
 32
0.0
 13
1.0
 23
0.0
 33
0.0
 40
0.0
 40
0.0
 40
0.0
 40
0.0
 40
0.4999999999999991
 40
0.4999999999999991
 40
0.7499999999999996
 40
0.7499999999999996
 40
1.0
 40
1.0
 40
1.0
 40
1.0
 10
182.4427096824371
 20
94.44131791042399
 30
0.0
 10
182.4864562232736
 20
94.41472373978283
 30
0.0
 10
182.5393405785051
 20
94.39496351445709
 30
0.0
 10
182.6509076658413
 20
94.37451252422801
 30
0.0
 10
182.6934912623843
 20
94.36925229957157
 30
0.0
 10
182.7984079894661
 20
94.36136950564892
 30
0.0
 10
182.8599415973109
 20
94.35880538046978
 30
0.0
 10
182.947517739537
 20
94.35660516295013
 30
0.0
  0
LINE
  5
10B
330
1F
100
AcDbEntity
  8
0
  6
HIDDEN
 62
     7
370
     0
100
AcDbLine
 10
183.564030026
 20
93.6715785866
 30
0.0
 11
183.564030026
 21
94.1518043772
 31
0.0
  0
LINE
  5
10C
330
1F
100
AcDbEntity
  8
0
  6
HIDDEN
 62
     7
370
     0
100
AcDbLine
 10
183.564030026
 20
138.2709933537
 30
0.0
 11
183.564030026
 21
138.7512191443
 31
0.0
  0
SPLINE
  5
10D
330
1F
100
AcDbEntity
  8
0
  6
HIDDEN
 62
     7
370
     0
100
AcDbSpline
210
0.0
220
0.0
230
1.0
 70
     8
 71
     3
 72
    12
 73
     8
 74
     0
 42
0.00000001
 43
0.00000001
 12
1.0
 22
0.0
 32
0.0
 13
1.0
 23
0.0
 33
0.0
 40
0.0
 40
0.0
 40
0.0
 40
0.0
 40
0.25
 40
0.25
 40
0.5
 40
0.5
 40
1.0
 40
1.0
 40
1.0
 40
1.0
 10
182.947517739545
 20
138.066192567902
 30
0.0
 10
182.8588330796887
 20
138.063964500561
 30
0.0
 10
182.7989146639653
 20
138.0614627165307
 30
0.0
 10
182.6932554366445
 20
138.0535312806947
 30
0.0
 10
182.6506141985296
 20
138.0482391257979
 30
0.0
 10
182.539424856427
 20
138.0278341853107
 30
0.0
 10
182.486498174306
 20
138.0080994937238
 30
0.0
 10
182.4427096824371
 20
137.9814798204282
 30
0.0
  0
SPLINE
  5
10E
330
1F
100
AcDbEntity
  8
0
  6
HIDDEN
 62
     7
370
     0
100
AcDbSpline
210
0.0
220
0.0
230
1.0
 70
     8
 71
     3
 72
    12
 73
     8
 74
     0
 42
0.00000001
 43
0.00000001
 12
1.0
 22
0.0
 32
0.0
 13
1.0
 23
0.0
 33
0.0
 40
0.0
 40
0.0
 40
0.0
 40
0.0
 40
0.4999999999999981
 40
0.4999999999999981
 40
0.7499999999999989
 40
0.7499999999999989
 40
1.0
 40
1.0
 40
1.0
 40
1.0
 10
182.4427096824355
 20
132.7953054916674
 30
0.0
 10
182.4864711587342
 20
132.6014057037053
 30
0.0
 10
182.5393774743873
 20
132.4055493397684
 30
0.0
 10
182.6510886720346
 20
132.1134071932695
 30
0.0
 10
182.693608115621
 20
132.0166892565715
 30
0.0
 10
182.7987314581884
 20
131.8299648201471
 30
0.0
 10
182.8602974219061
 20
131.7376141118774
 30
0.0
 10
182.9475177395488
 20
131.6636668472577
 30
0.0
  0
LWPOLYLINE
  5
10F
330
1F
100
AcDbEntity
  8
0
  6
HIDDEN
 62
     7
370
     0
100
AcDbPolyline
 90
       27
 70
   128
 43
0.0
 10
204.764030026
 20
126.1461202012
 10
205.3623191867
 20
126.209033012
 10
205.9258379561
 20
126.3941151803
 10
206.4218366716
 20
126.6906104034
 10
206.8214896907
 20
127.0812874565
 10
207.1015706327
 20
127.5434416095
 10
207.2458022112
 20
128.0502141427
 10
207.2458022112
 20
128.5721532786
 10
207.1015706327
 20
129.0789258119
 10
206.8214896907
 20
129.5410799648
 10
206.4218366716
 20
129.931757018
 10
205.9258379561
 20
130.228252241
 10
205.3623191867
 20
130.4133344094
 10
204.764030026
 20
130.4762472201
 10
204.1657408653
 20
130.4133344094
 10
203.6022220959
 20
130.228252241
 10
203.1062233804
 20
129.931757018
 10
202.7065703613
 20
129.5410799648
 10
202.4264894193
 20
129.0789258119
 10
202.2822578408
 20
128.5721532786
 10
202.2822578408
 20
128.0502141427
 10
202.4264894193
 20
127.5434416095
 10
202.7065703613
 20
127.0812874565
 10
203.1062233804
 20
126.6906104034
 10
203.6022220959
 20
126.3941151803
 10
204.1657408653
 20
126.209033012
 10
204.764030026
 20
126.1461202012
  0
SPLINE
  5
110
330
1F
100
AcDbEntity
  8
0
  6
HIDDEN
 62
     7
370
     0
100
AcDbSpline
210
0.0
220
0.0
230
1.0
 70
     8
 71
     3
 72
    12
 73
     8
 74
     0
 42
0.00000001
 43
0.00000001
 12
1.0
 22
0.0
 32
0.0
 13
1.0
 23
0.0
 33
0.0
 40
0.0
 40
0.0
 40
0.0
 40
0.0
 40
0.4999999999999982
 40
0.4999999999999982
 40
0.7499999999999991
 40
0.7499999999999991
 40
1.0
 40
1.0
 40
1.0
 40
1.0
 10
206.8911968434659
 20
125.7250690151638
 30
0.0
 10
206.8156454676347
 20
125.367328294288
 30
0.0
 10
206.7578249789823
 20
125.0483012735123
 30
0.0
 10
206.7808715089653
 20
124.6761600592302
 30
0.0
 10
206.8060827058522
 20
124.5742703361183
 30
0.0
 10
206.876403409735
 20
124.4096964307014
 30
0.0
 10
206.9210197258251
 20
124.3459528638918
 30
0.0
 10
206.966928787292
 20
124.296397499196
 30
0.0
  0
SPLINE
  5
111
330
1F
100
AcDbEntity
  8
0
  6
HIDDEN
 62
     7
370
     0
100
AcDbSpline
210
0.0
220
0.0
230
1.0
 70
     8
 71
     3
 72
    60
 73
    56
 74
     0
 42
0.00000001
 43
0.00000001
 12
1.0
 22
0.0
 32
0.0
 13
1.0
 23
0.0
 33
0.0
 40
0.0
 40
0.0
 40
0.0
 40
0.0
 40
0.0625000000000006
 40
0.0625000000000006
 40
0.093750000000001
 40
0.093750000000001
 40
0.1250000000000013
 40
0.1250000000000013
 40
0.1562500000000016
 40
0.1562500000000016
 40
0.1875000000000019
 40
0.1875000000000019
 40
0.2187500000000022
 40
0.2187500000000022
 40
0.2500000000000026
 40
0.2500000000000026
 40
0.3125000000000038
 40
0.3125000000000038
 40
0.3437500000000042
 40
0.3437500000000042
 40
0.3750000000000046
 40
0.3750000000000046
 40
0.4062500000000051
 40
0.4062500000000051
 40
0.4375000000000055
 40
0.4375000000000055
 40
0.4687500000000059
 40
0.4687500000000059
 40
0.500000000000006
 40
0.500000000000006
 40
0.5312500000000061
 40
0.5312500000000061
 40
0.5625000000000062
 40
0.5625000000000062
 40
0.6250000000000066
 40
0.6250000000000066
 40
0.6562500000000063
 40
0.6562500000000063
 40
0.6875000000000062
 40
0.6875000000000062
 40
0.7500000000000056
 40
0.7500000000000056
 40
0.7812500000000049
 40
0.7812500000000049
 40
0.8125000000000042
 40
0.8125000000000042
 40
0.8437500000000036
 40
0.8437500000000036
 40
0.8750000000000028
 40
0.8750000000000028
 40
0.9062500000000021
 40
0.9062500000000021
 40
0.9375000000000014
 40
0.9375000000000014
 40
1.0
 40
1.0
 40
1.0
 40
1.0
 10
206.9669287872919
 20
124.2963974991962
 30
0.0
 10
207.098166348719
 20
124.4560978129642
 30
0.0
 10
207.182348562622
 20
124.608589980423
 30
0.0
 10
207.2505356029484
 20
124.8602448305341
 30
0.0
 10
207.2627451487752
 20
124.947232898663
 30
0.0
 10
207.265121314615
 20
125.1260241046594
 30
0.0
 10
207.2554975929547
 20
125.218423733426
 30
0.0
 10
207.2123487739123
 20
125.412296605563
 30
0.0
 10
207.1782068836908
 20
125.5146969369352
 30
0.0
 10
207.0859301444555
 20
125.7220632688032
 30
0.0
 10
207.0276002739382
 20
125.8282055629636
 30
0.0
 10
206.8850312499708
 20
126.0456793073091
 30
0.0
 10
206.8034563617672
 20
126.1530071141692
 30
0.0
 10
206.6208924160962
 20
126.3659679177694
 30
0.0
 10
206.5186800031015
 20
126.4725314218196
 30
0.0
 10
206.2001587485456
 20
126.7752836403971
 30
0.0
 10
205.96580756374
 20
126.9608368427128
 30
0.0
 10
205.6228040659667
 20
127.2055828892902
 30
0.0
 10
205.5086804240924
 20
127.2825469964364
 30
0.0
 10
205.2901048038445
 20
127.4255900862925
 30
0.0
 10
205.1845781424813
 20
127.4923882718034
 30
0.0
 10
204.983011344636
 20
127.6206734328656
 30
0.0
 10
204.8863458314506
 20
127.6825044354592
 30
0.0
 10
204.7116033672894
 20
127.8029401117743
 30
0.0
 10
204.6329509434128
 20
127.8617487871354
 30
0.0
 10
204.5012185862788
 20
127.98451634616
 30
0.0
 10
204.4487884730367
 20
128.0486298728865
 30
0.0
 10
204.3875445115803
 20
128.1850037375646
 30
0.0
 10
204.3791213815404
 20
128.2591236580195
 30
0.0
 10
204.4093499955915
 20
128.4089719746123
 30
0.0
 10
204.447716961651
 20
128.4865639214527
 30
0.0
 10
204.5543777926488
 20
128.6332235306199
 30
0.0
 10
204.6222425964148
 20
128.7029462345591
 30
0.0
 10
204.8557691030809
 20
128.8963373795071
 30
0.0
 10
205.0450983820039
 20
129.0001677600069
 30
0.0
 10
205.353980222317
 20
129.100482833964
 30
0.0
 10
205.4626795160436
 20
129.1247889128797
 30
0.0
 10
205.6827892790724
 20
129.1495623914125
 30
0.0
 10
205.7945088678378
 20
129.1503509041277
 30
0.0
 10
206.1330821851829
 20
129.1110561019235
 30
0.0
 10
206.3615345411877
 20
129.0271501514553
 30
0.0
 10
206.6633579731508
 20
128.8010088428795
 30
0.0
 10
206.7550139053671
 20
128.7111962773449
 30
0.0
 10
206.9194362083191
 20
128.502634086299
 30
0.0
 10
206.991625162389
 20
128.383666749507
 30
0.0
 10
207.109105677124
 20
128.1310768296381
 30
0.0
 10
207.1559833427424
 20
127.9943036306768
 30
0.0
 10
207.2239880538739
 20
127.7147861404672
 30
0.0
 10
207.2456152584831
 20
127.5718436406771
 30
0.0
 10
207.2669380865375
 20
127.2807124266335
 30
0.0
 10
207.2663884580888
 20
127.1320980116844
 30
0.0
 10
207.2450420315171
 20
126.8401983167071
 30
0.0
 10
207.2244121377489
 20
126.6955943242536
 30
0.0
 10
207.1335525591696
 20
126.2659410053359
 30
0.0
 10
207.0350177438711
 20
125.9836749913724
 30
0.0
 10
206.8911968434659
 20
125.7250690151638
 30
0.0
  0
SPLINE
  5
112
330
1F
100
AcDbEntity
  8
0
  6
HIDDEN
 62
     7
370
     0
100
AcDbSpline
210
0.0
220
0.0
230
1.0
 70
     8
 71
     3
 72
    62
 73
    58
 74
     0
 42
0.00000001
 43
0.00000001
 12
1.0
 22
0.0
 32
0.0
 13
1.0
 23
0.0
 33
0.0
 40
-0.0312500000000004
 40
-0.0312500000000004
 40
0.0
 40
0.0
 40
0.03125
 40
0.03125
 40
0.0624999999999999
 40
0.0624999999999999
 40
0.0937499999999999
 40
0.0937499999999999
 40
0.1249999999999999
 40
0.1249999999999999
 40
0.1874999999999993
 40
0.1874999999999993
 40
0.2187499999999988
 40
0.2187499999999988
 40
0.2499999999999984
 40
0.2499999999999984
 40
0.2812499999999981
 40
0.2812499999999981
 40
0.3124999999999977
 40
0.3124999999999977
 40
0.3749999999999972
 40
0.3749999999999972
 40
0.4062499999999968
 40
0.4062499999999968
 40
0.4374999999999964
 40
0.4374999999999964
 40
0.4687499999999961
 40
0.4687499999999961
 40
0.4999999999999957
 40
0.4999999999999957
 40
0.5624999999999957
 40
0.5624999999999957
 40
0.593749999999996
 40
0.593749999999996
 40
0.6249999999999963
 40
0.6249999999999963
 40
0.6562499999999966
 40
0.6562499999999966
 40
0.6874999999999969
 40
0.6874999999999969
 40
0.7187499999999972
 40
0.7187499999999972
 40
0.7499999999999976
 40
0.7499999999999976
 40
0.7812499999999978
 40
0.7812499999999978
 40
0.8124999999999981
 40
0.8124999999999981
 40
0.8749999999999987
 40
0.8749999999999987
 40
0.906249999999999
 40
0.906249999999999
 40
0.9374999999999993
 40
0.9374999999999993
 40
0.9687499999999996
 40
0.9687499999999996
 40
1.0
 40
1.0
 40
1.03125
 40
1.03125
 10
204.5979862070606
 20
118.3692394724126
 30
0.0
 10
204.9300738449329
 20
118.3692394724126
 30
0.0
 10
205.09317057551
 20
118.3858131164681
 30
0.0
 10
205.4137668804184
 20
118.4503016872966
 30
0.0
 10
205.5729690837249
 20
118.4990457127551
 30
0.0
 10
205.875279585439
 20
118.624623256325
 30
0.0
 10
206.0185311596834
 20
118.7009975846457
 30
0.0
 10
206.2896420007506
 20
118.8795813750752
 30
0.0
 10
206.4173239958794
 20
118.9821832995616
 30
0.0
 10
206.7613240840946
 20
119.3146202219041
 30
0.0
 10
206.9473257126789
 20
119.5778765632007
 30
0.0
 10
207.1348122258605
 20
119.9924208895095
 30
0.0
 10
207.1832841706127
 20
120.1361778014875
 30
0.0
 10
207.2478461500264
 20
120.4247932689555
 30
0.0
 10
207.2639246502463
 20
120.5680026899958
 30
0.0
 10
207.26413437916
 20
120.8520255302343
 30
0.0
 10
207.2477028317491
 20
120.9939915346123
 30
0.0
 10
207.1835341415968
 20
121.2635013229064
 30
0.0
 10
207.1360651788053
 20
121.3924193318086
 30
0.0
 10
206.9469416948511
 20
121.7626123043511
 30
0.0
 10
206.7628018024849
 20
121.9777846394616
 30
0.0
 10
206.416066218681
 20
122.2432884533499
 30
0.0
 10
206.2907492625292
 20
122.3208997673002
 30
0.0
 10
206.0206897597293
 20
122.456163626633
 30
0.0
 10
205.8743163838482
 20
122.5141337973937
 30
0.0
 10
205.5728984807946
 20
122.6060136730381
 30
0.0
 10
205.4170463193556
 20
122.6406113288583
 30
0.0
 10
205.0947032580393
 20
122.6874729458722
 30
0.0
 10
204.9287517909698
 20
122.6993152598044
 30
0.0
 10
204.4378304234185
 20
122.6994684482737
 30
0.0
 10
204.1073474363158
 20
122.6522161754635
 30
0.0
 10
203.6554379387172
 20
122.5147433168707
 30
0.0
 10
203.5091407213379
 20
122.4569490120066
 30
0.0
 10
203.2382571587816
 20
122.3214741244577
 30
0.0
 10
203.1129006366237
 20
122.2438653186487
 30
0.0
 10
202.8821229951345
 20
122.0673871830084
 30
0.0
 10
202.7773351150645
 20
121.9685030209677
 30
0.0
 10
202.5966714908824
 20
121.7560452806702
 30
0.0
 10
202.5194829936871
 20
121.641572158839
 30
0.0
 10
202.3926195893958
 20
121.3940301091457
 30
0.0
 10
202.3449582354635
 20
121.2647230635829
 30
0.0
 10
202.2807278684009
 20
120.9961349024499
 30
0.0
 10
202.2640946545218
 20
120.8549893589509
 30
0.0
 10
202.2639657795104
 20
120.5695010359093
 30
0.0
 10
202.2800467586393
 20
120.4262350480858
 30
0.0
 10
202.3440141711076
 20
120.1388983244417
 30
0.0
 10
202.3925782213513
 20
119.994130004711
 30
0.0
 10
202.5803090633938
 20
119.5783629249993
 30
0.0
 10
202.7662549008895
 20
119.3152349993472
 30
0.0
 10
203.1100301229939
 20
118.9827908720884
 30
0.0
 10
203.2372054273615
 20
118.8804652163654
 30
0.0
 10
203.508847836636
 20
118.7013617225032
 30
0.0
 10
203.6520070075832
 20
118.6250471746208
 30
0.0
 10
203.953133950121
 20
118.4997569407264
 30
0.0
 10
204.1126501788125
 20
118.4507013394123
 30
0.0
 10
204.4345160710444
 20
118.3858194986814
 30
0.0
 10
204.5979862070606
 20
118.3692394724126
 30
0.0
 10
204.9300738449329
 20
118.3692394724126
 30
0.0
  0
LINE
  5
113
330
1F
100
AcDbEntity
  8
0
  6
HIDDEN
 62
     7
370
     0
100
AcDbLine
 10
183.564030026
 20
94.1518043772
 30
0.0
 11
183.564030026
 21
109.1895115397
 31
0.0
  0
LINE
  5
114
330
1F
100
AcDbEntity
  8
0
  6
HIDDEN
 62
     7
370
     0
100
AcDbLine
 10
183.564030026
 20
123.2332861912
 30
0.0
 11
183.564030026
 21
138.2709933537
 31
0.0
  0
LWPOLYLINE
  5
115
330
1F
100
AcDbEntity
  8
0
  6
HIDDEN
 62
     7
370
     0
100
AcDbPolyline
 90
        9
 70
   128
 43
0.0
 10
206.8911968435
 20
125.7250690152
 10
207.052645234
 20
125.4155258332
 10
207.1743327409
 20
125.1301977383
 10
207.2528951286
 20
124.876973058
 10
207.2861604207
 20
124.6628525726
 10
207.273208948
 20
124.4937559675
 10
207.2143987734
 20
124.3743581746
 10
207.1113557933
 20
124.307960127
 10
206.9669287873
 20
124.2963974992
  0
CIRCLE
  5
116
330
1F
100
AcDbEntity
  8
0
  6
HIDDEN
 62
     7
370
     0
100
AcDbCircle
 10
168.264030026
 20
116.2113988654
 30
0.0
 40
4.050000000000011
  0
LINE
  5
117
330
1F
100
AcDbEntity
  8
0
  6
HIDDEN
 62
     7
370
     0
100
AcDbLine
 10
147.2942584656
 20
131.5243499083
 30
0.0
 11
147.2942584656
 21
100.8984478225
 31
0.0
  0
LINE
  5
118
330
1F
100
AcDbEntity
  8
0
  6
HIDDEN
 62
     7
370
     0
100
AcDbLine
 10
145.764030026
 20
100.014970021
 30
0.0
 11
145.764030026
 21
132.4078277099
 31
0.0
  0
LINE
  5
119
330
1F
100
AcDbEntity
  8
0
  6
HIDDEN
 62
     7
370
     0
100
AcDbLine
 10
153.7942584656
 20
130.5578090269
 30
0.0
 11
153.7942584656
 21
101.8649887039
 31
0.0
  0
LINE
  5
11A
330
1F
100
AcDbEntity
  8
0
  6
HIDDEN
 62
     7
370
     0
100
AcDbLine
 10
159.5942584656
 20
130.2113988654
 30
0.0
 11
159.5942584656
 21
102.2113988654
 31
0.0
  0
LINE
  5
11B
330
1F
100
AcDbEntity
  8
0
  6
HIDDEN
 62
     7
370
     0
100
AcDbLine
 10
152.1942584656
 20
130.2113988654
 30
0.0
 11
152.1942584656
 21
102.2113988654
 31
0.0
  0
LINE
  5
11C
330
1F
100
AcDbEntity
  8
0
  6
HIDDEN
 62
     7
370
     0
100
AcDbLine
 10
153.1942584656
 20
130.2113988654
 30
0.0
 11
153.1942584656
 21
102.2113988654
 31
0.0
  0
SPLINE
  5
11D
330
1F
100
AcDbEntity
  8
0
  6
HIDDEN
 62
     7
370
     0
100
AcDbSpline
210
0.0
220
0.0
230
1.0
 70
     8
 71
     3
 72
    10
 73
     6
 74
     0
 42
0.00000001
 43
0.00000001
 12
1.0
 22
0.0
 32
0.0
 13
1.0
 23
0.0
 33
0.0
 40
0.0
 40
0.0
 40
0.0
 40
0.0
 40
0.5
 40
0.5
 40
1.0
 40
1.0
 40
1.0
 40
1.0
 10
172.2640300259967
 20
116.8458277424486
 30
0.0
 10
172.2971774440732
 20
116.6368371414406
 30
0.0
 10
172.3140362894348
 20
116.425274675419
 30
0.0
 10
172.3140237590872
 20
115.9972859094514
 30
0.0
 10
172.2971088013468
 20
115.7855278050357
 30
0.0
 10
172.2640300259967
 20
115.5769699884036
 30
0.0
  0
LINE
  5
11E
330
1F
100
AcDbEntity
  8
0
  6
HIDDEN
 62
     7
370
     0
100
AcDbLine
 10
172.764030026
 20
129.7113988654
 30
0.0
 11
172.764030026
 21
102.7113988654
 31
0.0
  0
SPLINE
  5
11F
330
1F
100
AcDbEntity
  8
0
  6
HIDDEN
 62
     7
370
     0
100
AcDbSpline
210
0.0
220
0.0
230
1.0
 70
     8
 71
     3
 72
    10
 73
     6
 74
     0
 42
0.00000001
 43
0.00000001
 12
1.0
 22
0.0
 32
0.0
 13
1.0
 23
0.0
 33
0.0
 40
0.0
 40
0.0
 40
0.0
 40
0.0
 40
0.5
 40
0.5
 40
1.0
 40
1.0
 40
1.0
 40
1.0
 10
172.2640300259967
 20
115.5769699884036
 30
0.0
 10
172.2972189884704
 20
115.7862225219861
 30
0.0
 10
172.3139197647251
 20
115.997039282885
 30
0.0
 10
172.3141392051697
 20
116.4215715640883
 30
0.0
 10
172.2972594897763
 20
116.636319852861
 30
0.0
 10
172.2640300259967
 20
116.8458277424486
 30
0.0
  0
SPLINE
  5
120
330
1F
100
AcDbEntity
  8
0
  6
HIDDEN
 62
     7
370
     0
100
AcDbSpline
210
0.0
220
0.0
230
1.0
 70
     8
 71
     3
 72
    68
 73
    64
 74
     0
 42
0.00000001
 43
0.00000001
 12
1.0
 22
0.0
 32
0.0
 13
1.0
 23
0.0
 33
0.0
 40
0.0
 40
0.0
 40
0.0
 40
0.0
 40
0.0312499999999997
 40
0.0312499999999997
 40
0.0624999999999994
 40
0.0624999999999994
 40
0.0937499999999992
 40
0.0937499999999992
 40
0.1249999999999989
 40
0.1249999999999989
 40
0.1562499999999987
 40
0.1562499999999987
 40
0.1874999999999984
 40
0.1874999999999984
 40
0.2187499999999981
 40
0.2187499999999981
 40
0.2499999999999979
 40
0.2499999999999979
 40
0.2812499999999978
 40
0.2812499999999978
 40
0.3124999999999978
 40
0.3124999999999978
 40
0.3437499999999977
 40
0.3437499999999977
 40
0.3749999999999976
 40
0.3749999999999976
 40
0.4062499999999976
 40
0.4062499999999976
 40
0.4374999999999975
 40
0.4374999999999975
 40
0.4687499999999974
 40
0.4687499999999974
 40
0.4999999999999974
 40
0.4999999999999974
 40
0.5624999999999973
 40
0.5624999999999973
 40
0.5937499999999972
 40
0.5937499999999972
 40
0.6249999999999972
 40
0.6249999999999972
 40
0.6562499999999971
 40
0.6562499999999971
 40
0.6874999999999971
 40
0.6874999999999971
 40
0.718749999999997
 40
0.718749999999997
 40
0.7499999999999969
 40
0.7499999999999969
 40
0.7812499999999973
 40
0.7812499999999973
 40
0.8124999999999977
 40
0.8124999999999977
 40
0.8437499999999981
 40
0.8437499999999981
 40
0.8749999999999984
 40
0.8749999999999984
 40
0.9062499999999989
 40
0.9062499999999989
 40
0.9374999999999992
 40
0.9374999999999992
 40
0.9687499999999997
 40
0.9687499999999997
 40
1.0
 40
1.0
 40
1.0
 40
1.0
 10
172.2640300259967
 20
115.5769699884036
 30
0.0
 10
172.2240150736471
 20
115.324680385588
 30
0.0
 10
172.1610732722357
 20
115.0806815352122
 30
0.0
 10
171.9916866101637
 20
114.6082631461497
 30
0.0
 10
171.8839930475782
 20
114.3778497599898
 30
0.0
 10
171.6287082790403
 20
113.9431451641927
 30
0.0
 10
171.4826690485681
 20
113.7405031975413
 30
0.0
 10
171.1544476120088
 20
113.3635139067835
 30
0.0
 10
170.9702003242338
 20
113.1878559532061
 30
0.0
 10
170.5772401569255
 20
112.8775979842599
 30
0.0
 10
170.3679455599664
 20
112.74165277661
 30
0.0
 10
169.9230601330291
 20
112.5082626812041
 30
0.0
 10
169.68626254053
 20
112.4110160747897
 30
0.0
 10
169.2055274716107
 20
112.2643446169184
 30
0.0
 10
168.959284378428
 20
112.213452271976
 30
0.0
 10
168.4545675984485
 20
112.1579249217405
 30
0.0
 10
168.198372897512
 20
112.1541000346705
 30
0.0
 10
167.6959941483119
 20
112.1935238173149
 30
0.0
 10
167.4467444491283
 20
112.2365512665262
 30
0.0
 10
166.9552166516496
 20
112.3702562359775
 30
0.0
 10
166.7199210504237
 20
112.4589260818827
 30
0.0
 10
166.2690071557616
 20
112.6779574456601
 30
0.0
 10
166.0513948052982
 20
112.8099590113436
 30
0.0
 10
165.6481876357499
 20
113.1093162923465
 30
0.0
 10
165.4625761433155
 20
113.2759352197844
 30
0.0
 10
165.122588072913
 20
113.6430466452119
 30
0.0
 10
164.9675151420901
 20
113.8453503907526
 30
0.0
 10
164.7011720654268
 20
114.2694310703466
 30
0.0
 10
164.58818796471
 20
114.4925906758128
 30
0.0
 10
164.4033327077791
 20
114.961945917407
 30
0.0
 10
164.3321919462757
 20
115.2081564207425
 30
0.0
 10
164.2382315349875
 20
115.7026822471136
 30
0.0
 10
164.2142222050311
 20
115.9536132422056
 30
0.0
 10
164.2136490843585
 20
116.7178586217619
 30
0.0
 10
164.3090481956771
 20
117.2200829238128
 30
0.0
 10
164.5869119878783
 20
117.9276474300852
 30
0.0
 10
164.7000739439588
 20
118.151353693826
 30
0.0
 10
164.9662051260027
 20
118.5756236051466
 30
0.0
 10
165.1210329002024
 20
118.7778755672027
 30
0.0
 10
165.4612140059902
 20
119.1455863085708
 30
0.0
 10
165.64671646294
 20
119.3122031838202
 30
0.0
 10
166.0490102639993
 20
119.6112525626156
 30
0.0
 10
166.2670183122513
 20
119.743709270644
 30
0.0
 10
166.7176166794016
 20
119.9629156713487
 30
0.0
 10
166.9521656782824
 20
120.0514008013523
 30
0.0
 10
167.4406256718347
 20
120.184887031291
 30
0.0
 10
167.6928910675486
 20
120.2288287437847
 30
0.0
 10
168.1950717057088
 20
120.2686377402582
 30
0.0
 10
168.4475538230605
 20
120.2652935274447
 30
0.0
 10
168.95541886613
 20
120.2101142074542
 30
0.0
 10
169.2029643393138
 20
120.1590682789848
 30
0.0
 10
169.6839318767846
 20
120.0126578907492
 30
0.0
 10
169.9198917418898
 20
119.9160116859756
 30
0.0
 10
170.3664621914114
 20
119.6821067416626
 30
0.0
 10
170.5761070539849
 20
119.5459817278361
 30
0.0
 10
170.9690937607394
 20
119.235927463507
 30
0.0
 10
171.1534896645543
 20
119.0602702159318
 30
0.0
 10
171.4820400824148
 20
118.6831302932674
 30
0.0
 10
171.6279821789379
 20
118.4806640879976
 30
0.0
 10
171.88286753414
 20
118.0470877898642
 30
0.0
 10
171.9911788469484
 20
117.8157959462827
 30
0.0
 10
172.1610138243654
 20
117.3424362661495
 30
0.0
 10
172.2240091855024
 20
117.0981544693287
 30
0.0
 10
172.2640300259967
 20
116.8458277424486
 30
0.0
  0
SPLINE
  5
121
330
1F
100
AcDbEntity
  8
0
  6
HIDDEN
 62
     7
370
     0
100
AcDbSpline
210
0.0
220
0.0
230
1.0
 70
     8
 71
     3
 72
    68
 73
    64
 74
     0
 42
0.00000001
 43
0.00000001
 12
1.0
 22
0.0
 32
0.0
 13
1.0
 23
0.0
 33
0.0
 40
0.0
 40
0.0
 40
0.0
 40
0.0
 40
0.0312500000000001
 40
0.0312500000000001
 40
0.0625000000000001
 40
0.0625000000000001
 40
0.0937500000000002
 40
0.0937500000000002
 40
0.1250000000000002
 40
0.1250000000000002
 40
0.1562500000000003
 40
0.1562500000000003
 40
0.1875000000000004
 40
0.1875000000000004
 40
0.2187500000000004
 40
0.2187500000000004
 40
0.2500000000000005
 40
0.2500000000000005
 40
0.2812500000000006
 40
0.2812500000000006
 40
0.3125000000000006
 40
0.3125000000000006
 40
0.3437500000000007
 40
0.3437500000000007
 40
0.3750000000000008
 40
0.3750000000000008
 40
0.4062500000000008
 40
0.4062500000000008
 40
0.4375000000000008
 40
0.4375000000000008
 40
0.4687500000000008
 40
0.4687500000000008
 40
0.5000000000000008
 40
0.5000000000000008
 40
0.5625000000000009
 40
0.5625000000000009
 40
0.593750000000001
 40
0.593750000000001
 40
0.625000000000001
 40
0.625000000000001
 40
0.6562500000000011
 40
0.6562500000000011
 40
0.6875000000000011
 40
0.6875000000000011
 40
0.7187500000000012
 40
0.7187500000000012
 40
0.7500000000000012
 40
0.7500000000000012
 40
0.7812500000000011
 40
0.7812500000000011
 40
0.812500000000001
 40
0.812500000000001
 40
0.8437500000000008
 40
0.8437500000000008
 40
0.8750000000000007
 40
0.8750000000000007
 40
0.9062500000000004
 40
0.9062500000000004
 40
0.9375000000000003
 40
0.9375000000000003
 40
0.9687500000000001
 40
0.9687500000000001
 40
1.0
 40
1.0
 40
1.0
 40
1.0
 10
172.2640300259967
 20
116.8458277424486
 30
0.0
 10
172.2240150736471
 20
117.0981173452642
 30
0.0
 10
172.1610732722357
 20
117.3421161956401
 30
0.0
 10
171.9916866101637
 20
117.8145345847026
 30
0.0
 10
171.8839930475782
 20
118.0449479708625
 30
0.0
 10
171.6287082790403
 20
118.4796525666596
 30
0.0
 10
171.4826690485681
 20
118.6822945333109
 30
0.0
 10
171.1544476120088
 20
119.0592838240687
 30
0.0
 10
170.9702003242338
 20
119.2349417776461
 30
0.0
 10
170.5772401569255
 20
119.5451997465923
 30
0.0
 10
170.3679455599664
 20
119.6811449542423
 30
0.0
 10
169.923060133029
 20
119.9145350496481
 30
0.0
 10
169.68626254053
 20
120.0117816560625
 30
0.0
 10
169.2055274716107
 20
120.1584531139339
 30
0.0
 10
168.959284378428
 20
120.2093454588763
 30
0.0
 10
168.4545675984485
 20
120.2648728091118
 30
0.0
 10
168.198372897512
 20
120.2686976961817
 30
0.0
 10
167.6959941483119
 20
120.2292739135373
 30
0.0
 10
167.4467444491283
 20
120.186246464326
 30
0.0
 10
166.9552166516496
 20
120.0525414948747
 30
0.0
 10
166.7199210504237
 20
119.9638716489695
 30
0.0
 10
166.2690071557616
 20
119.7448402851921
 30
0.0
 10
166.0513948052982
 20
119.6128387195086
 30
0.0
 10
165.6481876357499
 20
119.3134814385057
 30
0.0
 10
165.4625761433155
 20
119.1468625110678
 30
0.0
 10
165.122588072913
 20
118.7797510856403
 30
0.0
 10
164.9675151420901
 20
118.5774473400996
 30
0.0
 10
164.7011720654267
 20
118.1533666605056
 30
0.0
 10
164.58818796471
 20
117.9302070550394
 30
0.0
 10
164.4033327077791
 20
117.4608518134452
 30
0.0
 10
164.3321919462757
 20
117.2146413101097
 30
0.0
 10
164.2382315349875
 20
116.7201154837386
 30
0.0
 10
164.2142222050311
 20
116.4691844886466
 30
0.0
 10
164.2136490843585
 20
115.7049391090904
 30
0.0
 10
164.3090481956771
 20
115.2027148070394
 30
0.0
 10
164.5869119878783
 20
114.495150300767
 30
0.0
 10
164.7000739439589
 20
114.2714440370262
 30
0.0
 10
164.9662051260027
 20
113.8471741257056
 30
0.0
 10
165.1210329002024
 20
113.6449221636496
 30
0.0
 10
165.4612140059903
 20
113.2772114222814
 30
0.0
 10
165.64671646294
 20
113.110594547032
 30
0.0
 10
166.0490102639993
 20
112.8115451682366
 30
0.0
 10
166.2670183122513
 20
112.6790884602082
 30
0.0
 10
166.7176166794016
 20
112.4598820595035
 30
0.0
 10
166.9521656782824
 20
112.3713969294999
 30
0.0
 10
167.4406256718347
 20
112.2379106995613
 30
0.0
 10
167.6928910675486
 20
112.1939689870675
 30
0.0
 10
168.1950717057088
 20
112.154159990594
 30
0.0
 10
168.4475538230606
 20
112.1575042034075
 30
0.0
 10
168.9554188661301
 20
112.212683523398
 30
0.0
 10
169.2029643393139
 20
112.2637294518674
 30
0.0
 10
169.6839318767846
 20
112.410139840103
 30
0.0
 10
169.9198917418898
 20
112.5067860448766
 30
0.0
 10
170.3664621914114
 20
112.7406909891897
 30
0.0
 10
170.5761070539849
 20
112.8768160030162
 30
0.0
 10
170.9690937607394
 20
113.1868702673453
 30
0.0
 10
171.1534896645544
 20
113.3625275149204
 30
0.0
 10
171.4820400824148
 20
113.7396674375848
 30
0.0
 10
171.6279821789379
 20
113.9421336428547
 30
0.0
 10
171.8828675341401
 20
114.375709940988
 30
0.0
 10
171.9911788469484
 20
114.6070017845695
 30
0.0
 10
172.1610138243654
 20
115.0803614647028
 30
0.0
 10
172.2240091855024
 20
115.3246432615236
 30
0.0
 10
172.2640300259967
 20
115.5769699884036
 30
0.0
  0
LINE
  5
122
330
1F
100
AcDbEntity
  8
0
  6
HIDDEN
 62
     7
370
     0
100
AcDbLine
 10
174.014030026
 20
125.2113988654
 30
0.0
 11
174.014030026
 21
107.2113988654
 31
0.0
  0
LINE
  5
123
330
1F
100
AcDbEntity
  8
0
  6
HIDDEN
 62
     7
370
     0
100
AcDbLine
 10
172.764030026
 20
105.9613988654
 30
0.0
 11
172.764030026
 21
126.4613988654
 31
0.0
  0
LINE
  5
124
330
1F
100
AcDbEntity
  8
0
  6
HIDDEN
 62
     7
370
     0
100
AcDbLine
 10
210.764030026
 20
107.2113988654
 30
0.0
 11
210.764030026
 21
125.2113988654
 31
0.0
  0
LINE
  5
125
330
1F
100
AcDbEntity
  8
0
  6
HIDDEN
 62
     7
370
     0
100
AcDbLine
 10
244.5597226831
 20
122.4560822431
 30
0.0
 11
240.753844299
 21
118.671052859
 31
0.0
  0
LINE
  5
126
330
1F
100
AcDbEntity
  8
0
  6
HIDDEN
 62
     7
370
     0
100
AcDbLine
 10
221.9156048761
 20
118.8121703449
 30
0.0
 11
221.9156048761
 21
91.6925183219
 31
0.0
  0
SPLINE
  5
127
330
1F
100
AcDbEntity
  8
0
  6
HIDDEN
 62
     7
370
     0
100
AcDbSpline
210
0.0
220
0.0
230
1.0
 70
     8
 71
     3
 72
     9
 73
     5
 74
     0
 42
0.00000001
 43
0.00000001
 12
1.0
 22
0.0
 32
0.0
 13
1.0
 23
0.0
 33
0.0
 40
0.0
 40
0.0
 40
0.0
 40
0.0
 40
0.5
 40
1.0
 40
1.0
 40
1.0
 40
1.0
 10
221.9626288643068
 20
120.1476088911288
 30
0.0
 10
221.9553476552537
 20
119.9250301274113
 30
0.0
 10
221.9395518218869
 20
119.4798851813227
 30
0.0
 10
221.9233452140109
 20
119.0347444253042
 30
0.0
 10
221.9156048760596
 20
118.8121703448916
 30
0.0
  0
SPLINE
  5
128
330
1F
100
AcDbEntity
  8
0
  6
HIDDEN
 62
     7
370
     0
100
AcDbSpline
210
0.0
220
0.0
230
1.0
 70
     8
 71
     3
 72
    12
 73
     8
 74
     0
 42
0.00000001
 43
0.00000001
 12
1.0
 22
0.0
 32
0.0
 13
1.0
 23
0.0
 33
0.0
 40
0.0
 40
0.0
 40
0.0
 40
0.0
 40
0.4999999999999993
 40
0.4999999999999993
 40
0.7499999999999997
 40
0.7499999999999997
 40
1.0
 40
1.0
 40
1.0
 40
1.0
 10
220.9967030380184
 20
90.27658058500407
 30
0.0
 10
221.1934572734536
 20
90.57186519055156
 30
0.0
 10
221.3674879399499
 20
90.83633626680391
 30
0.0
 10
221.6023694436158
 20
91.19756339868687
 30
0.0
 10
221.6759982829694
 20
91.31166787823307
 30
0.0
 10
221.8087813336664
 20
91.51992955339539
 30
0.0
 10
221.8684722596475
 20
91.61485259502405
 30
0.0
 10
221.9156048760585
 20
91.6925183219422
 30
0.0
  0
CIRCLE
  5
129
330
1F
100
AcDbEntity
  8
0
  6
HIDDEN
 62
     7
370
     0
100
AcDbCircle
 10
235.1194349319
 20
138.7615655856
 30
0.0
 40
3.484206261526904
  0
SPLINE
  5
12A
330
1F
100
AcDbEntity
  8
0
  6
HIDDEN
 62
     7
370
     0
100
AcDbSpline
210
0.0
220
0.0
230
1.0
 70
     8
 71
     3
 72
     8
 73
     4
 74
     0
 42
0.00000001
 43
0.00000001
 12
1.0
 22
0.0
 32
0.0
 13
1.0
 23
0.0
 33
0.0
 40
0.0
 40
0.0
 40
0.0
 40
0.0
 40
1.0
 40
1.0
 40
1.0
 40
1.0
 10
224.6554078289584
 20
143.8611571130686
 30
0.0
 10
223.2828675643846
 20
136.0263757126976
 30
0.0
 10
222.2242635240434
 20
128.1455002694282
 30
0.0
 10
221.9626288643068
 20
120.1476088911288
 30
0.0
  0
LINE
  5
12B
330
1F
100
AcDbEntity
  8
0
  6
HIDDEN
 62
     7
370
     0
100
AcDbLine
 10
224.655407829
 20
158.50216773
 30
0.0
 11
224.655407829
 21
143.8611571131
 31
0.0
  0
CIRCLE
  5
12C
330
1F
100
AcDbEntity
  8
0
  6
HIDDEN
 62
     7
370
     0
100
AcDbCircle
 10
234.5362290782
 20
138.1815545946
 30
0.0
 40
3.484206261526849
  0
ARC
  5
12D
330
1F
100
AcDbEntity
  8
0
  6
HIDDEN
 62
     7
370
     0
100
AcDbCircle
 10
230.1446408952
 20
146.8567543266
 30
0.0
 40
3.499728609593909
100
AcDbArc
 50
128.0588330781
 51
274.5914240136
  0
LINE
  5
12E
330
1F
100
AcDbEntity
  8
0
  6
HIDDEN
 62
     7
370
     0
100
AcDbLine
 10
246.5495095313
 20
145.1775894264
 30
0.0
 11
245.9223387517
 21
144.5538543539
 31
0.0
  0
LINE
  5
12F
330
1F
100
AcDbEntity
  8
0
  6
HIDDEN
 62
     7
370
     0
100
AcDbLine
 10
231.3870881289
 20
150.4301202027
 30
0.0
 11
232.1774948028
 21
150.4905881149
 31
0.0
  0
LINE
  5
130
330
1F
100
AcDbEntity
  8
0
  6
HIDDEN
 62
     7
370
     0
100
AcDbLine
 10
231.6956185872
 20
150.0113516675
 30
0.0
 11
232.1774948028
 21
150.4905881149
 31
0.0
  0
LINE
  5
131
330
1F
100
AcDbEntity
  8
0
  6
HIDDEN
 62
     7
370
     0
100
AcDbLine
 10
231.3480870854
 20
149.9847647155
 30
0.0
 11
231.6956185872
 21
150.0113516675
 31
0.0
  0
ELLIPSE
  5
132
330
1F
100
AcDbEntity
  8
0
  6
HIDDEN
 62
     7
370
     0
100
AcDbEllipse
 10
229.2239910165
 20
116.5791964723
 30
0.0
 11
4.24208699309844
 21
42.68710453544884
 31
0.0
210
0.0
220
0.0
230
1.0
 40
0.0944088542
 41
0.1272755303720178
 42
0.2349006195776541
  0
ELLIPSE
  5
133
330
1F
100
AcDbEntity
  8
0
  6
HIDDEN
 62
     7
370
     0
100
AcDbEllipse
 10
1336.9872983837
 20
104.0642614033
 30
0.0
 11
1328.273504469178
 21
-14.64204944181974
 31
0.0
210
0.0
220
0.0
230
1.0
 40
0.057920228
 41
2.552705400543675
 42
2.553796049465522
  0
SPLINE
  5
134
330
1F
100
AcDbEntity
  8
0
  6
HIDDEN
 62
     7
370
     0
100
AcDbSpline
210
0.0
220
0.0
230
1.0
 70
     8
 71
     3
 72
     8
 73
     4
 74
     0
 42
0.00000001
 43
0.00000001
 12
1.0
 22
0.0
 32
0.0
 13
1.0
 23
0.0
 33
0.0
 40
0.0
 40
0.0
 40
0.0
 40
0.0
 40
1.0
 40
1.0
 40
1.0
 40
1.0
 10
224.6554078289584
 20
143.8611571130686
 30
0.0
 10
230.7634085754571
 20
144.6785015408853
 30
0.0
 10
236.874016527287
 20
145.4755931811461
 30
0.0
 10
242.9865200922832
 20
146.2568654189504
 30
0.0
  0
SPLINE
  5
135
330
1F
100
AcDbEntity
  8
0
  6
HIDDEN
 62
     7
370
     0
100
AcDbSpline
210
0.0
220
0.0
230
1.0
 70
     8
 71
     3
 72
    36
 73
    32
 74
     0
 42
0.00000001
 43
0.00000001
 12
1.0
 22
0.0
 32
0.0
 13
1.0
 23
0.0
 33
0.0
 40
0.0
 40
0.0
 40
0.0
 40
0.0
 40
0.027262584852187
 40
0.0550555415859182
 40
0.0833786070433016
 40
0.1122315086658362
 40
0.1416139646423899
 40
0.1715256840440389
 40
0.2019663669470813
 40
0.2329357045455059
 40
0.2644333792539528
 40
0.2964590648021223
 40
0.3290124263214774
 40
0.3620931204249962
 40
0.3957007952806004
 40
0.4298350906788907
 40
0.4644956380957136
 40
0.499682060749977
 40
0.5237633596881269
 40
0.5502511839873043
 40
0.5791442685734075
 40
0.6104412272660183
 40
0.6441405533198042
 40
0.6802406197872002
 40
0.7187396797695133
 40
0.759635866596036
 40
0.8029271939552781
 40
0.8486115559935927
 40
0.8966867273910832
 40
0.9471503634214159
 40
1.0
 40
1.0
 40
1.0
 40
1.0
 10
246.2421519920442
 20
159.0652747123456
 30
0.0
 10
246.2155480893565
 20
159.006342289437
 30
0.0
 10
246.1618227262368
 20
158.8873309602548
 30
0.0
 10
246.0793962574319
 20
158.6936158533364
 30
0.0
 10
245.9946476515938
 20
158.4859908845469
 30
0.0
 10
245.9074961317224
 20
158.2629133443208
 30
0.0
 10
245.817963939698
 20
158.0240929892711
 30
0.0
 10
245.726044931362
 20
157.7688932201145
 30
0.0
 10
245.6317407812909
 20
157.4967727661246
 30
0.0
 10
245.5350510142371
 20
157.2071652837935
 30
0.0
 10
245.4359757424889
 20
156.8995137888763
 30
0.0
 10
245.3345149368684
 20
156.5732625378461
 30
0.0
 10
245.230668534701
 20
156.2278606842945
 30
0.0
 10
245.1244367634917
 20
155.8627627391973
 30
0.0
 10
245.0158187008549
 20
155.4774300641365
 30
0.0
 10
244.9048178328742
 20
155.0713318054464
 30
0.0
 10
244.7914208063922
 20
154.6439473507941
 30
0.0
 10
244.6884311958578
 20
154.2442551194168
 30
0.0
 10
244.5938599822614
 20
153.8689155757093
 30
0.0
 10
244.5057860980152
 20
153.5129433437098
 30
0.0
 10
244.409344308316
 20
153.1149744534924
 30
0.0
 10
244.3045225185902
 20
152.6726308162372
 30
0.0
 10
244.1913238084877
 20
152.1833936251502
 30
0.0
 10
244.0697468178459
 20
151.6446189204491
 30
0.0
 10
243.9397916061796
 20
151.0535524704998
 30
0.0
 10
243.8014579700839
 20
150.4073625769896
 30
0.0
 10
243.6547454972248
 20
149.7031091476792
 30
0.0
 10
243.4996552650054
 20
148.9379839165493
 30
0.0
 10
243.3361823419927
 20
148.108465690307
 30
0.0
 10
243.1643461141435
 20
147.2138601783666
 30
0.0
 10
243.0468721652941
 20
146.5807336973303
 30
0.0
 10
242.9867786715216
 20
146.2568594884694
 30
0.0
  0
ELLIPSE
  5
136
330
1F
100
AcDbEntity
  8
0
  6
HIDDEN
 62
     7
370
     0
100
AcDbEllipse
 10
1193.3822261813
 20
105.1574313743
 30
0.0
 11
1208.736805972282
 21
-13.32435226302761
 31
0.0
210
0.0
220
0.0
230
1.0
 40
0.057920228
 41
2.471839719406262
 42
2.49047602473519
  0
ELLIPSE
  5
137
330
1F
100
AcDbEntity
  8
0
  6
HIDDEN
 62
     7
370
     0
100
AcDbEllipse
 10
228.4163955653
 20
116.5785877438
 30
0.0
 11
4.235066068645466
 21
42.61645465567357
 31
0.0
210
0.0
220
0.0
230
1.0
 40
0.0944088542
 41
0.0177945573083047
 42
0.1252971894794039
  0
ELLIPSE
  5
138
330
1F
100
AcDbEntity
  8
0
  6
HIDDEN
 62
     7
370
     0
100
AcDbEllipse
 10
237.3652447021
 20
145.9734856106
 30
0.0
 11
1.316917434716459
 21
3.872622565108372
 31
0.0
210
0.0
220
0.0
230
1.0
 40
0.8539059128
 41
2.244221447951004
 42
2.463780352294251
  0
ELLIPSE
  5
139
330
1F
100
AcDbEntity
  8
0
  6
HIDDEN
 62
     7
370
     0
100
AcDbEllipse
 10
236.6498490523
 20
144.4266383713
 30
0.0
 11
4.155749860774563
 21
0.6833618997421524
 31
0.0
210
0.0
220
0.0
230
1.0
 40
0.1367129703
 41
2.252407319752216
 42
2.913466249960904
  0
ELLIPSE
  5
13A
330
1F
100
AcDbEntity
  8
0
  6
HIDDEN
 62
     7
370
     0
100
AcDbEllipse
 10
235.9035261884
 20
142.8129194985
 30
0.0
 11
1.316917434716459
 21
3.872622565108372
 31
0.0
210
0.0
220
0.0
230
1.0
 40
0.8539059128
 41
1.544372593543396
 42
1.583162517742301
  0
SPLINE
  5
13B
330
1F
100
AcDbEntity
  8
0
  6
HIDDEN
 62
     7
370
     0
100
AcDbSpline
210
0.0
220
0.0
230
1.0
 70
     8
 71
     3
 72
    22
 73
    18
 74
     0
 42
0.00000001
 43
0.00000001
 12
1.0
 22
0.0
 32
0.0
 13
1.0
 23
0.0
 33
0.0
 40
0.0
 40
0.0
 40
0.0
 40
0.0
 40
0.0624999999999999
 40
0.0624999999999999
 40
0.1249999999999999
 40
0.1249999999999999
 40
0.2499999999999998
 40
0.2499999999999998
 40
0.3749999999999997
 40
0.3749999999999997
 40
0.4999999999999996
 40
0.4999999999999996
 40
0.7500000000000003
 40
0.7500000000000003
 40
0.8750000000000002
 40
0.8750000000000002
 40
1.0
 40
1.0
 40
1.0
 40
1.0
 10
235.1845951048546
 20
142.2877063912055
 30
0.0
 10
234.9978696050101
 20
142.3056234635114
 30
0.0
 10
234.8325159489461
 20
142.3064039935197
 30
0.0
 10
234.5226537579095
 20
142.2915873025355
 30
0.0
 10
234.3787908144057
 20
142.2754667119898
 30
0.0
 10
233.9684846964732
 20
142.210869203691
 30
0.0
 10
233.7311383140763
 20
142.1481505938102
 30
0.0
 10
233.2941258457292
 20
142.0062600372217
 30
0.0
 10
233.0950664608646
 20
141.9262895615653
 30
0.0
 10
232.7231730938992
 20
141.7567753959321
 30
0.0
 10
232.5502307353532
 20
141.6668896186252
 30
0.0
 10
232.0662644487429
 20
141.3918264089616
 30
0.0
 10
231.7891684329384
 20
141.2009796068892
 30
0.0
 10
231.4402636920182
 20
140.9367677840022
 30
0.0
 10
231.3354090007946
 20
140.8524360358789
 30
0.0
 10
231.1572509832257
 20
140.7026403848945
 30
0.0
 10
231.0831178608481
 20
140.6367181715736
 30
0.0
 10
231.0383484807368
 20
140.5921940428108
 30
0.0
  0
SPLINE
  5
13C
330
1F
100
AcDbEntity
  8
0
  6
HIDDEN
 62
     7
370
     0
100
AcDbSpline
210
0.0
220
0.0
230
1.0
 70
     8
 71
     3
 72
    10
 73
     6
 74
     0
 42
0.00000001
 43
0.00000001
 12
1.0
 22
0.0
 32
0.0
 13
1.0
 23
0.0
 33
0.0
 40
0.0
 40
0.0
 40
0.0
 40
0.0
 40
0.5
 40
0.5
 40
1.0
 40
1.0
 40
1.0
 40
1.0
 10
236.6160337760205
 20
141.7509789875302
 30
0.0
 10
236.3735930558301
 20
141.8107419594742
 30
0.0
 10
236.1327853638724
 20
141.8863453010381
 30
0.0
 10
235.6529652756462
 20
142.0660088101597
 30
0.0
 10
235.4129593294803
 20
142.1709078090581
 30
0.0
 10
235.1845951048546
 20
142.2877063912055
 30
0.0
  0
SPLINE
  5
13D
330
1F
100
AcDbEntity
  8
0
  6
HIDDEN
 62
     7
370
     0
100
AcDbSpline
210
0.0
220
0.0
230
1.0
 70
     8
 71
     3
 72
    22
 73
    18
 74
     0
 42
0.00000001
 43
0.00000001
 12
1.0
 22
0.0
 32
0.0
 13
1.0
 23
0.0
 33
0.0
 40
0.0
 40
0.0
 40
0.0
 40
0.0
 40
0.1249999999999998
 40
0.1249999999999998
 40
0.2499999999999996
 40
0.2499999999999996
 40
0.4999999999999997
 40
0.4999999999999997
 40
0.6249999999999997
 40
0.6249999999999997
 40
0.7499999999999997
 40
0.7499999999999997
 40
0.8749999999999998
 40
0.8749999999999998
 40
0.9374999999999999
 40
0.9374999999999999
 40
1.0
 40
1.0
 40
1.0
 40
1.0
 10
237.5801626847499
 20
138.1392975102711
 30
0.0
 10
237.6248280613435
 20
138.1837182052583
 30
0.0
 10
237.6601692062302
 20
138.2640096338588
 30
0.0
 10
237.7188753238616
 20
138.4584548854207
 30
0.0
 10
237.741889719516
 20
138.5734897774148
 30
0.0
 10
237.7911943992439
 20
138.9503523663916
 30
0.0
 10
237.7985208506739
 20
139.2436332984713
 30
0.0
 10
237.7490495874499
 20
139.7185772652856
 30
0.0
 10
237.7223777342305
 20
139.8827944270991
 30
0.0
 10
237.6407637879111
 20
140.2228882271071
 30
0.0
 10
237.5859017351162
 20
140.3992244271529
 30
0.0
 10
237.4327629245321
 20
140.7638466794054
 30
0.0
 10
237.3359905295339
 20
140.9514017777441
 30
0.0
 10
237.1292503405692
 20
141.2456285737832
 30
0.0
 10
237.0499331880199
 20
141.3455573743215
 30
0.0
 10
236.8616812876171
 20
141.5465053046852
 30
0.0
 10
236.7532749534125
 20
141.6479231408708
 30
0.0
 10
236.6160337760205
 20
141.7509789875302
 30
0.0
  0
ELLIPSE
  5
13E
330
1F
100
AcDbEntity
  8
0
  6
HIDDEN
 62
     7
370
     0
100
AcDbEllipse
 10
237.3652447021
 20
145.9734856106
 30
0.0
 11
1.316917434716459
 21
3.872622565108372
 31
0.0
210
0.0
220
0.0
230
1.0
 40
0.8539059128
 41
4.519715413798179
 42
4.685965247133195
  0
ELLIPSE
  5
13F
330
1F
100
AcDbEntity
  8
0
  6
HIDDEN
 62
     7
370
     0
100
AcDbEllipse
 10
236.2019420278
 20
143.4581620541
 30
0.0
 11
4.155749860774563
 21
0.6833618997421524
 31
0.0
210
0.0
220
0.0
230
1.0
 40
0.1367129703
 41
6.260098661084729
 42
8.31603372258856
  0
ELLIPSE
  5
140
330
1F
100
AcDbEntity
  8
0
  6
HIDDEN
 62
     7
370
     0
100
AcDbEllipse
 10
231.4251332971
 20
135.1217954386
 30
0.0
 11
-3.01089176556701
 21
-2.994397785440725
 31
0.0
210
0.0
220
0.0
230
1.0
 40
0.9890738004
 41
0.0
 42
6.283185307179586
  0
LINE
  5
141
330
1F
100
AcDbEntity
  8
0
  6
HIDDEN
 62
     7
370
     0
100
AcDbLine
 10
231.0383484807
 20
140.5921940428
 30
0.0
 11
230.8170204769
 21
140.3720784969
 31
0.0
  0
ELLIPSE
  5
142
330
1F
100
AcDbEntity
  8
0
  6
HIDDEN
 62
     7
370
     0
100
AcDbEllipse
 10
233.4498722449
 20
137.1354426546
 30
0.0
 11
3.518690774465653
 21
-2.323872478491154
 31
0.0
210
0.0
220
0.0
230
1.0
 40
0.89827004
 41
0.8351116513766687
 42
2.805333218052164
  0
LINE
  5
143
330
1F
100
AcDbEntity
  8
0
  6
HIDDEN
 62
     7
370
     0
100
AcDbLine
 10
237.3588346809
 20
137.9191819644
 30
0.0
 11
237.5801626847
 21
138.1392975103
 31
0.0
  0
ARC
  5
144
330
1F
100
AcDbEntity
  8
0
  6
HIDDEN
 62
     7
370
     0
100
AcDbCircle
 10
234.4573658101
 20
138.1710344871
 30
0.0
 40
4.180412660606203
100
AcDbArc
 50
79.9817922463
 51
58.9104756524
  0
ARC
  5
145
330
1F
100
AcDbEntity
  8
0
  6
HIDDEN
 62
     7
370
     0
100
AcDbCircle
 10
230.1088649706
 20
147.2573187473
 30
0.0
 40
3.102319763063154
100
AcDbArc
 50
139.0040087802
 51
259.8500603384
  0
LINE
  5
146
330
1F
100
AcDbEntity
  8
0
  6
HIDDEN
 62
     7
370
     0
100
AcDbLine
 10
233.9589906038
 20
144.4372875981
 30
0.0
 11
230.8413923583
 21
144.1987842263
 31
0.0
  0
LINE
  5
147
330
1F
100
AcDbEntity
  8
0
  6
HIDDEN
 62
     7
370
     0
100
AcDbLine
 10
230.4247932128
 20
143.3682567961
 30
0.0
 11
234.2657392173
 21
143.6620979203
 31
0.0
  0
ARC
  5
148
330
1F
100
AcDbEntity
  8
0
  6
HIDDEN
 62
     7
370
     0
100
AcDbCircle
 10
229.6253499138
 20
146.7720659568
 30
0.0
 40
3.099648907558442
100
AcDbArc
 50
127.8088272617
 51
274.5932487729
  0
LINE
  5
149
330
1F
100
AcDbEntity
  8
0
  6
HIDDEN
 62
     7
370
     0
100
AcDbLine
 10
232.1774948028
 20
150.4905881149
 30
0.0
 11
232.9202235932
 21
158.9718571312
 31
0.0
  0
LINE
  5
14A
330
1F
100
AcDbEntity
  8
0
  6
HIDDEN
 62
     7
370
     0
100
AcDbLine
 10
232.1154621202
 20
158.9109200574
 30
0.0
 11
231.3726778738
 21
150.4290177853
 31
0.0
  0
LINE
  5
14B
330
1F
100
AcDbEntity
  8
0
  6
HIDDEN
 62
     7
370
     0
100
AcDbLine
 10
240.6361518041
 20
144.7470373443
 30
0.0
 11
240.711741712
 21
144.9538884496
 31
0.0
  0
LINE
  5
14C
330
1F
100
AcDbEntity
  8
0
  6
HIDDEN
 62
     7
370
     0
100
AcDbLine
 10
245.9927511092
 20
145.3578977057
 30
0.0
 11
240.711741712
 21
144.9538884496
 31
0.0
  0
LINE
  5
14D
330
1F
100
AcDbEntity
  8
0
  6
HIDDEN
 62
     7
370
     0
100
AcDbLine
 10
240.3587411097
 20
144.128226453
 30
0.0
 11
245.9223387517
 21
144.5538543539
 31
0.0
  0
LINE
  5
14E
330
1F
100
AcDbEntity
  8
0
  6
HIDDEN
 62
     7
370
     0
100
AcDbLine
 10
245.9223387517
 20
144.5538543539
 30
0.0
 11
245.9927511092
 21
145.3578977057
 31
0.0
  0
LINE
  5
14F
330
1F
100
AcDbEntity
  8
0
  6
HIDDEN
 62
     7
370
     0
100
AcDbLine
 10
237.3588346809
 20
137.9191819644
 30
0.0
 11
238.8919510905
 21
142.749251388
 31
0.0
  0
LINE
  5
150
330
1F
100
AcDbEntity
  8
0
  6
HIDDEN
 62
     7
370
     0
100
AcDbLine
 10
241.7595466181
 20
148.6606106787
 30
0.0
 11
241.5120259326
 21
148.4144459375
 31
0.0
  0
LINE
  5
151
330
1F
100
AcDbEntity
  8
0
  6
HIDDEN
 62
     7
370
     0
100
AcDbLine
 10
241.7595466181
 20
148.6606106787
 30
0.0
 11
240.2298654964
 21
144.4746520023
 31
0.0
  0
LINE
  5
152
330
1F
100
AcDbEntity
  8
0
  6
HIDDEN
 62
     7
370
     0
100
AcDbLine
 10
240.711741712
 20
144.9538884496
 30
0.0
 11
240.2298654964
 21
144.4746520023
 31
0.0
  0
LINE
  5
153
330
1F
100
AcDbEntity
  8
0
  6
HIDDEN
 62
     7
370
     0
100
AcDbLine
 10
245.9927511092
 20
145.3578977057
 30
0.0
 11
245.5108748935
 21
144.8786612584
 31
0.0
  0
LINE
  5
154
330
1F
100
AcDbEntity
  8
0
  6
HIDDEN
 62
     7
370
     0
100
AcDbLine
 10
147.264030026
 20
101.1073460367
 30
0.0
 11
147.264030026
 21
95.0530354691
 31
0.0
  0
LINE
  5
155
330
1F
100
AcDbEntity
  8
0
  6
HIDDEN
 62
     7
370
     0
100
AcDbLine
 10
145.764030026
 20
101.5403587386
 30
0.0
 11
145.764030026
 21
95.9190608729
 31
0.0
  0
SPLINE
  5
156
330
1F
100
AcDbEntity
  8
0
  6
HIDDEN
 62
     7
370
     0
100
AcDbSpline
210
0.0
220
0.0
230
1.0
 70
     8
 71
     3
 72
    16
 73
    12
 74
     0
 42
0.00000001
 43
0.00000001
 12
1.0
 22
0.0
 32
0.0
 13
1.0
 23
0.0
 33
0.0
 40
0.0
 40
0.0
 40
0.0
 40
0.0
 40
0.2500000000000003
 40
0.2500000000000003
 40
0.3750000000000003
 40
0.3750000000000003
 40
0.5000000000000002
 40
0.5000000000000002
 40
0.7500000000000001
 40
0.7500000000000001
 40
1.0
 40
1.0
 40
1.0
 40
1.0
 10
182.4427096824371
 20
137.9814798204282
 30
0.0
 10
182.2814772049526
 20
137.8834642073735
 30
0.0
 10
182.160997365313
 20
137.6967281756974
 30
0.0
 10
182.0386168479997
 20
137.2836883681386
 30
0.0
 10
182.0076391876022
 20
137.1236878689056
 30
0.0
 10
181.9660254499743
 20
136.7568822178145
 30
0.0
 10
181.9557895370415
 20
136.5535450651905
 30
0.0
 10
181.9556011399853
 20
135.8862577985638
 30
0.0
 10
181.995745842623
 20
135.3654433346757
 30
0.0
 10
182.1598995975625
 20
134.168084319198
 30
0.0
 10
182.2814512479721
 20
133.5098146649021
 30
0.0
 10
182.4427096824371
 20
132.7953054916672
 30
0.0
  0
LINE
  5
157
330
1F
100
AcDbEntity
  8
0
  6
HIDDEN
 62
     7
370
     0
100
AcDbLine
 10
147.264030026
 20
137.3697622617
 30
0.0
 11
147.264030026
 21
131.3154516942
 31
0.0
  0
LINE
  5
158
330
1F
100
AcDbEntity
  8
0
  6
HIDDEN
 62
     7
370
     0
100
AcDbLine
 10
145.764030026
 20
136.5037368579
 30
0.0
 11
145.764030026
 21
130.8824389923
 31
0.0
  0
SPLINE
  5
159
330
1F
100
AcDbEntity
  8
0
  6
HIDDEN
 62
     7
370
     0
100
AcDbSpline
210
0.0
220
0.0
230
1.0
 70
     8
 71
     3
 72
    16
 73
    12
 74
     0
 42
0.00000001
 43
0.00000001
 12
1.0
 22
0.0
 32
0.0
 13
1.0
 23
0.0
 33
0.0
 40
0.0
 40
0.0
 40
0.0
 40
0.0
 40
0.2499999999999997
 40
0.2499999999999997
 40
0.3749999999999997
 40
0.3749999999999997
 40
0.4999999999999998
 40
0.4999999999999998
 40
0.7499999999999999
 40
0.7499999999999999
 40
1.0
 40
1.0
 40
1.0
 40
1.0
 10
182.4427096824371
 20
99.62749223918507
 30
0.0
 10
182.2814772049526
 20
98.91309807699295
 30
0.0
 10
182.160997365313
 20
98.25975581428428
 30
0.0
 10
182.0386168479997
 20
97.3715005724804
 30
0.0
 10
182.0076391876022
 20
97.09082003612853
 30
0.0
 10
181.9660254499743
 20
96.56178604628855
 30
0.0
 10
181.9557895370415
 20
96.31846506771011
 30
0.0
 10
181.9556011399853
 20
95.65044237719688
 30
0.0
 10
181.9957458426229
 20
95.28676146777741
 30
0.0
 10
182.1598995975625
 20
94.72687059522909
 30
0.0
 10
182.2814512479721
 20
94.53934930311195
 30
0.0
 10
182.4427096824371
 20
94.44131791042399
 30
0.0
  0
LINE
  5
15A
330
1F
100
AcDbEntity
  8
0
  6
HIDDEN
 62
     7
370
     0
100
AcDbLine
 10
181.564030026
 20
100.6764783425
 30
0.0
 11
181.564030026
 21
94.1913000809
 31
0.0
  0
LINE
  5
15B
330
1F
100
AcDbEntity
  8
0
  6
HIDDEN
 62
     7
370
     0
100
AcDbLine
 10
181.564030026
 20
138.23149765
 30
0.0
 11
181.564030026
 21
131.7463193883
 31
0.0
  0
ARC
  5
15C
330
1F
100
AcDbEntity
  8
0
  6
HIDDEN
 62
     7
370
     0
100
AcDbCircle
 10
239.1612488162
 20
151.6808912633
 30
0.0
 40
3.984124279745814
100
AcDbArc
 50
310.7048698595
 51
188.1873980391
  0
LINE
  5
15D
330
1F
100
AcDbEntity
  8
0
  6
HIDDEN
 62
     7
370
     0
100
AcDbLine
 10
232.6326190864
 20
144.0393677648
 30
0.0
 11
235.2177324141
 21
151.1135072113
 31
0.0
  0
LINE
  5
15E
330
1F
100
AcDbEntity
  8
0
  6
HIDDEN
 62
     7
370
     0
100
AcDbLine
 10
246.7108116106
 20
158.5805219304
 30
0.0
 11
246.2420212568
 21
159.0674659828
 31
0.0
  0
LINE
  5
15F
330
1F
100
AcDbEntity
  8
0
  6
HIDDEN
 62
     7
370
     0
100
AcDbLine
 10
240.2298654964
 20
144.4746520023
 30
0.0
 11
245.5108748935
 21
144.8786612584
 31
0.0
  0
LINE
  5
160
330
1F
100
AcDbEntity
  8
0
  6
HIDDEN
 62
     7
370
     0
100
AcDbLine
 10
232.4116024078
 20
158.1872181122
 30
0.0
 11
231.6956185872
 21
150.0113516675
 31
0.0
  0
LINE
  5
161
330
1F
100
AcDbEntity
  8
0
  6
HIDDEN
 62
     7
370
     0
100
AcDbLine
 10
229.8735743616
 20
143.6823721251
 30
0.0
 11
232.5806388879
 21
143.8894687317
 31
0.0
  0
LINE
  5
162
330
1F
100
AcDbEntity
  8
0
  6
HIDDEN
 62
     7
370
     0
100
AcDbLine
 10
246.7107833244
 20
158.5804947264
 30
0.0
 11
245.5108748935
 21
144.8786612584
 31
0.0
  0
SPLINE
  5
163
330
1F
100
AcDbEntity
  8
0
  6
HIDDEN
 62
     7
370
     0
100
AcDbSpline
210
0.0
220
0.0
230
1.0
 70
     8
 71
     3
 72
    12
 73
     8
 74
     0
 42
0.00000001
 43
0.00000001
 12
1.0
 22
0.0
 32
0.0
 13
1.0
 23
0.0
 33
0.0
 40
0.0
 40
0.0
 40
0.0
 40
0.0
 40
0.25
 40
0.25
 40
0.5
 40
0.5
 40
1.0
 40
1.0
 40
1.0
 40
1.0
 10
241.512025932622
 20
148.4144459374646
 30
0.0
 10
241.4701653952215
 20
148.3728147164678
 30
0.0
 10
241.4010748069914
 20
148.3076300411638
 30
0.0
 10
241.2372148822354
 20
148.1590045974746
 30
0.0
 10
241.1415374272284
 20
148.0749290801647
 30
0.0
 10
240.8257156800314
 20
147.8112135930752
 30
0.0
 10
240.5775795523046
 20
147.6204380749915
 30
0.0
 10
240.2938045504585
 20
147.4344355441991
 30
0.0
  0
ARC
  5
164
330
1F
100
AcDbEntity
  8
0
  6
HIDDEN
 62
     7
370
     0
100
AcDbCircle
 10
238.437044304
 20
150.9559022191
 30
0.0
 40
3.980990599761217
100
AcDbArc
 50
297.8012921151
 51
201.0909757835
  0
SPLINE
  5
165
330
1F
100
AcDbEntity
  8
0
  6
HIDDEN
 62
     7
370
     0
100
AcDbSpline
210
0.0
220
0.0
230
1.0
 70
     8
 71
     3
 72
    12
 73
     8
 74
     0
 42
0.00000001
 43
0.00000001
 12
1.0
 22
0.0
 32
0.0
 13
1.0
 23
0.0
 33
0.0
 40
0.0
 40
0.0
 40
0.0
 40
0.0
 40
0.4999999999999988
 40
0.4999999999999988
 40
0.7499999999999993
 40
0.7499999999999993
 40
1.0
 40
1.0
 40
1.0
 40
1.0
 10
234.7227393744764
 20
149.5233433038135
 30
0.0
 10
234.7154043409408
 20
149.8184994690727
 30
0.0
 10
234.7388160910135
 20
150.0935368798873
 30
0.0
 10
234.8036932659694
 20
150.4513456952055
 30
0.0
 10
234.8303785127989
 20
150.5612902975938
 30
0.0
 10
234.892861150993
 20
150.747927825841
 30
0.0
 10
234.9283511912082
 20
150.8257112490071
 30
0.0
 10
234.9702117286087
 20
150.8673424700038
 30
0.0
  0
LINE
  5
166
330
1F
100
AcDbEntity
  8
0
  6
HIDDEN
 62
     7
370
     0
100
AcDbLine
 10
234.9702117286
 20
150.86734247
 30
0.0
 11
235.2177324141
 21
151.1135072113
 31
0.0
  0
SPLINE
  5
167
330
1F
100
AcDbEntity
  8
0
  6
HIDDEN
 62
     7
370
     0
100
AcDbSpline
210
0.0
220
0.0
230
1.0
 70
     8
 71
     3
 72
    36
 73
    32
 74
     0
 42
0.00000001
 43
0.00000001
 12
1.0
 22
0.0
 32
0.0
 13
1.0
 23
0.0
 33
0.0
 40
0.0
 40
0.0
 40
0.0
 40
0.0
 40
0.0263271886700742
 40
0.052620160715548
 40
0.0788850392735361
 40
0.1051279671459188
 40
0.1313551025581539
 40
0.157572614864163
 40
0.1837866802121244
 40
0.2100034771863169
 40
0.2362291824403668
 40
0.2624699663373078
 40
0.2887319886118219
 40
0.3150213940698296
 40
0.3413443083403176
 40
0.367706833693833
 40
0.3941150449415771
 40
0.4205749854283509
 40
0.4470926631318972
 40
0.4736740468803419
 40
0.5003250626985518
 40
0.5508843842271811
 40
0.6012008518773515
 40
0.651315556428133
 40
0.7012700865500311
 40
0.7511064319141667
 40
0.8008668813783076
 40
0.8505939174307339
 40
0.9003301081806444
 40
0.9501179982557405
 40
1.0
 40
1.0
 40
1.0
 40
1.0
 10
243.4064558997048
 20
145.6079435890007
 30
0.0
 10
243.4367970498393
 20
145.7721580874211
 30
0.0
 10
243.4974399166634
 20
146.1003736598086
 30
0.0
 10
243.5883971189963
 20
146.5836554610727
 30
0.0
 10
243.6792633586888
 20
147.0598489088965
 30
0.0
 10
243.7700433472061
 20
147.5283356898237
 30
0.0
 10
243.8607358051219
 20
147.9892811215197
 30
0.0
 10
243.9513410558196
 20
148.442640850366
 30
0.0
 10
244.0418589935824
 20
148.8884266497278
 30
0.0
 10
244.1322896275937
 20
149.326635270559
 30
0.0
 10
244.2226329363528
 20
149.757267494099
 30
0.0
 10
244.312888906772
 20
150.1803230286078
 30
0.0
 10
244.4030575237539
 20
150.5958018771503
 30
0.0
 10
244.493138773195
 20
151.0037039715581
 30
0.0
 10
244.5831326407972
 20
151.4040292696862
 30
0.0
 10
244.6730391142058
 20
151.7967777338094
 30
0.0
 10
244.7628581759934
 20
152.1819493204911
 30
0.0
 10
244.8525898299957
 20
152.5595440434818
 30
0.0
 10
244.9422340030203
 20
152.9295617318548
 30
0.0
 10
245.0317909131167
 20
153.2920029374304
 30
0.0
 10
245.1479270182224
 20
153.7526369286999
 30
0.0
 10
245.2898427558836
 20
154.2988799431978
 30
0.0
 10
245.4564994253165
 20
154.9140509226503
 30
0.0
 10
245.6209786525234
 20
155.4945419266399
 30
0.0
 10
245.7832789166095
 20
156.0403425817873
 30
0.0
 10
245.9434012771775
 20
156.5514687407112
 30
0.0
 10
246.1013408058329
 20
157.0278566063358
 30
0.0
 10
246.2571139303738
 20
157.4697357331256
 30
0.0
 10
246.4106577127911
 20
157.8762438104347
 30
0.0
 10
246.5622056747509
 20
158.2505980300903
 30
0.0
 10
246.661202275765
 20
158.4704360928733
 30
0.0
 10
246.7107473142347
 20
158.5804589135167
 30
0.0
  0
ELLIPSE
  5
168
330
1F
100
AcDbEntity
  8
0
  6
HIDDEN
 62
     7
370
     0
100
AcDbEllipse
 10
236.7724164164
 20
146.4652273188
 30
0.0
 11
1.31691743471643
 21
3.872622565108372
 31
0.0
210
0.0
220
0.0
230
1.0
 40
0.8539059128
 41
5.23771510134815
 42
7.275808046508063
  0
LWPOLYLINE
  5
169
330
1F
100
AcDbEntity
  8
0
  6
HIDDEN
 62
     7
370
     0
100
AcDbPolyline
 90
       16
 70
   128
 43
0.0
 10
238.8919510905
 20
142.749251388
 10
238.9900760904
 20
143.3103823257
 10
238.9409582211
 20
143.9005908232
 10
238.7467441691
 20
144.494081937
 10
238.4159220204
 20
145.0649172576
 10
237.9629502904
 20
145.5881485423
 10
237.4076260173
 20
146.0409080732
 10
236.7742195366
 20
146.4034080863
 10
236.0904137508
 20
146.6598055914
 10
235.3860942542
 20
146.7988947872
 10
234.6920431884
 20
146.8145968086
 10
234.0385939154
 20
146.7062254018
 10
233.454305304
 20
146.4785169173
 10
232.9647135703
 20
146.1414233086
 10
232.5912162223
 20
145.7096771838
 10
232.3501368865
 20
145.2021479205
  0
LINE
  5
16A
330
1F
100
AcDbEntity
  8
0
  6
HIDDEN
 62
     7
370
     0
100
AcDbLine
 10
232.3501368865
 20
145.2021479205
 30
0.0
 11
230.8170204769
 21
140.3720784969
 31
0.0
  0
LINE
  5
16B
330
1F
100
AcDbEntity
  8
0
  6
HIDDEN
 62
     7
370
     0
100
AcDbLine
 10
145.764030026
 20
130.8824389923
 30
0.0
 11
145.764030026
 21
119.1133861984
 31
0.0
  0
LINE
  5
16C
330
1F
100
AcDbEntity
  8
0
  6
HIDDEN
 62
     7
370
     0
100
AcDbLine
 10
145.764030026
 20
113.3094115324
 30
0.0
 11
145.764030026
 21
101.5403587386
 31
0.0
  0
LINE
  5
16D
330
1F
100
AcDbEntity
  8
0
  6
HIDDEN
 62
     7
370
     0
100
AcDbLine
 10
147.264030026
 20
112.2461879686
 30
0.0
 11
147.264030026
 21
101.1073460367
 31
0.0
  0
LINE
  5
16E
330
1F
100
AcDbEntity
  8
0
  6
HIDDEN
 62
     7
370
     0
100
AcDbLine
 10
147.264030026
 20
131.3154516942
 30
0.0
 11
147.264030026
 21
120.1766097623
 31
0.0
  0
LINE
  5
16F
330
1F
100
AcDbEntity
  8
0
  6
HIDDEN
 62
     7
370
     0
100
AcDbLine
 10
183.564030026
 20
131.2491060279
 30
0.0
 11
183.564030026
 21
101.1736917029
 31
0.0
  0
LINE
  5
170
330
1F
100
AcDbEntity
  8
0
  6
HIDDEN
 62
     7
370
     0
100
AcDbLine
 10
181.564030026
 20
131.7463193883
 30
0.0
 11
181.564030026
 21
100.6764783425
 31
0.0
  0
SPLINE
  5
171
330
1F
100
AcDbEntity
  8
0
  6
HIDDEN
 62
     7
370
     0
100
AcDbSpline
210
0.0
220
0.0
230
1.0
 70
     8
 71
     3
 72
     8
 73
     4
 74
     0
 42
0.00000001
 43
0.00000001
 12
1.0
 22
0.0
 32
0.0
 13
1.0
 23
0.0
 33
0.0
 40
0.0000249638557296
 40
0.0000249638557296
 40
0.0000249638557296
 40
0.0000249638557296
 40
0.0049776420541172
 40
0.0049776420541172
 40
0.0049776420541172
 40
0.0049776420541172
 10
147.2640300259967
 20
112.2461879685896
 30
0.0
 10
148.9140062605063
 20
112.2049087308214
 30
0.0
 10
150.5640075802513
 20
112.1646870495819
 30
0.0
 10
152.2140300259967
 20
112.1254378123269
 30
0.0
  0
SPLINE
  5
172
330
1F
100
AcDbEntity
  8
0
  6
HIDDEN
 62
     7
370
     0
100
AcDbSpline
210
0.0
220
0.0
230
1.0
 70
     8
 71
     3
 72
     8
 73
     4
 74
     0
 42
0.00000001
 43
0.00000001
 12
1.0
 22
0.0
 32
0.0
 13
1.0
 23
0.0
 33
0.0
 40
0.0000249631533153
 40
0.0000249631533153
 40
0.0000249631533153
 40
0.0000249631533153
 40
0.0049776413517028
 40
0.0049776413517028
 40
0.0049776413517028
 40
0.0049776413517028
 10
152.2140300259967
 20
120.2973599185254
 30
0.0
 10
150.5640075802513
 20
120.2581106812704
 30
0.0
 10
148.9140062605063
 20
120.2178890000309
 30
0.0
 10
147.2640300259967
 20
120.1766097622627
 30
0.0
  0
SPLINE
  5
173
330
1F
100
AcDbEntity
  8
0
  6
HIDDEN
 62
     7
370
     0
100
AcDbSpline
210
0.0
220
0.0
230
1.0
 70
     8
 71
     3
 72
     8
 73
     4
 74
     0
 42
0.00000001
 43
0.00000001
 12
1.0
 22
0.0
 32
0.0
 13
1.0
 23
0.0
 33
0.0
 40
0.0
 40
0.0
 40
0.0
 40
0.0
 40
1.0
 40
1.0
 40
1.0
 40
1.0
 10
145.7640300259945
 20
113.3094115324458
 30
0.0
 10
146.2307906373723
 20
112.8940482868227
 30
0.0
 10
146.7365381841524
 20
112.5494578575181
 30
0.0
 10
147.2640300259968
 20
112.2461879685896
 30
0.0
  0
SPLINE
  5
174
330
1F
100
AcDbEntity
  8
0
  6
HIDDEN
 62
     7
370
     0
100
AcDbSpline
210
0.0
220
0.0
230
1.0
 70
     8
 71
     3
 72
     8
 73
     4
 74
     0
 42
0.00000001
 43
0.00000001
 12
1.0
 22
0.0
 32
0.0
 13
1.0
 23
0.0
 33
0.0
 40
0.0
 40
0.0
 40
0.0
 40
0.0
 40
1.0
 40
1.0
 40
1.0
 40
1.0
 10
147.2640300259968
 20
120.1766097622627
 30
0.0
 10
146.7365381841532
 20
119.8733398733346
 30
0.0
 10
146.2307906373739
 20
119.5287494440306
 30
0.0
 10
145.7640300259968
 20
119.1133861984085
 30
0.0
  0
LINE
  5
175
330
1F
100
AcDbEntity
  8
0
  6
HIDDEN
 62
     7
370
     0
100
AcDbLine
 10
145.764030026
 20
113.3094115324
 30
0.0
 11
145.764030026
 21
119.1133861984
 31
0.0
  0
LINE
  5
176
330
1F
100
AcDbEntity
  8
0
  6
HIDDEN
 62
     7
370
     0
100
AcDbLine
 10
152.214030026
 20
112.1254378123
 30
0.0
 11
152.214030026
 21
120.2973599185
 31
0.0
  0
SPLINE
  5
177
330
1F
100
AcDbEntity
  8
0
  6
HIDDEN
 62
     7
370
     0
100
AcDbSpline
210
0.0
220
0.0
230
1.0
 70
     8
 71
     3
 72
    24
 73
    20
 74
     0
 42
0.00000001
 43
0.00000001
 12
1.0
 22
0.0
 32
0.0
 13
1.0
 23
0.0
 33
0.0
 40
0.0
 40
0.0
 40
0.0
 40
0.0
 40
0.125
 40
0.125
 40
0.25
 40
0.25
 40
0.375
 40
0.375
 40
0.4375
 40
0.4375
 40
0.5
 40
0.5
 40
0.625
 40
0.625
 40
0.75
 40
0.75
 40
0.875
 40
0.875
 40
1.0
 40
1.0
 40
1.0
 40
1.0
 10
152.2140300259967
 20
112.1254378123269
 30
0.0
 10
152.4518336582718
 20
112.424444914657
 30
0.0
 10
152.6819193194831
 20
112.7287827659757
 30
0.0
 10
153.1166727180929
 20
113.3545163033717
 30
0.0
 10
153.321605510379
 20
113.6757410306992
 30
0.0
 10
153.6867074608778
 20
114.347666801432
 30
0.0
 10
153.8485078466693
 20
114.7029820333109
 30
0.0
 10
154.020368051249
 20
115.2532132546633
 30
0.0
 10
154.0659532429091
 20
115.4396170396438
 30
0.0
 10
154.128427982484
 20
115.81975154174
 30
0.0
 10
154.1450991282324
 20
116.0154213340259
 30
0.0
 10
154.1456201714089
 20
116.5939017127003
 30
0.0
 10
154.0811778705222
 20
116.9718135516691
 30
0.0
 10
153.8513287771489
 20
117.7137815767676
 30
0.0
 10
153.6928080994858
 20
118.0624970369285
 30
0.0
 10
153.3285737695856
 20
118.7355894346617
 30
0.0
 10
153.1218375295221
 20
119.0605419219033
 30
0.0
 10
152.6838995837817
 20
119.6914657323651
 30
0.0
 10
152.4526268565021
 20
119.9973554727057
 30
0.0
 10
152.2140300259968
 20
120.2973599185252
 30
0.0
  0
SPLINE
  5
178
330
1F
100
AcDbEntity
  8
0
  6
HIDDEN
 62
     7
370
     0
100
AcDbSpline
210
0.0
220
0.0
230
1.0
 70
     8
 71
     3
 72
    70
 73
    66
 74
     0
 42
0.00000001
 43
0.00000001
 12
1.0
 22
0.0
 32
0.0
 13
1.0
 23
0.0
 33
0.0
 40
-0.03125
 40
-0.03125
 40
0.0
 40
0.0
 40
0.03125
 40
0.03125
 40
0.0625
 40
0.0625
 40
0.09375
 40
0.09375
 40
0.125
 40
0.125
 40
0.1562500000000001
 40
0.1562500000000001
 40
0.1875000000000001
 40
0.1875000000000001
 40
0.2187500000000001
 40
0.2187500000000001
 40
0.2500000000000001
 40
0.2500000000000001
 40
0.2812500000000001
 40
0.2812500000000001
 40
0.3125000000000001
 40
0.3125000000000001
 40
0.3437500000000001
 40
0.3437500000000001
 40
0.3750000000000001
 40
0.3750000000000001
 40
0.4062500000000001
 40
0.4062500000000001
 40
0.4375000000000001
 40
0.4375000000000001
 40
0.4687500000000001
 40
0.4687500000000001
 40
0.5
 40
0.5
 40
0.53125
 40
0.53125
 40
0.5625
 40
0.5625
 40
0.59375
 40
0.59375
 40
0.625
 40
0.625
 40
0.65625
 40
0.65625
 40
0.6875
 40
0.6875
 40
0.71875
 40
0.71875
 40
0.75
 40
0.75
 40
0.78125
 40
0.78125
 40
0.8125
 40
0.8125
 40
0.84375
 40
0.84375
 40
0.875
 40
0.875
 40
0.90625
 40
0.90625
 40
0.9375
 40
0.9375
 40
0.96875
 40
0.96875
 40
1.0
 40
1.0
 40
1.03125
 40
1.03125
 10
165.3211075823756
 20
119.1176085527435
 30
0.0
 10
165.7527860043274
 20
119.467128147363
 30
0.0
 10
165.9825681768765
 20
119.6187275831163
 30
0.0
 10
166.4685205922927
 20
119.8782210515842
 30
0.0
 10
166.726528010064
 20
119.9862661575833
 30
0.0
 10
167.2506536636753
 20
120.15150313261
 30
0.0
 10
167.5186206751046
 20
120.2100079344717
 30
0.0
 10
168.0663538829036
 20
120.2788473611306
 30
0.0
 10
168.344814689833
 20
120.2884496153264
 30
0.0
 10
168.8920178840502
 20
120.2586235377941
 30
0.0
 10
169.1634056021181
 20
120.2196167177517
 30
0.0
 10
169.7016125983246
 20
120.0916463605434
 30
0.0
 10
169.9632751899832
 20
120.0036167562859
 30
0.0
 10
170.463129628416
 20
119.7833475009737
 30
0.0
 10
170.7031746220806
 20
119.6505438323515
 30
0.0
 10
171.1598444227149
 20
119.337548508103
 30
0.0
 10
171.3696475945453
 20
119.1621173613672
 30
0.0
 10
171.752570083921
 20
118.7735503322709
 30
0.0
 10
171.9271883464612
 20
118.5580846424043
 30
0.0
 10
172.228491409994
 20
118.0960940522208
 30
0.0
 10
172.353604850235
 20
117.8530612239866
 30
0.0
 10
172.5520489267957
 20
117.3424841665447
 30
0.0
 10
172.6255087103748
 20
117.0715127604153
 30
0.0
 10
172.7107063610196
 20
116.5284022875175
 30
0.0
 10
172.7238736657768
 20
116.2545126319364
 30
0.0
 10
172.6898342291065
 20
115.7019424690565
 30
0.0
 10
172.6422865491056
 20
115.42777767648
 30
0.0
 10
172.491494889964
 20
114.9001515366551
 30
0.0
 10
172.3864601036082
 20
114.6412820467073
 30
0.0
 10
172.1270853302308
 20
114.1551590939804
 30
0.0
 10
171.9737680178219
 20
113.9280471933256
 30
0.0
 10
171.6216253145057
 20
113.504384178497
 30
0.0
 10
171.4232942112972
 20
113.3094294141598
 30
0.0
 10
170.9980264772764
 20
112.9646061705096
 30
0.0
 10
170.7681637393194
 20
112.811922303721
 30
0.0
 10
170.2809861196822
 20
112.5504281523621
 30
0.0
 10
170.0284796280276
 20
112.4439008035521
 30
0.0
 10
169.5064134172922
 20
112.2768932138366
 30
0.0
 10
169.2340519302606
 20
112.2162136046956
 30
0.0
 10
168.6877429751495
 20
112.1453219031181
 30
0.0
 10
168.4139332358336
 20
112.1344791641419
 30
0.0
 10
167.8650088307301
 20
112.1616055557837
 30
0.0
 10
167.5876532579697
 20
112.2004418167184
 30
0.0
 10
167.0523707117692
 20
112.3256744397091
 30
0.0
 10
166.792354457602
 20
112.4117735277156
 30
0.0
 10
166.2879331558767
 20
112.6321050149883
 30
0.0
 10
166.0429908584209
 20
112.767429840727
 30
0.0
 10
165.5904715522556
 20
113.0767788599959
 30
0.0
 10
165.3800240322188
 20
113.2517726412417
 30
0.0
 10
164.9925144222987
 20
113.6448025513165
 30
0.0
 10
164.8176224629869
 20
113.8616165785162
 30
0.0
 10
164.5189918854867
 20
114.320193915638
 30
0.0
 10
164.3929402066958
 20
114.5642930006072
 30
0.0
 10
164.1921128328897
 20
115.0830366319894
 30
0.0
 10
164.1209401433924
 20
115.3482642565434
 30
0.0
 10
164.035845211601
 20
115.8902040612679
 30
0.0
 10
164.022419611789
 20
116.1705069425303
 30
0.0
 10
164.0562804106786
 20
116.7206860775097
 30
0.0
 10
164.1025580422213
 20
116.991275651892
 30
0.0
 10
164.2536518532894
 20
117.5234888046912
 30
0.0
 10
164.3581906225954
 20
117.7817722870744
 30
0.0
 10
164.6156543572278
 20
118.2667462271613
 30
0.0
 10
164.7710013946222
 20
118.4980352558304
 30
0.0
 10
165.1243308637328
 20
118.9237636569591
 30
0.0
 10
165.3211075823756
 20
119.1176085527435
 30
0.0
 10
165.7527860043274
 20
119.467128147363
 30
0.0
  0
CIRCLE
  5
179
330
1F
100
AcDbEntity
  8
0
  6
HIDDEN
 62
     7
370
     0
100
AcDbCircle
 10
168.264030026
 20
116.2113988654
 30
0.0
 40
4.049999999999997
  0
LINE
  5
17A
330
1F
100
AcDbEntity
  8
0
  6
HIDDEN
 62
     7
370
     0
100
AcDbLine
 10
221.9156048761
 20
91.6850029671
 30
0.0
 11
221.9156048761
 21
91.6925183219
 31
0.0
  0
LINE
  5
17B
330
1F
100
AcDbEntity
  8
0
  6
HIDDEN
 62
     7
370
     0
100
AcDbLine
 10
221.9156048761
 20
116.2113988654
 30
0.0
 11
221.9156048761
 21
91.6850029671
 31
0.0
  0
ELLIPSE
  5
17C
330
1F
100
AcDbEntity
  8
0
  6
HIDDEN
 62
     7
370
     0
100
AcDbEllipse
 10
239.9944312615
 20
116.2113988654
 30
0.0
 11
22.7702417069647
 21
31.99658238113138
 31
0.0
210
0.0
220
0.0
230
1.0
 40
0.0205386817
 41
1.585411557947091
 42
2.458707156312425
  0
CIRCLE
  5
17D
330
1F
100
AcDbEntity
  8
0
  6
HIDDEN
 62
     7
370
     0
100
AcDbCircle
 10
195.764030026
 20
116.2113988654
 30
0.0
 40
2.000000000000014
  0
LINE
  5
17E
330
1F
100
AcDbEntity
  8
0
  6
HIDDEN
 62
     7
370
     0
100
AcDbLine
 10
221.9156048761
 20
116.2113988654
 30
0.0
 11
221.9156048761
 21
118.8121703449
 31
0.0
  0
LINE
  5
17F
330
1F
100
AcDbEntity
  8
0
  6
HIDDEN
 62
     7
370
     0
100
AcDbLine
 10
242.9878066938
 20
146.2594885835
 30
0.0
 11
243.4071826711
 21
145.6068045823
 31
0.0
  0
LINE
  5
180
330
1F
100
AcDbEntity
  8
0
  6
HIDDEN
 62
     7
370
     0
100
AcDbLine
 10
243.4064558991
 20
145.6079435891
 30
0.0
 11
240.753844299
 21
118.671052859
 31
0.0
  0
LINE
  5
181
330
1F
100
AcDbEntity
  8
0
  6
HIDDEN
 62
     7
370
     0
100
AcDbLine
 10
240.753844299
 20
118.671052859
 30
0.0
 11
239.0045533275
 21
116.2113988654
 31
0.0
  0
LINE
  5
182
330
1F
100
AcDbEntity
  8
0
  6
HIDDEN
 62
     7
370
     0
100
AcDbLine
 10
201.764030026
 20
131.9611191847
 30
0.0
 11
201.764030026
 21
128.4613988654
 31
0.0
  0
LINE
  5
183
330
1F
100
AcDbEntity
  8
0
  6
HIDDEN
 62
     7
370
     0
100
AcDbLine
 10
207.764030026
 20
128.4613988654
 30
0.0
 11
207.764030026
 21
131.9613776099
 31
0.0
  0
LINE
  5
184
330
1F
100
AcDbEntity
  8
0
  6
HIDDEN
 62
     7
370
     0
100
AcDbLine
 10
183.764030026
 20
91.9613988654
 30
0.0
 11
183.8569232448
 21
92.0542920842
 31
0.0
  0
LINE
  5
185
330
1F
100
AcDbEntity
  8
0
  6
HIDDEN
 62
     7
370
     0
100
AcDbLine
 10
183.8569232448
 20
140.3685056466
 30
0.0
 11
183.764030026
 21
140.4613988654
 31
0.0
  0
ARC
  5
186
330
1F
100
AcDbEntity
  8
0
  6
HIDDEN
 62
     7
370
     0
100
AcDbCircle
 10
183.1498164636
 20
92.7613988654
 30
0.0
 40
1.000000000000028
100
AcDbArc
 50
315.0
 51
0.0
  0
ARC
  5
187
330
1F
100
AcDbEntity
  8
0
  6
HIDDEN
 62
     7
370
     0
100
AcDbCircle
 10
183.1498164636
 20
92.7613988654
 30
0.0
 40
1.000000000000005
100
AcDbArc
 50
0.0
 51
52.1052014664
  0
ARC
  5
188
330
1F
100
AcDbEntity
  8
0
  6
HIDDEN
 62
     7
370
     0
100
AcDbCircle
 10
183.1498164636
 20
139.6613988654
 30
0.0
 40
1.000000000000008
100
AcDbArc
 50
351.8087250651
 51
45.0
  0
ARC
  5
189
330
1F
100
AcDbEntity
  8
0
  6
HIDDEN
 62
     7
370
     0
100
AcDbCircle
 10
183.1498164636
 20
139.6613988654
 30
0.0
 40
1.000000000000039
100
AcDbArc
 50
307.8947985336
 51
351.8087250651
  0
LINE
  5
18A
330
1F
100
AcDbEntity
  8
0
  6
HIDDEN
 62
     7
370
     0
100
AcDbLine
 10
184.1498164636
 20
92.7613988654
 30
0.0
 11
184.1498164636
 21
139.6613988654
 31
0.0
  0
LINE
  5
18B
330
1F
100
AcDbEntity
  8
0
  6
HIDDEN
 62
     7
370
     0
100
AcDbLine
 10
184.1498164636
 20
92.7613988654
 30
0.0
 11
184.1498164636
 21
139.6613988654
 31
0.0
  0
LINE
  5
18C
330
1F
100
AcDbEntity
  8
0
  6
HIDDEN
 62
     7
370
     0
100
AcDbLine
 10
202.264030026
 20
128.3111837107
 30
0.0
 11
202.264030026
 21
120.7104387004
 31
0.0
  0
LINE
  5
18D
330
1F
100
AcDbEntity
  8
0
  6
HIDDEN
 62
     7
370
     0
100
AcDbLine
 10
207.264030026
 20
127.2117561362
 30
0.0
 11
207.264030026
 21
128.3111837107
 31
0.0
  0
LINE
  5
18E
330
1F
100
AcDbEntity
  8
0
  6
HIDDEN
 62
     7
370
     0
100
AcDbLine
 10
207.264030026
 20
120.7101740725
 30
0.0
 11
207.264030026
 21
125.051761386
 31
0.0
  0
LINE
  5
18F
330
1F
100
AcDbEntity
  8
0
  6
HIDDEN
 62
     7
370
     0
100
AcDbLine
 10
213.7443185492
 20
136.0868266041
 30
0.0
 11
204.7138624919
 21
128.7786790447
 31
0.0
  0
LINE
  5
190
330
1F
100
AcDbEntity
  8
0
  6
HIDDEN
 62
     7
370
     0
100
AcDbLine
 10
207.1871641045
 20
124.3480619205
 30
0.0
 11
213.5800765794
 21
129.5217040272
 31
0.0
  0
LINE
  5
191
330
1F
100
AcDbEntity
  8
0
  6
HIDDEN
 62
     7
370
     0
100
AcDbLine
 10
145.764030026
 20
100.014970021
 30
0.0
 11
147.2942584656
 21
100.8984478225
 31
0.0
  0
LINE
  5
192
330
1F
100
AcDbEntity
  8
0
  6
HIDDEN
 62
     7
370
     0
100
AcDbLine
 10
147.2942584656
 20
131.5243499083
 30
0.0
 11
145.764030026
 21
132.4078277099
 31
0.0
  0
ARC
  5
193
330
1F
100
AcDbEntity
  8
0
  6
HIDDEN
 62
     7
370
     0
100
AcDbCircle
 10
156.7658313409
 20
102.2113988654
 30
0.0
 40
2.000000000000016
100
AcDbArc
 50
270.0
 51
315.0
  0
ARC
  5
194
330
1F
100
AcDbEntity
  8
0
  6
HIDDEN
 62
     7
370
     0
100
AcDbCircle
 10
156.7658313409
 20
130.2113988654
 30
0.0
 40
2.0
100
AcDbArc
 50
45.0
 51
90.0
  0
LINE
  5
195
330
1F
100
AcDbEntity
  8
0
  6
HIDDEN
 62
     7
370
     0
100
AcDbLine
 10
155.764030026
 20
100.2113988654
 30
0.0
 11
156.7658313409
 21
100.2113988654
 31
0.0
  0
LINE
  5
196
330
1F
100
AcDbEntity
  8
0
  6
HIDDEN
 62
     7
370
     0
100
AcDbLine
 10
156.7658313409
 20
132.2113988654
 30
0.0
 11
155.764030026
 21
132.2113988654
 31
0.0
  0
ARC
  5
197
330
1F
100
AcDbEntity
  8
0
  6
HIDDEN
 62
     7
370
     0
100
AcDbCircle
 10
155.764030026
 20
102.2113988654
 30
0.0
 40
2.000000000000006
100
AcDbArc
 50
189.9742217944
 51
270.0
  0
ARC
  5
198
330
1F
100
AcDbEntity
  8
0
  6
HIDDEN
 62
     7
370
     0
100
AcDbCircle
 10
155.764030026
 20
130.2113988654
 30
0.0
 40
2.0
100
AcDbArc
 50
90.0
 51
170.0257782056
  0
LINE
  5
199
330
1F
100
AcDbEntity
  8
0
  6
HIDDEN
 62
     7
370
     0
100
AcDbLine
 10
158.1800449033
 20
100.7971853031
 30
0.0
 11
159.5942584656
 21
102.2113988654
 31
0.0
  0
LINE
  5
19A
330
1F
100
AcDbEntity
  8
0
  6
HIDDEN
 62
     7
370
     0
100
AcDbLine
 10
159.5942584656
 20
130.2113988654
 30
0.0
 11
158.1800449033
 21
131.6256124278
 31
0.0
  0
LINE
  5
19B
330
1F
100
AcDbEntity
  8
0
  6
HIDDEN
 62
     7
370
     0
100
AcDbLine
 10
147.2942584656
 20
100.8984478225
 30
0.0
 11
152.1942584656
 21
102.2113988654
 31
0.0
  0
LINE
  5
19C
330
1F
100
AcDbEntity
  8
0
  6
HIDDEN
 62
     7
370
     0
100
AcDbLine
 10
152.1942584656
 20
130.2113988654
 30
0.0
 11
147.2942584656
 21
131.5243499083
 31
0.0
  0
LINE
  5
19D
330
1F
100
AcDbEntity
  8
0
  6
HIDDEN
 62
     7
370
     0
100
AcDbLine
 10
153.7942584656
 20
130.5578090269
 30
0.0
 11
153.1942584656
 21
130.2113988654
 31
0.0
  0
LINE
  5
19E
330
1F
100
AcDbEntity
  8
0
  6
HIDDEN
 62
     7
370
     0
100
AcDbLine
 10
153.1942584656
 20
102.2113988654
 30
0.0
 11
153.7942584656
 21
101.8649887039
 31
0.0
  0
ARC
  5
19F
330
1F
100
AcDbEntity
  8
0
  6
HIDDEN
 62
     7
370
     0
100
AcDbCircle
 10
172.264030026
 20
102.7113988654
 30
0.0
 40
0.5000000000000142
100
AcDbArc
 50
270.0
 51
360.0
  0
ARC
  5
1A0
330
1F
100
AcDbEntity
  8
0
  6
HIDDEN
 62
     7
370
     0
100
AcDbCircle
 10
172.264030026
 20
129.7113988654
 30
0.0
 40
0.5
100
AcDbArc
 50
0.0
 51
90.0
  0
LINE
  5
1A1
330
1F
100
AcDbEntity
  8
0
  6
HIDDEN
 62
     7
370
     0
100
AcDbLine
 10
159.5942584656
 20
102.2113988654
 30
0.0
 11
172.264030026
 21
102.2113988654
 31
0.0
  0
LINE
  5
1A2
330
1F
100
AcDbEntity
  8
0
  6
HIDDEN
 62
     7
370
     0
100
AcDbLine
 10
172.264030026
 20
130.2113988654
 30
0.0
 11
159.5942584656
 21
130.2113988654
 31
0.0
  0
LINE
  5
1A3
330
1F
100
AcDbEntity
  8
0
  6
HIDDEN
 62
     7
370
     0
100
AcDbLine
 10
152.1942584656
 20
102.2113988654
 30
0.0
 11
153.1942584656
 21
102.2113988654
 31
0.0
  0
LINE
  5
1A4
330
1F
100
AcDbEntity
  8
0
  6
HIDDEN
 62
     7
370
     0
100
AcDbLine
 10
153.1942584656
 20
130.2113988654
 30
0.0
 11
152.1942584656
 21
130.2113988654
 31
0.0
  0
LINE
  5
1A5
330
1F
100
AcDbEntity
  8
0
  6
HIDDEN
 62
     7
370
     0
100
AcDbLine
 10
172.764030026
 20
105.9613988654
 30
0.0
 11
174.014030026
 21
107.2113988654
 31
0.0
  0
LINE
  5
1A6
330
1F
100
AcDbEntity
  8
0
  6
HIDDEN
 62
     7
370
     0
100
AcDbLine
 10
174.014030026
 20
125.2113988654
 30
0.0
 11
172.764030026
 21
126.4613988654
 31
0.0
  0
LINE
  5
1A7
330
1F
100
AcDbEntity
  8
0
  6
HIDDEN
 62
     7
370
     0
100
AcDbLine
 10
210.764030026
 20
125.2113988654
 30
0.0
 11
174.014030026
 21
125.2113988654
 31
0.0
  0
LINE
  5
1A8
330
1F
100
AcDbEntity
  8
0
  6
HIDDEN
 62
     7
370
     0
100
AcDbLine
 10
174.014030026
 20
107.2113988654
 30
0.0
 11
210.764030026
 21
107.2113988654
 31
0.0
  0
LINE
  5
1A9
330
1F
100
AcDbEntity
  8
0
  6
HIDDEN
 62
     7
370
     0
100
AcDbLine
 10
210.764030026
 20
107.2113988654
 30
0.0
 11
216.1717755972
 21
116.2113988654
 31
0.0
  0
LINE
  5
1AA
330
1F
100
AcDbEntity
  8
0
  6
HIDDEN
 62
     7
370
     0
100
AcDbLine
 10
216.1717755972
 20
116.2113988654
 30
0.0
 11
210.764030026
 21
125.2113988654
 31
0.0
  0
LINE
  5
1AB
330
1F
100
AcDbEntity
  8
0
  6
HIDDEN
 62
     7
370
     0
100
AcDbLine
 10
237.0076822047
 20
135.7375540896
 30
0.0
 11
237.5908880583
 21
136.3175650805
 31
0.0
  0
LINE
  5
1AC
330
1F
100
AcDbEntity
  8
0
  6
HIDDEN
 62
     7
370
     0
100
AcDbLine
 10
232.6547540625
 20
141.2808886823
 30
0.0
 11
232.0715482089
 21
140.7008776914
 31
0.0
  0
LINE
  5
1AD
330
1F
100
AcDbEntity
  8
0
  6
HIDDEN
 62
     7
370
     0
100
AcDbLine
 10
228.2805229639
 20
149.9445676907
 30
0.0
 11
227.6533521843
 21
149.3208326182
 31
0.0
  0
LINE
  5
1AE
330
1F
100
AcDbEntity
  8
0
  6
HIDDEN
 62
     7
370
     0
100
AcDbLine
 10
237.6513325944
 20
138.2541185999
 30
0.0
 11
240.4850959271
 21
144.381356009
 31
0.0
  0
LINE
  5
1AF
330
1F
100
AcDbEntity
  8
0
  6
HIDDEN
 62
     7
370
     0
100
AcDbLine
 10
234.3868136945
 20
132.1438012775
 30
0.0
 11
237.4573306782
 21
135.1974976479
 31
0.0
  0
LINE
  5
1B0
330
1F
100
AcDbEntity
  8
0
  6
HIDDEN
 62
     7
370
     0
100
AcDbLine
 10
231.5339698833
 20
141.15348597
 30
0.0
 11
228.4634528996
 21
138.0997895996
 31
0.0
  0
LINE
  5
1B1
330
1F
100
AcDbEntity
  8
0
  6
HIDDEN
 62
     7
370
     0
100
AcDbLine
 10
227.9007456662
 20
149.4338900149
 30
0.0
 11
227.4188694506
 21
148.9546535675
 31
0.0
  0
LINE
  5
1B2
330
1F
100
AcDbEntity
  8
0
  6
HIDDEN
 62
     7
370
     0
100
AcDbLine
 10
236.3266824244
 20
154.5257456194
 30
0.0
 11
235.5949831816
 21
153.7980547015
 31
0.0
  0
LINE
  5
1B3
330
1F
100
AcDbEntity
  8
0
  6
HIDDEN
 62
     7
370
     0
100
AcDbLine
 10
241.2362791767
 20
148.1256848709
 30
0.0
 11
241.9679784196
 21
148.8533757888
 31
0.0
  0
LINE
  5
1B4
330
1F
100
AcDbEntity
  8
0
  6
HIDDEN
 62
     7
370
     0
100
AcDbLine
 10
234.8947484736
 20
150.7432381965
 30
0.0
 11
232.4443327593
 21
145.4448850634
 31
0.0
  0
LINE
  5
1B5
330
1F
100
AcDbEntity
  8
VERMASSUNG
  6
CENTERX2
100
AcDbLine
 10
139.8621872419
 20
116.2113988654
 30
0.0
 11
248.764030026
 21
116.2113988654
 31
0.0
  0
LINE
  5
1B6
330
1F
100
AcDbEntity
  8
VERMASSUNG
  6
CENTERX2
100
AcDbLine
 10
248.764030026
 20
161.2113988654
 30
0.0
 11
248.764030026
 21
116.2113988654
 31
0.0
  0
LINE
  5
1B7
330
1F
100
AcDbEntity
  8
VERMASSUNG
  6
CENTERX2
100
AcDbLine
 10
248.764030026
 20
161.2113988654
 30
0.0
 11
260.7627334849
 21
161.2113988654
 31
0.0
  0
DIMENSION
  5
1B8
330
1F
100
AcDbEntity
  8
VERMASSUNG
100
AcDbDimension
  2
_D
 10
270.7971875614
 20
116.2113988654
 30
0.0
 11
270.7971875614
 21
138.7113988654
 31
0.0
 70
   160
  1
<>
 71
     2
 42
-1.0
  3
SLDDIMSTYLE0
100
AcDbAlignedDimension
 13
248.764030026
 23
161.2113988654
 33
0.0
 14
248.764030026
 24
116.2113988654
 34
0.0
 50
90.0
100
AcDbRotatedDimension
  0
DIMENSION
  5
1C5
330
1F
100
AcDbEntity
  8
VERMASSUNG
100
AcDbDimension
  2
_D_1
 10
248.764030026
 20
178.719266298
 30
0.0
 11
197.264030026
 21
178.719266298
 31
0.0
 70
   160
  1
<>
 71
     2
 42
-1.0
  3
SLDDIMSTYLE1
100
AcDbAlignedDimension
 13
145.764030026
 23
136.5037368579
 33
0.0
 14
248.764030026
 24
161.2113988654
 34
0.0
100
AcDbRotatedDimension
  0
DIMENSION
  5
1D0
330
1F
100
AcDbEntity
  8
VERMASSUNG
100
AcDbDimension
  2
_D_2
 10
248.764030026
 20
169.7719859758
 30
0.0
 11
216.264030026
 21
169.7719859758
 31
0.0
 70
   160
  1
<>
 71
     2
 42
-1.0
  3
SLDDIMSTYLE0
100
AcDbAlignedDimension
 13
183.764030026
 23
147.2113988654
 33
0.0
 14
248.764030026
 24
161.2113988654
 34
0.0
100
AcDbRotatedDimension
  0
DIMENSION
  5
1DC
330
1F
100
AcDbEntity
  8
VERMASSUNG
100
AcDbDimension
  2
_D_3
 10
260.7627334849
 20
161.2113988654
 30
0.0
 11
257.1263524997
 21
152.1248614237
 31
0.0
 70
   162
  1
<>
 71
     1
 42
-1.0
  3
SLDDIMSTYLE2
100
AcDb2LineAngularDimension
 13
247.4356833819
 23
145.6233490231
 33
0.0
 14
248.7625162436
 24
160.7745409335
 34
0.0
 15
248.764030026
 25
161.2113988654
 35
0.0
 16
257.1263524997
 26
152.1248614237
 36
0.0
  0
DIMENSION
  5
1E6
330
1F
100
AcDbEntity
  8
VERMASSUNG
100
AcDbDimension
  2
_D_4
 10
133.8857233703
 20
84.7113988654
 30
0.0
 11
133.8857233703
 21
116.2113988654
 31
0.0
 70
   160
  1
PSC%%c<>
 71
     2
 42
-1.0
  3
SLDDIMSTYLE1
100
AcDbAlignedDimension
 13
184.264030026
 23
147.7113988654
 33
0.0
 14
184.264030026
 24
84.7113988654
 34
0.0
 50
90.0
100
AcDbRotatedDimension
  0
LINE
  5
1F2
330
1F
100
AcDbEntity
  8
0
  6
Continuous
 62
     7
370
    15
100
AcDbLine
 10
71.8865157929
 20
142.4289116518
 30
0.0
 11
71.7242011693
 21
142.2959802554
 31
0.0
  0
LINE
  5
1F3
330
1F
100
AcDbEntity
  8
0
  6
Continuous
 62
     7
370
    15
100
AcDbLine
 10
70.9965546509
 20
135.3728858636
 30
0.0
 11
71.1276844037
 21
135.2091127889
 31
0.0
  0
LINE
  5
1F4
330
1F
100
AcDbEntity
  8
0
  6
Continuous
 62
     7
370
    15
100
AcDbLine
 10
80.9223394268
 20
160.5512568609
 30
0.0
 11
74.6417205834
 21
161.2113745765
 31
0.0
  0
LINE
  5
1F5
330
1F
100
AcDbEntity
  8
0
  6
Continuous
 62
     7
370
    15
100
AcDbLine
 10
73.7083775117
 20
158.3287412183
 30
0.0
 11
72.9571425715
 21
157.2735527413
 31
0.0
  0
LINE
  5
1F6
330
1F
100
AcDbEntity
  8
0
  6
Continuous
 62
     7
370
    15
100
AcDbLine
 10
71.851045907
 20
147.443144943
 30
0.0
 11
72.3812550665
 21
146.2207598494
 31
0.0
  0
SPLINE
  5
1F7
330
1F
100
AcDbEntity
  8
0
  6
Continuous
 62
     7
370
    15
100
AcDbSpline
210
0.0
220
0.0
230
1.0
 70
     8
 71
     3
 72
    13
 73
     9
 74
     0
 42
0.00000001
 43
0.00000001
 12
1.0
 22
0.0
 32
0.0
 13
1.0
 23
0.0
 33
0.0
 40
0.0
 40
0.0
 40
0.0
 40
0.0
 40
0.1091236099871031
 40
0.3122910772584253
 40
0.4891815972688624
 40
0.6602011290207401
 40
0.8789954425561424
 40
1.0
 40
1.0
 40
1.0
 40
1.0
 10
72.37487876650013
 20
146.2160268680697
 30
0.0
 10
72.39015082128216
 20
146.1873093608828
 30
0.0
 10
72.43385654583064
 20
146.1051253013869
 30
0.0
 10
72.44764197184645
 20
145.9696460430759
 30
0.0
 10
72.44155334050456
 20
145.851065169137
 30
0.0
 10
72.42574352299707
 20
145.7806522174158
 30
0.0
 10
72.41490905315868
 20
145.7504221257368
 30
0.0
 10
72.41728837981073
 20
145.7561258814334
 30
0.0
 10
72.41813567329265
 20
145.7581570254212
 30
0.0
  0
LINE
  5
1F8
330
1F
100
AcDbEntity
  8
0
  6
Continuous
 62
     7
370
    15
100
AcDbLine
 10
71.100709111
 20
144.1043497877
 30
0.0
 11
71.5970616681
 21
144.0521808223
 31
0.0
  0
LINE
  5
1F9
330
1F
100
AcDbEntity
  8
0
  6
Continuous
 62
     7
370
    15
100
AcDbLine
 10
85.0919567407
 20
159.4990486161
 30
0.0
 11
80.8983401754
 21
159.9398175137
 31
0.0
  0
LINE
  5
1FA
330
1F
100
AcDbEntity
  8
0
  6
Continuous
 62
     7
370
    15
100
AcDbLine
 10
85.3697367371
 20
159.1615186886
 30
0.0
 11
85.1074781628
 21
159.4890648381
 31
0.0
  0
ELLIPSE
  5
1FB
330
1F
100
AcDbEntity
  8
0
  6
Continuous
 62
     7
370
    15
100
AcDbEllipse
 10
73.3914179326
 20
151.9274195133
 30
0.0
 11
0.3142434201452602
 21
2.987152278277534
 31
0.0
210
0.0
220
0.0
230
1.0
 40
0.1044186664
 41
1.055440864026878
 42
1.851518096350556
  0
LWPOLYLINE
  5
1FC
330
1F
100
AcDbEntity
  8
0
  6
Continuous
 62
     7
370
    15
100
AcDbPolyline
 90
       31
 70
   128
 43
0.0
 10
71.8004972101
 20
142.2881739096
 10
71.858997772
 20
142.1290593104
 10
71.8973773425
 20
141.8257778393
 10
71.9139590753
 20
141.3915840791
 10
71.9080179357
 20
140.8454546587
 10
71.87981353
 20
140.211257513
 10
71.8305786965
 20
139.5167125271
 10
71.762465023
 20
138.7921715037
 10
71.678449715
 20
138.0693031357
 10
71.5822045119
 20
137.3796978848
 10
71.4779357319
 20
136.7534970747
 10
71.3702005693
 20
136.218066688
 10
71.2637073253
 20
135.7968089984
 10
71.1631105175
 20
135.5081325279
 10
71.0728064538
 20
135.36465856
 10
70.9967420795
 20
135.372653033
 10
70.9382415177
 20
135.5317676322
 10
70.8998619472
 20
135.835050966
 10
70.8832802144
 20
136.2692447261
 10
70.8892215868
 20
136.8153741465
 10
70.9174257596
 20
137.4495694296
 10
70.9666605932
 20
138.1441144155
 10
71.0347742667
 20
138.8686554389
 10
71.1187895746
 20
139.5915238069
 10
71.2150347778
 20
140.2811290578
 10
71.3193035578
 20
140.9073298679
 10
71.4270387204
 20
141.4427602546
 10
71.5335319643
 20
141.8640179442
 10
71.634129005
 20
142.1526944147
 10
71.7244328358
 20
142.2961683826
 10
71.8004972101
 20
142.2881739096
  0
LWPOLYLINE
  5
1FD
330
1F
100
AcDbEntity
  8
0
  6
Continuous
 62
     7
370
    15
100
AcDbPolyline
 90
       24
 70
   128
 43
0.0
 10
71.6282640011
 20
140.8062776433
 10
71.6696391707
 20
140.6710496055
 10
71.6909138379
 20
140.3993101673
 10
71.6905105752
 20
140.0112131493
 10
71.6684589521
 20
139.5355420069
 10
71.6263948367
 20
139.0075733767
 10
71.5674374611
 20
138.4664675103
 10
71.4959596177
 20
137.9523532347
 10
71.4172626273
 20
137.5033588962
 10
71.3371828557
 20
137.15278859
 10
71.2616595798
 20
136.9266392545
 10
71.1962942393
 20
136.8416840093
 10
71.1459341352
 20
136.9042241828
 10
71.1143148025
 20
137.1096199261
 10
71.1037808457
 20
137.4426403896
 10
71.1151138772
 20
137.8785850362
 10
71.1474731458
 20
138.3851220714
 10
71.1984588658
 20
138.9246856676
 10
71.2642896348
 20
139.457256894
 10
71.3400829942
 20
139.9433364974
 10
71.4202177138
 20
140.346878569
 10
71.4987505586
 20
140.6379485385
 10
71.56985727
 20
140.7949639367
 10
71.6282640011
 20
140.8062776433
  0
LINE
  5
1FE
330
1F
100
AcDbEntity
  8
0
  6
Continuous
 62
     7
370
    15
100
AcDbLine
 10
71.6406065864
 20
139.1934336977
 30
0.0
 11
71.5034954143
 21
139.001435961
 31
0.0
  0
LINE
  5
1FF
330
1F
100
AcDbEntity
  8
0
  6
Continuous
 62
     7
370
    15
100
AcDbLine
 10
71.5034954143
 20
139.001435961
 30
0.0
 11
71.5891954848
 21
138.6707736061
 31
0.0
  0
LINE
  5
200
330
1F
100
AcDbEntity
  8
0
  6
Continuous
 62
     7
370
    15
100
AcDbLine
 10
71.6246025064
 20
138.9887085067
 30
0.0
 11
71.5034954143
 21
139.001435961
 31
0.0
  0
LINE
  5
201
330
1F
100
AcDbEntity
  8
0
  6
Continuous
 62
     7
370
    15
100
AcDbLine
 10
71.1044923761
 20
144.1054822759
 30
0.0
 11
72.8292027149
 21
145.2656978624
 31
0.0
  0
ARC
  5
202
330
1F
100
AcDbEntity
  8
0
  6
Continuous
 62
     7
370
    15
100
AcDbCircle
 10
71.9885611864
 20
144.3228290557
 30
0.0
 40
0.9103940267728379
100
AcDbArc
 50
166.1225814234
 51
193.8121413452
  0
LINE
  5
203
330
1F
100
AcDbEntity
  8
0
  6
Continuous
 62
     7
370
    15
100
AcDbLine
 10
72.837418959
 20
159.6923762815
 30
0.0
 11
71.1047405736
 21
144.541182916
 31
0.0
  0
ARC
  5
204
330
1F
100
AcDbEntity
  8
0
  6
Continuous
 62
     7
370
    15
100
AcDbCircle
 10
73.9058687061
 20
159.6527651916
 30
0.0
 40
1.069183754339445
100
AcDbArc
 50
158.1884070942
 51
177.8768216741
  0
LINE
  5
205
330
1F
100
AcDbEntity
  8
0
  6
Continuous
 62
     7
370
    15
100
AcDbLine
 10
74.6379373365
 20
161.2102420883
 30
0.0
 11
72.9132271032
 21
160.0500265019
 31
0.0
  0
ARC
  5
206
330
1F
100
AcDbEntity
  8
0
  6
Continuous
 62
     7
370
    15
100
AcDbCircle
 10
73.7538615991
 20
160.992894261
 30
0.0
 40
0.9104010036805948
100
AcDbArc
 50
346.1226370668
 51
13.8121012897
  0
LINE
  5
207
330
1F
100
AcDbEntity
  8
0
  6
Continuous
 62
     7
370
    15
100
AcDbLine
 10
72.905010859
 20
145.6233499454
 30
0.0
 11
74.6376891972
 21
160.7745395856
 31
0.0
  0
ARC
  5
208
330
1F
100
AcDbEntity
  8
0
  6
Continuous
 62
     7
370
    15
100
AcDbCircle
 10
71.8365461445
 20
145.6629621389
 30
0.0
 40
1.069198752341079
100
AcDbArc
 50
338.1885575338
 51
357.8767922923
  0
ARC
  5
209
330
1F
100
AcDbEntity
  8
0
  6
Continuous
 62
     7
370
    15
100
AcDbCircle
 10
73.8543607223
 20
159.6527894069
 30
0.0
 40
1.015750256427633
100
AcDbArc
 50
158.1886586634
 51
177.8766334116
  0
LINE
  5
20A
330
1F
100
AcDbEntity
  8
0
  6
Continuous
 62
     7
370
    15
100
AcDbLine
 10
72.839307914
 20
159.6904242293
 30
0.0
 11
71.1066295286
 21
144.5392327265
 31
0.0
  0
ARC
  5
20B
330
1F
100
AcDbEntity
  8
0
  6
Continuous
 62
     7
370
    15
100
AcDbCircle
 10
71.9462664365
 20
144.3317961889
 30
0.0
 40
0.8648815261655528
100
AcDbArc
 50
166.122674004
 51
193.8120941058
  0
LINE
  5
20C
330
1F
100
AcDbEntity
  8
0
  6
Continuous
 62
     7
370
    15
100
AcDbLine
 10
71.106393904
 20
144.1253157215
 30
0.0
 11
72.8311041263
 21
145.2855313079
 31
0.0
  0
ARC
  5
20D
330
1F
100
AcDbEntity
  8
0
  6
Continuous
 62
     7
370
    15
100
AcDbCircle
 10
71.8880743085
 20
145.6629335046
 30
0.0
 40
1.015744877115072
100
AcDbArc
 50
338.1886254894
 51
357.87670416
  0
LINE
  5
20E
330
1F
100
AcDbEntity
  8
0
  6
Continuous
 62
     7
370
    15
100
AcDbLine
 10
72.9031217876
 20
145.6253001349
 30
0.0
 11
74.6358001985
 21
160.7764916377
 31
0.0
  0
ARC
  5
20F
330
1F
100
AcDbEntity
  8
0
  6
Continuous
 62
     7
370
    15
100
AcDbCircle
 10
73.7961674332
 20
160.9839283871
 30
0.0
 40
0.8648775553167118
100
AcDbArc
 50
346.1225945671
 51
13.8121443349
  0
LINE
  5
210
330
1F
100
AcDbEntity
  8
0
  6
Continuous
 62
     7
370
    15
100
AcDbLine
 10
74.6360359286
 20
161.1904086427
 30
0.0
 11
72.9113256918
 21
160.0301930563
 31
0.0
  0
ARC
  5
211
330
1F
100
AcDbEntity
  8
0
  6
Continuous
 62
     7
370
    15
100
AcDbCircle
 10
79.8951620881
 20
160.3423009218
 30
0.0
 40
1.048215564489917
100
AcDbArc
 50
347.4438004324
 51
11.4986259831
  0
LINE
  5
212
330
1F
100
AcDbEntity
  8
0
  6
Continuous
 62
     7
370
    15
100
AcDbLine
 10
79.1856295788
 20
144.9632285045
 30
0.0
 11
80.9183077314
 21
160.11442187
 31
0.0
  0
LINE
  5
213
330
1F
100
AcDbEntity
  8
0
  6
Continuous
 62
     7
370
    15
100
AcDbLine
 10
73.7693026555
 20
158.4578150766
 30
0.0
 11
73.0921949386
 21
159.6305439131
 31
0.0
  0
ARC
  5
214
330
1F
100
AcDbEntity
  8
0
  6
Continuous
 62
     7
370
    15
100
AcDbCircle
 10
78.1171568647
 20
145.0028447856
 30
0.0
 40
1.069206897884609
100
AcDbArc
 50
338.1886037946
 51
357.8765892778
  0
LINE
  5
215
330
1F
100
AcDbEntity
  8
0
  6
Continuous
 62
     7
370
    15
100
AcDbLine
 10
72.4400115092
 20
145.8590118097
 30
0.0
 11
71.3595164367
 21
144.4793505476
 31
0.0
  0
LINE
  5
216
330
1F
100
AcDbEntity
  8
0
  6
Continuous
 62
     7
370
    15
100
AcDbLine
 10
79.056111014
 20
144.5694485561
 30
0.0
 11
79.1098213182
 21
144.6055782841
 31
0.0
  0
ARC
  5
217
330
1F
100
AcDbEntity
  8
0
  6
Continuous
 62
     7
370
    15
100
AcDbCircle
 10
71.6545838142
 20
157.3449845254
 30
0.0
 40
2.275977225002107
100
AcDbArc
 50
346.1225299114
 51
13.8122112837
  0
LINE
  5
218
330
1F
100
AcDbEntity
  8
0
  6
Continuous
 62
     7
370
    15
100
AcDbLine
 10
72.9635941922
 20
148.9245029049
 30
0.0
 11
73.8641272425
 21
156.7990997688
 31
0.0
  0
ARC
  5
219
330
1F
100
AcDbEntity
  8
0
  6
Continuous
 62
     7
370
    15
100
AcDbCircle
 10
70.2924258049
 20
149.0235356606
 30
0.0
 40
2.673003561524772
100
AcDbArc
 50
338.1885838879
 51
357.8767488659
  0
LINE
  5
21A
330
1F
100
AcDbEntity
  8
0
  6
Continuous
 62
     7
370
    15
100
AcDbLine
 10
71.8776821983
 20
147.4273702012
 30
0.0
 11
72.77407389
 21
148.0303736286
 31
0.0
  0
ARC
  5
21B
330
1F
100
AcDbEntity
  8
0
  6
Continuous
 62
     7
370
    15
100
AcDbCircle
 10
74.0878658689
 20
147.9707390164
 30
0.0
 40
2.275996820517971
100
AcDbArc
 50
166.1226304574
 51
193.8121169728
  0
LINE
  5
21C
330
1F
100
AcDbEntity
  8
0
  6
Continuous
 62
     7
370
    15
100
AcDbLine
 10
72.7788355095
 20
156.3912214594
 30
0.0
 11
71.8783024592
 21
148.5166245954
 31
0.0
  0
ARC
  5
21D
330
1F
100
AcDbEntity
  8
0
  6
Continuous
 62
     7
370
    15
100
AcDbCircle
 10
75.4499981993
 20
156.2921895881
 30
0.0
 40
2.672997835180377
100
AcDbArc
 50
158.1885551873
 51
177.8767632883
  0
LINE
  5
21E
330
1F
100
AcDbEntity
  8
0
  6
Continuous
 62
     7
370
    15
100
AcDbLine
 10
73.8647475615
 20
157.8883523004
 30
0.0
 11
72.9683559281
 21
157.2853507356
 31
0.0
  0
LWPOLYLINE
  5
21F
330
1F
100
AcDbEntity
  8
0
  6
Continuous
 62
     7
370
    15
100
AcDbPolyline
 90
       30
 70
   128
 43
0.0
 10
73.1710936767
 20
152.3481005685
 10
73.2413390312
 20
153.0309015767
 10
73.294277851
 20
153.6962607758
 10
73.3274347973
 20
154.3130645411
 10
73.3392593344
 20
154.8524716751
 10
73.3291986059
 20
155.2892619626
 10
73.2977230461
 20
155.6030133621
 10
73.2463044939
 20
155.7790519552
 10
73.1773471586
 20
155.8091448502
 10
73.0940753953
 20
155.6918876128
 10
73.0003829473
 20
155.4327638702
 10
72.900650756
 20
155.0438919918
 10
72.7995421863
 20
154.543447669
 10
72.7017848646
 20
153.9548369007
 10
72.6119499547
 20
153.3055784063
 10
72.5342380707
 20
152.6260370271
 10
72.4722827678
 20
151.9479820387
 10
72.4289811575
 20
151.3031193869
 10
72.4063577024
 20
150.7216052966
 10
72.4054706176
 20
150.2306269364
 10
72.4263611143
 20
149.8531432705
 10
72.4680527006
 20
149.6068084495
 10
72.5285954201
 20
149.5031336205
 10
72.6051587505
 20
149.5469691114
 10
72.6941626878
 20
149.7362697379
 10
72.7914452679
 20
150.062180485
 10
72.8924577949
 20
150.50946119
 10
72.9924770664
 20
151.0571980731
 10
73.0868262132
 20
151.679783489
 10
73.1710936767
 20
152.3481005685
  0
LINE
  5
220
330
1F
100
AcDbEntity
  8
0
  6
Continuous
 62
     7
370
    15
100
AcDbLine
 10
83.741268924
 20
146.1821919189
 30
0.0
 11
85.0768395127
 21
157.8609229879
 31
0.0
  0
LINE
  5
221
330
1F
100
AcDbEntity
  8
0
  6
Continuous
 62
     7
370
    15
100
AcDbLine
 10
85.3452261896
 20
157.8590044634
 30
0.0
 11
84.0096556009
 21
146.1802752571
 31
0.0
  0
ARC
  5
222
330
1F
100
AcDbEntity
  8
0
  6
Continuous
 62
     7
370
    15
100
AcDbCircle
 10
81.2401437509
 20
158.7154620006
 30
0.0
 40
3.930708751972734
100
AcDbArc
 50
347.4435880145
 51
11.4989487942
  0
ARC
  5
223
330
1F
100
AcDbEntity
  8
0
  6
Continuous
 62
     7
370
    15
100
AcDbCircle
 10
85.1612093517
 20
159.048392615
 30
0.0
 40
0.2372365465776427
100
AcDbArc
 50
0.6055584132
 51
28.479824153
  0
LWPOLYLINE
  5
224
330
1F
100
AcDbEntity
  8
0
  6
Continuous
 62
     7
370
    15
100
AcDbPolyline
 90
        3
 70
   128
 43
0.0
 10
85.3778243424
 20
158.1856081144
 10
85.3719383837
 20
158.1188546376
 10
85.3452261896
 20
157.8590044634
  0
ARC
  5
225
330
1F
100
AcDbEntity
  8
0
  6
Continuous
 62
     7
370
    15
100
AcDbCircle
 10
77.3065322036
 20
146.7352914203
 30
0.0
 40
6.458463882279615
100
AcDbArc
 50
343.6363387935
 51
355.0872014198
  0
LINE
  5
226
330
1F
100
AcDbEntity
  8
0
  6
Continuous
 62
     7
370
    15
100
AcDbLine
 10
83.7822312848
 20
145.1073227332
 30
0.0
 11
83.5431430848
 21
144.9115494148
 31
0.0
  0
ARC
  5
227
330
1F
100
AcDbEntity
  8
0
  6
Continuous
 62
     7
370
    15
100
AcDbCircle
 10
80.8043291742
 20
146.2991012989
 30
0.0
 40
3.207528196286387
100
AcDbArc
 50
338.188345422
 51
357.8769355976
  0
SPLINE
  5
228
330
1F
100
AcDbEntity
  8
0
  6
Continuous
 62
     7
370
    15
100
AcDbSpline
210
0.0
220
0.0
230
1.0
 70
     8
 71
     3
 72
    36
 73
    32
 74
     0
 42
0.00000001
 43
0.00000001
 12
1.0
 22
0.0
 32
0.0
 13
1.0
 23
0.0
 33
0.0
 40
0.0
 40
0.0
 40
0.0
 40
0.0
 40
0.027262584852187
 40
0.0550555415859182
 40
0.0833786070433016
 40
0.1122315086658362
 40
0.1416139646423899
 40
0.1715256840440389
 40
0.2019663669470813
 40
0.2329357045455059
 40
0.2644333792539528
 40
0.2964590648021223
 40
0.3290124263214774
 40
0.3620931204249962
 40
0.3957007952806004
 40
0.4298350906788907
 40
0.4644956380957136
 40
0.499682060749977
 40
0.5237633596881269
 40
0.5502511839873043
 40
0.5791442685734075
 40
0.6104412272660183
 40
0.6441405533198042
 40
0.6802406197872002
 40
0.7187396797695133
 40
0.759635866596036
 40
0.8029271939552781
 40
0.8486115559935927
 40
0.8966867273910832
 40
0.9471503634214159
 40
1.0
 40
1.0
 40
1.0
 40
1.0
 10
85.42441428703047
 20
159.0652747123456
 30
0.0
 10
85.64573774405352
 20
159.006342289437
 30
0.0
 10
86.09269032973592
 20
158.8873309602548
 30
0.0
 10
86.76574469668746
 20
158.6936158533364
 30
0.0
 10
87.44849889086166
 20
158.4859908845469
 30
0.0
 10
88.14031053230396
 20
158.2629133443208
 30
0.0
 10
88.8408543471382
 20
158.0240929892711
 30
0.0
 10
89.54968757875204
 20
157.7688932201145
 30
0.0
 10
90.2663688639474
 20
157.4967727661246
 30
0.0
 10
90.99042465451952
 20
157.2071652837935
 30
0.0
 10
91.72135763960803
 20
156.8995137888763
 30
0.0
 10
92.45864364451872
 20
156.5732625378461
 30
0.0
 10
93.20173170079822
 20
156.2278606842945
 30
0.0
 10
93.95004339432725
 20
155.8627627391973
 30
0.0
 10
94.70297201184687
 20
155.4774300641365
 30
0.0
 10
95.45988346367467
 20
155.0713318054464
 30
0.0
 10
96.22011035660387
 20
154.6439473507941
 30
0.0
 10
96.8989193415013
 20
154.2442551194168
 30
0.0
 10
97.51228756962257
 20
153.8689155757093
 30
0.0
 10
98.07549603345525
 20
153.5129433437098
 30
0.0
 10
98.68357309476424
 20
153.1149744534924
 30
0.0
 10
99.33468082344751
 20
152.6726308162372
 30
0.0
 10
100.0267552812527
 20
152.1833936251502
 30
0.0
 10
100.7574896575917
 20
151.6446189204491
 30
0.0
 10
101.5243147116895
 20
151.0535524704998
 30
0.0
 10
102.3243959050848
 20
150.4073625769896
 30
0.0
 10
103.1545583874739
 20
149.7031091476792
 30
0.0
 10
104.0115055912915
 20
148.9379839165493
 30
0.0
 10
104.8908504179828
 20
148.108465690307
 30
0.0
 10
105.790933044377
 20
147.2138601783666
 30
0.0
 10
106.3816312595062
 20
146.5807336973303
 30
0.0
 10
106.6838013990136
 20
146.2568594884694
 30
0.0
  0
LINE
  5
229
330
1F
100
AcDbEntity
  8
0
  6
Continuous
 62
     7
370
    15
100
AcDbLine
 10
106.683766319
 20
146.2594879673
 30
0.0
 11
106.683766319
 21
145.6068040685
 31
0.0
  0
SPLINE
  5
22A
330
1F
100
AcDbEntity
  8
0
  6
Continuous
 62
     7
370
    15
100
AcDbSpline
210
0.0
220
0.0
230
1.0
 70
     8
 71
     3
 72
    36
 73
    32
 74
     0
 42
0.00000001
 43
0.00000001
 12
1.0
 22
0.0
 32
0.0
 13
1.0
 23
0.0
 33
0.0
 40
0.0
 40
0.0
 40
0.0
 40
0.0
 40
0.0263271886700742
 40
0.052620160715548
 40
0.0788850392735361
 40
0.1051279671459188
 40
0.1313551025581539
 40
0.157572614864163
 40
0.1837866802121244
 40
0.2100034771863169
 40
0.2362291824403668
 40
0.2624699663373078
 40
0.2887319886118219
 40
0.3150213940698296
 40
0.3413443083403176
 40
0.367706833693833
 40
0.3941150449415771
 40
0.4205749854283509
 40
0.4470926631318972
 40
0.4736740468803419
 40
0.5003250626985518
 40
0.5508843842271811
 40
0.6012008518773515
 40
0.651315556428133
 40
0.7012700865500311
 40
0.7511064319141667
 40
0.8008668813783076
 40
0.8505939174307339
 40
0.9003301081806444
 40
0.9501179982557405
 40
1.0
 40
1.0
 40
1.0
 40
1.0
 10
106.6837647924762
 20
145.6079435890007
 30
0.0
 10
106.5351267082488
 20
145.7721580874211
 30
0.0
 10
106.2380437200685
 20
146.1003736598086
 30
0.0
 10
105.7831541400029
 20
146.5836554610727
 30
0.0
 10
105.3218967430716
 20
147.0598489088965
 30
0.0
 10
104.8535834161493
 20
147.5283356898237
 30
0.0
 10
104.3783983460836
 20
147.9892811215197
 30
0.0
 10
103.8962923252946
 20
148.442640850366
 30
0.0
 10
103.4072786240972
 20
148.8884266497278
 30
0.0
 10
102.9113537900343
 20
149.326635270559
 30
0.0
 10
102.4085188556234
 20
149.757267494099
 30
0.0
 10
101.8987736567952
 20
150.1803230286078
 30
0.0
 10
101.382118355081
 20
150.5958018771503
 30
0.0
 10
100.8585530280028
 20
151.0037039715581
 30
0.0
 10
100.3280777820098
 20
151.4040292696862
 30
0.0
 10
99.79069270772588
 20
151.7967777338094
 30
0.0
 10
99.24639794309066
 20
152.1819493204911
 30
0.0
 10
98.69519346207173
 20
152.5595440434818
 30
0.0
 10
98.13707985586262
 20
152.9295617318548
 30
0.0
 10
97.5720554072342
 20
153.2920029374304
 30
0.0
 10
96.82965639064625
 20
153.7526369286999
 30
0.0
 10
95.90527134943972
 20
154.2988799431978
 30
0.0
 10
94.79256494318415
 20
154.9140509226503
 30
0.0
 10
93.66687594361197
 20
155.4945419266399
 30
0.0
 10
92.52820958894556
 20
156.0403425817873
 30
0.0
 10
91.37657113953023
 20
156.5514687407112
 30
0.0
 10
90.21194639225729
 20
157.0278566063358
 30
0.0
 10
89.03440014720988
 20
157.4697357331256
 30
0.0
 10
87.84370186444063
 20
157.8762438104347
 30
0.0
 10
86.64072523325511
 20
158.2505980300903
 30
0.0
 10
85.8293796388863
 20
158.4704360928733
 30
0.0
 10
85.42332379178197
 20
158.5804589135167
 30
0.0
  0
LINE
  5
22B
330
1F
100
AcDbEntity
  8
0
  6
Continuous
 62
     7
370
    15
100
AcDbLine
 10
85.4229888306
 20
158.5805224137
 30
0.0
 11
85.4246251644
 21
159.0674662845
 31
0.0
  0
LINE
  5
22C
330
1F
100
AcDbEntity
  8
0
  6
Continuous
 62
     7
370
    15
100
AcDbLine
 10
70.6716159717
 20
122.456082038
 30
0.0
 11
106.683766319
 21
118.6710527515
 31
0.0
  0
LINE
  5
22D
330
1F
100
AcDbEntity
  8
0
  6
Continuous
 62
     7
370
    15
100
AcDbLine
 10
73.2700293544
 20
145.1775891589
 30
0.0
 11
70.6716159717
 21
122.456082038
 31
0.0
  0
LINE
  5
22E
330
1F
100
AcDbEntity
  8
0
  6
Continuous
 62
     7
370
    15
100
AcDbLine
 10
73.2700293544
 20
145.1775891589
 30
0.0
 11
79.2044720971
 21
144.553854491
 31
0.0
  0
LINE
  5
22F
330
1F
100
AcDbEntity
  8
0
  6
Continuous
 62
     7
370
    15
100
AcDbLine
 10
79.2044720971
 20
144.553854491
 30
0.0
 11
79.2964220406
 21
145.3578969346
 31
0.0
  0
LINE
  5
230
330
1F
100
AcDbEntity
  8
0
  6
Continuous
 62
     7
370
    15
100
AcDbLine
 10
79.2964220406
 20
145.3578969346
 30
0.0
 11
83.8560525687
 21
144.8786606894
 31
0.0
  0
LINE
  5
231
330
1F
100
AcDbEntity
  8
0
  6
Continuous
 62
     7
370
    15
100
AcDbLine
 10
85.4229832427
 20
158.5804963367
 30
0.0
 11
85.3778243424
 21
158.1856081144
 31
0.0
  0
LINE
  5
232
330
1F
100
AcDbEntity
  8
0
  6
Continuous
 62
     7
370
    15
100
AcDbLine
 10
83.9685581983
 20
145.8624521153
 30
0.0
 11
83.8560525687
 21
144.8786606894
 31
0.0
  0
LINE
  5
233
330
1F
100
AcDbEntity
  8
0
  6
Continuous
 62
     7
370
    15
100
AcDbLine
 10
106.683766319
 20
145.6079440074
 30
0.0
 11
106.683766319
 21
118.6710527515
 31
0.0
  0
ELLIPSE
  5
234
330
1F
100
AcDbEntity
  8
0
  6
Continuous
 62
     7
370
    15
100
AcDbEllipse
 10
179.8552401744
 20
105.1574313743
 30
0.0
 11
126.347426576189
 21
-13.27964964807654
 31
0.0
210
0.0
220
0.0
230
1.0
 40
0.5541767355
 41
2.471201243426766
 42
2.471509099374861
  0
LWPOLYLINE
  5
235
330
1F
100
AcDbEntity
  8
0
  6
Continuous
 62
     7
370
    15
100
AcDbPolyline
 90
        3
 70
   128
 43
0.0
 10
71.4045647425
 20
144.0724128739
 10
71.4328701967
 20
144.0126852946
 10
71.5075881113
 20
143.991991307
  0
LINE
  5
236
330
1F
100
AcDbEntity
  8
0
  6
Continuous
 62
     7
370
    15
100
AcDbLine
 10
70.6716159717
 20
122.456082038
 30
0.0
 11
64.3835597099
 21
87.4598467605
 31
0.0
  0
ARC
  5
237
330
1F
100
AcDbEntity
  8
0
  6
Continuous
 62
     7
370
    15
100
AcDbCircle
 10
74.6837647991
 20
116.2113988654
 30
0.0
 40
31.5
100
AcDbArc
 50
97.0626043618
 51
97.2847812583
  0
SPLINE
  5
238
330
1F
100
AcDbEntity
  8
0
  6
Continuous
 62
     7
370
    15
100
AcDbSpline
210
0.0
220
0.0
230
1.0
 70
     8
 71
     3
 72
    10
 73
     6
 74
     0
 42
0.00000001
 43
0.00000001
 12
1.0
 22
0.0
 32
0.0
 13
1.0
 23
0.0
 33
0.0
 40
0.0
 40
0.0
 40
0.0
 40
0.0
 40
0.5
 40
0.5
 40
1.0
 40
1.0
 40
1.0
 40
1.0
 10
70.81072078524336
 20
147.4723894138253
 30
0.0
 10
70.83468415056855
 20
147.4753583270617
 30
0.0
 10
70.86573826271035
 20
147.5547717217798
 30
0.0
 10
70.93158636869839
 20
147.8327837888805
 30
0.0
 10
70.96489611172792
 20
148.0248993705208
 30
0.0
 10
70.99355555081341
 20
148.2406995925831
 30
0.0
  0
SPLINE
  5
239
330
1F
100
AcDbEntity
  8
0
  6
Continuous
 62
     7
370
    15
100
AcDbSpline
210
0.0
220
0.0
230
1.0
 70
     8
 71
     3
 72
     8
 73
     4
 74
     0
 42
0.00000001
 43
0.00000001
 12
1.0
 22
0.0
 32
0.0
 13
1.0
 23
0.0
 33
0.0
 40
0.0
 40
0.0
 40
0.0
 40
0.0
 40
1.0
 40
1.0
 40
1.0
 40
1.0
 10
70.99355555081341
 20
148.2406995925831
 30
0.0
 10
71.44518863993095
 20
151.6414123780471
 30
0.0
 10
71.89741226244979
 20
155.0400145637834
 30
0.0
 10
72.34988695976132
 20
158.4377193940307
 30
0.0
  0
ELLIPSE
  5
23A
330
1F
100
AcDbEntity
  8
0
  6
Continuous
 62
     7
370
    15
100
AcDbEllipse
 10
203.7929134575
 20
102.6414805299
 30
0.0
 11
155.1048763195738
 21
-16.30217941154635
 31
0.0
210
0.0
220
0.0
230
1.0
 40
0.5541767355
 41
2.632877445788479
 42
2.637437776814605
  0
LWPOLYLINE
  5
23B
330
1F
100
AcDbEntity
  8
0
  6
Continuous
 62
     7
370
    15
100
AcDbPolyline
 90
       33
 70
   128
 43
0.0
 10
70.9992475701
 20
138.8304134713
 10
70.9302812708
 20
138.0930872516
 10
70.8793130131
 20
137.38409559
 10
70.8483013683
 20
136.7306852595
 10
70.8384379638
 20
136.1579665796
 10
70.8501023133
 20
135.6879485653
 10
70.8828457524
 20
135.3386932866
 10
70.9354100642
 20
135.1236229645
 10
71.00577521
 20
135.0510021554
 10
71.0912370947
 20
135.1236229645
 10
71.1885116422
 20
135.3386932866
 10
71.2938605235
 20
135.6879485653
 10
71.4032352795
 20
136.1579665796
 10
71.5124326186
 20
136.7306852595
 10
71.617256234
 20
137.38409559
 10
71.7136776899
 20
138.0930872516
 10
71.7979917196
 20
138.8304134713
 10
71.8669580189
 20
139.567739691
 10
71.9179262766
 20
140.2767313527
 10
71.9489379213
 20
140.9301416831
 10
71.9588013259
 20
141.502860363
 10
71.9471369763
 20
141.9728783773
 10
71.9143937701
 20
142.322133656
 10
71.8618294583
 20
142.5372039781
 10
71.7914640797
 20
142.6098247872
 10
71.7060021949
 20
142.5372039781
 10
71.6087276475
 20
142.322133656
 10
71.5033787661
 20
141.9728783773
 10
71.3940040101
 20
141.502860363
 10
71.2848066711
 20
140.9301416831
 10
71.1799830557
 20
140.2767313527
 10
71.0835615997
 20
139.567739691
 10
70.9992475701
 20
138.8304134713
  0
LINE
  5
23C
330
1F
100
AcDbEntity
  8
0
  6
Continuous
 62
     7
370
    15
100
AcDbLine
 10
71.5075881113
 20
143.991991307
 30
0.0
 11
73.2700293544
 21
145.1775891589
 31
0.0
  0
LINE
  5
23D
330
1F
100
AcDbEntity
  8
0
  6
Continuous
 62
     7
370
    15
100
AcDbLine
 10
79.2964220406
 20
145.3578969346
 30
0.0
 11
79.2252913476
 21
145.3100474434
 31
0.0
  0
SPLINE
  5
23E
330
1F
100
AcDbEntity
  8
0
  6
Continuous
 62
     7
370
    15
100
AcDbSpline
210
0.0
220
0.0
230
1.0
 70
     8
 71
     3
 72
    12
 73
     8
 74
     0
 42
0.00000001
 43
0.00000001
 12
1.0
 22
0.0
 32
0.0
 13
1.0
 23
0.0
 33
0.0
 40
0.0
 40
0.0
 40
0.0
 40
0.0
 40
0.4999999999999993
 40
0.4999999999999993
 40
0.7499999999999997
 40
0.7499999999999997
 40
1.0
 40
1.0
 40
1.0
 40
1.0
 10
92.56210926271548
 20
90.27658058500407
 30
0.0
 10
92.99045723427676
 20
90.57186519055156
 30
0.0
 10
93.44496355603302
 20
90.83633626680391
 30
0.0
 10
94.1568424293729
 20
91.19756339868687
 30
0.0
 10
94.39999396184261
 20
91.31166787823307
 30
0.0
 10
94.89561505360095
 20
91.51992955339539
 30
0.0
 10
95.14834162694335
 20
91.61485259502405
 30
0.0
 10
95.4102818528794
 20
91.6925183219422
 30
0.0
  0
ARC
  5
23F
330
1F
100
AcDbEntity
  8
0
  6
Continuous
 62
     7
370
    15
100
AcDbCircle
 10
74.6837647991
 20
116.2113988654
 30
0.0
 40
31.50000000000002
100
AcDbArc
 50
250.5134199745
 51
304.5807035043
  0
ELLIPSE
  5
240
330
1F
100
AcDbEntity
  8
0
  6
Continuous
 62
     7
370
    15
100
AcDbEllipse
 10
58.4491169525
 20
88.0835823223
 30
0.0
 11
2.085366894322689
 21
8.356644074018464
 31
0.0
210
0.0
220
0.0
230
1.0
 40
0.6892710456
 41
4.6967546643442
 42
4.809101290144673
  0
LINE
  5
241
330
1F
100
AcDbEntity
  8
0
  6
Continuous
 62
     7
370
    15
100
AcDbLine
 10
106.683766319
 20
118.6710527515
 30
0.0
 11
106.683766319
 21
116.2113988654
 31
0.0
  0
ARC
  5
242
330
1F
100
AcDbEntity
  8
0
  6
Continuous
 62
     7
370
    15
100
AcDbCircle
 10
74.6837647991
 20
116.2113988654
 30
0.0
 40
32.00000000000004
100
AcDbArc
 50
309.9638479463
 51
0.0
  0
LINE
  5
243
330
1F
100
AcDbEntity
  8
0
  6
Continuous
 62
     7
370
    15
100
AcDbLine
 10
95.2374970899
 20
91.6850020991
 30
0.0
 11
95.4102816419
 21
91.6925178723
 31
0.0
  0
ARC
  5
244
330
1F
100
AcDbEntity
  8
0
  6
Continuous
 62
     7
370
    15
100
AcDbCircle
 10
74.6837647991
 20
116.2113988654
 30
0.0
 40
32.10551373655939
100
AcDbArc
 50
310.2088007479
 51
4.6464506928
  0
SPLINE
  5
245
330
1F
100
AcDbEntity
  8
0
  6
Continuous
 62
     7
370
    15
100
AcDbSpline
210
0.0
220
0.0
230
1.0
 70
     8
 71
     3
 72
    20
 73
    16
 74
     0
 42
0.00000001
 43
0.00000001
 12
1.0
 22
0.0
 32
0.0
 13
1.0
 23
0.0
 33
0.0
 40
0.0
 40
0.0
 40
0.0
 40
0.0
 40
0.2499999999999992
 40
0.2499999999999992
 40
0.3749999999999993
 40
0.3749999999999993
 40
0.4999999999999994
 40
0.4999999999999994
 40
0.6249999999999996
 40
0.6249999999999996
 40
0.7499999999999997
 40
0.7499999999999997
 40
0.8749999999999999
 40
0.8749999999999999
 40
1.0
 40
1.0
 40
1.0
 40
1.0
 10
66.15402957944235
 20
146.5345520174873
 30
0.0
 10
66.73441288705133
 20
146.697810630962
 30
0.0
 10
67.28648372232747
 20
146.8351563538669
 30
0.0
 10
68.06697430208732
 20
147.0097617444657
 30
0.0
 10
68.3181104375803
 20
147.0624171951661
 30
0.0
 10
68.78600736175498
 20
147.1552729706911
 30
0.0
 10
69.00505951883041
 20
147.1959925033496
 30
0.0
 10
69.41222261873452
 20
147.2678568026732
 30
0.0
 10
69.60160917045253
 20
147.2991830750792
 30
0.0
 10
69.93588929833066
 20
147.3519883127842
 30
0.0
 10
70.08206768505536
 20
147.3737220010348
 30
0.0
 10
70.3324786954525
 20
147.4096729968854
 30
0.0
 10
70.43721588234423
 20
147.4239524109293
 30
0.0
 10
70.59920079242447
 20
147.4455630676048
 30
0.0
 10
70.65640472098367
 20
147.452901485211
 30
0.0
 10
70.68952889073408
 20
147.4571358467922
 30
0.0
  0
SPLINE
  5
246
330
1F
100
AcDbEntity
  8
0
  6
Continuous
 62
     7
370
    15
100
AcDbSpline
210
0.0
220
0.0
230
1.0
 70
     8
 71
     3
 72
    18
 73
    14
 74
     0
 42
0.00000001
 43
0.00000001
 12
1.0
 22
0.0
 32
0.0
 13
1.0
 23
0.0
 33
0.0
 40
0.0
 40
0.0
 40
0.0
 40
0.0
 40
0.1250000000000009
 40
0.1250000000000009
 40
0.2500000000000017
 40
0.2500000000000017
 40
0.5000000000000008
 40
0.5000000000000008
 40
0.7499999999999998
 40
0.7499999999999998
 40
0.8749999999999996
 40
0.8749999999999996
 40
1.0
 40
1.0
 40
1.0
 40
1.0
 10
64.17580384584102
 20
86.51572987808387
 30
0.0
 10
64.11765384142706
 20
86.53630654790301
 30
0.0
 10
64.04152298160051
 20
86.56341916887233
 30
0.0
 10
63.85339508691411
 20
86.6316236315474
 30
0.0
 10
63.74029851660157
 20
86.6731319401601
 30
0.0
 10
63.35656568543535
 20
86.8171948596355
 30
0.0
 10
63.03997637922274
 20
86.93968228385012
 30
0.0
 10
62.29768808723856
 20
87.24596594812046
 30
0.0
 10
61.88667414451695
 20
87.4237931782502
 30
0.0
 10
61.2174710285465
 20
87.7338748387199
 30
0.0
 10
60.98587589133496
 20
87.84440814710493
 30
0.0
 10
60.5170167428555
 20
88.07562852847371
 30
0.0
 10
60.27838809742965
 20
88.19693557390043
 30
0.0
 10
60.03588671632524
 20
88.32431103479053
 30
0.0
  0
ELLIPSE
  5
247
330
1F
100
AcDbEntity
  8
0
  6
Continuous
 62
     7
370
    15
100
AcDbEllipse
 10
60.8286800191
 20
132.8042653157
 30
0.0
 11
2.266853502313069
 21
2.998331141371069
 31
0.0
210
0.0
220
0.0
230
1.0
 40
0.6487969398
 41
0.0
 42
6.283185307179586
  0
ARC
  5
248
330
1F
100
AcDbEntity
  8
0
  6
Continuous
 62
     7
370
    15
100
AcDbCircle
 10
74.6837647991
 20
116.2113988654
 30
0.0
 40
31.5
100
AcDbArc
 50
105.7109988413
 51
242.2890011587
  0
INSERT
  5
254
330
1F
100
AcDbEntity
  8
VERMASSUNG
100
AcDbBlockReference
  2
SW_CENTERMARKSYMBOL_0
 10
74.6837647991
 20
116.2113988654
 30
0.0
  0
OLE2FRAME
  5
255
330
1F
100
AcDbEntity
  8
0
100
AcDbOle2Frame
 70
     2
  3
Paintbrush-Bild
 10
13.8511154363
 20
38.264191557
 30
0.0
 11
51.6290888628
 21
31.9806341108
 31
0.0
 71
     2
 72
     0
 73
     1
 90
    12928
310
80552BED0767C5B32B40DDAF6807D121434000000000000000006FFBDDFB85D0
310
4940DDAF6807D121434000000000000000006FFBDDFB85D04940416F4BD60AFB
310
3F4000000000000000002BED0767C5B32B40416F4BD60AFB3F40000000000000
310
0000000000000100000000010000010000000100000000000100000000320000
310
D0CF11E0A1B11AE1000000000000000000000000000000003E000300FEFF0900
310
0600000000000000000000000100000001000000000000000010000002000000
310
01000000FEFFFFFF0000000000000000FFFFFFFFFFFFFFFFFFFFFFFFFFFFFFFF
310
FFFFFFFFFFFFFFFFFFFFFFFFFFFFFFFFFFFFFFFFFFFFFFFFFFFFFFFFFFFFFFFF
310
FFFFFFFFFFFFFFFFFFFFFFFFFFFFFFFFFFFFFFFFFFFFFFFFFFFFFFFFFFFFFFFF
310
FFFFFFFFFFFFFFFFFFFFFFFFFFFFFFFFFFFFFFFFFFFFFFFFFFFFFFFFFFFFFFFF
310
FFFFFFFFFFFFFFFFFFFFFFFFFFFFFFFFFFFFFFFFFFFFFFFFFFFFFFFFFFFFFFFF
310
FFFFFFFFFFFFFFFFFFFFFFFFFFFFFFFFFFFFFFFFFFFFFFFFFFFFFFFFFFFFFFFF
310
FFFFFFFFFFFFFFFFFFFFFFFFFFFFFFFFFFFFFFFFFFFFFFFFFFFFFFFFFFFFFFFF
310
FFFFFFFFFFFFFFFFFFFFFFFFFFFFFFFFFFFFFFFFFFFFFFFFFFFFFFFFFFFFFFFF
310
FFFFFFFFFFFFFFFFFFFFFFFFFFFFFFFFFFFFFFFFFFFFFFFFFFFFFFFFFFFFFFFF
310
FFFFFFFFFFFFFFFFFFFFFFFFFFFFFFFFFFFFFFFFFFFFFFFFFFFFFFFFFFFFFFFF
310
FFFFFFFFFFFFFFFFFFFFFFFFFFFFFFFFFFFFFFFFFFFFFFFFFFFFFFFFFFFFFFFF
310
FFFFFFFFFFFFFFFFFFFFFFFFFFFFFFFFFFFFFFFFFFFFFFFFFFFFFFFFFFFFFFFF
310
FFFFFFFFFFFFFFFFFFFFFFFFFFFFFFFFFFFFFFFFFFFFFFFFFFFFFFFFFFFFFFFF
310
FFFFFFFFFFFFFFFFFFFFFFFFFFFFFFFFFFFFFFFFFFFFFFFFFFFFFFFFFFFFFFFF
310
FDFFFFFFFEFFFFFFFEFFFFFFFEFFFFFF05000000060000000700000008000000
310
090000000A0000000B0000000C0000000D0000000E0000000F00000010000000
310
11000000120000001300000014000000150000001600000017000000FEFFFFFF
310
FFFFFFFFFFFFFFFFFFFFFFFFFFFFFFFFFFFFFFFFFFFFFFFFFFFFFFFFFFFFFFFF
310
FFFFFFFFFFFFFFFFFFFFFFFFFFFFFFFFFFFFFFFFFFFFFFFFFFFFFFFFFFFFFFFF
310
FFFFFFFFFFFFFFFFFFFFFFFFFFFFFFFFFFFFFFFFFFFFFFFFFFFFFFFFFFFFFFFF
310
FFFFFFFFFFFFFFFFFFFFFFFFFFFFFFFFFFFFFFFFFFFFFFFFFFFFFFFFFFFFFFFF
310
FFFFFFFFFFFFFFFFFFFFFFFFFFFFFFFFFFFFFFFFFFFFFFFFFFFFFFFFFFFFFFFF
310
FFFFFFFFFFFFFFFFFFFFFFFFFFFFFFFFFFFFFFFFFFFFFFFFFFFFFFFFFFFFFFFF
310
FFFFFFFFFFFFFFFFFFFFFFFFFFFFFFFFFFFFFFFFFFFFFFFFFFFFFFFFFFFFFFFF
310
FFFFFFFFFFFFFFFFFFFFFFFFFFFFFFFFFFFFFFFFFFFFFFFFFFFFFFFFFFFFFFFF
310
FFFFFFFFFFFFFFFFFFFFFFFFFFFFFFFFFFFFFFFFFFFFFFFFFFFFFFFFFFFFFFFF
310
FFFFFFFFFFFFFFFFFFFFFFFFFFFFFFFFFFFFFFFFFFFFFFFFFFFFFFFFFFFFFFFF
310
FFFFFFFFFFFFFFFFFFFFFFFFFFFFFFFFFFFFFFFFFFFFFFFFFFFFFFFFFFFFFFFF
310
FFFFFFFFFFFFFFFFFFFFFFFFFFFFFFFFFFFFFFFFFFFFFFFFFFFFFFFFFFFFFFFF
310
FFFFFFFFFFFFFFFFFFFFFFFFFFFFFFFFFFFFFFFFFFFFFFFFFFFFFFFFFFFFFFFF
310
52006F006F007400200045006E00740072007900000000000000000000000000
310
0000000000000000000000000000000000000000000000000000000000000000
310
16000500FFFFFFFFFFFFFFFF020000000A00030000000000C000000000000046
310
00000000000000000000000000B90F104D24CD0103000000C000000000000000
310
01004F006C006500000000000000000000000000000000000000000000000000
310
0000000000000000000000000000000000000000000000000000000000000000
310
0A000200FFFFFFFFFFFFFFFFFFFFFFFF00000000000000000000000000000000
310
0000000000000000000000000000000000000000000000001400000000000000
310
010043006F006D0070004F0062006A0000000000000000000000000000000000
310
0000000000000000000000000000000000000000000000000000000000000000
310
120002010100000003000000FFFFFFFF00000000000000000000000000000000
310
0000000000000000000000000000000000000000010000004D00000000000000
310
01004F006C006500310030004E00610074006900760065000000000000000000
310
0000000000000000000000000000000000000000000000000000000000000000
310
1A000200FFFFFFFFFFFFFFFFFFFFFFFF00000000000000000000000000000000
310
0000000000000000000000000000000000000000040000002426000000000000
310
FEFFFFFF02000000FEFFFFFFFFFFFFFFFFFFFFFFFFFFFFFFFFFFFFFFFFFFFFFF
310
FFFFFFFFFFFFFFFFFFFFFFFFFFFFFFFFFFFFFFFFFFFFFFFFFFFFFFFFFFFFFFFF
310
FFFFFFFFFFFFFFFFFFFFFFFFFFFFFFFFFFFFFFFFFFFFFFFFFFFFFFFFFFFFFFFF
310
FFFFFFFFFFFFFFFFFFFFFFFFFFFFFFFFFFFFFFFFFFFFFFFFFFFFFFFFFFFFFFFF
310
FFFFFFFFFFFFFFFFFFFFFFFFFFFFFFFFFFFFFFFFFFFFFFFFFFFFFFFFFFFFFFFF
310
FFFFFFFFFFFFFFFFFFFFFFFFFFFFFFFFFFFFFFFFFFFFFFFFFFFFFFFFFFFFFFFF
310
FFFFFFFFFFFFFFFFFFFFFFFFFFFFFFFFFFFFFFFFFFFFFFFFFFFFFFFFFFFFFFFF
310
FFFFFFFFFFFFFFFFFFFFFFFFFFFFFFFFFFFFFFFFFFFFFFFFFFFFFFFFFFFFFFFF
310
FFFFFFFFFFFFFFFFFFFFFFFFFFFFFFFFFFFFFFFFFFFFFFFFFFFFFFFFFFFFFFFF
310
FFFFFFFFFFFFFFFFFFFFFFFFFFFFFFFFFFFFFFFFFFFFFFFFFFFFFFFFFFFFFFFF
310
FFFFFFFFFFFFFFFFFFFFFFFFFFFFFFFFFFFFFFFFFFFFFFFFFFFFFFFFFFFFFFFF
310
FFFFFFFFFFFFFFFFFFFFFFFFFFFFFFFFFFFFFFFFFFFFFFFFFFFFFFFFFFFFFFFF
310
FFFFFFFFFFFFFFFFFFFFFFFFFFFFFFFFFFFFFFFFFFFFFFFFFFFFFFFFFFFFFFFF
310
FFFFFFFFFFFFFFFFFFFFFFFFFFFFFFFFFFFFFFFFFFFFFFFFFFFFFFFFFFFFFFFF
310
FFFFFFFFFFFFFFFFFFFFFFFFFFFFFFFFFFFFFFFFFFFFFFFFFFFFFFFFFFFFFFFF
310
FFFFFFFFFFFFFFFFFFFFFFFFFFFFFFFFFFFFFFFFFFFFFFFFFFFFFFFFFFFFFFFF
310
0100000200000000000000000000000000000000000000000000000000000000
310
0000000000000000000000000000000000000000000000000000000000000000
310
0100FEFF030A0000FFFFFFFF0A00030000000000C00000000000004607000000
310
5042727573680007000000504272757368000700000050427275736800F439B2
310
7100000000000000000000000000000000000000000000000000000000000000
310
0000000000000000000000000000000000000000000000000000000000000000
310
0000000000000000000000000000000000000000000000000000000000000000
310
0000000000000000000000000000000000000000000000000000000000000000
310
0000000000000000000000000000000000000000000000000000000000000000
310
0000000000000000000000000000000000000000000000000000000000000000
310
0000000000000000000000000000000000000000000000000000000000000000
310
0000000000000000000000000000000000000000000000000000000000000000
310
0000000000000000000000000000000000000000000000000000000000000000
310
0000000000000000000000000000000000000000000000000000000000000000
310
0000000000000000000000000000000000000000000000000000000000000000
310
0000000000000000000000000000000000000000000000000000000000000000
310
20260000424D0E260000000000003E00000028000000B40200006E0000000100
310
01000000000000000000130B0000130B00000200000002000000000000FFFFFF
310
FFFFFFFFFFFFFFFFFFFFFFFFFFFFFFFFFFFFFFFFFFFFFFFFFFFFFFFFFFFFFFFF
310
FFFFFFFFFFFFFFFFFFFFFFFFFFFFFFFFFFFFFFFFFFFFFFFFFFFFFFFFFFFFFFFF
310
FFFFFFFFFFFFFFFFFFFFFFFFFFFFFFFFFFFFFFFFFFFFFFFFF000FFFFFFFFFFFF
310
FFFFFFFFFFFFFFFFFFFFFFFFFFFFFFFFFFFFFFFFFFFFFFFFFFFFFFFFFFFFFFFF
310
FFFFFFFFFFFFFFFFFFFFFFFFFFFFFFFFFFFFFFFFFFFFFFFFFFFFFFFFFFFFFFFF
310
FFFFFFFFFFFFFFFFFFFFFFFFFFFFFFFFF000FFFFFFFFFFFFFFFFFFFFFFFFFFFF
310
FFFFFFFFFFFFFFFFFFFFFFFFFFFFFFFFFFFFFFFFFFFFFFFFFFFFFFFFFFFFFFFF
310
FFFFFFFFFFFFFFFFFFFFFFFFFFFFFFFFFFFFFFFFFFFFFFFFFFFFFFFFFFFFFFFF
310
FFFFFFFFFFFFFFFFF000FFFFFFFFFFFFFFFFFFFFFFFFFFFFFFFFFFFFFFFFFFFF
310
FFFFFFFFFFFFFFFFFFFFFFFFFFFFFFFFFFFFFFFFFFFFFFFFFFFFFFFFFFFFFFFF
310
FFFFFFFFFFFFFFFFFFFFFFFFFFFFFFFFFFFFFFFFFFFFFFFFFFFFFFFFFFFFFFFF
310
F000FFFFFFFFFFFFFFFFFFFFFFFFFFFFFFFFFFFFFFFFFFFFFFFFFFFFFFFFFFFF
310
FFFFFFFFFFFFFFFFFFFFFFFFFFFFFFFFFFFFFFFFFFFFFFFFFFFFFFFFFFFFFFFF
310
FFFFFFFFFFFFFFFFFFFFFFFFFFFFFFFFFFFFFFFFFFFFFFFFF000FFFFFFFFFFFF
310
FFFFFFFFFFFFFFFFFFFFFFFFFFFFFFFFFFFFFFFFFFFFFFFFFFFFFFFFFFFFFFFF
310
FFFFFFFFFFFFFFFFFFFFFFFFFFFFFFFFFFFFFFFFFFFFFFFFFFFFFFFFFFFFFFFF
310
FFFFFFFFFFFFFFFFFFFFFFFFFFFFFFFFF000FFFFFFFFFFFFFFFFFFFFFFFFFFFF
310
FFFFFFFFFFFFFFFFFFFFFFFFFFFFFFFFFFFFFFFFFFFFFFFFFFFFFFFFFFFFFFFF
310
FFFFFFFFFFFFFFFFFFFFFFFFFFFFFFFFFFFFFFFFFFFFFFFFFFFFFFFFFFFFFFFF
310
FFFFFFFFFFFFFFFFF000FFFFFFFFFFFFFFFFFFFFFFFFFFFFFFFFFFFFFFFFFFFF
310
FFFFFFFFFFFFFFFFFFFFFFFFFFFFFFFFFFFFFFFFFFFFFFFFFFFFFFFFFFFFFFFF
310
FFFFFFFFFFFFFFFFFFFFFFFFFFFFFFFFFFFFFFFFFFFFFFFFFFFFFFFFFFFFFFFF
310
F000FFFFFFFFFFFFFFFFFFFFFFFFFFFFFFFFFFFFFFFFFFFFFFFFFFFFFFFFFFFF
310
FFFFFFFFFFFFFFFFFFFFFFFFFFFFFFFFFFFFFFFFFFFFFFFFFFFFFFFFFFFFFFFF
310
FFFFFFFFFFFFFFFFFFFFFFFFFFFFFFFFFFFFFFFFFFFFFFFFF000FFFFFFFFFFFF
310
FFFFFFFFFFFFFFFFFFFFFFFFFFFFFFFFFFFFFFFFFFFFFFFFFFFFFFFFFFFFFFFF
310
FFFFFFFFFFFFFFFFFFFFFFFFFFFFFFFFFFFFFFFFFFFFFFFFFFFFFFFFFFFFFFFF
310
FFFFFFFFFFFFFFFFFFFFFFFFFFFFFFFFF000FFFFFFFFFFFFFFFFFFFFFFFFFFFF
310
FFFFFFFFFFFFFFFFFFFFFFFFFFFFFFFFFFFFFFFFFFFFFFFFFFFFFFFFFFFFFFFF
310
FFFFFFFFFFFFFFFFFFFFFFFFFFFFFFFFFFFFFFFFFFFFFFFFFFFFFFFFFFFFFFFF
310
FFFFFFFFFFFFFFFFF000FFFFFFFFFFFFFFFFFFFFFFFFFFFFFFFFFFFFFFFFFFFF
310
FFFFFFFFFFFFFFFFFFFFFFFFFFFFFFFFFFFFFFFFFFFFFFFFFFFFFFFFFFFFFFFF
310
FFFFFFFFFFFFFFFFFFFFFFFFFFFFFFFFFFFFFFFFFFFFFFFFFFFFFFFFFFFFFFFF
310
F000FFFFFFFFFFFFFFFFFFFFFFFFFFFFFFFFFFFFFFFFFFFFFFFFFFFFFFFFFFFF
310
FFFFFFFFFFFFFFFFFFFFFFFFFFFFFFFFFFFFFFFFFFFFFFFFFFFFFFFFFFFFFFFF
310
FFFFFFFFFFFFFFFFFFFFFFFFFFFFFFFFFFFFFFFFFFFFFFFFF000FFFFFFFFFFFF
310
FFFFFFFFFFFFFFFFFFFFFFFFFFFFFFFFFFFFFFFFFFFFFFFFFFFFFFFFFFFFFFFF
310
FFFFFFFFFFFFFFFFFFFFFFFFFFFFFFFFFFFFFFFFFFFFFFFFFFFFFFFFFFFFFFFF
310
FFFFFFFFFFFFFFFFFFFFFFFFFFFFFFFFF000FFFFFFFFFFFFFFFFFFFFFFFFFFFF
310
FFFFFFFFFFFFFFFFFFFFFFFFFFFFFFFFFFFFFFFFFFFFFFFFFFFFFFFFFFFFFFFF
310
FFFFFFFFFFFFFFFFFFFFFFFFFFFFFFFFFFFFFFFFFFFFFFFFFFFFFFFFFFFFFFFF
310
FFFFFFFFFFFFFFFFF000FFFFFFFFFFFFFFFFFFFFFFFFFFFFFFFFFFFFFFFFFFFF
310
FFFFFFFFFFFFFFFFFFFFFFFFFFFFFFFFFFFFFFFFFFFFFFFFFFFFFFFFFFFFFFFF
310
FFFFFFFFFFFFFFFFFFFFFFFFFFFFFFFFFFFFFFFFFFFFFFFFFFFFFFFFFFFFFFFF
310
F000FFFFFFFFFFFFFFFFFFFFFFFFFFFFFFFFFFFFFFFFFFFFFFFFFFFFFFFFFFFF
310
FFFFFFFFFFFFFFFFFFFFFFFFFFFFFFFFFFFFFFFFFFFFFFFFFFFFFFFFFFFFFFFF
310
FFFFFFFFFFFFFFFFFFFFFFFFFFFFFFFFFFFFFFFFFFFFFFFFF000FFFFFFFFFFFF
310
FFFFFFFFFFFFFFFFFFFFFFFFFFFFFFFFFFFFFFFFFFFFFFFFFFFFFFFFFFFFFFFF
310
FFFFFFFFFFFFFFFFFFFFFFFFFFFFFFFFFFFFFFFFFFFFFFFFFFFFFFFFFFFFFFFF
310
FFFFFFFFFFFFFFFFFFFFFFFFFFFFFFFFF000FFFFFFFFFFFFFFFFFFFFFFFFFFFF
310
FFFFFFFFFFFFFFFFFFFFFFFFFFFFFFFFFFFFFFFFFFFFFFFFFFFFFFFFFFFFFFFF
310
FFFFFFFFFFFFFFFFFFFFFFFFFFFFFFFFFFFFFFFFFFFFFFFFFFFFFFFFFFFFFFFF
310
FFFFFFFFFFFFFFFFF000FFFFF80003FFFFFFFFFFFFFFFFFFFFFFFFFFFFFFFFFF
310
FFFFF00007FFFFFFFFFF00007FFFFFF800000000000000007FFFFFFFFFFFFFFF
310
FFFFFFFC001FFFFFFFFFFFFFFC001FFFFFFFFFFFFFFFFFFFFFFFFFFE0007FFFF
310
F000FFFF8000007FFFFFFFF8000FFFFFC0007FFFFF80007FFFFF0000007FFFFF
310
FFF8000007FFFFF800000000000000007FFFFFF0001FFFFFFFFFFFC00001FFFF
310
FFFFFFFFC00001FFFFFFFF000000000003FFFFE000007FFFF000FFFE0000000F
310
FFFFFFF0000FFFFF80007FFFFF80007FFFFC0000001FFFFFFFC0000001FFFFF8
310
00000000000000007FFFFFF0001FFFFFFFFFFE0000003FFFFFFFFFFE0000003F
310
FFFFFF000000000003FFFF0000000FFFF000FFF800000003FFFFFFF00007FFFF
310
80007FFFFF80007FFFF000000007FFFFFF000000003FFFF80000000000000000
310
7FFFFFF0001FFFFFFFFFF80000000FFFFFFFFFF80000000FFFFFFF0000000000
310
03FFFC00000003FFF000FFE000000000FFFFFFF00007FFFF80003FFFFF80007F
310
FFC000000001FFFFFC000000001FFFF800000000000000007FFFFFF0001FFFFF
310
FFFFE000000003FFFFFFFFE000000003FFFFFF000000000003FFF000000000FF
310
F000FF80000000007FFFFFF00007FFFF80003FFFFF80007FFF8000000000FFFF
310
F80000000007FFF800000000000000007FFFFFF0001FFFFFFFFFC000000001FF
310
FFFFFFC000000001FFFFFF000000000003FFC0000000007FF000FF0000000000
310
3FFFFFE00007FFFF00003FFFFF80007FFE00000000003FFFF00000000003FFF8
310
00000000000000007FFFFFF0001FFFFFFFFF8000000000FFFFFFFF8000000000
310
FFFFFF000000000003FF80000000003FF000FE00000000001FFFFFE00003FFFF
310
00003FFFFF80007FFC00000000001FFFE00000000001FFF8000001FFFE000000
310
7FFFFFF0001FFFFFFFFE00000000003FFFFFFE00000000003FFFFF0000000000
310
03FF00000000001FF000FC00000000000FFFFFE00003FFFF00001FFFFF80007F
310
F800000000001FFFC00000000000FFF8000001FFFE0000007FFFFFF0001FFFFF
310
FFFC00000000001FFFFFFC00000000001FFFFF000000000003FE00000000000F
310
F000F8000000000007FFFFE00003FFFF00001FFFFF80007FF800000000000FFF
310
800000000000FFF8000001FFFE0000007FFFFFF0001FFFFFFFF800000000000F
310
FFFFF800000000000FFFFF000000000003FC000000000007F000F80000000000
310
03FFFFC00003FFFE00001FFFFF80007FF0000000000007FF0000000000007FF8
310
000001FFFE0000007FFFFFF0001FFFFFFFF0000000000007FFFFF00000000000
310
07FFFF000000000003F8000000000003F000F0000000000003FFFFC00001FFFE
310
00001FFFFF80007FE0000000000007FE0000000000003FF8000001FFFE000000
310
7FFFFFF0001FFFFFFFF0000000000007FFFFF0000000000007FFFF0000000000
310
03F800001F800003F000E00001FFF00001FFFFC00001FFFE00000FFFFF80007F
310
E00001FFE00003FE00001FFF00003FF8000001FFFE0000007FFFFFF0001FFFFF
310
FFE000003E000003FFFFE000003E000003FFFF000000000003F00001FFF80001
310
F000E00007FFFC0001FFFFC00001FFFE00000FFFFF80007FC0000FFFFC0003FC
310
0000FFFFC0001FF8000001FFFE0000007FFFFFF0001FFFFFFFC00003FFE00001
310
FFFFC00003FFE00001FFFF0001FFFFFFFFF00007FFFE0001F000E0000FFFFF00
310
00FFFF800001FFFC00000FFFFF80007FC0001FFFFE0001FC0001FFFFE0001FF8
310
000001FFFE0000007FFFFFF0001FFFFFFF80000FFFF80000FFFF80000FFFF800
310
00FFFF0003FFFFFFFFE0000FFFFF8000F000C0003FFFFF8000FFFF800000FFFC
310
000007FFFF80007F80003FFFFF0001FC0003FFFFF0001FF8000001FFFE000000
310
7FFFFFF0001FFFFFFF80003FFFFE0000FFFF80003FFFFE0000FFFF0003FFFFFF
310
FFE0003FFFFF8000F000C0003FFFFF8000FFFF800000FFFC000007FFFF80007F
310
80007FFFFF8001F80007FFFFF8000FF8000001FFFE0000007FFFFFF0001FFFFF
310
FF00007FFFFF00007FFF00007FFFFF00007FFF0003FFFFFFFFE0003FFFFFC000
310
F000C0007FFFFFC000FFFF000000FFFC000007FFFF80007F8000FFFFFF8000F8
310
000FFFFFF8000FF8000001FFFE0000007FFFFFF0001FFFFFFF0000FFFFFF8000
310
7FFF0000FFFFFF80007FFF0003FFFFFFFFC0007FFFFFC00070008000FFFFFFC0
310
00FFFF000000FFF8000007FFFF80007F8000FFFFFF8000F8000FFFFFF8000FF8
310
000001FFFE0000007FFFFFF0001FFFFFFE0001FFFFFFC0003FFE0001FFFFFFC0
310
003FFF0003FFFFFFFFC0007FFFFFE00070008000FFFFFFC0007FFF0000007FF8
310
000003FFFF80007F0001FFFFFF8000F8000FFFFFF8000FF8000001FFFE000000
310
7FFFFFF0001FFFFFFE0001FFFFFFC0003FFE0001FFFFFFC0003FFF0003FFFFFF
310
FFC000FFFFFFE00070008000FFFFFFC0007FFF0000007FF8000003FFFF80007F
310
0001FFFFFF8000F8001FFFFFF8000FF8000001FFFE0000007FFFFFF0001FFFFF
310
FE0003FFFFFFE0003FFE0003FFFFFFE0003FFF0003FFFFFFFFC000FFFFFFE000
310
70008000FFFFFFC0007FFE0000007FF8000003FFFF80007F0001FFFFFF8000F0
310
001FFFFFF8000FF8000001FFFE0000007FFFFFF0001FFFFFFC0003FFFFFFE000
310
1FFC0003FFFFFFE0001FFF0003FFFFFFFFC000FFFFFFC00070008000FFFFFF80
310
007FFE0000007FF0000003FFFF80007F0001FFFFFF0000F0001FFFFFF8000FF8
310
000001FFFE0000007FFFFFF0001FFFFFFC0007FFFFFFF0001FFC0007FFFFFFF0
310
001FFF0003FFFFFFFFC000FFFFFFC00070008001FFFFFF0000FFFE0000003FF0
310
000001FFFF80007F0001FFFFFF0000F8001FFFFFF0000FF8000001FFFE000000
310
7FFFFFF0001FFFFFFC0007FFFFFFF0001FFC0007FFFFFFF0001FFF0003FFFFFF
310
FFC001FFFFFF80007000FFFFFFFFFE0000FFFE0008003FF0008001FFFF80007F
310
FFFFFFFFFC0000FFFFFFFFFFE0000FF8000001FFFE0000007FFFFFF0001FFFFF
310
F8000FFFFFFFF8000FF8000FFFFFFFF8000FFF0003FFFFFFFFFFFFFFFFFF0000
310
7000FFFFFFFFFC0000FFFC0008003FF0008001FFFF80007FFFFFFFFFF80001FF
310
FFFFFFFF80000FF8000001FFFE0000007FFFFFF0001FFFFFF8000FFFFFFFF800
310
0FF8000FFFFFFFF8000FFF0003FFFFFFFFFFFFFFFFFE0000F000FFFFFFFFE000
310
00FFFC000C003FE000C001FFFF80007FFFFFFFFFC00001FFFFFFFFFE00001FF8
310
000001FFFE0000007FFFFFF0001FFFFFF8000FFFFFFFF8000FF8000FFFFFFFF8
310
000FFF0003FFFFFFFFFFFFFFFFF00000F000FFFFFFFE000001FFFC000C001FE0
310
00C000FFFF80007FFFFFFFFE000001FFFFFFFFE000001FF80FFFFFFFFFFFFFC0
310
7FFFFFF0001FFFFFF8000FFFFFFFF8000FF8000FFFFFFFF8000FFF0003FFFFFF
310
FFFFFFFFFF800000F000FFFFFFC0000001FFFC001C001FE001C000FFFF80007F
310
FFFFFF80000003FFFFFFF80000001FF80FFFFFFFFFFFFFC07FFFFFF0001FFFFF
310
F8001FFFFFFFFC000FF8001FFFFFFFFC000FFF0003FFFFFFFFFFFFFFF0000001
310
F000FFFFF800000001FFF8001C001FE001C000FFFF80007FFFFFF800000003FF
310
FFFF800000003FF80FFFFFFFFFFFFFC07FFFFFF0001FFFFFF8001FFFFFFFFC00
310
0FF8001FFFFFFFFC000FFF0003FFFFFFFFFFFFFE00000001F000FFFFC0000000
310
03FFF8001E001FC001E000FFFF80007FFFFF8000000007FFFFFC000000003FF8
310
0FFFFFFFFFFFFFC07FFFFFF0001FFFFFF8001FFFFFFFFC000FF8001FFFFFFFFC
310
000FFF0003FFFFFFFFFFFFE000000003F000FFFE0000000007FFF8001E000FC0
310
01E0007FFF80007FFFFE0000000007FFFFE0000000007FF80FFFFFFFFFFFFFC0
310
7FFFFFF0001FFFFFF0001FFFFFFFFC0007F0001FFFFFFFFC0007FF0003FFFFFF
310
FFFFFF0000000003F000FFF80000000007FFF8001E000FC003E0007FFF80007F
310
FFF0000000000FFFFF8000000000FFF80FFFFFFFFFFFFFC07FFFFFF0001FFFFF
310
F0001FFFFFFFFC0007F0001FFFFFFFFC0007FF0003FFFFFFFFFFFC0000000007
310
F000FFE0000000000FFFF0003E000FC003E0007FFF80007FFFC0000000001FFF
310
FE0000000001FFF80FFFFFFFFFFFFFC07FFFFFF0001FFFFFF0001FFFFFFFFC00
310
07F0001FFFFFFFFC0007FF0003FFFFFFFFFFF0000000000FF000FFC000000000
310
1FFFF0003F000F8003F0003FFF80007FFF80000000003FFFF80000000003FFF8
310
0FFFFFFFFFFFFFC07FFFFFF0001FFFFFF0001FFFFFFFFC0007F0001FFFFFFFFC
310
0007FF0003FFFFFFFFFFE0000000001FF000FF00000000007FFFF0003F000780
310
03F0003FFF80007FFF00000000007FFFF00000000007FFF80FFFFFFFFFFFFFC0
310
7FFFFFF0001FFFFFF0001FFFFFFFFC0007F0001FFFFFFFFC0007FF0003FFFFFF
310
FFFF80000000007FF000FE0000000000FFFFE0003F00078007F0003FFF80007F
310
FE0000000001FFFFE0000000001FFFF80FFFFFFFFFFFFFC07FFFFFF0001FFFFF
310
F0001FFFFFFFFC0007F0001FFFFFFFFC0007FF0003FFFFFFFFFF0000000000FF
310
F000FC0000000003FFFFE0007F00078007F0003FFF80007FFC0000000007FFFF
310
C0000000007FFFF80FFFFFFFFFFFFFC07FFFFFF0001FFFFFF8001FFFFFFFFC00
310
0FF8001FFFFFFFFC000FFF0003FFFFFFFFFE0000000003FFF000FC000000000F
310
FFFFE0007F80070007F8001FFF80007FF8000000001FFFFF8000000001FFFFF8
310
0FFFFFFFFFFFFFC07FFFFFF0001FFFFFF8001FFFFFFFFC000FF8001FFFFFFFFC
310
000FFF0003FFFFFFFFFC000000000FFFF000F8000000007FFFFFE0007F800700
310
07F8001FFF80007FF000000000FFFFFF800000000FFFFFF80FFFFFFFFFFFFFC0
310
7FFFFFF0001FFFFFF8000FFFFFFFF8000FF8000FFFFFFFF8000FFF0003FFFFFF
310
FFFC000000007FFFF000F800000007FFFFFFC0007F8003000FF8001FFF80007F
310
F000000007FFFFFF000000007FFFFFF80FFFFFFFFFFFFFC07FFFFFF0001FFFFF
310
F8000FFFFFFFF8000FF8000FFFFFFFF8000FFF0003FFFFFFFFF80000000FFFFF
310
F000F0000000FFFFFFFFC000FF8003000FF8001FFF80007FE0000000FFFFFFFF
310
0000000FFFFFFFF8000001FFFE0000007FFFFFF0001FFFFFF8000FFFFFFFF800
310
0FF8000FFFFFFFF8000FFF0003FFFFFFFFF8000000FFFFFFF000F000000FFFFF
310
FFFFC000FFC002000FF8000FFF80007FE000001FFFFFFFFE000001FFFFFFFFF8
310
000001FFFE0000007FFFFFF0001FFFFFF8000FFFFFFFF8000FF8000FFFFFFFF8
310
000FFF0003FFFFFFFFF000001FFFFFFFF000E00000FFFFFFFFFFC000FFC00200
310
0FFC000FFF80007FE00001FFFFFFFFFE00001FFFFFFFFFF8000001FFFE000000
310
7FFFFFF0001FFFFFFC000FFFFFFFF8001FFC000FFFFFFFF8001FFF0003FFFFFF
310
FFF00001FFFFFFFFF000E00007FFFFFFFFFF8000FFC000001FFC000FFF80007F
310
C0000FFFFFFFFFFE0000FFFFFFFFFFF8000001FFFE0000007FFFFFF0001FFFFF
310
FC0007FFFFFFF0001FFC0007FFFFFFF0001FFF0003FFFFFFFFF00007FFFFFFFF
310
F000E0001FFFFFFFFFFF8000FFC000001FFC000FFF80007FC0003FFFFFFFFFFE
310
0001FFFFFFFFFFF8000001FFFE0000007FFFFFF0001FFFFFFC0007FFFFFFF000
310
1FFC0007FFFFFFF0001FFF0003FFFFFFFFF0001FFFFFFFFFF000E0003FFFFF00
310
03FF8001FFE000001FFC0007FF80007FC0007FFFFF0007FC0003FFFFF0003FF8
310
000001FFFE0000007FFFFFF0001FFFFFFC0003FFFFFFE0001FFC0003FFFFFFE0
310
001FFF0003FFFFFFFFF0003FFFFFFFFFF000E0003FFFFF0001FF8001FFE00000
310
1FFE0007FF80007FC0007FFFFE0003FC0007FFFFE0003FF8000001FFFE000000
310
7FFFFFF0001FFFFFFE0003FFFFFFE0003FFE0003FFFFFFE0003FFF0003FFFFFF
310
FFF0003FFFFF8001F000E0003FFFFF0001FF0001FFE000001FFE0007FF80007F
310
C0007FFFFE0003FC0007FFFFE0003FF8000001FFFE0000007FFFFFF0001FFFFF
310
FE0001FFFFFFC0003FFE0001FFFFFFC0003FFF0003FFFFFFFFF0003FFFFF0001
310
F000E0003FFFFF0003FF0001FFE000003FFE0007FF80007FC0007FFFFE0003FC
310
0007FFFFE0003FF8000001FFFE0000007FFFFFF0001FFFFFFF0001FFFFFFC000
310
7FFF0001FFFFFFC0007FFF0003FFFFFFFFF0003FFFFF0001F000E0003FFFFE00
310
03FF0003FFF000003FFE0003FF80007FC0007FFFFC0003FE0007FFFFE0003FF8
310
000001FFFE0000007FFFFFF0001FFFFFFF0000FFFFFF80007FFF0000FFFFFF80
310
007FFF0003FFFFFFFFF0003FFFFF0001F000E0003FFFFE0003FF0003FFF00000
310
3FFF0003FF80007FC0007FFFFC0007FE0007FFFFC0003FF8000001FFFE000000
310
7FFFFFF0001FFFFFFF80007FFFFF0000FFFF80007FFFFF0000FFFF0003FFFFFF
310
FFF0003FFFFF0003F000E0003FFFFC0003FE0003FFF000003FFF0003FF80007F
310
E0003FFFF80007FE0003FFFFC0007FF8000001FFFE0000007FFFFFF0001FFFFF
310
FF80003FFFFE0000FFFF80003FFFFE0000FFFF0003FFFFFFFFF0001FFFFE0003
310
F000F0001FFFF80003FE0003FFF000007FFF0001FF80007FE0003FFFF00007FE
310
0001FFFF80007FF8000001FFFE0000007FFFFFF0001FFFFFFFC0000FFFF80001
310
FFFFC0000FFFF80001FFFF0003FFFFFFFFF0001FFFFC0003F000F0000FFFF000
310
07FE0007FFF800007FFF0001FF80007FE0001FFFE00007FF0000FFFE00007FF8
310
000001FFFE0000007FFFFFF0001FFFFFFFC00003FFE00001FFFFC00003FFE000
310
01FFFF0003FFFFFFFFF8000FFFF80003F000F00003FFC00007FC0007FFF80000
310
7FFF8001FF80007FF00007FF80000FFF00007FF80000FFF8000001FFFE000000
310
7F80000000000001FFE000003E000003FFFFE000003E000003FFFF0003FFFFFF
310
FFF80003FFE00007F000F800000000000FFC0007FFF800007FFF8001FF80007F
310
F000000000000FFF000000000000FFF8000001FFFE0000007F80000000000001
310
FFF0000000000007FFFFF0000000000007FFFF0003FFFFFFFFFC00007E000007
310
F000F800000000000FFC0007FFF80000FFFF8000FF80007FF800000000001FFF
310
800000000001FFF8000001FFFE0000007F80000000000001FFF800000000000F
310
FFFFF800000000000FFFFF0003FFFFFFFFFC00000000000FF000FC0000000000
310
1FFC0007FFFC0000FFFF8000FF80007FF800000000003FFFC00000000001FFF8
310
000001FFFE0000007F80000000000001FFF800000000000FFFFFF80000000000
310
0FFFFF0003FFFFFFFFFE00000000001FF000FE00000000003FF8000FFFFC0000
310
FFFF8000FF80007FFC00000000003FFFC00000000003FFF8000001FFFE000000
310
7F80000000000001FFFC00000000001FFFFFFC00000000001FFFFF0003FFFFFF
310
FFFF00000000001FF000FF00000000003FF8000FFFFC0000FFFFC000FF80007F
310
FE00000000007FFFE00000000007FFF8000001FFFE0000007F80000000000001
310
FFFE00000000003FFFFFFE00000000003FFFFF0003FFFFFFFFFF80000000003F
310
F000FF80000000007FF8000FFFFC0001FFFFC0007F80007FFF0000000000FFFF
310
F0000000000FFFF800000000000000007F80000000000001FFFF8000000000FF
310
FFFFFF8000000000FFFFFF0003FFFFFFFFFFC0000000007FF000FFC000000000
310
FFF8000FFFFE0001FFFFC0007F80007FFF8000000001FFFFF8000000001FFFF8
310
00000000000000007F80000000000001FFFFC000000001FFFFFFFFC000000001
310
FFFFFF0003FFFFFFFFFFE000000000FFF000FFE000000003FFF0001FFFFE0001
310
FFFFC0007F80007FFFC000000007FFFFFE000000003FFFF80000000000000000
310
7F80000000000001FFFFE000000003FFFFFFFFE000000003FFFFFF0003FFFFFF
310
FFFFF000000003FFF000FFF80000000FFFF0001FFFFE0001FFFFE0007F80007F
310
FFF00000000FFFFFFF00000000FFFFF800000000000000007F80000000000001
310
FFFFF80000000FFFFFFFFFF80000000FFFFFFF0003FFFFFFFFFFFC0000000FFF
310
F000FFFE0000003FFFF0001FFFFE0003FFFFE0003F80007FFFFC0000003FFFFF
310
FFC0000003FFFFF800000000000000007F80000000000001FFFFFE0000003FFF
310
FFFFFFFE0000003FFFFFFF0003FFFFFFFFFFFF0000003FFFF000FFFF800000FF
310
FFF0001FFFFF0003FFFFE0003F80007FFFFF000001FFFFFFFFF800001FFFFFF8
310
00000000000000007F80000000000001FFFFFFC00001FFFFFFFFFFFFC00001FF
310
FFFFFF0003FFFFFFFFFFFFC00000FFFFF000FFFFF8000FFFFFFFFFFFFFFFFFFF
310
FFFFFFFFFFFFFFFFFFFFF0001FFFFFFFFFFF0000FFFFFFF80000000000000000
310
7FFFFFFFFFFFFFFFFFFFFFFC001FFFFFFFFFFFFFFC001FFFFFFFFFFFFFFFFFFF
310
FFFFFFFC001FFFFFF000FFFFFFFFFFFFFFFFFFFFFFFFFFFFFFFFFFFFFFFFFFFF
310
FFFFFFFFFFFFFFFFFFFFFFFFFFFFFFFFFFFFFFFFFFFFFFFFFFFFFFFFFFFFFFFF
310
FFFFFFFFFFFFFFFFFFFFFFFFFFFFFFFFFFFFFFFFFFFFFFFFFFFFFFFFFFFFFFFF
310
F000FFFFFFFFFFFFFFFFFFFFFFFFFFFFFFFFFFFFFFFFFFFFFFFFFFFFFFFFFFFF
310
FFFFFFFFFFFFFFFFFFFFFFFFFFFFFFFFFFFFFFFFFFFFFFFFFFFFFFFFFFFFFFFF
310
FFFFFFFFFFFFFFFFFFFFFFFFFFFFFFFFFFFFFFFFFFFFFFFFF000FFFFFFFFFFFF
310
FFFFFFFFFFFFFFFFFFFFFFFFFFFFFFFFFFFFFFFFFFFFFFFFFFFFFFFFFFFFFFFF
310
FFFFFFFFFFFFFFFFFFFFFFFFFFFFFFFFFFFFFFFFFFFFFFFFFFFFFFFFFFFFFFFF
310
FFFFFFFFFFFFFFFFFFFFFFFFFFFFFFFFF000FFFFFFFFFFFFFFFFFFFFFFFFFFFF
310
FFFFFFFFFFFFFFFFFFFFFFFFFFFFFFFFFFFFFFFFFFFFFFFFFFFFFFFFFFFFFFFF
310
FFFFFFFFFFFFFFFFFFFFFFFFFFFFFFFFFFFFFFFFFFFFFFFFFFFFFFFFFFFFFFFF
310
FFFFFFFFFFFFFFFFF000FFFFFFFFFFFFFFFFFFFFFFFFFFFFFFFFFFFFFFFFFFFF
310
FFFFFFFFFFFFFFFFFFFFFFFFFFFFFFFFFFFFFFFFFFFFFFFFFFFFFFFFFFFFFFFF
310
FFFFFFFFFFFFFFFFFFFFFFFFFFFFFFFFFFFFFFFFFFFFFFFFFFFFFFFFFFFFFFFF
310
F000FFFFFFFFFFFFFFFFFFFFFFFFFFFFFFFFFFFFFFFFFFFFFFFFFFFFFFFFFFFF
310
FFFFFFFFFFFFFFFFFFFFFFFFFFFFFFFFFFFFFFFFFFFFFFFFFFFFFFFFFFFFFFFF
310
FFFFFFFFFFFFFFFFFFFFFFFFFFFFFFFFFFFFFFFFFFFFFFFFF000FFFFFFFFFFFF
310
FFFFFFFFFFFFFFFFFFFFFFFFFFFFFFFFFFFFFFFFFFFFFFFFFFFFFFFFFFFFFFFF
310
FFFFFFFFFFFFFFFFFFFFFFFFFFFFFFFFFFFFFFFFFFFFFFFFFFFFFFFFFFFFFFFF
310
FFFFFFFFFFFFFFFFFFFFFFFFFFFFFFFFF000FFFFFFFFFFFFFFFFFFFFFFFFFFFF
310
FFFFFFFFFFFFFFFFFFFFFFFFFFFFFFFFFFFFFFFFFFFFFFFFFFFFFFFFFFFFFFFF
310
FFFFFFFFFFFFFFFFFFFFFFFFFFFFFFFFFFFFFFFFFFFFFFFFFFFFFFFFFFFFFFFF
310
FFFFFFFFFFFFFFFFF000FFFFFFFFFFFFFFFFFFFFFFFFFFFFFFFFFFFFFFFFFFFF
310
FFFFFFFFFFFFFFFFFFFFFFFFFFFFFFFFFFFFFFFFFFFFFFFFFFFFFFFFFFFFFFFF
310
FFFFFFFFFFFFFFFFFFFFFFFFFFFFFFFFFFFFFFFFFFFFFFFFFFFFFFFFFFFFFFFF
310
F000FFFFFFFFFFFFFFFFFFFFFFFFFFFFFFFFFFFFFFFFFFFFFFFFFFFFFFFFFFFF
310
FFFFFFFFFFFFFFFFFFFFFFFFFFFFFFFFFFFFFFFFFFFFFFFFFFFFFFFFFFFFFFFF
310
FFFFFFFFFFFFFFFFFFFFFFFFFFFFFFFFFFFFFFFFFFFFFFFFF000FFFFFFFFFFFF
310
FFFFFFFFFFFFFFFFFFFFFFFFFFFFFFFFFFFFFFFFFFFFFFFFFFFFFFFFFFFFFFFF
310
FFFFFFFFFFFFFFFFFFFFFFFFFFFFFFFFFFFFFFFFFFFFFFFFFFFFFFFFFFFFFFFF
310
FFFFFFFFFFFFFFFFFFFFFFFFFFFFFFFFF000FFFFFFFFFFFFFFFFFFFFFFFFFFFF
310
FFFFFFFFFFFFFFFFFFFFFFFFFFFFFFFFFFFFFFFFFFFFFFFFFFFFFFFFFFFFFFFF
310
FFFFFFFFFFFFFFFFFFFFFFFFFFFFFFFFFFFFFFFFFFFFFFFFFFFFFFFFFFFFFFFF
310
FFFFFFFFFFFFFFFFF000FFFFFFFFFFFFFFFFFFFFFFFFFFFFFFFFFFFFFFFFFFFF
310
FFFFFFFFFFFFFFFFFFFFFFFFFFFFFFFFFFFFFFFFFFFFFFFFFFFFFFFFFFFFFFFF
310
FFFFFFFFFFFFFFFFFFFFFFFFFFFFFFFFFFFFFFFFFFFFFFFFFFFFFFFFFFFFFFFF
310
F000FFFFFFFFFFFFFFFFFFFFFFFFFFFFFFFFFFFFFFFFFFFFFFFFFFFFFFFFFFFF
310
FFFFFFFFFFFFFFFFFFFFFFFFFFFFFFFFFFFFFFFFFFFFFFFFFFFFFFFFFFFFFFFF
310
FFFFFFFFFFFFFFFFFFFFFFFFFFFFFFFFFFFFFFFFFFFFFFFFF000FFFFFFFFFFFF
310
FFFFFFFFFFFFFFFFFFFFFFFFFFFFFFFFFFFFFFFFFFFFFFFFFFFFFFFFFFFFFFFF
310
FFFFFFFFFFFFFFFFFFFFFFFFFFFFFFFFFFFFFFFFFFFFFFFFFFFFFFFFFFFFFFFF
310
FFFFFFFFFFFFFFFFFFFFFFFFFFFFFFFFF000FFFFFFFFFFFFFFFFFFFFFFFFFFFF
310
FFFFFFFFFFFFFFFFFFFFFFFFFFFFFFFFFFFFFFFFFFFFFFFFFFFFFFFFFFFFFFFF
310
FFFFFFFFFFFFFFFFFFFFFFFFFFFFFFFFFFFFFFFFFFFFFFFFFFFFFFFFFFFFFFFF
310
FFFFFFFFFFFFFFFFF000FFFFFFFFFFFFFFFFFFFFFFFFFFFFFFFFFFFFFFFFFFFF
310
FFFFFFFFFFFFFFFFFFFFFFFFFFFFFFFFFFFFFFFFFFFFFFFFFFFFFFFFFFFFFFFF
310
FFFFFFFFFFFFFFFFFFFFFFFFFFFFFFFFFFFFFFFFFFFFFFFFFFFFFFFFFFFFFFFF
310
F000FFFFFFFFFFFFFFFFFFFFFFFFFFFFFFFFFFFFFFFFFFFFFFFFFFFFFFFFFFFF
310
FFFFFFFFFFFFFFFFFFFFFFFFFFFFFFFFFFFFFFFFFFFFFFFFFFFFFFFFFFFFFFFF
310
FFFFFFFFFFFFFFFFFFFFFFFFFFFFFFFFFFFFFFFFFFFFFFFFF000FFFFFFFFFFFF
310
FFFFFFFFFFFFFFFFFFFFFFFFFFFFFFFFFFFFFFFFFFFFFFFFFFFFFFFFFFFFFFFF
310
FFFFFFFFFFFFFFFFFFFFFFFFFFFFFFFFFFFFFFFFFFFFFFFFFFFFFFFFFFFFFFFF
310
FFFFFFFFFFFFFFFFFFFFFFFFFFFFFFFFF000FFFFFFFFFFFFFFFFFFFFFFFFFFFF
310
FFFFFFFFFFFFFFFFFFFFFFFFFFFFFFFFFFFFFFFFFFFFFFFFFFFFFFFFFFFFFFFF
310
FFFFFFFFFFFFFFFFFFFFFFFFFFFFFFFFFFFFFFFFFFFFFFFFFFFFFFFFFFFFFFFF
310
FFFFFFFFFFFFFFFFF000FFFFFFFFFFFFFFFFFFFFFFFFFFFFFFFFFFFFFFFFFFFF
310
FFFFFFFFFFFFFFFFFFFFFFFFFFFFFFFFFFFFFFFFFFFFFFFFFFFFFFFFFFFFFFFF
310
FFFFFFFFFFFFFFFFFFFFFFFFFFFFFFFFFFFFFFFFFFFFFFFFFFFFFFFFFFFFFFFF
310
F000FFFFFFFFFFFFFFFFFFFFFFFFFFFFFFFFFFFFFFFFFFFFFFFFFFFFFFFFFFFF
310
FFFFFFFFFFFFFFFFFFFFFFFFFFFFFFFFFFFFFFFFFFFFFFFFFFFFFFFFFFFFFFFF
310
FFFFFFFFFFFFFFFFFFFFFFFFFFFFFFFFFFFFFFFFFFFFFFFFF000FFFFFFFFFFFF
310
FFFFFFFFFFFFFFFFFFFFFFFFFFFFFFFFFFFFFFFFFFFFFFFFFFFFFFFFFFFFFFFF
310
FFFFFFFFFFFFFFFFFFFFFFFFFFFFFFFFFFFFFFFFFFFFFFFFFFFFFFFFFFFFFFFF
310
FFFFFFFFFFFFFFFFFFFFFFFFFFFFFFFFF0000000000000000000000000000000
310
0000000000000000000000000000000000000000000000000000000000000000
310
0000000000000000000000000000000000000000000000000000000000000000
310
0000000000000000000000000000000000000000000000000000000000000000
310
0000000000000000000000000000000000000000000000000000000000000000
310
0000000000000000000000000000000000000000000000000000000000000000
310
0000000000000000000000000000000000000000000000000000000000000000
310
0000000000000000000000000000000000000000000000000000000000000000
310
0000000000000000000000000000000000000000000000000000000000000000
310
0000000000000000000000000000000000000000000000000000000000000000
310
0000000000000000000000000000000000000000000000000000000000000000
310
0000000000000000000000000000000000000000000000000000000000000000
310
0000000000000000000000000000000000000000000000000000000000000000
310
0000000000000000000000000000000000000000000000000000000000000000
310
0000000000000000000000000000000000000000000000000000000000000000
310
0000000000000000000000000000000000000000000000000000000000000000
  1
OLE
  0
ENDSEC
  0
SECTION
  2
OBJECTS
  0
DICTIONARY
  5
C
330
0
100
AcDbDictionary
281
     1
  3
ACAD_GROUP
350
D
  3
ACAD_LAYOUT
350
1A
  3
ACAD_MLINESTYLE
350
17
  3
ACAD_PLOTSETTINGS
350
19
  3
ACAD_PLOTSTYLENAME
350
E
  0
DICTIONARY
  5
D
102
{ACAD_REACTORS
330
C
102
}
330
C
100
AcDbDictionary
281
     1
  0
DICTIONARY
  5
1A
102
{ACAD_REACTORS
330
C
102
}
330
C
100
AcDbDictionary
281
     1
  3
Layout1
350
1E
  3
Layout2
350
26
  3
Model
350
22
  0
DICTIONARY
  5
17
102
{ACAD_REACTORS
330
C
102
}
330
C
100
AcDbDictionary
281
     1
  3
Standard
350
18
  0
DICTIONARY
  5
19
102
{ACAD_REACTORS
330
C
102
}
330
C
100
AcDbDictionary
281
     1
  0
ACDBDICTIONARYWDFLT
  5
E
102
{ACAD_REACTORS
330
C
102
}
330
C
100
AcDbDictionary
281
     1
  3
Normal
350
F
100
AcDbDictionaryWithDefault
340
F
  0
LAYOUT
  5
1E
102
{ACAD_REACTORS
330
1A
102
}
330
1A
100
AcDbPlotSettings
  1

  2
none_device
  4

  6

 40
0.0
 41
0.0
 42
0.0
 43
0.0
 44
0.0
 45
0.0
 46
0.0
 47
0.0
 48
0.0
 49
0.0
140
0.0
141
0.0
142
1.0
143
1.0
 70
   688
 72
     0
 73
     0
 74
     5
  7

 75
    16
147
1.0
148
0.0
149
0.0
100
AcDbLayout
  1
Layout1
 70
     1
 71
     1
 10
0.0
 20
0.0
 11
420.0
 21
297.0
 12
0.0
 22
0.0
 32
0.0
 14
1.0000000000E+20
 24
1.0000000000E+20
 34
1.0000000000E+20
 15
-1.0000000000E+20
 25
-1.0000000000E+20
 35
-1.0000000000E+20
146
0.0
 13
0.0
 23
0.0
 33
0.0
 16
1.0
 26
0.0
 36
0.0
 17
0.0
 27
1.0
 37
0.0
 76
     0
330
1B
  0
LAYOUT
  5
26
102
{ACAD_REACTORS
330
1A
102
}
330
1A
100
AcDbPlotSettings
  1

  2
none_device
  4

  6

 40
0.0
 41
0.0
 42
0.0
 43
0.0
 44
0.0
 45
0.0
 46
0.0
 47
0.0
 48
0.0
 49
0.0
140
0.0
141
0.0
142
1.0
143
1.0
 70
   688
 72
     0
 73
     0
 74
     5
  7

 75
    16
147
1.0
148
0.0
149
0.0
100
AcDbLayout
  1
Layout2
 70
     1
 71
     2
 10
0.0
 20
0.0
 11
0.0
 21
0.0
 12
0.0
 22
0.0
 32
0.0
 14
0.0
 24
0.0
 34
0.0
 15
0.0
 25
0.0
 35
0.0
146
0.0
 13
0.0
 23
0.0
 33
0.0
 16
1.0
 26
0.0
 36
0.0
 17
0.0
 27
1.0
 37
0.0
 76
     0
330
23
  0
LAYOUT
  5
22
102
{ACAD_REACTORS
330
1A
102
}
330
1A
100
AcDbPlotSettings
  1

  2
none_device
  4

  6

 40
0.0
 41
0.0
 42
0.0
 43
0.0
 44
0.0
 45
0.0
 46
0.0
 47
0.0
 48
0.0
 49
0.0
140
0.0
141
0.0
142
1.0
143
1.0
 70
  1712
 72
     0
 73
     0
 74
     0
  7

 75
     0
147
1.0
148
0.0
149
0.0
100
AcDbLayout
  1
Model
 70
     1
 71
     0
 10
0.0
 20
0.0
 11
297.0
 21
210.0
 12
0.0
 22
0.0
 32
0.0
 14
0.0
 24
0.0
 34
0.0
 15
297.0
 25
210.0
 35
0.0
146
0.0
 13
0.0
 23
0.0
 33
0.0
 16
1.0
 26
0.0
 36
0.0
 17
0.0
 27
1.0
 37
0.0
 76
     0
330
1F
331
29
  0
MLINESTYLE
  5
18
102
{ACAD_REACTORS
330
17
102
}
330
17
100
AcDbMlineStyle
  2
Standard
 70
     0
  3

 62
   256
 51
90.0
 52
90.0
 71
     2
 49
0.5
 62
   256
  6
BYLAYER
 49
-0.5
 62
   256
  6
BYLAYER
  0
ACDBPLACEHOLDER
  5
F
102
{ACAD_REACTORS
330
E
102
}
330
E
  0
ENDSEC
  0
EOF
