  0
SECTION
  2
HEADER
  9
$ACADVER
  1
AC1015
  9
$ACADMAINTVER
 70
     6
  9
$DWGCODEPAGE
  3
ANSI_1252
  9
$INSBASE
 10
0.0
 20
0.0
 30
0.0
  9
$EXTMIN
 10
0.0
 20
0.0
 30
0.0
  9
$EXTMAX
 10
297.0
 20
210.0
 30
0.0
  9
$LIMMIN
 10
0.0
 20
0.0
  9
$LIMMAX
 10
297.0
 20
210.0
  9
$ORTHOMODE
 70
     0
  9
$REGENMODE
 70
     1
  9
$FILLMODE
 70
     1
  9
$QTEXTMODE
 70
     0
  9
$MIRRTEXT
 70
     1
  9
$LTSCALE
 40
1.0
  9
$ATTMODE
 70
     1
  9
$TEXTSIZE
 40
2.0
  9
$TRACEWID
 40
1.0
  9
$TEXTSTYLE
  7
Standard
  9
$CLAYER
  8
0
  9
$CELTYPE
  6
ByLayer
  9
$CECOLOR
 62
   256
  9
$CELTSCALE
 40
1.0
  9
$DISPSILH
 70
     0
  9
$DIMSCALE
 40
1.0
  9
$DIMASZ
 40
3.0
  9
$DIMEXO
 40
0.0
  9
$DIMDLI
 40
3.75
  9
$DIMRND
 40
0.0
  9
$DIMDLE
 40
0.0
  9
$DIMEXE
 40
1.0
  9
$DIMTP
 40
0.0
  9
$DIMTM
 40
0.0
  9
$DIMTXT
 40
2.0
  9
$DIMCEN
 40
2.5
  9
$DIMTSZ
 40
0.0
  9
$DIMTOL
 70
     0
  9
$DIMLIM
 70
     0
  9
$DIMTIH
 70
     1
  9
$DIMTOH
 70
     1
  9
$DIMSE1
 70
     0
  9
$DIMSE2
 70
     0
  9
$DIMTAD
 70
     1
  9
$DIMZIN
 70
     0
  9
$DIMBLK
  1

  9
$DIMASO
 70
     1
  9
$DIMSHO
 70
     1
  9
$DIMPOST
  1

  9
$DIMAPOST
  1

  9
$DIMALT
 70
     0
  9
$DIMALTD
 70
     3
  9
$DIMALTF
 40
0.0393700787
  9
$DIMLFAC
 40
1.0
  9
$DIMTOFL
 70
     1
  9
$DIMTVP
 40
0.0
  9
$DIMTIX
 70
     0
  9
$DIMSOXD
 70
     0
  9
$DIMSAH
 70
     0
  9
$DIMBLK1
  1

  9
$DIMBLK2
  1

  9
$DIMSTYLE
  2
ISO-25
  9
$DIMCLRD
 70
     0
  9
$DIMCLRE
 70
     0
  9
$DIMCLRT
 70
     0
  9
$DIMTFAC
 40
1.0
  9
$DIMGAP
 40
1.524
  9
$DIMJUST
 70
     0
  9
$DIMSD1
 70
     0
  9
$DIMSD2
 70
     0
  9
$DIMTOLJ
 70
     0
  9
$DIMTZIN
 70
     0
  9
$DIMALTZ
 70
     0
  9
$DIMALTTZ
 70
     0
  9
$DIMUPT
 70
     0
  9
$DIMDEC
 70
     2
  9
$DIMTDEC
 70
     3
  9
$DIMALTU
 70
     2
  9
$DIMALTTD
 70
     3
  9
$DIMTXSTY
  7
Standard
  9
$DIMAUNIT
 70
     0
  9
$DIMADEC
 70
     2
  9
$DIMALTRND
 40
0.0
  9
$DIMAZIN
 70
     0
  9
$DIMDSEP
 70
    44
  9
$DIMATFIT
 70
     3
  9
$DIMFRAC
 70
     0
  9
$DIMLDRBLK
  1

  9
$DIMLUNIT
 70
     2
  9
$DIMLWD
 70
    -2
  9
$DIMLWE
 70
    -2
  9
$DIMTMOVE
 70
     0
  9
$LUNITS
 70
     2
  9
$LUPREC
 70
     2
  9
$SKETCHINC
 40
1.0
  9
$FILLETRAD
 40
10.0
  9
$AUNITS
 70
     0
  9
$AUPREC
 70
     2
  9
$MENU
  1
.
  9
$ELEVATION
 40
0.0
  9
$PELEVATION
 40
0.0
  9
$THICKNESS
 40
0.0
  9
$LIMCHECK
 70
     0
  9
$CHAMFERA
 40
10.0
  9
$CHAMFERB
 40
10.0
  9
$CHAMFERC
 40
20.0
  9
$CHAMFERD
 40
0.0
  9
$SKPOLY
 70
     0
  9
$TDCREATE
 40
2456045.469440694
  9
$TDUCREATE
 40
2456045.386107361
  9
$TDUPDATE
 40
2456045.469442141
  9
$TDUUPDATE
 40
2456045.386108808
  9
$TDINDWG
 40
0.0000000116
  9
$TDUSRTIMER
 40
0.0000000116
  9
$USRTIMER
 70
     1
  9
$ANGBASE
 50
0.0
  9
$ANGDIR
 70
     0
  9
$PDMODE
 70
     0
  9
$PDSIZE
 40
-1.0
  9
$PLINEWID
 40
0.0
  9
$SPLFRAME
 70
     0
  9
$SPLINETYPE
 70
     6
  9
$SPLINESEGS
 70
     8
  9
$HANDSEED
  5
24C
  9
$SURFTAB1
 70
     6
  9
$SURFTAB2
 70
     6
  9
$SURFTYPE
 70
     6
  9
$SURFU
 70
     6
  9
$SURFV
 70
     6
  9
$UCSBASE
  2

  9
$UCSNAME
  2

  9
$UCSORG
 10
0.0
 20
0.0
 30
0.0
  9
$UCSXDIR
 10
1.0
 20
0.0
 30
0.0
  9
$UCSYDIR
 10
0.0
 20
1.0
 30
0.0
  9
$UCSORTHOREF
  2

  9
$UCSORTHOVIEW
 70
     0
  9
$UCSORGTOP
 10
0.0
 20
0.0
 30
0.0
  9
$UCSORGBOTTOM
 10
0.0
 20
0.0
 30
0.0
  9
$UCSORGLEFT
 10
0.0
 20
0.0
 30
0.0
  9
$UCSORGRIGHT
 10
0.0
 20
0.0
 30
0.0
  9
$UCSORGFRONT
 10
0.0
 20
0.0
 30
0.0
  9
$UCSORGBACK
 10
0.0
 20
0.0
 30
0.0
  9
$PUCSBASE
  2

  9
$PUCSNAME
  2

  9
$PUCSORG
 10
0.0
 20
0.0
 30
0.0
  9
$PUCSXDIR
 10
1.0
 20
0.0
 30
0.0
  9
$PUCSYDIR
 10
0.0
 20
1.0
 30
0.0
  9
$PUCSORTHOREF
  2

  9
$PUCSORTHOVIEW
 70
     0
  9
$PUCSORGTOP
 10
0.0
 20
0.0
 30
0.0
  9
$PUCSORGBOTTOM
 10
0.0
 20
0.0
 30
0.0
  9
$PUCSORGLEFT
 10
0.0
 20
0.0
 30
0.0
  9
$PUCSORGRIGHT
 10
0.0
 20
0.0
 30
0.0
  9
$PUCSORGFRONT
 10
0.0
 20
0.0
 30
0.0
  9
$PUCSORGBACK
 10
0.0
 20
0.0
 30
0.0
  9
$USERI1
 70
     0
  9
$USERI2
 70
     0
  9
$USERI3
 70
     0
  9
$USERI4
 70
     0
  9
$USERI5
 70
     0
  9
$USERR1
 40
0.0
  9
$USERR2
 40
0.0
  9
$USERR3
 40
0.0
  9
$USERR4
 40
0.0
  9
$USERR5
 40
0.0
  9
$WORLDVIEW
 70
     1
  9
$SHADEDGE
 70
     3
  9
$SHADEDIF
 70
    70
  9
$TILEMODE
 70
     1
  9
$MAXACTVP
 70
    64
  9
$PINSBASE
 10
0.0
 20
0.0
 30
0.0
  9
$PLIMCHECK
 70
     0
  9
$PEXTMIN
 10
1.0000000000E+20
 20
1.0000000000E+20
 30
1.0000000000E+20
  9
$PEXTMAX
 10
-1.0000000000E+20
 20
-1.0000000000E+20
 30
-1.0000000000E+20
  9
$PLIMMIN
 10
0.0
 20
0.0
  9
$PLIMMAX
 10
420.0
 20
297.0
  9
$UNITMODE
 70
     0
  9
$VISRETAIN
 70
     1
  9
$PLINEGEN
 70
     0
  9
$PSLTSCALE
 70
     1
  9
$TREEDEPTH
 70
  3020
  9
$CMLSTYLE
  2
Standard
  9
$CMLJUST
 70
     0
  9
$CMLSCALE
 40
20.0
  9
$PROXYGRAPHICS
 70
     1
  9
$MEASUREMENT
 70
     1
  9
$CELWEIGHT
370
    -1
  9
$ENDCAPS
280
     0
  9
$JOINSTYLE
280
     0
  9
$LWDISPLAY
290
     1
  9
$INSUNITS
 70
     4
  9
$HYPERLINKBASE
  1

  9
$STYLESHEET
  1

  9
$XEDIT
290
     1
  9
$CEPSNTYPE
380
     0
  9
$PSTYLEMODE
290
     1
  9
$FINGERPRINTGUID
  2
{4F01F5B5-9D22-4259-8D5C-8F4989E65C07}
  9
$VERSIONGUID
  2
{FAEB1C32-E019-11D5-929B-00C0DF256EC4}
  9
$EXTNAMES
290
     1
  9
$PSVPSCALE
 40
0.0
  9
$OLESTARTUP
290
     0
  0
ENDSEC
  0
SECTION
  2
CLASSES
  0
CLASS
  1
ACDBDICTIONARYWDFLT
  2
AcDbDictionaryWithDefault
  3
ObjectDBX Classes
 90
        0
280
     0
281
     0
  0
CLASS
  1
VISUALSTYLE
  2
AcDbVisualStyle
  3
ObjectDBX Classes
 90
     4095
280
     0
281
     0
  0
CLASS
  1
MATERIAL
  2
AcDbMaterial
  3
ObjectDBX Classes
 90
     1153
280
     0
281
     0
  0
CLASS
  1
ACDBPLACEHOLDER
  2
AcDbPlaceHolder
  3
ObjectDBX Classes
 90
        0
280
     0
281
     0
  0
CLASS
  1
LAYOUT
  2
AcDbLayout
  3
ObjectDBX Classes
 90
        0
280
     0
281
     0
  0
ENDSEC
  0
SECTION
  2
TABLES
  0
TABLE
  2
VPORT
  5
8
330
0
100
AcDbSymbolTable
 70
     1
  0
VPORT
  5
29
330
8
100
AcDbSymbolTableRecord
100
AcDbViewportTableRecord
  2
*Active
 70
     0
 10
0.0
 20
0.0
 11
1.0
 21
1.0
 12
148.5
 22
105.0
 13
0.0
 23
0.0
 14
10.0
 24
10.0
 15
10.0
 25
10.0
 16
0.0
 26
0.0
 36
1.0
 17
0.0
 27
0.0
 37
0.0
 40
210.0
 41
1.4142857143
 42
50.0
 43
0.0
 44
0.0
 50
0.0
 51
0.0
 71
     0
 72
  2000
 73
     1
 74
     3
 75
     0
 76
     0
 77
     0
 78
     0
281
     0
 65
     1
110
0.0
120
0.0
130
0.0
111
1.0
121
0.0
131
0.0
112
0.0
122
1.0
132
0.0
 79
     0
146
0.0
  0
ENDTAB
  0
TABLE
  2
LTYPE
  5
5
330
0
100
AcDbSymbolTable
 70
     6
  0
LTYPE
  5
14
330
5
100
AcDbSymbolTableRecord
100
AcDbLinetypeTableRecord
  2
ByBlock
 70
     0
  3

 72
    65
 73
     0
 40
0.0
  0
LTYPE
  5
15
330
5
100
AcDbSymbolTableRecord
100
AcDbLinetypeTableRecord
  2
ByLayer
 70
     0
  3

 72
    65
 73
     0
 40
0.0
  0
LTYPE
  5
16
330
5
100
AcDbSymbolTableRecord
100
AcDbLinetypeTableRecord
  2
Continuous
 70
     0
  3
Solid line
 72
    65
 73
     0
 40
0.0
  0
LTYPE
  5
3F
330
5
100
AcDbSymbolTableRecord
100
AcDbLinetypeTableRecord
  2
HIDDEN
 70
     0
  3
Hidden __ __ __ __ __ __ __ __ __ __ __ __ __ __
 72
    65
 73
     2
 40
1.905
 49
1.27
 74
     0
 49
-0.635
 74
     0
  0
LTYPE
  5
40
330
5
100
AcDbSymbolTableRecord
100
AcDbLinetypeTableRecord
  2
PHANTOM
 70
     0
  3
Phantom ______  __  __  ______  __  __  ______
 72
    65
 73
     6
 40
12.7
 49
6.35
 74
     0
 49
-1.27
 74
     0
 49
1.27
 74
     0
 49
-1.27
 74
     0
 49
1.27
 74
     0
 49
-1.27
 74
     0
  0
LTYPE
  5
41
330
5
100
AcDbSymbolTableRecord
100
AcDbLinetypeTableRecord
  2
CENTER
 70
     0
  3
Center ____ _ ____ _ ____ _ ____ _ ____ _ ____
 72
    65
 73
     4
 40
10.16
 49
6.35
 74
     0
 49
-1.27
 74
     0
 49
1.27
 74
     0
 49
-1.27
 74
     0
  0
LTYPE
  5
42
330
5
100
AcDbSymbolTableRecord
100
AcDbLinetypeTableRecord
  2
CENTERX2
 70
     0
  3
Center (2x) ________  __  ________  __  _____
 72
    65
 73
     4
 40
20.32
 49
12.7
 74
     0
 49
-2.54
 74
     0
 49
2.54
 74
     0
 49
-2.54
 74
     0
  0
LTYPE
  5
43
330
5
100
AcDbSymbolTableRecord
100
AcDbLinetypeTableRecord
  2
DOT2
 70
     0
  3
Dot (.5x) ........................................
 72
    65
 73
     2
 40
0.635
 49
0.0
 74
     0
 49
-0.635
 74
     0
  0
ENDTAB
  0
TABLE
  2
LAYER
  5
2
330
0
100
AcDbSymbolTable
 70
     5
  0
LAYER
  5
10
330
2
100
AcDbSymbolTableRecord
100
AcDbLayerTableRecord
  2
0
 70
     0
 62
     7
  6
Continuous
370
    -3
390
F
  0
LAYER
  5
44
330
2
100
AcDbSymbolTableRecord
100
AcDbLayerTableRecord
  2
FORMAT
 70
     0
 62
     7
  6
Continuous
370
    -3
390
F
  0
LAYER
  5
45
330
2
100
AcDbSymbolTableRecord
100
AcDbLayerTableRecord
  2
VERMASSUNG
 70
     0
 62
     7
  6
Continuous
370
    -3
390
F
  0
LAYER
  5
46
330
2
100
AcDbSymbolTableRecord
100
AcDbLayerTableRecord
  2
KOPF_DÜNN
 70
     0
 62
     7
  6
Continuous
370
    -3
390
F
  0
LAYER
  5
47
330
2
100
AcDbSymbolTableRecord
100
AcDbLayerTableRecord
  2
KOPF_DICK
 70
     0
 62
     7
  6
Continuous
370
    15
390
F
  0
ENDTAB
  0
TABLE
  2
STYLE
  5
3
330
0
100
AcDbSymbolTable
 70
     2
  0
STYLE
  5
11
330
3
100
AcDbSymbolTableRecord
100
AcDbTextStyleTableRecord
  2
Standard
 70
     0
 40
0.0
 41
1.0
 50
0.0
 71
     0
 42
2.0
  3
txt
  4

  0
STYLE
  5
48
330
3
100
AcDbSymbolTableRecord
100
AcDbTextStyleTableRecord
  2
SLDTEXTSTYLE0
 70
     0
 40
0.0
 41
0.7
 50
0.0
 71
     0
 42
0.2
  3
TXT
  4

  0
ENDTAB
  0
TABLE
  2
VIEW
  5
6
330
0
100
AcDbSymbolTable
 70
     0
  0
ENDTAB
  0
TABLE
  2
UCS
  5
7
330
0
100
AcDbSymbolTable
 70
     0
  0
ENDTAB
  0
TABLE
  2
APPID
  5
9
330
0
100
AcDbSymbolTable
 70
     1
  0
APPID
  5
12
330
9
100
AcDbSymbolTableRecord
100
AcDbRegAppTableRecord
  2
ACAD
 70
     0
  0
ENDTAB
  0
TABLE
  2
DIMSTYLE
  5
A
330
0
100
AcDbSymbolTable
 70
     4
100
AcDbDimStyleTable
  0
DIMSTYLE
105
27
330
A
100
AcDbSymbolTableRecord
100
AcDbDimStyleTableRecord
  2
ISO-25
 70
     0
 41
2.5
 42
0.625
 43
3.75
 44
1.25
 73
     0
 74
     0
 77
     1
 78
     8
140
2.5
141
2.5
143
0.0393700787
147
0.625
171
     3
172
     1
178
     0
271
     2
272
     2
274
     3
278
    44
283
     0
284
     8
340
11
  0
DIMSTYLE
105
1B9
102
{ACAD_REACTORS
330
1B8
330
1D9
102
}
330
A
100
AcDbSymbolTableRecord
100
AcDbDimStyleTableRecord
  2
SLDDIMSTYLE0
 70
     0
 41
3.0
 44
0.0
 45
0.000000001
 47
0.1
 48
0.1
 71
     1
 73
     0
 74
     0
 77
     1
 78
    12
 79
     3
140
2.0
147
0.5
173
     1
178
     0
271
     2
272
     1
276
     2
284
     8
340
48
  0
DIMSTYLE
105
1C6
102
{ACAD_REACTORS
330
1C5
330
1E5
102
}
330
A
100
AcDbSymbolTableRecord
100
AcDbDimStyleTableRecord
  2
SLDDIMSTYLE1
 70
     0
 41
3.0
 44
0.0
 45
0.000000001
 73
     0
 74
     0
 77
     1
 78
    12
 79
     3
140
2.0
147
0.5
173
     1
178
     0
271
     2
272
     3
276
     2
284
    12
340
48
  0
DIMSTYLE
105
1D1
102
{ACAD_REACTORS
330
1D0
102
}
330
A
100
AcDbSymbolTableRecord
100
AcDbDimStyleTableRecord
  2
SLDDIMSTYLE2
 70
     0
 41
3.0
 44
0.0
 73
     0
 74
     0
 77
     1
 78
    12
 79
     3
140
2.0
147
0.5
173
     1
178
     0
179
     2
272
     3
276
     2
284
    12
340
48
  0
ENDTAB
  0
TABLE
  2
BLOCK_RECORD
  5
1
330
0
100
AcDbSymbolTable
 70
     7
  0
BLOCK_RECORD
  5
1F
330
1
100
AcDbSymbolTableRecord
100
AcDbBlockTableRecord
  2
*Model_Space
340
22
  0
BLOCK_RECORD
  5
1B
330
1
100
AcDbSymbolTableRecord
100
AcDbBlockTableRecord
  2
*Paper_Space
340
1E
  0
BLOCK_RECORD
  5
23
330
1
100
AcDbSymbolTableRecord
100
AcDbBlockTableRecord
  2
*Paper_Space0
340
26
  0
BLOCK_RECORD
  5
1BA
330
1
100
AcDbSymbolTableRecord
100
AcDbBlockTableRecord
  2
_D
340
0
  0
BLOCK_RECORD
  5
1C7
330
1
100
AcDbSymbolTableRecord
100
AcDbBlockTableRecord
  2
_D_1
340
0
  0
BLOCK_RECORD
  5
1D2
330
1
100
AcDbSymbolTableRecord
100
AcDbBlockTableRecord
  2
_D_2
340
0
  0
BLOCK_RECORD
  5
1DA
330
1
100
AcDbSymbolTableRecord
100
AcDbBlockTableRecord
  2
_D_3
340
0
  0
BLOCK_RECORD
  5
1E6
330
1
100
AcDbSymbolTableRecord
100
AcDbBlockTableRecord
  2
_D_4
340
0
  0
BLOCK_RECORD
  5
23F
330
1
100
AcDbSymbolTableRecord
100
AcDbBlockTableRecord
  2
SW_CENTERMARKSYMBOL_0
340
0
102
{BLKREFS
331
24A
102
}
  0
ENDTAB
  0
ENDSEC
  0
SECTION
  2
BLOCKS
  0
BLOCK
  5
20
330
1F
100
AcDbEntity
  8
0
100
AcDbBlockBegin
  2
*Model_Space
 70
     0
 10
0.0
 20
0.0
 30
0.0
  3
*Model_Space
  1

  0
ENDBLK
  5
21
330
1F
100
AcDbEntity
  8
0
100
AcDbBlockEnd
  0
BLOCK
  5
1C
330
1B
100
AcDbEntity
 67
     1
  8
0
100
AcDbBlockBegin
  2
*Paper_Space
 70
     0
 10
0.0
 20
0.0
 30
0.0
  3
*Paper_Space
  1

  0
ENDBLK
  5
1D
330
1B
100
AcDbEntity
 67
     1
  8
0
100
AcDbBlockEnd
  0
BLOCK
  5
24
330
23
100
AcDbEntity
  8
0
100
AcDbBlockBegin
  2
*Paper_Space0
 70
     0
 10
0.0
 20
0.0
 30
0.0
  3
*Paper_Space0
  1

  0
ENDBLK
  5
25
330
23
100
AcDbEntity
  8
0
100
AcDbBlockEnd
  0
BLOCK
  5
1BB
330
1BA
100
AcDbEntity
  8
0
100
AcDbBlockBegin
  2
_D
 70
     0
 10
0.0
 20
0.0
 30
0.0
  3
_D
  1

  0
SOLID
  5
1BD
330
1BA
100
AcDbEntity
  8
VERMASSUNG
100
AcDbTrace
 10
243.4556491597
 20
73.3782097983
 30
0.0
 11
240.4556491597
 21
73.8282097983
 31
0.0
 12
240.4556491597
 22
72.9282097983
 32
0.0
 13
240.4556491597
 23
72.9282097983
 33
0.0
  0
SOLID
  5
1BE
330
1BA
100
AcDbEntity
  8
VERMASSUNG
100
AcDbTrace
 10
178.4556491597
 20
73.3782097983
 30
0.0
 11
181.4556491597
 21
72.9282097983
 31
0.0
 12
181.4556491597
 22
73.8282097983
 32
0.0
 13
181.4556491597
 23
73.8282097983
 33
0.0
  0
LINE
  5
1BF
330
1BA
100
AcDbEntity
  8
VERMASSUNG
100
AcDbLine
 10
243.4556491597
 20
83.4117648771
 30
0.0
 11
243.4556491597
 21
72.3782097983
 31
0.0
  0
LINE
  5
1C0
330
1BA
100
AcDbEntity
  8
VERMASSUNG
100
AcDbLine
 10
178.4556491597
 20
97.4117648771
 30
0.0
 11
178.4556491597
 21
72.3782097983
 31
0.0
  0
LINE
  5
1C1
330
1BA
100
AcDbEntity
  8
VERMASSUNG
100
AcDbLine
 10
243.4556491597
 20
73.3782097983
 30
0.0
 11
178.4556491597
 21
73.3782097983
 31
0.0
  0
MTEXT
  5
1C2
330
1BA
100
AcDbEntity
  8
VERMASSUNG
100
AcDbMText
 10
206.4056489727
 20
75.9563451615
 30
0.1
 40
2.0
 41
0.0
 71
     1
 72
     1
  1
65
  7
SLDTEXTSTYLE0
 73
     1
 44
1.0
  0
MTEXT
  5
1C3
330
1BA
100
AcDbEntity
  8
VERMASSUNG
100
AcDbMText
 10
212.1931490748
 20
75.9563451615
 30
0.1
 40
2.0
 41
0.0
 71
     1
 72
     1
  1

  7
SLDTEXTSTYLE0
 73
     1
 44
1.0
  0
MTEXT
  5
1C4
330
1BA
100
AcDbEntity
  8
VERMASSUNG
100
AcDbMText
 10
212.2056493646
 20
75.4618112987
 30
0.1
 40
1.5
 41
0.0
 71
     1
 72
     1
  1
±0.1
  7
SLDTEXTSTYLE0
 73
     1
 44
1.0
  0
ENDBLK
  5
1BC
330
1BA
100
AcDbEntity
  8
0
100
AcDbBlockEnd
  0
BLOCK
  5
1C8
330
1C7
100
AcDbEntity
  8
0
100
AcDbBlockBegin
  2
_D_1
 70
     0
 10
0.0
 20
0.0
 30
0.0
  3
_D_1
  1

  0
SOLID
  5
1CA
330
1C7
100
AcDbEntity
  8
VERMASSUNG
100
AcDbTrace
 10
243.4556491597
 20
63.989064694
 30
0.0
 11
240.4556491597
 21
64.439064694
 31
0.0
 12
240.4556491597
 22
63.539064694
 32
0.0
 13
240.4556491597
 23
63.539064694
 33
0.0
  0
SOLID
  5
1CB
330
1C7
100
AcDbEntity
  8
VERMASSUNG
100
AcDbTrace
 10
140.4556491597
 20
63.989064694
 30
0.0
 11
143.4556491597
 21
63.539064694
 31
0.0
 12
143.4556491597
 22
64.439064694
 32
0.0
 13
143.4556491597
 23
64.439064694
 33
0.0
  0
LINE
  5
1CC
330
1C7
100
AcDbEntity
  8
VERMASSUNG
100
AcDbLine
 10
243.4556491597
 20
83.4117648771
 30
0.0
 11
243.4556491597
 21
62.989064694
 31
0.0
  0
LINE
  5
1CD
330
1C7
100
AcDbEntity
  8
VERMASSUNG
100
AcDbLine
 10
140.4556491597
 20
108.1194268846
 30
0.0
 11
140.4556491597
 21
62.989064694
 31
0.0
  0
LINE
  5
1CE
330
1C7
100
AcDbEntity
  8
VERMASSUNG
100
AcDbLine
 10
243.4556491597
 20
63.989064694
 30
0.0
 11
140.4556491597
 21
63.989064694
 31
0.0
  0
MTEXT
  5
1CF
330
1C7
100
AcDbEntity
  8
VERMASSUNG
100
AcDbMText
 10
189.1556490267
 20
66.5672000572
 30
0.1
 40
2.0
 41
0.0
 71
     1
 72
     1
  1
103
  7
SLDTEXTSTYLE0
 73
     1
 44
1.0
  0
ENDBLK
  5
1C9
330
1C7
100
AcDbEntity
  8
0
100
AcDbBlockEnd
  0
BLOCK
  5
1D3
330
1D2
100
AcDbEntity
  8
0
100
AcDbBlockBegin
  2
_D_2
 70
     0
 10
0.0
 20
0.0
 30
0.0
  3
_D_2
  1

  0
ARC
  5
1D5
330
1D2
100
AcDbEntity
  8
VERMASSUNG
100
AcDbCircle
 10
243.4920074281
 20
83.4117648771
 30
0.0
 40
12.90778155150431
100
AcDbArc
 50
0.0
 51
95.0047861234
  0
SOLID
  5
1D6
330
1D2
100
AcDbEntity
  8
VERMASSUNG
100
AcDbTrace
 10
256.3997889796
 20
83.4117648771
 30
0.0
 11
256.5050571239
 21
86.4435001258
 31
0.0
 12
255.6109176216
 22
86.3409596437
 32
0.0
 13
255.6109176216
 23
86.3409596437
 33
0.0
  0
SOLID
  5
1D7
330
1D2
100
AcDbEntity
  8
VERMASSUNG
100
AcDbTrace
 10
242.3659460131
 20
96.2703344037
 30
0.0
 11
245.3527932887
 21
95.7400105852
 31
0.0
 12
245.3769390277
 22
96.6396866288
 32
0.0
 13
245.3769390277
 23
96.6396866288
 33
0.0
  0
MTEXT
  5
1D8
330
1D2
100
AcDbEntity
  8
VERMASSUNG
100
AcDbMText
 10
251.8154781241
 20
96.7887398489
 30
0.1
 40
2.0
 41
0.0
 71
     1
 72
     1
  1
95°
  7
SLDTEXTSTYLE0
 11
0.7373055534122288
 21
-0.6755594133068438
 31
0.0
 73
     1
 44
1.0
  0
ENDBLK
  5
1D4
330
1D2
100
AcDbEntity
  8
0
100
AcDbBlockEnd
  0
BLOCK
  5
1DB
330
1DA
100
AcDbEntity
  8
0
100
AcDbBlockBegin
  2
_D_3
 70
     0
 10
0.0
 20
0.0
 30
0.0
  3
_D_3
  1

  0
SOLID
  5
1DD
330
1DA
100
AcDbEntity
  8
VERMASSUNG
100
AcDbTrace
 10
264.5533894748
 20
128.4117648771
 30
0.0
 11
264.1033894748
 21
125.4117648771
 31
0.0
 12
265.0033894748
 22
125.4117648771
 32
0.0
 13
265.0033894748
 23
125.4117648771
 33
0.0
  0
SOLID
  5
1DE
330
1DA
100
AcDbEntity
  8
VERMASSUNG
100
AcDbTrace
 10
264.5533894748
 20
83.4117648771
 30
0.0
 11
265.0033894748
 21
86.4117648771
 31
0.0
 12
264.1033894748
 22
86.4117648771
 32
0.0
 13
264.1033894748
 23
86.4117648771
 33
0.0
  0
LINE
  5
1DF
330
1DA
100
AcDbEntity
  8
VERMASSUNG
100
AcDbLine
 10
243.4556491597
 20
128.4117648771
 30
0.0
 11
265.5533894748
 21
128.4117648771
 31
0.0
  0
LINE
  5
1E0
330
1DA
100
AcDbEntity
  8
VERMASSUNG
100
AcDbLine
 10
243.4556491597
 20
83.4117648771
 30
0.0
 11
265.5533894748
 21
83.4117648771
 31
0.0
  0
LINE
  5
1E1
330
1DA
100
AcDbEntity
  8
VERMASSUNG
100
AcDbLine
 10
264.5533894748
 20
128.4117648771
 30
0.0
 11
264.5533894748
 21
83.4117648771
 31
0.0
  0
MTEXT
  5
1E2
330
1DA
100
AcDbEntity
  8
VERMASSUNG
100
AcDbMText
 10
261.9752541117
 20
101.26176486
 30
0.1
 40
2.0
 41
0.0
 71
     1
 72
     1
  1
45
  7
SLDTEXTSTYLE0
 11
-7.044195017643634E-15
 21
1.0
 31
0.0
 73
     1
 44
1.0
  0
MTEXT
  5
1E3
330
1DA
100
AcDbEntity
  8
VERMASSUNG
100
AcDbMText
 10
261.9752541117
 20
107.249265088
 30
0.1
 40
2.0
 41
0.0
 71
     1
 72
     1
  1

  7
SLDTEXTSTYLE0
 11
-7.044195017643634E-15
 21
1.0
 31
0.0
 73
     1
 44
1.0
  0
MTEXT
  5
1E4
330
1DA
100
AcDbEntity
  8
VERMASSUNG
100
AcDbMText
 10
262.4697879744
 20
107.2617649121
 30
0.1
 40
1.5
 41
0.0
 71
     1
 72
     1
  1
±0.1
  7
SLDTEXTSTYLE0
 11
-7.044195017643634E-15
 21
1.0
 31
0.0
 73
     1
 44
1.0
  0
ENDBLK
  5
1DC
330
1DA
100
AcDbEntity
  8
0
100
AcDbBlockEnd
  0
BLOCK
  5
1E7
330
1E6
100
AcDbEntity
  8
0
100
AcDbBlockBegin
  2
_D_4
 70
     0
 10
0.0
 20
0.0
 30
0.0
  3
_D_4
  1

  0
SOLID
  5
1E9
330
1E6
100
AcDbEntity
  8
VERMASSUNG
100
AcDbTrace
 10
126.8169772377
 20
159.9117648771
 30
0.0
 11
126.3669772377
 21
156.9117648771
 31
0.0
 12
127.2669772377
 22
156.9117648771
 32
0.0
 13
127.2669772377
 23
156.9117648771
 33
0.0
  0
SOLID
  5
1EA
330
1E6
100
AcDbEntity
  8
VERMASSUNG
100
AcDbTrace
 10
126.8169772377
 20
96.9117648771
 30
0.0
 11
127.2669772377
 21
99.9117648771
 31
0.0
 12
126.3669772377
 22
99.9117648771
 32
0.0
 13
126.3669772377
 23
99.9117648771
 33
0.0
  0
LINE
  5
1EB
330
1E6
100
AcDbEntity
  8
VERMASSUNG
100
AcDbLine
 10
178.9556491597
 20
159.9117648771
 30
0.0
 11
125.8169772377
 21
159.9117648771
 31
0.0
  0
LINE
  5
1EC
330
1E6
100
AcDbEntity
  8
VERMASSUNG
100
AcDbLine
 10
178.9556491597
 20
96.9117648771
 30
0.0
 11
125.8169772377
 21
96.9117648771
 31
0.0
  0
LINE
  5
1ED
330
1E6
100
AcDbEntity
  8
VERMASSUNG
100
AcDbLine
 10
126.8169772377
 20
159.9117648771
 30
0.0
 11
126.8169772377
 21
96.9117648771
 31
0.0
  0
MTEXT
  5
1EE
330
1E6
100
AcDbEntity
  8
VERMASSUNG
100
AcDbMText
 10
124.0388417487
 20
122.0067647679
 30
0.5038341414
 40
2.0
 41
0.0
 71
     1
 72
     1
  1
PSC
  7
SLDTEXTSTYLE0
 11
-7.044195017643634E-15
 21
1.0
 31
0.0
 73
     1
 44
1.0
  0
MTEXT
  5
1EF
330
1E6
100
AcDbEntity
  8
VERMASSUNG
100
AcDbMText
 10
124.2388417582
 20
126.60676487
 30
0.5038341414
 40
2.0
 41
0.0
 71
     1
 72
     1
  1
%%c
  7
SLDTEXTSTYLE0
 11
-7.044195017643634E-15
 21
1.0
 31
0.0
 73
     1
 44
1.0
  0
MTEXT
  5
1F0
330
1E6
100
AcDbEntity
  8
VERMASSUNG
100
AcDbMText
 10
124.0388417487
 20
130.2167653499
 30
0.5038341414
 40
2.0
 41
0.0
 71
     1
 72
     1
  1
63
  7
SLDTEXTSTYLE0
 11
-7.044195017643634E-15
 21
1.0
 31
0.0
 73
     1
 44
1.0
  0
ENDBLK
  5
1E8
330
1E6
100
AcDbEntity
  8
0
100
AcDbBlockEnd
  0
BLOCK
  5
240
330
23F
100
AcDbEntity
  8
0
100
AcDbBlockBegin
  2
SW_CENTERMARKSYMBOL_0
 70
     0
 10
0.0
 20
0.0
 30
0.0
  3
SW_CENTERMARKSYMBOL_0
  1

  0
LINE
  5
242
330
23F
100
AcDbEntity
  8
VERMASSUNG
 62
     0
100
AcDbLine
 10
0.0
 20
0.0
 30
0.0
 11
0.0
 21
2.5
 31
0.0
  0
LINE
  5
243
330
23F
100
AcDbEntity
  8
VERMASSUNG
 62
     0
100
AcDbLine
 10
0.0
 20
0.0
 30
0.0
 11
-2.5
 21
0.0
 31
0.0
  0
LINE
  5
244
330
23F
100
AcDbEntity
  8
VERMASSUNG
 62
     0
100
AcDbLine
 10
0.0
 20
0.0
 30
0.0
 11
0.0
 21
-2.5
 31
0.0
  0
LINE
  5
245
330
23F
100
AcDbEntity
  8
VERMASSUNG
 62
     0
100
AcDbLine
 10
0.0
 20
0.0
 30
0.0
 11
2.5
 21
0.0
 31
0.0
  0
LINE
  5
246
330
23F
100
AcDbEntity
  8
VERMASSUNG
 62
     0
100
AcDbLine
 10
0.0
 20
5.0
 30
0.0
 11
0.0
 21
34.0
 31
0.0
  0
LINE
  5
247
330
23F
100
AcDbEntity
  8
VERMASSUNG
 62
     0
100
AcDbLine
 10
-5.0
 20
0.0
 30
0.0
 11
-34.0
 21
0.0
 31
0.0
  0
LINE
  5
248
330
23F
100
AcDbEntity
  8
VERMASSUNG
 62
     0
100
AcDbLine
 10
0.0
 20
-5.0
 30
0.0
 11
0.0
 21
-34.0
 31
0.0
  0
LINE
  5
249
330
23F
100
AcDbEntity
  8
VERMASSUNG
 62
     0
100
AcDbLine
 10
5.0
 20
0.0
 30
0.0
 11
34.0
 21
0.0
 31
0.0
  0
ENDBLK
  5
241
330
23F
100
AcDbEntity
  8
0
100
AcDbBlockEnd
  0
ENDSEC
  0
SECTION
  2
ENTITIES
  0
MTEXT
  5
49
330
1F
100
AcDbEntity
  8
KOPF_DÜNN
100
AcDbMText
 10
13.8892156294
 20
23.8442973028
 30
0.0
 40
3.0
 41
0.0
 71
     1
 72
     1
  1
PS6.PCE.LLA.065
  7
SLDTEXTSTYLE0
 73
     1
 44
1.0
  0
MTEXT
  5
4A
330
1F
100
AcDbEntity
  8
VERMASSUNG
100
AcDbMText
 10
13.9329988022
 20
28.8834360957
 30
0.0
 40
3.0
 41
0.0
 71
     1
 72
     1
  1
Klemmhalter links_Turning tool left 95° /80°
  7
SLDTEXTSTYLE0
 73
     1
 44
1.0
  0
MTEXT
  5
4B
330
1F
100
AcDbEntity
  8
VERMASSUNG
100
AcDbMText
 10
98.8601118557
 20
13.8365368179
 30
0.0
 40
2.0
 41
0.0
 71
     1
 72
     1
  1
Datum: 27.04.2012
  7
SLDTEXTSTYLE0
 73
     1
 44
1.0
  0
MTEXT
  5
4C
330
1F
100
AcDbEntity
  8
VERMASSUNG
100
AcDbMText
 10
13.933048693
 20
18.0482802738
 30
0.0
 40
2.0
 41
0.0
 71
     1
 72
     1
  1
PSC ø63 / CN..16 06..
  7
SLDTEXTSTYLE0
 73
     1
 44
1.0
  0
MTEXT
  5
4D
330
1F
100
AcDbEntity
  8
VERMASSUNG
100
AcDbMText
 10
13.9808475933
 20
13.9090973692
 30
0.0
 40
2.0
 41
0.0
 71
     1
 72
     1
  1
Gewicht: 1340g
  7
SLDTEXTSTYLE0
 73
     1
 44
1.0
  0
LINE
  5
4E
330
1F
100
AcDbEntity
  8
0
  6
Continuous
 62
     7
370
    15
100
AcDbLine
 10
242.0130723397
 20
99.2400135573
 30
0.0
 11
241.3493165979
 21
99.9001331757
 31
0.0
  0
LINE
  5
4F
330
1F
100
AcDbEntity
  8
0
  6
Continuous
 62
     7
370
    15
100
AcDbLine
 10
226.9462508541
 20
85.341920179
 30
0.0
 11
227.6100065959
 21
84.6818005606
 31
0.0
  0
LINE
  5
50
330
1F
100
AcDbEntity
  8
0
  6
Continuous
 62
     7
370
    15
100
AcDbLine
 10
231.8136109901
 20
90.9365540414
 30
0.0
 11
232.9711854372
 21
90.1999133353
 31
0.0
  0
LINE
  5
51
330
1F
100
AcDbEntity
  8
0
  6
Continuous
 62
     7
370
    15
100
AcDbLine
 10
212.2834418395
 20
159.9117648771
 30
0.0
 11
178.9556491597
 21
159.9117648771
 31
0.0
  0
LINE
  5
52
330
1F
100
AcDbEntity
  8
0
  6
Continuous
 62
     7
370
    15
100
AcDbLine
 10
178.9556491597
 20
96.9117648771
 30
0.0
 11
215.6883221718
 21
96.9117648771
 31
0.0
  0
ARC
  5
53
330
1F
100
AcDbEntity
  8
0
  6
Continuous
 62
     7
370
    15
100
AcDbCircle
 10
178.9556491597
 20
97.4117648771
 30
0.0
 40
0.5000000000000142
100
AcDbArc
 50
180.0
 51
270.0
  0
ARC
  5
54
330
1F
100
AcDbEntity
  8
0
  6
Continuous
 62
     7
370
    15
100
AcDbCircle
 10
178.9556491597
 20
159.4117648771
 30
0.0
 40
0.5
100
AcDbArc
 50
90.0
 51
180.0
  0
LWPOLYLINE
  5
55
330
1F
100
AcDbEntity
  8
0
  6
Continuous
 62
     7
370
    15
100
AcDbPolyline
 90
        3
 70
   128
 43
0.0
 10
178.2556491597
 20
105.8719445982
 10
178.3811041032
 20
105.8036424833
 10
178.4556491597
 20
105.7509047252
  0
LWPOLYLINE
  5
56
330
1F
100
AcDbEntity
  8
0
  6
Continuous
 62
     7
370
    15
100
AcDbPolyline
 90
        3
 70
   128
 43
0.0
 10
178.4556491597
 20
151.0726250291
 10
178.3811041032
 20
151.0198872709
 10
178.2556491597
 20
150.951585156
  0
ARC
  5
57
330
1F
100
AcDbEntity
  8
0
  6
Continuous
 62
     7
370
    15
100
AcDbCircle
 10
215.6883221718
 20
95.9117648771
 30
0.0
 40
1.0
100
AcDbArc
 50
15.0
 51
90.0
  0
LINE
  5
58
330
1F
100
AcDbEntity
  8
0
  6
Continuous
 62
     7
370
    15
100
AcDbLine
 10
216.654247998
 20
96.1705839222
 30
0.0
 11
219.3470269627
 21
86.1209960126
 31
0.0
  0
LINE
  5
59
330
1F
100
AcDbEntity
  8
0
  6
Continuous
 62
     7
370
    15
100
AcDbLine
 10
219.3470269627
 20
86.1209960126
 30
0.0
 11
227.270427862
 21
85.4277882573
 31
0.0
  0
ARC
  5
5A
330
1F
100
AcDbEntity
  8
0
  6
Continuous
 62
     7
370
    15
100
AcDbCircle
 10
199.4556491597
 20
114.7617648771
 30
0.0
 40
2.50000000000001
100
AcDbArc
 50
201.3713330904
 51
338.6286669096
  0
LINE
  5
5B
330
1F
100
AcDbEntity
  8
0
  6
Continuous
 62
     7
370
    15
100
AcDbLine
 10
226.1689435582
 20
100.0775857959
 30
0.0
 11
227.4957764199
 21
84.9263938855
 31
0.0
  0
ARC
  5
5C
330
1F
100
AcDbEntity
  8
0
  6
Continuous
 62
     7
370
    15
100
AcDbCircle
 10
226.5701652309
 20
100.1117162171
 30
0.0
 40
0.4026707293642109
100
AcDbArc
 50
85.7637970578
 51
184.8622312326
  0
LINE
  5
5D
330
1F
100
AcDbEntity
  8
0
  6
Continuous
 62
     7
370
    15
100
AcDbLine
 10
241.7656788577
 20
99.353070954
 30
0.0
 11
226.5999098517
 21
100.5132868507
 31
0.0
  0
ARC
  5
5E
330
1F
100
AcDbEntity
  8
0
  6
Continuous
 62
     7
370
    15
100
AcDbCircle
 10
241.7362956185
 20
98.9617155888
 30
0.0
 40
0.3924568722548367
100
AcDbArc
 50
4.926695775
 51
85.7062481526
  0
LINE
  5
5F
330
1F
100
AcDbEntity
  8
0
  6
Continuous
 62
     7
370
    15
100
AcDbLine
 10
243.4541353773
 20
83.8442283221
 30
0.0
 11
242.1273025156
 21
98.9954202325
 31
0.0
  0
ARC
  5
60
330
1F
100
AcDbEntity
  8
0
  6
Continuous
 62
     7
370
    15
100
AcDbCircle
 10
243.0529137046
 20
83.8100979009
 30
0.0
 40
0.402670729364293
100
AcDbArc
 50
265.7637970578
 51
4.8622312326
  0
LINE
  5
61
330
1F
100
AcDbEntity
  8
0
  6
Continuous
 62
     7
370
    15
100
AcDbLine
 10
227.8574000778
 20
84.568743164
 30
0.0
 11
243.0231690838
 21
83.4085272673
 31
0.0
  0
ARC
  5
62
330
1F
100
AcDbEntity
  8
0
  6
Continuous
 62
     7
370
    15
100
AcDbCircle
 10
227.886783317
 20
84.9600985292
 30
0.0
 40
0.3924568722548104
100
AcDbArc
 50
184.926695775
 51
265.7062481525
  0
ARC
  5
63
330
1F
100
AcDbEntity
  8
0
  6
Continuous
 62
     7
370
    15
100
AcDbCircle
 10
241.7360312146
 20
98.9614495626
 30
0.0
 40
0.3728340286422534
100
AcDbArc
 50
4.926695775
 51
85.7062481525
  0
LINE
  5
64
330
1F
100
AcDbEntity
  8
0
  6
Continuous
 62
     7
370
    15
100
AcDbLine
 10
241.7639452918
 20
99.3332371595
 30
0.0
 11
226.5981762859
 21
100.4934530563
 31
0.0
  0
ARC
  5
65
330
1F
100
AcDbEntity
  8
0
  6
Continuous
 62
     7
370
    15
100
AcDbCircle
 10
226.5699188961
 20
100.1119609543
 30
0.0
 40
0.3825371928960143
100
AcDbArc
 50
85.7637970578
 51
184.8622312326
  0
LINE
  5
66
330
1F
100
AcDbEntity
  8
0
  6
Continuous
 62
     7
370
    15
100
AcDbLine
 10
226.188758307
 20
100.0795370542
 30
0.0
 11
227.5155911687
 21
84.9283451438
 31
0.0
  0
ARC
  5
67
330
1F
100
AcDbEntity
  8
0
  6
Continuous
 62
     7
370
    15
100
AcDbCircle
 10
227.8870477209
 20
84.9603645553
 30
0.0
 40
0.3728340286422809
100
AcDbArc
 50
184.926695775
 51
265.7062481525
  0
LINE
  5
68
330
1F
100
AcDbEntity
  8
0
  6
Continuous
 62
     7
370
    15
100
AcDbLine
 10
227.8591336437
 20
84.5885769584
 30
0.0
 11
243.0249026497
 21
83.4283610617
 31
0.0
  0
ARC
  5
69
330
1F
100
AcDbEntity
  8
0
  6
Continuous
 62
     7
370
    15
100
AcDbCircle
 10
243.0531600397
 20
83.8098531631
 30
0.0
 40
0.3825371923936281
100
AcDbArc
 50
265.763797016
 51
4.8622310666
  0
LINE
  5
6A
330
1F
100
AcDbEntity
  8
0
  6
Continuous
 62
     7
370
    15
100
AcDbLine
 10
243.4343206284
 20
83.842277062
 30
0.0
 11
242.1074877669
 21
98.9934689741
 31
0.0
  0
LINE
  5
6B
330
1F
100
AcDbEntity
  8
0
  6
Continuous
 62
     7
370
    15
100
AcDbLine
 10
226.5423057101
 20
100.139418158
 30
0.0
 11
226.188758307
 21
100.0795370542
 31
0.0
  0
LINE
  5
6C
330
1F
100
AcDbEntity
  8
0
  6
Continuous
 62
     7
370
    15
100
AcDbLine
 10
226.5423057101
 20
100.139418158
 30
0.0
 11
226.5981762859
 21
100.4934530563
 31
0.0
  0
LINE
  5
6D
330
1F
100
AcDbEntity
  8
0
  6
Continuous
 62
     7
370
    15
100
AcDbLine
 10
228.8870386229
 20
86.1609542735
 30
0.0
 11
227.8691385718
 21
84.9882262476
 31
0.0
  0
LINE
  5
6E
330
1F
100
AcDbEntity
  8
0
  6
Continuous
 62
     7
370
    15
100
AcDbLine
 10
227.8691385718
 20
84.9882262476
 30
0.0
 11
227.5155911687
 21
84.9283451438
 31
0.0
  0
LINE
  5
6F
330
1F
100
AcDbEntity
  8
0
  6
Continuous
 62
     7
370
    15
100
AcDbLine
 10
228.0339901309
 20
98.6646016643
 30
0.0
 11
226.5423057101
 21
100.139418158
 31
0.0
  0
LINE
  5
70
330
1F
100
AcDbEntity
  8
0
  6
Continuous
 62
     7
370
    15
100
AcDbLine
 10
225.5140315596
 20
100.6367181284
 30
0.0
 11
226.0799762771
 21
94.1741580934
 31
0.0
  0
LINE
  5
71
330
1F
100
AcDbEntity
  8
0
  6
Continuous
 62
     7
370
    15
100
AcDbLine
 10
241.7080747161
 20
98.9792022612
 30
0.0
 11
241.7639452918
 21
99.3332371595
 31
0.0
  0
LINE
  5
72
330
1F
100
AcDbEntity
  8
0
  6
Continuous
 62
     7
370
    15
100
AcDbLine
 10
240.5469242629
 20
97.9489398968
 30
0.0
 11
241.7080747161
 21
98.9792022612
 31
0.0
  0
ARC
  5
73
330
1F
100
AcDbEntity
  8
0
  6
Continuous
 62
     7
370
    15
100
AcDbCircle
 10
230.5379677978
 20
96.1874721908
 30
0.0
 40
1.006676823410599
100
AcDbArc
 50
85.7637970578
 51
184.8622312326
  0
LINE
  5
74
330
1F
100
AcDbEntity
  8
0
  6
Continuous
 62
     7
370
    15
100
AcDbLine
 10
229.5349136161
 20
96.102146138
 30
0.0
 11
230.2245146424
 21
88.2275465614
 31
0.0
  0
LINE
  5
75
330
1F
100
AcDbEntity
  8
0
  6
Continuous
 62
     7
370
    15
100
AcDbLine
 10
238.4945051483
 20
96.5883943603
 30
0.0
 11
230.6123293499
 21
97.191398775
 31
0.0
  0
ARC
  5
76
330
1F
100
AcDbEntity
  8
0
  6
Continuous
 62
     7
370
    15
100
AcDbCircle
 10
238.4210470504
 20
95.6100059474
 30
0.0
 40
0.98114218063729
100
AcDbArc
 50
4.926695775
 51
85.7062481525
  0
LINE
  5
77
330
1F
100
AcDbEntity
  8
0
  6
Continuous
 62
     7
370
    15
100
AcDbLine
 10
240.0881653195
 20
87.8196679799
 30
0.0
 11
239.3985642932
 21
95.6942675566
 31
0.0
  0
ARC
  5
78
330
1F
100
AcDbEntity
  8
0
  6
Continuous
 62
     7
370
    15
100
AcDbCircle
 10
239.0851111379
 20
87.7343419267
 30
0.0
 40
1.006676823230135
100
AcDbArc
 50
265.7637970419
 51
4.8622312607
  0
LINE
  5
79
330
1F
100
AcDbEntity
  8
0
  6
Continuous
 62
     7
370
    15
100
AcDbLine
 10
231.1285737872
 20
87.3334197576
 30
0.0
 11
239.0107495856
 21
86.7304153427
 31
0.0
  0
ARC
  5
7A
330
1F
100
AcDbEntity
  8
0
  6
Continuous
 62
     7
370
    15
100
AcDbCircle
 10
231.2020318851
 20
88.3118081705
 30
0.0
 40
0.9811421806372002
100
AcDbArc
 50
184.926695775
 51
265.7062481525
  0
CIRCLE
  5
7B
330
1F
100
AcDbEntity
  8
0
  6
Continuous
 62
     7
370
    15
100
AcDbCircle
 10
234.778038726
 20
91.9559622154
 30
0.0
 40
3.152948056926963
  0
SPLINE
  5
7C
330
1F
100
AcDbEntity
  8
0
  6
Continuous
 62
     7
370
    15
100
AcDbSpline
210
0.0
220
0.0
230
1.0
 70
     8
 71
     3
 72
    11
 73
     7
 74
     0
 42
0.00000001
 43
0.00000001
 12
1.0
 22
0.0
 32
0.0
 13
1.0
 23
0.0
 33
0.0
 40
0.0
 40
0.0
 40
0.0
 40
0.0
 40
0.3517313814402285
 40
0.7021754471682673
 40
0.992292935404783
 40
1.0
 40
1.0
 40
1.0
 40
1.0
 10
228.0339901308704
 20
98.66460166428391
 30
0.0
 10
228.0896536992297
 20
98.60956168651221
 30
0.0
 10
228.2007771106343
 20
98.49968317397878
 30
0.0
 10
228.3736481919801
 20
98.32868814933327
 30
0.0
 10
228.4808727903591
 20
98.22260654904818
 30
0.0
 10
228.5279895104443
 20
98.17598704345806
 30
0.0
 10
228.5292087907278
 20
98.17478063002585
 30
0.0
  0
ARC
  5
7D
330
1F
100
AcDbEntity
  8
0
  6
Continuous
 62
     7
370
    15
100
AcDbCircle
 10
234.1107464682
 20
92.650161952
 30
0.0
 40
3.186662694863059
100
AcDbArc
 50
265.7138038424
 51
309.0543600554
  0
ARC
  5
7E
330
1F
100
AcDbEntity
  8
0
  6
Continuous
 62
     7
370
    15
100
AcDbCircle
 10
234.1083666196
 20
92.5869112865
 30
0.0
 40
3.12341195168144
100
AcDbArc
 50
233.8481662222
 51
265.6706209175
  0
LINE
  5
7F
330
1F
100
AcDbEntity
  8
0
  6
Continuous
 62
     7
370
    15
100
AcDbLine
 10
241.3690457571
 20
85.4760500824
 30
0.0
 11
243.0349075778
 21
83.8280103508
 31
0.0
  0
LINE
  5
80
330
1F
100
AcDbEntity
  8
0
  6
Continuous
 62
     7
370
    15
100
AcDbLine
 10
243.0349075778
 20
83.8280103508
 30
0.0
 11
243.0249026497
 21
83.4283610617
 31
0.0
  0
LINE
  5
81
330
1F
100
AcDbEntity
  8
0
  6
Continuous
 62
     7
370
    15
100
AcDbLine
 10
227.8691385718
 20
84.9882262476
 30
0.0
 11
227.8591336437
 21
84.5885769584
 31
0.0
  0
LINE
  5
82
330
1F
100
AcDbEntity
  8
0
  6
Continuous
 62
     7
370
    15
100
AcDbLine
 10
241.7080747161
 20
98.9792022612
 30
0.0
 11
242.1074877669
 21
98.9934689741
 31
0.0
  0
LINE
  5
83
330
1F
100
AcDbEntity
  8
0
  6
Continuous
 62
     7
370
    15
100
AcDbLine
 10
243.0349075778
 20
83.8280103508
 30
0.0
 11
243.4343206284
 21
83.842277062
 31
0.0
  0
ARC
  5
84
330
1F
100
AcDbEntity
  8
0
  6
Continuous
 62
     7
370
    15
100
AcDbCircle
 10
241.0729051147
 20
99.6221047295
 30
0.0
 40
0.3920499010549496
100
AcDbArc
 50
45.1670963533
 51
72.2249123273
  0
ARC
  5
85
330
1F
100
AcDbEntity
  8
0
  6
Continuous
 62
     7
370
    15
100
AcDbCircle
 10
227.2226982963
 20
85.6197932745
 30
0.0
 40
0.3919651075221444
100
AcDbArc
 50
203.5141208358
 51
225.147358316
  0
SPLINE
  5
86
330
1F
100
AcDbEntity
  8
0
  6
Continuous
 62
     7
370
    15
100
AcDbSpline
210
0.0
220
0.0
230
1.0
 70
     8
 71
     3
 72
    11
 73
     7
 74
     0
 42
0.00000001
 43
0.00000001
 12
1.0
 22
0.0
 32
0.0
 13
1.0
 23
0.0
 33
0.0
 40
0.0
 40
0.0
 40
0.0
 40
0.0
 40
0.0082250097086947
 40
0.324395584904197
 40
0.661784888887314
 40
0.9999999999999999
 40
0.9999999999999999
 40
0.9999999999999999
 40
0.9999999999999999
 10
229.3810110125008
 20
86.64998686680447
 30
0.0
 10
229.379704318853
 20
86.64887192741836
 30
0.0
 10
229.3281681304247
 20
86.6048985550938
 30
0.0
 10
229.2170841545578
 20
86.50495382176825
 30
0.0
 10
229.0435523162676
 20
86.33503344094575
 30
0.0
 10
228.9392523501135
 20
86.21902792804728
 30
0.0
 10
228.8870386228886
 20
86.16095427346781
 30
0.0
  0
SPLINE
  5
87
330
1F
100
AcDbEntity
  8
0
  6
Continuous
 62
     7
370
    15
100
AcDbSpline
210
0.0
220
0.0
230
1.0
 70
     8
 71
     3
 72
    11
 73
     7
 74
     0
 42
0.00000001
 43
0.00000001
 12
1.0
 22
0.0
 32
0.0
 13
1.0
 23
0.0
 33
0.0
 40
0.0
 40
0.0
 40
0.0
 40
0.0
 40
0.3382151111130794
 40
0.6756044150964035
 40
0.9917749902912709
 40
0.9999999999999999
 40
0.9999999999999999
 40
0.9999999999999999
 40
0.9999999999999999
 10
240.5469242628815
 20
97.94893989677414
 30
0.0
 10
240.4894387675558
 20
97.89610913099803
 30
0.0
 10
240.3746081370786
 20
97.79057659434172
 30
0.0
 10
240.2065790882504
 20
97.615183568914
 30
0.0
 10
240.1078208194418
 20
97.50298065004306
 30
0.0
 10
240.0643913165381
 20
97.45094500146581
 30
0.0
 10
240.0632901668936
 20
97.44962564406804
 30
0.0
  0
SPLINE
  5
88
330
1F
100
AcDbEntity
  8
0
  6
Continuous
 62
     7
370
    15
100
AcDbSpline
210
0.0
220
0.0
230
1.0
 70
     8
 71
     3
 72
    11
 73
     7
 74
     0
 42
0.00000001
 43
0.00000001
 12
1.0
 22
0.0
 32
0.0
 13
1.0
 23
0.0
 33
0.0
 40
0.0
 40
0.0
 40
0.0
 40
0.0
 40
0.0077070645953304
 40
0.2978245528304049
 40
0.6482686185591182
 40
1.0
 40
1.0
 40
1.0
 40
1.0
 10
240.8894533405584
 20
85.95033047556669
 30
0.0
 10
240.8904806805666
 20
85.94931495094079
 30
0.0
 10
240.9301802412456
 20
85.91007197277969
 30
0.0
 10
241.0246921446595
 20
85.81663342598954
 30
0.0
 10
241.1891499218252
 20
85.65400561656222
 30
0.0
 10
241.3090072328654
 20
85.5354410496094
 30
0.0
 10
241.3690457570803
 20
85.47605008244821
 30
0.0
  0
ARC
  5
89
330
1F
100
AcDbEntity
  8
0
  6
Continuous
 62
     7
370
    15
100
AcDbCircle
 10
229.7197976845
 20
105.9136664219
 30
0.0
 40
3.500445567677478
100
AcDbArc
 50
226.2563783749
 51
44.0583561314
  0
CIRCLE
  5
8A
330
1F
100
AcDbEntity
  8
0
  6
Continuous
 62
     7
370
    15
100
AcDbCircle
 10
229.7349698909
 20
105.8749450261
 30
0.0
 40
1.984187891400306
  0
SPLINE
  5
8B
330
1F
100
AcDbEntity
  8
0
  6
Continuous
 62
     7
370
    15
100
AcDbSpline
210
0.0
220
0.0
230
1.0
 70
     8
 71
     3
 72
    11
 73
     7
 74
     0
 42
0.00000001
 43
0.00000001
 12
1.0
 22
0.0
 32
0.0
 13
1.0
 23
0.0
 33
0.0
 40
0.0
 40
0.0
 40
0.0
 40
0.0
 40
0.1081100880371203
 40
0.4711580666043551
 40
0.8135808430836137
 40
1.0
 40
1.0
 40
1.0
 40
1.0
 10
231.4066755548631
 20
105.6232208906532
 30
0.0
 10
231.3843671109924
 20
105.6808252371481
 30
0.0
 10
231.2871439612018
 20
105.9318726002141
 30
0.0
 10
231.1129770036362
 20
106.3989472856707
 30
0.0
 10
230.9433925889757
 20
106.8958784092407
 30
0.0
 10
230.8619514101123
 20
107.1512244790622
 30
0.0
 10
230.8332430287543
 20
107.2412351156098
 30
0.0
  0
SPLINE
  5
8C
330
1F
100
AcDbEntity
  8
0
  6
Continuous
 62
     7
370
    15
100
AcDbSpline
210
0.0
220
0.0
230
1.0
 70
     8
 71
     3
 72
    10
 73
     6
 74
     0
 42
0.00000001
 43
0.00000001
 12
1.0
 22
0.0
 32
0.0
 13
1.0
 23
0.0
 33
0.0
 40
0.0
 40
0.0
 40
0.0
 40
0.0
 40
0.4391165375904091
 40
0.7513669429073455
 40
1.0
 40
1.0
 40
1.0
 40
1.0
 10
230.8332430287543
 20
107.2412351156098
 30
0.0
 10
230.5800791331338
 20
107.2944250033625
 30
0.0
 10
230.1468934841699
 20
107.3854375704902
 30
0.0
 10
229.5520601760229
 20
107.483052937825
 30
0.0
 10
229.2664410384556
 20
107.521248798767
 30
0.0
 10
229.139829426424
 20
107.538180575706
 30
0.0
  0
SPLINE
  5
8D
330
1F
100
AcDbEntity
  8
0
  6
Continuous
 62
     7
370
    15
100
AcDbSpline
210
0.0
220
0.0
230
1.0
 70
     8
 71
     3
 72
    10
 73
     6
 74
     0
 42
0.00000001
 43
0.00000001
 12
1.0
 22
0.0
 32
0.0
 13
1.0
 23
0.0
 33
0.0
 40
0.0
 40
0.0
 40
0.0
 40
0.0
 40
0.4391165375904147
 40
0.751366942907348
 40
1.0
 40
1.0
 40
1.0
 40
1.0
 10
229.139829426424
 20
107.538180575706
 30
0.0
 10
228.9687568176313
 20
107.3597392535346
 30
0.0
 10
228.6760365666723
 20
107.0544104871348
 30
0.0
 10
228.2853945235468
 20
106.5758737243163
 30
0.0
 10
228.101407596107
 20
106.3273011265243
 30
0.0
 10
228.0198483502026
 20
106.2171118108454
 30
0.0
  0
SPLINE
  5
8E
330
1F
100
AcDbEntity
  8
0
  6
Continuous
 62
     7
370
    15
100
AcDbSpline
210
0.0
220
0.0
230
1.0
 70
     8
 71
     3
 72
    11
 73
     7
 74
     0
 42
0.00000001
 43
0.00000001
 12
1.0
 22
0.0
 32
0.0
 13
1.0
 23
0.0
 33
0.0
 40
0.0
 40
0.0
 40
0.0
 40
0.0
 40
0.1864191569163856
 40
0.5288419333956467
 40
0.8918899119628768
 40
1.0
 40
1.0
 40
1.0
 40
1.0
 10
228.0198483502025
 20
106.2171118108454
 30
0.0
 10
228.0485567315605
 20
106.1271011742978
 30
0.0
 10
228.1299979104239
 20
105.8717551044763
 30
0.0
 10
228.2995823250844
 20
105.3748239809063
 30
0.0
 10
228.47374928265
 20
104.9077492954497
 30
0.0
 10
228.5709724324406
 20
104.6567019323837
 30
0.0
 10
228.5932808763113
 20
104.5990975858888
 30
0.0
  0
SPLINE
  5
8F
330
1F
100
AcDbEntity
  8
0
  6
Continuous
 62
     7
370
    15
100
AcDbSpline
210
0.0
220
0.0
230
1.0
 70
     8
 71
     3
 72
    10
 73
     6
 74
     0
 42
0.00000001
 43
0.00000001
 12
1.0
 22
0.0
 32
0.0
 13
1.0
 23
0.0
 33
0.0
 40
0.0
 40
0.0
 40
0.0
 40
0.0
 40
0.4391165375904121
 40
0.7513669429073481
 40
1.0
 40
1.0
 40
1.0
 40
1.0
 10
228.5932808763113
 20
104.5990975858888
 30
0.0
 10
228.8249674048212
 20
104.5672674099824
 30
0.0
 10
229.2214033933051
 20
104.5128031848494
 30
0.0
 10
229.8325716630974
 20
104.3989423404984
 30
0.0
 10
230.1472162330418
 20
104.331880051535
 30
0.0
 10
230.2866944786416
 20
104.3021521257926
 30
0.0
  0
SPLINE
  5
90
330
1F
100
AcDbEntity
  8
0
  6
Continuous
 62
     7
370
    15
100
AcDbSpline
210
0.0
220
0.0
230
1.0
 70
     8
 71
     3
 72
    10
 73
     6
 74
     0
 42
0.00000001
 43
0.00000001
 12
1.0
 22
0.0
 32
0.0
 13
1.0
 23
0.0
 33
0.0
 40
0.0
 40
0.0
 40
0.0
 40
0.0
 40
0.4391165375904169
 40
0.7513669429073508
 40
1.0
 40
1.0
 40
1.0
 40
1.0
 10
230.2866944786416
 20
104.3021521257926
 30
0.0
 10
230.4362897203237
 20
104.5019531598103
 30
0.0
 10
230.6922603108028
 20
104.8438302682048
 30
0.0
 10
231.0992373155736
 20
105.3061215540071
 30
0.0
 10
231.3122496753903
 20
105.5258277237777
 30
0.0
 10
231.4066755548631
 20
105.6232208906532
 30
0.0
  0
LINE
  5
91
330
1F
100
AcDbEntity
  8
0
  6
Continuous
 62
     7
370
    15
100
AcDbLine
 10
228.4636661926
 20
104.9413881835
 30
0.0
 11
229.0498821417
 21
104.8385933527
 31
0.0
  0
LINE
  5
92
330
1F
100
AcDbEntity
  8
0
  6
Continuous
 62
     7
370
    15
100
AcDbLine
 10
229.0498821417
 20
104.8385933527
 30
0.0
 11
229.8965889429
 21
104.6901206226
 31
0.0
  0
LINE
  5
93
330
1F
100
AcDbEntity
  8
0
  6
Continuous
 62
     7
370
    15
100
AcDbLine
 10
229.8965889429
 20
104.6901206226
 30
0.0
 11
230.2866944786
 21
104.3021521258
 31
0.0
  0
LINE
  5
94
330
1F
100
AcDbEntity
  8
0
  6
Continuous
 62
     7
370
    15
100
AcDbLine
 10
231.0165700191
 20
106.0111893875
 30
0.0
 11
231.4066755549
 21
105.6232208907
 31
0.0
  0
LINE
  5
95
330
1F
100
AcDbEntity
  8
0
  6
Continuous
 62
     7
370
    15
100
AcDbLine
 10
231.0165700191
 20
106.0111893875
 30
0.0
 11
230.7298537561
 21
106.8201964999
 31
0.0
  0
LINE
  5
96
330
1F
100
AcDbEntity
  8
0
  6
Continuous
 62
     7
370
    15
100
AcDbLine
 10
230.7298537561
 20
106.8201964999
 30
0.0
 11
230.5612697954
 21
107.2958780038
 31
0.0
  0
LINE
  5
97
330
1F
100
AcDbEntity
  8
0
  6
Continuous
 62
     7
370
    15
100
AcDbLine
 10
229.8965889429
 20
104.6901206226
 30
0.0
 11
230.456579481
 21
105.350655005
 31
0.0
  0
LINE
  5
98
330
1F
100
AcDbEntity
  8
0
  6
Continuous
 62
     7
370
    15
100
AcDbLine
 10
230.456579481
 20
105.350655005
 30
0.0
 11
231.0165700191
 21
106.0111893875
 31
0.0
  0
ARC
  5
99
330
1F
100
AcDbEntity
  8
0
  6
Continuous
 62
     7
370
    15
100
AcDbCircle
 10
229.3441155334
 20
106.3295619408
 30
0.0
 40
1.470031527697997
100
AcDbArc
 50
19.4970210174
 51
44.1643533302
  0
ARC
  5
9A
330
1F
100
AcDbEntity
  8
0
  6
Continuous
 62
     7
370
    15
100
AcDbCircle
 10
229.314877521
 20
106.3231442459
 30
0.0
 40
1.499739540381906
100
AcDbArc
 50
319.5760061197
 51
19.3553336324
  0
ARC
  5
9B
330
1F
100
AcDbEntity
  8
0
  6
Continuous
 62
     7
370
    15
100
AcDbCircle
 10
229.3062704647
 20
106.3224800972
 30
0.0
 40
1.50587344847947
100
AcDbArc
 50
260.1971289243
 51
319.8075963966
  0
ARC
  5
9C
330
1F
100
AcDbEntity
  8
0
  6
Continuous
 62
     7
370
    15
100
AcDbCircle
 10
229.3036019572
 20
106.2900344941
 30
0.0
 40
1.473450077811894
100
AcDbArc
 50
230.1348536246
 51
260.0845707597
  0
ELLIPSE
  5
9D
330
1F
100
AcDbEntity
  8
0
  6
Continuous
 62
     7
370
    15
100
AcDbEllipse
 10
234.5900310287
 20
92.7256674355
 30
0.0
 11
2.003525727652914
 21
2.233993969098876
 31
0.0
210
0.0
220
0.0
230
1.0
 40
0.9898983231
 41
4.227212930567458
 42
5.781509468923568
  0
ELLIPSE
  5
9E
330
1F
100
AcDbEntity
  8
0
  6
Continuous
 62
     7
370
    15
100
AcDbEllipse
 10
234.5900310287
 20
92.7256674355
 30
0.0
 11
2.003525727652914
 21
2.233993969098876
 31
0.0
210
0.0
220
0.0
230
1.0
 40
0.9898983231
 41
2.498165792865266
 42
4.227212930567475
  0
ARC
  5
9F
330
1F
100
AcDbEntity
  8
0
  6
Continuous
 62
     7
370
    15
100
AcDbCircle
 10
233.1681193959
 20
93.5519133051
 30
0.0
 40
3.725549253791604
100
AcDbArc
 50
260.5244992065
 51
278.2403687507
  0
SPLINE
  5
A0
330
1F
100
AcDbEntity
  8
0
  6
Continuous
 62
     7
370
    15
100
AcDbSpline
210
0.0
220
0.0
230
1.0
 70
     8
 71
     3
 72
    12
 73
     8
 74
     0
 42
0.00000001
 43
0.00000001
 12
1.0
 22
0.0
 32
0.0
 13
1.0
 23
0.0
 33
0.0
 40
0.0
 40
0.0
 40
0.0
 40
0.0
 40
0.5
 40
0.5
 40
0.75
 40
0.75
 40
1.0
 40
1.0
 40
1.0
 40
1.0
 10
188.5503932714126
 20
138.3211341978097
 30
0.0
 10
188.5811155133316
 20
138.2085783984005
 30
0.0
 10
188.6239527278668
 20
138.0958205386609
 30
0.0
 10
188.7233797520666
 20
137.9462796528646
 30
0.0
 10
188.7631319468833
 20
137.8989869211577
 30
0.0
 10
188.8611734037415
 20
137.8252506278363
 30
0.0
 10
188.920729459329
 20
137.7998313084606
 30
0.0
 10
188.9834059733048
 20
137.7998313084606
 30
0.0
  0
LINE
  5
A1
330
1F
100
AcDbEntity
  8
0
  6
Continuous
 62
     7
370
    15
100
AcDbLine
 10
188.9834059733
 20
137.7998313085
 30
0.0
 11
191.9278923462
 21
137.7998313085
 31
0.0
  0
SPLINE
  5
A2
330
1F
100
AcDbEntity
  8
0
  6
Continuous
 62
     7
370
    15
100
AcDbSpline
210
0.0
220
0.0
230
1.0
 70
     8
 71
     3
 72
    12
 73
     8
 74
     0
 42
0.00000001
 43
0.00000001
 12
1.0
 22
0.0
 32
0.0
 13
1.0
 23
0.0
 33
0.0
 40
0.0
 40
0.0
 40
0.0
 40
0.0
 40
0.2500000000000005
 40
0.2500000000000005
 40
0.500000000000001
 40
0.500000000000001
 40
1.0
 40
1.0
 40
1.0
 40
1.0
 10
191.9278923461719
 20
137.7998313084606
 30
0.0
 10
191.9909723846652
 20
137.7998313084606
 30
0.0
 10
192.0501210068467
 20
137.8251956276755
 30
0.0
 10
192.1485935569158
 20
137.8993604880484
 30
0.0
 10
192.1876301689005
 20
137.9458808286026
 30
0.0
 10
192.2875266356795
 20
138.0960231714478
 30
0.0
 10
192.3299475167462
 20
138.20771637842
 30
0.0
 10
192.3609050480641
 20
138.3211341978097
 30
0.0
  0
ELLIPSE
  5
A3
330
1F
100
AcDbEntity
  8
0
  6
Continuous
 62
     7
370
    15
100
AcDbEllipse
 10
176.1084949704
 20
128.4117648771
 30
0.0
 11
14.75368316065604
 21
31.09325491558116
 31
0.0
210
0.0
220
0.0
230
1.0
 40
0.3419987131
 41
5.19328173740862
 42
6.124043104552324
  0
SPLINE
  5
A4
330
1F
100
AcDbEntity
  8
0
  6
Continuous
 62
     7
370
    15
100
AcDbSpline
210
0.0
220
0.0
230
1.0
 70
     8
 71
     3
 72
    12
 73
     8
 74
     0
 42
0.00000001
 43
0.00000001
 12
1.0
 22
0.0
 32
0.0
 13
1.0
 23
0.0
 33
0.0
 40
0.0
 40
0.0
 40
0.0
 40
0.0
 40
0.5000000000000019
 40
0.5000000000000019
 40
0.7500000000000009
 40
0.7500000000000009
 40
1.0
 40
1.0
 40
1.0
 40
1.0
 10
192.3609050480641
 20
158.3125073372419
 30
0.0
 10
192.330182806145
 20
158.3498093201949
 30
0.0
 10
192.2873455916099
 20
158.3864211522413
 30
0.0
 10
192.1879185674101
 20
158.4341859355265
 30
0.0
 10
192.1481663725934
 20
158.4491434510089
 30
0.0
 10
192.0501249157352
 20
158.472333396778
 30
0.0
 10
191.9905688601477
 20
158.4802568359977
 30
0.0
 10
191.9278923461719
 20
158.4802568359977
 30
0.0
  0
LINE
  5
A5
330
1F
100
AcDbEntity
  8
0
  6
Continuous
 62
     7
370
    15
100
AcDbLine
 10
191.9278923462
 20
158.480256836
 30
0.0
 11
188.9834059733
 21
158.480256836
 31
0.0
  0
SPLINE
  5
A6
330
1F
100
AcDbEntity
  8
0
  6
Continuous
 62
     7
370
    15
100
AcDbSpline
210
0.0
220
0.0
230
1.0
 70
     8
 71
     3
 72
    12
 73
     8
 74
     0
 42
0.00000001
 43
0.00000001
 12
1.0
 22
0.0
 32
0.0
 13
1.0
 23
0.0
 33
0.0
 40
0.0
 40
0.0
 40
0.0
 40
0.0
 40
0.2500000000000014
 40
0.2500000000000014
 40
0.5000000000000028
 40
0.5000000000000028
 40
1.0
 40
1.0
 40
1.0
 40
1.0
 10
188.9834059733048
 20
158.4802568359977
 30
0.0
 10
188.9203259348114
 20
158.4802568359977
 30
0.0
 10
188.86117731263
 20
158.4723509097853
 30
0.0
 10
188.7627047625609
 20
158.449025748349
 30
0.0
 10
188.7236681505762
 20
158.4343129585174
 30
0.0
 10
188.6237716837972
 20
158.3863571577864
 30
0.0
 10
188.5813508027305
 20
158.3500950012064
 30
0.0
 10
188.5503932714126
 20
158.3125073372418
 30
0.0
  0
ELLIPSE
  5
A7
330
1F
100
AcDbEntity
  8
0
  6
Continuous
 62
     7
370
    15
100
AcDbEllipse
 10
204.8028033491
 20
128.4117648771
 30
0.0
 11
-14.75368316065604
 21
31.09325491558113
 31
0.0
210
0.0
220
0.0
230
1.0
 40
0.3419987131
 41
0.1591422026273064
 42
1.08990356977098
  0
SPLINE
  5
A8
330
1F
100
AcDbEntity
  8
0
  6
Continuous
 62
     7
370
    15
100
AcDbSpline
210
0.0
220
0.0
230
1.0
 70
     8
 71
     3
 72
    12
 73
     8
 74
     0
 42
0.00000001
 43
0.00000001
 12
1.0
 22
0.0
 32
0.0
 13
1.0
 23
0.0
 33
0.0
 40
0.0
 40
0.0
 40
0.0
 40
0.0
 40
0.4999999999999972
 40
0.4999999999999972
 40
0.7499999999999986
 40
0.7499999999999986
 40
1.0
 40
1.0
 40
1.0
 40
1.0
 10
188.5503932714126
 20
98.51102241700744
 30
0.0
 10
188.5815384693747
 20
98.47320689408724
 30
0.0
 10
188.6238127357091
 20
98.43714003600364
 30
0.0
 10
188.7237582695344
 20
98.38917997099237
 30
0.0
 10
188.7634885742384
 20
98.37431899709472
 30
0.0
 10
188.8603766242447
 20
98.35136785096358
 30
0.0
 10
188.9204418659912
 20
98.34327291825154
 30
0.0
 10
188.9834059733048
 20
98.34327291825154
 30
0.0
  0
LINE
  5
A9
330
1F
100
AcDbEntity
  8
0
  6
Continuous
 62
     7
370
    15
100
AcDbLine
 10
188.9834059733
 20
98.3432729183
 30
0.0
 11
191.9278923462
 21
98.3432729183
 31
0.0
  0
SPLINE
  5
AA
330
1F
100
AcDbEntity
  8
0
  6
Continuous
 62
     7
370
    15
100
AcDbSpline
210
0.0
220
0.0
230
1.0
 70
     8
 71
     3
 72
    12
 73
     8
 74
     0
 42
0.00000001
 43
0.00000001
 12
1.0
 22
0.0
 32
0.0
 13
1.0
 23
0.0
 33
0.0
 40
0.0
 40
0.0
 40
0.0
 40
0.0
 40
0.2499999999999991
 40
0.2499999999999991
 40
0.4999999999999982
 40
0.4999999999999982
 40
1.0
 40
1.0
 40
1.0
 40
1.0
 10
191.9278923461719
 20
98.3432729182516
 30
0.0
 10
191.9909493010697
 20
98.3432729182516
 30
0.0
 10
192.0500794508153
 20
98.35117324933113
 30
0.0
 10
192.1485270013486
 20
98.37448399733617
 30
0.0
 10
192.1875592395367
 20
98.38918912361981
 30
0.0
 10
192.2874491239936
 20
98.43712265180646
 30
0.0
 10
192.3297480976029
 20
98.47319262457121
 30
0.0
 10
192.3609050480642
 20
98.51102241700744
 30
0.0
  0
ELLIPSE
  5
AB
330
1F
100
AcDbEntity
  8
0
  6
Continuous
 62
     7
370
    15
100
AcDbEllipse
 10
176.1084949704
 20
128.4117648771
 30
0.0
 11
-14.75368316065621
 21
31.09325491558116
 31
0.0
210
0.0
220
0.0
230
1.0
 40
0.3419987131
 41
3.300734856217122
 42
4.231496223360772
  0
SPLINE
  5
AC
330
1F
100
AcDbEntity
  8
0
  6
Continuous
 62
     7
370
    15
100
AcDbSpline
210
0.0
220
0.0
230
1.0
 70
     8
 71
     3
 72
    12
 73
     8
 74
     0
 42
0.00000001
 43
0.00000001
 12
1.0
 22
0.0
 32
0.0
 13
1.0
 23
0.0
 33
0.0
 40
0.0
 40
0.0
 40
0.0
 40
0.0
 40
0.5
 40
0.5
 40
0.75
 40
0.75
 40
1.0
 40
1.0
 40
1.0
 40
1.0
 10
192.3609050480641
 20
118.5023955564393
 30
0.0
 10
192.329759850102
 20
118.6165009223046
 30
0.0
 10
192.2874855837676
 20
118.7276072495234
 30
0.0
 10
192.1875400499423
 20
118.8777648569537
 30
0.0
 10
192.1478097452382
 20
118.9247575485711
 30
0.0
 10
192.0509216952321
 20
118.9977331331096
 30
0.0
 10
191.9908564534855
 20
119.0236984457885
 30
0.0
 10
191.9278923461719
 20
119.0236984457885
 30
0.0
  0
LINE
  5
AD
330
1F
100
AcDbEntity
  8
0
  6
Continuous
 62
     7
370
    15
100
AcDbLine
 10
191.9278923462
 20
119.0236984458
 30
0.0
 11
188.9834059733
 21
119.0236984458
 31
0.0
  0
SPLINE
  5
AE
330
1F
100
AcDbEntity
  8
0
  6
Continuous
 62
     7
370
    15
100
AcDbSpline
210
0.0
220
0.0
230
1.0
 70
     8
 71
     3
 72
    12
 73
     8
 74
     0
 42
0.00000001
 43
0.00000001
 12
1.0
 22
0.0
 32
0.0
 13
1.0
 23
0.0
 33
0.0
 40
0.0
 40
0.0
 40
0.0
 40
0.0
 40
0.2499999999999995
 40
0.2499999999999995
 40
0.499999999999999
 40
0.499999999999999
 40
1.0
 40
1.0
 40
1.0
 40
1.0
 10
188.9834059733048
 20
119.0236984457884
 30
0.0
 10
188.920349018407
 20
119.0236984457884
 30
0.0
 10
188.8612188686614
 20
118.9983520924078
 30
0.0
 10
188.7627713181281
 20
118.9242327102683
 30
0.0
 10
188.72373907994
 20
118.8777361955702
 30
0.0
 10
188.6238491954831
 20
118.7276616885617
 30
0.0
 10
188.5815502218738
 20
118.6165439794468
 30
0.0
 10
188.5503932714125
 20
118.5023955564393
 30
0.0
  0
ELLIPSE
  5
AF
330
1F
100
AcDbEntity
  8
0
  6
Continuous
 62
     7
370
    15
100
AcDbEllipse
 10
204.8028033491
 20
128.4117648771
 30
0.0
 11
14.75368316065618
 21
31.09325491558116
 31
0.0
210
0.0
220
0.0
230
1.0
 40
0.3419987131
 41
2.051689083818825
 42
2.982450450962498
  0
ELLIPSE
  5
B0
330
1F
100
AcDbEntity
  8
0
  6
Continuous
 62
     7
370
    15
100
AcDbEllipse
 10
212.510676507
 20
128.4117648771
 30
0.0
 11
0.9496107280741625
 21
31.49898525208675
 31
0.0
210
0.0
220
0.0
230
1.0
 40
0.266256518
 41
0.4916749231131224
 42
2.875410749349053
  0
SPLINE
  5
B1
330
1F
100
AcDbEntity
  8
0
  6
Continuous
 62
     7
370
    15
100
AcDbSpline
210
0.0
220
0.0
230
1.0
 70
     8
 71
     3
 72
    20
 73
    16
 74
     0
 42
0.00000001
 43
0.00000001
 12
1.0
 22
0.0
 32
0.0
 13
1.0
 23
0.0
 33
0.0
 40
0.0
 40
0.0
 40
0.0
 40
0.0
 40
0.2499999999999989
 40
0.2499999999999989
 40
0.3749999999999991
 40
0.3749999999999991
 40
0.4999999999999993
 40
0.4999999999999993
 40
0.6249999999999996
 40
0.6249999999999996
 40
0.7499999999999997
 40
0.7499999999999997
 40
0.8749999999999999
 40
0.8749999999999999
 40
1.0
 40
1.0
 40
1.0
 40
1.0
 10
209.3883607512039
 20
98.08861172506359
 30
0.0
 10
209.5384494729345
 20
97.92535311158889
 30
0.0
 10
209.767070635889
 20
97.7880073886839
 30
0.0
 10
210.2352441707979
 20
97.61340199808511
 30
0.0
 10
210.4124487662582
 20
97.5607465473847
 30
0.0
 10
210.7983425578643
 20
97.46789077185977
 30
0.0
 10
211.0082942323883
 20
97.42717123920126
 30
0.0
 10
211.463055234752
 20
97.35530693987765
 30
0.0
 10
211.7102279178388
 20
97.32398066747167
 30
0.0
 10
212.2250953924871
 20
97.27117542976666
 30
0.0
 10
212.4935961741634
 20
97.249441741516
 30
0.0
 10
213.052603326225
 20
97.21349074566544
 30
0.0
 10
213.3451198016701
 20
97.1992113316215
 30
0.0
 10
213.9433787004521
 20
97.17760067494605
 30
0.0
 10
214.2475271257726
 20
97.17026225733989
 30
0.0
 10
214.5567449293324
 20
97.16602789575867
 30
0.0
  0
ELLIPSE
  5
B2
330
1F
100
AcDbEntity
  8
0
  6
Continuous
 62
     7
370
    15
100
AcDbEllipse
 10
283.4257483346
 20
128.4117648771
 30
0.0
 11
299.7022783439755
 21
3.329013400823272
 31
0.0
210
0.0
220
0.0
230
1.0
 40
0.1045157088
 41
4.479364874774683
 42
4.483242593139991
  0
ELLIPSE
  5
B3
330
1F
100
AcDbEntity
  8
0
  6
Continuous
 62
     7
370
    15
100
AcDbEllipse
 10
234.6860503952
 20
128.4117648771
 30
0.0
 11
-22.41445668029357
 21
31.49663578142537
 31
0.0
210
0.0
220
0.0
230
1.0
 40
0.0205386817
 41
5.928465094628913
 42
6.268570076028026
  0
SPLINE
  5
B4
330
1F
100
AcDbEntity
  8
0
  6
Continuous
 62
     7
370
    15
100
AcDbSpline
210
0.0
220
0.0
230
1.0
 70
     8
 71
     3
 72
    18
 73
    14
 74
     0
 42
0.00000001
 43
0.00000001
 12
1.0
 22
0.0
 32
0.0
 13
1.0
 23
0.0
 33
0.0
 40
0.0
 40
0.0
 40
0.0
 40
0.0
 40
0.1250000000000001
 40
0.1250000000000001
 40
0.2500000000000001
 40
0.2500000000000001
 40
0.5000000000000001
 40
0.5000000000000001
 40
0.7500000000000001
 40
0.7500000000000001
 40
0.8750000000000004
 40
0.8750000000000004
 40
1.0
 40
1.0
 40
1.0
 40
1.0
 10
213.8917210484053
 20
158.1074338644669
 30
0.0
 10
213.6197431900198
 20
158.0868571946478
 30
0.0
 10
213.3531996671058
 20
158.0597445736784
 30
0.0
 10
212.8310429458394
 20
157.9915401110034
 30
0.0
 10
212.5737116052039
 20
157.9500318023906
 30
0.0
 10
211.8403528035622
 20
157.8059688829152
 30
0.0
 10
211.3953663600769
 20
157.6834814587006
 30
0.0
 10
210.6038069580305
 20
157.3771977944303
 30
0.0
 10
210.272080933574
 20
157.1993705643006
 30
0.0
 10
209.8650940839667
 20
156.8892889038308
 30
0.0
 10
209.7452651671516
 20
156.7787555954459
 30
0.0
 10
209.5414324368261
 20
156.5475352140771
 30
0.0
 10
209.456550416209
 20
156.4262281686504
 30
0.0
 10
209.3883607512039
 20
156.2988527077603
 30
0.0
  0
SPLINE
  5
B5
330
1F
100
AcDbEntity
  8
0
  6
Continuous
 62
     7
370
    15
100
AcDbSpline
210
0.0
220
0.0
230
1.0
 70
     8
 71
     3
 72
    68
 73
    64
 74
     0
 42
0.00000001
 43
0.00000001
 12
1.0
 22
0.0
 32
0.0
 13
1.0
 23
0.0
 33
0.0
 40
-0.0625000000000002
 40
-0.0625000000000002
 40
0.0
 40
0.0
 40
0.0312499999999999
 40
0.0312499999999999
 40
0.0624999999999998
 40
0.0624999999999998
 40
0.0937499999999997
 40
0.0937499999999997
 40
0.1249999999999996
 40
0.1249999999999996
 40
0.1562499999999994
 40
0.1562499999999994
 40
0.1874999999999993
 40
0.1874999999999993
 40
0.2187499999999992
 40
0.2187499999999992
 40
0.2499999999999991
 40
0.2499999999999991
 40
0.281249999999999
 40
0.281249999999999
 40
0.3124999999999989
 40
0.3124999999999989
 40
0.3437499999999988
 40
0.3437499999999988
 40
0.3749999999999987
 40
0.3749999999999987
 40
0.4062499999999986
 40
0.4062499999999986
 40
0.4374999999999984
 40
0.4374999999999984
 40
0.4687499999999983
 40
0.4687499999999983
 40
0.4999999999999982
 40
0.4999999999999982
 40
0.5312499999999983
 40
0.5312499999999983
 40
0.5624999999999984
 40
0.5624999999999984
 40
0.5937499999999986
 40
0.5937499999999986
 40
0.6249999999999987
 40
0.6249999999999987
 40
0.6562499999999988
 40
0.6562499999999988
 40
0.6874999999999989
 40
0.6874999999999989
 40
0.718749999999999
 40
0.718749999999999
 40
0.7499999999999991
 40
0.7499999999999991
 40
0.7812499999999992
 40
0.7812499999999992
 40
0.8124999999999993
 40
0.8124999999999993
 40
0.8437499999999994
 40
0.8437499999999994
 40
0.8749999999999996
 40
0.8749999999999996
 40
0.9062499999999997
 40
0.9062499999999997
 40
0.9374999999999998
 40
0.9374999999999998
 40
1.0
 40
1.0
 40
1.03125
 40
1.03125
 10
202.4556491597384
 20
112.3182736949984
 30
0.0
 10
202.4556491597384
 20
112.8335104681881
 30
0.0
 10
202.436178486638
 20
113.003302333923
 30
0.0
 10
202.3599094605178
 20
113.339041056856
 30
0.0
 10
202.3021773535034
 20
113.506758401517
 30
0.0
 10
202.1515584425249
 20
113.827972409029
 30
0.0
 10
202.0594049782147
 20
113.9810890050922
 30
0.0
 10
201.8417044699549
 20
114.2720658821708
 30
0.0
 10
201.7150640688195
 20
114.4104078900294
 30
0.0
 10
201.4384453626305
 20
114.6592527008132
 30
0.0
 10
201.287490445623
 20
114.7714074904899
 30
0.0
 10
200.9596024173944
 20
114.970046567312
 30
0.0
 10
200.7851534481807
 20
115.0546819590259
 30
0.0
 10
200.4242218454324
 20
115.1908942951105
 30
0.0
 10
200.2350701074231
 20
115.2434924560878
 30
0.0
 10
199.8477754221653
 20
115.3138855067314
 30
0.0
 10
199.6530538776161
 20
115.3313344212667
 30
0.0
 10
199.2615156401013
 20
115.331529500223
 30
0.0
 10
199.062649243524
 20
115.3137047917372
 30
0.0
 10
198.6778090322978
 20
115.2438016624296
 30
0.0
 10
198.4907497809514
 20
115.1921082419403
 30
0.0
 10
198.1274050637961
 20
115.0553275459622
 30
0.0
 10
197.951861840776
 20
114.9700100653775
 30
0.0
 10
197.6268804145369
 20
114.7734045487349
 30
0.0
 10
197.4753675159844
 20
114.6614304585225
 30
0.0
 10
197.1951634178741
 20
114.4095284679169
 30
0.0
 10
197.0710593178977
 20
114.2737157747497
 30
0.0
 10
196.8537509991382
 20
113.9838760878288
 30
0.0
 10
196.7597529982537
 20
113.8280006863831
 30
0.0
 10
196.6091063271818
 20
113.50672688792
 30
0.0
 10
196.5523042970625
 20
113.3421608670983
 30
0.0
 10
196.4754202944197
 20
113.0055206385142
 30
0.0
 10
196.4557210721145
 20
112.8323149064228
 30
0.0
 10
196.4555776496433
 20
112.4931176360466
 30
0.0
 10
196.4744965086398
 20
112.3254052809187
 30
0.0
 10
196.5511885103775
 20
111.993734349644
 30
0.0
 10
196.6087266780308
 20
111.8323072552409
 30
0.0
 10
196.7580911663819
 20
111.5261336216116
 30
0.0
 10
196.8510035519171
 20
111.3790464190895
 30
0.0
 10
197.0701036797688
 20
111.103507080235
 30
0.0
 10
197.194137038935
 20
110.9773084989499
 30
0.0
 10
197.4704403841248
 20
110.7468955816414
 30
0.0
 10
197.6245887256225
 20
110.6418564230798
 30
0.0
 10
197.9504529642511
 20
110.4617152756745
 30
0.0
 10
198.1226140342421
 20
110.3857408164495
 30
0.0
 10
198.4855675108888
 20
110.2617359884835
 30
0.0
 10
198.676209194108
 20
110.2142420510608
 30
0.0
 10
199.0597186994144
 20
110.1514873323498
 30
0.0
 10
199.2546117513064
 20
110.1354365406952
 30
0.0
 10
199.6509332638061
 20
110.1351256071707
 30
0.0
 10
199.8462961032151
 20
110.1509181153436
 30
0.0
 10
200.2298971803236
 20
110.2131050973491
 30
0.0
 10
200.4203894723593
 20
110.2602361802181
 30
0.0
 10
200.7839554957602
 20
110.3838090018188
 30
0.0
 10
200.9563148484559
 20
110.4595643424686
 30
0.0
 10
201.2824355971242
 20
110.6391495592903
 30
0.0
 10
201.4368600803249
 20
110.7439791003151
 30
0.0
 10
201.7137296101998
 20
110.9740404648925
 30
0.0
 10
201.8379793561711
 20
111.1000218792456
 30
0.0
 10
202.0574782241269
 20
111.3749611767042
 30
0.0
 10
202.150875993833
 20
111.5221439207684
 30
0.0
 10
202.3758372285333
 20
111.9809441462008
 30
0.0
 10
202.4556491597384
 20
112.3182736949984
 30
0.0
 10
202.4556491597384
 20
112.8335104681881
 30
0.0
  0
LINE
  5
B6
330
1F
100
AcDbEntity
  8
0
  6
Continuous
 62
     7
370
    15
100
AcDbLine
 10
178.4556491597
 20
97.4117648771
 30
0.0
 11
178.4556491597
 21
159.4117648769
 31
0.0
  0
ELLIPSE
  5
B7
330
1F
100
AcDbEntity
  8
0
  6
Continuous
 62
     7
370
    15
100
AcDbEllipse
 10
208.353816698
 20
111.8188984269
 30
0.0
 11
-0.2315443019953421
 21
3.339233589693877
 31
0.0
210
0.0
220
0.0
230
1.0
 40
0.2180210538
 41
0.0
 42
6.283185307179586
  0
SPLINE
  5
B8
330
1F
100
AcDbEntity
  8
0
  6
Continuous
 62
     7
370
    15
100
AcDbSpline
210
0.0
220
0.0
230
1.0
 70
     8
 71
     3
 72
    12
 73
     8
 74
     0
 42
0.00000001
 43
0.00000001
 12
1.0
 22
0.0
 32
0.0
 13
1.0
 23
0.0
 33
0.0
 40
0.0
 40
0.0
 40
0.0
 40
0.0
 40
0.4999999999999999
 40
0.4999999999999999
 40
0.7499999999999999
 40
0.7499999999999999
 40
1.0
 40
1.0
 40
1.0
 40
1.0
 10
177.6391368732818
 20
106.5569711746489
 30
0.0
 10
177.695573374189
 20
106.5555532933071
 30
0.0
 10
177.7646580048778
 20
106.5539889570588
 30
0.0
 10
177.8834602765957
 20
106.5510447650843
 30
0.0
 10
177.9236455520658
 20
106.550006561987
 30
0.0
 10
177.9970265994696
 20
106.5480726667723
 30
0.0
 10
178.0304361632123
 20
106.5471777794835
 30
0.0
 10
178.0606722708687
 20
106.5463939892112
 30
0.0
  0
SPLINE
  5
B9
330
1F
100
AcDbEntity
  8
0
  6
Continuous
 62
     7
370
    15
100
AcDbSpline
210
0.0
220
0.0
230
1.0
 70
     8
 71
     3
 72
    16
 73
    12
 74
     0
 42
0.00000001
 43
0.00000001
 12
1.0
 22
0.0
 32
0.0
 13
1.0
 23
0.0
 33
0.0
 40
0.0
 40
0.0
 40
0.0
 40
0.0
 40
0.0624999999999992
 40
0.0624999999999992
 40
0.1249999999999984
 40
0.1249999999999984
 40
0.2499999999999952
 40
0.2499999999999952
 40
0.4999999999999968
 40
0.4999999999999968
 40
1.0
 40
1.0
 40
1.0
 40
1.0
 10
178.0606722708315
 20
106.5463939892354
 30
0.0
 10
178.0722526784194
 20
106.5460937981241
 30
0.0
 10
178.0855622051807
 20
106.5447660498651
 30
0.0
 10
178.1148636352669
 20
106.5380673750901
 30
0.0
 10
178.1296777351511
 20
106.5327091919844
 30
0.0
 10
178.165506136854
 20
106.5156635428171
 30
0.0
 10
178.179625761217
 20
106.5042010050413
 30
0.0
 10
178.2141299053056
 20
106.472637679669
 30
0.0
 10
178.2252344560101
 20
106.4547403806238
 30
0.0
 10
178.2514106332263
 20
106.4045789630095
 30
0.0
 10
178.2556491597383
 20
106.376834550813
 30
0.0
 10
178.2556491597383
 20
106.3521703888834
 30
0.0
  0
LINE
  5
BA
330
1F
100
AcDbEntity
  8
0
  6
Continuous
 62
     7
370
    15
100
AcDbLine
 10
178.2556491597
 20
121.3898775514
 30
0.0
 11
178.2556491597
 21
105.8719445982
 31
0.0
  0
SPLINE
  5
BB
330
1F
100
AcDbEntity
  8
0
  6
Continuous
 62
     7
370
    15
100
AcDbSpline
210
0.0
220
0.0
230
1.0
 70
     8
 71
     3
 72
    16
 73
    12
 74
     0
 42
0.00000001
 43
0.00000001
 12
1.0
 22
0.0
 32
0.0
 13
1.0
 23
0.0
 33
0.0
 40
0.0
 40
0.0
 40
0.0
 40
0.0
 40
0.5000000000000028
 40
0.5000000000000028
 40
0.7500000000000042
 40
0.7500000000000042
 40
0.8750000000000022
 40
0.8750000000000022
 40
0.9375000000000011
 40
0.9375000000000011
 40
1.0
 40
1.0
 40
1.0
 40
1.0
 10
178.2556491597383
 20
121.3898775513746
 30
0.0
 10
178.2556491597383
 20
121.5035700955025
 30
0.0
 10
178.2515028846604
 20
121.617890256852
 30
0.0
 10
178.2255372892669
 20
121.7909385473491
 30
0.0
 10
178.2140763838895
 20
121.8501140545108
 30
0.0
 10
178.1797646461151
 20
121.933237173979
 30
0.0
 10
178.1657399101855
 20
121.9613584900796
 30
0.0
 10
178.1297169471517
 20
121.9899743040571
 30
0.0
 10
178.114962438062
 20
121.9957673519589
 30
0.0
 10
178.0856102769151
 20
121.9941739260218
 30
0.0
 10
178.072270402411
 20
121.987677522698
 30
0.0
 10
178.0606722708627
 20
121.9791617764949
 30
0.0
  0
SPLINE
  5
BC
330
1F
100
AcDbEntity
  8
0
  6
Continuous
 62
     7
370
    15
100
AcDbSpline
210
0.0
220
0.0
230
1.0
 70
     8
 71
     3
 72
    12
 73
     8
 74
     0
 42
0.00000001
 43
0.00000001
 12
1.0
 22
0.0
 32
0.0
 13
1.0
 23
0.0
 33
0.0
 40
0.0
 40
0.0
 40
0.0
 40
0.0
 40
0.2500000000000002
 40
0.2500000000000002
 40
0.5000000000000003
 40
0.5000000000000003
 40
1.0
 40
1.0
 40
1.0
 40
1.0
 10
178.0606722708698
 20
121.9791617764857
 30
0.0
 10
178.0304738294292
 20
121.9569890444406
 30
0.0
 10
177.9971064740931
 20
121.9379093885634
 30
0.0
 10
177.9239511982632
 20
121.9127363441207
 30
0.0
 10
177.8836984992393
 20
121.9071798077039
 30
0.0
 10
177.7659697559644
 20
121.9180916186907
 30
0.0
 10
177.6955113079055
 20
121.9600273741015
 30
0.0
 10
177.6391368732872
 20
122.009239156483
 30
0.0
  0
SPLINE
  5
BD
330
1F
100
AcDbEntity
  8
0
  6
Continuous
 62
     7
370
    15
100
AcDbSpline
210
0.0
220
0.0
230
1.0
 70
     8
 71
     3
 72
    12
 73
     8
 74
     0
 42
0.00000001
 43
0.00000001
 12
1.0
 22
0.0
 32
0.0
 13
1.0
 23
0.0
 33
0.0
 40
0.0
 40
0.0
 40
0.0
 40
0.0
 40
0.5000000000000016
 40
0.5000000000000016
 40
0.7500000000000008
 40
0.7500000000000008
 40
1.0
 40
1.0
 40
1.0
 40
1.0
 10
177.1343288161787
 20
123.2255905483636
 30
0.0
 10
177.1780791680631
 20
123.0051435633891
 30
0.0
 10
177.2309693191876
 20
122.7895985735835
 30
0.0
 10
177.3425808623293
 20
122.4771844970116
 30
0.0
 10
177.3851402062328
 20
122.3751050213957
 30
0.0
 10
177.4901174415702
 20
122.1806650087539
 30
0.0
 10
177.5516846846648
 20
122.0855801096903
 30
0.0
 10
177.6391368732872
 20
122.0092391564831
 30
0.0
  0
SPLINE
  5
BE
330
1F
100
AcDbEntity
  8
0
  6
Continuous
 62
     7
370
    15
100
AcDbSpline
210
0.0
220
0.0
230
1.0
 70
     8
 71
     3
 72
    12
 73
     8
 74
     0
 42
0.00000001
 43
0.00000001
 12
1.0
 22
0.0
 32
0.0
 13
1.0
 23
0.0
 33
0.0
 40
0.0
 40
0.0
 40
0.0
 40
0.0
 40
0.2500000000000008
 40
0.2500000000000008
 40
0.5000000000000016
 40
0.5000000000000016
 40
1.0
 40
1.0
 40
1.0
 40
1.0
 10
177.6391368732871
 20
134.8142905977663
 30
0.0
 10
177.5506434657192
 20
134.737040717658
 30
0.0
 10
177.4905854249534
 20
134.6437213937687
 30
0.0
 10
177.3847371519708
 20
134.4476883407993
 30
0.0
 10
177.3422036306933
 20
134.3453619825876
 30
0.0
 10
177.2310523238696
 20
134.0340175768117
 30
0.0
 10
177.1781214668219
 20
133.8185993236337
 30
0.0
 10
177.1343288161787
 20
133.5979392058858
 30
0.0
  0
SPLINE
  5
BF
330
1F
100
AcDbEntity
  8
0
  6
Continuous
 62
     7
370
    15
100
AcDbSpline
210
0.0
220
0.0
230
1.0
 70
     8
 71
     3
 72
    12
 73
     8
 74
     0
 42
0.00000001
 43
0.00000001
 12
1.0
 22
0.0
 32
0.0
 13
1.0
 23
0.0
 33
0.0
 40
0.0
 40
0.0
 40
0.0
 40
0.0
 40
0.5
 40
0.5
 40
0.75
 40
0.75
 40
1.0
 40
1.0
 40
1.0
 40
1.0
 10
177.6391368732871
 20
134.8142905977663
 30
0.0
 10
177.6954454215827
 20
134.8634448650101
 30
0.0
 10
177.7657200823008
 20
134.9054021836139
 30
0.0
 10
177.8837579966244
 20
134.9163618611463
 30
0.0
 10
177.9239342374784
 20
134.910853102899
 30
0.0
 10
177.9978913321563
 20
134.88529587411
 30
0.0
 10
178.0305077198677
 20
134.8665158262707
 30
0.0
 10
178.0606722708635
 20
134.844367977754
 30
0.0
  0
SPLINE
  5
C0
330
1F
100
AcDbEntity
  8
0
  6
Continuous
 62
     7
370
    15
100
AcDbSpline
210
0.0
220
0.0
230
1.0
 70
     8
 71
     3
 72
    16
 73
    12
 74
     0
 42
0.00000001
 43
0.00000001
 12
1.0
 22
0.0
 32
0.0
 13
1.0
 23
0.0
 33
0.0
 40
0.0
 40
0.0
 40
0.0
 40
0.0
 40
0.0624999999999996
 40
0.0624999999999996
 40
0.1249999999999991
 40
0.1249999999999991
 40
0.2500000000000006
 40
0.2500000000000006
 40
0.5000000000000004
 40
0.5000000000000004
 40
1.0
 40
1.0
 40
1.0
 40
1.0
 10
178.0606722708318
 20
134.8443679776995
 30
0.0
 10
178.0722851706711
 20
134.8358413881042
 30
0.0
 10
178.0856363551036
 20
134.8293411265714
 30
0.0
 10
178.1150361947228
 20
134.8277717294539
 30
0.0
 10
178.129876919278
 20
134.8336551200845
 30
0.0
 10
178.1657101272466
 20
134.862202756135
 30
0.0
 10
178.1798233350682
 20
134.8903697754409
 30
0.0
 10
178.2143147062871
 20
134.9741240338628
 30
0.0
 10
178.2253987773975
 20
135.0318374474842
 30
0.0
 10
178.2515215951935
 20
135.2054279841301
 30
0.0
 10
178.2556491597383
 20
135.320456036772
 30
0.0
 10
178.2556491597383
 20
135.4336522028748
 30
0.0
  0
LINE
  5
C1
330
1F
100
AcDbEntity
  8
0
  6
Continuous
 62
     7
370
    15
100
AcDbLine
 10
178.2556491597
 20
150.951585156
 30
0.0
 11
178.2556491597
 21
135.4336522029
 31
0.0
  0
SPLINE
  5
C2
330
1F
100
AcDbEntity
  8
0
  6
Continuous
 62
     7
370
    15
100
AcDbSpline
210
0.0
220
0.0
230
1.0
 70
     8
 71
     3
 72
    16
 73
    12
 74
     0
 42
0.00000001
 43
0.00000001
 12
1.0
 22
0.0
 32
0.0
 13
1.0
 23
0.0
 33
0.0
 40
0.0
 40
0.0
 40
0.0
 40
0.0
 40
0.5000000000000008
 40
0.5000000000000008
 40
0.7500000000000011
 40
0.7500000000000011
 40
0.8749999999999989
 40
0.8749999999999989
 40
0.9374999999999994
 40
0.9374999999999994
 40
1.0
 40
1.0
 40
1.0
 40
1.0
 10
178.2556491597383
 20
150.471359365366
 30
0.0
 10
178.2556491597383
 20
150.446688209323
 30
0.0
 10
178.2514834612783
 20
150.4191063779318
 30
0.0
 10
178.2252251329534
 20
150.3687635071085
 30
0.0
 10
178.2137213512158
 20
150.3504740090466
 30
0.0
 10
178.1795905918693
 20
150.3193189780095
 30
0.0
 10
178.1651687051986
 20
150.3076796027978
 30
0.0
 10
178.1296017367607
 20
150.2907975768668
 30
0.0
 10
178.1146499684661
 20
150.2854084730591
 30
0.0
 10
178.0856461501063
 20
150.2787879771146
 30
0.0
 10
178.0722307960971
 20
150.2774353889081
 30
0.0
 10
178.0606722708605
 20
150.2771357650365
 30
0.0
  0
SPLINE
  5
C3
330
1F
100
AcDbEntity
  8
0
  6
Continuous
 62
     7
370
    15
100
AcDbSpline
210
0.0
220
0.0
230
1.0
 70
     8
 71
     3
 72
    12
 73
     8
 74
     0
 42
0.00000001
 43
0.00000001
 12
1.0
 22
0.0
 32
0.0
 13
1.0
 23
0.0
 33
0.0
 40
0.0
 40
0.0
 40
0.0
 40
0.0
 40
0.2500000000000002
 40
0.2500000000000002
 40
0.5000000000000003
 40
0.5000000000000003
 40
1.0
 40
1.0
 40
1.0
 40
1.0
 10
178.0606722708698
 20
150.2771357650383
 30
0.0
 10
178.0304844943201
 20
150.2763532276207
 30
0.0
 10
177.9971306902284
 20
150.2754598958022
 30
0.0
 10
177.9240044870324
 20
150.2735325869986
 30
0.0
 10
177.8837692840083
 20
150.2724930557859
 30
0.0
 10
177.7660776538752
 20
150.2695751724387
 30
0.0
 10
177.6956969807151
 20
150.2679795663685
 30
0.0
 10
177.6391368732845
 20
150.2665585796006
 30
0.0
  0
SPLINE
  5
C4
330
1F
100
AcDbEntity
  8
0
  6
Continuous
 62
     7
370
    15
100
AcDbSpline
210
0.0
220
0.0
230
1.0
 70
     8
 71
     3
 72
    16
 73
    12
 74
     0
 42
0.00000001
 43
0.00000001
 12
1.0
 22
0.0
 32
0.0
 13
1.0
 23
0.0
 33
0.0
 40
0.0
 40
0.0
 40
0.0
 40
0.0
 40
0.2499999999999999
 40
0.2499999999999999
 40
0.3749999999999999
 40
0.3749999999999999
 40
0.4999999999999999
 40
0.4999999999999999
 40
0.7499999999999999
 40
0.7499999999999999
 40
1.0
 40
1.0
 40
1.0
 40
1.0
 10
177.1343288161787
 20
133.5979392058858
 30
0.0
 10
176.9730963386942
 20
132.785529430639
 30
0.0
 10
176.8526164990546
 20
131.9454511362542
 30
0.0
 10
176.7302359817413
 20
130.6441560868915
 30
0.0
 10
176.6992583213438
 20
130.2034750513067
 30
0.0
 10
176.6576445837159
 20
129.3076354103756
 30
0.0
 10
176.6474086707831
 20
128.8609772791731
 30
0.0
 10
176.647220273727
 20
127.5256673220332
 30
0.0
 10
176.6873649763646
 20
126.6411719487257
 30
0.0
 10
176.8515187313041
 20
124.8839220606996
 30
0.0
 10
176.9730703817137
 20
124.0381311142865
 30
0.0
 10
177.1343288161787
 20
123.2255905483636
 30
0.0
  0
LINE
  5
C5
330
1F
100
AcDbEntity
  8
0
  6
Continuous
 62
     7
370
    15
100
AcDbLine
 10
176.2556491597
 20
134.8969431388
 30
0.0
 11
176.2556491597
 21
121.9265866154
 31
0.0
  0
LINE
  5
C6
330
1F
100
AcDbEntity
  8
0
  6
Continuous
 62
     7
370
    15
100
AcDbLine
 10
141.9556491597
 20
134.4660754447
 30
0.0
 11
141.9556491597
 21
122.3574543096
 31
0.0
  0
LINE
  5
C7
330
1F
100
AcDbEntity
  8
0
  6
Continuous
 62
     7
370
    15
100
AcDbLine
 10
140.4556491597
 20
134.0330627428
 30
0.0
 11
140.4556491597
 21
122.7904670115
 31
0.0
  0
LINE
  5
C8
330
1F
100
AcDbEntity
  8
0
  6
Continuous
 62
     7
370
    15
100
AcDbLine
 10
141.9556491597
 20
134.4660754447
 30
0.0
 11
141.9556491597
 21
149.5701282734
 31
0.0
  0
LINE
  5
C9
330
1F
100
AcDbEntity
  8
0
  6
Continuous
 62
     7
370
    15
100
AcDbLine
 10
141.9556491597
 20
149.5701282734
 30
0.0
 11
176.2556491597
 21
150.4318636617
 31
0.0
  0
LINE
  5
CA
330
1F
100
AcDbEntity
  8
0
  6
Continuous
 62
     7
370
    15
100
AcDbLine
 10
176.2556491597
 20
134.8969431388
 30
0.0
 11
176.2556491597
 21
150.4318636617
 31
0.0
  0
ARC
  5
CB
330
1F
100
AcDbEntity
  8
0
  6
Continuous
 62
     7
370
    15
100
AcDbCircle
 10
176.4555860707
 20
150.4368867728
 30
0.0
 40
0.2000000000000066
100
AcDbArc
 50
181.4391666667
 51
271.4391666667
  0
LINE
  5
CC
330
1F
100
AcDbEntity
  8
0
  6
Continuous
 62
     7
370
    15
100
AcDbLine
 10
176.2556491597
 20
106.3916660926
 30
0.0
 11
176.2556491597
 21
121.9265866154
 31
0.0
  0
ARC
  5
CD
330
1F
100
AcDbEntity
  8
0
  6
Continuous
 62
     7
370
    15
100
AcDbCircle
 10
176.4555860707
 20
106.3866429814
 30
0.0
 40
0.2000000000000059
100
AcDbArc
 50
88.5608333333
 51
178.5608333333
  0
LINE
  5
CE
330
1F
100
AcDbEntity
  8
0
  6
Continuous
 62
     7
370
    15
100
AcDbLine
 10
141.9556491597
 20
107.2534014808
 30
0.0
 11
141.9556491597
 21
122.3574543096
 31
0.0
  0
LINE
  5
CF
330
1F
100
AcDbEntity
  8
0
  6
Continuous
 62
     7
370
    15
100
AcDbLine
 10
141.9556491597
 20
107.2534014808
 30
0.0
 11
176.2556491597
 21
106.3916660926
 31
0.0
  0
LINE
  5
D0
330
1F
100
AcDbEntity
  8
0
  6
Continuous
 62
     7
370
    15
100
AcDbLine
 10
176.4606091818
 20
150.2369498619
 30
0.0
 11
177.6391368733
 21
150.2665585796
 31
0.0
  0
LINE
  5
D1
330
1F
100
AcDbEntity
  8
0
  6
Continuous
 62
     7
370
    15
100
AcDbLine
 10
176.4606091818
 20
106.5865798924
 30
0.0
 11
177.6391368733
 21
106.5569711746
 31
0.0
  0
LINE
  5
D2
330
1F
100
AcDbEntity
  8
0
  6
Continuous
 62
     7
370
    15
100
AcDbLine
 10
140.4556491597
 20
148.7041028696
 30
0.0
 11
141.9556491597
 21
149.5701282734
 31
0.0
  0
LINE
  5
D3
330
1F
100
AcDbEntity
  8
0
  6
Continuous
 62
     7
370
    15
100
AcDbLine
 10
140.4556491597
 20
134.0330627428
 30
0.0
 11
140.4556491597
 21
148.7041028696
 31
0.0
  0
LINE
  5
D4
330
1F
100
AcDbEntity
  8
0
  6
Continuous
 62
     7
370
    15
100
AcDbLine
 10
140.4556491597
 20
108.1194268846
 30
0.0
 11
141.9556491597
 21
107.2534014808
 31
0.0
  0
LINE
  5
D5
330
1F
100
AcDbEntity
  8
0
  6
Continuous
 62
     7
370
    15
100
AcDbLine
 10
140.4556491597
 20
108.1194268846
 30
0.0
 11
140.4556491597
 21
122.7904670115
 31
0.0
  0
ELLIPSE
  5
D6
330
1F
100
AcDbEntity
  8
0
  6
Continuous
 62
     7
370
    15
100
AcDbEllipse
 10
215.1839157089
 20
156.5395814202
 30
0.0
 11
-5.998711941226674
 21
8.478905253513432
 31
0.0
210
0.0
220
0.0
230
1.0
 40
0.0146620728
 41
1.374451149684504
 42
1.486797775485161
  0
SPLINE
  5
D7
330
1F
100
AcDbEntity
  8
0
  6
Continuous
 62
     7
370
    15
100
AcDbSpline
210
0.0
220
0.0
230
1.0
 70
     8
 71
     3
 72
    10
 73
     6
 74
     0
 42
0.00000001
 43
0.00000001
 12
1.0
 22
0.0
 32
0.0
 13
1.0
 23
0.0
 33
0.0
 40
0.0
 40
0.0
 40
0.0
 40
0.0
 40
0.5
 40
0.5
 40
1.0
 40
1.0
 40
1.0
 40
1.0
 10
215.6883221717594
 20
97.15077432872555
 30
0.0
 10
215.9121167268025
 20
97.14780541548909
 30
0.0
 10
216.1269799461238
 20
97.068392020771
 30
0.0
 10
216.4735616888829
 20
96.7903799536703
 30
0.0
 10
216.5976834449696
 20
96.59826437203003
 30
0.0
 10
216.6542479980485
 20
96.3824641499677
 30
0.0
  0
LINE
  5
D8
330
1F
100
AcDbEntity
  8
0
  6
Continuous
 62
     7
370
    15
100
AcDbLine
 10
241.241128665
 20
99.4411798292
 30
0.0
 11
239.2509024518
 21
122.1677041507
 31
0.0
  0
LINE
  5
D9
330
1F
100
AcDbEntity
  8
0
  6
Continuous
 62
     7
370
    15
100
AcDbLine
 10
225.7435831262
 20
100.6267773869
 30
0.0
 11
241.241128665
 21
99.4411798292
 31
0.0
  0
ARC
  5
DA
330
1F
100
AcDbEntity
  8
0
  6
Continuous
 62
     7
370
    15
100
AcDbCircle
 10
225.4482445041
 20
97.1551610336
 30
0.0
 40
3.484156283260125
100
AcDbArc
 50
85.137420499
 51
264.8721335037
  0
LINE
  5
DB
330
1F
100
AcDbEntity
  8
0
  6
Continuous
 62
     7
370
    15
100
AcDbLine
 10
226.6914677872
 20
93.5660163977
 30
0.0
 11
225.1368350649
 21
93.6849493445
 31
0.0
  0
LINE
  5
DC
330
1F
100
AcDbEntity
  8
0
  6
Continuous
 62
     7
370
    15
100
AcDbLine
 10
227.4031643805
 20
85.4391060849
 30
0.0
 11
226.6914677872
 21
93.5660163977
 31
0.0
  0
ELLIPSE
  5
DD
330
1F
100
AcDbEntity
  8
0
  6
Continuous
 62
     7
370
    15
100
AcDbEllipse
 10
1518.5835668116
 20
141.9816832127
 30
0.0
 11
1483.852721607411
 21
16.35705661601605
 31
0.0
210
0.0
220
0.0
230
1.0
 40
0.057920228
 41
3.645109054385769
 42
3.656236088045279
  0
SPLINE
  5
DE
330
1F
100
AcDbEntity
  8
0
  6
Continuous
 62
     7
370
    15
100
AcDbSpline
210
0.0
220
0.0
230
1.0
 70
     8
 71
     3
 72
     8
 73
     4
 74
     0
 42
0.00000001
 43
0.00000001
 12
1.0
 22
0.0
 32
0.0
 13
1.0
 23
0.0
 33
0.0
 40
0.0
 40
0.0
 40
0.0
 40
0.0
 40
1.0
 40
1.0
 40
1.0
 40
1.0
 10
216.6542479980485
 20
96.3824641499677
 30
0.0
 10
217.5456270569815
 20
92.98175136450365
 30
0.0
 10
218.4446929245537
 20
89.5831491787673
 30
0.0
 10
219.3470269627004
 20
86.18544434851984
 30
0.0
  0
CIRCLE
  5
DF
330
1F
100
AcDbEntity
  8
0
  6
Continuous
 62
     7
370
    15
100
AcDbCircle
 10
229.8495678883
 20
105.8317175971
 30
0.0
 40
3.974314927767796
  0
LINE
  5
E0
330
1F
100
AcDbEntity
  8
0
  6
Continuous
 62
     7
370
    15
100
AcDbLine
 10
214.5567449293
 20
157.1633164927
 30
0.0
 11
239.2509024518
 21
122.1677041507
 31
0.0
  0
CIRCLE
  5
E1
330
1F
100
AcDbEntity
  8
0
  6
Continuous
 62
     7
370
    15
100
AcDbCircle
 10
229.7960026804
 20
105.8780960783
 30
0.0
 40
3.478353394234149
  0
LINE
  5
E2
330
1F
100
AcDbEntity
  8
0
  6
Continuous
 62
     7
370
    15
100
AcDbLine
 10
219.3470269627
 20
86.1854443485
 30
0.0
 11
219.3470269627
 21
86.1209960126
 31
0.0
  0
ARC
  5
E3
330
1F
100
AcDbEntity
  8
0
  6
Continuous
 62
     7
370
    15
100
AcDbCircle
 10
224.7695674705
 20
97.741757101
 30
0.0
 40
3.442896704699618
100
AcDbArc
 50
232.607249355
 51
265.6706410881
  0
LINE
  5
E4
330
1F
100
AcDbEntity
  8
0
  6
Continuous
 62
     7
370
    15
100
AcDbLine
 10
224.0277880696
 20
94.7879208643
 30
0.0
 11
226.0397062191
 21
94.63400454
 31
0.0
  0
LINE
  5
E5
330
1F
100
AcDbEntity
  8
0
  6
Continuous
 62
     7
370
    15
100
AcDbLine
 10
226.0787072626
 20
94.1886490528
 30
0.0
 11
226.0642970076
 21
94.1897514702
 31
0.0
  0
LINE
  5
E6
330
1F
100
AcDbEntity
  8
0
  6
Continuous
 62
     7
370
    15
100
AcDbLine
 10
226.0642970076
 20
94.1897514702
 30
0.0
 11
226.6914677872
 21
93.5660163977
 31
0.0
  0
ELLIPSE
  5
E7
330
1F
100
AcDbEntity
  8
0
  6
Continuous
 62
     7
370
    15
100
AcDbEllipse
 10
223.1076259282
 20
128.0445762918
 30
0.0
 11
-4.23506268882096
 21
42.61642064530926
 31
0.0
210
0.0
220
0.0
230
1.0
 40
0.0944088542
 41
3.123798096281478
 42
3.156745202433182
  0
LINE
  5
E8
330
1F
100
AcDbEntity
  8
0
  6
Continuous
 62
     7
370
    15
100
AcDbLine
 10
225.047069711
 20
100.4571606831
 30
0.0
 11
225.533011492
 21
100.4199850292
 31
0.0
  0
ARC
  5
E9
330
1F
100
AcDbEntity
  8
0
  6
Continuous
 62
     7
370
    15
100
AcDbCircle
 10
224.7380118278
 20
97.3438656973
 30
0.0
 40
3.043758861088031
100
AcDbArc
 50
221.5176114827
 51
265.6975388229
  0
LWPOLYLINE
  5
EA
330
1F
100
AcDbEntity
  8
0
  6
Continuous
 62
     7
370
    15
100
AcDbPolyline
 90
        3
 70
   128
 43
0.0
 10
224.2537785378
 20
100.4152188255
 10
224.35690733
 20
100.4323667188
 10
225.047069711
 20
100.4571606831
  0
ARC
  5
EB
330
1F
100
AcDbEntity
  8
0
  6
Continuous
 62
     7
370
    15
100
AcDbCircle
 10
224.2578260574
 20
97.8282484787
 30
0.0
 40
3.049017789176628
100
AcDbArc
 50
232.8566568957
 51
265.6731174068
  0
ARC
  5
EC
330
1F
100
AcDbEntity
  8
0
  6
Continuous
 62
     7
370
    15
100
AcDbCircle
 10
233.0633429001
 20
93.6683057299
 30
0.0
 40
3.989724928611944
100
AcDbArc
 50
268.6080866373
 51
283.6261595908
  0
ARC
  5
ED
330
1F
100
AcDbEntity
  8
0
  6
Continuous
 62
     7
370
    15
100
AcDbCircle
 10
198.9666514251
 20
113.1884740565
 30
0.0
 40
2.511642551708583
100
AcDbArc
 50
181.293764021
 51
242.8149761626
  0
ARC
  5
EE
330
1F
100
AcDbEntity
  8
0
  6
Continuous
 62
     7
370
    15
100
AcDbCircle
 10
199.4637902791
 20
113.4773446232
 30
0.0
 40
3.011751138894112
100
AcDbArc
 50
236.9023092314
 51
353.4111524143
  0
ARC
  5
EF
330
1F
100
AcDbEntity
  8
0
  6
Continuous
 62
     7
370
    15
100
AcDbCircle
 10
198.9326221522
 20
113.0642452695
 30
0.0
 40
2.322732760321439
100
AcDbArc
 50
157.9926731665
 51
243.481089277
  0
LWPOLYLINE
  5
F0
330
1F
100
AcDbEntity
  8
0
  6
Continuous
 62
     7
370
    15
100
AcDbPolyline
 90
       12
 70
   128
 43
0.0
 10
202.1152628178
 20
113.9725565067
 10
202.2697837499
 20
113.5035622078
 10
202.3115756019
 20
112.9296167872
 10
202.1994037202
 20
112.3627955044
 10
201.9393153199
 20
111.8336558415
 10
201.5453318341
 20
111.3707238545
 10
201.0386930144
 20
110.9989563267
 10
200.4467118908
 20
110.7383953419
 10
199.8013023187
 20
110.60308781
 10
199.1372584954
 20
110.6003281953
 10
198.4903791953
 20
110.7302652692
 10
197.8955378488
 20
110.9858940904
  0
LWPOLYLINE
  5
F1
330
1F
100
AcDbEntity
  8
0
  6
Continuous
 62
     7
370
    15
100
AcDbPolyline
 90
       27
 70
   128
 43
0.0
 10
198.0919154963
 20
111.2471925111
 10
197.6301079532
 20
111.5825591858
 10
197.2743942294
 20
112.0038919185
 10
197.0454471136
 20
112.4867043824
 10
196.95657218
 20
113.0029372719
 10
197.0129345167
 20
113.5225890081
 10
197.2112585496
 20
114.0154593208
 10
197.5400184067
 20
114.4529043789
 10
197.9801077601
 20
114.8095014658
 10
198.5059502163
 20
115.064526455
 10
199.0869857231
 20
115.2031582209
 10
199.6894466087
 20
115.2173399894
 10
200.2783200365
 20
115.1062475675
 10
200.8193828232
 20
114.8763372431
 10
201.2811903663
 20
114.5409705685
 10
201.6369040901
 20
114.1196378357
 10
201.8658512059
 20
113.6368253719
 10
201.9547261394
 20
113.1205924823
 10
201.8983638027
 20
112.6009407462
 10
201.7000397699
 20
112.1080704335
 10
201.3712799128
 20
111.6706253753
 10
200.9311905594
 20
111.3140282884
 10
200.4053481032
 20
111.0590032993
 10
199.8243125964
 20
110.9203715333
 10
199.2218517107
 20
110.9061897649
 10
198.632978283
 20
111.0172821867
 10
198.0919154963
 20
111.2471925111
  0
SPLINE
  5
F2
330
1F
100
AcDbEntity
  8
0
  6
HIDDEN
 62
     7
370
     0
100
AcDbSpline
210
0.0
220
0.0
230
1.0
 70
     8
 71
     3
 72
    60
 73
    56
 74
     0
 42
0.00000001
 43
0.00000001
 12
1.0
 22
0.0
 32
0.0
 13
1.0
 23
0.0
 33
0.0
 40
-0.0625000000000001
 40
-0.0625000000000001
 40
0.0
 40
0.0
 40
0.0312499999999998
 40
0.0312499999999998
 40
0.0624999999999997
 40
0.0624999999999997
 40
0.0937499999999995
 40
0.0937499999999995
 40
0.1249999999999993
 40
0.1249999999999993
 40
0.1874999999999989
 40
0.1874999999999989
 40
0.2499999999999984
 40
0.2499999999999984
 40
0.2812499999999984
 40
0.2812499999999984
 40
0.3124999999999984
 40
0.3124999999999984
 40
0.3437499999999983
 40
0.3437499999999983
 40
0.3749999999999983
 40
0.3749999999999983
 40
0.4062499999999982
 40
0.4062499999999982
 40
0.4374999999999982
 40
0.4374999999999982
 40
0.4687499999999982
 40
0.4687499999999982
 40
0.4999999999999981
 40
0.4999999999999981
 40
0.562499999999998
 40
0.562499999999998
 40
0.624999999999998
 40
0.624999999999998
 40
0.6562499999999982
 40
0.6562499999999982
 40
0.6874999999999984
 40
0.6874999999999984
 40
0.7187499999999986
 40
0.7187499999999986
 40
0.7499999999999988
 40
0.7499999999999988
 40
0.781249999999999
 40
0.781249999999999
 40
0.8124999999999991
 40
0.8124999999999991
 40
0.8437499999999993
 40
0.8437499999999993
 40
0.8749999999999994
 40
0.8749999999999994
 40
0.9062499999999997
 40
0.9062499999999997
 40
0.9374999999999999
 40
0.9374999999999999
 40
1.0
 40
1.0
 40
1.03125
 40
1.03125
 10
192.4556491597383
 20
128.147434352038
 30
0.0
 10
192.4556491597383
 20
128.5439301396681
 30
0.0
 10
192.4426773012495
 20
128.6738802006722
 30
0.0
 10
192.3918571315571
 20
128.9295331340323
 30
0.0
 10
192.3533898080902
 20
129.0565626405816
 30
0.0
 10
192.2529915720181
 20
129.2987507717061
 30
0.0
 10
192.1915585410449
 20
129.413612264259
 30
0.0
 10
192.0464237095
 20
129.6309924600831
 30
0.0
 10
191.9619685920921
 20
129.7338900272818
 30
0.0
 10
191.6852491417338
 20
130.0105570662896
 30
0.0
 10
191.4621722498158
 20
130.1595551567696
 30
0.0
 10
190.9808888875955
 20
130.3590662972342
 30
0.0
 10
190.7176584686044
 20
130.4116244002309
 30
0.0
 10
190.3262562669165
 20
130.411834682609
 30
0.0
 10
190.1937332388077
 20
130.3988489118819
 30
0.0
 10
189.9372027855666
 20
130.3478217636681
 30
0.0
 10
189.81251595127
 20
130.3100665645177
 30
0.0
 10
189.5703366890345
 20
130.2099282316089
 30
0.0
 10
189.4532431568844
 20
130.1473225641974
 30
0.0
 10
189.236528153529
 20
130.0025892709324
 30
0.0
 10
189.1355093266662
 20
129.9199619236529
 30
0.0
 10
188.9487244392141
 20
129.7333568704013
 30
0.0
 10
188.8658675580179
 20
129.6322418065251
 30
0.0
 10
188.7209832929441
 20
129.4157090025353
 30
0.0
 10
188.6583457851231
 20
129.2988387949342
 30
0.0
 10
188.5578969617234
 20
129.056540924284
 30
0.0
 10
188.5200458607061
 20
128.931876925823
 30
0.0
 10
188.4688242954498
 20
128.6755898817592
 30
0.0
 10
188.4556961688326
 20
128.5430178860136
 30
0.0
 10
188.4555555284923
 20
128.1514136932396
 30
0.0
 10
188.5078802778642
 20
127.8882483619156
 30
0.0
 10
188.7069913399214
 20
127.4067429927425
 30
0.0
 10
188.8558536763787
 20
127.1834914532584
 30
0.0
 10
189.1321746357042
 20
126.9066351543695
 30
0.0
 10
189.2349382840777
 20
126.8221217075258
 30
0.0
 10
189.4523218414572
 20
126.6767044340856
 30
0.0
 10
189.5671206094137
 20
126.6151932350272
 30
0.0
 10
189.8089973328377
 20
126.5146633867724
 30
0.0
 10
189.9361509408379
 20
126.4760183635543
 30
0.0
 10
190.1918169502705
 20
126.4249620360034
 30
0.0
 10
190.3216829880265
 20
126.4118971774577
 30
0.0
 10
190.5856355147582
 20
126.4116345566598
 30
0.0
 10
190.7160398381822
 20
126.4245115569039
 30
0.0
 10
190.9716906015616
 20
126.4750975607096
 30
0.0
 10
191.0985561506759
 20
126.5133739253315
 30
0.0
 10
191.3410766086218
 20
126.6136447928115
 30
0.0
 10
191.4560032472822
 20
126.6750008169524
 30
0.0
 10
191.6733747161142
 20
126.8198471121252
 30
0.0
 10
191.7763885287764
 20
126.9042246266198
 30
0.0
 10
191.9610890743583
 20
127.0886319468081
 30
0.0
 10
192.0439188086149
 20
127.1892050100775
 30
0.0
 10
192.1901712472124
 20
127.4074311506565
 30
0.0
 10
192.2525397280048
 20
127.5239862605778
 30
0.0
 10
192.4024958795716
 20
127.8848358546116
 30
0.0
 10
192.4556491597383
 20
128.147434352038
 30
0.0
 10
192.4556491597383
 20
128.5439301396681
 30
0.0
  0
SPLINE
  5
F3
330
1F
100
AcDbEntity
  8
0
  6
HIDDEN
 62
     7
370
     0
100
AcDbSpline
210
0.0
220
0.0
230
1.0
 70
     8
 71
     3
 72
    12
 73
     8
 74
     0
 42
0.00000001
 43
0.00000001
 12
1.0
 22
0.0
 32
0.0
 13
1.0
 23
0.0
 33
0.0
 40
0.0
 40
0.0
 40
0.0
 40
0.0
 40
0.5000000000000029
 40
0.5000000000000029
 40
0.7500000000000014
 40
0.7500000000000014
 40
1.0
 40
1.0
 40
1.0
 40
1.0
 10
188.5503932714126
 20
118.5023955564395
 30
0.0
 10
188.5811155133317
 20
118.6149513558487
 30
0.0
 10
188.6239527278668
 20
118.7277092155883
 30
0.0
 10
188.7233797520666
 20
118.8772501013846
 30
0.0
 10
188.7631319468833
 20
118.9245428330915
 30
0.0
 10
188.8611734037415
 20
118.9982791264129
 30
0.0
 10
188.920729459329
 20
119.0236984457886
 30
0.0
 10
188.9834059733048
 20
119.0236984457886
 30
0.0
  0
LINE
  5
F4
330
1F
100
AcDbEntity
  8
0
  6
HIDDEN
 62
     7
370
     0
100
AcDbLine
 10
188.9834059733
 20
119.0236984458
 30
0.0
 11
191.9278923462
 21
119.0236984458
 31
0.0
  0
SPLINE
  5
F5
330
1F
100
AcDbEntity
  8
0
  6
HIDDEN
 62
     7
370
     0
100
AcDbSpline
210
0.0
220
0.0
230
1.0
 70
     8
 71
     3
 72
    12
 73
     8
 74
     0
 42
0.00000001
 43
0.00000001
 12
1.0
 22
0.0
 32
0.0
 13
1.0
 23
0.0
 33
0.0
 40
0.0
 40
0.0
 40
0.0
 40
0.0
 40
0.25
 40
0.25
 40
0.5
 40
0.5
 40
1.0
 40
1.0
 40
1.0
 40
1.0
 10
191.9278923461719
 20
119.0236984457886
 30
0.0
 10
191.9909723846652
 20
119.0236984457886
 30
0.0
 10
192.0501210068467
 20
118.9983341265737
 30
0.0
 10
192.1485935569158
 20
118.9241692662008
 30
0.0
 10
192.1876301689005
 20
118.8776489256467
 30
0.0
 10
192.2875266356795
 20
118.7275065828014
 30
0.0
 10
192.3299475167462
 20
118.6158133758293
 30
0.0
 10
192.3609050480641
 20
118.5023955564395
 30
0.0
  0
ELLIPSE
  5
F6
330
1F
100
AcDbEntity
  8
0
  6
HIDDEN
 62
     7
370
     0
100
AcDbEllipse
 10
176.1084949704
 20
128.4117648771
 30
0.0
 11
-14.75368316065612
 21
31.09325491558116
 31
0.0
210
0.0
220
0.0
230
1.0
 40
0.3419987131
 41
3.300734856217129
 42
4.231496223360779
  0
SPLINE
  5
F7
330
1F
100
AcDbEntity
  8
0
  6
HIDDEN
 62
     7
370
     0
100
AcDbSpline
210
0.0
220
0.0
230
1.0
 70
     8
 71
     3
 72
    12
 73
     8
 74
     0
 42
0.00000001
 43
0.00000001
 12
1.0
 22
0.0
 32
0.0
 13
1.0
 23
0.0
 33
0.0
 40
0.0
 40
0.0
 40
0.0
 40
0.0
 40
0.5000000000000028
 40
0.5000000000000028
 40
0.7500000000000013
 40
0.7500000000000013
 40
1.0
 40
1.0
 40
1.0
 40
1.0
 10
192.3609050480641
 20
98.51102241700751
 30
0.0
 10
192.330182806145
 20
98.47372043405446
 30
0.0
 10
192.2873455916099
 20
98.43710860200808
 30
0.0
 10
192.1879185674101
 20
98.38934381872288
 30
0.0
 10
192.1481663725934
 20
98.3743863032405
 30
0.0
 10
192.0501249157352
 20
98.35119635747137
 30
0.0
 10
191.9905688601477
 20
98.34327291825166
 30
0.0
 10
191.9278923461719
 20
98.34327291825166
 30
0.0
  0
LINE
  5
F8
330
1F
100
AcDbEntity
  8
0
  6
HIDDEN
 62
     7
370
     0
100
AcDbLine
 10
191.9278923462
 20
98.3432729183
 30
0.0
 11
188.9834059733
 21
98.3432729183
 31
0.0
  0
SPLINE
  5
F9
330
1F
100
AcDbEntity
  8
0
  6
HIDDEN
 62
     7
370
     0
100
AcDbSpline
210
0.0
220
0.0
230
1.0
 70
     8
 71
     3
 72
    12
 73
     8
 74
     0
 42
0.00000001
 43
0.00000001
 12
1.0
 22
0.0
 32
0.0
 13
1.0
 23
0.0
 33
0.0
 40
0.0
 40
0.0
 40
0.0
 40
0.0
 40
0.2500000000000023
 40
0.2500000000000023
 40
0.5000000000000046
 40
0.5000000000000046
 40
1.0
 40
1.0
 40
1.0
 40
1.0
 10
188.9834059733048
 20
98.34327291825166
 30
0.0
 10
188.9203259348114
 20
98.34327291825166
 30
0.0
 10
188.86117731263
 20
98.35117884446407
 30
0.0
 10
188.7627047625609
 20
98.3745040059003
 30
0.0
 10
188.7236681505762
 20
98.38921679573201
 30
0.0
 10
188.6237716837972
 20
98.43717259646297
 30
0.0
 10
188.5813508027306
 20
98.47343475304301
 30
0.0
 10
188.5503932714126
 20
98.51102241700751
 30
0.0
  0
ELLIPSE
  5
FA
330
1F
100
AcDbEntity
  8
0
  6
HIDDEN
 62
     7
370
     0
100
AcDbEllipse
 10
204.8028033491
 20
128.4117648771
 30
0.0
 11
14.7536831606561
 21
31.09325491558113
 31
0.0
210
0.0
220
0.0
230
1.0
 40
0.3419987131
 41
2.051689083818821
 42
2.982450450962495
  0
SPLINE
  5
FB
330
1F
100
AcDbEntity
  8
0
  6
HIDDEN
 62
     7
370
     0
100
AcDbSpline
210
0.0
220
0.0
230
1.0
 70
     8
 71
     3
 72
    12
 73
     8
 74
     0
 42
0.00000001
 43
0.00000001
 12
1.0
 22
0.0
 32
0.0
 13
1.0
 23
0.0
 33
0.0
 40
0.0
 40
0.0
 40
0.0
 40
0.0
 40
0.499999999999999
 40
0.499999999999999
 40
0.7499999999999994
 40
0.7499999999999994
 40
1.0
 40
1.0
 40
1.0
 40
1.0
 10
188.5503932714126
 20
158.3125073372421
 30
0.0
 10
188.5811155133317
 20
158.3498093201951
 30
0.0
 10
188.6239527278668
 20
158.3864211522415
 30
0.0
 10
188.7233797520666
 20
158.4341859355267
 30
0.0
 10
188.7631319468833
 20
158.4491434510091
 30
0.0
 10
188.8611734037415
 20
158.4723333967783
 30
0.0
 10
188.920729459329
 20
158.4802568359979
 30
0.0
 10
188.9834059733048
 20
158.4802568359979
 30
0.0
  0
LINE
  5
FC
330
1F
100
AcDbEntity
  8
0
  6
HIDDEN
 62
     7
370
     0
100
AcDbLine
 10
188.9834059733
 20
158.480256836
 30
0.0
 11
191.9278923462
 21
158.480256836
 31
0.0
  0
SPLINE
  5
FD
330
1F
100
AcDbEntity
  8
0
  6
HIDDEN
 62
     7
370
     0
100
AcDbSpline
210
0.0
220
0.0
230
1.0
 70
     8
 71
     3
 72
    12
 73
     8
 74
     0
 42
0.00000001
 43
0.00000001
 12
1.0
 22
0.0
 32
0.0
 13
1.0
 23
0.0
 33
0.0
 40
0.0
 40
0.0
 40
0.0
 40
0.0
 40
0.2500000000000009
 40
0.2500000000000009
 40
0.5000000000000019
 40
0.5000000000000019
 40
1.0
 40
1.0
 40
1.0
 40
1.0
 10
191.9278923461719
 20
158.4802568359979
 30
0.0
 10
191.9909723846653
 20
158.4802568359979
 30
0.0
 10
192.0501210068467
 20
158.4723509097855
 30
0.0
 10
192.1485935569158
 20
158.4490257483492
 30
0.0
 10
192.1876301689005
 20
158.4343129585176
 30
0.0
 10
192.2875266356795
 20
158.3863571577866
 30
0.0
 10
192.3299475167462
 20
158.3500950012066
 30
0.0
 10
192.3609050480641
 20
158.3125073372421
 30
0.0
  0
ELLIPSE
  5
FE
330
1F
100
AcDbEntity
  8
0
  6
HIDDEN
 62
     7
370
     0
100
AcDbEllipse
 10
176.1084949704
 20
128.4117648771
 30
0.0
 11
14.75368316065627
 21
31.09325491558116
 31
0.0
210
0.0
220
0.0
230
1.0
 40
0.3419987131
 41
5.193281737408637
 42
6.124043104552343
  0
SPLINE
  5
FF
330
1F
100
AcDbEntity
  8
0
  6
HIDDEN
 62
     7
370
     0
100
AcDbSpline
210
0.0
220
0.0
230
1.0
 70
     8
 71
     3
 72
    12
 73
     8
 74
     0
 42
0.00000001
 43
0.00000001
 12
1.0
 22
0.0
 32
0.0
 13
1.0
 23
0.0
 33
0.0
 40
0.0
 40
0.0
 40
0.0
 40
0.0
 40
0.5000000000000019
 40
0.5000000000000019
 40
0.7500000000000009
 40
0.7500000000000009
 40
1.0
 40
1.0
 40
1.0
 40
1.0
 10
192.3609050480641
 20
138.3211341978103
 30
0.0
 10
192.330182806145
 20
138.2085783984012
 30
0.0
 10
192.2873455916099
 20
138.0958205386616
 30
0.0
 10
192.1879185674101
 20
137.9462796528652
 30
0.0
 10
192.1481663725934
 20
137.8989869211584
 30
0.0
 10
192.0501249157352
 20
137.8252506278369
 30
0.0
 10
191.9905688601477
 20
137.7998313084612
 30
0.0
 10
191.9278923461719
 20
137.7998313084612
 30
0.0
  0
LINE
  5
100
330
1F
100
AcDbEntity
  8
0
  6
HIDDEN
 62
     7
370
     0
100
AcDbLine
 10
191.9278923462
 20
137.7998313085
 30
0.0
 11
188.9834059733
 21
137.7998313085
 31
0.0
  0
SPLINE
  5
101
330
1F
100
AcDbEntity
  8
0
  6
HIDDEN
 62
     7
370
     0
100
AcDbSpline
210
0.0
220
0.0
230
1.0
 70
     8
 71
     3
 72
    12
 73
     8
 74
     0
 42
0.00000001
 43
0.00000001
 12
1.0
 22
0.0
 32
0.0
 13
1.0
 23
0.0
 33
0.0
 40
0.0
 40
0.0
 40
0.0
 40
0.0
 40
0.2500000000000001
 40
0.2500000000000001
 40
0.5000000000000001
 40
0.5000000000000001
 40
1.0
 40
1.0
 40
1.0
 40
1.0
 10
188.9834059733048
 20
137.7998313084612
 30
0.0
 10
188.9203259348114
 20
137.7998313084612
 30
0.0
 10
188.86117731263
 20
137.8251956276761
 30
0.0
 10
188.7627047625609
 20
137.899360488049
 30
0.0
 10
188.7236681505762
 20
137.9458808286032
 30
0.0
 10
188.6237716837972
 20
138.0960231714484
 30
0.0
 10
188.5813508027305
 20
138.2077163784206
 30
0.0
 10
188.5503932714126
 20
138.3211341978103
 30
0.0
  0
ELLIPSE
  5
102
330
1F
100
AcDbEntity
  8
0
  6
HIDDEN
 62
     7
370
     0
100
AcDbEllipse
 10
204.8028033491
 20
128.4117648771
 30
0.0
 11
-14.75368316065627
 21
31.09325491558116
 31
0.0
210
0.0
220
0.0
230
1.0
 40
0.3419987131
 41
0.1591422026272834
 42
1.089903569770961
  0
ELLIPSE
  5
103
330
1F
100
AcDbEntity
  8
0
  6
HIDDEN
 62
     7
370
     0
100
AcDbEllipse
 10
234.6860503952
 20
128.4117648771
 30
0.0
 11
-22.41445668029357
 21
31.49663578142537
 31
0.0
210
0.0
220
0.0
230
1.0
 40
0.0205386817
 41
6.268570076028026
 42
6.872117209833412
  0
LINE
  5
104
330
1F
100
AcDbEntity
  8
0
  6
HIDDEN
 62
     7
370
     0
100
AcDbLine
 10
178.4556491597
 20
97.4117648771
 30
0.0
 11
178.4556491597
 21
159.4117648771
 31
0.0
  0
LWPOLYLINE
  5
105
330
1F
100
AcDbEntity
  8
0
  6
HIDDEN
 62
     7
370
     0
100
AcDbPolyline
 90
       29
 70
   128
 43
0.0
 10
199.4556491597
 20
118.7598410885
 10
200.1232119616
 20
118.6947018935
 10
200.7573003771
 20
118.50255066
 10
201.3261185653
 20
118.193022653
 10
201.8011436071
 20
117.7816388994
 10
202.1585557634
 20
117.2890278982
 10
202.3804328963
 20
116.7398912222
 10
202.4556491597
 20
116.1617648771
 10
202.3804328963
 20
115.5836385321
 10
202.1585557634
 20
115.034501856
 10
201.8011436071
 20
114.5418908549
 10
201.3261185653
 20
114.1305071012
 10
200.7573003771
 20
113.8209790943
 10
200.1232119616
 20
113.6288278607
 10
199.4556491597
 20
113.5636886658
 10
198.7880863579
 20
113.6288278607
 10
198.1539979424
 20
113.8209790943
 10
197.5851797542
 20
114.1305071012
 10
197.1101547123
 20
114.5418908549
 10
196.752742556
 20
115.034501856
 10
196.5308654232
 20
115.5836385321
 10
196.4556491597
 20
116.1617648771
 10
196.5308654232
 20
116.7398912222
 10
196.752742556
 20
117.2890278982
 10
197.1101547123
 20
117.7816388994
 10
197.5851797542
 20
118.193022653
 10
198.1539979424
 20
118.50255066
 10
198.7880863579
 20
118.6947018935
 10
199.4556491597
 20
118.7598410885
  0
LINE
  5
106
330
1F
100
AcDbEntity
  8
0
  6
HIDDEN
 62
     7
370
     0
100
AcDbLine
 10
178.4556491597
 20
104.1617648771
 30
0.0
 11
178.4556491597
 21
152.6435277254
 31
0.0
  0
SPLINE
  5
107
330
1F
100
AcDbEntity
  8
0
  6
HIDDEN
 62
     7
370
     0
100
AcDbSpline
210
0.0
220
0.0
230
1.0
 70
     8
 71
     3
 72
    12
 73
     8
 74
     0
 42
0.00000001
 43
0.00000001
 12
1.0
 22
0.0
 32
0.0
 13
1.0
 23
0.0
 33
0.0
 40
0.0
 40
0.0
 40
0.0
 40
0.0
 40
0.4999999999999989
 40
0.4999999999999989
 40
0.7499999999999994
 40
0.7499999999999994
 40
1.0
 40
1.0
 40
1.0
 40
1.0
 10
177.6391368732913
 20
143.8640328589556
 30
0.0
 10
177.6955430519716
 20
143.8162104852958
 30
0.0
 10
177.7657059534433
 20
143.7759396383572
 30
0.0
 10
177.8837166668325
 20
143.7678937698803
 30
0.0
 10
177.923922450428
 20
143.7744563682191
 30
0.0
 10
177.9976431471611
 20
143.8018384626727
 30
0.0
 10
178.0305038689476
 20
143.8215999532031
 30
0.0
 10
178.0606722708768
 20
143.8445326643912
 30
0.0
  0
SPLINE
  5
108
330
1F
100
AcDbEntity
  8
0
  6
HIDDEN
 62
     7
370
     0
100
AcDbSpline
210
0.0
220
0.0
230
1.0
 70
     8
 71
     3
 72
    16
 73
    12
 74
     0
 42
0.00000001
 43
0.00000001
 12
1.0
 22
0.0
 32
0.0
 13
1.0
 23
0.0
 33
0.0
 40
0.0
 40
0.0
 40
0.0
 40
0.0
 40
0.0624999999999943
 40
0.0624999999999943
 40
0.1249999999999885
 40
0.1249999999999885
 40
0.2499999999999867
 40
0.2499999999999867
 40
0.4999999999999896
 40
0.4999999999999896
 40
1.0
 40
1.0
 40
1.0
 40
1.0
 10
178.0606722708317
 20
143.8445326644392
 30
0.0
 10
178.072285170671
 20
143.8533602874206
 30
0.0
 10
178.0856363551035
 20
143.8611946693025
 30
0.0
 10
178.1150361947227
 20
143.8695047953749
 30
0.0
 10
178.129876919278
 20
143.8690089761399
 30
0.0
 10
178.1657101272466
 20
143.8575580051705
 30
0.0
 10
178.1798233350682
 20
143.8408775043119
 30
0.0
 10
178.2143147062871
 20
143.7887568185549
 30
0.0
 10
178.2253987773975
 20
143.7489673245299
 30
0.0
 10
178.2515215951935
 20
143.6256306924328
 30
0.0
 10
178.2556491597383
 20
143.5382092819341
 30
0.0
 10
178.2556491597383
 20
143.4494720396159
 30
0.0
  0
LINE
  5
109
330
1F
100
AcDbEntity
  8
0
  6
HIDDEN
 62
     7
370
     0
100
AcDbLine
 10
178.2556491597
 20
113.3740577146
 30
0.0
 11
178.2556491597
 21
143.4494720396
 31
0.0
  0
SPLINE
  5
10A
330
1F
100
AcDbEntity
  8
0
  6
HIDDEN
 62
     7
370
     0
100
AcDbSpline
210
0.0
220
0.0
230
1.0
 70
     8
 71
     3
 72
    16
 73
    12
 74
     0
 42
0.00000001
 43
0.00000001
 12
1.0
 22
0.0
 32
0.0
 13
1.0
 23
0.0
 33
0.0
 40
0.0
 40
0.0
 40
0.0
 40
0.0
 40
0.4999999999999927
 40
0.4999999999999927
 40
0.7499999999999942
 40
0.7499999999999942
 40
0.874999999999997
 40
0.874999999999997
 40
0.9374999999999986
 40
0.9374999999999986
 40
1.0
 40
1.0
 40
1.0
 40
1.0
 10
178.2556491597383
 20
113.3740577146336
 30
0.0
 10
178.2556491597383
 20
113.2849313494448
 30
0.0
 10
178.2515028846604
 20
113.1980699818314
 30
0.0
 10
178.2255372892669
 20
113.0750877353374
 30
0.0
 10
178.2140763838894
 20
113.0343164401061
 30
0.0
 10
178.1797646461151
 20
112.9826121201063
 30
0.0
 10
178.1657399101854
 20
112.9659417535159
 30
0.0
 10
178.1297169471516
 20
112.9544895330592
 30
0.0
 10
178.114962438062
 20
112.9540364867842
 30
0.0
 10
178.0856102769151
 20
112.9623518080003
 30
0.0
 10
178.072270402411
 20
112.9701806930786
 30
0.0
 10
178.0606722708627
 20
112.9789970898412
 30
0.0
  0
SPLINE
  5
10B
330
1F
100
AcDbEntity
  8
0
  6
HIDDEN
 62
     7
370
     0
100
AcDbSpline
210
0.0
220
0.0
230
1.0
 70
     8
 71
     3
 72
    12
 73
     8
 74
     0
 42
0.00000001
 43
0.00000001
 12
1.0
 22
0.0
 32
0.0
 13
1.0
 23
0.0
 33
0.0
 40
0.0
 40
0.0
 40
0.0
 40
0.0
 40
0.2499999999999997
 40
0.2499999999999997
 40
0.4999999999999993
 40
0.4999999999999993
 40
1.0
 40
1.0
 40
1.0
 40
1.0
 10
178.0606722708698
 20
112.9789970898501
 30
0.0
 10
178.0304804291525
 20
113.001947618948
 30
0.0
 10
177.9971214597379
 20
113.0219170929721
 30
0.0
 10
177.9239841751573
 20
113.0490182265976
 30
0.0
 10
177.8837423025034
 20
113.055618967243
 30
0.0
 10
177.7660365255348
 20
113.0476500927363
 30
0.0
 10
177.6956260477555
 20
113.0073896345685
 30
0.0
 10
177.6391368732872
 20
112.9594968952903
 30
0.0
  0
SPLINE
  5
10C
330
1F
100
AcDbEntity
  8
0
  6
HIDDEN
 62
     7
370
     0
100
AcDbSpline
210
0.0
220
0.0
230
1.0
 70
     8
 71
     3
 72
    12
 73
     8
 74
     0
 42
0.00000001
 43
0.00000001
 12
1.0
 22
0.0
 32
0.0
 13
1.0
 23
0.0
 33
0.0
 40
0.0
 40
0.0
 40
0.0
 40
0.0
 40
0.2500000000000001
 40
0.2500000000000001
 40
0.5
 40
0.5
 40
1.0
 40
1.0
 40
1.0
 40
1.0
 10
177.6391368732868
 20
112.9594968952905
 30
0.0
 10
177.5509829355491
 20
112.8847580874365
 30
0.0
 10
177.4906295109203
 20
112.7937775869541
 30
0.0
 10
177.3843675528535
 20
112.6048637642015
 30
0.0
 10
177.3421353862914
 20
112.5083593046609
 30
0.0
 10
177.2310646909743
 20
112.2175915504937
 30
0.0
 10
177.1781279145475
 20
112.02192473595
 30
0.0
 10
177.1343288161787
 20
111.8278582508837
 30
0.0
  0
SPLINE
  5
10D
330
1F
100
AcDbEntity
  8
0
  6
HIDDEN
 62
     7
370
     0
100
AcDbSpline
210
0.0
220
0.0
230
1.0
 70
     8
 71
     3
 72
    12
 73
     8
 74
     0
 42
0.00000001
 43
0.00000001
 12
1.0
 22
0.0
 32
0.0
 13
1.0
 23
0.0
 33
0.0
 40
0.0
 40
0.0
 40
0.0
 40
0.0
 40
0.4999999999999999
 40
0.4999999999999999
 40
0.7499999999999998
 40
0.7499999999999998
 40
1.0
 40
1.0
 40
1.0
 40
1.0
 10
177.1343288161787
 20
106.6416839221226
 30
0.0
 10
177.1780753570153
 20
106.6150897514814
 30
0.0
 10
177.2309597122468
 20
106.5953295261557
 30
0.0
 10
177.342526799583
 20
106.5748785359266
 30
0.0
 10
177.3851103961259
 20
106.5696183112702
 30
0.0
 10
177.4900271232077
 20
106.5617355173475
 30
0.0
 10
177.5515607310525
 20
106.5591713921684
 30
0.0
 10
177.6391368732786
 20
106.5569711746487
 30
0.0
  0
LINE
  5
10E
330
1F
100
AcDbEntity
  8
0
  6
HIDDEN
 62
     7
370
     0
100
AcDbLine
 10
178.2556491597
 20
105.8719445982
 30
0.0
 11
178.2556491597
 21
106.3521703889
 31
0.0
  0
LINE
  5
10F
330
1F
100
AcDbEntity
  8
0
  6
HIDDEN
 62
     7
370
     0
100
AcDbLine
 10
178.2556491597
 20
150.4713593654
 30
0.0
 11
178.2556491597
 21
150.951585156
 31
0.0
  0
SPLINE
  5
110
330
1F
100
AcDbEntity
  8
0
  6
HIDDEN
 62
     7
370
     0
100
AcDbSpline
210
0.0
220
0.0
230
1.0
 70
     8
 71
     3
 72
    12
 73
     8
 74
     0
 42
0.00000001
 43
0.00000001
 12
1.0
 22
0.0
 32
0.0
 13
1.0
 23
0.0
 33
0.0
 40
0.0
 40
0.0
 40
0.0
 40
0.0
 40
0.2499999999999996
 40
0.2499999999999996
 40
0.4999999999999991
 40
0.4999999999999991
 40
1.0
 40
1.0
 40
1.0
 40
1.0
 10
177.6391368732866
 20
150.2665585796006
 30
0.0
 10
177.5504522134303
 20
150.2643305122596
 30
0.0
 10
177.4905337977069
 20
150.2618287282293
 30
0.0
 10
177.3848745703861
 20
150.2538972923933
 30
0.0
 10
177.3422333322712
 20
150.2486051374964
 30
0.0
 10
177.2310439901686
 20
150.2282001970093
 30
0.0
 10
177.1781173080477
 20
150.2084655054225
 30
0.0
 10
177.1343288161787
 20
150.1818458321268
 30
0.0
  0
SPLINE
  5
111
330
1F
100
AcDbEntity
  8
0
  6
HIDDEN
 62
     7
370
     0
100
AcDbSpline
210
0.0
220
0.0
230
1.0
 70
     8
 71
     3
 72
    12
 73
     8
 74
     0
 42
0.00000001
 43
0.00000001
 12
1.0
 22
0.0
 32
0.0
 13
1.0
 23
0.0
 33
0.0
 40
0.0
 40
0.0
 40
0.0
 40
0.0
 40
0.5000000000000003
 40
0.5000000000000003
 40
0.7500000000000017
 40
0.7500000000000017
 40
1.0
 40
1.0
 40
1.0
 40
1.0
 10
177.1343288161771
 20
144.9956715033659
 30
0.0
 10
177.1780902924759
 20
144.8017717154039
 30
0.0
 10
177.2309966081289
 20
144.605915351467
 30
0.0
 10
177.3427078057763
 20
144.3137732049681
 30
0.0
 10
177.3852272493627
 20
144.2170552682701
 30
0.0
 10
177.4903505919301
 20
144.0303308318457
 30
0.0
 10
177.5519165556478
 20
143.937980123576
 30
0.0
 10
177.6391368732905
 20
143.8640328589563
 30
0.0
  0
LWPOLYLINE
  5
112
330
1F
100
AcDbEntity
  8
0
  6
HIDDEN
 62
     7
370
     0
100
AcDbPolyline
 90
       27
 70
   128
 43
0.0
 10
199.4556491597
 20
118.4770435413
 10
200.0539383205
 20
118.4141307306
 10
200.6174570898
 20
118.2290485623
 10
201.1134558053
 20
117.9325533392
 10
201.5131088245
 20
117.541876286
 10
201.7931897665
 20
117.0797221331
 10
201.937421345
 20
116.5729495999
 10
201.937421345
 20
116.0510104639
 10
201.7931897665
 20
115.5442379307
 10
201.5131088245
 20
115.0820837777
 10
201.1134558053
 20
114.6914067246
 10
200.6174570898
 20
114.3949115015
 10
200.0539383205
 20
114.2098293332
 10
199.4556491597
 20
114.1469165224
 10
198.857359999
 20
114.2098293332
 10
198.2938412296
 20
114.3949115015
 10
197.7978425141
 20
114.6914067246
 10
197.398189495
 20
115.0820837777
 10
197.118108553
 20
115.5442379307
 10
196.9738769745
 20
116.0510104639
 10
196.9738769745
 20
116.5729495999
 10
197.118108553
 20
117.0797221331
 10
197.398189495
 20
117.541876286
 10
197.7978425141
 20
117.9325533392
 10
198.2938412296
 20
118.2290485623
 10
198.857359999
 20
118.4141307306
 10
199.4556491597
 20
118.4770435413
  0
SPLINE
  5
113
330
1F
100
AcDbEntity
  8
0
  6
HIDDEN
 62
     7
370
     0
100
AcDbSpline
210
0.0
220
0.0
230
1.0
 70
     8
 71
     3
 72
    12
 73
     8
 74
     0
 42
0.00000001
 43
0.00000001
 12
1.0
 22
0.0
 32
0.0
 13
1.0
 23
0.0
 33
0.0
 40
0.0
 40
0.0
 40
0.0
 40
0.0
 40
0.4999999999999986
 40
0.4999999999999986
 40
0.7499999999999992
 40
0.7499999999999992
 40
1.0
 40
1.0
 40
1.0
 40
1.0
 10
201.5828159772074
 20
118.8980947273872
 30
0.0
 10
201.5072646013762
 20
119.255835448263
 30
0.0
 10
201.4494441127238
 20
119.5748624690386
 30
0.0
 10
201.4724906427067
 20
119.9470036833207
 30
0.0
 10
201.4977018395936
 20
120.0488934064326
 30
0.0
 10
201.5680225434764
 20
120.2134673118496
 30
0.0
 10
201.6126388595665
 20
120.2772108786592
 30
0.0
 10
201.6585479210334
 20
120.3267662433549
 30
0.0
  0
SPLINE
  5
114
330
1F
100
AcDbEntity
  8
0
  6
HIDDEN
 62
     7
370
     0
100
AcDbSpline
210
0.0
220
0.0
230
1.0
 70
     8
 71
     3
 72
    60
 73
    56
 74
     0
 42
0.00000001
 43
0.00000001
 12
1.0
 22
0.0
 32
0.0
 13
1.0
 23
0.0
 33
0.0
 40
0.0
 40
0.0
 40
0.0
 40
0.0
 40
0.062499999999999
 40
0.062499999999999
 40
0.0937499999999988
 40
0.0937499999999988
 40
0.1249999999999986
 40
0.1249999999999986
 40
0.1562499999999984
 40
0.1562499999999984
 40
0.1874999999999983
 40
0.1874999999999983
 40
0.2187499999999981
 40
0.2187499999999981
 40
0.2499999999999979
 40
0.2499999999999979
 40
0.3124999999999983
 40
0.3124999999999983
 40
0.3437499999999987
 40
0.3437499999999987
 40
0.3749999999999991
 40
0.3749999999999991
 40
0.4062499999999995
 40
0.4062499999999995
 40
0.4374999999999999
 40
0.4374999999999999
 40
0.4687500000000003
 40
0.4687500000000003
 40
0.5000000000000007
 40
0.5000000000000007
 40
0.5312500000000004
 40
0.5312500000000004
 40
0.5625000000000001
 40
0.5625000000000001
 40
0.6250000000000001
 40
0.6250000000000001
 40
0.6562500000000002
 40
0.6562500000000002
 40
0.6875000000000002
 40
0.6875000000000002
 40
0.7500000000000007
 40
0.7500000000000007
 40
0.7812500000000007
 40
0.7812500000000007
 40
0.8125000000000007
 40
0.8125000000000007
 40
0.8437500000000006
 40
0.8437500000000006
 40
0.8750000000000006
 40
0.8750000000000006
 40
0.9062500000000004
 40
0.9062500000000004
 40
0.9375000000000004
 40
0.9375000000000004
 40
1.0
 40
1.0
 40
1.0
 40
1.0
 10
201.6585479210336
 20
120.326766243355
 30
0.0
 10
201.7897854824607
 20
120.167065929587
 30
0.0
 10
201.8739676963634
 20
120.0145737621285
 30
0.0
 10
201.94215473669
 20
119.7629189120174
 30
0.0
 10
201.9543642825168
 20
119.6759308438885
 30
0.0
 10
201.9567404483566
 20
119.4971396378921
 30
0.0
 10
201.9471167266964
 20
119.4047400091255
 30
0.0
 10
201.9039679076541
 20
119.2108671369885
 30
0.0
 10
201.8698260174326
 20
119.1084668056163
 30
0.0
 10
201.7775492781975
 20
118.9011004737483
 30
0.0
 10
201.7192194076802
 20
118.7949581795879
 30
0.0
 10
201.5766503837129
 20
118.5774844352423
 30
0.0
 10
201.4950754955093
 20
118.4701566283823
 30
0.0
 10
201.3125115498385
 20
118.257195824782
 30
0.0
 10
201.2102991368437
 20
118.1506323207318
 30
0.0
 10
200.8917778822879
 20
117.8478801021542
 30
0.0
 10
200.6574266974823
 20
117.6623268998385
 30
0.0
 10
200.314423199709
 20
117.417580853261
 30
0.0
 10
200.2002995578348
 20
117.3406167461148
 30
0.0
 10
199.9817239375869
 20
117.1975736562586
 30
0.0
 10
199.8761972762237
 20
117.1307754707477
 30
0.0
 10
199.6746304783784
 20
117.0024903096855
 30
0.0
 10
199.577964965193
 20
116.9406593070918
 30
0.0
 10
199.4032225010318
 20
116.8202236307766
 30
0.0
 10
199.3245700771552
 20
116.7614149554155
 30
0.0
 10
199.1928377200212
 20
116.6386473963909
 30
0.0
 10
199.1404076067791
 20
116.5745338696644
 30
0.0
 10
199.0791636453226
 20
116.4381600049863
 30
0.0
 10
199.0707405152827
 20
116.3640400845314
 30
0.0
 10
199.1009691293337
 20
116.2141917679386
 30
0.0
 10
199.1393360953932
 20
116.1365998210982
 30
0.0
 10
199.2459969263909
 20
115.9899402119311
 30
0.0
 10
199.313861730157
 20
115.9202175079919
 30
0.0
 10
199.547388236823
 20
115.7268263630439
 30
0.0
 10
199.7367175157459
 20
115.622995982544
 30
0.0
 10
200.045599356059
 20
115.522680908587
 30
0.0
 10
200.1542986497856
 20
115.4983748296713
 30
0.0
 10
200.3744084128143
 20
115.4736013511384
 30
0.0
 10
200.4861280015797
 20
115.4728128384233
 30
0.0
 10
200.8247013189248
 20
115.5121076406275
 30
0.0
 10
201.0531536749295
 20
115.5960135910957
 30
0.0
 10
201.3549771068926
 20
115.8221548996715
 30
0.0
 10
201.4466330391089
 20
115.9119674652061
 30
0.0
 10
201.6110553420608
 20
116.120529656252
 30
0.0
 10
201.6832442961308
 20
116.2394969930441
 30
0.0
 10
201.8007248108657
 20
116.4920869129129
 30
0.0
 10
201.8476024764841
 20
116.6288601118742
 30
0.0
 10
201.9156071876156
 20
116.9083776020838
 30
0.0
 10
201.9372343922247
 20
117.051320101874
 30
0.0
 10
201.9585572202792
 20
117.3424513159176
 30
0.0
 10
201.9580075918304
 20
117.4910657308666
 30
0.0
 10
201.9366611652587
 20
117.7829654258439
 30
0.0
 10
201.9160312714905
 20
117.9275694182974
 30
0.0
 10
201.8251716929111
 20
118.3572227372151
 30
0.0
 10
201.7266368776125
 20
118.6394887511786
 30
0.0
 10
201.5828159772074
 20
118.8980947273871
 30
0.0
  0
SPLINE
  5
115
330
1F
100
AcDbEntity
  8
0
  6
HIDDEN
 62
     7
370
     0
100
AcDbSpline
210
0.0
220
0.0
230
1.0
 70
     8
 71
     3
 72
    62
 73
    58
 74
     0
 42
0.00000001
 43
0.00000001
 12
1.0
 22
0.0
 32
0.0
 13
1.0
 23
0.0
 33
0.0
 40
-0.03125
 40
-0.03125
 40
0.0
 40
0.0
 40
0.0312499999999998
 40
0.0312499999999998
 40
0.0624999999999997
 40
0.0624999999999997
 40
0.0937499999999995
 40
0.0937499999999995
 40
0.1249999999999993
 40
0.1249999999999993
 40
0.1874999999999994
 40
0.1874999999999994
 40
0.2187499999999994
 40
0.2187499999999994
 40
0.2499999999999994
 40
0.2499999999999994
 40
0.2812499999999994
 40
0.2812499999999994
 40
0.3124999999999994
 40
0.3124999999999994
 40
0.3749999999999996
 40
0.3749999999999996
 40
0.4062499999999996
 40
0.4062499999999996
 40
0.4374999999999996
 40
0.4374999999999996
 40
0.4687499999999996
 40
0.4687499999999996
 40
0.4999999999999996
 40
0.4999999999999996
 40
0.5624999999999989
 40
0.5624999999999989
 40
0.5937499999999989
 40
0.5937499999999989
 40
0.624999999999999
 40
0.624999999999999
 40
0.656249999999999
 40
0.656249999999999
 40
0.6874999999999991
 40
0.6874999999999991
 40
0.7187499999999991
 40
0.7187499999999991
 40
0.7499999999999992
 40
0.7499999999999992
 40
0.7812499999999992
 40
0.7812499999999992
 40
0.8124999999999993
 40
0.8124999999999993
 40
0.8749999999999999
 40
0.8749999999999999
 40
0.9062499999999999
 40
0.9062499999999999
 40
0.9375
 40
0.9375
 40
0.96875
 40
0.96875
 40
1.0
 40
1.0
 40
1.03125
 40
1.03125
 10
199.2896053408022
 20
126.2539242701382
 30
0.0
 10
199.6216929786745
 20
126.2539242701382
 30
0.0
 10
199.7847897092516
 20
126.2373506260827
 30
0.0
 10
200.10538601416
 20
126.1728620552542
 30
0.0
 10
200.2645882174665
 20
126.1241180297958
 30
0.0
 10
200.5668987191806
 20
125.9985404862259
 30
0.0
 10
200.710150293425
 20
125.9221661579051
 30
0.0
 10
200.9812611344922
 20
125.7435823674757
 30
0.0
 10
201.108943129621
 20
125.6409804429892
 30
0.0
 10
201.4529432178362
 20
125.3085435206467
 30
0.0
 10
201.6389448464206
 20
125.0452871793502
 30
0.0
 10
201.8264313596022
 20
124.6307428530413
 30
0.0
 10
201.8749033043543
 20
124.4869859410634
 30
0.0
 10
201.939465283768
 20
124.1983704735953
 30
0.0
 10
201.955543783988
 20
124.0551610525551
 30
0.0
 10
201.9557535129017
 20
123.7711382123166
 30
0.0
 10
201.9393219654907
 20
123.6291722079386
 30
0.0
 10
201.8751532753384
 20
123.3596624196444
 30
0.0
 10
201.827684312547
 20
123.2307444107422
 30
0.0
 10
201.6385608285927
 20
122.8605514381997
 30
0.0
 10
201.4544209362267
 20
122.6453791030892
 30
0.0
 10
201.1076853524227
 20
122.379875289201
 30
0.0
 10
200.9823683962709
 20
122.3022639752507
 30
0.0
 10
200.712308893471
 20
122.1670001159179
 30
0.0
 10
200.5659355175898
 20
122.1090299451572
 30
0.0
 10
200.2645176145363
 20
122.0171500695127
 30
0.0
 10
200.1086654530973
 20
121.9825524136926
 30
0.0
 10
199.7863223917809
 20
121.9356907966787
 30
0.0
 10
199.6203709247114
 20
121.9238484827465
 30
0.0
 10
199.1294495571602
 20
121.9236952942771
 30
0.0
 10
198.7989665700575
 20
121.9709475670873
 30
0.0
 10
198.3470570724589
 20
122.1084204256801
 30
0.0
 10
198.2007598550796
 20
122.1662147305442
 30
0.0
 10
197.9298762925233
 20
122.3016896180931
 30
0.0
 10
197.8045197703654
 20
122.3792984239022
 30
0.0
 10
197.5737421288762
 20
122.5557765595424
 30
0.0
 10
197.4689542488062
 20
122.6546607215831
 30
0.0
 10
197.288290624624
 20
122.8671184618806
 30
0.0
 10
197.2111021274287
 20
122.9815915837119
 30
0.0
 10
197.0842387231375
 20
123.2291336334051
 30
0.0
 10
197.0365773692051
 20
123.3584406789679
 30
0.0
 10
196.9723470021426
 20
123.6270288401009
 30
0.0
 10
196.9557137882635
 20
123.7681743835999
 30
0.0
 10
196.955584913252
 20
124.0536627066415
 30
0.0
 10
196.9716658923809
 20
124.196928694465
 30
0.0
 10
197.0356333048493
 20
124.4842654181092
 30
0.0
 10
197.0841973550929
 20
124.6290337378398
 30
0.0
 10
197.2719281971355
 20
125.0448008175516
 30
0.0
 10
197.4578740346311
 20
125.3079287432036
 30
0.0
 10
197.8016492567355
 20
125.6403728704624
 30
0.0
 10
197.9288245611031
 20
125.7426985261854
 30
0.0
 10
198.2004669703776
 20
125.9218020200476
 30
0.0
 10
198.3436261413248
 20
125.9981165679301
 30
0.0
 10
198.6447530838626
 20
126.1234068018245
 30
0.0
 10
198.8042693125542
 20
126.1724624031385
 30
0.0
 10
199.126135204786
 20
126.2373442438695
 30
0.0
 10
199.2896053408022
 20
126.2539242701382
 30
0.0
 10
199.6216929786745
 20
126.2539242701382
 30
0.0
  0
LINE
  5
116
330
1F
100
AcDbEntity
  8
0
  6
HIDDEN
 62
     7
370
     0
100
AcDbLine
 10
178.2556491597
 20
106.3521703889
 30
0.0
 11
178.2556491597
 21
121.3898775514
 31
0.0
  0
LINE
  5
117
330
1F
100
AcDbEntity
  8
0
  6
HIDDEN
 62
     7
370
     0
100
AcDbLine
 10
178.2556491597
 20
135.4336522029
 30
0.0
 11
178.2556491597
 21
150.4713593654
 31
0.0
  0
LWPOLYLINE
  5
118
330
1F
100
AcDbEntity
  8
0
  6
HIDDEN
 62
     7
370
     0
100
AcDbPolyline
 90
        9
 70
   128
 43
0.0
 10
201.658547921
 20
120.3267662434
 10
201.8029749271
 20
120.3152036156
 10
201.9060179071
 20
120.2488055679
 10
201.9648280817
 20
120.129407775
 10
201.9777795545
 20
119.9603111699
 10
201.9445142623
 20
119.7461906845
 10
201.8659518746
 20
119.4929660043
 10
201.7442643677
 20
119.2076379093
 10
201.5828159772
 20
118.8980947274
  0
CIRCLE
  5
119
330
1F
100
AcDbEntity
  8
0
  6
HIDDEN
 62
     7
370
     0
100
AcDbCircle
 10
162.9556491597
 20
128.4117648771
 30
0.0
 40
4.050000000000011
  0
LINE
  5
11A
330
1F
100
AcDbEntity
  8
0
  6
HIDDEN
 62
     7
370
     0
100
AcDbLine
 10
141.9858775994
 20
143.72471592
 30
0.0
 11
141.9858775994
 21
113.0988138342
 31
0.0
  0
LINE
  5
11B
330
1F
100
AcDbEntity
  8
0
  6
HIDDEN
 62
     7
370
     0
100
AcDbLine
 10
140.4556491597
 20
112.2153360327
 30
0.0
 11
140.4556491597
 21
144.6081937216
 31
0.0
  0
LINE
  5
11C
330
1F
100
AcDbEntity
  8
0
  6
HIDDEN
 62
     7
370
     0
100
AcDbLine
 10
148.4858775994
 20
142.7581750386
 30
0.0
 11
148.4858775994
 21
114.0653547156
 31
0.0
  0
LINE
  5
11D
330
1F
100
AcDbEntity
  8
0
  6
HIDDEN
 62
     7
370
     0
100
AcDbLine
 10
154.2858775994
 20
142.4117648771
 30
0.0
 11
154.2858775994
 21
114.4117648771
 31
0.0
  0
LINE
  5
11E
330
1F
100
AcDbEntity
  8
0
  6
HIDDEN
 62
     7
370
     0
100
AcDbLine
 10
146.8858775994
 20
142.4117648771
 30
0.0
 11
146.8858775994
 21
114.4117648771
 31
0.0
  0
LINE
  5
11F
330
1F
100
AcDbEntity
  8
0
  6
HIDDEN
 62
     7
370
     0
100
AcDbLine
 10
147.8858775994
 20
142.4117648771
 30
0.0
 11
147.8858775994
 21
114.4117648771
 31
0.0
  0
SPLINE
  5
120
330
1F
100
AcDbEntity
  8
0
  6
HIDDEN
 62
     7
370
     0
100
AcDbSpline
210
0.0
220
0.0
230
1.0
 70
     8
 71
     3
 72
    10
 73
     6
 74
     0
 42
0.00000001
 43
0.00000001
 12
1.0
 22
0.0
 32
0.0
 13
1.0
 23
0.0
 33
0.0
 40
0.0
 40
0.0
 40
0.0
 40
0.0
 40
0.5
 40
0.5
 40
1.0
 40
1.0
 40
1.0
 40
1.0
 10
166.9556491597384
 20
129.0461937541472
 30
0.0
 10
166.9887965778148
 20
128.8372031531392
 30
0.0
 10
167.0056554231764
 20
128.6256406871176
 30
0.0
 10
167.0056428928288
 20
128.19765192115
 30
0.0
 10
166.9887279350884
 20
127.9858938167343
 30
0.0
 10
166.9556491597384
 20
127.7773360001022
 30
0.0
  0
LINE
  5
121
330
1F
100
AcDbEntity
  8
0
  6
HIDDEN
 62
     7
370
     0
100
AcDbLine
 10
167.4556491597
 20
141.9117648771
 30
0.0
 11
167.4556491597
 21
114.9117648771
 31
0.0
  0
SPLINE
  5
122
330
1F
100
AcDbEntity
  8
0
  6
HIDDEN
 62
     7
370
     0
100
AcDbSpline
210
0.0
220
0.0
230
1.0
 70
     8
 71
     3
 72
    10
 73
     6
 74
     0
 42
0.00000001
 43
0.00000001
 12
1.0
 22
0.0
 32
0.0
 13
1.0
 23
0.0
 33
0.0
 40
0.0
 40
0.0
 40
0.0
 40
0.0
 40
0.5
 40
0.5
 40
1.0
 40
1.0
 40
1.0
 40
1.0
 10
166.9556491597384
 20
127.7773360001022
 30
0.0
 10
166.9888381222121
 20
127.9865885336847
 30
0.0
 10
167.0055388984667
 20
128.1974052945837
 30
0.0
 10
167.0057583389113
 20
128.6219375757869
 30
0.0
 10
166.988878623518
 20
128.8366858645595
 30
0.0
 10
166.9556491597384
 20
129.0461937541472
 30
0.0
  0
SPLINE
  5
123
330
1F
100
AcDbEntity
  8
0
  6
HIDDEN
 62
     7
370
     0
100
AcDbSpline
210
0.0
220
0.0
230
1.0
 70
     8
 71
     3
 72
    68
 73
    64
 74
     0
 42
0.00000001
 43
0.00000001
 12
1.0
 22
0.0
 32
0.0
 13
1.0
 23
0.0
 33
0.0
 40
0.0
 40
0.0
 40
0.0
 40
0.0
 40
0.03125
 40
0.03125
 40
0.0625
 40
0.0625
 40
0.09375
 40
0.09375
 40
0.125
 40
0.125
 40
0.1562499999999999
 40
0.1562499999999999
 40
0.1874999999999999
 40
0.1874999999999999
 40
0.2187499999999999
 40
0.2187499999999999
 40
0.2499999999999999
 40
0.2499999999999999
 40
0.2812499999999999
 40
0.2812499999999999
 40
0.3124999999999999
 40
0.3124999999999999
 40
0.3437499999999999
 40
0.3437499999999999
 40
0.3749999999999999
 40
0.3749999999999999
 40
0.4062499999999999
 40
0.4062499999999999
 40
0.4374999999999999
 40
0.4374999999999999
 40
0.4687499999999999
 40
0.4687499999999999
 40
0.4999999999999999
 40
0.4999999999999999
 40
0.5624999999999999
 40
0.5624999999999999
 40
0.5937499999999999
 40
0.5937499999999999
 40
0.6249999999999999
 40
0.6249999999999999
 40
0.6562499999999999
 40
0.6562499999999999
 40
0.6874999999999999
 40
0.6874999999999999
 40
0.7187499999999999
 40
0.7187499999999999
 40
0.7499999999999999
 40
0.7499999999999999
 40
0.78125
 40
0.78125
 40
0.8125
 40
0.8125
 40
0.84375
 40
0.84375
 40
0.875
 40
0.875
 40
0.90625
 40
0.90625
 40
0.9375
 40
0.9375
 40
0.96875
 40
0.96875
 40
1.0
 40
1.0
 40
1.0
 40
1.0
 10
166.9556491597384
 20
127.7773360001022
 30
0.0
 10
166.9156342073887
 20
127.5250463972866
 30
0.0
 10
166.8526924059774
 20
127.2810475469108
 30
0.0
 10
166.6833057439053
 20
126.8086291578483
 30
0.0
 10
166.5756121813198
 20
126.5782157716884
 30
0.0
 10
166.3203274127819
 20
126.1435111758913
 30
0.0
 10
166.1742881823097
 20
125.9408692092399
 30
0.0
 10
165.8460667457504
 20
125.5638799184821
 30
0.0
 10
165.6618194579755
 20
125.3882219649047
 30
0.0
 10
165.2688592906672
 20
125.0779639959585
 30
0.0
 10
165.059564693708
 20
124.9420187883086
 30
0.0
 10
164.6146792667707
 20
124.7086286929027
 30
0.0
 10
164.3778816742716
 20
124.6113820864883
 30
0.0
 10
163.8971466053524
 20
124.464710628617
 30
0.0
 10
163.6509035121696
 20
124.4138182836746
 30
0.0
 10
163.1461867321901
 20
124.3582909334391
 30
0.0
 10
162.8899920312537
 20
124.3544660463691
 30
0.0
 10
162.3876132820535
 20
124.3938898290135
 30
0.0
 10
162.1383635828699
 20
124.4369172782248
 30
0.0
 10
161.6468357853912
 20
124.5706222476761
 30
0.0
 10
161.4115401841653
 20
124.6592920935813
 30
0.0
 10
160.9606262895032
 20
124.8783234573587
 30
0.0
 10
160.7430139390398
 20
125.0103250230422
 30
0.0
 10
160.3398067694916
 20
125.3096823040451
 30
0.0
 10
160.1541952770571
 20
125.476301231483
 30
0.0
 10
159.8142072066546
 20
125.8434126569105
 30
0.0
 10
159.6591342758317
 20
126.0457164024512
 30
0.0
 10
159.3927911991684
 20
126.4697970820452
 30
0.0
 10
159.2798070984516
 20
126.6929566875114
 30
0.0
 10
159.0949518415207
 20
127.1623119291056
 30
0.0
 10
159.0238110800173
 20
127.4085224324411
 30
0.0
 10
158.9298506687291
 20
127.9030482588122
 30
0.0
 10
158.9058413387727
 20
128.1539792539043
 30
0.0
 10
158.9052682181002
 20
128.9182246334605
 30
0.0
 10
159.0006673294188
 20
129.4204489355114
 30
0.0
 10
159.2785311216199
 20
130.1280134417838
 30
0.0
 10
159.3916930777005
 20
130.3517197055246
 30
0.0
 10
159.6578242597443
 20
130.7759896168452
 30
0.0
 10
159.812652033944
 20
130.9782415789013
 30
0.0
 10
160.1528331397319
 20
131.3459523202694
 30
0.0
 10
160.3383355966816
 20
131.5125691955188
 30
0.0
 10
160.7406293977409
 20
131.8116185743142
 30
0.0
 10
160.9586374459929
 20
131.9440752823426
 30
0.0
 10
161.4092358131432
 20
132.1632816830473
 30
0.0
 10
161.643784812024
 20
132.2517668130509
 30
0.0
 10
162.1322448055763
 20
132.3852530429896
 30
0.0
 10
162.3845102012902
 20
132.4291947554833
 30
0.0
 10
162.8866908394505
 20
132.4690037519568
 30
0.0
 10
163.1391729568022
 20
132.4656595391433
 30
0.0
 10
163.6470379998717
 20
132.4104802191528
 30
0.0
 10
163.8945834730555
 20
132.3594342906834
 30
0.0
 10
164.3755510105262
 20
132.2130239024478
 30
0.0
 10
164.6115108756314
 20
132.1163776976742
 30
0.0
 10
165.058081325153
 20
131.8824727533612
 30
0.0
 10
165.2677261877265
 20
131.7463477395347
 30
0.0
 10
165.660712894481
 20
131.4362934752056
 30
0.0
 10
165.845108798296
 20
131.2606362276304
 30
0.0
 10
166.1736592161564
 20
130.883496304966
 30
0.0
 10
166.3196013126795
 20
130.6810300996961
 30
0.0
 10
166.5744866678817
 20
130.2474538015628
 30
0.0
 10
166.68279798069
 20
130.0161619579813
 30
0.0
 10
166.852632958107
 20
129.542802277848
 30
0.0
 10
166.915628319244
 20
129.2985204810273
 30
0.0
 10
166.9556491597384
 20
129.0461937541472
 30
0.0
  0
SPLINE
  5
124
330
1F
100
AcDbEntity
  8
0
  6
HIDDEN
 62
     7
370
     0
100
AcDbSpline
210
0.0
220
0.0
230
1.0
 70
     8
 71
     3
 72
    68
 73
    64
 74
     0
 42
0.00000001
 43
0.00000001
 12
1.0
 22
0.0
 32
0.0
 13
1.0
 23
0.0
 33
0.0
 40
0.0
 40
0.0
 40
0.0
 40
0.0
 40
0.0312499999999999
 40
0.0312499999999999
 40
0.0624999999999998
 40
0.0624999999999998
 40
0.0937499999999997
 40
0.0937499999999997
 40
0.1249999999999996
 40
0.1249999999999996
 40
0.1562499999999994
 40
0.1562499999999994
 40
0.1874999999999993
 40
0.1874999999999993
 40
0.2187499999999992
 40
0.2187499999999992
 40
0.2499999999999991
 40
0.2499999999999991
 40
0.281249999999999
 40
0.281249999999999
 40
0.3124999999999989
 40
0.3124999999999989
 40
0.3437499999999988
 40
0.3437499999999988
 40
0.3749999999999987
 40
0.3749999999999987
 40
0.4062499999999986
 40
0.4062499999999986
 40
0.4374999999999984
 40
0.4374999999999984
 40
0.4687499999999983
 40
0.4687499999999983
 40
0.4999999999999982
 40
0.4999999999999982
 40
0.562499999999998
 40
0.562499999999998
 40
0.5937499999999979
 40
0.5937499999999979
 40
0.6249999999999978
 40
0.6249999999999978
 40
0.6562499999999977
 40
0.6562499999999977
 40
0.6874999999999976
 40
0.6874999999999976
 40
0.7187499999999974
 40
0.7187499999999974
 40
0.7499999999999973
 40
0.7499999999999973
 40
0.7812499999999977
 40
0.7812499999999977
 40
0.812499999999998
 40
0.812499999999998
 40
0.8437499999999983
 40
0.8437499999999983
 40
0.8749999999999987
 40
0.8749999999999987
 40
0.906249999999999
 40
0.906249999999999
 40
0.9374999999999993
 40
0.9374999999999993
 40
0.9687499999999997
 40
0.9687499999999997
 40
1.0
 40
1.0
 40
1.0
 40
1.0
 10
166.9556491597384
 20
129.0461937541472
 30
0.0
 10
166.9156342073886
 20
129.2984833569628
 30
0.0
 10
166.8526924059773
 20
129.5424822073386
 30
0.0
 10
166.6833057439053
 20
130.0149005964011
 30
0.0
 10
166.5756121813198
 20
130.2453139825611
 30
0.0
 10
166.3203274127819
 20
130.6800185783582
 30
0.0
 10
166.1742881823097
 20
130.8826605450095
 30
0.0
 10
165.8460667457504
 20
131.2596498357673
 30
0.0
 10
165.6618194579754
 20
131.4353077893447
 30
0.0
 10
165.2688592906671
 20
131.745565758291
 30
0.0
 10
165.059564693708
 20
131.8815109659409
 30
0.0
 10
164.6146792667707
 20
132.1149010613467
 30
0.0
 10
164.3778816742716
 20
132.2121476677611
 30
0.0
 10
163.8971466053523
 20
132.3588191256325
 30
0.0
 10
163.6509035121695
 20
132.4097114705749
 30
0.0
 10
163.1461867321901
 20
132.4652388208104
 30
0.0
 10
162.8899920312537
 20
132.4690637078803
 30
0.0
 10
162.3876132820535
 20
132.4296399252359
 30
0.0
 10
162.1383635828699
 20
132.3866124760246
 30
0.0
 10
161.6468357853912
 20
132.2529075065733
 30
0.0
 10
161.4115401841653
 20
132.1642376606681
 30
0.0
 10
160.9606262895032
 20
131.9452062968907
 30
0.0
 10
160.7430139390398
 20
131.8132047312072
 30
0.0
 10
160.3398067694915
 20
131.5138474502043
 30
0.0
 10
160.1541952770571
 20
131.3472285227664
 30
0.0
 10
159.8142072066546
 20
130.9801170973389
 30
0.0
 10
159.6591342758317
 20
130.7778133517982
 30
0.0
 10
159.3927911991684
 20
130.3537326722042
 30
0.0
 10
159.2798070984516
 20
130.130573066738
 30
0.0
 10
159.0949518415207
 20
129.6612178251438
 30
0.0
 10
159.0238110800173
 20
129.4150073218084
 30
0.0
 10
158.9298506687291
 20
128.9204814954372
 30
0.0
 10
158.9058413387727
 20
128.6695505003452
 30
0.0
 10
158.9052682181002
 20
127.9053051207889
 30
0.0
 10
159.0006673294188
 20
127.403080818738
 30
0.0
 10
159.2785311216199
 20
126.6955163124656
 30
0.0
 10
159.3916930777005
 20
126.4718100487248
 30
0.0
 10
159.6578242597443
 20
126.0475401374042
 30
0.0
 10
159.8126520339441
 20
125.8452881753482
 30
0.0
 10
160.1528331397319
 20
125.47757743398
 30
0.0
 10
160.3383355966816
 20
125.3109605587306
 30
0.0
 10
160.7406293977409
 20
125.0119111799352
 30
0.0
 10
160.958637445993
 20
124.8794544719068
 30
0.0
 10
161.4092358131432
 20
124.6602480712021
 30
0.0
 10
161.643784812024
 20
124.5717629411985
 30
0.0
 10
162.1322448055763
 20
124.4382767112598
 30
0.0
 10
162.3845102012902
 20
124.3943349987661
 30
0.0
 10
162.8866908394505
 20
124.3545260022926
 30
0.0
 10
163.1391729568022
 20
124.3578702151061
 30
0.0
 10
163.6470379998717
 20
124.4130495350966
 30
0.0
 10
163.8945834730555
 20
124.464095463566
 30
0.0
 10
164.3755510105262
 20
124.6105058518016
 30
0.0
 10
164.6115108756314
 20
124.7071520565752
 30
0.0
 10
165.0580813251531
 20
124.9410570008883
 30
0.0
 10
165.2677261877265
 20
125.0771820147148
 30
0.0
 10
165.660712894481
 20
125.3872362790439
 30
0.0
 10
165.845108798296
 20
125.562893526619
 30
0.0
 10
166.1736592161564
 20
125.9400334492834
 30
0.0
 10
166.3196013126795
 20
126.1424996545533
 30
0.0
 10
166.5744866678817
 20
126.5760759526866
 30
0.0
 10
166.68279798069
 20
126.8073677962682
 30
0.0
 10
166.852632958107
 20
127.2807274764014
 30
0.0
 10
166.915628319244
 20
127.5250092732222
 30
0.0
 10
166.9556491597384
 20
127.7773360001022
 30
0.0
  0
LINE
  5
125
330
1F
100
AcDbEntity
  8
0
  6
HIDDEN
 62
     7
370
     0
100
AcDbLine
 10
168.7056491597
 20
137.4117648771
 30
0.0
 11
168.7056491597
 21
119.4117648771
 31
0.0
  0
LINE
  5
126
330
1F
100
AcDbEntity
  8
0
  6
HIDDEN
 62
     7
370
     0
100
AcDbLine
 10
167.4556491597
 20
118.1617648771
 30
0.0
 11
167.4556491597
 21
138.6617648771
 31
0.0
  0
LINE
  5
127
330
1F
100
AcDbEntity
  8
0
  6
HIDDEN
 62
     7
370
     0
100
AcDbLine
 10
205.4556491597
 20
119.4117648771
 30
0.0
 11
205.4556491597
 21
137.4117648771
 31
0.0
  0
LINE
  5
128
330
1F
100
AcDbEntity
  8
0
  6
HIDDEN
 62
     7
370
     0
100
AcDbLine
 10
239.2509024518
 20
122.1677041507
 30
0.0
 11
235.4450122442
 21
125.9527452935
 31
0.0
  0
LINE
  5
129
330
1F
100
AcDbEntity
  8
0
  6
HIDDEN
 62
     7
370
     0
100
AcDbLine
 10
216.5543475755
 20
128.4117648771
 30
0.0
 11
216.5543475755
 21
153.0165964462
 31
0.0
  0
SPLINE
  5
12A
330
1F
100
AcDbEntity
  8
0
  6
HIDDEN
 62
     7
370
     0
100
AcDbSpline
210
0.0
220
0.0
230
1.0
 70
     8
 71
     3
 72
    10
 73
     6
 74
     0
 42
0.00000001
 43
0.00000001
 12
1.0
 22
0.0
 32
0.0
 13
1.0
 23
0.0
 33
0.0
 40
0.0
 40
0.0
 40
0.0
 40
0.0
 40
0.5000000000000001
 40
0.5000000000000001
 40
1.0
 40
1.0
 40
1.0
 40
1.0
 10
216.6542479980484
 20
124.4755548514218
 30
0.0
 10
216.6328823514659
 20
125.1286797881819
 30
0.0
 10
216.6063151768174
 20
125.7859006675931
 30
0.0
 10
216.5668619887251
 20
127.0987042425693
 30
0.0
 10
216.5543475755438
 20
127.755295258607
 30
0.0
 10
216.5543475755438
 20
128.4117648771247
 30
0.0
  0
SPLINE
  5
12B
330
1F
100
AcDbEntity
  8
0
  6
HIDDEN
 62
     7
370
     0
100
AcDbSpline
210
0.0
220
0.0
230
1.0
 70
     8
 71
     3
 72
    10
 73
     6
 74
     0
 42
0.00000001
 43
0.00000001
 12
1.0
 22
0.0
 32
0.0
 13
1.0
 23
0.0
 33
0.0
 40
0.0
 40
0.0
 40
0.0
 40
0.0
 40
0.5
 40
0.5
 40
1.0
 40
1.0
 40
1.0
 40
1.0
 10
215.68832217176
 20
154.3465831575453
 30
0.0
 10
215.8681815085238
 20
154.0766540594863
 30
0.0
 10
216.0287509628991
 20
153.8328823558787
 30
0.0
 10
216.3211042595747
 20
153.3843727071072
 30
0.0
 10
216.4535164223526
 20
153.1787356979615
 30
0.0
 10
216.5543475755439
 20
153.0165964461761
 30
0.0
  0
SPLINE
  5
12C
330
1F
100
AcDbEntity
  8
0
  6
HIDDEN
 62
     7
370
     0
100
AcDbSpline
210
0.0
220
0.0
230
1.0
 70
     8
 71
     3
 72
     8
 73
     4
 74
     0
 42
0.00000001
 43
0.00000001
 12
1.0
 22
0.0
 32
0.0
 13
1.0
 23
0.0
 33
0.0
 40
0.0
 40
0.0
 40
0.0
 40
0.0
 40
1.0
 40
1.0
 40
1.0
 40
1.0
 10
219.3470269627
 20
100.762006629482
 30
0.0
 10
217.9741396219339
 20
108.5987692220749
 30
0.0
 10
216.9157941214646
 20
116.4803699336307
 30
0.0
 10
216.6542479980485
 20
124.4755548514218
 30
0.0
  0
LINE
  5
12D
330
1F
100
AcDbEntity
  8
0
  6
HIDDEN
 62
     7
370
     0
100
AcDbLine
 10
219.3470269627
 20
86.1209960126
 30
0.0
 11
219.3470269627
 21
100.7620066295
 31
0.0
  0
ARC
  5
12E
330
1F
100
AcDbEntity
  8
0
  6
HIDDEN
 62
     7
370
     0
100
AcDbCircle
 10
224.8342990252
 20
97.7627804833
 30
0.0
 40
3.499123070542749
100
AcDbArc
 50
85.3755654578
 51
231.9741774449
  0
CIRCLE
  5
12F
330
1F
100
AcDbEntity
  8
0
  6
HIDDEN
 62
     7
370
     0
100
AcDbCircle
 10
229.2127968268
 20
106.4581070692
 30
0.0
 40
3.478353394234175
  0
LINE
  5
130
330
1F
100
AcDbEntity
  8
0
  6
HIDDEN
 62
     7
370
     0
100
AcDbLine
 10
240.6139578854
 20
100.0649149016
 30
0.0
 11
241.241128665
 21
99.4411798292
 31
0.0
  0
LINE
  5
131
330
1F
100
AcDbEntity
  8
0
  6
HIDDEN
 62
     7
370
     0
100
AcDbLine
 10
226.0397062191
 20
94.63400454
 30
0.0
 11
226.3872377209
 21
94.607417588
 31
0.0
  0
LINE
  5
132
330
1F
100
AcDbEntity
  8
0
  6
HIDDEN
 62
     7
370
     0
100
AcDbLine
 10
226.3872377209
 20
94.607417588
 30
0.0
 11
226.8691139366
 21
94.1281811407
 31
0.0
  0
LINE
  5
133
330
1F
100
AcDbEntity
  8
0
  6
HIDDEN
 62
     7
370
     0
100
AcDbLine
 10
226.8691139366
 20
94.1281811407
 30
0.0
 11
226.0787072626
 21
94.1886490528
 31
0.0
  0
ELLIPSE
  5
134
330
1F
100
AcDbEntity
  8
0
  6
HIDDEN
 62
     7
370
     0
100
AcDbEllipse
 10
223.1076259282
 20
128.0445762918
 30
0.0
 11
-4.23506268882096
 21
42.61642064530926
 31
0.0
210
0.0
220
0.0
230
1.0
 40
0.0944088542
 41
3.016296418047118
 42
3.123798096281478
  0
ELLIPSE
  5
135
330
1F
100
AcDbEntity
  8
0
  6
HIDDEN
 62
     7
370
     0
100
AcDbEllipse
 10
1331.6789175162
 20
140.5589023392
 30
0.0
 11
1328.273504467977
 21
14.6420494418079
 31
0.0
210
0.0
220
0.0
230
1.0
 40
0.057920228
 41
3.729388732249715
 42
3.730479382038117
  0
ELLIPSE
  5
136
330
1F
100
AcDbEntity
  8
0
  6
HIDDEN
 62
     7
370
     0
100
AcDbEllipse
 10
223.9152213793
 20
128.0439675633
 30
0.0
 11
-4.242083613273877
 21
42.68707052508461
 31
0.0
210
0.0
220
0.0
230
1.0
 40
0.0944088542
 41
2.906692904641805
 42
3.014318074005063
  0
ELLIPSE
  5
137
330
1F
100
AcDbEntity
  8
0
  6
HIDDEN
 62
     7
370
     0
100
AcDbEllipse
 10
1188.0738453141
 20
139.4657323682
 30
0.0
 11
1208.736805971288
 21
13.32435226301783
 31
0.0
210
0.0
220
0.0
230
1.0
 40
0.057920228
 41
3.792708754567918
 42
3.811345122874429
  0
SPLINE
  5
138
330
1F
100
AcDbEntity
  8
0
  6
HIDDEN
 62
     7
370
     0
100
AcDbSpline
210
0.0
220
0.0
230
1.0
 70
     8
 71
     3
 72
    42
 73
    38
 74
     0
 42
0.00000001
 43
0.00000001
 12
1.0
 22
0.0
 32
0.0
 13
1.0
 23
0.0
 33
0.0
 40
0.0
 40
0.0
 40
0.0
 40
0.0
 40
0.0267220467054568
 40
0.0528479990133675
 40
0.0783775400741707
 40
0.1033103604417344
 40
0.1276461580744565
 40
0.1513846383364534
 40
0.1745255139988888
 40
0.1970685052414701
 40
0.219013339654102
 40
0.2403597522387701
 40
0.2611074854116701
 40
0.2812562890056132
 40
0.3008059202728147
 40
0.3197561438880604
 40
0.3381067319524072
 40
0.3558574639974521
 40
0.3730081269903637
 40
0.3895585153397742
 40
0.4055084309027749
 40
0.4208576829932654
 40
0.435606088391966
 40
0.4497534713585629
 40
0.4632996636465103
 40
0.4762445045212585
 40
0.4885878407829111
 40
0.5003295267946786
 40
0.5625152117612108
 40
0.6230387461776221
 40
0.6818980589293638
 40
0.7390911625008458
 40
0.7946161541768412
 40
0.8484712174308194
 40
0.9006546235365144
 40
0.9511647334474495
 40
1.0
 40
1.0
 40
1.0
 40
1.0
 10
237.6780041881545
 20
98.36635456484255
 30
0.0
 10
237.7083935191774
 20
98.20195102585333
 30
0.0
 10
237.7684942799319
 20
97.87681133269791
 30
0.0
 10
237.8575515366998
 20
97.40325089869863
 30
0.0
 10
237.9445185842981
 20
96.94665135735389
 30
0.0
 10
238.0293902050173
 20
96.50725667977945
 30
0.0
 10
238.1121677513832
 20
96.08454648431321
 30
0.0
 10
238.1928508765084
 20
95.67819406452033
 30
0.0
 10
238.2714396730427
 20
95.28781991588903
 30
0.0
 10
238.3479341204608
 20
94.91305669158281
 30
0.0
 10
238.422334227811
 20
94.55353363879468
 30
0.0
 10
238.4946399969472
 20
94.20888176639427
 30
0.0
 10
238.564851432066
 20
93.87873361383744
 30
0.0
 10
238.6329685373253
 20
93.56272435958923
 30
0.0
 10
238.6989913175456
 20
93.26049253473181
 30
0.0
 10
238.7629197781286
 20
92.97168078922951
 30
0.0
 10
238.824753925222
 20
92.6959365971538
 30
0.0
 10
238.8844937657594
 20
92.43291293140065
 30
0.0
 10
238.9421393078769
 20
92.18226890139204
 30
0.0
 10
238.9976905601607
 20
91.94367035697675
 30
0.0
 10
239.0511475351855
 20
91.71679045851981
 30
0.0
 10
239.1025102381025
 20
91.50131021665567
 30
0.0
 10
239.1517787081727
 20
91.2969189949241
 30
0.0
 10
239.1989528744945
 20
91.10331500407365
 30
0.0
 10
239.2440330637833
 20
90.92020569205364
 30
0.0
 10
239.2870182281941
 20
90.74730837050663
 30
0.0
 10
239.3279121244977
 20
90.58434989336395
 30
0.0
 10
239.4229135490047
 20
90.20894501248787
 30
0.0
 10
239.5700431928807
 20
89.64423401857421
 30
0.0
 10
239.76669649658
 20
88.92834621464557
 30
0.0
 10
239.9558019218687
 20
88.27715358489286
 30
0.0
 10
240.1373751060365
 20
87.68762406479591
 30
0.0
 10
240.3114067674773
 20
87.15674101395449
 30
0.0
 10
240.4779190461144
 20
86.68112061977735
 30
0.0
 10
240.6368369903703
 20
86.25852506863342
 30
0.0
 10
240.7884274051041
 20
85.88255069777468
 30
0.0
 10
240.8856113674963
 20
85.66490250428917
 30
0.0
 10
240.9333841464318
 20
85.55791305070898
 30
0.0
  0
SPLINE
  5
139
330
1F
100
AcDbEntity
  8
0
  6
HIDDEN
 62
     7
370
     0
100
AcDbSpline
210
0.0
220
0.0
230
1.0
 70
     8
 71
     3
 72
     8
 73
     4
 74
     0
 42
0.00000001
 43
0.00000001
 12
1.0
 22
0.0
 32
0.0
 13
1.0
 23
0.0
 33
0.0
 40
0.0
 40
0.0
 40
0.0
 40
0.0
 40
1.0
 40
1.0
 40
1.0
 40
1.0
 10
237.6777824100172
 20
98.36634393020822
 30
0.0
 10
231.5653902276086
 20
99.14760256186483
 30
0.0
 10
225.4548084253682
 20
99.94469154521398
 30
0.0
 10
219.3470269627
 20
100.762006629482
 30
0.0
  0
SPLINE
  5
13A
330
1F
100
AcDbEntity
  8
0
  6
HIDDEN
 62
     7
370
     0
100
AcDbSpline
210
0.0
220
0.0
230
1.0
 70
     8
 71
     3
 72
    20
 73
    16
 74
     0
 42
0.00000001
 43
0.00000001
 12
1.0
 22
0.0
 32
0.0
 13
1.0
 23
0.0
 33
0.0
 40
0.0
 40
0.0
 40
0.0
 40
0.0
 40
0.0624999999999998
 40
0.0624999999999998
 40
0.1249999999999996
 40
0.1249999999999996
 40
0.2499999999999997
 40
0.2499999999999997
 40
0.4999999999999998
 40
0.4999999999999998
 40
0.7499999999999997
 40
0.7499999999999997
 40
0.8749999999999998
 40
0.8749999999999998
 40
1.0
 40
1.0
 40
1.0
 40
1.0
 10
231.492107822022
 20
103.0200126317249
 30
0.0
 10
231.6036956454853
 20
103.1210251988618
 30
0.0
 10
231.6936353881132
 20
103.2190897528985
 30
0.0
 10
231.8503584537217
 20
103.411811761612
 30
0.0
 10
231.9166486199589
 20
103.5064061283649
 30
0.0
 10
232.0916345608053
 20
103.7863145302638
 30
0.0
 10
232.1768649959632
 20
103.9683164578574
 30
0.0
 10
232.3752992469951
 20
104.4907548323899
 30
0.0
 10
232.4357827748345
 20
104.8141805855185
 30
0.0
 10
232.4896981628021
 20
105.4182728748356
 30
0.0
 10
232.4804720845252
 20
105.7002723975128
 30
0.0
 10
232.4301022771361
 20
106.063316571579
 30
0.0
 10
232.4071440924181
 20
106.173817267844
 30
0.0
 10
232.3493664281797
 20
106.3601211511643
 30
0.0
 10
232.3148419994109
 20
106.4366474525223
 30
0.0
 10
232.2717818184913
 20
106.4794717452653
 30
0.0
  0
SPLINE
  5
13B
330
1F
100
AcDbEntity
  8
0
  6
HIDDEN
 62
     7
370
     0
100
AcDbSpline
210
0.0
220
0.0
230
1.0
 70
     8
 71
     3
 72
    12
 73
     8
 74
     0
 42
0.00000001
 43
0.00000001
 12
1.0
 22
0.0
 32
0.0
 13
1.0
 23
0.0
 33
0.0
 40
0.0
 40
0.0
 40
0.0
 40
0.0
 40
0.5000000000000057
 40
0.5000000000000057
 40
0.7500000000000028
 40
0.7500000000000028
 40
1.0
 40
1.0
 40
1.0
 40
1.0
 10
229.6149610907195
 20
102.3161640409998
 30
0.0
 10
229.9069249474913
 20
102.4802793991123
 30
0.0
 10
230.2134542676914
 20
102.6203230442514
 30
0.0
 10
230.6930769008915
 20
102.8003430403481
 30
0.0
 10
230.8545004875881
 20
102.8543452244653
 30
0.0
 10
231.1740305756719
 20
102.9478751040943
 30
0.0
 10
231.3331719659871
 20
102.9877879188142
 30
0.0
 10
231.492107822022
 20
103.0200126317249
 30
0.0
  0
SPLINE
  5
13C
330
1F
100
AcDbEntity
  8
0
  6
HIDDEN
 62
     7
370
     0
100
AcDbSpline
210
0.0
220
0.0
230
1.0
 70
     8
 71
     3
 72
    20
 73
    16
 74
     0
 42
0.00000001
 43
0.00000001
 12
1.0
 22
0.0
 32
0.0
 13
1.0
 23
0.0
 33
0.0
 40
0.0
 40
0.0
 40
0.0
 40
0.0
 40
0.1250000000000001
 40
0.1250000000000001
 40
0.2500000000000002
 40
0.2500000000000002
 40
0.5000000000000001
 40
0.5000000000000001
 40
0.75
 40
0.75
 40
0.8749999999999994
 40
0.8749999999999994
 40
0.9374999999999998
 40
0.9374999999999998
 40
1.0
 40
1.0
 40
1.0
 40
1.0
 10
225.7299676144782
 20
104.0265752127255
 30
0.0
 10
225.7732669440936
 20
103.9835130813683
 30
0.0
 10
225.8441915947339
 20
103.9203115571577
 30
0.0
 10
226.0148254010575
 20
103.7763677200329
 30
0.0
 10
226.1152583809787
 20
103.6952321815756
 30
0.0
 10
226.4494741115111
 20
103.4403881145193
 30
0.0
 10
226.7155238925423
 20
103.2552487429904
 30
0.0
 10
227.3303746591787
 20
102.8980598872819
 30
0.0
 10
227.6755520693719
 20
102.7252377764102
 30
0.0
 10
228.2943302263899
 20
102.5085367274053
 30
0.0
 10
228.5179120435785
 20
102.4435481355045
 30
0.0
 10
228.8896089842474
 20
102.3701879603706
 30
0.0
 10
229.0198712014107
 20
102.3497215465049
 30
0.0
 10
229.299590697663
 20
102.3212517777121
 30
0.0
 10
229.4486419828638
 20
102.3129738892676
 30
0.0
 10
229.6149610907195
 20
102.3161640409998
 30
0.0
  0
ELLIPSE
  5
13D
330
1F
100
AcDbEntity
  8
0
  6
HIDDEN
 62
     7
370
     0
100
AcDbEllipse
 10
230.5951453221
 20
101.805849757
 30
0.0
 11
-1.316917434716487
 21
3.872622565108358
 31
0.0
210
0.0
220
0.0
230
1.0
 40
0.8539059128
 41
1.558430135847498
 42
1.597220060046394
  0
ELLIPSE
  5
13E
330
1F
100
AcDbEntity
  8
0
  6
HIDDEN
 62
     7
370
     0
100
AcDbEllipse
 10
231.341468186
 20
100.1921308842
 30
0.0
 11
4.15574986077462
 21
-0.6833618997421667
 31
0.0
210
0.0
220
0.0
230
1.0
 40
0.1367129703
 41
3.36971905721875
 42
4.030777987427411
  0
ELLIPSE
  5
13F
330
1F
100
AcDbEntity
  8
0
  6
HIDDEN
 62
     7
370
     0
100
AcDbEllipse
 10
232.0568638359
 20
98.645283645
 30
0.0
 11
-1.316917434716459
 21
3.872622565108358
 31
0.0
210
0.0
220
0.0
230
1.0
 40
0.8539059128
 41
0.6778123012955123
 42
0.8973712056388036
  0
ELLIPSE
  5
140
330
1F
100
AcDbEntity
  8
0
  6
HIDDEN
 62
     7
370
     0
100
AcDbEllipse
 10
232.0568638359
 20
98.645283645
 30
0.0
 11
-1.316917434716459
 21
3.872622565108358
 31
0.0
210
0.0
220
0.0
230
1.0
 40
0.8539059128
 41
4.73881271363621
 42
4.905062546971264
  0
ELLIPSE
  5
141
330
1F
100
AcDbEntity
  8
0
  6
HIDDEN
 62
     7
370
     0
100
AcDbEllipse
 10
230.8935611615
 20
101.1606072015
 30
0.0
 11
4.155749860774592
 21
-0.6833618997421383
 31
0.0
210
0.0
220
0.0
230
1.0
 40
0.1367129703
 41
4.250336891770678
 42
6.306271953274479
  0
LINE
  5
142
330
1F
100
AcDbEntity
  8
0
  6
HIDDEN
 62
     7
370
     0
100
AcDbLine
 10
232.2717818185
 20
106.4794717453
 30
0.0
 11
232.0504538147
 21
106.6995872911
 31
0.0
  0
ELLIPSE
  5
143
330
1F
100
AcDbEntity
  8
0
  6
HIDDEN
 62
     7
370
     0
100
AcDbEllipse
 10
228.1414913787
 20
107.483326601
 30
0.0
 11
3.518690774465541
 21
2.323872478491282
 31
0.0
210
0.0
220
0.0
230
1.0
 40
0.89827004
 41
3.477852089127398
 42
5.448073655802901
  0
LINE
  5
144
330
1F
100
AcDbEntity
  8
0
  6
HIDDEN
 62
     7
370
     0
100
AcDbLine
 10
225.5086396106
 20
104.2466907586
 30
0.0
 11
225.7299676145
 21
104.0265752127
 31
0.0
  0
ELLIPSE
  5
145
330
1F
100
AcDbEntity
  8
0
  6
HIDDEN
 62
     7
370
     0
100
AcDbEllipse
 10
226.1168012437
 20
109.4969252715
 30
0.0
 11
-3.010891765567237
 21
2.99439778544054
 31
0.0
210
0.0
220
0.0
230
1.0
 40
0.9890738004
 41
0.0
 42
6.283185307179586
  0
ARC
  5
146
330
1F
100
AcDbEntity
  8
0
  6
HIDDEN
 62
     7
370
     0
100
AcDbCircle
 10
229.1279502107
 20
106.4700861555
 30
0.0
 40
4.182373552239122
100
AcDbArc
 50
304.4208320035
 51
276.6869000979
  0
LINE
  5
147
330
1F
100
AcDbEntity
  8
0
  6
HIDDEN
 62
     7
370
     0
100
AcDbLine
 10
225.533011492
 20
100.4199850292
 30
0.0
 11
228.6506097376
 21
100.1814816574
 31
0.0
  0
ARC
  5
148
330
1F
100
AcDbEntity
  8
0
  6
HIDDEN
 62
     7
370
     0
100
AcDbCircle
 10
224.8004841043
 20
97.3614505082
 30
0.0
 40
3.102319763057784
100
AcDbArc
 50
100.1499396498
 51
220.9959912362
  0
LINE
  5
149
330
1F
100
AcDbEntity
  8
0
  6
HIDDEN
 62
     7
370
     0
100
AcDbLine
 10
228.957358351
 20
100.9566713353
 30
0.0
 11
225.1164123465
 21
101.2505124594
 31
0.0
  0
ARC
  5
14A
330
1F
100
AcDbEntity
  8
0
  6
HIDDEN
 62
     7
370
     0
100
AcDbCircle
 10
224.3169690476
 20
97.8467032987
 30
0.0
 40
3.099648907559017
100
AcDbArc
 50
85.4067512271
 51
232.191172737
  0
LINE
  5
14B
330
1F
100
AcDbEntity
  8
0
  6
HIDDEN
 62
     7
370
     0
100
AcDbLine
 10
227.6114553238
 20
85.6513359062
 30
0.0
 11
226.8691139366
 21
94.1281811407
 31
0.0
  0
LINE
  5
14C
330
1F
100
AcDbEntity
  8
0
  6
HIDDEN
 62
     7
370
     0
100
AcDbLine
 10
226.0642970076
 20
94.1897514702
 30
0.0
 11
226.8066938438
 21
85.7122730598
 31
0.0
  0
LINE
  5
14D
330
1F
100
AcDbEntity
  8
0
  6
HIDDEN
 62
     7
370
     0
100
AcDbLine
 10
235.4033608458
 20
99.6648808059
 30
0.0
 11
235.3277709379
 21
99.8717319112
 31
0.0
  0
LINE
  5
14E
330
1F
100
AcDbEntity
  8
0
  6
HIDDEN
 62
     7
370
     0
100
AcDbLine
 10
235.4033608458
 20
99.6648808059
 30
0.0
 11
240.6843702429
 21
99.2608715498
 31
0.0
  0
LINE
  5
14F
330
1F
100
AcDbEntity
  8
0
  6
HIDDEN
 62
     7
370
     0
100
AcDbLine
 10
240.6139578854
 20
100.0649149016
 30
0.0
 11
235.0503602435
 21
100.4905428025
 31
0.0
  0
LINE
  5
150
330
1F
100
AcDbEntity
  8
0
  6
HIDDEN
 62
     7
370
     0
100
AcDbLine
 10
240.6843702429
 20
99.2608715498
 30
0.0
 11
240.6139578854
 21
100.0649149016
 31
0.0
  0
LINE
  5
151
330
1F
100
AcDbEntity
  8
0
  6
HIDDEN
 62
     7
370
     0
100
AcDbLine
 10
234.9214846301
 20
100.1441172532
 30
0.0
 11
235.4033608458
 21
99.6648808059
 31
0.0
  0
LINE
  5
152
330
1F
100
AcDbEntity
  8
0
  6
HIDDEN
 62
     7
370
     0
100
AcDbLine
 10
236.4511657518
 20
95.9581585768
 30
0.0
 11
234.9214846301
 21
100.1441172532
 31
0.0
  0
LINE
  5
153
330
1F
100
AcDbEntity
  8
0
  6
HIDDEN
 62
     7
370
     0
100
AcDbLine
 10
236.2036450664
 20
96.2043233181
 30
0.0
 11
236.4511657518
 21
95.9581585768
 31
0.0
  0
LINE
  5
154
330
1F
100
AcDbEntity
  8
0
  6
HIDDEN
 62
     7
370
     0
100
AcDbLine
 10
233.5835702242
 20
101.8695178676
 30
0.0
 11
232.0504538147
 21
106.6995872911
 31
0.0
  0
LINE
  5
155
330
1F
100
AcDbEntity
  8
0
  6
HIDDEN
 62
     7
370
     0
100
AcDbLine
 10
240.2024940273
 20
99.7401079972
 30
0.0
 11
240.6843702429
 21
99.2608715498
 31
0.0
  0
LINE
  5
156
330
1F
100
AcDbEntity
  8
0
  6
HIDDEN
 62
     7
370
     0
100
AcDbLine
 10
141.9556491597
 20
113.3077120484
 30
0.0
 11
141.9556491597
 21
107.2534014808
 31
0.0
  0
LINE
  5
157
330
1F
100
AcDbEntity
  8
0
  6
HIDDEN
 62
     7
370
     0
100
AcDbLine
 10
140.4556491597
 20
113.7407247503
 30
0.0
 11
140.4556491597
 21
108.1194268846
 31
0.0
  0
LINE
  5
158
330
1F
100
AcDbEntity
  8
0
  6
HIDDEN
 62
     7
370
     0
100
AcDbLine
 10
176.2556491597
 20
112.8768443542
 30
0.0
 11
176.2556491597
 21
106.3916660926
 31
0.0
  0
LINE
  5
159
330
1F
100
AcDbEntity
  8
0
  6
HIDDEN
 62
     7
370
     0
100
AcDbLine
 10
141.9556491597
 20
149.5701282734
 30
0.0
 11
141.9556491597
 21
143.5158177059
 31
0.0
  0
LINE
  5
15A
330
1F
100
AcDbEntity
  8
0
  6
HIDDEN
 62
     7
370
     0
100
AcDbLine
 10
140.4556491597
 20
148.7041028696
 30
0.0
 11
140.4556491597
 21
143.082805004
 31
0.0
  0
LINE
  5
15B
330
1F
100
AcDbEntity
  8
0
  6
HIDDEN
 62
     7
370
     0
100
AcDbLine
 10
176.2556491597
 20
150.4318636617
 30
0.0
 11
176.2556491597
 21
143.9466854
 31
0.0
  0
SPLINE
  5
15C
330
1F
100
AcDbEntity
  8
0
  6
HIDDEN
 62
     7
370
     0
100
AcDbSpline
210
0.0
220
0.0
230
1.0
 70
     8
 71
     3
 72
    16
 73
    12
 74
     0
 42
0.00000001
 43
0.00000001
 12
1.0
 22
0.0
 32
0.0
 13
1.0
 23
0.0
 33
0.0
 40
0.0
 40
0.0
 40
0.0
 40
0.0
 40
0.25
 40
0.25
 40
0.375
 40
0.375
 40
0.5
 40
0.5
 40
0.75
 40
0.75
 40
1.0
 40
1.0
 40
1.0
 40
1.0
 10
177.1343288161787
 20
111.8278582508837
 30
0.0
 10
176.9730963386942
 20
111.1134640886916
 30
0.0
 10
176.8526164990546
 20
110.4601218259829
 30
0.0
 10
176.7302359817413
 20
109.571866584179
 30
0.0
 10
176.6992583213438
 20
109.2911860478272
 30
0.0
 10
176.6576445837159
 20
108.7621520579872
 30
0.0
 10
176.6474086707831
 20
108.5188310794087
 30
0.0
 10
176.647220273727
 20
107.8508083888955
 30
0.0
 10
176.6873649763646
 20
107.487127479476
 30
0.0
 10
176.8515187313041
 20
106.9272366069277
 30
0.0
 10
176.9730703817137
 20
106.7397153148106
 30
0.0
 10
177.1343288161787
 20
106.6416839221226
 30
0.0
  0
SPLINE
  5
15D
330
1F
100
AcDbEntity
  8
0
  6
HIDDEN
 62
     7
370
     0
100
AcDbSpline
210
0.0
220
0.0
230
1.0
 70
     8
 71
     3
 72
    16
 73
    12
 74
     0
 42
0.00000001
 43
0.00000001
 12
1.0
 22
0.0
 32
0.0
 13
1.0
 23
0.0
 33
0.0
 40
0.0
 40
0.0
 40
0.0
 40
0.0
 40
0.2499999999999998
 40
0.2499999999999998
 40
0.3749999999999997
 40
0.3749999999999997
 40
0.4999999999999996
 40
0.4999999999999996
 40
0.7499999999999998
 40
0.7499999999999998
 40
1.0
 40
1.0
 40
1.0
 40
1.0
 10
177.1343288161787
 20
150.1818458321268
 30
0.0
 10
176.9730963386942
 20
150.0838302190721
 30
0.0
 10
176.8526164990546
 20
149.897094187396
 30
0.0
 10
176.7302359817413
 20
149.4840543798372
 30
0.0
 10
176.6992583213438
 20
149.3240538806043
 30
0.0
 10
176.6576445837159
 20
148.9572482295131
 30
0.0
 10
176.6474086707831
 20
148.7539110768891
 30
0.0
 10
176.647220273727
 20
148.0866238102624
 30
0.0
 10
176.6873649763646
 20
147.5658093463744
 30
0.0
 10
176.8515187313041
 20
146.3684503308966
 30
0.0
 10
176.9730703817137
 20
145.7101806766007
 30
0.0
 10
177.1343288161787
 20
144.9956715033658
 30
0.0
  0
LINE
  5
15E
330
1F
100
AcDbEntity
  8
0
  6
HIDDEN
 62
     7
370
     0
100
AcDbLine
 10
227.3242382201
 20
100.5794014908
 30
0.0
 11
229.9093515478
 21
93.5052620443
 31
0.0
  0
ARC
  5
15F
330
1F
100
AcDbEntity
  8
0
  6
HIDDEN
 62
     7
370
     0
100
AcDbCircle
 10
233.8520952954
 20
92.9399386429
 30
0.0
 40
3.98306650799455
100
AcDbArc
 50
171.8403591371
 51
49.2673729642
  0
LINE
  5
160
330
1F
100
AcDbEntity
  8
0
  6
HIDDEN
 62
     7
370
     0
100
AcDbLine
 10
240.9332534093
 20
85.5557217573
 30
0.0
 11
241.4020438102
 21
86.0426657522
 31
0.0
  0
LINE
  5
161
330
1F
100
AcDbEntity
  8
0
  6
HIDDEN
 62
     7
370
     0
100
AcDbLine
 10
240.2024940273
 20
99.7401079972
 30
0.0
 11
234.9214846301
 21
100.1441172532
 31
0.0
  0
LINE
  5
162
330
1F
100
AcDbEntity
  8
0
  6
HIDDEN
 62
     7
370
     0
100
AcDbLine
 10
226.3872377209
 20
94.607417588
 30
0.0
 11
227.1028345029
 21
86.4359707632
 31
0.0
  0
LINE
  5
163
330
1F
100
AcDbEntity
  8
0
  6
HIDDEN
 62
     7
370
     0
100
AcDbLine
 10
227.2722580217
 20
100.7293005239
 30
0.0
 11
224.5651934953
 21
100.9363971304
 31
0.0
  0
LINE
  5
164
330
1F
100
AcDbEntity
  8
0
  6
HIDDEN
 62
     7
370
     0
100
AcDbLine
 10
241.4020155239
 20
86.0426929562
 30
0.0
 11
240.2024940273
 21
99.7401079972
 31
0.0
  0
SPLINE
  5
165
330
1F
100
AcDbEntity
  8
0
  6
HIDDEN
 62
     7
370
     0
100
AcDbSpline
210
0.0
220
0.0
230
1.0
 70
     8
 71
     3
 72
    12
 73
     8
 74
     0
 42
0.00000001
 43
0.00000001
 12
1.0
 22
0.0
 32
0.0
 13
1.0
 23
0.0
 33
0.0
 40
0.0
 40
0.0
 40
0.0
 40
0.0
 40
0.2499999999999994
 40
0.2499999999999994
 40
0.4999999999999988
 40
0.4999999999999988
 40
1.0
 40
1.0
 40
1.0
 40
1.0
 10
229.6618308623502
 20
93.75142678553244
 30
0.0
 10
229.6199703249497
 20
93.79305800652912
 30
0.0
 10
229.5844802847345
 20
93.87084142969523
 30
0.0
 10
229.5219976465404
 20
94.05747895794241
 30
0.0
 10
229.4953123997109
 20
94.16742356033077
 30
0.0
 10
229.430435224755
 20
94.52523237564897
 30
0.0
 10
229.4070234746823
 20
94.80026978646366
 30
0.0
 10
229.4143585082178
 20
95.09542595172285
 30
0.0
  0
ARC
  5
166
330
1F
100
AcDbEntity
  8
0
  6
HIDDEN
 62
     7
370
     0
100
AcDbCircle
 10
233.0638850711
 20
93.6163920843
 30
0.0
 40
3.9378401839291
100
AcDbArc
 50
157.9388954598
 51
268.581852171
  0
ARC
  5
167
330
1F
100
AcDbEntity
  8
0
  6
HIDDEN
 62
     7
370
     0
100
AcDbCircle
 10
233.0957297392
 20
93.6733997151
 30
0.0
 40
3.987179545964231
100
AcDbArc
 50
283.156609693
 51
61.7094796991
  0
SPLINE
  5
168
330
1F
100
AcDbEntity
  8
0
  6
HIDDEN
 62
     7
370
     0
100
AcDbSpline
210
0.0
220
0.0
230
1.0
 70
     8
 71
     3
 72
    12
 73
     8
 74
     0
 42
0.00000001
 43
0.00000001
 12
1.0
 22
0.0
 32
0.0
 13
1.0
 23
0.0
 33
0.0
 40
0.0
 40
0.0
 40
0.0
 40
0.0
 40
0.5000000000000011
 40
0.5000000000000011
 40
0.7500000000000006
 40
0.7500000000000006
 40
1.0
 40
1.0
 40
1.0
 40
1.0
 10
234.9854236841999
 20
97.18433371133737
 30
0.0
 10
235.269198686046
 20
96.99833118054507
 30
0.0
 10
235.5173348137728
 20
96.80755566246144
 30
0.0
 10
235.8331565609697
 20
96.54384017537198
 30
0.0
 10
235.9288340159767
 20
96.45976465806204
 30
0.0
 10
236.0926939407327
 20
96.31113921437291
 30
0.0
 10
236.1617845289628
 20
96.24595453906883
 30
0.0
 10
236.2036450663633
 20
96.20432331807214
 30
0.0
  0
LINE
  5
169
330
1F
100
AcDbEntity
  8
0
  6
HIDDEN
 62
     7
370
     0
100
AcDbLine
 10
229.9093515478
 20
93.5052620443
 30
0.0
 11
229.6618308624
 21
93.7514267855
 31
0.0
  0
SPLINE
  5
16A
330
1F
100
AcDbEntity
  8
0
  6
HIDDEN
 62
     7
370
     0
100
AcDbSpline
210
0.0
220
0.0
230
1.0
 70
     8
 71
     3
 72
    36
 73
    32
 74
     0
 42
0.00000001
 43
0.00000001
 12
1.0
 22
0.0
 32
0.0
 13
1.0
 23
0.0
 33
0.0
 40
0.0
 40
0.0
 40
0.0
 40
0.0
 40
0.0262649013822559
 40
0.0524986064440317
 40
0.0787072768837371
 40
0.1048970920695336
 40
0.1310742447224759
 40
0.157244936552557
 40
0.1834153738629052
 40
0.2095917631376864
 40
0.2357803066293583
 40
0.2619871979609478
 40
0.288218617758902
 40
0.3144807293318028
 40
0.3407796744098618
 40
0.3671215689596141
 40
0.3935124990876332
 40
0.4199585170463728
 40
0.4464656373544375
 40
0.4730398330427109
 40
0.4996870320368147
 40
0.550256474067699
 40
0.600595226611779
 40
0.6507443464584323
 40
0.7007453575323578
 40
0.7506401535411256
 40
0.80047089608445
 40
0.8502799094194128
 40
0.9001095731721094
 40
0.9500022143462538
 40
1.0
 40
1.0
 40
1.0
 40
1.0
 10
241.401979513613
 20
86.04272876923866
 30
0.0
 10
241.375954454444
 20
86.09980837501708
 30
0.0
 10
241.3239352475524
 20
86.21389978987256
 30
0.0
 10
241.2450578127733
 20
86.3973925228235
 30
0.0
 10
241.1656267943406
 20
86.58978750088067
 30
0.0
 10
241.0855773137922
 20
86.79197771861327
 30
0.0
 10
241.0049267481016
 20
87.00372418859575
 30
0.0
 10
240.9236704620239
 20
87.22509085186896
 30
0.0
 10
240.8418097138464
 20
87.45606054371186
 30
0.0
 10
240.75934418407
 20
87.69663781175063
 30
0.0
 10
240.676273976343
 20
87.94682137880955
 30
0.0
 10
240.5925990812713
 20
88.20661152105565
 30
0.0
 10
240.5083195200753
 20
88.47600809068763
 30
0.0
 10
240.4234353058424
 20
88.75501104722235
 30
0.0
 10
240.3379464543577
 20
89.04362031267038
 30
0.0
 10
240.251852979129
 20
89.34183582126903
 30
0.0
 10
240.1651549000407
 20
89.64965746778589
 30
0.0
 10
240.0778522132179
 20
89.96708526743397
 30
0.0
 10
239.9899450028474
 20
90.29411876879225
 30
0.0
 10
239.9014330222527
 20
90.6307592522014
 30
0.0
 10
239.7857395740705
 20
91.08026402548656
 30
0.0
 10
239.6427652735011
 20
91.65247365818205
 30
0.0
 10
239.4723528773369
 20
92.3606098337326
 30
0.0
 10
239.3016177030615
 20
93.09614928075635
 30
0.0
 10
239.1305608598667
 20
93.85909200310317
 30
0.0
 10
238.9591823913959
 20
94.64942612965542
 30
0.0
 10
238.787483035534
 20
95.46719300255307
 30
0.0
 10
238.6154619228307
 20
96.31223147443363
 30
0.0
 10
238.4431239926584
 20
97.18513550754466
 30
0.0
 10
238.2704525659668
 20
98.08367618010078
 30
0.0
 10
238.1553121310651
 20
98.70452153311626
 30
0.0
 10
238.0976813153093
 20
99.0152709599625
 30
0.0
  0
ELLIPSE
  5
16B
330
1F
100
AcDbEntity
  8
0
  6
HIDDEN
 62
     7
370
     0
100
AcDbEllipse
 10
231.4640355501
 20
98.1535419367
 30
0.0
 11
-1.316917434716459
 21
3.872622565108358
 31
0.0
210
0.0
220
0.0
230
1.0
 40
0.8539059128
 41
2.148969914261344
 42
4.18706285942128
  0
LWPOLYLINE
  5
16C
330
1F
100
AcDbEntity
  8
0
  6
HIDDEN
 62
     7
370
     0
100
AcDbPolyline
 90
       16
 70
   128
 43
0.0
 10
227.0417560202
 20
99.416621335
 10
227.2828353561
 20
98.9090920717
 10
227.656332704
 20
98.477345947
 10
228.1459244377
 20
98.1402523382
 10
228.7302130491
 20
97.9125438537
 10
229.3836623221
 20
97.8041724469
 10
230.0777133879
 20
97.8198744683
 10
230.7820328846
 20
97.9589636642
 10
231.4658386703
 20
98.2153611693
 10
232.099245151
 20
98.5778611823
 10
232.6545694241
 20
99.0306207132
 10
233.1075411541
 20
99.5538519979
 10
233.4383633028
 20
100.1246873185
 10
233.6325773548
 20
100.7181784323
 10
233.6816952242
 20
101.3083869299
 10
233.5835702242
 20
101.8695178676
  0
LINE
  5
16D
330
1F
100
AcDbEntity
  8
0
  6
HIDDEN
 62
     7
370
     0
100
AcDbLine
 10
225.5086396106
 20
104.2466907586
 30
0.0
 11
227.0417560202
 21
99.416621335
 31
0.0
  0
LINE
  5
16E
330
1F
100
AcDbEntity
  8
0
  6
HIDDEN
 62
     7
370
     0
100
AcDbLine
 10
140.4556491597
 20
143.082805004
 30
0.0
 11
140.4556491597
 21
131.3137522101
 31
0.0
  0
LINE
  5
16F
330
1F
100
AcDbEntity
  8
0
  6
HIDDEN
 62
     7
370
     0
100
AcDbLine
 10
140.4556491597
 20
125.5097775441
 30
0.0
 11
140.4556491597
 21
113.7407247503
 31
0.0
  0
LINE
  5
170
330
1F
100
AcDbEntity
  8
0
  6
HIDDEN
 62
     7
370
     0
100
AcDbLine
 10
141.9556491597
 20
124.4465539803
 30
0.0
 11
141.9556491597
 21
113.3077120484
 31
0.0
  0
LINE
  5
171
330
1F
100
AcDbEntity
  8
0
  6
HIDDEN
 62
     7
370
     0
100
AcDbLine
 10
141.9556491597
 20
143.5158177059
 30
0.0
 11
141.9556491597
 21
132.376975774
 31
0.0
  0
LINE
  5
172
330
1F
100
AcDbEntity
  8
0
  6
HIDDEN
 62
     7
370
     0
100
AcDbLine
 10
178.2556491597
 20
143.4494720396
 30
0.0
 11
178.2556491597
 21
113.3740577146
 31
0.0
  0
LINE
  5
173
330
1F
100
AcDbEntity
  8
0
  6
HIDDEN
 62
     7
370
     0
100
AcDbLine
 10
176.2556491597
 20
143.9466854
 30
0.0
 11
176.2556491597
 21
112.8768443542
 31
0.0
  0
SPLINE
  5
174
330
1F
100
AcDbEntity
  8
0
  6
HIDDEN
 62
     7
370
     0
100
AcDbSpline
210
0.0
220
0.0
230
1.0
 70
     8
 71
     3
 72
    24
 73
    20
 74
     0
 42
0.00000001
 43
0.00000001
 12
1.0
 22
0.0
 32
0.0
 13
1.0
 23
0.0
 33
0.0
 40
0.0
 40
0.0
 40
0.0
 40
0.0
 40
0.1250000000000001
 40
0.1250000000000001
 40
0.2500000000000001
 40
0.2500000000000001
 40
0.3750000000000001
 40
0.3750000000000001
 40
0.4375
 40
0.4375
 40
0.5
 40
0.5
 40
0.6249999999999999
 40
0.6249999999999999
 40
0.7499999999999999
 40
0.7499999999999999
 40
0.8749999999999999
 40
0.8749999999999999
 40
1.0
 40
1.0
 40
1.0
 40
1.0
 10
146.9056491597383
 20
124.3258038240255
 30
0.0
 10
147.1434527920134
 20
124.6248109263556
 30
0.0
 10
147.3735384532247
 20
124.9291487776743
 30
0.0
 10
147.8082918518345
 20
125.5548823150703
 30
0.0
 10
148.0132246441207
 20
125.8761070423978
 30
0.0
 10
148.3783265946194
 20
126.5480328131306
 30
0.0
 10
148.5401269804109
 20
126.9033480450094
 30
0.0
 10
148.7119871849906
 20
127.4535792663619
 30
0.0
 10
148.7575723766508
 20
127.6399830513424
 30
0.0
 10
148.8200471162257
 20
128.0201175534386
 30
0.0
 10
148.8367182619741
 20
128.2157873457245
 30
0.0
 10
148.8372393051506
 20
128.7942677243989
 30
0.0
 10
148.7727970042639
 20
129.1721795633677
 30
0.0
 10
148.5429479108906
 20
129.9141475884662
 30
0.0
 10
148.3844272332274
 20
130.2628630486271
 30
0.0
 10
148.0201929033273
 20
130.9359554463603
 30
0.0
 10
147.8134566632637
 20
131.2609079336019
 30
0.0
 10
147.3755187175233
 20
131.8918317440637
 30
0.0
 10
147.1442459902438
 20
132.1977214844044
 30
0.0
 10
146.9056491597384
 20
132.4977259302239
 30
0.0
  0
LINE
  5
175
330
1F
100
AcDbEntity
  8
0
  6
HIDDEN
 62
     7
370
     0
100
AcDbLine
 10
146.9056491597
 20
124.325803824
 30
0.0
 11
146.9056491597
 21
132.4977259302
 31
0.0
  0
SPLINE
  5
176
330
1F
100
AcDbEntity
  8
0
  6
HIDDEN
 62
     7
370
     0
100
AcDbSpline
210
0.0
220
0.0
230
1.0
 70
     8
 71
     3
 72
     8
 73
     4
 74
     0
 42
0.00000001
 43
0.00000001
 12
1.0
 22
0.0
 32
0.0
 13
1.0
 23
0.0
 33
0.0
 40
0.0000249638557296
 40
0.0000249638557296
 40
0.0000249638557296
 40
0.0000249638557296
 40
0.0049776420541172
 40
0.0049776420541172
 40
0.0049776420541172
 40
0.0049776420541172
 10
141.9556491597384
 20
124.4465539802882
 30
0.0
 10
143.6056253942479
 20
124.40527474252
 30
0.0
 10
145.2556267139929
 20
124.3650530612805
 30
0.0
 10
146.9056491597383
 20
124.3258038240255
 30
0.0
  0
SPLINE
  5
177
330
1F
100
AcDbEntity
  8
0
  6
HIDDEN
 62
     7
370
     0
100
AcDbSpline
210
0.0
220
0.0
230
1.0
 70
     8
 71
     3
 72
     8
 73
     4
 74
     0
 42
0.00000001
 43
0.00000001
 12
1.0
 22
0.0
 32
0.0
 13
1.0
 23
0.0
 33
0.0
 40
0.0000249631533153
 40
0.0000249631533153
 40
0.0000249631533153
 40
0.0000249631533153
 40
0.0049776413517028
 40
0.0049776413517028
 40
0.0049776413517028
 40
0.0049776413517028
 10
146.9056491597383
 20
132.497725930224
 30
0.0
 10
145.2556267139929
 20
132.458476692969
 30
0.0
 10
143.6056253942479
 20
132.4182550117295
 30
0.0
 10
141.9556491597384
 20
132.3769757739613
 30
0.0
  0
SPLINE
  5
178
330
1F
100
AcDbEntity
  8
0
  6
HIDDEN
 62
     7
370
     0
100
AcDbSpline
210
0.0
220
0.0
230
1.0
 70
     8
 71
     3
 72
     8
 73
     4
 74
     0
 42
0.00000001
 43
0.00000001
 12
1.0
 22
0.0
 32
0.0
 13
1.0
 23
0.0
 33
0.0
 40
0.0
 40
0.0
 40
0.0
 40
0.0
 40
1.0
 40
1.0
 40
1.0
 40
1.0
 10
140.4556491597361
 20
125.5097775441444
 30
0.0
 10
140.9224097711139
 20
125.0944142985213
 30
0.0
 10
141.4281573178939
 20
124.7498238692167
 30
0.0
 10
141.9556491597383
 20
124.4465539802882
 30
0.0
  0
SPLINE
  5
179
330
1F
100
AcDbEntity
  8
0
  6
HIDDEN
 62
     7
370
     0
100
AcDbSpline
210
0.0
220
0.0
230
1.0
 70
     8
 71
     3
 72
     8
 73
     4
 74
     0
 42
0.00000001
 43
0.00000001
 12
1.0
 22
0.0
 32
0.0
 13
1.0
 23
0.0
 33
0.0
 40
0.0
 40
0.0
 40
0.0
 40
0.0
 40
1.0
 40
1.0
 40
1.0
 40
1.0
 10
141.9556491597383
 20
132.3769757739613
 30
0.0
 10
141.4281573178948
 20
132.0737058850332
 30
0.0
 10
140.9224097711155
 20
131.7291154557292
 30
0.0
 10
140.4556491597383
 20
131.3137522101071
 30
0.0
  0
LINE
  5
17A
330
1F
100
AcDbEntity
  8
0
  6
HIDDEN
 62
     7
370
     0
100
AcDbLine
 10
140.4556491597
 20
125.5097775441
 30
0.0
 11
140.4556491597
 21
131.3137522101
 31
0.0
  0
SPLINE
  5
17B
330
1F
100
AcDbEntity
  8
0
  6
HIDDEN
 62
     7
370
     0
100
AcDbSpline
210
0.0
220
0.0
230
1.0
 70
     8
 71
     3
 72
    72
 73
    68
 74
     0
 42
0.00000001
 43
0.00000001
 12
1.0
 22
0.0
 32
0.0
 13
1.0
 23
0.0
 33
0.0
 40
-0.0312499999999998
 40
-0.0312499999999998
 40
0.0
 40
0.0
 40
0.0312500000000003
 40
0.0312500000000003
 40
0.0625000000000005
 40
0.0625000000000005
 40
0.0937500000000008
 40
0.0937500000000008
 40
0.1250000000000011
 40
0.1250000000000011
 40
0.1562500000000011
 40
0.1562500000000011
 40
0.1875000000000012
 40
0.1875000000000012
 40
0.2187500000000012
 40
0.2187500000000012
 40
0.2500000000000013
 40
0.2500000000000013
 40
0.2812500000000014
 40
0.2812500000000014
 40
0.3125000000000014
 40
0.3125000000000014
 40
0.3437500000000014
 40
0.3437500000000014
 40
0.3750000000000015
 40
0.3750000000000015
 40
0.3906250000000015
 40
0.3906250000000015
 40
0.4062500000000016
 40
0.4062500000000016
 40
0.4375000000000016
 40
0.4375000000000016
 40
0.4687500000000016
 40
0.4687500000000016
 40
0.5000000000000017
 40
0.5000000000000017
 40
0.5312500000000018
 40
0.5312500000000018
 40
0.5625000000000019
 40
0.5625000000000019
 40
0.5937500000000019
 40
0.5937500000000019
 40
0.6250000000000019
 40
0.6250000000000019
 40
0.656250000000002
 40
0.656250000000002
 40
0.6875000000000018
 40
0.6875000000000018
 40
0.7187500000000017
 40
0.7187500000000017
 40
0.7500000000000014
 40
0.7500000000000014
 40
0.7812500000000012
 40
0.7812500000000012
 40
0.8125000000000011
 40
0.8125000000000011
 40
0.8437500000000009
 40
0.8437500000000009
 40
0.8750000000000007
 40
0.8750000000000007
 40
0.9062500000000006
 40
0.9062500000000006
 40
0.9375000000000003
 40
0.9375000000000003
 40
0.9687500000000002
 40
0.9687500000000002
 40
1.0
 40
1.0
 40
1.03125
 40
1.03125
 10
159.5795954785635
 20
130.8525985269396
 30
0.0
 10
159.9540256984374
 20
131.2629543274247
 30
0.0
 10
160.158878299703
 20
131.4466034100832
 30
0.0
 10
160.60174649655
 20
131.7735583135785
 30
0.0
 10
160.8417019138683
 20
131.9173365217584
 30
0.0
 10
161.3373128966429
 20
132.1548538772043
 30
0.0
 10
161.5945791877973
 20
132.250173442102
 30
0.0
 10
162.1279329556344
 20
132.3942589747365
 30
0.0
 10
162.4022130955327
 20
132.441994981706
 30
0.0
 10
162.9486416301122
 20
132.4875771222399
 30
0.0
 10
163.22321794858
 20
132.4861433621676
 30
0.0
 10
163.7751851228507
 20
132.4332300540768
 30
0.0
 10
164.0458020854224
 20
132.3822603278726
 30
0.0
 10
164.5720872565016
 20
132.233653700929
 30
0.0
 10
164.8297188199092
 20
132.1353683301719
 30
0.0
 10
165.3256449845827
 20
131.8911149709862
 30
0.0
 10
165.5586286623744
 20
131.748034839964
 30
0.0
 10
165.9949619376994
 20
131.4201762894952
 30
0.0
 10
166.2002431915577
 20
131.2331826517949
 30
0.0
 10
166.5682774894179
 20
130.8237520319719
 30
0.0
 10
166.7297924794031
 20
130.6036465909875
 30
0.0
 10
167.0069501625502
 20
130.1318965095494
 30
0.0
 10
167.1233443419839
 20
129.8768799831082
 30
0.0
 10
167.2966183786305
 20
129.3556421597112
 30
0.0
 10
167.3550649330963
 20
129.0881580419303
 30
0.0
 10
167.3989296585722
 20
128.6762423825978
 30
0.0
 10
167.4061098752015
 20
128.5365350795223
 30
0.0
 10
167.4051418479061
 20
128.2604120240599
 30
0.0
 10
167.3971390584924
 20
128.1232354577291
 30
0.0
 10
167.35106632658
 20
127.7143020164659
 30
0.0
 10
167.290131494128
 20
127.4423757674616
 30
0.0
 10
167.1120113377195
 20
126.9191952510065
 30
0.0
 10
166.9964434263771
 20
126.6704832506431
 30
0.0
 10
166.7145966424378
 20
126.1975987256512
 30
0.0
 10
166.5477266970231
 20
125.9739895084191
 30
0.0
 10
166.1784011422244
 20
125.5693321202314
 30
0.0
 10
165.9736159859269
 20
125.3849185320619
 30
0.0
 10
165.5289630384107
 20
125.0558924971675
 30
0.0
 10
165.2941139088999
 20
124.9147244211793
 30
0.0
 10
164.8007041464228
 20
124.6763148923988
 30
0.0
 10
164.5394171927182
 20
124.5785323359939
 30
0.0
 10
164.0086789122055
 20
124.4332043078038
 30
0.0
 10
163.7390392113083
 20
124.3849149176088
 30
0.0
 10
163.191287871563
 20
124.3364996938222
 30
0.0
 10
162.9113838297044
 20
124.3369578794581
 30
0.0
 10
162.3643059218694
 20
124.3871097350603
 30
0.0
 10
162.094700817182
 20
124.4362833020923
 30
0.0
 10
161.5635460605259
 20
124.5839578253994
 30
0.0
 10
161.3022512440824
 20
124.683112989765
 30
0.0
 10
160.809937265907
 20
124.9241257602417
 30
0.0
 10
160.5759803903284
 20
125.0666138848664
 30
0.0
 10
160.1338117697979
 20
125.3981013138513
 30
0.0
 10
159.9286182386862
 20
125.5855349418397
 30
0.0
 10
159.5629240223282
 20
125.9924386608901
 30
0.0
 10
159.4001533999399
 20
126.2136177355591
 30
0.0
 10
159.1192009691743
 20
126.6933650647744
 30
0.0
 10
159.0059971169008
 20
126.9433770315847
 30
0.0
 10
158.8333883927619
 20
127.4634522416051
 30
0.0
 10
158.7737821100855
 20
127.7371837062349
 30
0.0
 10
158.7158903400156
 20
128.2858013561334
 30
0.0
 10
158.7166798788756
 20
128.5601412200249
 30
0.0
 10
158.777870354492
 20
129.1088831711639
 30
0.0
 10
158.8389990782261
 20
129.381948485021
 30
0.0
 10
159.0150787638559
 20
129.9021137337895
 30
0.0
 10
159.1314093588458
 20
130.1544328673483
 30
0.0
 10
159.4146105885866
 20
130.6308372087553
 30
0.0
 10
159.5795954785635
 20
130.8525985269396
 30
0.0
 10
159.9540256984374
 20
131.2629543274247
 30
0.0
  0
CIRCLE
  5
17C
330
1F
100
AcDbEntity
  8
0
  6
HIDDEN
 62
     7
370
     0
100
AcDbCircle
 10
162.9556491597
 20
128.4117648771
 30
0.0
 40
4.050000000000011
  0
ELLIPSE
  5
17D
330
1F
100
AcDbEntity
  8
0
  6
HIDDEN
 62
     7
370
     0
100
AcDbEllipse
 10
234.6860503952
 20
128.4117648771
 30
0.0
 11
-22.77024170696512
 21
31.99658238113091
 31
0.0
210
0.0
220
0.0
230
1.0
 40
0.0205386817
 41
0.6790606314366364
 42
1.556181095642698
  0
CIRCLE
  5
17E
330
1F
100
AcDbEntity
  8
0
  6
HIDDEN
 62
     7
370
     0
100
AcDbCircle
 10
190.4556491597
 20
128.4117648771
 30
0.0
 40
2.0
  0
LINE
  5
17F
330
1F
100
AcDbEntity
  8
0
  6
HIDDEN
 62
     7
370
     0
100
AcDbLine
 10
238.098408096
 20
99.0164099826
 30
0.0
 11
237.6790322239
 21
98.3637254428
 31
0.0
  0
LINE
  5
180
330
1F
100
AcDbEntity
  8
0
  6
HIDDEN
 62
     7
370
     0
100
AcDbLine
 10
238.0976813147
 20
99.0152709599
 30
0.0
 11
235.4450122442
 21
125.9527452935
 31
0.0
  0
LINE
  5
181
330
1F
100
AcDbEntity
  8
0
  6
HIDDEN
 62
     7
370
     0
100
AcDbLine
 10
233.6961724613
 20
128.4117648771
 30
0.0
 11
235.4450122442
 21
125.9527452935
 31
0.0
  0
LINE
  5
182
330
1F
100
AcDbEntity
  8
0
  6
HIDDEN
 62
     7
370
     0
100
AcDbLine
 10
196.4556491597
 20
116.1617648771
 30
0.0
 11
196.4556491597
 21
112.6622035202
 31
0.0
  0
LINE
  5
183
330
1F
100
AcDbEntity
  8
0
  6
HIDDEN
 62
     7
370
     0
100
AcDbLine
 10
202.4556491597
 20
112.6617648771
 30
0.0
 11
202.4556491597
 21
116.1617648771
 31
0.0
  0
LINE
  5
184
330
1F
100
AcDbEntity
  8
0
  6
HIDDEN
 62
     7
370
     0
100
AcDbLine
 10
178.4556491597
 20
104.1617648771
 30
0.0
 11
178.5485423786
 21
104.2546580959
 31
0.0
  0
LINE
  5
185
330
1F
100
AcDbEntity
  8
0
  6
HIDDEN
 62
     7
370
     0
100
AcDbLine
 10
178.5485423786
 20
152.5688716583
 30
0.0
 11
178.4556491597
 21
152.6617648771
 31
0.0
  0
ARC
  5
186
330
1F
100
AcDbEntity
  8
0
  6
HIDDEN
 62
     7
370
     0
100
AcDbCircle
 10
177.8414355974
 20
104.9617648771
 30
0.0
 40
1.0
100
AcDbArc
 50
315.0
 51
0.0
  0
ARC
  5
187
330
1F
100
AcDbEntity
  8
0
  6
HIDDEN
 62
     7
370
     0
100
AcDbCircle
 10
177.8414355974
 20
104.9617648771
 30
0.0
 40
1.0
100
AcDbArc
 50
0.0
 51
52.1052014664
  0
ARC
  5
188
330
1F
100
AcDbEntity
  8
0
  6
HIDDEN
 62
     7
370
     0
100
AcDbCircle
 10
177.8414355974
 20
151.8617648771
 30
0.0
 40
1.000000000000008
100
AcDbArc
 50
351.8087250651
 51
45.0
  0
ARC
  5
189
330
1F
100
AcDbEntity
  8
0
  6
HIDDEN
 62
     7
370
     0
100
AcDbCircle
 10
177.8414355974
 20
151.8617648771
 30
0.0
 40
1.000000000000021
100
AcDbArc
 50
307.8947985336
 51
351.8087250651
  0
LINE
  5
18A
330
1F
100
AcDbEntity
  8
0
  6
HIDDEN
 62
     7
370
     0
100
AcDbLine
 10
178.8414355974
 20
104.9617648771
 30
0.0
 11
178.8414355974
 21
151.8617648771
 31
0.0
  0
LINE
  5
18B
330
1F
100
AcDbEntity
  8
0
  6
HIDDEN
 62
     7
370
     0
100
AcDbLine
 10
178.8414355974
 20
104.9617648771
 30
0.0
 11
178.8414355974
 21
151.8617648771
 31
0.0
  0
LINE
  5
18C
330
1F
100
AcDbEntity
  8
0
  6
HIDDEN
 62
     7
370
     0
100
AcDbLine
 10
196.9556491597
 20
123.9127250421
 30
0.0
 11
196.9556491597
 21
116.3119800319
 31
0.0
  0
LINE
  5
18D
330
1F
100
AcDbEntity
  8
0
  6
HIDDEN
 62
     7
370
     0
100
AcDbLine
 10
201.9556491597
 20
119.5714023565
 30
0.0
 11
201.9556491597
 21
123.9129896701
 31
0.0
  0
LINE
  5
18E
330
1F
100
AcDbEntity
  8
0
  6
HIDDEN
 62
     7
370
     0
100
AcDbLine
 10
201.9556491597
 20
116.3119800319
 30
0.0
 11
201.9556491597
 21
117.4114076064
 31
0.0
  0
LINE
  5
18F
330
1F
100
AcDbEntity
  8
0
  6
HIDDEN
 62
     7
370
     0
100
AcDbLine
 10
208.2716957132
 20
115.1014597153
 30
0.0
 11
201.8787832382
 21
120.275101822
 31
0.0
  0
LINE
  5
190
330
1F
100
AcDbEntity
  8
0
  6
HIDDEN
 62
     7
370
     0
100
AcDbLine
 10
199.4054816256
 20
115.8444846978
 30
0.0
 11
208.4359376829
 21
108.5363371384
 31
0.0
  0
LINE
  5
191
330
1F
100
AcDbEntity
  8
0
  6
HIDDEN
 62
     7
370
     0
100
AcDbLine
 10
140.4556491597
 20
112.2153360327
 30
0.0
 11
141.9858775994
 21
113.0988138342
 31
0.0
  0
LINE
  5
192
330
1F
100
AcDbEntity
  8
0
  6
HIDDEN
 62
     7
370
     0
100
AcDbLine
 10
141.9858775994
 20
143.72471592
 30
0.0
 11
140.4556491597
 21
144.6081937216
 31
0.0
  0
ARC
  5
193
330
1F
100
AcDbEntity
  8
0
  6
HIDDEN
 62
     7
370
     0
100
AcDbCircle
 10
151.4574504746
 20
114.4117648771
 30
0.0
 40
2.000000000000014
100
AcDbArc
 50
270.0
 51
315.0
  0
ARC
  5
194
330
1F
100
AcDbEntity
  8
0
  6
HIDDEN
 62
     7
370
     0
100
AcDbCircle
 10
151.4574504746
 20
142.4117648771
 30
0.0
 40
2.000000000000016
100
AcDbArc
 50
45.0
 51
90.0
  0
LINE
  5
195
330
1F
100
AcDbEntity
  8
0
  6
HIDDEN
 62
     7
370
     0
100
AcDbLine
 10
150.4556491597
 20
112.4117648771
 30
0.0
 11
151.4574504746
 21
112.4117648771
 31
0.0
  0
LINE
  5
196
330
1F
100
AcDbEntity
  8
0
  6
HIDDEN
 62
     7
370
     0
100
AcDbLine
 10
151.4574504746
 20
144.4117648771
 30
0.0
 11
150.4556491597
 21
144.4117648771
 31
0.0
  0
ARC
  5
197
330
1F
100
AcDbEntity
  8
0
  6
HIDDEN
 62
     7
370
     0
100
AcDbCircle
 10
150.4556491597
 20
114.4117648771
 30
0.0
 40
2.000000000000027
100
AcDbArc
 50
189.9742217944
 51
270.0
  0
ARC
  5
198
330
1F
100
AcDbEntity
  8
0
  6
HIDDEN
 62
     7
370
     0
100
AcDbCircle
 10
150.4556491597
 20
142.4117648771
 30
0.0
 40
2.0
100
AcDbArc
 50
90.0
 51
170.0257782056
  0
LINE
  5
199
330
1F
100
AcDbEntity
  8
0
  6
HIDDEN
 62
     7
370
     0
100
AcDbLine
 10
152.871664037
 20
112.9975513148
 30
0.0
 11
154.2858775994
 21
114.4117648771
 31
0.0
  0
LINE
  5
19A
330
1F
100
AcDbEntity
  8
0
  6
HIDDEN
 62
     7
370
     0
100
AcDbLine
 10
154.2858775994
 20
142.4117648771
 30
0.0
 11
152.871664037
 21
143.8259784395
 31
0.0
  0
LINE
  5
19B
330
1F
100
AcDbEntity
  8
0
  6
HIDDEN
 62
     7
370
     0
100
AcDbLine
 10
141.9858775994
 20
113.0988138342
 30
0.0
 11
146.8858775994
 21
114.4117648771
 31
0.0
  0
LINE
  5
19C
330
1F
100
AcDbEntity
  8
0
  6
HIDDEN
 62
     7
370
     0
100
AcDbLine
 10
146.8858775994
 20
142.4117648771
 30
0.0
 11
141.9858775994
 21
143.72471592
 31
0.0
  0
LINE
  5
19D
330
1F
100
AcDbEntity
  8
0
  6
HIDDEN
 62
     7
370
     0
100
AcDbLine
 10
148.4858775994
 20
142.7581750386
 30
0.0
 11
147.8858775994
 21
142.4117648771
 31
0.0
  0
LINE
  5
19E
330
1F
100
AcDbEntity
  8
0
  6
HIDDEN
 62
     7
370
     0
100
AcDbLine
 10
147.8858775994
 20
114.4117648771
 30
0.0
 11
148.4858775994
 21
114.0653547156
 31
0.0
  0
ARC
  5
19F
330
1F
100
AcDbEntity
  8
0
  6
HIDDEN
 62
     7
370
     0
100
AcDbCircle
 10
166.9556491597
 20
114.9117648771
 30
0.0
 40
0.5
100
AcDbArc
 50
270.0
 51
0.0
  0
ARC
  5
1A0
330
1F
100
AcDbEntity
  8
0
  6
HIDDEN
 62
     7
370
     0
100
AcDbCircle
 10
166.9556491597
 20
141.9117648771
 30
0.0
 40
0.5
100
AcDbArc
 50
0.0
 51
90.0
  0
LINE
  5
1A1
330
1F
100
AcDbEntity
  8
0
  6
HIDDEN
 62
     7
370
     0
100
AcDbLine
 10
146.8858775994
 20
114.4117648771
 30
0.0
 11
147.8858775994
 21
114.4117648771
 31
0.0
  0
LINE
  5
1A2
330
1F
100
AcDbEntity
  8
0
  6
HIDDEN
 62
     7
370
     0
100
AcDbLine
 10
147.8858775994
 20
142.4117648771
 30
0.0
 11
146.8858775994
 21
142.4117648771
 31
0.0
  0
LINE
  5
1A3
330
1F
100
AcDbEntity
  8
0
  6
HIDDEN
 62
     7
370
     0
100
AcDbLine
 10
154.2858775994
 20
114.4117648771
 30
0.0
 11
166.9556491597
 21
114.4117648771
 31
0.0
  0
LINE
  5
1A4
330
1F
100
AcDbEntity
  8
0
  6
HIDDEN
 62
     7
370
     0
100
AcDbLine
 10
166.9556491597
 20
142.4117648771
 30
0.0
 11
154.2858775994
 21
142.4117648771
 31
0.0
  0
LINE
  5
1A5
330
1F
100
AcDbEntity
  8
0
  6
HIDDEN
 62
     7
370
     0
100
AcDbLine
 10
167.4556491597
 20
118.1617648771
 30
0.0
 11
168.7056491597
 21
119.4117648771
 31
0.0
  0
LINE
  5
1A6
330
1F
100
AcDbEntity
  8
0
  6
HIDDEN
 62
     7
370
     0
100
AcDbLine
 10
168.7056491597
 20
137.4117648771
 30
0.0
 11
167.4556491597
 21
138.6617648771
 31
0.0
  0
LINE
  5
1A7
330
1F
100
AcDbEntity
  8
0
  6
HIDDEN
 62
     7
370
     0
100
AcDbLine
 10
205.4556491597
 20
137.4117648771
 30
0.0
 11
168.7056491597
 21
137.4117648771
 31
0.0
  0
LINE
  5
1A8
330
1F
100
AcDbEntity
  8
0
  6
HIDDEN
 62
     7
370
     0
100
AcDbLine
 10
168.7056491597
 20
119.4117648771
 30
0.0
 11
205.4556491597
 21
119.4117648771
 31
0.0
  0
LINE
  5
1A9
330
1F
100
AcDbEntity
  8
0
  6
HIDDEN
 62
     7
370
     0
100
AcDbLine
 10
205.4556491597
 20
119.4117648771
 30
0.0
 11
210.863394731
 21
128.4117648771
 31
0.0
  0
LINE
  5
1AA
330
1F
100
AcDbEntity
  8
0
  6
HIDDEN
 62
     7
370
     0
100
AcDbLine
 10
210.863394731
 20
128.4117648771
 30
0.0
 11
205.4556491597
 21
137.4117648771
 31
0.0
  0
LINE
  5
1AB
330
1F
100
AcDbEntity
  8
0
  6
HIDDEN
 62
     7
370
     0
100
AcDbLine
 10
222.344971318
 20
95.2979366373
 30
0.0
 11
222.9721420976
 21
94.6742015648
 31
0.0
  0
LINE
  5
1AC
330
1F
100
AcDbEntity
  8
0
  6
HIDDEN
 62
     7
370
     0
100
AcDbLine
 10
226.74226165
 20
103.9386827332
 30
0.0
 11
227.3254675036
 21
103.3586717423
 31
0.0
  0
LINE
  5
1AD
330
1F
100
AcDbEntity
  8
0
  6
HIDDEN
 62
     7
370
     0
100
AcDbLine
 10
232.2616014994
 20
108.3219953441
 30
0.0
 11
231.6783956458
 21
108.902006335
 31
0.0
  0
LINE
  5
1AE
330
1F
100
AcDbEntity
  8
0
  6
HIDDEN
 62
     7
370
     0
100
AcDbLine
 10
235.1767150609
 20
100.2374132466
 30
0.0
 11
232.3364460991
 21
106.3787172973
 31
0.0
  0
LINE
  5
1AF
330
1F
100
AcDbEntity
  8
0
  6
HIDDEN
 62
     7
370
     0
100
AcDbLine
 10
223.1551208462
 20
106.5189311105
 30
0.0
 11
226.2046833244
 21
103.4860744546
 31
0.0
  0
LINE
  5
1B0
330
1F
100
AcDbEntity
  8
0
  6
HIDDEN
 62
     7
370
     0
100
AcDbLine
 10
232.1280441193
 20
109.4420627767
 30
0.0
 11
229.0784816411
 21
112.4749194326
 31
0.0
  0
LINE
  5
1B1
330
1F
100
AcDbEntity
  8
0
  6
HIDDEN
 62
     7
370
     0
100
AcDbLine
 10
222.1104885843
 20
95.664115688
 30
0.0
 11
222.5923648
 21
95.1848792407
 31
0.0
  0
LINE
  5
1B2
330
1F
100
AcDbEntity
  8
0
  6
HIDDEN
 62
     7
370
     0
100
AcDbLine
 10
236.6595975533
 20
95.7653934668
 30
0.0
 11
235.9278983105
 21
96.4930843846
 31
0.0
  0
LINE
  5
1B3
330
1F
100
AcDbEntity
  8
0
  6
HIDDEN
 62
     7
370
     0
100
AcDbLine
 10
230.2866023153
 20
90.820714554
 30
0.0
 11
231.0183015582
 21
90.0930236362
 31
0.0
  0
LINE
  5
1B4
330
1F
100
AcDbEntity
  8
0
  6
HIDDEN
 62
     7
370
     0
100
AcDbLine
 10
227.1359518931
 20
99.1738841921
 30
0.0
 11
229.5931103041
 21
93.8609518234
 31
0.0
  0
LINE
  5
1B5
330
1F
100
AcDbEntity
  8
VERMASSUNG
  6
CENTERX2
100
AcDbLine
 10
135.1681493971
 20
128.4117648771
 30
0.0
 11
243.4556491597
 21
128.4117648771
 31
0.0
  0
LINE
  5
1B6
330
1F
100
AcDbEntity
  8
VERMASSUNG
  6
CENTERX2
100
AcDbLine
 10
243.4556491597
 20
128.4117648771
 30
0.0
 11
243.4556491597
 21
83.4117648771
 31
0.0
  0
LINE
  5
1B7
330
1F
100
AcDbEntity
  8
VERMASSUNG
  6
CENTERX2
100
AcDbLine
 10
243.4556491597
 20
83.4117648771
 30
0.0
 11
260.0466316592
 21
83.4117648771
 31
0.0
  0
DIMENSION
  5
1B8
330
1F
100
AcDbEntity
  8
VERMASSUNG
100
AcDbDimension
  2
_D
 10
178.4556491597
 20
73.3782097983
 30
0.0
 11
210.9556491597
 21
73.3782097983
 31
0.0
 70
   160
  1
<>
 71
     2
 42
-1.0
  3
SLDDIMSTYLE0
100
AcDbAlignedDimension
 13
243.4556491597
 23
83.4117648771
 33
0.0
 14
178.4556491597
 24
97.4117648771
 34
0.0
100
AcDbRotatedDimension
  0
DIMENSION
  5
1C5
330
1F
100
AcDbEntity
  8
VERMASSUNG
100
AcDbDimension
  2
_D_1
 10
140.4556491597
 20
63.989064694
 30
0.0
 11
191.9556491597
 21
63.989064694
 31
0.0
 70
   160
  1
<>
 71
     2
 42
-1.0
  3
SLDDIMSTYLE1
100
AcDbAlignedDimension
 13
243.4556491597
 23
83.4117648771
 33
0.0
 14
140.4556491597
 24
108.1194268846
 34
0.0
100
AcDbRotatedDimension
  0
DIMENSION
  5
1D0
330
1F
100
AcDbEntity
  8
VERMASSUNG
100
AcDbDimension
  2
_D_2
 10
243.4541353773
 20
83.8442283221
 30
0.0
 11
252.2119807602
 21
92.9287438973
 31
0.0
 70
   162
  1
<>
 71
     1
 42
-1.0
  3
SLDDIMSTYLE2
100
AcDb2LineAngularDimension
 13
260.0466316592
 23
83.4117648771
 33
0.0
 14
243.4556491597
 24
83.4117648771
 34
0.0
 15
242.1273025156
 25
98.9954202325
 35
0.0
 16
252.2119807602
 26
92.9287438973
 36
0.0
  0
DIMENSION
  5
1D9
330
1F
100
AcDbEntity
  8
VERMASSUNG
100
AcDbDimension
  2
_D_3
 10
264.5533894748
 20
83.4117648771
 30
0.0
 11
264.5533894748
 21
105.9117648771
 31
0.0
 70
   160
  1
<>
 71
     2
 42
-1.0
  3
SLDDIMSTYLE0
100
AcDbAlignedDimension
 13
243.4556491597
 23
128.4117648771
 33
0.0
 14
243.4556491597
 24
83.4117648771
 34
0.0
 50
90.0
100
AcDbRotatedDimension
  0
DIMENSION
  5
1E5
330
1F
100
AcDbEntity
  8
VERMASSUNG
100
AcDbDimension
  2
_D_4
 10
126.8169772377
 20
96.9117648771
 30
0.0
 11
126.8169772377
 21
128.4117648771
 31
0.0
 70
   160
  1
PSC%%c<>
 71
     2
 42
-1.0
  3
SLDDIMSTYLE1
100
AcDbAlignedDimension
 13
178.9556491597
 23
159.9117648771
 33
0.0
 14
178.9556491597
 24
96.9117648771
 34
0.0
 50
90.0
100
AcDbRotatedDimension
  0
LINE
  5
1F1
330
1F
100
AcDbEntity
  8
0
  6
Continuous
 62
     7
370
    15
100
AcDbLine
 10
70.0460268751
 20
84.6789541116
 30
0.0
 11
74.2396434404
 21
85.1197192839
 31
0.0
  0
LINE
  5
1F2
330
1F
100
AcDbEntity
  8
0
  6
Continuous
 62
     7
370
    15
100
AcDbLine
 10
74.2551639311
 20
85.1297030619
 30
0.0
 11
74.5174234368
 21
85.4572529366
 31
0.0
  0
LINE
  5
1F3
330
1F
100
AcDbEntity
  8
0
  6
Continuous
 62
     7
370
    15
100
AcDbLine
 10
63.7894072249
 20
83.4073933235
 30
0.0
 11
70.0700256608
 21
84.0675147644
 31
0.0
  0
LINE
  5
1F4
330
1F
100
AcDbEntity
  8
0
  6
Continuous
 62
     7
370
    15
100
AcDbLine
 10
62.1048292711
 20
87.3452151587
 30
0.0
 11
62.8560641532
 21
86.290030407
 31
0.0
  0
SPLINE
  5
1F5
330
1F
100
AcDbEntity
  8
0
  6
Continuous
 62
     7
370
    15
100
AcDbSpline
210
0.0
220
0.0
230
1.0
 70
     8
 71
     3
 72
    12
 73
     8
 74
     0
 42
0.00000001
 43
0.00000001
 12
1.0
 22
0.0
 32
0.0
 13
1.0
 23
0.0
 33
0.0
 40
0.0
 40
0.0
 40
0.0
 40
0.0
 40
0.1652279851975787
 40
0.4223546077728494
 40
0.6267611197293741
 40
0.8462288273485261
 40
1.0
 40
1.0
 40
1.0
 40
1.0
 10
61.58333961926746
 20
98.83252963630765
 30
0.0
 10
61.58272727749174
 20
98.83405693969128
 30
0.0
 10
61.58116201377324
 20
98.83796102180408
 30
0.0
 10
61.59627478315161
 20
98.794576319113
 30
0.0
 10
61.61081049174528
 20
98.68477270414468
 30
0.0
 10
61.60797350336207
 20
98.53538304342158
 30
0.0
 10
61.561234157799
 20
98.4358342867414
 30
0.0
 10
61.54197795391428
 20
98.39482106475442
 30
0.0
  0
LINE
  5
1F6
330
1F
100
AcDbEntity
  8
0
  6
Continuous
 62
     7
370
    15
100
AcDbLine
 10
61.5297829833
 20
98.3999489269
 30
0.0
 11
60.9987326067
 21
97.175622957
 31
0.0
  0
LINE
  5
1F7
330
1F
100
AcDbEntity
  8
0
  6
Continuous
 62
     7
370
    15
100
AcDbLine
 10
60.7447481349
 20
100.5665889403
 30
0.0
 11
60.2483958107
 21
100.514419975
 31
0.0
  0
ARC
  5
1F8
330
1F
100
AcDbEntity
  8
0
  6
Continuous
 62
     7
370
    15
100
AcDbCircle
 10
70.3877981424
 20
85.9033075446
 30
0.0
 40
3.930740739635691
100
AcDbArc
 50
348.5011215874
 51
12.5563391993
  0
LINE
  5
1F9
330
1F
100
AcDbEntity
  8
0
  6
Continuous
 62
     7
370
    15
100
AcDbLine
 10
74.2245262124
 20
86.7578486374
 30
0.0
 11
72.8889556237
 21
98.4365759811
 31
0.0
  0
LWPOLYLINE
  5
1FA
330
1F
100
AcDbEntity
  8
0
  6
Continuous
 62
     7
370
    15
100
AcDbPolyline
 90
        3
 70
   128
 43
0.0
 10
74.4929128893
 20
86.7597634366
 10
74.5196250834
 20
86.4999132624
 10
74.525511042
 20
86.4331635108
  0
ARC
  5
1FB
330
1F
100
AcDbEntity
  8
0
  6
Continuous
 62
     7
370
    15
100
AcDbCircle
 10
74.304474648
 20
85.5723983514
 30
0.0
 40
0.2420860450023921
100
AcDbArc
 50
331.5990768517
 51
359.8500148685
  0
LINE
  5
1FC
330
1F
100
AcDbEntity
  8
0
  6
Continuous
 62
     7
370
    15
100
AcDbLine
 10
73.1573423006
 20
98.4384945056
 30
0.0
 11
74.4929128893
 21
86.7597634366
 31
0.0
  0
ARC
  5
1FD
330
1F
100
AcDbEntity
  8
0
  6
Continuous
 62
     7
370
    15
100
AcDbCircle
 10
67.3580773399
 20
98.0532557032
 30
0.0
 40
5.54414547290825
100
AcDbArc
 50
3.9645730694
 51
17.3118561393
  0
LINE
  5
1FE
330
1F
100
AcDbEntity
  8
0
  6
Continuous
 62
     7
370
    15
100
AcDbLine
 10
72.9299179845
 20
99.5114470294
 30
0.0
 11
72.6908297844
 21
99.7072203478
 31
0.0
  0
ARC
  5
1FF
330
1F
100
AcDbEntity
  8
0
  6
Continuous
 62
     7
370
    15
100
AcDbCircle
 10
69.9519706905
 20
98.3196588866
 30
0.0
 40
3.207573703420309
100
AcDbArc
 50
2.1232054581
 51
21.8115135223
  0
LINE
  5
200
330
1F
100
AcDbEntity
  8
0
  6
Continuous
 62
     7
370
    15
100
AcDbLine
 10
60.2524272732
 20
100.077584984
 30
0.0
 11
61.9851055423
 21
84.9263953438
 31
0.0
  0
ARC
  5
201
330
1F
100
AcDbEntity
  8
0
  6
Continuous
 62
     7
370
    15
100
AcDbCircle
 10
61.136263197
 20
100.2959397822
 30
0.0
 40
0.9104091157621804
100
AcDbArc
 50
166.1880321837
 51
193.8772447687
  0
LINE
  5
202
330
1F
100
AcDbEntity
  8
0
  6
Continuous
 62
     7
370
    15
100
AcDbLine
 10
61.9768892981
 20
99.3530700376
 30
0.0
 11
60.2521790758
 21
100.5132874867
 31
0.0
  0
ARC
  5
203
330
1F
100
AcDbEntity
  8
0
  6
Continuous
 62
     7
370
    15
100
AcDbCircle
 10
60.9842636398
 20
98.955812107
 30
0.0
 40
1.069167695441632
100
AcDbArc
 50
2.1230289936
 51
21.8117422382
  0
LINE
  5
204
330
1F
100
AcDbEntity
  8
0
  6
Continuous
 62
     7
370
    15
100
AcDbLine
 10
63.7853758423
 20
83.8442283144
 30
0.0
 11
62.0526974423
 21
98.9954198173
 31
0.0
  0
ARC
  5
205
330
1F
100
AcDbEntity
  8
0
  6
Continuous
 62
     7
370
    15
100
AcDbCircle
 10
62.9015306354
 20
83.625873629
 30
0.0
 40
0.910418100842831
100
AcDbArc
 50
346.188163888
 51
13.8770977555
  0
LINE
  5
206
330
1F
100
AcDbEntity
  8
0
  6
Continuous
 62
     7
370
    15
100
AcDbLine
 10
62.0609136865
 20
84.5687413981
 30
0.0
 11
63.7856239816
 21
83.4085258117
 31
0.0
  0
ARC
  5
207
330
1F
100
AcDbEntity
  8
0
  6
Continuous
 62
     7
370
    15
100
AcDbCircle
 10
63.0536093913
 20
84.9660137633
 30
0.0
 40
1.069238090659399
100
AcDbArc
 50
182.1234634098
 51
201.8110657073
  0
ARC
  5
208
330
1F
100
AcDbEntity
  8
0
  6
Continuous
 62
     7
370
    15
100
AcDbCircle
 10
61.0357822631
 20
98.9558383712
 30
0.0
 40
1.015723558516973
100
AcDbArc
 50
2.1232211424
 51
21.8116142126
  0
LINE
  5
209
330
1F
100
AcDbEntity
  8
0
  6
Continuous
 62
     7
370
    15
100
AcDbLine
 10
61.9787907096
 20
99.3332365921
 30
0.0
 11
60.2540803708
 21
100.4934521785
 31
0.0
  0
ARC
  5
20A
330
1F
100
AcDbEntity
  8
0
  6
Continuous
 62
     7
370
    15
100
AcDbCircle
 10
61.0939435383
 20
100.2869731116
 30
0.0
 40
0.8648720975934101
100
AcDbArc
 50
166.1878478712
 51
193.8774487712
  0
LINE
  5
20B
330
1F
100
AcDbEntity
  8
0
  6
Continuous
 62
     7
370
    15
100
AcDbLine
 10
60.2543162283
 20
100.0795370361
 30
0.0
 11
61.9869944973
 21
84.9283436707
 31
0.0
  0
ARC
  5
20C
330
1F
100
AcDbEntity
  8
0
  6
Continuous
 62
     7
370
    15
100
AcDbCircle
 10
63.0019969822
 20
84.9659719643
 30
0.0
 40
1.015699725687697
100
AcDbArc
 50
182.1231037316
 51
201.8118590547
  0
LINE
  5
20D
330
1F
100
AcDbEntity
  8
0
  6
Continuous
 62
     7
370
    15
100
AcDbLine
 10
62.059012275
 20
84.588578569
 30
0.0
 11
63.7837225737
 21
83.4283592573
 31
0.0
  0
ARC
  5
20E
330
1F
100
AcDbEntity
  8
0
  6
Continuous
 62
     7
370
    15
100
AcDbCircle
 10
62.9438364835
 20
83.6348394955
 30
0.0
 40
0.8648946371442202
100
AcDbArc
 50
346.1881350544
 51
13.8771270507
  0
LINE
  5
20F
330
1F
100
AcDbEntity
  8
0
  6
Continuous
 62
     7
370
    15
100
AcDbLine
 10
63.78348684
 20
83.8422762623
 30
0.0
 11
62.0508084873
 21
98.9934696278
 31
0.0
  0
LINE
  5
210
330
1F
100
AcDbEntity
  8
0
  6
Continuous
 62
     7
370
    15
100
AcDbLine
 10
70.0659944311
 20
84.5043497553
 30
0.0
 11
68.3333162785
 21
99.6555393955
 31
0.0
  0
ARC
  5
211
330
1F
100
AcDbEntity
  8
0
  6
Continuous
 62
     7
370
    15
100
AcDbCircle
 10
69.0428876773
 20
84.2764721573
 30
0.0
 40
1.048177289108843
100
AcDbArc
 50
348.5008673037
 51
12.5565841379
  0
LINE
  5
212
330
1F
100
AcDbEntity
  8
0
  6
Continuous
 62
     7
370
    15
100
AcDbLine
 10
62.916989297
 20
86.1609528234
 30
0.0
 11
62.2398815218
 21
84.9882277122
 31
0.0
  0
ARC
  5
213
330
1F
100
AcDbEntity
  8
0
  6
Continuous
 62
     7
370
    15
100
AcDbCircle
 10
67.2648329256
 20
99.6159229283
 30
0.0
 40
1.069217536217535
100
AcDbArc
 50
2.1233995613
 51
21.8112863083
  0
LINE
  5
214
330
1F
100
AcDbEntity
  8
0
  6
Continuous
 62
     7
370
    15
100
AcDbLine
 10
63.011813884
 20
87.8196681312
 30
0.0
 11
62.1112808919
 21
95.6942687204
 31
0.0
  0
LINE
  5
215
330
1F
100
AcDbEntity
  8
0
  6
Continuous
 62
     7
370
    15
100
AcDbLine
 10
68.2575080179
 20
100.0131914785
 30
0.0
 11
68.2037977137
 21
100.0493212065
 31
0.0
  0
LINE
  5
216
330
1F
100
AcDbEntity
  8
0
  6
Continuous
 62
     7
370
    15
100
AcDbLine
 10
61.6008889962
 20
98.7429140529
 30
0.0
 11
60.5072031364
 21
100.1394173524
 31
0.0
  0
ARC
  5
217
330
1F
100
AcDbEntity
  8
0
  6
Continuous
 62
     7
370
    15
100
AcDbCircle
 10
60.8022491213
 20
87.2737833625
 30
0.0
 40
2.275997939583901
100
AcDbArc
 50
346.1879172337
 51
13.8773415712
  0
ARC
  5
218
330
1F
100
AcDbEntity
  8
0
  6
Continuous
 62
     7
370
    15
100
AcDbCircle
 10
59.4401367006
 20
95.5952366323
 30
0.0
 40
2.672979357386228
100
AcDbArc
 50
2.123256049
 51
21.8115223219
  0
LINE
  5
219
330
1F
100
AcDbEntity
  8
0
  6
Continuous
 62
     7
370
    15
100
AcDbLine
 10
61.0259891588
 20
96.1021470299
 30
0.0
 11
61.9265222091
 21
88.2275464406
 31
0.0
  0
ARC
  5
21A
330
1F
100
AcDbEntity
  8
0
  6
Continuous
 62
     7
370
    15
100
AcDbCircle
 10
63.2355537587
 20
96.6480316804
 30
0.0
 40
2.275997753217378
100
AcDbArc
 50
166.1879130161
 51
193.8773396652
  0
LINE
  5
21B
330
1F
100
AcDbEntity
  8
0
  6
Continuous
 62
     7
370
    15
100
AcDbLine
 10
61.9217604732
 20
96.5883942714
 30
0.0
 11
61.025368898
 21
97.1913995614
 31
0.0
  0
LINE
  5
21C
330
1F
100
AcDbEntity
  8
0
  6
Continuous
 62
     7
370
    15
100
AcDbLine
 10
62.1160425114
 20
87.3334208897
 30
0.0
 11
63.012434203
 21
86.7304155996
 31
0.0
  0
ARC
  5
21D
330
1F
100
AcDbEntity
  8
0
  6
Continuous
 62
     7
370
    15
100
AcDbCircle
 10
64.5976374288
 20
88.3265720648
 30
0.0
 40
2.672950166226468
100
AcDbArc
 50
182.1231405946
 51
201.811623498
  0
LWPOLYLINE
  5
21E
330
1F
100
AcDbEntity
  8
0
  6
Continuous
 62
     7
370
    15
100
AcDbPolyline
 90
       30
 70
   128
 43
0.0
 10
62.3207498908
 20
88.8122903576
 10
62.3905939616
 20
88.8341727128
 10
62.4430581562
 20
89.0022578111
 10
62.4756892545
 20
89.3086852899
 10
62.4869614009
 20
89.7391276827
 10
62.4763475832
 20
90.2734572461
 10
62.4443441963
 20
90.886688458
 10
62.3924475264
 20
91.5501514843
 10
62.3230842508
 20
92.2328221074
 10
62.2394977005
 20
92.9027745893
 10
62.1455964034
 20
93.5286904147
 10
62.0457709635
 20
94.0812962523
 10
61.9446890529
 20
94.5347534886
 10
61.8470773667
 20
94.8678652218
 10
61.7574999675
 20
95.0650448373
 10
61.6801452458
 20
95.1170834175
 10
61.6186306912
 20
95.0215408972
 10
61.5758319952
 20
94.7828838995
 10
61.5537510354
 20
94.4122771194
 10
61.5534199502
 20
93.9270468822
 10
61.5748541065
 20
93.349883931
 10
61.6170516338
 20
92.7077705434
 10
61.6780390598
 20
92.0307362845
 10
61.7549649075
 20
91.3504349461
 10
61.8442319434
 20
90.6986805072
 10
61.9416666783
 20
90.1059458425
 10
62.0427126166
 20
89.5999471119
 10
62.1426451586
 20
89.2043473592
 10
62.2367917428
 20
88.9376352003
 10
62.3207498908
 20
88.8122903576
  0
SPLINE
  5
21F
330
1F
100
AcDbEntity
  8
0
  6
Continuous
 62
     7
370
    15
100
AcDbSpline
210
0.0
220
0.0
230
1.0
 70
     8
 71
     3
 72
    36
 73
    32
 74
     0
 42
0.00000001
 43
0.00000001
 12
1.0
 22
0.0
 32
0.0
 13
1.0
 23
0.0
 33
0.0
 40
0.0
 40
0.0
 40
0.0
 40
0.0
 40
0.0262649013822559
 40
0.0524986064440317
 40
0.0787072768837371
 40
0.1048970920695336
 40
0.1310742447224759
 40
0.157244936552557
 40
0.1834153738629052
 40
0.2095917631376864
 40
0.2357803066293583
 40
0.2619871979609478
 40
0.288218617758902
 40
0.3144807293318028
 40
0.3407796744098618
 40
0.3671215689596141
 40
0.3935124990876332
 40
0.4199585170463728
 40
0.4464656373544375
 40
0.4730398330427109
 40
0.4996870320368147
 40
0.550256474067699
 40
0.600595226611779
 40
0.6507443464584323
 40
0.7007453575323578
 40
0.7506401535411256
 40
0.80047089608445
 40
0.8502799094194128
 40
0.9001095731721094
 40
0.9500022143462538
 40
1.0
 40
1.0
 40
1.0
 40
1.0
 10
74.57050514843634
 20
86.04272876923866
 30
0.0
 10
74.78453528435548
 20
86.09980837501708
 30
0.0
 10
75.21234134040155
 20
86.21389978987256
 30
0.0
 10
75.8501892769517
 20
86.3973925228235
 30
0.0
 10
76.48464840540636
 20
86.58978750088067
 30
0.0
 10
77.115476845068
 20
86.79197771861327
 30
0.0
 10
77.74273918346161
 20
87.00372418859575
 30
0.0
 10
78.36641799376198
 20
87.22509085186896
 30
0.0
 10
78.98651780755016
 20
87.45606054371186
 30
0.0
 10
79.6030372787173
 20
87.69663781175063
 30
0.0
 10
80.2159766393098
 20
87.94682137880955
 30
0.0
 10
80.82533570259842
 20
88.20661152105565
 30
0.0
 10
81.43111439866288
 20
88.47600809068763
 30
0.0
 10
82.03331263204153
 20
88.75501104722235
 30
0.0
 10
82.63193031771316
 20
89.04362031267038
 30
0.0
 10
83.22696738192009
 20
89.34183582126903
 30
0.0
 10
83.81842372478181
 20
89.64965746778589
 30
0.0
 10
84.40629937123114
 20
89.96708526743397
 30
0.0
 10
84.99059390448741
 20
90.29411876879225
 30
0.0
 10
85.57130858953333
 20
90.6307592522014
 30
0.0
 10
86.3205603550563
 20
91.08026402548656
 30
0.0
 10
87.2292268043745
 20
91.65247365818205
 30
0.0
 10
88.28529989945355
 20
92.3606098337326
 30
0.0
 10
89.31645235317193
 20
93.09614928075635
 30
0.0
 10
90.32267252663985
 20
93.85909200310317
 30
0.0
 10
91.3039722244252
 20
94.64942612965542
 30
0.0
 10
92.26030100174728
 20
95.46719300255307
 30
0.0
 10
93.19183443724562
 20
96.31223147443363
 30
0.0
 10
94.09790718093356
 20
97.18513550754466
 30
0.0
 10
94.9809965716639
 20
98.08367618010078
 30
0.0
 10
95.54745980859894
 20
98.70452153311626
 30
0.0
 10
95.83098955614727
 20
99.0152709599625
 30
0.0
  0
LINE
  5
220
330
1F
100
AcDbEntity
  8
0
  6
Continuous
 62
     7
370
    15
100
AcDbLine
 10
95.8309910826
 20
99.0164099654
 30
0.0
 11
95.8309910826
 21
98.3637260666
 31
0.0
  0
SPLINE
  5
221
330
1F
100
AcDbEntity
  8
0
  6
Continuous
 62
     7
370
    15
100
AcDbSpline
210
0.0
220
0.0
230
1.0
 70
     8
 71
     3
 72
    42
 73
    38
 74
     0
 42
0.00000001
 43
0.00000001
 12
1.0
 22
0.0
 32
0.0
 13
1.0
 23
0.0
 33
0.0
 40
0.0
 40
0.0
 40
0.0
 40
0.0
 40
0.0267220467054568
 40
0.0528479990133675
 40
0.0783775400741707
 40
0.1033103604417344
 40
0.1276461580744565
 40
0.1513846383364534
 40
0.1745255139988888
 40
0.1970685052414701
 40
0.219013339654102
 40
0.2403597522387701
 40
0.2611074854116701
 40
0.2812562890056132
 40
0.3008059202728147
 40
0.3197561438880604
 40
0.3381067319524072
 40
0.3558574639974521
 40
0.3730081269903637
 40
0.3895585153397742
 40
0.4055084309027749
 40
0.4208576829932654
 40
0.435606088391966
 40
0.4497534713585629
 40
0.4632996636465103
 40
0.4762445045212585
 40
0.4885878407829111
 40
0.5003295267946786
 40
0.5625152117612108
 40
0.6230387461776221
 40
0.6818980589293638
 40
0.7390911625008458
 40
0.7946161541768412
 40
0.8484712174308194
 40
0.9006546235365144
 40
0.9511647334474495
 40
1.0
 40
1.0
 40
1.0
 40
1.0
 10
95.83102616302818
 20
98.36635456484255
 30
0.0
 10
95.67895694764071
 20
98.20195102585333
 30
0.0
 10
95.37821075730042
 20
97.87681133269791
 30
0.0
 10
94.92296160240937
 20
97.40325089869863
 30
0.0
 10
94.47181110205011
 20
96.94665135735389
 30
0.0
 10
94.02467023742054
 20
96.50725667977945
 30
0.0
 10
93.58225769429497
 20
96.08454648431321
 30
0.0
 10
93.14505493464964
 20
95.67819406452033
 30
0.0
 10
92.71357703497455
 20
95.28781991588903
 30
0.0
 10
92.28830329006202
 20
94.91305669158281
 30
0.0
 10
91.86969574407931
 20
94.55353363879468
 30
0.0
 10
91.45819504121495
 20
94.20888176639427
 30
0.0
 10
91.05422213880419
 20
93.87873361383744
 30
0.0
 10
90.65817852076952
 20
93.56272435958923
 30
0.0
 10
90.27044680480182
 20
93.26049253473181
 30
0.0
 10
89.89139125346647
 20
92.97168078922951
 30
0.0
 10
89.52135831257502
 20
92.6959365971538
 30
0.0
 10
89.16067714276355
 20
92.43291293140065
 30
0.0
 10
88.80966015071236
 20
92.18226890139204
 30
0.0
 10
88.46860351626704
 20
91.94367035697675
 30
0.0
 10
88.13778771415994
 20
91.71679045851981
 30
0.0
 10
87.81747802952867
 20
91.50131021665567
 30
0.0
 10
87.50792506286525
 20
91.2969189949241
 30
0.0
 10
87.20936523353362
 20
91.10331500407365
 30
0.0
 10
86.92202124382088
 20
90.92020569205364
 30
0.0
 10
86.64610263107663
 20
90.74730837050663
 30
0.0
 10
86.3818059576562
 20
90.58434989336395
 30
0.0
 10
85.76342357508567
 20
90.20894501248787
 30
0.0
 10
84.78716912706987
 20
89.64423401857421
 30
0.0
 10
83.44263795687964
 20
88.92834621464557
 30
0.0
 10
82.11178336621595
 20
88.27715358489286
 30
0.0
 10
80.79804701256822
 20
87.68762406479591
 30
0.0
 10
79.50454258547683
 20
87.15674101395449
 30
0.0
 10
78.23421112190586
 20
86.68112061977735
 30
0.0
 10
76.9894173850417
 20
86.25852506863342
 30
0.0
 10
75.77340895308336
 20
85.88255069777468
 30
0.0
 10
74.96767215301104
 20
85.66490250428917
 30
0.0
 10
74.57159562883386
 20
85.55791305070898
 30
0.0
  0
LINE
  5
222
330
1F
100
AcDbEntity
  8
0
  6
Continuous
 62
     7
370
    15
100
AcDbLine
 10
74.5718070872
 20
85.5557235351
 30
0.0
 11
74.5701698221
 21
86.0426674059
 31
0.0
  0
LINE
  5
223
330
1F
100
AcDbEntity
  8
0
  6
Continuous
 62
     7
370
    15
100
AcDbLine
 10
73.0037392683
 20
99.7401072106
 30
0.0
 11
68.4441087402
 21
99.2608709654
 31
0.0
  0
LINE
  5
224
330
1F
100
AcDbEntity
  8
0
  6
Continuous
 62
     7
370
    15
100
AcDbLine
 10
68.4441087402
 20
99.2608709654
 30
0.0
 11
68.3521587968
 21
100.0649152717
 31
0.0
  0
LINE
  5
225
330
1F
100
AcDbEntity
  8
0
  6
Continuous
 62
     7
370
    15
100
AcDbLine
 10
68.3521587968
 20
100.0649152717
 30
0.0
 11
62.4177160541
 21
99.4411806038
 31
0.0
  0
LINE
  5
226
330
1F
100
AcDbEntity
  8
0
  6
Continuous
 62
     7
370
    15
100
AcDbLine
 10
62.4177160541
 20
99.4411806038
 30
0.0
 11
59.818728511
 21
122.1677042937
 31
0.0
  0
LINE
  5
227
330
1F
100
AcDbEntity
  8
0
  6
Continuous
 62
     7
370
    15
100
AcDbLine
 10
59.818728511
 20
122.1677042937
 30
0.0
 11
95.8309910826
 21
125.9527452218
 31
0.0
  0
LINE
  5
228
330
1F
100
AcDbEntity
  8
0
  6
Continuous
 62
     7
370
    15
100
AcDbLine
 10
95.8309910826
 20
99.0152718893
 30
0.0
 11
95.8309910826
 21
125.9527452218
 31
0.0
  0
LINE
  5
229
330
1F
100
AcDbEntity
  8
0
  6
Continuous
 62
     7
370
    15
100
AcDbLine
 10
74.5701642342
 20
86.0426934829
 30
0.0
 11
74.525511042
 21
86.4331635108
 31
0.0
  0
LINE
  5
22A
330
1F
100
AcDbEntity
  8
0
  6
Continuous
 62
     7
370
    15
100
AcDbLine
 10
73.1162439667
 20
98.7563176474
 30
0.0
 11
73.0037392683
 21
99.7401072106
 31
0.0
  0
ELLIPSE
  5
22B
330
1F
100
AcDbEntity
  8
0
  6
Continuous
 62
     7
370
    15
100
AcDbEllipse
 10
169.002464938
 20
139.4657323682
 30
0.0
 11
126.3474265760939
 21
13.27964964806682
 31
0.0
210
0.0
220
0.0
230
1.0
 40
0.5541767355
 41
3.811686911474436
 42
3.811983598853794
  0
SPLINE
  5
22C
330
1F
100
AcDbEntity
  8
0
  6
Continuous
 62
     7
370
    15
100
AcDbSpline
210
0.0
220
0.0
230
1.0
 70
     8
 71
     3
 72
    10
 73
     6
 74
     0
 42
0.00000001
 43
0.00000001
 12
1.0
 22
0.0
 32
0.0
 13
1.0
 23
0.0
 33
0.0
 40
0.0
 40
0.0
 40
0.0
 40
0.0
 40
0.5
 40
0.5
 40
1.0
 40
1.0
 40
1.0
 40
1.0
 10
59.95794554891526
 20
97.15077432872555
 30
0.0
 10
59.98190891424045
 20
97.14780541548909
 30
0.0
 10
60.01296302638224
 20
97.068392020771
 30
0.0
 10
60.07881113237029
 20
96.7903799536703
 30
0.0
 10
60.11212087539981
 20
96.59826437203003
 30
0.0
 10
60.1407803144853
 20
96.3824641499677
 30
0.0
  0
ARC
  5
22D
330
1F
100
AcDbEntity
  8
0
  6
Continuous
 62
     7
370
    15
100
AcDbCircle
 10
63.8309895627
 20
128.4117648771
 30
0.0
 40
31.50000000000002
100
AcDbArc
 50
262.7152187417
 51
262.9373956382
  0
LINE
  5
22E
330
1F
100
AcDbEntity
  8
0
  6
Continuous
 62
     7
370
    15
100
AcDbLine
 10
53.5307844736
 20
157.1633169821
 30
0.0
 11
59.818728511
 21
122.1677042937
 31
0.0
  0
LWPOLYLINE
  5
22F
330
1F
100
AcDbEntity
  8
0
  6
Continuous
 62
     7
370
    15
100
AcDbPolyline
 90
        3
 70
   128
 43
0.0
 10
60.5522512093
 20
100.5463568887
 10
60.5805568963
 20
100.6060844681
 10
60.655274811
 20
100.626776593
  0
ELLIPSE
  5
230
330
1F
100
AcDbEntity
  8
0
  6
Continuous
 62
     7
370
    15
100
AcDbEllipse
 10
192.9401382212
 20
141.9816832127
 30
0.0
 11
155.1048763195205
 21
16.30217941154081
 31
0.0
210
0.0
220
0.0
230
1.0
 40
0.5541767355
 41
3.645747530365103
 42
3.650307324537982
  0
SPLINE
  5
231
330
1F
100
AcDbEntity
  8
0
  6
Continuous
 62
     7
370
    15
100
AcDbSpline
210
0.0
220
0.0
230
1.0
 70
     8
 71
     3
 72
     8
 73
     4
 74
     0
 42
0.00000001
 43
0.00000001
 12
1.0
 22
0.0
 32
0.0
 13
1.0
 23
0.0
 33
0.0
 40
0.0
 40
0.0
 40
0.0
 40
0.0
 40
1.0
 40
1.0
 40
1.0
 40
1.0
 10
60.1407803144853
 20
96.3824641499677
 30
0.0
 10
60.59241340360285
 20
92.98175136450365
 30
0.0
 10
61.04463702612171
 20
89.5831491787673
 30
0.0
 10
61.49711172343324
 20
86.18544434851984
 30
0.0
  0
LWPOLYLINE
  5
232
330
1F
100
AcDbEntity
  8
0
  6
Continuous
 62
     7
370
    15
100
AcDbPolyline
 90
       34
 70
   128
 43
0.0
 10
60.9666979041
 20
105.7883562913
 10
61.0373601418
 20
105.0354527703
 10
61.090274398
 20
104.3097606322
 10
61.1235282019
 20
103.6375096461
 10
61.1359199144
 20
103.0429942927
 10
61.1270011038
 20
102.5477057716
 10
61.0970947061
 20
102.1695422402
 10
61.0472812884
 20
101.9221699259
 10
60.9793615628
 20
101.8145332506
 10
60.8957897972
 20
101.8505214175
 10
60.7995869692
 20
102.0288324377
 10
60.694229706
 20
102.3430234215
 10
60.5835264184
 20
102.7817359587
 10
60.4714776024
 20
103.3291170767
 10
60.3621333472
 20
103.9653798959
 10
60.2594457202
 20
104.6675319245
 10
60.1671258088
 20
105.4101908973
 10
60.0885107748
 20
106.1665198228
 10
60.0264413849
 20
106.9091806581
 10
59.983161195
 20
107.6113308242
 10
59.9602348272
 20
108.247595506
 10
59.95849046
 20
108.7949747613
 10
59.9779911906
 20
109.2336891612
 10
60.0180324733
 20
109.5478782824
 10
60.0771668002
 20
109.7261893025
 10
60.1532572515
 20
109.7621774694
 10
60.2435533989
 20
109.6545407942
 10
60.3447918881
 20
109.4071703425
 10
60.4533135526
 20
109.0290049484
 10
60.5651961274
 20
108.5337164274
 10
60.6763960429
 20
107.9392010739
 10
60.7828944091
 20
107.2669500878
 10
60.8808416043
 20
106.5412598124
 10
60.9666979041
 20
105.7883562913
  0
LINE
  5
233
330
1F
100
AcDbEntity
  8
0
  6
Continuous
 62
     7
370
    15
100
AcDbLine
 10
60.655274811
 20
100.626776593
 30
0.0
 11
62.4177160541
 21
99.4411806038
 31
0.0
  0
LINE
  5
234
330
1F
100
AcDbEntity
  8
0
  6
Continuous
 62
     7
370
    15
100
AcDbLine
 10
68.3729780473
 20
99.3087204566
 30
0.0
 11
68.4441087402
 21
99.2608709654
 31
0.0
  0
ELLIPSE
  5
235
330
1F
100
AcDbEntity
  8
0
  6
Continuous
 62
     7
370
    15
100
AcDbEllipse
 10
47.5963417162
 20
156.5395814202
 30
0.0
 11
-2.085366894322803
 21
8.356644074018192
 31
0.0
210
0.0
220
0.0
230
1.0
 40
0.6892710456
 41
4.615676670624706
 42
4.728023296425332
  0
ARC
  5
236
330
1F
100
AcDbEntity
  8
0
  6
Continuous
 62
     7
370
    15
100
AcDbCircle
 10
63.8309895627
 20
128.4117648771
 30
0.0
 40
31.50000000000002
100
AcDbArc
 50
55.4192964957
 51
109.4865800255
  0
SPLINE
  5
237
330
1F
100
AcDbEntity
  8
0
  6
Continuous
 62
     7
370
    15
100
AcDbSpline
210
0.0
220
0.0
230
1.0
 70
     8
 71
     3
 72
    10
 73
     6
 74
     0
 42
0.00000001
 43
0.00000001
 12
1.0
 22
0.0
 32
0.0
 13
1.0
 23
0.0
 33
0.0
 40
0.0
 40
0.0
 40
0.0
 40
0.0
 40
0.5
 40
0.5
 40
1.0
 40
1.0
 40
1.0
 40
1.0
 10
81.7093340263895
 20
154.3465831575453
 30
0.0
 10
82.10090060130292
 20
154.0766540594863
 30
0.0
 10
82.51467282094113
 20
153.8328823558787
 30
0.0
 10
83.37535396173004
 20
153.3843727071072
 30
0.0
 10
83.822621338786
 20
153.1787356979615
 30
0.0
 10
84.29076139572832
 20
153.0165964461761
 30
0.0
  0
ARC
  5
238
330
1F
100
AcDbEntity
  8
0
  6
Continuous
 62
     7
370
    15
100
AcDbCircle
 10
63.8309895627
 20
128.4117648771
 30
0.0
 40
32.00000000000004
100
AcDbArc
 50
0.0
 51
50.2553007236
  0
LINE
  5
239
330
1F
100
AcDbEntity
  8
0
  6
Continuous
 62
     7
370
    15
100
AcDbLine
 10
95.8309910826
 20
128.4117648771
 30
0.0
 11
95.8309910826
 21
125.9527452218
 31
0.0
  0
ARC
  5
23A
330
1F
100
AcDbEntity
  8
0
  6
Continuous
 62
     7
370
    15
100
AcDbCircle
 10
84.7486549753
 20
108.3321261566
 30
0.0
 40
24.21805160639996
100
AcDbArc
 50
179.1629925482
 51
192.8370119444
  0
SPLINE
  5
23B
330
1F
100
AcDbEntity
  8
0
  6
Continuous
 62
     7
370
    15
100
AcDbSpline
210
0.0
220
0.0
230
1.0
 70
     8
 71
     3
 72
    20
 73
    16
 74
     0
 42
0.00000001
 43
0.00000001
 12
1.0
 22
0.0
 32
0.0
 13
1.0
 23
0.0
 33
0.0
 40
0.0
 40
0.0
 40
0.0
 40
0.0
 40
0.2499999999999989
 40
0.2499999999999989
 40
0.3749999999999991
 40
0.3749999999999991
 40
0.4999999999999993
 40
0.4999999999999993
 40
0.6249999999999996
 40
0.6249999999999996
 40
0.7499999999999997
 40
0.7499999999999997
 40
0.8749999999999999
 40
0.8749999999999999
 40
1.0
 40
1.0
 40
1.0
 40
1.0
 10
55.30125434311419
 20
98.08861172506359
 30
0.0
 10
55.88163765072318
 20
97.92535311158889
 30
0.0
 10
56.43370848599932
 20
97.7880073886839
 30
0.0
 10
57.21419906575916
 20
97.61340199808511
 30
0.0
 10
57.46533520125216
 20
97.5607465473847
 30
0.0
 10
57.93323212542684
 20
97.46789077185977
 30
0.0
 10
58.15228428250227
 20
97.42717123920126
 30
0.0
 10
58.55944738240637
 20
97.35530693987765
 30
0.0
 10
58.7488339341244
 20
97.32398066747167
 30
0.0
 10
59.08311406200252
 20
97.27117542976666
 30
0.0
 10
59.22929244872721
 20
97.249441741516
 30
0.0
 10
59.47970345912435
 20
97.21349074566544
 30
0.0
 10
59.58444064601609
 20
97.1992113316215
 30
0.0
 10
59.74642555609633
 20
97.17760067494605
 30
0.0
 10
59.80362948465554
 20
97.17026225733989
 30
0.0
 10
59.83675365440595
 20
97.16602789575867
 30
0.0
  0
SPLINE
  5
23C
330
1F
100
AcDbEntity
  8
0
  6
Continuous
 62
     7
370
    15
100
AcDbSpline
210
0.0
220
0.0
230
1.0
 70
     8
 71
     3
 72
    18
 73
    14
 74
     0
 42
0.00000001
 43
0.00000001
 12
1.0
 22
0.0
 32
0.0
 13
1.0
 23
0.0
 33
0.0
 40
0.0
 40
0.0
 40
0.0
 40
0.0
 40
0.1250000000000001
 40
0.1250000000000001
 40
0.2500000000000001
 40
0.2500000000000001
 40
0.5000000000000001
 40
0.5000000000000001
 40
0.7500000000000001
 40
0.7500000000000001
 40
0.8750000000000004
 40
0.8750000000000004
 40
1.0
 40
1.0
 40
1.0
 40
1.0
 10
53.32302860951269
 20
158.1074338644669
 30
0.0
 10
53.26487860509872
 20
158.0868571946478
 30
0.0
 10
53.18874774527214
 20
158.0597445736784
 30
0.0
 10
53.00061985058569
 20
157.9915401110034
 30
0.0
 10
52.88752328027313
 20
157.9500318023906
 30
0.0
 10
52.50379044910689
 20
157.8059688829152
 30
0.0
 10
52.18720114289427
 20
157.6834814587006
 30
0.0
 10
51.44491285091014
 20
157.3771977944303
 30
0.0
 10
51.03389890818858
 20
157.1993705643006
 30
0.0
 10
50.36469579221821
 20
156.8892889038308
 30
0.0
 10
50.13310065500669
 20
156.7787555954459
 30
0.0
 10
49.66424150652729
 20
156.5475352140771
 30
0.0
 10
49.42561286110148
 20
156.4262281686504
 30
0.0
 10
49.18311147999711
 20
156.2988527077603
 30
0.0
  0
ELLIPSE
  5
23D
330
1F
100
AcDbEntity
  8
0
  6
Continuous
 62
     7
370
    15
100
AcDbEllipse
 10
49.9759047828
 20
111.8188984269
 30
0.0
 11
-2.266853502313062
 21
2.998331141371083
 31
0.0
210
0.0
220
0.0
230
1.0
 40
0.6487969398
 41
0.0
 42
6.283185307179586
  0
ARC
  5
23E
330
1F
100
AcDbEntity
  8
0
  6
Continuous
 62
     7
370
    15
100
AcDbCircle
 10
63.8309895627
 20
128.4117648771
 30
0.0
 40
31.5
100
AcDbArc
 50
117.7109988413
 51
254.2890011587
  0
INSERT
  5
24A
330
1F
100
AcDbEntity
  8
VERMASSUNG
100
AcDbBlockReference
  2
SW_CENTERMARKSYMBOL_0
 10
63.8309895627
 20
128.4117648771
 30
0.0
  0
OLE2FRAME
  5
24B
330
1F
100
AcDbEntity
  8
0
100
AcDbOle2Frame
 70
     2
  3
Paintbrush-Bild
 10
13.8511154363
 20
38.264191557
 30
0.0
 11
51.6290888628
 21
31.9806341108
 31
0.0
 71
     2
 72
     0
 73
     1
 90
    12928
310
80552BED0767C5B32B40DDAF6807D121434000000000000000006FFBDDFB85D0
310
4940DDAF6807D121434000000000000000006FFBDDFB85D04940416F4BD60AFB
310
3F4000000000000000002BED0767C5B32B40416F4BD60AFB3F40000000000000
310
0000000000000100000000010000010000000100000000000100000000320000
310
D0CF11E0A1B11AE1000000000000000000000000000000003E000300FEFF0900
310
0600000000000000000000000100000001000000000000000010000002000000
310
01000000FEFFFFFF0000000000000000FFFFFFFFFFFFFFFFFFFFFFFFFFFFFFFF
310
FFFFFFFFFFFFFFFFFFFFFFFFFFFFFFFFFFFFFFFFFFFFFFFFFFFFFFFFFFFFFFFF
310
FFFFFFFFFFFFFFFFFFFFFFFFFFFFFFFFFFFFFFFFFFFFFFFFFFFFFFFFFFFFFFFF
310
FFFFFFFFFFFFFFFFFFFFFFFFFFFFFFFFFFFFFFFFFFFFFFFFFFFFFFFFFFFFFFFF
310
FFFFFFFFFFFFFFFFFFFFFFFFFFFFFFFFFFFFFFFFFFFFFFFFFFFFFFFFFFFFFFFF
310
FFFFFFFFFFFFFFFFFFFFFFFFFFFFFFFFFFFFFFFFFFFFFFFFFFFFFFFFFFFFFFFF
310
FFFFFFFFFFFFFFFFFFFFFFFFFFFFFFFFFFFFFFFFFFFFFFFFFFFFFFFFFFFFFFFF
310
FFFFFFFFFFFFFFFFFFFFFFFFFFFFFFFFFFFFFFFFFFFFFFFFFFFFFFFFFFFFFFFF
310
FFFFFFFFFFFFFFFFFFFFFFFFFFFFFFFFFFFFFFFFFFFFFFFFFFFFFFFFFFFFFFFF
310
FFFFFFFFFFFFFFFFFFFFFFFFFFFFFFFFFFFFFFFFFFFFFFFFFFFFFFFFFFFFFFFF
310
FFFFFFFFFFFFFFFFFFFFFFFFFFFFFFFFFFFFFFFFFFFFFFFFFFFFFFFFFFFFFFFF
310
FFFFFFFFFFFFFFFFFFFFFFFFFFFFFFFFFFFFFFFFFFFFFFFFFFFFFFFFFFFFFFFF
310
FFFFFFFFFFFFFFFFFFFFFFFFFFFFFFFFFFFFFFFFFFFFFFFFFFFFFFFFFFFFFFFF
310
FFFFFFFFFFFFFFFFFFFFFFFFFFFFFFFFFFFFFFFFFFFFFFFFFFFFFFFFFFFFFFFF
310
FDFFFFFFFEFFFFFFFEFFFFFFFEFFFFFF05000000060000000700000008000000
310
090000000A0000000B0000000C0000000D0000000E0000000F00000010000000
310
11000000120000001300000014000000150000001600000017000000FEFFFFFF
310
FFFFFFFFFFFFFFFFFFFFFFFFFFFFFFFFFFFFFFFFFFFFFFFFFFFFFFFFFFFFFFFF
310
FFFFFFFFFFFFFFFFFFFFFFFFFFFFFFFFFFFFFFFFFFFFFFFFFFFFFFFFFFFFFFFF
310
FFFFFFFFFFFFFFFFFFFFFFFFFFFFFFFFFFFFFFFFFFFFFFFFFFFFFFFFFFFFFFFF
310
FFFFFFFFFFFFFFFFFFFFFFFFFFFFFFFFFFFFFFFFFFFFFFFFFFFFFFFFFFFFFFFF
310
FFFFFFFFFFFFFFFFFFFFFFFFFFFFFFFFFFFFFFFFFFFFFFFFFFFFFFFFFFFFFFFF
310
FFFFFFFFFFFFFFFFFFFFFFFFFFFFFFFFFFFFFFFFFFFFFFFFFFFFFFFFFFFFFFFF
310
FFFFFFFFFFFFFFFFFFFFFFFFFFFFFFFFFFFFFFFFFFFFFFFFFFFFFFFFFFFFFFFF
310
FFFFFFFFFFFFFFFFFFFFFFFFFFFFFFFFFFFFFFFFFFFFFFFFFFFFFFFFFFFFFFFF
310
FFFFFFFFFFFFFFFFFFFFFFFFFFFFFFFFFFFFFFFFFFFFFFFFFFFFFFFFFFFFFFFF
310
FFFFFFFFFFFFFFFFFFFFFFFFFFFFFFFFFFFFFFFFFFFFFFFFFFFFFFFFFFFFFFFF
310
FFFFFFFFFFFFFFFFFFFFFFFFFFFFFFFFFFFFFFFFFFFFFFFFFFFFFFFFFFFFFFFF
310
FFFFFFFFFFFFFFFFFFFFFFFFFFFFFFFFFFFFFFFFFFFFFFFFFFFFFFFFFFFFFFFF
310
FFFFFFFFFFFFFFFFFFFFFFFFFFFFFFFFFFFFFFFFFFFFFFFFFFFFFFFFFFFFFFFF
310
52006F006F007400200045006E00740072007900000000000000000000000000
310
0000000000000000000000000000000000000000000000000000000000000000
310
16000500FFFFFFFFFFFFFFFF020000000A00030000000000C000000000000046
310
00000000000000000000000090EA4D5C5624CD0103000000C000000000000000
310
01004F006C006500000000000000000000000000000000000000000000000000
310
0000000000000000000000000000000000000000000000000000000000000000
310
0A000200FFFFFFFFFFFFFFFFFFFFFFFF00000000000000000000000000000000
310
0000000000000000000000000000000000000000000000001400000000000000
310
010043006F006D0070004F0062006A0000000000000000000000000000000000
310
0000000000000000000000000000000000000000000000000000000000000000
310
120002010100000003000000FFFFFFFF00000000000000000000000000000000
310
0000000000000000000000000000000000000000010000004D00000000000000
310
01004F006C006500310030004E00610074006900760065000000000000000000
310
0000000000000000000000000000000000000000000000000000000000000000
310
1A000200FFFFFFFFFFFFFFFFFFFFFFFF00000000000000000000000000000000
310
0000000000000000000000000000000000000000040000002426000000000000
310
FEFFFFFF02000000FEFFFFFFFFFFFFFFFFFFFFFFFFFFFFFFFFFFFFFFFFFFFFFF
310
FFFFFFFFFFFFFFFFFFFFFFFFFFFFFFFFFFFFFFFFFFFFFFFFFFFFFFFFFFFFFFFF
310
FFFFFFFFFFFFFFFFFFFFFFFFFFFFFFFFFFFFFFFFFFFFFFFFFFFFFFFFFFFFFFFF
310
FFFFFFFFFFFFFFFFFFFFFFFFFFFFFFFFFFFFFFFFFFFFFFFFFFFFFFFFFFFFFFFF
310
FFFFFFFFFFFFFFFFFFFFFFFFFFFFFFFFFFFFFFFFFFFFFFFFFFFFFFFFFFFFFFFF
310
FFFFFFFFFFFFFFFFFFFFFFFFFFFFFFFFFFFFFFFFFFFFFFFFFFFFFFFFFFFFFFFF
310
FFFFFFFFFFFFFFFFFFFFFFFFFFFFFFFFFFFFFFFFFFFFFFFFFFFFFFFFFFFFFFFF
310
FFFFFFFFFFFFFFFFFFFFFFFFFFFFFFFFFFFFFFFFFFFFFFFFFFFFFFFFFFFFFFFF
310
FFFFFFFFFFFFFFFFFFFFFFFFFFFFFFFFFFFFFFFFFFFFFFFFFFFFFFFFFFFFFFFF
310
FFFFFFFFFFFFFFFFFFFFFFFFFFFFFFFFFFFFFFFFFFFFFFFFFFFFFFFFFFFFFFFF
310
FFFFFFFFFFFFFFFFFFFFFFFFFFFFFFFFFFFFFFFFFFFFFFFFFFFFFFFFFFFFFFFF
310
FFFFFFFFFFFFFFFFFFFFFFFFFFFFFFFFFFFFFFFFFFFFFFFFFFFFFFFFFFFFFFFF
310
FFFFFFFFFFFFFFFFFFFFFFFFFFFFFFFFFFFFFFFFFFFFFFFFFFFFFFFFFFFFFFFF
310
FFFFFFFFFFFFFFFFFFFFFFFFFFFFFFFFFFFFFFFFFFFFFFFFFFFFFFFFFFFFFFFF
310
FFFFFFFFFFFFFFFFFFFFFFFFFFFFFFFFFFFFFFFFFFFFFFFFFFFFFFFFFFFFFFFF
310
FFFFFFFFFFFFFFFFFFFFFFFFFFFFFFFFFFFFFFFFFFFFFFFFFFFFFFFFFFFFFFFF
310
0100000200000000000000000000000000000000000000000000000000000000
310
0000000000000000000000000000000000000000000000000000000000000000
310
0100FEFF030A0000FFFFFFFF0A00030000000000C00000000000004607000000
310
5042727573680007000000504272757368000700000050427275736800F439B2
310
7100000000000000000000000000000000000000000000000000000000000000
310
0000000000000000000000000000000000000000000000000000000000000000
310
0000000000000000000000000000000000000000000000000000000000000000
310
0000000000000000000000000000000000000000000000000000000000000000
310
0000000000000000000000000000000000000000000000000000000000000000
310
0000000000000000000000000000000000000000000000000000000000000000
310
0000000000000000000000000000000000000000000000000000000000000000
310
0000000000000000000000000000000000000000000000000000000000000000
310
0000000000000000000000000000000000000000000000000000000000000000
310
0000000000000000000000000000000000000000000000000000000000000000
310
0000000000000000000000000000000000000000000000000000000000000000
310
0000000000000000000000000000000000000000000000000000000000000000
310
20260000424D0E260000000000003E00000028000000B40200006E0000000100
310
01000000000000000000130B0000130B00000200000002000000000000FFFFFF
310
FFFFFFFFFFFFFFFFFFFFFFFFFFFFFFFFFFFFFFFFFFFFFFFFFFFFFFFFFFFFFFFF
310
FFFFFFFFFFFFFFFFFFFFFFFFFFFFFFFFFFFFFFFFFFFFFFFFFFFFFFFFFFFFFFFF
310
FFFFFFFFFFFFFFFFFFFFFFFFFFFFFFFFFFFFFFFFFFFFFFFFF000FFFFFFFFFFFF
310
FFFFFFFFFFFFFFFFFFFFFFFFFFFFFFFFFFFFFFFFFFFFFFFFFFFFFFFFFFFFFFFF
310
FFFFFFFFFFFFFFFFFFFFFFFFFFFFFFFFFFFFFFFFFFFFFFFFFFFFFFFFFFFFFFFF
310
FFFFFFFFFFFFFFFFFFFFFFFFFFFFFFFFF000FFFFFFFFFFFFFFFFFFFFFFFFFFFF
310
FFFFFFFFFFFFFFFFFFFFFFFFFFFFFFFFFFFFFFFFFFFFFFFFFFFFFFFFFFFFFFFF
310
FFFFFFFFFFFFFFFFFFFFFFFFFFFFFFFFFFFFFFFFFFFFFFFFFFFFFFFFFFFFFFFF
310
FFFFFFFFFFFFFFFFF000FFFFFFFFFFFFFFFFFFFFFFFFFFFFFFFFFFFFFFFFFFFF
310
FFFFFFFFFFFFFFFFFFFFFFFFFFFFFFFFFFFFFFFFFFFFFFFFFFFFFFFFFFFFFFFF
310
FFFFFFFFFFFFFFFFFFFFFFFFFFFFFFFFFFFFFFFFFFFFFFFFFFFFFFFFFFFFFFFF
310
F000FFFFFFFFFFFFFFFFFFFFFFFFFFFFFFFFFFFFFFFFFFFFFFFFFFFFFFFFFFFF
310
FFFFFFFFFFFFFFFFFFFFFFFFFFFFFFFFFFFFFFFFFFFFFFFFFFFFFFFFFFFFFFFF
310
FFFFFFFFFFFFFFFFFFFFFFFFFFFFFFFFFFFFFFFFFFFFFFFFF000FFFFFFFFFFFF
310
FFFFFFFFFFFFFFFFFFFFFFFFFFFFFFFFFFFFFFFFFFFFFFFFFFFFFFFFFFFFFFFF
310
FFFFFFFFFFFFFFFFFFFFFFFFFFFFFFFFFFFFFFFFFFFFFFFFFFFFFFFFFFFFFFFF
310
FFFFFFFFFFFFFFFFFFFFFFFFFFFFFFFFF000FFFFFFFFFFFFFFFFFFFFFFFFFFFF
310
FFFFFFFFFFFFFFFFFFFFFFFFFFFFFFFFFFFFFFFFFFFFFFFFFFFFFFFFFFFFFFFF
310
FFFFFFFFFFFFFFFFFFFFFFFFFFFFFFFFFFFFFFFFFFFFFFFFFFFFFFFFFFFFFFFF
310
FFFFFFFFFFFFFFFFF000FFFFFFFFFFFFFFFFFFFFFFFFFFFFFFFFFFFFFFFFFFFF
310
FFFFFFFFFFFFFFFFFFFFFFFFFFFFFFFFFFFFFFFFFFFFFFFFFFFFFFFFFFFFFFFF
310
FFFFFFFFFFFFFFFFFFFFFFFFFFFFFFFFFFFFFFFFFFFFFFFFFFFFFFFFFFFFFFFF
310
F000FFFFFFFFFFFFFFFFFFFFFFFFFFFFFFFFFFFFFFFFFFFFFFFFFFFFFFFFFFFF
310
FFFFFFFFFFFFFFFFFFFFFFFFFFFFFFFFFFFFFFFFFFFFFFFFFFFFFFFFFFFFFFFF
310
FFFFFFFFFFFFFFFFFFFFFFFFFFFFFFFFFFFFFFFFFFFFFFFFF000FFFFFFFFFFFF
310
FFFFFFFFFFFFFFFFFFFFFFFFFFFFFFFFFFFFFFFFFFFFFFFFFFFFFFFFFFFFFFFF
310
FFFFFFFFFFFFFFFFFFFFFFFFFFFFFFFFFFFFFFFFFFFFFFFFFFFFFFFFFFFFFFFF
310
FFFFFFFFFFFFFFFFFFFFFFFFFFFFFFFFF000FFFFFFFFFFFFFFFFFFFFFFFFFFFF
310
FFFFFFFFFFFFFFFFFFFFFFFFFFFFFFFFFFFFFFFFFFFFFFFFFFFFFFFFFFFFFFFF
310
FFFFFFFFFFFFFFFFFFFFFFFFFFFFFFFFFFFFFFFFFFFFFFFFFFFFFFFFFFFFFFFF
310
FFFFFFFFFFFFFFFFF000FFFFFFFFFFFFFFFFFFFFFFFFFFFFFFFFFFFFFFFFFFFF
310
FFFFFFFFFFFFFFFFFFFFFFFFFFFFFFFFFFFFFFFFFFFFFFFFFFFFFFFFFFFFFFFF
310
FFFFFFFFFFFFFFFFFFFFFFFFFFFFFFFFFFFFFFFFFFFFFFFFFFFFFFFFFFFFFFFF
310
F000FFFFFFFFFFFFFFFFFFFFFFFFFFFFFFFFFFFFFFFFFFFFFFFFFFFFFFFFFFFF
310
FFFFFFFFFFFFFFFFFFFFFFFFFFFFFFFFFFFFFFFFFFFFFFFFFFFFFFFFFFFFFFFF
310
FFFFFFFFFFFFFFFFFFFFFFFFFFFFFFFFFFFFFFFFFFFFFFFFF000FFFFFFFFFFFF
310
FFFFFFFFFFFFFFFFFFFFFFFFFFFFFFFFFFFFFFFFFFFFFFFFFFFFFFFFFFFFFFFF
310
FFFFFFFFFFFFFFFFFFFFFFFFFFFFFFFFFFFFFFFFFFFFFFFFFFFFFFFFFFFFFFFF
310
FFFFFFFFFFFFFFFFFFFFFFFFFFFFFFFFF000FFFFFFFFFFFFFFFFFFFFFFFFFFFF
310
FFFFFFFFFFFFFFFFFFFFFFFFFFFFFFFFFFFFFFFFFFFFFFFFFFFFFFFFFFFFFFFF
310
FFFFFFFFFFFFFFFFFFFFFFFFFFFFFFFFFFFFFFFFFFFFFFFFFFFFFFFFFFFFFFFF
310
FFFFFFFFFFFFFFFFF000FFFFFFFFFFFFFFFFFFFFFFFFFFFFFFFFFFFFFFFFFFFF
310
FFFFFFFFFFFFFFFFFFFFFFFFFFFFFFFFFFFFFFFFFFFFFFFFFFFFFFFFFFFFFFFF
310
FFFFFFFFFFFFFFFFFFFFFFFFFFFFFFFFFFFFFFFFFFFFFFFFFFFFFFFFFFFFFFFF
310
F000FFFFFFFFFFFFFFFFFFFFFFFFFFFFFFFFFFFFFFFFFFFFFFFFFFFFFFFFFFFF
310
FFFFFFFFFFFFFFFFFFFFFFFFFFFFFFFFFFFFFFFFFFFFFFFFFFFFFFFFFFFFFFFF
310
FFFFFFFFFFFFFFFFFFFFFFFFFFFFFFFFFFFFFFFFFFFFFFFFF000FFFFFFFFFFFF
310
FFFFFFFFFFFFFFFFFFFFFFFFFFFFFFFFFFFFFFFFFFFFFFFFFFFFFFFFFFFFFFFF
310
FFFFFFFFFFFFFFFFFFFFFFFFFFFFFFFFFFFFFFFFFFFFFFFFFFFFFFFFFFFFFFFF
310
FFFFFFFFFFFFFFFFFFFFFFFFFFFFFFFFF000FFFFFFFFFFFFFFFFFFFFFFFFFFFF
310
FFFFFFFFFFFFFFFFFFFFFFFFFFFFFFFFFFFFFFFFFFFFFFFFFFFFFFFFFFFFFFFF
310
FFFFFFFFFFFFFFFFFFFFFFFFFFFFFFFFFFFFFFFFFFFFFFFFFFFFFFFFFFFFFFFF
310
FFFFFFFFFFFFFFFFF000FFFFF80003FFFFFFFFFFFFFFFFFFFFFFFFFFFFFFFFFF
310
FFFFF00007FFFFFFFFFF00007FFFFFF800000000000000007FFFFFFFFFFFFFFF
310
FFFFFFFC001FFFFFFFFFFFFFFC001FFFFFFFFFFFFFFFFFFFFFFFFFFE0007FFFF
310
F000FFFF8000007FFFFFFFF8000FFFFFC0007FFFFF80007FFFFF0000007FFFFF
310
FFF8000007FFFFF800000000000000007FFFFFF0001FFFFFFFFFFFC00001FFFF
310
FFFFFFFFC00001FFFFFFFF000000000003FFFFE000007FFFF000FFFE0000000F
310
FFFFFFF0000FFFFF80007FFFFF80007FFFFC0000001FFFFFFFC0000001FFFFF8
310
00000000000000007FFFFFF0001FFFFFFFFFFE0000003FFFFFFFFFFE0000003F
310
FFFFFF000000000003FFFF0000000FFFF000FFF800000003FFFFFFF00007FFFF
310
80007FFFFF80007FFFF000000007FFFFFF000000003FFFF80000000000000000
310
7FFFFFF0001FFFFFFFFFF80000000FFFFFFFFFF80000000FFFFFFF0000000000
310
03FFFC00000003FFF000FFE000000000FFFFFFF00007FFFF80003FFFFF80007F
310
FFC000000001FFFFFC000000001FFFF800000000000000007FFFFFF0001FFFFF
310
FFFFE000000003FFFFFFFFE000000003FFFFFF000000000003FFF000000000FF
310
F000FF80000000007FFFFFF00007FFFF80003FFFFF80007FFF8000000000FFFF
310
F80000000007FFF800000000000000007FFFFFF0001FFFFFFFFFC000000001FF
310
FFFFFFC000000001FFFFFF000000000003FFC0000000007FF000FF0000000000
310
3FFFFFE00007FFFF00003FFFFF80007FFE00000000003FFFF00000000003FFF8
310
00000000000000007FFFFFF0001FFFFFFFFF8000000000FFFFFFFF8000000000
310
FFFFFF000000000003FF80000000003FF000FE00000000001FFFFFE00003FFFF
310
00003FFFFF80007FFC00000000001FFFE00000000001FFF8000001FFFE000000
310
7FFFFFF0001FFFFFFFFE00000000003FFFFFFE00000000003FFFFF0000000000
310
03FF00000000001FF000FC00000000000FFFFFE00003FFFF00001FFFFF80007F
310
F800000000001FFFC00000000000FFF8000001FFFE0000007FFFFFF0001FFFFF
310
FFFC00000000001FFFFFFC00000000001FFFFF000000000003FE00000000000F
310
F000F8000000000007FFFFE00003FFFF00001FFFFF80007FF800000000000FFF
310
800000000000FFF8000001FFFE0000007FFFFFF0001FFFFFFFF800000000000F
310
FFFFF800000000000FFFFF000000000003FC000000000007F000F80000000000
310
03FFFFC00003FFFE00001FFFFF80007FF0000000000007FF0000000000007FF8
310
000001FFFE0000007FFFFFF0001FFFFFFFF0000000000007FFFFF00000000000
310
07FFFF000000000003F8000000000003F000F0000000000003FFFFC00001FFFE
310
00001FFFFF80007FE0000000000007FE0000000000003FF8000001FFFE000000
310
7FFFFFF0001FFFFFFFF0000000000007FFFFF0000000000007FFFF0000000000
310
03F800001F800003F000E00001FFF00001FFFFC00001FFFE00000FFFFF80007F
310
E00001FFE00003FE00001FFF00003FF8000001FFFE0000007FFFFFF0001FFFFF
310
FFE000003E000003FFFFE000003E000003FFFF000000000003F00001FFF80001
310
F000E00007FFFC0001FFFFC00001FFFE00000FFFFF80007FC0000FFFFC0003FC
310
0000FFFFC0001FF8000001FFFE0000007FFFFFF0001FFFFFFFC00003FFE00001
310
FFFFC00003FFE00001FFFF0001FFFFFFFFF00007FFFE0001F000E0000FFFFF00
310
00FFFF800001FFFC00000FFFFF80007FC0001FFFFE0001FC0001FFFFE0001FF8
310
000001FFFE0000007FFFFFF0001FFFFFFF80000FFFF80000FFFF80000FFFF800
310
00FFFF0003FFFFFFFFE0000FFFFF8000F000C0003FFFFF8000FFFF800000FFFC
310
000007FFFF80007F80003FFFFF0001FC0003FFFFF0001FF8000001FFFE000000
310
7FFFFFF0001FFFFFFF80003FFFFE0000FFFF80003FFFFE0000FFFF0003FFFFFF
310
FFE0003FFFFF8000F000C0003FFFFF8000FFFF800000FFFC000007FFFF80007F
310
80007FFFFF8001F80007FFFFF8000FF8000001FFFE0000007FFFFFF0001FFFFF
310
FF00007FFFFF00007FFF00007FFFFF00007FFF0003FFFFFFFFE0003FFFFFC000
310
F000C0007FFFFFC000FFFF000000FFFC000007FFFF80007F8000FFFFFF8000F8
310
000FFFFFF8000FF8000001FFFE0000007FFFFFF0001FFFFFFF0000FFFFFF8000
310
7FFF0000FFFFFF80007FFF0003FFFFFFFFC0007FFFFFC00070008000FFFFFFC0
310
00FFFF000000FFF8000007FFFF80007F8000FFFFFF8000F8000FFFFFF8000FF8
310
000001FFFE0000007FFFFFF0001FFFFFFE0001FFFFFFC0003FFE0001FFFFFFC0
310
003FFF0003FFFFFFFFC0007FFFFFE00070008000FFFFFFC0007FFF0000007FF8
310
000003FFFF80007F0001FFFFFF8000F8000FFFFFF8000FF8000001FFFE000000
310
7FFFFFF0001FFFFFFE0001FFFFFFC0003FFE0001FFFFFFC0003FFF0003FFFFFF
310
FFC000FFFFFFE00070008000FFFFFFC0007FFF0000007FF8000003FFFF80007F
310
0001FFFFFF8000F8001FFFFFF8000FF8000001FFFE0000007FFFFFF0001FFFFF
310
FE0003FFFFFFE0003FFE0003FFFFFFE0003FFF0003FFFFFFFFC000FFFFFFE000
310
70008000FFFFFFC0007FFE0000007FF8000003FFFF80007F0001FFFFFF8000F0
310
001FFFFFF8000FF8000001FFFE0000007FFFFFF0001FFFFFFC0003FFFFFFE000
310
1FFC0003FFFFFFE0001FFF0003FFFFFFFFC000FFFFFFC00070008000FFFFFF80
310
007FFE0000007FF0000003FFFF80007F0001FFFFFF0000F0001FFFFFF8000FF8
310
000001FFFE0000007FFFFFF0001FFFFFFC0007FFFFFFF0001FFC0007FFFFFFF0
310
001FFF0003FFFFFFFFC000FFFFFFC00070008001FFFFFF0000FFFE0000003FF0
310
000001FFFF80007F0001FFFFFF0000F8001FFFFFF0000FF8000001FFFE000000
310
7FFFFFF0001FFFFFFC0007FFFFFFF0001FFC0007FFFFFFF0001FFF0003FFFFFF
310
FFC001FFFFFF80007000FFFFFFFFFE0000FFFE0008003FF0008001FFFF80007F
310
FFFFFFFFFC0000FFFFFFFFFFE0000FF8000001FFFE0000007FFFFFF0001FFFFF
310
F8000FFFFFFFF8000FF8000FFFFFFFF8000FFF0003FFFFFFFFFFFFFFFFFF0000
310
7000FFFFFFFFFC0000FFFC0008003FF0008001FFFF80007FFFFFFFFFF80001FF
310
FFFFFFFF80000FF8000001FFFE0000007FFFFFF0001FFFFFF8000FFFFFFFF800
310
0FF8000FFFFFFFF8000FFF0003FFFFFFFFFFFFFFFFFE0000F000FFFFFFFFE000
310
00FFFC000C003FE000C001FFFF80007FFFFFFFFFC00001FFFFFFFFFE00001FF8
310
000001FFFE0000007FFFFFF0001FFFFFF8000FFFFFFFF8000FF8000FFFFFFFF8
310
000FFF0003FFFFFFFFFFFFFFFFF00000F000FFFFFFFE000001FFFC000C001FE0
310
00C000FFFF80007FFFFFFFFE000001FFFFFFFFE000001FF80FFFFFFFFFFFFFC0
310
7FFFFFF0001FFFFFF8000FFFFFFFF8000FF8000FFFFFFFF8000FFF0003FFFFFF
310
FFFFFFFFFF800000F000FFFFFFC0000001FFFC001C001FE001C000FFFF80007F
310
FFFFFF80000003FFFFFFF80000001FF80FFFFFFFFFFFFFC07FFFFFF0001FFFFF
310
F8001FFFFFFFFC000FF8001FFFFFFFFC000FFF0003FFFFFFFFFFFFFFF0000001
310
F000FFFFF800000001FFF8001C001FE001C000FFFF80007FFFFFF800000003FF
310
FFFF800000003FF80FFFFFFFFFFFFFC07FFFFFF0001FFFFFF8001FFFFFFFFC00
310
0FF8001FFFFFFFFC000FFF0003FFFFFFFFFFFFFE00000001F000FFFFC0000000
310
03FFF8001E001FC001E000FFFF80007FFFFF8000000007FFFFFC000000003FF8
310
0FFFFFFFFFFFFFC07FFFFFF0001FFFFFF8001FFFFFFFFC000FF8001FFFFFFFFC
310
000FFF0003FFFFFFFFFFFFE000000003F000FFFE0000000007FFF8001E000FC0
310
01E0007FFF80007FFFFE0000000007FFFFE0000000007FF80FFFFFFFFFFFFFC0
310
7FFFFFF0001FFFFFF0001FFFFFFFFC0007F0001FFFFFFFFC0007FF0003FFFFFF
310
FFFFFF0000000003F000FFF80000000007FFF8001E000FC003E0007FFF80007F
310
FFF0000000000FFFFF8000000000FFF80FFFFFFFFFFFFFC07FFFFFF0001FFFFF
310
F0001FFFFFFFFC0007F0001FFFFFFFFC0007FF0003FFFFFFFFFFFC0000000007
310
F000FFE0000000000FFFF0003E000FC003E0007FFF80007FFFC0000000001FFF
310
FE0000000001FFF80FFFFFFFFFFFFFC07FFFFFF0001FFFFFF0001FFFFFFFFC00
310
07F0001FFFFFFFFC0007FF0003FFFFFFFFFFF0000000000FF000FFC000000000
310
1FFFF0003F000F8003F0003FFF80007FFF80000000003FFFF80000000003FFF8
310
0FFFFFFFFFFFFFC07FFFFFF0001FFFFFF0001FFFFFFFFC0007F0001FFFFFFFFC
310
0007FF0003FFFFFFFFFFE0000000001FF000FF00000000007FFFF0003F000780
310
03F0003FFF80007FFF00000000007FFFF00000000007FFF80FFFFFFFFFFFFFC0
310
7FFFFFF0001FFFFFF0001FFFFFFFFC0007F0001FFFFFFFFC0007FF0003FFFFFF
310
FFFF80000000007FF000FE0000000000FFFFE0003F00078007F0003FFF80007F
310
FE0000000001FFFFE0000000001FFFF80FFFFFFFFFFFFFC07FFFFFF0001FFFFF
310
F0001FFFFFFFFC0007F0001FFFFFFFFC0007FF0003FFFFFFFFFF0000000000FF
310
F000FC0000000003FFFFE0007F00078007F0003FFF80007FFC0000000007FFFF
310
C0000000007FFFF80FFFFFFFFFFFFFC07FFFFFF0001FFFFFF8001FFFFFFFFC00
310
0FF8001FFFFFFFFC000FFF0003FFFFFFFFFE0000000003FFF000FC000000000F
310
FFFFE0007F80070007F8001FFF80007FF8000000001FFFFF8000000001FFFFF8
310
0FFFFFFFFFFFFFC07FFFFFF0001FFFFFF8001FFFFFFFFC000FF8001FFFFFFFFC
310
000FFF0003FFFFFFFFFC000000000FFFF000F8000000007FFFFFE0007F800700
310
07F8001FFF80007FF000000000FFFFFF800000000FFFFFF80FFFFFFFFFFFFFC0
310
7FFFFFF0001FFFFFF8000FFFFFFFF8000FF8000FFFFFFFF8000FFF0003FFFFFF
310
FFFC000000007FFFF000F800000007FFFFFFC0007F8003000FF8001FFF80007F
310
F000000007FFFFFF000000007FFFFFF80FFFFFFFFFFFFFC07FFFFFF0001FFFFF
310
F8000FFFFFFFF8000FF8000FFFFFFFF8000FFF0003FFFFFFFFF80000000FFFFF
310
F000F0000000FFFFFFFFC000FF8003000FF8001FFF80007FE0000000FFFFFFFF
310
0000000FFFFFFFF8000001FFFE0000007FFFFFF0001FFFFFF8000FFFFFFFF800
310
0FF8000FFFFFFFF8000FFF0003FFFFFFFFF8000000FFFFFFF000F000000FFFFF
310
FFFFC000FFC002000FF8000FFF80007FE000001FFFFFFFFE000001FFFFFFFFF8
310
000001FFFE0000007FFFFFF0001FFFFFF8000FFFFFFFF8000FF8000FFFFFFFF8
310
000FFF0003FFFFFFFFF000001FFFFFFFF000E00000FFFFFFFFFFC000FFC00200
310
0FFC000FFF80007FE00001FFFFFFFFFE00001FFFFFFFFFF8000001FFFE000000
310
7FFFFFF0001FFFFFFC000FFFFFFFF8001FFC000FFFFFFFF8001FFF0003FFFFFF
310
FFF00001FFFFFFFFF000E00007FFFFFFFFFF8000FFC000001FFC000FFF80007F
310
C0000FFFFFFFFFFE0000FFFFFFFFFFF8000001FFFE0000007FFFFFF0001FFFFF
310
FC0007FFFFFFF0001FFC0007FFFFFFF0001FFF0003FFFFFFFFF00007FFFFFFFF
310
F000E0001FFFFFFFFFFF8000FFC000001FFC000FFF80007FC0003FFFFFFFFFFE
310
0001FFFFFFFFFFF8000001FFFE0000007FFFFFF0001FFFFFFC0007FFFFFFF000
310
1FFC0007FFFFFFF0001FFF0003FFFFFFFFF0001FFFFFFFFFF000E0003FFFFF00
310
03FF8001FFE000001FFC0007FF80007FC0007FFFFF0007FC0003FFFFF0003FF8
310
000001FFFE0000007FFFFFF0001FFFFFFC0003FFFFFFE0001FFC0003FFFFFFE0
310
001FFF0003FFFFFFFFF0003FFFFFFFFFF000E0003FFFFF0001FF8001FFE00000
310
1FFE0007FF80007FC0007FFFFE0003FC0007FFFFE0003FF8000001FFFE000000
310
7FFFFFF0001FFFFFFE0003FFFFFFE0003FFE0003FFFFFFE0003FFF0003FFFFFF
310
FFF0003FFFFF8001F000E0003FFFFF0001FF0001FFE000001FFE0007FF80007F
310
C0007FFFFE0003FC0007FFFFE0003FF8000001FFFE0000007FFFFFF0001FFFFF
310
FE0001FFFFFFC0003FFE0001FFFFFFC0003FFF0003FFFFFFFFF0003FFFFF0001
310
F000E0003FFFFF0003FF0001FFE000003FFE0007FF80007FC0007FFFFE0003FC
310
0007FFFFE0003FF8000001FFFE0000007FFFFFF0001FFFFFFF0001FFFFFFC000
310
7FFF0001FFFFFFC0007FFF0003FFFFFFFFF0003FFFFF0001F000E0003FFFFE00
310
03FF0003FFF000003FFE0003FF80007FC0007FFFFC0003FE0007FFFFE0003FF8
310
000001FFFE0000007FFFFFF0001FFFFFFF0000FFFFFF80007FFF0000FFFFFF80
310
007FFF0003FFFFFFFFF0003FFFFF0001F000E0003FFFFE0003FF0003FFF00000
310
3FFF0003FF80007FC0007FFFFC0007FE0007FFFFC0003FF8000001FFFE000000
310
7FFFFFF0001FFFFFFF80007FFFFF0000FFFF80007FFFFF0000FFFF0003FFFFFF
310
FFF0003FFFFF0003F000E0003FFFFC0003FE0003FFF000003FFF0003FF80007F
310
E0003FFFF80007FE0003FFFFC0007FF8000001FFFE0000007FFFFFF0001FFFFF
310
FF80003FFFFE0000FFFF80003FFFFE0000FFFF0003FFFFFFFFF0001FFFFE0003
310
F000F0001FFFF80003FE0003FFF000007FFF0001FF80007FE0003FFFF00007FE
310
0001FFFF80007FF8000001FFFE0000007FFFFFF0001FFFFFFFC0000FFFF80001
310
FFFFC0000FFFF80001FFFF0003FFFFFFFFF0001FFFFC0003F000F0000FFFF000
310
07FE0007FFF800007FFF0001FF80007FE0001FFFE00007FF0000FFFE00007FF8
310
000001FFFE0000007FFFFFF0001FFFFFFFC00003FFE00001FFFFC00003FFE000
310
01FFFF0003FFFFFFFFF8000FFFF80003F000F00003FFC00007FC0007FFF80000
310
7FFF8001FF80007FF00007FF80000FFF00007FF80000FFF8000001FFFE000000
310
7F80000000000001FFE000003E000003FFFFE000003E000003FFFF0003FFFFFF
310
FFF80003FFE00007F000F800000000000FFC0007FFF800007FFF8001FF80007F
310
F000000000000FFF000000000000FFF8000001FFFE0000007F80000000000001
310
FFF0000000000007FFFFF0000000000007FFFF0003FFFFFFFFFC00007E000007
310
F000F800000000000FFC0007FFF80000FFFF8000FF80007FF800000000001FFF
310
800000000001FFF8000001FFFE0000007F80000000000001FFF800000000000F
310
FFFFF800000000000FFFFF0003FFFFFFFFFC00000000000FF000FC0000000000
310
1FFC0007FFFC0000FFFF8000FF80007FF800000000003FFFC00000000001FFF8
310
000001FFFE0000007F80000000000001FFF800000000000FFFFFF80000000000
310
0FFFFF0003FFFFFFFFFE00000000001FF000FE00000000003FF8000FFFFC0000
310
FFFF8000FF80007FFC00000000003FFFC00000000003FFF8000001FFFE000000
310
7F80000000000001FFFC00000000001FFFFFFC00000000001FFFFF0003FFFFFF
310
FFFF00000000001FF000FF00000000003FF8000FFFFC0000FFFFC000FF80007F
310
FE00000000007FFFE00000000007FFF8000001FFFE0000007F80000000000001
310
FFFE00000000003FFFFFFE00000000003FFFFF0003FFFFFFFFFF80000000003F
310
F000FF80000000007FF8000FFFFC0001FFFFC0007F80007FFF0000000000FFFF
310
F0000000000FFFF800000000000000007F80000000000001FFFF8000000000FF
310
FFFFFF8000000000FFFFFF0003FFFFFFFFFFC0000000007FF000FFC000000000
310
FFF8000FFFFE0001FFFFC0007F80007FFF8000000001FFFFF8000000001FFFF8
310
00000000000000007F80000000000001FFFFC000000001FFFFFFFFC000000001
310
FFFFFF0003FFFFFFFFFFE000000000FFF000FFE000000003FFF0001FFFFE0001
310
FFFFC0007F80007FFFC000000007FFFFFE000000003FFFF80000000000000000
310
7F80000000000001FFFFE000000003FFFFFFFFE000000003FFFFFF0003FFFFFF
310
FFFFF000000003FFF000FFF80000000FFFF0001FFFFE0001FFFFE0007F80007F
310
FFF00000000FFFFFFF00000000FFFFF800000000000000007F80000000000001
310
FFFFF80000000FFFFFFFFFF80000000FFFFFFF0003FFFFFFFFFFFC0000000FFF
310
F000FFFE0000003FFFF0001FFFFE0003FFFFE0003F80007FFFFC0000003FFFFF
310
FFC0000003FFFFF800000000000000007F80000000000001FFFFFE0000003FFF
310
FFFFFFFE0000003FFFFFFF0003FFFFFFFFFFFF0000003FFFF000FFFF800000FF
310
FFF0001FFFFF0003FFFFE0003F80007FFFFF000001FFFFFFFFF800001FFFFFF8
310
00000000000000007F80000000000001FFFFFFC00001FFFFFFFFFFFFC00001FF
310
FFFFFF0003FFFFFFFFFFFFC00000FFFFF000FFFFF8000FFFFFFFFFFFFFFFFFFF
310
FFFFFFFFFFFFFFFFFFFFF0001FFFFFFFFFFF0000FFFFFFF80000000000000000
310
7FFFFFFFFFFFFFFFFFFFFFFC001FFFFFFFFFFFFFFC001FFFFFFFFFFFFFFFFFFF
310
FFFFFFFC001FFFFFF000FFFFFFFFFFFFFFFFFFFFFFFFFFFFFFFFFFFFFFFFFFFF
310
FFFFFFFFFFFFFFFFFFFFFFFFFFFFFFFFFFFFFFFFFFFFFFFFFFFFFFFFFFFFFFFF
310
FFFFFFFFFFFFFFFFFFFFFFFFFFFFFFFFFFFFFFFFFFFFFFFFFFFFFFFFFFFFFFFF
310
F000FFFFFFFFFFFFFFFFFFFFFFFFFFFFFFFFFFFFFFFFFFFFFFFFFFFFFFFFFFFF
310
FFFFFFFFFFFFFFFFFFFFFFFFFFFFFFFFFFFFFFFFFFFFFFFFFFFFFFFFFFFFFFFF
310
FFFFFFFFFFFFFFFFFFFFFFFFFFFFFFFFFFFFFFFFFFFFFFFFF000FFFFFFFFFFFF
310
FFFFFFFFFFFFFFFFFFFFFFFFFFFFFFFFFFFFFFFFFFFFFFFFFFFFFFFFFFFFFFFF
310
FFFFFFFFFFFFFFFFFFFFFFFFFFFFFFFFFFFFFFFFFFFFFFFFFFFFFFFFFFFFFFFF
310
FFFFFFFFFFFFFFFFFFFFFFFFFFFFFFFFF000FFFFFFFFFFFFFFFFFFFFFFFFFFFF
310
FFFFFFFFFFFFFFFFFFFFFFFFFFFFFFFFFFFFFFFFFFFFFFFFFFFFFFFFFFFFFFFF
310
FFFFFFFFFFFFFFFFFFFFFFFFFFFFFFFFFFFFFFFFFFFFFFFFFFFFFFFFFFFFFFFF
310
FFFFFFFFFFFFFFFFF000FFFFFFFFFFFFFFFFFFFFFFFFFFFFFFFFFFFFFFFFFFFF
310
FFFFFFFFFFFFFFFFFFFFFFFFFFFFFFFFFFFFFFFFFFFFFFFFFFFFFFFFFFFFFFFF
310
FFFFFFFFFFFFFFFFFFFFFFFFFFFFFFFFFFFFFFFFFFFFFFFFFFFFFFFFFFFFFFFF
310
F000FFFFFFFFFFFFFFFFFFFFFFFFFFFFFFFFFFFFFFFFFFFFFFFFFFFFFFFFFFFF
310
FFFFFFFFFFFFFFFFFFFFFFFFFFFFFFFFFFFFFFFFFFFFFFFFFFFFFFFFFFFFFFFF
310
FFFFFFFFFFFFFFFFFFFFFFFFFFFFFFFFFFFFFFFFFFFFFFFFF000FFFFFFFFFFFF
310
FFFFFFFFFFFFFFFFFFFFFFFFFFFFFFFFFFFFFFFFFFFFFFFFFFFFFFFFFFFFFFFF
310
FFFFFFFFFFFFFFFFFFFFFFFFFFFFFFFFFFFFFFFFFFFFFFFFFFFFFFFFFFFFFFFF
310
FFFFFFFFFFFFFFFFFFFFFFFFFFFFFFFFF000FFFFFFFFFFFFFFFFFFFFFFFFFFFF
310
FFFFFFFFFFFFFFFFFFFFFFFFFFFFFFFFFFFFFFFFFFFFFFFFFFFFFFFFFFFFFFFF
310
FFFFFFFFFFFFFFFFFFFFFFFFFFFFFFFFFFFFFFFFFFFFFFFFFFFFFFFFFFFFFFFF
310
FFFFFFFFFFFFFFFFF000FFFFFFFFFFFFFFFFFFFFFFFFFFFFFFFFFFFFFFFFFFFF
310
FFFFFFFFFFFFFFFFFFFFFFFFFFFFFFFFFFFFFFFFFFFFFFFFFFFFFFFFFFFFFFFF
310
FFFFFFFFFFFFFFFFFFFFFFFFFFFFFFFFFFFFFFFFFFFFFFFFFFFFFFFFFFFFFFFF
310
F000FFFFFFFFFFFFFFFFFFFFFFFFFFFFFFFFFFFFFFFFFFFFFFFFFFFFFFFFFFFF
310
FFFFFFFFFFFFFFFFFFFFFFFFFFFFFFFFFFFFFFFFFFFFFFFFFFFFFFFFFFFFFFFF
310
FFFFFFFFFFFFFFFFFFFFFFFFFFFFFFFFFFFFFFFFFFFFFFFFF000FFFFFFFFFFFF
310
FFFFFFFFFFFFFFFFFFFFFFFFFFFFFFFFFFFFFFFFFFFFFFFFFFFFFFFFFFFFFFFF
310
FFFFFFFFFFFFFFFFFFFFFFFFFFFFFFFFFFFFFFFFFFFFFFFFFFFFFFFFFFFFFFFF
310
FFFFFFFFFFFFFFFFFFFFFFFFFFFFFFFFF000FFFFFFFFFFFFFFFFFFFFFFFFFFFF
310
FFFFFFFFFFFFFFFFFFFFFFFFFFFFFFFFFFFFFFFFFFFFFFFFFFFFFFFFFFFFFFFF
310
FFFFFFFFFFFFFFFFFFFFFFFFFFFFFFFFFFFFFFFFFFFFFFFFFFFFFFFFFFFFFFFF
310
FFFFFFFFFFFFFFFFF000FFFFFFFFFFFFFFFFFFFFFFFFFFFFFFFFFFFFFFFFFFFF
310
FFFFFFFFFFFFFFFFFFFFFFFFFFFFFFFFFFFFFFFFFFFFFFFFFFFFFFFFFFFFFFFF
310
FFFFFFFFFFFFFFFFFFFFFFFFFFFFFFFFFFFFFFFFFFFFFFFFFFFFFFFFFFFFFFFF
310
F000FFFFFFFFFFFFFFFFFFFFFFFFFFFFFFFFFFFFFFFFFFFFFFFFFFFFFFFFFFFF
310
FFFFFFFFFFFFFFFFFFFFFFFFFFFFFFFFFFFFFFFFFFFFFFFFFFFFFFFFFFFFFFFF
310
FFFFFFFFFFFFFFFFFFFFFFFFFFFFFFFFFFFFFFFFFFFFFFFFF000FFFFFFFFFFFF
310
FFFFFFFFFFFFFFFFFFFFFFFFFFFFFFFFFFFFFFFFFFFFFFFFFFFFFFFFFFFFFFFF
310
FFFFFFFFFFFFFFFFFFFFFFFFFFFFFFFFFFFFFFFFFFFFFFFFFFFFFFFFFFFFFFFF
310
FFFFFFFFFFFFFFFFFFFFFFFFFFFFFFFFF000FFFFFFFFFFFFFFFFFFFFFFFFFFFF
310
FFFFFFFFFFFFFFFFFFFFFFFFFFFFFFFFFFFFFFFFFFFFFFFFFFFFFFFFFFFFFFFF
310
FFFFFFFFFFFFFFFFFFFFFFFFFFFFFFFFFFFFFFFFFFFFFFFFFFFFFFFFFFFFFFFF
310
FFFFFFFFFFFFFFFFF000FFFFFFFFFFFFFFFFFFFFFFFFFFFFFFFFFFFFFFFFFFFF
310
FFFFFFFFFFFFFFFFFFFFFFFFFFFFFFFFFFFFFFFFFFFFFFFFFFFFFFFFFFFFFFFF
310
FFFFFFFFFFFFFFFFFFFFFFFFFFFFFFFFFFFFFFFFFFFFFFFFFFFFFFFFFFFFFFFF
310
F000FFFFFFFFFFFFFFFFFFFFFFFFFFFFFFFFFFFFFFFFFFFFFFFFFFFFFFFFFFFF
310
FFFFFFFFFFFFFFFFFFFFFFFFFFFFFFFFFFFFFFFFFFFFFFFFFFFFFFFFFFFFFFFF
310
FFFFFFFFFFFFFFFFFFFFFFFFFFFFFFFFFFFFFFFFFFFFFFFFF000FFFFFFFFFFFF
310
FFFFFFFFFFFFFFFFFFFFFFFFFFFFFFFFFFFFFFFFFFFFFFFFFFFFFFFFFFFFFFFF
310
FFFFFFFFFFFFFFFFFFFFFFFFFFFFFFFFFFFFFFFFFFFFFFFFFFFFFFFFFFFFFFFF
310
FFFFFFFFFFFFFFFFFFFFFFFFFFFFFFFFF000FFFFFFFFFFFFFFFFFFFFFFFFFFFF
310
FFFFFFFFFFFFFFFFFFFFFFFFFFFFFFFFFFFFFFFFFFFFFFFFFFFFFFFFFFFFFFFF
310
FFFFFFFFFFFFFFFFFFFFFFFFFFFFFFFFFFFFFFFFFFFFFFFFFFFFFFFFFFFFFFFF
310
FFFFFFFFFFFFFFFFF000FFFFFFFFFFFFFFFFFFFFFFFFFFFFFFFFFFFFFFFFFFFF
310
FFFFFFFFFFFFFFFFFFFFFFFFFFFFFFFFFFFFFFFFFFFFFFFFFFFFFFFFFFFFFFFF
310
FFFFFFFFFFFFFFFFFFFFFFFFFFFFFFFFFFFFFFFFFFFFFFFFFFFFFFFFFFFFFFFF
310
F000FFFFFFFFFFFFFFFFFFFFFFFFFFFFFFFFFFFFFFFFFFFFFFFFFFFFFFFFFFFF
310
FFFFFFFFFFFFFFFFFFFFFFFFFFFFFFFFFFFFFFFFFFFFFFFFFFFFFFFFFFFFFFFF
310
FFFFFFFFFFFFFFFFFFFFFFFFFFFFFFFFFFFFFFFFFFFFFFFFF000FFFFFFFFFFFF
310
FFFFFFFFFFFFFFFFFFFFFFFFFFFFFFFFFFFFFFFFFFFFFFFFFFFFFFFFFFFFFFFF
310
FFFFFFFFFFFFFFFFFFFFFFFFFFFFFFFFFFFFFFFFFFFFFFFFFFFFFFFFFFFFFFFF
310
FFFFFFFFFFFFFFFFFFFFFFFFFFFFFFFFF0000000000000000000000000000000
310
0000000000000000000000000000000000000000000000000000000000000000
310
0000000000000000000000000000000000000000000000000000000000000000
310
0000000000000000000000000000000000000000000000000000000000000000
310
0000000000000000000000000000000000000000000000000000000000000000
310
0000000000000000000000000000000000000000000000000000000000000000
310
0000000000000000000000000000000000000000000000000000000000000000
310
0000000000000000000000000000000000000000000000000000000000000000
310
0000000000000000000000000000000000000000000000000000000000000000
310
0000000000000000000000000000000000000000000000000000000000000000
310
0000000000000000000000000000000000000000000000000000000000000000
310
0000000000000000000000000000000000000000000000000000000000000000
310
0000000000000000000000000000000000000000000000000000000000000000
310
0000000000000000000000000000000000000000000000000000000000000000
310
0000000000000000000000000000000000000000000000000000000000000000
310
0000000000000000000000000000000000000000000000000000000000000000
  1
OLE
  0
ENDSEC
  0
SECTION
  2
OBJECTS
  0
DICTIONARY
  5
C
330
0
100
AcDbDictionary
281
     1
  3
ACAD_GROUP
350
D
  3
ACAD_LAYOUT
350
1A
  3
ACAD_MLINESTYLE
350
17
  3
ACAD_PLOTSETTINGS
350
19
  3
ACAD_PLOTSTYLENAME
350
E
  0
DICTIONARY
  5
D
102
{ACAD_REACTORS
330
C
102
}
330
C
100
AcDbDictionary
281
     1
  0
DICTIONARY
  5
1A
102
{ACAD_REACTORS
330
C
102
}
330
C
100
AcDbDictionary
281
     1
  3
Layout1
350
1E
  3
Layout2
350
26
  3
Model
350
22
  0
DICTIONARY
  5
17
102
{ACAD_REACTORS
330
C
102
}
330
C
100
AcDbDictionary
281
     1
  3
Standard
350
18
  0
DICTIONARY
  5
19
102
{ACAD_REACTORS
330
C
102
}
330
C
100
AcDbDictionary
281
     1
  0
ACDBDICTIONARYWDFLT
  5
E
102
{ACAD_REACTORS
330
C
102
}
330
C
100
AcDbDictionary
281
     1
  3
Normal
350
F
100
AcDbDictionaryWithDefault
340
F
  0
LAYOUT
  5
1E
102
{ACAD_REACTORS
330
1A
102
}
330
1A
100
AcDbPlotSettings
  1

  2
none_device
  4

  6

 40
0.0
 41
0.0
 42
0.0
 43
0.0
 44
0.0
 45
0.0
 46
0.0
 47
0.0
 48
0.0
 49
0.0
140
0.0
141
0.0
142
1.0
143
1.0
 70
   688
 72
     0
 73
     0
 74
     5
  7

 75
    16
147
1.0
148
0.0
149
0.0
100
AcDbLayout
  1
Layout1
 70
     1
 71
     1
 10
0.0
 20
0.0
 11
420.0
 21
297.0
 12
0.0
 22
0.0
 32
0.0
 14
1.0000000000E+20
 24
1.0000000000E+20
 34
1.0000000000E+20
 15
-1.0000000000E+20
 25
-1.0000000000E+20
 35
-1.0000000000E+20
146
0.0
 13
0.0
 23
0.0
 33
0.0
 16
1.0
 26
0.0
 36
0.0
 17
0.0
 27
1.0
 37
0.0
 76
     0
330
1B
  0
LAYOUT
  5
26
102
{ACAD_REACTORS
330
1A
102
}
330
1A
100
AcDbPlotSettings
  1

  2
none_device
  4

  6

 40
0.0
 41
0.0
 42
0.0
 43
0.0
 44
0.0
 45
0.0
 46
0.0
 47
0.0
 48
0.0
 49
0.0
140
0.0
141
0.0
142
1.0
143
1.0
 70
   688
 72
     0
 73
     0
 74
     5
  7

 75
    16
147
1.0
148
0.0
149
0.0
100
AcDbLayout
  1
Layout2
 70
     1
 71
     2
 10
0.0
 20
0.0
 11
0.0
 21
0.0
 12
0.0
 22
0.0
 32
0.0
 14
0.0
 24
0.0
 34
0.0
 15
0.0
 25
0.0
 35
0.0
146
0.0
 13
0.0
 23
0.0
 33
0.0
 16
1.0
 26
0.0
 36
0.0
 17
0.0
 27
1.0
 37
0.0
 76
     0
330
23
  0
LAYOUT
  5
22
102
{ACAD_REACTORS
330
1A
102
}
330
1A
100
AcDbPlotSettings
  1

  2
none_device
  4

  6

 40
0.0
 41
0.0
 42
0.0
 43
0.0
 44
0.0
 45
0.0
 46
0.0
 47
0.0
 48
0.0
 49
0.0
140
0.0
141
0.0
142
1.0
143
1.0
 70
  1712
 72
     0
 73
     0
 74
     0
  7

 75
     0
147
1.0
148
0.0
149
0.0
100
AcDbLayout
  1
Model
 70
     1
 71
     0
 10
0.0
 20
0.0
 11
297.0
 21
210.0
 12
0.0
 22
0.0
 32
0.0
 14
0.0
 24
0.0
 34
0.0
 15
297.0
 25
210.0
 35
0.0
146
0.0
 13
0.0
 23
0.0
 33
0.0
 16
1.0
 26
0.0
 36
0.0
 17
0.0
 27
1.0
 37
0.0
 76
     0
330
1F
331
29
  0
MLINESTYLE
  5
18
102
{ACAD_REACTORS
330
17
102
}
330
17
100
AcDbMlineStyle
  2
Standard
 70
     0
  3

 62
   256
 51
90.0
 52
90.0
 71
     2
 49
0.5
 62
   256
  6
BYLAYER
 49
-0.5
 62
   256
  6
BYLAYER
  0
ACDBPLACEHOLDER
  5
F
102
{ACAD_REACTORS
330
E
102
}
330
E
  0
ENDSEC
  0
EOF
