  0
SECTION
  2
HEADER
  9
$ACADVER
  1
AC1015
  9
$ACADMAINTVER
 70
     6
  9
$DWGCODEPAGE
  3
ANSI_1252
  9
$INSBASE
 10
0.0
 20
0.0
 30
0.0
  9
$EXTMIN
 10
0.0
 20
0.0
 30
0.0
  9
$EXTMAX
 10
297.0
 20
210.0
 30
0.0
  9
$LIMMIN
 10
0.0
 20
0.0
  9
$LIMMAX
 10
297.0
 20
210.0
  9
$ORTHOMODE
 70
     0
  9
$REGENMODE
 70
     1
  9
$FILLMODE
 70
     1
  9
$QTEXTMODE
 70
     0
  9
$MIRRTEXT
 70
     1
  9
$LTSCALE
 40
1.0
  9
$ATTMODE
 70
     1
  9
$TEXTSIZE
 40
2.0
  9
$TRACEWID
 40
1.0
  9
$TEXTSTYLE
  7
Standard
  9
$CLAYER
  8
0
  9
$CELTYPE
  6
ByLayer
  9
$CECOLOR
 62
   256
  9
$CELTSCALE
 40
1.0
  9
$DISPSILH
 70
     0
  9
$DIMSCALE
 40
1.0
  9
$DIMASZ
 40
3.0
  9
$DIMEXO
 40
0.0
  9
$DIMDLI
 40
3.75
  9
$DIMRND
 40
0.0
  9
$DIMDLE
 40
0.0
  9
$DIMEXE
 40
1.0
  9
$DIMTP
 40
0.0
  9
$DIMTM
 40
0.0
  9
$DIMTXT
 40
2.0
  9
$DIMCEN
 40
2.5
  9
$DIMTSZ
 40
0.0
  9
$DIMTOL
 70
     0
  9
$DIMLIM
 70
     0
  9
$DIMTIH
 70
     1
  9
$DIMTOH
 70
     1
  9
$DIMSE1
 70
     0
  9
$DIMSE2
 70
     0
  9
$DIMTAD
 70
     1
  9
$DIMZIN
 70
     0
  9
$DIMBLK
  1

  9
$DIMASO
 70
     1
  9
$DIMSHO
 70
     1
  9
$DIMPOST
  1

  9
$DIMAPOST
  1

  9
$DIMALT
 70
     0
  9
$DIMALTD
 70
     3
  9
$DIMALTF
 40
0.0393700787
  9
$DIMLFAC
 40
1.0
  9
$DIMTOFL
 70
     1
  9
$DIMTVP
 40
0.0
  9
$DIMTIX
 70
     0
  9
$DIMSOXD
 70
     0
  9
$DIMSAH
 70
     0
  9
$DIMBLK1
  1

  9
$DIMBLK2
  1

  9
$DIMSTYLE
  2
ISO-25
  9
$DIMCLRD
 70
     0
  9
$DIMCLRE
 70
     0
  9
$DIMCLRT
 70
     0
  9
$DIMTFAC
 40
1.0
  9
$DIMGAP
 40
1.524
  9
$DIMJUST
 70
     0
  9
$DIMSD1
 70
     0
  9
$DIMSD2
 70
     0
  9
$DIMTOLJ
 70
     0
  9
$DIMTZIN
 70
     0
  9
$DIMALTZ
 70
     0
  9
$DIMALTTZ
 70
     0
  9
$DIMUPT
 70
     0
  9
$DIMDEC
 70
     2
  9
$DIMTDEC
 70
     3
  9
$DIMALTU
 70
     2
  9
$DIMALTTD
 70
     3
  9
$DIMTXSTY
  7
Standard
  9
$DIMAUNIT
 70
     0
  9
$DIMADEC
 70
     2
  9
$DIMALTRND
 40
0.0
  9
$DIMAZIN
 70
     0
  9
$DIMDSEP
 70
    44
  9
$DIMATFIT
 70
     3
  9
$DIMFRAC
 70
     0
  9
$DIMLDRBLK
  1

  9
$DIMLUNIT
 70
     2
  9
$DIMLWD
 70
    -2
  9
$DIMLWE
 70
    -2
  9
$DIMTMOVE
 70
     0
  9
$LUNITS
 70
     2
  9
$LUPREC
 70
     2
  9
$SKETCHINC
 40
1.0
  9
$FILLETRAD
 40
10.0
  9
$AUNITS
 70
     0
  9
$AUPREC
 70
     2
  9
$MENU
  1
.
  9
$ELEVATION
 40
0.0
  9
$PELEVATION
 40
0.0
  9
$THICKNESS
 40
0.0
  9
$LIMCHECK
 70
     0
  9
$CHAMFERA
 40
10.0
  9
$CHAMFERB
 40
10.0
  9
$CHAMFERC
 40
20.0
  9
$CHAMFERD
 40
0.0
  9
$SKPOLY
 70
     0
  9
$TDCREATE
 40
2456045.414622778
  9
$TDUCREATE
 40
2456045.331289445
  9
$TDUPDATE
 40
2456045.41462404
  9
$TDUUPDATE
 40
2456045.331290706
  9
$TDINDWG
 40
0.0000000116
  9
$TDUSRTIMER
 40
0.0000000116
  9
$USRTIMER
 70
     1
  9
$ANGBASE
 50
0.0
  9
$ANGDIR
 70
     0
  9
$PDMODE
 70
     0
  9
$PDSIZE
 40
-1.0
  9
$PLINEWID
 40
0.0
  9
$SPLFRAME
 70
     0
  9
$SPLINETYPE
 70
     6
  9
$SPLINESEGS
 70
     8
  9
$HANDSEED
  5
261
  9
$SURFTAB1
 70
     6
  9
$SURFTAB2
 70
     6
  9
$SURFTYPE
 70
     6
  9
$SURFU
 70
     6
  9
$SURFV
 70
     6
  9
$UCSBASE
  2

  9
$UCSNAME
  2

  9
$UCSORG
 10
0.0
 20
0.0
 30
0.0
  9
$UCSXDIR
 10
1.0
 20
0.0
 30
0.0
  9
$UCSYDIR
 10
0.0
 20
1.0
 30
0.0
  9
$UCSORTHOREF
  2

  9
$UCSORTHOVIEW
 70
     0
  9
$UCSORGTOP
 10
0.0
 20
0.0
 30
0.0
  9
$UCSORGBOTTOM
 10
0.0
 20
0.0
 30
0.0
  9
$UCSORGLEFT
 10
0.0
 20
0.0
 30
0.0
  9
$UCSORGRIGHT
 10
0.0
 20
0.0
 30
0.0
  9
$UCSORGFRONT
 10
0.0
 20
0.0
 30
0.0
  9
$UCSORGBACK
 10
0.0
 20
0.0
 30
0.0
  9
$PUCSBASE
  2

  9
$PUCSNAME
  2

  9
$PUCSORG
 10
0.0
 20
0.0
 30
0.0
  9
$PUCSXDIR
 10
1.0
 20
0.0
 30
0.0
  9
$PUCSYDIR
 10
0.0
 20
1.0
 30
0.0
  9
$PUCSORTHOREF
  2

  9
$PUCSORTHOVIEW
 70
     0
  9
$PUCSORGTOP
 10
0.0
 20
0.0
 30
0.0
  9
$PUCSORGBOTTOM
 10
0.0
 20
0.0
 30
0.0
  9
$PUCSORGLEFT
 10
0.0
 20
0.0
 30
0.0
  9
$PUCSORGRIGHT
 10
0.0
 20
0.0
 30
0.0
  9
$PUCSORGFRONT
 10
0.0
 20
0.0
 30
0.0
  9
$PUCSORGBACK
 10
0.0
 20
0.0
 30
0.0
  9
$USERI1
 70
     0
  9
$USERI2
 70
     0
  9
$USERI3
 70
     0
  9
$USERI4
 70
     0
  9
$USERI5
 70
     0
  9
$USERR1
 40
0.0
  9
$USERR2
 40
0.0
  9
$USERR3
 40
0.0
  9
$USERR4
 40
0.0
  9
$USERR5
 40
0.0
  9
$WORLDVIEW
 70
     1
  9
$SHADEDGE
 70
     3
  9
$SHADEDIF
 70
    70
  9
$TILEMODE
 70
     1
  9
$MAXACTVP
 70
    64
  9
$PINSBASE
 10
0.0
 20
0.0
 30
0.0
  9
$PLIMCHECK
 70
     0
  9
$PEXTMIN
 10
1.0000000000E+20
 20
1.0000000000E+20
 30
1.0000000000E+20
  9
$PEXTMAX
 10
-1.0000000000E+20
 20
-1.0000000000E+20
 30
-1.0000000000E+20
  9
$PLIMMIN
 10
0.0
 20
0.0
  9
$PLIMMAX
 10
420.0
 20
297.0
  9
$UNITMODE
 70
     0
  9
$VISRETAIN
 70
     1
  9
$PLINEGEN
 70
     0
  9
$PSLTSCALE
 70
     1
  9
$TREEDEPTH
 70
  3020
  9
$CMLSTYLE
  2
Standard
  9
$CMLJUST
 70
     0
  9
$CMLSCALE
 40
20.0
  9
$PROXYGRAPHICS
 70
     1
  9
$MEASUREMENT
 70
     1
  9
$CELWEIGHT
370
    -1
  9
$ENDCAPS
280
     0
  9
$JOINSTYLE
280
     0
  9
$LWDISPLAY
290
     1
  9
$INSUNITS
 70
     4
  9
$HYPERLINKBASE
  1

  9
$STYLESHEET
  1

  9
$XEDIT
290
     1
  9
$CEPSNTYPE
380
     0
  9
$PSTYLEMODE
290
     1
  9
$FINGERPRINTGUID
  2
{0A36A233-4816-49A9-A3B1-24917421D251}
  9
$VERSIONGUID
  2
{FAEB1C32-E019-11D5-929B-00C0DF256EC4}
  9
$EXTNAMES
290
     1
  9
$PSVPSCALE
 40
0.0
  9
$OLESTARTUP
290
     0
  0
ENDSEC
  0
SECTION
  2
CLASSES
  0
CLASS
  1
ACDBDICTIONARYWDFLT
  2
AcDbDictionaryWithDefault
  3
ObjectDBX Classes
 90
        0
280
     0
281
     0
  0
CLASS
  1
VISUALSTYLE
  2
AcDbVisualStyle
  3
ObjectDBX Classes
 90
     4095
280
     0
281
     0
  0
CLASS
  1
MATERIAL
  2
AcDbMaterial
  3
ObjectDBX Classes
 90
     1153
280
     0
281
     0
  0
CLASS
  1
ACDBPLACEHOLDER
  2
AcDbPlaceHolder
  3
ObjectDBX Classes
 90
        0
280
     0
281
     0
  0
CLASS
  1
LAYOUT
  2
AcDbLayout
  3
ObjectDBX Classes
 90
        0
280
     0
281
     0
  0
ENDSEC
  0
SECTION
  2
TABLES
  0
TABLE
  2
VPORT
  5
8
330
0
100
AcDbSymbolTable
 70
     1
  0
VPORT
  5
29
330
8
100
AcDbSymbolTableRecord
100
AcDbViewportTableRecord
  2
*Active
 70
     0
 10
0.0
 20
0.0
 11
1.0
 21
1.0
 12
148.5
 22
105.0
 13
0.0
 23
0.0
 14
10.0
 24
10.0
 15
10.0
 25
10.0
 16
0.0
 26
0.0
 36
1.0
 17
0.0
 27
0.0
 37
0.0
 40
210.0
 41
1.4142857143
 42
50.0
 43
0.0
 44
0.0
 50
0.0
 51
0.0
 71
     0
 72
  2000
 73
     1
 74
     3
 75
     0
 76
     0
 77
     0
 78
     0
281
     0
 65
     1
110
0.0
120
0.0
130
0.0
111
1.0
121
0.0
131
0.0
112
0.0
122
1.0
132
0.0
 79
     0
146
0.0
  0
ENDTAB
  0
TABLE
  2
LTYPE
  5
5
330
0
100
AcDbSymbolTable
 70
     6
  0
LTYPE
  5
14
330
5
100
AcDbSymbolTableRecord
100
AcDbLinetypeTableRecord
  2
ByBlock
 70
     0
  3

 72
    65
 73
     0
 40
0.0
  0
LTYPE
  5
15
330
5
100
AcDbSymbolTableRecord
100
AcDbLinetypeTableRecord
  2
ByLayer
 70
     0
  3

 72
    65
 73
     0
 40
0.0
  0
LTYPE
  5
16
330
5
100
AcDbSymbolTableRecord
100
AcDbLinetypeTableRecord
  2
Continuous
 70
     0
  3
Solid line
 72
    65
 73
     0
 40
0.0
  0
LTYPE
  5
3F
330
5
100
AcDbSymbolTableRecord
100
AcDbLinetypeTableRecord
  2
HIDDEN
 70
     0
  3
Hidden __ __ __ __ __ __ __ __ __ __ __ __ __ __
 72
    65
 73
     2
 40
1.905
 49
1.27
 74
     0
 49
-0.635
 74
     0
  0
LTYPE
  5
40
330
5
100
AcDbSymbolTableRecord
100
AcDbLinetypeTableRecord
  2
PHANTOM
 70
     0
  3
Phantom ______  __  __  ______  __  __  ______
 72
    65
 73
     6
 40
12.7
 49
6.35
 74
     0
 49
-1.27
 74
     0
 49
1.27
 74
     0
 49
-1.27
 74
     0
 49
1.27
 74
     0
 49
-1.27
 74
     0
  0
LTYPE
  5
41
330
5
100
AcDbSymbolTableRecord
100
AcDbLinetypeTableRecord
  2
CENTER
 70
     0
  3
Center ____ _ ____ _ ____ _ ____ _ ____ _ ____
 72
    65
 73
     4
 40
10.16
 49
6.35
 74
     0
 49
-1.27
 74
     0
 49
1.27
 74
     0
 49
-1.27
 74
     0
  0
LTYPE
  5
42
330
5
100
AcDbSymbolTableRecord
100
AcDbLinetypeTableRecord
  2
CENTERX2
 70
     0
  3
Center (2x) ________  __  ________  __  _____
 72
    65
 73
     4
 40
20.32
 49
12.7
 74
     0
 49
-2.54
 74
     0
 49
2.54
 74
     0
 49
-2.54
 74
     0
  0
LTYPE
  5
43
330
5
100
AcDbSymbolTableRecord
100
AcDbLinetypeTableRecord
  2
DOT2
 70
     0
  3
Dot (.5x) ........................................
 72
    65
 73
     2
 40
0.635
 49
0.0
 74
     0
 49
-0.635
 74
     0
  0
ENDTAB
  0
TABLE
  2
LAYER
  5
2
330
0
100
AcDbSymbolTable
 70
     5
  0
LAYER
  5
10
330
2
100
AcDbSymbolTableRecord
100
AcDbLayerTableRecord
  2
0
 70
     0
 62
     7
  6
Continuous
370
    -3
390
F
  0
LAYER
  5
44
330
2
100
AcDbSymbolTableRecord
100
AcDbLayerTableRecord
  2
FORMAT
 70
     0
 62
     7
  6
Continuous
370
    -3
390
F
  0
LAYER
  5
45
330
2
100
AcDbSymbolTableRecord
100
AcDbLayerTableRecord
  2
VERMASSUNG
 70
     0
 62
     7
  6
Continuous
370
    -3
390
F
  0
LAYER
  5
46
330
2
100
AcDbSymbolTableRecord
100
AcDbLayerTableRecord
  2
KOPF_DÜNN
 70
     0
 62
     7
  6
Continuous
370
    -3
390
F
  0
LAYER
  5
47
330
2
100
AcDbSymbolTableRecord
100
AcDbLayerTableRecord
  2
KOPF_DICK
 70
     0
 62
     7
  6
Continuous
370
    15
390
F
  0
ENDTAB
  0
TABLE
  2
STYLE
  5
3
330
0
100
AcDbSymbolTable
 70
     2
  0
STYLE
  5
11
330
3
100
AcDbSymbolTableRecord
100
AcDbTextStyleTableRecord
  2
Standard
 70
     0
 40
0.0
 41
1.0
 50
0.0
 71
     0
 42
2.0
  3
txt
  4

  0
STYLE
  5
48
330
3
100
AcDbSymbolTableRecord
100
AcDbTextStyleTableRecord
  2
SLDTEXTSTYLE0
 70
     0
 40
0.0
 41
0.7
 50
0.0
 71
     0
 42
0.2
  3
TXT
  4

  0
ENDTAB
  0
TABLE
  2
VIEW
  5
6
330
0
100
AcDbSymbolTable
 70
     0
  0
ENDTAB
  0
TABLE
  2
UCS
  5
7
330
0
100
AcDbSymbolTable
 70
     0
  0
ENDTAB
  0
TABLE
  2
APPID
  5
9
330
0
100
AcDbSymbolTable
 70
     1
  0
APPID
  5
12
330
9
100
AcDbSymbolTableRecord
100
AcDbRegAppTableRecord
  2
ACAD
 70
     0
  0
ENDTAB
  0
TABLE
  2
DIMSTYLE
  5
A
330
0
100
AcDbSymbolTable
 70
     4
100
AcDbDimStyleTable
  0
DIMSTYLE
105
27
330
A
100
AcDbSymbolTableRecord
100
AcDbDimStyleTableRecord
  2
ISO-25
 70
     0
 41
2.5
 42
0.625
 43
3.75
 44
1.25
 73
     0
 74
     0
 77
     1
 78
     8
140
2.5
141
2.5
143
0.0393700787
147
0.625
171
     3
172
     1
178
     0
271
     2
272
     2
274
     3
278
    44
283
     0
284
     8
340
11
  0
DIMSTYLE
105
1C5
102
{ACAD_REACTORS
330
1C4
330
1DC
102
}
330
A
100
AcDbSymbolTableRecord
100
AcDbDimStyleTableRecord
  2
SLDDIMSTYLE0
 70
     0
 41
3.0
 44
0.0
 45
0.000000001
 47
0.1
 48
0.1
 71
     1
 73
     0
 74
     0
 77
     1
 78
    12
 79
     3
140
2.0
147
0.5
173
     1
178
     0
271
     2
272
     1
276
     2
284
     8
340
48
  0
DIMSTYLE
105
1D2
102
{ACAD_REACTORS
330
1D1
330
1F3
102
}
330
A
100
AcDbSymbolTableRecord
100
AcDbDimStyleTableRecord
  2
SLDDIMSTYLE1
 70
     0
 41
3.0
 44
0.0
 45
0.000000001
 73
     0
 74
     0
 77
     1
 78
    12
 79
     3
140
2.0
147
0.5
173
     1
178
     0
271
     2
272
     3
276
     2
284
    12
340
48
  0
DIMSTYLE
105
1E9
102
{ACAD_REACTORS
330
1E8
102
}
330
A
100
AcDbSymbolTableRecord
100
AcDbDimStyleTableRecord
  2
SLDDIMSTYLE2
 70
     0
 41
3.0
 44
0.0
 73
     0
 74
     0
 77
     1
 78
    12
 79
     3
140
2.0
147
0.5
173
     1
178
     0
179
     2
272
     3
276
     2
284
    12
340
48
  0
ENDTAB
  0
TABLE
  2
BLOCK_RECORD
  5
1
330
0
100
AcDbSymbolTable
 70
     7
  0
BLOCK_RECORD
  5
1F
330
1
100
AcDbSymbolTableRecord
100
AcDbBlockTableRecord
  2
*Model_Space
340
22
  0
BLOCK_RECORD
  5
1B
330
1
100
AcDbSymbolTableRecord
100
AcDbBlockTableRecord
  2
*Paper_Space
340
1E
  0
BLOCK_RECORD
  5
23
330
1
100
AcDbSymbolTableRecord
100
AcDbBlockTableRecord
  2
*Paper_Space0
340
26
  0
BLOCK_RECORD
  5
1C6
330
1
100
AcDbSymbolTableRecord
100
AcDbBlockTableRecord
  2
_D
340
0
  0
BLOCK_RECORD
  5
1D3
330
1
100
AcDbSymbolTableRecord
100
AcDbBlockTableRecord
  2
_D_1
340
0
  0
BLOCK_RECORD
  5
1DD
330
1
100
AcDbSymbolTableRecord
100
AcDbBlockTableRecord
  2
_D_2
340
0
  0
BLOCK_RECORD
  5
1EA
330
1
100
AcDbSymbolTableRecord
100
AcDbBlockTableRecord
  2
_D_3
340
0
  0
BLOCK_RECORD
  5
1F4
330
1
100
AcDbSymbolTableRecord
100
AcDbBlockTableRecord
  2
_D_4
340
0
  0
BLOCK_RECORD
  5
254
330
1
100
AcDbSymbolTableRecord
100
AcDbBlockTableRecord
  2
SW_CENTERMARKSYMBOL_0
340
0
102
{BLKREFS
331
25F
102
}
  0
ENDTAB
  0
ENDSEC
  0
SECTION
  2
BLOCKS
  0
BLOCK
  5
20
330
1F
100
AcDbEntity
  8
0
100
AcDbBlockBegin
  2
*Model_Space
 70
     0
 10
0.0
 20
0.0
 30
0.0
  3
*Model_Space
  1

  0
ENDBLK
  5
21
330
1F
100
AcDbEntity
  8
0
100
AcDbBlockEnd
  0
BLOCK
  5
1C
330
1B
100
AcDbEntity
 67
     1
  8
0
100
AcDbBlockBegin
  2
*Paper_Space
 70
     0
 10
0.0
 20
0.0
 30
0.0
  3
*Paper_Space
  1

  0
ENDBLK
  5
1D
330
1B
100
AcDbEntity
 67
     1
  8
0
100
AcDbBlockEnd
  0
BLOCK
  5
24
330
23
100
AcDbEntity
  8
0
100
AcDbBlockBegin
  2
*Paper_Space0
 70
     0
 10
0.0
 20
0.0
 30
0.0
  3
*Paper_Space0
  1

  0
ENDBLK
  5
25
330
23
100
AcDbEntity
  8
0
100
AcDbBlockEnd
  0
BLOCK
  5
1C7
330
1C6
100
AcDbEntity
  8
0
100
AcDbBlockBegin
  2
_D
 70
     0
 10
0.0
 20
0.0
 30
0.0
  3
_D
  1

  0
SOLID
  5
1C9
330
1C6
100
AcDbEntity
  8
VERMASSUNG
100
AcDbTrace
 10
271.6144338618
 20
150.8229738781
 30
0.0
 11
271.1644338618
 21
147.8229738781
 31
0.0
 12
272.0644338618
 22
147.8229738781
 32
0.0
 13
272.0644338618
 23
147.8229738781
 33
0.0
  0
SOLID
  5
1CA
330
1C6
100
AcDbEntity
  8
VERMASSUNG
100
AcDbTrace
 10
271.6144338618
 20
105.8229738781
 30
0.0
 11
272.0644338618
 21
108.8229738781
 31
0.0
 12
271.1644338618
 22
108.8229738781
 32
0.0
 13
271.1644338618
 23
108.8229738781
 33
0.0
  0
LINE
  5
1CB
330
1C6
100
AcDbEntity
  8
VERMASSUNG
100
AcDbLine
 10
247.7587687633
 20
150.8229738781
 30
0.0
 11
272.6144338618
 21
150.8229738781
 31
0.0
  0
LINE
  5
1CC
330
1C6
100
AcDbEntity
  8
VERMASSUNG
100
AcDbLine
 10
247.7587687633
 20
105.8229738781
 30
0.0
 11
272.6144338618
 21
105.8229738781
 31
0.0
  0
LINE
  5
1CD
330
1C6
100
AcDbEntity
  8
VERMASSUNG
100
AcDbLine
 10
271.6144338618
 20
150.8229738781
 30
0.0
 11
271.6144338618
 21
105.8229738781
 31
0.0
  0
MTEXT
  5
1CE
330
1C6
100
AcDbEntity
  8
VERMASSUNG
100
AcDbMText
 10
269.0362984987
 20
123.672973861
 30
0.1
 40
2.0
 41
0.0
 71
     1
 72
     1
  1
45
  7
SLDTEXTSTYLE0
 11
-7.044195017643634E-15
 21
1.0
 31
0.0
 73
     1
 44
1.0
  0
MTEXT
  5
1CF
330
1C6
100
AcDbEntity
  8
VERMASSUNG
100
AcDbMText
 10
269.0362984987
 20
129.660474089
 30
0.1
 40
2.0
 41
0.0
 71
     1
 72
     1
  1

  7
SLDTEXTSTYLE0
 11
-7.044195017643634E-15
 21
1.0
 31
0.0
 73
     1
 44
1.0
  0
MTEXT
  5
1D0
330
1C6
100
AcDbEntity
  8
VERMASSUNG
100
AcDbMText
 10
269.5308323614
 20
129.6729739132
 30
0.1
 40
1.5
 41
0.0
 71
     1
 72
     1
  1
±0.1
  7
SLDTEXTSTYLE0
 11
-7.044195017643634E-15
 21
1.0
 31
0.0
 73
     1
 44
1.0
  0
ENDBLK
  5
1C8
330
1C6
100
AcDbEntity
  8
0
100
AcDbBlockEnd
  0
BLOCK
  5
1D4
330
1D3
100
AcDbEntity
  8
0
100
AcDbBlockBegin
  2
_D_1
 70
     0
 10
0.0
 20
0.0
 30
0.0
  3
_D_1
  1

  0
SOLID
  5
1D6
330
1D3
100
AcDbEntity
  8
VERMASSUNG
100
AcDbTrace
 10
247.7587687633
 20
168.0210790505
 30
0.0
 11
244.7587687633
 21
168.4710790505
 31
0.0
 12
244.7587687633
 22
167.5710790505
 32
0.0
 13
244.7587687633
 23
167.5710790505
 33
0.0
  0
SOLID
  5
1D7
330
1D3
100
AcDbEntity
  8
VERMASSUNG
100
AcDbTrace
 10
144.7587687633
 20
168.0210790505
 30
0.0
 11
147.7587687633
 21
167.5710790505
 31
0.0
 12
147.7587687633
 22
168.4710790505
 32
0.0
 13
147.7587687633
 23
168.4710790505
 33
0.0
  0
LINE
  5
1D8
330
1D3
100
AcDbEntity
  8
VERMASSUNG
100
AcDbLine
 10
247.7587687633
 20
150.8229738781
 30
0.0
 11
247.7587687633
 21
169.0210790505
 31
0.0
  0
LINE
  5
1D9
330
1D3
100
AcDbEntity
  8
VERMASSUNG
100
AcDbLine
 10
144.7587687633
 20
126.1153118706
 30
0.0
 11
144.7587687633
 21
169.0210790505
 31
0.0
  0
LINE
  5
1DA
330
1D3
100
AcDbEntity
  8
VERMASSUNG
100
AcDbLine
 10
247.7587687633
 20
168.0210790505
 30
0.0
 11
144.7587687633
 21
168.0210790505
 31
0.0
  0
MTEXT
  5
1DB
330
1D3
100
AcDbEntity
  8
VERMASSUNG
100
AcDbMText
 10
193.4587686303
 20
170.5992144136
 30
0.1
 40
2.0
 41
0.0
 71
     1
 72
     1
  1
103
  7
SLDTEXTSTYLE0
 73
     1
 44
1.0
  0
ENDBLK
  5
1D5
330
1D3
100
AcDbEntity
  8
0
100
AcDbBlockEnd
  0
BLOCK
  5
1DE
330
1DD
100
AcDbEntity
  8
0
100
AcDbBlockBegin
  2
_D_2
 70
     0
 10
0.0
 20
0.0
 30
0.0
  3
_D_2
  1

  0
SOLID
  5
1E0
330
1DD
100
AcDbEntity
  8
VERMASSUNG
100
AcDbTrace
 10
182.7587687633
 20
158.6501515811
 30
0.0
 11
185.7587687633
 21
158.2001515811
 31
0.0
 12
185.7587687633
 22
159.1001515811
 32
0.0
 13
185.7587687633
 23
159.1001515811
 33
0.0
  0
SOLID
  5
1E1
330
1DD
100
AcDbEntity
  8
VERMASSUNG
100
AcDbTrace
 10
247.7587687633
 20
158.6501515811
 30
0.0
 11
244.7587687633
 21
159.1001515811
 31
0.0
 12
244.7587687633
 22
158.2001515811
 32
0.0
 13
244.7587687633
 23
158.2001515811
 33
0.0
  0
LINE
  5
1E2
330
1DD
100
AcDbEntity
  8
VERMASSUNG
100
AcDbLine
 10
182.7587687633
 20
136.8229738781
 30
0.0
 11
182.7587687633
 21
159.6501515811
 31
0.0
  0
LINE
  5
1E3
330
1DD
100
AcDbEntity
  8
VERMASSUNG
100
AcDbLine
 10
247.7587687633
 20
150.8229738781
 30
0.0
 11
247.7587687633
 21
159.6501515811
 31
0.0
  0
LINE
  5
1E4
330
1DD
100
AcDbEntity
  8
VERMASSUNG
100
AcDbLine
 10
182.7587687633
 20
158.6501515811
 30
0.0
 11
247.7587687633
 21
158.6501515811
 31
0.0
  0
MTEXT
  5
1E5
330
1DD
100
AcDbEntity
  8
VERMASSUNG
100
AcDbMText
 10
210.7087685763
 20
161.2282869442
 30
0.1
 40
2.0
 41
0.0
 71
     1
 72
     1
  1
65
  7
SLDTEXTSTYLE0
 73
     1
 44
1.0
  0
MTEXT
  5
1E6
330
1DD
100
AcDbEntity
  8
VERMASSUNG
100
AcDbMText
 10
216.4962686783
 20
161.2282869442
 30
0.1
 40
2.0
 41
0.0
 71
     1
 72
     1
  1

  7
SLDTEXTSTYLE0
 73
     1
 44
1.0
  0
MTEXT
  5
1E7
330
1DD
100
AcDbEntity
  8
VERMASSUNG
100
AcDbMText
 10
216.5087689682
 20
160.7337530815
 30
0.1
 40
1.5
 41
0.0
 71
     1
 72
     1
  1
±0.1
  7
SLDTEXTSTYLE0
 73
     1
 44
1.0
  0
ENDBLK
  5
1DF
330
1DD
100
AcDbEntity
  8
0
100
AcDbBlockEnd
  0
BLOCK
  5
1EB
330
1EA
100
AcDbEntity
  8
0
100
AcDbBlockBegin
  2
_D_3
 70
     0
 10
0.0
 20
0.0
 30
0.0
  3
_D_3
  1

  0
ARC
  5
1ED
330
1EA
100
AcDbEntity
  8
VERMASSUNG
100
AcDbCircle
 10
247.7955118694
 20
150.8229738781
 30
0.0
 40
15.75842672337632
100
AcDbArc
 50
264.9952138766
 51
0.0
  0
SOLID
  5
1EE
330
1EA
100
AcDbEntity
  8
VERMASSUNG
100
AcDbTrace
 10
246.4207631394
 20
135.124627509
 30
0.0
 11
249.4237157732
 21
134.6947723248
 31
0.0
 12
249.417675369
 22
135.5947520543
 32
0.0
 13
249.417675369
 23
135.5947520543
 33
0.0
  0
SOLID
  5
1EF
330
1EA
100
AcDbEntity
  8
VERMASSUNG
100
AcDbTrace
 10
263.5539385928
 20
150.8229738781
 30
0.0
 11
262.824158937
 21
147.8785008092
 31
0.0
 12
263.720180458
 22
147.7939701406
 32
0.0
 13
263.720180458
 23
147.7939701406
 33
0.0
  0
LINE
  5
1F0
330
1EA
100
AcDbEntity
  8
VERMASSUNG
100
AcDbLine
 10
246.709871163
 20
138.4259710882
 30
0.0
 11
246.3335241812
 21
134.1284400948
 31
0.0
  0
LINE
  5
1F1
330
1EA
100
AcDbEntity
  8
VERMASSUNG
100
AcDbLine
 10
263.2418439178
 20
150.8229738781
 30
0.0
 11
264.5539385928
 21
150.8229738781
 31
0.0
  0
MTEXT
  5
1F2
330
1EA
100
AcDbEntity
  8
VERMASSUNG
100
AcDbMText
 10
254.5613955186
 20
139.1459494317
 30
0.1
 40
2.0
 41
0.0
 71
     1
 72
     1
  1
95°
  7
SLDTEXTSTYLE0
 11
0.7373055534122337
 21
0.6755594133068386
 31
0.0
 73
     1
 44
1.0
  0
ENDBLK
  5
1EC
330
1EA
100
AcDbEntity
  8
0
100
AcDbBlockEnd
  0
BLOCK
  5
1F5
330
1F4
100
AcDbEntity
  8
0
100
AcDbBlockBegin
  2
_D_4
 70
     0
 10
0.0
 20
0.0
 30
0.0
  3
_D_4
  1

  0
SOLID
  5
1F7
330
1F4
100
AcDbEntity
  8
VERMASSUNG
100
AcDbTrace
 10
134.7587687633
 20
137.3229738781
 30
0.0
 11
134.3087687633
 21
134.3229738781
 31
0.0
 12
135.2087687633
 22
134.3229738781
 32
0.0
 13
135.2087687633
 23
134.3229738781
 33
0.0
  0
SOLID
  5
1F8
330
1F4
100
AcDbEntity
  8
VERMASSUNG
100
AcDbTrace
 10
134.7587687633
 20
74.3229738781
 30
0.0
 11
135.2087687633
 21
77.3229738781
 31
0.0
 12
134.3087687633
 22
77.3229738781
 32
0.0
 13
134.3087687633
 23
77.3229738781
 33
0.0
  0
LINE
  5
1F9
330
1F4
100
AcDbEntity
  8
VERMASSUNG
100
AcDbLine
 10
183.2587687633
 20
137.3229738781
 30
0.0
 11
133.7587687633
 21
137.3229738781
 31
0.0
  0
LINE
  5
1FA
330
1F4
100
AcDbEntity
  8
VERMASSUNG
100
AcDbLine
 10
183.2587687633
 20
74.3229738781
 30
0.0
 11
133.7587687633
 21
74.3229738781
 31
0.0
  0
LINE
  5
1FB
330
1F4
100
AcDbEntity
  8
VERMASSUNG
100
AcDbLine
 10
134.7587687633
 20
137.3229738781
 30
0.0
 11
134.7587687633
 21
74.3229738781
 31
0.0
  0
MTEXT
  5
1FC
330
1F4
100
AcDbEntity
  8
VERMASSUNG
100
AcDbMText
 10
131.9806332742
 20
99.4179737689
 30
0.5172774123
 40
2.0
 41
0.0
 71
     1
 72
     1
  1
PSC
  7
SLDTEXTSTYLE0
 11
-7.044195017643634E-15
 21
1.0
 31
0.0
 73
     1
 44
1.0
  0
MTEXT
  5
1FD
330
1F4
100
AcDbEntity
  8
VERMASSUNG
100
AcDbMText
 10
132.1806332837
 20
104.017973871
 30
0.5172774123
 40
2.0
 41
0.0
 71
     1
 72
     1
  1
%%c
  7
SLDTEXTSTYLE0
 11
-7.044195017643634E-15
 21
1.0
 31
0.0
 73
     1
 44
1.0
  0
MTEXT
  5
1FE
330
1F4
100
AcDbEntity
  8
VERMASSUNG
100
AcDbMText
 10
131.9806332742
 20
107.627974351
 30
0.5172774123
 40
2.0
 41
0.0
 71
     1
 72
     1
  1
63
  7
SLDTEXTSTYLE0
 11
-7.044195017643634E-15
 21
1.0
 31
0.0
 73
     1
 44
1.0
  0
ENDBLK
  5
1F6
330
1F4
100
AcDbEntity
  8
0
100
AcDbBlockEnd
  0
BLOCK
  5
255
330
254
100
AcDbEntity
  8
0
100
AcDbBlockBegin
  2
SW_CENTERMARKSYMBOL_0
 70
     0
 10
0.0
 20
0.0
 30
0.0
  3
SW_CENTERMARKSYMBOL_0
  1

  0
LINE
  5
257
330
254
100
AcDbEntity
  8
VERMASSUNG
 62
     0
100
AcDbLine
 10
0.0
 20
0.0
 30
0.0
 11
0.0
 21
2.5
 31
0.0
  0
LINE
  5
258
330
254
100
AcDbEntity
  8
VERMASSUNG
 62
     0
100
AcDbLine
 10
0.0
 20
0.0
 30
0.0
 11
-2.5
 21
0.0
 31
0.0
  0
LINE
  5
259
330
254
100
AcDbEntity
  8
VERMASSUNG
 62
     0
100
AcDbLine
 10
0.0
 20
0.0
 30
0.0
 11
0.0
 21
-2.5
 31
0.0
  0
LINE
  5
25A
330
254
100
AcDbEntity
  8
VERMASSUNG
 62
     0
100
AcDbLine
 10
0.0
 20
0.0
 30
0.0
 11
2.5
 21
0.0
 31
0.0
  0
LINE
  5
25B
330
254
100
AcDbEntity
  8
VERMASSUNG
 62
     0
100
AcDbLine
 10
0.0
 20
5.0
 30
0.0
 11
0.0
 21
49.8021874792
 31
0.0
  0
LINE
  5
25C
330
254
100
AcDbEntity
  8
VERMASSUNG
 62
     0
100
AcDbLine
 10
-5.0
 20
0.0
 30
0.0
 11
-34.0
 21
0.0
 31
0.0
  0
LINE
  5
25D
330
254
100
AcDbEntity
  8
VERMASSUNG
 62
     0
100
AcDbLine
 10
0.0
 20
-5.0
 30
0.0
 11
0.0
 21
-34.0
 31
0.0
  0
LINE
  5
25E
330
254
100
AcDbEntity
  8
VERMASSUNG
 62
     0
100
AcDbLine
 10
5.0
 20
0.0
 30
0.0
 11
34.0
 21
0.0
 31
0.0
  0
ENDBLK
  5
256
330
254
100
AcDbEntity
  8
0
100
AcDbBlockEnd
  0
ENDSEC
  0
SECTION
  2
ENTITIES
  0
MTEXT
  5
49
330
1F
100
AcDbEntity
  8
KOPF_DÜNN
100
AcDbMText
 10
13.8892156294
 20
23.8442973028
 30
0.0
 40
3.0
 41
0.0
 71
     1
 72
     1
  1
PS6.PCD.RLA.065
  7
SLDTEXTSTYLE0
 73
     1
 44
1.0
  0
MTEXT
  5
4A
330
1F
100
AcDbEntity
  8
VERMASSUNG
100
AcDbMText
 10
13.9329988022
 20
28.8834360957
 30
0.0
 40
3.0
 41
0.0
 71
     1
 72
     1
  1
Klemmhalter rechts_Turning tool right 95° /80°
  7
SLDTEXTSTYLE0
 73
     1
 44
1.0
  0
MTEXT
  5
4B
330
1F
100
AcDbEntity
  8
VERMASSUNG
100
AcDbMText
 10
98.8601118557
 20
13.8365368179
 30
0.0
 40
2.0
 41
0.0
 71
     1
 72
     1
  1
Datum: 27.04.2012
  7
SLDTEXTSTYLE0
 73
     1
 44
1.0
  0
MTEXT
  5
4C
330
1F
100
AcDbEntity
  8
VERMASSUNG
100
AcDbMText
 10
13.933048693
 20
18.0482802738
 30
0.0
 40
2.0
 41
0.0
 71
     1
 72
     1
  1
PSC ø63 / CN..12 04..
  7
SLDTEXTSTYLE0
 73
     1
 44
1.0
  0
MTEXT
  5
4D
330
1F
100
AcDbEntity
  8
VERMASSUNG
100
AcDbMText
 10
13.9808475933
 20
13.9090973692
 30
0.0
 40
2.0
 41
0.0
 71
     1
 72
     1
  1
Gewicht: 1339g
  7
SLDTEXTSTYLE0
 73
     1
 44
1.0
  0
LINE
  5
4E
330
1F
100
AcDbEntity
  8
0
  6
Continuous
 62
     7
370
    15
100
AcDbLine
 10
219.9914417753
 20
137.3229738781
 30
0.0
 11
183.2587687633
 21
137.3229738781
 31
0.0
  0
LINE
  5
4F
330
1F
100
AcDbEntity
  8
0
  6
Continuous
 62
     7
370
    15
100
AcDbLine
 10
183.2587687633
 20
74.3229738781
 30
0.0
 11
216.586561443
 21
74.3229738781
 31
0.0
  0
ARC
  5
50
330
1F
100
AcDbEntity
  8
0
  6
Continuous
 62
     7
370
    15
100
AcDbCircle
 10
183.2587687633
 20
74.8229738781
 30
0.0
 40
0.5
100
AcDbArc
 50
180.0
 51
270.0
  0
ARC
  5
51
330
1F
100
AcDbEntity
  8
0
  6
Continuous
 62
     7
370
    15
100
AcDbCircle
 10
183.2587687633
 20
136.8229738781
 30
0.0
 40
0.5
100
AcDbArc
 50
90.0
 51
180.0
  0
LWPOLYLINE
  5
52
330
1F
100
AcDbEntity
  8
0
  6
Continuous
 62
     7
370
    15
100
AcDbPolyline
 90
        3
 70
   128
 43
0.0
 10
182.5587687633
 20
83.2831535993
 10
182.6842237068
 20
83.2148514843
 10
182.7587687633
 20
83.1621137262
  0
LWPOLYLINE
  5
53
330
1F
100
AcDbEntity
  8
0
  6
Continuous
 62
     7
370
    15
100
AcDbPolyline
 90
        3
 70
   128
 43
0.0
 10
182.7587687633
 20
128.4838340301
 10
182.6842237068
 20
128.431096272
 10
182.5587687633
 20
128.362794157
  0
ARC
  5
54
330
1F
100
AcDbEntity
  8
0
  6
Continuous
 62
     7
370
    15
100
AcDbCircle
 10
219.9914417753
 20
138.3229738781
 30
0.0
 40
1.000000000000003
100
AcDbArc
 50
270.0
 51
345.0
  0
LINE
  5
55
330
1F
100
AcDbEntity
  8
0
  6
Continuous
 62
     7
370
    15
100
AcDbLine
 10
223.540640937
 20
147.7050621705
 30
0.0
 11
220.9573676016
 21
138.064154833
 31
0.0
  0
LINE
  5
56
330
1F
100
AcDbEntity
  8
0
  6
Continuous
 62
     7
370
    15
100
AcDbLine
 10
234.7668299245
 20
148.6872264415
 30
0.0
 11
223.540640937
 21
147.7050621705
 31
0.0
  0
ARC
  5
57
330
1F
100
AcDbEntity
  8
0
  6
Continuous
 62
     7
370
    15
100
AcDbCircle
 10
203.7587687633
 20
119.4729738781
 30
0.0
 40
2.500000000000031
100
AcDbArc
 50
21.3713330903
 51
158.6286669096
  0
LINE
  5
58
330
1F
100
AcDbEntity
  8
0
  6
Continuous
 62
     7
370
    15
100
AcDbLine
 10
239.2880185212
 20
145.1368427599
 30
0.0
 11
238.338357786
 21
144.5325112144
 31
0.0
  0
LINE
  5
59
330
1F
100
AcDbEntity
  8
0
  6
Continuous
 62
     7
370
    15
100
AcDbLine
 10
246.0980855019
 20
137.6865479392
 30
0.0
 11
246.5956409871
 21
138.1813777633
 31
0.0
  0
LINE
  5
5A
330
1F
100
AcDbEntity
  8
0
  6
Continuous
 62
     7
370
    15
100
AcDbLine
 10
235.1072433864
 20
149.7929009529
 30
0.0
 11
234.6096879012
 21
149.2980711287
 31
0.0
  0
SPLINE
  5
5B
330
1F
100
AcDbEntity
  8
0
  6
Continuous
 62
     7
370
    15
100
AcDbSpline
210
0.0
220
0.0
230
1.0
 70
     8
 71
     3
 72
    68
 73
    64
 74
     0
 42
0.00000001
 43
0.00000001
 12
1.0
 22
0.0
 32
0.0
 13
1.0
 23
0.0
 33
0.0
 40
-0.0625
 40
-0.0625
 40
0.0
 40
0.0
 40
0.03125
 40
0.03125
 40
0.0625
 40
0.0625
 40
0.09375
 40
0.09375
 40
0.125
 40
0.125
 40
0.15625
 40
0.15625
 40
0.1875
 40
0.1875
 40
0.21875
 40
0.21875
 40
0.25
 40
0.25
 40
0.28125
 40
0.28125
 40
0.3125
 40
0.3125
 40
0.34375
 40
0.34375
 40
0.375
 40
0.375
 40
0.40625
 40
0.40625
 40
0.4375
 40
0.4375
 40
0.46875
 40
0.46875
 40
0.5
 40
0.5
 40
0.53125
 40
0.53125
 40
0.5625
 40
0.5625
 40
0.59375
 40
0.59375
 40
0.625
 40
0.625
 40
0.65625
 40
0.65625
 40
0.6875
 40
0.6875
 40
0.71875
 40
0.71875
 40
0.75
 40
0.75
 40
0.78125
 40
0.78125
 40
0.8125
 40
0.8125
 40
0.84375
 40
0.84375
 40
0.875
 40
0.875
 40
0.90625
 40
0.90625
 40
0.9375
 40
0.9375
 40
1.0
 40
1.0
 40
1.03125
 40
1.03125
 10
206.7587687632806
 20
121.9164650602672
 30
0.0
 10
206.7587687632806
 20
121.4012282870774
 30
0.0
 10
206.7392980901803
 20
121.2314364213426
 30
0.0
 10
206.6630290640601
 20
120.8956976984095
 30
0.0
 10
206.6052969570457
 20
120.7279803537485
 30
0.0
 10
206.4546780460672
 20
120.4067663462366
 30
0.0
 10
206.362524581757
 20
120.2536497501734
 30
0.0
 10
206.1448240734971
 20
119.9626728730948
 30
0.0
 10
206.0181836723618
 20
119.8243308652361
 30
0.0
 10
205.7415649661727
 20
119.5754860544524
 30
0.0
 10
205.5906100491653
 20
119.4633312647757
 30
0.0
 10
205.2627220209367
 20
119.2646921879536
 30
0.0
 10
205.088273051723
 20
119.1800567962396
 30
0.0
 10
204.7273414489746
 20
119.0438444601551
 30
0.0
 10
204.5381897109654
 20
118.9912462991777
 30
0.0
 10
204.1508950257076
 20
118.9208532485342
 30
0.0
 10
203.9561734811583
 20
118.9034043339989
 30
0.0
 10
203.5646352436436
 20
118.9032092550426
 30
0.0
 10
203.3657688470662
 20
118.9210339635284
 30
0.0
 10
202.9809286358402
 20
118.990937092836
 30
0.0
 10
202.7938693844937
 20
119.0426305133252
 30
0.0
 10
202.4305246673384
 20
119.1794112093034
 30
0.0
 10
202.2549814443183
 20
119.2647286898881
 30
0.0
 10
201.9300000180792
 20
119.4613342065307
 30
0.0
 10
201.7784871195267
 20
119.573308296743
 30
0.0
 10
201.4982830214164
 20
119.8252102873486
 30
0.0
 10
201.37417892144
 20
119.9610229805159
 30
0.0
 10
201.1568706026804
 20
120.2508626674368
 30
0.0
 10
201.062872601796
 20
120.4067380688824
 30
0.0
 10
200.912225930724
 20
120.7280118673456
 30
0.0
 10
200.8554239006048
 20
120.8925778881672
 30
0.0
 10
200.778539897962
 20
121.2292181167513
 30
0.0
 10
200.7588406756568
 20
121.4024238488428
 30
0.0
 10
200.7586972531856
 20
121.741621119219
 30
0.0
 10
200.7776161121821
 20
121.9093334743468
 30
0.0
 10
200.8543081139198
 20
122.2410044056216
 30
0.0
 10
200.9118462815731
 20
122.4024315000246
 30
0.0
 10
201.0612107699242
 20
122.7086051336539
 30
0.0
 10
201.1541231554594
 20
122.8556923361761
 30
0.0
 10
201.3732232833111
 20
123.1312316750305
 30
0.0
 10
201.4972566424773
 20
123.2574302563157
 30
0.0
 10
201.7735599876671
 20
123.4878431736241
 30
0.0
 10
201.9277083291648
 20
123.5928823321857
 30
0.0
 10
202.2535725677934
 20
123.7730234795911
 30
0.0
 10
202.4257336377844
 20
123.848997938816
 30
0.0
 10
202.7886871144311
 20
123.9730027667821
 30
0.0
 10
202.9793287976502
 20
124.0204967042048
 30
0.0
 10
203.3628383029567
 20
124.0832514229157
 30
0.0
 10
203.5577313548486
 20
124.0993022145703
 30
0.0
 10
203.9540528673484
 20
124.0996131480948
 30
0.0
 10
204.1494157067573
 20
124.083820639922
 30
0.0
 10
204.5330167838659
 20
124.0216336579164
 30
0.0
 10
204.7235090759016
 20
123.9745025750475
 30
0.0
 10
205.0870750993025
 20
123.8509297534467
 30
0.0
 10
205.2594344519982
 20
123.7751744127969
 30
0.0
 10
205.5855552006665
 20
123.5955891959753
 30
0.0
 10
205.7399796838671
 20
123.4907596549505
 30
0.0
 10
206.0168492137421
 20
123.260698290373
 30
0.0
 10
206.1410989597134
 20
123.1347168760199
 30
0.0
 10
206.3605978276692
 20
122.8597775785613
 30
0.0
 10
206.4539955973753
 20
122.7125948344972
 30
0.0
 10
206.6789568320756
 20
122.2537946090648
 30
0.0
 10
206.7587687632806
 20
121.9164650602672
 30
0.0
 10
206.7587687632806
 20
121.4012282870774
 30
0.0
  0
ELLIPSE
  5
5C
330
1F
100
AcDbEntity
  8
0
  6
Continuous
 62
     7
370
    15
100
AcDbEllipse
 10
289.6422223848
 20
105.8229738781
 30
0.0
 11
299.7022783439958
 21
-3.3290134008232
 31
0.0
210
0.0
220
0.0
230
1.0
 40
0.1045157088
 41
1.806501518396906
 42
1.810385285358048
  0
SPLINE
  5
5D
330
1F
100
AcDbEntity
  8
0
  6
Continuous
 62
     7
370
    15
100
AcDbSpline
210
0.0
220
0.0
230
1.0
 70
     8
 71
     3
 72
    20
 73
    16
 74
     0
 42
0.00000001
 43
0.00000001
 12
1.0
 22
0.0
 32
0.0
 13
1.0
 23
0.0
 33
0.0
 40
0.0
 40
0.0
 40
0.0
 40
0.0
 40
0.2500000000000008
 40
0.2500000000000008
 40
0.3750000000000007
 40
0.3750000000000007
 40
0.5000000000000006
 40
0.5000000000000006
 40
0.6250000000000004
 40
0.6250000000000004
 40
0.7500000000000002
 40
0.7500000000000002
 40
0.8750000000000001
 40
0.8750000000000001
 40
1.0
 40
1.0
 40
1.0
 40
1.0
 10
213.6914803547463
 20
136.0867154316971
 30
0.0
 10
213.8413303386791
 20
136.2541605424193
 30
0.0
 10
214.0695407396947
 20
136.3954986854185
 30
0.0
 10
214.5371014886194
 20
136.5757250490956
 30
0.0
 10
214.7141393513411
 20
136.6301975802341
 30
0.0
 10
215.0997497757635
 20
136.7264227899689
 30
0.0
 10
215.3095849637293
 20
136.768713595374
 30
0.0
 10
215.7641840988521
 20
136.8434882441763
 30
0.0
 10
216.0113445064332
 20
136.876168119734
 30
0.0
 10
216.5263975354047
 20
136.9313618462706
 30
0.0
 10
216.7950215028242
 20
136.9541319313219
 30
0.0
 10
217.3543345135102
 20
136.9918509717959
 30
0.0
 10
217.6470116163887
 20
137.0068651673145
 30
0.0
 10
218.245861074309
 20
137.0296153007364
 30
0.0
 10
218.550320361242
 20
137.0373527382337
 30
0.0
 10
218.8598645328749
 20
137.0418161755117
 30
0.0
  0
ELLIPSE
  5
5E
330
1F
100
AcDbEntity
  8
0
  6
Continuous
 62
     7
370
    15
100
AcDbEllipse
 10
216.8676811369
 20
105.8229738781
 30
0.0
 11
-0.9496107280741626
 21
31.49898525208678
 31
0.0
210
0.0
220
0.0
230
1.0
 40
0.266256518
 41
0.2730630282584474
 42
2.643036606458972
  0
SPLINE
  5
5F
330
1F
100
AcDbEntity
  8
0
  6
Continuous
 62
     7
370
    15
100
AcDbSpline
210
0.0
220
0.0
230
1.0
 70
     8
 71
     3
 72
    18
 73
    14
 74
     0
 42
0.00000001
 43
0.00000001
 12
1.0
 22
0.0
 32
0.0
 13
1.0
 23
0.0
 33
0.0
 40
0.0
 40
0.0
 40
0.0
 40
0.0
 40
0.1249999999999988
 40
0.1249999999999988
 40
0.2499999999999977
 40
0.2499999999999977
 40
0.4999999999999983
 40
0.4999999999999983
 40
0.749999999999999
 40
0.749999999999999
 40
0.8749999999999998
 40
0.8749999999999998
 40
1.0
 40
1.0
 40
1.0
 40
1.0
 10
218.2472723765446
 20
76.19302867929463
 30
0.0
 10
217.9721190061415
 20
76.21334192707624
 30
0.0
 10
217.7025209346811
 20
76.24043087827066
 30
0.0
 10
217.1744573644516
 20
76.30901983510374
 30
0.0
 10
216.914065877744
 20
76.35096321240104
 30
0.0
 10
216.1710779595481
 20
76.49720670140013
 30
0.0
 10
215.721000202754
 20
76.62184241352641
 30
0.0
 10
214.9192693618823
 20
76.93467449926554
 30
0.0
 10
214.58369824126
 20
77.11646549298949
 30
0.0
 10
214.1723682272482
 20
77.43355615311536
 30
0.0
 10
214.0513455727828
 20
77.54660346931608
 30
0.0
 10
213.8456652698522
 20
77.78305612374083
 30
0.0
 10
213.7601125214524
 20
77.9071009263842
 30
0.0
 10
213.6914803547463
 20
78.03733934011638
 30
0.0
  0
ELLIPSE
  5
60
330
1F
100
AcDbEntity
  8
0
  6
Continuous
 62
     7
370
    15
100
AcDbEllipse
 10
238.9891699988
 20
105.8229738781
 30
0.0
 11
22.41445668029261
 21
31.49663578142514
 31
0.0
210
0.0
220
0.0
230
1.0
 40
0.0205386817
 41
3.156207884742678
 42
3.502513249521122
  0
SPLINE
  5
61
330
1F
100
AcDbEntity
  8
0
  6
Continuous
 62
     7
370
    15
100
AcDbSpline
210
0.0
220
0.0
230
1.0
 70
     8
 71
     3
 72
    12
 73
     8
 74
     0
 42
0.00000001
 43
0.00000001
 12
1.0
 22
0.0
 32
0.0
 13
1.0
 23
0.0
 33
0.0
 40
0.0
 40
0.0
 40
0.0
 40
0.0
 40
0.5
 40
0.5
 40
0.75
 40
0.75
 40
1.0
 40
1.0
 40
1.0
 40
1.0
 10
192.8535128749551
 20
75.92223141802356
 30
0.0
 10
192.8846580729172
 20
75.88441589510336
 30
0.0
 10
192.9269323392516
 20
75.84834903701974
 30
0.0
 10
193.0268778730769
 20
75.80038897200848
 30
0.0
 10
193.066608177781
 20
75.78552799811082
 30
0.0
 10
193.1634962277872
 20
75.76257685197969
 30
0.0
 10
193.2235614695338
 20
75.75448191926765
 30
0.0
 10
193.2865255768473
 20
75.75448191926765
 30
0.0
  0
LINE
  5
62
330
1F
100
AcDbEntity
  8
0
  6
Continuous
 62
     7
370
    15
100
AcDbLine
 10
193.2865255768
 20
75.7544819193
 30
0.0
 11
196.2310119497
 21
75.7544819193
 31
0.0
  0
SPLINE
  5
63
330
1F
100
AcDbEntity
  8
0
  6
Continuous
 62
     7
370
    15
100
AcDbSpline
210
0.0
220
0.0
230
1.0
 70
     8
 71
     3
 72
    12
 73
     8
 74
     0
 42
0.00000001
 43
0.00000001
 12
1.0
 22
0.0
 32
0.0
 13
1.0
 23
0.0
 33
0.0
 40
0.0
 40
0.0
 40
0.0
 40
0.0
 40
0.2499999999999968
 40
0.2499999999999968
 40
0.4999999999999936
 40
0.4999999999999936
 40
1.0
 40
1.0
 40
1.0
 40
1.0
 10
196.2310119497144
 20
75.75448191926768
 30
0.0
 10
196.2940689046122
 20
75.75448191926768
 30
0.0
 10
196.3531990543578
 20
75.76238225034726
 30
0.0
 10
196.4516466048911
 20
75.78569299835227
 30
0.0
 10
196.4906788430792
 20
75.80039812463593
 30
0.0
 10
196.5905687275361
 20
75.84833165282257
 30
0.0
 10
196.6328677011454
 20
75.88440162558733
 30
0.0
 10
196.6640246516067
 20
75.92223141802354
 30
0.0
  0
ELLIPSE
  5
64
330
1F
100
AcDbEntity
  8
0
  6
Continuous
 62
     7
370
    15
100
AcDbEllipse
 10
180.4116145739
 20
105.8229738781
 30
0.0
 11
-14.75368316065618
 21
31.09325491558119
 31
0.0
210
0.0
220
0.0
230
1.0
 40
0.3419987131
 41
3.300734856217122
 42
4.231496223360772
  0
SPLINE
  5
65
330
1F
100
AcDbEntity
  8
0
  6
Continuous
 62
     7
370
    15
100
AcDbSpline
210
0.0
220
0.0
230
1.0
 70
     8
 71
     3
 72
    12
 73
     8
 74
     0
 42
0.00000001
 43
0.00000001
 12
1.0
 22
0.0
 32
0.0
 13
1.0
 23
0.0
 33
0.0
 40
0.0
 40
0.0
 40
0.0
 40
0.0
 40
0.5
 40
0.5
 40
0.75
 40
0.75
 40
1.0
 40
1.0
 40
1.0
 40
1.0
 10
196.6640246516066
 20
95.91360455745541
 30
0.0
 10
196.6328794536446
 20
96.02770992332073
 30
0.0
 10
196.5906051873101
 20
96.13881625053949
 30
0.0
 10
196.4906596534848
 20
96.28897385796978
 30
0.0
 10
196.4509293487808
 20
96.33596654958716
 30
0.0
 10
196.3540412987745
 20
96.40894213412564
 30
0.0
 10
196.293976057028
 20
96.43490744680464
 30
0.0
 10
196.2310119497145
 20
96.43490744680466
 30
0.0
  0
LINE
  5
66
330
1F
100
AcDbEntity
  8
0
  6
Continuous
 62
     7
370
    15
100
AcDbLine
 10
196.2310119497
 20
96.4349074468
 30
0.0
 11
193.2865255768
 21
96.4349074468
 31
0.0
  0
SPLINE
  5
67
330
1F
100
AcDbEntity
  8
0
  6
Continuous
 62
     7
370
    15
100
AcDbSpline
210
0.0
220
0.0
230
1.0
 70
     8
 71
     3
 72
    12
 73
     8
 74
     0
 42
0.00000001
 43
0.00000001
 12
1.0
 22
0.0
 32
0.0
 13
1.0
 23
0.0
 33
0.0
 40
0.0
 40
0.0
 40
0.0
 40
0.0
 40
0.2500000000000014
 40
0.2500000000000014
 40
0.5000000000000028
 40
0.5000000000000028
 40
1.0
 40
1.0
 40
1.0
 40
1.0
 10
193.2865255768473
 20
96.43490744680456
 30
0.0
 10
193.2234686219495
 20
96.43490744680456
 30
0.0
 10
193.1643384722039
 20
96.40956109342386
 30
0.0
 10
193.0658909216706
 20
96.33544171128436
 30
0.0
 10
193.0268586834825
 20
96.28894519658635
 30
0.0
 10
192.9269687990256
 20
96.13887068957777
 30
0.0
 10
192.8846698254163
 20
96.0277529804629
 30
0.0
 10
192.853512874955
 20
95.91360455745543
 30
0.0
  0
ELLIPSE
  5
68
330
1F
100
AcDbEntity
  8
0
  6
Continuous
 62
     7
370
    15
100
AcDbEllipse
 10
209.1059229526
 20
105.8229738781
 30
0.0
 11
14.75368316065621
 21
31.09325491558116
 31
0.0
210
0.0
220
0.0
230
1.0
 40
0.3419987131
 41
2.051689083818826
 42
2.982450450962502
  0
SPLINE
  5
69
330
1F
100
AcDbEntity
  8
0
  6
Continuous
 62
     7
370
    15
100
AcDbSpline
210
0.0
220
0.0
230
1.0
 70
     8
 71
     3
 72
    12
 73
     8
 74
     0
 42
0.00000001
 43
0.00000001
 12
1.0
 22
0.0
 32
0.0
 13
1.0
 23
0.0
 33
0.0
 40
0.0
 40
0.0
 40
0.0
 40
0.0
 40
0.5000000000000009
 40
0.5000000000000009
 40
0.7500000000000004
 40
0.7500000000000004
 40
1.0
 40
1.0
 40
1.0
 40
1.0
 10
192.8535128749551
 20
115.7323431988258
 30
0.0
 10
192.8842351168742
 20
115.6197873994167
 30
0.0
 10
192.9270723314093
 20
115.5070295396771
 30
0.0
 10
193.0264993556091
 20
115.3574886538807
 30
0.0
 10
193.0662515504258
 20
115.3101959221739
 30
0.0
 10
193.164293007284
 20
115.2364596288524
 30
0.0
 10
193.2238490628715
 20
115.2110403094767
 30
0.0
 10
193.2865255768473
 20
115.2110403094767
 30
0.0
  0
LINE
  5
6A
330
1F
100
AcDbEntity
  8
0
  6
Continuous
 62
     7
370
    15
100
AcDbLine
 10
193.2865255768
 20
115.2110403095
 30
0.0
 11
196.2310119497
 21
115.2110403095
 31
0.0
  0
SPLINE
  5
6B
330
1F
100
AcDbEntity
  8
0
  6
Continuous
 62
     7
370
    15
100
AcDbSpline
210
0.0
220
0.0
230
1.0
 70
     8
 71
     3
 72
    12
 73
     8
 74
     0
 42
0.00000001
 43
0.00000001
 12
1.0
 22
0.0
 32
0.0
 13
1.0
 23
0.0
 33
0.0
 40
0.0
 40
0.0
 40
0.0
 40
0.0
 40
0.2499999999999991
 40
0.2499999999999991
 40
0.4999999999999981
 40
0.4999999999999981
 40
1.0
 40
1.0
 40
1.0
 40
1.0
 10
196.2310119497144
 20
115.2110403094767
 30
0.0
 10
196.2940919882078
 20
115.2110403094767
 30
0.0
 10
196.3532406103892
 20
115.2364046286916
 30
0.0
 10
196.4517131604583
 20
115.3105694890645
 30
0.0
 10
196.490749772443
 20
115.3570898296187
 30
0.0
 10
196.590646239222
 20
115.5072321724639
 30
0.0
 10
196.6330671202887
 20
115.6189253794361
 30
0.0
 10
196.6640246516066
 20
115.7323431988258
 30
0.0
  0
ELLIPSE
  5
6C
330
1F
100
AcDbEntity
  8
0
  6
Continuous
 62
     7
370
    15
100
AcDbEllipse
 10
180.4116145739
 20
105.8229738781
 30
0.0
 11
14.75368316065604
 21
31.09325491558116
 31
0.0
210
0.0
220
0.0
230
1.0
 40
0.3419987131
 41
5.193281737408619
 42
6.124043104552322
  0
SPLINE
  5
6D
330
1F
100
AcDbEntity
  8
0
  6
Continuous
 62
     7
370
    15
100
AcDbSpline
210
0.0
220
0.0
230
1.0
 70
     8
 71
     3
 72
    12
 73
     8
 74
     0
 42
0.00000001
 43
0.00000001
 12
1.0
 22
0.0
 32
0.0
 13
1.0
 23
0.0
 33
0.0
 40
0.0
 40
0.0
 40
0.0
 40
0.0
 40
0.5000000000000009
 40
0.5000000000000009
 40
0.7500000000000004
 40
0.7500000000000004
 40
1.0
 40
1.0
 40
1.0
 40
1.0
 10
196.6640246516066
 20
135.723716338258
 30
0.0
 10
196.6333024096875
 20
135.761018321211
 30
0.0
 10
196.5904651951524
 20
135.7976301532574
 30
0.0
 10
196.4910381709526
 20
135.8453949365426
 30
0.0
 10
196.4512859761359
 20
135.860352452025
 30
0.0
 10
196.3532445192777
 20
135.8835423977941
 30
0.0
 10
196.2936884636902
 20
135.8914658370138
 30
0.0
 10
196.2310119497144
 20
135.8914658370138
 30
0.0
  0
LINE
  5
6E
330
1F
100
AcDbEntity
  8
0
  6
Continuous
 62
     7
370
    15
100
AcDbLine
 10
196.2310119497
 20
135.891465837
 30
0.0
 11
193.2865255768
 21
135.891465837
 31
0.0
  0
SPLINE
  5
6F
330
1F
100
AcDbEntity
  8
0
  6
Continuous
 62
     7
370
    15
100
AcDbSpline
210
0.0
220
0.0
230
1.0
 70
     8
 71
     3
 72
    12
 73
     8
 74
     0
 42
0.00000001
 43
0.00000001
 12
1.0
 22
0.0
 32
0.0
 13
1.0
 23
0.0
 33
0.0
 40
0.0
 40
0.0
 40
0.0
 40
0.0
 40
0.2500000000000014
 40
0.2500000000000014
 40
0.5000000000000029
 40
0.5000000000000029
 40
1.0
 40
1.0
 40
1.0
 40
1.0
 10
193.2865255768473
 20
135.8914658370138
 30
0.0
 10
193.2234455383539
 20
135.8914658370138
 30
0.0
 10
193.1642969161725
 20
135.8835599108014
 30
0.0
 10
193.0658243661035
 20
135.8602347493652
 30
0.0
 10
193.0267877541187
 20
135.8455219595334
 30
0.0
 10
192.9268912873397
 20
135.7975661588025
 30
0.0
 10
192.8844704062731
 20
135.7613040022225
 30
0.0
 10
192.8535128749551
 20
135.723716338258
 30
0.0
  0
ELLIPSE
  5
70
330
1F
100
AcDbEntity
  8
0
  6
Continuous
 62
     7
370
    15
100
AcDbEllipse
 10
209.1059229526
 20
105.8229738781
 30
0.0
 11
-14.75368316065604
 21
31.09325491558116
 31
0.0
210
0.0
220
0.0
230
1.0
 40
0.3419987131
 41
0.1591422026273066
 42
1.08990356977098
  0
LINE
  5
71
330
1F
100
AcDbEntity
  8
0
  6
Continuous
 62
     7
370
    15
100
AcDbLine
 10
182.7587687633
 20
74.8229738781
 30
0.0
 11
182.7587687633
 21
136.8229738771
 31
0.0
  0
ELLIPSE
  5
72
330
1F
100
AcDbEntity
  8
0
  6
Continuous
 62
     7
370
    15
100
AcDbEllipse
 10
212.7156676411
 20
122.4633702973
 30
0.0
 11
0.2315443019953705
 21
3.339233589693877
 31
0.0
210
0.0
220
0.0
230
1.0
 40
0.2180210538
 41
0.0
 42
6.283185307179586
  0
SPLINE
  5
73
330
1F
100
AcDbEntity
  8
0
  6
Continuous
 62
     7
370
    15
100
AcDbSpline
210
0.0
220
0.0
230
1.0
 70
     8
 71
     3
 72
    12
 73
     8
 74
     0
 42
0.00000001
 43
0.00000001
 12
1.0
 22
0.0
 32
0.0
 13
1.0
 23
0.0
 33
0.0
 40
0.0
 40
0.0
 40
0.0
 40
0.0
 40
0.4999999999999998
 40
0.4999999999999998
 40
0.7499999999999999
 40
0.7499999999999999
 40
1.0
 40
1.0
 40
1.0
 40
1.0
 10
181.9422564768244
 20
83.96818017566495
 30
0.0
 10
181.9986929777315
 20
83.9667622943232
 30
0.0
 10
182.0677776084203
 20
83.9651979580749
 30
0.0
 10
182.1865798801382
 20
83.96225376610046
 30
0.0
 10
182.2267651556083
 20
83.96121556300307
 30
0.0
 10
182.3001462030121
 20
83.95928166778845
 30
0.0
 10
182.3335557667548
 20
83.95838678049964
 30
0.0
 10
182.3637918744113
 20
83.9576029902273
 30
0.0
  0
SPLINE
  5
74
330
1F
100
AcDbEntity
  8
0
  6
Continuous
 62
     7
370
    15
100
AcDbSpline
210
0.0
220
0.0
230
1.0
 70
     8
 71
     3
 72
    16
 73
    12
 74
     0
 42
0.00000001
 43
0.00000001
 12
1.0
 22
0.0
 32
0.0
 13
1.0
 23
0.0
 33
0.0
 40
0.0
 40
0.0
 40
0.0
 40
0.0
 40
0.0624999999999994
 40
0.0624999999999994
 40
0.1249999999999988
 40
0.1249999999999988
 40
0.2499999999999993
 40
0.2499999999999993
 40
0.4999999999999982
 40
0.4999999999999982
 40
1.0
 40
1.0
 40
1.0
 40
1.0
 10
182.363791874374
 20
83.95760299025156
 30
0.0
 10
182.375372281962
 20
83.9573027991402
 30
0.0
 10
182.3886818087232
 20
83.95597505088121
 30
0.0
 10
182.4179832388094
 20
83.9492763761062
 30
0.0
 10
182.4327973386937
 20
83.94391819300051
 30
0.0
 10
182.4686257403965
 20
83.92687254383316
 30
0.0
 10
182.4827453647596
 20
83.91541000605743
 30
0.0
 10
182.517249508848
 20
83.88384668068518
 30
0.0
 10
182.5283540595526
 20
83.86594938163991
 30
0.0
 10
182.5545302367688
 20
83.81578796402566
 30
0.0
 10
182.5587687632809
 20
83.78804355182909
 30
0.0
 10
182.5587687632809
 20
83.76337938989954
 30
0.0
  0
LINE
  5
75
330
1F
100
AcDbEntity
  8
0
  6
Continuous
 62
     7
370
    15
100
AcDbLine
 10
182.5587687633
 20
98.8010865524
 30
0.0
 11
182.5587687633
 21
83.2831535993
 31
0.0
  0
SPLINE
  5
76
330
1F
100
AcDbEntity
  8
0
  6
Continuous
 62
     7
370
    15
100
AcDbSpline
210
0.0
220
0.0
230
1.0
 70
     8
 71
     3
 72
    16
 73
    12
 74
     0
 42
0.00000001
 43
0.00000001
 12
1.0
 22
0.0
 32
0.0
 13
1.0
 23
0.0
 33
0.0
 40
0.0
 40
0.0
 40
0.0
 40
0.0
 40
0.5000000000000054
 40
0.5000000000000054
 40
0.7500000000000064
 40
0.7500000000000064
 40
0.8750000000000044
 40
0.8750000000000044
 40
0.9375000000000022
 40
0.9375000000000022
 40
1.0
 40
1.0
 40
1.0
 40
1.0
 10
182.5587687632809
 20
98.8010865523907
 30
0.0
 10
182.5587687632809
 20
98.91477909651857
 30
0.0
 10
182.5546224882029
 20
99.0290992578681
 30
0.0
 10
182.5286568928094
 20
99.2021475483652
 30
0.0
 10
182.517195987432
 20
99.26132305552693
 30
0.0
 10
182.4828842496576
 20
99.34444617499507
 30
0.0
 10
182.468859513728
 20
99.37256749109574
 30
0.0
 10
182.4328365506942
 20
99.40118330507318
 30
0.0
 10
182.4180820416045
 20
99.40697635297495
 30
0.0
 10
182.3887298804576
 20
99.40538292703792
 30
0.0
 10
182.3753900059536
 20
99.39888652371411
 30
0.0
 10
182.3637918744052
 20
99.39037077751098
 30
0.0
  0
SPLINE
  5
77
330
1F
100
AcDbEntity
  8
0
  6
Continuous
 62
     7
370
    15
100
AcDbSpline
210
0.0
220
0.0
230
1.0
 70
     8
 71
     3
 72
    12
 73
     8
 74
     0
 42
0.00000001
 43
0.00000001
 12
1.0
 22
0.0
 32
0.0
 13
1.0
 23
0.0
 33
0.0
 40
0.0
 40
0.0
 40
0.0
 40
0.0
 40
0.2499999999999998
 40
0.2499999999999998
 40
0.4999999999999996
 40
0.4999999999999996
 40
1.0
 40
1.0
 40
1.0
 40
1.0
 10
182.3637918744123
 20
99.39037077750181
 30
0.0
 10
182.3335934329717
 20
99.36819804545677
 30
0.0
 10
182.3002260776357
 20
99.34911838957953
 30
0.0
 10
182.2270708018058
 20
99.32394534513683
 30
0.0
 10
182.1868181027818
 20
99.31838880872003
 30
0.0
 10
182.0690893595069
 20
99.32930061970679
 30
0.0
 10
181.998630911448
 20
99.37123637511762
 30
0.0
 10
181.9422564768297
 20
99.42044815749918
 30
0.0
  0
SPLINE
  5
78
330
1F
100
AcDbEntity
  8
0
  6
Continuous
 62
     7
370
    15
100
AcDbSpline
210
0.0
220
0.0
230
1.0
 70
     8
 71
     3
 72
    12
 73
     8
 74
     0
 42
0.00000001
 43
0.00000001
 12
1.0
 22
0.0
 32
0.0
 13
1.0
 23
0.0
 33
0.0
 40
0.0
 40
0.0
 40
0.0
 40
0.0
 40
0.4999999999999992
 40
0.4999999999999992
 40
0.7499999999999997
 40
0.7499999999999997
 40
1.0
 40
1.0
 40
1.0
 40
1.0
 10
181.4374484197212
 20
100.6367995493798
 30
0.0
 10
181.4811987716057
 20
100.4163525644052
 30
0.0
 10
181.5340889227301
 20
100.2008075745997
 30
0.0
 10
181.6457004658718
 20
99.88839349802774
 30
0.0
 10
181.6882598097754
 20
99.78631402241184
 30
0.0
 10
181.7932370451128
 20
99.59187400977007
 30
0.0
 10
181.8548042882074
 20
99.4967891107064
 30
0.0
 10
181.9422564768297
 20
99.42044815749924
 30
0.0
  0
SPLINE
  5
79
330
1F
100
AcDbEntity
  8
0
  6
Continuous
 62
     7
370
    15
100
AcDbSpline
210
0.0
220
0.0
230
1.0
 70
     8
 71
     3
 72
    12
 73
     8
 74
     0
 42
0.00000001
 43
0.00000001
 12
1.0
 22
0.0
 32
0.0
 13
1.0
 23
0.0
 33
0.0
 40
0.0
 40
0.0
 40
0.0
 40
0.0
 40
0.2499999999999993
 40
0.2499999999999993
 40
0.4999999999999986
 40
0.4999999999999986
 40
1.0
 40
1.0
 40
1.0
 40
1.0
 10
181.9422564768297
 20
112.2254995987824
 30
0.0
 10
181.8537630692618
 20
112.1482497186741
 30
0.0
 10
181.7937050284959
 20
112.0549303947848
 30
0.0
 10
181.6878567555133
 20
111.8588973418154
 30
0.0
 10
181.6453232342358
 20
111.7565709836037
 30
0.0
 10
181.5341719274122
 20
111.4452265778278
 30
0.0
 10
181.4812410703644
 20
111.2298083246498
 30
0.0
 10
181.4374484197212
 20
111.0091482069019
 30
0.0
  0
SPLINE
  5
7A
330
1F
100
AcDbEntity
  8
0
  6
Continuous
 62
     7
370
    15
100
AcDbSpline
210
0.0
220
0.0
230
1.0
 70
     8
 71
     3
 72
    12
 73
     8
 74
     0
 42
0.00000001
 43
0.00000001
 12
1.0
 22
0.0
 32
0.0
 13
1.0
 23
0.0
 33
0.0
 40
0.0
 40
0.0
 40
0.0
 40
0.0
 40
0.4999999999999993
 40
0.4999999999999993
 40
0.7499999999999997
 40
0.7499999999999997
 40
1.0
 40
1.0
 40
1.0
 40
1.0
 10
181.9422564768296
 20
112.2254995987824
 30
0.0
 10
181.9985650251253
 20
112.2746538660262
 30
0.0
 10
182.0688396858434
 20
112.31661118463
 30
0.0
 10
182.186877600167
 20
112.3275708621624
 30
0.0
 10
182.2270538410209
 20
112.3220621039151
 30
0.0
 10
182.3010109356988
 20
112.2965048751261
 30
0.0
 10
182.3336273234103
 20
112.2777248272868
 30
0.0
 10
182.363791874406
 20
112.2555769787701
 30
0.0
  0
SPLINE
  5
7B
330
1F
100
AcDbEntity
  8
0
  6
Continuous
 62
     7
370
    15
100
AcDbSpline
210
0.0
220
0.0
230
1.0
 70
     8
 71
     3
 72
    16
 73
    12
 74
     0
 42
0.00000001
 43
0.00000001
 12
1.0
 22
0.0
 32
0.0
 13
1.0
 23
0.0
 33
0.0
 40
0.0
 40
0.0
 40
0.0
 40
0.0
 40
0.0624999999999998
 40
0.0624999999999998
 40
0.1249999999999996
 40
0.1249999999999996
 40
0.2499999999999993
 40
0.2499999999999993
 40
0.5000000000000007
 40
0.5000000000000007
 40
1.0
 40
1.0
 40
1.0
 40
1.0
 10
182.3637918743743
 20
112.2555769787156
 30
0.0
 10
182.3754047742136
 20
112.2470503891203
 30
0.0
 10
182.3887559586461
 20
112.2405501275875
 30
0.0
 10
182.4181557982653
 20
112.23898073047
 30
0.0
 10
182.4329965228206
 20
112.2448641211006
 30
0.0
 10
182.4688297307891
 20
112.2734117571512
 30
0.0
 10
182.4829429386107
 20
112.301578776457
 30
0.0
 10
182.5174343098296
 20
112.3853330348789
 30
0.0
 10
182.52851838094
 20
112.4430464485003
 30
0.0
 10
182.554641198736
 20
112.6166369851462
 30
0.0
 10
182.5587687632809
 20
112.7316650377881
 30
0.0
 10
182.5587687632809
 20
112.844861203891
 30
0.0
  0
LINE
  5
7C
330
1F
100
AcDbEntity
  8
0
  6
Continuous
 62
     7
370
    15
100
AcDbLine
 10
182.5587687633
 20
128.362794157
 30
0.0
 11
182.5587687633
 21
112.8448612039
 31
0.0
  0
SPLINE
  5
7D
330
1F
100
AcDbEntity
  8
0
  6
Continuous
 62
     7
370
    15
100
AcDbSpline
210
0.0
220
0.0
230
1.0
 70
     8
 71
     3
 72
    16
 73
    12
 74
     0
 42
0.00000001
 43
0.00000001
 12
1.0
 22
0.0
 32
0.0
 13
1.0
 23
0.0
 33
0.0
 40
0.0
 40
0.0
 40
0.0
 40
0.0
 40
0.4999999999999952
 40
0.4999999999999952
 40
0.7499999999999948
 40
0.7499999999999948
 40
0.8749999999999947
 40
0.8749999999999947
 40
0.9374999999999972
 40
0.9374999999999972
 40
1.0
 40
1.0
 40
1.0
 40
1.0
 10
182.5587687632809
 20
127.8825683663821
 30
0.0
 10
182.5587687632809
 20
127.8578972103392
 30
0.0
 10
182.5546030648209
 20
127.830315378948
 30
0.0
 10
182.528344736496
 20
127.7799725081246
 30
0.0
 10
182.5168409547584
 20
127.7616830100627
 30
0.0
 10
182.4827101954118
 20
127.7305279790257
 30
0.0
 10
182.4682883087411
 20
127.718888603814
 30
0.0
 10
182.4327213403033
 20
127.7020065778829
 30
0.0
 10
182.4177695720086
 20
127.6966174740752
 30
0.0
 10
182.3887657536489
 20
127.6899969781307
 30
0.0
 10
182.3753503996396
 20
127.6886443899243
 30
0.0
 10
182.363791874403
 20
127.6883447660527
 30
0.0
  0
SPLINE
  5
7E
330
1F
100
AcDbEntity
  8
0
  6
Continuous
 62
     7
370
    15
100
AcDbSpline
210
0.0
220
0.0
230
1.0
 70
     8
 71
     3
 72
    12
 73
     8
 74
     0
 42
0.00000001
 43
0.00000001
 12
1.0
 22
0.0
 32
0.0
 13
1.0
 23
0.0
 33
0.0
 40
0.0
 40
0.0
 40
0.0
 40
0.0
 40
0.25
 40
0.25
 40
0.5
 40
0.5
 40
1.0
 40
1.0
 40
1.0
 40
1.0
 10
182.3637918744123
 20
127.6883447660544
 30
0.0
 10
182.3336040978626
 20
127.6875622286368
 30
0.0
 10
182.3002502937709
 20
127.6866688968183
 30
0.0
 10
182.227124090575
 20
127.6847415880147
 30
0.0
 10
182.1868888875508
 20
127.683702056802
 30
0.0
 10
182.0691972574177
 20
127.6807841734548
 30
0.0
 10
181.9988165842577
 20
127.6791885673846
 30
0.0
 10
181.9422564768271
 20
127.6777675806167
 30
0.0
  0
SPLINE
  5
7F
330
1F
100
AcDbEntity
  8
0
  6
Continuous
 62
     7
370
    15
100
AcDbSpline
210
0.0
220
0.0
230
1.0
 70
     8
 71
     3
 72
    16
 73
    12
 74
     0
 42
0.00000001
 43
0.00000001
 12
1.0
 22
0.0
 32
0.0
 13
1.0
 23
0.0
 33
0.0
 40
0.0
 40
0.0
 40
0.0
 40
0.0
 40
0.25
 40
0.25
 40
0.375
 40
0.375
 40
0.5
 40
0.5
 40
0.75
 40
0.75
 40
1.0
 40
1.0
 40
1.0
 40
1.0
 10
181.4374484197212
 20
111.0091482069019
 30
0.0
 10
181.2762159422367
 20
110.1967384316551
 30
0.0
 10
181.1557361025971
 20
109.3566601372703
 30
0.0
 10
181.0333555852838
 20
108.0553650879076
 30
0.0
 10
181.0023779248864
 20
107.6146840523228
 30
0.0
 10
180.9607641872584
 20
106.7188444113916
 30
0.0
 10
180.9505282743256
 20
106.2721862801892
 30
0.0
 10
180.9503398772695
 20
104.9368763230493
 30
0.0
 10
180.9904845799071
 20
104.0523809497418
 30
0.0
 10
181.1546383348467
 20
102.2951310617158
 30
0.0
 10
181.2761899852562
 20
101.4493401153026
 30
0.0
 10
181.4374484197212
 20
100.6367995493798
 30
0.0
  0
LINE
  5
80
330
1F
100
AcDbEntity
  8
0
  6
Continuous
 62
     7
370
    15
100
AcDbLine
 10
180.5587687633
 20
112.3081521398
 30
0.0
 11
180.5587687633
 21
99.3377956165
 31
0.0
  0
LINE
  5
81
330
1F
100
AcDbEntity
  8
0
  6
Continuous
 62
     7
370
    15
100
AcDbLine
 10
146.2587687633
 20
111.8772844457
 30
0.0
 11
146.2587687633
 21
99.7686633106
 31
0.0
  0
LINE
  5
82
330
1F
100
AcDbEntity
  8
0
  6
Continuous
 62
     7
370
    15
100
AcDbLine
 10
144.7587687633
 20
111.4442717438
 30
0.0
 11
144.7587687633
 21
100.2016760125
 31
0.0
  0
LINE
  5
83
330
1F
100
AcDbEntity
  8
0
  6
Continuous
 62
     7
370
    15
100
AcDbLine
 10
146.2587687633
 20
111.8772844457
 30
0.0
 11
146.2587687633
 21
126.9813372744
 31
0.0
  0
LINE
  5
84
330
1F
100
AcDbEntity
  8
0
  6
Continuous
 62
     7
370
    15
100
AcDbLine
 10
146.2587687633
 20
126.9813372744
 30
0.0
 11
180.5587687633
 21
127.8430726627
 31
0.0
  0
LINE
  5
85
330
1F
100
AcDbEntity
  8
0
  6
Continuous
 62
     7
370
    15
100
AcDbLine
 10
180.5587687633
 20
112.3081521398
 30
0.0
 11
180.5587687633
 21
127.8430726627
 31
0.0
  0
ARC
  5
86
330
1F
100
AcDbEntity
  8
0
  6
Continuous
 62
     7
370
    15
100
AcDbCircle
 10
180.7587056742
 20
127.8480957738
 30
0.0
 40
0.2000000000000066
100
AcDbArc
 50
181.4391666667
 51
271.4391666667
  0
LINE
  5
87
330
1F
100
AcDbEntity
  8
0
  6
Continuous
 62
     7
370
    15
100
AcDbLine
 10
180.5587687633
 20
83.8028750936
 30
0.0
 11
180.5587687633
 21
99.3377956165
 31
0.0
  0
ARC
  5
88
330
1F
100
AcDbEntity
  8
0
  6
Continuous
 62
     7
370
    15
100
AcDbCircle
 10
180.7587056742
 20
83.7978519824
 30
0.0
 40
0.2000000000000055
100
AcDbArc
 50
88.5608333333
 51
178.5608333333
  0
LINE
  5
89
330
1F
100
AcDbEntity
  8
0
  6
Continuous
 62
     7
370
    15
100
AcDbLine
 10
146.2587687633
 20
84.6646104819
 30
0.0
 11
146.2587687633
 21
99.7686633106
 31
0.0
  0
LINE
  5
8A
330
1F
100
AcDbEntity
  8
0
  6
Continuous
 62
     7
370
    15
100
AcDbLine
 10
146.2587687633
 20
84.6646104819
 30
0.0
 11
180.5587687633
 21
83.8028750936
 31
0.0
  0
LINE
  5
8B
330
1F
100
AcDbEntity
  8
0
  6
Continuous
 62
     7
370
    15
100
AcDbLine
 10
180.7637287853
 20
127.6481588629
 30
0.0
 11
181.9422564768
 21
127.6777675806
 31
0.0
  0
LINE
  5
8C
330
1F
100
AcDbEntity
  8
0
  6
Continuous
 62
     7
370
    15
100
AcDbLine
 10
180.7637287853
 20
83.9977888934
 30
0.0
 11
181.9422564768
 21
83.9681801757
 31
0.0
  0
LINE
  5
8D
330
1F
100
AcDbEntity
  8
0
  6
Continuous
 62
     7
370
    15
100
AcDbLine
 10
144.7587687633
 20
126.1153118706
 30
0.0
 11
146.2587687633
 21
126.9813372744
 31
0.0
  0
LINE
  5
8E
330
1F
100
AcDbEntity
  8
0
  6
Continuous
 62
     7
370
    15
100
AcDbLine
 10
144.7587687633
 20
111.4442717438
 30
0.0
 11
144.7587687633
 21
126.1153118706
 31
0.0
  0
LINE
  5
8F
330
1F
100
AcDbEntity
  8
0
  6
Continuous
 62
     7
370
    15
100
AcDbLine
 10
144.7587687633
 20
85.5306358856
 30
0.0
 11
146.2587687633
 21
84.6646104819
 31
0.0
  0
LINE
  5
90
330
1F
100
AcDbEntity
  8
0
  6
Continuous
 62
     7
370
    15
100
AcDbLine
 10
144.7587687633
 20
85.5306358856
 30
0.0
 11
144.7587687633
 21
100.2016760125
 31
0.0
  0
ELLIPSE
  5
91
330
1F
100
AcDbEntity
  8
0
  6
Continuous
 62
     7
370
    15
100
AcDbEllipse
 10
219.4870353125
 20
77.6863217588
 30
0.0
 11
5.998711941227299
 21
8.478905253514597
 31
0.0
210
0.0
220
0.0
230
1.0
 40
0.0146620728
 41
1.654794878104603
 42
1.758201583980556
  0
LINE
  5
92
330
1F
100
AcDbEntity
  8
0
  6
Continuous
 62
     7
370
    15
100
AcDbLine
 10
234.2866237864
 20
141.8088987009
 30
0.0
 11
232.9899747231
 21
141.7097020921
 31
0.0
  0
ARC
  5
93
330
1F
100
AcDbEntity
  8
0
  6
Continuous
 62
     7
370
    15
100
AcDbCircle
 10
233.1971351106
 20
139.3795342283
 30
0.0
 40
2.339358394791154
100
AcDbArc
 50
95.0804459866
 51
274.9100000108
  0
LINE
  5
94
330
1F
100
AcDbEntity
  8
0
  6
Continuous
 62
     7
370
    15
100
AcDbLine
 10
233.3973627071
 20
137.0487604064
 30
0.0
 11
245.6433987728
 21
137.9856100782
 31
0.0
  0
LINE
  5
95
330
1F
100
AcDbEntity
  8
0
  6
Continuous
 62
     7
370
    15
100
AcDbLine
 10
245.6433987728
 20
137.9856100782
 30
0.0
 11
243.3471933832
 21
111.7650893717
 31
0.0
  0
SPLINE
  5
96
330
1F
100
AcDbEntity
  8
0
  6
Continuous
 62
     7
370
    15
100
AcDbSpline
210
0.0
220
0.0
230
1.0
 70
     8
 71
     3
 72
    10
 73
     6
 74
     0
 42
0.00000001
 43
0.00000001
 12
1.0
 22
0.0
 32
0.0
 13
1.0
 23
0.0
 33
0.0
 40
0.0
 40
0.0
 40
0.0
 40
0.0
 40
0.5
 40
0.5
 40
1.0
 40
1.0
 40
1.0
 40
1.0
 10
219.9914417753019
 20
137.0578896818128
 30
0.0
 10
220.2154316576436
 20
137.0610232654289
 30
0.0
 10
220.4303647973505
 20
137.1408364147205
 30
0.0
 10
220.7768913019091
 20
137.4196352812087
 30
0.0
 10
220.9008409319783
 20
137.6120131085608
 30
0.0
 10
220.957367601591
 20
137.8280199563187
 30
0.0
  0
SPLINE
  5
97
330
1F
100
AcDbEntity
  8
0
  6
Continuous
 62
     7
370
    15
100
AcDbSpline
210
0.0
220
0.0
230
1.0
 70
     8
 71
     3
 72
     8
 73
     4
 74
     0
 42
0.00000001
 43
0.00000001
 12
1.0
 22
0.0
 32
0.0
 13
1.0
 23
0.0
 33
0.0
 40
0.0
 40
0.0
 40
0.0
 40
0.0
 40
1.0
 40
1.0
 40
1.0
 40
1.0
 10
220.957367601591
 20
137.8280199563187
 30
0.0
 10
221.8123717414391
 20
141.0952697400731
 30
0.0
 10
222.6748604657825
 20
144.3604667516293
 30
0.0
 10
223.540640936966
 20
147.624760946683
 30
0.0
  0
ELLIPSE
  5
98
330
1F
100
AcDbEntity
  8
0
  6
Continuous
 62
     7
370
    15
100
AcDbEllipse
 10
1518.8249173103
 20
92.3187005455
 30
0.0
 11
1476.674526876647
 21
-16.27792872420838
 31
0.0
210
0.0
220
0.0
230
1.0
 40
0.057920228
 41
2.625579962930583
 42
2.641356348217122
  0
LINE
  5
99
330
1F
100
AcDbEntity
  8
0
  6
Continuous
 62
     7
370
    15
100
AcDbLine
 10
234.8882290512
 20
148.6786688768
 30
0.0
 11
234.2866237864
 21
141.8088987009
 31
0.0
  0
CIRCLE
  5
9A
330
1F
100
AcDbEntity
  8
0
  6
Continuous
 62
     7
370
    15
100
AcDbCircle
 10
236.4186775569
 20
132.0416927012
 30
0.0
 40
3.974314927767878
  0
LINE
  5
9B
330
1F
100
AcDbEntity
  8
0
  6
Continuous
 62
     7
370
    15
100
AcDbLine
 10
243.3471933832
 20
111.7650893717
 30
0.0
 11
218.8598645329
 21
77.0625866864
 31
0.0
  0
LINE
  5
9C
330
1F
100
AcDbEntity
  8
0
  6
Continuous
 62
     7
370
    15
100
AcDbLine
 10
223.540640937
 20
147.6247609467
 30
0.0
 11
223.540640937
 21
147.7050621705
 31
0.0
  0
ARC
  5
9D
330
1F
100
AcDbEntity
  8
0
  6
Continuous
 62
     7
370
    15
100
AcDbCircle
 10
232.6728142826
 20
138.9169629123
 30
0.0
 40
2.310716551331311
100
AcDbArc
 50
94.3216024025
 51
126.1596104708
  0
ELLIPSE
  5
9E
330
1F
100
AcDbEntity
  8
0
  6
Continuous
 62
     7
370
    15
100
AcDbEllipse
 10
230.615622719
 20
106.1891397264
 30
0.0
 11
4.223266691237598
 21
42.49772034926178
 31
0.0
210
0.0
220
0.0
230
1.0
 40
0.0944088542
 41
6.270806825123394
 42
6.300979864487885
  0
LINE
  5
9F
330
1F
100
AcDbEntity
  8
0
  6
Continuous
 62
     7
370
    15
100
AcDbLine
 10
233.795340009
 20
141.3203062275
 30
0.0
 11
234.2866237864
 21
141.8088987009
 31
0.0
  0
LINE
  5
A0
330
1F
100
AcDbEntity
  8
0
  6
Continuous
 62
     7
370
    15
100
AcDbLine
 10
233.795340009
 20
141.3203062275
 30
0.0
 11
233.8183964171
 21
141.3220700952
 31
0.0
  0
LINE
  5
A1
330
1F
100
AcDbEntity
  8
0
  6
Continuous
 62
     7
370
    15
100
AcDbLine
 10
232.1913772637
 20
140.9154794331
 30
0.0
 11
233.7935237343
 21
141.03804729
 31
0.0
  0
ARC
  5
A2
330
1F
100
AcDbEntity
  8
0
  6
Continuous
 62
     7
370
    15
100
AcDbCircle
 10
232.6536104876
 20
139.1642955115
 30
0.0
 40
2.06264013718838
100
AcDbArc
 50
94.3073933903
 51
134.812862105
  0
LINE
  5
A3
330
1F
100
AcDbEntity
  8
0
  6
Continuous
 62
     7
370
    15
100
AcDbLine
 10
233.4487315403
 20
137.1008424983
 30
0.0
 11
232.9238924586
 21
137.0606911123
 31
0.0
  0
LWPOLYLINE
  5
A4
330
1F
100
AcDbEntity
  8
0
  6
Continuous
 62
     7
370
    15
100
AcDbPolyline
 90
        3
 70
   128
 43
0.0
 10
231.1532708541
 20
140.5413568558
 10
231.6125922486
 20
140.7862791449
 10
232.1913772637
 20
140.9154794331
  0
LWPOLYLINE
  5
A5
330
1F
100
AcDbEntity
  8
0
  6
Continuous
 62
     7
370
    15
100
AcDbPolyline
 90
        3
 70
   128
 43
0.0
 10
240.5665552515
 20
145.4813338393
 10
240.4808341976
 20
145.5148818262
 10
240.3345532922
 20
145.5657475119
  0
ARC
  5
A6
330
1F
100
AcDbEntity
  8
0
  6
Continuous
 62
     7
370
    15
100
AcDbCircle
 10
203.9583076516
 20
120.9070102645
 30
0.0
 40
2.80730906311494
100
AcDbArc
 50
4.0027749602
 51
95.7788237976
  0
ARC
  5
A7
330
1F
100
AcDbEntity
  8
0
  6
Continuous
 62
     7
370
    15
100
AcDbCircle
 10
203.5932766743
 20
120.8369090826
 30
0.0
 40
2.864327997212784
100
AcDbArc
 50
88.3521678847
 51
170.4876624736
  0
ARC
  5
A8
330
1F
100
AcDbEntity
  8
0
  6
Continuous
 62
     7
370
    15
100
AcDbCircle
 10
204.0282995613
 20
121.1214443338
 30
0.0
 40
2.55136290410426
100
AcDbArc
 50
343.4667217274
 51
97.8570569096
  0
ARC
  5
A9
330
1F
100
AcDbEntity
  8
0
  6
Continuous
 62
     7
370
    15
100
AcDbCircle
 10
203.4946471002
 20
121.0994030138
 30
0.0
 40
2.55614696018752
100
AcDbArc
 50
85.8524073508
 51
194.4703636691
  0
LWPOLYLINE
  5
AA
330
1F
100
AcDbEntity
  8
0
  6
Continuous
 62
     7
370
    15
100
AcDbPolyline
 90
       27
 70
   128
 43
0.0
 10
203.6894978491
 20
123.3372061104
 10
204.2895701833
 20
123.2886740907
 10
204.8587942683
 20
123.1171852648
 10
205.3640888694
 20
122.8327059401
 10
205.7760881011
 20
122.4517690208
 10
206.0708480655
 20
121.9965131761
 10
206.2312383849
 20
121.4933962208
 10
206.247937757
 20
120.9716574836
 10
206.1199756749
 20
120.4616185236
 10
205.8547888297
 20
119.992920951
 10
205.467788917
 20
119.5928037653
 10
204.9814669651
 20
119.2845203228
 10
204.4240862379
 20
119.0859869368
 10
203.8280396775
 20
119.0087416458
 10
203.2279673433
 20
119.0572736656
 10
202.6587432582
 20
119.2287624914
 10
202.1534486571
 20
119.5132418162
 10
201.7414494255
 20
119.8941787354
 10
201.4466894611
 20
120.3494345802
 10
201.2862991417
 20
120.8525515355
 10
201.2695997696
 20
121.3742902726
 10
201.3975618517
 20
121.8843292327
 10
201.6627486968
 20
122.3530268053
 10
202.0497486095
 20
122.753143991
 10
202.5360705615
 20
123.0614274334
 10
203.0934512887
 20
123.2599608195
 10
203.6894978491
 20
123.3372061104
  0
ARC
  5
AB
330
1F
100
AcDbEntity
  8
0
  6
Continuous
 62
     7
370
    15
100
AcDbCircle
 10
239.6866326174
 20
142.85769199
 30
0.0
 40
2.784694906952924
100
AcDbArc
 50
70.2156968057
 51
109.7033793818
  0
LINE
  5
AC
330
1F
100
AcDbEntity
  8
0
  6
Continuous
 62
     7
370
    15
100
AcDbLine
 10
242.3713684463
 20
141.9915643237
 30
0.0
 11
242.331627173
 21
141.8749950255
 31
0.0
  0
CIRCLE
  5
AD
330
1F
100
AcDbEntity
  8
0
  6
Continuous
 62
     7
370
    15
100
AcDbCircle
 10
236.3844243938
 20
131.9992307782
 30
0.0
 40
3.480141520656292
  0
CIRCLE
  5
AE
330
1F
100
AcDbEntity
  8
0
  6
Continuous
 62
     7
370
    15
100
AcDbCircle
 10
236.4007833069
 20
132.0002425945
 30
0.0
 40
1.987256747362786
  0
SPLINE
  5
AF
330
1F
100
AcDbEntity
  8
0
  6
Continuous
 62
     7
370
    15
100
AcDbSpline
210
0.0
220
0.0
230
1.0
 70
     8
 71
     3
 72
    11
 73
     7
 74
     0
 42
0.00000001
 43
0.00000001
 12
1.0
 22
0.0
 32
0.0
 13
1.0
 23
0.0
 33
0.0
 40
0.0
 40
0.0
 40
0.0
 40
0.0
 40
0.1081100880371245
 40
0.4711580666043516
 40
0.8135808430835865
 40
1.0
 40
1.0
 40
1.0
 40
1.0
 10
235.3819415893626
 20
130.5880172211189
 30
0.0
 10
235.4369298963788
 20
130.5783865541444
 30
0.0
 10
235.676576213295
 20
130.5364148333343
 30
0.0
 10
236.1437355287668
 20
130.4673747449034
 30
0.0
 10
236.6905824918472
 20
130.4150916682397
 30
0.0
 10
236.9896463209665
 20
130.3959033294923
 30
0.0
 10
237.0950676640333
 20
130.3891393538957
 30
0.0
  0
SPLINE
  5
B0
330
1F
100
AcDbEntity
  8
0
  6
Continuous
 62
     7
370
    15
100
AcDbSpline
210
0.0
220
0.0
230
1.0
 70
     8
 71
     3
 72
    11
 73
     7
 74
     0
 42
0.00000001
 43
0.00000001
 12
1.0
 22
0.0
 32
0.0
 13
1.0
 23
0.0
 33
0.0
 40
0.0
 40
0.0
 40
0.0
 40
0.0
 40
0.2164499953511901
 40
0.4402998152333129
 40
0.7518914760010295
 40
1.0
 40
1.0
 40
1.0
 40
1.0
 10
237.0950676640333
 20
130.3891393538957
 30
0.0
 10
237.1587441154865
 20
130.4781890146785
 30
0.0
 10
237.2882739395184
 20
130.659332696967
 30
0.0
 10
237.5404577332887
 20
131.0072344429363
 30
0.0
 10
237.8271103562818
 20
131.3964758472549
 30
0.0
 10
238.0214264329388
 20
131.6563838187325
 30
0.0
 10
238.107564469482
 20
131.771597972549
 30
0.0
  0
SPLINE
  5
B1
330
1F
100
AcDbEntity
  8
0
  6
Continuous
 62
     7
370
    15
100
AcDbSpline
210
0.0
220
0.0
230
1.0
 70
     8
 71
     3
 72
    11
 73
     7
 74
     0
 42
0.00000001
 43
0.00000001
 12
1.0
 22
0.0
 32
0.0
 13
1.0
 23
0.0
 33
0.0
 40
0.0
 40
0.0
 40
0.0
 40
0.0
 40
0.2164499953511788
 40
0.4402998152332927
 40
0.7518914760010278
 40
1.0
 40
1.0
 40
1.0
 40
1.0
 10
238.107564469482
 20
131.771597972549
 30
0.0
 10
238.0538930996636
 20
131.8742706145956
 30
0.0
 10
237.9447154848706
 20
132.0831259913272
 30
0.0
 10
237.7539169238989
 20
132.4824538332687
 30
0.0
 10
237.5653799862658
 20
132.9268602880418
 30
0.0
 10
237.4555995703821
 20
133.2220710097143
 30
0.0
 10
237.40693520026
 20
133.3529344584255
 30
0.0
  0
SPLINE
  5
B2
330
1F
100
AcDbEntity
  8
0
  6
Continuous
 62
     7
370
    15
100
AcDbSpline
210
0.0
220
0.0
230
1.0
 70
     8
 71
     3
 72
    11
 73
     7
 74
     0
 42
0.00000001
 43
0.00000001
 12
1.0
 22
0.0
 32
0.0
 13
1.0
 23
0.0
 33
0.0
 40
0.0
 40
0.0
 40
0.0
 40
0.0
 40
0.1864191569163867
 40
0.528841933395655
 40
0.8918899119628789
 40
1.0
 40
1.0
 40
1.0
 40
1.0
 10
237.40693520026
 20
133.3529344584255
 30
0.0
 10
237.3015138571932
 20
133.359698434022
 30
0.0
 10
237.0024500280738
 20
133.3788867727694
 30
0.0
 10
236.4556030649935
 20
133.4311698494332
 30
0.0
 10
235.9884437495216
 20
133.500209937864
 30
0.0
 10
235.7487974326054
 20
133.5421816586741
 30
0.0
 10
235.6938091255892
 20
133.5518123256486
 30
0.0
  0
SPLINE
  5
B3
330
1F
100
AcDbEntity
  8
0
  6
Continuous
 62
     7
370
    15
100
AcDbSpline
210
0.0
220
0.0
230
1.0
 70
     8
 71
     3
 72
    11
 73
     7
 74
     0
 42
0.00000001
 43
0.00000001
 12
1.0
 22
0.0
 32
0.0
 13
1.0
 23
0.0
 33
0.0
 40
0.0
 40
0.0
 40
0.0
 40
0.0
 40
0.2164499953511939
 40
0.4402998152333315
 40
0.7518914760010598
 40
1.0
 40
1.0
 40
1.0
 40
1.0
 10
235.6938091255892
 20
133.5518123256486
 30
0.0
 10
235.6187750689011
 20
133.4514672777806
 30
0.0
 10
235.4661417494021
 20
133.2473466633905
 30
0.0
 10
235.1947000777988
 20
132.8802925362582
 30
0.0
 10
234.9196568405394
 20
132.5025969202435
 30
0.0
 10
234.7545169124131
 20
132.2717052673023
 30
0.0
 10
234.6813123201406
 20
132.1693537069954
 30
0.0
  0
SPLINE
  5
B4
330
1F
100
AcDbEntity
  8
0
  6
Continuous
 62
     7
370
    15
100
AcDbSpline
210
0.0
220
0.0
230
1.0
 70
     8
 71
     3
 72
    11
 73
     7
 74
     0
 42
0.00000001
 43
0.00000001
 12
1.0
 22
0.0
 32
0.0
 13
1.0
 23
0.0
 33
0.0
 40
0.0
 40
0.0
 40
0.0
 40
0.0
 40
0.2164499953512
 40
0.4402998152333405
 40
0.7518914760010844
 40
1.0
 40
1.0
 40
1.0
 40
1.0
 10
234.6813123201406
 20
132.1693537069954
 30
0.0
 10
234.723626084724
 20
132.0553856778636
 30
0.0
 10
234.8097002040497
 20
131.8235533690303
 30
0.0
 10
234.9812408871887
 20
131.4050731459258
 30
0.0
 10
235.1813872105554
 20
130.9722124794566
 30
0.0
 10
235.3203437749698
 20
130.7060180763204
 30
0.0
 10
235.3819415893626
 20
130.5880172211189
 30
0.0
  0
LINE
  5
B5
330
1F
100
AcDbEntity
  8
0
  6
Continuous
 62
     7
370
    15
100
AcDbLine
 10
236.9941416433
 20
130.3960152761
 30
0.0
 11
237.211210531
 21
130.6924001664
 31
0.0
  0
LINE
  5
B6
330
1F
100
AcDbEntity
  8
0
  6
Continuous
 62
     7
370
    15
100
AcDbLine
 10
237.211210531
 20
130.6924001664
 30
0.0
 11
237.7174589337
 21
131.3836294757
 31
0.0
  0
LINE
  5
B7
330
1F
100
AcDbEntity
  8
0
  6
Continuous
 62
     7
370
    15
100
AcDbLine
 10
237.7174589337
 20
131.3836294757
 30
0.0
 11
238.1075644695
 21
131.7715979725
 31
0.0
  0
LINE
  5
B8
330
1F
100
AcDbEntity
  8
0
  6
Continuous
 62
     7
370
    15
100
AcDbLine
 10
237.7174589337
 20
131.3836294757
 30
0.0
 11
237.3671442991
 21
132.1742977187
 31
0.0
  0
LINE
  5
B9
330
1F
100
AcDbEntity
  8
0
  6
Continuous
 62
     7
370
    15
100
AcDbLine
 10
237.3671442991
 20
132.1742977187
 30
0.0
 11
237.0168296645
 21
132.9649659616
 31
0.0
  0
LINE
  5
BA
330
1F
100
AcDbEntity
  8
0
  6
Continuous
 62
     7
370
    15
100
AcDbLine
 10
237.0168296645
 20
132.9649659616
 30
0.0
 11
237.4069352003
 21
133.3529344584
 31
0.0
  0
LINE
  5
BB
330
1F
100
AcDbEntity
  8
0
  6
Continuous
 62
     7
370
    15
100
AcDbLine
 10
237.0168296645
 20
132.9649659616
 30
0.0
 11
236.1602666272
 21
133.0644048952
 31
0.0
  0
LINE
  5
BC
330
1F
100
AcDbEntity
  8
0
  6
Continuous
 62
     7
370
    15
100
AcDbLine
 10
236.1602666272
 20
133.0644048952
 30
0.0
 11
235.3968504846
 21
133.1530303481
 31
0.0
  0
ARC
  5
BD
330
1F
100
AcDbEntity
  8
0
  6
Continuous
 62
     7
370
    15
100
AcDbCircle
 10
236.0091325834
 20
131.5680426085
 30
0.0
 40
1.487192347545835
100
AcDbArc
 50
323.9288835421
 51
24.0573452248
  0
ARC
  5
BE
330
1F
100
AcDbEntity
  8
0
  6
Continuous
 62
     7
370
    15
100
AcDbCircle
 10
236.027166919
 20
131.5595490122
 30
0.0
 40
1.467619295334689
100
AcDbArc
 50
306.8407417276
 51
323.7823603726
  0
ARC
  5
BF
330
1F
100
AcDbEntity
  8
0
  6
Continuous
 62
     7
370
    15
100
AcDbCircle
 10
235.9874808197
 20
131.594893611
 30
0.0
 40
1.479634532477495
100
AcDbArc
 50
83.2939271646
 51
127.9145172634
  0
ARC
  5
C0
330
1F
100
AcDbEntity
  8
0
  6
Continuous
 62
     7
370
    15
100
AcDbCircle
 10
235.9836981237
 20
131.5617556974
 30
0.0
 40
1.512987458046664
100
AcDbArc
 50
23.882102474
 51
83.2982025035
  0
LINE
  5
C1
330
1F
100
AcDbEntity
  8
0
  6
Continuous
 62
     7
370
    15
100
AcDbLine
 10
238.2968872338
 20
144.2558700856
 30
0.0
 11
238.6068209467
 21
144.4531012785
 31
0.0
  0
LINE
  5
C2
330
1F
100
AcDbEntity
  8
0
  6
Continuous
 62
     7
370
    15
100
AcDbLine
 10
238.6068209467
 20
144.4531012785
 30
0.0
 11
238.3121470356
 21
143.6467287624
 31
0.0
  0
ELLIPSE
  5
C3
330
1F
100
AcDbEntity
  8
0
  6
Continuous
 62
     7
370
    15
100
AcDbEllipse
 10
240.5021527149
 20
143.2425271847
 30
0.0
 11
-1.502644295739827
 21
1.675495476824068
 31
0.0
210
0.0
220
0.0
230
1.0
 40
0.9898983231
 41
3.837979583766166
 42
6.557150476637591
  0
ELLIPSE
  5
C4
330
1F
100
AcDbEntity
  8
0
  6
Continuous
 62
     7
370
    15
100
AcDbEllipse
 10
240.5021527149
 20
143.2425271847
 30
0.0
 11
-1.502644295739827
 21
1.675495476824068
 31
0.0
210
0.0
220
0.0
230
1.0
 40
0.9898983231
 41
3.29569057530008
 42
3.415557823047836
  0
LINE
  5
C5
330
1F
100
AcDbEntity
  8
0
  6
Continuous
 62
     7
370
    15
100
AcDbLine
 10
242.397484483
 20
142.0319530909
 30
0.0
 11
242.7188184464
 21
142.9112806009
 31
0.0
  0
ARC
  5
C6
330
1F
100
AcDbEntity
  8
0
  6
Continuous
 62
     7
370
    15
100
AcDbCircle
 10
239.4976363967
 20
142.6720341198
 30
0.0
 40
2.883667853086472
100
AcDbArc
 50
75.7178299605
 51
105.4750453908
  0
LINE
  5
C7
330
1F
100
AcDbEntity
  8
0
  6
Continuous
 62
     7
370
    15
100
AcDbLine
 10
242.3202497193
 20
141.9176737166
 30
0.0
 11
242.303394015
 21
141.8556483095
 31
0.0
  0
LINE
  5
C8
330
1F
100
AcDbEntity
  8
0
  6
Continuous
 62
     7
370
    15
100
AcDbLine
 10
234.3765956861
 20
137.1524617152
 30
0.0
 11
246.3482475051
 21
138.0683203667
 31
0.0
  0
ARC
  5
C9
330
1F
100
AcDbEntity
  8
0
  6
Continuous
 62
     7
370
    15
100
AcDbCircle
 10
234.3468510653
 20
137.5540323489
 30
0.0
 40
0.4026707293642767
100
AcDbArc
 50
175.1377687674
 51
274.2362029422
  0
LINE
  5
CA
330
1F
100
AcDbEntity
  8
0
  6
Continuous
 62
     7
370
    15
100
AcDbLine
 10
234.9930132104
 20
149.548307628
 30
0.0
 11
233.9456293926
 21
137.58816277
 31
0.0
  0
ARC
  5
CB
330
1F
100
AcDbEntity
  8
0
  6
Continuous
 62
     7
370
    15
100
AcDbCircle
 10
235.3840201075
 20
149.5146029843
 30
0.0
 40
0.3924568722549019
100
AcDbArc
 50
94.2937518475
 51
175.073304225
  0
LINE
  5
CC
330
1F
100
AcDbEntity
  8
0
  6
Continuous
 62
     7
370
    15
100
AcDbLine
 10
247.3262886873
 20
150.821817001
 30
0.0
 11
235.3546368684
 21
149.9059583495
 31
0.0
  0
ARC
  5
CD
330
1F
100
AcDbEntity
  8
0
  6
Continuous
 62
     7
370
    15
100
AcDbCircle
 10
247.3560333082
 20
150.4202463673
 30
0.0
 40
0.4026707293642525
100
AcDbArc
 50
355.1377687674
 51
94.2362029422
  0
LINE
  5
CE
330
1F
100
AcDbEntity
  8
0
  6
Continuous
 62
     7
370
    15
100
AcDbLine
 10
246.709871163
 20
138.4259710882
 30
0.0
 11
247.7572549809
 21
150.3861159462
 31
0.0
  0
ARC
  5
CF
330
1F
100
AcDbEntity
  8
0
  6
Continuous
 62
     7
370
    15
100
AcDbCircle
 10
246.3188642659
 20
138.4596757319
 30
0.0
 40
0.392456872254846
100
AcDbArc
 50
274.2937518475
 51
355.073304225
  0
ARC
  5
D0
330
1F
100
AcDbEntity
  8
0
  6
Continuous
 62
     7
370
    15
100
AcDbCircle
 10
247.356279643
 20
150.4204911046
 30
0.0
 40
0.3825371928960909
100
AcDbArc
 50
355.1377687674
 51
94.2362029422
  0
LINE
  5
D1
330
1F
100
AcDbEntity
  8
0
  6
Continuous
 62
     7
370
    15
100
AcDbLine
 10
247.3280222533
 20
150.8019832066
 30
0.0
 11
235.3563704343
 21
149.8861245548
 31
0.0
  0
ARC
  5
D2
330
1F
100
AcDbEntity
  8
0
  6
Continuous
 62
     7
370
    15
100
AcDbCircle
 10
235.3842845118
 20
149.5143369575
 30
0.0
 40
0.3728340290429509
100
AcDbArc
 50
94.2937518945
 51
175.0733041242
  0
LINE
  5
D3
330
1F
100
AcDbEntity
  8
0
  6
Continuous
 62
     7
370
    15
100
AcDbLine
 10
235.0128279592
 20
149.5463563697
 30
0.0
 11
233.9654441414
 21
137.5862115117
 31
0.0
  0
ARC
  5
D4
330
1F
100
AcDbEntity
  8
0
  6
Continuous
 62
     7
370
    15
100
AcDbCircle
 10
234.3466047305
 20
137.5537876116
 30
0.0
 40
0.3825371928960919
100
AcDbArc
 50
175.1377687674
 51
274.2362029422
  0
LINE
  5
D5
330
1F
100
AcDbEntity
  8
0
  6
Continuous
 62
     7
370
    15
100
AcDbLine
 10
234.3748621202
 20
137.1722955097
 30
0.0
 11
246.3465139392
 21
138.0881541612
 31
0.0
  0
ARC
  5
D6
330
1F
100
AcDbEntity
  8
0
  6
Continuous
 62
     7
370
    15
100
AcDbCircle
 10
246.318599862
 20
138.4599417581
 30
0.0
 40
0.3728340286420598
100
AcDbArc
 50
274.2937518475
 51
355.073304225
  0
LINE
  5
D7
330
1F
100
AcDbEntity
  8
0
  6
Continuous
 62
     7
370
    15
100
AcDbLine
 10
246.6900564142
 20
138.4279223466
 30
0.0
 11
247.7374402321
 21
150.3880672045
 31
0.0
  0
LINE
  5
D8
330
1F
100
AcDbEntity
  8
0
  6
Continuous
 62
     7
370
    15
100
AcDbLine
 10
233.4480739074
 20
137.0933329459
 30
0.0
 11
233.4466076661
 21
137.052527758
 31
0.0
  0
LINE
  5
D9
330
1F
100
AcDbEntity
  8
0
  6
Continuous
 62
     7
370
    15
100
AcDbLine
 10
234.3189915445
 20
137.526330408
 30
0.0
 11
234.3748621202
 21
137.1722955097
 31
0.0
  0
LINE
  5
DA
330
1F
100
AcDbEntity
  8
0
  6
Continuous
 62
     7
370
    15
100
AcDbLine
 10
234.3189915445
 20
137.526330408
 30
0.0
 11
233.9654441414
 21
137.5862115117
 31
0.0
  0
LINE
  5
DB
330
1F
100
AcDbEntity
  8
0
  6
Continuous
 62
     7
370
    15
100
AcDbLine
 10
246.2906433635
 20
138.4421890595
 30
0.0
 11
246.3465139392
 21
138.0881541612
 31
0.0
  0
LINE
  5
DC
330
1F
100
AcDbEntity
  8
0
  6
Continuous
 62
     7
370
    15
100
AcDbLine
 10
235.182541077
 20
138.3801149457
 30
0.0
 11
234.3189915445
 21
137.526330408
 31
0.0
  0
LINE
  5
DD
330
1F
100
AcDbEntity
  8
0
  6
Continuous
 62
     7
370
    15
100
AcDbLine
 10
245.6825838305
 20
138.9817064411
 30
0.0
 11
246.2906433635
 21
138.4421890595
 31
0.0
  0
LINE
  5
DE
330
1F
100
AcDbEntity
  8
0
  6
Continuous
 62
     7
370
    15
100
AcDbLine
 10
245.6056667437
 20
137.5547455505
 30
0.0
 11
245.8506920199
 21
137.5734905426
 31
0.0
  0
LINE
  5
DF
330
1F
100
AcDbEntity
  8
0
  6
Continuous
 62
     7
370
    15
100
AcDbLine
 10
234.4954577253
 20
149.0534778038
 30
0.0
 11
234.4610412143
 21
148.6604733959
 31
0.0
  0
LINE
  5
E0
330
1F
100
AcDbEntity
  8
0
  6
Continuous
 62
     7
370
    15
100
AcDbLine
 10
233.8204268402
 20
141.3452556304
 30
0.0
 11
233.4480739074
 21
137.0933329459
 31
0.0
  0
LINE
  5
E1
330
1F
100
AcDbEntity
  8
0
  6
Continuous
 62
     7
370
    15
100
AcDbLine
 10
235.3663753623
 20
149.4864752659
 30
0.0
 11
235.0128279592
 21
149.5463563697
 31
0.0
  0
LINE
  5
E2
330
1F
100
AcDbEntity
  8
0
  6
Continuous
 62
     7
370
    15
100
AcDbLine
 10
235.8994189727
 20
148.8723529067
 30
0.0
 11
235.3663753623
 21
149.4864752659
 31
0.0
  0
ARC
  5
E3
330
1F
100
AcDbEntity
  8
0
  6
Continuous
 62
     7
370
    15
100
AcDbCircle
 10
237.2206170241
 20
140.3962592735
 30
0.0
 40
1.006676823410627
100
AcDbArc
 50
175.1377687674
 51
274.2362029422
  0
SPLINE
  5
E4
330
1F
100
AcDbEntity
  8
0
  6
Continuous
 62
     7
370
    15
100
AcDbSpline
210
0.0
220
0.0
230
1.0
 70
     8
 71
     3
 72
    11
 73
     7
 74
     0
 42
0.00000001
 43
0.00000001
 12
1.0
 22
0.0
 32
0.0
 13
1.0
 23
0.0
 33
0.0
 40
0.0
 40
0.0
 40
0.0
 40
0.0
 40
0.33678311314128
 40
0.6790111347687346
 40
0.9923717339918519
 40
1.0
 40
1.0
 40
1.0
 40
1.0
 10
235.1825410769691
 20
138.3801149456971
 30
0.0
 10
235.2356055895269
 20
138.4325847861652
 30
0.0
 10
235.3425925300292
 20
138.5383727681845
 30
0.0
 10
235.5149209623943
 20
138.7088289142374
 30
0.0
 10
235.6247896973944
 20
138.8175257473048
 30
0.0
 10
235.6754629232835
 20
138.8676642292924
 30
0.0
 10
235.6766671670703
 20
138.8688557649476
 30
0.0
  0
LINE
  5
E5
330
1F
100
AcDbEntity
  8
0
  6
Continuous
 62
     7
370
    15
100
AcDbLine
 10
237.2949785761
 20
139.3923326893
 30
0.0
 11
243.9950795101
 21
139.9049056825
 31
0.0
  0
LINE
  5
E6
330
1F
100
AcDbEntity
  8
0
  6
Continuous
 62
     7
370
    15
100
AcDbLine
 10
236.8037457185
 20
147.17524623
 30
0.0
 11
236.2175628423
 21
140.4815853263
 31
0.0
  0
ARC
  5
E7
330
1F
100
AcDbEntity
  8
0
  6
Continuous
 62
     7
370
    15
100
AcDbCircle
 10
237.7812629613
 20
147.0909846208
 30
0.0
 40
0.9811421806370588
100
AcDbArc
 50
94.2937518474
 51
175.073304225
  0
LINE
  5
E8
330
1F
100
AcDbEntity
  8
0
  6
Continuous
 62
     7
370
    15
100
AcDbLine
 10
244.4079057974
 20
148.5819460269
 30
0.0
 11
237.7078048634
 21
148.0693730337
 31
0.0
  0
ARC
  5
E9
330
1F
100
AcDbEntity
  8
0
  6
Continuous
 62
     7
370
    15
100
AcDbCircle
 10
244.4822673499
 20
147.578019443
 30
0.0
 40
1.006676823230263
100
AcDbArc
 50
355.1377687515
 51
94.2362029702
  0
LINE
  5
EA
330
1F
100
AcDbEntity
  8
0
  6
Continuous
 62
     7
370
    15
100
AcDbLine
 10
244.8991386549
 20
140.7990324863
 30
0.0
 11
245.4853215314
 21
147.4926933899
 31
0.0
  0
ARC
  5
EB
330
1F
100
AcDbEntity
  8
0
  6
Continuous
 62
     7
370
    15
100
AcDbCircle
 10
243.9216214122
 20
140.8832940954
 30
0.0
 40
0.9811421806370807
100
AcDbArc
 50
274.2937518475
 51
355.073304225
  0
CIRCLE
  5
EC
330
1F
100
AcDbEntity
  8
0
  6
Continuous
 62
     7
370
    15
100
AcDbCircle
 10
240.8550106752
 20
143.9602273927
 30
0.0
 40
2.562414009954653
  0
ARC
  5
ED
330
1F
100
AcDbEntity
  8
0
  6
Continuous
 62
     7
370
    15
100
AcDbCircle
 10
240.3344046859
 20
143.4699236233
 30
0.0
 40
2.585773903983639
100
AcDbArc
 50
354.9118824214
 51
126.3816113226
  0
ARC
  5
EE
330
1F
100
AcDbEntity
  8
0
  6
Continuous
 62
     7
370
    15
100
AcDbCircle
 10
240.3824945421
 20
143.4597252106
 30
0.0
 40
2.536975917634535
100
AcDbArc
 50
322.8535040864
 51
355.0449772607
  0
LINE
  5
EF
330
1F
100
AcDbEntity
  8
0
  6
Continuous
 62
     7
370
    15
100
AcDbLine
 10
247.3380271813
 20
150.4023339174
 30
0.0
 11
247.7374402321
 21
150.3880672045
 31
0.0
  0
LINE
  5
F0
330
1F
100
AcDbEntity
  8
0
  6
Continuous
 62
     7
370
    15
100
AcDbLine
 10
246.2906433635
 20
138.4421890595
 30
0.0
 11
246.6900564142
 21
138.4279223466
 31
0.0
  0
LINE
  5
F1
330
1F
100
AcDbEntity
  8
0
  6
Continuous
 62
     7
370
    15
100
AcDbLine
 10
246.3736447849
 20
149.4482688887
 30
0.0
 11
247.3380271813
 21
150.4023339174
 31
0.0
  0
LINE
  5
F2
330
1F
100
AcDbEntity
  8
0
  6
Continuous
 62
     7
370
    15
100
AcDbLine
 10
235.3663753623
 20
149.4864752659
 30
0.0
 11
235.3563704343
 21
149.8861245548
 31
0.0
  0
LINE
  5
F3
330
1F
100
AcDbEntity
  8
0
  6
Continuous
 62
     7
370
    15
100
AcDbLine
 10
247.3380271813
 20
150.4023339174
 30
0.0
 11
247.3280222533
 21
150.8019832066
 31
0.0
  0
SPLINE
  5
F4
330
1F
100
AcDbEntity
  8
0
  6
Continuous
 62
     7
370
    15
100
AcDbSpline
210
0.0
220
0.0
230
1.0
 70
     8
 71
     3
 72
    11
 73
     7
 74
     0
 42
0.00000001
 43
0.00000001
 12
1.0
 22
0.0
 32
0.0
 13
1.0
 23
0.0
 33
0.0
 40
0.0
 40
0.0
 40
0.0
 40
0.0
 40
0.008116439103132
 40
0.3263678516910836
 40
0.6627685813469953
 40
1.0
 40
1.0
 40
1.0
 40
1.0
 10
245.1998399185408
 20
139.4802308537545
 30
0.0
 10
245.2009247467649
 20
139.4789310277725
 30
0.0
 10
245.2445464695958
 20
139.4266640905169
 30
0.0
 10
245.3432800135328
 20
139.3144772964297
 30
0.0
 10
245.5110430564402
 20
139.1393562106501
 30
0.0
 10
245.6253565839083
 20
139.0342995478024
 30
0.0
 10
245.6825838304642
 20
138.9817064411046
 30
0.0
  0
SPLINE
  5
F5
330
1F
100
AcDbEntity
  8
0
  6
Continuous
 62
     7
370
    15
100
AcDbSpline
210
0.0
220
0.0
230
1.0
 70
     8
 71
     3
 72
    11
 73
     7
 74
     0
 42
0.00000001
 43
0.00000001
 12
1.0
 22
0.0
 32
0.0
 13
1.0
 23
0.0
 33
0.0
 40
0.0
 40
0.0
 40
0.0
 40
0.0
 40
0.3372314186521299
 40
0.6736321483071415
 40
0.9918835608968714
 40
1.0
 40
1.0
 40
1.0
 40
1.0
 10
235.8994189726674
 20
148.8723529066747
 30
0.0
 10
235.9513978136905
 20
148.8145401457588
 30
0.0
 10
236.0552274582854
 20
148.6990570318455
 30
0.0
 10
236.2284902876419
 20
148.5294056041085
 30
0.0
 10
236.339558385995
 20
148.4294857944571
 30
0.0
 10
236.3913236497951
 20
148.3853177870003
 30
0.0
 10
236.3926109996646
 20
148.384219373229
 30
0.0
  0
ARC
  5
F6
330
1F
100
AcDbEntity
  8
0
  6
Continuous
 62
     7
370
    15
100
AcDbCircle
 10
245.8212016998
 20
137.9652249115
 30
0.0
 40
0.392842837195849
100
AcDbArc
 50
274.3051870636
 51
314.8150684317
  0
ARC
  5
F7
330
1F
100
AcDbEntity
  8
0
  6
Continuous
 62
     7
370
    15
100
AcDbCircle
 10
234.8870411565
 20
149.0195707853
 30
0.0
 40
0.3930486859066459
100
AcDbArc
 50
134.8817616344
 51
175.0511301793
  0
SPLINE
  5
F8
330
1F
100
AcDbEntity
  8
0
  6
Continuous
 62
     7
370
    15
100
AcDbSpline
210
0.0
220
0.0
230
1.0
 70
     8
 71
     3
 72
    11
 73
     7
 74
     0
 42
0.00000001
 43
0.00000001
 12
1.0
 22
0.0
 32
0.0
 13
1.0
 23
0.0
 33
0.0
 40
0.0
 40
0.0
 40
0.0
 40
0.0
 40
0.0076282660081525
 40
0.3209888652310372
 40
0.6632168868585777
 40
1.0
 40
1.0
 40
1.0
 40
1.0
 10
245.8952725126487
 20
148.97519558626
 30
0.0
 10
245.8962871678942
 20
148.9761985719598
 30
0.0
 10
245.9389827209207
 20
149.0184030836108
 30
0.0
 10
246.0360858723287
 20
149.1144042642896
 30
0.0
 10
246.2007966618838
 20
149.2772844977764
 30
0.0
 10
246.3163375801099
 20
149.3915795979349
 30
0.0
 10
246.3736447848711
 20
149.4482688886948
 30
0.0
  0
ELLIPSE
  5
F9
330
1F
100
AcDbEntity
  8
0
  6
HIDDEN
 62
     7
370
     0
100
AcDbEllipse
 10
238.9891699988
 20
105.8229738781
 30
0.0
 11
22.41445668029261
 21
31.49663578142514
 31
0.0
210
0.0
220
0.0
230
1.0
 40
0.0205386817
 41
2.552660750936061
 42
3.156207884742678
  0
SPLINE
  5
FA
330
1F
100
AcDbEntity
  8
0
  6
HIDDEN
 62
     7
370
     0
100
AcDbSpline
210
0.0
220
0.0
230
1.0
 70
     8
 71
     3
 72
    12
 73
     8
 74
     0
 42
0.00000001
 43
0.00000001
 12
1.0
 22
0.0
 32
0.0
 13
1.0
 23
0.0
 33
0.0
 40
0.0
 40
0.0
 40
0.0
 40
0.0
 40
0.4999999999999972
 40
0.4999999999999972
 40
0.7499999999999986
 40
0.7499999999999986
 40
1.0
 40
1.0
 40
1.0
 40
1.0
 10
192.8535128749551
 20
135.7237163382582
 30
0.0
 10
192.8842351168742
 20
135.7610183212112
 30
0.0
 10
192.9270723314093
 20
135.7976301532576
 30
0.0
 10
193.0264993556091
 20
135.8453949365428
 30
0.0
 10
193.0662515504258
 20
135.8603524520252
 30
0.0
 10
193.164293007284
 20
135.8835423977943
 30
0.0
 10
193.2238490628715
 20
135.891465837014
 30
0.0
 10
193.2865255768473
 20
135.891465837014
 30
0.0
  0
LINE
  5
FB
330
1F
100
AcDbEntity
  8
0
  6
HIDDEN
 62
     7
370
     0
100
AcDbLine
 10
193.2865255768
 20
135.891465837
 30
0.0
 11
196.2310119497
 21
135.891465837
 31
0.0
  0
SPLINE
  5
FC
330
1F
100
AcDbEntity
  8
0
  6
HIDDEN
 62
     7
370
     0
100
AcDbSpline
210
0.0
220
0.0
230
1.0
 70
     8
 71
     3
 72
    12
 73
     8
 74
     0
 42
0.00000001
 43
0.00000001
 12
1.0
 22
0.0
 32
0.0
 13
1.0
 23
0.0
 33
0.0
 40
0.0
 40
0.0
 40
0.0
 40
0.0
 40
0.25
 40
0.25
 40
0.5
 40
0.5
 40
1.0
 40
1.0
 40
1.0
 40
1.0
 10
196.2310119497144
 20
135.891465837014
 30
0.0
 10
196.2940919882078
 20
135.891465837014
 30
0.0
 10
196.3532406103892
 20
135.8835599108016
 30
0.0
 10
196.4517131604583
 20
135.8602347493654
 30
0.0
 10
196.490749772443
 20
135.8455219595337
 30
0.0
 10
196.590646239222
 20
135.7975661588027
 30
0.0
 10
196.6330671202887
 20
135.7613040022227
 30
0.0
 10
196.6640246516066
 20
135.7237163382582
 30
0.0
  0
ELLIPSE
  5
FD
330
1F
100
AcDbEntity
  8
0
  6
HIDDEN
 62
     7
370
     0
100
AcDbEllipse
 10
180.4116145739
 20
105.8229738781
 30
0.0
 11
14.75368316065626
 21
31.09325491558118
 31
0.0
210
0.0
220
0.0
230
1.0
 40
0.3419987131
 41
5.193281737408638
 42
6.124043104552343
  0
SPLINE
  5
FE
330
1F
100
AcDbEntity
  8
0
  6
HIDDEN
 62
     7
370
     0
100
AcDbSpline
210
0.0
220
0.0
230
1.0
 70
     8
 71
     3
 72
    12
 73
     8
 74
     0
 42
0.00000001
 43
0.00000001
 12
1.0
 22
0.0
 32
0.0
 13
1.0
 23
0.0
 33
0.0
 40
0.0
 40
0.0
 40
0.0
 40
0.0
 40
0.499999999999999
 40
0.499999999999999
 40
0.7499999999999994
 40
0.7499999999999994
 40
1.0
 40
1.0
 40
1.0
 40
1.0
 10
196.6640246516066
 20
115.7323431988265
 30
0.0
 10
196.6333024096875
 20
115.6197873994173
 30
0.0
 10
196.5904651951524
 20
115.5070295396777
 30
0.0
 10
196.4910381709526
 20
115.3574886538813
 30
0.0
 10
196.4512859761359
 20
115.3101959221745
 30
0.0
 10
196.3532445192777
 20
115.236459628853
 30
0.0
 10
196.2936884636902
 20
115.2110403094773
 30
0.0
 10
196.2310119497144
 20
115.2110403094773
 30
0.0
  0
LINE
  5
FF
330
1F
100
AcDbEntity
  8
0
  6
HIDDEN
 62
     7
370
     0
100
AcDbLine
 10
196.2310119497
 20
115.2110403095
 30
0.0
 11
193.2865255768
 21
115.2110403095
 31
0.0
  0
SPLINE
  5
100
330
1F
100
AcDbEntity
  8
0
  6
HIDDEN
 62
     7
370
     0
100
AcDbSpline
210
0.0
220
0.0
230
1.0
 70
     8
 71
     3
 72
    12
 73
     8
 74
     0
 42
0.00000001
 43
0.00000001
 12
1.0
 22
0.0
 32
0.0
 13
1.0
 23
0.0
 33
0.0
 40
0.0
 40
0.0
 40
0.0
 40
0.0
 40
0.2500000000000018
 40
0.2500000000000018
 40
0.5000000000000037
 40
0.5000000000000037
 40
1.0
 40
1.0
 40
1.0
 40
1.0
 10
193.2865255768473
 20
115.2110403094773
 30
0.0
 10
193.2234455383539
 20
115.2110403094773
 30
0.0
 10
193.1642969161725
 20
115.2364046286923
 30
0.0
 10
193.0658243661035
 20
115.3105694890652
 30
0.0
 10
193.0267877541187
 20
115.3570898296193
 30
0.0
 10
192.9268912873397
 20
115.5072321724645
 30
0.0
 10
192.8844704062731
 20
115.6189253794367
 30
0.0
 10
192.8535128749551
 20
115.7323431988265
 30
0.0
  0
ELLIPSE
  5
101
330
1F
100
AcDbEntity
  8
0
  6
HIDDEN
 62
     7
370
     0
100
AcDbEllipse
 10
209.1059229526
 20
105.8229738781
 30
0.0
 11
-14.75368316065627
 21
31.09325491558116
 31
0.0
210
0.0
220
0.0
230
1.0
 40
0.3419987131
 41
0.1591422026272858
 42
1.089903569770961
  0
SPLINE
  5
102
330
1F
100
AcDbEntity
  8
0
  6
HIDDEN
 62
     7
370
     0
100
AcDbSpline
210
0.0
220
0.0
230
1.0
 70
     8
 71
     3
 72
    12
 73
     8
 74
     0
 42
0.00000001
 43
0.00000001
 12
1.0
 22
0.0
 32
0.0
 13
1.0
 23
0.0
 33
0.0
 40
0.0
 40
0.0
 40
0.0
 40
0.0
 40
0.4999999999999981
 40
0.4999999999999981
 40
0.749999999999999
 40
0.749999999999999
 40
1.0
 40
1.0
 40
1.0
 40
1.0
 10
192.8535128749551
 20
95.91360455745563
 30
0.0
 10
192.8842351168742
 20
96.02616035686479
 30
0.0
 10
192.9270723314093
 20
96.1389182166044
 30
0.0
 10
193.0264993556091
 20
96.28845910240075
 30
0.0
 10
193.0662515504258
 20
96.33575183410761
 30
0.0
 10
193.164293007284
 20
96.40948812742906
 30
0.0
 10
193.2238490628715
 20
96.43490744680476
 30
0.0
 10
193.2865255768473
 20
96.43490744680476
 30
0.0
  0
LINE
  5
103
330
1F
100
AcDbEntity
  8
0
  6
HIDDEN
 62
     7
370
     0
100
AcDbLine
 10
193.2865255768
 20
96.4349074468
 30
0.0
 11
196.2310119497
 21
96.4349074468
 31
0.0
  0
SPLINE
  5
104
330
1F
100
AcDbEntity
  8
0
  6
HIDDEN
 62
     7
370
     0
100
AcDbSpline
210
0.0
220
0.0
230
1.0
 70
     8
 71
     3
 72
    12
 73
     8
 74
     0
 42
0.00000001
 43
0.00000001
 12
1.0
 22
0.0
 32
0.0
 13
1.0
 23
0.0
 33
0.0
 40
0.0
 40
0.0
 40
0.0
 40
0.0
 40
0.2500000000000009
 40
0.2500000000000009
 40
0.5000000000000018
 40
0.5000000000000018
 40
1.0
 40
1.0
 40
1.0
 40
1.0
 10
196.2310119497144
 20
96.43490744680476
 30
0.0
 10
196.2940919882078
 20
96.43490744680476
 30
0.0
 10
196.3532406103892
 20
96.40954312758983
 30
0.0
 10
196.4517131604583
 20
96.33537826721691
 30
0.0
 10
196.490749772443
 20
96.28885792666279
 30
0.0
 10
196.590646239222
 20
96.13871558381753
 30
0.0
 10
196.6330671202887
 20
96.02702237684538
 30
0.0
 10
196.6640246516066
 20
95.91360455745563
 30
0.0
  0
ELLIPSE
  5
105
330
1F
100
AcDbEntity
  8
0
  6
HIDDEN
 62
     7
370
     0
100
AcDbEllipse
 10
180.4116145739
 20
105.8229738781
 30
0.0
 11
-14.75368316065612
 21
31.09325491558118
 31
0.0
210
0.0
220
0.0
230
1.0
 40
0.3419987131
 41
3.300734856217131
 42
4.231496223360779
  0
SPLINE
  5
106
330
1F
100
AcDbEntity
  8
0
  6
HIDDEN
 62
     7
370
     0
100
AcDbSpline
210
0.0
220
0.0
230
1.0
 70
     8
 71
     3
 72
    12
 73
     8
 74
     0
 42
0.00000001
 43
0.00000001
 12
1.0
 22
0.0
 32
0.0
 13
1.0
 23
0.0
 33
0.0
 40
0.0
 40
0.0
 40
0.0
 40
0.0
 40
0.5000000000000019
 40
0.5000000000000019
 40
0.7500000000000009
 40
0.7500000000000009
 40
1.0
 40
1.0
 40
1.0
 40
1.0
 10
196.6640246516066
 20
75.92223141802363
 30
0.0
 10
196.6333024096876
 20
75.88492943507056
 30
0.0
 10
196.5904651951524
 20
75.84831760302419
 30
0.0
 10
196.4910381709526
 20
75.80055281973898
 30
0.0
 10
196.4512859761359
 20
75.7855953042566
 30
0.0
 10
196.3532445192777
 20
75.76240535848747
 30
0.0
 10
196.2936884636902
 20
75.75448191926775
 30
0.0
 10
196.2310119497144
 20
75.75448191926776
 30
0.0
  0
LINE
  5
107
330
1F
100
AcDbEntity
  8
0
  6
HIDDEN
 62
     7
370
     0
100
AcDbLine
 10
196.2310119497
 20
75.7544819193
 30
0.0
 11
193.2865255768
 21
75.7544819193
 31
0.0
  0
SPLINE
  5
108
330
1F
100
AcDbEntity
  8
0
  6
HIDDEN
 62
     7
370
     0
100
AcDbSpline
210
0.0
220
0.0
230
1.0
 70
     8
 71
     3
 72
    12
 73
     8
 74
     0
 42
0.00000001
 43
0.00000001
 12
1.0
 22
0.0
 32
0.0
 13
1.0
 23
0.0
 33
0.0
 40
0.0
 40
0.0
 40
0.0
 40
0.0
 40
0.2499999999999999
 40
0.2499999999999999
 40
0.4999999999999999
 40
0.4999999999999999
 40
1.0
 40
1.0
 40
1.0
 40
1.0
 10
193.2865255768473
 20
75.75448191926776
 30
0.0
 10
193.2234455383539
 20
75.75448191926776
 30
0.0
 10
193.1642969161725
 20
75.76238784548019
 30
0.0
 10
193.0658243661034
 20
75.78571300691644
 30
0.0
 10
193.0267877541187
 20
75.80042579674812
 30
0.0
 10
192.9268912873397
 20
75.84838159747906
 30
0.0
 10
192.884470406273
 20
75.88464375405913
 30
0.0
 10
192.8535128749551
 20
75.92223141802363
 30
0.0
  0
ELLIPSE
  5
109
330
1F
100
AcDbEntity
  8
0
  6
HIDDEN
 62
     7
370
     0
100
AcDbEllipse
 10
209.1059229526
 20
105.8229738781
 30
0.0
 11
14.75368316065615
 21
31.09325491558116
 31
0.0
210
0.0
220
0.0
230
1.0
 40
0.3419987131
 41
2.051689083818819
 42
2.982450450962496
  0
SPLINE
  5
10A
330
1F
100
AcDbEntity
  8
0
  6
HIDDEN
 62
     7
370
     0
100
AcDbSpline
210
0.0
220
0.0
230
1.0
 70
     8
 71
     3
 72
    60
 73
    56
 74
     0
 42
0.00000001
 43
0.00000001
 12
1.0
 22
0.0
 32
0.0
 13
1.0
 23
0.0
 33
0.0
 40
-0.0625000000000004
 40
-0.0625000000000004
 40
0.0
 40
0.0
 40
0.0312499999999999
 40
0.0312499999999999
 40
0.0624999999999997
 40
0.0624999999999997
 40
0.0937499999999996
 40
0.0937499999999996
 40
0.1249999999999994
 40
0.1249999999999994
 40
0.1874999999999991
 40
0.1874999999999991
 40
0.2499999999999988
 40
0.2499999999999988
 40
0.2812499999999988
 40
0.2812499999999988
 40
0.3124999999999988
 40
0.3124999999999988
 40
0.3437499999999988
 40
0.3437499999999988
 40
0.3749999999999989
 40
0.3749999999999989
 40
0.4062499999999989
 40
0.4062499999999989
 40
0.4374999999999989
 40
0.4374999999999989
 40
0.4687499999999989
 40
0.4687499999999989
 40
0.4999999999999989
 40
0.4999999999999989
 40
0.5624999999999988
 40
0.5624999999999988
 40
0.6249999999999988
 40
0.6249999999999988
 40
0.6562499999999989
 40
0.6562499999999989
 40
0.6874999999999989
 40
0.6874999999999989
 40
0.718749999999999
 40
0.718749999999999
 40
0.7499999999999991
 40
0.7499999999999991
 40
0.7812499999999992
 40
0.7812499999999992
 40
0.8124999999999992
 40
0.8124999999999992
 40
0.8437499999999993
 40
0.8437499999999993
 40
0.8749999999999994
 40
0.8749999999999994
 40
0.9062499999999996
 40
0.9062499999999996
 40
0.9374999999999996
 40
0.9374999999999996
 40
1.0
 40
1.0
 40
1.03125
 40
1.03125
 10
196.7587687632809
 20
105.5586433530541
 30
0.0
 10
196.7587687632809
 20
105.9551391406842
 30
0.0
 10
196.7457969047921
 20
106.0850892016883
 30
0.0
 10
196.6949767350997
 20
106.3407421350484
 30
0.0
 10
196.6565094116327
 20
106.4677716415977
 30
0.0
 10
196.5561111755606
 20
106.7099597727222
 30
0.0
 10
196.4946781445875
 20
106.8248212652751
 30
0.0
 10
196.3495433130425
 20
107.0422014610993
 30
0.0
 10
196.2650881956347
 20
107.1450990282979
 30
0.0
 10
195.9883687452764
 20
107.4217660673057
 30
0.0
 10
195.7652918533583
 20
107.5707641577856
 30
0.0
 10
195.284008491138
 20
107.7702752982503
 30
0.0
 10
195.020778072147
 20
107.822833401247
 30
0.0
 10
194.6293758704591
 20
107.8230436836251
 30
0.0
 10
194.4968528423502
 20
107.810057912898
 30
0.0
 10
194.2403223891091
 20
107.7590307646842
 30
0.0
 10
194.1156355548125
 20
107.7212755655338
 30
0.0
 10
193.873456292577
 20
107.621137232625
 30
0.0
 10
193.7563627604269
 20
107.5585315652135
 30
0.0
 10
193.5396477570715
 20
107.4137982719486
 30
0.0
 10
193.4386289302088
 20
107.331170924669
 30
0.0
 10
193.2518440427566
 20
107.1445658714174
 30
0.0
 10
193.1689871615604
 20
107.0434508075412
 30
0.0
 10
193.0241028964866
 20
106.8269180035514
 30
0.0
 10
192.9614653886657
 20
106.7100477959503
 30
0.0
 10
192.8610165652659
 20
106.4677499253001
 30
0.0
 10
192.8231654642487
 20
106.3430859268391
 30
0.0
 10
192.7719438989923
 20
106.0867988827753
 30
0.0
 10
192.7588157723751
 20
105.9542268870297
 30
0.0
 10
192.7586751320349
 20
105.5626226942557
 30
0.0
 10
192.8109998814067
 20
105.2994573629317
 30
0.0
 10
193.010110943464
 20
104.8179519937586
 30
0.0
 10
193.1589732799212
 20
104.5947004542745
 30
0.0
 10
193.4352942392467
 20
104.3178441553856
 30
0.0
 10
193.5380578876203
 20
104.2333307085419
 30
0.0
 10
193.7554414449997
 20
104.0879134351017
 30
0.0
 10
193.8702402129562
 20
104.0264022360433
 30
0.0
 10
194.1121169363802
 20
103.9258723877885
 30
0.0
 10
194.2392705443804
 20
103.8872273645705
 30
0.0
 10
194.494936553813
 20
103.8361710370195
 30
0.0
 10
194.624802591569
 20
103.8231061784739
 30
0.0
 10
194.8887551183007
 20
103.8228435576759
 30
0.0
 10
195.0191594417247
 20
103.83572055792
 30
0.0
 10
195.2748102051041
 20
103.8863065617257
 30
0.0
 10
195.4016757542184
 20
103.9245829263476
 30
0.0
 10
195.6441962121644
 20
104.0248537938276
 30
0.0
 10
195.7591228508247
 20
104.0862098179685
 30
0.0
 10
195.9764943196567
 20
104.2310561131413
 30
0.0
 10
196.0795081323189
 20
104.3154336276359
 30
0.0
 10
196.2642086779009
 20
104.4998409478242
 30
0.0
 10
196.3470384121574
 20
104.6004140110936
 30
0.0
 10
196.493290850755
 20
104.8186401516726
 30
0.0
 10
196.5556593315473
 20
104.9351952615939
 30
0.0
 10
196.7056154831141
 20
105.2960448556277
 30
0.0
 10
196.7587687632809
 20
105.5586433530541
 30
0.0
 10
196.7587687632809
 20
105.9551391406842
 30
0.0
  0
LINE
  5
10B
330
1F
100
AcDbEntity
  8
0
  6
HIDDEN
 62
     7
370
     0
100
AcDbLine
 10
182.7587687633
 20
74.8229738781
 30
0.0
 11
182.7587687633
 21
136.8229738781
 31
0.0
  0
LWPOLYLINE
  5
10C
330
1F
100
AcDbEntity
  8
0
  6
HIDDEN
 62
     7
370
     0
100
AcDbPolyline
 90
       29
 70
   128
 43
0.0
 10
203.7587687633
 20
120.6710500895
 10
204.4263315651
 20
120.6059108946
 10
205.0604199806
 20
120.413759661
 10
205.6292381689
 20
120.104231654
 10
206.1042632107
 20
119.6928479004
 10
206.461675367
 20
119.2002368992
 10
206.6835524998
 20
118.6511002232
 10
206.7587687633
 20
118.0729738781
 10
206.6835524998
 20
117.4948475331
 10
206.461675367
 20
116.945710857
 10
206.1042632107
 20
116.4530998559
 10
205.6292381689
 20
116.0417161023
 10
205.0604199806
 20
115.7321880953
 10
204.4263315651
 20
115.5400368617
 10
203.7587687633
 20
115.4748976668
 10
203.0912059614
 20
115.5400368617
 10
202.4571175459
 20
115.7321880953
 10
201.8882993577
 20
116.0417161023
 10
201.4132743159
 20
116.4530998559
 10
201.0558621596
 20
116.945710857
 10
200.8339850267
 20
117.4948475331
 10
200.7587687633
 20
118.0729738781
 10
200.8339850267
 20
118.6511002232
 10
201.0558621596
 20
119.2002368992
 10
201.4132743159
 20
119.6928479004
 10
201.8882993577
 20
120.104231654
 10
202.4571175459
 20
120.413759661
 10
203.0912059614
 20
120.6059108946
 10
203.7587687633
 20
120.6710500895
  0
LINE
  5
10D
330
1F
100
AcDbEntity
  8
0
  6
HIDDEN
 62
     7
370
     0
100
AcDbLine
 10
182.7587687633
 20
81.5729738781
 30
0.0
 11
182.7587687633
 21
130.0547367264
 31
0.0
  0
SPLINE
  5
10E
330
1F
100
AcDbEntity
  8
0
  6
HIDDEN
 62
     7
370
     0
100
AcDbSpline
210
0.0
220
0.0
230
1.0
 70
     8
 71
     3
 72
    12
 73
     8
 74
     0
 42
0.00000001
 43
0.00000001
 12
1.0
 22
0.0
 32
0.0
 13
1.0
 23
0.0
 33
0.0
 40
0.0
 40
0.0
 40
0.0
 40
0.0
 40
0.4999999999999993
 40
0.4999999999999993
 40
0.7499999999999997
 40
0.7499999999999997
 40
1.0
 40
1.0
 40
1.0
 40
1.0
 10
181.9422564768338
 20
121.2752418599717
 30
0.0
 10
181.9986626555141
 20
121.2274194863119
 30
0.0
 10
182.0688255569859
 20
121.1871486393733
 30
0.0
 10
182.186836270375
 20
121.1791027708964
 30
0.0
 10
182.2270420539705
 20
121.1856653692352
 30
0.0
 10
182.3007627507036
 20
121.2130474636889
 30
0.0
 10
182.3336234724901
 20
121.2328089542192
 30
0.0
 10
182.3637918744193
 20
121.2557416654073
 30
0.0
  0
SPLINE
  5
10F
330
1F
100
AcDbEntity
  8
0
  6
HIDDEN
 62
     7
370
     0
100
AcDbSpline
210
0.0
220
0.0
230
1.0
 70
     8
 71
     3
 72
    16
 73
    12
 74
     0
 42
0.00000001
 43
0.00000001
 12
1.0
 22
0.0
 32
0.0
 13
1.0
 23
0.0
 33
0.0
 40
0.0
 40
0.0
 40
0.0
 40
0.0
 40
0.0624999999999977
 40
0.0624999999999977
 40
0.1249999999999954
 40
0.1249999999999954
 40
0.2499999999999973
 40
0.2499999999999973
 40
0.4999999999999948
 40
0.4999999999999948
 40
1.0
 40
1.0
 40
1.0
 40
1.0
 10
182.3637918743742
 20
121.2557416654553
 30
0.0
 10
182.3754047742136
 20
121.2645692884367
 30
0.0
 10
182.388755958646
 20
121.2724036703187
 30
0.0
 10
182.4181557982652
 20
121.280713796391
 30
0.0
 10
182.4329965228205
 20
121.280217977156
 30
0.0
 10
182.4688297307891
 20
121.2687670061867
 30
0.0
 10
182.4829429386107
 20
121.252086505328
 30
0.0
 10
182.5174343098296
 20
121.199965819571
 30
0.0
 10
182.52851838094
 20
121.160176325546
 30
0.0
 10
182.554641198736
 20
121.0368396934489
 30
0.0
 10
182.5587687632809
 20
120.9494182829502
 30
0.0
 10
182.5587687632809
 20
120.860681040632
 30
0.0
  0
LINE
  5
110
330
1F
100
AcDbEntity
  8
0
  6
HIDDEN
 62
     7
370
     0
100
AcDbLine
 10
182.5587687633
 20
90.7852667156
 30
0.0
 11
182.5587687633
 21
120.8606810406
 31
0.0
  0
SPLINE
  5
111
330
1F
100
AcDbEntity
  8
0
  6
HIDDEN
 62
     7
370
     0
100
AcDbSpline
210
0.0
220
0.0
230
1.0
 70
     8
 71
     3
 72
    16
 73
    12
 74
     0
 42
0.00000001
 43
0.00000001
 12
1.0
 22
0.0
 32
0.0
 13
1.0
 23
0.0
 33
0.0
 40
0.0
 40
0.0
 40
0.0
 40
0.0
 40
0.4999999999999989
 40
0.4999999999999989
 40
0.7499999999999983
 40
0.7499999999999983
 40
0.8750000000000001
 40
0.8750000000000001
 40
0.9375000000000001
 40
0.9375000000000001
 40
1.0
 40
1.0
 40
1.0
 40
1.0
 10
182.5587687632809
 20
90.78526671564966
 30
0.0
 10
182.5587687632809
 20
90.69614035046092
 30
0.0
 10
182.5546224882029
 20
90.6092789828475
 30
0.0
 10
182.5286568928094
 20
90.48629673635347
 30
0.0
 10
182.5171959874319
 20
90.44552544112219
 30
0.0
 10
182.4828842496576
 20
90.3938211211224
 30
0.0
 10
182.4688595137279
 20
90.37715075453201
 30
0.0
 10
182.4328365506942
 20
90.36569853407528
 30
0.0
 10
182.4180820416045
 20
90.36524548780027
 30
0.0
 10
182.3887298804576
 20
90.37356080901642
 30
0.0
 10
182.3753900059536
 20
90.38138969409471
 30
0.0
 10
182.3637918744052
 20
90.39020609085735
 30
0.0
  0
SPLINE
  5
112
330
1F
100
AcDbEntity
  8
0
  6
HIDDEN
 62
     7
370
     0
100
AcDbSpline
210
0.0
220
0.0
230
1.0
 70
     8
 71
     3
 72
    12
 73
     8
 74
     0
 42
0.00000001
 43
0.00000001
 12
1.0
 22
0.0
 32
0.0
 13
1.0
 23
0.0
 33
0.0
 40
0.0
 40
0.0
 40
0.0
 40
0.0
 40
0.2500000000000002
 40
0.2500000000000002
 40
0.5000000000000001
 40
0.5000000000000001
 40
1.0
 40
1.0
 40
1.0
 40
1.0
 10
182.3637918744123
 20
90.39020609086623
 30
0.0
 10
182.3336000326951
 20
90.41315661996406
 30
0.0
 10
182.3002410632805
 20
90.43312609398825
 30
0.0
 10
182.2271037786998
 20
90.46022722761374
 30
0.0
 10
182.1868619060459
 20
90.46682796825918
 30
0.0
 10
182.0691561290774
 20
90.45885909375247
 30
0.0
 10
181.998745651298
 20
90.4185986355846
 30
0.0
 10
181.9422564768297
 20
90.37070589630645
 30
0.0
  0
SPLINE
  5
113
330
1F
100
AcDbEntity
  8
0
  6
HIDDEN
 62
     7
370
     0
100
AcDbSpline
210
0.0
220
0.0
230
1.0
 70
     8
 71
     3
 72
    12
 73
     8
 74
     0
 42
0.00000001
 43
0.00000001
 12
1.0
 22
0.0
 32
0.0
 13
1.0
 23
0.0
 33
0.0
 40
0.0
 40
0.0
 40
0.0
 40
0.0
 40
0.249999999999999
 40
0.249999999999999
 40
0.4999999999999981
 40
0.4999999999999981
 40
1.0
 40
1.0
 40
1.0
 40
1.0
 10
181.9422564768293
 20
90.37070589630665
 30
0.0
 10
181.8541025390916
 20
90.29596708845256
 30
0.0
 10
181.7937491144629
 20
90.20498658797015
 30
0.0
 10
181.687487156396
 20
90.01607276521757
 30
0.0
 10
181.645254989834
 20
89.91956830567699
 30
0.0
 10
181.5341842945168
 20
89.62880055150984
 30
0.0
 10
181.48124751809
 20
89.4331337369661
 30
0.0
 10
181.4374484197212
 20
89.23906725189978
 30
0.0
  0
SPLINE
  5
114
330
1F
100
AcDbEntity
  8
0
  6
HIDDEN
 62
     7
370
     0
100
AcDbSpline
210
0.0
220
0.0
230
1.0
 70
     8
 71
     3
 72
    12
 73
     8
 74
     0
 42
0.00000001
 43
0.00000001
 12
1.0
 22
0.0
 32
0.0
 13
1.0
 23
0.0
 33
0.0
 40
0.0
 40
0.0
 40
0.0
 40
0.0
 40
0.4999999999999991
 40
0.4999999999999991
 40
0.7499999999999996
 40
0.7499999999999996
 40
1.0
 40
1.0
 40
1.0
 40
1.0
 10
181.4374484197212
 20
84.05289292313873
 30
0.0
 10
181.4811949605578
 20
84.02629875249754
 30
0.0
 10
181.5340793157893
 20
84.00653852717181
 30
0.0
 10
181.6456464031255
 20
83.98608753694275
 30
0.0
 10
181.6882299996684
 20
83.9808273122863
 30
0.0
 10
181.7931467267502
 20
83.97294451836365
 30
0.0
 10
181.854680334595
 20
83.9703803931845
 30
0.0
 10
181.9422564768212
 20
83.96818017566484
 30
0.0
  0
LINE
  5
115
330
1F
100
AcDbEntity
  8
0
  6
HIDDEN
 62
     7
370
     0
100
AcDbLine
 10
182.5587687633
 20
83.2831535993
 30
0.0
 11
182.5587687633
 21
83.7633793899
 31
0.0
  0
LINE
  5
116
330
1F
100
AcDbEntity
  8
0
  6
HIDDEN
 62
     7
370
     0
100
AcDbLine
 10
182.5587687633
 20
127.8825683664
 30
0.0
 11
182.5587687633
 21
128.362794157
 31
0.0
  0
SPLINE
  5
117
330
1F
100
AcDbEntity
  8
0
  6
HIDDEN
 62
     7
370
     0
100
AcDbSpline
210
0.0
220
0.0
230
1.0
 70
     8
 71
     3
 72
    12
 73
     8
 74
     0
 42
0.00000001
 43
0.00000001
 12
1.0
 22
0.0
 32
0.0
 13
1.0
 23
0.0
 33
0.0
 40
0.0
 40
0.0
 40
0.0
 40
0.0
 40
0.2500000000000004
 40
0.2500000000000004
 40
0.5000000000000009
 40
0.5000000000000009
 40
1.0
 40
1.0
 40
1.0
 40
1.0
 10
181.9422564768292
 20
127.6777675806167
 30
0.0
 10
181.8535718169728
 20
127.6755395132758
 30
0.0
 10
181.7936534012494
 20
127.6730377292454
 30
0.0
 10
181.6879941739286
 20
127.6651062934094
 30
0.0
 10
181.6453529358137
 20
127.6598141385126
 30
0.0
 10
181.5341635937112
 20
127.6394091980254
 30
0.0
 10
181.4812369115902
 20
127.6196745064386
 30
0.0
 10
181.4374484197212
 20
127.5930548331429
 30
0.0
  0
SPLINE
  5
118
330
1F
100
AcDbEntity
  8
0
  6
HIDDEN
 62
     7
370
     0
100
AcDbSpline
210
0.0
220
0.0
230
1.0
 70
     8
 71
     3
 72
    12
 73
     8
 74
     0
 42
0.00000001
 43
0.00000001
 12
1.0
 22
0.0
 32
0.0
 13
1.0
 23
0.0
 33
0.0
 40
0.0
 40
0.0
 40
0.0
 40
0.0
 40
0.499999999999998
 40
0.499999999999998
 40
0.749999999999999
 40
0.749999999999999
 40
1.0
 40
1.0
 40
1.0
 40
1.0
 10
181.4374484197197
 20
122.4068805043821
 30
0.0
 10
181.4812098960184
 20
122.21298071642
 30
0.0
 10
181.5341162116714
 20
122.0171243524831
 30
0.0
 10
181.6458274093188
 20
121.7249822059842
 30
0.0
 10
181.6883468529052
 20
121.6282642692863
 30
0.0
 10
181.7934701954726
 20
121.4415398328618
 30
0.0
 10
181.8550361591903
 20
121.3491891245921
 30
0.0
 10
181.942256476833
 20
121.2752418599724
 30
0.0
  0
LWPOLYLINE
  5
119
330
1F
100
AcDbEntity
  8
0
  6
HIDDEN
 62
     7
370
     0
100
AcDbPolyline
 90
       27
 70
   128
 43
0.0
 10
203.7587687633
 20
120.0878222328
 10
204.357057924
 20
120.0249094221
 10
204.9205766934
 20
119.8398272538
 10
205.4165754089
 20
119.5433320307
 10
205.816228428
 20
119.1526549775
 10
206.09630937
 20
118.6905008246
 10
206.2405409485
 20
118.1837282914
 10
206.2405409485
 20
117.6617891554
 10
206.09630937
 20
117.1550166222
 10
205.816228428
 20
116.6928624692
 10
205.4165754089
 20
116.3021854161
 10
204.9205766934
 20
116.005690193
 10
204.357057924
 20
115.8206080247
 10
203.7587687633
 20
115.7576952139
 10
203.1604796026
 20
115.8206080247
 10
202.5969608332
 20
116.005690193
 10
202.1009621177
 20
116.3021854161
 10
201.7013090985
 20
116.6928624692
 10
201.4212281566
 20
117.1550166222
 10
201.276996578
 20
117.6617891554
 10
201.276996578
 20
118.1837282914
 10
201.4212281566
 20
118.6905008246
 10
201.7013090985
 20
119.1526549775
 10
202.1009621177
 20
119.5433320307
 10
202.5969608332
 20
119.8398272538
 10
203.1604796026
 20
120.0249094221
 10
203.7587687633
 20
120.0878222328
  0
SPLINE
  5
11A
330
1F
100
AcDbEntity
  8
0
  6
HIDDEN
 62
     7
370
     0
100
AcDbSpline
210
0.0
220
0.0
230
1.0
 70
     8
 71
     3
 72
    60
 73
    56
 74
     0
 42
0.00000001
 43
0.00000001
 12
1.0
 22
0.0
 32
0.0
 13
1.0
 23
0.0
 33
0.0
 40
0.0
 40
0.0
 40
0.0
 40
0.0
 40
0.0624999999999996
 40
0.0624999999999996
 40
0.0937499999999994
 40
0.0937499999999994
 40
0.1249999999999993
 40
0.1249999999999993
 40
0.1562499999999992
 40
0.1562499999999992
 40
0.187499999999999
 40
0.187499999999999
 40
0.2187499999999989
 40
0.2187499999999989
 40
0.2499999999999987
 40
0.2499999999999987
 40
0.3124999999999989
 40
0.3124999999999989
 40
0.3437499999999987
 40
0.3437499999999987
 40
0.3749999999999984
 40
0.3749999999999984
 40
0.4062499999999982
 40
0.4062499999999982
 40
0.4374999999999979
 40
0.4374999999999979
 40
0.4687499999999977
 40
0.4687499999999977
 40
0.4999999999999977
 40
0.4999999999999977
 40
0.5312499999999977
 40
0.5312499999999977
 40
0.5624999999999977
 40
0.5624999999999977
 40
0.6249999999999982
 40
0.6249999999999982
 40
0.6562499999999984
 40
0.6562499999999984
 40
0.6874999999999987
 40
0.6874999999999987
 40
0.7499999999999992
 40
0.7499999999999992
 40
0.7812499999999994
 40
0.7812499999999994
 40
0.8124999999999996
 40
0.8124999999999996
 40
0.8437499999999997
 40
0.8437499999999997
 40
0.8749999999999998
 40
0.8749999999999998
 40
0.9062499999999999
 40
0.9062499999999999
 40
0.9375000000000001
 40
0.9375000000000001
 40
1.0
 40
1.0
 40
1.0
 40
1.0
 10
205.961667524576
 20
113.9079725119106
 30
0.0
 10
206.0929050860031
 20
114.0676728256785
 30
0.0
 10
206.1770872999058
 20
114.2201649931372
 30
0.0
 10
206.2452743402324
 20
114.4718198432483
 30
0.0
 10
206.2574838860592
 20
114.5588079113772
 30
0.0
 10
206.259860051899
 20
114.7375991173736
 30
0.0
 10
206.2502363302387
 20
114.8299987461402
 30
0.0
 10
206.2070875111964
 20
115.0238716182772
 30
0.0
 10
206.1729456209749
 20
115.1262719496494
 30
0.0
 10
206.0806688817398
 20
115.3336382815174
 30
0.0
 10
206.0223390112225
 20
115.4397805756778
 30
0.0
 10
205.8797699872551
 20
115.6572543200234
 30
0.0
 10
205.7981950990516
 20
115.7645821268834
 30
0.0
 10
205.6156311533807
 20
115.9775429304837
 30
0.0
 10
205.513418740386
 20
116.0841064345339
 30
0.0
 10
205.1948974858302
 20
116.3868586531115
 30
0.0
 10
204.9605463010246
 20
116.5724118554271
 30
0.0
 10
204.6175428032514
 20
116.8171579020046
 30
0.0
 10
204.5034191613772
 20
116.8941220091508
 30
0.0
 10
204.2848435411292
 20
117.037165099007
 30
0.0
 10
204.1793168797661
 20
117.1039632845179
 30
0.0
 10
203.9777500819208
 20
117.2322484455801
 30
0.0
 10
203.8810845687354
 20
117.2940794481738
 30
0.0
 10
203.7063421045742
 20
117.414515124489
 30
0.0
 10
203.6276896806976
 20
117.4733237998501
 30
0.0
 10
203.4959573235636
 20
117.5960913588747
 30
0.0
 10
203.4435272103216
 20
117.6602048856012
 30
0.0
 10
203.3822832488651
 20
117.7965787502793
 30
0.0
 10
203.3738601188252
 20
117.8706986707342
 30
0.0
 10
203.4040887328762
 20
118.020546987327
 30
0.0
 10
203.4424556989358
 20
118.0981389341674
 30
0.0
 10
203.5491165299334
 20
118.2447985433345
 30
0.0
 10
203.6169813336995
 20
118.3145212472737
 30
0.0
 10
203.8505078403655
 20
118.5079123922217
 30
0.0
 10
204.0398371192883
 20
118.6117427727215
 30
0.0
 10
204.3487189596014
 20
118.7120578466785
 30
0.0
 10
204.457418253328
 20
118.7363639255943
 30
0.0
 10
204.6775280163567
 20
118.7611374041271
 30
0.0
 10
204.7892476051221
 20
118.7619259168422
 30
0.0
 10
205.1278209224671
 20
118.722631114638
 30
0.0
 10
205.3562732784719
 20
118.6387251641698
 30
0.0
 10
205.658096710435
 20
118.412583855594
 30
0.0
 10
205.7497526426513
 20
118.3227712900595
 30
0.0
 10
205.9141749456032
 20
118.1142090990135
 30
0.0
 10
205.9863638996731
 20
117.9952417622215
 30
0.0
 10
206.103844414408
 20
117.7426518423527
 30
0.0
 10
206.1507220800264
 20
117.6058786433914
 30
0.0
 10
206.218726791158
 20
117.3263611531818
 30
0.0
 10
206.2403539957671
 20
117.1834186533917
 30
0.0
 10
206.2616768238215
 20
116.8922874393481
 30
0.0
 10
206.2611271953728
 20
116.7436730243991
 30
0.0
 10
206.2397807688011
 20
116.4517733294218
 30
0.0
 10
206.2191508750329
 20
116.3071693369683
 30
0.0
 10
206.1282912964535
 20
115.8775160180506
 30
0.0
 10
206.0297564811549
 20
115.5952500040871
 30
0.0
 10
205.8859355807498
 20
115.3366440278786
 30
0.0
  0
SPLINE
  5
11B
330
1F
100
AcDbEntity
  8
0
  6
HIDDEN
 62
     7
370
     0
100
AcDbSpline
210
0.0
220
0.0
230
1.0
 70
     8
 71
     3
 72
    12
 73
     8
 74
     0
 42
0.00000001
 43
0.00000001
 12
1.0
 22
0.0
 32
0.0
 13
1.0
 23
0.0
 33
0.0
 40
0.0
 40
0.0
 40
0.0
 40
0.0
 40
0.5000000000000003
 40
0.5000000000000003
 40
0.7500000000000001
 40
0.7500000000000001
 40
1.0
 40
1.0
 40
1.0
 40
1.0
 10
205.8859355807498
 20
115.3366440278786
 30
0.0
 10
205.8103842049186
 20
114.9789033070027
 30
0.0
 10
205.7525637162662
 20
114.6598762862269
 30
0.0
 10
205.7756102462491
 20
114.2877350719448
 30
0.0
 10
205.800821443136
 20
114.1858453488328
 30
0.0
 10
205.8711421470188
 20
114.0212714434159
 30
0.0
 10
205.9157584631089
 20
113.9575278766063
 30
0.0
 10
205.9616675245759
 20
113.9079725119106
 30
0.0
  0
SPLINE
  5
11C
330
1F
100
AcDbEntity
  8
0
  6
HIDDEN
 62
     7
370
     0
100
AcDbSpline
210
0.0
220
0.0
230
1.0
 70
     8
 71
     3
 72
    62
 73
    58
 74
     0
 42
0.00000001
 43
0.00000001
 12
1.0
 22
0.0
 32
0.0
 13
1.0
 23
0.0
 33
0.0
 40
-0.0312499999999996
 40
-0.0312499999999996
 40
0.0
 40
0.0
 40
0.0312500000000006
 40
0.0312500000000006
 40
0.0625000000000012
 40
0.0625000000000012
 40
0.0937500000000017
 40
0.0937500000000017
 40
0.1250000000000023
 40
0.1250000000000023
 40
0.1875000000000028
 40
0.1875000000000028
 40
0.2187500000000029
 40
0.2187500000000029
 40
0.2500000000000031
 40
0.2500000000000031
 40
0.2812500000000031
 40
0.2812500000000031
 40
0.3125000000000032
 40
0.3125000000000032
 40
0.3750000000000034
 40
0.3750000000000034
 40
0.4062500000000038
 40
0.4062500000000038
 40
0.4375000000000042
 40
0.4375000000000042
 40
0.4687500000000046
 40
0.4687500000000046
 40
0.5000000000000049
 40
0.5000000000000049
 40
0.5625000000000049
 40
0.5625000000000049
 40
0.5937500000000047
 40
0.5937500000000047
 40
0.6250000000000043
 40
0.6250000000000043
 40
0.656250000000004
 40
0.656250000000004
 40
0.6875000000000037
 40
0.6875000000000037
 40
0.7187500000000033
 40
0.7187500000000033
 40
0.750000000000003
 40
0.750000000000003
 40
0.7812500000000027
 40
0.7812500000000027
 40
0.8125000000000022
 40
0.8125000000000022
 40
0.8750000000000013
 40
0.8750000000000013
 40
0.906250000000001
 40
0.906250000000001
 40
0.9375000000000008
 40
0.9375000000000008
 40
0.9687500000000004
 40
0.9687500000000004
 40
1.0
 40
1.0
 40
1.031250000000001
 40
1.031250000000001
 10
203.924812582217
 20
112.3109415040495
 30
0.0
 10
203.5927249443447
 20
112.3109415040495
 30
0.0
 10
203.4296282137676
 20
112.2991503633776
 30
0.0
 10
203.1090319088591
 20
112.2527817196419
 30
0.0
 10
202.9498297055526
 20
112.2175970569412
 30
0.0
 10
202.6475192038385
 20
112.1253852065035
 30
0.0
 10
202.5042676295941
 20
112.0686977543799
 30
0.0
 10
202.233156788527
 20
111.9331499650531
 30
0.0
 10
202.1054747933981
 20
111.8539370112281
 30
0.0
 10
201.7614747051829
 20
111.5904176996283
 30
0.0
 10
201.5754730765986
 20
111.3728966199592
 30
0.0
 10
201.387986563417
 20
111.0067141166672
 30
0.0
 10
201.3395146186649
 20
110.8760469180511
 30
0.0
 10
201.2749526392512
 20
110.6050437774813
 30
0.0
 10
201.2588741390312
 20
110.4663407825348
 30
0.0
 10
201.2586644101175
 20
110.1823762003169
 30
0.0
 10
201.2750959575284
 20
110.035806591365
 30
0.0
 10
201.3392646476807
 20
109.7487914119438
 30
0.0
 10
201.3867336104722
 20
109.6070435485734
 30
0.0
 10
201.5758570944264
 20
109.1880525460427
 30
0.0
 10
201.7599969867926
 20
108.9275406392265
 30
0.0
 10
202.1067325705965
 20
108.5925842276374
 30
0.0
 10
202.2320495267483
 20
108.4920320315112
 30
0.0
 10
202.5021090295482
 20
108.3138499718227
 30
0.0
 10
202.6484824054293
 20
108.2357595267484
 30
0.0
 10
202.9499003084829
 20
108.1106301657645
 30
0.0
 10
203.1057524699219
 20
108.0627024003275
 30
0.0
 10
203.4280955312383
 20
107.9975328565604
 30
0.0
 10
203.5940469983078
 20
107.9808862503692
 30
0.0
 10
204.084968365859
 20
107.9806716636205
 30
0.0
 10
204.4154513529617
 20
108.0476956387326
 30
0.0
 10
204.8673608505603
 20
108.2349355174902
 30
0.0
 10
205.0136580679396
 20
108.3128038101359
 30
0.0
 10
205.2845416304959
 20
108.4912868990019
 30
0.0
 10
205.4098981526538
 20
108.5918395541527
 30
0.0
 10
205.640675794143
 20
108.8145158974068
 30
0.0
 10
205.745463674213
 20
108.9365654148825
 30
0.0
 10
205.9261272983951
 20
109.1912242095051
 30
0.0
 10
206.0033157955905
 20
109.3250027460649
 30
0.0
 10
206.1301791998817
 20
109.6052649168262
 30
0.0
 10
206.177840553814
 20
109.7474530681459
 30
0.0
 10
206.2420709208766
 20
110.0335607899975
 30
0.0
 10
206.2587041347557
 20
110.1793654322491
 30
0.0
 10
206.2588330097671
 20
110.4648895539025
 30
0.0
 10
206.2427520306383
 20
110.6036491355555
 30
0.0
 10
206.1787846181699
 20
110.8735326687644
 30
0.0
 10
206.1302205679262
 20
111.0051815821013
 30
0.0
 10
205.9424897258837
 20
111.3725122970069
 30
0.0
 10
205.7565438883881
 20
111.5899150505166
 30
0.0
 10
205.4127686662837
 20
111.8534630238792
 30
0.0
 10
205.2855933619161
 20
111.9324729803203
 30
0.0
 10
205.0139509526415
 20
112.0684274615192
 30
0.0
 10
204.8707917816944
 20
112.1250701013016
 30
0.0
 10
204.5696648391565
 20
112.2170785874238
 30
0.0
 10
204.410148610465
 20
112.2524936636438
 30
0.0
 10
204.0882827182332
 20
112.2991464677695
 30
0.0
 10
203.924812582217
 20
112.3109415040495
 30
0.0
 10
203.5927249443447
 20
112.3109415040495
 30
0.0
  0
LINE
  5
11D
330
1F
100
AcDbEntity
  8
0
  6
HIDDEN
 62
     7
370
     0
100
AcDbLine
 10
182.5587687633
 20
83.7633793899
 30
0.0
 11
182.5587687633
 21
98.8010865524
 31
0.0
  0
LINE
  5
11E
330
1F
100
AcDbEntity
  8
0
  6
HIDDEN
 62
     7
370
     0
100
AcDbLine
 10
182.5587687633
 20
112.8448612039
 30
0.0
 11
182.5587687633
 21
127.8825683664
 31
0.0
  0
LWPOLYLINE
  5
11F
330
1F
100
AcDbEntity
  8
0
  6
HIDDEN
 62
     7
370
     0
100
AcDbPolyline
 90
        9
 70
   128
 43
0.0
 10
205.8859355808
 20
115.3366440279
 10
206.0473839713
 20
115.0271008459
 10
206.1690714782
 20
114.741772751
 10
206.2476338658
 20
114.4885480707
 10
206.280899158
 20
114.2744275853
 10
206.2679476853
 20
114.1053309802
 10
206.2091375106
 20
113.9859331873
 10
206.1060945306
 20
113.9195351397
 10
205.9616675246
 20
113.9079725119
  0
CIRCLE
  5
120
330
1F
100
AcDbEntity
  8
0
  6
HIDDEN
 62
     7
370
     0
100
AcDbCircle
 10
167.2587687633
 20
105.8229738781
 30
0.0
 40
4.049999999999997
  0
LINE
  5
121
330
1F
100
AcDbEntity
  8
0
  6
HIDDEN
 62
     7
370
     0
100
AcDbLine
 10
146.2889972029
 20
121.1359249211
 30
0.0
 11
146.2889972029
 21
90.5100228352
 31
0.0
  0
LINE
  5
122
330
1F
100
AcDbEntity
  8
0
  6
HIDDEN
 62
     7
370
     0
100
AcDbLine
 10
144.7587687633
 20
89.6265450337
 30
0.0
 11
144.7587687633
 21
122.0194027226
 31
0.0
  0
LINE
  5
123
330
1F
100
AcDbEntity
  8
0
  6
HIDDEN
 62
     7
370
     0
100
AcDbLine
 10
152.7889972029
 20
120.1693840397
 30
0.0
 11
152.7889972029
 21
91.4765637166
 31
0.0
  0
LINE
  5
124
330
1F
100
AcDbEntity
  8
0
  6
HIDDEN
 62
     7
370
     0
100
AcDbLine
 10
158.5889972029
 20
119.8229738781
 30
0.0
 11
158.5889972029
 21
91.8229738781
 31
0.0
  0
LINE
  5
125
330
1F
100
AcDbEntity
  8
0
  6
HIDDEN
 62
     7
370
     0
100
AcDbLine
 10
151.1889972029
 20
119.8229738781
 30
0.0
 11
151.1889972029
 21
91.8229738781
 31
0.0
  0
LINE
  5
126
330
1F
100
AcDbEntity
  8
0
  6
HIDDEN
 62
     7
370
     0
100
AcDbLine
 10
152.1889972029
 20
119.8229738781
 30
0.0
 11
152.1889972029
 21
91.8229738781
 31
0.0
  0
SPLINE
  5
127
330
1F
100
AcDbEntity
  8
0
  6
HIDDEN
 62
     7
370
     0
100
AcDbSpline
210
0.0
220
0.0
230
1.0
 70
     8
 71
     3
 72
    10
 73
     6
 74
     0
 42
0.00000001
 43
0.00000001
 12
1.0
 22
0.0
 32
0.0
 13
1.0
 23
0.0
 33
0.0
 40
0.0
 40
0.0
 40
0.0
 40
0.0
 40
0.5
 40
0.5
 40
1.0
 40
1.0
 40
1.0
 40
1.0
 10
171.2587687632809
 20
106.4574027551634
 30
0.0
 10
171.2919161813573
 20
106.2484121541554
 30
0.0
 10
171.308775026719
 20
106.0368496881337
 30
0.0
 10
171.3087624963713
 20
105.6088609221661
 30
0.0
 10
171.2918475386309
 20
105.3971028177504
 30
0.0
 10
171.2587687632809
 20
105.1885450011183
 30
0.0
  0
LINE
  5
128
330
1F
100
AcDbEntity
  8
0
  6
HIDDEN
 62
     7
370
     0
100
AcDbLine
 10
171.7587687633
 20
119.3229738781
 30
0.0
 11
171.7587687633
 21
92.3229738781
 31
0.0
  0
SPLINE
  5
129
330
1F
100
AcDbEntity
  8
0
  6
HIDDEN
 62
     7
370
     0
100
AcDbSpline
210
0.0
220
0.0
230
1.0
 70
     8
 71
     3
 72
    10
 73
     6
 74
     0
 42
0.00000001
 43
0.00000001
 12
1.0
 22
0.0
 32
0.0
 13
1.0
 23
0.0
 33
0.0
 40
0.0
 40
0.0
 40
0.0
 40
0.0
 40
0.5
 40
0.5
 40
1.0
 40
1.0
 40
1.0
 40
1.0
 10
171.2587687632809
 20
105.1885450011183
 30
0.0
 10
171.2919577257546
 20
105.3977975347008
 30
0.0
 10
171.3086585020093
 20
105.6086142955997
 30
0.0
 10
171.3088779424539
 20
106.033146576803
 30
0.0
 10
171.2919982270605
 20
106.2478948655757
 30
0.0
 10
171.2587687632809
 20
106.4574027551634
 30
0.0
  0
SPLINE
  5
12A
330
1F
100
AcDbEntity
  8
0
  6
HIDDEN
 62
     7
370
     0
100
AcDbSpline
210
0.0
220
0.0
230
1.0
 70
     8
 71
     3
 72
    68
 73
    64
 74
     0
 42
0.00000001
 43
0.00000001
 12
1.0
 22
0.0
 32
0.0
 13
1.0
 23
0.0
 33
0.0
 40
0.0
 40
0.0
 40
0.0
 40
0.0
 40
0.0312499999999999
 40
0.0312499999999999
 40
0.0624999999999998
 40
0.0624999999999998
 40
0.0937499999999997
 40
0.0937499999999997
 40
0.1249999999999997
 40
0.1249999999999997
 40
0.1562499999999996
 40
0.1562499999999996
 40
0.1874999999999995
 40
0.1874999999999995
 40
0.2187499999999994
 40
0.2187499999999994
 40
0.2499999999999994
 40
0.2499999999999994
 40
0.2812499999999995
 40
0.2812499999999995
 40
0.3124999999999996
 40
0.3124999999999996
 40
0.3437499999999998
 40
0.3437499999999998
 40
0.3749999999999999
 40
0.3749999999999999
 40
0.40625
 40
0.40625
 40
0.4375000000000001
 40
0.4375000000000001
 40
0.4687500000000003
 40
0.4687500000000003
 40
0.5000000000000004
 40
0.5000000000000004
 40
0.5625000000000007
 40
0.5625000000000007
 40
0.5937500000000007
 40
0.5937500000000007
 40
0.6250000000000007
 40
0.6250000000000007
 40
0.6562500000000008
 40
0.6562500000000008
 40
0.6875000000000008
 40
0.6875000000000008
 40
0.7187500000000008
 40
0.7187500000000008
 40
0.7500000000000008
 40
0.7500000000000008
 40
0.7812500000000007
 40
0.7812500000000007
 40
0.8125000000000006
 40
0.8125000000000006
 40
0.8437500000000004
 40
0.8437500000000004
 40
0.8750000000000003
 40
0.8750000000000003
 40
0.9062500000000003
 40
0.9062500000000003
 40
0.9375000000000002
 40
0.9375000000000002
 40
0.9687500000000001
 40
0.9687500000000001
 40
1.0
 40
1.0
 40
1.0
 40
1.0
 10
171.2587687632809
 20
105.1885450011183
 30
0.0
 10
171.2187538109312
 20
104.9362553983027
 30
0.0
 10
171.1558120095199
 20
104.6922565479269
 30
0.0
 10
170.9864253474478
 20
104.2198381588644
 30
0.0
 10
170.8787317848623
 20
103.9894247727044
 30
0.0
 10
170.6234470163244
 20
103.5547201769073
 30
0.0
 10
170.4774077858522
 20
103.352078210256
 30
0.0
 10
170.1491863492929
 20
102.9750889194982
 30
0.0
 10
169.964939061518
 20
102.7994309659208
 30
0.0
 10
169.5719788942096
 20
102.4891729969746
 30
0.0
 10
169.3626842972505
 20
102.3532277893247
 30
0.0
 10
168.9177988703132
 20
102.1198376939188
 30
0.0
 10
168.6810012778141
 20
102.0225910875044
 30
0.0
 10
168.2002662088949
 20
101.8759196296331
 30
0.0
 10
167.9540231157121
 20
101.8250272846907
 30
0.0
 10
167.4493063357326
 20
101.7694999344552
 30
0.0
 10
167.1931116347962
 20
101.7656750473852
 30
0.0
 10
166.690732885596
 20
101.8050988300297
 30
0.0
 10
166.4414831864125
 20
101.8481262792409
 30
0.0
 10
165.9499553889337
 20
101.9818312486922
 30
0.0
 10
165.7146597877079
 20
102.0705010945974
 30
0.0
 10
165.2637458930458
 20
102.2895324583748
 30
0.0
 10
165.0461335425823
 20
102.4215340240584
 30
0.0
 10
164.6429263730341
 20
102.7208913050613
 30
0.0
 10
164.4573148805997
 20
102.8875102324991
 30
0.0
 10
164.1173268101971
 20
103.2546216579266
 30
0.0
 10
163.9622538793742
 20
103.4569254034673
 30
0.0
 10
163.6959108027109
 20
103.8810060830613
 30
0.0
 10
163.5829267019941
 20
104.1041656885275
 30
0.0
 10
163.3980714450632
 20
104.5735209301217
 30
0.0
 10
163.3269306835598
 20
104.8197314334572
 30
0.0
 10
163.2329702722717
 20
105.3142572598284
 30
0.0
 10
163.2089609423153
 20
105.5651882549204
 30
0.0
 10
163.2083878216427
 20
106.3294336344766
 30
0.0
 10
163.3037869329613
 20
106.8316579365275
 30
0.0
 10
163.5816507251624
 20
107.5392224427999
 30
0.0
 10
163.694812681243
 20
107.7629287065407
 30
0.0
 10
163.9609438632868
 20
108.1871986178613
 30
0.0
 10
164.1157716374865
 20
108.3894505799174
 30
0.0
 10
164.4559527432744
 20
108.7571613212856
 30
0.0
 10
164.6414552002241
 20
108.9237781965349
 30
0.0
 10
165.0437490012834
 20
109.2228275753303
 30
0.0
 10
165.2617570495354
 20
109.3552842833587
 30
0.0
 10
165.7123554166857
 20
109.5744906840634
 30
0.0
 10
165.9469044155665
 20
109.662975814067
 30
0.0
 10
166.4353644091188
 20
109.7964620440057
 30
0.0
 10
166.6876298048327
 20
109.8404037564995
 30
0.0
 10
167.189810442993
 20
109.8802127529729
 30
0.0
 10
167.4422925603446
 20
109.8768685401594
 30
0.0
 10
167.9501576034141
 20
109.8216892201689
 30
0.0
 10
168.1977030765979
 20
109.7706432916995
 30
0.0
 10
168.6786706140687
 20
109.6242329034639
 30
0.0
 10
168.9146304791739
 20
109.5275866986903
 30
0.0
 10
169.3612009286956
 20
109.2936817543773
 30
0.0
 10
169.570845791269
 20
109.1575567405508
 30
0.0
 10
169.9638324980235
 20
108.8475024762217
 30
0.0
 10
170.1482284018385
 20
108.6718452286466
 30
0.0
 10
170.4767788196989
 20
108.2947053059822
 30
0.0
 10
170.6227209162221
 20
108.0922391007123
 30
0.0
 10
170.8776062714242
 20
107.658662802579
 30
0.0
 10
170.9859175842325
 20
107.4273709589974
 30
0.0
 10
171.1557525616495
 20
106.9540112788642
 30
0.0
 10
171.2187479227865
 20
106.7097294820434
 30
0.0
 10
171.2587687632809
 20
106.4574027551634
 30
0.0
  0
SPLINE
  5
12B
330
1F
100
AcDbEntity
  8
0
  6
HIDDEN
 62
     7
370
     0
100
AcDbSpline
210
0.0
220
0.0
230
1.0
 70
     8
 71
     3
 72
    68
 73
    64
 74
     0
 42
0.00000001
 43
0.00000001
 12
1.0
 22
0.0
 32
0.0
 13
1.0
 23
0.0
 33
0.0
 40
0.0
 40
0.0
 40
0.0
 40
0.0
 40
0.0312499999999999
 40
0.0312499999999999
 40
0.0624999999999998
 40
0.0624999999999998
 40
0.0937499999999997
 40
0.0937499999999997
 40
0.1249999999999997
 40
0.1249999999999997
 40
0.1562499999999996
 40
0.1562499999999996
 40
0.1874999999999995
 40
0.1874999999999995
 40
0.2187499999999994
 40
0.2187499999999994
 40
0.2499999999999994
 40
0.2499999999999994
 40
0.2812499999999995
 40
0.2812499999999995
 40
0.3124999999999996
 40
0.3124999999999996
 40
0.3437499999999998
 40
0.3437499999999998
 40
0.3749999999999999
 40
0.3749999999999999
 40
0.40625
 40
0.40625
 40
0.4375000000000001
 40
0.4375000000000001
 40
0.4687500000000003
 40
0.4687500000000003
 40
0.5000000000000004
 40
0.5000000000000004
 40
0.5625000000000007
 40
0.5625000000000007
 40
0.5937500000000007
 40
0.5937500000000007
 40
0.6250000000000007
 40
0.6250000000000007
 40
0.6562500000000008
 40
0.6562500000000008
 40
0.6875000000000008
 40
0.6875000000000008
 40
0.7187500000000008
 40
0.7187500000000008
 40
0.7500000000000008
 40
0.7500000000000008
 40
0.7812500000000007
 40
0.7812500000000007
 40
0.8125000000000006
 40
0.8125000000000006
 40
0.8437500000000004
 40
0.8437500000000004
 40
0.8750000000000003
 40
0.8750000000000003
 40
0.9062500000000003
 40
0.9062500000000003
 40
0.9375000000000002
 40
0.9375000000000002
 40
0.9687500000000001
 40
0.9687500000000001
 40
1.0
 40
1.0
 40
1.0
 40
1.0
 10
171.2587687632809
 20
106.4574027551634
 30
0.0
 10
171.2187538109312
 20
106.709692357979
 30
0.0
 10
171.1558120095199
 20
106.9536912083548
 30
0.0
 10
170.9864253474478
 20
107.4261095974173
 30
0.0
 10
170.8787317848623
 20
107.6565229835772
 30
0.0
 10
170.6234470163244
 20
108.0912275793743
 30
0.0
 10
170.4774077858522
 20
108.2938695460256
 30
0.0
 10
170.1491863492929
 20
108.6708588367835
 30
0.0
 10
169.964939061518
 20
108.8465167903608
 30
0.0
 10
169.5719788942096
 20
109.1567747593071
 30
0.0
 10
169.3626842972505
 20
109.292719966957
 30
0.0
 10
168.9177988703132
 20
109.5261100623628
 30
0.0
 10
168.6810012778141
 20
109.6233566687772
 30
0.0
 10
168.2002662088949
 20
109.7700281266486
 30
0.0
 10
167.9540231157121
 20
109.820920471591
 30
0.0
 10
167.4493063357326
 20
109.8764478218265
 30
0.0
 10
167.1931116347962
 20
109.8802727088964
 30
0.0
 10
166.690732885596
 20
109.840848926252
 30
0.0
 10
166.4414831864125
 20
109.7978214770407
 30
0.0
 10
165.9499553889337
 20
109.6641165075895
 30
0.0
 10
165.7146597877079
 20
109.5754466616843
 30
0.0
 10
165.2637458930458
 20
109.3564152979068
 30
0.0
 10
165.0461335425823
 20
109.2244137322233
 30
0.0
 10
164.6429263730341
 20
108.9250564512204
 30
0.0
 10
164.4573148805997
 20
108.7584375237825
 30
0.0
 10
164.1173268101971
 20
108.3913260983551
 30
0.0
 10
163.9622538793742
 20
108.1890223528143
 30
0.0
 10
163.6959108027109
 20
107.7649416732203
 30
0.0
 10
163.5829267019941
 20
107.5417820677541
 30
0.0
 10
163.3980714450632
 20
107.07242682616
 30
0.0
 10
163.3269306835598
 20
106.8262163228245
 30
0.0
 10
163.2329702722717
 20
106.3316904964533
 30
0.0
 10
163.2089609423153
 20
106.0807595013613
 30
0.0
 10
163.2083878216427
 20
105.3165141218051
 30
0.0
 10
163.3037869329613
 20
104.8142898197541
 30
0.0
 10
163.5816507251624
 20
104.1067253134817
 30
0.0
 10
163.694812681243
 20
103.8830190497409
 30
0.0
 10
163.9609438632868
 20
103.4587491384203
 30
0.0
 10
164.1157716374865
 20
103.2564971763643
 30
0.0
 10
164.4559527432744
 20
102.8887864349961
 30
0.0
 10
164.6414552002241
 20
102.7221695597468
 30
0.0
 10
165.0437490012834
 20
102.4231201809513
 30
0.0
 10
165.2617570495354
 20
102.2906634729229
 30
0.0
 10
165.7123554166857
 20
102.0714570722183
 30
0.0
 10
165.9469044155665
 20
101.9829719422146
 30
0.0
 10
166.4353644091188
 20
101.849485712276
 30
0.0
 10
166.6876298048327
 20
101.8055439997822
 30
0.0
 10
167.189810442993
 20
101.7657350033087
 30
0.0
 10
167.4422925603446
 20
101.7690792161222
 30
0.0
 10
167.9501576034141
 20
101.8242585361127
 30
0.0
 10
168.1977030765979
 20
101.8753044645821
 30
0.0
 10
168.6786706140687
 20
102.0217148528177
 30
0.0
 10
168.9146304791739
 20
102.1183610575913
 30
0.0
 10
169.3612009286956
 20
102.3522660019044
 30
0.0
 10
169.570845791269
 20
102.4883910157309
 30
0.0
 10
169.9638324980235
 20
102.79844528006
 30
0.0
 10
170.1482284018385
 20
102.9741025276351
 30
0.0
 10
170.4767788196989
 20
103.3512424502995
 30
0.0
 10
170.6227209162221
 20
103.5537086555694
 30
0.0
 10
170.8776062714242
 20
103.9872849537027
 30
0.0
 10
170.9859175842325
 20
104.2185767972842
 30
0.0
 10
171.1557525616495
 20
104.6919364774175
 30
0.0
 10
171.2187479227865
 20
104.9362182742382
 30
0.0
 10
171.2587687632809
 20
105.1885450011183
 30
0.0
  0
LINE
  5
12C
330
1F
100
AcDbEntity
  8
0
  6
HIDDEN
 62
     7
370
     0
100
AcDbLine
 10
173.0087687633
 20
114.8229738781
 30
0.0
 11
173.0087687633
 21
96.8229738781
 31
0.0
  0
LINE
  5
12D
330
1F
100
AcDbEntity
  8
0
  6
HIDDEN
 62
     7
370
     0
100
AcDbLine
 10
171.7587687633
 20
95.5729738781
 30
0.0
 11
171.7587687633
 21
116.0729738781
 31
0.0
  0
LINE
  5
12E
330
1F
100
AcDbEntity
  8
0
  6
HIDDEN
 62
     7
370
     0
100
AcDbLine
 10
209.7587687633
 20
96.8229738781
 30
0.0
 11
209.7587687633
 21
114.8229738781
 31
0.0
  0
LINE
  5
12F
330
1F
100
AcDbEntity
  8
0
  6
HIDDEN
 62
     7
370
     0
100
AcDbLine
 10
243.3471933832
 20
111.7650893717
 30
0.0
 11
239.5142690576
 21
107.9531622066
 31
0.0
  0
LINE
  5
130
330
1F
100
AcDbEntity
  8
0
  6
HIDDEN
 62
     7
370
     0
100
AcDbLine
 10
220.9103436133
 20
108.4237453576
 30
0.0
 11
220.9103436133
 21
81.3040933347
 31
0.0
  0
SPLINE
  5
131
330
1F
100
AcDbEntity
  8
0
  6
HIDDEN
 62
     7
370
     0
100
AcDbSpline
210
0.0
220
0.0
230
1.0
 70
     8
 71
     3
 72
     9
 73
     5
 74
     0
 42
0.00000001
 43
0.00000001
 12
1.0
 22
0.0
 32
0.0
 13
1.0
 23
0.0
 33
0.0
 40
0.0
 40
0.0
 40
0.0
 40
0.0
 40
0.5
 40
1.0
 40
1.0
 40
1.0
 40
1.0
 10
220.957367601591
 20
109.7591839038437
 30
0.0
 10
220.9500863925378
 20
109.5366051401263
 30
0.0
 10
220.9342905591711
 20
109.0914601940379
 30
0.0
 10
220.9180839512951
 20
108.6463194380197
 30
0.0
 10
220.9103436133438
 20
108.4237453576072
 30
0.0
  0
SPLINE
  5
132
330
1F
100
AcDbEntity
  8
0
  6
HIDDEN
 62
     7
370
     0
100
AcDbSpline
210
0.0
220
0.0
230
1.0
 70
     8
 71
     3
 72
    12
 73
     8
 74
     0
 42
0.00000001
 43
0.00000001
 12
1.0
 22
0.0
 32
0.0
 13
1.0
 23
0.0
 33
0.0
 40
0.0
 40
0.0
 40
0.0
 40
0.0
 40
0.5000000000000022
 40
0.5000000000000022
 40
0.7500000000000011
 40
0.7500000000000011
 40
1.0
 40
1.0
 40
1.0
 40
1.0
 10
219.9914417753025
 20
79.8881555977187
 30
0.0
 10
220.1881960107379
 20
80.18344020326617
 30
0.0
 10
220.3622266772341
 20
80.44791127951855
 30
0.0
 10
220.5971081809
 20
80.8091384114015
 30
0.0
 10
220.6707370202536
 20
80.92324289094769
 30
0.0
 10
220.8035200709506
 20
81.13150456611001
 30
0.0
 10
220.8632109969317
 20
81.22642760773867
 30
0.0
 10
220.9103436133427
 20
81.30409333465681
 30
0.0
  0
SPLINE
  5
133
330
1F
100
AcDbEntity
  8
0
  6
HIDDEN
 62
     7
370
     0
100
AcDbSpline
210
0.0
220
0.0
230
1.0
 70
     8
 71
     3
 72
     8
 73
     4
 74
     0
 42
0.00000001
 43
0.00000001
 12
1.0
 22
0.0
 32
0.0
 13
1.0
 23
0.0
 33
0.0
 40
0.0
 40
0.0
 40
0.0
 40
0.0
 40
1.0
 40
1.0
 40
1.0
 40
1.0
 10
223.5406409369672
 20
132.8435090269672
 30
0.0
 10
222.2220618015644
 20
125.2159051849088
 30
0.0
 10
221.2119993255255
 20
117.543003033723
 30
0.0
 10
220.957367601591
 20
109.7591839038437
 30
0.0
  0
LINE
  5
134
330
1F
100
AcDbEntity
  8
0
  6
HIDDEN
 62
     7
370
     0
100
AcDbLine
 10
223.540640937
 20
147.7050621705
 30
0.0
 11
223.540640937
 21
132.843509027
 31
0.0
  0
CIRCLE
  5
135
330
1F
100
AcDbEntity
  8
0
  6
HIDDEN
 62
     7
370
     0
100
AcDbCircle
 10
236.3677143015
 20
131.984115337
 30
0.0
 40
3.478353394234007
  0
CIRCLE
  5
136
330
1F
100
AcDbEntity
  8
0
  6
HIDDEN
 62
     7
370
     0
100
AcDbCircle
 10
235.9413011428
 20
131.5600381142
 30
0.0
 40
3.478353394234206
  0
ARC
  5
137
330
1F
100
AcDbEntity
  8
0
  6
HIDDEN
 62
     7
370
     0
100
AcDbCircle
 10
232.717494018
 20
138.9019470661
 30
0.0
 40
2.349360291049998
100
AcDbArc
 50
126.8233024677
 51
274.6041285983
  0
LINE
  5
138
330
1F
100
AcDbEntity
  8
0
  6
HIDDEN
 62
     7
370
     0
100
AcDbLine
 10
245.6433987728
 20
137.9856100782
 30
0.0
 11
245.1521149954
 21
137.4970176048
 31
0.0
  0
ELLIPSE
  5
139
330
1F
100
AcDbEntity
  8
0
  6
HIDDEN
 62
     7
370
     0
100
AcDbEllipse
 10
231.120369876
 20
106.1895201817
 30
0.0
 11
4.227654769020717
 21
42.54187652412131
 31
0.0
210
0.0
220
0.0
230
1.0
 40
0.0944088542
 41
0.0992824956159884
 42
0.1680231949964175
  0
ELLIPSE
  5
13A
330
1F
100
AcDbEntity
  8
0
  6
HIDDEN
 62
     7
370
     0
100
AcDbEllipse
 10
1372.4162753615
 20
93.4332122297
 30
0.0
 11
1354.804140116824
 21
-14.93450643773876
 31
0.0
210
0.0
220
0.0
230
1.0
 40
0.057920228
 41
2.567972237826119
 42
2.568656214201127
  0
ELLIPSE
  5
13B
330
1F
100
AcDbEntity
  8
0
  6
HIDDEN
 62
     7
370
     0
100
AcDbEllipse
 10
230.615622719
 20
106.1891397264
 30
0.0
 11
4.223266691237598
 21
42.49772034926178
 31
0.0
210
0.0
220
0.0
230
1.0
 40
0.0944088542
 41
0.0177945573083002
 42
0.0980131143035853
  0
SPLINE
  5
13C
330
1F
100
AcDbEntity
  8
0
  6
HIDDEN
 62
     7
370
     0
100
AcDbSpline
210
0.0
220
0.0
230
1.0
 70
     8
 71
     3
 72
     8
 73
     4
 74
     0
 42
0.00000001
 43
0.00000001
 12
1.0
 22
0.0
 32
0.0
 13
1.0
 23
0.0
 33
0.0
 40
0.0
 40
0.0
 40
0.0
 40
0.0
 40
1.0
 40
1.0
 40
1.0
 40
1.0
 10
223.5406409369907
 20
132.8435090269638
 30
0.0
 10
229.5982113702914
 20
133.6649656523875
 30
0.0
 10
235.658566419187
 20
134.4650964431811
 30
0.0
 10
241.7209166341499
 20
135.2486743309295
 30
0.0
  0
SPLINE
  5
13D
330
1F
100
AcDbEntity
  8
0
  6
HIDDEN
 62
     7
370
     0
100
AcDbSpline
210
0.0
220
0.0
230
1.0
 70
     8
 71
     3
 72
    41
 73
    37
 74
     0
 42
0.00000001
 43
0.00000001
 12
1.0
 22
0.0
 32
0.0
 13
1.0
 23
0.0
 33
0.0
 40
0.0
 40
0.0
 40
0.0
 40
0.0
 40
0.0228305373319093
 40
0.0460471109121867
 40
0.0696495495536654
 40
0.0936376755493442
 40
0.1180113047876896
 40
0.1427702468589155
 40
0.1679143051530717
 40
0.1934432769506868
 40
0.2193569535066575
 40
0.2456551201279265
 40
0.2723375562455527
 40
0.2994040354816139
 40
0.3268543257114034
 40
0.354688189121301
 40
0.3829053822626786
 40
0.4115056561021755
 40
0.4404887560686043
 40
0.4698544220967913
 40
0.4996023886685647
 40
0.520071997522567
 40
0.5423881500837169
 40
0.5665499186413324
 40
0.5925562930639282
 40
0.620406181312125
 40
0.6500984097929743
 40
0.6816317236114959
 40
0.7150047867536654
 40
0.7502161822224768
 40
0.7872644121412032
 40
0.8261478978332315
 40
0.8668649798849093
 40
0.9094139181958963
 40
0.9537928920201723
 40
0.9999999999999999
 40
0.9999999999999999
 40
0.9999999999999999
 40
0.9999999999999999
 10
245.3625507402251
 20
148.9535701427123
 30
0.0
 10
245.3384816129872
 20
148.9129529172026
 30
0.0
 10
245.2899363792341
 20
148.8310316789592
 30
0.0
 10
245.2154077985173
 20
148.6946785538709
 30
0.0
 10
245.1388601355427
 20
148.5466638239069
 30
0.0
 10
245.0602103295857
 20
148.3856254041742
 30
0.0
 10
244.9794811763193
 20
148.2113534032896
 30
0.0
 10
244.8966664057349
 20
148.0233201225678
 30
0.0
 10
244.8117677263698
 20
147.8210844163448
 30
0.0
 10
244.7247846584079
 20
147.6041815088412
 30
0.0
 10
244.6357173229837
 20
147.3721540543223
 30
0.0
 10
244.5445656766977
 20
147.124544490174
 30
0.0
 10
244.4513297233125
 20
146.8608980436399
 30
0.0
 10
244.3560094484905
 20
146.5807628584483
 30
0.0
 10
244.2586048651168
 20
146.2836909499227
 30
0.0
 10
244.1591158961073
 20
145.9692389780206
 30
0.0
 10
244.0575428055808
 20
145.6369690951464
 30
0.0
 10
243.9538845604833
 20
145.2864498754531
 30
0.0
 10
243.8481450684894
 20
144.9172570309561
 30
0.0
 10
243.7403094301596
 20
144.528975110198
 30
0.0
 10
243.642328013819
 20
144.1653366625661
 30
0.0
 10
243.5524577629969
 20
143.8240498218888
 30
0.0
 10
243.4690288957699
 20
143.5013486892508
 30
0.0
 10
243.3782973321655
 20
143.1429868402599
 30
0.0
 10
243.2802499693131
 20
142.7469430177471
 30
0.0
 10
243.1748902310573
 20
142.3110851024009
 30
0.0
 10
243.0622167078136
 20
141.8331803051077
 30
0.0
 10
242.942229516729
 20
141.310907677608
 30
0.0
 10
242.8149283942574
 20
140.7418727072889
 30
0.0
 10
242.6803132138278
 20
140.1236193495525
 30
0.0
 10
242.5383839382497
 20
139.4536605860972
 30
0.0
 10
242.3891401577681
 20
138.7294424141569
 30
0.0
 10
242.2325830924985
 20
137.9485836195676
 30
0.0
 10
242.0687075161848
 20
137.108021511141
 30
0.0
 10
241.8975339364551
 20
136.2075290212966
 30
0.0
 10
241.7808515387327
 20
135.5725562128001
 30
0.0
 10
241.7213329455501
 20
135.2486625578134
 30
0.0
  0
ELLIPSE
  5
13E
330
1F
100
AcDbEntity
  8
0
  6
HIDDEN
 62
     7
370
     0
100
AcDbEllipse
 10
1280.832997212
 20
94.1303748577
 30
0.0
 11
1278.570323722914
 21
-14.09415292242542
 31
0.0
210
0.0
220
0.0
230
1.0
 40
0.057920228
 41
2.515358729608241
 42
2.529830082043589
  0
LINE
  5
13F
330
1F
100
AcDbEntity
  8
0
  6
HIDDEN
 62
     7
370
     0
100
AcDbLine
 10
233.8183964171
 20
141.3220700952
 30
0.0
 11
234.2983505897
 21
141.3587876834
 31
0.0
  0
LINE
  5
140
330
1F
100
AcDbEntity
  8
0
  6
HIDDEN
 62
     7
370
     0
100
AcDbLine
 10
233.9910369077
 20
141.0531574979
 30
0.0
 11
234.2983505897
 21
141.3587876834
 31
0.0
  0
LINE
  5
141
330
1F
100
AcDbEntity
  8
0
  6
HIDDEN
 62
     7
370
     0
100
AcDbLine
 10
233.7935237343
 20
141.03804729
 30
0.0
 11
233.9910369077
 21
141.0531574979
 31
0.0
  0
ELLIPSE
  5
142
330
1F
100
AcDbEntity
  8
0
  6
HIDDEN
 62
     7
370
     0
100
AcDbEllipse
 10
238.4201158612
 20
138.3207356216
 30
0.0
 11
0.9406553105117155
 21
2.766158975077417
 31
0.0
210
0.0
220
0.0
230
1.0
 40
0.8539059128
 41
2.218014007038824
 42
2.406555537065141
  0
ELLIPSE
  5
143
330
1F
100
AcDbEntity
  8
0
  6
HIDDEN
 62
     7
370
     0
100
AcDbEllipse
 10
237.949263084
 20
137.302645396
 30
0.0
 11
2.968392757696051
 21
0.4881156426729376
 31
0.0
210
0.0
220
0.0
230
1.0
 40
0.1367129703
 41
2.278614760664373
 42
2.866566978731077
  0
ELLIPSE
  5
144
330
1F
100
AcDbEntity
  8
0
  6
HIDDEN
 62
     7
370
     0
100
AcDbEllipse
 10
237.4879135987
 20
136.3051034374
 30
0.0
 11
0.9406553105117438
 21
2.766158975077389
 31
0.0
210
0.0
220
0.0
230
1.0
 40
0.8539059128
 41
1.544372593543389
 42
1.630061788972136
  0
SPLINE
  5
145
330
1F
100
AcDbEntity
  8
0
  6
HIDDEN
 62
     7
370
     0
100
AcDbSpline
210
0.0
220
0.0
230
1.0
 70
     8
 71
     3
 72
    22
 73
    18
 74
     0
 42
0.00000001
 43
0.00000001
 12
1.0
 22
0.0
 32
0.0
 13
1.0
 23
0.0
 33
0.0
 40
0.0
 40
0.0
 40
0.0
 40
0.0
 40
0.0625000000000007
 40
0.0625000000000007
 40
0.1250000000000015
 40
0.1250000000000015
 40
0.1875000000000022
 40
0.1875000000000022
 40
0.2500000000000029
 40
0.2500000000000029
 40
0.3750000000000026
 40
0.3750000000000026
 40
0.5000000000000022
 40
0.5000000000000022
 40
0.7500000000000011
 40
0.7500000000000011
 40
1.0
 40
1.0
 40
1.0
 40
1.0
 10
237.11540807213
 20
135.4613907907634
 30
0.0
 10
236.9783276580353
 20
135.4996685635327
 30
0.0
 10
236.8497660236286
 20
135.5242683549273
 30
0.0
 10
236.6031136239158
 20
135.5571022468182
 30
0.0
 10
236.4904941778394
 20
135.5645666402192
 30
0.0
 10
236.2784440516768
 20
135.5694934356594
 30
0.0
 10
236.1785582510069
 20
135.5667486648997
 30
0.0
 10
235.9921169727212
 20
135.5549046977416
 30
0.0
 10
235.9049973208714
 20
135.5458064206252
 30
0.0
 10
235.6566179443515
 20
135.5123007765907
 30
0.0
 10
235.5081060962376
 20
135.48180619628
 30
0.0
 10
235.2332516673637
 20
135.4128112133553
 30
0.0
 10
235.1071970505035
 20
135.3741075244985
 30
0.0
 10
234.7615928638697
 20
135.254066615177
 30
0.0
 10
234.5707714959694
 20
135.1681595252054
 30
0.0
 10
234.2620010644977
 20
135.0066293222565
 30
0.0
 10
234.1427196336618
 20
134.930406227892
 30
0.0
 10
234.0832788892517
 20
134.8712911060994
 30
0.0
  0
SPLINE
  5
146
330
1F
100
AcDbEntity
  8
0
  6
HIDDEN
 62
     7
370
     0
100
AcDbSpline
210
0.0
220
0.0
230
1.0
 70
     8
 71
     3
 72
     8
 73
     4
 74
     0
 42
0.00000001
 43
0.00000001
 12
1.0
 22
0.0
 32
0.0
 13
1.0
 23
0.0
 33
0.0
 40
0.0
 40
0.0
 40
0.0
 40
0.0
 40
1.0
 40
1.0
 40
1.0
 40
1.0
 10
237.5373021892922
 20
135.3031987992435
 30
0.0
 10
237.3949050708924
 20
135.3480782712057
 30
0.0
 10
237.2542647571692
 20
135.4007691783976
 30
0.0
 10
237.11540807213
 20
135.4613907907634
 30
0.0
  0
SPLINE
  5
147
330
1F
100
AcDbEntity
  8
0
  6
HIDDEN
 62
     7
370
     0
100
AcDbSpline
210
0.0
220
0.0
230
1.0
 70
     8
 71
     3
 72
    22
 73
    18
 74
     0
 42
0.00000001
 43
0.00000001
 12
1.0
 22
0.0
 32
0.0
 13
1.0
 23
0.0
 33
0.0
 40
0.0
 40
0.0
 40
0.0
 40
0.0
 40
0.1250000000000007
 40
0.1250000000000007
 40
0.2500000000000011
 40
0.2500000000000011
 40
0.5000000000000017
 40
0.5000000000000017
 40
0.6250000000000018
 40
0.6250000000000018
 40
0.750000000000002
 40
0.750000000000002
 40
0.8750000000000022
 40
0.8750000000000022
 40
0.9375000000000012
 40
0.9375000000000012
 40
1.0
 40
1.0
 40
1.0
 40
1.0
 10
238.7560033206927
 20
133.119222154286
 30
0.0
 10
238.7853416109998
 20
133.1483997263691
 30
0.0
 10
238.8057795196632
 20
133.1911713715837
 30
0.0
 10
238.8325915307531
 20
133.2966867053135
 30
0.0
 10
238.8388743595959
 20
133.3597048067059
 30
0.0
 10
238.8374116383968
 20
133.5699065898243
 30
0.0
 10
238.810744828155
 20
133.7378954020271
 30
0.0
 10
238.7194193440929
 20
134.0208502941028
 30
0.0
 10
238.6802292854928
 20
134.1205098737121
 30
0.0
 10
238.5767696555419
 20
134.3312766362695
 30
0.0
 10
238.5126386819005
 20
134.4424140567475
 30
0.0
 10
238.3456643919247
 20
134.6747564112453
 30
0.0
 10
238.2430763427485
 20
134.7967687519023
 30
0.0
 10
238.0353921700612
 20
134.9853261396975
 30
0.0
 10
237.9559011742115
 20
135.0500672001231
 30
0.0
 10
237.7684568170465
 20
135.1795188297131
 30
0.0
 10
237.6611111934945
 20
135.2437202637333
 30
0.0
 10
237.5373021892922
 20
135.3031987992435
 30
0.0
  0
ELLIPSE
  5
148
330
1F
100
AcDbEntity
  8
0
  6
HIDDEN
 62
     7
370
     0
100
AcDbEllipse
 10
238.4201158612
 20
138.3207356216
 30
0.0
 11
0.9406553105117155
 21
2.766158975077417
 31
0.0
210
0.0
220
0.0
230
1.0
 40
0.8539059128
 41
4.576940229027265
 42
4.6859652471332
  0
ELLIPSE
  5
149
330
1F
100
AcDbEntity
  8
0
  6
HIDDEN
 62
     7
370
     0
100
AcDbEllipse
 10
237.6693211937
 20
136.6973476977
 30
0.0
 11
2.968392757696108
 21
0.4881156426729376
 31
0.0
210
0.0
220
0.0
230
1.0
 40
0.1367129703
 41
6.202873845855694
 42
8.37325853781767
  0
ELLIPSE
  5
14A
330
1F
100
AcDbEntity
  8
0
  6
HIDDEN
 62
     7
370
     0
100
AcDbEllipse
 10
232.7369261264
 20
128.3329998062
 30
0.0
 11
3.010891765566981
 21
2.994397785440754
 31
0.0
210
0.0
220
0.0
230
1.0
 40
0.9890738004
 41
0.0
 42
6.283185307179586
  0
ELLIPSE
  5
14B
330
1F
100
AcDbEntity
  8
0
  6
HIDDEN
 62
     7
370
     0
100
AcDbEllipse
 10
235.1944771456
 20
130.7770881038
 30
0.0
 11
3.518690774465655
 21
-2.323872478491126
 31
0.0
210
0.0
220
0.0
230
1.0
 40
0.89827004
 41
1.182660514095208
 42
2.457784355333612
  0
LINE
  5
14C
330
1F
100
AcDbEntity
  8
0
  6
HIDDEN
 62
     7
370
     0
100
AcDbLine
 10
238.4583647861
 20
132.8232141147
 30
0.0
 11
238.7560033207
 21
133.1192221543
 31
0.0
  0
LINE
  5
14D
330
1F
100
AcDbEntity
  8
0
  6
HIDDEN
 62
     7
370
     0
100
AcDbLine
 10
234.0832788893
 20
134.8712911061
 30
0.0
 11
233.7856403546
 21
134.5752830665
 31
0.0
  0
ARC
  5
14E
330
1F
100
AcDbEntity
  8
0
  6
HIDDEN
 62
     7
370
     0
100
AcDbCircle
 10
235.8596045796
 20
131.4705074605
 30
0.0
 40
4.183801162547583
100
AcDbArc
 50
66.3593913069
 51
72.5328765917
  0
ARC
  5
14F
330
1F
100
AcDbEntity
  8
0
  6
HIDDEN
 62
     7
370
     0
100
AcDbCircle
 10
232.6959623345
 20
139.1512401029
 30
0.0
 40
2.101854466076983
100
AcDbArc
 50
135.3810593115
 51
274.5510760726
  0
LINE
  5
150
330
1F
100
AcDbEntity
  8
0
  6
HIDDEN
 62
     7
370
     0
100
AcDbLine
 10
235.9685784172
 20
137.293616528
 30
0.0
 11
233.4487315403
 21
137.1008424983
 31
0.0
  0
LINE
  5
151
330
1F
100
AcDbEntity
  8
0
  6
HIDDEN
 62
     7
370
     0
100
AcDbLine
 10
232.9238924586
 20
137.0606911123
 30
0.0
 11
232.8627397825
 21
137.0560127932
 31
0.0
  0
LINE
  5
152
330
1F
100
AcDbEntity
  8
0
  6
HIDDEN
 62
     7
370
     0
100
AcDbLine
 10
232.9060789297
 20
136.560167933
 30
0.0
 11
236.1383138482
 21
136.8074412716
 31
0.0
  0
ARC
  5
153
330
1F
100
AcDbEntity
  8
0
  6
HIDDEN
 62
     7
370
     0
100
AcDbCircle
 10
232.3846658363
 20
138.8420164788
 30
0.0
 40
2.098592699611552
100
AcDbArc
 50
125.9282572893
 51
274.6672568046
  0
LINE
  5
154
330
1F
100
AcDbEntity
  8
0
  6
HIDDEN
 62
     7
370
     0
100
AcDbLine
 10
234.2983505897
 20
141.3587876834
 30
0.0
 11
234.9291092408
 21
148.5614622999
 31
0.0
  0
LINE
  5
155
330
1F
100
AcDbEntity
  8
0
  6
HIDDEN
 62
     7
370
     0
100
AcDbLine
 10
234.4260050061
 20
148.521911402
 30
0.0
 11
233.795340009
 21
141.3203062275
 31
0.0
  0
LINE
  5
156
330
1F
100
AcDbEntity
  8
0
  6
HIDDEN
 62
     7
370
     0
100
AcDbLine
 10
240.8373809074
 20
137.6660910161
 30
0.0
 11
240.7564780769
 21
137.4447011457
 31
0.0
  0
LINE
  5
157
330
1F
100
AcDbEntity
  8
0
  6
HIDDEN
 62
     7
370
     0
100
AcDbLine
 10
245.1961227189
 20
137.9995446997
 30
0.0
 11
240.8373809074
 21
137.6660910161
 31
0.0
  0
LINE
  5
158
330
1F
100
AcDbEntity
  8
0
  6
HIDDEN
 62
     7
370
     0
100
AcDbLine
 10
240.6334996959
 20
137.151333235
 30
0.0
 11
245.1521149954
 21
137.4970176048
 31
0.0
  0
LINE
  5
159
330
1F
100
AcDbEntity
  8
0
  6
HIDDEN
 62
     7
370
     0
100
AcDbLine
 10
245.1521149954
 20
137.4970176048
 30
0.0
 11
245.1961227189
 21
137.9995446997
 31
0.0
  0
LINE
  5
15A
330
1F
100
AcDbEntity
  8
0
  6
HIDDEN
 62
     7
370
     0
100
AcDbLine
 10
239.5050976969
 20
136.1209367114
 30
0.0
 11
238.4583647861
 21
132.8232141147
 31
0.0
  0
LINE
  5
15B
330
1F
100
AcDbEntity
  8
0
  6
HIDDEN
 62
     7
370
     0
100
AcDbLine
 10
241.3414439849
 20
140.0915328235
 30
0.0
 11
241.6346447958
 21
140.3831274497
 31
0.0
  0
LINE
  5
15C
330
1F
100
AcDbEntity
  8
0
  6
HIDDEN
 62
     7
370
     0
100
AcDbLine
 10
240.5300672254
 20
137.3604608306
 30
0.0
 11
241.6346447958
 21
140.3831274497
 31
0.0
  0
LINE
  5
15D
330
1F
100
AcDbEntity
  8
0
  6
HIDDEN
 62
     7
370
     0
100
AcDbLine
 10
240.5300672254
 20
137.3604608306
 30
0.0
 11
240.8373809074
 21
137.6660910161
 31
0.0
  0
LINE
  5
15E
330
1F
100
AcDbEntity
  8
0
  6
HIDDEN
 62
     7
370
     0
100
AcDbLine
 10
245.1961227189
 20
137.9995446997
 30
0.0
 11
244.8888090369
 21
137.6939145142
 31
0.0
  0
ARC
  5
15F
330
1F
100
AcDbEntity
  8
0
  6
HIDDEN
 62
     7
370
     0
100
AcDbCircle
 10
239.993924063
 20
143.114420504
 30
0.0
 40
3.186208761455976
100
AcDbArc
 50
300.9937465199
 51
197.8985213787
  0
LINE
  5
160
330
1F
100
AcDbEntity
  8
0
  6
HIDDEN
 62
     7
370
     0
100
AcDbLine
 10
236.9619203644
 20
142.1351964015
 30
0.0
 11
235.1515513829
 21
137.1811379133
 31
0.0
  0
LINE
  5
161
330
1F
100
AcDbEntity
  8
0
  6
HIDDEN
 62
     7
370
     0
100
AcDbLine
 10
245.8330421426
 20
148.4760473879
 30
0.0
 11
245.3622735899
 21
148.9571967555
 31
0.0
  0
LINE
  5
162
330
1F
100
AcDbEntity
  8
0
  6
HIDDEN
 62
     7
370
     0
100
AcDbLine
 10
240.5300672254
 20
137.3604608306
 30
0.0
 11
244.8888090369
 21
137.6939145142
 31
0.0
  0
LINE
  5
163
330
1F
100
AcDbEntity
  8
0
  6
HIDDEN
 62
     7
370
     0
100
AcDbLine
 10
234.6168220332
 20
148.1990390977
 30
0.0
 11
233.9910369077
 21
141.0531574979
 31
0.0
  0
LINE
  5
164
330
1F
100
AcDbEntity
  8
0
  6
HIDDEN
 62
     7
370
     0
100
AcDbLine
 10
232.5554261005
 20
136.7503826077
 30
0.0
 11
235.0743053455
 21
136.9430826113
 31
0.0
  0
LINE
  5
165
330
1F
100
AcDbEntity
  8
0
  6
HIDDEN
 62
     7
370
     0
100
AcDbLine
 10
245.8330299597
 20
148.4760354736
 30
0.0
 11
244.8888090369
 21
137.6939145142
 31
0.0
  0
LINE
  5
166
330
1F
100
AcDbEntity
  8
0
  6
HIDDEN
 62
     7
370
     0
100
AcDbLine
 10
180.5587687633
 20
90.2880533553
 30
0.0
 11
180.5587687633
 21
83.8028750936
 31
0.0
  0
LINE
  5
167
330
1F
100
AcDbEntity
  8
0
  6
HIDDEN
 62
     7
370
     0
100
AcDbLine
 10
146.2587687633
 20
90.7189210494
 30
0.0
 11
146.2587687633
 21
84.6646104819
 31
0.0
  0
LINE
  5
168
330
1F
100
AcDbEntity
  8
0
  6
HIDDEN
 62
     7
370
     0
100
AcDbLine
 10
144.7587687633
 20
91.1519337513
 30
0.0
 11
144.7587687633
 21
85.5306358856
 31
0.0
  0
SPLINE
  5
169
330
1F
100
AcDbEntity
  8
0
  6
HIDDEN
 62
     7
370
     0
100
AcDbSpline
210
0.0
220
0.0
230
1.0
 70
     8
 71
     3
 72
    16
 73
    12
 74
     0
 42
0.00000001
 43
0.00000001
 12
1.0
 22
0.0
 32
0.0
 13
1.0
 23
0.0
 33
0.0
 40
0.0
 40
0.0
 40
0.0
 40
0.0
 40
0.2499999999999998
 40
0.2499999999999998
 40
0.3749999999999995
 40
0.3749999999999995
 40
0.4999999999999992
 40
0.4999999999999992
 40
0.7499999999999996
 40
0.7499999999999996
 40
1.0
 40
1.0
 40
1.0
 40
1.0
 10
181.4374484197212
 20
89.23906725189978
 30
0.0
 10
181.2762159422367
 20
88.52467308970768
 30
0.0
 10
181.1557361025971
 20
87.87133082699899
 30
0.0
 10
181.0333555852838
 20
86.98307558519511
 30
0.0
 10
181.0023779248864
 20
86.70239504884326
 30
0.0
 10
180.9607641872584
 20
86.17336105900328
 30
0.0
 10
180.9505282743256
 20
85.93004008042482
 30
0.0
 10
180.9503398772695
 20
85.2620173899116
 30
0.0
 10
180.9904845799071
 20
84.89833648049213
 30
0.0
 10
181.1546383348467
 20
84.33844560794383
 30
0.0
 10
181.2761899852562
 20
84.15092431582667
 30
0.0
 10
181.4374484197212
 20
84.05289292313873
 30
0.0
  0
LINE
  5
16A
330
1F
100
AcDbEntity
  8
0
  6
HIDDEN
 62
     7
370
     0
100
AcDbLine
 10
146.2587687633
 20
126.9813372744
 30
0.0
 11
146.2587687633
 21
120.9270267069
 31
0.0
  0
LINE
  5
16B
330
1F
100
AcDbEntity
  8
0
  6
HIDDEN
 62
     7
370
     0
100
AcDbLine
 10
144.7587687633
 20
126.1153118706
 30
0.0
 11
144.7587687633
 21
120.494014005
 31
0.0
  0
SPLINE
  5
16C
330
1F
100
AcDbEntity
  8
0
  6
HIDDEN
 62
     7
370
     0
100
AcDbSpline
210
0.0
220
0.0
230
1.0
 70
     8
 71
     3
 72
    16
 73
    12
 74
     0
 42
0.00000001
 43
0.00000001
 12
1.0
 22
0.0
 32
0.0
 13
1.0
 23
0.0
 33
0.0
 40
0.0
 40
0.0
 40
0.0
 40
0.0
 40
0.25
 40
0.25
 40
0.375
 40
0.375
 40
0.5
 40
0.5
 40
0.75
 40
0.75
 40
1.0
 40
1.0
 40
1.0
 40
1.0
 10
181.4374484197212
 20
127.5930548331429
 30
0.0
 10
181.2762159422367
 20
127.4950392200882
 30
0.0
 10
181.1557361025971
 20
127.3083031884122
 30
0.0
 10
181.0333555852838
 20
126.8952633808533
 30
0.0
 10
181.0023779248864
 20
126.7352628816203
 30
0.0
 10
180.9607641872584
 20
126.3684572305292
 30
0.0
 10
180.9505282743256
 20
126.1651200779052
 30
0.0
 10
180.9503398772695
 20
125.4978328112785
 30
0.0
 10
180.9904845799071
 20
124.9770183473905
 30
0.0
 10
181.1546383348467
 20
123.7796593319128
 30
0.0
 10
181.2761899852562
 20
123.1213896776168
 30
0.0
 10
181.4374484197212
 20
122.4068805043819
 30
0.0
  0
LINE
  5
16D
330
1F
100
AcDbEntity
  8
0
  6
HIDDEN
 62
     7
370
     0
100
AcDbLine
 10
180.5587687633
 20
127.8430726627
 30
0.0
 11
180.5587687633
 21
121.357894401
 31
0.0
  0
ARC
  5
16E
330
1F
100
AcDbEntity
  8
0
  6
HIDDEN
 62
     7
370
     0
100
AcDbCircle
 10
239.3877176145
 20
142.5228756761
 30
0.0
 40
3.184671549465716
100
AcDbArc
 50
293.3481938811
 51
68.2745221986
  0
ARC
  5
16F
330
1F
100
AcDbEntity
  8
0
  6
HIDDEN
 62
     7
370
     0
100
AcDbCircle
 10
239.3614298664
 20
142.5656175588
 30
0.0
 40
3.154005221607579
100
AcDbArc
 50
72.0289887394
 51
206.9475966146
  0
SPLINE
  5
170
330
1F
100
AcDbEntity
  8
0
  6
HIDDEN
 62
     7
370
     0
100
AcDbSpline
210
0.0
220
0.0
230
1.0
 70
     8
 71
     3
 72
    10
 73
     6
 74
     0
 42
0.00000001
 43
0.00000001
 12
1.0
 22
0.0
 32
0.0
 13
1.0
 23
0.0
 33
0.0
 40
0.0
 40
0.0
 40
0.0
 40
0.0
 40
0.5
 40
0.5
 40
1.0
 40
1.0
 40
1.0
 40
1.0
 10
236.5498821904419
 20
141.1363000279927
 30
0.0
 10
236.5410345955028
 20
141.2968538109394
 30
0.0
 10
236.5479883393875
 20
141.4436650880137
 30
0.0
 10
236.5874216695087
 20
141.6916350516774
 30
0.0
 10
236.6194114296428
 20
141.7945637665556
 30
0.0
 10
236.6687195534146
 20
141.8436017752662
 30
0.0
  0
SPLINE
  5
171
330
1F
100
AcDbEntity
  8
0
  6
HIDDEN
 62
     7
370
     0
100
AcDbSpline
210
0.0
220
0.0
230
1.0
 70
     8
 71
     3
 72
    10
 73
     6
 74
     0
 42
0.00000001
 43
0.00000001
 12
1.0
 22
0.0
 32
0.0
 13
1.0
 23
0.0
 33
0.0
 40
0.0
 40
0.0
 40
0.0
 40
0.0
 40
0.5
 40
0.5
 40
1.0
 40
1.0
 40
1.0
 40
1.0
 10
241.3414439848523
 20
140.0915328234517
 30
0.0
 10
241.292047942341
 20
140.0424073776296
 30
0.0
 10
241.1957558161
 20
139.9647471721181
 30
0.0
 10
240.9571852714475
 20
139.7913629175367
 30
0.0
 10
240.8134629648821
 20
139.6950759595781
 30
0.0
 10
240.6498599752323
 20
139.5989862220406
 30
0.0
  0
LINE
  5
172
330
1F
100
AcDbEntity
  8
0
  6
HIDDEN
 62
     7
370
     0
100
AcDbLine
 10
236.9619203644
 20
142.1351964015
 30
0.0
 11
236.6687195534
 21
141.8436017753
 31
0.0
  0
SPLINE
  5
173
330
1F
100
AcDbEntity
  8
0
  6
HIDDEN
 62
     7
370
     0
100
AcDbSpline
210
0.0
220
0.0
230
1.0
 70
     8
 71
     3
 72
    39
 73
    35
 74
     0
 42
0.00000001
 43
0.00000001
 12
1.0
 22
0.0
 32
0.0
 13
1.0
 23
0.0
 33
0.0
 40
0.0
 40
0.0
 40
0.0
 40
0.0
 40
0.0238264578982867
 40
0.0476152309630409
 40
0.0713722698776178
 40
0.095103549197661
 40
0.118815062950644
 40
0.1425128201623445
 40
0.1662028403266737
 40
0.1898911488357833
 40
0.2135837723877245
 40
0.23728673438913
 40
0.2610060503704346
 40
0.2847477234310392
 40
0.3085177397315629
 40
0.3323220640498978
 40
0.3561666354172475
 40
0.3800573628496127
 40
0.4040001211893977
 40
0.4280007470708603
 40
0.4520650350221239
 40
0.4761987337153525
 40
0.5004075423755195
 40
0.5465439876718375
 40
0.5924133731608557
 40
0.6380558789921076
 40
0.6835122869543219
 40
0.7288238813199405
 40
0.7740323430935626
 40
0.8191796389237177
 40
0.864307906101504
 40
0.9094593351931672
 40
0.954676051929624
 40
1.0
 40
1.0
 40
1.0
 40
1.0
 10
242.1381139636129
 20
134.5979312713353
 30
0.0
 10
242.1691997469823
 20
134.7679224216454
 30
0.0
 10
242.2313221472617
 20
135.107635857786
 30
0.0
 10
242.3245074329469
 20
135.6076539316966
 30
0.0
 10
242.4175886274477
 20
136.1000966922706
 30
0.0
 10
242.5105722053926
 20
136.5843163988572
 30
0.0
 10
242.603456412918
 20
137.0604861487919
 30
0.0
 10
242.6962416967085
 20
137.5285594978597
 30
0.0
 10
242.788927914462
 20
137.9885487504685
 30
0.0
 10
242.8815150814543
 20
138.4404504928753
 30
0.0
 10
242.9740031708064
 20
138.8842655278666
 30
0.0
 10
243.0663921670875
 20
139.3199935369698
 30
0.0
 10
243.1586820520674
 20
139.7476345109151
 30
0.0
 10
243.250872808656
 20
140.1671883667348
 30
0.0
 10
243.3429644199194
 20
140.578655050691
 30
0.0
 10
243.4349568695825
 20
140.9820345112919
 30
0.0
 10
243.5268501414823
 20
141.3773267054856
 30
0.0
 10
243.6186442217138
 20
141.7645316018202
 30
0.0
 10
243.7103390909915
 20
142.1436491620813
 30
0.0
 10
243.8019347535326
 20
142.5146794119732
 30
0.0
 10
243.8934311291337
 20
142.8776221756412
 30
0.0
 10
243.9848284578156
 20
143.2324780701223
 30
0.0
 10
244.1035869539541
 20
143.6835481581769
 30
0.0
 10
244.248739469967
 20
144.2170249966545
 30
0.0
 10
244.41903803844
 20
144.8145683581118
 30
0.0
 10
244.5867150281341
 20
145.3741254397717
 30
0.0
 10
244.7517691994655
 20
145.8956910305618
 30
0.0
 10
244.9141999533666
 20
146.3792590266579
 30
0.0
 10
245.0740082213781
 20
146.8248452053916
 30
0.0
 10
245.2311881903941
 20
147.2323806108602
 30
0.0
 10
245.3857595079478
 20
147.602114881569
 30
0.0
 10
245.5376468078001
 20
147.9331100279398
 30
0.0
 10
245.687129963374
 20
148.2288685727558
 30
0.0
 10
245.7843380504588
 20
148.3935613984265
 30
0.0
 10
245.8329996579305
 20
148.4760053377789
 30
0.0
  0
LWPOLYLINE
  5
174
330
1F
100
AcDbEntity
  8
0
  6
HIDDEN
 62
     7
370
     0
100
AcDbPolyline
 90
       14
 70
   128
 43
0.0
 10
239.5050976969
 20
136.1209367114
 10
239.5766498916
 20
136.5857054436
 10
239.5082628531
 20
137.074375446
 10
239.3039109876
 20
137.5585469942
 10
238.9754704828
 20
138.0100817978
 10
238.5420291068
 20
138.4027382952
 10
238.0287768971
 20
138.713696718
 10
237.4655422063
 20
138.924885293
 10
236.8850581876
 20
139.0240305079
 10
236.3210604621
 20
139.0053704032
 10
235.8063265274
 20
138.8699894362
 10
235.3707708491
 20
138.6257554567
 10
235.0397063398
 20
138.2868624559
 10
234.8323732655
 20
137.8730056632
  0
ELLIPSE
  5
175
330
1F
100
AcDbEntity
  8
0
  6
HIDDEN
 62
     7
370
     0
100
AcDbEllipse
 10
238.118850832
 20
139.0513355208
 30
0.0
 11
0.9406553105117155
 21
2.766158975077417
 31
0.0
210
0.0
220
0.0
230
1.0
 40
0.8539059128
 41
5.18628819658465
 42
7.327234951271437
  0
LINE
  5
176
330
1F
100
AcDbEntity
  8
0
  6
HIDDEN
 62
     7
370
     0
100
AcDbLine
 10
233.7856403546
 20
134.5752830665
 30
0.0
 11
234.8323732655
 21
137.8730056632
 31
0.0
  0
LINE
  5
177
330
1F
100
AcDbEntity
  8
0
  6
HIDDEN
 62
     7
370
     0
100
AcDbLine
 10
144.7587687633
 20
120.494014005
 30
0.0
 11
144.7587687633
 21
108.7249612111
 31
0.0
  0
LINE
  5
178
330
1F
100
AcDbEntity
  8
0
  6
HIDDEN
 62
     7
370
     0
100
AcDbLine
 10
144.7587687633
 20
102.9209865452
 30
0.0
 11
144.7587687633
 21
91.1519337513
 31
0.0
  0
LINE
  5
179
330
1F
100
AcDbEntity
  8
0
  6
HIDDEN
 62
     7
370
     0
100
AcDbLine
 10
146.2587687633
 20
101.8577629813
 30
0.0
 11
146.2587687633
 21
90.7189210494
 31
0.0
  0
LINE
  5
17A
330
1F
100
AcDbEntity
  8
0
  6
HIDDEN
 62
     7
370
     0
100
AcDbLine
 10
146.2587687633
 20
120.9270267069
 30
0.0
 11
146.2587687633
 21
109.788184775
 31
0.0
  0
LINE
  5
17B
330
1F
100
AcDbEntity
  8
0
  6
HIDDEN
 62
     7
370
     0
100
AcDbLine
 10
182.5587687633
 20
120.8606810406
 30
0.0
 11
182.5587687633
 21
90.7852667156
 31
0.0
  0
LINE
  5
17C
330
1F
100
AcDbEntity
  8
0
  6
HIDDEN
 62
     7
370
     0
100
AcDbLine
 10
180.5587687633
 20
121.357894401
 30
0.0
 11
180.5587687633
 21
90.2880533553
 31
0.0
  0
SPLINE
  5
17D
330
1F
100
AcDbEntity
  8
0
  6
HIDDEN
 62
     7
370
     0
100
AcDbSpline
210
0.0
220
0.0
230
1.0
 70
     8
 71
     3
 72
    24
 73
    20
 74
     0
 42
0.00000001
 43
0.00000001
 12
1.0
 22
0.0
 32
0.0
 13
1.0
 23
0.0
 33
0.0
 40
0.0
 40
0.0
 40
0.0
 40
0.0
 40
0.1250000000000001
 40
0.1250000000000001
 40
0.2500000000000001
 40
0.2500000000000001
 40
0.3750000000000002
 40
0.3750000000000002
 40
0.4375000000000002
 40
0.4375000000000002
 40
0.5000000000000002
 40
0.5000000000000002
 40
0.6250000000000001
 40
0.6250000000000001
 40
0.7500000000000001
 40
0.7500000000000001
 40
0.875
 40
0.875
 40
1.0
 40
1.0
 40
1.0
 40
1.0
 10
151.2087687632809
 20
101.7370128250416
 30
0.0
 10
151.446572395556
 20
102.0360199273717
 30
0.0
 10
151.6766580567673
 20
102.3403577786904
 30
0.0
 10
152.1114114553771
 20
102.9660913160864
 30
0.0
 10
152.3163442476632
 20
103.2873160434139
 30
0.0
 10
152.681446198162
 20
103.9592418141467
 30
0.0
 10
152.8432465839535
 20
104.3145570460256
 30
0.0
 10
153.0151067885332
 20
104.864788267378
 30
0.0
 10
153.0606919801933
 20
105.0511920523585
 30
0.0
 10
153.1231667197682
 20
105.4313265544547
 30
0.0
 10
153.1398378655166
 20
105.6269963467406
 30
0.0
 10
153.1403589086931
 20
106.2054767254151
 30
0.0
 10
153.0759166078064
 20
106.5833885643839
 30
0.0
 10
152.8460675144331
 20
107.3253565894823
 30
0.0
 10
152.68754683677
 20
107.6740720496432
 30
0.0
 10
152.3233125068698
 20
108.3471644473764
 30
0.0
 10
152.1165762668062
 20
108.672116934618
 30
0.0
 10
151.6786383210659
 20
109.3030407450798
 30
0.0
 10
151.4473655937863
 20
109.6089304854205
 30
0.0
 10
151.208768763281
 20
109.90893493124
 30
0.0
  0
LINE
  5
17E
330
1F
100
AcDbEntity
  8
0
  6
HIDDEN
 62
     7
370
     0
100
AcDbLine
 10
151.2087687633
 20
101.737012825
 30
0.0
 11
151.2087687633
 21
109.9089349312
 31
0.0
  0
SPLINE
  5
17F
330
1F
100
AcDbEntity
  8
0
  6
HIDDEN
 62
     7
370
     0
100
AcDbSpline
210
0.0
220
0.0
230
1.0
 70
     8
 71
     3
 72
     8
 73
     4
 74
     0
 42
0.00000001
 43
0.00000001
 12
1.0
 22
0.0
 32
0.0
 13
1.0
 23
0.0
 33
0.0
 40
0.0000249638557296
 40
0.0000249638557296
 40
0.0000249638557296
 40
0.0000249638557296
 40
0.0049776420541172
 40
0.0049776420541172
 40
0.0049776420541172
 40
0.0049776420541172
 10
146.2587687632809
 20
101.8577629813043
 30
0.0
 10
147.9087449977904
 20
101.8164837435361
 30
0.0
 10
149.5587463175355
 20
101.7762620622966
 30
0.0
 10
151.2087687632809
 20
101.7370128250416
 30
0.0
  0
SPLINE
  5
180
330
1F
100
AcDbEntity
  8
0
  6
HIDDEN
 62
     7
370
     0
100
AcDbSpline
210
0.0
220
0.0
230
1.0
 70
     8
 71
     3
 72
     8
 73
     4
 74
     0
 42
0.00000001
 43
0.00000001
 12
1.0
 22
0.0
 32
0.0
 13
1.0
 23
0.0
 33
0.0
 40
0.0000249631533153
 40
0.0000249631533153
 40
0.0000249631533153
 40
0.0000249631533153
 40
0.0049776413517029
 40
0.0049776413517029
 40
0.0049776413517029
 40
0.0049776413517029
 10
151.2087687632809
 20
109.9089349312401
 30
0.0
 10
149.5587463175354
 20
109.8696856939851
 30
0.0
 10
147.9087449977904
 20
109.8294640127456
 30
0.0
 10
146.2587687632809
 20
109.7881847749774
 30
0.0
  0
SPLINE
  5
181
330
1F
100
AcDbEntity
  8
0
  6
HIDDEN
 62
     7
370
     0
100
AcDbSpline
210
0.0
220
0.0
230
1.0
 70
     8
 71
     3
 72
     8
 73
     4
 74
     0
 42
0.00000001
 43
0.00000001
 12
1.0
 22
0.0
 32
0.0
 13
1.0
 23
0.0
 33
0.0
 40
0.0
 40
0.0
 40
0.0
 40
0.0
 40
1.0
 40
1.0
 40
1.0
 40
1.0
 10
144.7587687632787
 20
102.9209865451605
 30
0.0
 10
145.2255293746564
 20
102.5056232995374
 30
0.0
 10
145.7312769214365
 20
102.1610328702329
 30
0.0
 10
146.2587687632809
 20
101.8577629813043
 30
0.0
  0
SPLINE
  5
182
330
1F
100
AcDbEntity
  8
0
  6
HIDDEN
 62
     7
370
     0
100
AcDbSpline
210
0.0
220
0.0
230
1.0
 70
     8
 71
     3
 72
     8
 73
     4
 74
     0
 42
0.00000001
 43
0.00000001
 12
1.0
 22
0.0
 32
0.0
 13
1.0
 23
0.0
 33
0.0
 40
0.0
 40
0.0
 40
0.0
 40
0.0
 40
1.0
 40
1.0
 40
1.0
 40
1.0
 10
146.2587687632809
 20
109.7881847749774
 30
0.0
 10
145.7312769214373
 20
109.4849148860493
 30
0.0
 10
145.225529374658
 20
109.1403244567453
 30
0.0
 10
144.7587687632809
 20
108.7249612111232
 30
0.0
  0
LINE
  5
183
330
1F
100
AcDbEntity
  8
0
  6
HIDDEN
 62
     7
370
     0
100
AcDbLine
 10
144.7587687633
 20
102.9209865452
 30
0.0
 11
144.7587687633
 21
108.7249612111
 31
0.0
  0
SPLINE
  5
184
330
1F
100
AcDbEntity
  8
0
  6
HIDDEN
 62
     7
370
     0
100
AcDbSpline
210
0.0
220
0.0
230
1.0
 70
     8
 71
     3
 72
    70
 73
    66
 74
     0
 42
0.00000001
 43
0.00000001
 12
1.0
 22
0.0
 32
0.0
 13
1.0
 23
0.0
 33
0.0
 40
-0.03125
 40
-0.03125
 40
0.0
 40
0.0
 40
0.03125
 40
0.03125
 40
0.0625
 40
0.0625
 40
0.09375
 40
0.09375
 40
0.125
 40
0.125
 40
0.15625
 40
0.15625
 40
0.1875
 40
0.1875
 40
0.21875
 40
0.21875
 40
0.25
 40
0.25
 40
0.28125
 40
0.28125
 40
0.3125
 40
0.3125
 40
0.34375
 40
0.34375
 40
0.375
 40
0.375
 40
0.40625
 40
0.40625
 40
0.4375
 40
0.4375
 40
0.46875
 40
0.46875
 40
0.5
 40
0.5
 40
0.53125
 40
0.53125
 40
0.5625
 40
0.5625
 40
0.59375
 40
0.59375
 40
0.625
 40
0.625
 40
0.65625
 40
0.65625
 40
0.6875
 40
0.6875
 40
0.71875
 40
0.71875
 40
0.75
 40
0.75
 40
0.78125
 40
0.78125
 40
0.8125
 40
0.8125
 40
0.84375
 40
0.84375
 40
0.875
 40
0.875
 40
0.90625
 40
0.90625
 40
0.9375
 40
0.9375
 40
0.96875
 40
0.96875
 40
1.0
 40
1.0
 40
1.03125
 40
1.03125
 10
164.3158463196598
 20
108.7291835654582
 30
0.0
 10
164.7475247416115
 20
109.0787031600777
 30
0.0
 10
164.9773069141607
 20
109.2303025958311
 30
0.0
 10
165.4632593295769
 20
109.4897960642989
 30
0.0
 10
165.7212667473482
 20
109.597841170298
 30
0.0
 10
166.2453924009594
 20
109.7630781453247
 30
0.0
 10
166.5133594123887
 20
109.8215829471864
 30
0.0
 10
167.0610926201878
 20
109.8904223738453
 30
0.0
 10
167.3395534271172
 20
109.9000246280411
 30
0.0
 10
167.8867566213343
 20
109.8701985505088
 30
0.0
 10
168.1581443394023
 20
109.8311917304664
 30
0.0
 10
168.6963513356087
 20
109.7032213732581
 30
0.0
 10
168.9580139272673
 20
109.6151917690006
 30
0.0
 10
169.4578683657001
 20
109.3949225136884
 30
0.0
 10
169.6979133593647
 20
109.2621188450662
 30
0.0
 10
170.154583159999
 20
108.9491235208177
 30
0.0
 10
170.3643863318295
 20
108.7736923740819
 30
0.0
 10
170.7473088212052
 20
108.3851253449857
 30
0.0
 10
170.9219270837453
 20
108.169659655119
 30
0.0
 10
171.2232301472781
 20
107.7076690649355
 30
0.0
 10
171.3483435875192
 20
107.4646362367013
 30
0.0
 10
171.5467876640798
 20
106.9540591792594
 30
0.0
 10
171.6202474476589
 20
106.68308777313
 30
0.0
 10
171.7054450983038
 20
106.1399773002322
 30
0.0
 10
171.7186124030609
 20
105.8660876446511
 30
0.0
 10
171.6845729663906
 20
105.3135174817712
 30
0.0
 10
171.6370252863898
 20
105.0393526891947
 30
0.0
 10
171.4862336272482
 20
104.5117265493698
 30
0.0
 10
171.3811988408924
 20
104.252857059422
 30
0.0
 10
171.121824067515
 20
103.7667341066951
 30
0.0
 10
170.968506755106
 20
103.5396222060402
 30
0.0
 10
170.6163640517899
 20
103.1159591912117
 30
0.0
 10
170.4180329485814
 20
102.9210044268745
 30
0.0
 10
169.9927652145606
 20
102.5761811832243
 30
0.0
 10
169.7629024766035
 20
102.4234973164357
 30
0.0
 10
169.2757248569663
 20
102.1620031650768
 30
0.0
 10
169.0232183653117
 20
102.0554758162668
 30
0.0
 10
168.5011521545763
 20
101.8884682265513
 30
0.0
 10
168.2287906675448
 20
101.8277886174103
 30
0.0
 10
167.6824817124337
 20
101.7568969158328
 30
0.0
 10
167.4086719731177
 20
101.7460541768566
 30
0.0
 10
166.8597475680142
 20
101.7731805684983
 30
0.0
 10
166.5823919952538
 20
101.8120168294331
 30
0.0
 10
166.0471094490534
 20
101.9372494524237
 30
0.0
 10
165.7870931948861
 20
102.0233485404303
 30
0.0
 10
165.2826718931609
 20
102.243680027703
 30
0.0
 10
165.0377295957051
 20
102.3790048534417
 30
0.0
 10
164.5852102895397
 20
102.6883538727106
 30
0.0
 10
164.374762769503
 20
102.8633476539564
 30
0.0
 10
163.9872531595828
 20
103.2563775640312
 30
0.0
 10
163.8123612002711
 20
103.4731915912309
 30
0.0
 10
163.5137306227708
 20
103.9317689283527
 30
0.0
 10
163.3876789439799
 20
104.1758680133219
 30
0.0
 10
163.1868515701738
 20
104.6946116447042
 30
0.0
 10
163.1156788806765
 20
104.9598392692582
 30
0.0
 10
163.0305839488851
 20
105.5017790739826
 30
0.0
 10
163.0171583490731
 20
105.782081955245
 30
0.0
 10
163.0510191479627
 20
106.3322610902244
 30
0.0
 10
163.0972967795055
 20
106.6028506646067
 30
0.0
 10
163.2483905905736
 20
107.1350638174059
 30
0.0
 10
163.3529293598795
 20
107.3933472997891
 30
0.0
 10
163.6103930945119
 20
107.878321239876
 30
0.0
 10
163.7657401319063
 20
108.1096102685452
 30
0.0
 10
164.1190696010169
 20
108.5353386696738
 30
0.0
 10
164.3158463196598
 20
108.7291835654582
 30
0.0
 10
164.7475247416115
 20
109.0787031600777
 30
0.0
  0
CIRCLE
  5
185
330
1F
100
AcDbEntity
  8
0
  6
HIDDEN
 62
     7
370
     0
100
AcDbCircle
 10
167.2587687633
 20
105.8229738781
 30
0.0
 40
4.050000000000011
  0
LINE
  5
186
330
1F
100
AcDbEntity
  8
0
  6
HIDDEN
 62
     7
370
     0
100
AcDbLine
 10
220.9103436133
 20
81.2965779799
 30
0.0
 11
220.9103436133
 21
81.3040933347
 31
0.0
  0
LINE
  5
187
330
1F
100
AcDbEntity
  8
0
  6
HIDDEN
 62
     7
370
     0
100
AcDbLine
 10
220.9103436133
 20
105.8229738781
 30
0.0
 11
220.9103436133
 21
81.2965779799
 31
0.0
  0
ELLIPSE
  5
188
330
1F
100
AcDbEntity
  8
0
  6
HIDDEN
 62
     7
370
     0
100
AcDbEllipse
 10
238.9891699988
 20
105.8229738781
 30
0.0
 11
22.77024170696271
 21
31.99658238112863
 31
0.0
210
0.0
220
0.0
230
1.0
 40
0.0205386817
 41
1.585411557947093
 42
2.458707156312493
  0
CIRCLE
  5
189
330
1F
100
AcDbEntity
  8
0
  6
HIDDEN
 62
     7
370
     0
100
AcDbCircle
 10
194.7587687633
 20
105.8229738781
 30
0.0
 40
1.999999999999986
  0
LINE
  5
18A
330
1F
100
AcDbEntity
  8
0
  6
HIDDEN
 62
     7
370
     0
100
AcDbLine
 10
220.9103436133
 20
105.8229738781
 30
0.0
 11
220.9103436133
 21
108.4237453576
 31
0.0
  0
LINE
  5
18B
330
1F
100
AcDbEntity
  8
0
  6
HIDDEN
 62
     7
370
     0
100
AcDbLine
 10
241.7230745815
 20
135.2529590571
 30
0.0
 11
242.1393596721
 21
134.5959506605
 31
0.0
  0
LINE
  5
18C
330
1F
100
AcDbEntity
  8
0
  6
HIDDEN
 62
     7
370
     0
100
AcDbLine
 10
242.1381139628
 20
134.5979312714
 30
0.0
 11
239.5142690576
 21
107.9531622066
 31
0.0
  0
LINE
  5
18D
330
1F
100
AcDbEntity
  8
0
  6
HIDDEN
 62
     7
370
     0
100
AcDbLine
 10
239.5142690576
 20
107.9531622066
 30
0.0
 11
237.9992920648
 21
105.8229738781
 31
0.0
  0
LINE
  5
18E
330
1F
100
AcDbEntity
  8
0
  6
HIDDEN
 62
     7
370
     0
100
AcDbLine
 10
206.7587687633
 20
118.0729738781
 30
0.0
 11
206.7587687633
 21
121.5729738781
 31
0.0
  0
LINE
  5
18F
330
1F
100
AcDbEntity
  8
0
  6
HIDDEN
 62
     7
370
     0
100
AcDbLine
 10
200.7587687633
 20
121.5727028552
 30
0.0
 11
200.7587687633
 21
118.0729738781
 31
0.0
  0
LINE
  5
190
330
1F
100
AcDbEntity
  8
0
  6
HIDDEN
 62
     7
370
     0
100
AcDbLine
 10
182.7587687633
 20
81.5729738781
 30
0.0
 11
182.8516619821
 21
81.665867097
 31
0.0
  0
LINE
  5
191
330
1F
100
AcDbEntity
  8
0
  6
HIDDEN
 62
     7
370
     0
100
AcDbLine
 10
182.8516619821
 20
129.9800806593
 30
0.0
 11
182.7587687633
 21
130.0729738781
 31
0.0
  0
ARC
  5
192
330
1F
100
AcDbEntity
  8
0
  6
HIDDEN
 62
     7
370
     0
100
AcDbCircle
 10
182.1445552009
 20
82.3729738781
 30
0.0
 40
1.000000000000008
100
AcDbArc
 50
315.0
 51
0.0
  0
ARC
  5
193
330
1F
100
AcDbEntity
  8
0
  6
HIDDEN
 62
     7
370
     0
100
AcDbCircle
 10
182.1445552009
 20
82.3729738781
 30
0.0
 40
1.0
100
AcDbArc
 50
0.0
 51
52.1052014664
  0
ARC
  5
194
330
1F
100
AcDbEntity
  8
0
  6
HIDDEN
 62
     7
370
     0
100
AcDbCircle
 10
182.1445552009
 20
129.2729738781
 30
0.0
 40
1.000000000000028
100
AcDbArc
 50
351.8087250651
 51
45.0
  0
ARC
  5
195
330
1F
100
AcDbEntity
  8
0
  6
HIDDEN
 62
     7
370
     0
100
AcDbCircle
 10
182.1445552009
 20
129.2729738781
 30
0.0
 40
1.000000000000002
100
AcDbArc
 50
307.8947985336
 51
351.8087250651
  0
LINE
  5
196
330
1F
100
AcDbEntity
  8
0
  6
HIDDEN
 62
     7
370
     0
100
AcDbLine
 10
183.1445552009
 20
82.3729738781
 30
0.0
 11
183.1445552009
 21
129.2729738781
 31
0.0
  0
LINE
  5
197
330
1F
100
AcDbEntity
  8
0
  6
HIDDEN
 62
     7
370
     0
100
AcDbLine
 10
183.1445552009
 20
82.3729738781
 30
0.0
 11
183.1445552009
 21
129.2729738781
 31
0.0
  0
LINE
  5
198
330
1F
100
AcDbEntity
  8
0
  6
HIDDEN
 62
     7
370
     0
100
AcDbLine
 10
206.2587687633
 20
116.8233311489
 30
0.0
 11
206.2587687633
 21
117.9227587234
 31
0.0
  0
LINE
  5
199
330
1F
100
AcDbEntity
  8
0
  6
HIDDEN
 62
     7
370
     0
100
AcDbLine
 10
206.2587687633
 20
110.3220137131
 30
0.0
 11
206.2587687633
 21
114.6633363987
 31
0.0
  0
LINE
  5
19A
330
1F
100
AcDbEntity
  8
0
  6
HIDDEN
 62
     7
370
     0
100
AcDbLine
 10
201.2587687633
 20
117.9227587234
 30
0.0
 11
201.2587687633
 21
110.3217490852
 31
0.0
  0
LINE
  5
19B
330
1F
100
AcDbEntity
  8
0
  6
HIDDEN
 62
     7
370
     0
100
AcDbLine
 10
212.797788626
 20
125.7459315858
 30
0.0
 11
203.7086012292
 21
118.3902540575
 31
0.0
  0
LINE
  5
19C
330
1F
100
AcDbEntity
  8
0
  6
HIDDEN
 62
     7
370
     0
100
AcDbLine
 10
206.1819028418
 20
113.9596369332
 30
0.0
 11
212.6335466562
 21
119.1808090089
 31
0.0
  0
LINE
  5
19D
330
1F
100
AcDbEntity
  8
0
  6
HIDDEN
 62
     7
370
     0
100
AcDbLine
 10
144.7587687633
 20
89.6265450337
 30
0.0
 11
146.2889972029
 21
90.5100228352
 31
0.0
  0
LINE
  5
19E
330
1F
100
AcDbEntity
  8
0
  6
HIDDEN
 62
     7
370
     0
100
AcDbLine
 10
146.2889972029
 20
121.1359249211
 30
0.0
 11
144.7587687633
 21
122.0194027226
 31
0.0
  0
ARC
  5
19F
330
1F
100
AcDbEntity
  8
0
  6
HIDDEN
 62
     7
370
     0
100
AcDbCircle
 10
155.7605700782
 20
91.8229738781
 30
0.0
 40
2.000000000000046
100
AcDbArc
 50
270.0
 51
315.0
  0
ARC
  5
1A0
330
1F
100
AcDbEntity
  8
0
  6
HIDDEN
 62
     7
370
     0
100
AcDbCircle
 10
155.7605700782
 20
119.8229738781
 30
0.0
 40
2.000000000000036
100
AcDbArc
 50
45.0
 51
90.0
  0
LINE
  5
1A1
330
1F
100
AcDbEntity
  8
0
  6
HIDDEN
 62
     7
370
     0
100
AcDbLine
 10
154.7587687633
 20
89.8229738781
 30
0.0
 11
155.7605700782
 21
89.8229738781
 31
0.0
  0
LINE
  5
1A2
330
1F
100
AcDbEntity
  8
0
  6
HIDDEN
 62
     7
370
     0
100
AcDbLine
 10
155.7605700782
 20
121.8229738781
 30
0.0
 11
154.7587687633
 21
121.8229738781
 31
0.0
  0
ARC
  5
1A3
330
1F
100
AcDbEntity
  8
0
  6
HIDDEN
 62
     7
370
     0
100
AcDbCircle
 10
154.7587687633
 20
91.8229738781
 30
0.0
 40
2.000000000000004
100
AcDbArc
 50
189.9742217944
 51
270.0
  0
ARC
  5
1A4
330
1F
100
AcDbEntity
  8
0
  6
HIDDEN
 62
     7
370
     0
100
AcDbCircle
 10
154.7587687633
 20
119.8229738781
 30
0.0
 40
2.000000000000001
100
AcDbArc
 50
90.0
 51
170.0257782056
  0
LINE
  5
1A5
330
1F
100
AcDbEntity
  8
0
  6
HIDDEN
 62
     7
370
     0
100
AcDbLine
 10
157.1747836405
 20
90.4087603158
 30
0.0
 11
158.5889972029
 21
91.8229738781
 31
0.0
  0
LINE
  5
1A6
330
1F
100
AcDbEntity
  8
0
  6
HIDDEN
 62
     7
370
     0
100
AcDbLine
 10
158.5889972029
 20
119.8229738781
 30
0.0
 11
157.1747836405
 21
121.2371874405
 31
0.0
  0
LINE
  5
1A7
330
1F
100
AcDbEntity
  8
0
  6
HIDDEN
 62
     7
370
     0
100
AcDbLine
 10
146.2889972029
 20
90.5100228352
 30
0.0
 11
151.1889972029
 21
91.8229738781
 31
0.0
  0
LINE
  5
1A8
330
1F
100
AcDbEntity
  8
0
  6
HIDDEN
 62
     7
370
     0
100
AcDbLine
 10
151.1889972029
 20
119.8229738781
 30
0.0
 11
146.2889972029
 21
121.1359249211
 31
0.0
  0
LINE
  5
1A9
330
1F
100
AcDbEntity
  8
0
  6
HIDDEN
 62
     7
370
     0
100
AcDbLine
 10
152.7889972029
 20
120.1693840397
 30
0.0
 11
152.1889972029
 21
119.8229738781
 31
0.0
  0
LINE
  5
1AA
330
1F
100
AcDbEntity
  8
0
  6
HIDDEN
 62
     7
370
     0
100
AcDbLine
 10
152.1889972029
 20
91.8229738781
 30
0.0
 11
152.7889972029
 21
91.4765637166
 31
0.0
  0
ARC
  5
1AB
330
1F
100
AcDbEntity
  8
0
  6
HIDDEN
 62
     7
370
     0
100
AcDbCircle
 10
171.2587687633
 20
92.3229738781
 30
0.0
 40
0.5
100
AcDbArc
 50
270.0
 51
360.0
  0
ARC
  5
1AC
330
1F
100
AcDbEntity
  8
0
  6
HIDDEN
 62
     7
370
     0
100
AcDbCircle
 10
171.2587687633
 20
119.3229738781
 30
0.0
 40
0.5
100
AcDbArc
 50
0.0
 51
90.0
  0
LINE
  5
1AD
330
1F
100
AcDbEntity
  8
0
  6
HIDDEN
 62
     7
370
     0
100
AcDbLine
 10
158.5889972029
 20
91.8229738781
 30
0.0
 11
171.2587687633
 21
91.8229738781
 31
0.0
  0
LINE
  5
1AE
330
1F
100
AcDbEntity
  8
0
  6
HIDDEN
 62
     7
370
     0
100
AcDbLine
 10
171.2587687633
 20
119.8229738781
 30
0.0
 11
158.5889972029
 21
119.8229738781
 31
0.0
  0
LINE
  5
1AF
330
1F
100
AcDbEntity
  8
0
  6
HIDDEN
 62
     7
370
     0
100
AcDbLine
 10
151.1889972029
 20
91.8229738781
 30
0.0
 11
152.1889972029
 21
91.8229738781
 31
0.0
  0
LINE
  5
1B0
330
1F
100
AcDbEntity
  8
0
  6
HIDDEN
 62
     7
370
     0
100
AcDbLine
 10
152.1889972029
 20
119.8229738781
 30
0.0
 11
151.1889972029
 21
119.8229738781
 31
0.0
  0
LINE
  5
1B1
330
1F
100
AcDbEntity
  8
0
  6
HIDDEN
 62
     7
370
     0
100
AcDbLine
 10
171.7587687633
 20
95.5729738781
 30
0.0
 11
173.0087687633
 21
96.8229738781
 31
0.0
  0
LINE
  5
1B2
330
1F
100
AcDbEntity
  8
0
  6
HIDDEN
 62
     7
370
     0
100
AcDbLine
 10
173.0087687633
 20
114.8229738781
 30
0.0
 11
171.7587687633
 21
116.0729738781
 31
0.0
  0
LINE
  5
1B3
330
1F
100
AcDbEntity
  8
0
  6
HIDDEN
 62
     7
370
     0
100
AcDbLine
 10
209.7587687633
 20
114.8229738781
 30
0.0
 11
173.0087687633
 21
114.8229738781
 31
0.0
  0
LINE
  5
1B4
330
1F
100
AcDbEntity
  8
0
  6
HIDDEN
 62
     7
370
     0
100
AcDbLine
 10
173.0087687633
 20
96.8229738781
 30
0.0
 11
209.7587687633
 21
96.8229738781
 31
0.0
  0
LINE
  5
1B5
330
1F
100
AcDbEntity
  8
0
  6
HIDDEN
 62
     7
370
     0
100
AcDbLine
 10
209.7587687633
 20
96.8229738781
 30
0.0
 11
215.1665143345
 21
105.8229738781
 31
0.0
  0
LINE
  5
1B6
330
1F
100
AcDbEntity
  8
0
  6
HIDDEN
 62
     7
370
     0
100
AcDbLine
 10
215.1665143345
 20
105.8229738781
 30
0.0
 11
209.7587687633
 21
114.8229738781
 31
0.0
  0
LINE
  5
1B7
330
1F
100
AcDbEntity
  8
0
  6
HIDDEN
 62
     7
370
     0
100
AcDbLine
 10
233.9021154826
 20
134.4280146028
 30
0.0
 11
233.4757023239
 21
134.00393738
 31
0.0
  0
LINE
  5
1B8
330
1F
100
AcDbEntity
  8
0
  6
HIDDEN
 62
     7
370
     0
100
AcDbLine
 10
238.4118363197
 20
129.0406137782
 30
0.0
 11
238.8382494784
 21
129.464691001
 31
0.0
  0
LINE
  5
1B9
330
1F
100
AcDbEntity
  8
0
  6
HIDDEN
 62
     7
370
     0
100
AcDbLine
 10
231.5365380165
 20
141.045489887
 30
0.0
 11
231.0452542392
 21
140.5568974135
 31
0.0
  0
LINE
  5
1BA
330
1F
100
AcDbEntity
  8
0
  6
HIDDEN
 62
     7
370
     0
100
AcDbLine
 10
238.7975396779
 20
133.181130044
 30
0.0
 11
240.6485810219
 21
137.1835001919
 31
0.0
  0
LINE
  5
1BB
330
1F
100
AcDbEntity
  8
0
  6
HIDDEN
 62
     7
370
     0
100
AcDbLine
 10
232.9381239983
 20
134.4565456586
 30
0.0
 11
229.7752457289
 21
131.3109939673
 31
0.0
  0
LINE
  5
1BC
330
1F
100
AcDbEntity
  8
0
  6
HIDDEN
 62
     7
370
     0
100
AcDbLine
 10
235.6986065238
 20
125.3550056452
 30
0.0
 11
238.8614847932
 21
128.5005573365
 31
0.0
  0
LINE
  5
1BD
330
1F
100
AcDbEntity
  8
0
  6
HIDDEN
 62
     7
370
     0
100
AcDbLine
 10
231.1998751654
 20
140.6275582864
 30
0.0
 11
230.8925614834
 21
140.3219281009
 31
0.0
  0
LINE
  5
1BE
330
1F
100
AcDbEntity
  8
0
  6
HIDDEN
 62
     7
370
     0
100
AcDbLine
 10
237.721206326
 20
145.3873971937
 30
0.0
 11
237.1358469317
 21
144.8052444594
 31
0.0
  0
LINE
  5
1BF
330
1F
100
AcDbEntity
  8
0
  6
HIDDEN
 62
     7
370
     0
100
AcDbLine
 10
241.6488837278
 20
140.267348595
 30
0.0
 11
242.2342431221
 21
140.8495013293
 31
0.0
  0
LINE
  5
1C0
330
1F
100
AcDbEntity
  8
0
  6
HIDDEN
 62
     7
370
     0
100
AcDbLine
 10
236.623984892
 20
141.7747784282
 30
0.0
 11
234.8996560318
 21
138.0463893367
 31
0.0
  0
LINE
  5
1C1
330
1F
100
AcDbEntity
  8
VERMASSUNG
  6
CENTERX2
100
AcDbLine
 10
247.7587687633
 20
150.8229738781
 30
0.0
 11
263.2418439178
 21
150.8229738781
 31
0.0
  0
LINE
  5
1C2
330
1F
100
AcDbEntity
  8
VERMASSUNG
  6
CENTERX2
100
AcDbLine
 10
247.7587687633
 20
150.8229738781
 30
0.0
 11
247.7587687633
 21
105.8229738781
 31
0.0
  0
LINE
  5
1C3
330
1F
100
AcDbEntity
  8
VERMASSUNG
  6
CENTERX2
100
AcDbLine
 10
141.3526144469
 20
105.8229738781
 30
0.0
 11
247.7587687633
 21
105.8229738781
 31
0.0
  0
DIMENSION
  5
1C4
330
1F
100
AcDbEntity
  8
VERMASSUNG
100
AcDbDimension
  2
_D
 10
271.6144338618
 20
105.8229738781
 30
0.0
 11
271.6144338618
 21
128.3229738781
 31
0.0
 70
   160
  1
<>
 71
     2
 42
-1.0
  3
SLDDIMSTYLE0
100
AcDbAlignedDimension
 13
247.7587687633
 23
150.8229738781
 33
0.0
 14
247.7587687633
 24
105.8229738781
 34
0.0
 50
90.0
100
AcDbRotatedDimension
  0
DIMENSION
  5
1D1
330
1F
100
AcDbEntity
  8
VERMASSUNG
100
AcDbDimension
  2
_D_1
 10
144.7587687633
 20
168.0210790505
 30
0.0
 11
196.2587687633
 21
168.0210790505
 31
0.0
 70
   160
  1
<>
 71
     2
 42
-1.0
  3
SLDDIMSTYLE1
100
AcDbAlignedDimension
 13
247.7587687633
 23
150.8229738781
 33
0.0
 14
144.7587687633
 24
126.1153118706
 34
0.0
100
AcDbRotatedDimension
  0
DIMENSION
  5
1DC
330
1F
100
AcDbEntity
  8
VERMASSUNG
100
AcDbDimension
  2
_D_2
 10
247.7587687633
 20
158.6501515811
 30
0.0
 11
215.2587687633
 21
158.6501515811
 31
0.0
 70
   160
  1
<>
 71
     2
 42
-1.0
  3
SLDDIMSTYLE0
100
AcDbAlignedDimension
 13
182.7587687633
 23
136.8229738781
 33
0.0
 14
247.7587687633
 24
150.8229738781
 34
0.0
100
AcDbRotatedDimension
  0
DIMENSION
  5
1E8
330
1F
100
AcDbEntity
  8
VERMASSUNG
100
AcDbDimension
  2
_D_3
 10
263.2418439178
 20
150.8229738781
 30
0.0
 11
258.4412653813
 21
139.204198342
 31
0.0
 70
   162
  1
<>
 71
     1
 42
-1.0
  3
SLDDIMSTYLE2
100
AcDb2LineAngularDimension
 13
246.709871163
 23
138.4259710882
 33
0.0
 14
247.7572549809
 24
150.3861159462
 34
0.0
 15
247.7587687633
 25
150.8229738781
 35
0.0
 16
258.4412653813
 26
139.204198342
 36
0.0
  0
DIMENSION
  5
1F3
330
1F
100
AcDbEntity
  8
VERMASSUNG
100
AcDbDimension
  2
_D_4
 10
134.7587687633
 20
74.3229738781
 30
0.0
 11
134.7587687633
 21
105.8229738781
 31
0.0
 70
   160
  1
PSC%%c<>
 71
     2
 42
-1.0
  3
SLDDIMSTYLE1
100
AcDbAlignedDimension
 13
183.2587687633
 23
137.3229738781
 33
0.0
 14
183.2587687633
 24
74.3229738781
 34
0.0
 50
90.0
100
AcDbRotatedDimension
  0
LINE
  5
1FF
330
1F
100
AcDbEntity
  8
0
  6
Continuous
 62
     7
370
    15
100
AcDbLine
 10
71.571316024
 20
135.6452749977
 30
0.0
 11
71.3498465844
 21
135.4638980637
 31
0.0
  0
LINE
  5
200
330
1F
100
AcDbEntity
  8
0
  6
Continuous
 62
     7
370
    15
100
AcDbLine
 10
70.6222000659
 20
128.5408036718
 30
0.0
 11
70.8011194725
 21
128.3173439959
 31
0.0
  0
LINE
  5
201
330
1F
100
AcDbEntity
  8
0
  6
Continuous
 62
     7
370
    15
100
AcDbLine
 10
78.5635061689
 20
150.3281192789
 30
0.0
 11
73.8555148997
 21
150.8229495892
 31
0.0
  0
LINE
  5
202
330
1F
100
AcDbEntity
  8
0
  6
Continuous
 62
     7
370
    15
100
AcDbLine
 10
72.9595799126
 20
148.6543463478
 30
0.0
 11
72.5347128824
 21
148.0575771937
 31
0.0
  0
SPLINE
  5
203
330
1F
100
AcDbEntity
  8
0
  6
Continuous
 62
     7
370
    15
100
AcDbSpline
210
0.0
220
0.0
230
1.0
 70
     8
 71
     3
 72
     9
 73
     5
 74
     0
 42
0.00000001
 43
0.00000001
 12
1.0
 22
0.0
 32
0.0
 13
1.0
 23
0.0
 33
0.0
 40
0.0
 40
0.0
 40
0.0
 40
0.0
 40
0.5532472078381188
 40
1.0
 40
1.0
 40
1.0
 40
1.0
 10
73.06816578019392
 20
148.8625639984564
 30
0.0
 10
73.06897602023317
 20
148.8671588592817
 30
0.0
 10
73.07044053741059
 20
148.8754641173294
 30
0.0
 10
73.06269960609444
 20
148.8447584393315
 30
0.0
 10
73.05924132341501
 20
148.8310405919508
 30
0.0
  0
LINE
  5
204
330
1F
100
AcDbEntity
  8
0
  6
Continuous
 62
     7
370
    15
100
AcDbLine
 10
71.5636675373
 20
139.4081087718
 30
0.0
 11
71.867348313
 21
138.7079777131
 31
0.0
  0
SPLINE
  5
205
330
1F
100
AcDbEntity
  8
0
  6
Continuous
 62
     7
370
    15
100
AcDbSpline
210
0.0
220
0.0
230
1.0
 70
     8
 71
     3
 72
    13
 73
     9
 74
     0
 42
0.00000001
 43
0.00000001
 12
1.0
 22
0.0
 32
0.0
 13
1.0
 23
0.0
 33
0.0
 40
0.0
 40
0.0
 40
0.0
 40
0.0
 40
0.1570752680918706
 40
0.3568961030058394
 40
0.527364163397043
 40
0.6918899413660404
 40
0.9049655136320314
 40
1.0
 40
1.0
 40
1.0
 40
1.0
 10
71.87947995370236
 20
138.7138562211946
 30
0.0
 10
71.89728094200886
 20
138.6730401015183
 30
0.0
 10
71.93772717796577
 20
138.5803003963485
 30
0.0
 10
71.94567512108729
 20
138.4423118971362
 30
0.0
 10
71.93473667525713
 20
138.3356467091614
 30
0.0
 10
71.91927460469309
 20
138.2745171740918
 30
0.0
 10
71.90969630361288
 20
138.2495453385463
 30
0.0
 10
71.91219834326311
 20
138.2552609345451
 30
0.0
 10
71.91297008065489
 20
138.2570238718943
 30
0.0
  0
LINE
  5
206
330
1F
100
AcDbEntity
  8
0
  6
Continuous
 62
     7
370
    15
100
AcDbLine
 10
71.0426766087
 20
137.151327909
 30
0.0
 11
71.3412141555
 21
137.1199497888
 31
0.0
  0
LINE
  5
207
330
1F
100
AcDbEntity
  8
0
  6
Continuous
 62
     7
370
    15
100
AcDbLine
 10
81.2041279056
 20
149.3486585031
 30
0.0
 11
78.529567843
 21
149.629768909
 31
0.0
  0
LINE
  5
208
330
1F
100
AcDbEntity
  8
0
  6
Continuous
 62
     7
370
    15
100
AcDbLine
 10
81.4767344051
 20
149.0144552598
 30
0.0
 11
81.2144748994
 21
149.3420051346
 31
0.0
  0
LINE
  5
209
330
1F
100
AcDbEntity
  8
0
  6
Continuous
 62
     7
370
    15
100
AcDbLine
 10
69.6294949517
 20
111.7650894383
 30
0.0
 11
105.8975606353
 21
107.9531621589
 31
0.0
  0
LINE
  5
20A
330
1F
100
AcDbEntity
  8
0
  6
Continuous
 62
     7
370
    15
100
AcDbLine
 10
72.6280528248
 20
137.9856103966
 30
0.0
 11
69.6294949517
 21
111.7650894383
 31
0.0
  0
LINE
  5
20B
330
1F
100
AcDbEntity
  8
0
  6
Continuous
 62
     7
370
    15
100
AcDbLine
 10
72.6280528248
 20
137.9856103966
 30
0.0
 11
77.2766996302
 21
137.4970162222
 31
0.0
  0
LINE
  5
20C
330
1F
100
AcDbEntity
  8
0
  6
Continuous
 62
     7
370
    15
100
AcDbLine
 10
77.2766996302
 20
137.4970162222
 30
0.0
 11
77.3341682867
 21
137.9995429823
 31
0.0
  0
LINE
  5
20D
330
1F
100
AcDbEntity
  8
0
  6
Continuous
 62
     7
370
    15
100
AcDbLine
 10
77.3341682867
 20
137.9995429823
 30
0.0
 11
80.2420451433
 21
137.6939127157
 31
0.0
  0
LINE
  5
20E
330
1F
100
AcDbEntity
  8
0
  6
Continuous
 62
     7
370
    15
100
AcDbLine
 10
80.3010448941
 20
138.2098281691
 30
0.0
 11
80.2420451433
 21
137.6939127157
 31
0.0
  0
SPLINE
  5
20F
330
1F
100
AcDbEntity
  8
0
  6
Continuous
 62
     7
370
    15
100
AcDbSpline
210
0.0
220
0.0
230
1.0
 70
     8
 71
     3
 72
    39
 73
    35
 74
     0
 42
0.00000001
 43
0.00000001
 12
1.0
 22
0.0
 32
0.0
 13
1.0
 23
0.0
 33
0.0
 40
0.0
 40
0.0
 40
0.0
 40
0.0
 40
0.0238264578982867
 40
0.0476152309630409
 40
0.0713722698776178
 40
0.095103549197661
 40
0.118815062950644
 40
0.1425128201623445
 40
0.1662028403266737
 40
0.1898911488357833
 40
0.2135837723877245
 40
0.23728673438913
 40
0.2610060503704346
 40
0.2847477234310392
 40
0.3085177397315629
 40
0.3323220640498978
 40
0.3561666354172475
 40
0.3800573628496127
 40
0.4040001211893977
 40
0.4280007470708603
 40
0.4520650350221239
 40
0.4761987337153525
 40
0.5004075423755195
 40
0.5465439876718375
 40
0.5924133731608557
 40
0.6380558789921076
 40
0.6835122869543219
 40
0.7288238813199405
 40
0.7740323430935626
 40
0.8191796389237177
 40
0.864307906101504
 40
0.9094593351931672
 40
0.954676051929624
 40
1.0
 40
1.0
 40
1.0
 40
1.0
 10
105.8975591065267
 20
134.5979312713352
 30
0.0
 10
105.7470772001049
 20
134.7679224216454
 30
0.0
 10
105.4463513951773
 20
135.107635857786
 30
0.0
 10
104.9853781096074
 20
135.6076539316966
 30
0.0
 10
104.5176717103456
 20
136.1000966922706
 30
0.0
 10
104.0424951924201
 20
136.5843163988572
 30
0.0
 10
103.5600457553875
 20
137.0604861487919
 30
0.0
 10
103.0702707387933
 20
137.5285594978597
 30
0.0
 10
102.5731843452607
 20
137.9885487504684
 30
0.0
 10
102.0687828883003
 20
138.4404504928753
 30
0.0
 10
101.5570674791066
 20
138.8842655278666
 30
0.0
 10
101.0380379505711
 20
139.3199935369698
 30
0.0
 10
100.511694484346
 20
139.7476345109151
 30
0.0
 10
99.97803717399465
 20
140.1671883667348
 30
0.0
 10
99.43706614164053
 20
140.578655050691
 30
0.0
 10
98.8887815048093
 20
140.9820345112919
 30
0.0
 10
98.33318338857434
 20
141.3773267054856
 30
0.0
 10
97.77027190630396
 20
141.7645316018202
 30
0.0
 10
97.20004722082054
 20
142.1436491620813
 30
0.0
 10
96.62250931443955
 20
142.5146794119732
 30
0.0
 10
96.03765884680648
 20
142.8776221756412
 30
0.0
 10
95.445493937587
 20
143.2324780701222
 30
0.0
 10
94.66570812335348
 20
143.6835481581769
 30
0.0
 10
93.6941838278214
 20
144.2170249966545
 30
0.0
 10
92.52506696941838
 20
144.8145683581118
 30
0.0
 10
91.34421103288673
 20
145.3741254397717
 30
0.0
 10
90.15162363806895
 20
145.8956910305617
 30
0.0
 10
88.94730476391808
 20
146.3792590266579
 30
0.0
 10
87.7312609363226
 20
146.8248452053915
 30
0.0
 10
86.50348190353675
 20
147.2323806108602
 30
0.0
 10
85.2640194380722
 20
147.6021148815689
 30
0.0
 10
84.01269519325552
 20
147.9331100279398
 30
0.0
 10
82.75019138460654
 20
148.2288685727558
 30
0.0
 10
81.90064375504807
 20
148.3935613984265
 30
0.0
 10
81.4753668617585
 20
148.4760053377789
 30
0.0
  0
LINE
  5
210
330
1F
100
AcDbEntity
  8
0
  6
Continuous
 62
     7
370
    15
100
AcDbLine
 10
105.8975606353
 20
134.597931982
 30
0.0
 11
105.8975606353
 21
107.9531621589
 31
0.0
  0
SPLINE
  5
211
330
1F
100
AcDbEntity
  8
0
  6
Continuous
 62
     7
370
    15
100
AcDbSpline
210
0.0
220
0.0
230
1.0
 70
     8
 71
     3
 72
    41
 73
    37
 74
     0
 42
0.00000001
 43
0.00000001
 12
1.0
 22
0.0
 32
0.0
 13
1.0
 23
0.0
 33
0.0
 40
0.0
 40
0.0
 40
0.0
 40
0.0
 40
0.0228305373319093
 40
0.0460471109121867
 40
0.0696495495536654
 40
0.0936376755493442
 40
0.1180113047876896
 40
0.1427702468589155
 40
0.1679143051530717
 40
0.1934432769506868
 40
0.2193569535066575
 40
0.2456551201279265
 40
0.2723375562455527
 40
0.2994040354816139
 40
0.3268543257114034
 40
0.354688189121301
 40
0.3829053822626786
 40
0.4115056561021755
 40
0.4404887560686043
 40
0.4698544220967913
 40
0.4996023886685647
 40
0.520071997522567
 40
0.5423881500837169
 40
0.5665499186413324
 40
0.5925562930639282
 40
0.620406181312125
 40
0.6500984097929743
 40
0.6816317236114959
 40
0.7150047867536654
 40
0.7502161822224768
 40
0.7872644121412032
 40
0.8261478978332315
 40
0.8668649798849093
 40
0.9094139181958963
 40
0.9537928920201723
 40
0.9999999999999999
 40
0.9999999999999999
 40
0.9999999999999999
 40
0.9999999999999999
 10
81.47554991378155
 20
148.9535701427123
 30
0.0
 10
81.68914714030448
 20
148.9129529172025
 30
0.0
 10
82.11995325919905
 20
148.8310316789592
 30
0.0
 10
82.7689907435332
 20
148.6946785538709
 30
0.0
 10
83.42666208703945
 20
148.5466638239069
 30
0.0
 10
84.09251445073264
 20
148.3856254041742
 30
0.0
 10
84.76630420200914
 20
148.2113534032896
 30
0.0
 10
85.44770829516291
 20
148.0233201225678
 30
0.0
 10
86.1364029183714
 20
147.8210844163447
 30
0.0
 10
86.8320413245908
 20
147.6041815088412
 30
0.0
 10
87.53425934313049
 20
147.3721540543223
 30
0.0
 10
88.2426733135011
 20
147.124544490174
 30
0.0
 10
88.95688011559432
 20
146.8608980436398
 30
0.0
 10
89.67645664292924
 20
146.5807628584483
 30
0.0
 10
90.40095945872822
 20
146.2836909499227
 30
0.0
 10
91.12992439479756
 20
145.9692389780205
 30
0.0
 10
91.86286631191763
 20
145.6369690951463
 30
0.0
 10
92.59927839019397
 20
145.2864498754531
 30
0.0
 10
93.33863331089816
 20
144.9172570309561
 30
0.0
 10
94.0803773620094
 20
144.5289751101979
 30
0.0
 10
94.74346165840035
 20
144.1653366625661
 30
0.0
 10
95.34218028543316
 20
143.8240498218888
 30
0.0
 10
95.89026245131058
 20
143.5013486892508
 30
0.0
 10
96.47823976477727
 20
143.1429868402599
 30
0.0
 10
97.10464236401344
 20
142.7469430177471
 30
0.0
 10
97.76783002219011
 20
142.3110851024009
 30
0.0
 10
98.46597816973465
 20
141.8331803051077
 30
0.0
 10
99.19706593501076
 20
141.310907677608
 30
0.0
 10
99.95886426788869
 20
140.7418727072889
 30
0.0
 10
100.7489194921083
 20
140.1236193495525
 30
0.0
 10
101.5645557012198
 20
139.4536605860972
 30
0.0
 10
102.4028011899722
 20
138.7294424141569
 30
0.0
 10
103.2606208477521
 20
137.9485836195675
 30
0.0
 10
104.1339267465546
 20
137.108021511141
 30
0.0
 10
105.021463094387
 20
136.2075290212966
 30
0.0
 10
105.6016642644717
 20
135.5725562128
 30
0.0
 10
105.8976194220653
 20
135.2486625578133
 30
0.0
  0
LINE
  5
212
330
1F
100
AcDbEntity
  8
0
  6
Continuous
 62
     7
370
    15
100
AcDbLine
 10
105.8975606353
 20
135.2529590884
 30
0.0
 11
105.8975606353
 21
134.5959501276
 31
0.0
  0
ARC
  5
213
330
1F
100
AcDbEntity
  8
0
  6
Continuous
 62
     7
370
    15
100
AcDbCircle
 10
91.0551948382
 20
137.3084868197
 30
0.0
 40
19.95229009744656
100
AcDbArc
 50
169.7758313988
 51
177.1762611442
  0
LWPOLYLINE
  5
214
330
1F
100
AcDbEntity
  8
0
  6
Continuous
 62
     7
370
    15
100
AcDbPolyline
 90
        3
 70
   128
 43
0.0
 10
71.1553973739
 20
137.1394814858
 10
71.174469696
 20
137.082071037
 10
71.2353858758
 20
137.0487594912
  0
LINE
  5
215
330
1F
100
AcDbEntity
  8
0
  6
Continuous
 62
     7
370
    15
100
AcDbLine
 10
69.6294949517
 20
111.7650894383
 30
0.0
 11
63.3942158089
 21
77.0625872472
 31
0.0
  0
ARC
  5
216
330
1F
100
AcDbEntity
  8
0
  6
Continuous
 62
     7
370
    15
100
AcDbCircle
 10
73.8975591153
 20
105.8229738781
 30
0.0
 40
31.49999999999998
100
AcDbArc
 50
97.4383961702
 51
97.6609196256
  0
SPLINE
  5
217
330
1F
100
AcDbEntity
  8
0
  6
Continuous
 62
     7
370
    15
100
AcDbSpline
210
0.0
220
0.0
230
1.0
 70
     8
 71
     3
 72
    10
 73
     6
 74
     0
 42
0.00000001
 43
0.00000001
 12
1.0
 22
0.0
 32
0.0
 13
1.0
 23
0.0
 33
0.0
 40
0.0
 40
0.0
 40
0.0
 40
0.0
 40
0.5
 40
0.5
 40
1.0
 40
1.0
 40
1.0
 40
1.0
 10
69.81956515537982
 20
137.0578896818128
 30
0.0
 10
69.84356647106914
 20
137.0610232654288
 30
0.0
 10
69.87466998851829
 20
137.1408364147205
 30
0.0
 10
69.94059495270565
 20
137.4196352812086
 30
0.0
 10
69.97391406804549
 20
137.6120131085608
 30
0.0
 10
70.00259122072156
 20
137.8280199563187
 30
0.0
  0
SPLINE
  5
218
330
1F
100
AcDbEntity
  8
0
  6
Continuous
 62
     7
370
    15
100
AcDbSpline
210
0.0
220
0.0
230
1.0
 70
     8
 71
     3
 72
     8
 73
     4
 74
     0
 42
0.00000001
 43
0.00000001
 12
1.0
 22
0.0
 32
0.0
 13
1.0
 23
0.0
 33
0.0
 40
0.0
 40
0.0
 40
0.0
 40
0.0
 40
1.0
 40
1.0
 40
1.0
 40
1.0
 10
70.00259122072156
 20
137.8280199563187
 30
0.0
 10
70.4363525660315
 20
141.0952697400731
 30
0.0
 10
70.87068915097066
 20
144.3604667516293
 30
0.0
 10
71.30527872834153
 20
147.624760946683
 30
0.0
  0
ELLIPSE
  5
219
330
1F
100
AcDbEntity
  8
0
  6
Continuous
 62
     7
370
    15
100
AcDbEllipse
 10
202.3821372911
 20
92.3187005455
 30
0.0
 11
154.3545505023314
 21
-16.2233169903248
 31
0.0
210
0.0
220
0.0
230
1.0
 40
0.5541767355
 41
2.628881959413944
 42
2.640717872237624
  0
LWPOLYLINE
  5
21A
330
1F
100
AcDbEntity
  8
0
  6
Continuous
 62
     7
370
    15
100
AcDbPolyline
 90
       34
 70
   128
 43
0.0
 10
70.6038732675
 20
131.9983312795
 10
70.5332110297
 20
131.2454277585
 10
70.4802967735
 20
130.5197356204
 10
70.4470429697
 20
129.8474846343
 10
70.43465149
 20
129.2529711435
 10
70.4435700678
 20
128.7576807598
 10
70.4734764655
 20
128.3795172284
 10
70.5232898832
 20
128.1321467767
 10
70.5912098416
 20
128.0245082388
 10
70.6747813743
 20
128.0604964057
 10
70.7709842023
 20
128.2388074259
 10
70.8763414655
 20
128.5529984096
 10
70.987044986
 20
128.9917109469
 10
71.0990935691
 20
129.5390920649
 10
71.2084378243
 20
130.175354884
 10
71.3111254514
 20
130.8775069127
 10
71.4034453627
 20
131.6201658854
 10
71.4820606296
 20
132.3764948109
 10
71.5441297867
 20
133.1191556463
 10
71.5874099766
 20
133.8213058124
 10
71.6103363444
 20
134.4575704942
 10
71.6120807116
 20
135.0049497495
 10
71.592579981
 20
135.4436641494
 10
71.5525386982
 20
135.7578532705
 10
71.4934043713
 20
135.9361642907
 10
71.41731392
 20
135.9721524576
 10
71.3270177726
 20
135.8645157824
 10
71.2257795163
 20
135.6171453307
 10
71.117257619
 20
135.2389799366
 10
71.0053750441
 20
134.7436914155
 10
70.8941751287
 20
134.1491779247
 10
70.7876769953
 20
133.476925076
 10
70.6897295673
 20
132.7512348006
 10
70.6038732675
 20
131.9983312795
  0
LINE
  5
21B
330
1F
100
AcDbEntity
  8
0
  6
Continuous
 62
     7
370
    15
100
AcDbLine
 10
71.2353858758
 20
137.0487594912
 30
0.0
 11
72.6280528248
 21
137.9856103966
 31
0.0
  0
LINE
  5
21C
330
1F
100
AcDbEntity
  8
0
  6
Continuous
 62
     7
370
    15
100
AcDbLine
 10
77.3341682867
 20
137.9995429823
 30
0.0
 11
77.1881941833
 21
137.9013480554
 31
0.0
  0
SPLINE
  5
21D
330
1F
100
AcDbEntity
  8
0
  6
Continuous
 62
     7
370
    15
100
AcDbSpline
210
0.0
220
0.0
230
1.0
 70
     8
 71
     3
 72
    12
 73
     8
 74
     0
 42
0.00000001
 43
0.00000001
 12
1.0
 22
0.0
 32
0.0
 13
1.0
 23
0.0
 33
0.0
 40
0.0
 40
0.0
 40
0.0
 40
0.0
 40
0.5000000000000022
 40
0.5000000000000022
 40
0.7500000000000011
 40
0.7500000000000011
 40
1.0
 40
1.0
 40
1.0
 40
1.0
 10
91.77590357901
 20
79.88815559771867
 30
0.0
 10
92.20425155057131
 20
80.18344020326617
 30
0.0
 10
92.65875787232756
 20
80.44791127951854
 30
0.0
 10
93.37063674566744
 20
80.80913841140149
 30
0.0
 10
93.61378827813716
 20
80.92324289094768
 30
0.0
 10
94.10940936989549
 20
81.13150456611
 30
0.0
 10
94.36213594323793
 20
81.22642760773866
 30
0.0
 10
94.62407616917397
 20
81.3040933346568
 30
0.0
  0
ARC
  5
21E
330
1F
100
AcDbEntity
  8
0
  6
Continuous
 62
     7
370
    15
100
AcDbCircle
 10
73.8975591153
 20
105.8229738781
 30
0.0
 40
31.50000000000001
100
AcDbArc
 50
250.1581641755
 51
304.5807035043
  0
ELLIPSE
  5
21F
330
1F
100
AcDbEntity
  8
0
  6
Continuous
 62
     7
370
    15
100
AcDbEllipse
 10
57.4597732323
 20
77.6863217588
 30
0.0
 11
2.085366894322682
 21
8.356644074018476
 31
0.0
210
0.0
220
0.0
230
1.0
 40
0.6892710456
 41
4.705694584268719
 42
4.809101290144678
  0
LINE
  5
220
330
1F
100
AcDbEntity
  8
0
  6
Continuous
 62
     7
370
    15
100
AcDbLine
 10
105.8975606353
 20
107.9531621589
 30
0.0
 11
105.8975606353
 21
105.8229738781
 31
0.0
  0
ARC
  5
221
330
1F
100
AcDbEntity
  8
0
  6
Continuous
 62
     7
370
    15
100
AcDbCircle
 10
73.8975591153
 20
105.8229738781
 30
0.0
 40
32.00000000000002
100
AcDbArc
 50
309.9638479463
 51
0.0
  0
LINE
  5
222
330
1F
100
AcDbEntity
  8
0
  6
Continuous
 62
     7
370
    15
100
AcDbLine
 10
94.4512914062
 20
81.2965771118
 30
0.0
 11
94.6240759582
 21
81.304092885
 31
0.0
  0
ARC
  5
223
330
1F
100
AcDbEntity
  8
0
  6
Continuous
 62
     7
370
    15
100
AcDbCircle
 10
73.8975591153
 20
105.8229738781
 30
0.0
 40
32.10551373655942
100
AcDbArc
 50
310.2088007479
 51
4.6464506928
  0
SPLINE
  5
224
330
1F
100
AcDbEntity
  8
0
  6
Continuous
 62
     7
370
    15
100
AcDbSpline
210
0.0
220
0.0
230
1.0
 70
     8
 71
     3
 72
    20
 73
    16
 74
     0
 42
0.00000001
 43
0.00000001
 12
1.0
 22
0.0
 32
0.0
 13
1.0
 23
0.0
 33
0.0
 40
0.0
 40
0.0
 40
0.0
 40
0.0
 40
0.2500000000000008
 40
0.2500000000000008
 40
0.3750000000000007
 40
0.3750000000000007
 40
0.5000000000000006
 40
0.5000000000000006
 40
0.6250000000000004
 40
0.6250000000000004
 40
0.7500000000000002
 40
0.7500000000000002
 40
0.8750000000000001
 40
0.8750000000000001
 40
1.0
 40
1.0
 40
1.0
 40
1.0
 10
65.15937010505635
 20
136.0867154316971
 30
0.0
 10
65.73929754188978
 20
136.2541605424193
 30
0.0
 10
66.29124477505347
 20
136.3954986854185
 30
0.0
 10
67.07190030823602
 20
136.5757250490955
 30
0.0
 10
67.32320692771091
 20
136.6301975802341
 30
0.0
 10
67.79149784215883
 20
136.7264227899689
 30
0.0
 10
68.01078245813693
 20
136.768713595374
 30
0.0
 10
68.41845019826856
 20
136.8434882441763
 30
0.0
 10
68.60814208990173
 20
136.876168119734
 30
0.0
 10
68.9430658920697
 20
136.9313618462706
 30
0.0
 10
69.0895351806813
 20
136.9541319313219
 30
0.0
 10
69.34045514362533
 20
136.9918509717959
 30
0.0
 10
69.44540860846703
 20
137.0068651673145
 30
0.0
 10
69.6077745994938
 20
137.0296153007364
 30
0.0
 10
69.66510434358904
 20
137.0373527382337
 30
0.0
 10
69.6982870817808
 20
137.0418161755117
 30
0.0
  0
SPLINE
  5
225
330
1F
100
AcDbEntity
  8
0
  6
Continuous
 62
     7
370
    15
100
AcDbSpline
210
0.0
220
0.0
230
1.0
 70
     8
 71
     3
 72
    18
 73
    14
 74
     0
 42
0.00000001
 43
0.00000001
 12
1.0
 22
0.0
 32
0.0
 13
1.0
 23
0.0
 33
0.0
 40
0.0
 40
0.0
 40
0.0
 40
0.0
 40
0.1249999999999988
 40
0.1249999999999988
 40
0.2499999999999977
 40
0.2499999999999977
 40
0.4999999999999983
 40
0.4999999999999983
 40
0.749999999999999
 40
0.749999999999999
 40
0.8749999999999998
 40
0.8749999999999998
 40
1.0
 40
1.0
 40
1.0
 40
1.0
 10
63.20567679681278
 20
76.19302867929461
 30
0.0
 10
63.14938358289137
 20
76.21334192707623
 30
0.0
 10
63.07476169857913
 20
76.24043087827064
 30
0.0
 10
62.88909369054505
 20
76.30901983510374
 30
0.0
 10
62.77689259163611
 20
76.35096321240101
 30
0.0
 10
62.39434539274696
 20
76.49720670140012
 30
0.0
 10
62.07777787820817
 20
76.62184241352641
 30
0.0
 10
61.33254951312271
 20
76.93467449926553
 30
0.0
 10
60.91941075932335
 20
77.11646549298948
 30
0.0
 10
60.24646205912275
 20
77.43355615311536
 30
0.0
 10
60.01352361755951
 20
77.54660346931608
 30
0.0
 10
59.54198258469635
 20
77.78305612374082
 30
0.0
 10
59.30199583135342
 20
77.90710092638419
 30
0.0
 10
59.05813482330111
 20
78.03733934011636
 30
0.0
  0
ELLIPSE
  5
226
330
1F
100
AcDbEntity
  8
0
  6
Continuous
 62
     7
370
    15
100
AcDbEllipse
 10
60.0656562502
 20
122.4633702973
 30
0.0
 11
2.266853502313098
 21
2.998331141371083
 31
0.0
210
0.0
220
0.0
230
1.0
 40
0.6487969398
 41
0.0
 42
6.283185307179586
  0
ARC
  5
227
330
1F
100
AcDbEntity
  8
0
  6
Continuous
 62
     7
370
    15
100
AcDbCircle
 10
73.8975591153
 20
105.8229738781
 30
0.0
 40
31.5
100
AcDbArc
 50
106.1052582058
 51
241.8947417942
  0
LWPOLYLINE
  5
228
330
1F
100
AcDbEntity
  8
0
  6
Continuous
 62
     7
370
    15
100
AcDbPolyline
 90
       31
 70
   128
 43
0.0
 10
71.4261426252
 20
135.4560917178
 10
71.4846429542
 20
135.2969771186
 10
71.5230227575
 20
134.9936937848
 10
71.5396042575
 20
134.5595000247
 10
71.5336631179
 20
134.0133706043
 10
71.5054587123
 20
133.3791753212
 10
71.4562238787
 20
132.6846284727
 10
71.388110438
 20
131.960089312
 10
71.3040951301
 20
131.2372209439
 10
71.2078499269
 20
130.547615693
 10
71.103581147
 20
129.9214148829
 10
70.9958457515
 20
129.3859844962
 10
70.8893525076
 20
128.964724944
 10
70.7887556997
 20
128.6760503361
 10
70.698451636
 20
128.5325745056
 10
70.6223872617
 20
128.5405689785
 10
70.5638866999
 20
128.6996854404
 10
70.5255071294
 20
129.0029669115
 10
70.5089256295
 20
129.4371606717
 10
70.514866769
 20
129.9832900921
 10
70.5430711747
 20
130.6174872378
 10
70.5923060082
 20
131.3120322237
 10
70.6604194489
 20
132.0365732471
 10
70.7444347568
 20
132.7594416151
 10
70.84067996
 20
133.4490468661
 10
70.94494874
 20
134.0752476761
 10
71.0526841354
 20
134.6106780628
 10
71.1591771465
 20
135.0319357524
 10
71.2597741873
 20
135.3206103603
 10
71.3500782509
 20
135.4640861908
 10
71.4261426252
 20
135.4560917178
  0
LWPOLYLINE
  5
229
330
1F
100
AcDbEntity
  8
0
  6
Continuous
 62
     7
370
    15
100
AcDbPolyline
 90
       24
 70
   128
 43
0.0
 10
71.2539091833
 20
133.9741935888
 10
71.2952843529
 20
133.838965551
 10
71.3165592529
 20
133.5672279755
 10
71.3161557574
 20
133.1791309575
 10
71.2941043672
 20
132.7034579525
 10
71.2520400189
 20
132.1754911849
 10
71.1930826434
 20
131.6343834559
 10
71.1216047999
 20
131.1202691803
 10
71.0429078095
 20
130.6712767044
 10
70.9628282708
 20
130.3207045356
 10
70.8873049949
 20
130.0945552001
 10
70.8219394215
 20
130.0095999548
 10
70.7715795503
 20
130.0721401284
 10
70.7399599847
 20
130.2775377343
 10
70.7294262607
 20
130.6105563352
 10
70.7407590595
 20
131.0465009818
 10
70.7731185608
 20
131.5530398796
 10
70.8241042808
 20
132.0926016132
 10
70.889934817
 20
132.6251728395
 10
70.9657281764
 20
133.1112543056
 10
71.0458628961
 20
133.5147945145
 10
71.1243959737
 20
133.8058663467
 10
71.1955024522
 20
133.9628817449
 10
71.2539091833
 20
133.9741935888
  0
LINE
  5
22A
330
1F
100
AcDbEntity
  8
0
  6
Continuous
 62
     7
370
    15
100
AcDbLine
 10
71.2662517686
 20
132.3613496432
 30
0.0
 11
71.1291408294
 21
132.1693537692
 31
0.0
  0
LINE
  5
22B
330
1F
100
AcDbEntity
  8
0
  6
Continuous
 62
     7
370
    15
100
AcDbLine
 10
71.1291408294
 20
132.1693537692
 30
0.0
 11
71.2148408998
 21
131.8386914144
 31
0.0
  0
LINE
  5
22C
330
1F
100
AcDbEntity
  8
0
  6
Continuous
 62
     7
370
    15
100
AcDbLine
 10
71.2502476886
 20
132.1566244522
 30
0.0
 11
71.1291408294
 21
132.1693537692
 31
0.0
  0
LINE
  5
22D
330
1F
100
AcDbEntity
  8
0
  6
Continuous
 62
     7
370
    15
100
AcDbLine
 10
71.0464598738
 20
137.1524603972
 30
0.0
 11
72.4079226271
 21
138.0683192918
 31
0.0
  0
ARC
  5
22E
330
1F
100
AcDbEntity
  8
0
  6
Continuous
 62
     7
370
    15
100
AcDbCircle
 10
71.9305426568
 20
137.3698085748
 30
0.0
 40
0.9104079291005757
100
AcDbArc
 50
166.1227674481
 51
193.8120168349
  0
LINE
  5
22F
330
1F
100
AcDbEntity
  8
0
  6
Continuous
 62
     7
370
    15
100
AcDbLine
 10
72.414460628
 20
149.548307986
 30
0.0
 11
71.0467078385
 21
137.5881629
 31
0.0
  0
ARC
  5
230
330
1F
100
AcDbEntity
  8
0
  6
Continuous
 62
     7
370
    15
100
AcDbCircle
 10
73.4829180367
 20
149.5086952721
 30
0.0
 40
1.069191470835136
100
AcDbArc
 50
158.1884788486
 51
177.8767499197
  0
LINE
  5
231
330
1F
100
AcDbEntity
  8
0
  6
Continuous
 62
     7
370
    15
100
AcDbLine
 10
73.8517316527
 20
150.821817101
 30
0.0
 11
72.4902687722
 21
149.9059582064
 31
0.0
  0
ARC
  5
232
330
1F
100
AcDbEntity
  8
0
  6
Continuous
 62
     7
370
    15
100
AcDbCircle
 10
72.9676559153
 20
150.6044692737
 30
0.0
 40
0.9104010036805948
100
AcDbArc
 50
346.1226370668
 51
13.8121012897
  0
LINE
  5
233
330
1F
100
AcDbEntity
  8
0
  6
Continuous
 62
     7
370
    15
100
AcDbLine
 10
72.4837307713
 20
138.4259695122
 30
0.0
 11
73.8514835135
 21
150.3861145983
 31
0.0
  0
ARC
  5
234
330
1F
100
AcDbEntity
  8
0
  6
Continuous
 62
     7
370
    15
100
AcDbCircle
 10
71.4152537809
 20
138.4655863766
 30
0.0
 40
1.069211192801179
100
AcDbArc
 50
338.188662235
 51
357.8765665332
  0
ARC
  5
235
330
1F
100
AcDbEntity
  8
0
  6
Continuous
 62
     7
370
    15
100
AcDbCircle
 10
73.0099617494
 20
150.5955033998
 30
0.0
 40
0.864877555316696
100
AcDbArc
 50
346.1225945671
 51
13.8121443349
  0
LINE
  5
236
330
1F
100
AcDbEntity
  8
0
  6
Continuous
 62
     7
370
    15
100
AcDbLine
 10
73.8498302449
 20
150.8019836554
 30
0.0
 11
72.4883673607
 21
149.8861247609
 31
0.0
  0
ARC
  5
237
330
1F
100
AcDbEntity
  8
0
  6
Continuous
 62
     7
370
    15
100
AcDbCircle
 10
73.4314082053
 20
149.5087202269
 30
0.0
 40
1.015755982905455
100
AcDbArc
 50
158.1887341911
 51
177.8765954583
  0
LINE
  5
238
330
1F
100
AcDbEntity
  8
0
  6
Continuous
 62
     7
370
    15
100
AcDbLine
 10
72.4163496994
 20
149.5463559339
 30
0.0
 11
71.0485970263
 21
137.5862108479
 31
0.0
  0
ARC
  5
239
330
1F
100
AcDbEntity
  8
0
  6
Continuous
 62
     7
370
    15
100
AcDbCircle
 10
71.8882477571
 20
137.3787738299
 30
0.0
 40
0.8648950607926683
100
AcDbArc
 50
166.1228627417
 51
193.8118409097
  0
LINE
  5
23A
330
1F
100
AcDbEntity
  8
0
  6
Continuous
 62
     7
370
    15
100
AcDbLine
 10
71.0483611689
 20
137.1722938428
 30
0.0
 11
72.4098240385
 21
138.0881527374
 31
0.0
  0
ARC
  5
23B
330
1F
100
AcDbEntity
  8
0
  6
Continuous
 62
     7
370
    15
100
AcDbCircle
 10
71.466789008
 20
138.4655563868
 30
0.0
 40
1.015750256427606
100
AcDbArc
 50
338.1886586634
 51
357.8766334116
  0
LINE
  5
23C
330
1F
100
AcDbEntity
  8
0
  6
Continuous
 62
     7
370
    15
100
AcDbLine
 10
72.4818418163
 20
138.4279215643
 30
0.0
 11
73.8495945148
 21
150.3880666504
 31
0.0
  0
ARC
  5
23D
330
1F
100
AcDbEntity
  8
0
  6
Continuous
 62
     7
370
    15
100
AcDbCircle
 10
77.5363592762
 20
150.1191619682
 30
0.0
 40
1.048186003077411
100
AcDbArc
 50
347.4435173495
 51
11.499031209
  0
LINE
  5
23E
330
1F
100
AcDbEntity
  8
0
  6
Continuous
 62
     7
370
    15
100
AcDbLine
 10
77.1917220332
 20
137.9311429272
 30
0.0
 11
78.5594749392
 21
149.8912842879
 31
0.0
  0
LINE
  5
23F
330
1F
100
AcDbEntity
  8
0
  6
Continuous
 62
     7
370
    15
100
AcDbLine
 10
73.0238175962
 20
148.8723540614
 30
0.0
 11
72.6692366075
 21
149.4864756176
 31
0.0
  0
ARC
  5
240
330
1F
100
AcDbEntity
  8
0
  6
Continuous
 62
     7
370
    15
100
AcDbCircle
 10
76.1232209087
 20
137.970760446
 30
0.0
 40
1.069235334671594
100
AcDbArc
 50
338.1889271715
 51
357.8765794069
  0
LINE
  5
241
330
1F
100
AcDbEntity
  8
0
  6
Continuous
 62
     7
370
    15
100
AcDbLine
 10
71.9701336125
 20
138.3801149139
 30
0.0
 11
71.3014839344
 21
137.5263305316
 31
0.0
  0
ARC
  5
242
330
1F
100
AcDbEntity
  8
0
  6
Continuous
 62
     7
370
    15
100
AcDbCircle
 10
71.0977022492
 20
148.0385775682
 30
0.0
 40
2.275998341881922
100
AcDbArc
 50
346.1226609247
 51
13.8120802704
  0
LINE
  5
243
330
1F
100
AcDbEntity
  8
0
  6
Continuous
 62
     7
370
    15
100
AcDbLine
 10
77.0393220369
 20
137.5219682167
 30
0.0
 11
77.1159140055
 21
137.5734889815
 31
0.0
  0
LINE
  5
244
330
1F
100
AcDbEntity
  8
0
  6
Continuous
 62
     7
370
    15
100
AcDbLine
 10
72.5417855789
 20
140.7990315864
 30
0.0
 11
73.3072674262
 21
147.4926927993
 31
0.0
  0
ARC
  5
245
330
1F
100
AcDbEntity
  8
0
  6
Continuous
 62
     7
370
    15
100
AcDbCircle
 10
69.8706385334
 20
140.8980639564
 30
0.0
 40
2.672982220057842
100
AcDbArc
 50
338.1884957275
 51
357.8767401799
  0
LINE
  5
246
330
1F
100
AcDbEntity
  8
0
  6
Continuous
 62
     7
370
    15
100
AcDbLine
 10
71.5903035958
 20
139.3923321674
 30
0.0
 11
72.3522652766
 21
139.9049060354
 31
0.0
  0
ARC
  5
247
330
1F
100
AcDbEntity
  8
0
  6
Continuous
 62
     7
370
    15
100
AcDbCircle
 10
73.8004864045
 20
139.9356995773
 30
0.0
 40
2.275995648118526
100
AcDbArc
 50
166.1226350256
 51
193.8120877988
  0
LINE
  5
248
330
1F
100
AcDbEntity
  8
0
  6
Continuous
 62
     7
370
    15
100
AcDbLine
 10
72.3564058204
 20
147.1752459118
 30
0.0
 11
71.5909240895
 21
140.4815846989
 31
0.0
  0
ARC
  5
249
330
1F
100
AcDbEntity
  8
0
  6
Continuous
 62
     7
370
    15
100
AcDbCircle
 10
75.0275181861
 20
147.0762205695
 30
0.0
 40
2.672947303731433
100
AcDbArc
 50
158.1883584529
 51
177.8768631761
  0
LINE
  5
24A
330
1F
100
AcDbEntity
  8
0
  6
Continuous
 62
     7
370
    15
100
AcDbLine
 10
73.3078877452
 20
148.5819453309
 30
0.0
 11
72.545926239
 21
148.0693714628
 31
0.0
  0
LWPOLYLINE
  5
24B
330
1F
100
AcDbEntity
  8
0
  6
Continuous
 62
     7
370
    15
100
AcDbPolyline
 90
       27
 70
   128
 43
0.0
 10
72.6927767169
 20
143.7354283342
 10
72.7555838308
 20
144.353867502
 10
72.8005790512
 20
144.9509980092
 10
72.8251472243
 20
145.4921113262
 10
72.827860749
 20
145.9457585523
 10
72.8085617662
 20
146.2855795333
 10
72.7683719375
 20
146.4918265054
 10
72.7096269034
 20
146.5525077591
 10
72.6357407762
 20
146.4640991697
 10
72.551007535
 20
146.2317379127
 10
72.4603515478
 20
145.8689281652
 10
72.3690413066
 20
145.3967587957
 10
72.2823837201
 20
144.8426665673
 10
72.2054146823
 20
144.2388528893
 10
72.1426075684
 20
143.6204099963
 10
72.0976124645
 20
143.023279489
 10
72.073044175
 20
142.4821698973
 10
72.0703307666
 20
142.0285189459
 10
72.0896297495
 20
141.6886979649
 10
72.1298195782
 20
141.4824547181
 10
72.1885646122
 20
141.4217734644
 10
72.2624507394
 20
141.5101820538
 10
72.3471839807
 20
141.7425395856
 10
72.4378399678
 20
142.105349333
 10
72.5291500927
 20
142.5775224278
 10
72.6158077956
 20
143.1316146562
 10
72.6927767169
 20
143.7354283342
  0
LINE
  5
24C
330
1F
100
AcDbEntity
  8
0
  6
Continuous
 62
     7
370
    15
100
AcDbLine
 10
72.9788992099
 20
148.674958379
 30
0.0
 11
72.9747515066
 21
148.6439863155
 31
0.0
  0
LINE
  5
24D
330
1F
100
AcDbEntity
  8
0
  6
Continuous
 62
     7
370
    15
100
AcDbLine
 10
80.0883531698
 20
138.587952585
 30
0.0
 11
81.1940491327
 21
148.2565747509
 31
0.0
  0
LINE
  5
24E
330
1F
100
AcDbEntity
  8
0
  6
Continuous
 62
     7
370
    15
100
AcDbLine
 10
81.4624362752
 20
148.2546562264
 30
0.0
 11
80.3567403123
 21
138.5860377858
 31
0.0
  0
ARC
  5
24F
330
1F
100
AcDbEntity
  8
0
  6
Continuous
 62
     7
370
    15
100
AcDbCircle
 10
78.6362503496
 20
148.8262689008
 30
0.0
 40
2.620474391938508
100
AcDbArc
 50
347.4435641864
 51
11.4989074791
  0
ARC
  5
250
330
1F
100
AcDbEntity
  8
0
  6
Continuous
 62
     7
370
    15
100
AcDbCircle
 10
79.3679303823
 20
148.6741053268
 30
0.0
 40
2.136092807791256
100
AcDbArc
 50
348.6756561846
 51
9.1681794215
  0
ARC
  5
251
330
1F
100
AcDbEntity
  8
0
  6
Continuous
 62
     7
370
    15
100
AcDbCircle
 10
76.0358305837
 20
138.9226053397
 30
0.0
 40
4.066316733467502
100
AcDbArc
 50
342.9080819644
 51
355.2792901603
  0
LINE
  5
252
330
1F
100
AcDbEntity
  8
0
  6
Continuous
 62
     7
370
    15
100
AcDbLine
 10
79.9379701853
 20
137.7258757064
 30
0.0
 11
80.2240762055
 21
137.9601480374
 31
0.0
  0
ARC
  5
253
330
1F
100
AcDbEntity
  8
0
  6
Continuous
 62
     7
370
    15
100
AcDbCircle
 10
78.4869833644
 20
138.6553483383
 30
0.0
 40
1.871041153207088
100
AcDbArc
 50
338.1882649556
 51
357.8770584857
  0
INSERT
  5
25F
330
1F
100
AcDbEntity
  8
VERMASSUNG
100
AcDbBlockReference
  2
SW_CENTERMARKSYMBOL_0
 10
73.8975591153
 20
105.8229738781
 30
0.0
  0
OLE2FRAME
  5
260
330
1F
100
AcDbEntity
  8
0
100
AcDbOle2Frame
 70
     2
  3
Paintbrush-Bild
 10
13.8511154363
 20
38.264191557
 30
0.0
 11
51.6290888628
 21
31.9806341108
 31
0.0
 71
     2
 72
     0
 73
     1
 90
    12928
310
80552BED0767C5B32B40DDAF6807D121434000000000000000006FFBDDFB85D0
310
4940DDAF6807D121434000000000000000006FFBDDFB85D04940416F4BD60AFB
310
3F4000000000000000002BED0767C5B32B40416F4BD60AFB3F40000000000000
310
0000000000000100000000010000010000000100000000000100000000320000
310
D0CF11E0A1B11AE1000000000000000000000000000000003E000300FEFF0900
310
0600000000000000000000000100000001000000000000000010000002000000
310
01000000FEFFFFFF0000000000000000FFFFFFFFFFFFFFFFFFFFFFFFFFFFFFFF
310
FFFFFFFFFFFFFFFFFFFFFFFFFFFFFFFFFFFFFFFFFFFFFFFFFFFFFFFFFFFFFFFF
310
FFFFFFFFFFFFFFFFFFFFFFFFFFFFFFFFFFFFFFFFFFFFFFFFFFFFFFFFFFFFFFFF
310
FFFFFFFFFFFFFFFFFFFFFFFFFFFFFFFFFFFFFFFFFFFFFFFFFFFFFFFFFFFFFFFF
310
FFFFFFFFFFFFFFFFFFFFFFFFFFFFFFFFFFFFFFFFFFFFFFFFFFFFFFFFFFFFFFFF
310
FFFFFFFFFFFFFFFFFFFFFFFFFFFFFFFFFFFFFFFFFFFFFFFFFFFFFFFFFFFFFFFF
310
FFFFFFFFFFFFFFFFFFFFFFFFFFFFFFFFFFFFFFFFFFFFFFFFFFFFFFFFFFFFFFFF
310
FFFFFFFFFFFFFFFFFFFFFFFFFFFFFFFFFFFFFFFFFFFFFFFFFFFFFFFFFFFFFFFF
310
FFFFFFFFFFFFFFFFFFFFFFFFFFFFFFFFFFFFFFFFFFFFFFFFFFFFFFFFFFFFFFFF
310
FFFFFFFFFFFFFFFFFFFFFFFFFFFFFFFFFFFFFFFFFFFFFFFFFFFFFFFFFFFFFFFF
310
FFFFFFFFFFFFFFFFFFFFFFFFFFFFFFFFFFFFFFFFFFFFFFFFFFFFFFFFFFFFFFFF
310
FFFFFFFFFFFFFFFFFFFFFFFFFFFFFFFFFFFFFFFFFFFFFFFFFFFFFFFFFFFFFFFF
310
FFFFFFFFFFFFFFFFFFFFFFFFFFFFFFFFFFFFFFFFFFFFFFFFFFFFFFFFFFFFFFFF
310
FFFFFFFFFFFFFFFFFFFFFFFFFFFFFFFFFFFFFFFFFFFFFFFFFFFFFFFFFFFFFFFF
310
FDFFFFFFFEFFFFFFFEFFFFFFFEFFFFFF05000000060000000700000008000000
310
090000000A0000000B0000000C0000000D0000000E0000000F00000010000000
310
11000000120000001300000014000000150000001600000017000000FEFFFFFF
310
FFFFFFFFFFFFFFFFFFFFFFFFFFFFFFFFFFFFFFFFFFFFFFFFFFFFFFFFFFFFFFFF
310
FFFFFFFFFFFFFFFFFFFFFFFFFFFFFFFFFFFFFFFFFFFFFFFFFFFFFFFFFFFFFFFF
310
FFFFFFFFFFFFFFFFFFFFFFFFFFFFFFFFFFFFFFFFFFFFFFFFFFFFFFFFFFFFFFFF
310
FFFFFFFFFFFFFFFFFFFFFFFFFFFFFFFFFFFFFFFFFFFFFFFFFFFFFFFFFFFFFFFF
310
FFFFFFFFFFFFFFFFFFFFFFFFFFFFFFFFFFFFFFFFFFFFFFFFFFFFFFFFFFFFFFFF
310
FFFFFFFFFFFFFFFFFFFFFFFFFFFFFFFFFFFFFFFFFFFFFFFFFFFFFFFFFFFFFFFF
310
FFFFFFFFFFFFFFFFFFFFFFFFFFFFFFFFFFFFFFFFFFFFFFFFFFFFFFFFFFFFFFFF
310
FFFFFFFFFFFFFFFFFFFFFFFFFFFFFFFFFFFFFFFFFFFFFFFFFFFFFFFFFFFFFFFF
310
FFFFFFFFFFFFFFFFFFFFFFFFFFFFFFFFFFFFFFFFFFFFFFFFFFFFFFFFFFFFFFFF
310
FFFFFFFFFFFFFFFFFFFFFFFFFFFFFFFFFFFFFFFFFFFFFFFFFFFFFFFFFFFFFFFF
310
FFFFFFFFFFFFFFFFFFFFFFFFFFFFFFFFFFFFFFFFFFFFFFFFFFFFFFFFFFFFFFFF
310
FFFFFFFFFFFFFFFFFFFFFFFFFFFFFFFFFFFFFFFFFFFFFFFFFFFFFFFFFFFFFFFF
310
FFFFFFFFFFFFFFFFFFFFFFFFFFFFFFFFFFFFFFFFFFFFFFFFFFFFFFFFFFFFFFFF
310
52006F006F007400200045006E00740072007900000000000000000000000000
310
0000000000000000000000000000000000000000000000000000000000000000
310
16000500FFFFFFFFFFFFFFFF020000000A00030000000000C000000000000046
310
000000000000000000000000D05442554B24CD0103000000C000000000000000
310
01004F006C006500000000000000000000000000000000000000000000000000
310
0000000000000000000000000000000000000000000000000000000000000000
310
0A000200FFFFFFFFFFFFFFFFFFFFFFFF00000000000000000000000000000000
310
0000000000000000000000000000000000000000000000001400000000000000
310
010043006F006D0070004F0062006A0000000000000000000000000000000000
310
0000000000000000000000000000000000000000000000000000000000000000
310
120002010100000003000000FFFFFFFF00000000000000000000000000000000
310
0000000000000000000000000000000000000000010000004D00000000000000
310
01004F006C006500310030004E00610074006900760065000000000000000000
310
0000000000000000000000000000000000000000000000000000000000000000
310
1A000200FFFFFFFFFFFFFFFFFFFFFFFF00000000000000000000000000000000
310
0000000000000000000000000000000000000000040000002426000000000000
310
FEFFFFFF02000000FEFFFFFFFFFFFFFFFFFFFFFFFFFFFFFFFFFFFFFFFFFFFFFF
310
FFFFFFFFFFFFFFFFFFFFFFFFFFFFFFFFFFFFFFFFFFFFFFFFFFFFFFFFFFFFFFFF
310
FFFFFFFFFFFFFFFFFFFFFFFFFFFFFFFFFFFFFFFFFFFFFFFFFFFFFFFFFFFFFFFF
310
FFFFFFFFFFFFFFFFFFFFFFFFFFFFFFFFFFFFFFFFFFFFFFFFFFFFFFFFFFFFFFFF
310
FFFFFFFFFFFFFFFFFFFFFFFFFFFFFFFFFFFFFFFFFFFFFFFFFFFFFFFFFFFFFFFF
310
FFFFFFFFFFFFFFFFFFFFFFFFFFFFFFFFFFFFFFFFFFFFFFFFFFFFFFFFFFFFFFFF
310
FFFFFFFFFFFFFFFFFFFFFFFFFFFFFFFFFFFFFFFFFFFFFFFFFFFFFFFFFFFFFFFF
310
FFFFFFFFFFFFFFFFFFFFFFFFFFFFFFFFFFFFFFFFFFFFFFFFFFFFFFFFFFFFFFFF
310
FFFFFFFFFFFFFFFFFFFFFFFFFFFFFFFFFFFFFFFFFFFFFFFFFFFFFFFFFFFFFFFF
310
FFFFFFFFFFFFFFFFFFFFFFFFFFFFFFFFFFFFFFFFFFFFFFFFFFFFFFFFFFFFFFFF
310
FFFFFFFFFFFFFFFFFFFFFFFFFFFFFFFFFFFFFFFFFFFFFFFFFFFFFFFFFFFFFFFF
310
FFFFFFFFFFFFFFFFFFFFFFFFFFFFFFFFFFFFFFFFFFFFFFFFFFFFFFFFFFFFFFFF
310
FFFFFFFFFFFFFFFFFFFFFFFFFFFFFFFFFFFFFFFFFFFFFFFFFFFFFFFFFFFFFFFF
310
FFFFFFFFFFFFFFFFFFFFFFFFFFFFFFFFFFFFFFFFFFFFFFFFFFFFFFFFFFFFFFFF
310
FFFFFFFFFFFFFFFFFFFFFFFFFFFFFFFFFFFFFFFFFFFFFFFFFFFFFFFFFFFFFFFF
310
FFFFFFFFFFFFFFFFFFFFFFFFFFFFFFFFFFFFFFFFFFFFFFFFFFFFFFFFFFFFFFFF
310
0100000200000000000000000000000000000000000000000000000000000000
310
0000000000000000000000000000000000000000000000000000000000000000
310
0100FEFF030A0000FFFFFFFF0A00030000000000C00000000000004607000000
310
5042727573680007000000504272757368000700000050427275736800F439B2
310
7100000000000000000000000000000000000000000000000000000000000000
310
0000000000000000000000000000000000000000000000000000000000000000
310
0000000000000000000000000000000000000000000000000000000000000000
310
0000000000000000000000000000000000000000000000000000000000000000
310
0000000000000000000000000000000000000000000000000000000000000000
310
0000000000000000000000000000000000000000000000000000000000000000
310
0000000000000000000000000000000000000000000000000000000000000000
310
0000000000000000000000000000000000000000000000000000000000000000
310
0000000000000000000000000000000000000000000000000000000000000000
310
0000000000000000000000000000000000000000000000000000000000000000
310
0000000000000000000000000000000000000000000000000000000000000000
310
0000000000000000000000000000000000000000000000000000000000000000
310
20260000424D0E260000000000003E00000028000000B40200006E0000000100
310
01000000000000000000130B0000130B00000200000002000000000000FFFFFF
310
FFFFFFFFFFFFFFFFFFFFFFFFFFFFFFFFFFFFFFFFFFFFFFFFFFFFFFFFFFFFFFFF
310
FFFFFFFFFFFFFFFFFFFFFFFFFFFFFFFFFFFFFFFFFFFFFFFFFFFFFFFFFFFFFFFF
310
FFFFFFFFFFFFFFFFFFFFFFFFFFFFFFFFFFFFFFFFFFFFFFFFF000FFFFFFFFFFFF
310
FFFFFFFFFFFFFFFFFFFFFFFFFFFFFFFFFFFFFFFFFFFFFFFFFFFFFFFFFFFFFFFF
310
FFFFFFFFFFFFFFFFFFFFFFFFFFFFFFFFFFFFFFFFFFFFFFFFFFFFFFFFFFFFFFFF
310
FFFFFFFFFFFFFFFFFFFFFFFFFFFFFFFFF000FFFFFFFFFFFFFFFFFFFFFFFFFFFF
310
FFFFFFFFFFFFFFFFFFFFFFFFFFFFFFFFFFFFFFFFFFFFFFFFFFFFFFFFFFFFFFFF
310
FFFFFFFFFFFFFFFFFFFFFFFFFFFFFFFFFFFFFFFFFFFFFFFFFFFFFFFFFFFFFFFF
310
FFFFFFFFFFFFFFFFF000FFFFFFFFFFFFFFFFFFFFFFFFFFFFFFFFFFFFFFFFFFFF
310
FFFFFFFFFFFFFFFFFFFFFFFFFFFFFFFFFFFFFFFFFFFFFFFFFFFFFFFFFFFFFFFF
310
FFFFFFFFFFFFFFFFFFFFFFFFFFFFFFFFFFFFFFFFFFFFFFFFFFFFFFFFFFFFFFFF
310
F000FFFFFFFFFFFFFFFFFFFFFFFFFFFFFFFFFFFFFFFFFFFFFFFFFFFFFFFFFFFF
310
FFFFFFFFFFFFFFFFFFFFFFFFFFFFFFFFFFFFFFFFFFFFFFFFFFFFFFFFFFFFFFFF
310
FFFFFFFFFFFFFFFFFFFFFFFFFFFFFFFFFFFFFFFFFFFFFFFFF000FFFFFFFFFFFF
310
FFFFFFFFFFFFFFFFFFFFFFFFFFFFFFFFFFFFFFFFFFFFFFFFFFFFFFFFFFFFFFFF
310
FFFFFFFFFFFFFFFFFFFFFFFFFFFFFFFFFFFFFFFFFFFFFFFFFFFFFFFFFFFFFFFF
310
FFFFFFFFFFFFFFFFFFFFFFFFFFFFFFFFF000FFFFFFFFFFFFFFFFFFFFFFFFFFFF
310
FFFFFFFFFFFFFFFFFFFFFFFFFFFFFFFFFFFFFFFFFFFFFFFFFFFFFFFFFFFFFFFF
310
FFFFFFFFFFFFFFFFFFFFFFFFFFFFFFFFFFFFFFFFFFFFFFFFFFFFFFFFFFFFFFFF
310
FFFFFFFFFFFFFFFFF000FFFFFFFFFFFFFFFFFFFFFFFFFFFFFFFFFFFFFFFFFFFF
310
FFFFFFFFFFFFFFFFFFFFFFFFFFFFFFFFFFFFFFFFFFFFFFFFFFFFFFFFFFFFFFFF
310
FFFFFFFFFFFFFFFFFFFFFFFFFFFFFFFFFFFFFFFFFFFFFFFFFFFFFFFFFFFFFFFF
310
F000FFFFFFFFFFFFFFFFFFFFFFFFFFFFFFFFFFFFFFFFFFFFFFFFFFFFFFFFFFFF
310
FFFFFFFFFFFFFFFFFFFFFFFFFFFFFFFFFFFFFFFFFFFFFFFFFFFFFFFFFFFFFFFF
310
FFFFFFFFFFFFFFFFFFFFFFFFFFFFFFFFFFFFFFFFFFFFFFFFF000FFFFFFFFFFFF
310
FFFFFFFFFFFFFFFFFFFFFFFFFFFFFFFFFFFFFFFFFFFFFFFFFFFFFFFFFFFFFFFF
310
FFFFFFFFFFFFFFFFFFFFFFFFFFFFFFFFFFFFFFFFFFFFFFFFFFFFFFFFFFFFFFFF
310
FFFFFFFFFFFFFFFFFFFFFFFFFFFFFFFFF000FFFFFFFFFFFFFFFFFFFFFFFFFFFF
310
FFFFFFFFFFFFFFFFFFFFFFFFFFFFFFFFFFFFFFFFFFFFFFFFFFFFFFFFFFFFFFFF
310
FFFFFFFFFFFFFFFFFFFFFFFFFFFFFFFFFFFFFFFFFFFFFFFFFFFFFFFFFFFFFFFF
310
FFFFFFFFFFFFFFFFF000FFFFFFFFFFFFFFFFFFFFFFFFFFFFFFFFFFFFFFFFFFFF
310
FFFFFFFFFFFFFFFFFFFFFFFFFFFFFFFFFFFFFFFFFFFFFFFFFFFFFFFFFFFFFFFF
310
FFFFFFFFFFFFFFFFFFFFFFFFFFFFFFFFFFFFFFFFFFFFFFFFFFFFFFFFFFFFFFFF
310
F000FFFFFFFFFFFFFFFFFFFFFFFFFFFFFFFFFFFFFFFFFFFFFFFFFFFFFFFFFFFF
310
FFFFFFFFFFFFFFFFFFFFFFFFFFFFFFFFFFFFFFFFFFFFFFFFFFFFFFFFFFFFFFFF
310
FFFFFFFFFFFFFFFFFFFFFFFFFFFFFFFFFFFFFFFFFFFFFFFFF000FFFFFFFFFFFF
310
FFFFFFFFFFFFFFFFFFFFFFFFFFFFFFFFFFFFFFFFFFFFFFFFFFFFFFFFFFFFFFFF
310
FFFFFFFFFFFFFFFFFFFFFFFFFFFFFFFFFFFFFFFFFFFFFFFFFFFFFFFFFFFFFFFF
310
FFFFFFFFFFFFFFFFFFFFFFFFFFFFFFFFF000FFFFFFFFFFFFFFFFFFFFFFFFFFFF
310
FFFFFFFFFFFFFFFFFFFFFFFFFFFFFFFFFFFFFFFFFFFFFFFFFFFFFFFFFFFFFFFF
310
FFFFFFFFFFFFFFFFFFFFFFFFFFFFFFFFFFFFFFFFFFFFFFFFFFFFFFFFFFFFFFFF
310
FFFFFFFFFFFFFFFFF000FFFFFFFFFFFFFFFFFFFFFFFFFFFFFFFFFFFFFFFFFFFF
310
FFFFFFFFFFFFFFFFFFFFFFFFFFFFFFFFFFFFFFFFFFFFFFFFFFFFFFFFFFFFFFFF
310
FFFFFFFFFFFFFFFFFFFFFFFFFFFFFFFFFFFFFFFFFFFFFFFFFFFFFFFFFFFFFFFF
310
F000FFFFFFFFFFFFFFFFFFFFFFFFFFFFFFFFFFFFFFFFFFFFFFFFFFFFFFFFFFFF
310
FFFFFFFFFFFFFFFFFFFFFFFFFFFFFFFFFFFFFFFFFFFFFFFFFFFFFFFFFFFFFFFF
310
FFFFFFFFFFFFFFFFFFFFFFFFFFFFFFFFFFFFFFFFFFFFFFFFF000FFFFFFFFFFFF
310
FFFFFFFFFFFFFFFFFFFFFFFFFFFFFFFFFFFFFFFFFFFFFFFFFFFFFFFFFFFFFFFF
310
FFFFFFFFFFFFFFFFFFFFFFFFFFFFFFFFFFFFFFFFFFFFFFFFFFFFFFFFFFFFFFFF
310
FFFFFFFFFFFFFFFFFFFFFFFFFFFFFFFFF000FFFFFFFFFFFFFFFFFFFFFFFFFFFF
310
FFFFFFFFFFFFFFFFFFFFFFFFFFFFFFFFFFFFFFFFFFFFFFFFFFFFFFFFFFFFFFFF
310
FFFFFFFFFFFFFFFFFFFFFFFFFFFFFFFFFFFFFFFFFFFFFFFFFFFFFFFFFFFFFFFF
310
FFFFFFFFFFFFFFFFF000FFFFF80003FFFFFFFFFFFFFFFFFFFFFFFFFFFFFFFFFF
310
FFFFF00007FFFFFFFFFF00007FFFFFF800000000000000007FFFFFFFFFFFFFFF
310
FFFFFFFC001FFFFFFFFFFFFFFC001FFFFFFFFFFFFFFFFFFFFFFFFFFE0007FFFF
310
F000FFFF8000007FFFFFFFF8000FFFFFC0007FFFFF80007FFFFF0000007FFFFF
310
FFF8000007FFFFF800000000000000007FFFFFF0001FFFFFFFFFFFC00001FFFF
310
FFFFFFFFC00001FFFFFFFF000000000003FFFFE000007FFFF000FFFE0000000F
310
FFFFFFF0000FFFFF80007FFFFF80007FFFFC0000001FFFFFFFC0000001FFFFF8
310
00000000000000007FFFFFF0001FFFFFFFFFFE0000003FFFFFFFFFFE0000003F
310
FFFFFF000000000003FFFF0000000FFFF000FFF800000003FFFFFFF00007FFFF
310
80007FFFFF80007FFFF000000007FFFFFF000000003FFFF80000000000000000
310
7FFFFFF0001FFFFFFFFFF80000000FFFFFFFFFF80000000FFFFFFF0000000000
310
03FFFC00000003FFF000FFE000000000FFFFFFF00007FFFF80003FFFFF80007F
310
FFC000000001FFFFFC000000001FFFF800000000000000007FFFFFF0001FFFFF
310
FFFFE000000003FFFFFFFFE000000003FFFFFF000000000003FFF000000000FF
310
F000FF80000000007FFFFFF00007FFFF80003FFFFF80007FFF8000000000FFFF
310
F80000000007FFF800000000000000007FFFFFF0001FFFFFFFFFC000000001FF
310
FFFFFFC000000001FFFFFF000000000003FFC0000000007FF000FF0000000000
310
3FFFFFE00007FFFF00003FFFFF80007FFE00000000003FFFF00000000003FFF8
310
00000000000000007FFFFFF0001FFFFFFFFF8000000000FFFFFFFF8000000000
310
FFFFFF000000000003FF80000000003FF000FE00000000001FFFFFE00003FFFF
310
00003FFFFF80007FFC00000000001FFFE00000000001FFF8000001FFFE000000
310
7FFFFFF0001FFFFFFFFE00000000003FFFFFFE00000000003FFFFF0000000000
310
03FF00000000001FF000FC00000000000FFFFFE00003FFFF00001FFFFF80007F
310
F800000000001FFFC00000000000FFF8000001FFFE0000007FFFFFF0001FFFFF
310
FFFC00000000001FFFFFFC00000000001FFFFF000000000003FE00000000000F
310
F000F8000000000007FFFFE00003FFFF00001FFFFF80007FF800000000000FFF
310
800000000000FFF8000001FFFE0000007FFFFFF0001FFFFFFFF800000000000F
310
FFFFF800000000000FFFFF000000000003FC000000000007F000F80000000000
310
03FFFFC00003FFFE00001FFFFF80007FF0000000000007FF0000000000007FF8
310
000001FFFE0000007FFFFFF0001FFFFFFFF0000000000007FFFFF00000000000
310
07FFFF000000000003F8000000000003F000F0000000000003FFFFC00001FFFE
310
00001FFFFF80007FE0000000000007FE0000000000003FF8000001FFFE000000
310
7FFFFFF0001FFFFFFFF0000000000007FFFFF0000000000007FFFF0000000000
310
03F800001F800003F000E00001FFF00001FFFFC00001FFFE00000FFFFF80007F
310
E00001FFE00003FE00001FFF00003FF8000001FFFE0000007FFFFFF0001FFFFF
310
FFE000003E000003FFFFE000003E000003FFFF000000000003F00001FFF80001
310
F000E00007FFFC0001FFFFC00001FFFE00000FFFFF80007FC0000FFFFC0003FC
310
0000FFFFC0001FF8000001FFFE0000007FFFFFF0001FFFFFFFC00003FFE00001
310
FFFFC00003FFE00001FFFF0001FFFFFFFFF00007FFFE0001F000E0000FFFFF00
310
00FFFF800001FFFC00000FFFFF80007FC0001FFFFE0001FC0001FFFFE0001FF8
310
000001FFFE0000007FFFFFF0001FFFFFFF80000FFFF80000FFFF80000FFFF800
310
00FFFF0003FFFFFFFFE0000FFFFF8000F000C0003FFFFF8000FFFF800000FFFC
310
000007FFFF80007F80003FFFFF0001FC0003FFFFF0001FF8000001FFFE000000
310
7FFFFFF0001FFFFFFF80003FFFFE0000FFFF80003FFFFE0000FFFF0003FFFFFF
310
FFE0003FFFFF8000F000C0003FFFFF8000FFFF800000FFFC000007FFFF80007F
310
80007FFFFF8001F80007FFFFF8000FF8000001FFFE0000007FFFFFF0001FFFFF
310
FF00007FFFFF00007FFF00007FFFFF00007FFF0003FFFFFFFFE0003FFFFFC000
310
F000C0007FFFFFC000FFFF000000FFFC000007FFFF80007F8000FFFFFF8000F8
310
000FFFFFF8000FF8000001FFFE0000007FFFFFF0001FFFFFFF0000FFFFFF8000
310
7FFF0000FFFFFF80007FFF0003FFFFFFFFC0007FFFFFC00070008000FFFFFFC0
310
00FFFF000000FFF8000007FFFF80007F8000FFFFFF8000F8000FFFFFF8000FF8
310
000001FFFE0000007FFFFFF0001FFFFFFE0001FFFFFFC0003FFE0001FFFFFFC0
310
003FFF0003FFFFFFFFC0007FFFFFE00070008000FFFFFFC0007FFF0000007FF8
310
000003FFFF80007F0001FFFFFF8000F8000FFFFFF8000FF8000001FFFE000000
310
7FFFFFF0001FFFFFFE0001FFFFFFC0003FFE0001FFFFFFC0003FFF0003FFFFFF
310
FFC000FFFFFFE00070008000FFFFFFC0007FFF0000007FF8000003FFFF80007F
310
0001FFFFFF8000F8001FFFFFF8000FF8000001FFFE0000007FFFFFF0001FFFFF
310
FE0003FFFFFFE0003FFE0003FFFFFFE0003FFF0003FFFFFFFFC000FFFFFFE000
310
70008000FFFFFFC0007FFE0000007FF8000003FFFF80007F0001FFFFFF8000F0
310
001FFFFFF8000FF8000001FFFE0000007FFFFFF0001FFFFFFC0003FFFFFFE000
310
1FFC0003FFFFFFE0001FFF0003FFFFFFFFC000FFFFFFC00070008000FFFFFF80
310
007FFE0000007FF0000003FFFF80007F0001FFFFFF0000F0001FFFFFF8000FF8
310
000001FFFE0000007FFFFFF0001FFFFFFC0007FFFFFFF0001FFC0007FFFFFFF0
310
001FFF0003FFFFFFFFC000FFFFFFC00070008001FFFFFF0000FFFE0000003FF0
310
000001FFFF80007F0001FFFFFF0000F8001FFFFFF0000FF8000001FFFE000000
310
7FFFFFF0001FFFFFFC0007FFFFFFF0001FFC0007FFFFFFF0001FFF0003FFFFFF
310
FFC001FFFFFF80007000FFFFFFFFFE0000FFFE0008003FF0008001FFFF80007F
310
FFFFFFFFFC0000FFFFFFFFFFE0000FF8000001FFFE0000007FFFFFF0001FFFFF
310
F8000FFFFFFFF8000FF8000FFFFFFFF8000FFF0003FFFFFFFFFFFFFFFFFF0000
310
7000FFFFFFFFFC0000FFFC0008003FF0008001FFFF80007FFFFFFFFFF80001FF
310
FFFFFFFF80000FF8000001FFFE0000007FFFFFF0001FFFFFF8000FFFFFFFF800
310
0FF8000FFFFFFFF8000FFF0003FFFFFFFFFFFFFFFFFE0000F000FFFFFFFFE000
310
00FFFC000C003FE000C001FFFF80007FFFFFFFFFC00001FFFFFFFFFE00001FF8
310
000001FFFE0000007FFFFFF0001FFFFFF8000FFFFFFFF8000FF8000FFFFFFFF8
310
000FFF0003FFFFFFFFFFFFFFFFF00000F000FFFFFFFE000001FFFC000C001FE0
310
00C000FFFF80007FFFFFFFFE000001FFFFFFFFE000001FF80FFFFFFFFFFFFFC0
310
7FFFFFF0001FFFFFF8000FFFFFFFF8000FF8000FFFFFFFF8000FFF0003FFFFFF
310
FFFFFFFFFF800000F000FFFFFFC0000001FFFC001C001FE001C000FFFF80007F
310
FFFFFF80000003FFFFFFF80000001FF80FFFFFFFFFFFFFC07FFFFFF0001FFFFF
310
F8001FFFFFFFFC000FF8001FFFFFFFFC000FFF0003FFFFFFFFFFFFFFF0000001
310
F000FFFFF800000001FFF8001C001FE001C000FFFF80007FFFFFF800000003FF
310
FFFF800000003FF80FFFFFFFFFFFFFC07FFFFFF0001FFFFFF8001FFFFFFFFC00
310
0FF8001FFFFFFFFC000FFF0003FFFFFFFFFFFFFE00000001F000FFFFC0000000
310
03FFF8001E001FC001E000FFFF80007FFFFF8000000007FFFFFC000000003FF8
310
0FFFFFFFFFFFFFC07FFFFFF0001FFFFFF8001FFFFFFFFC000FF8001FFFFFFFFC
310
000FFF0003FFFFFFFFFFFFE000000003F000FFFE0000000007FFF8001E000FC0
310
01E0007FFF80007FFFFE0000000007FFFFE0000000007FF80FFFFFFFFFFFFFC0
310
7FFFFFF0001FFFFFF0001FFFFFFFFC0007F0001FFFFFFFFC0007FF0003FFFFFF
310
FFFFFF0000000003F000FFF80000000007FFF8001E000FC003E0007FFF80007F
310
FFF0000000000FFFFF8000000000FFF80FFFFFFFFFFFFFC07FFFFFF0001FFFFF
310
F0001FFFFFFFFC0007F0001FFFFFFFFC0007FF0003FFFFFFFFFFFC0000000007
310
F000FFE0000000000FFFF0003E000FC003E0007FFF80007FFFC0000000001FFF
310
FE0000000001FFF80FFFFFFFFFFFFFC07FFFFFF0001FFFFFF0001FFFFFFFFC00
310
07F0001FFFFFFFFC0007FF0003FFFFFFFFFFF0000000000FF000FFC000000000
310
1FFFF0003F000F8003F0003FFF80007FFF80000000003FFFF80000000003FFF8
310
0FFFFFFFFFFFFFC07FFFFFF0001FFFFFF0001FFFFFFFFC0007F0001FFFFFFFFC
310
0007FF0003FFFFFFFFFFE0000000001FF000FF00000000007FFFF0003F000780
310
03F0003FFF80007FFF00000000007FFFF00000000007FFF80FFFFFFFFFFFFFC0
310
7FFFFFF0001FFFFFF0001FFFFFFFFC0007F0001FFFFFFFFC0007FF0003FFFFFF
310
FFFF80000000007FF000FE0000000000FFFFE0003F00078007F0003FFF80007F
310
FE0000000001FFFFE0000000001FFFF80FFFFFFFFFFFFFC07FFFFFF0001FFFFF
310
F0001FFFFFFFFC0007F0001FFFFFFFFC0007FF0003FFFFFFFFFF0000000000FF
310
F000FC0000000003FFFFE0007F00078007F0003FFF80007FFC0000000007FFFF
310
C0000000007FFFF80FFFFFFFFFFFFFC07FFFFFF0001FFFFFF8001FFFFFFFFC00
310
0FF8001FFFFFFFFC000FFF0003FFFFFFFFFE0000000003FFF000FC000000000F
310
FFFFE0007F80070007F8001FFF80007FF8000000001FFFFF8000000001FFFFF8
310
0FFFFFFFFFFFFFC07FFFFFF0001FFFFFF8001FFFFFFFFC000FF8001FFFFFFFFC
310
000FFF0003FFFFFFFFFC000000000FFFF000F8000000007FFFFFE0007F800700
310
07F8001FFF80007FF000000000FFFFFF800000000FFFFFF80FFFFFFFFFFFFFC0
310
7FFFFFF0001FFFFFF8000FFFFFFFF8000FF8000FFFFFFFF8000FFF0003FFFFFF
310
FFFC000000007FFFF000F800000007FFFFFFC0007F8003000FF8001FFF80007F
310
F000000007FFFFFF000000007FFFFFF80FFFFFFFFFFFFFC07FFFFFF0001FFFFF
310
F8000FFFFFFFF8000FF8000FFFFFFFF8000FFF0003FFFFFFFFF80000000FFFFF
310
F000F0000000FFFFFFFFC000FF8003000FF8001FFF80007FE0000000FFFFFFFF
310
0000000FFFFFFFF8000001FFFE0000007FFFFFF0001FFFFFF8000FFFFFFFF800
310
0FF8000FFFFFFFF8000FFF0003FFFFFFFFF8000000FFFFFFF000F000000FFFFF
310
FFFFC000FFC002000FF8000FFF80007FE000001FFFFFFFFE000001FFFFFFFFF8
310
000001FFFE0000007FFFFFF0001FFFFFF8000FFFFFFFF8000FF8000FFFFFFFF8
310
000FFF0003FFFFFFFFF000001FFFFFFFF000E00000FFFFFFFFFFC000FFC00200
310
0FFC000FFF80007FE00001FFFFFFFFFE00001FFFFFFFFFF8000001FFFE000000
310
7FFFFFF0001FFFFFFC000FFFFFFFF8001FFC000FFFFFFFF8001FFF0003FFFFFF
310
FFF00001FFFFFFFFF000E00007FFFFFFFFFF8000FFC000001FFC000FFF80007F
310
C0000FFFFFFFFFFE0000FFFFFFFFFFF8000001FFFE0000007FFFFFF0001FFFFF
310
FC0007FFFFFFF0001FFC0007FFFFFFF0001FFF0003FFFFFFFFF00007FFFFFFFF
310
F000E0001FFFFFFFFFFF8000FFC000001FFC000FFF80007FC0003FFFFFFFFFFE
310
0001FFFFFFFFFFF8000001FFFE0000007FFFFFF0001FFFFFFC0007FFFFFFF000
310
1FFC0007FFFFFFF0001FFF0003FFFFFFFFF0001FFFFFFFFFF000E0003FFFFF00
310
03FF8001FFE000001FFC0007FF80007FC0007FFFFF0007FC0003FFFFF0003FF8
310
000001FFFE0000007FFFFFF0001FFFFFFC0003FFFFFFE0001FFC0003FFFFFFE0
310
001FFF0003FFFFFFFFF0003FFFFFFFFFF000E0003FFFFF0001FF8001FFE00000
310
1FFE0007FF80007FC0007FFFFE0003FC0007FFFFE0003FF8000001FFFE000000
310
7FFFFFF0001FFFFFFE0003FFFFFFE0003FFE0003FFFFFFE0003FFF0003FFFFFF
310
FFF0003FFFFF8001F000E0003FFFFF0001FF0001FFE000001FFE0007FF80007F
310
C0007FFFFE0003FC0007FFFFE0003FF8000001FFFE0000007FFFFFF0001FFFFF
310
FE0001FFFFFFC0003FFE0001FFFFFFC0003FFF0003FFFFFFFFF0003FFFFF0001
310
F000E0003FFFFF0003FF0001FFE000003FFE0007FF80007FC0007FFFFE0003FC
310
0007FFFFE0003FF8000001FFFE0000007FFFFFF0001FFFFFFF0001FFFFFFC000
310
7FFF0001FFFFFFC0007FFF0003FFFFFFFFF0003FFFFF0001F000E0003FFFFE00
310
03FF0003FFF000003FFE0003FF80007FC0007FFFFC0003FE0007FFFFE0003FF8
310
000001FFFE0000007FFFFFF0001FFFFFFF0000FFFFFF80007FFF0000FFFFFF80
310
007FFF0003FFFFFFFFF0003FFFFF0001F000E0003FFFFE0003FF0003FFF00000
310
3FFF0003FF80007FC0007FFFFC0007FE0007FFFFC0003FF8000001FFFE000000
310
7FFFFFF0001FFFFFFF80007FFFFF0000FFFF80007FFFFF0000FFFF0003FFFFFF
310
FFF0003FFFFF0003F000E0003FFFFC0003FE0003FFF000003FFF0003FF80007F
310
E0003FFFF80007FE0003FFFFC0007FF8000001FFFE0000007FFFFFF0001FFFFF
310
FF80003FFFFE0000FFFF80003FFFFE0000FFFF0003FFFFFFFFF0001FFFFE0003
310
F000F0001FFFF80003FE0003FFF000007FFF0001FF80007FE0003FFFF00007FE
310
0001FFFF80007FF8000001FFFE0000007FFFFFF0001FFFFFFFC0000FFFF80001
310
FFFFC0000FFFF80001FFFF0003FFFFFFFFF0001FFFFC0003F000F0000FFFF000
310
07FE0007FFF800007FFF0001FF80007FE0001FFFE00007FF0000FFFE00007FF8
310
000001FFFE0000007FFFFFF0001FFFFFFFC00003FFE00001FFFFC00003FFE000
310
01FFFF0003FFFFFFFFF8000FFFF80003F000F00003FFC00007FC0007FFF80000
310
7FFF8001FF80007FF00007FF80000FFF00007FF80000FFF8000001FFFE000000
310
7F80000000000001FFE000003E000003FFFFE000003E000003FFFF0003FFFFFF
310
FFF80003FFE00007F000F800000000000FFC0007FFF800007FFF8001FF80007F
310
F000000000000FFF000000000000FFF8000001FFFE0000007F80000000000001
310
FFF0000000000007FFFFF0000000000007FFFF0003FFFFFFFFFC00007E000007
310
F000F800000000000FFC0007FFF80000FFFF8000FF80007FF800000000001FFF
310
800000000001FFF8000001FFFE0000007F80000000000001FFF800000000000F
310
FFFFF800000000000FFFFF0003FFFFFFFFFC00000000000FF000FC0000000000
310
1FFC0007FFFC0000FFFF8000FF80007FF800000000003FFFC00000000001FFF8
310
000001FFFE0000007F80000000000001FFF800000000000FFFFFF80000000000
310
0FFFFF0003FFFFFFFFFE00000000001FF000FE00000000003FF8000FFFFC0000
310
FFFF8000FF80007FFC00000000003FFFC00000000003FFF8000001FFFE000000
310
7F80000000000001FFFC00000000001FFFFFFC00000000001FFFFF0003FFFFFF
310
FFFF00000000001FF000FF00000000003FF8000FFFFC0000FFFFC000FF80007F
310
FE00000000007FFFE00000000007FFF8000001FFFE0000007F80000000000001
310
FFFE00000000003FFFFFFE00000000003FFFFF0003FFFFFFFFFF80000000003F
310
F000FF80000000007FF8000FFFFC0001FFFFC0007F80007FFF0000000000FFFF
310
F0000000000FFFF800000000000000007F80000000000001FFFF8000000000FF
310
FFFFFF8000000000FFFFFF0003FFFFFFFFFFC0000000007FF000FFC000000000
310
FFF8000FFFFE0001FFFFC0007F80007FFF8000000001FFFFF8000000001FFFF8
310
00000000000000007F80000000000001FFFFC000000001FFFFFFFFC000000001
310
FFFFFF0003FFFFFFFFFFE000000000FFF000FFE000000003FFF0001FFFFE0001
310
FFFFC0007F80007FFFC000000007FFFFFE000000003FFFF80000000000000000
310
7F80000000000001FFFFE000000003FFFFFFFFE000000003FFFFFF0003FFFFFF
310
FFFFF000000003FFF000FFF80000000FFFF0001FFFFE0001FFFFE0007F80007F
310
FFF00000000FFFFFFF00000000FFFFF800000000000000007F80000000000001
310
FFFFF80000000FFFFFFFFFF80000000FFFFFFF0003FFFFFFFFFFFC0000000FFF
310
F000FFFE0000003FFFF0001FFFFE0003FFFFE0003F80007FFFFC0000003FFFFF
310
FFC0000003FFFFF800000000000000007F80000000000001FFFFFE0000003FFF
310
FFFFFFFE0000003FFFFFFF0003FFFFFFFFFFFF0000003FFFF000FFFF800000FF
310
FFF0001FFFFF0003FFFFE0003F80007FFFFF000001FFFFFFFFF800001FFFFFF8
310
00000000000000007F80000000000001FFFFFFC00001FFFFFFFFFFFFC00001FF
310
FFFFFF0003FFFFFFFFFFFFC00000FFFFF000FFFFF8000FFFFFFFFFFFFFFFFFFF
310
FFFFFFFFFFFFFFFFFFFFF0001FFFFFFFFFFF0000FFFFFFF80000000000000000
310
7FFFFFFFFFFFFFFFFFFFFFFC001FFFFFFFFFFFFFFC001FFFFFFFFFFFFFFFFFFF
310
FFFFFFFC001FFFFFF000FFFFFFFFFFFFFFFFFFFFFFFFFFFFFFFFFFFFFFFFFFFF
310
FFFFFFFFFFFFFFFFFFFFFFFFFFFFFFFFFFFFFFFFFFFFFFFFFFFFFFFFFFFFFFFF
310
FFFFFFFFFFFFFFFFFFFFFFFFFFFFFFFFFFFFFFFFFFFFFFFFFFFFFFFFFFFFFFFF
310
F000FFFFFFFFFFFFFFFFFFFFFFFFFFFFFFFFFFFFFFFFFFFFFFFFFFFFFFFFFFFF
310
FFFFFFFFFFFFFFFFFFFFFFFFFFFFFFFFFFFFFFFFFFFFFFFFFFFFFFFFFFFFFFFF
310
FFFFFFFFFFFFFFFFFFFFFFFFFFFFFFFFFFFFFFFFFFFFFFFFF000FFFFFFFFFFFF
310
FFFFFFFFFFFFFFFFFFFFFFFFFFFFFFFFFFFFFFFFFFFFFFFFFFFFFFFFFFFFFFFF
310
FFFFFFFFFFFFFFFFFFFFFFFFFFFFFFFFFFFFFFFFFFFFFFFFFFFFFFFFFFFFFFFF
310
FFFFFFFFFFFFFFFFFFFFFFFFFFFFFFFFF000FFFFFFFFFFFFFFFFFFFFFFFFFFFF
310
FFFFFFFFFFFFFFFFFFFFFFFFFFFFFFFFFFFFFFFFFFFFFFFFFFFFFFFFFFFFFFFF
310
FFFFFFFFFFFFFFFFFFFFFFFFFFFFFFFFFFFFFFFFFFFFFFFFFFFFFFFFFFFFFFFF
310
FFFFFFFFFFFFFFFFF000FFFFFFFFFFFFFFFFFFFFFFFFFFFFFFFFFFFFFFFFFFFF
310
FFFFFFFFFFFFFFFFFFFFFFFFFFFFFFFFFFFFFFFFFFFFFFFFFFFFFFFFFFFFFFFF
310
FFFFFFFFFFFFFFFFFFFFFFFFFFFFFFFFFFFFFFFFFFFFFFFFFFFFFFFFFFFFFFFF
310
F000FFFFFFFFFFFFFFFFFFFFFFFFFFFFFFFFFFFFFFFFFFFFFFFFFFFFFFFFFFFF
310
FFFFFFFFFFFFFFFFFFFFFFFFFFFFFFFFFFFFFFFFFFFFFFFFFFFFFFFFFFFFFFFF
310
FFFFFFFFFFFFFFFFFFFFFFFFFFFFFFFFFFFFFFFFFFFFFFFFF000FFFFFFFFFFFF
310
FFFFFFFFFFFFFFFFFFFFFFFFFFFFFFFFFFFFFFFFFFFFFFFFFFFFFFFFFFFFFFFF
310
FFFFFFFFFFFFFFFFFFFFFFFFFFFFFFFFFFFFFFFFFFFFFFFFFFFFFFFFFFFFFFFF
310
FFFFFFFFFFFFFFFFFFFFFFFFFFFFFFFFF000FFFFFFFFFFFFFFFFFFFFFFFFFFFF
310
FFFFFFFFFFFFFFFFFFFFFFFFFFFFFFFFFFFFFFFFFFFFFFFFFFFFFFFFFFFFFFFF
310
FFFFFFFFFFFFFFFFFFFFFFFFFFFFFFFFFFFFFFFFFFFFFFFFFFFFFFFFFFFFFFFF
310
FFFFFFFFFFFFFFFFF000FFFFFFFFFFFFFFFFFFFFFFFFFFFFFFFFFFFFFFFFFFFF
310
FFFFFFFFFFFFFFFFFFFFFFFFFFFFFFFFFFFFFFFFFFFFFFFFFFFFFFFFFFFFFFFF
310
FFFFFFFFFFFFFFFFFFFFFFFFFFFFFFFFFFFFFFFFFFFFFFFFFFFFFFFFFFFFFFFF
310
F000FFFFFFFFFFFFFFFFFFFFFFFFFFFFFFFFFFFFFFFFFFFFFFFFFFFFFFFFFFFF
310
FFFFFFFFFFFFFFFFFFFFFFFFFFFFFFFFFFFFFFFFFFFFFFFFFFFFFFFFFFFFFFFF
310
FFFFFFFFFFFFFFFFFFFFFFFFFFFFFFFFFFFFFFFFFFFFFFFFF000FFFFFFFFFFFF
310
FFFFFFFFFFFFFFFFFFFFFFFFFFFFFFFFFFFFFFFFFFFFFFFFFFFFFFFFFFFFFFFF
310
FFFFFFFFFFFFFFFFFFFFFFFFFFFFFFFFFFFFFFFFFFFFFFFFFFFFFFFFFFFFFFFF
310
FFFFFFFFFFFFFFFFFFFFFFFFFFFFFFFFF000FFFFFFFFFFFFFFFFFFFFFFFFFFFF
310
FFFFFFFFFFFFFFFFFFFFFFFFFFFFFFFFFFFFFFFFFFFFFFFFFFFFFFFFFFFFFFFF
310
FFFFFFFFFFFFFFFFFFFFFFFFFFFFFFFFFFFFFFFFFFFFFFFFFFFFFFFFFFFFFFFF
310
FFFFFFFFFFFFFFFFF000FFFFFFFFFFFFFFFFFFFFFFFFFFFFFFFFFFFFFFFFFFFF
310
FFFFFFFFFFFFFFFFFFFFFFFFFFFFFFFFFFFFFFFFFFFFFFFFFFFFFFFFFFFFFFFF
310
FFFFFFFFFFFFFFFFFFFFFFFFFFFFFFFFFFFFFFFFFFFFFFFFFFFFFFFFFFFFFFFF
310
F000FFFFFFFFFFFFFFFFFFFFFFFFFFFFFFFFFFFFFFFFFFFFFFFFFFFFFFFFFFFF
310
FFFFFFFFFFFFFFFFFFFFFFFFFFFFFFFFFFFFFFFFFFFFFFFFFFFFFFFFFFFFFFFF
310
FFFFFFFFFFFFFFFFFFFFFFFFFFFFFFFFFFFFFFFFFFFFFFFFF000FFFFFFFFFFFF
310
FFFFFFFFFFFFFFFFFFFFFFFFFFFFFFFFFFFFFFFFFFFFFFFFFFFFFFFFFFFFFFFF
310
FFFFFFFFFFFFFFFFFFFFFFFFFFFFFFFFFFFFFFFFFFFFFFFFFFFFFFFFFFFFFFFF
310
FFFFFFFFFFFFFFFFFFFFFFFFFFFFFFFFF000FFFFFFFFFFFFFFFFFFFFFFFFFFFF
310
FFFFFFFFFFFFFFFFFFFFFFFFFFFFFFFFFFFFFFFFFFFFFFFFFFFFFFFFFFFFFFFF
310
FFFFFFFFFFFFFFFFFFFFFFFFFFFFFFFFFFFFFFFFFFFFFFFFFFFFFFFFFFFFFFFF
310
FFFFFFFFFFFFFFFFF000FFFFFFFFFFFFFFFFFFFFFFFFFFFFFFFFFFFFFFFFFFFF
310
FFFFFFFFFFFFFFFFFFFFFFFFFFFFFFFFFFFFFFFFFFFFFFFFFFFFFFFFFFFFFFFF
310
FFFFFFFFFFFFFFFFFFFFFFFFFFFFFFFFFFFFFFFFFFFFFFFFFFFFFFFFFFFFFFFF
310
F000FFFFFFFFFFFFFFFFFFFFFFFFFFFFFFFFFFFFFFFFFFFFFFFFFFFFFFFFFFFF
310
FFFFFFFFFFFFFFFFFFFFFFFFFFFFFFFFFFFFFFFFFFFFFFFFFFFFFFFFFFFFFFFF
310
FFFFFFFFFFFFFFFFFFFFFFFFFFFFFFFFFFFFFFFFFFFFFFFFF000FFFFFFFFFFFF
310
FFFFFFFFFFFFFFFFFFFFFFFFFFFFFFFFFFFFFFFFFFFFFFFFFFFFFFFFFFFFFFFF
310
FFFFFFFFFFFFFFFFFFFFFFFFFFFFFFFFFFFFFFFFFFFFFFFFFFFFFFFFFFFFFFFF
310
FFFFFFFFFFFFFFFFFFFFFFFFFFFFFFFFF000FFFFFFFFFFFFFFFFFFFFFFFFFFFF
310
FFFFFFFFFFFFFFFFFFFFFFFFFFFFFFFFFFFFFFFFFFFFFFFFFFFFFFFFFFFFFFFF
310
FFFFFFFFFFFFFFFFFFFFFFFFFFFFFFFFFFFFFFFFFFFFFFFFFFFFFFFFFFFFFFFF
310
FFFFFFFFFFFFFFFFF000FFFFFFFFFFFFFFFFFFFFFFFFFFFFFFFFFFFFFFFFFFFF
310
FFFFFFFFFFFFFFFFFFFFFFFFFFFFFFFFFFFFFFFFFFFFFFFFFFFFFFFFFFFFFFFF
310
FFFFFFFFFFFFFFFFFFFFFFFFFFFFFFFFFFFFFFFFFFFFFFFFFFFFFFFFFFFFFFFF
310
F000FFFFFFFFFFFFFFFFFFFFFFFFFFFFFFFFFFFFFFFFFFFFFFFFFFFFFFFFFFFF
310
FFFFFFFFFFFFFFFFFFFFFFFFFFFFFFFFFFFFFFFFFFFFFFFFFFFFFFFFFFFFFFFF
310
FFFFFFFFFFFFFFFFFFFFFFFFFFFFFFFFFFFFFFFFFFFFFFFFF000FFFFFFFFFFFF
310
FFFFFFFFFFFFFFFFFFFFFFFFFFFFFFFFFFFFFFFFFFFFFFFFFFFFFFFFFFFFFFFF
310
FFFFFFFFFFFFFFFFFFFFFFFFFFFFFFFFFFFFFFFFFFFFFFFFFFFFFFFFFFFFFFFF
310
FFFFFFFFFFFFFFFFFFFFFFFFFFFFFFFFF0000000000000000000000000000000
310
0000000000000000000000000000000000000000000000000000000000000000
310
0000000000000000000000000000000000000000000000000000000000000000
310
0000000000000000000000000000000000000000000000000000000000000000
310
0000000000000000000000000000000000000000000000000000000000000000
310
0000000000000000000000000000000000000000000000000000000000000000
310
0000000000000000000000000000000000000000000000000000000000000000
310
0000000000000000000000000000000000000000000000000000000000000000
310
0000000000000000000000000000000000000000000000000000000000000000
310
0000000000000000000000000000000000000000000000000000000000000000
310
0000000000000000000000000000000000000000000000000000000000000000
310
0000000000000000000000000000000000000000000000000000000000000000
310
0000000000000000000000000000000000000000000000000000000000000000
310
0000000000000000000000000000000000000000000000000000000000000000
310
0000000000000000000000000000000000000000000000000000000000000000
310
0000000000000000000000000000000000000000000000000000000000000000
  1
OLE
  0
ENDSEC
  0
SECTION
  2
OBJECTS
  0
DICTIONARY
  5
C
330
0
100
AcDbDictionary
281
     1
  3
ACAD_GROUP
350
D
  3
ACAD_LAYOUT
350
1A
  3
ACAD_MLINESTYLE
350
17
  3
ACAD_PLOTSETTINGS
350
19
  3
ACAD_PLOTSTYLENAME
350
E
  0
DICTIONARY
  5
D
102
{ACAD_REACTORS
330
C
102
}
330
C
100
AcDbDictionary
281
     1
  0
DICTIONARY
  5
1A
102
{ACAD_REACTORS
330
C
102
}
330
C
100
AcDbDictionary
281
     1
  3
Layout1
350
1E
  3
Layout2
350
26
  3
Model
350
22
  0
DICTIONARY
  5
17
102
{ACAD_REACTORS
330
C
102
}
330
C
100
AcDbDictionary
281
     1
  3
Standard
350
18
  0
DICTIONARY
  5
19
102
{ACAD_REACTORS
330
C
102
}
330
C
100
AcDbDictionary
281
     1
  0
ACDBDICTIONARYWDFLT
  5
E
102
{ACAD_REACTORS
330
C
102
}
330
C
100
AcDbDictionary
281
     1
  3
Normal
350
F
100
AcDbDictionaryWithDefault
340
F
  0
LAYOUT
  5
1E
102
{ACAD_REACTORS
330
1A
102
}
330
1A
100
AcDbPlotSettings
  1

  2
none_device
  4

  6

 40
0.0
 41
0.0
 42
0.0
 43
0.0
 44
0.0
 45
0.0
 46
0.0
 47
0.0
 48
0.0
 49
0.0
140
0.0
141
0.0
142
1.0
143
1.0
 70
   688
 72
     0
 73
     0
 74
     5
  7

 75
    16
147
1.0
148
0.0
149
0.0
100
AcDbLayout
  1
Layout1
 70
     1
 71
     1
 10
0.0
 20
0.0
 11
420.0
 21
297.0
 12
0.0
 22
0.0
 32
0.0
 14
1.0000000000E+20
 24
1.0000000000E+20
 34
1.0000000000E+20
 15
-1.0000000000E+20
 25
-1.0000000000E+20
 35
-1.0000000000E+20
146
0.0
 13
0.0
 23
0.0
 33
0.0
 16
1.0
 26
0.0
 36
0.0
 17
0.0
 27
1.0
 37
0.0
 76
     0
330
1B
  0
LAYOUT
  5
26
102
{ACAD_REACTORS
330
1A
102
}
330
1A
100
AcDbPlotSettings
  1

  2
none_device
  4

  6

 40
0.0
 41
0.0
 42
0.0
 43
0.0
 44
0.0
 45
0.0
 46
0.0
 47
0.0
 48
0.0
 49
0.0
140
0.0
141
0.0
142
1.0
143
1.0
 70
   688
 72
     0
 73
     0
 74
     5
  7

 75
    16
147
1.0
148
0.0
149
0.0
100
AcDbLayout
  1
Layout2
 70
     1
 71
     2
 10
0.0
 20
0.0
 11
0.0
 21
0.0
 12
0.0
 22
0.0
 32
0.0
 14
0.0
 24
0.0
 34
0.0
 15
0.0
 25
0.0
 35
0.0
146
0.0
 13
0.0
 23
0.0
 33
0.0
 16
1.0
 26
0.0
 36
0.0
 17
0.0
 27
1.0
 37
0.0
 76
     0
330
23
  0
LAYOUT
  5
22
102
{ACAD_REACTORS
330
1A
102
}
330
1A
100
AcDbPlotSettings
  1

  2
none_device
  4

  6

 40
0.0
 41
0.0
 42
0.0
 43
0.0
 44
0.0
 45
0.0
 46
0.0
 47
0.0
 48
0.0
 49
0.0
140
0.0
141
0.0
142
1.0
143
1.0
 70
  1712
 72
     0
 73
     0
 74
     0
  7

 75
     0
147
1.0
148
0.0
149
0.0
100
AcDbLayout
  1
Model
 70
     1
 71
     0
 10
0.0
 20
0.0
 11
297.0
 21
210.0
 12
0.0
 22
0.0
 32
0.0
 14
0.0
 24
0.0
 34
0.0
 15
297.0
 25
210.0
 35
0.0
146
0.0
 13
0.0
 23
0.0
 33
0.0
 16
1.0
 26
0.0
 36
0.0
 17
0.0
 27
1.0
 37
0.0
 76
     0
330
1F
331
29
  0
MLINESTYLE
  5
18
102
{ACAD_REACTORS
330
17
102
}
330
17
100
AcDbMlineStyle
  2
Standard
 70
     0
  3

 62
   256
 51
90.0
 52
90.0
 71
     2
 49
0.5
 62
   256
  6
BYLAYER
 49
-0.5
 62
   256
  6
BYLAYER
  0
ACDBPLACEHOLDER
  5
F
102
{ACAD_REACTORS
330
E
102
}
330
E
  0
ENDSEC
  0
EOF
