  0
SECTION
  2
HEADER
  9
$ACADVER
  1
AC1015
  9
$ACADMAINTVER
 70
     6
  9
$DWGCODEPAGE
  3
ANSI_1252
  9
$INSBASE
 10
0.0
 20
0.0
 30
0.0
  9
$EXTMIN
 10
0.0
 20
0.0
 30
0.0
  9
$EXTMAX
 10
297.0
 20
210.0
 30
0.0
  9
$LIMMIN
 10
0.0
 20
0.0
  9
$LIMMAX
 10
297.0
 20
210.0
  9
$ORTHOMODE
 70
     0
  9
$REGENMODE
 70
     1
  9
$FILLMODE
 70
     1
  9
$QTEXTMODE
 70
     0
  9
$MIRRTEXT
 70
     1
  9
$LTSCALE
 40
1.0
  9
$ATTMODE
 70
     1
  9
$TEXTSIZE
 40
2.0
  9
$TRACEWID
 40
1.0
  9
$TEXTSTYLE
  7
Standard
  9
$CLAYER
  8
0
  9
$CELTYPE
  6
ByLayer
  9
$CECOLOR
 62
   256
  9
$CELTSCALE
 40
1.0
  9
$DISPSILH
 70
     0
  9
$DIMSCALE
 40
1.0
  9
$DIMASZ
 40
3.0
  9
$DIMEXO
 40
0.0
  9
$DIMDLI
 40
3.75
  9
$DIMRND
 40
0.0
  9
$DIMDLE
 40
0.0
  9
$DIMEXE
 40
1.0
  9
$DIMTP
 40
0.0
  9
$DIMTM
 40
0.0
  9
$DIMTXT
 40
2.0
  9
$DIMCEN
 40
2.5
  9
$DIMTSZ
 40
0.0
  9
$DIMTOL
 70
     0
  9
$DIMLIM
 70
     0
  9
$DIMTIH
 70
     1
  9
$DIMTOH
 70
     1
  9
$DIMSE1
 70
     0
  9
$DIMSE2
 70
     0
  9
$DIMTAD
 70
     1
  9
$DIMZIN
 70
     0
  9
$DIMBLK
  1

  9
$DIMASO
 70
     1
  9
$DIMSHO
 70
     1
  9
$DIMPOST
  1

  9
$DIMAPOST
  1

  9
$DIMALT
 70
     0
  9
$DIMALTD
 70
     3
  9
$DIMALTF
 40
0.0393700787
  9
$DIMLFAC
 40
1.0
  9
$DIMTOFL
 70
     1
  9
$DIMTVP
 40
0.0
  9
$DIMTIX
 70
     0
  9
$DIMSOXD
 70
     0
  9
$DIMSAH
 70
     0
  9
$DIMBLK1
  1

  9
$DIMBLK2
  1

  9
$DIMSTYLE
  2
ISO-25
  9
$DIMCLRD
 70
     0
  9
$DIMCLRE
 70
     0
  9
$DIMCLRT
 70
     0
  9
$DIMTFAC
 40
1.0
  9
$DIMGAP
 40
1.524
  9
$DIMJUST
 70
     0
  9
$DIMSD1
 70
     0
  9
$DIMSD2
 70
     0
  9
$DIMTOLJ
 70
     0
  9
$DIMTZIN
 70
     0
  9
$DIMALTZ
 70
     0
  9
$DIMALTTZ
 70
     0
  9
$DIMUPT
 70
     0
  9
$DIMDEC
 70
     2
  9
$DIMTDEC
 70
     3
  9
$DIMALTU
 70
     2
  9
$DIMALTTD
 70
     3
  9
$DIMTXSTY
  7
Standard
  9
$DIMAUNIT
 70
     0
  9
$DIMADEC
 70
     2
  9
$DIMALTRND
 40
0.0
  9
$DIMAZIN
 70
     0
  9
$DIMDSEP
 70
    44
  9
$DIMATFIT
 70
     3
  9
$DIMFRAC
 70
     0
  9
$DIMLDRBLK
  1

  9
$DIMLUNIT
 70
     2
  9
$DIMLWD
 70
    -2
  9
$DIMLWE
 70
    -2
  9
$DIMTMOVE
 70
     0
  9
$LUNITS
 70
     2
  9
$LUPREC
 70
     2
  9
$SKETCHINC
 40
1.0
  9
$FILLETRAD
 40
10.0
  9
$AUNITS
 70
     0
  9
$AUPREC
 70
     2
  9
$MENU
  1
.
  9
$ELEVATION
 40
0.0
  9
$PELEVATION
 40
0.0
  9
$THICKNESS
 40
0.0
  9
$LIMCHECK
 70
     0
  9
$CHAMFERA
 40
10.0
  9
$CHAMFERB
 40
10.0
  9
$CHAMFERC
 40
20.0
  9
$CHAMFERD
 40
0.0
  9
$SKPOLY
 70
     0
  9
$TDCREATE
 40
2456526.35250309
  9
$TDUCREATE
 40
2456526.269169757
  9
$TDUPDATE
 40
2456526.352504352
  9
$TDUUPDATE
 40
2456526.269171019
  9
$TDINDWG
 40
0.0000000116
  9
$TDUSRTIMER
 40
0.0000000116
  9
$USRTIMER
 70
     1
  9
$ANGBASE
 50
0.0
  9
$ANGDIR
 70
     0
  9
$PDMODE
 70
     0
  9
$PDSIZE
 40
-1.0
  9
$PLINEWID
 40
0.0
  9
$SPLFRAME
 70
     0
  9
$SPLINETYPE
 70
     6
  9
$SPLINESEGS
 70
     8
  9
$HANDSEED
  5
259
  9
$SURFTAB1
 70
     6
  9
$SURFTAB2
 70
     6
  9
$SURFTYPE
 70
     6
  9
$SURFU
 70
     6
  9
$SURFV
 70
     6
  9
$UCSBASE
  2

  9
$UCSNAME
  2

  9
$UCSORG
 10
0.0
 20
0.0
 30
0.0
  9
$UCSXDIR
 10
1.0
 20
0.0
 30
0.0
  9
$UCSYDIR
 10
0.0
 20
1.0
 30
0.0
  9
$UCSORTHOREF
  2

  9
$UCSORTHOVIEW
 70
     0
  9
$UCSORGTOP
 10
0.0
 20
0.0
 30
0.0
  9
$UCSORGBOTTOM
 10
0.0
 20
0.0
 30
0.0
  9
$UCSORGLEFT
 10
0.0
 20
0.0
 30
0.0
  9
$UCSORGRIGHT
 10
0.0
 20
0.0
 30
0.0
  9
$UCSORGFRONT
 10
0.0
 20
0.0
 30
0.0
  9
$UCSORGBACK
 10
0.0
 20
0.0
 30
0.0
  9
$PUCSBASE
  2

  9
$PUCSNAME
  2

  9
$PUCSORG
 10
0.0
 20
0.0
 30
0.0
  9
$PUCSXDIR
 10
1.0
 20
0.0
 30
0.0
  9
$PUCSYDIR
 10
0.0
 20
1.0
 30
0.0
  9
$PUCSORTHOREF
  2

  9
$PUCSORTHOVIEW
 70
     0
  9
$PUCSORGTOP
 10
0.0
 20
0.0
 30
0.0
  9
$PUCSORGBOTTOM
 10
0.0
 20
0.0
 30
0.0
  9
$PUCSORGLEFT
 10
0.0
 20
0.0
 30
0.0
  9
$PUCSORGRIGHT
 10
0.0
 20
0.0
 30
0.0
  9
$PUCSORGFRONT
 10
0.0
 20
0.0
 30
0.0
  9
$PUCSORGBACK
 10
0.0
 20
0.0
 30
0.0
  9
$USERI1
 70
     0
  9
$USERI2
 70
     0
  9
$USERI3
 70
     0
  9
$USERI4
 70
     0
  9
$USERI5
 70
     0
  9
$USERR1
 40
0.0
  9
$USERR2
 40
0.0
  9
$USERR3
 40
0.0
  9
$USERR4
 40
0.0
  9
$USERR5
 40
0.0
  9
$WORLDVIEW
 70
     1
  9
$SHADEDGE
 70
     3
  9
$SHADEDIF
 70
    70
  9
$TILEMODE
 70
     1
  9
$MAXACTVP
 70
    64
  9
$PINSBASE
 10
0.0
 20
0.0
 30
0.0
  9
$PLIMCHECK
 70
     0
  9
$PEXTMIN
 10
1.0000000000E+20
 20
1.0000000000E+20
 30
1.0000000000E+20
  9
$PEXTMAX
 10
-1.0000000000E+20
 20
-1.0000000000E+20
 30
-1.0000000000E+20
  9
$PLIMMIN
 10
0.0
 20
0.0
  9
$PLIMMAX
 10
420.0
 20
297.0
  9
$UNITMODE
 70
     0
  9
$VISRETAIN
 70
     1
  9
$PLINEGEN
 70
     0
  9
$PSLTSCALE
 70
     1
  9
$TREEDEPTH
 70
  3020
  9
$CMLSTYLE
  2
Standard
  9
$CMLJUST
 70
     0
  9
$CMLSCALE
 40
20.0
  9
$PROXYGRAPHICS
 70
     1
  9
$MEASUREMENT
 70
     1
  9
$CELWEIGHT
370
    -1
  9
$ENDCAPS
280
     0
  9
$JOINSTYLE
280
     0
  9
$LWDISPLAY
290
     1
  9
$INSUNITS
 70
     4
  9
$HYPERLINKBASE
  1

  9
$STYLESHEET
  1

  9
$XEDIT
290
     1
  9
$CEPSNTYPE
380
     0
  9
$PSTYLEMODE
290
     1
  9
$FINGERPRINTGUID
  2
{94D47E5E-55A5-476E-9BA2-66302A55A6E7}
  9
$VERSIONGUID
  2
{FAEB1C32-E019-11D5-929B-00C0DF256EC4}
  9
$EXTNAMES
290
     1
  9
$PSVPSCALE
 40
0.0
  9
$OLESTARTUP
290
     0
  0
ENDSEC
  0
SECTION
  2
CLASSES
  0
CLASS
  1
ACDBDICTIONARYWDFLT
  2
AcDbDictionaryWithDefault
  3
ObjectDBX Classes
 90
        0
280
     0
281
     0
  0
CLASS
  1
VISUALSTYLE
  2
AcDbVisualStyle
  3
ObjectDBX Classes
 90
     4095
280
     0
281
     0
  0
CLASS
  1
MATERIAL
  2
AcDbMaterial
  3
ObjectDBX Classes
 90
     1153
280
     0
281
     0
  0
CLASS
  1
ACDBPLACEHOLDER
  2
AcDbPlaceHolder
  3
ObjectDBX Classes
 90
        0
280
     0
281
     0
  0
CLASS
  1
LAYOUT
  2
AcDbLayout
  3
ObjectDBX Classes
 90
        0
280
     0
281
     0
  0
ENDSEC
  0
SECTION
  2
TABLES
  0
TABLE
  2
VPORT
  5
8
330
0
100
AcDbSymbolTable
 70
     1
  0
VPORT
  5
29
330
8
100
AcDbSymbolTableRecord
100
AcDbViewportTableRecord
  2
*Active
 70
     0
 10
0.0
 20
0.0
 11
1.0
 21
1.0
 12
148.5
 22
105.0
 13
0.0
 23
0.0
 14
10.0
 24
10.0
 15
10.0
 25
10.0
 16
0.0
 26
0.0
 36
1.0
 17
0.0
 27
0.0
 37
0.0
 40
210.0
 41
1.4142857143
 42
50.0
 43
0.0
 44
0.0
 50
0.0
 51
0.0
 71
     0
 72
  2000
 73
     1
 74
     3
 75
     0
 76
     0
 77
     0
 78
     0
281
     0
 65
     1
110
0.0
120
0.0
130
0.0
111
1.0
121
0.0
131
0.0
112
0.0
122
1.0
132
0.0
 79
     0
146
0.0
  0
ENDTAB
  0
TABLE
  2
LTYPE
  5
5
330
0
100
AcDbSymbolTable
 70
     6
  0
LTYPE
  5
14
330
5
100
AcDbSymbolTableRecord
100
AcDbLinetypeTableRecord
  2
ByBlock
 70
     0
  3

 72
    65
 73
     0
 40
0.0
  0
LTYPE
  5
15
330
5
100
AcDbSymbolTableRecord
100
AcDbLinetypeTableRecord
  2
ByLayer
 70
     0
  3

 72
    65
 73
     0
 40
0.0
  0
LTYPE
  5
16
330
5
100
AcDbSymbolTableRecord
100
AcDbLinetypeTableRecord
  2
Continuous
 70
     0
  3
Solid line
 72
    65
 73
     0
 40
0.0
  0
LTYPE
  5
3F
330
5
100
AcDbSymbolTableRecord
100
AcDbLinetypeTableRecord
  2
HIDDEN
 70
     0
  3
Hidden __ __ __ __ __ __ __ __ __ __ __ __ __ __
 72
    65
 73
     2
 40
1.905
 49
1.27
 74
     0
 49
-0.635
 74
     0
  0
LTYPE
  5
40
330
5
100
AcDbSymbolTableRecord
100
AcDbLinetypeTableRecord
  2
PHANTOM
 70
     0
  3
Phantom ______  __  __  ______  __  __  ______
 72
    65
 73
     6
 40
12.7
 49
6.35
 74
     0
 49
-1.27
 74
     0
 49
1.27
 74
     0
 49
-1.27
 74
     0
 49
1.27
 74
     0
 49
-1.27
 74
     0
  0
LTYPE
  5
41
330
5
100
AcDbSymbolTableRecord
100
AcDbLinetypeTableRecord
  2
CENTER
 70
     0
  3
Center ____ _ ____ _ ____ _ ____ _ ____ _ ____
 72
    65
 73
     4
 40
10.16
 49
6.35
 74
     0
 49
-1.27
 74
     0
 49
1.27
 74
     0
 49
-1.27
 74
     0
  0
LTYPE
  5
42
330
5
100
AcDbSymbolTableRecord
100
AcDbLinetypeTableRecord
  2
CENTERX2
 70
     0
  3
Center (2x) ________  __  ________  __  _____
 72
    65
 73
     4
 40
20.32
 49
12.7
 74
     0
 49
-2.54
 74
     0
 49
2.54
 74
     0
 49
-2.54
 74
     0
  0
LTYPE
  5
43
330
5
100
AcDbSymbolTableRecord
100
AcDbLinetypeTableRecord
  2
DOT2
 70
     0
  3
Dot (.5x) ........................................
 72
    65
 73
     2
 40
0.635
 49
0.0
 74
     0
 49
-0.635
 74
     0
  0
ENDTAB
  0
TABLE
  2
LAYER
  5
2
330
0
100
AcDbSymbolTable
 70
     5
  0
LAYER
  5
10
330
2
100
AcDbSymbolTableRecord
100
AcDbLayerTableRecord
  2
0
 70
     0
 62
     7
  6
Continuous
370
    -3
390
F
  0
LAYER
  5
44
330
2
100
AcDbSymbolTableRecord
100
AcDbLayerTableRecord
  2
FORMAT
 70
     0
 62
     7
  6
Continuous
370
    -3
390
F
  0
LAYER
  5
45
330
2
100
AcDbSymbolTableRecord
100
AcDbLayerTableRecord
  2
VERMASSUNG
 70
     0
 62
     7
  6
Continuous
370
    -3
390
F
  0
LAYER
  5
46
330
2
100
AcDbSymbolTableRecord
100
AcDbLayerTableRecord
  2
KOPF_DÜNN
 70
     0
 62
     7
  6
Continuous
370
    -3
390
F
  0
LAYER
  5
47
330
2
100
AcDbSymbolTableRecord
100
AcDbLayerTableRecord
  2
KOPF_DICK
 70
     0
 62
     7
  6
Continuous
370
    15
390
F
  0
ENDTAB
  0
TABLE
  2
STYLE
  5
3
330
0
100
AcDbSymbolTable
 70
     2
  0
STYLE
  5
11
330
3
100
AcDbSymbolTableRecord
100
AcDbTextStyleTableRecord
  2
Standard
 70
     0
 40
0.0
 41
1.0
 50
0.0
 71
     0
 42
2.0
  3
txt
  4

  0
STYLE
  5
48
330
3
100
AcDbSymbolTableRecord
100
AcDbTextStyleTableRecord
  2
SLDTEXTSTYLE0
 70
     0
 40
0.0
 41
0.7
 50
0.0
 71
     0
 42
0.2
  3
TXT
  4

  0
ENDTAB
  0
TABLE
  2
VIEW
  5
6
330
0
100
AcDbSymbolTable
 70
     0
  0
ENDTAB
  0
TABLE
  2
UCS
  5
7
330
0
100
AcDbSymbolTable
 70
     0
  0
ENDTAB
  0
TABLE
  2
APPID
  5
9
330
0
100
AcDbSymbolTable
 70
     1
  0
APPID
  5
12
330
9
100
AcDbSymbolTableRecord
100
AcDbRegAppTableRecord
  2
ACAD
 70
     0
  0
ENDTAB
  0
TABLE
  2
DIMSTYLE
  5
A
330
0
100
AcDbSymbolTable
 70
     4
100
AcDbDimStyleTable
  0
DIMSTYLE
105
27
330
A
100
AcDbSymbolTableRecord
100
AcDbDimStyleTableRecord
  2
ISO-25
 70
     0
 41
2.5
 42
0.625
 43
3.75
 44
1.25
 73
     0
 74
     0
 77
     1
 78
     8
140
2.5
141
2.5
143
0.0393700787
147
0.625
171
     3
172
     1
178
     0
271
     2
272
     2
274
     3
278
    44
283
     0
284
     8
340
11
  0
DIMSTYLE
105
1BE
102
{ACAD_REACTORS
330
1BD
330
1EC
102
}
330
A
100
AcDbSymbolTableRecord
100
AcDbDimStyleTableRecord
  2
SLDDIMSTYLE0
 70
     0
 41
3.0
 44
0.0
 45
0.000000001
 73
     0
 74
     0
 77
     1
 78
    12
 79
     3
140
2.0
147
0.5
173
     1
178
     0
271
     2
272
     3
276
     2
284
    12
340
48
  0
DIMSTYLE
105
1C9
102
{ACAD_REACTORS
330
1C8
330
1D5
102
}
330
A
100
AcDbSymbolTableRecord
100
AcDbDimStyleTableRecord
  2
SLDDIMSTYLE1
 70
     0
 41
3.0
 44
0.0
 45
0.000000001
 47
0.1
 48
0.1
 71
     1
 73
     0
 74
     0
 77
     1
 78
    12
 79
     3
140
2.0
147
0.5
173
     1
178
     0
271
     2
272
     1
276
     2
284
     8
340
48
  0
DIMSTYLE
105
1E2
102
{ACAD_REACTORS
330
1E1
102
}
330
A
100
AcDbSymbolTableRecord
100
AcDbDimStyleTableRecord
  2
SLDDIMSTYLE2
 70
     0
 41
3.0
 44
0.0
 73
     0
 74
     0
 77
     1
 78
    12
 79
     3
140
2.0
147
0.5
173
     1
178
     0
179
     2
272
     3
276
     2
284
    12
340
48
  0
ENDTAB
  0
TABLE
  2
BLOCK_RECORD
  5
1
330
0
100
AcDbSymbolTable
 70
     7
  0
BLOCK_RECORD
  5
1F
330
1
100
AcDbSymbolTableRecord
100
AcDbBlockTableRecord
  2
*Model_Space
340
22
  0
BLOCK_RECORD
  5
1B
330
1
100
AcDbSymbolTableRecord
100
AcDbBlockTableRecord
  2
*Paper_Space
340
1E
  0
BLOCK_RECORD
  5
23
330
1
100
AcDbSymbolTableRecord
100
AcDbBlockTableRecord
  2
*Paper_Space0
340
26
  0
BLOCK_RECORD
  5
1BF
330
1
100
AcDbSymbolTableRecord
100
AcDbBlockTableRecord
  2
_D
340
0
  0
BLOCK_RECORD
  5
1CA
330
1
100
AcDbSymbolTableRecord
100
AcDbBlockTableRecord
  2
_D_1
340
0
  0
BLOCK_RECORD
  5
1D6
330
1
100
AcDbSymbolTableRecord
100
AcDbBlockTableRecord
  2
_D_2
340
0
  0
BLOCK_RECORD
  5
1E3
330
1
100
AcDbSymbolTableRecord
100
AcDbBlockTableRecord
  2
_D_3
340
0
  0
BLOCK_RECORD
  5
1ED
330
1
100
AcDbSymbolTableRecord
100
AcDbBlockTableRecord
  2
_D_4
340
0
  0
BLOCK_RECORD
  5
24C
330
1
100
AcDbSymbolTableRecord
100
AcDbBlockTableRecord
  2
SW_CENTERMARKSYMBOL_0
340
0
102
{BLKREFS
331
257
102
}
  0
ENDTAB
  0
ENDSEC
  0
SECTION
  2
BLOCKS
  0
BLOCK
  5
20
330
1F
100
AcDbEntity
  8
0
100
AcDbBlockBegin
  2
*Model_Space
 70
     0
 10
0.0
 20
0.0
 30
0.0
  3
*Model_Space
  1

  0
ENDBLK
  5
21
330
1F
100
AcDbEntity
  8
0
100
AcDbBlockEnd
  0
BLOCK
  5
1C
330
1B
100
AcDbEntity
 67
     1
  8
0
100
AcDbBlockBegin
  2
*Paper_Space
 70
     0
 10
0.0
 20
0.0
 30
0.0
  3
*Paper_Space
  1

  0
ENDBLK
  5
1D
330
1B
100
AcDbEntity
 67
     1
  8
0
100
AcDbBlockEnd
  0
BLOCK
  5
24
330
23
100
AcDbEntity
  8
0
100
AcDbBlockBegin
  2
*Paper_Space0
 70
     0
 10
0.0
 20
0.0
 30
0.0
  3
*Paper_Space0
  1

  0
ENDBLK
  5
25
330
23
100
AcDbEntity
  8
0
100
AcDbBlockEnd
  0
BLOCK
  5
1C0
330
1BF
100
AcDbEntity
  8
0
100
AcDbBlockBegin
  2
_D
 70
     0
 10
0.0
 20
0.0
 30
0.0
  3
_D
  1

  0
SOLID
  5
1C2
330
1BF
100
AcDbEntity
  8
VERMASSUNG
100
AcDbTrace
 10
144.2544306243
 20
64.0201240508
 30
0.0
 11
147.2544306243
 21
63.5701240508
 31
0.0
 12
147.2544306243
 22
64.4701240508
 32
0.0
 13
147.2544306243
 23
64.4701240508
 33
0.0
  0
SOLID
  5
1C3
330
1BF
100
AcDbEntity
  8
VERMASSUNG
100
AcDbTrace
 10
247.2544306243
 20
64.0201240508
 30
0.0
 11
244.2544306243
 21
64.4701240508
 31
0.0
 12
244.2544306243
 22
63.5701240508
 32
0.0
 13
244.2544306243
 23
63.5701240508
 33
0.0
  0
LINE
  5
1C4
330
1BF
100
AcDbEntity
  8
VERMASSUNG
100
AcDbLine
 10
144.2544306243
 20
104.7569466501
 30
0.0
 11
144.2544306243
 21
63.0201240508
 31
0.0
  0
LINE
  5
1C5
330
1BF
100
AcDbEntity
  8
VERMASSUNG
100
AcDbLine
 10
247.2544306243
 20
80.0492846426
 30
0.0
 11
247.2544306243
 21
63.0201240508
 31
0.0
  0
LINE
  5
1C6
330
1BF
100
AcDbEntity
  8
VERMASSUNG
100
AcDbLine
 10
144.2544306243
 20
64.0201240508
 30
0.0
 11
247.2544306243
 21
64.0201240508
 31
0.0
  0
MTEXT
  5
1C7
330
1BF
100
AcDbEntity
  8
VERMASSUNG
100
AcDbMText
 10
192.9544304913
 20
66.5982594139
 30
0.1
 40
2.0
 41
0.0
 71
     1
 72
     1
  1
103
  7
SLDTEXTSTYLE0
 73
     1
 44
1.0
  0
ENDBLK
  5
1C1
330
1BF
100
AcDbEntity
  8
0
100
AcDbBlockEnd
  0
BLOCK
  5
1CB
330
1CA
100
AcDbEntity
  8
0
100
AcDbBlockBegin
  2
_D_1
 70
     0
 10
0.0
 20
0.0
 30
0.0
  3
_D_1
  1

  0
SOLID
  5
1CD
330
1CA
100
AcDbEntity
  8
VERMASSUNG
100
AcDbTrace
 10
270.3190598638
 20
80.0492846426
 30
0.0
 11
270.7690598638
 21
83.0492846426
 31
0.0
 12
269.8690598638
 22
83.0492846426
 32
0.0
 13
269.8690598638
 23
83.0492846426
 33
0.0
  0
SOLID
  5
1CE
330
1CA
100
AcDbEntity
  8
VERMASSUNG
100
AcDbTrace
 10
270.3190598638
 20
125.0492846426
 30
0.0
 11
269.8690598638
 21
122.0492846426
 31
0.0
 12
270.7690598638
 22
122.0492846426
 32
0.0
 13
270.7690598638
 23
122.0492846426
 33
0.0
  0
LINE
  5
1CF
330
1CA
100
AcDbEntity
  8
VERMASSUNG
100
AcDbLine
 10
260.7013573923
 20
80.0492846426
 30
0.0
 11
271.3190598638
 21
80.0492846426
 31
0.0
  0
LINE
  5
1D0
330
1CA
100
AcDbEntity
  8
VERMASSUNG
100
AcDbLine
 10
247.2544306243
 20
125.0492846426
 30
0.0
 11
271.3190598638
 21
125.0492846426
 31
0.0
  0
LINE
  5
1D1
330
1CA
100
AcDbEntity
  8
VERMASSUNG
100
AcDbLine
 10
270.3190598638
 20
80.0492846426
 30
0.0
 11
270.3190598638
 21
125.0492846426
 31
0.0
  0
MTEXT
  5
1D2
330
1CA
100
AcDbEntity
  8
VERMASSUNG
100
AcDbMText
 10
267.7409245007
 20
97.8992846254
 30
0.1
 40
2.0
 41
0.0
 71
     1
 72
     1
  1
45
  7
SLDTEXTSTYLE0
 11
6.123233995736766E-17
 21
1.0
 31
0.0
 73
     1
 44
1.0
  0
MTEXT
  5
1D3
330
1CA
100
AcDbEntity
  8
VERMASSUNG
100
AcDbMText
 10
267.7409245007
 20
103.8867848534
 30
0.1
 40
2.0
 41
0.0
 71
     1
 72
     1
  1

  7
SLDTEXTSTYLE0
 11
6.123233995736766E-17
 21
1.0
 31
0.0
 73
     1
 44
1.0
  0
MTEXT
  5
1D4
330
1CA
100
AcDbEntity
  8
VERMASSUNG
100
AcDbMText
 10
268.2354583635
 20
103.8992846776
 30
0.1
 40
1.5
 41
0.0
 71
     1
 72
     1
  1
±0.1
  7
SLDTEXTSTYLE0
 11
6.123233995736766E-17
 21
1.0
 31
0.0
 73
     1
 44
1.0
  0
ENDBLK
  5
1CC
330
1CA
100
AcDbEntity
  8
0
100
AcDbBlockEnd
  0
BLOCK
  5
1D7
330
1D6
100
AcDbEntity
  8
0
100
AcDbBlockBegin
  2
_D_2
 70
     0
 10
0.0
 20
0.0
 30
0.0
  3
_D_2
  1

  0
SOLID
  5
1D9
330
1D6
100
AcDbEntity
  8
VERMASSUNG
100
AcDbTrace
 10
182.2544306243
 20
72.5979208915
 30
0.0
 11
185.2544306243
 21
72.1479208915
 31
0.0
 12
185.2544306243
 22
73.0479208915
 32
0.0
 13
185.2544306243
 23
73.0479208915
 33
0.0
  0
SOLID
  5
1DA
330
1D6
100
AcDbEntity
  8
VERMASSUNG
100
AcDbTrace
 10
247.2544306243
 20
72.5979208915
 30
0.0
 11
244.2544306243
 21
73.0479208915
 31
0.0
 12
244.2544306243
 22
72.1479208915
 32
0.0
 13
244.2544306243
 23
72.1479208915
 33
0.0
  0
LINE
  5
1DB
330
1D6
100
AcDbEntity
  8
VERMASSUNG
100
AcDbLine
 10
182.2544306243
 20
94.0492846426
 30
0.0
 11
182.2544306243
 21
71.5979208915
 31
0.0
  0
LINE
  5
1DC
330
1D6
100
AcDbEntity
  8
VERMASSUNG
100
AcDbLine
 10
247.2544306243
 20
80.0492846426
 30
0.0
 11
247.2544306243
 21
71.5979208915
 31
0.0
  0
LINE
  5
1DD
330
1D6
100
AcDbEntity
  8
VERMASSUNG
100
AcDbLine
 10
182.2544306243
 20
72.5979208915
 30
0.0
 11
247.2544306243
 21
72.5979208915
 31
0.0
  0
MTEXT
  5
1DE
330
1D6
100
AcDbEntity
  8
VERMASSUNG
100
AcDbMText
 10
210.2044304373
 20
75.1760562547
 30
0.1
 40
2.0
 41
0.0
 71
     1
 72
     1
  1
65
  7
SLDTEXTSTYLE0
 73
     1
 44
1.0
  0
MTEXT
  5
1DF
330
1D6
100
AcDbEntity
  8
VERMASSUNG
100
AcDbMText
 10
215.9919305393
 20
75.1760562547
 30
0.1
 40
2.0
 41
0.0
 71
     1
 72
     1
  1

  7
SLDTEXTSTYLE0
 73
     1
 44
1.0
  0
MTEXT
  5
1E0
330
1D6
100
AcDbEntity
  8
VERMASSUNG
100
AcDbMText
 10
216.0044308292
 20
74.6815223919
 30
0.1
 40
1.5
 41
0.0
 71
     1
 72
     1
  1
±0.1
  7
SLDTEXTSTYLE0
 73
     1
 44
1.0
  0
ENDBLK
  5
1D8
330
1D6
100
AcDbEntity
  8
0
100
AcDbBlockEnd
  0
BLOCK
  5
1E4
330
1E3
100
AcDbEntity
  8
0
100
AcDbBlockBegin
  2
_D_3
 70
     0
 10
0.0
 20
0.0
 30
0.0
  3
_D_3
  1

  0
ARC
  5
1E6
330
1E3
100
AcDbEntity
  8
VERMASSUNG
100
AcDbCircle
 10
247.2911737304
 20
80.0492846426
 30
0.0
 40
15.23890097659461
100
AcDbArc
 50
0.0
 51
95.0047861234
  0
SOLID
  5
1E7
330
1E3
100
AcDbEntity
  8
VERMASSUNG
100
AcDbTrace
 10
262.530074707
 20
80.0492846426
 30
0.0
 11
262.6868414753
 21
83.0787935434
 31
0.0
 12
261.791088737
 22
82.9914606632
 32
0.0
 13
261.791088737
 23
82.9914606632
 33
0.0
  0
SOLID
  5
1E8
330
1E3
100
AcDbEntity
  8
VERMASSUNG
100
AcDbTrace
 10
245.9617478853
 20
95.2300860014
 30
0.0
 11
248.9571749735
 21
94.7505898498
 31
0.0
 12
248.9660303539
 22
95.6505462833
 32
0.0
 13
248.9660303539
 23
95.6505462833
 33
0.0
  0
LINE
  5
1E9
330
1E3
100
AcDbEntity
  8
VERMASSUNG
100
AcDbLine
 10
260.7013573923
 20
80.0492846426
 30
0.0
 11
263.530074707
 21
80.0492846426
 31
0.0
  0
LINE
  5
1EA
330
1E3
100
AcDbEntity
  8
VERMASSUNG
100
AcDbLine
 10
246.205533024
 20
92.4462874325
 30
0.0
 11
245.8745089271
 21
96.2262734156
 31
0.0
  0
MTEXT
  5
1EB
330
1E3
100
AcDbEntity
  8
VERMASSUNG
100
AcDbMText
 10
257.1894540975
 20
95.1450069122
 30
0.1
 40
2.0
 41
0.0
 71
     1
 72
     1
  1
95°
  7
SLDTEXTSTYLE0
 11
0.7373055534122316
 21
-0.6755594133068408
 31
0.0
 73
     1
 44
1.0
  0
ENDBLK
  5
1E5
330
1E3
100
AcDbEntity
  8
0
100
AcDbBlockEnd
  0
BLOCK
  5
1EE
330
1ED
100
AcDbEntity
  8
0
100
AcDbBlockBegin
  2
_D_4
 70
     0
 10
0.0
 20
0.0
 30
0.0
  3
_D_4
  1

  0
SOLID
  5
1F0
330
1ED
100
AcDbEntity
  8
VERMASSUNG
100
AcDbTrace
 10
130.6961958919
 20
156.5492846426
 30
0.0
 11
130.2461958919
 21
153.5492846426
 31
0.0
 12
131.1461958919
 22
153.5492846426
 32
0.0
 13
131.1461958919
 23
153.5492846426
 33
0.0
  0
SOLID
  5
1F1
330
1ED
100
AcDbEntity
  8
VERMASSUNG
100
AcDbTrace
 10
130.6961958919
 20
93.5492846426
 30
0.0
 11
131.1461958919
 21
96.5492846426
 31
0.0
 12
130.2461958919
 22
96.5492846426
 32
0.0
 13
130.2461958919
 23
96.5492846426
 33
0.0
  0
LINE
  5
1F2
330
1ED
100
AcDbEntity
  8
VERMASSUNG
100
AcDbLine
 10
182.7544306243
 20
156.5492846426
 30
0.0
 11
129.6961958919
 21
156.5492846426
 31
0.0
  0
LINE
  5
1F3
330
1ED
100
AcDbEntity
  8
VERMASSUNG
100
AcDbLine
 10
182.7544306243
 20
93.5492846426
 30
0.0
 11
129.6961958919
 21
93.5492846426
 31
0.0
  0
LINE
  5
1F4
330
1ED
100
AcDbEntity
  8
VERMASSUNG
100
AcDbLine
 10
130.6961958919
 20
156.5492846426
 30
0.0
 11
130.6961958919
 21
93.5492846426
 31
0.0
  0
MTEXT
  5
1F5
330
1ED
100
AcDbEntity
  8
VERMASSUNG
100
AcDbMText
 10
127.9180604028
 20
118.6442845333
 30
0.4027568683
 40
2.0
 41
0.0
 71
     1
 72
     1
  1
PSC
  7
SLDTEXTSTYLE0
 11
-7.044195017643634E-15
 21
1.0
 31
0.0
 73
     1
 44
1.0
  0
MTEXT
  5
1F6
330
1ED
100
AcDbEntity
  8
VERMASSUNG
100
AcDbMText
 10
128.1180604123
 20
123.2442846354
 30
0.4027568683
 40
2.0
 41
0.0
 71
     1
 72
     1
  1
%%c
  7
SLDTEXTSTYLE0
 11
-7.044195017643634E-15
 21
1.0
 31
0.0
 73
     1
 44
1.0
  0
MTEXT
  5
1F7
330
1ED
100
AcDbEntity
  8
VERMASSUNG
100
AcDbMText
 10
127.9180604028
 20
126.8542851154
 30
0.4027568683
 40
2.0
 41
0.0
 71
     1
 72
     1
  1
63
  7
SLDTEXTSTYLE0
 11
-7.044195017643634E-15
 21
1.0
 31
0.0
 73
     1
 44
1.0
  0
ENDBLK
  5
1EF
330
1ED
100
AcDbEntity
  8
0
100
AcDbBlockEnd
  0
BLOCK
  5
24D
330
24C
100
AcDbEntity
  8
0
100
AcDbBlockBegin
  2
SW_CENTERMARKSYMBOL_0
 70
     0
 10
0.0
 20
0.0
 30
0.0
  3
SW_CENTERMARKSYMBOL_0
  1

  0
LINE
  5
24F
330
24C
100
AcDbEntity
  8
VERMASSUNG
 62
     0
100
AcDbLine
 10
0.0
 20
0.0
 30
0.0
 11
0.0
 21
2.5
 31
0.0
  0
LINE
  5
250
330
24C
100
AcDbEntity
  8
VERMASSUNG
 62
     0
100
AcDbLine
 10
0.0
 20
0.0
 30
0.0
 11
-2.5
 21
0.0
 31
0.0
  0
LINE
  5
251
330
24C
100
AcDbEntity
  8
VERMASSUNG
 62
     0
100
AcDbLine
 10
0.0
 20
0.0
 30
0.0
 11
0.0
 21
-2.5
 31
0.0
  0
LINE
  5
252
330
24C
100
AcDbEntity
  8
VERMASSUNG
 62
     0
100
AcDbLine
 10
0.0
 20
0.0
 30
0.0
 11
2.5
 21
0.0
 31
0.0
  0
LINE
  5
253
330
24C
100
AcDbEntity
  8
VERMASSUNG
 62
     0
100
AcDbLine
 10
0.0
 20
5.0
 30
0.0
 11
0.0
 21
34.0
 31
0.0
  0
LINE
  5
254
330
24C
100
AcDbEntity
  8
VERMASSUNG
 62
     0
100
AcDbLine
 10
-5.0
 20
0.0
 30
0.0
 11
-34.0
 21
0.0
 31
0.0
  0
LINE
  5
255
330
24C
100
AcDbEntity
  8
VERMASSUNG
 62
     0
100
AcDbLine
 10
0.0
 20
-5.0
 30
0.0
 11
0.0
 21
-47.1383653971
 31
0.0
  0
LINE
  5
256
330
24C
100
AcDbEntity
  8
VERMASSUNG
 62
     0
100
AcDbLine
 10
5.0
 20
0.0
 30
0.0
 11
34.0
 21
0.0
 31
0.0
  0
ENDBLK
  5
24E
330
24C
100
AcDbEntity
  8
0
100
AcDbBlockEnd
  0
ENDSEC
  0
SECTION
  2
ENTITIES
  0
MTEXT
  5
49
330
1F
100
AcDbEntity
  8
KOPF_DÜNN
100
AcDbMText
 10
13.8892156294
 20
23.8442973028
 30
0.0
 40
3.0
 41
0.0
 71
     1
 72
     1
  1
PS6.PCD.LLA.065
  7
SLDTEXTSTYLE0
 73
     1
 44
1.0
  0
MTEXT
  5
4A
330
1F
100
AcDbEntity
  8
VERMASSUNG
100
AcDbMText
 10
13.9329988022
 20
28.8834360957
 30
0.0
 40
3.0
 41
0.0
 71
     1
 72
     1
  1
Klemmhalter links_Turning tool left 95° /80°
  7
SLDTEXTSTYLE0
 73
     1
 44
1.0
  0
MTEXT
  5
4B
330
1F
100
AcDbEntity
  8
VERMASSUNG
100
AcDbMText
 10
98.8601118557
 20
13.8365368179
 30
0.0
 40
2.0
 41
0.0
 71
     1
 72
     1
  1
Datum: 27.04.2012
  7
SLDTEXTSTYLE0
 73
     1
 44
1.0
  0
MTEXT
  5
4C
330
1F
100
AcDbEntity
  8
VERMASSUNG
100
AcDbMText
 10
13.933048693
 20
18.0482802738
 30
0.0
 40
2.0
 41
0.0
 71
     1
 72
     1
  1
PSC ø63 / CN..12 04..
  7
SLDTEXTSTYLE0
 73
     1
 44
1.0
  0
MTEXT
  5
4D
330
1F
100
AcDbEntity
  8
VERMASSUNG
100
AcDbMText
 10
13.9808475933
 20
13.9090973692
 30
0.0
 40
2.0
 41
0.0
 71
     1
 72
     1
  1
Gewicht: 1334g
  7
SLDTEXTSTYLE0
 73
     1
 44
1.0
  0
LINE
  5
4E
330
1F
100
AcDbEntity
  8
0
  6
Continuous
 62
     7
370
    15
100
AcDbLine
 10
237.8340184415
 20
86.3397484478
 30
0.0
 11
238.7836806202
 21
85.7354169544
 31
0.0
  0
LINE
  5
4F
330
1F
100
AcDbEntity
  8
0
  6
Continuous
 62
     7
370
    15
100
AcDbLine
 10
246.0913032019
 20
92.6908803936
 30
0.0
 11
245.5937459791
 21
93.185710704
 31
0.0
  0
LINE
  5
50
330
1F
100
AcDbEntity
  8
0
  6
Continuous
 62
     7
370
    15
100
AcDbLine
 10
234.1053493047
 20
81.5741857346
 30
0.0
 11
234.6029065275
 21
81.0793591496
 31
0.0
  0
LINE
  5
51
330
1F
100
AcDbEntity
  8
0
  6
Continuous
 62
     7
370
    15
100
AcDbLine
 10
216.0822234774
 20
156.5492851492
 30
0.0
 11
182.754430648
 21
156.5492851492
 31
0.0
  0
LINE
  5
52
330
1F
100
AcDbEntity
  8
0
  6
Continuous
 62
     7
370
    15
100
AcDbLine
 10
182.754430648
 20
93.5492841359
 30
0.0
 11
219.4871052826
 21
93.5492841359
 31
0.0
  0
ARC
  5
53
330
1F
100
AcDbEntity
  8
0
  6
Continuous
 62
     7
370
    15
100
AcDbCircle
 10
182.7544306243
 20
94.0492846426
 30
0.0
 40
0.5
100
AcDbArc
 50
180.0
 51
270.0
  0
ARC
  5
54
330
1F
100
AcDbEntity
  8
0
  6
Continuous
 62
     7
370
    15
100
AcDbCircle
 10
182.7544306243
 20
156.0492846426
 30
0.0
 40
0.5
100
AcDbArc
 50
90.0
 51
180.0
  0
LWPOLYLINE
  5
55
330
1F
100
AcDbEntity
  8
0
  6
Continuous
 62
     7
370
    15
100
AcDbPolyline
 90
        3
 70
   128
 43
0.0
 10
182.0544306293
 20
102.5094641205
 10
182.1798855645
 20
102.4411627855
 10
182.2544306243
 20
102.3884238508
  0
LWPOLYLINE
  5
56
330
1F
100
AcDbEntity
  8
0
  6
Continuous
 62
     7
370
    15
100
AcDbPolyline
 90
        3
 70
   128
 43
0.0
 10
182.2544306243
 20
147.7101454344
 10
182.1798855645
 20
147.6574064996
 10
182.0544306293
 20
147.5891051646
  0
ARC
  5
57
330
1F
100
AcDbEntity
  8
0
  6
Continuous
 62
     7
370
    15
100
AcDbCircle
 10
219.4871036363
 20
92.5492846426
 30
0.0
 40
1.0
100
AcDbArc
 50
15.0
 51
90.0
  0
LINE
  5
58
330
1F
100
AcDbEntity
  8
0
  6
Continuous
 62
     7
370
    15
100
AcDbLine
 10
220.4530283535
 20
92.8081041034
 30
0.0
 11
222.9785926366
 21
83.3825683054
 31
0.0
  0
LINE
  5
59
330
1F
100
AcDbEntity
  8
0
  6
Continuous
 62
     7
370
    15
100
AcDbLine
 10
222.9852795327
 20
83.3577094432
 30
0.0
 11
234.3600772047
 21
82.1621706542
 31
0.0
  0
CIRCLE
  5
5A
330
1F
100
AcDbEntity
  8
0
  6
Continuous
 62
     7
370
    15
100
AcDbCircle
 10
235.9546646106
 20
98.8689162482
 30
0.0
 40
3.485845631080773
  0
CIRCLE
  5
5B
330
1F
100
AcDbEntity
  8
0
  6
Continuous
 62
     7
370
    15
100
AcDbCircle
 10
235.9388254189
 20
98.8699406746
 30
0.0
 40
1.993007762194182
  0
SPLINE
  5
5C
330
1F
100
AcDbEntity
  8
0
  6
Continuous
 62
     7
370
    15
100
AcDbSpline
210
0.0
220
0.0
230
1.0
 70
     8
 71
     3
 72
    11
 73
     7
 74
     0
 42
0.00000001
 43
0.00000001
 12
1.0
 22
0.0
 32
0.0
 13
1.0
 23
0.0
 33
0.0
 40
0.0
 40
0.0
 40
0.0
 40
0.0
 40
0.1081101603196968
 40
0.4711586132599479
 40
0.8135817501377095
 40
1.0
 40
1.0
 40
1.0
 40
1.0
 10
235.1894721114911
 20
97.3204457964856
 30
0.0
 10
235.2444603486573
 20
97.33007644814037
 30
0.0
 10
235.4841064789768
 20
97.37204812281958
 30
0.0
 10
235.95126577055
 20
97.44108719118672
 30
0.0
 10
236.4981117543257
 20
97.49337244889713
 30
0.0
 10
236.7971746677165
 20
97.5125603492261
 30
0.0
 10
236.9025952840127
 20
97.51932414435929
 30
0.0
  0
SPLINE
  5
5D
330
1F
100
AcDbEntity
  8
0
  6
Continuous
 62
     7
370
    15
100
AcDbSpline
210
0.0
220
0.0
230
1.0
 70
     8
 71
     3
 72
    10
 73
     6
 74
     0
 42
0.00000001
 43
0.00000001
 12
1.0
 22
0.0
 32
0.0
 13
1.0
 23
0.0
 33
0.0
 40
0.0
 40
0.0
 40
0.0
 40
0.0
 40
0.4391162560188361
 40
0.7513672017630106
 40
1.0
 40
1.0
 40
1.0
 40
1.0
 10
236.9025952840127
 20
97.51932414435927
 30
0.0
 10
236.9921575858505
 20
97.7563842921081
 30
0.0
 10
237.1454066974308
 20
98.16201541466873
 30
0.0
 10
237.403061175116
 20
98.71698348745932
 30
0.0
 10
237.5417475735086
 20
98.9828195999605
 30
0.0
 10
237.6032255316056
 20
99.10066144728248
 30
0.0
  0
SPLINE
  5
5E
330
1F
100
AcDbEntity
  8
0
  6
Continuous
 62
     7
370
    15
100
AcDbSpline
210
0.0
220
0.0
230
1.0
 70
     8
 71
     3
 72
    10
 73
     6
 74
     0
 42
0.00000001
 43
0.00000001
 12
1.0
 22
0.0
 32
0.0
 13
1.0
 23
0.0
 33
0.0
 40
0.0
 40
0.0
 40
0.0
 40
0.0
 40
0.4391153269268411
 40
0.7513668397942198
 40
1.0
 40
1.0
 40
1.0
 40
1.0
 10
237.6032255316056
 20
99.10066144728249
 30
0.0
 10
237.4475409989073
 20
99.30925036900625
 30
0.0
 10
237.1811503990687
 20
99.66616525974467
 30
0.0
 10
236.8287828144182
 20
100.1503169989725
 30
0.0
 10
236.6638441349806
 20
100.380902757171
 30
0.0
 10
236.5907288813867
 20
100.4831185396869
 30
0.0
  0
SPLINE
  5
5F
330
1F
100
AcDbEntity
  8
0
  6
Continuous
 62
     7
370
    15
100
AcDbSpline
210
0.0
220
0.0
230
1.0
 70
     8
 71
     3
 72
    11
 73
     7
 74
     0
 42
0.00000001
 43
0.00000001
 12
1.0
 22
0.0
 32
0.0
 13
1.0
 23
0.0
 33
0.0
 40
0.0
 40
0.0
 40
0.0
 40
0.0
 40
0.1864179220845436
 40
0.5288423375982689
 40
0.8918901167257289
 40
1.0
 40
1.0
 40
1.0
 40
1.0
 10
236.5907288813867
 20
100.4831185396869
 30
0.0
 10
236.4853082789228
 20
100.476354645254
 30
0.0
 10
236.1862443412143
 20
100.4571663949873
 30
0.0
 10
235.6393965779556
 20
100.404884526416
 30
0.0
 10
235.1722365197443
 20
100.3358443502862
 30
0.0
 10
234.9325902278699
 20
100.2938726961545
 30
0.0
 10
234.8776019835748
 20
100.2842420544583
 30
0.0
  0
SPLINE
  5
60
330
1F
100
AcDbEntity
  8
0
  6
Continuous
 62
     7
370
    15
100
AcDbSpline
210
0.0
220
0.0
230
1.0
 70
     8
 71
     3
 72
    10
 73
     6
 74
     0
 42
0.00000001
 43
0.00000001
 12
1.0
 22
0.0
 32
0.0
 13
1.0
 23
0.0
 33
0.0
 40
0.0
 40
0.0
 40
0.0
 40
0.0
 40
0.4391166738460374
 40
0.751366836601868
 40
1.0
 40
1.0
 40
1.0
 40
1.0
 10
234.8776019835748
 20
100.2842420544583
 30
0.0
 10
234.7665638411153
 20
100.068540883451
 30
0.0
 10
234.5765679179106
 20
99.69945741164473
 30
0.0
 10
234.3352517174521
 20
99.12824306070497
 30
0.0
 10
234.2255880921113
 20
98.8335422502003
 30
0.0
 10
234.1769754612721
 20
98.70290475153512
 30
0.0
  0
SPLINE
  5
61
330
1F
100
AcDbEntity
  8
0
  6
Continuous
 62
     7
370
    15
100
AcDbSpline
210
0.0
220
0.0
230
1.0
 70
     8
 71
     3
 72
    10
 73
     6
 74
     0
 42
0.00000001
 43
0.00000001
 12
1.0
 22
0.0
 32
0.0
 13
1.0
 23
0.0
 33
0.0
 40
0.0
 40
0.0
 40
0.0
 40
0.0
 40
0.4391161615894855
 40
0.7513656778025053
 40
0.9999999999999999
 40
0.9999999999999999
 40
0.9999999999999999
 40
0.9999999999999999
 10
234.1769754612721
 20
98.70290475153512
 30
0.0
 10
234.3111827134352
 20
98.51567467202601
 30
0.0
 10
234.5408229130182
 20
98.19530783541002
 30
0.0
 10
234.9095268220679
 20
97.69491149167409
 30
0.0
 10
235.1034900907347
 20
97.43545868790667
 30
0.0
 10
235.1894721114911
 20
97.3204457964856
 30
0.0
  0
LINE
  5
62
330
1F
100
AcDbEntity
  8
0
  6
Continuous
 62
     7
370
    15
100
AcDbLine
 10
237.2131205821
 20
99.4886299428
 30
0.0
 11
237.6032255316
 21
99.1006614473
 31
0.0
  0
LINE
  5
63
330
1F
100
AcDbEntity
  8
0
  6
Continuous
 62
     7
370
    15
100
AcDbLine
 10
237.2131205821
 20
99.4886299428
 30
0.0
 11
236.706872257
 21
100.1798575577
 31
0.0
  0
LINE
  5
64
330
1F
100
AcDbEntity
  8
0
  6
Continuous
 62
     7
370
    15
100
AcDbLine
 10
236.706872257
 20
100.1798575577
 30
0.0
 11
236.4898033166
 21
100.4762435164
 31
0.0
  0
LINE
  5
65
330
1F
100
AcDbEntity
  8
0
  6
Continuous
 62
     7
370
    15
100
AcDbLine
 10
236.5124903345
 20
97.9072926398
 30
0.0
 11
236.902595284
 21
97.5193241444
 31
0.0
  0
LINE
  5
66
330
1F
100
AcDbEntity
  8
0
  6
Continuous
 62
     7
370
    15
100
AcDbLine
 10
236.5124903345
 20
97.9072926398
 30
0.0
 11
236.8628054583
 21
98.6979612913
 31
0.0
  0
LINE
  5
67
330
1F
100
AcDbEntity
  8
0
  6
Continuous
 62
     7
370
    15
100
AcDbLine
 10
236.8628054583
 20
98.6979612913
 30
0.0
 11
237.2131205821
 21
99.4886299428
 31
0.0
  0
LINE
  5
68
330
1F
100
AcDbEntity
  8
0
  6
Continuous
 62
     7
370
    15
100
AcDbLine
 10
234.8925031448
 20
97.7192269471
 30
0.0
 11
235.6559268856
 21
97.8078534659
 31
0.0
  0
LINE
  5
69
330
1F
100
AcDbEntity
  8
0
  6
Continuous
 62
     7
370
    15
100
AcDbLine
 10
235.6559268856
 20
97.8078534659
 30
0.0
 11
236.5124903345
 21
97.9072926398
 31
0.0
  0
ARC
  5
6A
330
1F
100
AcDbEntity
  8
0
  6
Continuous
 62
     7
370
    15
100
AcDbCircle
 10
235.5048044518
 20
99.3042172283
 30
0.0
 40
1.487182905619882
100
AcDbArc
 50
335.9424574965
 51
36.071280736
  0
ARC
  5
6B
330
1F
100
AcDbEntity
  8
0
  6
Continuous
 62
     7
370
    15
100
AcDbCircle
 10
235.4793613174
 20
99.3104996374
 30
0.0
 40
1.512984109828378
100
AcDbArc
 50
276.701700475
 51
336.1179935953
  0
ARC
  5
6C
330
1F
100
AcDbEntity
  8
0
  6
Continuous
 62
     7
370
    15
100
AcDbCircle
 10
235.483161846
 20
99.2776765681
 30
0.0
 40
1.479941793020755
100
AcDbArc
 50
233.6977911289
 51
276.7038645919
  0
ARC
  5
6D
330
1F
100
AcDbEntity
  8
0
  6
Continuous
 62
     7
370
    15
100
AcDbCircle
 10
235.5228091072
 20
99.3126939128
 30
0.0
 40
1.467643802080282
100
AcDbArc
 50
36.2176550682
 51
52.6515876702
  0
LINE
  5
6E
330
1F
100
AcDbEntity
  8
0
  6
Continuous
 62
     7
370
    15
100
AcDbLine
 10
237.8078072989
 20
87.2255293485
 30
0.0
 11
238.1024814868
 21
86.4191567358
 31
0.0
  0
LINE
  5
6F
330
1F
100
AcDbEntity
  8
0
  6
Continuous
 62
     7
370
    15
100
AcDbLine
 10
238.1024814868
 20
86.4191567358
 30
0.0
 11
237.7925485099
 21
86.6163885053
 31
0.0
  0
ELLIPSE
  5
70
330
1F
100
AcDbEntity
  8
0
  6
Continuous
 62
     7
370
    15
100
AcDbEllipse
 10
239.9978145758
 20
87.629731336
 30
0.0
 11
1.502644295739828
 21
1.67549547682404
 31
0.0
210
0.0
220
0.0
230
1.0
 40
0.9898983231
 41
2.867627484131776
 42
5.586798377003241
  0
ELLIPSE
  5
71
330
1F
100
AcDbEntity
  8
0
  6
Continuous
 62
     7
370
    15
100
AcDbEllipse
 10
239.9978145758
 20
87.629731336
 30
0.0
 11
1.502644295739828
 21
1.67549547682404
 31
0.0
210
0.0
220
0.0
230
1.0
 40
0.9898983231
 41
6.009220137721607
 42
6.129087383772754
  0
LINE
  5
72
330
1F
100
AcDbEntity
  8
0
  6
Continuous
 62
     7
370
    15
100
AcDbLine
 10
242.21447927
 20
87.9609761592
 30
0.0
 11
241.8931469047
 21
88.8403048571
 31
0.0
  0
LINE
  5
73
330
1F
100
AcDbEntity
  8
0
  6
Continuous
 62
     7
370
    15
100
AcDbLine
 10
241.7990572477
 20
89.0166116711
 30
0.0
 11
241.815910461
 21
88.9545855876
 31
0.0
  0
ARC
  5
74
330
1F
100
AcDbEntity
  8
0
  6
Continuous
 62
     7
370
    15
100
AcDbCircle
 10
238.9932968124
 20
88.2001701556
 30
0.0
 40
2.883614931467005
100
AcDbArc
 50
254.5246800102
 51
284.2824637434
  0
LWPOLYLINE
  5
75
330
1F
100
AcDbEntity
  8
0
  6
Continuous
 62
     7
370
    15
100
AcDbPolyline
 90
        3
 70
   128
 43
0.0
 10
241.8177172268
 20
89.0038860794
 10
241.8395958567
 20
88.9414725658
 10
241.8524183059
 20
88.9024799522
  0
ARC
  5
76
330
1F
100
AcDbEntity
  8
0
  6
Continuous
 62
     7
370
    15
100
AcDbCircle
 10
239.1709713084
 20
88.0240636795
 30
0.0
 40
2.783095597749916
100
AcDbArc
 50
250.3863324425
 51
288.923893107
  0
LINE
  5
77
330
1F
100
AcDbEntity
  8
0
  6
Continuous
 62
     7
370
    15
100
AcDbLine
 10
233.441290232
 20
93.2840956207
 30
0.0
 11
234.4886742258
 21
81.3239505347
 31
0.0
  0
ARC
  5
78
330
1F
100
AcDbEntity
  8
0
  6
Continuous
 62
     7
370
    15
100
AcDbCircle
 10
233.8425160403
 20
93.3182233789
 30
0.0
 40
0.402674624397637
100
AcDbArc
 50
85.7642333789
 51
184.861803813
  0
LINE
  5
79
330
1F
100
AcDbEntity
  8
0
  6
Continuous
 62
     7
370
    15
100
AcDbLine
 10
245.8439066732
 20
92.8039392289
 30
0.0
 11
233.8722578907
 21
93.7197981235
 31
0.0
  0
ARC
  5
7A
330
1F
100
AcDbEntity
  8
0
  6
Continuous
 62
     7
370
    15
100
AcDbCircle
 10
245.814517737
 20
92.4125724011
 30
0.0
 40
0.3924687292793348
100
AcDbArc
 50
4.9282996056
 51
85.7055440701
  0
LINE
  5
7B
330
1F
100
AcDbEntity
  8
0
  6
Continuous
 62
     7
370
    15
100
AcDbLine
 10
247.2529157722
 20
80.4861439224
 30
0.0
 11
246.2055355037
 21
92.4462890085
 31
0.0
  0
ARC
  5
7C
330
1F
100
AcDbEntity
  8
0
  6
Continuous
 62
     7
370
    15
100
AcDbCircle
 10
246.851696346
 20
80.4520101059
 30
0.0
 40
0.4026687787783622
100
AcDbArc
 50
265.7637927016
 51
4.8627397284
  0
LINE
  5
7D
330
1F
100
AcDbEntity
  8
0
  6
Continuous
 62
     7
370
    15
100
AcDbLine
 10
234.850299331
 20
80.9663003143
 30
0.0
 11
246.8219518388
 21
80.0504414197
 31
0.0
  0
ARC
  5
7E
330
1F
100
AcDbEntity
  8
0
  6
Continuous
 62
     7
370
    15
100
AcDbCircle
 10
234.8796830082
 20
81.3576577518
 30
0.0
 40
0.3924589715768249
100
AcDbArc
 50
184.9270464505
 51
265.7062070303
  0
ARC
  5
7F
330
1F
100
AcDbEntity
  8
0
  6
Continuous
 62
     7
370
    15
100
AcDbCircle
 10
246.8519436746
 20
80.4517675328
 30
0.0
 40
0.382537643201456
100
AcDbArc
 50
265.764033219
 51
4.8622912559
  0
LINE
  5
80
330
1F
100
AcDbEntity
  8
0
  6
Continuous
 62
     7
370
    15
100
AcDbLine
 10
247.2331046784
 20
80.4841918703
 30
0.0
 11
246.1857169593
 21
92.4443369564
 31
0.0
  0
ARC
  5
81
330
1F
100
AcDbEntity
  8
0
  6
Continuous
 62
     7
370
    15
100
AcDbCircle
 10
245.8142627891
 20
92.4123209556
 30
0.0
 40
0.3728313624938215
100
AcDbArc
 50
4.926204999
 51
85.706021324
  0
LINE
  5
82
330
1F
100
AcDbEntity
  8
0
  6
Continuous
 62
     7
370
    15
100
AcDbLine
 10
245.8421781385
 20
92.7841057833
 30
0.0
 11
233.8705256307
 21
93.6999646779
 31
0.0
  0
ARC
  5
83
330
1F
100
AcDbEntity
  8
0
  6
Continuous
 62
     7
370
    15
100
AcDbCircle
 10
233.8422708589
 20
93.3184675128
 30
0.0
 40
0.3825420487932231
100
AcDbArc
 50
85.76424411
 51
184.8615590632
  0
LINE
  5
84
330
1F
100
AcDbEntity
  8
0
  6
Continuous
 62
     7
370
    15
100
AcDbLine
 10
233.4611050511
 20
93.2860476729
 30
0.0
 11
234.5084890449
 21
81.3259025868
 31
0.0
  0
ARC
  5
85
330
1F
100
AcDbEntity
  8
0
  6
Continuous
 62
     7
370
    15
100
AcDbCircle
 10
234.8799495962
 20
81.3579253456
 30
0.0
 40
0.3728383003807236
100
AcDbArc
 50
184.9271554884
 51
265.7056921013
  0
LINE
  5
86
330
1F
100
AcDbEntity
  8
0
  6
Continuous
 62
     7
370
    15
100
AcDbLine
 10
234.852031591
 20
80.9861337599
 30
0.0
 11
246.823687824
 21
80.0702748653
 31
0.0
  0
LINE
  5
87
330
1F
100
AcDbEntity
  8
0
  6
Continuous
 62
     7
370
    15
100
AcDbLine
 10
232.94226897
 20
93.8197308984
 30
0.0
 11
232.9437367344
 21
93.7789259311
 31
0.0
  0
LINE
  5
88
330
1F
100
AcDbEntity
  8
0
  6
Continuous
 62
     7
370
    15
100
AcDbLine
 10
234.6782020951
 20
92.4921436068
 30
0.0
 11
233.8146537268
 21
93.3459279891
 31
0.0
  0
LINE
  5
89
330
1F
100
AcDbEntity
  8
0
  6
Continuous
 62
     7
370
    15
100
AcDbLine
 10
235.3950820589
 20
81.9999044594
 30
0.0
 11
234.8620377207
 21
81.3857829031
 31
0.0
  0
LINE
  5
8A
330
1F
100
AcDbEntity
  8
0
  6
Continuous
 62
     7
370
    15
100
AcDbLine
 10
245.346356901
 20
93.2987695392
 30
0.0
 11
245.1013296569
 21
93.3175114747
 31
0.0
  0
LINE
  5
8B
330
1F
100
AcDbEntity
  8
0
  6
Continuous
 62
     7
370
    15
100
AcDbLine
 10
232.9437367344
 20
93.7789259311
 30
0.0
 11
233.3160869503
 21
89.527002519
 31
0.0
  0
LINE
  5
8C
330
1F
100
AcDbEntity
  8
0
  6
Continuous
 62
     7
370
    15
100
AcDbLine
 10
233.9573397959
 20
82.2045011278
 30
0.0
 11
233.9911207283
 21
81.818780845
 31
0.0
  0
LINE
  5
8D
330
1F
100
AcDbEntity
  8
0
  6
Continuous
 62
     7
370
    15
100
AcDbLine
 10
245.1782420004
 20
91.8905539271
 30
0.0
 11
245.7863062346
 21
92.4300690945
 31
0.0
  0
ARC
  5
8E
330
1F
100
AcDbEntity
  8
0
  6
Continuous
 62
     7
370
    15
100
AcDbCircle
 10
236.7162792427
 20
90.4760001381
 30
0.0
 40
1.006676332840649
100
AcDbArc
 50
85.7638897317
 51
184.8622486605
  0
SPLINE
  5
8F
330
1F
100
AcDbEntity
  8
0
  6
Continuous
 62
     7
370
    15
100
AcDbSpline
210
0.0
220
0.0
230
1.0
 70
     8
 71
     3
 72
    11
 73
     7
 74
     0
 42
0.00000001
 43
0.00000001
 12
1.0
 22
0.0
 32
0.0
 13
1.0
 23
0.0
 33
0.0
 40
0.0
 40
0.0
 40
0.0
 40
0.0
 40
0.3367833971812715
 40
0.6790124865510653
 40
0.9923720641221396
 40
1.0
 40
1.0
 40
1.0
 40
1.0
 10
234.6782020950593
 20
92.49214360677784
 30
0.0
 10
234.7312675614121
 20
92.43967475299236
 30
0.0
 10
234.8382565476859
 20
92.33388863890973
 30
0.0
 10
235.0105779624306
 20
92.16342578137754
 30
0.0
 10
235.1204577702819
 20
92.05474019641193
 30
0.0
 10
235.1711242882038
 20
92.00459577629128
 30
0.0
 10
235.1723283255376
 20
92.00340414607113
 30
0.0
  0
LINE
  5
90
330
1F
100
AcDbEntity
  8
0
  6
Continuous
 62
     7
370
    15
100
AcDbLine
 10
235.7132255757
 20
90.3906738218
 30
0.0
 11
236.2994074548
 21
83.6970126089
 31
0.0
  0
LINE
  5
91
330
1F
100
AcDbEntity
  8
0
  6
Continuous
 62
     7
370
    15
100
AcDbLine
 10
243.4907413745
 20
90.9673524853
 30
0.0
 11
236.7906391347
 21
91.4799263533
 31
0.0
  0
ARC
  5
92
330
1F
100
AcDbEntity
  8
0
  6
Continuous
 62
     7
370
    15
100
AcDbCircle
 10
243.4172810118
 20
89.9889597453
 30
0.0
 40
0.9811466651517872
100
AcDbArc
 50
4.927000254
 51
85.7061351872
  0
LINE
  5
93
330
1F
100
AcDbEntity
  8
0
  6
Continuous
 62
     7
370
    15
100
AcDbLine
 10
244.9809804285
 20
83.3795657214
 30
0.0
 11
244.3948022747
 21
90.0732269343
 31
0.0
  0
ARC
  5
94
330
1F
100
AcDbEntity
  8
0
  6
Continuous
 62
     7
370
    15
100
AcDbCircle
 10
243.9779279194
 20
83.2942382597
 30
0.0
 40
1.006675276150476
100
AcDbArc
 50
265.7638191915
 51
4.8623192008
  0
LINE
  5
95
330
1F
100
AcDbEntity
  8
0
  6
Continuous
 62
     7
370
    15
100
AcDbLine
 10
237.203468355
 20
82.8028870579
 30
0.0
 11
243.9035668695
 21
82.2903131899
 31
0.0
  0
ARC
  5
96
330
1F
100
AcDbEntity
  8
0
  6
Continuous
 62
     7
370
    15
100
AcDbCircle
 10
237.2769216539
 20
83.7812726556
 30
0.0
 40
0.9811390140656064
100
AcDbArc
 50
184.9266201348
 51
265.7065153064
  0
CIRCLE
  5
97
330
1F
100
AcDbEntity
  8
0
  6
Continuous
 62
     7
370
    15
100
AcDbCircle
 10
240.3201432925
 20
86.8814825588
 30
0.0
 40
2.562480269972315
  0
ARC
  5
98
330
1F
100
AcDbEntity
  8
0
  6
Continuous
 62
     7
370
    15
100
AcDbCircle
 10
239.8271249082
 20
87.3992839309
 30
0.0
 40
2.585733116263214
100
AcDbArc
 50
265.537111429
 51
36.6976353551
  0
ARC
  5
99
330
1F
100
AcDbEntity
  8
0
  6
Continuous
 62
     7
370
    15
100
AcDbCircle
 10
239.8172269478
 20
87.351393199
 30
0.0
 40
2.537224830854979
100
AcDbArc
 50
233.1694397873
 51
265.6757973034
  0
LINE
  5
9A
330
1F
100
AcDbEntity
  8
0
  6
Continuous
 62
     7
370
    15
100
AcDbLine
 10
245.8693057025
 20
81.4239894804
 30
0.0
 11
246.8336865032
 21
80.4699240085
 31
0.0
  0
SPLINE
  5
9B
330
1F
100
AcDbEntity
  8
0
  6
Continuous
 62
     7
370
    15
100
AcDbSpline
210
0.0
220
0.0
230
1.0
 70
     8
 71
     3
 72
    11
 73
     7
 74
     0
 42
0.00000001
 43
0.00000001
 12
1.0
 22
0.0
 32
0.0
 13
1.0
 23
0.0
 33
0.0
 40
0.0
 40
0.0
 40
0.0
 40
0.0
 40
0.0081175189319368
 40
0.3263672259766714
 40
0.6627696255178508
 40
1.0
 40
1.0
 40
1.0
 40
1.0
 10
235.8882732415475
 20
82.4880404230315
 30
0.0
 10
235.8869861427791
 20
82.4869412502518
 30
0.0
 10
235.8352379598556
 20
82.44274868673737
 30
0.0
 10
235.7241440859495
 20
82.34286510649834
 30
0.0
 10
235.5508934136759
 20
82.17319681564494
 30
0.0
 10
235.4470617176899
 20
82.0577158913888
 30
0.0
 10
235.3950820589341
 20
81.99990445935315
 30
0.0
  0
SPLINE
  5
9C
330
1F
100
AcDbEntity
  8
0
  6
Continuous
 62
     7
370
    15
100
AcDbSpline
210
0.0
220
0.0
230
1.0
 70
     8
 71
     3
 72
    11
 73
     7
 74
     0
 42
0.00000001
 43
0.00000001
 12
1.0
 22
0.0
 32
0.0
 13
1.0
 23
0.0
 33
0.0
 40
0.0
 40
0.0
 40
0.0
 40
0.0
 40
0.3372350935191138
 40
0.6736287875330191
 40
0.9918828542220147
 40
1.0
 40
1.0
 40
1.0
 40
1.0
 10
245.178242000369
 20
91.89055392705983
 30
0.0
 10
245.1210156490015
 20
91.83795901091548
 30
0.0
 10
245.0067057256647
 20
91.73290040262242
 30
0.0
 10
244.8389319780277
 20
91.55778752961919
 30
0.0
 10
244.7402320003736
 20
91.44557771194177
 30
0.0
 10
244.6965857778765
 20
91.39332763517177
 30
0.0
 10
244.6955002570428
 20
91.39202812873906
 30
0.0
  0
ARC
  5
9D
330
1F
100
AcDbEntity
  8
0
  6
Continuous
 62
     7
370
    15
100
AcDbCircle
 10
245.3170588552
 20
92.9074702255
 30
0.0
 40
0.3923946079867077
100
AcDbArc
 50
45.1603820452
 51
85.7180400444
  0
ARC
  5
9E
330
1F
100
AcDbEntity
  8
0
  6
Continuous
 62
     7
370
    15
100
AcDbCircle
 10
234.3826989632
 20
81.8526815901
 30
0.0
 40
0.3930429678381149
100
AcDbArc
 50
184.948024052
 51
225.1181482158
  0
SPLINE
  5
9F
330
1F
100
AcDbEntity
  8
0
  6
Continuous
 62
     7
370
    15
100
AcDbSpline
210
0.0
220
0.0
230
1.0
 70
     8
 71
     3
 72
    11
 73
     7
 74
     0
 42
0.00000001
 43
0.00000001
 12
1.0
 22
0.0
 32
0.0
 13
1.0
 23
0.0
 33
0.0
 40
0.0
 40
0.0
 40
0.0
 40
0.0
 40
0.0076308045422615
 40
0.3209900835848922
 40
0.6632187801899966
 40
0.9999999999999999
 40
0.9999999999999999
 40
0.9999999999999999
 40
0.9999999999999999
 10
245.3909337246694
 20
81.8970640953738
 30
0.0
 10
245.3919486759981
 20
81.89606030434332
 30
0.0
 10
245.4346426422829
 20
81.85383579643046
 30
0.0
 10
245.53175228924
 20
81.7578669295376
 30
0.0
 10
245.6964569794493
 20
81.59497010111518
 30
0.0
 10
245.8119984453954
 20
81.480677376106
 30
0.0
 10
245.8693057024755
 20
81.42398948037213
 30
0.0
  0
ELLIPSE
  5
A0
330
1F
100
AcDbEntity
  8
0
  6
Continuous
 62
     7
370
    15
100
AcDbEllipse
 10
212.2113295021
 20
108.4088882234
 30
0.0
 11
-0.231544301995342
 21
3.339233589693848
 31
0.0
210
0.0
220
0.0
230
1.0
 40
0.2180210538
 41
0.0
 42
6.283185307179586
  0
ELLIPSE
  5
A1
330
1F
100
AcDbEntity
  8
0
  6
Continuous
 62
     7
370
    15
100
AcDbEllipse
 10
216.3633429979
 20
125.0492846426
 30
0.0
 11
0.9496107280741342
 21
31.49898525208674
 31
0.0
210
0.0
220
0.0
230
1.0
 40
0.266256518
 41
0.4985560471308296
 42
2.868529625331338
  0
SPLINE
  5
A2
330
1F
100
AcDbEntity
  8
0
  6
Continuous
 62
     7
370
    15
100
AcDbSpline
210
0.0
220
0.0
230
1.0
 70
     8
 71
     3
 72
    12
 73
     8
 74
     0
 42
0.00000001
 43
0.00000001
 12
1.0
 22
0.0
 32
0.0
 13
1.0
 23
0.0
 33
0.0
 40
0.0
 40
0.0
 40
0.0
 40
0.0
 40
0.5000000000000028
 40
0.5000000000000028
 40
0.7500000000000013
 40
0.7500000000000013
 40
1.0
 40
1.0
 40
1.0
 40
1.0
 10
192.3491747359483
 20
134.9586539632581
 30
0.0
 10
192.3798969778674
 20
134.8460981638489
 30
0.0
 10
192.4227341924026
 20
134.7333403041093
 30
0.0
 10
192.5221612166024
 20
134.5837994183129
 30
0.0
 10
192.561913411419
 20
134.5365066866061
 30
0.0
 10
192.6599548682773
 20
134.4627703932846
 30
0.0
 10
192.7195109238647
 20
134.4373510739089
 30
0.0
 10
192.7821874378406
 20
134.4373510739089
 30
0.0
  0
LINE
  5
A3
330
1F
100
AcDbEntity
  8
0
  6
Continuous
 62
     7
370
    15
100
AcDbLine
 10
192.7821876207
 20
134.4373514708
 30
0.0
 11
195.7266738364
 21
134.4373514708
 31
0.0
  0
SPLINE
  5
A4
330
1F
100
AcDbEntity
  8
0
  6
Continuous
 62
     7
370
    15
100
AcDbSpline
210
0.0
220
0.0
230
1.0
 70
     8
 71
     3
 72
    12
 73
     8
 74
     0
 42
0.00000001
 43
0.00000001
 12
1.0
 22
0.0
 32
0.0
 13
1.0
 23
0.0
 33
0.0
 40
0.0
 40
0.0
 40
0.0
 40
0.0
 40
0.25
 40
0.25
 40
0.5
 40
0.5
 40
1.0
 40
1.0
 40
1.0
 40
1.0
 10
195.7266738107077
 20
134.4373510739089
 30
0.0
 10
195.789753849201
 20
134.4373510739089
 30
0.0
 10
195.8489024713825
 20
134.4627153931238
 30
0.0
 10
195.9473750214515
 20
134.5368802534967
 30
0.0
 10
195.9864116334363
 20
134.5834005940509
 30
0.0
 10
196.0863081002153
 20
134.7335429368961
 30
0.0
 10
196.1287289812819
 20
134.8452361438683
 30
0.0
 10
196.1596865125999
 20
134.958653963258
 30
0.0
  0
ELLIPSE
  5
A5
330
1F
100
AcDbEntity
  8
0
  6
Continuous
 62
     7
370
    15
100
AcDbEllipse
 10
179.9072764349
 20
125.0492846426
 30
0.0
 11
14.75368316065604
 21
31.09325491558117
 31
0.0
210
0.0
220
0.0
230
1.0
 40
0.3419987131
 41
5.193281737408618
 42
6.124043104552324
  0
SPLINE
  5
A6
330
1F
100
AcDbEntity
  8
0
  6
Continuous
 62
     7
370
    15
100
AcDbSpline
210
0.0
220
0.0
230
1.0
 70
     8
 71
     3
 72
    12
 73
     8
 74
     0
 42
0.00000001
 43
0.00000001
 12
1.0
 22
0.0
 32
0.0
 13
1.0
 23
0.0
 33
0.0
 40
0.0
 40
0.0
 40
0.0
 40
0.0
 40
0.4999999999999991
 40
0.4999999999999991
 40
0.7499999999999996
 40
0.7499999999999996
 40
1.0
 40
1.0
 40
1.0
 40
1.0
 10
196.1596865125999
 20
154.9500271026902
 30
0.0
 10
196.1289642706808
 20
154.9873290856432
 30
0.0
 10
196.0861270561457
 20
155.0239409176897
 30
0.0
 10
195.9867000319459
 20
155.0717057009748
 30
0.0
 10
195.9469478371292
 20
155.0866632164572
 30
0.0
 10
195.848906380271
 20
155.1098531622264
 30
0.0
 10
195.7893503246835
 20
155.1177766014461
 30
0.0
 10
195.7266738107077
 20
155.1177766014461
 30
0.0
  0
LINE
  5
A7
330
1F
100
AcDbEntity
  8
0
  6
Continuous
 62
     7
370
    15
100
AcDbLine
 10
195.7266738364
 20
155.1177771594
 30
0.0
 11
192.7821876207
 21
155.1177771594
 31
0.0
  0
SPLINE
  5
A8
330
1F
100
AcDbEntity
  8
0
  6
Continuous
 62
     7
370
    15
100
AcDbSpline
210
0.0
220
0.0
230
1.0
 70
     8
 71
     3
 72
    12
 73
     8
 74
     0
 42
0.00000001
 43
0.00000001
 12
1.0
 22
0.0
 32
0.0
 13
1.0
 23
0.0
 33
0.0
 40
0.0
 40
0.0
 40
0.0
 40
0.0
 40
0.2500000000000009
 40
0.2500000000000009
 40
0.5000000000000018
 40
0.5000000000000018
 40
1.0
 40
1.0
 40
1.0
 40
1.0
 10
192.7821874378406
 20
155.1177766014461
 30
0.0
 10
192.7191073993472
 20
155.1177766014461
 30
0.0
 10
192.6599587771658
 20
155.1098706752336
 30
0.0
 10
192.5614862270967
 20
155.0865455137974
 30
0.0
 10
192.522449615112
 20
155.0718327239657
 30
0.0
 10
192.422553148333
 20
155.0238769232348
 30
0.0
 10
192.3801322672663
 20
154.9876147666547
 30
0.0
 10
192.3491747359484
 20
154.9500271026902
 30
0.0
  0
ELLIPSE
  5
A9
330
1F
100
AcDbEntity
  8
0
  6
Continuous
 62
     7
370
    15
100
AcDbEllipse
 10
208.6015848136
 20
125.0492846426
 30
0.0
 11
-14.75368316065601
 21
31.09325491558118
 31
0.0
210
0.0
220
0.0
230
1.0
 40
0.3419987131
 41
0.1591422026273045
 42
1.08990356977098
  0
SPLINE
  5
AA
330
1F
100
AcDbEntity
  8
0
  6
Continuous
 62
     7
370
    15
100
AcDbSpline
210
0.0
220
0.0
230
1.0
 70
     8
 71
     3
 72
    12
 73
     8
 74
     0
 42
0.00000001
 43
0.00000001
 12
1.0
 22
0.0
 32
0.0
 13
1.0
 23
0.0
 33
0.0
 40
0.0
 40
0.0
 40
0.0
 40
0.0
 40
0.500000000000001
 40
0.500000000000001
 40
0.7500000000000004
 40
0.7500000000000004
 40
1.0
 40
1.0
 40
1.0
 40
1.0
 10
192.3491747359484
 20
95.14854218245576
 30
0.0
 10
192.3803199339105
 20
95.11072665953557
 30
0.0
 10
192.4225942002449
 20
95.07465980145196
 30
0.0
 10
192.5225397340702
 20
95.02669973644068
 30
0.0
 10
192.5622700387743
 20
95.01183876254304
 30
0.0
 10
192.6591580887805
 20
94.98888761641192
 30
0.0
 10
192.719223330527
 20
94.98079268369987
 30
0.0
 10
192.7821874378406
 20
94.98079268369986
 30
0.0
  0
LINE
  5
AB
330
1F
100
AcDbEntity
  8
0
  6
Continuous
 62
     7
370
    15
100
AcDbLine
 10
192.7821876207
 20
94.9807921257
 30
0.0
 11
195.7266738364
 21
94.9807921257
 31
0.0
  0
SPLINE
  5
AC
330
1F
100
AcDbEntity
  8
0
  6
Continuous
 62
     7
370
    15
100
AcDbSpline
210
0.0
220
0.0
230
1.0
 70
     8
 71
     3
 72
    12
 73
     8
 74
     0
 42
0.00000001
 43
0.00000001
 12
1.0
 22
0.0
 32
0.0
 13
1.0
 23
0.0
 33
0.0
 40
0.0
 40
0.0
 40
0.0
 40
0.0
 40
0.2499999999999991
 40
0.2499999999999991
 40
0.4999999999999982
 40
0.4999999999999982
 40
1.0
 40
1.0
 40
1.0
 40
1.0
 10
195.7266738107077
 20
94.98079268369992
 30
0.0
 10
195.7897307656055
 20
94.98079268369992
 30
0.0
 10
195.8488609153511
 20
94.98869301477947
 30
0.0
 10
195.9473084658844
 20
95.01200376278449
 30
0.0
 10
195.9863407040725
 20
95.02670888906815
 30
0.0
 10
196.0862305885294
 20
95.0746424172548
 30
0.0
 10
196.1285295621387
 20
95.11071239001956
 30
0.0
 10
196.1596865126
 20
95.14854218245576
 30
0.0
  0
ELLIPSE
  5
AD
330
1F
100
AcDbEntity
  8
0
  6
Continuous
 62
     7
370
    15
100
AcDbEllipse
 10
179.9072764349
 20
125.0492846426
 30
0.0
 11
-14.75368316065618
 21
31.09325491558117
 31
0.0
210
0.0
220
0.0
230
1.0
 40
0.3419987131
 41
3.300734856217121
 42
4.231496223360772
  0
SPLINE
  5
AE
330
1F
100
AcDbEntity
  8
0
  6
Continuous
 62
     7
370
    15
100
AcDbSpline
210
0.0
220
0.0
230
1.0
 70
     8
 71
     3
 72
    12
 73
     8
 74
     0
 42
0.00000001
 43
0.00000001
 12
1.0
 22
0.0
 32
0.0
 13
1.0
 23
0.0
 33
0.0
 40
0.0
 40
0.0
 40
0.0
 40
0.0
 40
0.5000000000000029
 40
0.5000000000000029
 40
0.7500000000000014
 40
0.7500000000000014
 40
1.0
 40
1.0
 40
1.0
 40
1.0
 10
196.1596865125999
 20
115.1399153218877
 30
0.0
 10
196.1285413146378
 20
115.254020687753
 30
0.0
 10
196.0862670483034
 20
115.3651270149717
 30
0.0
 10
195.9863215144781
 20
115.515284622402
 30
0.0
 10
195.946591209774
 20
115.5622773140194
 30
0.0
 10
195.8497031597678
 20
115.6352528985579
 30
0.0
 10
195.7896379180213
 20
115.6612182112369
 30
0.0
 10
195.7266738107077
 20
115.6612182112369
 30
0.0
  0
LINE
  5
AF
330
1F
100
AcDbEntity
  8
0
  6
Continuous
 62
     7
370
    15
100
AcDbLine
 10
195.7266738364
 20
115.6612178143
 30
0.0
 11
192.7821876207
 21
115.6612178143
 31
0.0
  0
SPLINE
  5
B0
330
1F
100
AcDbEntity
  8
0
  6
Continuous
 62
     7
370
    15
100
AcDbSpline
210
0.0
220
0.0
230
1.0
 70
     8
 71
     3
 72
    12
 73
     8
 74
     0
 42
0.00000001
 43
0.00000001
 12
1.0
 22
0.0
 32
0.0
 13
1.0
 23
0.0
 33
0.0
 40
0.0
 40
0.0
 40
0.0
 40
0.0
 40
0.2500000000000018
 40
0.2500000000000018
 40
0.5000000000000037
 40
0.5000000000000037
 40
1.0
 40
1.0
 40
1.0
 40
1.0
 10
192.7821874378406
 20
115.6612182112368
 30
0.0
 10
192.7191304829428
 20
115.6612182112368
 30
0.0
 10
192.6600003331972
 20
115.6358718578561
 30
0.0
 10
192.5615527826639
 20
115.5617524757166
 30
0.0
 10
192.5225205444759
 20
115.5152559610186
 30
0.0
 10
192.4226306600189
 20
115.36518145401
 30
0.0
 10
192.3803316864096
 20
115.2540637448951
 30
0.0
 10
192.3491747359483
 20
115.1399153218877
 30
0.0
  0
ELLIPSE
  5
B1
330
1F
100
AcDbEntity
  8
0
  6
Continuous
 62
     7
370
    15
100
AcDbEllipse
 10
208.6015848136
 20
125.0492846426
 30
0.0
 11
14.75368316065621
 21
31.09325491558117
 31
0.0
210
0.0
220
0.0
230
1.0
 40
0.3419987131
 41
2.051689083818826
 42
2.982450450962504
  0
SPLINE
  5
B2
330
1F
100
AcDbEntity
  8
0
  6
Continuous
 62
     7
370
    15
100
AcDbSpline
210
0.0
220
0.0
230
1.0
 70
     8
 71
     3
 72
    18
 73
    14
 74
     0
 42
0.00000001
 43
0.00000001
 12
1.0
 22
0.0
 32
0.0
 13
1.0
 23
0.0
 33
0.0
 40
0.0
 40
0.0
 40
0.0
 40
0.0
 40
0.1250000000000007
 40
0.1250000000000007
 40
0.2500000000000014
 40
0.2500000000000014
 40
0.5000000000000008
 40
0.5000000000000008
 40
0.7500000000000001
 40
0.7500000000000001
 40
0.8749999999999998
 40
0.8749999999999998
 40
1.0
 40
1.0
 40
1.0
 40
1.0
 10
217.7429342375377
 20
154.6792298414192
 30
0.0
 10
217.4677808671347
 20
154.6589165936376
 30
0.0
 10
217.1981827956743
 20
154.6318276424431
 30
0.0
 10
216.6701192254449
 20
154.5632386856101
 30
0.0
 10
216.4097277387372
 20
154.5212953083128
 30
0.0
 10
215.6667398205414
 20
154.3750518193137
 30
0.0
 10
215.2166620637472
 20
154.2504161071874
 30
0.0
 10
214.4149312228756
 20
153.9375840214483
 30
0.0
 10
214.0793601022532
 20
153.7557930277243
 30
0.0
 10
213.6680300882415
 20
153.4387023675984
 30
0.0
 10
213.5470074337761
 20
153.3256550513977
 30
0.0
 10
213.3413271308455
 20
153.0892023969729
 30
0.0
 10
213.2557743824457
 20
152.9651575943296
 30
0.0
 10
213.1871422157397
 20
152.8349191805974
 30
0.0
  0
SPLINE
  5
B3
330
1F
100
AcDbEntity
  8
0
  6
Continuous
 62
     7
370
    15
100
AcDbSpline
210
0.0
220
0.0
230
1.0
 70
     8
 71
     3
 72
    20
 73
    16
 74
     0
 42
0.00000001
 43
0.00000001
 12
1.0
 22
0.0
 32
0.0
 13
1.0
 23
0.0
 33
0.0
 40
0.0
 40
0.0
 40
0.0
 40
0.0
 40
0.2500000000000011
 40
0.2500000000000011
 40
0.3750000000000008
 40
0.3750000000000008
 40
0.5000000000000007
 40
0.5000000000000007
 40
0.6250000000000004
 40
0.6250000000000004
 40
0.7500000000000002
 40
0.7500000000000002
 40
0.8750000000000001
 40
0.8750000000000001
 40
1.0
 40
1.0
 40
1.0
 40
1.0
 10
213.1871422157397
 20
94.78554308901688
 30
0.0
 10
213.3369921996723
 20
94.61809797829467
 30
0.0
 10
213.565202600688
 20
94.4767598352954
 30
0.0
 10
214.0327633496127
 20
94.2965334716184
 30
0.0
 10
214.2098012123344
 20
94.2420609404798
 30
0.0
 10
214.5954116367568
 20
94.14583573074506
 30
0.0
 10
214.8052468247226
 20
94.10354492533988
 30
0.0
 10
215.2598459598454
 20
94.02877027653768
 30
0.0
 10
215.5070063674265
 20
93.99609040097995
 30
0.0
 10
216.0220593963979
 20
93.9408966744433
 30
0.0
 10
216.2906833638175
 20
93.918126589392
 30
0.0
 10
216.8499963745034
 20
93.88040754891797
 30
0.0
 10
217.142673477382
 20
93.86539335339945
 30
0.0
 10
217.7415229353022
 20
93.84264321997755
 30
0.0
 10
218.0459822222352
 20
93.83490578248018
 30
0.0
 10
218.3555263938682
 20
93.83044234520219
 30
0.0
  0
ELLIPSE
  5
B4
330
1F
100
AcDbEntity
  8
0
  6
Continuous
 62
     7
370
    15
100
AcDbEllipse
 10
289.1378842458
 20
125.0492846426
 30
0.0
 11
299.7022783439749
 21
3.329013400823229
 31
0.0
210
0.0
220
0.0
230
1.0
 40
0.1045157088
 41
4.47280002182154
 42
4.476683788782682
  0
ELLIPSE
  5
B5
330
1F
100
AcDbEntity
  8
0
  6
Continuous
 62
     7
370
    15
100
AcDbEllipse
 10
238.4848318598
 20
125.0492846426
 30
0.0
 11
-22.41445668029277
 21
31.49663578142495
 31
0.0
210
0.0
220
0.0
230
1.0
 40
0.0205386817
 41
5.922264711249478
 42
6.268570076028066
  0
SPLINE
  5
B6
330
1F
100
AcDbEntity
  8
0
  6
Continuous
 62
     7
370
    15
100
AcDbSpline
210
0.0
220
0.0
230
1.0
 70
     8
 71
     3
 72
    68
 73
    64
 74
     0
 42
0.00000001
 43
0.00000001
 12
1.0
 22
0.0
 32
0.0
 13
1.0
 23
0.0
 33
0.0
 40
-0.0625000000000001
 40
-0.0625000000000001
 40
0.0
 40
0.0
 40
0.03125
 40
0.03125
 40
0.0624999999999999
 40
0.0624999999999999
 40
0.0937499999999999
 40
0.0937499999999999
 40
0.1249999999999998
 40
0.1249999999999998
 40
0.1562499999999998
 40
0.1562499999999998
 40
0.1874999999999997
 40
0.1874999999999997
 40
0.2187499999999997
 40
0.2187499999999997
 40
0.2499999999999996
 40
0.2499999999999996
 40
0.2812499999999996
 40
0.2812499999999996
 40
0.3124999999999995
 40
0.3124999999999995
 40
0.3437499999999994
 40
0.3437499999999994
 40
0.3749999999999994
 40
0.3749999999999994
 40
0.4062499999999994
 40
0.4062499999999994
 40
0.4374999999999993
 40
0.4374999999999993
 40
0.4687499999999993
 40
0.4687499999999993
 40
0.4999999999999992
 40
0.4999999999999992
 40
0.5312499999999992
 40
0.5312499999999992
 40
0.5624999999999991
 40
0.5624999999999991
 40
0.5937499999999991
 40
0.5937499999999991
 40
0.624999999999999
 40
0.624999999999999
 40
0.656249999999999
 40
0.656249999999999
 40
0.6874999999999989
 40
0.6874999999999989
 40
0.7187499999999989
 40
0.7187499999999989
 40
0.7499999999999989
 40
0.7499999999999989
 40
0.781249999999999
 40
0.781249999999999
 40
0.8124999999999992
 40
0.8124999999999992
 40
0.8437499999999993
 40
0.8437499999999993
 40
0.8749999999999996
 40
0.8749999999999996
 40
0.9062499999999997
 40
0.9062499999999997
 40
0.9374999999999999
 40
0.9374999999999999
 40
1.0
 40
1.0
 40
1.03125
 40
1.03125
 10
202.8578010039063
 20
106.7727997109447
 30
0.0
 10
203.452745434461
 20
106.7727997109447
 30
0.0
 10
203.6477236807107
 20
106.7887217645418
 30
0.0
 10
204.0312869058563
 20
106.85119478599
 30
0.0
 10
204.2218676813185
 20
106.8985122591203
 30
0.0
 10
204.5851169681053
 20
107.0223002516959
 30
0.0
 10
204.7573837071012
 20
107.0981677923155
 30
0.0
 10
205.0834054238092
 20
107.2780527402061
 30
0.0
 10
205.2376807905858
 20
107.3829861892187
 30
0.0
 10
205.5142437118369
 20
107.6132099504672
 30
0.0
 10
205.6383866021523
 20
107.7393007302634
 30
0.0
 10
205.8577013745232
 20
108.0145679999811
 30
0.0
 10
205.9508318299266
 20
108.1616738390483
 30
0.0
 10
206.1004861604527
 20
108.4676635015227
 30
0.0
 10
206.1581331304445
 20
108.6288103950064
 30
0.0
 10
206.2352396922669
 20
108.9606159904351
 30
0.0
 10
206.2543234736103
 20
109.1283324162672
 30
0.0
 10
206.2545368836877
 20
109.467404723603
 30
0.0
 10
206.2350415931883
 20
109.6405650479456
 30
0.0
 10
206.1584717187112
 20
109.9774232522927
 30
0.0
 10
206.1018184775021
 20
110.142041538078
 30
0.0
 10
205.9515425266927
 20
110.4633252396736
 30
0.0
 10
205.8576588642803
 20
110.6193526453366
 30
0.0
 10
205.6405936641838
 20
110.9094028646082
 30
0.0
 10
205.5166624079091
 20
111.0452592647974
 30
0.0
 10
205.2367055627568
 20
111.2973746406711
 30
0.0
 10
205.085246411855
 20
111.4095019512138
 30
0.0
 10
204.7605134029073
 20
111.6063226473349
 30
0.0
 10
204.5851489640909
 20
111.6917420706773
 30
0.0
 10
204.2218319451911
 20
111.8288576046456
 30
0.0
 10
204.0348404922005
 20
111.8806860476856
 30
0.0
 10
203.6502689938438
 20
111.95087522811
 30
0.0
 10
203.4513611407245
 20
111.9688864005295
 30
0.0
 10
203.0596977410278
 20
111.9690174989748
 30
0.0
 10
202.864990004641
 20
111.9517193202255
 30
0.0
 10
202.477872940986
 20
111.8817042417312
 30
0.0
 10
202.2884019382591
 20
111.8292044799033
 30
0.0
 10
201.9272694402415
 20
111.6932533732252
 30
0.0
 10
201.7528501908812
 20
111.6088139886236
 30
0.0
 10
201.4246521530773
 20
111.4103642220157
 30
0.0
 10
201.2735739156267
 20
111.2983052358883
 30
0.0
 10
200.9967378225992
 20
111.0496860578084
 30
0.0
 10
200.8699740060866
 20
110.9114528798279
 30
0.0
 10
200.6519694679297
 20
110.6206052175522
 30
0.0
 10
200.5596882883997
 20
110.4675764171061
 30
0.0
 10
200.4088086012343
 20
110.1466095868493
 30
0.0
 10
200.3508621667642
 20
109.978830355413
 30
0.0
 10
200.2742499843495
 20
109.6431225227937
 30
0.0
 10
200.2546219643341
 20
109.473396766366
 30
0.0
 10
200.254242041089
 20
109.1301537977916
 30
0.0
 10
200.2735543815936
 20
108.9618932360827
 30
0.0
 10
200.3494749982704
 20
108.633231640358
 30
0.0
 10
200.4069807672365
 20
108.4709195106098
 30
0.0
 10
200.5573409138256
 20
108.1626820317893
 30
0.0
 10
200.6493602017169
 20
108.0173388232692
 30
0.0
 10
200.866704216707
 20
107.7435340162404
 30
0.0
 10
200.9932236368386
 20
107.6145327790154
 30
0.0
 10
201.2696572562984
 20
107.3840933958707
 30
0.0
 10
201.4204868463747
 20
107.281135523676
 30
0.0
 10
201.7479984386148
 20
107.0997549833883
 30
0.0
 10
201.922546971703
 20
107.0228623453071
 30
0.0
 10
202.4637518400746
 20
106.8379715525716
 30
0.0
 10
202.8578010039063
 20
106.7727997109447
 30
0.0
 10
203.452745434461
 20
106.7727997109447
 30
0.0
  0
LINE
  5
B7
330
1F
100
AcDbEntity
  8
0
  6
Continuous
 62
     7
370
    15
100
AcDbLine
 10
182.2544306243
 20
94.0492851492
 30
0.0
 11
182.2544306243
 21
156.0492841359
 31
0.0
  0
ARC
  5
B8
330
1F
100
AcDbEntity
  8
0
  6
Continuous
 62
     7
370
    15
100
AcDbCircle
 10
203.296541635
 20
113.4134336362
 30
0.0
 40
3.21250082204277
100
AcDbArc
 50
269.2489127179
 51
312.7404648632
  0
ARC
  5
B9
330
1F
100
AcDbEntity
  8
0
  6
Continuous
 62
     7
370
    15
100
AcDbCircle
 10
203.2124431689
 20
113.4140414154
 30
0.0
 40
3.213106924667164
100
AcDbArc
 50
227.3471276379
 51
270.7487320809
  0
SPLINE
  5
BA
330
1F
100
AcDbEntity
  8
0
  6
Continuous
 62
     7
370
    15
100
AcDbSpline
210
0.0
220
0.0
230
1.0
 70
     8
 71
     3
 72
    12
 73
     8
 74
     0
 42
0.00000001
 43
0.00000001
 12
1.0
 22
0.0
 32
0.0
 13
1.0
 23
0.0
 33
0.0
 40
0.0
 40
0.0
 40
0.0
 40
0.0
 40
0.4999999999999997
 40
0.4999999999999997
 40
0.7499999999999998
 40
0.7499999999999998
 40
1.0
 40
1.0
 40
1.0
 40
1.0
 10
181.4379183378176
 20
103.1944909400972
 30
0.0
 10
181.4943548387248
 20
103.1930730587554
 30
0.0
 10
181.5634394694136
 20
103.1915087225071
 30
0.0
 10
181.6822417411315
 20
103.1885645305327
 30
0.0
 10
181.7224270166016
 20
103.1875263274353
 30
0.0
 10
181.7958080640054
 20
103.1855924322207
 30
0.0
 10
181.8292176277481
 20
103.1846975449319
 30
0.0
 10
181.8594537354045
 20
103.1839137546595
 30
0.0
  0
SPLINE
  5
BB
330
1F
100
AcDbEntity
  8
0
  6
Continuous
 62
     7
370
    15
100
AcDbSpline
210
0.0
220
0.0
230
1.0
 70
     8
 71
     3
 72
    16
 73
    12
 74
     0
 42
0.00000001
 43
0.00000001
 12
1.0
 22
0.0
 32
0.0
 13
1.0
 23
0.0
 33
0.0
 40
0.0
 40
0.0
 40
0.0
 40
0.0
 40
0.0624999999999976
 40
0.0624999999999976
 40
0.1249999999999951
 40
0.1249999999999951
 40
0.2499999999999938
 40
0.2499999999999938
 40
0.4999999999999959
 40
0.4999999999999959
 40
1.0
 40
1.0
 40
1.0
 40
1.0
 10
181.8594537353673
 20
103.1839137546838
 30
0.0
 10
181.8710341429552
 20
103.1836135635724
 30
0.0
 10
181.8843436697165
 20
103.1822858153134
 30
0.0
 10
181.9136450998027
 20
103.1755871405384
 30
0.0
 10
181.928459199687
 20
103.1702289574327
 30
0.0
 10
181.9642876013898
 20
103.1531833082654
 30
0.0
 10
181.9784072257528
 20
103.1417207704896
 30
0.0
 10
182.0129113698413
 20
103.1101574451174
 30
0.0
 10
182.0240159205459
 20
103.0922601460721
 30
0.0
 10
182.0501920977621
 20
103.0420987284579
 30
0.0
 10
182.0544306242741
 20
103.0143543162613
 30
0.0
 10
182.0544306242741
 20
102.9896901543318
 30
0.0
  0
LINE
  5
BC
330
1F
100
AcDbEntity
  8
0
  6
Continuous
 62
     7
370
    15
100
AcDbLine
 10
182.0544306293
 20
118.0273974147
 30
0.0
 11
182.0544306293
 21
102.5094641205
 31
0.0
  0
SPLINE
  5
BD
330
1F
100
AcDbEntity
  8
0
  6
Continuous
 62
     7
370
    15
100
AcDbSpline
210
0.0
220
0.0
230
1.0
 70
     8
 71
     3
 72
    16
 73
    12
 74
     0
 42
0.00000001
 43
0.00000001
 12
1.0
 22
0.0
 32
0.0
 13
1.0
 23
0.0
 33
0.0
 40
0.0
 40
0.0
 40
0.0
 40
0.0
 40
0.5000000000000002
 40
0.5000000000000002
 40
0.7499999999999986
 40
0.7499999999999986
 40
0.8749999999999987
 40
0.8749999999999987
 40
0.9374999999999994
 40
0.9374999999999994
 40
1.0
 40
1.0
 40
1.0
 40
1.0
 10
182.0544306242741
 20
118.0273973168229
 30
0.0
 10
182.0544306242741
 20
118.1410898609508
 30
0.0
 10
182.0502843491962
 20
118.2554100223003
 30
0.0
 10
182.0243187538027
 20
118.4284583127974
 30
0.0
 10
182.0128578484253
 20
118.4876338199591
 30
0.0
 10
181.9785461106509
 20
118.5707569394273
 30
0.0
 10
181.9645213747213
 20
118.5988782555279
 30
0.0
 10
181.9284984116875
 20
118.6274940695054
 30
0.0
 10
181.9137439025978
 20
118.6332871174071
 30
0.0
 10
181.8843917414509
 20
118.6316936914701
 30
0.0
 10
181.8710518669469
 20
118.6251972881463
 30
0.0
 10
181.8594537353985
 20
118.6166815419432
 30
0.0
  0
SPLINE
  5
BE
330
1F
100
AcDbEntity
  8
0
  6
Continuous
 62
     7
370
    15
100
AcDbSpline
210
0.0
220
0.0
230
1.0
 70
     8
 71
     3
 72
    12
 73
     8
 74
     0
 42
0.00000001
 43
0.00000001
 12
1.0
 22
0.0
 32
0.0
 13
1.0
 23
0.0
 33
0.0
 40
0.0
 40
0.0
 40
0.0
 40
0.0
 40
0.2500000000000001
 40
0.2500000000000001
 40
0.5000000000000002
 40
0.5000000000000002
 40
1.0
 40
1.0
 40
1.0
 40
1.0
 10
181.8594537354056
 20
118.616681541934
 30
0.0
 10
181.8292552939644
 20
118.5945088098886
 30
0.0
 10
181.7958879386277
 20
118.575429154011
 30
0.0
 10
181.7227326627963
 20
118.5502561095684
 30
0.0
 10
181.6824799637715
 20
118.544699573152
 30
0.0
 10
181.5647512204947
 20
118.5556113841408
 30
0.0
 10
181.4942927724355
 20
118.5975471395536
 30
0.0
 10
181.4379183378169
 20
118.6467589219367
 30
0.0
  0
SPLINE
  5
BF
330
1F
100
AcDbEntity
  8
0
  6
Continuous
 62
     7
370
    15
100
AcDbSpline
210
0.0
220
0.0
230
1.0
 70
     8
 71
     3
 72
    12
 73
     8
 74
     0
 42
0.00000001
 43
0.00000001
 12
1.0
 22
0.0
 32
0.0
 13
1.0
 23
0.0
 33
0.0
 40
0.0
 40
0.0
 40
0.0
 40
0.0
 40
0.5
 40
0.5
 40
0.75
 40
0.75
 40
1.0
 40
1.0
 40
1.0
 40
1.0
 10
180.9331102807145
 20
119.863110313812
 30
0.0
 10
180.9768606325988
 20
119.6426633288385
 30
0.0
 10
181.029750783723
 20
119.427118339034
 30
0.0
 10
181.1413623268638
 20
119.1147042624635
 30
0.0
 10
181.1839216707669
 20
119.012624786848
 30
0.0
 10
181.2888989061032
 20
118.8181847742069
 30
0.0
 10
181.3504661491972
 20
118.7230998751435
 30
0.0
 10
181.437918337818
 20
118.6467589219359
 30
0.0
  0
SPLINE
  5
C0
330
1F
100
AcDbEntity
  8
0
  6
Continuous
 62
     7
370
    15
100
AcDbSpline
210
0.0
220
0.0
230
1.0
 70
     8
 71
     3
 72
    12
 73
     8
 74
     0
 42
0.00000001
 43
0.00000001
 12
1.0
 22
0.0
 32
0.0
 13
1.0
 23
0.0
 33
0.0
 40
0.0
 40
0.0
 40
0.0
 40
0.0
 40
0.2500000000000005
 40
0.2500000000000005
 40
0.5000000000000009
 40
0.5000000000000009
 40
1.0
 40
1.0
 40
1.0
 40
1.0
 10
181.4379183378229
 20
131.4518103632146
 30
0.0
 10
181.3494249302551
 20
131.3745604831063
 30
0.0
 10
181.2893668894892
 20
131.2812411592171
 30
0.0
 10
181.1835186165066
 20
131.0852081062476
 30
0.0
 10
181.1409850952291
 20
130.9828817480359
 30
0.0
 10
181.0298337884055
 20
130.67153734226
 30
0.0
 10
180.9769029313577
 20
130.456119089082
 30
0.0
 10
180.9331102807145
 20
130.2354589713341
 30
0.0
  0
SPLINE
  5
C1
330
1F
100
AcDbEntity
  8
0
  6
Continuous
 62
     7
370
    15
100
AcDbSpline
210
0.0
220
0.0
230
1.0
 70
     8
 71
     3
 72
    12
 73
     8
 74
     0
 42
0.00000001
 43
0.00000001
 12
1.0
 22
0.0
 32
0.0
 13
1.0
 23
0.0
 33
0.0
 40
0.0
 40
0.0
 40
0.0
 40
0.0
 40
0.5000000000000003
 40
0.5000000000000003
 40
0.7500000000000001
 40
0.7500000000000001
 40
1.0
 40
1.0
 40
1.0
 40
1.0
 10
181.4379183378229
 20
131.4518103632146
 30
0.0
 10
181.4942268861186
 20
131.5009646304585
 30
0.0
 10
181.5645015468367
 20
131.5429219490622
 30
0.0
 10
181.6825394611602
 20
131.5538816265947
 30
0.0
 10
181.7227157020142
 20
131.5483728683473
 30
0.0
 10
181.7966727966921
 20
131.5228156395584
 30
0.0
 10
181.8292891844036
 20
131.5040355917191
 30
0.0
 10
181.8594537353993
 20
131.4818877432023
 30
0.0
  0
SPLINE
  5
C2
330
1F
100
AcDbEntity
  8
0
  6
Continuous
 62
     7
370
    15
100
AcDbSpline
210
0.0
220
0.0
230
1.0
 70
     8
 71
     3
 72
    16
 73
    12
 74
     0
 42
0.00000001
 43
0.00000001
 12
1.0
 22
0.0
 32
0.0
 13
1.0
 23
0.0
 33
0.0
 40
0.0
 40
0.0
 40
0.0
 40
0.0
 40
0.0625000000000013
 40
0.0625000000000013
 40
0.1250000000000025
 40
0.1250000000000025
 40
0.2500000000000049
 40
0.2500000000000049
 40
0.5000000000000044
 40
0.5000000000000044
 40
1.0
 40
1.0
 40
1.0
 40
1.0
 10
181.8594537353675
 20
131.4818877431478
 30
0.0
 10
181.8710666352069
 20
131.4733611535526
 30
0.0
 10
181.8844178196394
 20
131.4668608920198
 30
0.0
 10
181.9138176592586
 20
131.4652914949023
 30
0.0
 10
181.9286583838138
 20
131.4711748855329
 30
0.0
 10
181.9644915917824
 20
131.4997225215834
 30
0.0
 10
181.978604799604
 20
131.5278895408892
 30
0.0
 10
182.0130961708229
 20
131.6116437993111
 30
0.0
 10
182.0241802419333
 20
131.6693572129326
 30
0.0
 10
182.0503030597293
 20
131.8429477495785
 30
0.0
 10
182.0544306242741
 20
131.9579758022204
 30
0.0
 10
182.0544306242741
 20
132.0711719683233
 30
0.0
  0
LINE
  5
C3
330
1F
100
AcDbEntity
  8
0
  6
Continuous
 62
     7
370
    15
100
AcDbLine
 10
182.0544306293
 20
147.5891051646
 30
0.0
 11
182.0544306293
 21
132.0711718705
 31
0.0
  0
SPLINE
  5
C4
330
1F
100
AcDbEntity
  8
0
  6
Continuous
 62
     7
370
    15
100
AcDbSpline
210
0.0
220
0.0
230
1.0
 70
     8
 71
     3
 72
    16
 73
    12
 74
     0
 42
0.00000001
 43
0.00000001
 12
1.0
 22
0.0
 32
0.0
 13
1.0
 23
0.0
 33
0.0
 40
0.0
 40
0.0
 40
0.0
 40
0.0
 40
0.5000000000000062
 40
0.5000000000000062
 40
0.7500000000000073
 40
0.7500000000000073
 40
0.8750000000000064
 40
0.8750000000000064
 40
0.9375000000000032
 40
0.9375000000000032
 40
1.0
 40
1.0
 40
1.0
 40
1.0
 10
182.0544306242741
 20
147.1088791308143
 30
0.0
 10
182.0544306242741
 20
147.0842079747714
 30
0.0
 10
182.0502649258142
 20
147.0566261433802
 30
0.0
 10
182.0240065974892
 20
147.0062832725568
 30
0.0
 10
182.0125028157516
 20
146.9879937744949
 30
0.0
 10
181.9783720564051
 20
146.9568387434579
 30
0.0
 10
181.9639501697344
 20
146.9451993682462
 30
0.0
 10
181.9283832012966
 20
146.9283173423151
 30
0.0
 10
181.9134314330019
 20
146.9229282385074
 30
0.0
 10
181.8844276146421
 20
146.9163077425629
 30
0.0
 10
181.8710122606329
 20
146.9149551543565
 30
0.0
 10
181.8594537353963
 20
146.9146555304849
 30
0.0
  0
SPLINE
  5
C5
330
1F
100
AcDbEntity
  8
0
  6
Continuous
 62
     7
370
    15
100
AcDbSpline
210
0.0
220
0.0
230
1.0
 70
     8
 71
     3
 72
    12
 73
     8
 74
     0
 42
0.00000001
 43
0.00000001
 12
1.0
 22
0.0
 32
0.0
 13
1.0
 23
0.0
 33
0.0
 40
0.0
 40
0.0
 40
0.0
 40
0.0
 40
0.2500000000000002
 40
0.2500000000000002
 40
0.5000000000000003
 40
0.5000000000000003
 40
1.0
 40
1.0
 40
1.0
 40
1.0
 10
181.8594537354056
 20
146.9146555304866
 30
0.0
 10
181.8292659588559
 20
146.913872993069
 30
0.0
 10
181.7959121547642
 20
146.9129796612505
 30
0.0
 10
181.7227859515683
 20
146.9110523524469
 30
0.0
 10
181.6825507485441
 20
146.9100128212343
 30
0.0
 10
181.564859118411
 20
146.907094937887
 30
0.0
 10
181.494478445251
 20
146.9054993318168
 30
0.0
 10
181.4379183378203
 20
146.9040783450489
 30
0.0
  0
SPLINE
  5
C6
330
1F
100
AcDbEntity
  8
0
  6
Continuous
 62
     7
370
    15
100
AcDbSpline
210
0.0
220
0.0
230
1.0
 70
     8
 71
     3
 72
    16
 73
    12
 74
     0
 42
0.00000001
 43
0.00000001
 12
1.0
 22
0.0
 32
0.0
 13
1.0
 23
0.0
 33
0.0
 40
0.0
 40
0.0
 40
0.0
 40
0.0
 40
0.25
 40
0.25
 40
0.375
 40
0.375
 40
0.5
 40
0.5
 40
0.75
 40
0.75
 40
1.0
 40
1.0
 40
1.0
 40
1.0
 10
180.9331102807145
 20
130.2354589713341
 30
0.0
 10
180.77187780323
 20
129.4230491960873
 30
0.0
 10
180.6513979635904
 20
128.5829709017025
 30
0.0
 10
180.5290174462771
 20
127.2816758523398
 30
0.0
 10
180.4980397858796
 20
126.840994816755
 30
0.0
 10
180.4564260482517
 20
125.9451551758239
 30
0.0
 10
180.4461901353189
 20
125.4984970446214
 30
0.0
 10
180.4460017382627
 20
124.1631870874815
 30
0.0
 10
180.4861464409004
 20
123.278691714174
 30
0.0
 10
180.6503001958399
 20
121.521441826148
 30
0.0
 10
180.7718518462495
 20
120.6756508797348
 30
0.0
 10
180.9331102807145
 20
119.863110313812
 30
0.0
  0
LINE
  5
C7
330
1F
100
AcDbEntity
  8
0
  6
Continuous
 62
     7
370
    15
100
AcDbLine
 10
180.0544306362
 20
131.5344627779
 30
0.0
 11
180.0544306362
 21
118.5641065072
 31
0.0
  0
LINE
  5
C8
330
1F
100
AcDbEntity
  8
0
  6
Continuous
 62
     7
370
    15
100
AcDbLine
 10
145.7544311607
 20
131.1035952363
 30
0.0
 11
145.7544311607
 21
118.9949740488
 31
0.0
  0
ARC
  5
C9
330
1F
100
AcDbEntity
  8
0
  6
Continuous
 62
     7
370
    15
100
AcDbCircle
 10
203.2892730376
 20
113.4693683701
 30
0.0
 40
2.68515788025725
100
AcDbArc
 50
269.2565072256
 51
309.7650175299
  0
ARC
  5
CA
330
1F
100
AcDbEntity
  8
0
  6
Continuous
 62
     7
370
    15
100
AcDbCircle
 10
203.2191287844
 20
113.4672746974
 30
0.0
 40
2.68307038207131
100
AcDbArc
 50
229.8608470503
 51
270.7538708591
  0
LINE
  5
CB
330
1F
100
AcDbEntity
  8
0
  6
Continuous
 62
     7
370
    15
100
AcDbLine
 10
144.2544318462
 20
130.6705823932
 30
0.0
 11
144.2544318462
 21
119.427986892
 31
0.0
  0
LINE
  5
CC
330
1F
100
AcDbEntity
  8
0
  6
Continuous
 62
     7
370
    15
100
AcDbLine
 10
145.7544311607
 20
103.8909209725
 30
0.0
 11
145.7544311607
 21
118.9949740488
 31
0.0
  0
LINE
  5
CD
330
1F
100
AcDbEntity
  8
0
  6
Continuous
 62
     7
370
    15
100
AcDbLine
 10
180.0544306362
 20
103.029184958
 30
0.0
 11
180.0544306362
 21
118.5641065072
 31
0.0
  0
LINE
  5
CE
330
1F
100
AcDbEntity
  8
0
  6
Continuous
 62
     7
370
    15
100
AcDbLine
 10
145.7544311607
 20
103.8909209725
 30
0.0
 11
180.0544306362
 21
103.029184958
 31
0.0
  0
ARC
  5
CF
330
1F
100
AcDbEntity
  8
0
  6
Continuous
 62
     7
370
    15
100
AcDbCircle
 10
180.2543675352
 20
103.0241627469
 30
0.0
 40
0.2000000000000066
100
AcDbArc
 50
88.5608333333
 51
178.5608333333
  0
LINE
  5
D0
330
1F
100
AcDbEntity
  8
0
  6
Continuous
 62
     7
370
    15
100
AcDbLine
 10
180.0544306362
 20
131.5344627779
 30
0.0
 11
180.0544306362
 21
147.0693843272
 31
0.0
  0
ARC
  5
D1
330
1F
100
AcDbEntity
  8
0
  6
Continuous
 62
     7
370
    15
100
AcDbCircle
 10
180.2543675352
 20
147.0744065383
 30
0.0
 40
0.1999999999999782
100
AcDbArc
 50
181.4391666667
 51
271.4391666667
  0
LINE
  5
D2
330
1F
100
AcDbEntity
  8
0
  6
Continuous
 62
     7
370
    15
100
AcDbLine
 10
145.7544311607
 20
131.1035952363
 30
0.0
 11
145.7544311607
 21
146.2076483127
 31
0.0
  0
LINE
  5
D3
330
1F
100
AcDbEntity
  8
0
  6
Continuous
 62
     7
370
    15
100
AcDbLine
 10
145.7544311607
 20
146.2076483127
 30
0.0
 11
180.0544306362
 21
147.0693843272
 31
0.0
  0
LINE
  5
D4
330
1F
100
AcDbEntity
  8
0
  6
Continuous
 62
     7
370
    15
100
AcDbLine
 10
180.2593907533
 20
146.8744696882
 30
0.0
 11
181.4379183534
 21
146.9040782955
 31
0.0
  0
LINE
  5
D5
330
1F
100
AcDbEntity
  8
0
  6
Continuous
 62
     7
370
    15
100
AcDbLine
 10
180.2593907533
 20
103.224099597
 30
0.0
 11
181.4379183534
 21
103.1944909897
 31
0.0
  0
LINE
  5
D6
330
1F
100
AcDbEntity
  8
0
  6
Continuous
 62
     7
370
    15
100
AcDbLine
 10
144.2544318462
 20
104.7569466587
 30
0.0
 11
145.7544311607
 21
103.8909209725
 31
0.0
  0
LINE
  5
D7
330
1F
100
AcDbEntity
  8
0
  6
Continuous
 62
     7
370
    15
100
AcDbLine
 10
144.2544318462
 20
104.7569466587
 30
0.0
 11
144.2544318462
 21
119.427986892
 31
0.0
  0
LINE
  5
D8
330
1F
100
AcDbEntity
  8
0
  6
Continuous
 62
     7
370
    15
100
AcDbLine
 10
144.2544318462
 20
145.3416226264
 30
0.0
 11
145.7544311607
 21
146.2076483127
 31
0.0
  0
LINE
  5
D9
330
1F
100
AcDbEntity
  8
0
  6
Continuous
 62
     7
370
    15
100
AcDbLine
 10
144.2544318462
 20
130.6705823932
 30
0.0
 11
144.2544318462
 21
145.3416226264
 31
0.0
  0
ELLIPSE
  5
DA
330
1F
100
AcDbEntity
  8
0
  6
Continuous
 62
     7
370
    15
100
AcDbEllipse
 10
218.9826971735
 20
153.1859367619
 30
0.0
 11
-5.998711941227698
 21
8.478905253515023
 31
0.0
210
0.0
220
0.0
230
1.0
 40
0.0146620728
 41
1.383391069609208
 42
1.48679777548518
  0
SPLINE
  5
DB
330
1F
100
AcDbEntity
  8
0
  6
Continuous
 62
     7
370
    15
100
AcDbSpline
210
0.0
220
0.0
230
1.0
 70
     8
 71
     3
 72
     8
 73
     4
 74
     0
 42
0.00000001
 43
0.00000001
 12
1.0
 22
0.0
 32
0.0
 13
1.0
 23
0.0
 33
0.0
 40
0.0
 40
0.0
 40
0.0
 40
0.0
 40
1.0
 40
1.0
 40
1.0
 40
1.0
 10
220.4530294625843
 20
93.04423856439526
 30
0.0
 10
221.2956855131804
 20
89.82417485852986
 30
0.0
 10
222.1456204284223
 20
86.60610750276096
 30
0.0
 10
222.9987938967353
 20
83.38892837421574
 30
0.0
  0
SPLINE
  5
DC
330
1F
100
AcDbEntity
  8
0
  6
Continuous
 62
     7
370
    15
100
AcDbSpline
210
0.0
220
0.0
230
1.0
 70
     8
 71
     3
 72
    10
 73
     6
 74
     0
 42
0.00000001
 43
0.00000001
 12
1.0
 22
0.0
 32
0.0
 13
1.0
 23
0.0
 33
0.0
 40
0.0
 40
0.0
 40
0.0
 40
0.0
 40
0.5
 40
0.5
 40
1.0
 40
1.0
 40
1.0
 40
1.0
 10
219.4871036362952
 20
93.81436883890112
 30
0.0
 10
219.7110935186367
 20
93.81123525528504
 30
0.0
 10
219.9260266583435
 20
93.7314221059935
 30
0.0
 10
220.272553162902
 20
93.45262323950573
 30
0.0
 10
220.3965027929712
 20
93.2602454121542
 30
0.0
 10
220.4530294625843
 20
93.04423856439526
 30
0.0
  0
LINE
  5
DD
330
1F
100
AcDbEntity
  8
0
  6
Continuous
 62
     7
370
    15
100
AcDbLine
 10
245.139059397
 20
92.8866481241
 30
0.0
 11
242.842853787
 21
119.1071690824
 31
0.0
  0
LINE
  5
DE
330
1F
100
AcDbEntity
  8
0
  6
Continuous
 62
     7
370
    15
100
AcDbLine
 10
232.940253588
 20
93.8198854979
 30
0.0
 11
245.139059397
 21
92.8866481241
 31
0.0
  0
ARC
  5
DF
330
1F
100
AcDbEntity
  8
0
  6
Continuous
 62
     7
370
    15
100
AcDbCircle
 10
232.7400260744
 20
91.4891117442
 30
0.0
 40
2.339358319786234
100
AcDbArc
 50
85.0900018677
 51
264.9195865531
  0
LINE
  5
E0
330
1F
100
AcDbEntity
  8
0
  6
Continuous
 62
     7
370
    15
100
AcDbLine
 10
233.7822846794
 20
89.063360339
 30
0.0
 11
232.5328670168
 21
89.1589438375
 31
0.0
  0
LINE
  5
E1
330
1F
100
AcDbEntity
  8
0
  6
Continuous
 62
     7
370
    15
100
AcDbLine
 10
234.3868024373
 20
82.1603378113
 30
0.0
 11
233.7822846794
 21
89.063360339
 31
0.0
  0
ELLIPSE
  5
E2
330
1F
100
AcDbEntity
  8
0
  6
Continuous
 62
     7
370
    15
100
AcDbEllipse
 10
272.9859629446
 20
118.3227584976
 30
0.0
 11
344.5590134386899
 21
-32.42083565861566
 31
0.0
210
0.0
220
0.0
230
1.0
 40
0.1150714178
 41
4.577635081447087
 42
4.610962202109856
  0
CIRCLE
  5
E3
330
1F
100
AcDbEntity
  8
0
  6
Continuous
 62
     7
370
    15
100
AcDbCircle
 10
235.9218772895
 20
98.9172952224
 30
0.0
 40
3.974314780495136
  0
LINE
  5
E4
330
1F
100
AcDbEntity
  8
0
  6
Continuous
 62
     7
370
    15
100
AcDbLine
 10
242.842853787
 20
119.1071690824
 30
0.0
 11
218.3555260027
 21
153.8096712735
 31
0.0
  0
LINE
  5
E5
330
1F
100
AcDbEntity
  8
0
  6
Continuous
 62
     7
370
    15
100
AcDbLine
 10
222.9987948859
 20
83.3889273759
 30
0.0
 11
222.9882001603
 21
83.3855038341
 31
0.0
  0
ARC
  5
E6
330
1F
100
AcDbEntity
  8
0
  6
Continuous
 62
     7
370
    15
100
AcDbCircle
 10
232.2157681722
 20
91.9518533456
 30
0.0
 40
2.31089306025558
100
AcDbArc
 50
233.8415842601
 51
265.6771953566
  0
ELLIPSE
  5
E7
330
1F
100
AcDbEntity
  8
0
  6
Continuous
 62
     7
370
    15
100
AcDbEllipse
 10
230.3579544347
 20
122.8031427329
 30
0.0
 11
-4.075663676725355
 21
40.6412254508693
 31
0.0
210
0.0
220
0.0
230
1.0
 40
0.0928940858
 41
3.122312449060421
 42
3.12927396233251
  0
LINE
  5
E8
330
1F
100
AcDbEntity
  8
0
  6
Continuous
 62
     7
370
    15
100
AcDbLine
 10
231.734269085
 20
89.9531645533
 30
0.0
 11
233.2891866291
 21
89.8342123088
 31
0.0
  0
LINE
  5
E9
330
1F
100
AcDbEntity
  8
0
  6
Continuous
 62
     7
370
    15
100
AcDbLine
 10
233.3140566671
 20
89.5501887258
 30
0.0
 11
233.2910008455
 21
89.5519507881
 31
0.0
  0
LINE
  5
EA
330
1F
100
AcDbEntity
  8
0
  6
Continuous
 62
     7
370
    15
100
AcDbLine
 10
233.2910008455
 20
89.5519507881
 30
0.0
 11
233.7822846794
 21
89.063360339
 31
0.0
  0
ARC
  5
EB
330
1F
100
AcDbEntity
  8
0
  6
Continuous
 62
     7
370
    15
100
AcDbCircle
 10
232.1965039256
 20
91.7043511234
 30
0.0
 40
2.062642949337202
100
AcDbArc
 50
225.1870526982
 51
265.6925790411
  0
LINE
  5
EC
330
1F
100
AcDbEntity
  8
0
  6
Continuous
 62
     7
370
    15
100
AcDbLine
 10
232.4667840922
 20
93.8079533931
 30
0.0
 11
232.9443923855
 21
93.7714157459
 31
0.0
  0
LWPOLYLINE
  5
ED
330
1F
100
AcDbEntity
  8
0
  6
Continuous
 62
     7
370
    15
100
AcDbPolyline
 90
        3
 70
   128
 43
0.0
 10
230.6961610639
 20
90.3272880074
 10
231.1554819072
 20
90.0823650714
 10
231.734269085
 20
89.9531645533
  0
SPLINE
  5
EE
330
1F
100
AcDbEntity
  8
0
  6
HIDDEN
 62
     7
370
     0
100
AcDbSpline
210
0.0
220
0.0
230
1.0
 70
     8
 71
     3
 72
    60
 73
    56
 74
     0
 42
0.00000001
 43
0.00000001
 12
1.0
 22
0.0
 32
0.0
 13
1.0
 23
0.0
 33
0.0
 40
-0.0625
 40
-0.0625
 40
0.0
 40
0.0
 40
0.0312500000000001
 40
0.0312500000000001
 40
0.0625000000000002
 40
0.0625000000000002
 40
0.0937500000000002
 40
0.0937500000000002
 40
0.1250000000000003
 40
0.1250000000000003
 40
0.1875000000000004
 40
0.1875000000000004
 40
0.2500000000000006
 40
0.2500000000000006
 40
0.2812500000000004
 40
0.2812500000000004
 40
0.3125000000000003
 40
0.3125000000000003
 40
0.3437500000000002
 40
0.3437500000000002
 40
0.3750000000000001
 40
0.3750000000000001
 40
0.4062499999999999
 40
0.4062499999999999
 40
0.4374999999999998
 40
0.4374999999999998
 40
0.4687499999999997
 40
0.4687499999999997
 40
0.4999999999999996
 40
0.4999999999999996
 40
0.5624999999999993
 40
0.5624999999999993
 40
0.6249999999999992
 40
0.6249999999999992
 40
0.6562499999999993
 40
0.6562499999999993
 40
0.6874999999999993
 40
0.6874999999999993
 40
0.7187499999999994
 40
0.7187499999999994
 40
0.7499999999999996
 40
0.7499999999999996
 40
0.7812499999999997
 40
0.7812499999999997
 40
0.8124999999999997
 40
0.8124999999999997
 40
0.8437499999999998
 40
0.8437499999999998
 40
0.8749999999999999
 40
0.8749999999999999
 40
0.90625
 40
0.90625
 40
0.9375
 40
0.9375
 40
1.0
 40
1.0
 40
1.03125
 40
1.03125
 10
196.2544306242741
 20
124.7849541174864
 30
0.0
 10
196.2544306242741
 20
125.1814499051164
 30
0.0
 10
196.2414587657853
 20
125.3113999661205
 30
0.0
 10
196.190638596093
 20
125.5670528994806
 30
0.0
 10
196.152171272626
 20
125.6940824060299
 30
0.0
 10
196.0517730365539
 20
125.9362705371544
 30
0.0
 10
195.9903400055807
 20
126.0511320297073
 30
0.0
 10
195.8452051740358
 20
126.2685122255315
 30
0.0
 10
195.7607500566279
 20
126.3714097927301
 30
0.0
 10
195.4840306062696
 20
126.6480768317379
 30
0.0
 10
195.2609537143516
 20
126.7970749222179
 30
0.0
 10
194.7796703521313
 20
126.9965860626826
 30
0.0
 10
194.5164399331402
 20
127.0491441656793
 30
0.0
 10
194.1250377314524
 20
127.0493544480573
 30
0.0
 10
193.9925147033435
 20
127.0363686773302
 30
0.0
 10
193.7359842501024
 20
126.9853415291164
 30
0.0
 10
193.6112974158058
 20
126.947586329966
 30
0.0
 10
193.3691181535703
 20
126.8474479970573
 30
0.0
 10
193.2520246214202
 20
126.7848423296457
 30
0.0
 10
193.0353096180648
 20
126.6401090363808
 30
0.0
 10
192.934290791202
 20
126.5574816891012
 30
0.0
 10
192.7475059037499
 20
126.3708766358496
 30
0.0
 10
192.6646490225537
 20
126.2697615719734
 30
0.0
 10
192.5197647574799
 20
126.0532287679836
 30
0.0
 10
192.4571272496589
 20
125.9363585603825
 30
0.0
 10
192.3566784262592
 20
125.6940606897323
 30
0.0
 10
192.3188273252419
 20
125.5693966912714
 30
0.0
 10
192.2676057599856
 20
125.3131096472075
 30
0.0
 10
192.2544776333684
 20
125.1805376514619
 30
0.0
 10
192.2543369930281
 20
124.7889334586879
 30
0.0
 10
192.3066617424
 20
124.525768127364
 30
0.0
 10
192.5057728044572
 20
124.0442627581908
 30
0.0
 10
192.6546351409145
 20
123.8210112187067
 30
0.0
 10
192.93095610024
 20
123.5441549198179
 30
0.0
 10
193.0337197486135
 20
123.4596414729742
 30
0.0
 10
193.251103305993
 20
123.3142241995339
 30
0.0
 10
193.3659020739495
 20
123.2527130004755
 30
0.0
 10
193.6077787973735
 20
123.1521831522207
 30
0.0
 10
193.7349324053737
 20
123.1135381290027
 30
0.0
 10
193.9905984148063
 20
123.0624818014517
 30
0.0
 10
194.1204644525623
 20
123.0494169429061
 30
0.0
 10
194.3844169792939
 20
123.0491543221081
 30
0.0
 10
194.514821302718
 20
123.0620313223522
 30
0.0
 10
194.7704720660973
 20
123.112617326158
 30
0.0
 10
194.8973376152117
 20
123.1508936907798
 30
0.0
 10
195.1398580731576
 20
123.2511645582598
 30
0.0
 10
195.2547847118179
 20
123.3125205824007
 30
0.0
 10
195.4721561806499
 20
123.4573668775735
 30
0.0
 10
195.5751699933122
 20
123.5417443920682
 30
0.0
 10
195.7598705388941
 20
123.7261517122564
 30
0.0
 10
195.8427002731507
 20
123.8267247755259
 30
0.0
 10
195.9889527117482
 20
124.0449509161049
 30
0.0
 10
196.0513211925406
 20
124.1615060260261
 30
0.0
 10
196.2012773441074
 20
124.5223556200599
 30
0.0
 10
196.2544306242741
 20
124.7849541174864
 30
0.0
 10
196.2544306242741
 20
125.1814499051164
 30
0.0
  0
SPLINE
  5
EF
330
1F
100
AcDbEntity
  8
0
  6
HIDDEN
 62
     7
370
     0
100
AcDbSpline
210
0.0
220
0.0
230
1.0
 70
     8
 71
     3
 72
    12
 73
     8
 74
     0
 42
0.00000001
 43
0.00000001
 12
1.0
 22
0.0
 32
0.0
 13
1.0
 23
0.0
 33
0.0
 40
0.0
 40
0.0
 40
0.0
 40
0.0
 40
0.5
 40
0.5
 40
0.75
 40
0.75
 40
1.0
 40
1.0
 40
1.0
 40
1.0
 10
192.3491747359483
 20
115.1399153218878
 30
0.0
 10
192.3798969778674
 20
115.252471121297
 30
0.0
 10
192.4227341924026
 20
115.3652289810366
 30
0.0
 10
192.5221612166024
 20
115.5147698668329
 30
0.0
 10
192.561913411419
 20
115.5620625985398
 30
0.0
 10
192.6599548682773
 20
115.6357988918613
 30
0.0
 10
192.7195109238648
 20
115.661218211237
 30
0.0
 10
192.7821874378406
 20
115.661218211237
 30
0.0
  0
LINE
  5
F0
330
1F
100
AcDbEntity
  8
0
  6
HIDDEN
 62
     7
370
     0
100
AcDbLine
 10
192.7821876207
 20
115.6612178143
 30
0.0
 11
195.7266738364
 21
115.6612178143
 31
0.0
  0
SPLINE
  5
F1
330
1F
100
AcDbEntity
  8
0
  6
HIDDEN
 62
     7
370
     0
100
AcDbSpline
210
0.0
220
0.0
230
1.0
 70
     8
 71
     3
 72
    12
 73
     8
 74
     0
 42
0.00000001
 43
0.00000001
 12
1.0
 22
0.0
 32
0.0
 13
1.0
 23
0.0
 33
0.0
 40
0.0
 40
0.0
 40
0.0
 40
0.0
 40
0.2500000000000004
 40
0.2500000000000004
 40
0.5000000000000009
 40
0.5000000000000009
 40
1.0
 40
1.0
 40
1.0
 40
1.0
 10
195.7266738107077
 20
115.661218211237
 30
0.0
 10
195.789753849201
 20
115.661218211237
 30
0.0
 10
195.8489024713825
 20
115.6358538920221
 30
0.0
 10
195.9473750214515
 20
115.5616890316491
 30
0.0
 10
195.9864116334363
 20
115.515168691095
 30
0.0
 10
196.0863081002153
 20
115.3650263482497
 30
0.0
 10
196.1287289812819
 20
115.2533331412776
 30
0.0
 10
196.1596865125999
 20
115.1399153218878
 30
0.0
  0
ELLIPSE
  5
F2
330
1F
100
AcDbEntity
  8
0
  6
HIDDEN
 62
     7
370
     0
100
AcDbEllipse
 10
179.9072764349
 20
125.0492846426
 30
0.0
 11
-14.75368316065612
 21
31.09325491558117
 31
0.0
210
0.0
220
0.0
230
1.0
 40
0.3419987131
 41
3.300734856217128
 42
4.231496223360779
  0
SPLINE
  5
F3
330
1F
100
AcDbEntity
  8
0
  6
HIDDEN
 62
     7
370
     0
100
AcDbSpline
210
0.0
220
0.0
230
1.0
 70
     8
 71
     3
 72
    12
 73
     8
 74
     0
 42
0.00000001
 43
0.00000001
 12
1.0
 22
0.0
 32
0.0
 13
1.0
 23
0.0
 33
0.0
 40
0.0
 40
0.0
 40
0.0
 40
0.0
 40
0.5000000000000028
 40
0.5000000000000028
 40
0.7500000000000013
 40
0.7500000000000013
 40
1.0
 40
1.0
 40
1.0
 40
1.0
 10
196.1596865125999
 20
95.14854218245583
 30
0.0
 10
196.1289642706808
 20
95.11124019950279
 30
0.0
 10
196.0861270561457
 20
95.0746283674564
 30
0.0
 10
195.9867000319459
 20
95.0268635841712
 30
0.0
 10
195.9469478371292
 20
95.01190606868884
 30
0.0
 10
195.848906380271
 20
94.98871612291967
 30
0.0
 10
195.7893503246835
 20
94.98079268369996
 30
0.0
 10
195.7266738107077
 20
94.98079268369996
 30
0.0
  0
LINE
  5
F4
330
1F
100
AcDbEntity
  8
0
  6
HIDDEN
 62
     7
370
     0
100
AcDbLine
 10
195.7266738364
 20
94.9807921257
 30
0.0
 11
192.7821876207
 21
94.9807921257
 31
0.0
  0
SPLINE
  5
F5
330
1F
100
AcDbEntity
  8
0
  6
HIDDEN
 62
     7
370
     0
100
AcDbSpline
210
0.0
220
0.0
230
1.0
 70
     8
 71
     3
 72
    12
 73
     8
 74
     0
 42
0.00000001
 43
0.00000001
 12
1.0
 22
0.0
 32
0.0
 13
1.0
 23
0.0
 33
0.0
 40
0.0
 40
0.0
 40
0.0
 40
0.0
 40
0.2500000000000009
 40
0.2500000000000009
 40
0.5000000000000018
 40
0.5000000000000018
 40
1.0
 40
1.0
 40
1.0
 40
1.0
 10
192.7821874378406
 20
94.98079268369996
 30
0.0
 10
192.7191073993472
 20
94.98079268369996
 30
0.0
 10
192.6599587771658
 20
94.9886986099124
 30
0.0
 10
192.5614862270967
 20
95.01202377134865
 30
0.0
 10
192.522449615112
 20
95.02673656118036
 30
0.0
 10
192.422553148333
 20
95.07469236191127
 30
0.0
 10
192.3801322672663
 20
95.11095451849133
 30
0.0
 10
192.3491747359484
 20
95.14854218245583
 30
0.0
  0
ELLIPSE
  5
F6
330
1F
100
AcDbEntity
  8
0
  6
HIDDEN
 62
     7
370
     0
100
AcDbEllipse
 10
208.6015848136
 20
125.0492846426
 30
0.0
 11
14.75368316065615
 21
31.09325491558117
 31
0.0
210
0.0
220
0.0
230
1.0
 40
0.3419987131
 41
2.051689083818822
 42
2.982450450962499
  0
SPLINE
  5
F7
330
1F
100
AcDbEntity
  8
0
  6
HIDDEN
 62
     7
370
     0
100
AcDbSpline
210
0.0
220
0.0
230
1.0
 70
     8
 71
     3
 72
    12
 73
     8
 74
     0
 42
0.00000001
 43
0.00000001
 12
1.0
 22
0.0
 32
0.0
 13
1.0
 23
0.0
 33
0.0
 40
0.0
 40
0.0
 40
0.0
 40
0.0
 40
0.5000000000000018
 40
0.5000000000000018
 40
0.7500000000000009
 40
0.7500000000000009
 40
1.0
 40
1.0
 40
1.0
 40
1.0
 10
192.3491747359484
 20
154.9500271026904
 30
0.0
 10
192.3798969778675
 20
154.9873290856434
 30
0.0
 10
192.4227341924026
 20
155.0239409176898
 30
0.0
 10
192.5221612166024
 20
155.071705700975
 30
0.0
 10
192.5619134114191
 20
155.0866632164574
 30
0.0
 10
192.6599548682773
 20
155.1098531622266
 30
0.0
 10
192.7195109238647
 20
155.1177766014463
 30
0.0
 10
192.7821874378406
 20
155.1177766014463
 30
0.0
  0
LINE
  5
F8
330
1F
100
AcDbEntity
  8
0
  6
HIDDEN
 62
     7
370
     0
100
AcDbLine
 10
192.7821876207
 20
155.1177771594
 30
0.0
 11
195.7266738364
 21
155.1177771594
 31
0.0
  0
SPLINE
  5
F9
330
1F
100
AcDbEntity
  8
0
  6
HIDDEN
 62
     7
370
     0
100
AcDbSpline
210
0.0
220
0.0
230
1.0
 70
     8
 71
     3
 72
    12
 73
     8
 74
     0
 42
0.00000001
 43
0.00000001
 12
1.0
 22
0.0
 32
0.0
 13
1.0
 23
0.0
 33
0.0
 40
0.0
 40
0.0
 40
0.0
 40
0.0
 40
0.2499999999999991
 40
0.2499999999999991
 40
0.4999999999999981
 40
0.4999999999999981
 40
1.0
 40
1.0
 40
1.0
 40
1.0
 10
195.7266738107077
 20
155.1177766014463
 30
0.0
 10
195.789753849201
 20
155.1177766014463
 30
0.0
 10
195.8489024713825
 20
155.1098706752339
 30
0.0
 10
195.9473750214515
 20
155.0865455137976
 30
0.0
 10
195.9864116334363
 20
155.0718327239659
 30
0.0
 10
196.0863081002153
 20
155.023876923235
 30
0.0
 10
196.1287289812819
 20
154.9876147666549
 30
0.0
 10
196.1596865125999
 20
154.9500271026904
 30
0.0
  0
ELLIPSE
  5
FA
330
1F
100
AcDbEntity
  8
0
  6
HIDDEN
 62
     7
370
     0
100
AcDbEllipse
 10
179.9072764349
 20
125.0492846426
 30
0.0
 11
14.75368316065624
 21
31.09325491558117
 31
0.0
210
0.0
220
0.0
230
1.0
 40
0.3419987131
 41
5.193281737408638
 42
6.124043104552343
  0
SPLINE
  5
FB
330
1F
100
AcDbEntity
  8
0
  6
HIDDEN
 62
     7
370
     0
100
AcDbSpline
210
0.0
220
0.0
230
1.0
 70
     8
 71
     3
 72
    12
 73
     8
 74
     0
 42
0.00000001
 43
0.00000001
 12
1.0
 22
0.0
 32
0.0
 13
1.0
 23
0.0
 33
0.0
 40
0.0
 40
0.0
 40
0.0
 40
0.0
 40
0.5000000000000029
 40
0.5000000000000029
 40
0.7500000000000014
 40
0.7500000000000014
 40
1.0
 40
1.0
 40
1.0
 40
1.0
 10
196.1596865125999
 20
134.9586539632587
 30
0.0
 10
196.1289642706808
 20
134.8460981638495
 30
0.0
 10
196.0861270561457
 20
134.7333403041099
 30
0.0
 10
195.9867000319459
 20
134.5837994183135
 30
0.0
 10
195.9469478371292
 20
134.5365066866067
 30
0.0
 10
195.848906380271
 20
134.4627703932852
 30
0.0
 10
195.7893503246835
 20
134.4373510739095
 30
0.0
 10
195.7266738107077
 20
134.4373510739095
 30
0.0
  0
LINE
  5
FC
330
1F
100
AcDbEntity
  8
0
  6
HIDDEN
 62
     7
370
     0
100
AcDbLine
 10
195.7266738364
 20
134.4373514708
 30
0.0
 11
192.7821876207
 21
134.4373514708
 31
0.0
  0
SPLINE
  5
FD
330
1F
100
AcDbEntity
  8
0
  6
HIDDEN
 62
     7
370
     0
100
AcDbSpline
210
0.0
220
0.0
230
1.0
 70
     8
 71
     3
 72
    12
 73
     8
 74
     0
 42
0.00000001
 43
0.00000001
 12
1.0
 22
0.0
 32
0.0
 13
1.0
 23
0.0
 33
0.0
 40
0.0
 40
0.0
 40
0.0
 40
0.0
 40
0.2500000000000009
 40
0.2500000000000009
 40
0.5000000000000019
 40
0.5000000000000019
 40
1.0
 40
1.0
 40
1.0
 40
1.0
 10
192.7821874378406
 20
134.4373510739095
 30
0.0
 10
192.7191073993472
 20
134.4373510739095
 30
0.0
 10
192.6599587771658
 20
134.4627153931245
 30
0.0
 10
192.5614862270967
 20
134.5368802534974
 30
0.0
 10
192.522449615112
 20
134.5834005940515
 30
0.0
 10
192.422553148333
 20
134.7335429368968
 30
0.0
 10
192.3801322672663
 20
134.8452361438689
 30
0.0
 10
192.3491747359483
 20
134.9586539632587
 30
0.0
  0
ELLIPSE
  5
FE
330
1F
100
AcDbEntity
  8
0
  6
HIDDEN
 62
     7
370
     0
100
AcDbEllipse
 10
208.6015848136
 20
125.0492846426
 30
0.0
 11
-14.75368316065624
 21
31.09325491558117
 31
0.0
210
0.0
220
0.0
230
1.0
 40
0.3419987131
 41
0.1591422026272858
 42
1.08990356977096
  0
ELLIPSE
  5
FF
330
1F
100
AcDbEntity
  8
0
  6
HIDDEN
 62
     7
370
     0
100
AcDbEllipse
 10
238.4848318598
 20
125.0492846426
 30
0.0
 11
-22.41445668029277
 21
31.49663578142495
 31
0.0
210
0.0
220
0.0
230
1.0
 40
0.0205386817
 41
6.268570076028066
 42
6.872117209833384
  0
LINE
  5
100
330
1F
100
AcDbEntity
  8
0
  6
HIDDEN
 62
     7
370
     0
100
AcDbLine
 10
182.2544306243
 20
94.0492851492
 30
0.0
 11
182.2544306243
 21
156.0492841359
 31
0.0
  0
LWPOLYLINE
  5
101
330
1F
100
AcDbEntity
  8
0
  6
HIDDEN
 62
     7
370
     0
100
AcDbPolyline
 90
       23
 70
   128
 43
0.0
 10
205.4767969722
 20
111.0540591013
 10
205.5999252671
 20
111.1794104632
 10
205.9573370689
 20
111.6720214319
 10
206.1792134965
 20
112.2211580929
 10
206.2544308329
 20
112.7992849629
 10
206.1792134965
 20
113.3774109017
 10
205.9573370689
 20
113.9265475627
 10
205.5999252671
 20
114.4191585314
 10
205.1249004627
 20
114.830542339
 10
204.5560821617
 20
115.1400701907
 10
203.9219930494
 20
115.3322215956
 10
203.2544303412
 20
115.3973610904
 10
202.5868676329
 20
115.3322215956
 10
201.9527785206
 20
115.1400701907
 10
201.3839620823
 20
114.830542339
 10
200.9089354152
 20
114.4191585314
 10
200.5515236134
 20
113.9265475627
 10
200.3296471858
 20
113.3774109017
 10
200.2544298494
 20
112.7992849629
 10
200.3296471858
 20
112.2211580929
 10
200.5515236134
 20
111.6720214319
 10
200.9089354152
 20
111.1794104632
 10
201.0353866691
 20
111.0508907419
  0
LINE
  5
102
330
1F
100
AcDbEntity
  8
0
  6
HIDDEN
 62
     7
370
     0
100
AcDbLine
 10
182.2544306243
 20
100.7992839273
 30
0.0
 11
182.2544306243
 21
149.2810481992
 31
0.0
  0
SPLINE
  5
103
330
1F
100
AcDbEntity
  8
0
  6
HIDDEN
 62
     7
370
     0
100
AcDbSpline
210
0.0
220
0.0
230
1.0
 70
     8
 71
     3
 72
    12
 73
     8
 74
     0
 42
0.00000001
 43
0.00000001
 12
1.0
 22
0.0
 32
0.0
 13
1.0
 23
0.0
 33
0.0
 40
0.0
 40
0.0
 40
0.0
 40
0.0
 40
0.4999999999999987
 40
0.4999999999999987
 40
0.7499999999999994
 40
0.7499999999999994
 40
1.0
 40
1.0
 40
1.0
 40
1.0
 10
181.4379183378188
 20
140.501552624411
 30
0.0
 10
181.4943245164994
 20
140.453730250749
 30
0.0
 10
181.5644874179715
 20
140.4134594038078
 30
0.0
 10
181.6824981313634
 20
140.4054135353281
 30
0.0
 10
181.7227039149601
 20
140.4119761336664
 30
0.0
 10
181.7964246116951
 20
140.43935822812
 30
0.0
 10
181.8292853334826
 20
140.4591197186508
 30
0.0
 10
181.8594537354126
 20
140.4820524298394
 30
0.0
  0
SPLINE
  5
104
330
1F
100
AcDbEntity
  8
0
  6
HIDDEN
 62
     7
370
     0
100
AcDbSpline
210
0.0
220
0.0
230
1.0
 70
     8
 71
     3
 72
    16
 73
    12
 74
     0
 42
0.00000001
 43
0.00000001
 12
1.0
 22
0.0
 32
0.0
 13
1.0
 23
0.0
 33
0.0
 40
0.0
 40
0.0
 40
0.0
 40
0.0
 40
0.0625000000000001
 40
0.0625000000000001
 40
0.1250000000000002
 40
0.1250000000000002
 40
0.2499999999999939
 40
0.2499999999999939
 40
0.499999999999996
 40
0.499999999999996
 40
1.0
 40
1.0
 40
1.0
 40
1.0
 10
181.8594537353675
 20
140.4820524298875
 30
0.0
 10
181.8710666352068
 20
140.4908800528689
 30
0.0
 10
181.8844178196393
 20
140.4987144347508
 30
0.0
 10
181.9138176592585
 20
140.5070245608232
 30
0.0
 10
181.9286583838137
 20
140.5065287415882
 30
0.0
 10
181.9644915917824
 20
140.4950777706188
 30
0.0
 10
181.9786047996039
 20
140.4783972697602
 30
0.0
 10
182.0130961708229
 20
140.4262765840032
 30
0.0
 10
182.0241802419333
 20
140.3864870899782
 30
0.0
 10
182.0503030597293
 20
140.263150457881
 30
0.0
 10
182.0544306242741
 20
140.1757290473824
 30
0.0
 10
182.0544306242741
 20
140.0869918050642
 30
0.0
  0
LINE
  5
105
330
1F
100
AcDbEntity
  8
0
  6
HIDDEN
 62
     7
370
     0
100
AcDbLine
 10
182.0544306293
 20
110.0115775894
 30
0.0
 11
182.0544306293
 21
140.0869916957
 31
0.0
  0
SPLINE
  5
106
330
1F
100
AcDbEntity
  8
0
  6
HIDDEN
 62
     7
370
     0
100
AcDbSpline
210
0.0
220
0.0
230
1.0
 70
     8
 71
     3
 72
    16
 73
    12
 74
     0
 42
0.00000001
 43
0.00000001
 12
1.0
 22
0.0
 32
0.0
 13
1.0
 23
0.0
 33
0.0
 40
0.0
 40
0.0
 40
0.0
 40
0.0
 40
0.5000000000000031
 40
0.5000000000000031
 40
0.7500000000000047
 40
0.7500000000000047
 40
0.8750000000000023
 40
0.8750000000000023
 40
0.9375000000000011
 40
0.9375000000000011
 40
1.0
 40
1.0
 40
1.0
 40
1.0
 10
182.0544306242741
 20
110.0115774800819
 30
0.0
 10
182.0544306242741
 20
109.9224511148932
 30
0.0
 10
182.0502843491962
 20
109.8355897472798
 30
0.0
 10
182.0243187538026
 20
109.7126075007857
 30
0.0
 10
182.0128578484252
 20
109.6718362055544
 30
0.0
 10
181.9785461106509
 20
109.6201318855547
 30
0.0
 10
181.9645213747212
 20
109.6034615189643
 30
0.0
 10
181.9284984116875
 20
109.5920092985075
 30
0.0
 10
181.9137439025978
 20
109.5915562522325
 30
0.0
 10
181.8843917414509
 20
109.5998715734487
 30
0.0
 10
181.8710518669468
 20
109.6077004585269
 30
0.0
 10
181.8594537353985
 20
109.6165168552896
 30
0.0
  0
SPLINE
  5
107
330
1F
100
AcDbEntity
  8
0
  6
HIDDEN
 62
     7
370
     0
100
AcDbSpline
210
0.0
220
0.0
230
1.0
 70
     8
 71
     3
 72
    12
 73
     8
 74
     0
 42
0.00000001
 43
0.00000001
 12
1.0
 22
0.0
 32
0.0
 13
1.0
 23
0.0
 33
0.0
 40
0.0
 40
0.0
 40
0.0
 40
0.0
 40
0.2499999999999994
 40
0.2499999999999994
 40
0.4999999999999989
 40
0.4999999999999989
 40
1.0
 40
1.0
 40
1.0
 40
1.0
 10
181.8594537354055
 20
109.6165168552985
 30
0.0
 10
181.8292618936883
 20
109.6394673843963
 30
0.0
 10
181.7959029242737
 20
109.6594368584205
 30
0.0
 10
181.7227656396931
 20
109.686537992046
 30
0.0
 10
181.6825237670392
 20
109.6931387326914
 30
0.0
 10
181.5648179900707
 20
109.6851698581847
 30
0.0
 10
181.4944075122913
 20
109.6449094000168
 30
0.0
 10
181.437918337823
 20
109.5970166607387
 30
0.0
  0
SPLINE
  5
108
330
1F
100
AcDbEntity
  8
0
  6
HIDDEN
 62
     7
370
     0
100
AcDbSpline
210
0.0
220
0.0
230
1.0
 70
     8
 71
     3
 72
    12
 73
     8
 74
     0
 42
0.00000001
 43
0.00000001
 12
1.0
 22
0.0
 32
0.0
 13
1.0
 23
0.0
 33
0.0
 40
0.0
 40
0.0
 40
0.0
 40
0.0
 40
0.2500000000000014
 40
0.2500000000000014
 40
0.5000000000000003
 40
0.5000000000000003
 40
1.0
 40
1.0
 40
1.0
 40
1.0
 10
181.4379183378226
 20
109.5970166607389
 30
0.0
 10
181.3497644000849
 20
109.5222778528848
 30
0.0
 10
181.2894109754561
 20
109.4312973524024
 30
0.0
 10
181.1831490173893
 20
109.2423835296498
 30
0.0
 10
181.1409168508273
 20
109.1458790701092
 30
0.0
 10
181.0298461555101
 20
108.8551113159421
 30
0.0
 10
180.9769093790833
 20
108.6594445013983
 30
0.0
 10
180.9331102807145
 20
108.465378016332
 30
0.0
  0
SPLINE
  5
109
330
1F
100
AcDbEntity
  8
0
  6
HIDDEN
 62
     7
370
     0
100
AcDbSpline
210
0.0
220
0.0
230
1.0
 70
     8
 71
     3
 72
    12
 73
     8
 74
     0
 42
0.00000001
 43
0.00000001
 12
1.0
 22
0.0
 32
0.0
 13
1.0
 23
0.0
 33
0.0
 40
0.0
 40
0.0
 40
0.0
 40
0.0
 40
0.4999999999999998
 40
0.4999999999999998
 40
0.7499999999999999
 40
0.7499999999999999
 40
1.0
 40
1.0
 40
1.0
 40
1.0
 10
180.9331102807145
 20
103.2792036875709
 30
0.0
 10
180.9768568215511
 20
103.2526095169298
 30
0.0
 10
181.0297411767826
 20
103.232849291604
 30
0.0
 10
181.1413082641187
 20
103.212398301375
 30
0.0
 10
181.1838918606618
 20
103.2071380767185
 30
0.0
 10
181.2888085877435
 20
103.1992552827959
 30
0.0
 10
181.3503421955883
 20
103.1966911576167
 30
0.0
 10
181.4379183378144
 20
103.1944909400971
 30
0.0
  0
LINE
  5
10A
330
1F
100
AcDbEntity
  8
0
  6
HIDDEN
 62
     7
370
     0
100
AcDbLine
 10
182.0544306293
 20
102.5094641205
 30
0.0
 11
182.0544306293
 21
102.9896894302
 31
0.0
  0
LINE
  5
10B
330
1F
100
AcDbEntity
  8
0
  6
HIDDEN
 62
     7
370
     0
100
AcDbLine
 10
182.0544306293
 20
147.1088798549
 30
0.0
 11
182.0544306293
 21
147.5891051646
 31
0.0
  0
SPLINE
  5
10C
330
1F
100
AcDbEntity
  8
0
  6
HIDDEN
 62
     7
370
     0
100
AcDbSpline
210
0.0
220
0.0
230
1.0
 70
     8
 71
     3
 72
    12
 73
     8
 74
     0
 42
0.00000001
 43
0.00000001
 12
1.0
 22
0.0
 32
0.0
 13
1.0
 23
0.0
 33
0.0
 40
0.0
 40
0.0
 40
0.0
 40
0.0
 40
0.2499999999999997
 40
0.2499999999999997
 40
0.4999999999999993
 40
0.4999999999999993
 40
1.0
 40
1.0
 40
1.0
 40
1.0
 10
181.4379183378225
 20
146.904078345049
 30
0.0
 10
181.3492336779661
 20
146.901850277708
 30
0.0
 10
181.2893152622427
 20
146.8993484936776
 30
0.0
 10
181.183656034922
 20
146.8914170578416
 30
0.0
 10
181.141014796807
 20
146.8861249029448
 30
0.0
 10
181.0298254547045
 20
146.8657199624577
 30
0.0
 10
180.9768987725835
 20
146.8459852708708
 30
0.0
 10
180.9331102807145
 20
146.8193655975752
 30
0.0
  0
SPLINE
  5
10D
330
1F
100
AcDbEntity
  8
0
  6
HIDDEN
 62
     7
370
     0
100
AcDbSpline
210
0.0
220
0.0
230
1.0
 70
     8
 71
     3
 72
    12
 73
     8
 74
     0
 42
0.00000001
 43
0.00000001
 12
1.0
 22
0.0
 32
0.0
 13
1.0
 23
0.0
 33
0.0
 40
0.0
 40
0.0
 40
0.0
 40
0.0
 40
0.4999999999999991
 40
0.4999999999999991
 40
0.7499999999999996
 40
0.7499999999999996
 40
1.0
 40
1.0
 40
1.0
 40
1.0
 10
180.9331102807129
 20
141.6331912688143
 30
0.0
 10
180.9768717570114
 20
141.4392914808535
 30
0.0
 10
181.029778072664
 20
141.2434351169179
 30
0.0
 10
181.1414892703103
 20
140.9512929704208
 30
0.0
 10
181.1840087138962
 20
140.8545750337234
 30
0.0
 10
181.2891320564621
 20
140.6678505972999
 30
0.0
 10
181.350698020179
 20
140.5754998890306
 30
0.0
 10
181.4379183378196
 20
140.5015526244103
 30
0.0
  0
LWPOLYLINE
  5
10E
330
1F
100
AcDbEntity
  8
0
  6
HIDDEN
 62
     7
370
     0
100
AcDbPolyline
 90
       21
 70
   128
 43
0.0
 10
205.0068087602
 20
111.4053567704
 10
205.3118895465
 20
111.7196036335
 10
205.5919717723
 20
112.18175756
 10
205.7362019742
 20
112.6885302197
 10
205.7362019742
 20
113.2104694676
 10
205.5919717723
 20
113.7172421273
 10
205.3118895465
 20
114.1793960538
 10
204.912236678
 20
114.5700728353
 10
204.4162384892
 20
114.8665686902
 10
203.8527194137
 20
115.0516504254
 10
203.2544303412
 20
115.114563128
 10
202.6561412686
 20
115.0516504254
 10
202.0926221931
 20
114.8665686902
 10
201.5966240043
 20
114.5700728353
 10
201.1969711358
 20
114.1793960538
 10
200.9168907726
 20
113.7172421273
 10
200.7726587081
 20
113.2104694676
 10
200.7726587081
 20
112.6885302197
 10
200.9168907726
 20
112.18175756
 10
201.1969711358
 20
111.7196036335
 10
201.4894976938
 20
111.4161182027
  0
SPLINE
  5
10F
330
1F
100
AcDbEntity
  8
0
  6
HIDDEN
 62
     7
370
     0
100
AcDbSpline
210
0.0
220
0.0
230
1.0
 70
     8
 71
     3
 72
    12
 73
     8
 74
     0
 42
0.00000001
 43
0.00000001
 12
1.0
 22
0.0
 32
0.0
 13
1.0
 23
0.0
 33
0.0
 40
0.0
 40
0.0
 40
0.0
 40
0.0
 40
0.4999999999999982
 40
0.4999999999999982
 40
0.7499999999999991
 40
0.7499999999999991
 40
1.0
 40
1.0
 40
1.0
 40
1.0
 10
205.3815974417443
 20
115.5356144928362
 30
0.0
 10
205.3060460659132
 20
115.8933552137116
 30
0.0
 10
205.2482255772609
 20
116.2123822344869
 30
0.0
 10
205.2712721072437
 20
116.5845234487687
 30
0.0
 10
205.2964833041305
 20
116.6864131718806
 30
0.0
 10
205.3668040080132
 20
116.8509870772975
 30
0.0
 10
205.4114203241032
 20
116.9147306441071
 30
0.0
 10
205.4573293855701
 20
116.9642860088029
 30
0.0
  0
SPLINE
  5
110
330
1F
100
AcDbEntity
  8
0
  6
HIDDEN
 62
     7
370
     0
100
AcDbSpline
210
0.0
220
0.0
230
1.0
 70
     8
 71
     3
 72
    60
 73
    56
 74
     0
 42
0.00000001
 43
0.00000001
 12
1.0
 22
0.0
 32
0.0
 13
1.0
 23
0.0
 33
0.0
 40
0.0
 40
0.0
 40
0.0
 40
0.0
 40
0.0624999999999994
 40
0.0624999999999994
 40
0.0937499999999995
 40
0.0937499999999995
 40
0.1249999999999995
 40
0.1249999999999995
 40
0.1562499999999995
 40
0.1562499999999995
 40
0.1874999999999996
 40
0.1874999999999996
 40
0.2187499999999996
 40
0.2187499999999996
 40
0.2499999999999997
 40
0.2499999999999997
 40
0.3124999999999992
 40
0.3124999999999992
 40
0.3437499999999993
 40
0.3437499999999993
 40
0.3749999999999995
 40
0.3749999999999995
 40
0.4062499999999997
 40
0.4062499999999997
 40
0.4374999999999998
 40
0.4374999999999998
 40
0.4687499999999999
 40
0.4687499999999999
 40
0.5000000000000004
 40
0.5000000000000004
 40
0.5312500000000009
 40
0.5312500000000009
 40
0.5625000000000014
 40
0.5625000000000014
 40
0.6250000000000017
 40
0.6250000000000017
 40
0.6562500000000016
 40
0.6562500000000016
 40
0.6875000000000013
 40
0.6875000000000013
 40
0.7500000000000011
 40
0.7500000000000011
 40
0.7812500000000009
 40
0.7812500000000009
 40
0.8125000000000008
 40
0.8125000000000008
 40
0.8437500000000006
 40
0.8437500000000006
 40
0.8750000000000003
 40
0.8750000000000003
 40
0.9062500000000002
 40
0.9062500000000002
 40
0.9375
 40
0.9375
 40
1.0
 40
1.0
 40
1.0
 40
1.0
 10
205.45732938557
 20
116.9642860088028
 30
0.0
 10
205.5885669469971
 20
116.8045856950348
 30
0.0
 10
205.6727491609003
 20
116.6520935275761
 30
0.0
 10
205.7409362012268
 20
116.4004386774651
 30
0.0
 10
205.7531457470537
 20
116.3134506093362
 30
0.0
 10
205.7555219128935
 20
116.1346594033399
 30
0.0
 10
205.7458981912333
 20
116.0422597745733
 30
0.0
 10
205.7027493721909
 20
115.8483869024363
 30
0.0
 10
205.6686074819695
 20
115.7459865710641
 30
0.0
 10
205.5763307427343
 20
115.5386202391961
 30
0.0
 10
205.5180008722169
 20
115.4324779450357
 30
0.0
 10
205.3754318482495
 20
115.2150042006902
 30
0.0
 10
205.2938569600459
 20
115.1076763938301
 30
0.0
 10
205.111293014375
 20
114.8947155902298
 30
0.0
 10
205.0090806013802
 20
114.7881520861795
 30
0.0
 10
204.6905593468241
 20
114.485399867602
 30
0.0
 10
204.4562081620184
 20
114.2998466652863
 30
0.0
 10
204.1132046642449
 20
114.0551006187088
 30
0.0
 10
203.9990810223706
 20
113.9781365115626
 30
0.0
 10
203.7805054021225
 20
113.8350934217065
 30
0.0
 10
203.6749787407593
 20
113.7682952361957
 30
0.0
 10
203.4734119429138
 20
113.6400100751335
 30
0.0
 10
203.3767464297284
 20
113.5781790725399
 30
0.0
 10
203.202003965567
 20
113.4577433962248
 30
0.0
 10
203.1233515416903
 20
113.3989347208637
 30
0.0
 10
202.9916191845561
 20
113.2761671618392
 30
0.0
 10
202.939189071314
 20
113.2120536351127
 30
0.0
 10
202.8779451098574
 20
113.0756797704346
 30
0.0
 10
202.8695219798176
 20
113.0015598499797
 30
0.0
 10
202.8997505938687
 20
112.8517115333869
 30
0.0
 10
202.9381175599283
 20
112.7741195865464
 30
0.0
 10
203.0447783909262
 20
112.6274599773791
 30
0.0
 10
203.1126431946923
 20
112.5577372734399
 30
0.0
 10
203.3461697013586
 20
112.3643461284917
 30
0.0
 10
203.5354989802816
 20
112.2605157479918
 30
0.0
 10
203.844380820595
 20
112.1602006740347
 30
0.0
 10
203.9530801143217
 20
112.1358945951189
 30
0.0
 10
204.1731898773505
 20
112.1111211165861
 30
0.0
 10
204.2849094661161
 20
112.1103326038709
 30
0.0
 10
204.6234827834614
 20
112.1496274060751
 30
0.0
 10
204.8519351394663
 20
112.2335333565434
 30
0.0
 10
205.1537585714295
 20
112.4596746651193
 30
0.0
 10
205.2454145036459
 20
112.5494872306539
 30
0.0
 10
205.4098368065979
 20
112.7580494217
 30
0.0
 10
205.4820257606679
 20
112.877016758492
 30
0.0
 10
205.5995062754028
 20
113.1296066783611
 30
0.0
 10
205.6463839410212
 20
113.2663798773224
 30
0.0
 10
205.7143886521528
 20
113.5458973675321
 30
0.0
 10
205.7360158567619
 20
113.6888398673223
 30
0.0
 10
205.7573386848163
 20
113.9799710813661
 30
0.0
 10
205.7567890563676
 20
114.1285854963152
 30
0.0
 10
205.7354426297958
 20
114.4204851912926
 30
0.0
 10
205.7148127360277
 20
114.5650891837461
 30
0.0
 10
205.6239531574483
 20
114.994742502664
 30
0.0
 10
205.5254183421495
 20
115.2770085166278
 30
0.0
 10
205.3815974417442
 20
115.5356144928364
 30
0.0
  0
SPLINE
  5
111
330
1F
100
AcDbEntity
  8
0
  6
HIDDEN
 62
     7
370
     0
100
AcDbSpline
210
0.0
220
0.0
230
1.0
 70
     8
 71
     3
 72
    62
 73
    58
 74
     0
 42
0.00000001
 43
0.00000001
 12
1.0
 22
0.0
 32
0.0
 13
1.0
 23
0.0
 33
0.0
 40
-0.0312499999999997
 40
-0.0312499999999997
 40
0.0
 40
0.0
 40
0.0312500000000001
 40
0.0312500000000001
 40
0.0625000000000003
 40
0.0625000000000003
 40
0.0937500000000004
 40
0.0937500000000004
 40
0.1250000000000006
 40
0.1250000000000006
 40
0.1875000000000009
 40
0.1875000000000009
 40
0.2187500000000009
 40
0.2187500000000009
 40
0.2500000000000009
 40
0.2500000000000009
 40
0.281250000000001
 40
0.281250000000001
 40
0.312500000000001
 40
0.312500000000001
 40
0.3750000000000009
 40
0.3750000000000009
 40
0.4062500000000012
 40
0.4062500000000012
 40
0.4375000000000015
 40
0.4375000000000015
 40
0.4687500000000017
 40
0.4687500000000017
 40
0.500000000000002
 40
0.500000000000002
 40
0.5625000000000018
 40
0.5625000000000018
 40
0.5937500000000017
 40
0.5937500000000017
 40
0.6250000000000016
 40
0.6250000000000016
 40
0.6562500000000016
 40
0.6562500000000016
 40
0.6875000000000014
 40
0.6875000000000014
 40
0.7187500000000013
 40
0.7187500000000013
 40
0.7500000000000012
 40
0.7500000000000012
 40
0.7812500000000012
 40
0.7812500000000012
 40
0.8125000000000011
 40
0.8125000000000011
 40
0.8750000000000012
 40
0.8750000000000012
 40
0.9062500000000009
 40
0.9062500000000009
 40
0.9375000000000006
 40
0.9375000000000006
 40
0.9687500000000003
 40
0.9687500000000003
 40
1.0
 40
1.0
 40
1.03125
 40
1.03125
 10
203.4204744432108
 20
118.5613170166643
 30
0.0
 10
203.0883868053385
 20
118.5613170166643
 30
0.0
 10
202.9252900747614
 20
118.5731081573363
 30
0.0
 10
202.604693769853
 20
118.619476801072
 30
0.0
 10
202.4454915665465
 20
118.6546614637726
 30
0.0
 10
202.1431810648324
 20
118.7468733142104
 30
0.0
 10
201.999929490588
 20
118.8035607663339
 30
0.0
 10
201.7288186495208
 20
118.9391085556607
 30
0.0
 10
201.601136654392
 20
119.0183215094857
 30
0.0
 10
201.2571365661768
 20
119.2818408210856
 30
0.0
 10
201.0711349375925
 20
119.4993619007547
 30
0.0
 10
200.8836484244108
 20
119.8655444040467
 30
0.0
 10
200.8351764796587
 20
119.9962116026627
 30
0.0
 10
200.770614500245
 20
120.2672147432326
 30
0.0
 10
200.7545360000251
 20
120.405917738179
 30
0.0
 10
200.7543262711114
 20
120.689882320397
 30
0.0
 10
200.7707578185223
 20
120.8364519293488
 30
0.0
 10
200.8349265086746
 20
121.12346710877
 30
0.0
 10
200.8823954714661
 20
121.2652149721404
 30
0.0
 10
201.0715189554203
 20
121.6842059746712
 30
0.0
 10
201.2556588477865
 20
121.9447178814873
 30
0.0
 10
201.6023944315904
 20
122.2796742930765
 30
0.0
 10
201.7277113877422
 20
122.3802264892026
 30
0.0
 10
201.9977708905421
 20
122.5584085488911
 30
0.0
 10
202.1441442664232
 20
122.6364989939655
 30
0.0
 10
202.4455621694769
 20
122.7616283549494
 30
0.0
 10
202.6014143309158
 20
122.8095561203864
 30
0.0
 10
202.9237573922322
 20
122.8747256641534
 30
0.0
 10
203.0897088593017
 20
122.8913722703446
 30
0.0
 10
203.5806302268529
 20
122.8915868570933
 30
0.0
 10
203.9111132139556
 20
122.8245628819812
 30
0.0
 10
204.3630227115542
 20
122.6373230032236
 30
0.0
 10
204.5093199289335
 20
122.5594547105779
 30
0.0
 10
204.7802034914898
 20
122.3809716217119
 30
0.0
 10
204.9055600136477
 20
122.2804189665611
 30
0.0
 10
205.1363376551369
 20
122.057742623307
 30
0.0
 10
205.2411255352069
 20
121.9356931058313
 30
0.0
 10
205.421789159389
 20
121.6810343112087
 30
0.0
 10
205.4989776565844
 20
121.5472557746489
 30
0.0
 10
205.6258410608756
 20
121.2669936038876
 30
0.0
 10
205.673502414808
 20
121.1248054525679
 30
0.0
 10
205.7377327818705
 20
120.8386977307163
 30
0.0
 10
205.7543659957496
 20
120.6928930884647
 30
0.0
 10
205.754494870761
 20
120.4073689668113
 30
0.0
 10
205.7384138916322
 20
120.2686093851583
 30
0.0
 10
205.6744464791638
 20
119.9987258519494
 30
0.0
 10
205.6258824289201
 20
119.8670769386125
 30
0.0
 10
205.4381515868776
 20
119.4997462237069
 30
0.0
 10
205.2522057493819
 20
119.2823434701972
 30
0.0
 10
204.9084305272775
 20
119.0187954968347
 30
0.0
 10
204.78125522291
 20
118.9397855403935
 30
0.0
 10
204.5096128136354
 20
118.8038310591946
 30
0.0
 10
204.3664536426882
 20
118.7471884194123
 30
0.0
 10
204.0653267001504
 20
118.6551799332901
 30
0.0
 10
203.9058104714589
 20
118.6197648570701
 30
0.0
 10
203.5839445792271
 20
118.5731120529443
 30
0.0
 10
203.4204744432108
 20
118.5613170166643
 30
0.0
 10
203.0883868053385
 20
118.5613170166643
 30
0.0
  0
LINE
  5
112
330
1F
100
AcDbEntity
  8
0
  6
HIDDEN
 62
     7
370
     0
100
AcDbLine
 10
182.0544306293
 20
102.9896894302
 30
0.0
 11
182.0544306293
 21
118.0273974147
 31
0.0
  0
LINE
  5
113
330
1F
100
AcDbEntity
  8
0
  6
HIDDEN
 62
     7
370
     0
100
AcDbLine
 10
182.0544306293
 20
132.0711718705
 30
0.0
 11
182.0544306293
 21
147.1088798549
 31
0.0
  0
LWPOLYLINE
  5
114
330
1F
100
AcDbEntity
  8
0
  6
HIDDEN
 62
     7
370
     0
100
AcDbPolyline
 90
        9
 70
   128
 43
0.0
 10
205.3815971786
 20
115.535614064
 10
205.5430456722
 20
115.8451577481
 10
205.6647341425
 20
116.130486114
 10
205.7432949269
 20
116.3837108594
 10
205.7765617693
 20
116.5978312325
 10
205.7636089349
 20
116.7669277471
 10
205.7047996396
 20
116.8863251638
 10
205.6017562473
 20
116.9527238067
 10
205.4573286051
 20
116.9642861765
  0
CIRCLE
  5
115
330
1F
100
AcDbEntity
  8
0
  6
HIDDEN
 62
     7
370
     0
100
AcDbCircle
 10
166.7544306243
 20
125.0492846426
 30
0.0
 40
4.050000000000026
  0
LINE
  5
116
330
1F
100
AcDbEntity
  8
0
  6
HIDDEN
 62
     7
370
     0
100
AcDbLine
 10
145.7846581662
 20
140.3622357007
 30
0.0
 11
145.7846581662
 21
109.7363335844
 31
0.0
  0
LINE
  5
117
330
1F
100
AcDbEntity
  8
0
  6
HIDDEN
 62
     7
370
     0
100
AcDbLine
 10
144.2544318462
 20
108.8528549131
 30
0.0
 11
144.2544318462
 21
141.245714372
 31
0.0
  0
LINE
  5
118
330
1F
100
AcDbEntity
  8
0
  6
HIDDEN
 62
     7
370
     0
100
AcDbLine
 10
152.2846583003
 20
139.3956951629
 30
0.0
 11
152.2846583003
 21
110.7028741222
 31
0.0
  0
LINE
  5
119
330
1F
100
AcDbEntity
  8
0
  6
HIDDEN
 62
     7
370
     0
100
AcDbLine
 10
158.0846596235
 20
139.0492850747
 30
0.0
 11
158.0846596235
 21
111.0492842104
 31
0.0
  0
LINE
  5
11A
330
1F
100
AcDbEntity
  8
0
  6
HIDDEN
 62
     7
370
     0
100
AcDbLine
 10
150.6846591556
 20
139.0492850747
 30
0.0
 11
150.6846591556
 21
111.0492842104
 31
0.0
  0
LINE
  5
11B
330
1F
100
AcDbEntity
  8
0
  6
HIDDEN
 62
     7
370
     0
100
AcDbLine
 10
151.6846593195
 20
139.0492850747
 30
0.0
 11
151.6846593195
 21
111.0492842104
 31
0.0
  0
SPLINE
  5
11C
330
1F
100
AcDbEntity
  8
0
  6
HIDDEN
 62
     7
370
     0
100
AcDbSpline
210
0.0
220
0.0
230
1.0
 70
     8
 71
     3
 72
    10
 73
     6
 74
     0
 42
0.00000001
 43
0.00000001
 12
1.0
 22
0.0
 32
0.0
 13
1.0
 23
0.0
 33
0.0
 40
0.0
 40
0.0
 40
0.0
 40
0.0
 40
0.5
 40
0.5
 40
1.0
 40
1.0
 40
1.0
 40
1.0
 10
170.7544306242741
 20
125.6837135195957
 30
0.0
 10
170.7875780423506
 20
125.4747229185877
 30
0.0
 10
170.8044368877122
 20
125.263160452566
 30
0.0
 10
170.8044243573646
 20
124.8351716865984
 30
0.0
 10
170.7875093996242
 20
124.6234135821825
 30
0.0
 10
170.7544306242741
 20
124.4148557655504
 30
0.0
  0
LINE
  5
11D
330
1F
100
AcDbEntity
  8
0
  6
HIDDEN
 62
     7
370
     0
100
AcDbLine
 10
171.2544306839
 20
138.5492849928
 30
0.0
 11
171.2544306839
 21
111.5492842924
 31
0.0
  0
SPLINE
  5
11E
330
1F
100
AcDbEntity
  8
0
  6
HIDDEN
 62
     7
370
     0
100
AcDbSpline
210
0.0
220
0.0
230
1.0
 70
     8
 71
     3
 72
    10
 73
     6
 74
     0
 42
0.00000001
 43
0.00000001
 12
1.0
 22
0.0
 32
0.0
 13
1.0
 23
0.0
 33
0.0
 40
0.0
 40
0.0
 40
0.0
 40
0.0
 40
0.5
 40
0.5
 40
1.0
 40
1.0
 40
1.0
 40
1.0
 10
170.7544306242741
 20
124.4148557655504
 30
0.0
 10
170.7876195867479
 20
124.6241082991329
 30
0.0
 10
170.8043203630025
 20
124.8349250600319
 30
0.0
 10
170.8045398034472
 20
125.2594573412353
 30
0.0
 10
170.7876600880538
 20
125.474205630008
 30
0.0
 10
170.7544306242741
 20
125.6837135195957
 30
0.0
  0
SPLINE
  5
11F
330
1F
100
AcDbEntity
  8
0
  6
HIDDEN
 62
     7
370
     0
100
AcDbSpline
210
0.0
220
0.0
230
1.0
 70
     8
 71
     3
 72
    68
 73
    64
 74
     0
 42
0.00000001
 43
0.00000001
 12
1.0
 22
0.0
 32
0.0
 13
1.0
 23
0.0
 33
0.0
 40
0.0
 40
0.0
 40
0.0
 40
0.0
 40
0.0312499999999999
 40
0.0312499999999999
 40
0.0624999999999999
 40
0.0624999999999999
 40
0.0937499999999999
 40
0.0937499999999999
 40
0.1249999999999998
 40
0.1249999999999998
 40
0.1562499999999998
 40
0.1562499999999998
 40
0.1874999999999998
 40
0.1874999999999998
 40
0.2187499999999998
 40
0.2187499999999998
 40
0.2499999999999997
 40
0.2499999999999997
 40
0.2812499999999997
 40
0.2812499999999997
 40
0.3124999999999997
 40
0.3124999999999997
 40
0.3437499999999996
 40
0.3437499999999996
 40
0.3749999999999996
 40
0.3749999999999996
 40
0.4062499999999995
 40
0.4062499999999995
 40
0.4374999999999994
 40
0.4374999999999994
 40
0.4687499999999994
 40
0.4687499999999994
 40
0.4999999999999993
 40
0.4999999999999993
 40
0.5624999999999992
 40
0.5624999999999992
 40
0.5937499999999992
 40
0.5937499999999992
 40
0.6249999999999993
 40
0.6249999999999993
 40
0.6562499999999993
 40
0.6562499999999993
 40
0.6874999999999994
 40
0.6874999999999994
 40
0.7187499999999994
 40
0.7187499999999994
 40
0.7499999999999996
 40
0.7499999999999996
 40
0.7812499999999996
 40
0.7812499999999996
 40
0.8124999999999997
 40
0.8124999999999997
 40
0.8437499999999997
 40
0.8437499999999997
 40
0.8749999999999998
 40
0.8749999999999998
 40
0.9062499999999998
 40
0.9062499999999998
 40
0.9374999999999999
 40
0.9374999999999999
 40
0.9687499999999999
 40
0.9687499999999999
 40
1.0
 40
1.0
 40
1.0
 40
1.0
 10
170.7544306242741
 20
124.4148557655504
 30
0.0
 10
170.7144156719244
 20
124.1625661627348
 30
0.0
 10
170.6514738705131
 20
123.918567312359
 30
0.0
 10
170.482087208441
 20
123.4461489232965
 30
0.0
 10
170.3743936458555
 20
123.2157355371366
 30
0.0
 10
170.1191088773176
 20
122.7810309413395
 30
0.0
 10
169.9730696468454
 20
122.5783889746882
 30
0.0
 10
169.6448482102862
 20
122.2013996839304
 30
0.0
 10
169.4606009225112
 20
122.025741730353
 30
0.0
 10
169.0676407552029
 20
121.7154837614068
 30
0.0
 10
168.8583461582437
 20
121.5795385537568
 30
0.0
 10
168.4134607313064
 20
121.346148458351
 30
0.0
 10
168.1766631388073
 20
121.2489018519366
 30
0.0
 10
167.6959280698881
 20
121.1022303940653
 30
0.0
 10
167.4496849767053
 20
121.0513380491229
 30
0.0
 10
166.9449681967258
 20
120.9958106988874
 30
0.0
 10
166.6887734957894
 20
120.9919858118175
 30
0.0
 10
166.1863947465893
 20
121.0314095944619
 30
0.0
 10
165.9371450474057
 20
121.0744370436731
 30
0.0
 10
165.4456172499269
 20
121.2081420131244
 30
0.0
 10
165.2103216487011
 20
121.2968118590296
 30
0.0
 10
164.759407754039
 20
121.515843222807
 30
0.0
 10
164.5417954035756
 20
121.6478447884906
 30
0.0
 10
164.1385882340273
 20
121.9472020694935
 30
0.0
 10
163.9529767415929
 20
122.1138209969314
 30
0.0
 10
163.6129886711904
 20
122.4809324223588
 30
0.0
 10
163.4579157403675
 20
122.6832361678995
 30
0.0
 10
163.1915726637041
 20
123.1073168474935
 30
0.0
 10
163.0785885629873
 20
123.3304764529598
 30
0.0
 10
162.8937333060565
 20
123.7998316945539
 30
0.0
 10
162.8225925445531
 20
124.0460421978894
 30
0.0
 10
162.7286321332649
 20
124.5405680242606
 30
0.0
 10
162.7046228033085
 20
124.7914990193526
 30
0.0
 10
162.7040496826359
 20
125.5557443989088
 30
0.0
 10
162.7994487939546
 20
126.0579687009597
 30
0.0
 10
163.0773125861557
 20
126.7655332072321
 30
0.0
 10
163.1904745422362
 20
126.989239470973
 30
0.0
 10
163.4566057242801
 20
127.4135093822935
 30
0.0
 10
163.6114334984798
 20
127.6157613443496
 30
0.0
 10
163.9516146042676
 20
127.9834720857178
 30
0.0
 10
164.1371170612173
 20
128.1500889609671
 30
0.0
 10
164.5394108622767
 20
128.4491383397626
 30
0.0
 10
164.7574189105287
 20
128.581595047791
 30
0.0
 10
165.2080172776789
 20
128.8008014484956
 30
0.0
 10
165.4425662765597
 20
128.8892865784993
 30
0.0
 10
165.931026270112
 20
129.0227728084379
 30
0.0
 10
166.1832916658259
 20
129.0667145209317
 30
0.0
 10
166.6854723039862
 20
129.1065235174052
 30
0.0
 10
166.9379544213378
 20
129.1031793045917
 30
0.0
 10
167.4458194644074
 20
129.0479999846012
 30
0.0
 10
167.6933649375912
 20
128.9969540561318
 30
0.0
 10
168.1743324750619
 20
128.8505436678962
 30
0.0
 10
168.4102923401671
 20
128.7538974631226
 30
0.0
 10
168.8568627896888
 20
128.5199925188096
 30
0.0
 10
169.0665076522622
 20
128.3838675049831
 30
0.0
 10
169.4594943590167
 20
128.073813240654
 30
0.0
 10
169.6438902628317
 20
127.8981559930789
 30
0.0
 10
169.9724406806921
 20
127.5210160704145
 30
0.0
 10
170.1183827772153
 20
127.3185498651446
 30
0.0
 10
170.3732681324174
 20
126.8849735670113
 30
0.0
 10
170.4815794452258
 20
126.6536817234298
 30
0.0
 10
170.6514144226427
 20
126.1803220432965
 30
0.0
 10
170.7144097837798
 20
125.9360402464758
 30
0.0
 10
170.7544306242741
 20
125.6837135195957
 30
0.0
  0
SPLINE
  5
120
330
1F
100
AcDbEntity
  8
0
  6
HIDDEN
 62
     7
370
     0
100
AcDbSpline
210
0.0
220
0.0
230
1.0
 70
     8
 71
     3
 72
    68
 73
    64
 74
     0
 42
0.00000001
 43
0.00000001
 12
1.0
 22
0.0
 32
0.0
 13
1.0
 23
0.0
 33
0.0
 40
0.0
 40
0.0
 40
0.0
 40
0.0
 40
0.0312499999999999
 40
0.0312499999999999
 40
0.0624999999999999
 40
0.0624999999999999
 40
0.0937499999999999
 40
0.0937499999999999
 40
0.1249999999999998
 40
0.1249999999999998
 40
0.1562499999999998
 40
0.1562499999999998
 40
0.1874999999999998
 40
0.1874999999999998
 40
0.2187499999999998
 40
0.2187499999999998
 40
0.2499999999999997
 40
0.2499999999999997
 40
0.2812499999999997
 40
0.2812499999999997
 40
0.3124999999999997
 40
0.3124999999999997
 40
0.3437499999999996
 40
0.3437499999999996
 40
0.3749999999999996
 40
0.3749999999999996
 40
0.4062499999999995
 40
0.4062499999999995
 40
0.4374999999999994
 40
0.4374999999999994
 40
0.4687499999999994
 40
0.4687499999999994
 40
0.4999999999999993
 40
0.4999999999999993
 40
0.5624999999999992
 40
0.5624999999999992
 40
0.5937499999999992
 40
0.5937499999999992
 40
0.6249999999999993
 40
0.6249999999999993
 40
0.6562499999999993
 40
0.6562499999999993
 40
0.6874999999999994
 40
0.6874999999999994
 40
0.7187499999999994
 40
0.7187499999999994
 40
0.7499999999999996
 40
0.7499999999999996
 40
0.7812499999999996
 40
0.7812499999999996
 40
0.8124999999999997
 40
0.8124999999999997
 40
0.8437499999999997
 40
0.8437499999999997
 40
0.8749999999999998
 40
0.8749999999999998
 40
0.9062499999999998
 40
0.9062499999999998
 40
0.9374999999999999
 40
0.9374999999999999
 40
0.9687499999999999
 40
0.9687499999999999
 40
1.0
 40
1.0
 40
1.0
 40
1.0
 10
170.7544306242741
 20
125.6837135195957
 30
0.0
 10
170.7144156719244
 20
125.9360031224113
 30
0.0
 10
170.6514738705131
 20
126.1800019727871
 30
0.0
 10
170.482087208441
 20
126.6524203618496
 30
0.0
 10
170.3743936458555
 20
126.8828337480095
 30
0.0
 10
170.1191088773176
 20
127.3175383438066
 30
0.0
 10
169.9730696468454
 20
127.5201803104579
 30
0.0
 10
169.6448482102862
 20
127.8971696012158
 30
0.0
 10
169.4606009225112
 20
128.0728275547931
 30
0.0
 10
169.0676407552029
 20
128.3830855237394
 30
0.0
 10
168.8583461582437
 20
128.5190307313893
 30
0.0
 10
168.4134607313064
 20
128.7524208267951
 30
0.0
 10
168.1766631388073
 20
128.8496674332095
 30
0.0
 10
167.6959280698881
 20
128.9963388910808
 30
0.0
 10
167.4496849767053
 20
129.0472312360232
 30
0.0
 10
166.9449681967258
 20
129.1027585862587
 30
0.0
 10
166.6887734957894
 20
129.1065834733286
 30
0.0
 10
166.1863947465893
 20
129.0671596906842
 30
0.0
 10
165.9371450474057
 20
129.024132241473
 30
0.0
 10
165.4456172499269
 20
128.8904272720217
 30
0.0
 10
165.2103216487011
 20
128.8017574261165
 30
0.0
 10
164.759407754039
 20
128.582726062339
 30
0.0
 10
164.5417954035756
 20
128.4507244966555
 30
0.0
 10
164.1385882340273
 20
128.1513672156526
 30
0.0
 10
163.9529767415929
 20
127.9847482882147
 30
0.0
 10
163.6129886711904
 20
127.6176368627873
 30
0.0
 10
163.4579157403675
 20
127.4153331172466
 30
0.0
 10
163.1915726637041
 20
126.9912524376525
 30
0.0
 10
163.0785885629873
 20
126.7680928321863
 30
0.0
 10
162.8937333060565
 20
126.2987375905922
 30
0.0
 10
162.8225925445531
 20
126.0525270872567
 30
0.0
 10
162.7286321332649
 20
125.5580012608855
 30
0.0
 10
162.7046228033085
 20
125.3070702657935
 30
0.0
 10
162.7040496826359
 20
124.5428248862373
 30
0.0
 10
162.7994487939546
 20
124.0406005841864
 30
0.0
 10
163.0773125861557
 20
123.333036077914
 30
0.0
 10
163.1904745422362
 20
123.1093298141732
 30
0.0
 10
163.4566057242801
 20
122.6850599028526
 30
0.0
 10
163.6114334984798
 20
122.4828079407965
 30
0.0
 10
163.9516146042676
 20
122.1150971994283
 30
0.0
 10
164.1371170612173
 20
121.948480324179
 30
0.0
 10
164.5394108622767
 20
121.6494309453836
 30
0.0
 10
164.7574189105287
 20
121.5169742373552
 30
0.0
 10
165.2080172776789
 20
121.2977678366505
 30
0.0
 10
165.4425662765597
 20
121.2092827066468
 30
0.0
 10
165.931026270112
 20
121.0757964767082
 30
0.0
 10
166.1832916658259
 20
121.0318547642144
 30
0.0
 10
166.6854723039862
 20
120.9920457677409
 30
0.0
 10
166.9379544213378
 20
120.9953899805544
 30
0.0
 10
167.4458194644074
 20
121.0505693005449
 30
0.0
 10
167.6933649375912
 20
121.1016152290143
 30
0.0
 10
168.1743324750619
 20
121.2480256172499
 30
0.0
 10
168.4102923401671
 20
121.3446718220235
 30
0.0
 10
168.8568627896888
 20
121.5785767663365
 30
0.0
 10
169.0665076522622
 20
121.714701780163
 30
0.0
 10
169.4594943590167
 20
122.0247560444921
 30
0.0
 10
169.6438902628317
 20
122.2004132920672
 30
0.0
 10
169.9724406806921
 20
122.5775532147316
 30
0.0
 10
170.1183827772153
 20
122.7800194200015
 30
0.0
 10
170.3732681324174
 20
123.2135957181348
 30
0.0
 10
170.4815794452258
 20
123.4448875617163
 30
0.0
 10
170.6514144226427
 20
123.9182472418496
 30
0.0
 10
170.7144097837798
 20
124.1625290386704
 30
0.0
 10
170.7544306242741
 20
124.4148557655504
 30
0.0
  0
LINE
  5
121
330
1F
100
AcDbEntity
  8
0
  6
HIDDEN
 62
     7
370
     0
100
AcDbLine
 10
172.5044304231
 20
134.0492842551
 30
0.0
 11
172.5044304231
 21
116.04928503
 31
0.0
  0
LINE
  5
122
330
1F
100
AcDbEntity
  8
0
  6
HIDDEN
 62
     7
370
     0
100
AcDbLine
 10
171.2544306839
 20
114.7992843595
 30
0.0
 11
171.2544306839
 21
135.2992849257
 31
0.0
  0
LINE
  5
123
330
1F
100
AcDbEntity
  8
0
  6
HIDDEN
 62
     7
370
     0
100
AcDbLine
 10
209.2544313246
 20
116.04928503
 30
0.0
 11
209.2544313246
 21
134.0492842551
 31
0.0
  0
LINE
  5
124
330
1F
100
AcDbEntity
  8
0
  6
HIDDEN
 62
     7
370
     0
100
AcDbLine
 10
239.0099324012
 20
122.9190963619
 30
0.0
 11
242.842853787
 21
119.1071690824
 31
0.0
  0
SPLINE
  5
125
330
1F
100
AcDbEntity
  8
0
  6
HIDDEN
 62
     7
370
     0
100
AcDbSpline
210
0.0
220
0.0
230
1.0
 70
     8
 71
     3
 72
     9
 73
     5
 74
     0
 42
0.00000001
 43
0.00000001
 12
1.0
 22
0.0
 32
0.0
 13
1.0
 23
0.0
 33
0.0
 40
0.0
 40
0.0
 40
0.0
 40
0.0
 40
0.5
 40
1.0
 40
1.0
 40
1.0
 40
1.0
 10
220.4530294625843
 20
121.1130746168702
 30
0.0
 10
220.4457482535311
 20
121.3356533805877
 30
0.0
 10
220.4299524201644
 20
121.7807983266763
 30
0.0
 10
220.4137458122883
 20
122.2259390826947
 30
0.0
 10
220.406005474337
 20
122.4485131631073
 30
0.0
  0
LINE
  5
126
330
1F
100
AcDbEntity
  8
0
  6
HIDDEN
 62
     7
370
     0
100
AcDbLine
 10
220.406004014
 20
122.4485132676
 30
0.0
 11
220.406004014
 21
149.5681656357
 31
0.0
  0
SPLINE
  5
127
330
1F
100
AcDbEntity
  8
0
  6
HIDDEN
 62
     7
370
     0
100
AcDbSpline
210
0.0
220
0.0
230
1.0
 70
     8
 71
     3
 72
    12
 73
     8
 74
     0
 42
0.00000001
 43
0.00000001
 12
1.0
 22
0.0
 32
0.0
 13
1.0
 23
0.0
 33
0.0
 40
0.0
 40
0.0
 40
0.0
 40
0.0
 40
0.2499999999999996
 40
0.2499999999999996
 40
0.4999999999999991
 40
0.4999999999999991
 40
1.0
 40
1.0
 40
1.0
 40
1.0
 10
220.4060054743358
 20
149.5681651860572
 30
0.0
 10
220.3588651771321
 20
149.6458435694836
 30
0.0
 10
220.2991982082093
 20
149.7407273250879
 30
0.0
 10
220.1665383817342
 20
149.9487979321714
 30
0.0
 10
220.0930126269744
 20
150.0627455947827
 30
0.0
 10
219.8579712957281
 20
150.4242228421558
 30
0.0
 10
219.6838559487807
 20
150.6888212033709
 30
0.0
 10
219.4871036362956
 20
150.9841029229952
 30
0.0
  0
SPLINE
  5
128
330
1F
100
AcDbEntity
  8
0
  6
HIDDEN
 62
     7
370
     0
100
AcDbSpline
210
0.0
220
0.0
230
1.0
 70
     8
 71
     3
 72
    19
 73
    15
 74
     0
 42
0.00000001
 43
0.00000001
 12
1.0
 22
0.0
 32
0.0
 13
1.0
 23
0.0
 33
0.0
 40
0.0
 40
0.0
 40
0.0
 40
0.0
 40
0.0355698859239223
 40
0.1125845582760485
 40
0.191420444570444
 40
0.270256436935603
 40
0.3552306135546912
 40
0.440205060287846
 40
0.5276289024991254
 40
0.6150530655572665
 40
0.7096053860237894
 40
0.8041582052281908
 40
0.9020788494878198
 40
1.0
 40
1.0
 40
1.0
 40
1.0
 10
222.9882001602925
 20
83.38550383412426
 30
0.0
 10
222.9852289703134
 20
83.37977283200682
 30
0.0
 10
222.9758246637587
 20
83.36163326464212
 30
0.0
 10
222.9567714166234
 20
83.57358204362224
 30
0.0
 10
222.9312275823231
 20
84.01706696213434
 30
0.0
 10
222.9019384762206
 20
84.7261722447105
 30
0.0
 10
222.8692654814611
 20
85.69991529039645
 30
0.0
 10
222.832875693635
 20
86.96717486026809
 30
0.0
 10
222.7938199830552
 20
88.50474673570835
 30
0.0
 10
222.7512930819237
 20
90.35635419400604
 30
0.0
 10
222.7058799100807
 20
92.51913137533289
 30
0.0
 10
222.6574479542495
 20
95.02872848038207
 30
0.0
 10
222.6076108177508
 20
97.80336318732832
 30
0.0
 10
222.5739656979527
 20
99.8632627938559
 30
0.0
 10
222.5571430945672
 20
100.8932152595479
 30
0.0
  0
SPLINE
  5
129
330
1F
100
AcDbEntity
  8
0
  6
HIDDEN
 62
     7
370
     0
100
AcDbSpline
210
0.0
220
0.0
230
1.0
 70
     8
 71
     3
 72
    10
 73
     6
 74
     0
 42
0.00000001
 43
0.00000001
 12
1.0
 22
0.0
 32
0.0
 13
1.0
 23
0.0
 33
0.0
 40
0.0
 40
0.0
 40
0.0
 40
0.0
 40
0.5
 40
0.5
 40
1.0
 40
1.0
 40
1.0
 40
1.0
 10
222.5571419808186
 20
100.8932156872076
 30
0.0
 10
222.017582452373
 20
104.2354605198214
 30
0.0
 10
221.5469027620543
 20
107.5878187129472
 30
0.0
 10
220.8194051145414
 20
114.3239355912099
 30
0.0
 10
220.5644207092251
 20
117.707963489685
 30
0.0
 10
220.4530294625843
 20
121.1130746168702
 30
0.0
  0
CIRCLE
  5
12A
330
1F
100
AcDbEntity
  8
0
  6
HIDDEN
 62
     7
370
     0
100
AcDbCircle
 10
235.8683116039
 20
98.9636677219
 30
0.0
 40
3.478353599885661
  0
CIRCLE
  5
12B
330
1F
100
AcDbEntity
  8
0
  6
HIDDEN
 62
     7
370
     0
100
AcDbCircle
 10
235.4419001036
 20
99.3877453712
 30
0.0
 40
3.47835349076435
  0
ARC
  5
12C
330
1F
100
AcDbEntity
  8
0
  6
HIDDEN
 62
     7
370
     0
100
AcDbCircle
 10
232.2603868523
 20
91.9666970012
 30
0.0
 40
2.349361799619615
100
AcDbArc
 50
85.3959235434
 51
233.1765975369
  0
LINE
  5
12D
330
1F
100
AcDbEntity
  8
0
  6
HIDDEN
 62
     7
370
     0
100
AcDbLine
 10
244.647775563
 20
93.3752422985
 30
0.0
 11
245.139059397
 21
92.8866481241
 31
0.0
  0
SPLINE
  5
12E
330
1F
100
AcDbEntity
  8
0
  6
HIDDEN
 62
     7
370
     0
100
AcDbSpline
210
0.0
220
0.0
230
1.0
 70
     8
 71
     3
 72
    24
 73
    20
 74
     0
 42
0.00000001
 43
0.00000001
 12
1.0
 22
0.0
 32
0.0
 13
1.0
 23
0.0
 33
0.0
 40
0.0
 40
0.0
 40
0.0
 40
0.0
 40
0.1249999999999975
 40
0.1249999999999975
 40
0.2499999999999951
 40
0.2499999999999951
 40
0.3124999999999954
 40
0.3124999999999954
 40
0.3749999999999957
 40
0.3749999999999957
 40
0.4999999999999966
 40
0.4999999999999966
 40
0.6249999999999974
 40
0.6249999999999974
 40
0.7499999999999982
 40
0.7499999999999982
 40
0.8749999999999991
 40
0.8749999999999991
 40
1.0
 40
1.0
 40
1.0
 40
1.0
 10
235.2569001113665
 20
99.55841732083744
 30
0.0
 10
235.0694131949127
 20
99.33264638684204
 30
0.0
 10
234.8566404094751
 20
99.12590279137038
 30
0.0
 10
234.3689773165183
 20
98.75672578019113
 30
0.0
 10
234.0993091517059
 20
98.59894429974618
 30
0.0
 10
233.6580013985259
 20
98.41423720392221
 30
0.0
 10
233.5027491732232
 20
98.36076085371313
 30
0.0
 10
233.1864932085577
 20
98.2753920927271
 30
0.0
 10
233.0254110178059
 20
98.24320748481388
 30
0.0
 10
232.5330257946733
 20
98.17868686751558
 30
0.0
 10
232.1863133774889
 20
98.17978907763808
 30
0.0
 10
231.5163345808974
 20
98.27000173134304
 30
0.0
 10
231.1845891151491
 20
98.35939333002729
 30
0.0
 10
230.5670652055757
 20
98.60474283040082
 30
0.0
 10
230.275449180671
 20
98.76237893999192
 30
0.0
 10
229.7464857887746
 20
99.12130927204157
 30
0.0
 10
229.507725523396
 20
99.32228025869478
 30
0.0
 10
229.0732695020798
 20
99.76179014840801
 30
0.0
 10
228.8794122893301
 20
99.9993750392378
 30
0.0
 10
228.7112847408373
 20
100.2463892187001
 30
0.0
  0
LINE
  5
12F
330
1F
100
AcDbEntity
  8
0
  6
HIDDEN
 62
     7
370
     0
100
AcDbLine
 10
228.7112854147
 20
100.2463893797
 30
0.0
 11
222.5571430946
 21
100.8932152595
 31
0.0
  0
ELLIPSE
  5
130
330
1F
100
AcDbEntity
  8
0
  6
HIDDEN
 62
     7
370
     0
100
AcDbEllipse
 10
230.3579544347
 20
122.8031427329
 30
0.0
 11
-4.075663676725355
 21
40.6412254508693
 31
0.0
210
0.0
220
0.0
230
1.0
 40
0.0928940858
 41
3.012274064354074
 42
3.122312449060421
  0
ELLIPSE
  5
131
330
1F
100
AcDbEntity
  8
0
  6
HIDDEN
 62
     7
370
     0
100
AcDbEllipse
 10
232.2773429372
 20
122.6014068722
 30
0.0
 11
344.559013438712
 21
-32.42083565861793
 31
0.0
210
0.0
220
0.0
230
1.0
 40
0.1150714178
 41
4.727962100088292
 42
4.729423927530792
  0
ELLIPSE
  5
132
330
1F
100
AcDbEntity
  8
0
  6
HIDDEN
 62
     7
370
     0
100
AcDbEllipse
 10
230.8679070974
 20
122.7495445483
 30
0.0
 11
-4.075663676725412
 21
40.64122545086929
 31
0.0
210
0.0
220
0.0
230
1.0
 40
0.0928940858
 41
2.937761790051489
 42
3.01081223691155
  0
ELLIPSE
  5
133
330
1F
100
AcDbEntity
  8
0
  6
HIDDEN
 62
     7
370
     0
100
AcDbEllipse
 10
206.8128019128
 20
125.2778379829
 30
0.0
 11
344.559013438712
 21
-32.42083565861797
 31
0.0
210
0.0
220
0.0
230
1.0
 40
0.1150714178
 41
4.802474374390854
 42
4.833798784521607
  0
SPLINE
  5
134
330
1F
100
AcDbEntity
  8
0
  6
HIDDEN
 62
     7
370
     0
100
AcDbSpline
210
0.0
220
0.0
230
1.0
 70
     8
 71
     3
 72
    27
 73
    23
 74
     0
 42
0.00000001
 43
0.00000001
 12
1.0
 22
0.0
 32
0.0
 13
1.0
 23
0.0
 33
0.0
 40
0.0
 40
0.0
 40
0.0
 40
0.0
 40
0.0191208361199151
 40
0.0378561899980893
 40
0.0562060668219601
 40
0.0741704721440236
 40
0.0917494119131978
 40
0.1089428925096851
 40
0.1257509207838498
 40
0.1901604588379744
 40
0.2513524268765388
 40
0.3152703964661195
 40
0.376770324765266
 40
0.5019326682348858
 40
0.6268426261147684
 40
0.6898141990186489
 40
0.7515127920066811
 40
0.8142340860067362
 40
0.8758970880771552
 40
0.9176591212479254
 40
0.9590263748238032
 40
0.9999999999999999
 40
0.9999999999999999
 40
0.9999999999999999
 40
0.9999999999999999
 10
240.9025003738856
 20
98.96504077554636
 30
0.0
 10
240.9282179003436
 20
98.80427005376997
 30
0.0
 10
240.9791344796065
 20
98.48596979997731
 30
0.0
 10
241.0549588643367
 20
98.01913810974956
 30
0.0
 10
241.1293708543502
 20
97.56605141557331
 30
0.0
 10
241.2023664996583
 20
97.12691410314271
 30
0.0
 10
241.2739200437369
 20
96.70142078346016
 30
0.0
 10
241.3440117590452
 20
96.28938987158078
 30
0.0
 10
241.4779050798291
 20
95.51110998389146
 30
0.0
 10
241.6721865619479
 20
94.4121884163885
 30
0.0
 10
241.9312967317843
 20
93.0097628324802
 30
0.0
 10
242.1863804573426
 20
91.6905184087313
 30
0.0
 10
242.5281571488591
 20
90.00634636579366
 30
0.0
 10
242.950507769153
 20
88.07972106723273
 30
0.0
 10
243.3674602277674
 20
86.3889144871396
 30
0.0
 10
243.6930739830109
 20
85.19777237596435
 30
0.0
 10
243.933729403072
 20
84.3834302926741
 30
0.0
 10
244.1683053508183
 20
83.65630922494756
 30
0.0
 10
244.3734188758212
 20
83.08113393747212
 30
0.0
 10
244.5485679967057
 20
82.635799583026
 30
0.0
 10
244.6963216644929
 20
82.28970161391044
 30
0.0
 10
244.7920590981557
 20
82.0924260747112
 30
0.0
 10
244.8396989798485
 20
81.99425984036824
 30
0.0
  0
LINE
  5
135
330
1F
100
AcDbEntity
  8
0
  6
HIDDEN
 62
     7
370
     0
100
AcDbLine
 10
240.9024990821
 20
98.9650403913
 30
0.0
 11
235.2568998659
 21
99.5584176686
 31
0.0
  0
LINE
  5
136
330
1F
100
AcDbEntity
  8
0
  6
HIDDEN
 62
     7
370
     0
100
AcDbLine
 10
233.2891866291
 20
89.8342123088
 30
0.0
 11
233.4866977954
 21
89.8191025313
 31
0.0
  0
LINE
  5
137
330
1F
100
AcDbEntity
  8
0
  6
HIDDEN
 62
     7
370
     0
100
AcDbLine
 10
233.4866977954
 20
89.8191025313
 30
0.0
 11
233.7940118933
 21
89.5134722646
 31
0.0
  0
LINE
  5
138
330
1F
100
AcDbEntity
  8
0
  6
HIDDEN
 62
     7
370
     0
100
AcDbLine
 10
233.7940118933
 20
89.5134722646
 30
0.0
 11
233.3140566671
 21
89.5501887258
 31
0.0
  0
ELLIPSE
  5
139
330
1F
100
AcDbEntity
  8
0
  6
HIDDEN
 62
     7
370
     0
100
AcDbEllipse
 10
236.9835754597
 20
94.5671550833
 30
0.0
 11
-0.940655310511744
 21
2.766158975077417
 31
0.0
210
0.0
220
0.0
230
1.0
 40
0.8539059128
 41
1.511530864617719
 42
1.597220060046382
  0
ELLIPSE
  5
13A
330
1F
100
AcDbEntity
  8
0
  6
HIDDEN
 62
     7
370
     0
100
AcDbEllipse
 10
237.444924945
 20
93.5696131247
 30
0.0
 11
2.968392757696136
 21
-0.4881156426729518
 31
0.0
210
0.0
220
0.0
230
1.0
 40
0.1367129703
 41
3.416618328448527
 42
4.00457054651516
  0
ELLIPSE
  5
13B
330
1F
100
AcDbEntity
  8
0
  6
HIDDEN
 62
     7
370
     0
100
AcDbEllipse
 10
237.9157777222
 20
92.5515228991
 30
0.0
 11
-0.9406553105117724
 21
2.766158975077403
 31
0.0
210
0.0
220
0.0
230
1.0
 40
0.8539059128
 41
0.7350371165247036
 42
0.923578646551002
  0
ELLIPSE
  5
13C
330
1F
100
AcDbEntity
  8
0
  6
HIDDEN
 62
     7
370
     0
100
AcDbEllipse
 10
237.9157777222
 20
92.5515228991
 30
0.0
 11
-0.9406553105117724
 21
2.766158975077403
 31
0.0
210
0.0
220
0.0
230
1.0
 40
0.8539059128
 41
4.738812713636194
 42
4.847837731742061
  0
SPLINE
  5
13D
330
1F
100
AcDbEntity
  8
0
  6
HIDDEN
 62
     7
370
     0
100
AcDbSpline
210
0.0
220
0.0
230
1.0
 70
     8
 71
     3
 72
    22
 73
    18
 74
     0
 42
0.00000001
 43
0.00000001
 12
1.0
 22
0.0
 32
0.0
 13
1.0
 23
0.0
 33
0.0
 40
0.0
 40
0.0
 40
0.0
 40
0.0
 40
0.1249999999999996
 40
0.1249999999999996
 40
0.2499999999999992
 40
0.2499999999999992
 40
0.4999999999999983
 40
0.4999999999999983
 40
0.6249999999999986
 40
0.6249999999999986
 40
0.7499999999999988
 40
0.7499999999999988
 40
0.8749999999999991
 40
0.8749999999999991
 40
0.9374999999999996
 40
0.9374999999999996
 40
1.0
 40
1.0
 40
1.0
 40
1.0
 10
238.2516651816861
 20
97.75303636642789
 30
0.0
 10
238.2810034719931
 20
97.72385879434485
 30
0.0
 10
238.3014413806566
 20
97.68108714913019
 30
0.0
 10
238.3282533917465
 20
97.5755718154005
 30
0.0
 10
238.3345362205893
 20
97.51255371400804
 30
0.0
 10
238.3330734993903
 20
97.3023519308898
 30
0.0
 10
238.3064066891484
 20
97.13436311868708
 30
0.0
 10
238.2150812050865
 20
96.8514082266115
 30
0.0
 10
238.1758911464863
 20
96.75174864700217
 30
0.0
 10
238.0724315165356
 20
96.54098188444488
 30
0.0
 10
238.0083005428942
 20
96.42984446396689
 30
0.0
 10
237.8413262529185
 20
96.1975021094692
 30
0.0
 10
237.7387382037424
 20
96.07548976881226
 30
0.0
 10
237.5310540310554
 20
95.88693238101709
 30
0.0
 10
237.4515630352058
 20
95.82219132059153
 30
0.0
 10
237.264118678041
 20
95.69273969100153
 30
0.0
 10
237.1567730544893
 20
95.62853825698143
 30
0.0
 10
237.0329640502871
 20
95.56905972147112
 30
0.0
  0
SPLINE
  5
13E
330
1F
100
AcDbEntity
  8
0
  6
HIDDEN
 62
     7
370
     0
100
AcDbSpline
210
0.0
220
0.0
230
1.0
 70
     8
 71
     3
 72
     8
 73
     4
 74
     0
 42
0.00000001
 43
0.00000001
 12
1.0
 22
0.0
 32
0.0
 13
1.0
 23
0.0
 33
0.0
 40
0.0
 40
0.0
 40
0.0
 40
0.0
 40
1.0
 40
1.0
 40
1.0
 40
1.0
 10
237.0329640502871
 20
95.56905972147115
 30
0.0
 10
236.8905669318862
 20
95.5241802495087
 30
0.0
 10
236.749926618162
 20
95.47148934231635
 30
0.0
 10
236.6110699331217
 20
95.41086772995006
 30
0.0
  0
SPLINE
  5
13F
330
1F
100
AcDbEntity
  8
0
  6
HIDDEN
 62
     7
370
     0
100
AcDbSpline
210
0.0
220
0.0
230
1.0
 70
     8
 71
     3
 72
    22
 73
    18
 74
     0
 42
0.00000001
 43
0.00000001
 12
1.0
 22
0.0
 32
0.0
 13
1.0
 23
0.0
 33
0.0
 40
0.0
 40
0.0
 40
0.0
 40
0.0
 40
0.0625000000000007
 40
0.0625000000000007
 40
0.1250000000000014
 40
0.1250000000000014
 40
0.1875000000000021
 40
0.1875000000000021
 40
0.2500000000000027
 40
0.2500000000000027
 40
0.3750000000000022
 40
0.3750000000000022
 40
0.5000000000000018
 40
0.5000000000000018
 40
0.7500000000000009
 40
0.7500000000000009
 40
1.0
 40
1.0
 40
1.0
 40
1.0
 10
236.6110699331217
 20
95.41086772995006
 30
0.0
 10
236.4739895190271
 20
95.37258995718088
 30
0.0
 10
236.3454278846206
 20
95.34799016578638
 30
0.0
 10
236.0987754849079
 20
95.3151562738956
 30
0.0
 10
235.9861560388317
 20
95.30769188049467
 30
0.0
 10
235.7741059126692
 20
95.3027650850545
 30
0.0
 10
235.6742201119993
 20
95.30550985581424
 30
0.0
 10
235.4877788337136
 20
95.31735382297236
 30
0.0
 10
235.4006591818639
 20
95.32645210008877
 30
0.0
 10
235.1522798053442
 20
95.35995774412332
 30
0.0
 10
235.0037679572303
 20
95.39045232443411
 30
0.0
 10
234.7289135283567
 20
95.45944730735873
 30
0.0
 10
234.6028589114964
 20
95.49815099621559
 30
0.0
 10
234.2572547248627
 20
95.61819190553706
 30
0.0
 10
234.0664333569626
 20
95.70409899550869
 30
0.0
 10
233.757662925491
 20
95.86562919845743
 30
0.0
 10
233.6383814946552
 20
95.94185229282185
 30
0.0
 10
233.5789407502451
 20
96.00096741461448
 30
0.0
  0
ELLIPSE
  5
140
330
1F
100
AcDbEntity
  8
0
  6
HIDDEN
 62
     7
370
     0
100
AcDbEllipse
 10
237.1649830547
 20
94.174910823
 30
0.0
 11
2.968392757696109
 21
-0.4881156426729519
 31
0.0
210
0.0
220
0.0
230
1.0
 40
0.1367129703
 41
4.19311207654146
 42
6.363496768503683
  0
ELLIPSE
  5
141
330
1F
100
AcDbEntity
  8
0
  6
HIDDEN
 62
     7
370
     0
100
AcDbEllipse
 10
232.2325879874
 20
102.5392587145
 30
0.0
 11
-3.010891765567124
 21
2.99439778544064
 31
0.0
210
0.0
220
0.0
230
1.0
 40
0.9890738004
 41
3.146134487125002
 42
7.645253073685931
  0
ELLIPSE
  5
142
330
1F
100
AcDbEntity
  8
0
  6
HIDDEN
 62
     7
370
     0
100
AcDbEllipse
 10
234.6901390066
 20
100.0951704169
 30
0.0
 11
3.518690774465597
 21
2.323872478491197
 31
0.0
210
0.0
220
0.0
230
1.0
 40
0.89827004
 41
3.825400951845956
 42
5.100524793084359
  0
LINE
  5
143
330
1F
100
AcDbEntity
  8
0
  6
HIDDEN
 62
     7
370
     0
100
AcDbLine
 10
233.2813039148
 20
96.2969763037
 30
0.0
 11
233.5789397085
 21
96.0009665992
 31
0.0
  0
LINE
  5
144
330
1F
100
AcDbEntity
  8
0
  6
HIDDEN
 62
     7
370
     0
100
AcDbLine
 10
238.2516644621
 20
97.7530358192
 30
0.0
 11
237.9540249431
 21
98.049043661
 31
0.0
  0
ARC
  5
145
330
1F
100
AcDbEntity
  8
0
  6
HIDDEN
 62
     7
370
     0
100
AcDbCircle
 10
235.3552692001
 20
99.4017525595
 30
0.0
 40
4.183801619696472
100
AcDbArc
 50
293.6405870206
 51
287.4670679432
  0
ARC
  5
146
330
1F
100
AcDbEntity
  8
0
  6
HIDDEN
 62
     7
370
     0
100
AcDbCircle
 10
232.2402253006
 20
91.7167661907
 30
0.0
 40
2.102382841984145
100
AcDbArc
 50
85.4876061098
 51
224.580220732
  0
LINE
  5
147
330
1F
100
AcDbEntity
  8
0
  6
HIDDEN
 62
     7
370
     0
100
AcDbLine
 10
232.4056297267
 20
93.8126323577
 30
0.0
 11
232.4667840922
 21
93.8079533931
 31
0.0
  0
LINE
  5
148
330
1F
100
AcDbEntity
  8
0
  6
HIDDEN
 62
     7
370
     0
100
AcDbLine
 10
232.9443923855
 20
93.7714157459
 30
0.0
 11
235.4642420733
 21
93.5786431488
 31
0.0
  0
LINE
  5
149
330
1F
100
AcDbEntity
  8
0
  6
HIDDEN
 62
     7
370
     0
100
AcDbLine
 10
235.6339774752
 20
94.0648177471
 30
0.0
 11
232.448969754
 21
94.3084778097
 31
0.0
  0
ARC
  5
14A
330
1F
100
AcDbEntity
  8
0
  6
HIDDEN
 62
     7
370
     0
100
AcDbCircle
 10
231.9275572575
 20
92.0266281091
 30
0.0
 40
2.098593187549616
100
AcDbArc
 50
85.3327961351
 51
234.0717115206
  0
LINE
  5
14B
330
1F
100
AcDbEntity
  8
0
  6
HIDDEN
 62
     7
370
     0
100
AcDbLine
 10
234.4164333964
 20
82.4060058054
 30
0.0
 11
233.7940118933
 21
89.5134722646
 31
0.0
  0
LINE
  5
14C
330
1F
100
AcDbEntity
  8
0
  6
HIDDEN
 62
     7
370
     0
100
AcDbLine
 10
233.2910008455
 20
89.5519507881
 30
0.0
 11
233.9127257192
 21
82.4524489995
 31
0.0
  0
LINE
  5
14D
330
1F
100
AcDbEntity
  8
0
  6
HIDDEN
 62
     7
370
     0
100
AcDbLine
 10
240.3330437565
 20
93.206166273
 30
0.0
 11
240.2521416271
 21
93.4275565501
 31
0.0
  0
LINE
  5
14E
330
1F
100
AcDbEntity
  8
0
  6
HIDDEN
 62
     7
370
     0
100
AcDbLine
 10
240.3330437565
 20
93.206166273
 30
0.0
 11
244.6917861426
 21
92.8727155384
 31
0.0
  0
LINE
  5
14F
330
1F
100
AcDbEntity
  8
0
  6
HIDDEN
 62
     7
370
     0
100
AcDbLine
 10
244.647775563
 20
93.3752422985
 30
0.0
 11
240.1291623438
 21
93.7209268864
 31
0.0
  0
LINE
  5
150
330
1F
100
AcDbEntity
  8
0
  6
HIDDEN
 62
     7
370
     0
100
AcDbLine
 10
244.6917861426
 20
92.8727155384
 30
0.0
 11
244.647775563
 21
93.3752422985
 31
0.0
  0
LINE
  5
151
330
1F
100
AcDbEntity
  8
0
  6
HIDDEN
 62
     7
370
     0
100
AcDbLine
 10
239.1172952676
 20
94.3841812965
 30
0.0
 11
237.9540249431
 21
98.049043661
 31
0.0
  0
LINE
  5
152
330
1F
100
AcDbEntity
  8
0
  6
HIDDEN
 62
     7
370
     0
100
AcDbLine
 10
240.0257296586
 20
93.5117965397
 30
0.0
 11
240.3330437565
 21
93.206166273
 31
0.0
  0
LINE
  5
153
330
1F
100
AcDbEntity
  8
0
  6
HIDDEN
 62
     7
370
     0
100
AcDbLine
 10
240.8819541061
 20
91.1687491294
 30
0.0
 11
240.0257296586
 21
93.5117965397
 31
0.0
  0
SPLINE
  5
154
330
1F
100
AcDbEntity
  8
0
  6
HIDDEN
 62
     7
370
     0
100
AcDbSpline
210
0.0
220
0.0
230
1.0
 70
     8
 71
     3
 72
     8
 73
     4
 74
     0
 42
0.00000001
 43
0.00000001
 12
1.0
 22
0.0
 32
0.0
 13
1.0
 23
0.0
 33
0.0
 40
0.0
 40
0.0
 40
0.0
 40
0.0
 40
1.0
 40
1.0
 40
1.0
 40
1.0
 10
241.0780424251899
 20
90.54110899370923
 30
0.0
 10
241.0091934391068
 20
90.75798035458901
 30
0.0
 10
240.9444562762121
 20
90.96581837972015
 30
0.0
 10
240.8819527888358
 20
91.16874920432572
 30
0.0
  0
LINE
  5
155
330
1F
100
AcDbEntity
  8
0
  6
HIDDEN
 62
     7
370
     0
100
AcDbLine
 10
240.7384782756
 20
90.8788135108
 30
0.0
 11
241.0780422116
 21
90.5411084946
 31
0.0
  0
LINE
  5
156
330
1F
100
AcDbEntity
  8
0
  6
HIDDEN
 62
     7
370
     0
100
AcDbLine
 10
244.3844720447
 20
93.178345805
 30
0.0
 11
244.6917861426
 21
92.8727155384
 31
0.0
  0
LINE
  5
157
330
1F
100
AcDbEntity
  8
0
  6
HIDDEN
 62
     7
370
     0
100
AcDbLine
 10
244.8397025192
 20
81.9942643698
 30
0.0
 11
245.3210398281
 21
82.4835812505
 31
0.0
  0
LINE
  5
158
330
1F
100
AcDbEntity
  8
0
  6
HIDDEN
 62
     7
370
     0
100
AcDbLine
 10
234.6472114051
 20
93.6911208388
 30
0.0
 11
236.2092293525
 21
89.4166817721
 31
0.0
  0
ARC
  5
159
330
1F
100
AcDbEntity
  8
0
  6
HIDDEN
 62
     7
370
     0
100
AcDbCircle
 10
239.4961509592
 20
87.757595083
 30
0.0
 40
3.681904709568748
100
AcDbArc
 50
153.2174580837
 51
67.8902371372
  0
LINE
  5
15A
330
1F
100
AcDbEntity
  8
0
  6
HIDDEN
 62
     7
370
     0
100
AcDbLine
 10
244.3844720447
 20
93.178345805
 30
0.0
 11
240.0257296586
 21
93.5117965397
 31
0.0
  0
LINE
  5
15B
330
1F
100
AcDbEntity
  8
0
  6
HIDDEN
 62
     7
370
     0
100
AcDbLine
 10
233.4866977954
 20
89.8191025313
 30
0.0
 11
234.0949855471
 21
82.8730230983
 31
0.0
  0
LINE
  5
15C
330
1F
100
AcDbEntity
  8
0
  6
HIDDEN
 62
     7
370
     0
100
AcDbLine
 10
234.5699675107
 20
93.9291762021
 30
0.0
 11
232.0983156288
 21
94.1182626244
 31
0.0
  0
LINE
  5
15D
330
1F
100
AcDbEntity
  8
0
  6
HIDDEN
 62
     7
370
     0
100
AcDbLine
 10
245.3210398281
 20
82.4835812505
 30
0.0
 11
244.3844720447
 21
93.178345805
 31
0.0
  0
LINE
  5
15E
330
1F
100
AcDbEntity
  8
0
  6
HIDDEN
 62
     7
370
     0
100
AcDbLine
 10
180.0544306362
 20
109.5143640246
 30
0.0
 11
180.0544306362
 21
103.029184958
 31
0.0
  0
LINE
  5
15F
330
1F
100
AcDbEntity
  8
0
  6
HIDDEN
 62
     7
370
     0
100
AcDbLine
 10
145.7544311607
 20
109.9452320319
 30
0.0
 11
145.7544311607
 21
103.8909209725
 31
0.0
  0
LINE
  5
160
330
1F
100
AcDbEntity
  8
0
  6
HIDDEN
 62
     7
370
     0
100
AcDbLine
 10
145.7544311607
 20
146.2076483127
 30
0.0
 11
145.7544311607
 21
140.1533372533
 31
0.0
  0
LINE
  5
161
330
1F
100
AcDbEntity
  8
0
  6
HIDDEN
 62
     7
370
     0
100
AcDbLine
 10
180.0544306362
 20
147.0693843272
 30
0.0
 11
180.0544306362
 21
140.5842052605
 31
0.0
  0
LINE
  5
162
330
1F
100
AcDbEntity
  8
0
  6
HIDDEN
 62
     7
370
     0
100
AcDbLine
 10
144.2544318462
 20
145.3416226264
 30
0.0
 11
144.2544318462
 21
139.7203244101
 31
0.0
  0
SPLINE
  5
163
330
1F
100
AcDbEntity
  8
0
  6
HIDDEN
 62
     7
370
     0
100
AcDbSpline
210
0.0
220
0.0
230
1.0
 70
     8
 71
     3
 72
    16
 73
    12
 74
     0
 42
0.00000001
 43
0.00000001
 12
1.0
 22
0.0
 32
0.0
 13
1.0
 23
0.0
 33
0.0
 40
0.0
 40
0.0
 40
0.0
 40
0.0
 40
0.2500000000000003
 40
0.2500000000000003
 40
0.3750000000000003
 40
0.3750000000000003
 40
0.5000000000000002
 40
0.5000000000000002
 40
0.7500000000000001
 40
0.7500000000000001
 40
1.0
 40
1.0
 40
1.0
 40
1.0
 10
180.9331102807145
 20
146.8193655975752
 30
0.0
 10
180.77187780323
 20
146.7213499845204
 30
0.0
 10
180.6513979635904
 20
146.5346139528444
 30
0.0
 10
180.5290174462771
 20
146.1215741452855
 30
0.0
 10
180.4980397858796
 20
145.9615736460526
 30
0.0
 10
180.4564260482517
 20
145.5947679949614
 30
0.0
 10
180.4461901353189
 20
145.3914308423374
 30
0.0
 10
180.4460017382627
 20
144.7241435757107
 30
0.0
 10
180.4861464409004
 20
144.2033291118227
 30
0.0
 10
180.6503001958399
 20
143.005970096345
 30
0.0
 10
180.7718518462495
 20
142.347700442049
 30
0.0
 10
180.9331102807145
 20
141.6331912688141
 30
0.0
  0
LINE
  5
164
330
1F
100
AcDbEntity
  8
0
  6
HIDDEN
 62
     7
370
     0
100
AcDbLine
 10
144.2544318462
 20
110.378244875
 30
0.0
 11
144.2544318462
 21
104.7569466587
 31
0.0
  0
SPLINE
  5
165
330
1F
100
AcDbEntity
  8
0
  6
HIDDEN
 62
     7
370
     0
100
AcDbSpline
210
0.0
220
0.0
230
1.0
 70
     8
 71
     3
 72
    16
 73
    12
 74
     0
 42
0.00000001
 43
0.00000001
 12
1.0
 22
0.0
 32
0.0
 13
1.0
 23
0.0
 33
0.0
 40
0.0
 40
0.0
 40
0.0
 40
0.0
 40
0.2499999999999997
 40
0.2499999999999997
 40
0.3749999999999997
 40
0.3749999999999997
 40
0.4999999999999998
 40
0.4999999999999998
 40
0.7499999999999999
 40
0.7499999999999999
 40
1.0
 40
1.0
 40
1.0
 40
1.0
 10
180.9331102807145
 20
108.465378016332
 30
0.0
 10
180.77187780323
 20
107.7509838541399
 30
0.0
 10
180.6513979635904
 20
107.0976415914312
 30
0.0
 10
180.5290174462771
 20
106.2093863496273
 30
0.0
 10
180.4980397858796
 20
105.9287058132755
 30
0.0
 10
180.4564260482517
 20
105.3996718234355
 30
0.0
 10
180.4461901353189
 20
105.156350844857
 30
0.0
 10
180.4460017382627
 20
104.4883281543438
 30
0.0
 10
180.4861464409004
 20
104.1246472449244
 30
0.0
 10
180.6503001958399
 20
103.564756372376
 30
0.0
 10
180.7718518462495
 20
103.3772350802589
 30
0.0
 10
180.9331102807145
 20
103.2792036875709
 30
0.0
  0
ARC
  5
166
330
1F
100
AcDbEntity
  8
0
  6
HIDDEN
 62
     7
370
     0
100
AcDbCircle
 10
239.4366524261
 20
87.8115983402
 30
0.0
 40
3.185025292020672
100
AcDbArc
 50
162.1282747022
 51
58.9794205187
  0
SPLINE
  5
167
330
1F
100
AcDbEntity
  8
0
  6
HIDDEN
 62
     7
370
     0
100
AcDbSpline
210
0.0
220
0.0
230
1.0
 70
     8
 71
     3
 72
     8
 73
     4
 74
     0
 42
0.00000001
 43
0.00000001
 12
1.0
 22
0.0
 32
0.0
 13
1.0
 23
0.0
 33
0.0
 40
0.0
 40
0.0
 40
0.0
 40
0.0
 40
1.0
 40
1.0
 40
1.0
 40
1.0
 10
236.2092283573979
 20
89.41668025251161
 30
0.0
 10
236.2717318447742
 20
89.21374942790602
 30
0.0
 10
236.3364690076689
 20
89.00591140277486
 30
0.0
 10
236.4053179937519
 20
88.78904004189506
 30
0.0
  0
SPLINE
  5
168
330
1F
100
AcDbEntity
  8
0
  6
HIDDEN
 62
     7
370
     0
100
AcDbSpline
210
0.0
220
0.0
230
1.0
 70
     8
 71
     3
 72
    10
 73
     6
 74
     0
 42
0.00000001
 43
0.00000001
 12
1.0
 22
0.0
 32
0.0
 13
1.0
 23
0.0
 33
0.0
 40
0.0
 40
0.0
 40
0.0
 40
0.0
 40
0.5
 40
0.5
 40
1.0
 40
1.0
 40
1.0
 40
1.0
 10
235.950034291348
 20
89.52692298798686
 30
0.0
 10
235.9575039781129
 20
89.43571703314062
 30
0.0
 10
235.9707866994259
 20
89.35324956432397
 30
0.0
 10
236.0087508376972
 20
89.21511643237652
 30
0.0
 10
236.0332300355572
 20
89.15908966332267
 30
0.0
 10
236.0657546326292
 20
89.12674323939656
 30
0.0
  0
ARC
  5
169
330
1F
100
AcDbEntity
  8
0
  6
HIDDEN
 62
     7
370
     0
100
AcDbCircle
 10
238.9054649724
 20
88.3406786011
 30
0.0
 40
3.184610833272501
100
AcDbArc
 50
158.1305419587
 51
62.9771808689
  0
SPLINE
  5
16A
330
1F
100
AcDbEntity
  8
0
  6
HIDDEN
 62
     7
370
     0
100
AcDbSpline
210
0.0
220
0.0
230
1.0
 70
     8
 71
     3
 72
    10
 73
     6
 74
     0
 42
0.00000001
 43
0.00000001
 12
1.0
 22
0.0
 32
0.0
 13
1.0
 23
0.0
 33
0.0
 40
0.0
 40
0.0
 40
0.0
 40
0.0
 40
0.5
 40
0.5
 40
1.0
 40
1.0
 40
1.0
 40
1.0
 10
240.7384790640671
 20
90.87881219121066
 30
0.0
 10
240.7060458570654
 20
90.91106772571085
 30
0.0
 10
240.6524897735569
 20
90.95610229264365
 30
0.0
 10
240.5201706942959
 20
91.05903436159356
 30
0.0
 10
240.4409760780511
 20
91.11709220601738
 30
0.0
 10
240.3523775081458
 20
91.177610713864
 30
0.0
  0
LINE
  5
16B
330
1F
100
AcDbEntity
  8
0
  6
HIDDEN
 62
     7
370
     0
100
AcDbLine
 10
236.4053174579
 20
88.7890411373
 30
0.0
 11
236.0657535219
 21
89.1267424282
 31
0.0
  0
SPLINE
  5
16C
330
1F
100
AcDbEntity
  8
0
  6
HIDDEN
 62
     7
370
     0
100
AcDbSpline
210
0.0
220
0.0
230
1.0
 70
     8
 71
     3
 72
    30
 73
    26
 74
     0
 42
0.00000001
 43
0.00000001
 12
1.0
 22
0.0
 32
0.0
 13
1.0
 23
0.0
 33
0.0
 40
0.0
 40
0.0
 40
0.0
 40
0.0
 40
0.0206709378901801
 40
0.0413375476605649
 40
0.0620051623674996
 40
0.0826791142896278
 40
0.1033647308048271
 40
0.124067330286065
 40
0.1551218195981009
 40
0.1862122950448747
 40
0.2484278434317521
 40
0.3107177761968331
 40
0.3730807455321065
 40
0.4355147546678971
 40
0.4980171261584325
 40
0.5605846151956072
 40
0.623213322546336
 40
0.6858988730367815
 40
0.7486363054269829
 40
0.8114202598978894
 40
0.8742449097190895
 40
0.9056646957396031
 40
0.93710843029683
 40
0.968537307455572
 40
0.9999999999999999
 40
0.9999999999999999
 40
0.9999999999999999
 40
0.9999999999999999
 10
245.32104165221
 20
82.48358151149426
 30
0.0
 10
245.2965649610496
 20
82.5328505554353
 30
0.0
 10
245.2476167037045
 20
82.63137832727244
 30
0.0
 10
245.1732651647098
 20
82.79174201815803
 30
0.0
 10
245.098252730494
 20
82.96127199750356
 30
0.0
 10
245.0225113730254
 20
83.14087253122494
 30
0.0
 10
244.946059087782
 20
83.33030321469478
 30
0.0
 10
244.8560589057791
 20
83.56276813788513
 30
0.0
 10
244.7520763328104
 20
83.84474357608305
 30
0.0
 10
244.5941909919547
 20
84.2967423094808
 30
0.0
 10
244.3934102651301
 20
84.91578570046124
 30
0.0
 10
244.1477042244344
 20
85.74287782744283
 30
0.0
 10
243.8976944755145
 20
86.65256108033756
 30
0.0
 10
243.6439563499434
 20
87.64281688293364
 30
0.0
 10
243.3870769768287
 20
88.71126164247734
 30
0.0
 10
243.1276440216251
 20
89.85555014080387
 30
0.0
 10
242.8662575195954
 20
91.07293493256662
 30
0.0
 10
242.6035171090187
 20
92.36071281908164
 30
0.0
 10
242.3400278081313
 20
93.71584774176878
 30
0.0
 10
242.0763984708261
 20
95.13523850152721
 30
0.0
 10
241.8571262394677
 20
96.36876543532551
 30
0.0
 10
241.682240269793
 20
97.38425968678305
 30
0.0
 10
241.551423171696
 20
98.16012039529642
 30
0.0
 10
241.4209524460904
 20
98.9487782344668
 30
0.0
 10
241.3344208983368
 20
99.48538407595956
 30
0.0
 10
241.2911318614243
 20
99.75383125716547
 30
0.0
  0
LWPOLYLINE
  5
16D
330
1F
100
AcDbEntity
  8
0
  6
HIDDEN
 62
     7
370
     0
100
AcDbPolyline
 90
       14
 70
   128
 43
0.0
 10
239.1172952676
 20
94.3841812965
 10
239.1888469184
 20
93.9194122162
 10
239.1204580391
 20
93.4307416733
 10
238.9161072398
 20
92.9465694185
 10
238.5876670206
 20
92.495034432
 10
238.1542257691
 20
92.1023776587
 10
237.6409738982
 20
91.7914202269
 10
237.0777398074
 20
91.5802335199
 10
236.4972538972
 20
91.4810886439
 10
235.9332561219
 20
91.499748623
 10
235.4185215855
 20
91.6351293977
 10
234.9829680944
 20
91.879363155
 10
234.6519015456
 20
92.2182565387
 10
234.444570514
 20
92.6321102139
  0
ELLIPSE
  5
16E
330
1F
100
AcDbEntity
  8
0
  6
HIDDEN
 62
     7
370
     0
100
AcDbEllipse
 10
237.8150594089
 20
91.2721287098
 30
0.0
 11
-0.9406553105118007
 21
2.766158975077417
 31
0.0
210
0.0
220
0.0
230
1.0
 40
0.8539059128
 41
1.939069525258292
 42
4.396963248424283
  0
LINE
  5
16F
330
1F
100
AcDbEntity
  8
0
  6
HIDDEN
 62
     7
370
     0
100
AcDbLine
 10
233.2813039148
 20
96.2969763037
 30
0.0
 11
234.444570514
 21
92.6321102139
 31
0.0
  0
LINE
  5
170
330
1F
100
AcDbEntity
  8
0
  6
HIDDEN
 62
     7
370
     0
100
AcDbLine
 10
144.2544318462
 20
139.7203244101
 30
0.0
 11
144.2544318462
 21
127.9512720481
 31
0.0
  0
LINE
  5
171
330
1F
100
AcDbEntity
  8
0
  6
HIDDEN
 62
     7
370
     0
100
AcDbLine
 10
144.2544318462
 20
122.1472972371
 30
0.0
 11
144.2544318462
 21
110.378244875
 31
0.0
  0
LINE
  5
172
330
1F
100
AcDbEntity
  8
0
  6
HIDDEN
 62
     7
370
     0
100
AcDbLine
 10
145.7544311607
 20
121.0840735417
 30
0.0
 11
145.7544311607
 21
109.9452320319
 31
0.0
  0
LINE
  5
173
330
1F
100
AcDbEntity
  8
0
  6
HIDDEN
 62
     7
370
     0
100
AcDbLine
 10
145.7544311607
 20
140.1533372533
 30
0.0
 11
145.7544311607
 21
129.0144957434
 31
0.0
  0
LINE
  5
174
330
1F
100
AcDbEntity
  8
0
  6
HIDDEN
 62
     7
370
     0
100
AcDbLine
 10
182.0544306293
 20
140.0869916957
 30
0.0
 11
182.0544306293
 21
110.0115775894
 31
0.0
  0
LINE
  5
175
330
1F
100
AcDbEntity
  8
0
  6
HIDDEN
 62
     7
370
     0
100
AcDbLine
 10
180.0544306362
 20
140.5842052605
 30
0.0
 11
180.0544306362
 21
109.5143640246
 31
0.0
  0
SPLINE
  5
176
330
1F
100
AcDbEntity
  8
0
  6
HIDDEN
 62
     7
370
     0
100
AcDbSpline
210
0.0
220
0.0
230
1.0
 70
     8
 71
     3
 72
    24
 73
    20
 74
     0
 42
0.00000001
 43
0.00000001
 12
1.0
 22
0.0
 32
0.0
 13
1.0
 23
0.0
 33
0.0
 40
0.0
 40
0.0
 40
0.0
 40
0.0
 40
0.1249999999999998
 40
0.1249999999999998
 40
0.2499999999999997
 40
0.2499999999999997
 40
0.3749999999999996
 40
0.3749999999999996
 40
0.4374999999999996
 40
0.4374999999999996
 40
0.4999999999999997
 40
0.4999999999999997
 40
0.6249999999999996
 40
0.6249999999999996
 40
0.7499999999999997
 40
0.7499999999999997
 40
0.8749999999999998
 40
0.8749999999999998
 40
1.0
 40
1.0
 40
1.0
 40
1.0
 10
150.7044306242741
 20
120.9633235894738
 30
0.0
 10
150.9422342565492
 20
121.2623306918039
 30
0.0
 10
151.1723199177605
 20
121.5666685431227
 30
0.0
 10
151.6070733163703
 20
122.1924020805186
 30
0.0
 10
151.8120061086565
 20
122.5136268078462
 30
0.0
 10
152.1771080591552
 20
123.1855525785789
 30
0.0
 10
152.3389084449467
 20
123.5408678104578
 30
0.0
 10
152.5107686495264
 20
124.0910990318102
 30
0.0
 10
152.5563538411865
 20
124.2775028167907
 30
0.0
 10
152.6188285807614
 20
124.657637318887
 30
0.0
 10
152.6354997265099
 20
124.8533071111729
 30
0.0
 10
152.6360207696864
 20
125.4317874898473
 30
0.0
 10
152.5715784687997
 20
125.8096993288161
 30
0.0
 10
152.3417293754263
 20
126.5516673539145
 30
0.0
 10
152.1832086977632
 20
126.9003828140755
 30
0.0
 10
151.8189743678631
 20
127.5734752118086
 30
0.0
 10
151.6122381277995
 20
127.8984276990502
 30
0.0
 10
151.1743001820591
 20
128.5293515095121
 30
0.0
 10
150.9430274547795
 20
128.8352412498527
 30
0.0
 10
150.7044306242742
 20
129.1352456956722
 30
0.0
  0
LINE
  5
177
330
1F
100
AcDbEntity
  8
0
  6
HIDDEN
 62
     7
370
     0
100
AcDbLine
 10
150.7044292712
 20
120.9633233789
 30
0.0
 11
150.7044292712
 21
129.1352459062
 31
0.0
  0
SPLINE
  5
178
330
1F
100
AcDbEntity
  8
0
  6
HIDDEN
 62
     7
370
     0
100
AcDbSpline
210
0.0
220
0.0
230
1.0
 70
     8
 71
     3
 72
     8
 73
     4
 74
     0
 42
0.00000001
 43
0.00000001
 12
1.0
 22
0.0
 32
0.0
 13
1.0
 23
0.0
 33
0.0
 40
0.0000249638557296
 40
0.0000249638557296
 40
0.0000249638557296
 40
0.0000249638557296
 40
0.0049776420541172
 40
0.0049776420541172
 40
0.0049776420541172
 40
0.0049776420541172
 10
145.7544306242742
 20
121.0840737457365
 30
0.0
 10
147.4044068587837
 20
121.0427945079683
 30
0.0
 10
149.0544081785287
 20
121.0025728267288
 30
0.0
 10
150.7044306242741
 20
120.9633235894738
 30
0.0
  0
SPLINE
  5
179
330
1F
100
AcDbEntity
  8
0
  6
HIDDEN
 62
     7
370
     0
100
AcDbSpline
210
0.0
220
0.0
230
1.0
 70
     8
 71
     3
 72
     8
 73
     4
 74
     0
 42
0.00000001
 43
0.00000001
 12
1.0
 22
0.0
 32
0.0
 13
1.0
 23
0.0
 33
0.0
 40
0.0000249631533153
 40
0.0000249631533153
 40
0.0000249631533153
 40
0.0000249631533153
 40
0.0049776413517028
 40
0.0049776413517028
 40
0.0049776413517028
 40
0.0049776413517028
 10
150.7044306242741
 20
129.1352456956723
 30
0.0
 10
149.0544081785287
 20
129.0959964584173
 30
0.0
 10
147.4044068587837
 20
129.0557747771778
 30
0.0
 10
145.7544306242741
 20
129.0144955394096
 30
0.0
  0
SPLINE
  5
17A
330
1F
100
AcDbEntity
  8
0
  6
HIDDEN
 62
     7
370
     0
100
AcDbSpline
210
0.0
220
0.0
230
1.0
 70
     8
 71
     3
 72
     8
 73
     4
 74
     0
 42
0.00000001
 43
0.00000001
 12
1.0
 22
0.0
 32
0.0
 13
1.0
 23
0.0
 33
0.0
 40
0.0
 40
0.0
 40
0.0
 40
0.0
 40
1.0
 40
1.0
 40
1.0
 40
1.0
 10
144.2544306242719
 20
122.1472973095927
 30
0.0
 10
144.7211912356497
 20
121.7319340639697
 30
0.0
 10
145.2269387824298
 20
121.3873436346651
 30
0.0
 10
145.7544306242742
 20
121.0840737457365
 30
0.0
  0
SPLINE
  5
17B
330
1F
100
AcDbEntity
  8
0
  6
HIDDEN
 62
     7
370
     0
100
AcDbSpline
210
0.0
220
0.0
230
1.0
 70
     8
 71
     3
 72
     8
 73
     4
 74
     0
 42
0.00000001
 43
0.00000001
 12
1.0
 22
0.0
 32
0.0
 13
1.0
 23
0.0
 33
0.0
 40
0.0
 40
0.0
 40
0.0
 40
0.0
 40
1.0
 40
1.0
 40
1.0
 40
1.0
 10
145.7544306242742
 20
129.0144955394096
 30
0.0
 10
145.2269387824306
 20
128.7112256504815
 30
0.0
 10
144.7211912356513
 20
128.3666352211775
 30
0.0
 10
144.2544306242741
 20
127.9512719755554
 30
0.0
  0
LINE
  5
17C
330
1F
100
AcDbEntity
  8
0
  6
HIDDEN
 62
     7
370
     0
100
AcDbLine
 10
144.2544318462
 20
122.1472972371
 30
0.0
 11
144.2544318462
 21
127.9512720481
 31
0.0
  0
SPLINE
  5
17D
330
1F
100
AcDbEntity
  8
0
  6
HIDDEN
 62
     7
370
     0
100
AcDbSpline
210
0.0
220
0.0
230
1.0
 70
     8
 71
     3
 72
    72
 73
    68
 74
     0
 42
0.00000001
 43
0.00000001
 12
1.0
 22
0.0
 32
0.0
 13
1.0
 23
0.0
 33
0.0
 40
-0.0312499999999999
 40
-0.0312499999999999
 40
0.0
 40
0.0
 40
0.03125
 40
0.03125
 40
0.0625
 40
0.0625
 40
0.09375
 40
0.09375
 40
0.125
 40
0.125
 40
0.15625
 40
0.15625
 40
0.1875000000000001
 40
0.1875000000000001
 40
0.2187500000000001
 40
0.2187500000000001
 40
0.2500000000000001
 40
0.2500000000000001
 40
0.2812500000000001
 40
0.2812500000000001
 40
0.3125000000000001
 40
0.3125000000000001
 40
0.3437500000000001
 40
0.3437500000000001
 40
0.3750000000000001
 40
0.3750000000000001
 40
0.3906250000000001
 40
0.3906250000000001
 40
0.4062500000000001
 40
0.4062500000000001
 40
0.4375000000000001
 40
0.4375000000000001
 40
0.4687500000000001
 40
0.4687500000000001
 40
0.5
 40
0.5
 40
0.53125
 40
0.53125
 40
0.5625
 40
0.5625
 40
0.59375
 40
0.59375
 40
0.625
 40
0.625
 40
0.65625
 40
0.65625
 40
0.6875
 40
0.6875
 40
0.71875
 40
0.71875
 40
0.75
 40
0.75
 40
0.7812500000000001
 40
0.7812500000000001
 40
0.8125000000000001
 40
0.8125000000000001
 40
0.8437500000000001
 40
0.8437500000000001
 40
0.8750000000000001
 40
0.8750000000000001
 40
0.9062500000000001
 40
0.9062500000000001
 40
0.9375000000000001
 40
0.9375000000000001
 40
0.9687500000000001
 40
0.9687500000000001
 40
1.0
 40
1.0
 40
1.03125
 40
1.03125
 10
163.3783769430993
 20
127.4901182923879
 30
0.0
 10
163.7528071629732
 20
127.9004740928731
 30
0.0
 10
163.9576597642388
 20
128.0841231755315
 30
0.0
 10
164.4005279610858
 20
128.4110780790269
 30
0.0
 10
164.6404833784041
 20
128.5548562872067
 30
0.0
 10
165.1360943611787
 20
128.7923736426526
 30
0.0
 10
165.3933606523331
 20
128.8876932075503
 30
0.0
 10
165.9267144201702
 20
129.0317787401848
 30
0.0
 10
166.2009945600685
 20
129.0795147471544
 30
0.0
 10
166.747423094648
 20
129.1250968876882
 30
0.0
 10
167.0219994131158
 20
129.123663127616
 30
0.0
 10
167.5739665873865
 20
129.0707498195251
 30
0.0
 10
167.8445835499582
 20
129.0197800933209
 30
0.0
 10
168.3708687210374
 20
128.8711734663774
 30
0.0
 10
168.628500284445
 20
128.7728880956202
 30
0.0
 10
169.1244264491185
 20
128.5286347364345
 30
0.0
 10
169.3574101269102
 20
128.3855546054124
 30
0.0
 10
169.7937434022352
 20
128.0576960549435
 30
0.0
 10
169.9990246560935
 20
127.8707024172433
 30
0.0
 10
170.3670589539537
 20
127.4612717974203
 30
0.0
 10
170.5285739439388
 20
127.2411663564358
 30
0.0
 10
170.8057316270859
 20
126.7694162749978
 30
0.0
 10
170.9221258065197
 20
126.5143997485565
 30
0.0
 10
171.0953998431663
 20
125.9931619251595
 30
0.0
 10
171.153846397632
 20
125.7256778073786
 30
0.0
 10
171.1977111231079
 20
125.3137621480462
 30
0.0
 10
171.2048913397373
 20
125.1740548449706
 30
0.0
 10
171.2039233124418
 20
124.8979317895082
 30
0.0
 10
171.1959205230282
 20
124.7607552231774
 30
0.0
 10
171.1498477911158
 20
124.3518217819142
 30
0.0
 10
171.0889129586638
 20
124.0798955329099
 30
0.0
 10
170.9107928022552
 20
123.5567150164548
 30
0.0
 10
170.7952248909129
 20
123.3080030160915
 30
0.0
 10
170.5133781069736
 20
122.8351184910995
 30
0.0
 10
170.3465081615589
 20
122.6115092738674
 30
0.0
 10
169.9771826067601
 20
122.2068518856798
 30
0.0
 10
169.7723974504626
 20
122.0224382975102
 30
0.0
 10
169.3277445029464
 20
121.6934122626158
 30
0.0
 10
169.0928953734357
 20
121.5522441866276
 30
0.0
 10
168.5994856109586
 20
121.3138346578471
 30
0.0
 10
168.338198657254
 20
121.2160521014422
 30
0.0
 10
167.8074603767413
 20
121.0707240732521
 30
0.0
 10
167.537820675844
 20
121.0224346830572
 30
0.0
 10
166.9900693360988
 20
120.9740194592705
 30
0.0
 10
166.7101652942402
 20
120.9744776449065
 30
0.0
 10
166.1630873864052
 20
121.0246295005086
 30
0.0
 10
165.8934822817178
 20
121.0738030675407
 30
0.0
 10
165.3623275250617
 20
121.2214775908477
 30
0.0
 10
165.1010327086181
 20
121.3206327552133
 30
0.0
 10
164.6087187304428
 20
121.56164552569
 30
0.0
 10
164.3747618548641
 20
121.7041336503147
 30
0.0
 10
163.9325932343337
 20
122.0356210792997
 30
0.0
 10
163.727399703222
 20
122.223054707288
 30
0.0
 10
163.3617054868641
 20
122.6299584263385
 30
0.0
 10
163.1989348644757
 20
122.8511375010075
 30
0.0
 10
162.9179824337101
 20
123.3308848302227
 30
0.0
 10
162.8047785814366
 20
123.580896797033
 30
0.0
 10
162.6321698572977
 20
124.1009720070534
 30
0.0
 10
162.5725635746213
 20
124.3747034716832
 30
0.0
 10
162.5146718045515
 20
124.9233211215817
 30
0.0
 10
162.5154613434114
 20
125.1976609854733
 30
0.0
 10
162.5766518190279
 20
125.7464029366122
 30
0.0
 10
162.6377805427619
 20
126.0194682504694
 30
0.0
 10
162.8138602283917
 20
126.5396334992378
 30
0.0
 10
162.9301908233817
 20
126.7919526327967
 30
0.0
 10
163.2133920531224
 20
127.2683569742037
 30
0.0
 10
163.3783769430993
 20
127.4901182923879
 30
0.0
 10
163.7528071629732
 20
127.9004740928731
 30
0.0
  0
CIRCLE
  5
17E
330
1F
100
AcDbEntity
  8
0
  6
HIDDEN
 62
     7
370
     0
100
AcDbCircle
 10
166.7544306243
 20
125.0492846426
 30
0.0
 40
4.049999999999997
  0
LINE
  5
17F
330
1F
100
AcDbEntity
  8
0
  6
HIDDEN
 62
     7
370
     0
100
AcDbLine
 10
220.406004014
 20
149.5756814089
 30
0.0
 11
220.406004014
 21
149.5681656357
 31
0.0
  0
LINE
  5
180
330
1F
100
AcDbEntity
  8
0
  6
HIDDEN
 62
     7
370
     0
100
AcDbLine
 10
220.406004014
 20
125.0492846426
 30
0.0
 11
220.406004014
 21
149.5756814089
 31
0.0
  0
ELLIPSE
  5
181
330
1F
100
AcDbEntity
  8
0
  6
HIDDEN
 62
     7
370
     0
100
AcDbEllipse
 10
238.4848318598
 20
125.0492846426
 30
0.0
 11
-22.77024170696376
 21
31.99658238112967
 31
0.0
210
0.0
220
0.0
230
1.0
 40
0.0205386817
 41
0.6828854972773102
 42
1.556181095642701
  0
CIRCLE
  5
182
330
1F
100
AcDbEntity
  8
0
  6
HIDDEN
 62
     7
370
     0
100
AcDbCircle
 10
194.2544306243
 20
125.0492846426
 30
0.0
 40
2.0
  0
LINE
  5
183
330
1F
100
AcDbEntity
  8
0
  6
HIDDEN
 62
     7
370
     0
100
AcDbLine
 10
220.406004014
 20
125.0492846426
 30
0.0
 11
220.406004014
 21
122.4485132676
 31
0.0
  0
SPLINE
  5
184
330
1F
100
AcDbEntity
  8
0
  6
HIDDEN
 62
     7
370
     0
100
AcDbSpline
210
0.0
220
0.0
230
1.0
 70
     8
 71
     3
 72
     9
 73
     5
 74
     0
 42
0.00000001
 43
0.00000001
 12
1.0
 22
0.0
 32
0.0
 13
1.0
 23
0.0
 33
0.0
 40
0.0
 40
0.0
 40
0.0
 40
0.0
 40
0.4979741177968006
 40
1.0
 40
1.0
 40
1.0
 40
1.0
 10
241.291128813765
 20
99.75383273476774
 30
0.0
 10
241.2272309484565
 20
99.62259973443471
 30
0.0
 10
241.0989153131154
 20
99.3590659569893
 30
0.0
 10
240.9681456772438
 20
99.09674122203411
 30
0.0
 10
240.90249593543
 20
98.96504741554453
 30
0.0
  0
LINE
  5
185
330
1F
100
AcDbEntity
  8
0
  6
HIDDEN
 62
     7
370
     0
100
AcDbLine
 10
241.2911325419
 20
99.7538333591
 30
0.0
 11
239.0099324012
 21
122.9190963619
 31
0.0
  0
LINE
  5
186
330
1F
100
AcDbEntity
  8
0
  6
HIDDEN
 62
     7
370
     0
100
AcDbLine
 10
239.0099324012
 20
122.9190963619
 30
0.0
 11
237.4949536944
 21
125.0492846426
 31
0.0
  0
LINE
  5
187
330
1F
100
AcDbEntity
  8
0
  6
HIDDEN
 62
     7
370
     0
100
AcDbLine
 10
206.2544308329
 20
109.3010762539
 30
0.0
 11
206.2544308329
 21
112.7992849629
 31
0.0
  0
LINE
  5
188
330
1F
100
AcDbEntity
  8
0
  6
HIDDEN
 62
     7
370
     0
100
AcDbLine
 10
200.2544298494
 20
112.7992849629
 30
0.0
 11
200.2544298494
 21
109.2993663456
 31
0.0
  0
LINE
  5
189
330
1F
100
AcDbEntity
  8
0
  6
HIDDEN
 62
     7
370
     0
100
AcDbLine
 10
182.2544306243
 20
100.7992839273
 30
0.0
 11
182.3473238447
 21
100.8921777662
 31
0.0
  0
LINE
  5
18A
330
1F
100
AcDbEntity
  8
0
  6
HIDDEN
 62
     7
370
     0
100
AcDbLine
 10
182.3473238447
 20
149.2063915189
 30
0.0
 11
182.2544306243
 21
149.2992853578
 31
0.0
  0
ARC
  5
18B
330
1F
100
AcDbEntity
  8
0
  6
HIDDEN
 62
     7
370
     0
100
AcDbCircle
 10
181.6402170619
 20
101.5992846426
 30
0.0
 40
0.9999999999999716
100
AcDbArc
 50
315.0
 51
0.0
  0
ARC
  5
18C
330
1F
100
AcDbEntity
  8
0
  6
HIDDEN
 62
     7
370
     0
100
AcDbCircle
 10
181.6402170619
 20
101.5992846426
 30
0.0
 40
0.9999999999999927
100
AcDbArc
 50
0.0
 51
52.1052014664
  0
ARC
  5
18D
330
1F
100
AcDbEntity
  8
0
  6
HIDDEN
 62
     7
370
     0
100
AcDbCircle
 10
181.6402170619
 20
148.4992846426
 30
0.0
 40
0.9999999999999776
100
AcDbArc
 50
351.8087250651
 51
45.0
  0
ARC
  5
18E
330
1F
100
AcDbEntity
  8
0
  6
HIDDEN
 62
     7
370
     0
100
AcDbCircle
 10
181.6402170619
 20
148.4992846426
 30
0.0
 40
1.000000000000004
100
AcDbArc
 50
307.8947985336
 51
351.8087250651
  0
LINE
  5
18F
330
1F
100
AcDbEntity
  8
0
  6
HIDDEN
 62
     7
370
     0
100
AcDbLine
 10
182.6402170601
 20
101.599284431
 30
0.0
 11
182.6402170601
 21
148.4992848542
 31
0.0
  0
LINE
  5
190
330
1F
100
AcDbEntity
  8
0
  6
HIDDEN
 62
     7
370
     0
100
AcDbLine
 10
182.6402170601
 20
101.599284431
 30
0.0
 11
182.6402170601
 21
148.4992848542
 31
0.0
  0
LINE
  5
191
330
1F
100
AcDbEntity
  8
0
  6
HIDDEN
 62
     7
370
     0
100
AcDbLine
 10
205.7544298196
 20
116.2000866439
 30
0.0
 11
205.7544298196
 21
120.5516103488
 31
0.0
  0
LINE
  5
192
330
1F
100
AcDbEntity
  8
0
  6
HIDDEN
 62
     7
370
     0
100
AcDbLine
 10
205.7544298196
 20
112.9494998437
 30
0.0
 11
205.7544298196
 21
114.0494616535
 31
0.0
  0
LINE
  5
193
330
1F
100
AcDbEntity
  8
0
  6
HIDDEN
 62
     7
370
     0
100
AcDbLine
 10
200.7544308627
 20
120.5532499421
 30
0.0
 11
200.7544308627
 21
112.9494998437
 31
0.0
  0
LINE
  5
194
330
1F
100
AcDbEntity
  8
0
  6
HIDDEN
 62
     7
370
     0
100
AcDbLine
 10
203.2060481334
 20
112.4805593696
 30
0.0
 11
212.293450507
 21
105.1263278183
 31
0.0
  0
LINE
  5
195
330
1F
100
AcDbEntity
  8
0
  6
HIDDEN
 62
     7
370
     0
100
AcDbLine
 10
212.1292080456
 20
111.6914497521
 30
0.0
 11
205.6775640422
 21
116.912621988
 31
0.0
  0
LINE
  5
196
330
1F
100
AcDbEntity
  8
0
  6
HIDDEN
 62
     7
370
     0
100
AcDbLine
 10
144.2544318462
 20
108.8528549131
 30
0.0
 11
145.7846581662
 21
109.7363335844
 31
0.0
  0
LINE
  5
197
330
1F
100
AcDbEntity
  8
0
  6
HIDDEN
 62
     7
370
     0
100
AcDbLine
 10
145.7846581662
 20
140.3622357007
 30
0.0
 11
144.2544318462
 21
141.245714372
 31
0.0
  0
ARC
  5
198
330
1F
100
AcDbEntity
  8
0
  6
HIDDEN
 62
     7
370
     0
100
AcDbCircle
 10
154.2544306243
 20
111.0492846426
 30
0.0
 40
2.000000000000001
100
AcDbArc
 50
189.9742217944
 51
270.0
  0
ARC
  5
199
330
1F
100
AcDbEntity
  8
0
  6
HIDDEN
 62
     7
370
     0
100
AcDbCircle
 10
154.2544306243
 20
139.0492846426
 30
0.0
 40
2.000000000000004
100
AcDbArc
 50
90.0
 51
170.0257782056
  0
ARC
  5
19A
330
1F
100
AcDbEntity
  8
0
  6
HIDDEN
 62
     7
370
     0
100
AcDbCircle
 10
155.2562319392
 20
111.0492846426
 30
0.0
 40
2.0
100
AcDbArc
 50
270.0
 51
315.0
  0
ARC
  5
19B
330
1F
100
AcDbEntity
  8
0
  6
HIDDEN
 62
     7
370
     0
100
AcDbCircle
 10
155.2562319392
 20
139.0492846426
 30
0.0
 40
1.999999999999996
100
AcDbArc
 50
45.0
 51
90.0
  0
LINE
  5
19C
330
1F
100
AcDbEntity
  8
0
  6
HIDDEN
 62
     7
370
     0
100
AcDbLine
 10
154.25442976
 20
109.0492838826
 30
0.0
 11
155.2562311018
 21
109.0492838826
 31
0.0
  0
LINE
  5
19D
330
1F
100
AcDbEntity
  8
0
  6
HIDDEN
 62
     7
370
     0
100
AcDbLine
 10
155.2562311018
 20
141.0492854025
 30
0.0
 11
154.25442976
 21
141.0492854025
 31
0.0
  0
LINE
  5
19E
330
1F
100
AcDbEntity
  8
0
  6
HIDDEN
 62
     7
370
     0
100
AcDbLine
 10
156.670446294
 20
109.6350708809
 30
0.0
 11
158.0846596235
 21
111.0492842104
 31
0.0
  0
LINE
  5
19F
330
1F
100
AcDbEntity
  8
0
  6
HIDDEN
 62
     7
370
     0
100
AcDbLine
 10
158.0846596235
 20
139.0492850747
 30
0.0
 11
156.670446294
 21
140.4634984043
 31
0.0
  0
LINE
  5
1A0
330
1F
100
AcDbEntity
  8
0
  6
HIDDEN
 62
     7
370
     0
100
AcDbLine
 10
145.7846581662
 20
109.7363335844
 30
0.0
 11
150.6846591556
 21
111.0492842104
 31
0.0
  0
LINE
  5
1A1
330
1F
100
AcDbEntity
  8
0
  6
HIDDEN
 62
     7
370
     0
100
AcDbLine
 10
150.6846591556
 20
139.0492850747
 30
0.0
 11
145.7846581662
 21
140.3622357007
 31
0.0
  0
LINE
  5
1A2
330
1F
100
AcDbEntity
  8
0
  6
HIDDEN
 62
     7
370
     0
100
AcDbLine
 10
152.2846583003
 20
139.3956951629
 30
0.0
 11
151.6846593195
 21
139.0492850747
 31
0.0
  0
LINE
  5
1A3
330
1F
100
AcDbEntity
  8
0
  6
HIDDEN
 62
     7
370
     0
100
AcDbLine
 10
151.6846593195
 20
111.0492842104
 30
0.0
 11
152.2846583003
 21
110.7028741222
 31
0.0
  0
ARC
  5
1A4
330
1F
100
AcDbEntity
  8
0
  6
HIDDEN
 62
     7
370
     0
100
AcDbCircle
 10
170.7544306243
 20
111.5492846426
 30
0.0
 40
0.5
100
AcDbArc
 50
270.0
 51
0.0
  0
ARC
  5
1A5
330
1F
100
AcDbEntity
  8
0
  6
HIDDEN
 62
     7
370
     0
100
AcDbCircle
 10
170.7544306243
 20
138.5492846426
 30
0.0
 40
0.5
100
AcDbArc
 50
0.0
 51
90.0
  0
LINE
  5
1A6
330
1F
100
AcDbEntity
  8
0
  6
HIDDEN
 62
     7
370
     0
100
AcDbLine
 10
158.0846596235
 20
111.0492842104
 30
0.0
 11
170.7544306019
 21
111.0492842104
 31
0.0
  0
LINE
  5
1A7
330
1F
100
AcDbEntity
  8
0
  6
HIDDEN
 62
     7
370
     0
100
AcDbLine
 10
170.7544306019
 20
139.0492850747
 30
0.0
 11
158.0846596235
 21
139.0492850747
 31
0.0
  0
LINE
  5
1A8
330
1F
100
AcDbEntity
  8
0
  6
HIDDEN
 62
     7
370
     0
100
AcDbLine
 10
150.6846591556
 20
111.0492842104
 30
0.0
 11
151.6846593195
 21
111.0492842104
 31
0.0
  0
LINE
  5
1A9
330
1F
100
AcDbEntity
  8
0
  6
HIDDEN
 62
     7
370
     0
100
AcDbLine
 10
151.6846593195
 20
139.0492850747
 30
0.0
 11
150.6846591556
 21
139.0492850747
 31
0.0
  0
LINE
  5
1AA
330
1F
100
AcDbEntity
  8
0
  6
HIDDEN
 62
     7
370
     0
100
AcDbLine
 10
171.2544306839
 20
114.7992843595
 30
0.0
 11
172.5044304231
 21
116.04928503
 31
0.0
  0
LINE
  5
1AB
330
1F
100
AcDbEntity
  8
0
  6
HIDDEN
 62
     7
370
     0
100
AcDbLine
 10
172.5044304231
 20
134.0492842551
 30
0.0
 11
171.2544306839
 21
135.2992849257
 31
0.0
  0
LINE
  5
1AC
330
1F
100
AcDbEntity
  8
0
  6
HIDDEN
 62
     7
370
     0
100
AcDbLine
 10
209.2544313246
 20
134.0492842551
 30
0.0
 11
172.5044304231
 21
134.0492842551
 31
0.0
  0
LINE
  5
1AD
330
1F
100
AcDbEntity
  8
0
  6
HIDDEN
 62
     7
370
     0
100
AcDbLine
 10
172.5044304231
 20
116.04928503
 30
0.0
 11
209.2544313246
 21
116.04928503
 31
0.0
  0
LINE
  5
1AE
330
1F
100
AcDbEntity
  8
0
  6
HIDDEN
 62
     7
370
     0
100
AcDbLine
 10
209.2544313246
 20
116.04928503
 30
0.0
 11
214.6621763432
 21
125.0492846426
 31
0.0
  0
LINE
  5
1AF
330
1F
100
AcDbEntity
  8
0
  6
HIDDEN
 62
     7
370
     0
100
AcDbLine
 10
214.6621763432
 20
125.0492846426
 30
0.0
 11
209.2544313246
 21
134.0492842551
 31
0.0
  0
LINE
  5
1B0
330
1F
100
AcDbEntity
  8
0
  6
HIDDEN
 62
     7
370
     0
100
AcDbLine
 10
232.9713634873
 20
96.8683203515
 30
0.0
 11
233.3977788413
 21
96.4442444798
 31
0.0
  0
LINE
  5
1B1
330
1F
100
AcDbEntity
  8
0
  6
HIDDEN
 62
     7
370
     0
100
AcDbLine
 10
238.3339114213
 20
101.4075679537
 30
0.0
 11
237.9074997926
 21
101.8316438254
 31
0.0
  0
LINE
  5
1B2
330
1F
100
AcDbEntity
  8
0
  6
HIDDEN
 62
     7
370
     0
100
AcDbLine
 10
230.5881462717
 20
90.3117498215
 30
0.0
 11
231.0794301057
 21
89.8231556472
 31
0.0
  0
LINE
  5
1B3
330
1F
100
AcDbEntity
  8
0
  6
HIDDEN
 62
     7
370
     0
100
AcDbLine
 10
240.1442423189
 20
93.6887590047
 30
0.0
 11
238.298591944
 21
97.679470649
 31
0.0
  0
LINE
  5
1B4
330
1F
100
AcDbEntity
  8
0
  6
HIDDEN
 62
     7
370
     0
100
AcDbLine
 10
229.3195061112
 20
99.5129300114
 30
0.0
 11
232.4337854708
 21
96.4157124814
 31
0.0
  0
LINE
  5
1B5
330
1F
100
AcDbEntity
  8
0
  6
HIDDEN
 62
     7
370
     0
100
AcDbLine
 10
238.3571460569
 20
102.3717010226
 30
0.0
 11
235.1942665601
 21
105.5172523316
 31
0.0
  0
LINE
  5
1B6
330
1F
100
AcDbEntity
  8
0
  6
HIDDEN
 62
     7
370
     0
100
AcDbLine
 10
230.4354503477
 20
90.5467187818
 30
0.0
 11
230.7427644456
 21
90.2410885152
 31
0.0
  0
LINE
  5
1B7
330
1F
100
AcDbEntity
  8
0
  6
HIDDEN
 62
     7
370
     0
100
AcDbLine
 10
241.6776425863
 20
90.0747356769
 30
0.0
 11
241.144546094
 21
90.6049115416
 31
0.0
  0
LINE
  5
1B8
330
1F
100
AcDbEntity
  8
0
  6
HIDDEN
 62
     7
370
     0
100
AcDbLine
 10
236.6315096343
 20
86.0670124944
 30
0.0
 11
237.1646024013
 21
85.536840355
 31
0.0
  0
LINE
  5
1B9
330
1F
100
AcDbEntity
  8
0
  6
HIDDEN
 62
     7
370
     0
100
AcDbLine
 10
234.5118529821
 20
92.4587277528
 30
0.0
 11
236.0070131445
 21
89.2258575019
 31
0.0
  0
LINE
  5
1BA
330
1F
100
AcDbEntity
  8
VERMASSUNG
  6
CENTERX2
100
AcDbLine
 10
137.3771756049
 20
125.0492846426
 30
0.0
 11
247.2544306243
 21
125.0492846426
 31
0.0
  0
LINE
  5
1BB
330
1F
100
AcDbEntity
  8
VERMASSUNG
  6
CENTERX2
100
AcDbLine
 10
247.2544306243
 20
80.0492846426
 30
0.0
 11
247.2544306243
 21
125.0492846426
 31
0.0
  0
LINE
  5
1BC
330
1F
100
AcDbEntity
  8
VERMASSUNG
  6
CENTERX2
100
AcDbLine
 10
247.2544306243
 20
80.0492846426
 30
0.0
 11
260.7013573923
 21
80.0492846426
 31
0.0
  0
DIMENSION
  5
1BD
330
1F
100
AcDbEntity
  8
VERMASSUNG
100
AcDbDimension
  2
_D
 10
247.2544306243
 20
64.0201240508
 30
0.0
 11
195.7544306243
 21
64.0201240508
 31
0.0
 70
   160
  1
<>
 71
     2
 42
-1.0
  3
SLDDIMSTYLE0
100
AcDbAlignedDimension
 13
144.2544306243
 23
104.7569466501
 33
0.0
 14
247.2544306243
 24
80.0492846426
 34
0.0
100
AcDbRotatedDimension
  0
DIMENSION
  5
1C8
330
1F
100
AcDbEntity
  8
VERMASSUNG
100
AcDbDimension
  2
_D_1
 10
270.3190598638
 20
125.0492846426
 30
0.0
 11
270.3190598638
 21
102.5492846426
 31
0.0
 70
   160
  1
<>
 71
     2
 42
-1.0
  3
SLDDIMSTYLE1
100
AcDbAlignedDimension
 13
260.7013573923
 23
80.0492846426
 33
0.0
 14
247.2544306243
 24
125.0492846426
 34
0.0
 50
90.0
100
AcDbRotatedDimension
  0
DIMENSION
  5
1D5
330
1F
100
AcDbEntity
  8
VERMASSUNG
100
AcDbDimension
  2
_D_2
 10
247.2544306243
 20
72.5979208915
 30
0.0
 11
214.7544306243
 21
72.5979208915
 31
0.0
 70
   160
  1
<>
 71
     2
 42
-1.0
  3
SLDDIMSTYLE1
100
AcDbAlignedDimension
 13
182.2544306243
 23
94.0492846426
 33
0.0
 14
247.2544306243
 24
80.0492846426
 34
0.0
100
AcDbRotatedDimension
  0
DIMENSION
  5
1E1
330
1F
100
AcDbEntity
  8
VERMASSUNG
100
AcDbDimension
  2
_D_3
 10
247.2529168418
 20
80.4861425745
 30
0.0
 11
257.5859567336
 21
91.2850109605
 31
0.0
 70
   162
  1
<>
 71
     1
 42
-1.0
  3
SLDDIMSTYLE2
100
AcDb2LineAngularDimension
 13
260.7013573923
 23
80.0492846426
 33
0.0
 14
247.2544306243
 24
80.0492846426
 34
0.0
 15
246.205533024
 25
92.4462874325
 35
0.0
 16
257.5859567336
 26
91.2850109605
 36
0.0
  0
DIMENSION
  5
1EC
330
1F
100
AcDbEntity
  8
VERMASSUNG
100
AcDbDimension
  2
_D_4
 10
130.6961958919
 20
93.5492846426
 30
0.0
 11
130.6961958919
 21
125.0492846426
 31
0.0
 70
   160
  1
PSC%%c<>
 71
     2
 42
-1.0
  3
SLDDIMSTYLE0
100
AcDbAlignedDimension
 13
182.7544306243
 23
156.5492846426
 33
0.0
 14
182.7544306243
 24
93.5492846426
 34
0.0
 50
90.0
100
AcDbRotatedDimension
  0
LINE
  5
1F8
330
1F
100
AcDbEntity
  8
0
  6
Continuous
 62
     7
370
    15
100
AcDbLine
 10
67.4796084494
 20
102.5549145248
 30
0.0
 11
67.3006890428
 21
102.3314548489
 31
0.0
  0
LINE
  5
1F9
330
1F
100
AcDbEntity
  8
0
  6
Continuous
 62
     7
370
    15
100
AcDbLine
 10
68.0283355613
 20
95.4083604571
 30
0.0
 11
68.2498050009
 21
95.226983523
 31
0.0
  0
LINE
  5
1FA
330
1F
100
AcDbEntity
  8
0
  6
Continuous
 62
     7
370
    15
100
AcDbLine
 10
70.5340038766
 20
80.0493089315
 30
0.0
 11
75.2419951458
 21
80.5441392418
 31
0.0
  0
LINE
  5
1FB
330
1F
100
AcDbEntity
  8
0
  6
Continuous
 62
     7
370
    15
100
AcDbLine
 10
69.2132018593
 20
82.814681327
 30
0.0
 11
69.6380688895
 21
82.2179121729
 31
0.0
  0
SPLINE
  5
1FC
330
1F
100
AcDbEntity
  8
0
  6
Continuous
 62
     7
370
    15
100
AcDbSpline
210
0.0
220
0.0
230
1.0
 70
     8
 71
     3
 72
    12
 73
     8
 74
     0
 42
0.00000001
 43
0.00000001
 12
1.0
 22
0.0
 32
0.0
 13
1.0
 23
0.0
 33
0.0
 40
0.0
 40
0.0
 40
0.0
 40
0.0
 40
0.2482238089090336
 40
0.4614912989856879
 40
0.6494371079086535
 40
0.8825497855084363
 40
0.9999999999999999
 40
0.9999999999999999
 40
0.9999999999999999
 40
0.9999999999999999
 10
68.58911724695746
 20
92.61998811924046
 30
0.0
 10
68.58984431667007
 20
92.61846586044159
 30
0.0
 10
68.59119606591442
 20
92.61563571617145
 30
0.0
 10
68.61104658167716
 20
92.55105541814554
 30
0.0
 10
68.62361768090621
 20
92.42635836171503
 30
0.0
 10
68.61614346709409
 20
92.28110468511042
 30
0.0
 10
68.56989944105241
 20
92.19283097732436
 30
0.0
 10
68.55440615610961
 20
92.16325635277813
 30
0.0
  0
LINE
  5
1FD
330
1F
100
AcDbEntity
  8
0
  6
Continuous
 62
     7
370
    15
100
AcDbLine
 10
68.5464275156
 20
92.1656405386
 30
0.0
 11
68.2421565142
 21
91.4641497489
 31
0.0
  0
LINE
  5
1FE
330
1F
100
AcDbEntity
  8
0
  6
Continuous
 62
     7
370
    15
100
AcDbLine
 10
68.0197031324
 20
93.7523087319
 30
0.0
 11
67.7211655856
 21
93.7209306117
 31
0.0
  0
LINE
  5
1FF
330
1F
100
AcDbEntity
  8
0
  6
Continuous
 62
     7
370
    15
100
AcDbLine
 10
75.2080568199
 20
81.2424896117
 30
0.0
 11
77.8826168825
 21
81.5236000177
 31
0.0
  0
LINE
  5
200
330
1F
100
AcDbEntity
  8
0
  6
Continuous
 62
     7
370
    15
100
AcDbLine
 10
77.8929638763
 20
81.5302533861
 30
0.0
 11
78.155223382
 21
81.8578032609
 31
0.0
  0
LWPOLYLINE
  5
201
330
1F
100
AcDbEntity
  8
0
  6
Continuous
 62
     7
370
    15
100
AcDbPolyline
 90
       31
 70
   128
 43
0.0
 10
67.3008762387
 20
102.3316895422
 10
67.376940613
 20
102.3396840152
 10
67.4672446766
 20
102.1962081846
 10
67.5678414845
 20
101.9075335767
 10
67.6743347284
 20
101.4862740245
 10
67.7820701239
 20
100.9508436378
 10
67.8863389038
 20
100.3246428277
 10
67.982584107
 20
99.6350375768
 10
68.066599415
 20
98.9121692088
 10
68.1347128556
 20
98.187630048
 10
68.1839476892
 20
97.4930831995
 10
68.2121520949
 20
96.8588879164
 10
68.2180932344
 20
96.312758496
 10
68.2015117344
 20
95.8785647359
 10
68.1631319311
 20
95.5752814021
 10
68.1046316021
 20
95.4161668029
 10
68.0285672278
 20
95.4081723299
 10
67.9382631642
 20
95.5516481605
 10
67.8376661235
 20
95.8403227683
 10
67.7311731123
 20
96.2615804579
 10
67.6234377169
 20
96.7970108446
 10
67.5191689369
 20
97.4232116547
 10
67.4229237338
 20
98.1128169056
 10
67.3389084258
 20
98.8356852736
 10
67.2707949852
 20
99.560226297
 10
67.2215601516
 20
100.2547712829
 10
67.1933557459
 20
100.8889684286
 10
67.1874146064
 20
101.435097849
 10
67.2039961063
 20
101.8692916092
 10
67.2423756768
 20
102.1725730803
 10
67.3008762387
 20
102.3316895422
  0
LWPOLYLINE
  5
202
330
1F
100
AcDbEntity
  8
0
  6
Continuous
 62
     7
370
    15
100
AcDbPolyline
 90
       24
 70
   128
 43
0.0
 10
67.4731094477
 20
100.8497914132
 10
67.5315161788
 20
100.8384777065
 10
67.6026228902
 20
100.681464171
 10
67.681155735
 20
100.3903923389
 10
67.7612904546
 20
99.9868521299
 10
67.837083814
 20
99.5007706639
 10
67.902914583
 20
98.9681994375
 10
67.953900303
 20
98.4286358412
 10
67.9862595716
 20
97.9220988061
 10
67.9975926031
 20
97.4861541595
 10
67.9870588792
 20
97.153133696
 10
67.9554393136
 20
96.9477379527
 10
67.9050794424
 20
96.8851977792
 10
67.839713869
 20
96.9701530244
 10
67.7641905931
 20
97.1963023599
 10
67.6841110543
 20
97.5468745288
 10
67.6054138311
 20
97.9958670046
 10
67.5339362205
 20
98.5099812802
 10
67.4749788449
 20
99.0510871466
 10
67.4329144967
 20
99.5790557768
 10
67.4108628736
 20
100.0547269192
 10
67.4104596109
 20
100.4428239372
 10
67.431734511
 20
100.7145633753
 10
67.4731094477
 20
100.8497914132
  0
LINE
  5
203
330
1F
100
AcDbEntity
  8
0
  6
Continuous
 62
     7
370
    15
100
AcDbLine
 10
67.9017285437
 20
98.9659102466
 30
0.0
 11
67.8076298063
 21
98.7029047515
 31
0.0
  0
LINE
  5
204
330
1F
100
AcDbEntity
  8
0
  6
Continuous
 62
     7
370
    15
100
AcDbLine
 10
67.8076298063
 20
98.7029047515
 30
0.0
 11
67.9480401886
 21
98.4601890501
 31
0.0
  0
LINE
  5
205
330
1F
100
AcDbEntity
  8
0
  6
Continuous
 62
     7
370
    15
100
AcDbLine
 10
67.9287366656
 20
98.7156340685
 30
0.0
 11
67.8076298063
 21
98.7029047515
 31
0.0
  0
LINE
  5
206
330
1F
100
AcDbEntity
  8
0
  6
Continuous
 62
     7
370
    15
100
AcDbLine
 10
67.7251968154
 20
93.2840956207
 30
0.0
 11
69.0929496049
 21
81.3239505347
 31
0.0
  0
ARC
  5
207
330
1F
100
AcDbEntity
  8
0
  6
Continuous
 62
     7
370
    15
100
AcDbCircle
 10
68.6090316337
 20
93.5024499459
 30
0.0
 40
0.9104079291005915
100
AcDbArc
 50
166.1879831651
 51
193.8772325519
  0
LINE
  5
208
330
1F
100
AcDbEntity
  8
0
  6
Continuous
 62
     7
370
    15
100
AcDbLine
 10
69.086411604
 20
92.8039392289
 30
0.0
 11
67.7249488507
 21
93.7197981235
 31
0.0
  0
ARC
  5
209
330
1F
100
AcDbEntity
  8
0
  6
Continuous
 62
     7
370
    15
100
AcDbCircle
 10
68.0937427578
 20
92.4066721441
 30
0.0
 40
1.069211192801165
100
AcDbArc
 50
2.1234334668
 51
21.811337765
  0
LINE
  5
20A
330
1F
100
AcDbEntity
  8
0
  6
Continuous
 62
     7
370
    15
100
AcDbLine
 10
70.5299724904
 20
80.4861439224
 30
0.0
 11
69.1622197482
 21
92.4462890085
 31
0.0
  0
ARC
  5
20B
330
1F
100
AcDbEntity
  8
0
  6
Continuous
 62
     7
370
    15
100
AcDbCircle
 10
69.6461448923
 20
80.267789247
 30
0.0
 40
0.9104010036805948
100
AcDbArc
 50
346.1878987103
 51
13.8773629332
  0
LINE
  5
20C
330
1F
100
AcDbEntity
  8
0
  6
Continuous
 62
     7
370
    15
100
AcDbLine
 10
69.1687577491
 20
80.9663003143
 30
0.0
 11
70.5302206297
 21
80.0504414197
 31
0.0
  0
ARC
  5
20D
330
1F
100
AcDbEntity
  8
0
  6
Continuous
 62
     7
370
    15
100
AcDbCircle
 10
70.1614070136
 20
81.3635632486
 30
0.0
 40
1.069191470835121
100
AcDbArc
 50
182.1232500803
 51
201.8115211514
  0
ARC
  5
20E
330
1F
100
AcDbEntity
  8
0
  6
Continuous
 62
     7
370
    15
100
AcDbCircle
 10
69.6884507264
 20
80.2767551209
 30
0.0
 40
0.8648775553167131
100
AcDbArc
 50
346.1878556651
 51
13.8774054329
  0
LINE
  5
20F
330
1F
100
AcDbEntity
  8
0
  6
Continuous
 62
     7
370
    15
100
AcDbLine
 10
70.5280834917
 20
80.4841918703
 30
0.0
 11
69.1603307932
 21
92.4443369564
 31
0.0
  0
ARC
  5
210
330
1F
100
AcDbEntity
  8
0
  6
Continuous
 62
     7
370
    15
100
AcDbCircle
 10
68.1452779849
 20
92.4067021339
 30
0.0
 40
1.015750256427606
100
AcDbArc
 50
2.1233665884
 51
21.8113413366
  0
LINE
  5
211
330
1F
100
AcDbEntity
  8
0
  6
Continuous
 62
     7
370
    15
100
AcDbLine
 10
69.0883130155
 20
92.7841057833
 30
0.0
 11
67.7268501458
 21
93.6999646779
 31
0.0
  0
ARC
  5
212
330
1F
100
AcDbEntity
  8
0
  6
Continuous
 62
     7
370
    15
100
AcDbCircle
 10
68.566736734
 20
93.4934846909
 30
0.0
 40
0.8648950607926683
100
AcDbArc
 50
166.1881590903
 51
193.8771372583
  0
LINE
  5
213
330
1F
100
AcDbEntity
  8
0
  6
Continuous
 62
     7
370
    15
100
AcDbLine
 10
67.7270860032
 20
93.2860476729
 30
0.0
 11
69.0948386763
 21
81.3259025868
 31
0.0
  0
ARC
  5
214
330
1F
100
AcDbEntity
  8
0
  6
Continuous
 62
     7
370
    15
100
AcDbCircle
 10
70.1098971822
 20
81.3635382938
 30
0.0
 40
1.015755982905457
100
AcDbArc
 50
182.1234045417
 51
201.8112658089
  0
LINE
  5
215
330
1F
100
AcDbEntity
  8
0
  6
Continuous
 62
     7
370
    15
100
AcDbLine
 10
69.1668563376
 20
80.9861337599
 30
0.0
 11
70.5283192218
 21
80.0702748653
 31
0.0
  0
LINE
  5
216
330
1F
100
AcDbEntity
  8
0
  6
Continuous
 62
     7
370
    15
100
AcDbLine
 10
75.2379639161
 20
80.9809742328
 30
0.0
 11
73.8702110101
 21
92.9411155935
 31
0.0
  0
ARC
  5
217
330
1F
100
AcDbEntity
  8
0
  6
Continuous
 62
     7
370
    15
100
AcDbCircle
 10
74.2148482531
 20
80.7530965526
 30
0.0
 40
1.048186003077395
100
AcDbArc
 50
348.500968791
 51
12.5564826505
  0
LINE
  5
218
330
1F
100
AcDbEntity
  8
0
  6
Continuous
 62
     7
370
    15
100
AcDbLine
 10
69.7023065731
 20
81.9999044594
 30
0.0
 11
69.3477255844
 21
81.3857829031
 31
0.0
  0
ARC
  5
219
330
1F
100
AcDbEntity
  8
0
  6
Continuous
 62
     7
370
    15
100
AcDbCircle
 10
72.8017098856
 20
92.9014980747
 30
0.0
 40
1.069235334671594
100
AcDbArc
 50
2.1234205931
 51
21.8110728285
  0
LINE
  5
21A
330
1F
100
AcDbEntity
  8
0
  6
Continuous
 62
     7
370
    15
100
AcDbLine
 10
69.9857564031
 20
83.3795657214
 30
0.0
 11
69.2202745558
 21
90.0732269343
 31
0.0
  0
LINE
  5
21B
330
1F
100
AcDbEntity
  8
0
  6
Continuous
 62
     7
370
    15
100
AcDbLine
 10
73.7944029824
 20
93.2987695392
 30
0.0
 11
73.7178110138
 21
93.3502903041
 31
0.0
  0
LINE
  5
21C
330
1F
100
AcDbEntity
  8
0
  6
Continuous
 62
     7
370
    15
100
AcDbLine
 10
68.6486225895
 20
92.4921436068
 30
0.0
 11
67.9799729113
 21
93.3459279891
 31
0.0
  0
ARC
  5
21D
330
1F
100
AcDbEntity
  8
0
  6
Continuous
 62
     7
370
    15
100
AcDbCircle
 10
67.7761912261
 20
82.8336809525
 30
0.0
 40
2.275998341881922
100
AcDbArc
 50
346.1879197296
 51
13.8773390753
  0
LINE
  5
21E
330
1F
100
AcDbEntity
  8
0
  6
Continuous
 62
     7
370
    15
100
AcDbLine
 10
68.2694130664
 20
90.3906738218
 30
0.0
 11
69.0348947973
 21
83.6970126089
 31
0.0
  0
ARC
  5
21F
330
1F
100
AcDbEntity
  8
0
  6
Continuous
 62
     7
370
    15
100
AcDbCircle
 10
70.4789753815
 20
90.9365589434
 30
0.0
 40
2.275995648118512
100
AcDbArc
 50
166.1879122012
 51
193.8773649744
  0
LINE
  5
220
330
1F
100
AcDbEntity
  8
0
  6
Continuous
 62
     7
370
    15
100
AcDbLine
 10
69.0307542535
 20
90.9673524853
 30
0.0
 11
68.2687925727
 21
91.4799263533
 31
0.0
  0
ARC
  5
221
330
1F
100
AcDbEntity
  8
0
  6
Continuous
 62
     7
370
    15
100
AcDbCircle
 10
66.5491275103
 20
89.9741945643
 30
0.0
 40
2.672982220057842
100
AcDbArc
 50
2.1232598201
 51
21.8115042725
  0
LINE
  5
222
330
1F
100
AcDbEntity
  8
0
  6
Continuous
 62
     7
370
    15
100
AcDbLine
 10
69.2244152159
 20
82.8028870579
 30
0.0
 11
69.9863767222
 21
82.2903131899
 31
0.0
  0
ARC
  5
223
330
1F
100
AcDbEntity
  8
0
  6
Continuous
 62
     7
370
    15
100
AcDbCircle
 10
71.706007163
 20
83.7960379512
 30
0.0
 40
2.672947303731447
100
AcDbArc
 50
182.1231368239
 51
201.8116415471
  0
LWPOLYLINE
  5
224
330
1F
100
AcDbEntity
  8
0
  6
Continuous
 62
     7
370
    15
100
AcDbPolyline
 90
       27
 70
   128
 43
0.0
 10
69.3728661717
 20
84.3265605923
 10
69.4353054131
 20
84.354109114
 10
69.4798610493
 20
84.5287507232
 10
69.5039436541
 20
84.8403377291
 10
69.5061535661
 20
85.2707577702
 10
69.4863624957
 20
85.7950029727
 10
69.4457206263
 20
86.3825967368
 10
69.3865897919
 20
86.9993967768
 10
69.3124064564
 20
87.6095583495
 10
69.2274820612
 20
88.1776129659
 10
69.1367519175
 20
88.6705545541
 10
69.0454890572
 20
89.0597356316
 10
68.9589972462
 20
89.3225325104
 10
68.8823031814
 20
89.4436789509
 10
68.8198639399
 20
89.4161304291
 10
68.7753084202
 20
89.2414850947
 10
68.7512258154
 20
88.9299018141
 10
68.749015787
 20
88.4994780477
 10
68.7688068573
 20
87.9752365705
 10
68.8094488432
 20
87.3876428064
 10
68.8685796776
 20
86.7708390411
 10
68.9427628967
 20
86.1606811937
 10
69.0276874083
 20
85.592622852
 10
69.1184174356
 20
85.0996812638
 10
69.2096802958
 20
84.7105039116
 10
69.2961721069
 20
84.4477033075
 10
69.3728661717
 20
84.3265605923
  0
LINE
  5
225
330
1F
100
AcDbEntity
  8
0
  6
Continuous
 62
     7
370
    15
100
AcDbLine
 10
69.6532404835
 20
82.2282722052
 30
0.0
 11
69.6573881868
 21
82.1973001417
 31
0.0
  0
ARC
  5
226
330
1F
100
AcDbEntity
  8
0
  6
Continuous
 62
     7
370
    15
100
AcDbCircle
 10
75.3147393266
 20
82.04598962
 30
0.0
 40
2.620474391938508
100
AcDbArc
 50
348.5010925209
 51
12.5564358136
  0
LINE
  5
227
330
1F
100
AcDbEntity
  8
0
  6
Continuous
 62
     7
370
    15
100
AcDbLine
 10
77.8725381096
 20
82.6156837698
 30
0.0
 11
76.7668421467
 21
92.2843059357
 31
0.0
  0
ARC
  5
228
330
1F
100
AcDbEntity
  8
0
  6
Continuous
 62
     7
370
    15
100
AcDbCircle
 10
76.0464193592
 20
82.198153194
 30
0.0
 40
2.13609280779127
100
AcDbArc
 50
350.8318205785
 51
11.3243438154
  0
LINE
  5
229
330
1F
100
AcDbEntity
  8
0
  6
Continuous
 62
     7
370
    15
100
AcDbLine
 10
77.0352292893
 20
92.2862207349
 30
0.0
 11
78.1409252522
 21
82.6176022943
 31
0.0
  0
ARC
  5
22A
330
1F
100
AcDbEntity
  8
0
  6
Continuous
 62
     7
370
    15
100
AcDbCircle
 10
73.3068862177
 20
92.0638312564
 30
0.0
 40
3.466973336299187
100
AcDbArc
 50
3.6460616138
 51
18.1665662614
  0
LINE
  5
22B
330
1F
100
AcDbEntity
  8
0
  6
Continuous
 62
     7
370
    15
100
AcDbLine
 10
76.6164591623
 20
93.1463828143
 30
0.0
 11
76.9025651825
 21
92.9121104833
 31
0.0
  0
ARC
  5
22C
330
1F
100
AcDbEntity
  8
0
  6
Continuous
 62
     7
370
    15
100
AcDbCircle
 10
75.1654723413
 20
92.2169101825
 30
0.0
 40
1.871041153207103
100
AcDbArc
 50
2.1229415143
 51
21.8117350444
  0
SPLINE
  5
22D
330
1F
100
AcDbEntity
  8
0
  6
Continuous
 62
     7
370
    15
100
AcDbSpline
210
0.0
220
0.0
230
1.0
 70
     8
 71
     3
 72
    30
 73
    26
 74
     0
 42
0.00000001
 43
0.00000001
 12
1.0
 22
0.0
 32
0.0
 13
1.0
 23
0.0
 33
0.0
 40
0.0
 40
0.0
 40
0.0
 40
0.0
 40
0.0206709378901801
 40
0.0413375476605649
 40
0.0620051623674996
 40
0.0826791142896278
 40
0.1033647308048271
 40
0.124067330286065
 40
0.1551218195981009
 40
0.1862122950448747
 40
0.2484278434317521
 40
0.3107177761968331
 40
0.3730807455321065
 40
0.4355147546678971
 40
0.4980171261584325
 40
0.5605846151956072
 40
0.623213322546336
 40
0.6858988730367815
 40
0.7486363054269829
 40
0.8114202598978894
 40
0.8742449097190895
 40
0.9056646957396031
 40
0.93710843029683
 40
0.968537307455572
 40
0.9999999999999999
 40
0.9999999999999999
 40
0.9999999999999999
 40
0.9999999999999999
 10
78.14357824060156
 20
82.48358151149426
 30
0.0
 10
78.3494346876677
 20
82.53285055543532
 30
0.0
 10
78.76110447919054
 20
82.63137832727244
 30
0.0
 10
79.37536917114686
 20
82.79174201815806
 30
0.0
 10
79.98709795858113
 20
82.96127199750356
 30
0.0
 10
80.59607035551505
 20
83.14087253122496
 30
0.0
 10
81.2023459255507
 20
83.33030321469481
 30
0.0
 10
81.9062801721217
 20
83.56276813788516
 30
0.0
 10
82.70574101883518
 20
83.84474357608305
 30
0.0
 10
83.89499031708539
 20
84.29674230948083
 30
0.0
 10
85.36164246488971
 20
84.91578570046124
 30
0.0
 10
87.08463497647068
 20
85.74287782744283
 30
0.0
 10
88.76745823429907
 20
86.65256108033759
 30
0.0
 10
90.40616237789646
 20
87.64281688293366
 30
0.0
 10
91.9970508428914
 20
88.71126164247735
 30
0.0
 10
93.53638179953025
 20
89.8555501408039
 30
0.0
 10
95.02069914831918
 20
91.07293493256665
 30
0.0
 10
96.4465052489859
 20
92.36071281908166
 30
0.0
 10
97.81058985835021
 20
93.7158477417688
 30
0.0
 10
99.10976978638827
 20
95.13523850152723
 30
0.0
 10
100.1356535056561
 20
96.36876543532553
 30
0.0
 10
100.9211642725744
 20
97.38425968678305
 30
0.0
 10
101.4919441524097
 20
98.16012039529642
 30
0.0
 10
102.0458718407963
 20
98.94877823446681
 30
0.0
 10
102.399256815797
 20
99.48538407595957
 30
0.0
 10
102.5760443068828
 20
99.75383125716549
 30
0.0
  0
SPLINE
  5
22E
330
1F
100
AcDbEntity
  8
0
  6
Continuous
 62
     7
370
    15
100
AcDbSpline
210
0.0
220
0.0
230
1.0
 70
    24
 71
     3
 72
     9
 73
     5
 74
     0
 42
0.00000001
 43
0.00000001
 12
1.0
 22
0.0
 32
0.0
 13
1.0
 23
0.0
 33
0.0
 40
0.0
 40
0.0
 40
0.0
 40
0.0
 40
0.4979741177968006
 40
1.0
 40
1.0
 40
1.0
 40
1.0
 10
102.5760480922628
 20
99.75383273476776
 30
0.0
 10
102.5760480922628
 20
99.62259973443473
 30
0.0
 10
102.5760480922628
 20
99.35906595698931
 30
0.0
 10
102.5760480922628
 20
99.09674122203413
 30
0.0
 10
102.5760480922628
 20
98.96504741554455
 30
0.0
  0
SPLINE
  5
22F
330
1F
100
AcDbEntity
  8
0
  6
Continuous
 62
     7
370
    15
100
AcDbSpline
210
0.0
220
0.0
230
1.0
 70
     8
 71
     3
 72
    27
 73
    23
 74
     0
 42
0.00000001
 43
0.00000001
 12
1.0
 22
0.0
 32
0.0
 13
1.0
 23
0.0
 33
0.0
 40
0.0
 40
0.0
 40
0.0
 40
0.0
 40
0.0191208361199151
 40
0.0378561899980893
 40
0.0562060668219601
 40
0.0741704721440236
 40
0.0917494119131978
 40
0.1089428925096851
 40
0.1257509207838498
 40
0.1901604588379744
 40
0.2513524268765388
 40
0.3152703964661195
 40
0.376770324765266
 40
0.5019326682348858
 40
0.6268426261147684
 40
0.6898141990186489
 40
0.7515127920066811
 40
0.8142340860067362
 40
0.8758970880771552
 40
0.9176591212479254
 40
0.9590263748238032
 40
0.9999999999999999
 40
0.9999999999999999
 40
0.9999999999999999
 40
0.9999999999999999
 10
102.5760480601869
 20
98.96504077554638
 30
0.0
 10
102.4674066567087
 20
98.80427005376998
 30
0.0
 10
102.2523140955918
 20
98.48596979997733
 30
0.0
 10
101.9246229948254
 20
98.01913810974958
 30
0.0
 10
101.5979137310433
 20
97.56605141557334
 30
0.0
 10
101.2720344648683
 20
97.12691410314272
 30
0.0
 10
100.9475692666265
 20
96.7014207834602
 30
0.0
 10
100.6248906074775
 20
96.2893898715808
 30
0.0
 10
99.99943260885155
 20
95.51110998389146
 30
0.0
 10
99.06051821286111
 20
94.41218841638852
 30
0.0
 10
97.74443161623579
 20
93.00976283248022
 30
0.0
 10
96.38560740740904
 20
91.69051840873131
 30
0.0
 10
94.48035359154017
 20
90.00634636579368
 30
0.0
 10
91.96771237507257
 20
88.07972106723273
 30
0.0
 10
89.27183039787872
 20
86.38891448713962
 30
0.0
 10
87.03433694114709
 20
85.19777237596436
 30
0.0
 10
85.3134897803821
 20
84.38343029267412
 30
0.0
 10
83.56784259027631
 20
83.65630922494758
 30
0.0
 10
81.97975973236161
 20
83.08113393747213
 30
0.0
 10
80.57678720256197
 20
82.635799583026
 30
0.0
 10
79.36308713620774
 20
82.28970161391044
 30
0.0
 10
78.54915793420494
 20
82.09242607471121
 30
0.0
 10
78.14413881674764
 20
81.99425984036826
 30
0.0
  0
LINE
  5
230
330
1F
100
AcDbEntity
  8
0
  6
Continuous
 62
     7
370
    15
100
AcDbLine
 10
76.9205341202
 20
93.178345805
 30
0.0
 11
74.0126572636
 21
92.8727155384
 31
0.0
  0
LINE
  5
231
330
1F
100
AcDbEntity
  8
0
  6
Continuous
 62
     7
370
    15
100
AcDbLine
 10
74.0126572636
 20
92.8727155384
 30
0.0
 11
73.9551886071
 21
93.3752422985
 31
0.0
  0
LINE
  5
232
330
1F
100
AcDbEntity
  8
0
  6
Continuous
 62
     7
370
    15
100
AcDbLine
 10
73.9551886071
 20
93.3752422985
 30
0.0
 11
69.3065418017
 21
92.8866481241
 31
0.0
  0
LINE
  5
233
330
1F
100
AcDbEntity
  8
0
  6
Continuous
 62
     7
370
    15
100
AcDbLine
 10
69.3065418017
 20
92.8866481241
 30
0.0
 11
66.3079839286
 21
119.1071690824
 31
0.0
  0
LINE
  5
234
330
1F
100
AcDbEntity
  8
0
  6
Continuous
 62
     7
370
    15
100
AcDbLine
 10
102.5760496122
 20
122.9190963619
 30
0.0
 11
66.3079839286
 21
119.1071690824
 31
0.0
  0
LINE
  5
235
330
1F
100
AcDbEntity
  8
0
  6
Continuous
 62
     7
370
    15
100
AcDbLine
 10
102.5760496122
 20
99.7538333591
 30
0.0
 11
102.5760496122
 21
122.9190963619
 31
0.0
  0
LINE
  5
236
330
1F
100
AcDbEntity
  8
0
  6
Continuous
 62
     7
370
    15
100
AcDbLine
 10
76.979533871
 20
92.6624303516
 30
0.0
 11
76.9205341202
 21
93.178345805
 31
0.0
  0
SPLINE
  5
237
330
1F
100
AcDbEntity
  8
0
  6
Continuous
 62
     7
370
    15
100
AcDbSpline
210
0.0
220
0.0
230
1.0
 70
     8
 71
     3
 72
     8
 73
     4
 74
     0
 42
0.00000001
 43
0.00000001
 12
1.0
 22
0.0
 32
0.0
 13
1.0
 23
0.0
 33
0.0
 40
0.0
 40
0.0
 40
0.0
 40
0.0
 40
1.0
 40
1.0
 40
1.0
 40
1.0
 10
66.68108019763778
 20
93.04423856439527
 30
0.0
 10
67.10857710099205
 20
89.82417485852989
 30
0.0
 10
67.53663343304976
 20
86.60610750276098
 30
0.0
 10
67.96493866924757
 20
83.38892837421574
 30
0.0
  0
SPLINE
  5
238
330
1F
100
AcDbEntity
  8
0
  6
Continuous
 62
     7
370
    15
100
AcDbSpline
210
0.0
220
0.0
230
1.0
 70
     8
 71
     3
 72
    10
 73
     6
 74
     0
 42
0.00000001
 43
0.00000001
 12
1.0
 22
0.0
 32
0.0
 13
1.0
 23
0.0
 33
0.0
 40
0.0
 40
0.0
 40
0.0
 40
0.0
 40
0.5
 40
0.5
 40
1.0
 40
1.0
 40
1.0
 40
1.0
 10
66.49805413229603
 20
93.81436883890113
 30
0.0
 10
66.52205544798534
 20
93.81123525528506
 30
0.0
 10
66.55315896543448
 20
93.73142210599353
 30
0.0
 10
66.61908392962178
 20
93.45262323950574
 30
0.0
 10
66.65240304496156
 20
93.26024541215422
 30
0.0
 10
66.68108019763778
 20
93.04423856439527
 30
0.0
  0
ARC
  5
239
330
1F
100
AcDbEntity
  8
0
  6
Continuous
 62
     7
370
    15
100
AcDbCircle
 10
70.5760480923
 20
125.0492846426
 30
0.0
 40
31.5
100
AcDbArc
 50
262.3390803744
 51
262.5616038298
  0
LINE
  5
23A
330
1F
100
AcDbEntity
  8
0
  6
Continuous
 62
     7
370
    15
100
AcDbLine
 10
66.3079839286
 20
119.1071690824
 30
0.0
 11
60.0727047858
 21
153.8096712735
 31
0.0
  0
ARC
  5
23B
330
1F
100
AcDbEntity
  8
0
  6
Continuous
 62
     7
370
    15
100
AcDbCircle
 10
87.959080948
 20
93.5812515853
 30
0.0
 40
20.17316102124723
100
AcDbArc
 50
183.0748776412
 51
189.9730452841
  0
LWPOLYLINE
  5
23C
330
1F
100
AcDbEntity
  8
0
  6
Continuous
 62
     7
370
    15
100
AcDbPolyline
 90
        3
 70
   128
 43
0.0
 10
67.8403499623
 20
93.7334550377
 10
67.8583296102
 20
93.7865739521
 10
67.9192460229
 20
93.8198854979
  0
LWPOLYLINE
  5
23D
330
1F
100
AcDbEntity
  8
0
  6
Continuous
 62
     7
370
    15
100
AcDbPolyline
 90
       34
 70
   128
 43
0.0
 10
68.1231453636
 20
98.8739272412
 10
68.1938076013
 20
98.1210237201
 10
68.2467220903
 20
97.3953334447
 10
68.2799758942
 20
96.723080596
 10
68.2923673739
 20
96.1285671052
 10
68.2834487961
 20
95.6332785841
 10
68.2535423984
 20
95.2551131901
 10
68.2037289807
 20
95.0077427384
 10
68.1358090223
 20
94.9001060631
 10
68.0522374895
 20
94.9360942301
 10
67.9560344287
 20
95.1144052502
 10
67.8506773983
 20
95.4285943713
 10
67.7399738778
 20
95.8673087712
 10
67.6279252947
 20
96.4146880265
 10
67.5185810395
 20
97.0509527084
 10
67.4158934125
 20
97.7531028744
 10
67.3235735011
 20
98.4957637098
 10
67.2449582343
 20
99.2520926353
 10
67.1828888443
 20
99.994751608
 10
67.1396088873
 20
100.6969036367
 10
67.1166822867
 20
101.3331664559
 10
67.1149379195
 20
101.8805475738
 10
67.1344388829
 20
102.3192601111
 10
67.1744801656
 20
102.6334510949
 10
67.2336144925
 20
102.811762115
 10
67.309704711
 20
102.8477502819
 10
67.4000008584
 20
102.740111744
 10
67.5012393475
 20
102.4927412924
 10
67.6097610121
 20
102.1145777609
 10
67.7216438198
 20
101.6192873772
 10
67.8328437352
 20
101.0247738864
 10
67.9393418686
 20
100.3525229003
 10
68.0372890637
 20
99.6268307623
 10
68.1231453636
 20
98.8739272412
  0
LINE
  5
23E
330
1F
100
AcDbEntity
  8
0
  6
Continuous
 62
     7
370
    15
100
AcDbLine
 10
67.9192460229
 20
93.8198854979
 30
0.0
 11
69.3065418017
 21
92.8866481241
 31
0.0
  0
ELLIPSE
  5
23F
330
1F
100
AcDbEntity
  8
0
  6
Continuous
 62
     7
370
    15
100
AcDbEllipse
 10
69.5760480923
 20
118.3227584976
 30
0.0
 11
-34.80078152686963
 21
49.28750852531297
 31
0.0
210
0.0
220
0.0
230
1.0
 40
0.4001153713
 41
2.04606207069794
 42
2.071008836051707
  0
LINE
  5
240
330
1F
100
AcDbEntity
  8
0
  6
Continuous
 62
     7
370
    15
100
AcDbLine
 10
73.8666831602
 20
92.9709104654
 30
0.0
 11
74.0126572636
 21
92.8727155384
 31
0.0
  0
LINE
  5
241
330
1F
100
AcDbEntity
  8
0
  6
Continuous
 62
     7
370
    15
100
AcDbLine
 10
102.5760496122
 20
122.9190963619
 30
0.0
 11
102.5760496122
 21
125.0492846426
 31
0.0
  0
ELLIPSE
  5
242
330
1F
100
AcDbEntity
  8
0
  6
Continuous
 62
     7
370
    15
100
AcDbEllipse
 10
54.1382622092
 20
153.1859367619
 30
0.0
 11
-2.085366894322704
 21
8.356644074018334
 31
0.0
210
0.0
220
0.0
230
1.0
 40
0.6892710456
 41
4.615676670624724
 42
4.719083376500699
  0
ARC
  5
243
330
1F
100
AcDbEntity
  8
0
  6
Continuous
 62
     7
370
    15
100
AcDbCircle
 10
70.5760480923
 20
125.0492846426
 30
0.0
 40
31.50000000000001
100
AcDbArc
 50
55.4192964957
 51
109.8418358245
  0
SPLINE
  5
244
330
1F
100
AcDbEntity
  8
0
  6
Continuous
 62
     7
370
    15
100
AcDbSpline
210
0.0
220
0.0
230
1.0
 70
     8
 71
     3
 72
    12
 73
     8
 74
     0
 42
0.00000001
 43
0.00000001
 12
1.0
 22
0.0
 32
0.0
 13
1.0
 23
0.0
 33
0.0
 40
0.0
 40
0.0
 40
0.0
 40
0.0
 40
0.2499999999999996
 40
0.2499999999999996
 40
0.4999999999999991
 40
0.4999999999999991
 40
1.0
 40
1.0
 40
1.0
 40
1.0
 10
91.3025651460897
 20
149.5681651860572
 30
0.0
 10
91.04058223403257
 20
149.6458435694836
 30
0.0
 10
90.78798441752485
 20
149.7407273250879
 30
0.0
 10
90.29277266058385
 20
149.9487979321715
 30
0.0
 10
90.04989405573899
 20
150.0627455947828
 30
0.0
 10
89.33743157796202
 20
150.4242228421558
 30
0.0
 10
88.88273634108845
 20
150.688821203371
 30
0.0
 10
88.45439255592683
 20
150.9841029229952
 30
0.0
  0
LINE
  5
245
330
1F
100
AcDbEntity
  8
0
  6
Continuous
 62
     7
370
    15
100
AcDbLine
 10
91.1297803831
 20
149.5756814089
 30
0.0
 11
91.3025649351
 21
149.5681656357
 31
0.0
  0
ARC
  5
246
330
1F
100
AcDbEntity
  8
0
  6
Continuous
 62
     7
370
    15
100
AcDbCircle
 10
70.5760480923
 20
125.0492846426
 30
0.0
 40
32.00000000000003
100
AcDbArc
 50
0.0
 51
50.0361520537
  0
ARC
  5
247
330
1F
100
AcDbEntity
  8
0
  6
Continuous
 62
     7
370
    15
100
AcDbCircle
 10
70.5760480923
 20
125.0492846426
 30
0.0
 40
32.10551373655937
100
AcDbArc
 50
355.3535493072
 51
49.7911992521
  0
SPLINE
  5
248
330
1F
100
AcDbEntity
  8
0
  6
Continuous
 62
     7
370
    15
100
AcDbSpline
210
0.0
220
0.0
230
1.0
 70
     8
 71
     3
 72
    18
 73
    14
 74
     0
 42
0.00000001
 43
0.00000001
 12
1.0
 22
0.0
 32
0.0
 13
1.0
 23
0.0
 33
0.0
 40
0.0
 40
0.0
 40
0.0
 40
0.0
 40
0.1250000000000007
 40
0.1250000000000007
 40
0.2500000000000014
 40
0.2500000000000014
 40
0.5000000000000008
 40
0.5000000000000008
 40
0.7500000000000001
 40
0.7500000000000001
 40
0.8749999999999998
 40
0.8749999999999998
 40
1.0
 40
1.0
 40
1.0
 40
1.0
 10
59.88416577372899
 20
154.6792298414192
 30
0.0
 10
59.82787255980757
 20
154.6589165936376
 30
0.0
 10
59.75325067549532
 20
154.6318276424431
 30
0.0
 10
59.56758266746122
 20
154.5632386856101
 30
0.0
 10
59.45538156855228
 20
154.5212953083128
 30
0.0
 10
59.07283436966313
 20
154.3750518193137
 30
0.0
 10
58.75626685512432
 20
154.2504161071874
 30
0.0
 10
58.01103849003888
 20
153.9375840214483
 30
0.0
 10
57.5978997362395
 20
153.7557930277243
 30
0.0
 10
56.92495103603892
 20
153.4387023675984
 30
0.0
 10
56.69201259447568
 20
153.3256550513977
 30
0.0
 10
56.22047156161253
 20
153.0892023969729
 30
0.0
 10
55.9804848082696
 20
152.9651575943296
 30
0.0
 10
55.7366238002173
 20
152.8349191805974
 30
0.0
  0
SPLINE
  5
249
330
1F
100
AcDbEntity
  8
0
  6
Continuous
 62
     7
370
    15
100
AcDbSpline
210
0.0
220
0.0
230
1.0
 70
     8
 71
     3
 72
    20
 73
    16
 74
     0
 42
0.00000001
 43
0.00000001
 12
1.0
 22
0.0
 32
0.0
 13
1.0
 23
0.0
 33
0.0
 40
0.0
 40
0.0
 40
0.0
 40
0.0
 40
0.2500000000000011
 40
0.2500000000000011
 40
0.3750000000000008
 40
0.3750000000000008
 40
0.5000000000000007
 40
0.5000000000000007
 40
0.6250000000000004
 40
0.6250000000000004
 40
0.7500000000000002
 40
0.7500000000000002
 40
0.8750000000000001
 40
0.8750000000000001
 40
1.0
 40
1.0
 40
1.0
 40
1.0
 10
61.83785908197252
 20
94.78554308901691
 30
0.0
 10
62.41778651880595
 20
94.61809797829468
 30
0.0
 10
62.96973375196963
 20
94.47675983529541
 30
0.0
 10
63.75038928515218
 20
94.29653347161842
 30
0.0
 10
64.0016959046271
 20
94.24206094047982
 30
0.0
 10
64.469986819075
 20
94.14583573074509
 30
0.0
 10
64.68927143505312
 20
94.10354492533989
 30
0.0
 10
65.09693917518473
 20
94.0287702765377
 30
0.0
 10
65.28663106681792
 20
93.99609040097997
 30
0.0
 10
65.62155486898588
 20
93.94089667444331
 30
0.0
 10
65.76802415759748
 20
93.91812658939202
 30
0.0
 10
66.01894412054153
 20
93.88040754891799
 30
0.0
 10
66.12389758538325
 20
93.86539335339947
 30
0.0
 10
66.28626357641002
 20
93.84264321997755
 30
0.0
 10
66.34359332050524
 20
93.83490578248019
 30
0.0
 10
66.37677605869702
 20
93.8304423452022
 30
0.0
  0
ELLIPSE
  5
24A
330
1F
100
AcDbEntity
  8
0
  6
Continuous
 62
     7
370
    15
100
AcDbEllipse
 10
56.7441452271
 20
108.4088882234
 30
0.0
 11
-2.26685350231309
 21
2.998331141371054
 31
0.0
210
0.0
220
0.0
230
1.0
 40
0.6487969398
 41
0.0
 42
6.283185307179586
  0
ARC
  5
24B
330
1F
100
AcDbEntity
  8
0
  6
Continuous
 62
     7
370
    15
100
AcDbCircle
 10
70.5760480923
 20
125.0492846426
 30
0.0
 40
31.5
100
AcDbArc
 50
118.1052582058
 51
253.8947417942
  0
INSERT
  5
257
330
1F
100
AcDbEntity
  8
VERMASSUNG
100
AcDbBlockReference
  2
SW_CENTERMARKSYMBOL_0
 10
70.5760480923
 20
125.0492846426
 30
0.0
  0
OLE2FRAME
  5
258
330
1F
100
AcDbEntity
  8
0
100
AcDbOle2Frame
 70
     2
  3
Paintbrush-Bild
 10
13.8511154363
 20
38.264191557
 30
0.0
 11
51.6290888628
 21
31.9806341108
 31
0.0
 71
     2
 72
     0
 73
     1
 90
    12928
310
80552BED0767C5B32B40DDAF6807D121434000000000000000006FFBDDFB85D0
310
4940DDAF6807D121434000000000000000006FFBDDFB85D04940416F4BD60AFB
310
3F4000000000000000002BED0767C5B32B40416F4BD60AFB3F40000000000000
310
0000000000000100000000010000010000000100000000000100000000320000
310
D0CF11E0A1B11AE1000000000000000000000000000000003E000300FEFF0900
310
0600000000000000000000000100000001000000000000000010000002000000
310
01000000FEFFFFFF0000000000000000FFFFFFFFFFFFFFFFFFFFFFFFFFFFFFFF
310
FFFFFFFFFFFFFFFFFFFFFFFFFFFFFFFFFFFFFFFFFFFFFFFFFFFFFFFFFFFFFFFF
310
FFFFFFFFFFFFFFFFFFFFFFFFFFFFFFFFFFFFFFFFFFFFFFFFFFFFFFFFFFFFFFFF
310
FFFFFFFFFFFFFFFFFFFFFFFFFFFFFFFFFFFFFFFFFFFFFFFFFFFFFFFFFFFFFFFF
310
FFFFFFFFFFFFFFFFFFFFFFFFFFFFFFFFFFFFFFFFFFFFFFFFFFFFFFFFFFFFFFFF
310
FFFFFFFFFFFFFFFFFFFFFFFFFFFFFFFFFFFFFFFFFFFFFFFFFFFFFFFFFFFFFFFF
310
FFFFFFFFFFFFFFFFFFFFFFFFFFFFFFFFFFFFFFFFFFFFFFFFFFFFFFFFFFFFFFFF
310
FFFFFFFFFFFFFFFFFFFFFFFFFFFFFFFFFFFFFFFFFFFFFFFFFFFFFFFFFFFFFFFF
310
FFFFFFFFFFFFFFFFFFFFFFFFFFFFFFFFFFFFFFFFFFFFFFFFFFFFFFFFFFFFFFFF
310
FFFFFFFFFFFFFFFFFFFFFFFFFFFFFFFFFFFFFFFFFFFFFFFFFFFFFFFFFFFFFFFF
310
FFFFFFFFFFFFFFFFFFFFFFFFFFFFFFFFFFFFFFFFFFFFFFFFFFFFFFFFFFFFFFFF
310
FFFFFFFFFFFFFFFFFFFFFFFFFFFFFFFFFFFFFFFFFFFFFFFFFFFFFFFFFFFFFFFF
310
FFFFFFFFFFFFFFFFFFFFFFFFFFFFFFFFFFFFFFFFFFFFFFFFFFFFFFFFFFFFFFFF
310
FFFFFFFFFFFFFFFFFFFFFFFFFFFFFFFFFFFFFFFFFFFFFFFFFFFFFFFFFFFFFFFF
310
FDFFFFFFFEFFFFFFFEFFFFFFFEFFFFFF05000000060000000700000008000000
310
090000000A0000000B0000000C0000000D0000000E0000000F00000010000000
310
11000000120000001300000014000000150000001600000017000000FEFFFFFF
310
FFFFFFFFFFFFFFFFFFFFFFFFFFFFFFFFFFFFFFFFFFFFFFFFFFFFFFFFFFFFFFFF
310
FFFFFFFFFFFFFFFFFFFFFFFFFFFFFFFFFFFFFFFFFFFFFFFFFFFFFFFFFFFFFFFF
310
FFFFFFFFFFFFFFFFFFFFFFFFFFFFFFFFFFFFFFFFFFFFFFFFFFFFFFFFFFFFFFFF
310
FFFFFFFFFFFFFFFFFFFFFFFFFFFFFFFFFFFFFFFFFFFFFFFFFFFFFFFFFFFFFFFF
310
FFFFFFFFFFFFFFFFFFFFFFFFFFFFFFFFFFFFFFFFFFFFFFFFFFFFFFFFFFFFFFFF
310
FFFFFFFFFFFFFFFFFFFFFFFFFFFFFFFFFFFFFFFFFFFFFFFFFFFFFFFFFFFFFFFF
310
FFFFFFFFFFFFFFFFFFFFFFFFFFFFFFFFFFFFFFFFFFFFFFFFFFFFFFFFFFFFFFFF
310
FFFFFFFFFFFFFFFFFFFFFFFFFFFFFFFFFFFFFFFFFFFFFFFFFFFFFFFFFFFFFFFF
310
FFFFFFFFFFFFFFFFFFFFFFFFFFFFFFFFFFFFFFFFFFFFFFFFFFFFFFFFFFFFFFFF
310
FFFFFFFFFFFFFFFFFFFFFFFFFFFFFFFFFFFFFFFFFFFFFFFFFFFFFFFFFFFFFFFF
310
FFFFFFFFFFFFFFFFFFFFFFFFFFFFFFFFFFFFFFFFFFFFFFFFFFFFFFFFFFFFFFFF
310
FFFFFFFFFFFFFFFFFFFFFFFFFFFFFFFFFFFFFFFFFFFFFFFFFFFFFFFFFFFFFFFF
310
FFFFFFFFFFFFFFFFFFFFFFFFFFFFFFFFFFFFFFFFFFFFFFFFFFFFFFFFFFFFFFFF
310
52006F006F007400200045006E00740072007900000000000000000000000000
310
0000000000000000000000000000000000000000000000000000000000000000
310
16000500FFFFFFFFFFFFFFFF020000000A00030000000000C000000000000046
310
000000000000000000000000805BE386379ECE0103000000C000000000000000
310
01004F006C006500000000000000000000000000000000000000000000000000
310
0000000000000000000000000000000000000000000000000000000000000000
310
0A000200FFFFFFFFFFFFFFFFFFFFFFFF00000000000000000000000000000000
310
0000000000000000000000000000000000000000000000001400000000000000
310
010043006F006D0070004F0062006A0000000000000000000000000000000000
310
0000000000000000000000000000000000000000000000000000000000000000
310
120002010100000003000000FFFFFFFF00000000000000000000000000000000
310
0000000000000000000000000000000000000000010000004D00000000000000
310
01004F006C006500310030004E00610074006900760065000000000000000000
310
0000000000000000000000000000000000000000000000000000000000000000
310
1A000200FFFFFFFFFFFFFFFFFFFFFFFF00000000000000000000000000000000
310
0000000000000000000000000000000000000000040000002426000000000000
310
FEFFFFFF02000000FEFFFFFFFFFFFFFFFFFFFFFFFFFFFFFFFFFFFFFFFFFFFFFF
310
FFFFFFFFFFFFFFFFFFFFFFFFFFFFFFFFFFFFFFFFFFFFFFFFFFFFFFFFFFFFFFFF
310
FFFFFFFFFFFFFFFFFFFFFFFFFFFFFFFFFFFFFFFFFFFFFFFFFFFFFFFFFFFFFFFF
310
FFFFFFFFFFFFFFFFFFFFFFFFFFFFFFFFFFFFFFFFFFFFFFFFFFFFFFFFFFFFFFFF
310
FFFFFFFFFFFFFFFFFFFFFFFFFFFFFFFFFFFFFFFFFFFFFFFFFFFFFFFFFFFFFFFF
310
FFFFFFFFFFFFFFFFFFFFFFFFFFFFFFFFFFFFFFFFFFFFFFFFFFFFFFFFFFFFFFFF
310
FFFFFFFFFFFFFFFFFFFFFFFFFFFFFFFFFFFFFFFFFFFFFFFFFFFFFFFFFFFFFFFF
310
FFFFFFFFFFFFFFFFFFFFFFFFFFFFFFFFFFFFFFFFFFFFFFFFFFFFFFFFFFFFFFFF
310
FFFFFFFFFFFFFFFFFFFFFFFFFFFFFFFFFFFFFFFFFFFFFFFFFFFFFFFFFFFFFFFF
310
FFFFFFFFFFFFFFFFFFFFFFFFFFFFFFFFFFFFFFFFFFFFFFFFFFFFFFFFFFFFFFFF
310
FFFFFFFFFFFFFFFFFFFFFFFFFFFFFFFFFFFFFFFFFFFFFFFFFFFFFFFFFFFFFFFF
310
FFFFFFFFFFFFFFFFFFFFFFFFFFFFFFFFFFFFFFFFFFFFFFFFFFFFFFFFFFFFFFFF
310
FFFFFFFFFFFFFFFFFFFFFFFFFFFFFFFFFFFFFFFFFFFFFFFFFFFFFFFFFFFFFFFF
310
FFFFFFFFFFFFFFFFFFFFFFFFFFFFFFFFFFFFFFFFFFFFFFFFFFFFFFFFFFFFFFFF
310
FFFFFFFFFFFFFFFFFFFFFFFFFFFFFFFFFFFFFFFFFFFFFFFFFFFFFFFFFFFFFFFF
310
FFFFFFFFFFFFFFFFFFFFFFFFFFFFFFFFFFFFFFFFFFFFFFFFFFFFFFFFFFFFFFFF
310
0100000200000000000000000000000000000000000000000000000000000000
310
0000000000000000000000000000000000000000000000000000000000000000
310
0100FEFF030A0000FFFFFFFF0A00030000000000C00000000000004607000000
310
5042727573680007000000504272757368000700000050427275736800F439B2
310
7100000000000000000000000000000000000000000000000000000000000000
310
0000000000000000000000000000000000000000000000000000000000000000
310
0000000000000000000000000000000000000000000000000000000000000000
310
0000000000000000000000000000000000000000000000000000000000000000
310
0000000000000000000000000000000000000000000000000000000000000000
310
0000000000000000000000000000000000000000000000000000000000000000
310
0000000000000000000000000000000000000000000000000000000000000000
310
0000000000000000000000000000000000000000000000000000000000000000
310
0000000000000000000000000000000000000000000000000000000000000000
310
0000000000000000000000000000000000000000000000000000000000000000
310
0000000000000000000000000000000000000000000000000000000000000000
310
0000000000000000000000000000000000000000000000000000000000000000
310
20260000424D0E260000000000003E00000028000000B40200006E0000000100
310
01000000000000000000130B0000130B00000200000002000000000000FFFFFF
310
FFFFFFFFFFFFFFFFFFFFFFFFFFFFFFFFFFFFFFFFFFFFFFFFFFFFFFFFFFFFFFFF
310
FFFFFFFFFFFFFFFFFFFFFFFFFFFFFFFFFFFFFFFFFFFFFFFFFFFFFFFFFFFFFFFF
310
FFFFFFFFFFFFFFFFFFFFFFFFFFFFFFFFFFFFFFFFFFFFFFFFF000FFFFFFFFFFFF
310
FFFFFFFFFFFFFFFFFFFFFFFFFFFFFFFFFFFFFFFFFFFFFFFFFFFFFFFFFFFFFFFF
310
FFFFFFFFFFFFFFFFFFFFFFFFFFFFFFFFFFFFFFFFFFFFFFFFFFFFFFFFFFFFFFFF
310
FFFFFFFFFFFFFFFFFFFFFFFFFFFFFFFFF000FFFFFFFFFFFFFFFFFFFFFFFFFFFF
310
FFFFFFFFFFFFFFFFFFFFFFFFFFFFFFFFFFFFFFFFFFFFFFFFFFFFFFFFFFFFFFFF
310
FFFFFFFFFFFFFFFFFFFFFFFFFFFFFFFFFFFFFFFFFFFFFFFFFFFFFFFFFFFFFFFF
310
FFFFFFFFFFFFFFFFF000FFFFFFFFFFFFFFFFFFFFFFFFFFFFFFFFFFFFFFFFFFFF
310
FFFFFFFFFFFFFFFFFFFFFFFFFFFFFFFFFFFFFFFFFFFFFFFFFFFFFFFFFFFFFFFF
310
FFFFFFFFFFFFFFFFFFFFFFFFFFFFFFFFFFFFFFFFFFFFFFFFFFFFFFFFFFFFFFFF
310
F000FFFFFFFFFFFFFFFFFFFFFFFFFFFFFFFFFFFFFFFFFFFFFFFFFFFFFFFFFFFF
310
FFFFFFFFFFFFFFFFFFFFFFFFFFFFFFFFFFFFFFFFFFFFFFFFFFFFFFFFFFFFFFFF
310
FFFFFFFFFFFFFFFFFFFFFFFFFFFFFFFFFFFFFFFFFFFFFFFFF000FFFFFFFFFFFF
310
FFFFFFFFFFFFFFFFFFFFFFFFFFFFFFFFFFFFFFFFFFFFFFFFFFFFFFFFFFFFFFFF
310
FFFFFFFFFFFFFFFFFFFFFFFFFFFFFFFFFFFFFFFFFFFFFFFFFFFFFFFFFFFFFFFF
310
FFFFFFFFFFFFFFFFFFFFFFFFFFFFFFFFF000FFFFFFFFFFFFFFFFFFFFFFFFFFFF
310
FFFFFFFFFFFFFFFFFFFFFFFFFFFFFFFFFFFFFFFFFFFFFFFFFFFFFFFFFFFFFFFF
310
FFFFFFFFFFFFFFFFFFFFFFFFFFFFFFFFFFFFFFFFFFFFFFFFFFFFFFFFFFFFFFFF
310
FFFFFFFFFFFFFFFFF000FFFFFFFFFFFFFFFFFFFFFFFFFFFFFFFFFFFFFFFFFFFF
310
FFFFFFFFFFFFFFFFFFFFFFFFFFFFFFFFFFFFFFFFFFFFFFFFFFFFFFFFFFFFFFFF
310
FFFFFFFFFFFFFFFFFFFFFFFFFFFFFFFFFFFFFFFFFFFFFFFFFFFFFFFFFFFFFFFF
310
F000FFFFFFFFFFFFFFFFFFFFFFFFFFFFFFFFFFFFFFFFFFFFFFFFFFFFFFFFFFFF
310
FFFFFFFFFFFFFFFFFFFFFFFFFFFFFFFFFFFFFFFFFFFFFFFFFFFFFFFFFFFFFFFF
310
FFFFFFFFFFFFFFFFFFFFFFFFFFFFFFFFFFFFFFFFFFFFFFFFF000FFFFFFFFFFFF
310
FFFFFFFFFFFFFFFFFFFFFFFFFFFFFFFFFFFFFFFFFFFFFFFFFFFFFFFFFFFFFFFF
310
FFFFFFFFFFFFFFFFFFFFFFFFFFFFFFFFFFFFFFFFFFFFFFFFFFFFFFFFFFFFFFFF
310
FFFFFFFFFFFFFFFFFFFFFFFFFFFFFFFFF000FFFFFFFFFFFFFFFFFFFFFFFFFFFF
310
FFFFFFFFFFFFFFFFFFFFFFFFFFFFFFFFFFFFFFFFFFFFFFFFFFFFFFFFFFFFFFFF
310
FFFFFFFFFFFFFFFFFFFFFFFFFFFFFFFFFFFFFFFFFFFFFFFFFFFFFFFFFFFFFFFF
310
FFFFFFFFFFFFFFFFF000FFFFFFFFFFFFFFFFFFFFFFFFFFFFFFFFFFFFFFFFFFFF
310
FFFFFFFFFFFFFFFFFFFFFFFFFFFFFFFFFFFFFFFFFFFFFFFFFFFFFFFFFFFFFFFF
310
FFFFFFFFFFFFFFFFFFFFFFFFFFFFFFFFFFFFFFFFFFFFFFFFFFFFFFFFFFFFFFFF
310
F000FFFFFFFFFFFFFFFFFFFFFFFFFFFFFFFFFFFFFFFFFFFFFFFFFFFFFFFFFFFF
310
FFFFFFFFFFFFFFFFFFFFFFFFFFFFFFFFFFFFFFFFFFFFFFFFFFFFFFFFFFFFFFFF
310
FFFFFFFFFFFFFFFFFFFFFFFFFFFFFFFFFFFFFFFFFFFFFFFFF000FFFFFFFFFFFF
310
FFFFFFFFFFFFFFFFFFFFFFFFFFFFFFFFFFFFFFFFFFFFFFFFFFFFFFFFFFFFFFFF
310
FFFFFFFFFFFFFFFFFFFFFFFFFFFFFFFFFFFFFFFFFFFFFFFFFFFFFFFFFFFFFFFF
310
FFFFFFFFFFFFFFFFFFFFFFFFFFFFFFFFF000FFFFFFFFFFFFFFFFFFFFFFFFFFFF
310
FFFFFFFFFFFFFFFFFFFFFFFFFFFFFFFFFFFFFFFFFFFFFFFFFFFFFFFFFFFFFFFF
310
FFFFFFFFFFFFFFFFFFFFFFFFFFFFFFFFFFFFFFFFFFFFFFFFFFFFFFFFFFFFFFFF
310
FFFFFFFFFFFFFFFFF000FFFFFFFFFFFFFFFFFFFFFFFFFFFFFFFFFFFFFFFFFFFF
310
FFFFFFFFFFFFFFFFFFFFFFFFFFFFFFFFFFFFFFFFFFFFFFFFFFFFFFFFFFFFFFFF
310
FFFFFFFFFFFFFFFFFFFFFFFFFFFFFFFFFFFFFFFFFFFFFFFFFFFFFFFFFFFFFFFF
310
F000FFFFFFFFFFFFFFFFFFFFFFFFFFFFFFFFFFFFFFFFFFFFFFFFFFFFFFFFFFFF
310
FFFFFFFFFFFFFFFFFFFFFFFFFFFFFFFFFFFFFFFFFFFFFFFFFFFFFFFFFFFFFFFF
310
FFFFFFFFFFFFFFFFFFFFFFFFFFFFFFFFFFFFFFFFFFFFFFFFF000FFFFFFFFFFFF
310
FFFFFFFFFFFFFFFFFFFFFFFFFFFFFFFFFFFFFFFFFFFFFFFFFFFFFFFFFFFFFFFF
310
FFFFFFFFFFFFFFFFFFFFFFFFFFFFFFFFFFFFFFFFFFFFFFFFFFFFFFFFFFFFFFFF
310
FFFFFFFFFFFFFFFFFFFFFFFFFFFFFFFFF000FFFFFFFFFFFFFFFFFFFFFFFFFFFF
310
FFFFFFFFFFFFFFFFFFFFFFFFFFFFFFFFFFFFFFFFFFFFFFFFFFFFFFFFFFFFFFFF
310
FFFFFFFFFFFFFFFFFFFFFFFFFFFFFFFFFFFFFFFFFFFFFFFFFFFFFFFFFFFFFFFF
310
FFFFFFFFFFFFFFFFF000FFFFF80003FFFFFFFFFFFFFFFFFFFFFFFFFFFFFFFFFF
310
FFFFF00007FFFFFFFFFF00007FFFFFF800000000000000007FFFFFFFFFFFFFFF
310
FFFFFFFC001FFFFFFFFFFFFFFC001FFFFFFFFFFFFFFFFFFFFFFFFFFE0007FFFF
310
F000FFFF8000007FFFFFFFF8000FFFFFC0007FFFFF80007FFFFF0000007FFFFF
310
FFF8000007FFFFF800000000000000007FFFFFF0001FFFFFFFFFFFC00001FFFF
310
FFFFFFFFC00001FFFFFFFF000000000003FFFFE000007FFFF000FFFE0000000F
310
FFFFFFF0000FFFFF80007FFFFF80007FFFFC0000001FFFFFFFC0000001FFFFF8
310
00000000000000007FFFFFF0001FFFFFFFFFFE0000003FFFFFFFFFFE0000003F
310
FFFFFF000000000003FFFF0000000FFFF000FFF800000003FFFFFFF00007FFFF
310
80007FFFFF80007FFFF000000007FFFFFF000000003FFFF80000000000000000
310
7FFFFFF0001FFFFFFFFFF80000000FFFFFFFFFF80000000FFFFFFF0000000000
310
03FFFC00000003FFF000FFE000000000FFFFFFF00007FFFF80003FFFFF80007F
310
FFC000000001FFFFFC000000001FFFF800000000000000007FFFFFF0001FFFFF
310
FFFFE000000003FFFFFFFFE000000003FFFFFF000000000003FFF000000000FF
310
F000FF80000000007FFFFFF00007FFFF80003FFFFF80007FFF8000000000FFFF
310
F80000000007FFF800000000000000007FFFFFF0001FFFFFFFFFC000000001FF
310
FFFFFFC000000001FFFFFF000000000003FFC0000000007FF000FF0000000000
310
3FFFFFE00007FFFF00003FFFFF80007FFE00000000003FFFF00000000003FFF8
310
00000000000000007FFFFFF0001FFFFFFFFF8000000000FFFFFFFF8000000000
310
FFFFFF000000000003FF80000000003FF000FE00000000001FFFFFE00003FFFF
310
00003FFFFF80007FFC00000000001FFFE00000000001FFF8000001FFFE000000
310
7FFFFFF0001FFFFFFFFE00000000003FFFFFFE00000000003FFFFF0000000000
310
03FF00000000001FF000FC00000000000FFFFFE00003FFFF00001FFFFF80007F
310
F800000000001FFFC00000000000FFF8000001FFFE0000007FFFFFF0001FFFFF
310
FFFC00000000001FFFFFFC00000000001FFFFF000000000003FE00000000000F
310
F000F8000000000007FFFFE00003FFFF00001FFFFF80007FF800000000000FFF
310
800000000000FFF8000001FFFE0000007FFFFFF0001FFFFFFFF800000000000F
310
FFFFF800000000000FFFFF000000000003FC000000000007F000F80000000000
310
03FFFFC00003FFFE00001FFFFF80007FF0000000000007FF0000000000007FF8
310
000001FFFE0000007FFFFFF0001FFFFFFFF0000000000007FFFFF00000000000
310
07FFFF000000000003F8000000000003F000F0000000000003FFFFC00001FFFE
310
00001FFFFF80007FE0000000000007FE0000000000003FF8000001FFFE000000
310
7FFFFFF0001FFFFFFFF0000000000007FFFFF0000000000007FFFF0000000000
310
03F800001F800003F000E00001FFF00001FFFFC00001FFFE00000FFFFF80007F
310
E00001FFE00003FE00001FFF00003FF8000001FFFE0000007FFFFFF0001FFFFF
310
FFE000003E000003FFFFE000003E000003FFFF000000000003F00001FFF80001
310
F000E00007FFFC0001FFFFC00001FFFE00000FFFFF80007FC0000FFFFC0003FC
310
0000FFFFC0001FF8000001FFFE0000007FFFFFF0001FFFFFFFC00003FFE00001
310
FFFFC00003FFE00001FFFF0001FFFFFFFFF00007FFFE0001F000E0000FFFFF00
310
00FFFF800001FFFC00000FFFFF80007FC0001FFFFE0001FC0001FFFFE0001FF8
310
000001FFFE0000007FFFFFF0001FFFFFFF80000FFFF80000FFFF80000FFFF800
310
00FFFF0003FFFFFFFFE0000FFFFF8000F000C0003FFFFF8000FFFF800000FFFC
310
000007FFFF80007F80003FFFFF0001FC0003FFFFF0001FF8000001FFFE000000
310
7FFFFFF0001FFFFFFF80003FFFFE0000FFFF80003FFFFE0000FFFF0003FFFFFF
310
FFE0003FFFFF8000F000C0003FFFFF8000FFFF800000FFFC000007FFFF80007F
310
80007FFFFF8001F80007FFFFF8000FF8000001FFFE0000007FFFFFF0001FFFFF
310
FF00007FFFFF00007FFF00007FFFFF00007FFF0003FFFFFFFFE0003FFFFFC000
310
F000C0007FFFFFC000FFFF000000FFFC000007FFFF80007F8000FFFFFF8000F8
310
000FFFFFF8000FF8000001FFFE0000007FFFFFF0001FFFFFFF0000FFFFFF8000
310
7FFF0000FFFFFF80007FFF0003FFFFFFFFC0007FFFFFC00070008000FFFFFFC0
310
00FFFF000000FFF8000007FFFF80007F8000FFFFFF8000F8000FFFFFF8000FF8
310
000001FFFE0000007FFFFFF0001FFFFFFE0001FFFFFFC0003FFE0001FFFFFFC0
310
003FFF0003FFFFFFFFC0007FFFFFE00070008000FFFFFFC0007FFF0000007FF8
310
000003FFFF80007F0001FFFFFF8000F8000FFFFFF8000FF8000001FFFE000000
310
7FFFFFF0001FFFFFFE0001FFFFFFC0003FFE0001FFFFFFC0003FFF0003FFFFFF
310
FFC000FFFFFFE00070008000FFFFFFC0007FFF0000007FF8000003FFFF80007F
310
0001FFFFFF8000F8001FFFFFF8000FF8000001FFFE0000007FFFFFF0001FFFFF
310
FE0003FFFFFFE0003FFE0003FFFFFFE0003FFF0003FFFFFFFFC000FFFFFFE000
310
70008000FFFFFFC0007FFE0000007FF8000003FFFF80007F0001FFFFFF8000F0
310
001FFFFFF8000FF8000001FFFE0000007FFFFFF0001FFFFFFC0003FFFFFFE000
310
1FFC0003FFFFFFE0001FFF0003FFFFFFFFC000FFFFFFC00070008000FFFFFF80
310
007FFE0000007FF0000003FFFF80007F0001FFFFFF0000F0001FFFFFF8000FF8
310
000001FFFE0000007FFFFFF0001FFFFFFC0007FFFFFFF0001FFC0007FFFFFFF0
310
001FFF0003FFFFFFFFC000FFFFFFC00070008001FFFFFF0000FFFE0000003FF0
310
000001FFFF80007F0001FFFFFF0000F8001FFFFFF0000FF8000001FFFE000000
310
7FFFFFF0001FFFFFFC0007FFFFFFF0001FFC0007FFFFFFF0001FFF0003FFFFFF
310
FFC001FFFFFF80007000FFFFFFFFFE0000FFFE0008003FF0008001FFFF80007F
310
FFFFFFFFFC0000FFFFFFFFFFE0000FF8000001FFFE0000007FFFFFF0001FFFFF
310
F8000FFFFFFFF8000FF8000FFFFFFFF8000FFF0003FFFFFFFFFFFFFFFFFF0000
310
7000FFFFFFFFFC0000FFFC0008003FF0008001FFFF80007FFFFFFFFFF80001FF
310
FFFFFFFF80000FF8000001FFFE0000007FFFFFF0001FFFFFF8000FFFFFFFF800
310
0FF8000FFFFFFFF8000FFF0003FFFFFFFFFFFFFFFFFE0000F000FFFFFFFFE000
310
00FFFC000C003FE000C001FFFF80007FFFFFFFFFC00001FFFFFFFFFE00001FF8
310
000001FFFE0000007FFFFFF0001FFFFFF8000FFFFFFFF8000FF8000FFFFFFFF8
310
000FFF0003FFFFFFFFFFFFFFFFF00000F000FFFFFFFE000001FFFC000C001FE0
310
00C000FFFF80007FFFFFFFFE000001FFFFFFFFE000001FF80FFFFFFFFFFFFFC0
310
7FFFFFF0001FFFFFF8000FFFFFFFF8000FF8000FFFFFFFF8000FFF0003FFFFFF
310
FFFFFFFFFF800000F000FFFFFFC0000001FFFC001C001FE001C000FFFF80007F
310
FFFFFF80000003FFFFFFF80000001FF80FFFFFFFFFFFFFC07FFFFFF0001FFFFF
310
F8001FFFFFFFFC000FF8001FFFFFFFFC000FFF0003FFFFFFFFFFFFFFF0000001
310
F000FFFFF800000001FFF8001C001FE001C000FFFF80007FFFFFF800000003FF
310
FFFF800000003FF80FFFFFFFFFFFFFC07FFFFFF0001FFFFFF8001FFFFFFFFC00
310
0FF8001FFFFFFFFC000FFF0003FFFFFFFFFFFFFE00000001F000FFFFC0000000
310
03FFF8001E001FC001E000FFFF80007FFFFF8000000007FFFFFC000000003FF8
310
0FFFFFFFFFFFFFC07FFFFFF0001FFFFFF8001FFFFFFFFC000FF8001FFFFFFFFC
310
000FFF0003FFFFFFFFFFFFE000000003F000FFFE0000000007FFF8001E000FC0
310
01E0007FFF80007FFFFE0000000007FFFFE0000000007FF80FFFFFFFFFFFFFC0
310
7FFFFFF0001FFFFFF0001FFFFFFFFC0007F0001FFFFFFFFC0007FF0003FFFFFF
310
FFFFFF0000000003F000FFF80000000007FFF8001E000FC003E0007FFF80007F
310
FFF0000000000FFFFF8000000000FFF80FFFFFFFFFFFFFC07FFFFFF0001FFFFF
310
F0001FFFFFFFFC0007F0001FFFFFFFFC0007FF0003FFFFFFFFFFFC0000000007
310
F000FFE0000000000FFFF0003E000FC003E0007FFF80007FFFC0000000001FFF
310
FE0000000001FFF80FFFFFFFFFFFFFC07FFFFFF0001FFFFFF0001FFFFFFFFC00
310
07F0001FFFFFFFFC0007FF0003FFFFFFFFFFF0000000000FF000FFC000000000
310
1FFFF0003F000F8003F0003FFF80007FFF80000000003FFFF80000000003FFF8
310
0FFFFFFFFFFFFFC07FFFFFF0001FFFFFF0001FFFFFFFFC0007F0001FFFFFFFFC
310
0007FF0003FFFFFFFFFFE0000000001FF000FF00000000007FFFF0003F000780
310
03F0003FFF80007FFF00000000007FFFF00000000007FFF80FFFFFFFFFFFFFC0
310
7FFFFFF0001FFFFFF0001FFFFFFFFC0007F0001FFFFFFFFC0007FF0003FFFFFF
310
FFFF80000000007FF000FE0000000000FFFFE0003F00078007F0003FFF80007F
310
FE0000000001FFFFE0000000001FFFF80FFFFFFFFFFFFFC07FFFFFF0001FFFFF
310
F0001FFFFFFFFC0007F0001FFFFFFFFC0007FF0003FFFFFFFFFF0000000000FF
310
F000FC0000000003FFFFE0007F00078007F0003FFF80007FFC0000000007FFFF
310
C0000000007FFFF80FFFFFFFFFFFFFC07FFFFFF0001FFFFFF8001FFFFFFFFC00
310
0FF8001FFFFFFFFC000FFF0003FFFFFFFFFE0000000003FFF000FC000000000F
310
FFFFE0007F80070007F8001FFF80007FF8000000001FFFFF8000000001FFFFF8
310
0FFFFFFFFFFFFFC07FFFFFF0001FFFFFF8001FFFFFFFFC000FF8001FFFFFFFFC
310
000FFF0003FFFFFFFFFC000000000FFFF000F8000000007FFFFFE0007F800700
310
07F8001FFF80007FF000000000FFFFFF800000000FFFFFF80FFFFFFFFFFFFFC0
310
7FFFFFF0001FFFFFF8000FFFFFFFF8000FF8000FFFFFFFF8000FFF0003FFFFFF
310
FFFC000000007FFFF000F800000007FFFFFFC0007F8003000FF8001FFF80007F
310
F000000007FFFFFF000000007FFFFFF80FFFFFFFFFFFFFC07FFFFFF0001FFFFF
310
F8000FFFFFFFF8000FF8000FFFFFFFF8000FFF0003FFFFFFFFF80000000FFFFF
310
F000F0000000FFFFFFFFC000FF8003000FF8001FFF80007FE0000000FFFFFFFF
310
0000000FFFFFFFF8000001FFFE0000007FFFFFF0001FFFFFF8000FFFFFFFF800
310
0FF8000FFFFFFFF8000FFF0003FFFFFFFFF8000000FFFFFFF000F000000FFFFF
310
FFFFC000FFC002000FF8000FFF80007FE000001FFFFFFFFE000001FFFFFFFFF8
310
000001FFFE0000007FFFFFF0001FFFFFF8000FFFFFFFF8000FF8000FFFFFFFF8
310
000FFF0003FFFFFFFFF000001FFFFFFFF000E00000FFFFFFFFFFC000FFC00200
310
0FFC000FFF80007FE00001FFFFFFFFFE00001FFFFFFFFFF8000001FFFE000000
310
7FFFFFF0001FFFFFFC000FFFFFFFF8001FFC000FFFFFFFF8001FFF0003FFFFFF
310
FFF00001FFFFFFFFF000E00007FFFFFFFFFF8000FFC000001FFC000FFF80007F
310
C0000FFFFFFFFFFE0000FFFFFFFFFFF8000001FFFE0000007FFFFFF0001FFFFF
310
FC0007FFFFFFF0001FFC0007FFFFFFF0001FFF0003FFFFFFFFF00007FFFFFFFF
310
F000E0001FFFFFFFFFFF8000FFC000001FFC000FFF80007FC0003FFFFFFFFFFE
310
0001FFFFFFFFFFF8000001FFFE0000007FFFFFF0001FFFFFFC0007FFFFFFF000
310
1FFC0007FFFFFFF0001FFF0003FFFFFFFFF0001FFFFFFFFFF000E0003FFFFF00
310
03FF8001FFE000001FFC0007FF80007FC0007FFFFF0007FC0003FFFFF0003FF8
310
000001FFFE0000007FFFFFF0001FFFFFFC0003FFFFFFE0001FFC0003FFFFFFE0
310
001FFF0003FFFFFFFFF0003FFFFFFFFFF000E0003FFFFF0001FF8001FFE00000
310
1FFE0007FF80007FC0007FFFFE0003FC0007FFFFE0003FF8000001FFFE000000
310
7FFFFFF0001FFFFFFE0003FFFFFFE0003FFE0003FFFFFFE0003FFF0003FFFFFF
310
FFF0003FFFFF8001F000E0003FFFFF0001FF0001FFE000001FFE0007FF80007F
310
C0007FFFFE0003FC0007FFFFE0003FF8000001FFFE0000007FFFFFF0001FFFFF
310
FE0001FFFFFFC0003FFE0001FFFFFFC0003FFF0003FFFFFFFFF0003FFFFF0001
310
F000E0003FFFFF0003FF0001FFE000003FFE0007FF80007FC0007FFFFE0003FC
310
0007FFFFE0003FF8000001FFFE0000007FFFFFF0001FFFFFFF0001FFFFFFC000
310
7FFF0001FFFFFFC0007FFF0003FFFFFFFFF0003FFFFF0001F000E0003FFFFE00
310
03FF0003FFF000003FFE0003FF80007FC0007FFFFC0003FE0007FFFFE0003FF8
310
000001FFFE0000007FFFFFF0001FFFFFFF0000FFFFFF80007FFF0000FFFFFF80
310
007FFF0003FFFFFFFFF0003FFFFF0001F000E0003FFFFE0003FF0003FFF00000
310
3FFF0003FF80007FC0007FFFFC0007FE0007FFFFC0003FF8000001FFFE000000
310
7FFFFFF0001FFFFFFF80007FFFFF0000FFFF80007FFFFF0000FFFF0003FFFFFF
310
FFF0003FFFFF0003F000E0003FFFFC0003FE0003FFF000003FFF0003FF80007F
310
E0003FFFF80007FE0003FFFFC0007FF8000001FFFE0000007FFFFFF0001FFFFF
310
FF80003FFFFE0000FFFF80003FFFFE0000FFFF0003FFFFFFFFF0001FFFFE0003
310
F000F0001FFFF80003FE0003FFF000007FFF0001FF80007FE0003FFFF00007FE
310
0001FFFF80007FF8000001FFFE0000007FFFFFF0001FFFFFFFC0000FFFF80001
310
FFFFC0000FFFF80001FFFF0003FFFFFFFFF0001FFFFC0003F000F0000FFFF000
310
07FE0007FFF800007FFF0001FF80007FE0001FFFE00007FF0000FFFE00007FF8
310
000001FFFE0000007FFFFFF0001FFFFFFFC00003FFE00001FFFFC00003FFE000
310
01FFFF0003FFFFFFFFF8000FFFF80003F000F00003FFC00007FC0007FFF80000
310
7FFF8001FF80007FF00007FF80000FFF00007FF80000FFF8000001FFFE000000
310
7F80000000000001FFE000003E000003FFFFE000003E000003FFFF0003FFFFFF
310
FFF80003FFE00007F000F800000000000FFC0007FFF800007FFF8001FF80007F
310
F000000000000FFF000000000000FFF8000001FFFE0000007F80000000000001
310
FFF0000000000007FFFFF0000000000007FFFF0003FFFFFFFFFC00007E000007
310
F000F800000000000FFC0007FFF80000FFFF8000FF80007FF800000000001FFF
310
800000000001FFF8000001FFFE0000007F80000000000001FFF800000000000F
310
FFFFF800000000000FFFFF0003FFFFFFFFFC00000000000FF000FC0000000000
310
1FFC0007FFFC0000FFFF8000FF80007FF800000000003FFFC00000000001FFF8
310
000001FFFE0000007F80000000000001FFF800000000000FFFFFF80000000000
310
0FFFFF0003FFFFFFFFFE00000000001FF000FE00000000003FF8000FFFFC0000
310
FFFF8000FF80007FFC00000000003FFFC00000000003FFF8000001FFFE000000
310
7F80000000000001FFFC00000000001FFFFFFC00000000001FFFFF0003FFFFFF
310
FFFF00000000001FF000FF00000000003FF8000FFFFC0000FFFFC000FF80007F
310
FE00000000007FFFE00000000007FFF8000001FFFE0000007F80000000000001
310
FFFE00000000003FFFFFFE00000000003FFFFF0003FFFFFFFFFF80000000003F
310
F000FF80000000007FF8000FFFFC0001FFFFC0007F80007FFF0000000000FFFF
310
F0000000000FFFF800000000000000007F80000000000001FFFF8000000000FF
310
FFFFFF8000000000FFFFFF0003FFFFFFFFFFC0000000007FF000FFC000000000
310
FFF8000FFFFE0001FFFFC0007F80007FFF8000000001FFFFF8000000001FFFF8
310
00000000000000007F80000000000001FFFFC000000001FFFFFFFFC000000001
310
FFFFFF0003FFFFFFFFFFE000000000FFF000FFE000000003FFF0001FFFFE0001
310
FFFFC0007F80007FFFC000000007FFFFFE000000003FFFF80000000000000000
310
7F80000000000001FFFFE000000003FFFFFFFFE000000003FFFFFF0003FFFFFF
310
FFFFF000000003FFF000FFF80000000FFFF0001FFFFE0001FFFFE0007F80007F
310
FFF00000000FFFFFFF00000000FFFFF800000000000000007F80000000000001
310
FFFFF80000000FFFFFFFFFF80000000FFFFFFF0003FFFFFFFFFFFC0000000FFF
310
F000FFFE0000003FFFF0001FFFFE0003FFFFE0003F80007FFFFC0000003FFFFF
310
FFC0000003FFFFF800000000000000007F80000000000001FFFFFE0000003FFF
310
FFFFFFFE0000003FFFFFFF0003FFFFFFFFFFFF0000003FFFF000FFFF800000FF
310
FFF0001FFFFF0003FFFFE0003F80007FFFFF000001FFFFFFFFF800001FFFFFF8
310
00000000000000007F80000000000001FFFFFFC00001FFFFFFFFFFFFC00001FF
310
FFFFFF0003FFFFFFFFFFFFC00000FFFFF000FFFFF8000FFFFFFFFFFFFFFFFFFF
310
FFFFFFFFFFFFFFFFFFFFF0001FFFFFFFFFFF0000FFFFFFF80000000000000000
310
7FFFFFFFFFFFFFFFFFFFFFFC001FFFFFFFFFFFFFFC001FFFFFFFFFFFFFFFFFFF
310
FFFFFFFC001FFFFFF000FFFFFFFFFFFFFFFFFFFFFFFFFFFFFFFFFFFFFFFFFFFF
310
FFFFFFFFFFFFFFFFFFFFFFFFFFFFFFFFFFFFFFFFFFFFFFFFFFFFFFFFFFFFFFFF
310
FFFFFFFFFFFFFFFFFFFFFFFFFFFFFFFFFFFFFFFFFFFFFFFFFFFFFFFFFFFFFFFF
310
F000FFFFFFFFFFFFFFFFFFFFFFFFFFFFFFFFFFFFFFFFFFFFFFFFFFFFFFFFFFFF
310
FFFFFFFFFFFFFFFFFFFFFFFFFFFFFFFFFFFFFFFFFFFFFFFFFFFFFFFFFFFFFFFF
310
FFFFFFFFFFFFFFFFFFFFFFFFFFFFFFFFFFFFFFFFFFFFFFFFF000FFFFFFFFFFFF
310
FFFFFFFFFFFFFFFFFFFFFFFFFFFFFFFFFFFFFFFFFFFFFFFFFFFFFFFFFFFFFFFF
310
FFFFFFFFFFFFFFFFFFFFFFFFFFFFFFFFFFFFFFFFFFFFFFFFFFFFFFFFFFFFFFFF
310
FFFFFFFFFFFFFFFFFFFFFFFFFFFFFFFFF000FFFFFFFFFFFFFFFFFFFFFFFFFFFF
310
FFFFFFFFFFFFFFFFFFFFFFFFFFFFFFFFFFFFFFFFFFFFFFFFFFFFFFFFFFFFFFFF
310
FFFFFFFFFFFFFFFFFFFFFFFFFFFFFFFFFFFFFFFFFFFFFFFFFFFFFFFFFFFFFFFF
310
FFFFFFFFFFFFFFFFF000FFFFFFFFFFFFFFFFFFFFFFFFFFFFFFFFFFFFFFFFFFFF
310
FFFFFFFFFFFFFFFFFFFFFFFFFFFFFFFFFFFFFFFFFFFFFFFFFFFFFFFFFFFFFFFF
310
FFFFFFFFFFFFFFFFFFFFFFFFFFFFFFFFFFFFFFFFFFFFFFFFFFFFFFFFFFFFFFFF
310
F000FFFFFFFFFFFFFFFFFFFFFFFFFFFFFFFFFFFFFFFFFFFFFFFFFFFFFFFFFFFF
310
FFFFFFFFFFFFFFFFFFFFFFFFFFFFFFFFFFFFFFFFFFFFFFFFFFFFFFFFFFFFFFFF
310
FFFFFFFFFFFFFFFFFFFFFFFFFFFFFFFFFFFFFFFFFFFFFFFFF000FFFFFFFFFFFF
310
FFFFFFFFFFFFFFFFFFFFFFFFFFFFFFFFFFFFFFFFFFFFFFFFFFFFFFFFFFFFFFFF
310
FFFFFFFFFFFFFFFFFFFFFFFFFFFFFFFFFFFFFFFFFFFFFFFFFFFFFFFFFFFFFFFF
310
FFFFFFFFFFFFFFFFFFFFFFFFFFFFFFFFF000FFFFFFFFFFFFFFFFFFFFFFFFFFFF
310
FFFFFFFFFFFFFFFFFFFFFFFFFFFFFFFFFFFFFFFFFFFFFFFFFFFFFFFFFFFFFFFF
310
FFFFFFFFFFFFFFFFFFFFFFFFFFFFFFFFFFFFFFFFFFFFFFFFFFFFFFFFFFFFFFFF
310
FFFFFFFFFFFFFFFFF000FFFFFFFFFFFFFFFFFFFFFFFFFFFFFFFFFFFFFFFFFFFF
310
FFFFFFFFFFFFFFFFFFFFFFFFFFFFFFFFFFFFFFFFFFFFFFFFFFFFFFFFFFFFFFFF
310
FFFFFFFFFFFFFFFFFFFFFFFFFFFFFFFFFFFFFFFFFFFFFFFFFFFFFFFFFFFFFFFF
310
F000FFFFFFFFFFFFFFFFFFFFFFFFFFFFFFFFFFFFFFFFFFFFFFFFFFFFFFFFFFFF
310
FFFFFFFFFFFFFFFFFFFFFFFFFFFFFFFFFFFFFFFFFFFFFFFFFFFFFFFFFFFFFFFF
310
FFFFFFFFFFFFFFFFFFFFFFFFFFFFFFFFFFFFFFFFFFFFFFFFF000FFFFFFFFFFFF
310
FFFFFFFFFFFFFFFFFFFFFFFFFFFFFFFFFFFFFFFFFFFFFFFFFFFFFFFFFFFFFFFF
310
FFFFFFFFFFFFFFFFFFFFFFFFFFFFFFFFFFFFFFFFFFFFFFFFFFFFFFFFFFFFFFFF
310
FFFFFFFFFFFFFFFFFFFFFFFFFFFFFFFFF000FFFFFFFFFFFFFFFFFFFFFFFFFFFF
310
FFFFFFFFFFFFFFFFFFFFFFFFFFFFFFFFFFFFFFFFFFFFFFFFFFFFFFFFFFFFFFFF
310
FFFFFFFFFFFFFFFFFFFFFFFFFFFFFFFFFFFFFFFFFFFFFFFFFFFFFFFFFFFFFFFF
310
FFFFFFFFFFFFFFFFF000FFFFFFFFFFFFFFFFFFFFFFFFFFFFFFFFFFFFFFFFFFFF
310
FFFFFFFFFFFFFFFFFFFFFFFFFFFFFFFFFFFFFFFFFFFFFFFFFFFFFFFFFFFFFFFF
310
FFFFFFFFFFFFFFFFFFFFFFFFFFFFFFFFFFFFFFFFFFFFFFFFFFFFFFFFFFFFFFFF
310
F000FFFFFFFFFFFFFFFFFFFFFFFFFFFFFFFFFFFFFFFFFFFFFFFFFFFFFFFFFFFF
310
FFFFFFFFFFFFFFFFFFFFFFFFFFFFFFFFFFFFFFFFFFFFFFFFFFFFFFFFFFFFFFFF
310
FFFFFFFFFFFFFFFFFFFFFFFFFFFFFFFFFFFFFFFFFFFFFFFFF000FFFFFFFFFFFF
310
FFFFFFFFFFFFFFFFFFFFFFFFFFFFFFFFFFFFFFFFFFFFFFFFFFFFFFFFFFFFFFFF
310
FFFFFFFFFFFFFFFFFFFFFFFFFFFFFFFFFFFFFFFFFFFFFFFFFFFFFFFFFFFFFFFF
310
FFFFFFFFFFFFFFFFFFFFFFFFFFFFFFFFF000FFFFFFFFFFFFFFFFFFFFFFFFFFFF
310
FFFFFFFFFFFFFFFFFFFFFFFFFFFFFFFFFFFFFFFFFFFFFFFFFFFFFFFFFFFFFFFF
310
FFFFFFFFFFFFFFFFFFFFFFFFFFFFFFFFFFFFFFFFFFFFFFFFFFFFFFFFFFFFFFFF
310
FFFFFFFFFFFFFFFFF000FFFFFFFFFFFFFFFFFFFFFFFFFFFFFFFFFFFFFFFFFFFF
310
FFFFFFFFFFFFFFFFFFFFFFFFFFFFFFFFFFFFFFFFFFFFFFFFFFFFFFFFFFFFFFFF
310
FFFFFFFFFFFFFFFFFFFFFFFFFFFFFFFFFFFFFFFFFFFFFFFFFFFFFFFFFFFFFFFF
310
F000FFFFFFFFFFFFFFFFFFFFFFFFFFFFFFFFFFFFFFFFFFFFFFFFFFFFFFFFFFFF
310
FFFFFFFFFFFFFFFFFFFFFFFFFFFFFFFFFFFFFFFFFFFFFFFFFFFFFFFFFFFFFFFF
310
FFFFFFFFFFFFFFFFFFFFFFFFFFFFFFFFFFFFFFFFFFFFFFFFF000FFFFFFFFFFFF
310
FFFFFFFFFFFFFFFFFFFFFFFFFFFFFFFFFFFFFFFFFFFFFFFFFFFFFFFFFFFFFFFF
310
FFFFFFFFFFFFFFFFFFFFFFFFFFFFFFFFFFFFFFFFFFFFFFFFFFFFFFFFFFFFFFFF
310
FFFFFFFFFFFFFFFFFFFFFFFFFFFFFFFFF000FFFFFFFFFFFFFFFFFFFFFFFFFFFF
310
FFFFFFFFFFFFFFFFFFFFFFFFFFFFFFFFFFFFFFFFFFFFFFFFFFFFFFFFFFFFFFFF
310
FFFFFFFFFFFFFFFFFFFFFFFFFFFFFFFFFFFFFFFFFFFFFFFFFFFFFFFFFFFFFFFF
310
FFFFFFFFFFFFFFFFF000FFFFFFFFFFFFFFFFFFFFFFFFFFFFFFFFFFFFFFFFFFFF
310
FFFFFFFFFFFFFFFFFFFFFFFFFFFFFFFFFFFFFFFFFFFFFFFFFFFFFFFFFFFFFFFF
310
FFFFFFFFFFFFFFFFFFFFFFFFFFFFFFFFFFFFFFFFFFFFFFFFFFFFFFFFFFFFFFFF
310
F000FFFFFFFFFFFFFFFFFFFFFFFFFFFFFFFFFFFFFFFFFFFFFFFFFFFFFFFFFFFF
310
FFFFFFFFFFFFFFFFFFFFFFFFFFFFFFFFFFFFFFFFFFFFFFFFFFFFFFFFFFFFFFFF
310
FFFFFFFFFFFFFFFFFFFFFFFFFFFFFFFFFFFFFFFFFFFFFFFFF000FFFFFFFFFFFF
310
FFFFFFFFFFFFFFFFFFFFFFFFFFFFFFFFFFFFFFFFFFFFFFFFFFFFFFFFFFFFFFFF
310
FFFFFFFFFFFFFFFFFFFFFFFFFFFFFFFFFFFFFFFFFFFFFFFFFFFFFFFFFFFFFFFF
310
FFFFFFFFFFFFFFFFFFFFFFFFFFFFFFFFF0000000000000000000000000000000
310
0000000000000000000000000000000000000000000000000000000000000000
310
0000000000000000000000000000000000000000000000000000000000000000
310
0000000000000000000000000000000000000000000000000000000000000000
310
0000000000000000000000000000000000000000000000000000000000000000
310
0000000000000000000000000000000000000000000000000000000000000000
310
0000000000000000000000000000000000000000000000000000000000000000
310
0000000000000000000000000000000000000000000000000000000000000000
310
0000000000000000000000000000000000000000000000000000000000000000
310
0000000000000000000000000000000000000000000000000000000000000000
310
0000000000000000000000000000000000000000000000000000000000000000
310
0000000000000000000000000000000000000000000000000000000000000000
310
0000000000000000000000000000000000000000000000000000000000000000
310
0000000000000000000000000000000000000000000000000000000000000000
310
0000000000000000000000000000000000000000000000000000000000000000
310
0000000000000000000000000000000000000000000000000000000000000000
  1
OLE
  0
ENDSEC
  0
SECTION
  2
OBJECTS
  0
DICTIONARY
  5
C
330
0
100
AcDbDictionary
281
     1
  3
ACAD_GROUP
350
D
  3
ACAD_LAYOUT
350
1A
  3
ACAD_MLINESTYLE
350
17
  3
ACAD_PLOTSETTINGS
350
19
  3
ACAD_PLOTSTYLENAME
350
E
  0
DICTIONARY
  5
D
102
{ACAD_REACTORS
330
C
102
}
330
C
100
AcDbDictionary
281
     1
  0
DICTIONARY
  5
1A
102
{ACAD_REACTORS
330
C
102
}
330
C
100
AcDbDictionary
281
     1
  3
Layout1
350
1E
  3
Layout2
350
26
  3
Model
350
22
  0
DICTIONARY
  5
17
102
{ACAD_REACTORS
330
C
102
}
330
C
100
AcDbDictionary
281
     1
  3
Standard
350
18
  0
DICTIONARY
  5
19
102
{ACAD_REACTORS
330
C
102
}
330
C
100
AcDbDictionary
281
     1
  0
ACDBDICTIONARYWDFLT
  5
E
102
{ACAD_REACTORS
330
C
102
}
330
C
100
AcDbDictionary
281
     1
  3
Normal
350
F
100
AcDbDictionaryWithDefault
340
F
  0
LAYOUT
  5
1E
102
{ACAD_REACTORS
330
1A
102
}
330
1A
100
AcDbPlotSettings
  1

  2
none_device
  4

  6

 40
0.0
 41
0.0
 42
0.0
 43
0.0
 44
0.0
 45
0.0
 46
0.0
 47
0.0
 48
0.0
 49
0.0
140
0.0
141
0.0
142
1.0
143
1.0
 70
   688
 72
     0
 73
     0
 74
     5
  7

 75
    16
147
1.0
148
0.0
149
0.0
100
AcDbLayout
  1
Layout1
 70
     1
 71
     1
 10
0.0
 20
0.0
 11
420.0
 21
297.0
 12
0.0
 22
0.0
 32
0.0
 14
1.0000000000E+20
 24
1.0000000000E+20
 34
1.0000000000E+20
 15
-1.0000000000E+20
 25
-1.0000000000E+20
 35
-1.0000000000E+20
146
0.0
 13
0.0
 23
0.0
 33
0.0
 16
1.0
 26
0.0
 36
0.0
 17
0.0
 27
1.0
 37
0.0
 76
     0
330
1B
  0
LAYOUT
  5
26
102
{ACAD_REACTORS
330
1A
102
}
330
1A
100
AcDbPlotSettings
  1

  2
none_device
  4

  6

 40
0.0
 41
0.0
 42
0.0
 43
0.0
 44
0.0
 45
0.0
 46
0.0
 47
0.0
 48
0.0
 49
0.0
140
0.0
141
0.0
142
1.0
143
1.0
 70
   688
 72
     0
 73
     0
 74
     5
  7

 75
    16
147
1.0
148
0.0
149
0.0
100
AcDbLayout
  1
Layout2
 70
     1
 71
     2
 10
0.0
 20
0.0
 11
0.0
 21
0.0
 12
0.0
 22
0.0
 32
0.0
 14
0.0
 24
0.0
 34
0.0
 15
0.0
 25
0.0
 35
0.0
146
0.0
 13
0.0
 23
0.0
 33
0.0
 16
1.0
 26
0.0
 36
0.0
 17
0.0
 27
1.0
 37
0.0
 76
     0
330
23
  0
LAYOUT
  5
22
102
{ACAD_REACTORS
330
1A
102
}
330
1A
100
AcDbPlotSettings
  1

  2
none_device
  4

  6

 40
0.0
 41
0.0
 42
0.0
 43
0.0
 44
0.0
 45
0.0
 46
0.0
 47
0.0
 48
0.0
 49
0.0
140
0.0
141
0.0
142
1.0
143
1.0
 70
  1712
 72
     0
 73
     0
 74
     0
  7

 75
     0
147
1.0
148
0.0
149
0.0
100
AcDbLayout
  1
Model
 70
     1
 71
     0
 10
0.0
 20
0.0
 11
297.0
 21
210.0
 12
0.0
 22
0.0
 32
0.0
 14
0.0
 24
0.0
 34
0.0
 15
297.0
 25
210.0
 35
0.0
146
0.0
 13
0.0
 23
0.0
 33
0.0
 16
1.0
 26
0.0
 36
0.0
 17
0.0
 27
1.0
 37
0.0
 76
     0
330
1F
331
29
  0
MLINESTYLE
  5
18
102
{ACAD_REACTORS
330
17
102
}
330
17
100
AcDbMlineStyle
  2
Standard
 70
     0
  3

 62
   256
 51
90.0
 52
90.0
 71
     2
 49
0.5
 62
   256
  6
BYLAYER
 49
-0.5
 62
   256
  6
BYLAYER
  0
ACDBPLACEHOLDER
  5
F
102
{ACAD_REACTORS
330
E
102
}
330
E
  0
ENDSEC
  0
EOF
