  0
SECTION
  2
HEADER
  9
$ACADVER
  1
AC1015
  9
$ACADMAINTVER
 70
     6
  9
$DWGCODEPAGE
  3
ANSI_1252
  9
$INSBASE
 10
0.0
 20
0.0
 30
0.0
  9
$EXTMIN
 10
0.0
 20
0.0
 30
0.0
  9
$EXTMAX
 10
297.0
 20
210.0
 30
0.0
  9
$LIMMIN
 10
0.0
 20
0.0
  9
$LIMMAX
 10
297.0
 20
210.0
  9
$ORTHOMODE
 70
     0
  9
$REGENMODE
 70
     1
  9
$FILLMODE
 70
     1
  9
$QTEXTMODE
 70
     0
  9
$MIRRTEXT
 70
     1
  9
$LTSCALE
 40
1.0
  9
$ATTMODE
 70
     1
  9
$TEXTSIZE
 40
2.0
  9
$TRACEWID
 40
1.0
  9
$TEXTSTYLE
  7
Standard
  9
$CLAYER
  8
0
  9
$CELTYPE
  6
ByLayer
  9
$CECOLOR
 62
   256
  9
$CELTSCALE
 40
1.0
  9
$DISPSILH
 70
     0
  9
$DIMSCALE
 40
1.0
  9
$DIMASZ
 40
3.0
  9
$DIMEXO
 40
0.0
  9
$DIMDLI
 40
3.75
  9
$DIMRND
 40
0.0
  9
$DIMDLE
 40
0.0
  9
$DIMEXE
 40
1.0
  9
$DIMTP
 40
0.0
  9
$DIMTM
 40
0.0
  9
$DIMTXT
 40
2.0
  9
$DIMCEN
 40
2.5
  9
$DIMTSZ
 40
0.0
  9
$DIMTOL
 70
     0
  9
$DIMLIM
 70
     0
  9
$DIMTIH
 70
     1
  9
$DIMTOH
 70
     1
  9
$DIMSE1
 70
     0
  9
$DIMSE2
 70
     0
  9
$DIMTAD
 70
     1
  9
$DIMZIN
 70
     0
  9
$DIMBLK
  1

  9
$DIMASO
 70
     1
  9
$DIMSHO
 70
     1
  9
$DIMPOST
  1

  9
$DIMAPOST
  1

  9
$DIMALT
 70
     0
  9
$DIMALTD
 70
     3
  9
$DIMALTF
 40
0.0393700787
  9
$DIMLFAC
 40
1.0
  9
$DIMTOFL
 70
     1
  9
$DIMTVP
 40
0.0
  9
$DIMTIX
 70
     0
  9
$DIMSOXD
 70
     0
  9
$DIMSAH
 70
     0
  9
$DIMBLK1
  1

  9
$DIMBLK2
  1

  9
$DIMSTYLE
  2
ISO-25
  9
$DIMCLRD
 70
     0
  9
$DIMCLRE
 70
     0
  9
$DIMCLRT
 70
     0
  9
$DIMTFAC
 40
1.0
  9
$DIMGAP
 40
1.524
  9
$DIMJUST
 70
     0
  9
$DIMSD1
 70
     0
  9
$DIMSD2
 70
     0
  9
$DIMTOLJ
 70
     0
  9
$DIMTZIN
 70
     0
  9
$DIMALTZ
 70
     0
  9
$DIMALTTZ
 70
     0
  9
$DIMUPT
 70
     0
  9
$DIMDEC
 70
     2
  9
$DIMTDEC
 70
     3
  9
$DIMALTU
 70
     2
  9
$DIMALTTD
 70
     3
  9
$DIMTXSTY
  7
Standard
  9
$DIMAUNIT
 70
     0
  9
$DIMADEC
 70
     2
  9
$DIMALTRND
 40
0.0
  9
$DIMAZIN
 70
     0
  9
$DIMDSEP
 70
    44
  9
$DIMATFIT
 70
     3
  9
$DIMFRAC
 70
     0
  9
$DIMLDRBLK
  1

  9
$DIMLUNIT
 70
     2
  9
$DIMLWD
 70
    -2
  9
$DIMLWE
 70
    -2
  9
$DIMTMOVE
 70
     0
  9
$LUNITS
 70
     2
  9
$LUPREC
 70
     2
  9
$SKETCHINC
 40
1.0
  9
$FILLETRAD
 40
10.0
  9
$AUNITS
 70
     0
  9
$AUPREC
 70
     2
  9
$MENU
  1
.
  9
$ELEVATION
 40
0.0
  9
$PELEVATION
 40
0.0
  9
$THICKNESS
 40
0.0
  9
$LIMCHECK
 70
     0
  9
$CHAMFERA
 40
10.0
  9
$CHAMFERB
 40
10.0
  9
$CHAMFERC
 40
20.0
  9
$CHAMFERD
 40
0.0
  9
$SKPOLY
 70
     0
  9
$TDCREATE
 40
2456071.705259016
  9
$TDUCREATE
 40
2456071.621925683
  9
$TDUPDATE
 40
2456071.705260463
  9
$TDUUPDATE
 40
2456071.62192713
  9
$TDINDWG
 40
0.0000000116
  9
$TDUSRTIMER
 40
0.0000000116
  9
$USRTIMER
 70
     1
  9
$ANGBASE
 50
0.0
  9
$ANGDIR
 70
     0
  9
$PDMODE
 70
     0
  9
$PDSIZE
 40
-1.0
  9
$PLINEWID
 40
0.0
  9
$SPLFRAME
 70
     0
  9
$SPLINETYPE
 70
     6
  9
$SPLINESEGS
 70
     8
  9
$HANDSEED
  5
269
  9
$SURFTAB1
 70
     6
  9
$SURFTAB2
 70
     6
  9
$SURFTYPE
 70
     6
  9
$SURFU
 70
     6
  9
$SURFV
 70
     6
  9
$UCSBASE
  2

  9
$UCSNAME
  2

  9
$UCSORG
 10
0.0
 20
0.0
 30
0.0
  9
$UCSXDIR
 10
1.0
 20
0.0
 30
0.0
  9
$UCSYDIR
 10
0.0
 20
1.0
 30
0.0
  9
$UCSORTHOREF
  2

  9
$UCSORTHOVIEW
 70
     0
  9
$UCSORGTOP
 10
0.0
 20
0.0
 30
0.0
  9
$UCSORGBOTTOM
 10
0.0
 20
0.0
 30
0.0
  9
$UCSORGLEFT
 10
0.0
 20
0.0
 30
0.0
  9
$UCSORGRIGHT
 10
0.0
 20
0.0
 30
0.0
  9
$UCSORGFRONT
 10
0.0
 20
0.0
 30
0.0
  9
$UCSORGBACK
 10
0.0
 20
0.0
 30
0.0
  9
$PUCSBASE
  2

  9
$PUCSNAME
  2

  9
$PUCSORG
 10
0.0
 20
0.0
 30
0.0
  9
$PUCSXDIR
 10
1.0
 20
0.0
 30
0.0
  9
$PUCSYDIR
 10
0.0
 20
1.0
 30
0.0
  9
$PUCSORTHOREF
  2

  9
$PUCSORTHOVIEW
 70
     0
  9
$PUCSORGTOP
 10
0.0
 20
0.0
 30
0.0
  9
$PUCSORGBOTTOM
 10
0.0
 20
0.0
 30
0.0
  9
$PUCSORGLEFT
 10
0.0
 20
0.0
 30
0.0
  9
$PUCSORGRIGHT
 10
0.0
 20
0.0
 30
0.0
  9
$PUCSORGFRONT
 10
0.0
 20
0.0
 30
0.0
  9
$PUCSORGBACK
 10
0.0
 20
0.0
 30
0.0
  9
$USERI1
 70
     0
  9
$USERI2
 70
     0
  9
$USERI3
 70
     0
  9
$USERI4
 70
     0
  9
$USERI5
 70
     0
  9
$USERR1
 40
0.0
  9
$USERR2
 40
0.0
  9
$USERR3
 40
0.0
  9
$USERR4
 40
0.0
  9
$USERR5
 40
0.0
  9
$WORLDVIEW
 70
     1
  9
$SHADEDGE
 70
     3
  9
$SHADEDIF
 70
    70
  9
$TILEMODE
 70
     1
  9
$MAXACTVP
 70
    64
  9
$PINSBASE
 10
0.0
 20
0.0
 30
0.0
  9
$PLIMCHECK
 70
     0
  9
$PEXTMIN
 10
1.0000000000E+20
 20
1.0000000000E+20
 30
1.0000000000E+20
  9
$PEXTMAX
 10
-1.0000000000E+20
 20
-1.0000000000E+20
 30
-1.0000000000E+20
  9
$PLIMMIN
 10
0.0
 20
0.0
  9
$PLIMMAX
 10
420.0
 20
297.0
  9
$UNITMODE
 70
     0
  9
$VISRETAIN
 70
     1
  9
$PLINEGEN
 70
     0
  9
$PSLTSCALE
 70
     1
  9
$TREEDEPTH
 70
  3020
  9
$CMLSTYLE
  2
Standard
  9
$CMLJUST
 70
     0
  9
$CMLSCALE
 40
20.0
  9
$PROXYGRAPHICS
 70
     1
  9
$MEASUREMENT
 70
     1
  9
$CELWEIGHT
370
    -1
  9
$ENDCAPS
280
     0
  9
$JOINSTYLE
280
     0
  9
$LWDISPLAY
290
     1
  9
$INSUNITS
 70
     4
  9
$HYPERLINKBASE
  1

  9
$STYLESHEET
  1

  9
$XEDIT
290
     1
  9
$CEPSNTYPE
380
     0
  9
$PSTYLEMODE
290
     1
  9
$FINGERPRINTGUID
  2
{8D4F25D8-8D65-4E35-BB30-865462E4A74F}
  9
$VERSIONGUID
  2
{FAEB1C32-E019-11D5-929B-00C0DF256EC4}
  9
$EXTNAMES
290
     1
  9
$PSVPSCALE
 40
0.0
  9
$OLESTARTUP
290
     0
  0
ENDSEC
  0
SECTION
  2
CLASSES
  0
CLASS
  1
ACDBDICTIONARYWDFLT
  2
AcDbDictionaryWithDefault
  3
ObjectDBX Classes
 90
        0
280
     0
281
     0
  0
CLASS
  1
VISUALSTYLE
  2
AcDbVisualStyle
  3
ObjectDBX Classes
 90
     4095
280
     0
281
     0
  0
CLASS
  1
MATERIAL
  2
AcDbMaterial
  3
ObjectDBX Classes
 90
     1153
280
     0
281
     0
  0
CLASS
  1
ACDBPLACEHOLDER
  2
AcDbPlaceHolder
  3
ObjectDBX Classes
 90
        0
280
     0
281
     0
  0
CLASS
  1
LAYOUT
  2
AcDbLayout
  3
ObjectDBX Classes
 90
        0
280
     0
281
     0
  0
ENDSEC
  0
SECTION
  2
TABLES
  0
TABLE
  2
VPORT
  5
8
330
0
100
AcDbSymbolTable
 70
     1
  0
VPORT
  5
29
330
8
100
AcDbSymbolTableRecord
100
AcDbViewportTableRecord
  2
*Active
 70
     0
 10
0.0
 20
0.0
 11
1.0
 21
1.0
 12
148.5
 22
105.0
 13
0.0
 23
0.0
 14
10.0
 24
10.0
 15
10.0
 25
10.0
 16
0.0
 26
0.0
 36
1.0
 17
0.0
 27
0.0
 37
0.0
 40
210.0
 41
1.4142857143
 42
50.0
 43
0.0
 44
0.0
 50
0.0
 51
0.0
 71
     0
 72
  2000
 73
     1
 74
     3
 75
     0
 76
     0
 77
     0
 78
     0
281
     0
 65
     1
110
0.0
120
0.0
130
0.0
111
1.0
121
0.0
131
0.0
112
0.0
122
1.0
132
0.0
 79
     0
146
0.0
  0
ENDTAB
  0
TABLE
  2
LTYPE
  5
5
330
0
100
AcDbSymbolTable
 70
     6
  0
LTYPE
  5
14
330
5
100
AcDbSymbolTableRecord
100
AcDbLinetypeTableRecord
  2
ByBlock
 70
     0
  3

 72
    65
 73
     0
 40
0.0
  0
LTYPE
  5
15
330
5
100
AcDbSymbolTableRecord
100
AcDbLinetypeTableRecord
  2
ByLayer
 70
     0
  3

 72
    65
 73
     0
 40
0.0
  0
LTYPE
  5
16
330
5
100
AcDbSymbolTableRecord
100
AcDbLinetypeTableRecord
  2
Continuous
 70
     0
  3
Solid line
 72
    65
 73
     0
 40
0.0
  0
LTYPE
  5
3F
330
5
100
AcDbSymbolTableRecord
100
AcDbLinetypeTableRecord
  2
HIDDEN
 70
     0
  3
Hidden __ __ __ __ __ __ __ __ __ __ __ __ __ __
 72
    65
 73
     2
 40
1.905
 49
1.27
 74
     0
 49
-0.635
 74
     0
  0
LTYPE
  5
40
330
5
100
AcDbSymbolTableRecord
100
AcDbLinetypeTableRecord
  2
PHANTOM
 70
     0
  3
Phantom ______  __  __  ______  __  __  ______
 72
    65
 73
     6
 40
12.7
 49
6.35
 74
     0
 49
-1.27
 74
     0
 49
1.27
 74
     0
 49
-1.27
 74
     0
 49
1.27
 74
     0
 49
-1.27
 74
     0
  0
LTYPE
  5
41
330
5
100
AcDbSymbolTableRecord
100
AcDbLinetypeTableRecord
  2
CENTER
 70
     0
  3
Center ____ _ ____ _ ____ _ ____ _ ____ _ ____
 72
    65
 73
     4
 40
10.16
 49
6.35
 74
     0
 49
-1.27
 74
     0
 49
1.27
 74
     0
 49
-1.27
 74
     0
  0
LTYPE
  5
42
330
5
100
AcDbSymbolTableRecord
100
AcDbLinetypeTableRecord
  2
CENTERX2
 70
     0
  3
Center (2x) ________  __  ________  __  _____
 72
    65
 73
     4
 40
20.32
 49
12.7
 74
     0
 49
-2.54
 74
     0
 49
2.54
 74
     0
 49
-2.54
 74
     0
  0
LTYPE
  5
43
330
5
100
AcDbSymbolTableRecord
100
AcDbLinetypeTableRecord
  2
DOT2
 70
     0
  3
Dot (.5x) ........................................
 72
    65
 73
     2
 40
0.635
 49
0.0
 74
     0
 49
-0.635
 74
     0
  0
ENDTAB
  0
TABLE
  2
LAYER
  5
2
330
0
100
AcDbSymbolTable
 70
     5
  0
LAYER
  5
10
330
2
100
AcDbSymbolTableRecord
100
AcDbLayerTableRecord
  2
0
 70
     0
 62
     7
  6
Continuous
370
    -3
390
F
  0
LAYER
  5
44
330
2
100
AcDbSymbolTableRecord
100
AcDbLayerTableRecord
  2
FORMAT
 70
     0
 62
     7
  6
Continuous
370
    -3
390
F
  0
LAYER
  5
45
330
2
100
AcDbSymbolTableRecord
100
AcDbLayerTableRecord
  2
VERMASSUNG
 70
     0
 62
     7
  6
Continuous
370
    -3
390
F
  0
LAYER
  5
46
330
2
100
AcDbSymbolTableRecord
100
AcDbLayerTableRecord
  2
KOPF_DÜNN
 70
     0
 62
     7
  6
Continuous
370
    -3
390
F
  0
LAYER
  5
47
330
2
100
AcDbSymbolTableRecord
100
AcDbLayerTableRecord
  2
KOPF_DICK
 70
     0
 62
     7
  6
Continuous
370
    15
390
F
  0
ENDTAB
  0
TABLE
  2
STYLE
  5
3
330
0
100
AcDbSymbolTable
 70
     2
  0
STYLE
  5
11
330
3
100
AcDbSymbolTableRecord
100
AcDbTextStyleTableRecord
  2
Standard
 70
     0
 40
0.0
 41
1.0
 50
0.0
 71
     0
 42
2.0
  3
txt
  4

  0
STYLE
  5
48
330
3
100
AcDbSymbolTableRecord
100
AcDbTextStyleTableRecord
  2
SLDTEXTSTYLE0
 70
     0
 40
0.0
 41
0.7
 50
0.0
 71
     0
 42
0.2
  3
TXT
  4

  0
ENDTAB
  0
TABLE
  2
VIEW
  5
6
330
0
100
AcDbSymbolTable
 70
     0
  0
ENDTAB
  0
TABLE
  2
UCS
  5
7
330
0
100
AcDbSymbolTable
 70
     0
  0
ENDTAB
  0
TABLE
  2
APPID
  5
9
330
0
100
AcDbSymbolTable
 70
     1
  0
APPID
  5
12
330
9
100
AcDbSymbolTableRecord
100
AcDbRegAppTableRecord
  2
ACAD
 70
     0
  0
ENDTAB
  0
TABLE
  2
DIMSTYLE
  5
A
330
0
100
AcDbSymbolTable
 70
     5
100
AcDbDimStyleTable
  0
DIMSTYLE
105
27
330
A
100
AcDbSymbolTableRecord
100
AcDbDimStyleTableRecord
  2
ISO-25
 70
     0
 41
2.5
 42
0.625
 43
3.75
 44
1.25
 73
     0
 74
     0
 77
     1
 78
     8
140
2.5
141
2.5
143
0.0393700787
147
0.625
171
     3
172
     1
178
     0
271
     2
272
     2
274
     3
278
    44
283
     0
284
     8
340
11
  0
DIMSTYLE
105
1B3
102
{ACAD_REACTORS
330
1B2
102
}
330
A
100
AcDbSymbolTableRecord
100
AcDbDimStyleTableRecord
  2
SLDDIMSTYLE0
 70
     0
 41
3.0
 44
0.0
 73
     0
 74
     0
 77
     1
 78
    12
 79
     3
140
2.0
147
0.5
173
     1
178
     0
179
     2
272
     3
276
     2
284
    12
340
48
  0
DIMSTYLE
105
1BC
102
{ACAD_REACTORS
330
1BB
330
1C8
102
}
330
A
100
AcDbSymbolTableRecord
100
AcDbDimStyleTableRecord
  2
SLDDIMSTYLE1
 70
     0
 41
3.0
 44
0.0
 45
0.000000001
 47
0.1
 48
0.1
 71
     1
 73
     0
 74
     0
 77
     1
 78
    12
 79
     3
140
2.0
147
0.5
173
     1
178
     0
271
     2
272
     1
276
     2
284
     8
340
48
  0
DIMSTYLE
105
1D5
102
{ACAD_REACTORS
330
1D4
330
1DF
102
}
330
A
100
AcDbSymbolTableRecord
100
AcDbDimStyleTableRecord
  2
SLDDIMSTYLE2
 70
     0
 41
3.0
 44
0.0
 45
0.000000001
 73
     0
 74
     0
 77
     1
 78
    12
 79
     3
140
2.0
147
0.5
173
     1
178
     0
271
     2
272
     3
276
     2
284
    12
340
48
  0
DIMSTYLE
105
24E
102
{ACAD_REACTORS
330
24D
102
}
330
A
100
AcDbSymbolTableRecord
100
AcDbDimStyleTableRecord
  2
SLDDIMSTYLE3
 70
     0
 41
3.0
 44
0.0
 45
0.000000001
 73
     0
 74
     0
 77
     1
 78
    12
 79
     3
140
2.0
147
0.5
172
     1
173
     1
178
     0
271
     2
272
     3
276
     2
284
    12
289
     0
340
48
  0
ENDTAB
  0
TABLE
  2
BLOCK_RECORD
  5
1
330
0
100
AcDbSymbolTable
 70
     8
  0
BLOCK_RECORD
  5
1F
330
1
100
AcDbSymbolTableRecord
100
AcDbBlockTableRecord
  2
*Model_Space
340
22
  0
BLOCK_RECORD
  5
1B
330
1
100
AcDbSymbolTableRecord
100
AcDbBlockTableRecord
  2
*Paper_Space
340
1E
  0
BLOCK_RECORD
  5
23
330
1
100
AcDbSymbolTableRecord
100
AcDbBlockTableRecord
  2
*Paper_Space0
340
26
  0
BLOCK_RECORD
  5
1B4
330
1
100
AcDbSymbolTableRecord
100
AcDbBlockTableRecord
  2
_D
340
0
  0
BLOCK_RECORD
  5
1BD
330
1
100
AcDbSymbolTableRecord
100
AcDbBlockTableRecord
  2
_D_1
340
0
  0
BLOCK_RECORD
  5
1C9
330
1
100
AcDbSymbolTableRecord
100
AcDbBlockTableRecord
  2
_D_2
340
0
  0
BLOCK_RECORD
  5
1D6
330
1
100
AcDbSymbolTableRecord
100
AcDbBlockTableRecord
  2
_D_3
340
0
  0
BLOCK_RECORD
  5
1E0
330
1
100
AcDbSymbolTableRecord
100
AcDbBlockTableRecord
  2
_D_4
340
0
  0
BLOCK_RECORD
  5
24F
330
1
100
AcDbSymbolTableRecord
100
AcDbBlockTableRecord
  2
_D_5
340
0
  0
BLOCK_RECORD
  5
25C
330
1
100
AcDbSymbolTableRecord
100
AcDbBlockTableRecord
  2
SW_CENTERMARKSYMBOL_0
340
0
102
{BLKREFS
331
267
102
}
  0
ENDTAB
  0
ENDSEC
  0
SECTION
  2
BLOCKS
  0
BLOCK
  5
20
330
1F
100
AcDbEntity
  8
0
100
AcDbBlockBegin
  2
*Model_Space
 70
     0
 10
0.0
 20
0.0
 30
0.0
  3
*Model_Space
  1

  0
ENDBLK
  5
21
330
1F
100
AcDbEntity
  8
0
100
AcDbBlockEnd
  0
BLOCK
  5
1C
330
1B
100
AcDbEntity
 67
     1
  8
0
100
AcDbBlockBegin
  2
*Paper_Space
 70
     0
 10
0.0
 20
0.0
 30
0.0
  3
*Paper_Space
  1

  0
ENDBLK
  5
1D
330
1B
100
AcDbEntity
 67
     1
  8
0
100
AcDbBlockEnd
  0
BLOCK
  5
24
330
23
100
AcDbEntity
  8
0
100
AcDbBlockBegin
  2
*Paper_Space0
 70
     0
 10
0.0
 20
0.0
 30
0.0
  3
*Paper_Space0
  1

  0
ENDBLK
  5
25
330
23
100
AcDbEntity
  8
0
100
AcDbBlockEnd
  0
BLOCK
  5
1B5
330
1B4
100
AcDbEntity
  8
0
100
AcDbBlockBegin
  2
_D
 70
     0
 10
0.0
 20
0.0
 30
0.0
  3
_D
  1

  0
ARC
  5
1B7
330
1B4
100
AcDbEntity
  8
VERMASSUNG
100
AcDbCircle
 10
255.3253454977
 20
154.984521425
 30
0.0
 40
12.63039874110308
100
AcDbArc
 50
90.0
 51
207.2796692516
  0
SOLID
  5
1B8
330
1B4
100
AcDbEntity
  8
VERMASSUNG
100
AcDbTrace
 10
255.3253454977
 20
167.6149201661
 30
0.0
 11
252.2933645161
 21
167.7128554869
 31
0.0
 12
252.3980672524
 22
166.8189666028
 32
0.0
 13
252.3980672524
 23
166.8189666028
 33
0.0
  0
SOLID
  5
1B9
330
1B4
100
AcDbEntity
  8
VERMASSUNG
100
AcDbTrace
 10
244.0997006742
 20
149.1955775958
 30
0.0
 11
243.4654564591
 21
152.1620964776
 31
0.0
 12
242.6229971194
 22
151.845454312
 32
0.0
 13
242.6229971194
 23
151.845454312
 33
0.0
  0
MTEXT
  5
1BA
330
1B4
100
AcDbEntity
  8
VERMASSUNG
100
AcDbMText
 10
240.1528357924
 20
159.3128533884
 30
0.1
 40
2.0
 41
0.0
 71
     1
 72
     1
  1
117.5°
  7
SLDTEXTSTYLE0
 11
0.5204160787235158
 21
0.8539128204951835
 31
0.0
 73
     1
 44
1.0
  0
ENDBLK
  5
1B6
330
1B4
100
AcDbEntity
  8
0
100
AcDbBlockEnd
  0
BLOCK
  5
1BE
330
1BD
100
AcDbEntity
  8
0
100
AcDbBlockBegin
  2
_D_1
 70
     0
 10
0.0
 20
0.0
 30
0.0
  3
_D_1
  1

  0
SOLID
  5
1C0
330
1BD
100
AcDbEntity
  8
VERMASSUNG
100
AcDbTrace
 10
190.3253454977
 20
175.023093987
 30
0.0
 11
193.3253454977
 21
174.573093987
 31
0.0
 12
193.3253454977
 22
175.473093987
 32
0.0
 13
193.3253454977
 23
175.473093987
 33
0.0
  0
SOLID
  5
1C1
330
1BD
100
AcDbEntity
  8
VERMASSUNG
100
AcDbTrace
 10
255.3253454977
 20
175.023093987
 30
0.0
 11
252.3253454977
 21
175.473093987
 31
0.0
 12
252.3253454977
 22
174.573093987
 32
0.0
 13
252.3253454977
 23
174.573093987
 33
0.0
  0
LINE
  5
1C2
330
1BD
100
AcDbEntity
  8
VERMASSUNG
100
AcDbLine
 10
190.3253454977
 20
140.7279243078
 30
0.0
 11
190.3253454977
 21
176.023093987
 31
0.0
  0
LINE
  5
1C3
330
1BD
100
AcDbEntity
  8
VERMASSUNG
100
AcDbLine
 10
255.3253454977
 20
154.7279243078
 30
0.0
 11
255.3253454977
 21
176.023093987
 31
0.0
  0
LINE
  5
1C4
330
1BD
100
AcDbEntity
  8
VERMASSUNG
100
AcDbLine
 10
190.3253454977
 20
175.023093987
 30
0.0
 11
255.3253454977
 21
175.023093987
 31
0.0
  0
MTEXT
  5
1C5
330
1BD
100
AcDbEntity
  8
VERMASSUNG
100
AcDbMText
 10
218.2753453107
 20
177.6012293501
 30
0.1
 40
2.0
 41
0.0
 71
     1
 72
     1
  1
65
  7
SLDTEXTSTYLE0
 73
     1
 44
1.0
  0
MTEXT
  5
1C6
330
1BD
100
AcDbEntity
  8
VERMASSUNG
100
AcDbMText
 10
224.0628454128
 20
177.6012293501
 30
0.1
 40
2.0
 41
0.0
 71
     1
 72
     1
  1

  7
SLDTEXTSTYLE0
 73
     1
 44
1.0
  0
MTEXT
  5
1C7
330
1BD
100
AcDbEntity
  8
VERMASSUNG
100
AcDbMText
 10
224.0753457026
 20
177.1066954874
 30
0.1
 40
1.5
 41
0.0
 71
     1
 72
     1
  1
±0.1
  7
SLDTEXTSTYLE0
 73
     1
 44
1.0
  0
ENDBLK
  5
1BF
330
1BD
100
AcDbEntity
  8
0
100
AcDbBlockEnd
  0
BLOCK
  5
1CA
330
1C9
100
AcDbEntity
  8
0
100
AcDbBlockBegin
  2
_D_2
 70
     0
 10
0.0
 20
0.0
 30
0.0
  3
_D_2
  1

  0
SOLID
  5
1CC
330
1C9
100
AcDbEntity
  8
VERMASSUNG
100
AcDbTrace
 10
265.5345363011
 20
154.7279243078
 30
0.0
 11
265.0845363011
 21
151.7279243078
 31
0.0
 12
265.9845363011
 22
151.7279243078
 32
0.0
 13
265.9845363011
 23
151.7279243078
 33
0.0
  0
SOLID
  5
1CD
330
1C9
100
AcDbEntity
  8
VERMASSUNG
100
AcDbTrace
 10
265.5345363011
 20
109.7279243078
 30
0.0
 11
265.9845363011
 21
112.7279243078
 31
0.0
 12
265.0845363011
 22
112.7279243078
 32
0.0
 13
265.0845363011
 23
112.7279243078
 33
0.0
  0
LINE
  5
1CE
330
1C9
100
AcDbEntity
  8
VERMASSUNG
100
AcDbLine
 10
255.3253454977
 20
154.7279243078
 30
0.0
 11
266.5345363011
 21
154.7279243078
 31
0.0
  0
LINE
  5
1CF
330
1C9
100
AcDbEntity
  8
VERMASSUNG
100
AcDbLine
 10
255.3253454977
 20
109.7279243078
 30
0.0
 11
266.5345363011
 21
109.7279243078
 31
0.0
  0
LINE
  5
1D0
330
1C9
100
AcDbEntity
  8
VERMASSUNG
100
AcDbLine
 10
265.5345363011
 20
154.7279243078
 30
0.0
 11
265.5345363011
 21
109.7279243078
 31
0.0
  0
MTEXT
  5
1D1
330
1C9
100
AcDbEntity
  8
VERMASSUNG
100
AcDbMText
 10
262.956400938
 20
127.5779242907
 30
0.1
 40
2.0
 41
0.0
 71
     1
 72
     1
  1
45
  7
SLDTEXTSTYLE0
 11
-7.044195017643634E-15
 21
1.0
 31
0.0
 73
     1
 44
1.0
  0
MTEXT
  5
1D2
330
1C9
100
AcDbEntity
  8
VERMASSUNG
100
AcDbMText
 10
262.956400938
 20
133.5654245187
 30
0.1
 40
2.0
 41
0.0
 71
     1
 72
     1
  1

  7
SLDTEXTSTYLE0
 11
-7.044195017643634E-15
 21
1.0
 31
0.0
 73
     1
 44
1.0
  0
MTEXT
  5
1D3
330
1C9
100
AcDbEntity
  8
VERMASSUNG
100
AcDbMText
 10
263.4509348007
 20
133.5779243428
 30
0.1
 40
1.5
 41
0.0
 71
     1
 72
     1
  1
±0.1
  7
SLDTEXTSTYLE0
 11
-7.044195017643634E-15
 21
1.0
 31
0.0
 73
     1
 44
1.0
  0
ENDBLK
  5
1CB
330
1C9
100
AcDbEntity
  8
0
100
AcDbBlockEnd
  0
BLOCK
  5
1D7
330
1D6
100
AcDbEntity
  8
0
100
AcDbBlockBegin
  2
_D_3
 70
     0
 10
0.0
 20
0.0
 30
0.0
  3
_D_3
  1

  0
SOLID
  5
1D9
330
1D6
100
AcDbEntity
  8
VERMASSUNG
100
AcDbTrace
 10
152.3253454977
 20
181.023093987
 30
0.0
 11
155.3253454977
 21
180.573093987
 31
0.0
 12
155.3253454977
 22
181.473093987
 32
0.0
 13
155.3253454977
 23
181.473093987
 33
0.0
  0
SOLID
  5
1DA
330
1D6
100
AcDbEntity
  8
VERMASSUNG
100
AcDbTrace
 10
255.3253454977
 20
181.023093987
 30
0.0
 11
252.3253454977
 21
181.473093987
 31
0.0
 12
252.3253454977
 22
180.573093987
 32
0.0
 13
252.3253454977
 23
180.573093987
 33
0.0
  0
LINE
  5
1DB
330
1D6
100
AcDbEntity
  8
VERMASSUNG
100
AcDbLine
 10
152.3253454977
 20
130.0202623003
 30
0.0
 11
152.3253454977
 21
182.023093987
 31
0.0
  0
LINE
  5
1DC
330
1D6
100
AcDbEntity
  8
VERMASSUNG
100
AcDbLine
 10
255.3253454977
 20
154.7279243078
 30
0.0
 11
255.3253454977
 21
182.023093987
 31
0.0
  0
LINE
  5
1DD
330
1D6
100
AcDbEntity
  8
VERMASSUNG
100
AcDbLine
 10
152.3253454977
 20
181.023093987
 30
0.0
 11
255.3253454977
 21
181.023093987
 31
0.0
  0
MTEXT
  5
1DE
330
1D6
100
AcDbEntity
  8
VERMASSUNG
100
AcDbMText
 10
201.0253453647
 20
183.6012293501
 30
0.1
 40
2.0
 41
0.0
 71
     1
 72
     1
  1
103
  7
SLDTEXTSTYLE0
 73
     1
 44
1.0
  0
ENDBLK
  5
1D8
330
1D6
100
AcDbEntity
  8
0
100
AcDbBlockEnd
  0
BLOCK
  5
1E1
330
1E0
100
AcDbEntity
  8
0
100
AcDbBlockBegin
  2
_D_4
 70
     0
 10
0.0
 20
0.0
 30
0.0
  3
_D_4
  1

  0
SOLID
  5
1E3
330
1E0
100
AcDbEntity
  8
VERMASSUNG
100
AcDbTrace
 10
140.4196500795
 20
141.2279243078
 30
0.0
 11
139.9696500795
 21
138.2279243078
 31
0.0
 12
140.8696500795
 22
138.2279243078
 32
0.0
 13
140.8696500795
 23
138.2279243078
 33
0.0
  0
SOLID
  5
1E4
330
1E0
100
AcDbEntity
  8
VERMASSUNG
100
AcDbTrace
 10
140.4196500795
 20
78.2279243078
 30
0.0
 11
140.8696500795
 21
81.2279243078
 31
0.0
 12
139.9696500795
 22
81.2279243078
 32
0.0
 13
139.9696500795
 23
81.2279243078
 33
0.0
  0
LINE
  5
1E5
330
1E0
100
AcDbEntity
  8
VERMASSUNG
100
AcDbLine
 10
190.8253454977
 20
141.2279243078
 30
0.0
 11
139.4196500795
 21
141.2279243078
 31
0.0
  0
LINE
  5
1E6
330
1E0
100
AcDbEntity
  8
VERMASSUNG
100
AcDbLine
 10
190.8253454977
 20
78.2279243078
 30
0.0
 11
139.4196500795
 21
78.2279243078
 31
0.0
  0
LINE
  5
1E7
330
1E0
100
AcDbEntity
  8
VERMASSUNG
100
AcDbLine
 10
140.4196500795
 20
141.2279243078
 30
0.0
 11
140.4196500795
 21
78.2279243078
 31
0.0
  0
MTEXT
  5
1E8
330
1E0
100
AcDbEntity
  8
VERMASSUNG
100
AcDbMText
 10
137.6415145905
 20
103.3229241986
 30
0.4027568683
 40
2.0
 41
0.0
 71
     1
 72
     1
  1
PSC
  7
SLDTEXTSTYLE0
 11
-7.044195017643634E-15
 21
1.0
 31
0.0
 73
     1
 44
1.0
  0
MTEXT
  5
1E9
330
1E0
100
AcDbEntity
  8
VERMASSUNG
100
AcDbMText
 10
137.8415146
 20
107.9229243007
 30
0.4027568683
 40
2.0
 41
0.0
 71
     1
 72
     1
  1
%%c
  7
SLDTEXTSTYLE0
 11
-7.044195017643634E-15
 21
1.0
 31
0.0
 73
     1
 44
1.0
  0
MTEXT
  5
1EA
330
1E0
100
AcDbEntity
  8
VERMASSUNG
100
AcDbMText
 10
137.6415145905
 20
111.5329247806
 30
0.4027568683
 40
2.0
 41
0.0
 71
     1
 72
     1
  1
63
  7
SLDTEXTSTYLE0
 11
-7.044195017643634E-15
 21
1.0
 31
0.0
 73
     1
 44
1.0
  0
ENDBLK
  5
1E2
330
1E0
100
AcDbEntity
  8
0
100
AcDbBlockEnd
  0
BLOCK
  5
250
330
24F
100
AcDbEntity
  8
0
100
AcDbBlockBegin
  2
_D_5
 70
     0
 10
0.0
 20
0.0
 30
0.0
  3
_D_5
  1

  0
SOLID
  5
252
330
24F
100
AcDbEntity
  8
VERMASSUNG
100
AcDbTrace
 10
98.0782713647
 20
86.4349164629
 30
0.0
 11
99.8813936568
 21
83.9953980678
 31
0.0
 12
100.5177897598
 22
84.6317941708
 32
0.0
 13
100.5177897598
 23
84.6317941708
 33
0.0
  0
SOLID
  5
253
330
24F
100
AcDbEntity
  8
VERMASSUNG
100
AcDbTrace
 10
41.5097288698
 20
143.0034589578
 30
0.0
 11
39.7066065778
 21
145.4429773529
 31
0.0
 12
39.0702104747
 22
144.8065812498
 32
0.0
 13
39.0702104747
 23
144.8065812498
 33
0.0
  0
LINE
  5
254
330
24F
100
AcDbEntity
  8
VERMASSUNG
100
AcDbLine
 10
98.0782713647
 20
86.4349164629
 30
0.0
 11
98.7853781459
 21
87.1420232441
 31
0.0
  0
LINE
  5
255
330
24F
100
AcDbEntity
  8
VERMASSUNG
100
AcDbLine
 10
41.5097288698
 20
143.0034589578
 30
0.0
 11
42.216835651
 21
143.710565739
 31
0.0
  0
LINE
  5
256
330
24F
100
AcDbEntity
  8
VERMASSUNG
100
AcDbLine
 10
98.0782713647
 20
86.4349164629
 30
0.0
 11
102.3209120519
 21
82.1922757758
 31
0.0
  0
LINE
  5
257
330
24F
100
AcDbEntity
  8
VERMASSUNG
100
AcDbLine
 10
98.0782713647
 20
86.4349164629
 30
0.0
 11
41.5097288698
 21
143.0034589578
 31
0.0
  0
LINE
  5
258
330
24F
100
AcDbEntity
  8
VERMASSUNG
100
AcDbLine
 10
41.5097288698
 20
143.0034589578
 30
0.0
 11
29.3570454049
 21
155.1561424227
 31
0.0
  0
MTEXT
  5
259
330
24F
100
AcDbEntity
  8
VERMASSUNG
100
AcDbMText
 10
31.1800624853
 20
156.9791595031
 30
0.1
 40
2.0
 41
0.0
 71
     1
 72
     1
  1
%%c
  7
SLDTEXTSTYLE0
 11
0.707106781186546
 21
-0.7071067811865491
 31
0.0
 73
     1
 44
1.0
  0
MTEXT
  5
25A
330
24F
100
AcDbEntity
  8
VERMASSUNG
100
AcDbMText
 10
33.8741393385
 20
154.5679253758
 30
0.1
 40
2.0
 41
0.0
 71
     1
 72
     1
  1
80
  7
SLDTEXTSTYLE0
 11
0.707106781186546
 21
-0.7071067811865491
 31
0.0
 73
     1
 44
1.0
  0
MTEXT
  5
25B
330
24F
100
AcDbEntity
  8
VERMASSUNG
100
AcDbMText
 10
37.9665202361
 20
150.4755444783
 30
0.1
 40
2.0
 41
0.0
 71
     1
 72
     1
  1
min.
  7
SLDTEXTSTYLE0
 11
0.707106781186546
 21
-0.7071067811865491
 31
0.0
 73
     1
 44
1.0
  0
ENDBLK
  5
251
330
24F
100
AcDbEntity
  8
0
100
AcDbBlockEnd
  0
BLOCK
  5
25D
330
25C
100
AcDbEntity
  8
0
100
AcDbBlockBegin
  2
SW_CENTERMARKSYMBOL_0
 70
     0
 10
0.0
 20
0.0
 30
0.0
  3
SW_CENTERMARKSYMBOL_0
  1

  0
LINE
  5
25F
330
25C
100
AcDbEntity
  8
VERMASSUNG
 62
     0
100
AcDbLine
 10
0.0
 20
0.0
 30
0.0
 11
0.0
 21
2.5
 31
0.0
  0
LINE
  5
260
330
25C
100
AcDbEntity
  8
VERMASSUNG
 62
     0
100
AcDbLine
 10
0.0
 20
0.0
 30
0.0
 11
-2.5
 21
0.0
 31
0.0
  0
LINE
  5
261
330
25C
100
AcDbEntity
  8
VERMASSUNG
 62
     0
100
AcDbLine
 10
0.0
 20
0.0
 30
0.0
 11
0.0
 21
-2.5
 31
0.0
  0
LINE
  5
262
330
25C
100
AcDbEntity
  8
VERMASSUNG
 62
     0
100
AcDbLine
 10
0.0
 20
0.0
 30
0.0
 11
2.5
 21
0.0
 31
0.0
  0
LINE
  5
263
330
25C
100
AcDbEntity
  8
VERMASSUNG
 62
     0
100
AcDbLine
 10
0.0
 20
5.0
 30
0.0
 11
0.0
 21
34.0
 31
0.0
  0
LINE
  5
264
330
25C
100
AcDbEntity
  8
VERMASSUNG
 62
     0
100
AcDbLine
 10
-5.0
 20
0.0
 30
0.0
 11
-34.0
 21
0.0
 31
0.0
  0
LINE
  5
265
330
25C
100
AcDbEntity
  8
VERMASSUNG
 62
     0
100
AcDbLine
 10
0.0
 20
-5.0
 30
0.0
 11
0.0
 21
-34.0
 31
0.0
  0
LINE
  5
266
330
25C
100
AcDbEntity
  8
VERMASSUNG
 62
     0
100
AcDbLine
 10
5.0
 20
0.0
 30
0.0
 11
34.0
 21
0.0
 31
0.0
  0
ENDBLK
  5
25E
330
25C
100
AcDbEntity
  8
0
100
AcDbBlockEnd
  0
ENDSEC
  0
SECTION
  2
ENTITIES
  0
MTEXT
  5
49
330
1F
100
AcDbEntity
  8
KOPF_DÜNN
100
AcDbMText
 10
13.8892156294
 20
23.8442973028
 30
0.0
 40
3.0
 41
0.0
 71
     1
 72
     1
  1
PS6.KVF.RPA.065
  7
SLDTEXTSTYLE0
 73
     1
 44
1.0
  0
MTEXT
  5
4A
330
1F
100
AcDbEntity
  8
VERMASSUNG
100
AcDbMText
 10
13.9329988022
 20
28.8834360957
 30
0.0
 40
3.0
 41
0.0
 71
     1
 72
     1
  1
Klemmhalter rechts_Turning tool right 117.5° /35°
  7
SLDTEXTSTYLE0
 73
     1
 44
1.0
  0
MTEXT
  5
4B
330
1F
100
AcDbEntity
  8
VERMASSUNG
100
AcDbMText
 10
98.8601118557
 20
13.8365368179
 30
0.0
 40
2.0
 41
0.0
 71
     1
 72
     1
  1
Datum: 23.05.2012
  7
SLDTEXTSTYLE0
 73
     1
 44
1.0
  0
MTEXT
  5
4C
330
1F
100
AcDbEntity
  8
VERMASSUNG
100
AcDbMText
 10
13.933048693
 20
18.0482802738
 30
0.0
 40
2.0
 41
0.0
 71
     1
 72
     1
  1
PSC ø63 / VB..16 04..
  7
SLDTEXTSTYLE0
 73
     1
 44
1.0
  0
MTEXT
  5
4D
330
1F
100
AcDbEntity
  8
VERMASSUNG
100
AcDbMText
 10
13.9808475933
 20
13.9090973692
 30
0.0
 40
2.0
 41
0.0
 71
     1
 72
     1
  1
Gewicht: 1226g
  7
SLDTEXTSTYLE0
 73
     1
 44
1.0
  0
ARC
  5
4E
330
1F
100
AcDbEntity
  8
0
  6
Continuous
 62
     7
370
    15
100
AcDbCircle
 10
190.8253454977
 20
78.7279243078
 30
0.0
 40
0.5
100
AcDbArc
 50
180.0
 51
270.0
  0
ARC
  5
4F
330
1F
100
AcDbEntity
  8
0
  6
Continuous
 62
     7
370
    15
100
AcDbCircle
 10
190.8253454977
 20
140.7279243078
 30
0.0
 40
0.5
100
AcDbArc
 50
90.0
 51
180.0
  0
LINE
  5
50
330
1F
100
AcDbEntity
  8
0
  6
Continuous
 62
     7
370
    15
100
AcDbLine
 10
227.558020156
 20
141.2279248144
 30
0.0
 11
190.8253455214
 21
141.2279248144
 31
0.0
  0
LINE
  5
51
330
1F
100
AcDbEntity
  8
0
  6
Continuous
 62
     7
370
    15
100
AcDbLine
 10
190.8253455214
 20
78.2279238012
 30
0.0
 11
223.9652235323
 21
78.2279238012
 31
0.0
  0
LWPOLYLINE
  5
52
330
1F
100
AcDbEntity
  8
0
  6
Continuous
 62
     7
370
    15
100
AcDbPolyline
 90
        3
 70
   128
 43
0.0
 10
190.1253455027
 20
87.1881037857
 10
190.2508004379
 20
87.1198024508
 10
190.3253454977
 20
87.067063516
  0
LWPOLYLINE
  5
53
330
1F
100
AcDbEntity
  8
0
  6
Continuous
 62
     7
370
    15
100
AcDbPolyline
 90
        3
 70
   128
 43
0.0
 10
190.3253454977
 20
132.3887850996
 10
190.2508004379
 20
132.3360461649
 10
190.1253455027
 20
132.2677448299
  0
ARC
  5
54
330
1F
100
AcDbEntity
  8
0
  6
Continuous
 62
     7
370
    15
100
AcDbCircle
 10
227.5580185097
 20
142.2279243078
 30
0.0
 40
1.0
100
AcDbArc
 50
270.0
 51
345.0
  0
LINE
  5
55
330
1F
100
AcDbEntity
  8
0
  6
Continuous
 62
     7
370
    15
100
AcDbLine
 10
228.7377637142
 20
142.7670955565
 30
0.0
 11
228.5239432269
 21
141.9691048469
 31
0.0
  0
ARC
  5
56
330
1F
100
AcDbEntity
  8
0
  6
Continuous
 62
     7
370
    15
100
AcDbCircle
 10
211.3253454977
 20
123.3779243078
 30
0.0
 40
2.500000000000011
100
AcDbArc
 50
21.3713330904
 51
158.6286669096
  0
LINE
  5
57
330
1F
100
AcDbEntity
  8
0
  6
Continuous
 62
     7
370
    15
100
AcDbLine
 10
243.1257326418
 20
143.9301237371
 30
0.0
 11
243.219054889
 21
144.0232187416
 31
0.0
  0
LINE
  5
58
330
1F
100
AcDbEntity
  8
0
  6
Continuous
 62
     7
370
    15
100
AcDbLine
 10
244.6104619914
 20
142.67987906
 30
0.0
 11
244.5172067994
 21
142.5868511107
 31
0.0
  0
LINE
  5
59
330
1F
100
AcDbEntity
  8
0
  6
Continuous
 62
     7
370
    15
100
AcDbLine
 10
242.6678795629
 20
145.8334676828
 30
0.0
 11
242.6173385495
 21
145.7830458786
 31
0.0
  0
LINE
  5
5A
330
1F
100
AcDbEntity
  8
0
  6
Continuous
 62
     7
370
    15
100
AcDbLine
 10
246.3251162582
 20
142.0662119891
 30
0.0
 11
246.375660997
 21
142.116630068
 31
0.0
  0
LINE
  5
5B
330
1F
100
AcDbEntity
  8
0
  6
Continuous
 62
     7
370
    15
100
AcDbLine
 10
244.3742748612
 20
145.2054880466
 30
0.0
 11
244.4675114268
 21
145.2984973695
 31
0.0
  0
LINE
  5
5C
330
1F
100
AcDbEntity
  8
0
  6
Continuous
 62
     7
370
    15
100
AcDbLine
 10
245.8591308707
 20
143.9553737547
 30
0.0
 11
245.7657490188
 21
143.8622154202
 31
0.0
  0
LINE
  5
5D
330
1F
100
AcDbEntity
  8
0
  6
Continuous
 62
     7
370
    15
100
AcDbLine
 10
190.3253454977
 20
78.7279248144
 30
0.0
 11
190.3253454977
 21
140.7279238012
 31
0.0
  0
ELLIPSE
  5
5E
330
1F
100
AcDbEntity
  8
0
  6
Continuous
 62
     7
370
    15
100
AcDbEllipse
 10
219.9434876445
 20
125.6242224378
 30
0.0
 11
0.2526833841387486
 21
3.379637871025153
 31
0.0
210
0.0
220
0.0
230
1.0
 40
0.2133242954
 41
0.0
 42
6.283185307179586
  0
ELLIPSE
  5
5F
330
1F
100
AcDbEntity
  8
0
  6
Continuous
 62
     7
370
    15
100
AcDbEllipse
 10
223.7041835169
 20
109.7279243078
 30
0.0
 11
-0.6340480480430698
 21
31.49954441786374
 31
0.0
210
0.0
220
0.0
230
1.0
 40
0.2671959542
 41
0.2238428959199832
 42
2.767366853068732
  0
SPLINE
  5
60
330
1F
100
AcDbEntity
  8
0
  6
Continuous
 62
     7
370
    15
100
AcDbSpline
210
0.0
220
0.0
230
1.0
 70
     8
 71
     3
 72
    68
 73
    64
 74
     0
 42
0.00000001
 43
0.00000001
 12
1.0
 22
0.0
 32
0.0
 13
1.0
 23
0.0
 33
0.0
 40
-0.0625000000000006
 40
-0.0625000000000006
 40
0.0
 40
0.0
 40
0.0312499999999999
 40
0.0312499999999999
 40
0.0624999999999999
 40
0.0624999999999999
 40
0.0937499999999998
 40
0.0937499999999998
 40
0.1249999999999998
 40
0.1249999999999998
 40
0.1562499999999997
 40
0.1562499999999997
 40
0.1874999999999996
 40
0.1874999999999996
 40
0.2187499999999996
 40
0.2187499999999996
 40
0.2499999999999995
 40
0.2499999999999995
 40
0.2812499999999994
 40
0.2812499999999994
 40
0.3124999999999994
 40
0.3124999999999994
 40
0.3437499999999993
 40
0.3437499999999993
 40
0.3749999999999992
 40
0.3749999999999992
 40
0.4062499999999992
 40
0.4062499999999992
 40
0.4374999999999991
 40
0.4374999999999991
 40
0.4687499999999991
 40
0.4687499999999991
 40
0.499999999999999
 40
0.499999999999999
 40
0.5312499999999989
 40
0.5312499999999989
 40
0.5624999999999989
 40
0.5624999999999989
 40
0.5937499999999988
 40
0.5937499999999988
 40
0.6249999999999988
 40
0.6249999999999988
 40
0.6562499999999987
 40
0.6562499999999987
 40
0.6874999999999987
 40
0.6874999999999987
 40
0.7187499999999986
 40
0.7187499999999986
 40
0.7499999999999984
 40
0.7499999999999984
 40
0.7812499999999987
 40
0.7812499999999987
 40
0.8124999999999988
 40
0.8124999999999988
 40
0.843749999999999
 40
0.843749999999999
 40
0.8749999999999991
 40
0.8749999999999991
 40
0.9062499999999993
 40
0.9062499999999993
 40
0.9374999999999994
 40
0.9374999999999994
 40
1.0
 40
1.0
 40
1.03125
 40
1.03125
 10
210.9287158773203
 20
128.0044092394353
 30
0.0
 10
211.523660307875
 20
128.0044092394353
 30
0.0
 10
211.7186385541247
 20
127.9884871858382
 30
0.0
 10
212.1022017792703
 20
127.92601416439
 30
0.0
 10
212.2927825547326
 20
127.8786966912597
 30
0.0
 10
212.6560318415193
 20
127.7549086986841
 30
0.0
 10
212.8282985805153
 20
127.6790411580645
 30
0.0
 10
213.1543202972232
 20
127.4991562101739
 30
0.0
 10
213.3085956639998
 20
127.3942227611612
 30
0.0
 10
213.5851585852509
 20
127.1639989999128
 30
0.0
 10
213.7093014755663
 20
127.0379082201166
 30
0.0
 10
213.9286162479372
 20
126.7626409503989
 30
0.0
 10
214.0217467033406
 20
126.6155351113317
 30
0.0
 10
214.1714010338667
 20
126.3095454488572
 30
0.0
 10
214.2290480038585
 20
126.1483985553735
 30
0.0
 10
214.3061545656809
 20
125.8165929599449
 30
0.0
 10
214.3252383470243
 20
125.6488765341127
 30
0.0
 10
214.3254517571017
 20
125.309804226777
 30
0.0
 10
214.3059564666023
 20
125.1366439024344
 30
0.0
 10
214.2293865921252
 20
124.7997856980872
 30
0.0
 10
214.1727333509161
 20
124.635167412302
 30
0.0
 10
214.0224574001067
 20
124.3138837107064
 30
0.0
 10
213.9285737376943
 20
124.1578563050434
 30
0.0
 10
213.7115085375978
 20
123.8678060857718
 30
0.0
 10
213.5875772813231
 20
123.7319496855826
 30
0.0
 10
213.3076204361708
 20
123.4798343097089
 30
0.0
 10
213.156161285269
 20
123.3677069991662
 30
0.0
 10
212.8314282763213
 20
123.1708863030451
 30
0.0
 10
212.6560638375049
 20
123.0854668797027
 30
0.0
 10
212.2927468186051
 20
122.9483513457344
 30
0.0
 10
212.1057553656146
 20
122.8965229026944
 30
0.0
 10
211.7211838672578
 20
122.8263337222699
 30
0.0
 10
211.5222760141384
 20
122.8083225498504
 30
0.0
 10
211.1306126144418
 20
122.8081914514052
 30
0.0
 10
210.935904878055
 20
122.8254896301544
 30
0.0
 10
210.5487878144
 20
122.8955047086487
 30
0.0
 10
210.3593168116731
 20
122.9480044704767
 30
0.0
 10
209.9981843136555
 20
123.0839555771548
 30
0.0
 10
209.8237650642952
 20
123.1683949617564
 30
0.0
 10
209.4955670264913
 20
123.3668447283643
 30
0.0
 10
209.3444887890408
 20
123.4789037144917
 30
0.0
 10
209.0676526960132
 20
123.7275228925716
 30
0.0
 10
208.9408888795006
 20
123.865756070552
 30
0.0
 10
208.7228843413437
 20
124.1566037328277
 30
0.0
 10
208.6306031618137
 20
124.3096325332739
 30
0.0
 10
208.4797234746483
 20
124.6305993635306
 30
0.0
 10
208.4217770401782
 20
124.798378594967
 30
0.0
 10
208.3451648577635
 20
125.1340864275862
 30
0.0
 10
208.3255368377482
 20
125.303812184014
 30
0.0
 10
208.325156914503
 20
125.6470551525884
 30
0.0
 10
208.3444692550076
 20
125.8153157142973
 30
0.0
 10
208.4203898716844
 20
126.143977310022
 30
0.0
 10
208.4778956406505
 20
126.3062894397702
 30
0.0
 10
208.6282557872396
 20
126.6145269185907
 30
0.0
 10
208.720275075131
 20
126.7598701271107
 30
0.0
 10
208.937619090121
 20
127.0336749341395
 30
0.0
 10
209.0641385102526
 20
127.1626761713645
 30
0.0
 10
209.3405721297124
 20
127.3931155545093
 30
0.0
 10
209.4914017197887
 20
127.496073426704
 30
0.0
 10
209.8189133120289
 20
127.6774539669916
 30
0.0
 10
209.993461845117
 20
127.7543466050729
 30
0.0
 10
210.5346667134886
 20
127.9392373978084
 30
0.0
 10
210.9287158773203
 20
128.0044092394353
 30
0.0
 10
211.523660307875
 20
128.0044092394353
 30
0.0
  0
ELLIPSE
  5
61
330
1F
100
AcDbEntity
  8
0
  6
Continuous
 62
     7
370
    15
100
AcDbEllipse
 10
223.6757072022
 20
109.7279243078
 30
0.0
 11
-0.2970659562811591
 21
31.49996440074773
 31
0.0
210
0.0
220
0.0
230
1.0
 40
0.1594181282
 41
3.140089234017316
 42
3.32845035030231
  0
ELLIPSE
  5
62
330
1F
100
AcDbEntity
  8
0
  6
Continuous
 62
     7
370
    15
100
AcDbEllipse
 10
295.9150516515
 20
109.7279243078
 30
0.0
 11
450.4709607548087
 21
-2.208072944663812
 31
0.0
210
0.0
220
0.0
230
1.0
 40
0.0697548059
 41
1.723472426186671
 42
1.725636359456933
  0
SPLINE
  5
63
330
1F
100
AcDbEntity
  8
0
  6
Continuous
 62
     7
370
    15
100
AcDbSpline
210
0.0
220
0.0
230
1.0
 70
     8
 71
     3
 72
    20
 73
    16
 74
     0
 42
0.00000001
 43
0.00000001
 12
1.0
 22
0.0
 32
0.0
 13
1.0
 23
0.0
 33
0.0
 40
0.0
 40
0.0
 40
0.0
 40
0.0
 40
0.250000000000001
 40
0.250000000000001
 40
0.3750000000000009
 40
0.3750000000000009
 40
0.5000000000000008
 40
0.5000000000000008
 40
0.6250000000000004
 40
0.6250000000000004
 40
0.7500000000000003
 40
0.7500000000000003
 40
0.8750000000000001
 40
0.8750000000000001
 40
1.0
 40
1.0
 40
1.0
 40
1.0
 10
221.217662513422
 20
140.4039993952917
 30
0.0
 10
221.3746229565556
 20
140.5432819763514
 30
0.0
 10
221.6164556269892
 20
140.6565875403639
 30
0.0
 10
222.1119895799491
 20
140.7963153186728
 30
0.0
 10
222.2983843529869
 20
140.8372889809417
 30
0.0
 10
222.7042048002037
 20
140.9083231348141
 30
0.0
 10
222.924797104443
 20
140.9387246139148
 30
0.0
 10
223.4022818694542
 20
140.9912609958654
 30
0.0
 10
223.6601008273165
 20
141.0133574088731
 30
0.0
 10
224.1942042231568
 20
141.0496704632301
 30
0.0
 10
224.4725740148394
 20
141.0641529164111
 30
0.0
 10
225.0520760102127
 20
141.0875013386426
 30
0.0
 10
225.3552244087398
 20
141.0963800181382
 30
0.0
 10
225.9678887179075
 20
141.1091565922008
 30
0.0
 10
226.2789007647742
 20
141.1131498022232
 30
0.0
 10
226.5946786286917
 20
141.1150400397955
 30
0.0
  0
SPLINE
  5
64
330
1F
100
AcDbEntity
  8
0
  6
Continuous
 62
     7
370
    15
100
AcDbSpline
210
0.0
220
0.0
230
1.0
 70
     8
 71
     3
 72
    18
 73
    14
 74
     0
 42
0.00000001
 43
0.00000001
 12
1.0
 22
0.0
 32
0.0
 13
1.0
 23
0.0
 33
0.0
 40
0.0
 40
0.0
 40
0.0
 40
0.0
 40
0.1250000000000007
 40
0.1250000000000007
 40
0.2500000000000013
 40
0.2500000000000013
 40
0.375000000000002
 40
0.375000000000002
 40
0.5000000000000027
 40
0.5000000000000027
 40
0.7500000000000013
 40
0.7500000000000013
 40
1.0
 40
1.0
 40
1.0
 40
1.0
 10
225.2794632397028
 20
79.07236277240669
 30
0.0
 10
225.0339040207689
 20
79.08963630858631
 30
0.0
 10
224.791067836914
 20
79.11101285957426
 30
0.0
 10
224.3192705050249
 20
79.1622858919976
 30
0.0
 10
224.0927114553248
 20
79.19187300358506
 30
0.0
 10
223.6576436921576
 20
79.25966193021317
 30
0.0
 10
223.4491371281806
 20
79.29786192105499
 30
0.0
 10
223.0504352318001
 20
79.38413136365146
 30
0.0
 10
222.8596884233263
 20
79.43247825391016
 30
0.0
 10
222.3312104872383
 20
79.59012982605798
 30
0.0
 10
222.0309091228074
 20
79.71286824384184
 30
0.0
 10
221.5341937535943
 20
80.00275816181443
 30
0.0
 10
221.3466245469929
 20
80.16492052767137
 30
0.0
 10
221.217662513422
 20
80.34650464004136
 30
0.0
  0
ELLIPSE
  5
65
330
1F
100
AcDbEntity
  8
0
  6
Continuous
 62
     7
370
    15
100
AcDbEllipse
 10
246.3575387897
 20
109.7279243078
 30
0.0
 11
22.81843988344223
 21
31.44114398840676
 31
0.0
210
0.0
220
0.0
230
1.0
 40
0.0843483871
 41
3.391093396145184
 42
3.434802132649368
  0
SPLINE
  5
66
330
1F
100
AcDbEntity
  8
0
  6
Continuous
 62
     7
370
    15
100
AcDbSpline
210
0.0
220
0.0
230
1.0
 70
     8
 71
     3
 72
    12
 73
     8
 74
     0
 42
0.00000001
 43
0.00000001
 12
1.0
 22
0.0
 32
0.0
 13
1.0
 23
0.0
 33
0.0
 40
0.0
 40
0.0
 40
0.0
 40
0.0
 40
0.5
 40
0.5
 40
0.75
 40
0.75
 40
1.0
 40
1.0
 40
1.0
 40
1.0
 10
200.4200896093643
 20
79.8271818476897
 30
0.0
 10
200.4512348073264
 20
79.78936632476952
 30
0.0
 10
200.4935090736609
 20
79.7532994666859
 30
0.0
 10
200.5934546074862
 20
79.70533940167462
 30
0.0
 10
200.6331849121902
 20
79.69047842777697
 30
0.0
 10
200.7300729621964
 20
79.66752728164583
 30
0.0
 10
200.790138203943
 20
79.6594323489338
 30
0.0
 10
200.8531023112565
 20
79.6594323489338
 30
0.0
  0
LINE
  5
67
330
1F
100
AcDbEntity
  8
0
  6
Continuous
 62
     7
370
    15
100
AcDbLine
 10
200.8531024941
 20
79.6594317909
 30
0.0
 11
203.7975887099
 21
79.6594317909
 31
0.0
  0
SPLINE
  5
68
330
1F
100
AcDbEntity
  8
0
  6
Continuous
 62
     7
370
    15
100
AcDbSpline
210
0.0
220
0.0
230
1.0
 70
     8
 71
     3
 72
    12
 73
     8
 74
     0
 42
0.00000001
 43
0.00000001
 12
1.0
 22
0.0
 32
0.0
 13
1.0
 23
0.0
 33
0.0
 40
0.0
 40
0.0
 40
0.0
 40
0.0
 40
0.2500000000000009
 40
0.2500000000000009
 40
0.5000000000000019
 40
0.5000000000000019
 40
1.0
 40
1.0
 40
1.0
 40
1.0
 10
203.7975886841237
 20
79.65943234893386
 30
0.0
 10
203.8606456390215
 20
79.65943234893385
 30
0.0
 10
203.9197757887671
 20
79.66733268001339
 30
0.0
 10
204.0182233393003
 20
79.69064342801843
 30
0.0
 10
204.0572555774884
 20
79.70534855430209
 30
0.0
 10
204.1571454619454
 20
79.75328208248872
 30
0.0
 10
204.1994444355547
 20
79.78935205525347
 30
0.0
 10
204.230601386016
 20
79.82718184768969
 30
0.0
  0
ELLIPSE
  5
69
330
1F
100
AcDbEntity
  8
0
  6
Continuous
 62
     7
370
    15
100
AcDbEllipse
 10
187.9781913083
 20
109.7279243078
 30
0.0
 11
-14.75368316065615
 21
31.09325491558116
 31
0.0
210
0.0
220
0.0
230
1.0
 40
0.3419987131
 41
3.300734856217126
 42
4.231496223360773
  0
SPLINE
  5
6A
330
1F
100
AcDbEntity
  8
0
  6
Continuous
 62
     7
370
    15
100
AcDbSpline
210
0.0
220
0.0
230
1.0
 70
     8
 71
     3
 72
    12
 73
     8
 74
     0
 42
0.00000001
 43
0.00000001
 12
1.0
 22
0.0
 32
0.0
 13
1.0
 23
0.0
 33
0.0
 40
0.0
 40
0.0
 40
0.0
 40
0.0
 40
0.4999999999999981
 40
0.4999999999999981
 40
0.749999999999999
 40
0.749999999999999
 40
1.0
 40
1.0
 40
1.0
 40
1.0
 10
204.2306013860159
 20
99.81855498712156
 30
0.0
 10
204.1994561880538
 20
99.93266035298687
 30
0.0
 10
204.1571819217194
 20
100.0437666802056
 30
0.0
 10
204.0572363878941
 20
100.1939242876359
 30
0.0
 10
204.01750608319
 20
100.2409169792533
 30
0.0
 10
203.9206180331838
 20
100.3138925637918
 30
0.0
 10
203.8605527914372
 20
100.3398578764708
 30
0.0
 10
203.7975886841237
 20
100.3398578764708
 30
0.0
  0
LINE
  5
6B
330
1F
100
AcDbEntity
  8
0
  6
Continuous
 62
     7
370
    15
100
AcDbLine
 10
203.7975887099
 20
100.3398574796
 30
0.0
 11
200.8531024941
 21
100.3398574796
 31
0.0
  0
SPLINE
  5
6C
330
1F
100
AcDbEntity
  8
0
  6
Continuous
 62
     7
370
    15
100
AcDbSpline
210
0.0
220
0.0
230
1.0
 70
     8
 71
     3
 72
    12
 73
     8
 74
     0
 42
0.00000001
 43
0.00000001
 12
1.0
 22
0.0
 32
0.0
 13
1.0
 23
0.0
 33
0.0
 40
0.0
 40
0.0
 40
0.0
 40
0.0
 40
0.2499999999999982
 40
0.2499999999999982
 40
0.4999999999999963
 40
0.4999999999999963
 40
1.0
 40
1.0
 40
1.0
 40
1.0
 10
200.8531023112565
 20
100.3398578764707
 30
0.0
 10
200.7900453563587
 20
100.3398578764707
 30
0.0
 10
200.7309152066132
 20
100.31451152309
 30
0.0
 10
200.6324676560799
 20
100.2403921409505
 30
0.0
 10
200.5934354178918
 20
100.1938956262525
 30
0.0
 10
200.4935455334349
 20
100.0438211192439
 30
0.0
 10
200.4512465598255
 20
99.93270341012906
 30
0.0
 10
200.4200896093643
 20
99.81855498712159
 30
0.0
  0
ELLIPSE
  5
6D
330
1F
100
AcDbEntity
  8
0
  6
Continuous
 62
     7
370
    15
100
AcDbEllipse
 10
216.6724996871
 20
109.7279243078
 30
0.0
 11
14.75368316065618
 21
31.09325491558116
 31
0.0
210
0.0
220
0.0
230
1.0
 40
0.3419987131
 41
2.051689083818827
 42
2.982450450962503
  0
SPLINE
  5
6E
330
1F
100
AcDbEntity
  8
0
  6
Continuous
 62
     7
370
    15
100
AcDbSpline
210
0.0
220
0.0
230
1.0
 70
     8
 71
     3
 72
    12
 73
     8
 74
     0
 42
0.00000001
 43
0.00000001
 12
1.0
 22
0.0
 32
0.0
 13
1.0
 23
0.0
 33
0.0
 40
0.0
 40
0.0
 40
0.0
 40
0.0
 40
0.4999999999999953
 40
0.4999999999999953
 40
0.7499999999999977
 40
0.7499999999999977
 40
1.0
 40
1.0
 40
1.0
 40
1.0
 10
200.4200896093643
 20
119.637293628492
 30
0.0
 10
200.4508118512834
 20
119.5247378290829
 30
0.0
 10
200.4936490658186
 20
119.4119799693432
 30
0.0
 10
200.5930760900184
 20
119.2624390835469
 30
0.0
 10
200.632828284835
 20
119.21514635184
 30
0.0
 10
200.7308697416933
 20
119.1414100585186
 30
0.0
 10
200.7904257972807
 20
119.1159907391429
 30
0.0
 10
200.8531023112565
 20
119.1159907391429
 30
0.0
  0
LINE
  5
6F
330
1F
100
AcDbEntity
  8
0
  6
Continuous
 62
     7
370
    15
100
AcDbLine
 10
200.8531024941
 20
119.1159911361
 30
0.0
 11
203.7975887099
 21
119.1159911361
 31
0.0
  0
SPLINE
  5
70
330
1F
100
AcDbEntity
  8
0
  6
Continuous
 62
     7
370
    15
100
AcDbSpline
210
0.0
220
0.0
230
1.0
 70
     8
 71
     3
 72
    12
 73
     8
 74
     0
 42
0.00000001
 43
0.00000001
 12
1.0
 22
0.0
 32
0.0
 13
1.0
 23
0.0
 33
0.0
 40
0.0
 40
0.0
 40
0.0
 40
0.0
 40
0.2500000000000009
 40
0.2500000000000009
 40
0.5000000000000018
 40
0.5000000000000018
 40
1.0
 40
1.0
 40
1.0
 40
1.0
 10
203.7975886841237
 20
119.1159907391428
 30
0.0
 10
203.860668722617
 20
119.1159907391428
 30
0.0
 10
203.9198173447985
 20
119.1413550583578
 30
0.0
 10
204.0182898948675
 20
119.2155199187307
 30
0.0
 10
204.0573265068522
 20
119.2620402592848
 30
0.0
 10
204.1572229736313
 20
119.4121826021301
 30
0.0
 10
204.1996438546979
 20
119.5238758091022
 30
0.0
 10
204.2306013860159
 20
119.637293628492
 30
0.0
  0
ELLIPSE
  5
71
330
1F
100
AcDbEntity
  8
0
  6
Continuous
 62
     7
370
    15
100
AcDbEllipse
 10
187.9781913083
 20
109.7279243078
 30
0.0
 11
14.75368316065604
 21
31.09325491558116
 31
0.0
210
0.0
220
0.0
230
1.0
 40
0.3419987131
 41
5.19328173740862
 42
6.124043104552323
  0
SPLINE
  5
72
330
1F
100
AcDbEntity
  8
0
  6
Continuous
 62
     7
370
    15
100
AcDbSpline
210
0.0
220
0.0
230
1.0
 70
     8
 71
     3
 72
    12
 73
     8
 74
     0
 42
0.00000001
 43
0.00000001
 12
1.0
 22
0.0
 32
0.0
 13
1.0
 23
0.0
 33
0.0
 40
0.0
 40
0.0
 40
0.0
 40
0.0
 40
0.4999999999999991
 40
0.4999999999999991
 40
0.7499999999999996
 40
0.7499999999999996
 40
1.0
 40
1.0
 40
1.0
 40
1.0
 10
204.2306013860159
 20
139.6286667679241
 30
0.0
 10
204.1998791440968
 20
139.6659687508772
 30
0.0
 10
204.1570419295616
 20
139.7025805829236
 30
0.0
 10
204.0576149053618
 20
139.7503453662088
 30
0.0
 10
204.0178627105452
 20
139.7653028816912
 30
0.0
 10
203.919821253687
 20
139.7884928274603
 30
0.0
 10
203.8602651980995
 20
139.79641626668
 30
0.0
 10
203.7975886841237
 20
139.79641626668
 30
0.0
  0
LINE
  5
73
330
1F
100
AcDbEntity
  8
0
  6
Continuous
 62
     7
370
    15
100
AcDbLine
 10
203.7975887099
 20
139.7964168247
 30
0.0
 11
200.8531024941
 21
139.7964168247
 31
0.0
  0
SPLINE
  5
74
330
1F
100
AcDbEntity
  8
0
  6
Continuous
 62
     7
370
    15
100
AcDbSpline
210
0.0
220
0.0
230
1.0
 70
     8
 71
     3
 72
    12
 73
     8
 74
     0
 42
0.00000001
 43
0.00000001
 12
1.0
 22
0.0
 32
0.0
 13
1.0
 23
0.0
 33
0.0
 40
0.0
 40
0.0
 40
0.0
 40
0.0
 40
0.2500000000000023
 40
0.2500000000000023
 40
0.5000000000000047
 40
0.5000000000000047
 40
1.0
 40
1.0
 40
1.0
 40
1.0
 10
200.8531023112565
 20
139.79641626668
 30
0.0
 10
200.7900222727632
 20
139.79641626668
 30
0.0
 10
200.7308736505818
 20
139.7885103404676
 30
0.0
 10
200.6324011005127
 20
139.7651851790313
 30
0.0
 10
200.593364488528
 20
139.7504723891996
 30
0.0
 10
200.493468021749
 20
139.7025165884687
 30
0.0
 10
200.4510471406823
 20
139.6662544318886
 30
0.0
 10
200.4200896093644
 20
139.6286667679241
 30
0.0
  0
ELLIPSE
  5
75
330
1F
100
AcDbEntity
  8
0
  6
Continuous
 62
     7
370
    15
100
AcDbEllipse
 10
216.6724996871
 20
109.7279243078
 30
0.0
 11
-14.75368316065607
 21
31.09325491558116
 31
0.0
210
0.0
220
0.0
230
1.0
 40
0.3419987131
 41
0.1591422026273013
 42
1.089903569770978
  0
SPLINE
  5
76
330
1F
100
AcDbEntity
  8
0
  6
Continuous
 62
     7
370
    15
100
AcDbSpline
210
0.0
220
0.0
230
1.0
 70
     8
 71
     3
 72
    12
 73
     8
 74
     0
 42
0.00000001
 43
0.00000001
 12
1.0
 22
0.0
 32
0.0
 13
1.0
 23
0.0
 33
0.0
 40
0.0
 40
0.0
 40
0.0
 40
0.0
 40
0.4999999999999998
 40
0.4999999999999998
 40
0.7499999999999999
 40
0.7499999999999999
 40
1.0
 40
1.0
 40
1.0
 40
1.0
 10
189.5088332112336
 20
87.87313060533111
 30
0.0
 10
189.5652697121408
 20
87.87171272398936
 30
0.0
 10
189.6343543428295
 20
87.87014838774107
 30
0.0
 10
189.7531566145475
 20
87.86720419576662
 30
0.0
 10
189.7933418900176
 20
87.86616599266924
 30
0.0
 10
189.8667229374214
 20
87.8642320974546
 30
0.0
 10
189.900132501164
 20
87.86333721016578
 30
0.0
 10
189.9303686088205
 20
87.86255341989346
 30
0.0
  0
SPLINE
  5
77
330
1F
100
AcDbEntity
  8
0
  6
Continuous
 62
     7
370
    15
100
AcDbSpline
210
0.0
220
0.0
230
1.0
 70
     8
 71
     3
 72
    16
 73
    12
 74
     0
 42
0.00000001
 43
0.00000001
 12
1.0
 22
0.0
 32
0.0
 13
1.0
 23
0.0
 33
0.0
 40
0.0
 40
0.0
 40
0.0
 40
0.0
 40
0.062499999999999
 40
0.062499999999999
 40
0.124999999999998
 40
0.124999999999998
 40
0.2500000000000012
 40
0.2500000000000012
 40
0.4999999999999997
 40
0.4999999999999997
 40
1.0
 40
1.0
 40
1.0
 40
1.0
 10
189.9303686087833
 20
87.8625534199177
 30
0.0
 10
189.9419490163712
 20
87.86225322880634
 30
0.0
 10
189.9552585431325
 20
87.86092548054737
 30
0.0
 10
189.9845599732186
 20
87.85422680577236
 30
0.0
 10
189.9993740731029
 20
87.84886862266667
 30
0.0
 10
190.0352024748058
 20
87.83182297349931
 30
0.0
 10
190.0493220991688
 20
87.82036043572357
 30
0.0
 10
190.0838262432573
 20
87.78879711035133
 30
0.0
 10
190.0949307939619
 20
87.77089981130607
 30
0.0
 10
190.1211069711781
 20
87.72073839369182
 30
0.0
 10
190.1253454976901
 20
87.69299398149525
 30
0.0
 10
190.1253454976901
 20
87.6683298195657
 30
0.0
  0
LINE
  5
78
330
1F
100
AcDbEntity
  8
0
  6
Continuous
 62
     7
370
    15
100
AcDbLine
 10
190.1253455027
 20
102.7060370799
 30
0.0
 11
190.1253455027
 21
87.1881037857
 31
0.0
  0
SPLINE
  5
79
330
1F
100
AcDbEntity
  8
0
  6
Continuous
 62
     7
370
    15
100
AcDbSpline
210
0.0
220
0.0
230
1.0
 70
     8
 71
     3
 72
    16
 73
    12
 74
     0
 42
0.00000001
 43
0.00000001
 12
1.0
 22
0.0
 32
0.0
 13
1.0
 23
0.0
 33
0.0
 40
0.0
 40
0.0
 40
0.0
 40
0.0
 40
0.5000000000000018
 40
0.5000000000000018
 40
0.7500000000000027
 40
0.7500000000000027
 40
0.8750000000000024
 40
0.8750000000000024
 40
0.9375000000000012
 40
0.9375000000000012
 40
1.0
 40
1.0
 40
1.0
 40
1.0
 10
190.1253454976901
 20
102.7060369820568
 30
0.0
 10
190.1253454976901
 20
102.8197295261847
 30
0.0
 10
190.1211992226122
 20
102.9340496875343
 30
0.0
 10
190.0952336272186
 20
103.1070979780314
 30
0.0
 10
190.0837727218412
 20
103.1662734851931
 30
0.0
 10
190.0494609840669
 20
103.2493966046612
 30
0.0
 10
190.0354362481373
 20
103.2775179207619
 30
0.0
 10
189.9994132851034
 20
103.3061337347393
 30
0.0
 10
189.9846587760138
 20
103.3119267826411
 30
0.0
 10
189.9553066148669
 20
103.3103333567041
 30
0.0
 10
189.9419667403628
 20
103.3038369533803
 30
0.0
 10
189.9303686088145
 20
103.2953212071771
 30
0.0
  0
SPLINE
  5
7A
330
1F
100
AcDbEntity
  8
0
  6
Continuous
 62
     7
370
    15
100
AcDbSpline
210
0.0
220
0.0
230
1.0
 70
     8
 71
     3
 72
    12
 73
     8
 74
     0
 42
0.00000001
 43
0.00000001
 12
1.0
 22
0.0
 32
0.0
 13
1.0
 23
0.0
 33
0.0
 40
0.0
 40
0.0
 40
0.0
 40
0.0
 40
0.2500000000000003
 40
0.2500000000000003
 40
0.5000000000000007
 40
0.5000000000000007
 40
1.0
 40
1.0
 40
1.0
 40
1.0
 10
189.9303686088215
 20
103.295321207168
 30
0.0
 10
189.9001701673809
 20
103.2731484751229
 30
0.0
 10
189.8668028120449
 20
103.2540688192457
 30
0.0
 10
189.793647536215
 20
103.228895774803
 30
0.0
 10
189.7533948371911
 20
103.2233392383862
 30
0.0
 10
189.6356660939162
 20
103.234251049373
 30
0.0
 10
189.5652076458573
 20
103.2761868047838
 30
0.0
 10
189.508833211239
 20
103.3253985871653
 30
0.0
  0
SPLINE
  5
7B
330
1F
100
AcDbEntity
  8
0
  6
Continuous
 62
     7
370
    15
100
AcDbSpline
210
0.0
220
0.0
230
1.0
 70
     8
 71
     3
 72
    12
 73
     8
 74
     0
 42
0.00000001
 43
0.00000001
 12
1.0
 22
0.0
 32
0.0
 13
1.0
 23
0.0
 33
0.0
 40
0.0
 40
0.0
 40
0.0
 40
0.0
 40
0.5000000000000014
 40
0.5000000000000014
 40
0.7500000000000007
 40
0.7500000000000007
 40
1.0
 40
1.0
 40
1.0
 40
1.0
 10
189.0040251541305
 20
104.5417499790459
 30
0.0
 10
189.0477755060149
 20
104.3213029940714
 30
0.0
 10
189.1006656571394
 20
104.1057580042658
 30
0.0
 10
189.2122772002811
 20
103.7933439276939
 30
0.0
 10
189.2548365441846
 20
103.691264452078
 30
0.0
 10
189.3598137795221
 20
103.4968244394362
 30
0.0
 10
189.4213810226166
 20
103.4017395403726
 30
0.0
 10
189.508833211239
 20
103.3253985871654
 30
0.0
  0
SPLINE
  5
7C
330
1F
100
AcDbEntity
  8
0
  6
Continuous
 62
     7
370
    15
100
AcDbSpline
210
0.0
220
0.0
230
1.0
 70
     8
 71
     3
 72
    12
 73
     8
 74
     0
 42
0.00000001
 43
0.00000001
 12
1.0
 22
0.0
 32
0.0
 13
1.0
 23
0.0
 33
0.0
 40
0.0
 40
0.0
 40
0.0
 40
0.0
 40
0.2500000000000001
 40
0.2500000000000001
 40
0.5000000000000001
 40
0.5000000000000001
 40
1.0
 40
1.0
 40
1.0
 40
1.0
 10
189.5088332112389
 20
116.1304500284485
 30
0.0
 10
189.420339803671
 20
116.0532001483403
 30
0.0
 10
189.3602817629052
 20
115.959880824451
 30
0.0
 10
189.2544334899226
 20
115.7638477714816
 30
0.0
 10
189.2118999686451
 20
115.6615214132698
 30
0.0
 10
189.1007486618215
 20
115.3501770074939
 30
0.0
 10
189.0478178047737
 20
115.1347587543159
 30
0.0
 10
189.0040251541305
 20
114.9140986365681
 30
0.0
  0
SPLINE
  5
7D
330
1F
100
AcDbEntity
  8
0
  6
Continuous
 62
     7
370
    15
100
AcDbSpline
210
0.0
220
0.0
230
1.0
 70
     8
 71
     3
 72
    12
 73
     8
 74
     0
 42
0.00000001
 43
0.00000001
 12
1.0
 22
0.0
 32
0.0
 13
1.0
 23
0.0
 33
0.0
 40
0.0
 40
0.0
 40
0.0
 40
0.0
 40
0.5000000000000007
 40
0.5000000000000007
 40
0.7500000000000003
 40
0.7500000000000003
 40
1.0
 40
1.0
 40
1.0
 40
1.0
 10
189.5088332112389
 20
116.1304500284486
 30
0.0
 10
189.5651417595345
 20
116.1796042956924
 30
0.0
 10
189.6354164202527
 20
116.2215616142961
 30
0.0
 10
189.7534543345762
 20
116.2325212918286
 30
0.0
 10
189.7936305754302
 20
116.2270125335812
 30
0.0
 10
189.8675876701081
 20
116.2014553047923
 30
0.0
 10
189.9002040578195
 20
116.182675256953
 30
0.0
 10
189.9303686088153
 20
116.1605274084363
 30
0.0
  0
SPLINE
  5
7E
330
1F
100
AcDbEntity
  8
0
  6
Continuous
 62
     7
370
    15
100
AcDbSpline
210
0.0
220
0.0
230
1.0
 70
     8
 71
     3
 72
    16
 73
    12
 74
     0
 42
0.00000001
 43
0.00000001
 12
1.0
 22
0.0
 32
0.0
 13
1.0
 23
0.0
 33
0.0
 40
0.0
 40
0.0
 40
0.0
 40
0.0
 40
0.0624999999999999
 40
0.0624999999999999
 40
0.1249999999999998
 40
0.1249999999999998
 40
0.2499999999999986
 40
0.2499999999999986
 40
0.5000000000000013
 40
0.5000000000000013
 40
1.0
 40
1.0
 40
1.0
 40
1.0
 10
189.9303686087835
 20
116.1605274083817
 30
0.0
 10
189.9419815086229
 20
116.1520008187865
 30
0.0
 10
189.9553326930554
 20
116.1455005572537
 30
0.0
 10
189.9847325326745
 20
116.1439311601362
 30
0.0
 10
189.9995732572298
 20
116.1498145507668
 30
0.0
 10
190.0354064651984
 20
116.1783621868173
 30
0.0
 10
190.04951967302
 20
116.2065292061231
 30
0.0
 10
190.0840110442388
 20
116.2902834645451
 30
0.0
 10
190.0950951153492
 20
116.3479968781665
 30
0.0
 10
190.1212179331453
 20
116.5215874148123
 30
0.0
 10
190.1253454976901
 20
116.6366154674543
 30
0.0
 10
190.1253454976901
 20
116.7498116335571
 30
0.0
  0
LINE
  5
7F
330
1F
100
AcDbEntity
  8
0
  6
Continuous
 62
     7
370
    15
100
AcDbLine
 10
190.1253455027
 20
132.2677448299
 30
0.0
 11
190.1253455027
 21
116.7498115357
 31
0.0
  0
SPLINE
  5
80
330
1F
100
AcDbEntity
  8
0
  6
Continuous
 62
     7
370
    15
100
AcDbSpline
210
0.0
220
0.0
230
1.0
 70
     8
 71
     3
 72
    16
 73
    12
 74
     0
 42
0.00000001
 43
0.00000001
 12
1.0
 22
0.0
 32
0.0
 13
1.0
 23
0.0
 33
0.0
 40
0.0
 40
0.0
 40
0.0
 40
0.0
 40
0.5000000000000047
 40
0.5000000000000047
 40
0.750000000000005
 40
0.750000000000005
 40
0.8750000000000051
 40
0.8750000000000051
 40
0.9375000000000027
 40
0.9375000000000027
 40
1.0
 40
1.0
 40
1.0
 40
1.0
 10
190.1253454976901
 20
131.7875187960483
 30
0.0
 10
190.1253454976901
 20
131.7628476400053
 30
0.0
 10
190.1211797992302
 20
131.7352658086141
 30
0.0
 10
190.0949214709052
 20
131.6849229377908
 30
0.0
 10
190.0834176891676
 20
131.6666334397289
 30
0.0
 10
190.0492869298211
 20
131.6354784086918
 30
0.0
 10
190.0348650431504
 20
131.6238390334801
 30
0.0
 10
189.9992980747125
 20
131.606957007549
 30
0.0
 10
189.9843463064178
 20
131.6015679037414
 30
0.0
 10
189.9553424880581
 20
131.5949474077969
 30
0.0
 10
189.9419271340489
 20
131.5935948195904
 30
0.0
 10
189.9303686088123
 20
131.5932951957188
 30
0.0
  0
SPLINE
  5
81
330
1F
100
AcDbEntity
  8
0
  6
Continuous
 62
     7
370
    15
100
AcDbSpline
210
0.0
220
0.0
230
1.0
 70
     8
 71
     3
 72
    12
 73
     8
 74
     0
 42
0.00000001
 43
0.00000001
 12
1.0
 22
0.0
 32
0.0
 13
1.0
 23
0.0
 33
0.0
 40
0.0
 40
0.0
 40
0.0
 40
0.0
 40
0.25
 40
0.25
 40
0.5
 40
0.5
 40
1.0
 40
1.0
 40
1.0
 40
1.0
 10
189.9303686088215
 20
131.5932951957205
 30
0.0
 10
189.9001808322719
 20
131.592512658303
 30
0.0
 10
189.8668270281802
 20
131.5916193264845
 30
0.0
 10
189.7937008249842
 20
131.5896920176809
 30
0.0
 10
189.7534656219601
 20
131.5886524864682
 30
0.0
 10
189.635773991827
 20
131.585734603121
 30
0.0
 10
189.565393318667
 20
131.5841389970507
 30
0.0
 10
189.5088332112364
 20
131.5827180102829
 30
0.0
  0
SPLINE
  5
82
330
1F
100
AcDbEntity
  8
0
  6
Continuous
 62
     7
370
    15
100
AcDbSpline
210
0.0
220
0.0
230
1.0
 70
     8
 71
     3
 72
    16
 73
    12
 74
     0
 42
0.00000001
 43
0.00000001
 12
1.0
 22
0.0
 32
0.0
 13
1.0
 23
0.0
 33
0.0
 40
0.0
 40
0.0
 40
0.0
 40
0.0
 40
0.25
 40
0.25
 40
0.375
 40
0.375
 40
0.5
 40
0.5
 40
0.75
 40
0.75
 40
1.0
 40
1.0
 40
1.0
 40
1.0
 10
189.0040251541305
 20
114.9140986365681
 30
0.0
 10
188.842792676646
 20
114.1016888613212
 30
0.0
 10
188.7223128370064
 20
113.2616105669365
 30
0.0
 10
188.599932319693
 20
111.9603155175737
 30
0.0
 10
188.5689546592956
 20
111.5196344819889
 30
0.0
 10
188.5273409216676
 20
110.6237948410578
 30
0.0
 10
188.5171050087348
 20
110.1771367098553
 30
0.0
 10
188.5169166116787
 20
108.8418267527154
 30
0.0
 10
188.5570613143163
 20
107.9573313794079
 30
0.0
 10
188.7212150692559
 20
106.2000814913819
 30
0.0
 10
188.8427667196655
 20
105.3542905449688
 30
0.0
 10
189.0040251541305
 20
104.5417499790459
 30
0.0
  0
LINE
  5
83
330
1F
100
AcDbEntity
  8
0
  6
Continuous
 62
     7
370
    15
100
AcDbLine
 10
188.1253455096
 20
116.2131024431
 30
0.0
 11
188.1253455096
 21
103.2427461725
 31
0.0
  0
LINE
  5
84
330
1F
100
AcDbEntity
  8
0
  6
Continuous
 62
     7
370
    15
100
AcDbLine
 10
153.8253460341
 20
115.7822349016
 30
0.0
 11
153.8253460341
 21
103.6736137141
 31
0.0
  0
LINE
  5
85
330
1F
100
AcDbEntity
  8
0
  6
Continuous
 62
     7
370
    15
100
AcDbLine
 10
152.3253467196
 20
115.3492220584
 30
0.0
 11
152.3253467196
 21
104.1066265572
 31
0.0
  0
LINE
  5
86
330
1F
100
AcDbEntity
  8
0
  6
Continuous
 62
     7
370
    15
100
AcDbLine
 10
188.1253455096
 20
87.7078246232
 30
0.0
 11
188.1253455096
 21
103.2427461725
 31
0.0
  0
ARC
  5
87
330
1F
100
AcDbEntity
  8
0
  6
Continuous
 62
     7
370
    15
100
AcDbCircle
 10
188.3252824086
 20
87.7028024121
 30
0.0
 40
0.2000000000000059
100
AcDbArc
 50
88.5608333333
 51
178.5608333333
  0
LINE
  5
88
330
1F
100
AcDbEntity
  8
0
  6
Continuous
 62
     7
370
    15
100
AcDbLine
 10
153.8253460341
 20
88.5695606377
 30
0.0
 11
153.8253460341
 21
103.6736137141
 31
0.0
  0
LINE
  5
89
330
1F
100
AcDbEntity
  8
0
  6
Continuous
 62
     7
370
    15
100
AcDbLine
 10
153.8253460341
 20
88.5695606377
 30
0.0
 11
188.1253455096
 21
87.7078246232
 31
0.0
  0
LINE
  5
8A
330
1F
100
AcDbEntity
  8
0
  6
Continuous
 62
     7
370
    15
100
AcDbLine
 10
153.8253460341
 20
115.7822349016
 30
0.0
 11
153.8253460341
 21
130.8862879779
 31
0.0
  0
LINE
  5
8B
330
1F
100
AcDbEntity
  8
0
  6
Continuous
 62
     7
370
    15
100
AcDbLine
 10
153.8253460341
 20
130.8862879779
 30
0.0
 11
188.1253455096
 21
131.7480239924
 31
0.0
  0
LINE
  5
8C
330
1F
100
AcDbEntity
  8
0
  6
Continuous
 62
     7
370
    15
100
AcDbLine
 10
188.1253455096
 20
116.2131024431
 30
0.0
 11
188.1253455096
 21
131.7480239924
 31
0.0
  0
ARC
  5
8D
330
1F
100
AcDbEntity
  8
0
  6
Continuous
 62
     7
370
    15
100
AcDbCircle
 10
188.3252824086
 20
131.7530462035
 30
0.0
 40
0.2000000000000059
100
AcDbArc
 50
181.4391666667
 51
271.4391666667
  0
LINE
  5
8E
330
1F
100
AcDbEntity
  8
0
  6
Continuous
 62
     7
370
    15
100
AcDbLine
 10
188.3303056267
 20
131.5531093534
 30
0.0
 11
189.5088332269
 21
131.5827179607
 31
0.0
  0
LINE
  5
8F
330
1F
100
AcDbEntity
  8
0
  6
Continuous
 62
     7
370
    15
100
AcDbLine
 10
188.3303056267
 20
87.9027392622
 30
0.0
 11
189.5088332269
 21
87.8731306549
 31
0.0
  0
LINE
  5
90
330
1F
100
AcDbEntity
  8
0
  6
Continuous
 62
     7
370
    15
100
AcDbLine
 10
152.3253467196
 20
130.0202622917
 30
0.0
 11
153.8253460341
 21
130.8862879779
 31
0.0
  0
LINE
  5
91
330
1F
100
AcDbEntity
  8
0
  6
Continuous
 62
     7
370
    15
100
AcDbLine
 10
152.3253467196
 20
115.3492220584
 30
0.0
 11
152.3253467196
 21
130.0202622917
 31
0.0
  0
LINE
  5
92
330
1F
100
AcDbEntity
  8
0
  6
Continuous
 62
     7
370
    15
100
AcDbLine
 10
152.3253467196
 20
89.435586324
 30
0.0
 11
153.8253460341
 21
88.5695606377
 31
0.0
  0
LINE
  5
93
330
1F
100
AcDbEntity
  8
0
  6
Continuous
 62
     7
370
    15
100
AcDbLine
 10
152.3253467196
 20
89.435586324
 30
0.0
 11
152.3253467196
 21
104.1066265572
 31
0.0
  0
ELLIPSE
  5
94
330
1F
100
AcDbEntity
  8
0
  6
Continuous
 62
     7
370
    15
100
AcDbEllipse
 10
227.0132174712
 20
80.4759243385
 30
0.0
 11
5.977982301632068
 21
8.525612922029225
 31
0.0
210
0.0
220
0.0
230
1.0
 40
0.0602354531
 41
1.554913955089608
 42
1.77824009803667
  0
LINE
  5
95
330
1F
100
AcDbEntity
  8
0
  6
Continuous
 62
     7
370
    15
100
AcDbLine
 10
236.6127889865
 20
138.9519531187
 30
0.0
 11
231.4568493777
 21
136.2930904981
 31
0.0
  0
ARC
  5
96
330
1F
100
AcDbEntity
  8
0
  6
Continuous
 62
     7
370
    15
100
AcDbCircle
 10
232.34272526
 20
134.6008934834
 30
0.0
 40
1.910054139342842
100
AcDbArc
 50
117.6323430059
 51
297.2486834928
  0
LINE
  5
97
330
1F
100
AcDbEntity
  8
0
  6
Continuous
 62
     7
370
    15
100
AcDbLine
 10
233.2172502094
 20
132.9028025176
 30
0.0
 11
233.570385378
 21
133.0849096086
 31
0.0
  0
LINE
  5
98
330
1F
100
AcDbEntity
  8
0
  6
Continuous
 62
     7
370
    15
100
AcDbLine
 10
233.570385378
 20
133.0849096086
 30
0.0
 11
233.5618805402
 21
133.0686170515
 31
0.0
  0
LINE
  5
99
330
1F
100
AcDbEntity
  8
0
  6
Continuous
 62
     7
370
    15
100
AcDbLine
 10
233.5618805402
 20
133.0686170515
 30
0.0
 11
234.5309663826
 21
133.5683628824
 31
0.0
  0
ARC
  5
9A
330
1F
100
AcDbEntity
  8
0
  6
Continuous
 62
     7
370
    15
100
AcDbCircle
 10
271.6876997078
 20
129.9245677039
 30
0.0
 40
25.88632255100386
100
AcDbArc
 50
155.7445072463
 51
180.0116852315
  0
LINE
  5
9B
330
1F
100
AcDbEntity
  8
0
  6
Continuous
 62
     7
370
    15
100
AcDbLine
 10
245.8013776952
 20
129.9192882981
 30
0.0
 11
245.8013776952
 21
108.3076878823
 31
0.0
  0
SPLINE
  5
9C
330
1F
100
AcDbEntity
  8
0
  6
Continuous
 62
     7
370
    15
100
AcDbSpline
210
0.0
220
0.0
230
1.0
 70
     8
 71
     3
 72
    10
 73
     6
 74
     0
 42
0.00000001
 43
0.00000001
 12
1.0
 22
0.0
 32
0.0
 13
1.0
 23
0.0
 33
0.0
 40
0.0
 40
0.0
 40
0.0
 40
0.0
 40
0.5
 40
0.5
 40
1.0
 40
1.0
 40
1.0
 40
1.0
 10
227.5580185097111
 20
141.1207321074563
 30
0.0
 10
227.7797817933175
 20
141.1220253011205
 30
0.0
 10
227.9942388144144
 20
141.1977695304664
 30
0.0
 10
228.3417906670228
 20
141.4696624278474
 30
0.0
 10
228.4671579217146
 20
141.6598672933068
 30
0.0
 10
228.5239443360002
 20
141.8738841947274
 30
0.0
  0
LINE
  5
9D
330
1F
100
AcDbEntity
  8
0
  6
Continuous
 62
     7
370
    15
100
AcDbLine
 10
228.5239432269
 20
141.8738827016
 30
0.0
 11
228.8541194313
 21
143.1176192965
 31
0.0
  0
ARC
  5
9E
330
1F
100
AcDbEntity
  8
0
  6
Continuous
 62
     7
370
    15
100
AcDbCircle
 10
226.034615489
 20
168.8221438852
 30
0.0
 40
25.85869654124463
100
AcDbArc
 50
276.2596926989
 51
297.2723778542
  0
LINE
  5
9F
330
1F
100
AcDbEntity
  8
0
  6
Continuous
 62
     7
370
    15
100
AcDbLine
 10
237.8836158925
 20
145.8379454818
 30
0.0
 11
241.0619255417
 21
147.4769651797
 31
0.0
  0
LINE
  5
A0
330
1F
100
AcDbEntity
  8
0
  6
Continuous
 62
     7
370
    15
100
AcDbLine
 10
245.8013776952
 20
108.3076878823
 30
0.0
 11
226.5946787113
 21
80.9713672753
 31
0.0
  0
ARC
  5
A1
330
1F
100
AcDbEntity
  8
0
  6
Continuous
 62
     7
370
    15
100
AcDbCircle
 10
232.2501378444
 20
134.5090977225
 30
0.0
 40
1.749233811830426
100
AcDbArc
 50
117.6063537462
 51
297.2747952804
  0
LINE
  5
A2
330
1F
100
AcDbEntity
  8
0
  6
Continuous
 62
     7
370
    15
100
AcDbLine
 10
233.0517392867
 20
132.9543456342
 30
0.0
 11
233.7850403303
 21
133.332501715
 31
0.0
  0
LINE
  5
A3
330
1F
100
AcDbEntity
  8
0
  6
Continuous
 62
     7
370
    15
100
AcDbLine
 10
233.7850403303
 20
133.332501715
 30
0.0
 11
233.570385378
 21
133.0849096086
 31
0.0
  0
LINE
  5
A4
330
1F
100
AcDbEntity
  8
0
  6
Continuous
 62
     7
370
    15
100
AcDbLine
 10
233.8274043315
 20
133.3325110283
 30
0.0
 11
233.5618805402
 21
133.0686170515
 31
0.0
  0
LINE
  5
A5
330
1F
100
AcDbEntity
  8
0
  6
Continuous
 62
     7
370
    15
100
AcDbLine
 10
233.8274043315
 20
133.3325110283
 30
0.0
 11
234.3060855084
 21
133.579361802
 31
0.0
  0
LINE
  5
A6
330
1F
100
AcDbEntity
  8
0
  6
Continuous
 62
     7
370
    15
100
AcDbLine
 10
233.7850403303
 20
133.332501715
 30
0.0
 11
233.8274043315
 21
133.3325110283
 31
0.0
  0
LINE
  5
A7
330
1F
100
AcDbEntity
  8
0
  6
Continuous
 62
     7
370
    15
100
AcDbLine
 10
231.4395528549
 20
136.0591851082
 30
0.0
 11
236.4521283918
 21
138.6441156175
 31
0.0
  0
LINE
  5
A8
330
1F
100
AcDbEntity
  8
0
  6
Continuous
 62
     7
370
    15
100
AcDbLine
 10
228.7887107843
 20
142.7534460928
 30
0.0
 11
228.8541194313
 21
143.1176192965
 31
0.0
  0
LINE
  5
A9
330
1F
100
AcDbEntity
  8
0
  6
Continuous
 62
     7
370
    15
100
AcDbLine
 10
231.2198464089
 20
135.8400113787
 30
0.0
 11
230.9047799819
 21
135.631195819
 31
0.0
  0
LINE
  5
AA
330
1F
100
AcDbEntity
  8
0
  6
Continuous
 62
     7
370
    15
100
AcDbLine
 10
236.3765310758
 20
138.4992577042
 30
0.0
 11
231.2198464089
 21
135.8400113787
 31
0.0
  0
LWPOLYLINE
  5
AB
330
1F
100
AcDbEntity
  8
0
  6
Continuous
 62
     7
370
    15
100
AcDbPolyline
 90
        3
 70
   128
 43
0.0
 10
214.1107969248
 20
125.9727790859
 10
214.2888751143
 20
125.4118081089
 10
214.3253457063
 20
125.0079242419
  0
ARC
  5
AC
330
1F
100
AcDbEntity
  8
0
  6
Continuous
 62
     7
370
    15
100
AcDbCircle
 10
211.3539543009
 20
124.5513780719
 30
0.0
 40
3.101703095931682
100
AcDbArc
 50
27.2751878179
 51
165.9665016441
  0
ARC
  5
AD
330
1F
100
AcDbEntity
  8
0
  6
Continuous
 62
     7
370
    15
100
AcDbCircle
 10
212.0109216766
 20
125.0783958476
 30
0.0
 40
2.173861195099312
100
AcDbArc
 50
338.6117990693
 51
25.0187340541
  0
LWPOLYLINE
  5
AE
330
1F
100
AcDbEntity
  8
0
  6
Continuous
 62
     7
370
    15
100
AcDbPolyline
 90
       14
 70
   128
 43
0.0
 10
208.5555658006
 20
124.4607182126
 10
208.4667567426
 20
125.0001113769
 10
208.5230905825
 20
125.5731243547
 10
208.7304923945
 20
126.1194400396
 10
209.0777844452
 20
126.6096081492
 10
209.5462434256
 20
127.0172014739
 10
210.1106137299
 20
127.3202501144
 10
210.7404709124
 20
127.5024130847
 10
211.401858952
 20
127.5538705196
 10
212.0591212326
 20
127.4718489405
 10
212.6768265181
 20
127.2607721295
 10
213.221672576
 20
126.9320152607
 10
213.6642873549
 20
126.5033051278
 10
213.9808085078
 20
125.997753432
  0
LWPOLYLINE
  5
AF
330
1F
100
AcDbEntity
  8
0
  6
Continuous
 62
     7
370
    15
100
AcDbPolyline
 90
       26
 70
   128
 43
0.0
 10
213.6465549731
 20
125.8819695469
 10
213.8045221829
 20
125.3567874338
 10
213.8067126536
 20
124.8140815552
 10
213.6529904121
 20
124.2879541498
 10
213.3530132734
 20
123.8114634436
 10
212.9256312066
 20
123.4145495947
 10
212.397696104
 20
123.1221515592
 10
211.8023816758
 20
122.9526415374
 10
211.1770935619
 20
122.9166710656
 10
210.5611205363
 20
123.0165004637
 10
209.9931665027
 20
123.2458563428
 10
209.5089178794
 20
123.5903274175
 10
209.1388028377
 20
124.0282706823
 10
208.9060765022
 20
124.5321664866
 10
208.8253606373
 20
125.0703545194
 10
208.9017290884
 20
125.6090193894
 10
209.130381819
 20
126.1143121775
 10
209.496952247
 20
126.5544850286
 10
209.9784069025
 20
126.9018813875
 10
210.5444945657
 20
127.1346710529
 10
211.1596461647
 20
127.2382266726
 10
211.7852099502
 20
127.2060438897
 10
212.3818785214
 20
127.0401436742
 10
212.9121605569
 20
126.7509493884
 10
213.3427389228
 20
126.3566329982
 10
213.6465549731
 20
125.8819695469
  0
SPLINE
  5
B0
330
1F
100
AcDbEntity
  8
0
  6
Continuous
 62
     7
370
    15
100
AcDbSpline
210
0.0
220
0.0
230
1.0
 70
     8
 71
     3
 72
    10
 73
     6
 74
     0
 42
0.00000001
 43
0.00000001
 12
1.0
 22
0.0
 32
0.0
 13
1.0
 23
0.0
 33
0.0
 40
0.0
 40
0.0
 40
0.0
 40
0.0
 40
0.2724671827909605
 40
0.5448123600998692
 40
0.9999999999999999
 40
0.9999999999999999
 40
0.9999999999999999
 40
0.9999999999999999
 10
241.2816841417178
 20
147.742354860528
 30
0.0
 10
241.2626752268183
 20
147.7313057843372
 30
0.0
 10
241.22466590884
 20
147.709212579516
 30
0.0
 10
241.163675766091
 20
147.655289009453
 30
0.0
 10
241.1322805967765
 20
147.6053687340772
 30
0.0
 10
241.1126379185542
 20
147.5741356518106
 30
0.0
  0
LINE
  5
B1
330
1F
100
AcDbEntity
  8
0
  6
Continuous
 62
     7
370
    15
100
AcDbLine
 10
254.7572139912
 20
154.6915411856
 30
0.0
 11
241.2816841417
 21
147.7423548605
 31
0.0
  0
SPLINE
  5
B2
330
1F
100
AcDbEntity
  8
0
  6
Continuous
 62
     7
370
    15
100
AcDbSpline
210
0.0
220
0.0
230
1.0
 70
     8
 71
     3
 72
    15
 73
    11
 74
     0
 42
0.00000001
 43
0.00000001
 12
1.0
 22
0.0
 32
0.0
 13
1.0
 23
0.0
 33
0.0
 40
0.0
 40
0.0
 40
0.0
 40
0.0
 40
0.136899271987423
 40
0.2736128692229355
 40
0.4079032329006839
 40
0.5393431425375038
 40
0.669209010136677
 40
0.7996794346012742
 40
0.9324909381456126
 40
1.0
 40
1.0
 40
1.0
 40
1.0
 10
255.2881423645838
 20
154.158023735507
 30
0.0
 10
255.3052844993255
 20
154.2005571309541
 30
0.0
 10
255.339545519148
 20
154.2855662343417
 30
0.0
 10
255.3333708680003
 20
154.425022937137
 30
0.0
 10
255.2843011264994
 20
154.5520388936963
 30
0.0
 10
255.1960326545026
 20
154.6535686330322
 30
0.0
 10
255.0804446999085
 20
154.7194109319282
 30
0.0
 10
254.9497464734939
 20
154.7434566475945
 30
0.0
 10
254.8382637106396
 20
154.728342436924
 30
0.0
 10
254.7776433611262
 20
154.7008172988429
 30
0.0
 10
254.7572139912471
 20
154.6915411856012
 30
0.0
  0
LINE
  5
B3
330
1F
100
AcDbEntity
  8
0
  6
Continuous
 62
     7
370
    15
100
AcDbLine
 10
248.2732270175
 20
140.7167106774
 30
0.0
 11
255.2881423646
 21
154.1580237355
 31
0.0
  0
SPLINE
  5
B4
330
1F
100
AcDbEntity
  8
0
  6
Continuous
 62
     7
370
    15
100
AcDbSpline
210
0.0
220
0.0
230
1.0
 70
     8
 71
     3
 72
    10
 73
     6
 74
     0
 42
0.00000001
 43
0.00000001
 12
1.0
 22
0.0
 32
0.0
 13
1.0
 23
0.0
 33
0.0
 40
0.0
 40
0.0
 40
0.0
 40
0.0
 40
0.2724661115645968
 40
0.5448204042457695
 40
0.9999999999999999
 40
0.9999999999999999
 40
0.9999999999999999
 40
0.9999999999999999
 10
248.104180794321
 20
140.5484896060066
 30
0.0
 10
248.1231898967913
 20
140.55953847399
 30
0.0
 10
248.1612003004807
 20
140.5816316755504
 30
0.0
 10
248.2221870776937
 20
140.6355595274789
 30
0.0
 10
248.2535837653598
 20
140.6854788125973
 30
0.0
 10
248.2732270174846
 20
140.7167106773691
 30
0.0
  0
LINE
  5
B5
330
1F
100
AcDbEntity
  8
0
  6
Continuous
 62
     7
370
    15
100
AcDbLine
 10
234.6286509448
 20
133.5993032809
 30
0.0
 11
248.1041807943
 21
140.548489606
 31
0.0
  0
LINE
  5
B6
330
1F
100
AcDbEntity
  8
0
  6
Continuous
 62
     7
370
    15
100
AcDbLine
 10
241.1126379186
 20
147.5741356518
 30
0.0
 11
234.0977188462
 21
134.1328225937
 31
0.0
  0
LINE
  5
B7
330
1F
100
AcDbEntity
  8
0
  6
Continuous
 62
     7
370
    15
100
AcDbLine
 10
248.2557516807
 20
140.7264318224
 30
0.0
 11
255.2625645214
 21
154.1522160079
 31
0.0
  0
ARC
  5
B8
330
1F
100
AcDbEntity
  8
0
  6
Continuous
 62
     7
370
    15
100
AcDbCircle
 10
254.9247827862
 20
154.3273600261
 30
0.0
 40
0.3804890638299518
100
AcDbArc
 50
332.592700853
 51
117.1286927968
  0
LINE
  5
B9
330
1F
100
AcDbEntity
  8
0
  6
Continuous
 62
     7
370
    15
100
AcDbLine
 10
254.7512833291
 20
154.6659894194
 30
0.0
 11
241.2913214677
 21
147.7248348203
 31
0.0
  0
ARC
  5
BA
330
1F
100
AcDbEntity
  8
0
  6
Continuous
 62
     7
370
    15
100
AcDbCircle
 10
241.4638222749
 20
147.3902786559
 30
0.0
 40
0.3764098239502294
100
AcDbArc
 50
117.2761254766
 51
152.443823435
  0
LINE
  5
BB
330
1F
100
AcDbEntity
  8
0
  6
Continuous
 62
     7
370
    15
100
AcDbLine
 10
241.1301132553
 20
147.5644126441
 30
0.0
 11
234.1233004146
 21
134.1386303212
 31
0.0
  0
ARC
  5
BC
330
1F
100
AcDbEntity
  8
0
  6
Continuous
 62
     7
370
    15
100
AcDbCircle
 10
234.46108357
 20
133.9634864888
 30
0.0
 40
0.3804902391888809
100
AcDbArc
 50
152.5928241181
 51
297.1283618132
  0
LINE
  5
BD
330
1F
100
AcDbEntity
  8
0
  6
Continuous
 62
     7
370
    15
100
AcDbLine
 10
234.6345816069
 20
133.6248550471
 30
0.0
 11
248.0945434683
 21
140.5660133716
 31
0.0
  0
ARC
  5
BE
330
1F
100
AcDbEntity
  8
0
  6
Continuous
 62
     7
370
    15
100
AcDbCircle
 10
247.9220327746
 20
140.900583515
 30
0.0
 40
0.3764267794533611
100
AcDbArc
 50
297.276487877
 51
332.4421305245
  0
SPLINE
  5
BF
330
1F
100
AcDbEntity
  8
0
  6
Continuous
 62
     7
370
    15
100
AcDbSpline
210
0.0
220
0.0
230
1.0
 70
     8
 71
     3
 72
    15
 73
    11
 74
     0
 42
0.00000001
 43
0.00000001
 12
1.0
 22
0.0
 32
0.0
 13
1.0
 23
0.0
 33
0.0
 40
0.0
 40
0.0
 40
0.0
 40
0.0
 40
0.1368991820107562
 40
0.273614647212034
 40
0.4079014649998206
 40
0.5393416589669185
 40
0.6692139162071048
 40
0.7996766039079228
 40
0.932491698341949
 40
1.0
 40
1.0
 40
1.0
 40
1.0
 10
234.0977188461646
 20
134.1328225936728
 30
0.0
 10
234.080576406816
 20
134.0902892390807
 30
0.0
 10
234.0463145330352
 20
134.0052796090704
 30
0.0
 10
234.0524941054802
 20
133.8658227198256
 30
0.0
 10
234.1015662498292
 20
133.7388099498762
 30
0.0
 10
234.1898279625588
 20
133.6372720938043
 30
0.0
 10
234.305420581642
 20
133.5714365135842
 30
0.0
 10
234.4361182901357
 20
133.5473892601994
 30
0.0
 10
234.5475995425588
 20
133.5625042722765
 30
0.0
 10
234.6082215387218
 20
133.5900279091309
 30
0.0
 10
234.6286509447917
 20
133.5993032809334
 30
0.0
  0
LINE
  5
C0
330
1F
100
AcDbEntity
  8
0
  6
Continuous
 62
     7
370
    15
100
AcDbLine
 10
236.762731921
 20
136.253770059
 30
0.0
 11
234.4442416244
 21
133.9466847386
 31
0.0
  0
LINE
  5
C1
330
1F
100
AcDbEntity
  8
0
  6
Continuous
 62
     7
370
    15
100
AcDbLine
 10
236.762731921
 20
136.253770059
 30
0.0
 11
237.8740679735
 21
136.8268724438
 31
0.0
  0
LINE
  5
C2
330
1F
100
AcDbEntity
  8
0
  6
Continuous
 62
     7
370
    15
100
AcDbLine
 10
247.8025887423
 20
140.9794479515
 30
0.0
 11
247.9042034858
 21
140.8878430631
 31
0.0
  0
LINE
  5
C3
330
1F
100
AcDbEntity
  8
0
  6
Continuous
 62
     7
370
    15
100
AcDbLine
 10
241.5421750658
 20
147.2703978326
 30
0.0
 11
241.4510544651
 21
147.3724707868
 31
0.0
  0
LINE
  5
C4
330
1F
100
AcDbEntity
  8
0
  6
Continuous
 62
     7
370
    15
100
AcDbLine
 10
237.3412583285
 20
137.3622823413
 30
0.0
 11
236.762731921
 21
136.253770059
 31
0.0
  0
SPLINE
  5
C5
330
1F
100
AcDbEntity
  8
0
  6
Continuous
 62
     7
370
    15
100
AcDbSpline
210
0.0
220
0.0
230
1.0
 70
     8
 71
     3
 72
    14
 73
    10
 74
     0
 42
0.00000001
 43
0.00000001
 12
1.0
 22
0.0
 32
0.0
 13
1.0
 23
0.0
 33
0.0
 40
0.0
 40
0.0
 40
0.0
 40
0.0
 40
0.2055177502652142
 40
0.3570152159598914
 40
0.4668447713089182
 40
0.5770792454679518
 40
0.7093670702414242
 40
0.9240594190478902
 40
1.0
 40
1.0
 40
1.0
 40
1.0
 10
237.9017655068263
 20
137.4412231054144
 30
0.0
 10
237.8666318330731
 20
137.4749408532169
 30
0.0
 10
237.8055993621246
 20
137.5335136480136
 30
0.0
 10
237.705892811058
 20
137.5849076360784
 30
0.0
 10
237.6176798906307
 20
137.5978789693365
 30
0.0
 10
237.5350057021729
 20
137.5788765955438
 30
0.0
 10
237.4443266656265
 20
137.5179023027878
 30
0.0
 10
237.3825875946056
 20
137.4377953573822
 30
0.0
 10
237.3498202359822
 20
137.3779258675129
 30
0.0
 10
237.3412583285197
 20
137.3622823413448
 30
0.0
  0
SPLINE
  5
C6
330
1F
100
AcDbEntity
  8
0
  6
Continuous
 62
     7
370
    15
100
AcDbSpline
210
0.0
220
0.0
230
1.0
 70
     8
 71
     3
 72
    14
 73
    10
 74
     0
 42
0.00000001
 43
0.00000001
 12
1.0
 22
0.0
 32
0.0
 13
1.0
 23
0.0
 33
0.0
 40
0.0
 40
0.0
 40
0.0
 40
0.0
 40
0.2086052694709715
 40
0.3652028141833054
 40
0.4768516670709376
 40
0.5890208708845764
 40
0.7185659450481855
 40
0.9352547260693906
 40
0.9999999999999999
 40
0.9999999999999999
 40
0.9999999999999999
 40
0.9999999999999999
 10
237.8740679734572
 20
136.826872443779
 30
0.0
 10
237.9167265508112
 20
136.8514383898369
 30
0.0
 10
237.991408425043
 20
136.8944457053095
 30
0.0
 10
238.0686730892641
 20
136.978462963775
 30
0.0
 10
238.1055255481479
 20
137.0616470475309
 30
0.0
 10
238.1091281336874
 20
137.1468268956639
 30
0.0
 10
238.0734189156121
 20
137.2508718106938
 30
0.0
 10
238.0133827510355
 20
137.3291642608161
 30
0.0
 10
237.9665218225954
 20
137.376170684736
 30
0.0
 10
237.9557412379607
 20
137.3869847413139
 30
0.0
  0
ARC
  5
C7
330
1F
100
AcDbEntity
  8
0
  6
Continuous
 62
     7
370
    15
100
AcDbCircle
 10
239.6711852203
 20
139.1481763844
 30
0.0
 40
1.001287342716554
100
AcDbArc
 50
152.5926168595
 51
297.1285436186
  0
ARC
  5
C8
330
1F
100
AcDbEntity
  8
0
  6
Continuous
 62
     7
370
    15
100
AcDbCircle
 10
239.6399566106
 20
139.1170211745
 30
0.0
 40
2.414458009902669
100
AcDbArc
 50
223.9529962008
 51
225.7688934303
  0
LINE
  5
C9
330
1F
100
AcDbEntity
  8
0
  6
Continuous
 62
     7
370
    15
100
AcDbLine
 10
242.2234561556
 20
146.2027184572
 30
0.0
 11
238.7822862976
 21
139.6090831514
 31
0.0
  0
ARC
  5
CA
330
1F
100
AcDbEntity
  8
0
  6
Continuous
 62
     7
370
    15
100
AcDbCircle
 10
243.1016268532
 20
145.7444768222
 30
0.0
 40
0.9905398377349287
100
AcDbArc
 50
117.2762538523
 51
152.4438233102
  0
LINE
  5
CB
330
1F
100
AcDbEntity
  8
0
  6
Continuous
 62
     7
370
    15
100
AcDbLine
 10
249.2581043654
 20
150.0337995496
 30
0.0
 11
242.6476810389
 21
146.6248758044
 31
0.0
  0
ARC
  5
CC
330
1F
100
AcDbEntity
  8
0
  6
Continuous
 62
     7
370
    15
100
AcDbCircle
 10
249.7146809317
 20
149.1426705622
 30
0.0
 40
1.001285690014893
100
AcDbArc
 50
332.5926480905
 51
117.1286702539
  0
LINE
  5
CD
330
1F
100
AcDbEntity
  8
0
  6
Continuous
 62
     7
370
    15
100
AcDbLine
 10
247.1624087804
 20
142.088127872
 30
0.0
 11
250.6035786384
 21
148.6817650404
 31
0.0
  0
ARC
  5
CE
330
1F
100
AcDbEntity
  8
0
  6
Continuous
 62
     7
370
    15
100
AcDbCircle
 10
246.2842380828
 20
142.546369507
 30
0.0
 40
0.9905398377349011
100
AcDbArc
 50
297.2762538523
 51
332.4438233102
  0
LINE
  5
CF
330
1F
100
AcDbEntity
  8
0
  6
Continuous
 62
     7
370
    15
100
AcDbLine
 10
240.1277605706
 20
138.257044917
 30
0.0
 11
246.7381838971
 21
141.6659705248
 31
0.0
  0
CIRCLE
  5
D0
330
1F
100
AcDbEntity
  8
0
  6
Continuous
 62
     7
370
    15
100
AcDbCircle
 10
244.6975354546
 20
144.135631891
 30
0.0
 40
3.040049495033271
  0
ARC
  5
D1
330
1F
100
AcDbEntity
  8
0
  6
Continuous
 62
     7
370
    15
100
AcDbCircle
 10
244.6149032343
 20
144.065710805
 30
0.0
 40
3.051354193415504
100
AcDbArc
 50
332.5237392022
 51
134.6831206968
  0
LWPOLYLINE
  5
D2
330
1F
100
AcDbEntity
  8
0
  6
Continuous
 62
     7
370
    15
100
AcDbPolyline
 90
        3
 70
   128
 43
0.0
 10
246.777321797
 20
141.9166341331
 10
246.9417859131
 20
142.0944124367
 10
247.3220709973
 20
142.6578737702
  0
LINE
  5
D3
330
1F
100
AcDbEntity
  8
0
  6
Continuous
 62
     7
370
    15
100
AcDbLine
 10
252.5115195924
 20
151.9257366564
 30
0.0
 11
254.9110163265
 21
154.313625386
 31
0.0
  0
LINE
  5
D4
330
1F
100
AcDbEntity
  8
0
  6
Continuous
 62
     7
370
    15
100
AcDbLine
 10
251.9329969102
 20
150.817224374
 30
0.0
 11
252.5115195924
 21
151.9257366564
 31
0.0
  0
LINE
  5
D5
330
1F
100
AcDbEntity
  8
0
  6
Continuous
 62
     7
370
    15
100
AcDbLine
 10
252.5115195924
 20
151.9257366564
 30
0.0
 11
251.4001872652
 21
151.3526342716
 31
0.0
  0
SPLINE
  5
D6
330
1F
100
AcDbEntity
  8
0
  6
Continuous
 62
     7
370
    15
100
AcDbSpline
210
0.0
220
0.0
230
1.0
 70
     8
 71
     3
 72
    11
 73
     7
 74
     0
 42
0.00000001
 43
0.00000001
 12
1.0
 22
0.0
 32
0.0
 13
1.0
 23
0.0
 33
0.0
 40
0.0
 40
0.0
 40
0.0
 40
0.0
 40
0.3241900632557188
 40
0.6482228489521538
 40
0.9887974031148132
 40
0.9999999999999999
 40
0.9999999999999999
 40
0.9999999999999999
 40
0.9999999999999999
 10
247.8025887423381
 20
140.979447951539
 30
0.0
 10
247.7489783613119
 20
141.0289624448464
 30
0.0
 10
247.6417836077985
 20
141.127967410001
 30
0.0
 10
247.4685856822345
 20
141.3027004772092
 30
0.0
 10
247.3613893384691
 20
141.418128566206
 30
0.0
 10
247.3121719180049
 20
141.4734876138836
 30
0.0
 10
247.3106045537814
 20
141.4752505626516
 30
0.0
  0
SPLINE
  5
D7
330
1F
100
AcDbEntity
  8
0
  6
Continuous
 62
     7
370
    15
100
AcDbSpline
210
0.0
220
0.0
230
1.0
 70
     8
 71
     3
 72
    11
 73
     7
 74
     0
 42
0.00000001
 43
0.00000001
 12
1.0
 22
0.0
 32
0.0
 13
1.0
 23
0.0
 33
0.0
 40
0.0
 40
0.0
 40
0.0
 40
0.0
 40
0.3241864766504668
 40
0.6482225628506066
 40
0.9887984275481783
 40
1.0
 40
1.0
 40
1.0
 40
1.0
 10
241.5421750658378
 20
147.2703978326159
 30
0.0
 10
241.5914330704092
 20
147.2165425694653
 30
0.0
 10
241.6899262287114
 20
147.108857026678
 30
0.0
 10
241.8638237303362
 20
146.9348237716177
 30
0.0
 10
241.9786922128998
 20
146.8270408652415
 30
0.0
 10
242.0338230700983
 20
146.777585624302
 30
0.0
 10
242.0355785899982
 20
146.7760108318167
 30
0.0
  0
ARC
  5
D8
330
1F
100
AcDbEntity
  8
0
  6
Continuous
 62
     7
370
    15
100
AcDbCircle
 10
249.6544291915
 20
149.0824654714
 30
0.0
 40
2.386097042475809
100
AcDbArc
 50
43.9432031532
 51
45.7806541311
  0
SPLINE
  5
D9
330
1F
100
AcDbEntity
  8
0
  6
Continuous
 62
     7
370
    15
100
AcDbSpline
210
0.0
220
0.0
230
1.0
 70
     8
 71
     3
 72
    14
 73
    10
 74
     0
 42
0.00000001
 43
0.00000001
 12
1.0
 22
0.0
 32
0.0
 13
1.0
 23
0.0
 33
0.0
 40
0.0
 40
0.0
 40
0.0
 40
0.0
 40
0.2055214130132306
 40
0.3570186346476514
 40
0.4668480165071731
 40
0.5770823140499263
 40
0.7093685223384028
 40
0.9240592348538264
 40
1.0
 40
1.0
 40
1.0
 40
1.0
 10
251.3724860065802
 20
150.7382854726152
 30
0.0
 10
251.4076210451443
 20
150.7045678494962
 30
0.0
 10
251.4686553836713
 20
150.6459957542919
 30
0.0
 10
251.5683623303818
 20
150.5946009243607
 30
0.0
 10
251.6565754749324
 20
150.5816294960552
 30
0.0
 10
251.7392487290007
 20
150.6006324270227
 30
0.0
 10
251.829930556936
 20
150.6616025847129
 30
0.0
 10
251.8916606357278
 20
150.7417156513729
 30
0.0
 10
251.9244335004494
 20
150.8015816452542
 30
0.0
 10
251.9329969101771
 20
150.8172243740397
 30
0.0
  0
SPLINE
  5
DA
330
1F
100
AcDbEntity
  8
0
  6
Continuous
 62
     7
370
    15
100
AcDbSpline
210
0.0
220
0.0
230
1.0
 70
     8
 71
     3
 72
    14
 73
    10
 74
     0
 42
0.00000001
 43
0.00000001
 12
1.0
 22
0.0
 32
0.0
 13
1.0
 23
0.0
 33
0.0
 40
0.0
 40
0.0
 40
0.0
 40
0.0
 40
0.2086093321156419
 40
0.3652046742749183
 40
0.4768557653699722
 40
0.5890193038988671
 40
0.7185651154345808
 40
0.9352566200590953
 40
1.0
 40
1.0
 40
1.0
 40
1.0
 10
251.4001872652396
 20
151.3526342716055
 30
0.0
 10
251.3575273746978
 20
151.3280684127129
 30
0.0
 10
251.2828442755674
 20
151.2850618683547
 30
0.0
 10
251.2055780165124
 20
151.2010450775353
 30
0.0
 10
251.1687251281253
 20
151.1178612281434
 30
0.0
 10
251.1651301275945
 20
151.0326825978284
 30
0.0
 10
251.2008283131772
 20
150.9286344381537
 30
0.0
 10
251.2608750651003
 20
150.8503482012744
 30
0.0
 10
251.3077311517863
 20
150.8033368223215
 30
0.0
 10
251.3185102754459
 20
150.7925219740706
 30
0.0
  0
CIRCLE
  5
DB
330
1F
100
AcDbEntity
  8
0
  6
Continuous
 62
     7
370
    15
100
AcDbCircle
 10
244.5163162431
 20
143.9671649697
 30
0.0
 40
2.621678280368283
  0
CIRCLE
  5
DC
330
1F
100
AcDbEntity
  8
0
  6
Continuous
 62
     7
370
    15
100
AcDbCircle
 10
244.5373335538
 20
143.9885930802
 30
0.0
 40
1.797813745307094
  0
ARC
  5
DD
330
1F
100
AcDbEntity
  8
0
  6
Continuous
 62
     7
370
    15
100
AcDbCircle
 10
244.5329809802
 20
144.000315345
 30
0.0
 40
1.665016762407139
100
AcDbArc
 50
76.7626898182
 51
135.5061078695
  0
ARC
  5
DE
330
1F
100
AcDbEntity
  8
0
  6
Continuous
 62
     7
370
    15
100
AcDbCircle
 10
244.5355742033
 20
144.0019876271
 30
0.0
 40
1.665697302999928
100
AcDbArc
 50
135.6096545662
 51
195.8470879526
  0
ARC
  5
DF
330
1F
100
AcDbEntity
  8
0
  6
Continuous
 62
     7
370
    15
100
AcDbCircle
 10
244.551682236
 20
144.0048935508
 30
0.0
 40
1.681987419542998
100
AcDbArc
 50
195.7924775449
 51
254.1254041159
  0
LINE
  5
E0
330
1F
100
AcDbEntity
  8
0
  6
Continuous
 62
     7
370
    15
100
AcDbLine
 10
244.1737909132
 20
142.3659339454
 30
0.0
 11
244.0916035586
 21
142.3870526161
 31
0.0
  0
ARC
  5
E1
330
1F
100
AcDbEntity
  8
0
  6
Continuous
 62
     7
370
    15
100
AcDbCircle
 10
244.5489824524
 20
143.9883368512
 30
0.0
 40
1.665220670056739
100
AcDbArc
 50
256.9788683949
 51
313.556015586
  0
LINE
  5
E2
330
1F
100
AcDbEntity
  8
0
  6
Continuous
 62
     7
370
    15
100
AcDbLine
 10
245.779752385
 20
142.8668215778
 30
0.0
 11
245.6964250916
 21
142.7815496828
 31
0.0
  0
ARC
  5
E3
330
1F
100
AcDbEntity
  8
0
  6
Continuous
 62
     7
370
    15
100
AcDbCircle
 10
244.5464341408
 20
143.9862979684
 30
0.0
 40
1.665623391047298
100
AcDbArc
 50
317.770141742
 51
13.6866230266
  0
LINE
  5
E4
330
1F
100
AcDbEntity
  8
0
  6
Continuous
 62
     7
370
    15
100
AcDbLine
 10
246.1324367934
 20
144.4956228044
 30
0.0
 11
246.1647611373
 21
144.3804033007
 31
0.0
  0
ARC
  5
E5
330
1F
100
AcDbEntity
  8
0
  6
Continuous
 62
     7
370
    15
100
AcDbCircle
 10
244.5302327447
 20
143.983473556
 30
0.0
 40
1.682068567674118
100
AcDbArc
 50
17.7266322697
 51
73.9121022462
  0
LINE
  5
E6
330
1F
100
AcDbEntity
  8
0
  6
Continuous
 62
     7
370
    15
100
AcDbLine
 10
244.9142445141
 20
145.6210926082
 30
0.0
 11
244.9963536375
 21
145.5996684637
 31
0.0
  0
SPLINE
  5
E7
330
1F
100
AcDbEntity
  8
0
  6
Continuous
 62
     7
370
    15
100
AcDbSpline
210
0.0
220
0.0
230
1.0
 70
     8
 71
     3
 72
    12
 73
     8
 74
     0
 42
0.00000001
 43
0.00000001
 12
1.0
 22
0.0
 32
0.0
 13
1.0
 23
0.0
 33
0.0
 40
0.0
 40
0.0
 40
0.0
 40
0.0
 40
0.009174516217674
 40
0.2576735996792037
 40
0.5061897947521967
 40
0.7560296682206937
 40
1.0
 40
1.0
 40
1.0
 40
1.0
 10
242.9331835621223
 20
143.5471340920763
 30
0.0
 10
242.9335619931753
 20
143.5458171937834
 30
0.0
 10
242.9441905308937
 20
143.5088310557143
 30
0.0
 10
242.9780414456436
 20
143.43909755066
 30
0.0
 10
243.0577888707116
 20
143.3590552976245
 30
0.0
 10
243.1581500546436
 20
143.3071222167862
 30
0.0
 10
243.2307481041104
 20
143.3022917344667
 30
0.0
 10
243.2666156702861
 20
143.2999052014189
 30
0.0
  0
SPLINE
  5
E8
330
1F
100
AcDbEntity
  8
0
  6
Continuous
 62
     7
370
    15
100
AcDbSpline
210
0.0
220
0.0
230
1.0
 70
     8
 71
     3
 72
    12
 73
     8
 74
     0
 42
0.00000001
 43
0.00000001
 12
1.0
 22
0.0
 32
0.0
 13
1.0
 23
0.0
 33
0.0
 40
0.0
 40
0.0
 40
0.0
 40
0.0
 40
0.2057502851070963
 40
0.4119595853580043
 40
0.6140136124372626
 40
0.813140224290599
 40
1.0
 40
1.0
 40
1.0
 40
1.0
 10
243.2666156702861
 20
143.2999052014189
 30
0.0
 10
243.3312265572237
 20
143.2954500776639
 30
0.0
 10
243.4605924736724
 20
143.2865298910703
 30
0.0
 10
243.6382375256117
 20
143.1928949417302
 30
0.0
 10
243.7755963951311
 20
143.0526594663387
 30
0.0
 10
243.8622290652534
 20
142.8817593053804
 30
0.0
 10
243.872106998056
 20
142.7608775154448
 30
0.0
 10
243.8768890016898
 20
142.7023574616747
 30
0.0
  0
SPLINE
  5
E9
330
1F
100
AcDbEntity
  8
0
  6
Continuous
 62
     7
370
    15
100
AcDbSpline
210
0.0
220
0.0
230
1.0
 70
     8
 71
     3
 72
    11
 73
     7
 74
     0
 42
0.00000001
 43
0.00000001
 12
1.0
 22
0.0
 32
0.0
 13
1.0
 23
0.0
 33
0.0
 40
0.0
 40
0.0
 40
0.0
 40
0.0
 40
0.2794059411260188
 40
0.5596199864953088
 40
0.8375001482816429
 40
1.0
 40
1.0
 40
1.0
 40
1.0
 10
243.8768890016898
 20
142.7023574616747
 30
0.0
 10
243.8803006069537
 20
142.6650670086525
 30
0.0
 10
243.8871336846041
 20
142.5903782503083
 30
0.0
 10
243.9443397268692
 20
142.4898799356604
 30
0.0
 10
244.0171059161738
 20
142.4216254137073
 30
0.0
 10
244.0715235119172
 20
142.3963713457676
 30
0.0
 10
244.0916035586223
 20
142.3870526161032
 30
0.0
  0
SPLINE
  5
EA
330
1F
100
AcDbEntity
  8
0
  6
Continuous
 62
     7
370
    15
100
AcDbSpline
210
0.0
220
0.0
230
1.0
 70
     8
 71
     3
 72
    11
 73
     7
 74
     0
 42
0.00000001
 43
0.00000001
 12
1.0
 22
0.0
 32
0.0
 13
1.0
 23
0.0
 33
0.0
 40
0.0
 40
0.0
 40
0.0
 40
0.0
 40
0.2431078580470361
 40
0.5182799037129144
 40
0.794778453709114
 40
1.0
 40
1.0
 40
1.0
 40
1.0
 10
244.1737909131869
 20
142.3659339454012
 30
0.0
 10
244.206780321248
 20
142.3645931402388
 30
0.0
 10
244.2771102043328
 20
142.3617346873034
 30
0.0
 10
244.3789737645599
 20
142.3994067866157
 30
0.0
 10
244.4600871112244
 20
142.4618161245944
 30
0.0
 10
244.4933085157383
 20
142.5160119357132
 30
0.0
 10
244.5074614399299
 20
142.5391003396349
 30
0.0
  0
SPLINE
  5
EB
330
1F
100
AcDbEntity
  8
0
  6
Continuous
 62
     7
370
    15
100
AcDbSpline
210
0.0
220
0.0
230
1.0
 70
     8
 71
     3
 72
    12
 73
     8
 74
     0
 42
0.00000001
 43
0.00000001
 12
1.0
 22
0.0
 32
0.0
 13
1.0
 23
0.0
 33
0.0
 40
0.0
 40
0.0
 40
0.0
 40
0.0
 40
0.2058197135135523
 40
0.4120209249206628
 40
0.6140784980603144
 40
0.8132126276250405
 40
1.0
 40
1.0
 40
1.0
 40
1.0
 10
244.5074614399299
 20
142.5391003396349
 30
0.0
 10
244.5424355877365
 20
142.5930804564921
 30
0.0
 10
244.6124487098114
 20
142.7011407452524
 30
0.0
 10
244.7801444833798
 20
142.808181957864
 30
0.0
 10
244.9698144508961
 20
142.8563762757382
 30
0.0
 10
245.1623331091983
 20
142.8447780075568
 30
0.0
 10
245.2736528140578
 20
142.7919118356428
 30
0.0
 10
245.3275319450721
 20
142.7663244213896
 30
0.0
  0
SPLINE
  5
EC
330
1F
100
AcDbEntity
  8
0
  6
Continuous
 62
     7
370
    15
100
AcDbSpline
210
0.0
220
0.0
230
1.0
 70
     8
 71
     3
 72
    11
 73
     7
 74
     0
 42
0.00000001
 43
0.00000001
 12
1.0
 22
0.0
 32
0.0
 13
1.0
 23
0.0
 33
0.0
 40
0.0
 40
0.0
 40
0.0
 40
0.0
 40
0.2908620972926373
 40
0.5839607113163447
 40
0.8745957531880945
 40
1.0
 40
1.0
 40
1.0
 40
1.0
 10
245.3275319450721
 20
142.7663244213896
 30
0.0
 10
245.3618872542263
 20
142.7503941519771
 30
0.0
 10
245.4308620397276
 20
142.7184111210351
 30
0.0
 10
245.5473092318467
 20
142.716720184311
 30
0.0
 10
245.6373814863326
 20
142.7434743429618
 30
0.0
 10
245.6827499466077
 20
142.7727310175374
 30
0.0
 10
245.696425091587
 20
142.7815496828394
 30
0.0
  0
SPLINE
  5
ED
330
1F
100
AcDbEntity
  8
0
  6
Continuous
 62
     7
370
    15
100
AcDbSpline
210
0.0
220
0.0
230
1.0
 70
     8
 71
     3
 72
    11
 73
     7
 74
     0
 42
0.00000001
 43
0.00000001
 12
1.0
 22
0.0
 32
0.0
 13
1.0
 23
0.0
 33
0.0
 40
0.0
 40
0.0
 40
0.0
 40
0.0
 40
0.2535046378744173
 40
0.5075637760905307
 40
0.7595042153692837
 40
1.0
 40
1.0
 40
1.0
 40
1.0
 10
243.0900592618808
 20
143.9269386138754
 30
0.0
 10
243.0593106334247
 20
143.9060195534296
 30
0.0
 10
242.9977461188673
 20
143.864135675481
 30
0.0
 10
242.939367369512
 20
143.7659812490841
 30
0.0
 10
242.9131145582949
 20
143.6558426382632
 30
0.0
 10
242.9265983526267
 20
143.5828044500449
 30
0.0
 10
242.9331835621223
 20
143.5471340920763
 30
0.0
  0
SPLINE
  5
EE
330
1F
100
AcDbEntity
  8
0
  6
Continuous
 62
     7
370
    15
100
AcDbSpline
210
0.0
220
0.0
230
1.0
 70
     8
 71
     3
 72
    12
 73
     8
 74
     0
 42
0.00000001
 43
0.00000001
 12
1.0
 22
0.0
 32
0.0
 13
1.0
 23
0.0
 33
0.0
 40
0.0
 40
0.0
 40
0.0
 40
0.0
 40
0.009169440783853
 40
0.2573254362117416
 40
0.5054919561465162
 40
0.7549937991900063
 40
1.0
 40
1.0
 40
1.0
 40
1.0
 10
243.3452826255187
 20
145.1672144141035
 30
0.0
 10
243.3443307229098
 20
145.1662343226684
 30
0.0
 10
243.317617125009
 20
145.1387296512256
 30
0.0
 10
243.2742077545651
 20
145.0747510888089
 30
0.0
 10
243.245110012197
 20
144.9652856760276
 30
0.0
 10
243.2508531689699
 20
144.8512125245599
 30
0.0
 10
243.2836213133404
 20
144.7846736768993
 30
0.0
 10
243.2998564356193
 20
144.751706710084
 30
0.0
  0
SPLINE
  5
EF
330
1F
100
AcDbEntity
  8
0
  6
Continuous
 62
     7
370
    15
100
AcDbSpline
210
0.0
220
0.0
230
1.0
 70
     8
 71
     3
 72
    12
 73
     8
 74
     0
 42
0.00000001
 43
0.00000001
 12
1.0
 22
0.0
 32
0.0
 13
1.0
 23
0.0
 33
0.0
 40
0.0
 40
0.0
 40
0.0
 40
0.0
 40
0.2058432834671562
 40
0.4120697264982041
 40
0.6141408500454418
 40
0.81325898202108
 40
1.0
 40
1.0
 40
1.0
 40
1.0
 10
243.2998564356193
 20
144.751706710084
 30
0.0
 10
243.32883670889
 20
144.6925827202989
 30
0.0
 10
243.3868511997172
 20
144.574224686508
 30
0.0
 10
243.3957077417713
 20
144.3724152445278
 30
0.0
 10
243.3434459146249
 20
144.1840428515134
 30
0.0
 10
243.2386803691189
 20
144.0259210521674
 30
0.0
 10
243.1385287846177
 20
143.9592195706823
 30
0.0
 10
243.0900592618808
 20
143.9269386138754
 30
0.0
  0
LWPOLYLINE
  5
F0
330
1F
100
AcDbEntity
  8
0
  6
Continuous
 62
     7
370
    15
100
AcDbPolyline
 90
        3
 70
   128
 43
0.0
 10
242.9951276892
 20
143.8322342839
 10
243.0928904825
 20
143.8997886982
 10
243.1257326418
 20
143.9301237371
  0
LWPOLYLINE
  5
F1
330
1F
100
AcDbEntity
  8
0
  6
Continuous
 62
     7
370
    15
100
AcDbPolyline
 90
        3
 70
   128
 43
0.0
 10
244.5172067994
 20
142.5868511107
 10
244.4779571408
 20
142.5435408857
 10
244.4124926144
 20
142.4443624821
  0
ARC
  5
F2
330
1F
100
AcDbEntity
  8
0
  6
Continuous
 62
     7
370
    15
100
AcDbCircle
 10
245.4049093919
 20
142.9557792821
 30
0.0
 40
0.3340183432273993
100
AcDbArc
 50
326.3209374439
 51
32.5182192436
  0
SPLINE
  5
F3
330
1F
100
AcDbEntity
  8
0
  6
Continuous
 62
     7
370
    15
100
AcDbSpline
210
0.0
220
0.0
230
1.0
 70
     8
 71
     3
 72
    11
 73
     7
 74
     0
 42
0.00000001
 43
0.00000001
 12
1.0
 22
0.0
 32
0.0
 13
1.0
 23
0.0
 33
0.0
 40
0.0
 40
0.0
 40
0.0
 40
0.0
 40
0.2669051768297547
 40
0.5546184208107383
 40
0.8439086701584307
 40
1.0
 40
1.0
 40
1.0
 40
1.0
 10
245.779752384983
 20
142.8668215777712
 30
0.0
 10
245.7963757616351
 20
142.8971580163038
 30
0.0
 10
245.8309184820757
 20
142.9601959379799
 30
0.0
 10
245.8407462963622
 20
143.0703808310849
 30
0.0
 10
245.8202725602335
 20
143.1636178678274
 30
0.0
 10
245.7916003498452
 20
143.2128446483192
 30
0.0
 10
245.7815517001971
 20
143.230096986516
 30
0.0
  0
ARC
  5
F4
330
1F
100
AcDbEntity
  8
0
  6
Continuous
 62
     7
370
    15
100
AcDbCircle
 10
243.4853721845
 20
144.8354171356
 30
0.0
 40
0.3339936478014934
100
AcDbArc
 50
58.6901820161
 51
121.3270303847
  0
SPLINE
  5
F5
330
1F
100
AcDbEntity
  8
0
  6
Continuous
 62
     7
370
    15
100
AcDbSpline
210
0.0
220
0.0
230
1.0
 70
     8
 71
     3
 72
    11
 73
     7
 74
     0
 42
0.00000001
 43
0.00000001
 12
1.0
 22
0.0
 32
0.0
 13
1.0
 23
0.0
 33
0.0
 40
0.0
 40
0.0
 40
0.0
 40
0.0
 40
0.2524792880418218
 40
0.5068907308931975
 40
0.7591805114880479
 40
1.0
 40
1.0
 40
1.0
 40
1.0
 10
243.7538799160346
 20
145.2154830005007
 30
0.0
 10
243.7203067812287
 20
145.2322111057625
 30
0.0
 10
243.6529035856155
 20
145.2657953318921
 30
0.0
 10
243.5383615025116
 20
145.2690877132841
 30
0.0
 10
243.4294745717417
 20
145.2381930099817
 30
0.0
 10
243.3729080063418
 20
145.1905041802794
 30
0.0
 10
243.3452826255187
 20
145.1672144141035
 30
0.0
  0
SPLINE
  5
F6
330
1F
100
AcDbEntity
  8
0
  6
Continuous
 62
     7
370
    15
100
AcDbSpline
210
0.0
220
0.0
230
1.0
 70
     8
 71
     3
 72
    12
 73
     8
 74
     0
 42
0.00000001
 43
0.00000001
 12
1.0
 22
0.0
 32
0.0
 13
1.0
 23
0.0
 33
0.0
 40
0.0
 40
0.0
 40
0.0
 40
0.0
 40
0.2058392521173729
 40
0.4120639044593805
 40
0.6141379198811678
 40
0.8132774785013586
 40
1.0
 40
1.0
 40
1.0
 40
1.0
 10
245.7815517001971
 20
143.230096986516
 30
0.0
 10
245.751210455259
 20
143.2878614250914
 30
0.0
 10
245.6904711563801
 20
143.4034984566752
 30
0.0
 10
245.6794233375939
 20
143.6031204940455
 30
0.0
 10
245.7318442226799
 20
143.7916599326292
 30
0.0
 10
245.8389276468324
 20
143.9520902451583
 30
0.0
 10
245.94164359759
 20
144.0213497266309
 30
0.0
 10
245.9913488739356
 20
144.0548650827246
 30
0.0
  0
SPLINE
  5
F7
330
1F
100
AcDbEntity
  8
0
  6
Continuous
 62
     7
370
    15
100
AcDbSpline
210
0.0
220
0.0
230
1.0
 70
     8
 71
     3
 72
    11
 73
     7
 74
     0
 42
0.00000001
 43
0.00000001
 12
1.0
 22
0.0
 32
0.0
 13
1.0
 23
0.0
 33
0.0
 40
0.0
 40
0.0
 40
0.0
 40
0.0
 40
0.29290326283062
 40
0.5864334124840079
 40
0.8775203063483911
 40
1.0
 40
1.0
 40
1.0
 40
1.0
 10
245.9913488739356
 20
144.0548650827246
 30
0.0
 10
246.0228802661358
 20
144.076573876505
 30
0.0
 10
246.0860105356643
 20
144.1200379263571
 30
0.0
 10
246.1463233057497
 20
144.2199968275642
 30
0.0
 10
246.1681536751554
 20
144.3109462909779
 30
0.0
 10
246.16553628867
 20
144.3645332656814
 30
0.0
 10
246.164761137329
 20
144.380403300746
 30
0.0
  0
SPLINE
  5
F8
330
1F
100
AcDbEntity
  8
0
  6
Continuous
 62
     7
370
    15
100
AcDbSpline
210
0.0
220
0.0
230
1.0
 70
     8
 71
     3
 72
    12
 73
     8
 74
     0
 42
0.00000001
 43
0.00000001
 12
1.0
 22
0.0
 32
0.0
 13
1.0
 23
0.0
 33
0.0
 40
0.0
 40
0.0
 40
0.0
 40
0.0
 40
0.2058569888000989
 40
0.4121042397452431
 40
0.6141934173979262
 40
0.8133201648392079
 40
1.0
 40
1.0
 40
1.0
 40
1.0
 10
244.5739466958865
 20
145.4427033569651
 30
0.0
 10
244.5376046277767
 20
145.3873575108719
 30
0.0
 10
244.4648515945351
 20
145.276560894443
 30
0.0
 10
244.2949321902629
 20
145.1673329216577
 30
0.0
 10
244.1053945151678
 20
145.1193160199609
 30
0.0
 10
243.9152092834297
 20
145.1332504251583
 30
0.0
 10
243.8064871723423
 20
145.1886681047521
 30
0.0
 10
243.7538799160346
 20
145.2154830005007
 30
0.0
  0
SPLINE
  5
F9
330
1F
100
AcDbEntity
  8
0
  6
Continuous
 62
     7
370
    15
100
AcDbSpline
210
0.0
220
0.0
230
1.0
 70
     8
 71
     3
 72
    11
 73
     7
 74
     0
 42
0.00000001
 43
0.00000001
 12
1.0
 22
0.0
 32
0.0
 13
1.0
 23
0.0
 33
0.0
 40
0.0
 40
0.0
 40
0.0
 40
0.0
 40
0.2423572829499331
 40
0.5166826533276427
 40
0.7923289042816901
 40
1.0
 40
1.0
 40
1.0
 40
1.0
 10
244.9142445140704
 20
145.6210926081972
 30
0.0
 10
244.8811211094937
 20
145.6224190727964
 30
0.0
 10
244.8105051644903
 20
145.6252469690341
 30
0.0
 10
244.7072399574055
 20
145.5866849676862
 30
0.0
 10
244.623824305249
 20
145.5226243900321
 30
0.0
 10
244.5889370157713
 20
145.4667229895519
 30
0.0
 10
244.5739466958865
 20
145.4427033569651
 30
0.0
  0
ARC
  5
FA
330
1F
100
AcDbEntity
  8
0
  6
Continuous
 62
     7
370
    15
100
AcDbCircle
 10
244.4776797636
 20
143.9310655723
 30
0.0
 40
2.625014378660735
100
AcDbArc
 50
135.1290416024
 51
314.7311852474
  0
ARC
  5
FB
330
1F
100
AcDbEntity
  8
0
  6
Continuous
 62
     7
370
    15
100
AcDbCircle
 10
243.9625904994
 20
145.6192295064
 30
0.0
 40
0.583666008361268
100
AcDbArc
 50
238.6508520942
 51
314.8572097147
  0
ARC
  5
FC
330
1F
100
AcDbEntity
  8
0
  6
Continuous
 62
     7
370
    15
100
AcDbCircle
 10
246.1791263444
 20
143.4494279194
 30
0.0
 40
0.5841869000012706
100
AcDbArc
 50
135.040905236
 51
212.5241624151
  0
ARC
  5
FD
330
1F
100
AcDbEntity
  8
0
  6
Continuous
 62
     7
370
    15
100
AcDbCircle
 10
245.7331895334
 20
144.2521066615
 30
0.0
 40
0.335306169601271
100
AcDbArc
 50
325.0775735494
 51
92.2870640517
  0
SPLINE
  5
FE
330
1F
100
AcDbEntity
  8
0
  6
Continuous
 62
     7
370
    15
100
AcDbSpline
210
0.0
220
0.0
230
1.0
 70
     8
 71
     3
 72
    11
 73
     7
 74
     0
 42
0.00000001
 43
0.00000001
 12
1.0
 22
0.0
 32
0.0
 13
1.0
 23
0.0
 33
0.0
 40
0.0
 40
0.0
 40
0.0
 40
0.0
 40
0.2657622173696267
 40
0.5530057234729299
 40
0.841820992970904
 40
0.9999999999999999
 40
0.9999999999999999
 40
0.9999999999999999
 40
0.9999999999999999
 10
246.1324367934093
 20
144.4956228043871
 30
0.0
 10
246.1143912095062
 20
144.5253063778951
 30
0.0
 10
246.0768414355744
 20
144.587072817856
 30
0.0
 10
245.9855806714717
 20
144.651599167769
 30
0.0
 10
245.8933149413581
 20
144.6815398246875
 30
0.0
 10
245.8353192679799
 20
144.6818074981715
 30
0.0
 10
245.8147961908206
 20
144.6819022204714
 30
0.0
  0
SPLINE
  5
FF
330
1F
100
AcDbEntity
  8
0
  6
Continuous
 62
     7
370
    15
100
AcDbSpline
210
0.0
220
0.0
230
1.0
 70
     8
 71
     3
 72
    12
 73
     8
 74
     0
 42
0.00000001
 43
0.00000001
 12
1.0
 22
0.0
 32
0.0
 13
1.0
 23
0.0
 33
0.0
 40
0.0
 40
0.0
 40
0.0
 40
0.0
 40
0.2057883302538562
 40
0.4120352047016968
 40
0.6141312065381607
 40
0.8132637402172995
 40
1.0
 40
1.0
 40
1.0
 40
1.0
 10
245.8147961908206
 20
144.6819022204714
 30
0.0
 10
245.7488136630645
 20
144.6849987253882
 30
0.0
 10
245.616701583156
 20
144.691198634954
 30
0.0
 10
245.4368449185402
 20
144.7826739633725
 30
0.0
 10
245.2996447870787
 20
144.9231083376827
 30
0.0
 10
245.2153634064668
 20
145.0963180159046
 30
0.0
 10
245.208058146433
 20
145.2197250038834
 30
0.0
 10
245.2045228594169
 20
145.2794462349253
 30
0.0
  0
SPLINE
  5
100
330
1F
100
AcDbEntity
  8
0
  6
Continuous
 62
     7
370
    15
100
AcDbSpline
210
0.0
220
0.0
230
1.0
 70
     8
 71
     3
 72
    11
 73
     7
 74
     0
 42
0.00000001
 43
0.00000001
 12
1.0
 22
0.0
 32
0.0
 13
1.0
 23
0.0
 33
0.0
 40
0.0
 40
0.0
 40
0.0
 40
0.0
 40
0.280234514739141
 40
0.5612856321264914
 40
0.8399867046710425
 40
1.0
 40
1.0
 40
1.0
 40
1.0
 10
245.2045228594169
 20
145.2794462349253
 30
0.0
 10
245.2019067844388
 20
145.3175273119646
 30
0.0
 10
245.1966670112471
 20
145.3938004342029
 30
0.0
 10
245.1412041469649
 20
145.4960270703783
 30
0.0
 10
245.0697121959724
 20
145.564949556076
 30
0.0
 10
245.0159591199592
 20
145.5903896426857
 30
0.0
 10
244.9963536375388
 20
145.5996684636908
 30
0.0
  0
ARC
  5
101
330
1F
100
AcDbEntity
  8
0
  6
Continuous
 62
     7
370
    15
100
AcDbCircle
 10
244.7741691866
 20
145.1907933251
 30
0.0
 40
0.3354363857416818
100
AcDbArc
 50
358.9599386273
 51
123.8545982703
  0
ARC
  5
102
330
1F
100
AcDbEntity
  8
0
  6
Continuous
 62
     7
370
    15
100
AcDbCircle
 10
245.6975792945
 20
145.1748372421
 30
0.0
 40
0.5881117700537368
100
AcDbArc
 50
179.0386394221
 51
272.1661814564
  0
LINE
  5
103
330
1F
100
AcDbEntity
  8
0
  6
HIDDEN
 62
     7
370
     0
100
AcDbLine
 10
190.3253454977
 20
140.7279238012
 30
0.0
 11
190.3253454977
 21
78.7279248144
 31
0.0
  0
ELLIPSE
  5
104
330
1F
100
AcDbEntity
  8
0
  6
HIDDEN
 62
     7
370
     0
100
AcDbEllipse
 10
223.6757072022
 20
109.7279243078
 30
0.0
 11
-0.2970659562811591
 21
31.49996440074773
 31
0.0
210
0.0
220
0.0
230
1.0
 40
0.1594181282
 41
3.03732379716313
 42
3.140089234017316
  0
ELLIPSE
  5
105
330
1F
100
AcDbEntity
  8
0
  6
HIDDEN
 62
     7
370
     0
100
AcDbEllipse
 10
246.3575387897
 20
109.7279243078
 30
0.0
 11
22.81843988344223
 21
31.44114398840676
 31
0.0
210
0.0
220
0.0
230
1.0
 40
0.0843483871
 41
2.413654332027385
 42
3.099966843005933
  0
SPLINE
  5
106
330
1F
100
AcDbEntity
  8
0
  6
HIDDEN
 62
     7
370
     0
100
AcDbSpline
210
0.0
220
0.0
230
1.0
 70
     8
 71
     3
 72
    12
 73
     8
 74
     0
 42
0.00000001
 43
0.00000001
 12
1.0
 22
0.0
 32
0.0
 13
1.0
 23
0.0
 33
0.0
 40
0.0
 40
0.0
 40
0.0
 40
0.0
 40
0.5000000000000029
 40
0.5000000000000029
 40
0.7500000000000014
 40
0.7500000000000014
 40
1.0
 40
1.0
 40
1.0
 40
1.0
 10
200.4200896093643
 20
139.6286667679243
 30
0.0
 10
200.4508118512834
 20
139.6659687508774
 30
0.0
 10
200.4936490658186
 20
139.7025805829238
 30
0.0
 10
200.5930760900184
 20
139.750345366209
 30
0.0
 10
200.632828284835
 20
139.7653028816913
 30
0.0
 10
200.7308697416933
 20
139.7884928274605
 30
0.0
 10
200.7904257972807
 20
139.7964162666802
 30
0.0
 10
200.8531023112565
 20
139.7964162666802
 30
0.0
  0
LINE
  5
107
330
1F
100
AcDbEntity
  8
0
  6
HIDDEN
 62
     7
370
     0
100
AcDbLine
 10
200.8531024941
 20
139.7964168247
 30
0.0
 11
203.7975887099
 21
139.7964168247
 31
0.0
  0
SPLINE
  5
108
330
1F
100
AcDbEntity
  8
0
  6
HIDDEN
 62
     7
370
     0
100
AcDbSpline
210
0.0
220
0.0
230
1.0
 70
     8
 71
     3
 72
    12
 73
     8
 74
     0
 42
0.00000001
 43
0.00000001
 12
1.0
 22
0.0
 32
0.0
 13
1.0
 23
0.0
 33
0.0
 40
0.0
 40
0.0
 40
0.0
 40
0.0
 40
0.25
 40
0.25
 40
0.5
 40
0.5
 40
1.0
 40
1.0
 40
1.0
 40
1.0
 10
203.7975886841237
 20
139.7964162666802
 30
0.0
 10
203.860668722617
 20
139.7964162666802
 30
0.0
 10
203.9198173447984
 20
139.7885103404678
 30
0.0
 10
204.0182898948675
 20
139.7651851790315
 30
0.0
 10
204.0573265068522
 20
139.7504723891998
 30
0.0
 10
204.1572229736313
 20
139.7025165884689
 30
0.0
 10
204.1996438546979
 20
139.6662544318888
 30
0.0
 10
204.2306013860159
 20
139.6286667679243
 30
0.0
  0
ELLIPSE
  5
109
330
1F
100
AcDbEntity
  8
0
  6
HIDDEN
 62
     7
370
     0
100
AcDbEllipse
 10
187.9781913083
 20
109.7279243078
 30
0.0
 11
14.75368316065624
 21
31.09325491558116
 31
0.0
210
0.0
220
0.0
230
1.0
 40
0.3419987131
 41
5.193281737408637
 42
6.124043104552343
  0
SPLINE
  5
10A
330
1F
100
AcDbEntity
  8
0
  6
HIDDEN
 62
     7
370
     0
100
AcDbSpline
210
0.0
220
0.0
230
1.0
 70
     8
 71
     3
 72
    12
 73
     8
 74
     0
 42
0.00000001
 43
0.00000001
 12
1.0
 22
0.0
 32
0.0
 13
1.0
 23
0.0
 33
0.0
 40
0.0
 40
0.0
 40
0.0
 40
0.0
 40
0.4999999999999991
 40
0.4999999999999991
 40
0.7499999999999996
 40
0.7499999999999996
 40
1.0
 40
1.0
 40
1.0
 40
1.0
 10
204.2306013860159
 20
119.6372936284926
 30
0.0
 10
204.1998791440968
 20
119.5247378290834
 30
0.0
 10
204.1570419295616
 20
119.4119799693438
 30
0.0
 10
204.0576149053618
 20
119.2624390835475
 30
0.0
 10
204.0178627105452
 20
119.2151463518406
 30
0.0
 10
203.919821253687
 20
119.1414100585192
 30
0.0
 10
203.8602651980995
 20
119.1159907391435
 30
0.0
 10
203.7975886841237
 20
119.1159907391435
 30
0.0
  0
LINE
  5
10B
330
1F
100
AcDbEntity
  8
0
  6
HIDDEN
 62
     7
370
     0
100
AcDbLine
 10
203.7975887099
 20
119.1159911361
 30
0.0
 11
200.8531024941
 21
119.1159911361
 31
0.0
  0
SPLINE
  5
10C
330
1F
100
AcDbEntity
  8
0
  6
HIDDEN
 62
     7
370
     0
100
AcDbSpline
210
0.0
220
0.0
230
1.0
 70
     8
 71
     3
 72
    12
 73
     8
 74
     0
 42
0.00000001
 43
0.00000001
 12
1.0
 22
0.0
 32
0.0
 13
1.0
 23
0.0
 33
0.0
 40
0.0
 40
0.0
 40
0.0
 40
0.0
 40
0.2500000000000023
 40
0.2500000000000023
 40
0.5000000000000047
 40
0.5000000000000047
 40
1.0
 40
1.0
 40
1.0
 40
1.0
 10
200.8531023112565
 20
119.1159907391435
 30
0.0
 10
200.7900222727632
 20
119.1159907391435
 30
0.0
 10
200.7308736505818
 20
119.1413550583584
 30
0.0
 10
200.6324011005127
 20
119.2155199187313
 30
0.0
 10
200.593364488528
 20
119.2620402592855
 30
0.0
 10
200.493468021749
 20
119.4121826021307
 30
0.0
 10
200.4510471406823
 20
119.5238758091028
 30
0.0
 10
200.4200896093644
 20
119.6372936284926
 30
0.0
  0
ELLIPSE
  5
10D
330
1F
100
AcDbEntity
  8
0
  6
HIDDEN
 62
     7
370
     0
100
AcDbEllipse
 10
216.6724996871
 20
109.7279243078
 30
0.0
 11
-14.75368316065627
 21
31.09325491558116
 31
0.0
210
0.0
220
0.0
230
1.0
 40
0.3419987131
 41
0.1591422026272825
 42
1.08990356977096
  0
SPLINE
  5
10E
330
1F
100
AcDbEntity
  8
0
  6
HIDDEN
 62
     7
370
     0
100
AcDbSpline
210
0.0
220
0.0
230
1.0
 70
     8
 71
     3
 72
    12
 73
     8
 74
     0
 42
0.00000001
 43
0.00000001
 12
1.0
 22
0.0
 32
0.0
 13
1.0
 23
0.0
 33
0.0
 40
0.0
 40
0.0
 40
0.0
 40
0.0
 40
0.5
 40
0.5
 40
0.75
 40
0.75
 40
1.0
 40
1.0
 40
1.0
 40
1.0
 10
200.4200896093643
 20
99.81855498712179
 30
0.0
 10
200.4508118512834
 20
99.93111078653097
 30
0.0
 10
200.4936490658186
 20
100.0438686462706
 30
0.0
 10
200.5930760900184
 20
100.1934095320669
 30
0.0
 10
200.632828284835
 20
100.2407022637738
 30
0.0
 10
200.7308697416933
 20
100.3144385570952
 30
0.0
 10
200.7904257972807
 20
100.3398578764709
 30
0.0
 10
200.8531023112565
 20
100.3398578764709
 30
0.0
  0
LINE
  5
10F
330
1F
100
AcDbEntity
  8
0
  6
HIDDEN
 62
     7
370
     0
100
AcDbLine
 10
200.8531024941
 20
100.3398574796
 30
0.0
 11
203.7975887099
 21
100.3398574796
 31
0.0
  0
SPLINE
  5
110
330
1F
100
AcDbEntity
  8
0
  6
HIDDEN
 62
     7
370
     0
100
AcDbSpline
210
0.0
220
0.0
230
1.0
 70
     8
 71
     3
 72
    12
 73
     8
 74
     0
 42
0.00000001
 43
0.00000001
 12
1.0
 22
0.0
 32
0.0
 13
1.0
 23
0.0
 33
0.0
 40
0.0
 40
0.0
 40
0.0
 40
0.0
 40
0.2499999999999991
 40
0.2499999999999991
 40
0.4999999999999982
 40
0.4999999999999982
 40
1.0
 40
1.0
 40
1.0
 40
1.0
 10
203.7975886841237
 20
100.3398578764709
 30
0.0
 10
203.860668722617
 20
100.3398578764709
 30
0.0
 10
203.9198173447984
 20
100.314493557256
 30
0.0
 10
204.0182898948675
 20
100.2403286968831
 30
0.0
 10
204.0573265068522
 20
100.1938083563289
 30
0.0
 10
204.1572229736313
 20
100.0436660134837
 30
0.0
 10
204.1996438546979
 20
99.93197280651155
 30
0.0
 10
204.2306013860159
 20
99.81855498712177
 30
0.0
  0
ELLIPSE
  5
111
330
1F
100
AcDbEntity
  8
0
  6
HIDDEN
 62
     7
370
     0
100
AcDbEllipse
 10
187.9781913083
 20
109.7279243078
 30
0.0
 11
-14.7536831606561
 21
31.09325491558119
 31
0.0
210
0.0
220
0.0
230
1.0
 40
0.3419987131
 41
3.300734856217133
 42
4.23149622336078
  0
SPLINE
  5
112
330
1F
100
AcDbEntity
  8
0
  6
HIDDEN
 62
     7
370
     0
100
AcDbSpline
210
0.0
220
0.0
230
1.0
 70
     8
 71
     3
 72
    12
 73
     8
 74
     0
 42
0.00000001
 43
0.00000001
 12
1.0
 22
0.0
 32
0.0
 13
1.0
 23
0.0
 33
0.0
 40
0.0
 40
0.0
 40
0.0
 40
0.0
 40
0.4999999999999981
 40
0.4999999999999981
 40
0.749999999999999
 40
0.749999999999999
 40
1.0
 40
1.0
 40
1.0
 40
1.0
 10
204.2306013860159
 20
79.82718184768977
 30
0.0
 10
204.1998791440968
 20
79.78987986473672
 30
0.0
 10
204.1570419295616
 20
79.75326803269034
 30
0.0
 10
204.0576149053618
 20
79.70550324940514
 30
0.0
 10
204.0178627105452
 20
79.69054573392276
 30
0.0
 10
203.919821253687
 20
79.66735578815361
 30
0.0
 10
203.8602651980995
 20
79.6594323489339
 30
0.0
 10
203.7975886841237
 20
79.6594323489339
 30
0.0
  0
LINE
  5
113
330
1F
100
AcDbEntity
  8
0
  6
HIDDEN
 62
     7
370
     0
100
AcDbLine
 10
203.7975887099
 20
79.6594317909
 30
0.0
 11
200.8531024941
 21
79.6594317909
 31
0.0
  0
SPLINE
  5
114
330
1F
100
AcDbEntity
  8
0
  6
HIDDEN
 62
     7
370
     0
100
AcDbSpline
210
0.0
220
0.0
230
1.0
 70
     8
 71
     3
 72
    12
 73
     8
 74
     0
 42
0.00000001
 43
0.00000001
 12
1.0
 22
0.0
 32
0.0
 13
1.0
 23
0.0
 33
0.0
 40
0.0
 40
0.0
 40
0.0
 40
0.0
 40
0.2499999999999991
 40
0.2499999999999991
 40
0.4999999999999982
 40
0.4999999999999982
 40
1.0
 40
1.0
 40
1.0
 40
1.0
 10
200.8531023112565
 20
79.6594323489339
 30
0.0
 10
200.7900222727632
 20
79.6594323489339
 30
0.0
 10
200.7308736505818
 20
79.66733827514632
 30
0.0
 10
200.6324011005127
 20
79.69066343658257
 30
0.0
 10
200.593364488528
 20
79.70537622641427
 30
0.0
 10
200.493468021749
 20
79.75333202714522
 30
0.0
 10
200.4510471406823
 20
79.78959418372527
 30
0.0
 10
200.4200896093643
 20
79.82718184768976
 30
0.0
  0
ELLIPSE
  5
115
330
1F
100
AcDbEntity
  8
0
  6
HIDDEN
 62
     7
370
     0
100
AcDbEllipse
 10
216.6724996871
 20
109.7279243078
 30
0.0
 11
14.75368316065612
 21
31.09325491558116
 31
0.0
210
0.0
220
0.0
230
1.0
 40
0.3419987131
 41
2.05168908381882
 42
2.982450450962497
  0
SPLINE
  5
116
330
1F
100
AcDbEntity
  8
0
  6
HIDDEN
 62
     7
370
     0
100
AcDbSpline
210
0.0
220
0.0
230
1.0
 70
     8
 71
     3
 72
    60
 73
    56
 74
     0
 42
0.00000001
 43
0.00000001
 12
1.0
 22
0.0
 32
0.0
 13
1.0
 23
0.0
 33
0.0
 40
-0.0624999999999998
 40
-0.0624999999999998
 40
0.0
 40
0.0
 40
0.0312500000000002
 40
0.0312500000000002
 40
0.0625000000000003
 40
0.0625000000000003
 40
0.0937500000000005
 40
0.0937500000000005
 40
0.1250000000000007
 40
0.1250000000000007
 40
0.1875000000000007
 40
0.1875000000000007
 40
0.2500000000000007
 40
0.2500000000000007
 40
0.2812500000000007
 40
0.2812500000000007
 40
0.3125000000000007
 40
0.3125000000000007
 40
0.3437500000000007
 40
0.3437500000000007
 40
0.3750000000000007
 40
0.3750000000000007
 40
0.4062500000000007
 40
0.4062500000000007
 40
0.4375000000000007
 40
0.4375000000000007
 40
0.4687500000000007
 40
0.4687500000000007
 40
0.5000000000000007
 40
0.5000000000000007
 40
0.5625000000000008
 40
0.5625000000000008
 40
0.6250000000000008
 40
0.6250000000000008
 40
0.6562500000000007
 40
0.6562500000000007
 40
0.6875000000000007
 40
0.6875000000000007
 40
0.7187500000000006
 40
0.7187500000000006
 40
0.7500000000000006
 40
0.7500000000000006
 40
0.7812500000000004
 40
0.7812500000000004
 40
0.8125000000000004
 40
0.8125000000000004
 40
0.8437500000000003
 40
0.8437500000000003
 40
0.8750000000000003
 40
0.8750000000000003
 40
0.9062500000000002
 40
0.9062500000000002
 40
0.9375000000000002
 40
0.9375000000000002
 40
1.0
 40
1.0
 40
1.03125
 40
1.03125
 10
204.3253454976901
 20
109.4635937827203
 30
0.0
 10
204.3253454976901
 20
109.8600895703503
 30
0.0
 10
204.3123736392013
 20
109.9900396313545
 30
0.0
 10
204.2615534695089
 20
110.2456925647146
 30
0.0
 10
204.223086146042
 20
110.3727220712639
 30
0.0
 10
204.1226879099699
 20
110.6149102023884
 30
0.0
 10
204.0612548789967
 20
110.7297716949413
 30
0.0
 10
203.9161200474518
 20
110.9471518907654
 30
0.0
 10
203.8316649300439
 20
111.050049457964
 30
0.0
 10
203.5549454796856
 20
111.3267164969718
 30
0.0
 10
203.3318685877676
 20
111.4757145874518
 30
0.0
 10
202.8505852255472
 20
111.6752257279165
 30
0.0
 10
202.5873548065562
 20
111.7277838309132
 30
0.0
 10
202.1959526048683
 20
111.7279941132913
 30
0.0
 10
202.0634295767594
 20
111.7150083425641
 30
0.0
 10
201.8068991235184
 20
111.6639811943503
 30
0.0
 10
201.6822122892218
 20
111.6262259951999
 30
0.0
 10
201.4400330269863
 20
111.5260876622912
 30
0.0
 10
201.3229394948362
 20
111.4634819948797
 30
0.0
 10
201.1062244914808
 20
111.3187487016147
 30
0.0
 10
201.005205664618
 20
111.2361213543351
 30
0.0
 10
200.8184207771659
 20
111.0495163010836
 30
0.0
 10
200.7355638959697
 20
110.9484012372074
 30
0.0
 10
200.5906796308959
 20
110.7318684332175
 30
0.0
 10
200.5280421230749
 20
110.6149982256164
 30
0.0
 10
200.4275932996751
 20
110.3727003549663
 30
0.0
 10
200.3897421986579
 20
110.2480363565053
 30
0.0
 10
200.3385206334016
 20
109.9917493124414
 30
0.0
 10
200.3253925067844
 20
109.8591773166958
 30
0.0
 10
200.3252518664441
 20
109.4675731239218
 30
0.0
 10
200.377576615816
 20
109.2044077925979
 30
0.0
 10
200.5766876778732
 20
108.7229024234248
 30
0.0
 10
200.7255500143305
 20
108.4996508839407
 30
0.0
 10
201.001870973656
 20
108.2227945850518
 30
0.0
 10
201.1046346220296
 20
108.1382811382081
 30
0.0
 10
201.322018179409
 20
107.9928638647678
 30
0.0
 10
201.4368169473655
 20
107.9313526657094
 30
0.0
 10
201.6786936707895
 20
107.8308228174546
 30
0.0
 10
201.8058472787897
 20
107.7921777942366
 30
0.0
 10
202.0615132882223
 20
107.7411214666856
 30
0.0
 10
202.1913793259783
 20
107.72805660814
 30
0.0
 10
202.4553318527099
 20
107.7277939873421
 30
0.0
 10
202.585736176134
 20
107.7406709875861
 30
0.0
 10
202.8413869395133
 20
107.7912569913919
 30
0.0
 10
202.9682524886277
 20
107.8295333560137
 30
0.0
 10
203.2107729465736
 20
107.9298042234938
 30
0.0
 10
203.3256995852339
 20
107.9911602476347
 30
0.0
 10
203.5430710540659
 20
108.1360065428075
 30
0.0
 10
203.6460848667282
 20
108.2203840573021
 30
0.0
 10
203.8307854123101
 20
108.4047913774904
 30
0.0
 10
203.9136151465667
 20
108.5053644407598
 30
0.0
 10
204.0598675851642
 20
108.7235905813388
 30
0.0
 10
204.1222360659566
 20
108.84014569126
 30
0.0
 10
204.2721922175234
 20
109.2009952852938
 30
0.0
 10
204.3253454976901
 20
109.4635937827203
 30
0.0
 10
204.3253454976901
 20
109.8600895703503
 30
0.0
  0
LWPOLYLINE
  5
117
330
1F
100
AcDbEntity
  8
0
  6
HIDDEN
 62
     7
370
     0
100
AcDbPolyline
 90
       29
 70
   128
 43
0.0
 10
211.3253452146
 20
124.5760001149
 10
211.9929079228
 20
124.5108615514
 10
212.6269970351
 20
124.3187101465
 10
213.1958153361
 20
124.0091822948
 10
213.6708401405
 20
123.5977984872
 10
214.0282519424
 20
123.1051875185
 10
214.2501283699
 20
122.5560508575
 10
214.3253457063
 20
121.9779239874
 10
214.2501283699
 20
121.3997980487
 10
214.0282519424
 20
120.8506613877
 10
213.6708401405
 20
120.358050419
 10
213.1958153361
 20
119.9466666114
 10
212.6269970351
 20
119.6371387597
 10
211.9929079228
 20
119.4449873548
 10
211.3253452146
 20
119.37984786
 10
210.6577825063
 20
119.4449873548
 10
210.023693394
 20
119.6371387597
 10
209.4548769557
 20
119.9466666114
 10
208.9798502886
 20
120.358050419
 10
208.6224384868
 20
120.8506613877
 10
208.4005620592
 20
121.3997980487
 10
208.3253447228
 20
121.9779239874
 10
208.4005620592
 20
122.5560508575
 10
208.6224384868
 20
123.1051875185
 10
208.9798502886
 20
123.5977984872
 10
209.4548769557
 20
124.0091822948
 10
210.023693394
 20
124.3187101465
 10
210.6577825063
 20
124.5108615514
 10
211.3253452146
 20
124.5760001149
  0
LINE
  5
118
330
1F
100
AcDbEntity
  8
0
  6
HIDDEN
 62
     7
370
     0
100
AcDbLine
 10
190.3253454977
 20
85.4779235926
 30
0.0
 11
190.3253454977
 21
133.9596878644
 31
0.0
  0
SPLINE
  5
119
330
1F
100
AcDbEntity
  8
0
  6
HIDDEN
 62
     7
370
     0
100
AcDbSpline
210
0.0
220
0.0
230
1.0
 70
     8
 71
     3
 72
    12
 73
     8
 74
     0
 42
0.00000001
 43
0.00000001
 12
1.0
 22
0.0
 32
0.0
 13
1.0
 23
0.0
 33
0.0
 40
0.0
 40
0.0
 40
0.0
 40
0.0
 40
0.5
 40
0.5
 40
0.75
 40
0.75
 40
1.0
 40
1.0
 40
1.0
 40
1.0
 10
189.5088332112431
 20
125.1801922896379
 30
0.0
 10
189.5652393899233
 20
125.132369915978
 30
0.0
 10
189.6354022913951
 20
125.0920990690395
 30
0.0
 10
189.7534130047843
 20
125.0840532005625
 30
0.0
 10
189.7936187883798
 20
125.0906157989014
 30
0.0
 10
189.8673394851128
 20
125.117997893355
 30
0.0
 10
189.9002002068993
 20
125.1377593838854
 30
0.0
 10
189.9303686088286
 20
125.1606920950734
 30
0.0
  0
SPLINE
  5
11A
330
1F
100
AcDbEntity
  8
0
  6
HIDDEN
 62
     7
370
     0
100
AcDbSpline
210
0.0
220
0.0
230
1.0
 70
     8
 71
     3
 72
    16
 73
    12
 74
     0
 42
0.00000001
 43
0.00000001
 12
1.0
 22
0.0
 32
0.0
 13
1.0
 23
0.0
 33
0.0
 40
0.0
 40
0.0
 40
0.0
 40
0.0
 40
0.0624999999999978
 40
0.0624999999999978
 40
0.1249999999999956
 40
0.1249999999999956
 40
0.2499999999999911
 40
0.2499999999999911
 40
0.4999999999999925
 40
0.4999999999999925
 40
1.0
 40
1.0
 40
1.0
 40
1.0
 10
189.9303686087835
 20
125.1606920951215
 30
0.0
 10
189.9419815086228
 20
125.1695197181029
 30
0.0
 10
189.9553326930553
 20
125.1773540999848
 30
0.0
 10
189.9847325326745
 20
125.1856642260572
 30
0.0
 10
189.9995732572297
 20
125.1851684068222
 30
0.0
 10
190.0354064651984
 20
125.1737174358528
 30
0.0
 10
190.0495196730199
 20
125.1570369349942
 30
0.0
 10
190.0840110442388
 20
125.1049162492371
 30
0.0
 10
190.0950951153492
 20
125.0651267552121
 30
0.0
 10
190.1212179331453
 20
124.941790123115
 30
0.0
 10
190.1253454976901
 20
124.8543687126164
 30
0.0
 10
190.1253454976901
 20
124.7656314702981
 30
0.0
  0
LINE
  5
11B
330
1F
100
AcDbEntity
  8
0
  6
HIDDEN
 62
     7
370
     0
100
AcDbLine
 10
190.1253455027
 20
94.6902172547
 30
0.0
 11
190.1253455027
 21
124.7656313609
 31
0.0
  0
SPLINE
  5
11C
330
1F
100
AcDbEntity
  8
0
  6
HIDDEN
 62
     7
370
     0
100
AcDbSpline
210
0.0
220
0.0
230
1.0
 70
     8
 71
     3
 72
    16
 73
    12
 74
     0
 42
0.00000001
 43
0.00000001
 12
1.0
 22
0.0
 32
0.0
 13
1.0
 23
0.0
 33
0.0
 40
0.0
 40
0.0
 40
0.0
 40
0.0
 40
0.500000000000015
 40
0.500000000000015
 40
0.7500000000000148
 40
0.7500000000000148
 40
0.8750000000000074
 40
0.8750000000000074
 40
0.9375000000000038
 40
0.9375000000000038
 40
1.0
 40
1.0
 40
1.0
 40
1.0
 10
190.1253454976901
 20
94.69021714531581
 30
0.0
 10
190.1253454976901
 20
94.60109078012707
 30
0.0
 10
190.1211992226122
 20
94.51422941251367
 30
0.0
 10
190.0952336272186
 20
94.39124716601962
 30
0.0
 10
190.0837727218412
 20
94.35047587078834
 30
0.0
 10
190.0494609840669
 20
94.29877155078859
 30
0.0
 10
190.0354362481372
 20
94.28210118419817
 30
0.0
 10
189.9994132851035
 20
94.27064896374144
 30
0.0
 10
189.9846587760138
 20
94.27019591746642
 30
0.0
 10
189.9553066148669
 20
94.27851123868258
 30
0.0
 10
189.9419667403628
 20
94.28634012376087
 30
0.0
 10
189.9303686088145
 20
94.29515652052349
 30
0.0
  0
SPLINE
  5
11D
330
1F
100
AcDbEntity
  8
0
  6
HIDDEN
 62
     7
370
     0
100
AcDbSpline
210
0.0
220
0.0
230
1.0
 70
     8
 71
     3
 72
    12
 73
     8
 74
     0
 42
0.00000001
 43
0.00000001
 12
1.0
 22
0.0
 32
0.0
 13
1.0
 23
0.0
 33
0.0
 40
0.0
 40
0.0
 40
0.0
 40
0.0
 40
0.2499999999999994
 40
0.2499999999999994
 40
0.4999999999999989
 40
0.4999999999999989
 40
1.0
 40
1.0
 40
1.0
 40
1.0
 10
189.9303686088215
 20
94.2951565205324
 30
0.0
 10
189.9001767671043
 20
94.31810704963023
 30
0.0
 10
189.8668177976897
 20
94.3380765236544
 30
0.0
 10
189.7936805131091
 20
94.36517765727986
 30
0.0
 10
189.7534386404552
 20
94.3717783979253
 30
0.0
 10
189.6357328634867
 20
94.3638095234186
 30
0.0
 10
189.5653223857072
 20
94.32354906525076
 30
0.0
 10
189.508833211239
 20
94.27565632597259
 30
0.0
  0
SPLINE
  5
11E
330
1F
100
AcDbEntity
  8
0
  6
HIDDEN
 62
     7
370
     0
100
AcDbSpline
210
0.0
220
0.0
230
1.0
 70
     8
 71
     3
 72
    12
 73
     8
 74
     0
 42
0.00000001
 43
0.00000001
 12
1.0
 22
0.0
 32
0.0
 13
1.0
 23
0.0
 33
0.0
 40
0.0
 40
0.0
 40
0.0
 40
0.0
 40
0.2499999999999989
 40
0.2499999999999989
 40
0.499999999999998
 40
0.499999999999998
 40
1.0
 40
1.0
 40
1.0
 40
1.0
 10
189.5088332112386
 20
94.2756563259728
 30
0.0
 10
189.4206792735009
 20
94.20091751811871
 30
0.0
 10
189.3603258488721
 20
94.10993701763633
 30
0.0
 10
189.2540638908053
 20
93.92102319488374
 30
0.0
 10
189.2118317242432
 20
93.82451873534316
 30
0.0
 10
189.1007610289261
 20
93.53375098117601
 30
0.0
 10
189.0478242524993
 20
93.33808416663227
 30
0.0
 10
189.0040251541305
 20
93.14401768156596
 30
0.0
  0
SPLINE
  5
11F
330
1F
100
AcDbEntity
  8
0
  6
HIDDEN
 62
     7
370
     0
100
AcDbSpline
210
0.0
220
0.0
230
1.0
 70
     8
 71
     3
 72
    12
 73
     8
 74
     0
 42
0.00000001
 43
0.00000001
 12
1.0
 22
0.0
 32
0.0
 13
1.0
 23
0.0
 33
0.0
 40
0.0
 40
0.0
 40
0.0
 40
0.0
 40
0.4999999999999993
 40
0.4999999999999993
 40
0.7499999999999997
 40
0.7499999999999997
 40
1.0
 40
1.0
 40
1.0
 40
1.0
 10
189.0040251541305
 20
87.95784335280487
 30
0.0
 10
189.0477716949671
 20
87.93124918216371
 30
0.0
 10
189.1006560501986
 20
87.91148895683797
 30
0.0
 10
189.2122231375347
 20
87.89103796660888
 30
0.0
 10
189.2548067340777
 20
87.88577774195244
 30
0.0
 10
189.3597234611595
 20
87.8778949480298
 30
0.0
 10
189.4212570690043
 20
87.87533082285066
 30
0.0
 10
189.5088332112304
 20
87.873130605331
 30
0.0
  0
LINE
  5
120
330
1F
100
AcDbEntity
  8
0
  6
HIDDEN
 62
     7
370
     0
100
AcDbLine
 10
190.1253455027
 20
87.1881037857
 30
0.0
 11
190.1253455027
 21
87.6683290955
 31
0.0
  0
LINE
  5
121
330
1F
100
AcDbEntity
  8
0
  6
HIDDEN
 62
     7
370
     0
100
AcDbLine
 10
190.1253455027
 20
131.7875195201
 30
0.0
 11
190.1253455027
 21
132.2677448299
 31
0.0
  0
SPLINE
  5
122
330
1F
100
AcDbEntity
  8
0
  6
HIDDEN
 62
     7
370
     0
100
AcDbSpline
210
0.0
220
0.0
230
1.0
 70
     8
 71
     3
 72
    12
 73
     8
 74
     0
 42
0.00000001
 43
0.00000001
 12
1.0
 22
0.0
 32
0.0
 13
1.0
 23
0.0
 33
0.0
 40
0.0
 40
0.0
 40
0.0
 40
0.0
 40
0.2500000000000004
 40
0.2500000000000004
 40
0.5000000000000009
 40
0.5000000000000009
 40
1.0
 40
1.0
 40
1.0
 40
1.0
 10
189.5088332112384
 20
131.5827180102829
 30
0.0
 10
189.4201485513821
 20
131.5804899429419
 30
0.0
 10
189.3602301356586
 20
131.5779881589116
 30
0.0
 10
189.2545709083379
 20
131.5700567230756
 30
0.0
 10
189.211929670223
 20
131.5647645681787
 30
0.0
 10
189.1007403281204
 20
131.5443596276916
 30
0.0
 10
189.0478136459995
 20
131.5246249361047
 30
0.0
 10
189.0040251541305
 20
131.4980052628091
 30
0.0
  0
SPLINE
  5
123
330
1F
100
AcDbEntity
  8
0
  6
HIDDEN
 62
     7
370
     0
100
AcDbSpline
210
0.0
220
0.0
230
1.0
 70
     8
 71
     3
 72
    12
 73
     8
 74
     0
 42
0.00000001
 43
0.00000001
 12
1.0
 22
0.0
 32
0.0
 13
1.0
 23
0.0
 33
0.0
 40
0.0
 40
0.0
 40
0.0
 40
0.0
 40
0.500000000000002
 40
0.500000000000002
 40
0.750000000000001
 40
0.750000000000001
 40
1.0
 40
1.0
 40
1.0
 40
1.0
 10
189.0040251541289
 20
126.3118309340482
 30
0.0
 10
189.0477866304277
 20
126.1179311460862
 30
0.0
 10
189.1006929460807
 20
125.9220747821493
 30
0.0
 10
189.2124041437281
 20
125.6299326356503
 30
0.0
 10
189.2549235873144
 20
125.5332146989524
 30
0.0
 10
189.3600469298818
 20
125.3464902625279
 30
0.0
 10
189.4216128935996
 20
125.2541395542582
 30
0.0
 10
189.5088332112423
 20
125.1801922896386
 30
0.0
  0
LWPOLYLINE
  5
124
330
1F
100
AcDbEntity
  8
0
  6
HIDDEN
 62
     7
370
     0
100
AcDbPolyline
 90
       26
 70
   128
 43
0.0
 10
211.3253452146
 20
123.9927723911
 10
211.9470700883
 20
123.9247532468
 10
212.5297297054
 20
123.7249687221
 10
213.0367137754
 20
123.4059721138
 10
213.4361654782
 20
122.9878082778
 10
213.7029875332
 20
122.4967507552
 10
213.8204124087
 20
121.9636542629
 10
213.7810640299
 20
121.4220166113
 10
213.5874122643
 20
120.9058701899
 10
213.251629498
 20
120.4476455133
 10
212.7948083245
 20
120.0761362817
 10
212.2456576937
 20
119.8146842327
 10
211.6386793816
 20
119.6797178965
 10
211.0120129102
 20
119.6797178965
 10
210.4050345981
 20
119.8146842327
 10
209.8558821046
 20
120.0761362817
 10
209.3990627938
 20
120.4476455133
 10
209.0632781648
 20
120.9058701899
 10
208.8696282619
 20
121.4220166113
 10
208.8302780205
 20
121.9636542629
 10
208.9477047586
 20
122.4967507552
 10
209.2145249509
 20
122.9878082778
 10
209.6139785164
 20
123.4059721138
 10
210.1209607237
 20
123.7249687221
 10
210.7036203408
 20
123.9247532468
 10
211.3253452146
 20
123.9927723911
  0
SPLINE
  5
125
330
1F
100
AcDbEntity
  8
0
  6
HIDDEN
 62
     7
370
     0
100
AcDbSpline
210
0.0
220
0.0
230
1.0
 70
     8
 71
     3
 72
    12
 73
     8
 74
     0
 42
0.00000001
 43
0.00000001
 12
1.0
 22
0.0
 32
0.0
 13
1.0
 23
0.0
 33
0.0
 40
0.0
 40
0.0
 40
0.0
 40
0.0
 40
0.5000000000000018
 40
0.5000000000000018
 40
0.7500000000000009
 40
0.7500000000000009
 40
1.0
 40
1.0
 40
1.0
 40
1.0
 10
213.220207514807
 20
118.1482609652392
 30
0.0
 10
213.1608625937861
 20
117.8775760754785
 30
0.0
 10
213.1261589685976
 20
117.6338239324689
 30
0.0
 10
213.1582102691956
 20
117.3347438442938
 30
0.0
 10
213.1822873118259
 20
117.2481341557397
 30
0.0
 10
213.2479919031221
 20
117.1012512816615
 30
0.0
 10
213.289396733788
 20
117.040164449933
 30
0.0
 10
213.334055214937
 20
116.9890325387445
 30
0.0
  0
SPLINE
  5
126
330
1F
100
AcDbEntity
  8
0
  6
HIDDEN
 62
     7
370
     0
100
AcDbSpline
210
0.0
220
0.0
230
1.0
 70
     8
 71
     3
 72
    62
 73
    58
 74
     0
 42
0.00000001
 43
0.00000001
 12
1.0
 22
0.0
 32
0.0
 13
1.0
 23
0.0
 33
0.0
 40
0.0
 40
0.0
 40
0.0
 40
0.0
 40
0.0312500000000003
 40
0.0312500000000003
 40
0.0625000000000006
 40
0.0625000000000006
 40
0.093750000000001
 40
0.093750000000001
 40
0.1250000000000013
 40
0.1250000000000013
 40
0.1562500000000016
 40
0.1562500000000016
 40
0.1875000000000019
 40
0.1875000000000019
 40
0.2187500000000022
 40
0.2187500000000022
 40
0.2500000000000026
 40
0.2500000000000026
 40
0.3125000000000024
 40
0.3125000000000024
 40
0.3437500000000024
 40
0.3437500000000024
 40
0.3750000000000025
 40
0.3750000000000025
 40
0.4375000000000024
 40
0.4375000000000024
 40
0.4687500000000023
 40
0.4687500000000023
 40
0.4843750000000021
 40
0.4843750000000021
 40
0.5000000000000018
 40
0.5000000000000018
 40
0.5312500000000014
 40
0.5312500000000014
 40
0.5625000000000011
 40
0.5625000000000011
 40
0.6250000000000012
 40
0.6250000000000012
 40
0.6562500000000011
 40
0.6562500000000011
 40
0.687500000000001
 40
0.687500000000001
 40
0.7187500000000009
 40
0.7187500000000009
 40
0.7500000000000008
 40
0.7500000000000008
 40
0.7812500000000007
 40
0.7812500000000007
 40
0.8125000000000006
 40
0.8125000000000006
 40
0.8750000000000003
 40
0.8750000000000003
 40
0.9375000000000002
 40
0.9375000000000002
 40
0.9687500000000001
 40
0.9687500000000001
 40
1.0
 40
1.0
 40
1.0
 40
1.0
 10
213.3340552149369
 20
116.9890325387447
 30
0.0
 10
213.4271803386398
 20
117.077606794278
 30
0.0
 10
213.5034133216034
 20
117.1590758012798
 30
0.0
 10
213.6318265156151
 20
117.3217218518944
 30
0.0
 10
213.6839894852154
 20
117.4031190438208
 30
0.0
 10
213.7647346066442
 20
117.5711004567549
 30
0.0
 10
213.7929354079614
 20
117.6566228332742
 30
0.0
 10
213.8254946923734
 20
117.8357476358653
 30
0.0
 10
213.8297110969812
 20
117.9301986967461
 30
0.0
 10
213.8115098756284
 20
118.1266217034244
 30
0.0
 10
213.7893949158196
 20
118.2282540744858
 30
0.0
 10
213.7161923581061
 20
118.4414477228525
 30
0.0
 10
213.6645750504018
 20
118.5532299368376
 30
0.0
 10
213.5339964783775
 20
118.7782186902737
 30
0.0
 10
213.4532036697862
 20
118.8944594196848
 30
0.0
 10
213.2682142685933
 20
119.123092279431
 30
0.0
 10
213.1648691696578
 20
119.2350061298283
 30
0.0
 10
212.8237892539202
 20
119.5652651958648
 30
0.0
 10
212.5659750957745
 20
119.7660845625586
 30
0.0
 10
212.1843972152269
 20
120.0259319103867
 30
0.0
 10
212.0568000195185
 20
120.1066779537939
 30
0.0
 10
211.8086913774968
 20
120.2562783072679
 30
0.0
 10
211.6891468317498
 20
120.3245873916952
 30
0.0
 10
211.3462621827013
 20
120.5178118619378
 30
0.0
 10
211.1337973631335
 20
120.6294871559357
 30
0.0
 10
210.9042086735632
 20
120.811202169334
 30
0.0
 10
210.8431723937086
 20
120.8755664180468
 30
0.0
 10
210.7940167427907
 20
120.9835814866853
 30
0.0
 10
210.7845807095713
 20
121.0221546129706
 30
0.0
 10
210.7815233732354
 20
121.1013358269352
 30
0.0
 10
210.7876323083655
 20
121.1421166801783
 30
0.0
 10
210.8266597424405
 20
121.2672770772647
 30
0.0
 10
210.8801756362426
 20
121.3532499771398
 30
0.0
 10
211.0163615314534
 20
121.5144701009988
 30
0.0
 10
211.1004057021652
 20
121.5916448005243
 30
0.0
 10
211.3756530469039
 20
121.7988457418383
 30
0.0
 10
211.5910023110642
 20
121.9080134660649
 30
0.0
 10
211.9424821624132
 20
122.0050818158225
 30
0.0
 10
212.0624884737567
 20
122.0255489104338
 30
0.0
 10
212.3071353233413
 20
122.0383165946289
 30
0.0
 10
212.4332830830871
 20
122.030315906344
 30
0.0
 10
212.6815798330171
 20
121.9795335475098
 30
0.0
 10
212.8034320104822
 20
121.9372914167978
 30
0.0
 10
213.0404480285517
 20
121.8122462816306
 30
0.0
 10
213.1514666319492
 20
121.7312561734581
 30
0.0
 10
213.3526554573475
 20
121.5341553656902
 30
0.0
 10
213.4440908447998
 20
121.4157944379513
 30
0.0
 10
213.5954365116342
 20
121.1575300815141
 30
0.0
 10
213.657562707066
 20
121.0145906095187
 30
0.0
 10
213.7986821516351
 20
120.5682482502205
 30
0.0
 10
213.834197427788
 20
120.2454586649882
 30
0.0
 10
213.8127886816158
 20
119.6125225617166
 30
0.0
 10
213.7564926253898
 20
119.2936594342129
 30
0.0
 10
213.6101643859497
 20
118.8415044166053
 30
0.0
 10
213.5509060988354
 20
118.6941774459632
 30
0.0
 10
213.4054068391091
 20
118.4078231007682
 30
0.0
 10
213.3210606992153
 20
118.2723042677309
 30
0.0
 10
213.220207514807
 20
118.1482609652392
 30
0.0
  0
SPLINE
  5
127
330
1F
100
AcDbEntity
  8
0
  6
HIDDEN
 62
     7
370
     0
100
AcDbSpline
210
0.0
220
0.0
230
1.0
 70
     8
 71
     3
 72
    62
 73
    58
 74
     0
 42
0.00000001
 43
0.00000001
 12
1.0
 22
0.0
 32
0.0
 13
1.0
 23
0.0
 33
0.0
 40
-0.0312500000000003
 40
-0.0312500000000003
 40
0.0
 40
0.0
 40
0.0312500000000001
 40
0.0312500000000001
 40
0.0625000000000002
 40
0.0625000000000002
 40
0.0937500000000003
 40
0.0937500000000003
 40
0.1250000000000004
 40
0.1250000000000004
 40
0.1875000000000003
 40
0.1875000000000003
 40
0.2187500000000003
 40
0.2187500000000003
 40
0.2500000000000003
 40
0.2500000000000003
 40
0.2812500000000003
 40
0.2812500000000003
 40
0.3125000000000003
 40
0.3125000000000003
 40
0.3750000000000002
 40
0.3750000000000002
 40
0.4062500000000002
 40
0.4062500000000002
 40
0.4375000000000002
 40
0.4375000000000002
 40
0.4687500000000002
 40
0.4687500000000002
 40
0.5000000000000002
 40
0.5000000000000002
 40
0.5624999999999994
 40
0.5624999999999994
 40
0.5937499999999993
 40
0.5937499999999993
 40
0.6249999999999992
 40
0.6249999999999992
 40
0.6562499999999991
 40
0.6562499999999991
 40
0.687499999999999
 40
0.687499999999999
 40
0.7187499999999989
 40
0.7187499999999989
 40
0.7499999999999987
 40
0.7499999999999987
 40
0.7812499999999987
 40
0.7812499999999987
 40
0.8124999999999987
 40
0.8124999999999987
 40
0.8749999999999987
 40
0.8749999999999987
 40
0.906249999999999
 40
0.906249999999999
 40
0.9374999999999993
 40
0.9374999999999993
 40
0.9687499999999997
 40
0.9687499999999997
 40
1.0
 40
1.0
 40
1.03125
 40
1.03125
 10
211.4913893166264
 20
116.2158919337157
 30
0.0
 10
211.1593016787541
 20
116.2158919337157
 30
0.0
 10
210.9962049481771
 20
116.2041007930437
 30
0.0
 10
210.6756086432686
 20
116.157732149308
 30
0.0
 10
210.5164064399621
 20
116.1225474866074
 30
0.0
 10
210.214095938248
 20
116.0303356361696
 30
0.0
 10
210.0708443640036
 20
115.9736481840461
 30
0.0
 10
209.7997335229364
 20
115.8381003947192
 30
0.0
 10
209.6720515278076
 20
115.7588874408943
 30
0.0
 10
209.3280514395924
 20
115.4953681292944
 30
0.0
 10
209.1420498110081
 20
115.2778470496253
 30
0.0
 10
208.9545632978264
 20
114.9116645463333
 30
0.0
 10
208.9060913530743
 20
114.7809973477173
 30
0.0
 10
208.8415293736606
 20
114.5099942071474
 30
0.0
 10
208.8254508734406
 20
114.3712912122009
 30
0.0
 10
208.825241144527
 20
114.087326629983
 30
0.0
 10
208.8416726919379
 20
113.9407570210312
 30
0.0
 10
208.9058413820902
 20
113.65374184161
 30
0.0
 10
208.9533103448817
 20
113.5119939782395
 30
0.0
 10
209.1424338288359
 20
113.0930029757088
 30
0.0
 10
209.326573721202
 20
112.8324910688927
 30
0.0
 10
209.673309305006
 20
112.4975346573035
 30
0.0
 10
209.7986262611578
 20
112.3969824611774
 30
0.0
 10
210.0686857639577
 20
112.2188004014888
 30
0.0
 10
210.2150591398388
 20
112.1407099564145
 30
0.0
 10
210.5164770428924
 20
112.0155805954306
 30
0.0
 10
210.6723292043314
 20
111.9676528299936
 30
0.0
 10
210.9946722656477
 20
111.9024832862265
 30
0.0
 10
211.1606237327172
 20
111.8858366800354
 30
0.0
 10
211.6515451002684
 20
111.8856220932866
 30
0.0
 10
211.9820280873712
 20
111.9526460683987
 30
0.0
 10
212.4339375849698
 20
112.1398859471563
 30
0.0
 10
212.580234802349
 20
112.2177542398021
 30
0.0
 10
212.8511183649054
 20
112.3962373286681
 30
0.0
 10
212.9764748870633
 20
112.4967899838188
 30
0.0
 10
213.2072525285525
 20
112.7194663270729
 30
0.0
 10
213.3120404086225
 20
112.8415158445487
 30
0.0
 10
213.4927040328046
 20
113.0961746391713
 30
0.0
 10
213.5698925299999
 20
113.229953175731
 30
0.0
 10
213.6967559342911
 20
113.5102153464924
 30
0.0
 10
213.7444172882235
 20
113.652403497812
 30
0.0
 10
213.8086476552861
 20
113.9385112196637
 30
0.0
 10
213.8252808691652
 20
114.0843158619152
 30
0.0
 10
213.8254097441766
 20
114.3698399835687
 30
0.0
 10
213.8093287650478
 20
114.5085995652217
 30
0.0
 10
213.7453613525794
 20
114.7784830984305
 30
0.0
 10
213.6967973023357
 20
114.9101320117674
 30
0.0
 10
213.5090664602932
 20
115.277462726673
 30
0.0
 10
213.3231206227975
 20
115.4948654801828
 30
0.0
 10
212.9793454006931
 20
115.7584134535453
 30
0.0
 10
212.8521700963256
 20
115.8374234099865
 30
0.0
 10
212.5805276870509
 20
115.9733778911854
 30
0.0
 10
212.4373685161038
 20
116.0300205309677
 30
0.0
 10
212.136241573566
 20
116.1220290170899
 30
0.0
 10
211.9767253448744
 20
116.1574440933099
 30
0.0
 10
211.6548594526427
 20
116.2040968974356
 30
0.0
 10
211.4913893166264
 20
116.2158919337157
 30
0.0
 10
211.1593016787541
 20
116.2158919337157
 30
0.0
  0
LINE
  5
128
330
1F
100
AcDbEntity
  8
0
  6
HIDDEN
 62
     7
370
     0
100
AcDbLine
 10
190.1253455027
 20
87.6683290955
 30
0.0
 11
190.1253455027
 21
102.7060370799
 31
0.0
  0
LINE
  5
129
330
1F
100
AcDbEntity
  8
0
  6
HIDDEN
 62
     7
370
     0
100
AcDbLine
 10
190.1253455027
 20
116.7498115357
 30
0.0
 11
190.1253455027
 21
131.7875195201
 31
0.0
  0
LWPOLYLINE
  5
12A
330
1F
100
AcDbEntity
  8
0
  6
HIDDEN
 62
     7
370
     0
100
AcDbPolyline
 90
        9
 70
   128
 43
0.0
 10
213.2202066743
 20
118.1482612994
 10
213.3360706532
 20
117.9129272606
 10
213.424786579
 20
117.6967244502
 10
213.4847432637
 20
117.5035909656
 10
213.5148454719
 20
117.3370434809
 10
213.5145474487
 20
117.2001162451
 10
213.4838529193
 20
117.0953024086
 10
213.4233206772
 20
117.0245111827
 10
213.3340552711
 20
116.9890324492
  0
CIRCLE
  5
12B
330
1F
100
AcDbEntity
  8
0
  6
HIDDEN
 62
     7
370
     0
100
AcDbCircle
 10
174.8253454977
 20
109.7279243078
 30
0.0
 40
4.050000000000011
  0
LINE
  5
12C
330
1F
100
AcDbEntity
  8
0
  6
HIDDEN
 62
     7
370
     0
100
AcDbLine
 10
153.8555730396
 20
125.040875366
 30
0.0
 11
153.8555730396
 21
94.4149732497
 31
0.0
  0
LINE
  5
12D
330
1F
100
AcDbEntity
  8
0
  6
HIDDEN
 62
     7
370
     0
100
AcDbLine
 10
152.3253467196
 20
93.5314945783
 30
0.0
 11
152.3253467196
 21
125.9243540373
 31
0.0
  0
LINE
  5
12E
330
1F
100
AcDbEntity
  8
0
  6
HIDDEN
 62
     7
370
     0
100
AcDbLine
 10
160.3555731737
 20
124.0743348282
 30
0.0
 11
160.3555731737
 21
95.3815137874
 31
0.0
  0
LINE
  5
12F
330
1F
100
AcDbEntity
  8
0
  6
HIDDEN
 62
     7
370
     0
100
AcDbLine
 10
166.1555744969
 20
123.7279247399
 30
0.0
 11
166.1555744969
 21
95.7279238757
 31
0.0
  0
LINE
  5
130
330
1F
100
AcDbEntity
  8
0
  6
HIDDEN
 62
     7
370
     0
100
AcDbLine
 10
158.7555740291
 20
123.7279247399
 30
0.0
 11
158.7555740291
 21
95.7279238757
 31
0.0
  0
LINE
  5
131
330
1F
100
AcDbEntity
  8
0
  6
HIDDEN
 62
     7
370
     0
100
AcDbLine
 10
159.755574193
 20
123.7279247399
 30
0.0
 11
159.755574193
 21
95.7279238757
 31
0.0
  0
SPLINE
  5
132
330
1F
100
AcDbEntity
  8
0
  6
HIDDEN
 62
     7
370
     0
100
AcDbSpline
210
0.0
220
0.0
230
1.0
 70
     8
 71
     3
 72
    10
 73
     6
 74
     0
 42
0.00000001
 43
0.00000001
 12
1.0
 22
0.0
 32
0.0
 13
1.0
 23
0.0
 33
0.0
 40
0.0
 40
0.0
 40
0.0
 40
0.0
 40
0.5
 40
0.5
 40
1.0
 40
1.0
 40
1.0
 40
1.0
 10
178.8253454976901
 20
110.3623531848295
 30
0.0
 10
178.8584929157666
 20
110.1533625838215
 30
0.0
 10
178.8753517611282
 20
109.9418001177999
 30
0.0
 10
178.8753392307806
 20
109.5138113518322
 30
0.0
 10
178.8584242730402
 20
109.3020532474166
 30
0.0
 10
178.8253454976901
 20
109.0934954307845
 30
0.0
  0
LINE
  5
133
330
1F
100
AcDbEntity
  8
0
  6
HIDDEN
 62
     7
370
     0
100
AcDbLine
 10
179.3253455573
 20
123.227924658
 30
0.0
 11
179.3253455573
 21
96.2279239576
 31
0.0
  0
SPLINE
  5
134
330
1F
100
AcDbEntity
  8
0
  6
HIDDEN
 62
     7
370
     0
100
AcDbSpline
210
0.0
220
0.0
230
1.0
 70
     8
 71
     3
 72
    10
 73
     6
 74
     0
 42
0.00000001
 43
0.00000001
 12
1.0
 22
0.0
 32
0.0
 13
1.0
 23
0.0
 33
0.0
 40
0.0
 40
0.0
 40
0.0
 40
0.0
 40
0.5
 40
0.5
 40
1.0
 40
1.0
 40
1.0
 40
1.0
 10
178.8253454976901
 20
109.0934954307845
 30
0.0
 10
178.8585344601638
 20
109.3027479643669
 30
0.0
 10
178.8752352364185
 20
109.5135647252659
 30
0.0
 10
178.8754546768631
 20
109.9380970064692
 30
0.0
 10
178.8585749614697
 20
110.1528452952418
 30
0.0
 10
178.8253454976901
 20
110.3623531848295
 30
0.0
  0
SPLINE
  5
135
330
1F
100
AcDbEntity
  8
0
  6
HIDDEN
 62
     7
370
     0
100
AcDbSpline
210
0.0
220
0.0
230
1.0
 70
     8
 71
     3
 72
    68
 73
    64
 74
     0
 42
0.00000001
 43
0.00000001
 12
1.0
 22
0.0
 32
0.0
 13
1.0
 23
0.0
 33
0.0
 40
0.0
 40
0.0
 40
0.0
 40
0.0
 40
0.0312500000000002
 40
0.0312500000000002
 40
0.0625000000000004
 40
0.0625000000000004
 40
0.0937500000000007
 40
0.0937500000000007
 40
0.1250000000000009
 40
0.1250000000000009
 40
0.1562500000000011
 40
0.1562500000000011
 40
0.1875000000000013
 40
0.1875000000000013
 40
0.2187500000000016
 40
0.2187500000000016
 40
0.2500000000000018
 40
0.2500000000000018
 40
0.2812500000000018
 40
0.2812500000000018
 40
0.3125000000000018
 40
0.3125000000000018
 40
0.3437500000000018
 40
0.3437500000000018
 40
0.3750000000000018
 40
0.3750000000000018
 40
0.4062500000000018
 40
0.4062500000000018
 40
0.4375000000000018
 40
0.4375000000000018
 40
0.4687500000000018
 40
0.4687500000000018
 40
0.5000000000000018
 40
0.5000000000000018
 40
0.5625000000000018
 40
0.5625000000000018
 40
0.5937500000000018
 40
0.5937500000000018
 40
0.6250000000000018
 40
0.6250000000000018
 40
0.6562500000000018
 40
0.6562500000000018
 40
0.6875000000000018
 40
0.6875000000000018
 40
0.7187500000000018
 40
0.7187500000000018
 40
0.7500000000000018
 40
0.7500000000000018
 40
0.7812500000000016
 40
0.7812500000000016
 40
0.8125000000000013
 40
0.8125000000000013
 40
0.8437500000000011
 40
0.8437500000000011
 40
0.8750000000000009
 40
0.8750000000000009
 40
0.9062500000000007
 40
0.9062500000000007
 40
0.9375000000000004
 40
0.9375000000000004
 40
0.9687500000000002
 40
0.9687500000000002
 40
1.0
 40
1.0
 40
1.0
 40
1.0
 10
178.8253454976901
 20
109.0934954307845
 30
0.0
 10
178.7853305453404
 20
108.8412058279689
 30
0.0
 10
178.7223887439291
 20
108.597206977593
 30
0.0
 10
178.5530020818571
 20
108.1247885885305
 30
0.0
 10
178.4453085192716
 20
107.8943752023706
 30
0.0
 10
178.1900237507337
 20
107.4596706065735
 30
0.0
 10
178.0439845202615
 20
107.2570286399222
 30
0.0
 10
177.7157630837022
 20
106.8800393491644
 30
0.0
 10
177.5315157959272
 20
106.704381395587
 30
0.0
 10
177.1385556286189
 20
106.3941234266408
 30
0.0
 10
176.9292610316598
 20
106.2581782189908
 30
0.0
 10
176.4843756047224
 20
106.024788123585
 30
0.0
 10
176.2475780122234
 20
105.9275415171706
 30
0.0
 10
175.7668429433041
 20
105.7808700592992
 30
0.0
 10
175.5205998501213
 20
105.7299777143568
 30
0.0
 10
175.0158830701419
 20
105.6744503641213
 30
0.0
 10
174.7596883692054
 20
105.6706254770514
 30
0.0
 10
174.2573096200053
 20
105.7100492596958
 30
0.0
 10
174.0080599208217
 20
105.7530767089071
 30
0.0
 10
173.516532123343
 20
105.8867816783584
 30
0.0
 10
173.2812365221171
 20
105.9754515242635
 30
0.0
 10
172.830322627455
 20
106.194482888041
 30
0.0
 10
172.6127102769916
 20
106.3264844537245
 30
0.0
 10
172.2095031074433
 20
106.6258417347274
 30
0.0
 10
172.0238916150089
 20
106.7924606621653
 30
0.0
 10
171.6839035446064
 20
107.1595720875928
 30
0.0
 10
171.5288306137835
 20
107.3618758331335
 30
0.0
 10
171.2624875371201
 20
107.7859565127275
 30
0.0
 10
171.1495034364034
 20
108.0091161181937
 30
0.0
 10
170.9646481794725
 20
108.4784713597878
 30
0.0
 10
170.8935074179691
 20
108.7246818631233
 30
0.0
 10
170.7995470066809
 20
109.2192076894945
 30
0.0
 10
170.7755376767246
 20
109.4701386845865
 30
0.0
 10
170.774964556052
 20
110.2343840641427
 30
0.0
 10
170.8703636673706
 20
110.7366083661937
 30
0.0
 10
171.1482274595717
 20
111.4441728724661
 30
0.0
 10
171.2613894156522
 20
111.6678791362069
 30
0.0
 10
171.5275205976961
 20
112.0921490475275
 30
0.0
 10
171.6823483718958
 20
112.2944010095835
 30
0.0
 10
172.0225294776837
 20
112.6621117509517
 30
0.0
 10
172.2080319346334
 20
112.8287286262011
 30
0.0
 10
172.6103257356927
 20
113.1277780049965
 30
0.0
 10
172.8283337839447
 20
113.2602347130249
 30
0.0
 10
173.278932151095
 20
113.4794411137296
 30
0.0
 10
173.5134811499758
 20
113.5679262437332
 30
0.0
 10
174.0019411435281
 20
113.7014124736719
 30
0.0
 10
174.2542065392419
 20
113.7453541861656
 30
0.0
 10
174.7563871774022
 20
113.7851631826391
 30
0.0
 10
175.0088692947539
 20
113.7818189698256
 30
0.0
 10
175.5167343378234
 20
113.7266396498351
 30
0.0
 10
175.7642798110072
 20
113.6755937213657
 30
0.0
 10
176.245247348478
 20
113.5291833331301
 30
0.0
 10
176.4812072135832
 20
113.4325371283565
 30
0.0
 10
176.9277776631048
 20
113.1986321840434
 30
0.0
 10
177.1374225256783
 20
113.0625071702169
 30
0.0
 10
177.5304092324327
 20
112.7524529058878
 30
0.0
 10
177.7148051362477
 20
112.5767956583127
 30
0.0
 10
178.0433555541081
 20
112.1996557356483
 30
0.0
 10
178.1892976506313
 20
111.9971895303784
 30
0.0
 10
178.4441830058335
 20
111.5636132322451
 30
0.0
 10
178.5524943186418
 20
111.3323213886636
 30
0.0
 10
178.7223292960587
 20
110.8589617085303
 30
0.0
 10
178.7853246571958
 20
110.6146799117096
 30
0.0
 10
178.8253454976901
 20
110.3623531848295
 30
0.0
  0
SPLINE
  5
136
330
1F
100
AcDbEntity
  8
0
  6
HIDDEN
 62
     7
370
     0
100
AcDbSpline
210
0.0
220
0.0
230
1.0
 70
     8
 71
     3
 72
    68
 73
    64
 74
     0
 42
0.00000001
 43
0.00000001
 12
1.0
 22
0.0
 32
0.0
 13
1.0
 23
0.0
 33
0.0
 40
0.0
 40
0.0
 40
0.0
 40
0.0
 40
0.0312499999999999
 40
0.0312499999999999
 40
0.0624999999999998
 40
0.0624999999999998
 40
0.0937499999999997
 40
0.0937499999999997
 40
0.1249999999999996
 40
0.1249999999999996
 40
0.1562499999999994
 40
0.1562499999999994
 40
0.1874999999999993
 40
0.1874999999999993
 40
0.2187499999999992
 40
0.2187499999999992
 40
0.2499999999999991
 40
0.2499999999999991
 40
0.2812499999999992
 40
0.2812499999999992
 40
0.3124999999999993
 40
0.3124999999999993
 40
0.3437499999999994
 40
0.3437499999999994
 40
0.3749999999999996
 40
0.3749999999999996
 40
0.4062499999999997
 40
0.4062499999999997
 40
0.4374999999999998
 40
0.4374999999999998
 40
0.4687499999999999
 40
0.4687499999999999
 40
0.5
 40
0.5
 40
0.5625000000000002
 40
0.5625000000000002
 40
0.5937500000000003
 40
0.5937500000000003
 40
0.6250000000000004
 40
0.6250000000000004
 40
0.6562500000000006
 40
0.6562500000000006
 40
0.6875000000000007
 40
0.6875000000000007
 40
0.7187500000000008
 40
0.7187500000000008
 40
0.7500000000000009
 40
0.7500000000000009
 40
0.7812500000000008
 40
0.7812500000000008
 40
0.8125000000000007
 40
0.8125000000000007
 40
0.8437500000000006
 40
0.8437500000000006
 40
0.8750000000000004
 40
0.8750000000000004
 40
0.9062500000000003
 40
0.9062500000000003
 40
0.9375000000000002
 40
0.9375000000000002
 40
0.9687500000000001
 40
0.9687500000000001
 40
1.0
 40
1.0
 40
1.0
 40
1.0
 10
178.8253454976901
 20
110.3623531848295
 30
0.0
 10
178.7853305453404
 20
110.6146427876451
 30
0.0
 10
178.7223887439291
 20
110.8586416380209
 30
0.0
 10
178.5530020818571
 20
111.3310600270834
 30
0.0
 10
178.4453085192716
 20
111.5614734132434
 30
0.0
 10
178.1900237507337
 20
111.9961780090404
 30
0.0
 10
178.0439845202615
 20
112.1988199756918
 30
0.0
 10
177.7157630837022
 20
112.5758092664496
 30
0.0
 10
177.5315157959272
 20
112.751467220027
 30
0.0
 10
177.1385556286189
 20
113.0617251889732
 30
0.0
 10
176.9292610316598
 20
113.1976703966231
 30
0.0
 10
176.4843756047224
 20
113.431060492029
 30
0.0
 10
176.2475780122234
 20
113.5283070984434
 30
0.0
 10
175.7668429433041
 20
113.6749785563147
 30
0.0
 10
175.5205998501213
 20
113.7258709012571
 30
0.0
 10
175.0158830701419
 20
113.7813982514926
 30
0.0
 10
174.7596883692054
 20
113.7852231385626
 30
0.0
 10
174.2573096200053
 20
113.7457993559182
 30
0.0
 10
174.0080599208217
 20
113.7027719067069
 30
0.0
 10
173.516532123343
 20
113.5690669372556
 30
0.0
 10
173.2812365221171
 20
113.4803970913504
 30
0.0
 10
172.830322627455
 20
113.261365727573
 30
0.0
 10
172.6127102769916
 20
113.1293641618895
 30
0.0
 10
172.2095031074433
 20
112.8300068808866
 30
0.0
 10
172.0238916150089
 20
112.6633879534487
 30
0.0
 10
171.6839035446064
 20
112.2962765280212
 30
0.0
 10
171.5288306137835
 20
112.0939727824805
 30
0.0
 10
171.2624875371201
 20
111.6698921028865
 30
0.0
 10
171.1495034364034
 20
111.4467324974203
 30
0.0
 10
170.9646481794725
 20
110.9773772558261
 30
0.0
 10
170.8935074179691
 20
110.7311667524906
 30
0.0
 10
170.7995470066809
 20
110.2366409261195
 30
0.0
 10
170.7755376767246
 20
109.9857099310274
 30
0.0
 10
170.774964556052
 20
109.2214645514712
 30
0.0
 10
170.8703636673706
 20
108.7192402494203
 30
0.0
 10
171.1482274595717
 20
108.0116757431479
 30
0.0
 10
171.2613894156522
 20
107.7879694794071
 30
0.0
 10
171.5275205976961
 20
107.3636995680865
 30
0.0
 10
171.6823483718958
 20
107.1614476060304
 30
0.0
 10
172.0225294776837
 20
106.7937368646623
 30
0.0
 10
172.2080319346334
 20
106.6271199894129
 30
0.0
 10
172.6103257356927
 20
106.3280706106175
 30
0.0
 10
172.8283337839447
 20
106.1956139025891
 30
0.0
 10
173.278932151095
 20
105.9764075018844
 30
0.0
 10
173.5134811499758
 20
105.8879223718808
 30
0.0
 10
174.0019411435281
 20
105.7544361419421
 30
0.0
 10
174.2542065392419
 20
105.7104944294484
 30
0.0
 10
174.7563871774022
 20
105.6706854329749
 30
0.0
 10
175.0088692947539
 20
105.6740296457884
 30
0.0
 10
175.5167343378234
 20
105.7292089657789
 30
0.0
 10
175.7642798110072
 20
105.7802548942483
 30
0.0
 10
176.245247348478
 20
105.9266652824839
 30
0.0
 10
176.4812072135832
 20
106.0233114872575
 30
0.0
 10
176.9277776631048
 20
106.2572164315705
 30
0.0
 10
177.1374225256783
 20
106.393341445397
 30
0.0
 10
177.5304092324327
 20
106.7033957097261
 30
0.0
 10
177.7148051362477
 20
106.8790529573013
 30
0.0
 10
178.0433555541081
 20
107.2561928799657
 30
0.0
 10
178.1892976506313
 20
107.4586590852355
 30
0.0
 10
178.4441830058335
 20
107.8922353833689
 30
0.0
 10
178.5524943186418
 20
108.1235272269504
 30
0.0
 10
178.7223292960587
 20
108.5968869070836
 30
0.0
 10
178.7853246571958
 20
108.8411687039044
 30
0.0
 10
178.8253454976901
 20
109.0934954307845
 30
0.0
  0
LINE
  5
137
330
1F
100
AcDbEntity
  8
0
  6
HIDDEN
 62
     7
370
     0
100
AcDbLine
 10
180.5753452965
 20
118.7279239204
 30
0.0
 11
180.5753452965
 21
100.7279246952
 31
0.0
  0
LINE
  5
138
330
1F
100
AcDbEntity
  8
0
  6
HIDDEN
 62
     7
370
     0
100
AcDbLine
 10
179.3253455573
 20
99.4779240247
 30
0.0
 11
179.3253455573
 21
119.9779245909
 31
0.0
  0
LINE
  5
139
330
1F
100
AcDbEntity
  8
0
  6
HIDDEN
 62
     7
370
     0
100
AcDbLine
 10
217.325346198
 20
100.7279246952
 30
0.0
 11
217.325346198
 21
118.7279239204
 31
0.0
  0
LINE
  5
13A
330
1F
100
AcDbEntity
  8
0
  6
HIDDEN
 62
     7
370
     0
100
AcDbLine
 10
241.0886880272
 20
147.4907673802
 30
0.0
 11
236.639551472
 21
138.9657553192
 31
0.0
  0
LINE
  5
13B
330
1F
100
AcDbEntity
  8
0
  6
HIDDEN
 62
     7
370
     0
100
AcDbLine
 10
236.639551472
 20
138.9657553192
 30
0.0
 11
236.6127889865
 21
138.9519531187
 31
0.0
  0
LINE
  5
13C
330
1F
100
AcDbEntity
  8
0
  6
HIDDEN
 62
     7
370
     0
100
AcDbLine
 10
234.5309663826
 20
133.5683628824
 30
0.0
 11
248.0865527206
 21
140.5588310119
 31
0.0
  0
LINE
  5
13D
330
1F
100
AcDbEntity
  8
0
  6
HIDDEN
 62
     7
370
     0
100
AcDbLine
 10
241.0619255417
 20
147.4769651797
 30
0.0
 11
241.0886880272
 21
147.4907673802
 31
0.0
  0
LINE
  5
13E
330
1F
100
AcDbEntity
  8
0
  6
HIDDEN
 62
     7
370
     0
100
AcDbLine
 10
223.4485034161
 20
78.3941090014
 30
0.0
 11
224.900487464
 21
78.7850819435
 31
0.0
  0
LINE
  5
13F
330
1F
100
AcDbEntity
  8
0
  6
HIDDEN
 62
     7
370
     0
100
AcDbLine
 10
240.179199379
 20
106.8167552259
 30
0.0
 11
245.8013776952
 21
108.3076878823
 31
0.0
  0
LINE
  5
140
330
1F
100
AcDbEntity
  8
0
  6
HIDDEN
 62
     7
370
     0
100
AcDbLine
 10
234.3060855084
 20
133.579361802
 30
0.0
 11
247.8182759398
 21
140.5474521127
 31
0.0
  0
LINE
  5
141
330
1F
100
AcDbEntity
  8
0
  6
HIDDEN
 62
     7
370
     0
100
AcDbLine
 10
248.0865527206
 20
140.5588310119
 30
0.0
 11
247.8182759398
 21
140.5474521127
 31
0.0
  0
LINE
  5
142
330
1F
100
AcDbEntity
  8
0
  6
HIDDEN
 62
     7
370
     0
100
AcDbLine
 10
236.639551472
 20
138.9657553192
 30
0.0
 11
236.5957942122
 21
138.7182023283
 31
0.0
  0
LINE
  5
143
330
1F
100
AcDbEntity
  8
0
  6
HIDDEN
 62
     7
370
     0
100
AcDbLine
 10
236.4521283918
 20
138.6441156175
 30
0.0
 11
236.5957942122
 21
138.7182023283
 31
0.0
  0
LINE
  5
144
330
1F
100
AcDbEntity
  8
0
  6
HIDDEN
 62
     7
370
     0
100
AcDbLine
 10
228.4769188875
 20
112.3286956828
 30
0.0
 11
228.4769188875
 21
89.2381701525
 31
0.0
  0
SPLINE
  5
145
330
1F
100
AcDbEntity
  8
0
  6
HIDDEN
 62
     7
370
     0
100
AcDbSpline
210
0.0
220
0.0
230
1.0
 70
     8
 71
     3
 72
     9
 73
     5
 74
     0
 42
0.00000001
 43
0.00000001
 12
1.0
 22
0.0
 32
0.0
 13
1.0
 23
0.0
 33
0.0
 40
0.0
 40
0.0
 40
0.0
 40
0.0
 40
0.5
 40
1.0
 40
1.0
 40
1.0
 40
1.0
 10
228.5239443360002
 20
113.6641343335099
 30
0.0
 10
228.5166631269471
 20
113.4415555697926
 30
0.0
 10
228.5008672935803
 20
112.9964106237044
 30
0.0
 10
228.4846606857043
 20
112.5512698676863
 30
0.0
 10
228.476920347753
 20
112.3286957872739
 30
0.0
  0
SPLINE
  5
146
330
1F
100
AcDbEntity
  8
0
  6
HIDDEN
 62
     7
370
     0
100
AcDbSpline
210
0.0
220
0.0
230
1.0
 70
     8
 71
     3
 72
    12
 73
     8
 74
     0
 42
0.00000001
 43
0.00000001
 12
1.0
 22
0.0
 32
0.0
 13
1.0
 23
0.0
 33
0.0
 40
0.0
 40
0.0
 40
0.0
 40
0.0
 40
0.499999999999999
 40
0.499999999999999
 40
0.7499999999999994
 40
0.7499999999999994
 40
1.0
 40
1.0
 40
1.0
 40
1.0
 10
227.5580185097111
 20
87.53617433501891
 30
0.0
 10
227.7567167445021
 20
87.87264142625561
 30
0.0
 10
227.9312010241869
 20
88.18137777327773
 30
0.0
 10
228.1656878665159
 20
88.61328649186606
 30
0.0
 10
228.2391574853025
 20
88.75208342607648
 30
0.0
 10
228.3712986074273
 20
89.01143594550433
 30
0.0
 10
228.4303700211487
 20
89.1325035093296
 30
0.0
 10
228.476920347751
 20
89.23817059278895
 30
0.0
  0
SPLINE
  5
147
330
1F
100
AcDbEntity
  8
0
  6
HIDDEN
 62
     7
370
     0
100
AcDbSpline
210
0.0
220
0.0
230
1.0
 70
     8
 71
     3
 72
    11
 73
     7
 74
     0
 42
0.00000001
 43
0.00000001
 12
1.0
 22
0.0
 32
0.0
 13
1.0
 23
0.0
 33
0.0
 40
0.0
 40
0.0
 40
0.0
 40
0.0
 40
0.2686859385476228
 40
0.5373201394566187
 40
0.8096165988313326
 40
1.0
 40
1.0
 40
1.0
 40
1.0
 10
230.8843393140658
 20
138.9431241806583
 30
0.0
 10
230.4733344013844
 20
139.2119787285397
 30
0.0
 10
229.6514037183233
 20
139.7496360541967
 30
0.0
 10
228.8718970847752
 20
140.7675580229814
 30
0.0
 10
228.5401697027547
 20
141.7748177917518
 30
0.0
 10
228.7162551751443
 20
142.4681527753775
 30
0.0
 10
228.7887107842788
 20
142.7534460928278
 30
0.0
  0
SPLINE
  5
148
330
1F
100
AcDbEntity
  8
0
  6
HIDDEN
 62
     7
370
     0
100
AcDbSpline
210
0.0
220
0.0
230
1.0
 70
     8
 71
     3
 72
    10
 73
     6
 74
     0
 42
0.00000001
 43
0.00000001
 12
1.0
 22
0.0
 32
0.0
 13
1.0
 23
0.0
 33
0.0
 40
0.0
 40
0.0
 40
0.0
 40
0.0
 40
0.5
 40
0.5
 40
1.0
 40
1.0
 40
1.0
 40
1.0
 10
230.6618650116339
 20
134.0928410388439
 30
0.0
 10
230.1138519156492
 20
130.7167377706857
 30
0.0
 10
229.6353780056445
 20
127.3302300210233
 30
0.0
 10
228.895756299061
 20
120.5246980995455
 30
0.0
 10
228.6365179197473
 20
117.1053882399363
 30
0.0
 10
228.5239443360002
 20
113.6641343335099
 30
0.0
  0
SPLINE
  5
149
330
1F
100
AcDbEntity
  8
0
  6
HIDDEN
 62
     7
370
     0
100
AcDbSpline
210
0.0
220
0.0
230
1.0
 70
     8
 71
     3
 72
    10
 73
     6
 74
     0
 42
0.00000001
 43
0.00000001
 12
1.0
 22
0.0
 32
0.0
 13
1.0
 23
0.0
 33
0.0
 40
0.0
 40
0.0
 40
0.0
 40
0.0
 40
0.5
 40
0.5
 40
1.0
 40
1.0
 40
1.0
 40
1.0
 10
230.8843409893554
 20
138.9431249626068
 30
0.0
 10
230.847809457384
 20
138.1745342459744
 30
0.0
 10
230.8108900591659
 20
137.3834749357003
 30
0.0
 10
230.7367294970075
 20
135.7665593145785
 30
0.0
 10
230.6994171056184
 20
134.9392094150691
 30
0.0
 10
230.6618650116339
 20
134.092841038844
 30
0.0
  0
LINE
  5
14A
330
1F
100
AcDbEntity
  8
0
  6
HIDDEN
 62
     7
370
     0
100
AcDbLine
 10
236.6381619387
 20
138.7182116415
 30
0.0
 11
236.5957942122
 21
138.7182023283
 31
0.0
  0
LINE
  5
14B
330
1F
100
AcDbEntity
  8
0
  6
HIDDEN
 62
     7
370
     0
100
AcDbLine
 10
241.0787936562
 20
147.2269311454
 30
0.0
 11
241.0886880272
 21
147.4907673802
 31
0.0
  0
LINE
  5
14C
330
1F
100
AcDbEntity
  8
0
  6
HIDDEN
 62
     7
370
     0
100
AcDbLine
 10
241.0787936562
 20
147.2269311454
 30
0.0
 11
236.6381619387
 21
138.7182116415
 31
0.0
  0
ARC
  5
14D
330
1F
100
AcDbEntity
  8
0
  6
HIDDEN
 62
     7
370
     0
100
AcDbCircle
 10
232.0309618697
 20
134.291362684
 30
0.0
 40
1.750268114836135
100
AcDbArc
 50
130.0483580546
 51
297.2376701437
  0
SPLINE
  5
14E
330
1F
100
AcDbEntity
  8
0
  6
HIDDEN
 62
     7
370
     0
100
AcDbSpline
210
0.0
220
0.0
230
1.0
 70
     8
 71
     3
 72
     8
 73
     4
 74
     0
 42
0.00000001
 43
0.00000001
 12
1.0
 22
0.0
 32
0.0
 13
1.0
 23
0.0
 33
0.0
 40
0.0022831964822631
 40
0.0022831964822631
 40
0.0022831964822631
 40
0.0022831964822631
 40
0.004807817125619
 40
0.004807817125619
 40
0.004807817125619
 40
0.004807817125619
 10
247.8182764566222
 20
140.5474524278266
 30
0.0
 10
247.6557330759319
 20
140.4356226214225
 30
0.0
 10
247.4938739952476
 20
140.3241419666739
 30
0.0
 10
247.3326573375469
 20
140.2129891661059
 30
0.0
  0
LINE
  5
14F
330
1F
100
AcDbEntity
  8
0
  6
HIDDEN
 62
     7
370
     0
100
AcDbLine
 10
236.6381619387
 20
138.7182116415
 30
0.0
 11
236.463769924
 21
138.5442461725
 31
0.0
  0
LINE
  5
150
330
1F
100
AcDbEntity
  8
0
  6
HIDDEN
 62
     7
370
     0
100
AcDbLine
 10
236.463769924
 20
138.5442461725
 30
0.0
 11
236.3765310758
 21
138.4992577042
 31
0.0
  0
LINE
  5
151
330
1F
100
AcDbEntity
  8
0
  6
HIDDEN
 62
     7
370
     0
100
AcDbLine
 10
240.7287542039
 20
146.7164024618
 30
0.0
 11
241.0787936562
 21
147.2269311454
 31
0.0
  0
CIRCLE
  5
152
330
1F
100
AcDbEntity
  8
0
  6
HIDDEN
 62
     7
370
     0
100
AcDbCircle
 10
244.2074892393
 20
143.6744924894
 30
0.0
 40
2.39269903355681
  0
LINE
  5
153
330
1F
100
AcDbEntity
  8
0
  6
HIDDEN
 62
     7
370
     0
100
AcDbLine
 10
254.082176488
 20
153.2679885533
 30
0.0
 11
253.8621086889
 21
153.489129236
 31
0.0
  0
LINE
  5
154
330
1F
100
AcDbEntity
  8
0
  6
HIDDEN
 62
     7
370
     0
100
AcDbLine
 10
254.082176488
 20
153.2679885533
 30
0.0
 11
248.0785172695
 21
141.7643517163
 31
0.0
  0
LINE
  5
155
330
1F
100
AcDbEntity
  8
0
  6
HIDDEN
 62
     7
370
     0
100
AcDbLine
 10
240.7287542039
 20
146.7164024618
 30
0.0
 11
236.463769924
 21
138.5442461725
 31
0.0
  0
LINE
  5
156
330
1F
100
AcDbEntity
  8
0
  6
HIDDEN
 62
     7
370
     0
100
AcDbLine
 10
232.8320291155
 20
132.7351719048
 30
0.0
 11
247.3326582723
 21
140.2129899617
 31
0.0
  0
LINE
  5
157
330
1F
100
AcDbEntity
  8
0
  6
HIDDEN
 62
     7
370
     0
100
AcDbLine
 10
240.7287542039
 20
146.7164024618
 30
0.0
 11
253.8621086889
 21
153.489129236
 31
0.0
  0
ARC
  5
158
330
1F
100
AcDbEntity
  8
0
  6
HIDDEN
 62
     7
370
     0
100
AcDbCircle
 10
271.3065672924
 20
129.6418635162
 30
0.0
 40
26.20108829852556
100
AcDbArc
 50
152.4403919532
 51
156.2052567325
  0
CIRCLE
  5
159
330
1F
100
AcDbEntity
  8
0
  6
HIDDEN
 62
     7
370
     0
100
AcDbCircle
 10
244.1547762576
 20
143.6172141372
 30
0.0
 40
1.644579086903611
  0
CIRCLE
  5
15A
330
1F
100
AcDbEntity
  8
0
  6
HIDDEN
 62
     7
370
     0
100
AcDbCircle
 10
243.5450535902
 20
143.0097785607
 30
0.0
 40
1.644777730496927
  0
LINE
  5
15B
330
1F
100
AcDbEntity
  8
0
  6
HIDDEN
 62
     7
370
     0
100
AcDbLine
 10
250.9619143122
 20
150.161014488
 30
0.0
 11
254.082176488
 21
153.2679885533
 31
0.0
  0
LINE
  5
15C
330
1F
100
AcDbEntity
  8
0
  6
HIDDEN
 62
     7
370
     0
100
AcDbLine
 10
253.8621086889
 20
153.489129236
 30
0.0
 11
251.0241229349
 21
150.663232049
 31
0.0
  0
LINE
  5
15D
330
1F
100
AcDbEntity
  8
0
  6
HIDDEN
 62
     7
370
     0
100
AcDbLine
 10
188.1253455096
 20
94.1930036899
 30
0.0
 11
188.1253455096
 21
87.7078246232
 31
0.0
  0
LINE
  5
15E
330
1F
100
AcDbEntity
  8
0
  6
HIDDEN
 62
     7
370
     0
100
AcDbLine
 10
153.8253460341
 20
94.6238716971
 30
0.0
 11
153.8253460341
 21
88.5695606377
 31
0.0
  0
SPLINE
  5
15F
330
1F
100
AcDbEntity
  8
0
  6
HIDDEN
 62
     7
370
     0
100
AcDbSpline
210
0.0
220
0.0
230
1.0
 70
     8
 71
     3
 72
    16
 73
    12
 74
     0
 42
0.00000001
 43
0.00000001
 12
1.0
 22
0.0
 32
0.0
 13
1.0
 23
0.0
 33
0.0
 40
0.0
 40
0.0
 40
0.0
 40
0.0
 40
0.2500000000000003
 40
0.2500000000000003
 40
0.3750000000000004
 40
0.3750000000000004
 40
0.5000000000000006
 40
0.5000000000000006
 40
0.7500000000000002
 40
0.7500000000000002
 40
1.0
 40
1.0
 40
1.0
 40
1.0
 10
189.0040251541305
 20
93.14401768156597
 30
0.0
 10
188.842792676646
 20
92.42962351937385
 30
0.0
 10
188.7223128370064
 20
91.77628125666516
 30
0.0
 10
188.599932319693
 20
90.88802601486128
 30
0.0
 10
188.5689546592956
 20
90.60734547850943
 30
0.0
 10
188.5273409216676
 20
90.07831148866944
 30
0.0
 10
188.5171050087348
 20
89.834990510091
 30
0.0
 10
188.5169166116787
 20
89.16696781957778
 30
0.0
 10
188.5570613143163
 20
88.8032869101583
 30
0.0
 10
188.7212150692559
 20
88.24339603760997
 30
0.0
 10
188.8427667196655
 20
88.05587474549283
 30
0.0
 10
189.0040251541305
 20
87.95784335280487
 30
0.0
  0
SPLINE
  5
160
330
1F
100
AcDbEntity
  8
0
  6
HIDDEN
 62
     7
370
     0
100
AcDbSpline
210
0.0
220
0.0
230
1.0
 70
     8
 71
     3
 72
    16
 73
    12
 74
     0
 42
0.00000001
 43
0.00000001
 12
1.0
 22
0.0
 32
0.0
 13
1.0
 23
0.0
 33
0.0
 40
0.0
 40
0.0
 40
0.0
 40
0.0
 40
0.2500000000000003
 40
0.2500000000000003
 40
0.3750000000000003
 40
0.3750000000000003
 40
0.5000000000000002
 40
0.5000000000000002
 40
0.7500000000000001
 40
0.7500000000000001
 40
1.0
 40
1.0
 40
1.0
 40
1.0
 10
189.0040251541305
 20
131.4980052628091
 30
0.0
 10
188.842792676646
 20
131.3999896497544
 30
0.0
 10
188.7223128370064
 20
131.2132536180783
 30
0.0
 10
188.5999323196931
 20
130.8002138105194
 30
0.0
 10
188.5689546592956
 20
130.6402133112865
 30
0.0
 10
188.5273409216676
 20
130.2734076601953
 30
0.0
 10
188.5171050087348
 20
130.0700705075713
 30
0.0
 10
188.5169166116787
 20
129.4027832409446
 30
0.0
 10
188.5570613143163
 20
128.8819687770566
 30
0.0
 10
188.7212150692559
 20
127.6846097615789
 30
0.0
 10
188.8427667196655
 20
127.0263401072829
 30
0.0
 10
189.0040251541305
 20
126.311830934048
 30
0.0
  0
LINE
  5
161
330
1F
100
AcDbEntity
  8
0
  6
HIDDEN
 62
     7
370
     0
100
AcDbLine
 10
188.1253455096
 20
131.7480239924
 30
0.0
 11
188.1253455096
 21
125.2628449257
 31
0.0
  0
LINE
  5
162
330
1F
100
AcDbEntity
  8
0
  6
HIDDEN
 62
     7
370
     0
100
AcDbLine
 10
153.8253460341
 20
130.8862879779
 30
0.0
 11
153.8253460341
 21
124.8319769185
 31
0.0
  0
LINE
  5
163
330
1F
100
AcDbEntity
  8
0
  6
HIDDEN
 62
     7
370
     0
100
AcDbLine
 10
152.3253467196
 20
130.0202622917
 30
0.0
 11
152.3253467196
 21
124.3989640754
 31
0.0
  0
LINE
  5
164
330
1F
100
AcDbEntity
  8
0
  6
HIDDEN
 62
     7
370
     0
100
AcDbLine
 10
152.3253467196
 20
95.0568845402
 30
0.0
 11
152.3253467196
 21
89.435586324
 31
0.0
  0
ELLIPSE
  5
165
330
1F
100
AcDbEntity
  8
0
  6
HIDDEN
 62
     7
370
     0
100
AcDbEllipse
 10
296.7329981086
 20
114.7279243078
 30
0.0
 11
44.68995984922155
 21
-38.24900208320854
 31
0.0
210
0.0
220
0.0
230
1.0
 40
0.2619221663
 41
3.299337342040596
 42
3.327136725517537
  0
ELLIPSE
  5
166
330
1F
100
AcDbEntity
  8
0
  6
HIDDEN
 62
     7
370
     0
100
AcDbEllipse
 10
234.4312920879
 20
114.7279243078
 30
0.0
 11
21.7033522183969
 21
39.93780551705125
 31
0.0
210
0.0
220
0.0
230
1.0
 40
0.1027366081
 41
0.5382946635833096
 42
0.9075698472121428
  0
ELLIPSE
  5
167
330
1F
100
AcDbEntity
  8
0
  6
HIDDEN
 62
     7
370
     0
100
AcDbEllipse
 10
178.7946156425
 20
114.7279243078
 30
0.0
 11
76.13546212851935
 21
39.78608832149816
 31
0.0
210
0.0
220
0.0
230
1.0
 40
0.0542617563
 41
5.554832017021619
 42
5.931927756417028
  0
SPLINE
  5
168
330
1F
100
AcDbEntity
  8
0
  6
HIDDEN
 62
     7
370
     0
100
AcDbSpline
210
0.0
220
0.0
230
1.0
 70
     8
 71
     3
 72
    10
 73
     6
 74
     0
 42
0.00000001
 43
0.00000001
 12
1.0
 22
0.0
 32
0.0
 13
1.0
 23
0.0
 33
0.0
 40
0.0
 40
0.0
 40
0.0
 40
0.0
 40
0.5
 40
0.5
 40
1.0
 40
1.0
 40
1.0
 40
1.0
 10
244.5599697385375
 20
141.073183888056
 30
0.0
 10
243.8829748533965
 20
140.0350736239125
 30
0.0
 10
243.2585700009556
 20
138.9392554259773
 30
0.0
 10
242.134761272479
 20
136.6185247697912
 30
0.0
 10
241.6351008206908
 20
135.3937948927077
 30
0.0
 10
241.2136472977752
 20
134.0928410388441
 30
0.0
  0
SPLINE
  5
169
330
1F
100
AcDbEntity
  8
0
  6
HIDDEN
 62
     7
370
     0
100
AcDbSpline
210
0.0
220
0.0
230
1.0
 70
     8
 71
     3
 72
    12
 73
     8
 74
     0
 42
0.00000001
 43
0.00000001
 12
1.0
 22
0.0
 32
0.0
 13
1.0
 23
0.0
 33
0.0
 40
0.0
 40
0.0
 40
0.0
 40
0.0
 40
0.2500000000000002
 40
0.2500000000000002
 40
0.5000000000000003
 40
0.5000000000000003
 40
1.0
 40
1.0
 40
1.0
 40
1.0
 10
230.8843409893554
 20
138.9431249626068
 30
0.0
 10
231.447209472018
 20
139.1108530294245
 30
0.0
 10
232.0017120794127
 20
139.2966278640431
 30
0.0
 10
233.0801339186586
 20
139.6968769158097
 30
0.0
 10
233.6062843252054
 20
139.9120041261383
 30
0.0
 10
235.1466497891234
 20
140.5985142848332
 30
0.0
 10
236.1229167404379
 20
141.1109762402839
 30
0.0
 10
237.0493727661591
 20
141.6692214242081
 30
0.0
  0
LINE
  5
16A
330
1F
100
AcDbEntity
  8
0
  6
HIDDEN
 62
     7
370
     0
100
AcDbLine
 10
152.3253467196
 20
124.3989640754
 30
0.0
 11
152.3253467196
 21
112.6299117133
 31
0.0
  0
LINE
  5
16B
330
1F
100
AcDbEntity
  8
0
  6
HIDDEN
 62
     7
370
     0
100
AcDbLine
 10
152.3253467196
 20
106.8259369023
 30
0.0
 11
152.3253467196
 21
95.0568845402
 31
0.0
  0
LINE
  5
16C
330
1F
100
AcDbEntity
  8
0
  6
HIDDEN
 62
     7
370
     0
100
AcDbLine
 10
153.8253460341
 20
105.7627132069
 30
0.0
 11
153.8253460341
 21
94.6238716971
 31
0.0
  0
LINE
  5
16D
330
1F
100
AcDbEntity
  8
0
  6
HIDDEN
 62
     7
370
     0
100
AcDbLine
 10
153.8253460341
 20
124.8319769185
 30
0.0
 11
153.8253460341
 21
113.6931354087
 31
0.0
  0
LINE
  5
16E
330
1F
100
AcDbEntity
  8
0
  6
HIDDEN
 62
     7
370
     0
100
AcDbLine
 10
190.1253455027
 20
124.7656313609
 30
0.0
 11
190.1253455027
 21
94.6902172547
 31
0.0
  0
LINE
  5
16F
330
1F
100
AcDbEntity
  8
0
  6
HIDDEN
 62
     7
370
     0
100
AcDbLine
 10
188.1253455096
 20
125.2628449257
 30
0.0
 11
188.1253455096
 21
94.1930036899
 31
0.0
  0
SPLINE
  5
170
330
1F
100
AcDbEntity
  8
0
  6
HIDDEN
 62
     7
370
     0
100
AcDbSpline
210
0.0
220
0.0
230
1.0
 70
     8
 71
     3
 72
    24
 73
    20
 74
     0
 42
0.00000001
 43
0.00000001
 12
1.0
 22
0.0
 32
0.0
 13
1.0
 23
0.0
 33
0.0
 40
0.0
 40
0.0
 40
0.0
 40
0.0
 40
0.125
 40
0.125
 40
0.25
 40
0.25
 40
0.3750000000000001
 40
0.3750000000000001
 40
0.4375000000000001
 40
0.4375000000000001
 40
0.5000000000000001
 40
0.5000000000000001
 40
0.6250000000000001
 40
0.6250000000000001
 40
0.7500000000000001
 40
0.7500000000000001
 40
0.8750000000000001
 40
0.8750000000000001
 40
1.0
 40
1.0
 40
1.0
 40
1.0
 10
158.7753454976901
 20
105.6419632547077
 30
0.0
 10
159.0131491299652
 20
105.9409703570379
 30
0.0
 10
159.2432347911765
 20
106.2453082083566
 30
0.0
 10
159.6779881897863
 20
106.8710417457526
 30
0.0
 10
159.8829209820725
 20
107.1922664730801
 30
0.0
 10
160.2480229325712
 20
107.8641922438129
 30
0.0
 10
160.4098233183627
 20
108.2195074756917
 30
0.0
 10
160.5816835229424
 20
108.7697386970442
 30
0.0
 10
160.6272687146025
 20
108.9561424820246
 30
0.0
 10
160.6897434541774
 20
109.3362769841209
 30
0.0
 10
160.7064145999259
 20
109.5319467764068
 30
0.0
 10
160.7069356431024
 20
110.1104271550812
 30
0.0
 10
160.6424933422156
 20
110.48833899405
 30
0.0
 10
160.4126442488423
 20
111.2303070191484
 30
0.0
 10
160.2541235711792
 20
111.5790224793094
 30
0.0
 10
159.8898892412791
 20
112.2521148770425
 30
0.0
 10
159.6831530012155
 20
112.5770673642842
 30
0.0
 10
159.2452150554751
 20
113.207991174746
 30
0.0
 10
159.0139423281955
 20
113.5138809150866
 30
0.0
 10
158.7753454976902
 20
113.8138853609061
 30
0.0
  0
LINE
  5
171
330
1F
100
AcDbEntity
  8
0
  6
HIDDEN
 62
     7
370
     0
100
AcDbLine
 10
158.7753441447
 20
105.6419630442
 30
0.0
 11
158.7753441447
 21
113.8138855714
 31
0.0
  0
SPLINE
  5
172
330
1F
100
AcDbEntity
  8
0
  6
HIDDEN
 62
     7
370
     0
100
AcDbSpline
210
0.0
220
0.0
230
1.0
 70
     8
 71
     3
 72
     8
 73
     4
 74
     0
 42
0.00000001
 43
0.00000001
 12
1.0
 22
0.0
 32
0.0
 13
1.0
 23
0.0
 33
0.0
 40
0.0000249638557296
 40
0.0000249638557296
 40
0.0000249638557296
 40
0.0000249638557296
 40
0.0049776420541172
 40
0.0049776420541172
 40
0.0049776420541172
 40
0.0049776420541172
 10
153.8253454976901
 20
105.7627134109705
 30
0.0
 10
155.4753217321997
 20
105.7214341732022
 30
0.0
 10
157.1253230519447
 20
105.6812124919628
 30
0.0
 10
158.7753454976901
 20
105.6419632547077
 30
0.0
  0
SPLINE
  5
173
330
1F
100
AcDbEntity
  8
0
  6
HIDDEN
 62
     7
370
     0
100
AcDbSpline
210
0.0
220
0.0
230
1.0
 70
     8
 71
     3
 72
     8
 73
     4
 74
     0
 42
0.00000001
 43
0.00000001
 12
1.0
 22
0.0
 32
0.0
 13
1.0
 23
0.0
 33
0.0
 40
0.0000249631533153
 40
0.0000249631533153
 40
0.0000249631533153
 40
0.0000249631533153
 40
0.0049776413517029
 40
0.0049776413517029
 40
0.0049776413517029
 40
0.0049776413517029
 10
158.7753454976901
 20
113.8138853609062
 30
0.0
 10
157.1253230519447
 20
113.7746361236512
 30
0.0
 10
155.4753217321996
 20
113.7344144424117
 30
0.0
 10
153.8253454976901
 20
113.6931352046435
 30
0.0
  0
SPLINE
  5
174
330
1F
100
AcDbEntity
  8
0
  6
HIDDEN
 62
     7
370
     0
100
AcDbSpline
210
0.0
220
0.0
230
1.0
 70
     8
 71
     3
 72
     8
 73
     4
 74
     0
 42
0.00000001
 43
0.00000001
 12
1.0
 22
0.0
 32
0.0
 13
1.0
 23
0.0
 33
0.0
 40
0.0
 40
0.0
 40
0.0
 40
0.0
 40
1.0
 40
1.0
 40
1.0
 40
1.0
 10
152.3253454976879
 20
106.8259369748267
 30
0.0
 10
152.7921061090657
 20
106.4105737292036
 30
0.0
 10
153.2978536558458
 20
106.065983299899
 30
0.0
 10
153.8253454976901
 20
105.7627134109704
 30
0.0
  0
SPLINE
  5
175
330
1F
100
AcDbEntity
  8
0
  6
HIDDEN
 62
     7
370
     0
100
AcDbSpline
210
0.0
220
0.0
230
1.0
 70
     8
 71
     3
 72
     8
 73
     4
 74
     0
 42
0.00000001
 43
0.00000001
 12
1.0
 22
0.0
 32
0.0
 13
1.0
 23
0.0
 33
0.0
 40
0.0
 40
0.0
 40
0.0
 40
0.0
 40
1.0
 40
1.0
 40
1.0
 40
1.0
 10
153.8253454976901
 20
113.6931352046435
 30
0.0
 10
153.2978536558466
 20
113.3898653157154
 30
0.0
 10
152.7921061090673
 20
113.0452748864114
 30
0.0
 10
152.3253454976901
 20
112.6299116407893
 30
0.0
  0
LINE
  5
176
330
1F
100
AcDbEntity
  8
0
  6
HIDDEN
 62
     7
370
     0
100
AcDbLine
 10
152.3253467196
 20
106.8259369023
 30
0.0
 11
152.3253467196
 21
112.6299117133
 31
0.0
  0
SPLINE
  5
177
330
1F
100
AcDbEntity
  8
0
  6
HIDDEN
 62
     7
370
     0
100
AcDbSpline
210
0.0
220
0.0
230
1.0
 70
     8
 71
     3
 72
    72
 73
    68
 74
     0
 42
0.00000001
 43
0.00000001
 12
1.0
 22
0.0
 32
0.0
 13
1.0
 23
0.0
 33
0.0
 40
-0.0312499999999999
 40
-0.0312499999999999
 40
0.0
 40
0.0
 40
0.03125
 40
0.03125
 40
0.0625
 40
0.0625
 40
0.09375
 40
0.09375
 40
0.125
 40
0.125
 40
0.15625
 40
0.15625
 40
0.1875
 40
0.1875
 40
0.21875
 40
0.21875
 40
0.25
 40
0.25
 40
0.28125
 40
0.28125
 40
0.3125
 40
0.3125
 40
0.34375
 40
0.34375
 40
0.375
 40
0.375
 40
0.390625
 40
0.390625
 40
0.40625
 40
0.40625
 40
0.4375000000000001
 40
0.4375000000000001
 40
0.4687500000000001
 40
0.4687500000000001
 40
0.5000000000000001
 40
0.5000000000000001
 40
0.5312500000000001
 40
0.5312500000000001
 40
0.5625000000000001
 40
0.5625000000000001
 40
0.5937500000000001
 40
0.5937500000000001
 40
0.6250000000000001
 40
0.6250000000000001
 40
0.6562500000000001
 40
0.6562500000000001
 40
0.6875000000000001
 40
0.6875000000000001
 40
0.7187500000000001
 40
0.7187500000000001
 40
0.7500000000000001
 40
0.7500000000000001
 40
0.7812500000000001
 40
0.7812500000000001
 40
0.8125000000000001
 40
0.8125000000000001
 40
0.8437500000000001
 40
0.8437500000000001
 40
0.8750000000000001
 40
0.8750000000000001
 40
0.9062500000000001
 40
0.9062500000000001
 40
0.9375000000000001
 40
0.9375000000000001
 40
0.9687500000000001
 40
0.9687500000000001
 40
1.0
 40
1.0
 40
1.03125
 40
1.03125
 10
171.4492918165153
 20
112.1687579576218
 30
0.0
 10
171.8237220363892
 20
112.579113758107
 30
0.0
 10
172.0285746376548
 20
112.7627628407655
 30
0.0
 10
172.4714428345018
 20
113.0897177442608
 30
0.0
 10
172.7113982518201
 20
113.2334959524406
 30
0.0
 10
173.2070092345946
 20
113.4710133078865
 30
0.0
 10
173.4642755257491
 20
113.5663328727842
 30
0.0
 10
173.9976292935862
 20
113.7104184054187
 30
0.0
 10
174.2719094334845
 20
113.7581544123883
 30
0.0
 10
174.818337968064
 20
113.8037365529221
 30
0.0
 10
175.0929142865318
 20
113.8023027928499
 30
0.0
 10
175.6448814608025
 20
113.749389484759
 30
0.0
 10
175.9154984233742
 20
113.6984197585548
 30
0.0
 10
176.4417835944534
 20
113.5498131316113
 30
0.0
 10
176.699415157861
 20
113.4515277608541
 30
0.0
 10
177.1953413225345
 20
113.2072744016684
 30
0.0
 10
177.4283250003261
 20
113.0641942706463
 30
0.0
 10
177.8646582756512
 20
112.7363357201774
 30
0.0
 10
178.0699395295094
 20
112.5493420824772
 30
0.0
 10
178.4379738273696
 20
112.1399114626542
 30
0.0
 10
178.5994888173548
 20
111.9198060216697
 30
0.0
 10
178.8766465005019
 20
111.4480559402317
 30
0.0
 10
178.9930406799357
 20
111.1930394137905
 30
0.0
 10
179.1663147165823
 20
110.6718015903935
 30
0.0
 10
179.224761271048
 20
110.4043174726125
 30
0.0
 10
179.2686259965239
 20
109.9924018132801
 30
0.0
 10
179.2758062131533
 20
109.8526945102046
 30
0.0
 10
179.2748381858578
 20
109.5765714547422
 30
0.0
 10
179.2668353964442
 20
109.4393948884114
 30
0.0
 10
179.2207626645318
 20
109.0304614471481
 30
0.0
 10
179.1598278320797
 20
108.7585351981439
 30
0.0
 10
178.9817076756712
 20
108.2353546816888
 30
0.0
 10
178.8661397643289
 20
107.9866426813254
 30
0.0
 10
178.5842929803896
 20
107.5137581563335
 30
0.0
 10
178.4174230349749
 20
107.2901489391014
 30
0.0
 10
178.0480974801761
 20
106.8854915509137
 30
0.0
 10
177.8433123238786
 20
106.7010779627442
 30
0.0
 10
177.3986593763624
 20
106.3720519278498
 30
0.0
 10
177.1638102468517
 20
106.2308838518616
 30
0.0
 10
176.6704004843746
 20
105.9924743230811
 30
0.0
 10
176.40911353067
 20
105.8946917666762
 30
0.0
 10
175.8783752501573
 20
105.7493637384861
 30
0.0
 10
175.60873554926
 20
105.7010743482911
 30
0.0
 10
175.0609842095148
 20
105.6526591245045
 30
0.0
 10
174.7810801676562
 20
105.6531173101404
 30
0.0
 10
174.2340022598212
 20
105.7032691657426
 30
0.0
 10
173.9643971551338
 20
105.7524427327746
 30
0.0
 10
173.4332423984777
 20
105.9001172560817
 30
0.0
 10
173.1719475820342
 20
105.9992724204472
 30
0.0
 10
172.6796336038588
 20
106.240285190924
 30
0.0
 10
172.4456767282802
 20
106.3827733155487
 30
0.0
 10
172.0035081077497
 20
106.7142607445336
 30
0.0
 10
171.7983145766381
 20
106.901694372522
 30
0.0
 10
171.4326203602801
 20
107.3085980915724
 30
0.0
 10
171.2698497378917
 20
107.5297771662414
 30
0.0
 10
170.9888973071262
 20
108.0095244954567
 30
0.0
 10
170.8756934548526
 20
108.259536462267
 30
0.0
 10
170.7030847307137
 20
108.7796116722874
 30
0.0
 10
170.6434784480373
 20
109.0533431369171
 30
0.0
 10
170.5855866779675
 20
109.6019607868156
 30
0.0
 10
170.5863762168274
 20
109.8763006507072
 30
0.0
 10
170.6475666924439
 20
110.4250426018462
 30
0.0
 10
170.7086954161779
 20
110.6981079157033
 30
0.0
 10
170.8847751018077
 20
111.2182731644717
 30
0.0
 10
171.0011056967976
 20
111.4705922980306
 30
0.0
 10
171.2843069265384
 20
111.9469966394376
 30
0.0
 10
171.4492918165153
 20
112.1687579576218
 30
0.0
 10
171.8237220363892
 20
112.579113758107
 30
0.0
  0
CIRCLE
  5
178
330
1F
100
AcDbEntity
  8
0
  6
HIDDEN
 62
     7
370
     0
100
AcDbCircle
 10
174.8253454977
 20
109.7279243078
 30
0.0
 40
4.049999999999997
  0
ELLIPSE
  5
179
330
1F
100
AcDbEntity
  8
0
  6
HIDDEN
 62
     7
370
     0
100
AcDbEllipse
 10
245.2463524873
 20
109.7279243078
 30
0.0
 11
0.3625968933544073
 21
31.99994872963521
 31
0.0
210
0.0
220
0.0
230
1.0
 40
0.1579788463
 41
1.572586410216238
 42
1.663686400913365
  0
ELLIPSE
  5
17A
330
1F
100
AcDbEntity
  8
0
  6
HIDDEN
 62
     7
370
     0
100
AcDbEllipse
 10
246.3575387897
 20
109.7279243078
 30
0.0
 11
23.18063734190941
 21
31.94020976600033
 31
0.0
210
0.0
220
0.0
230
1.0
 40
0.0843483871
 41
1.723035943762357
 42
2.32800400827268
  0
LINE
  5
17B
330
1F
100
AcDbEntity
  8
0
  6
HIDDEN
 62
     7
370
     0
100
AcDbLine
 10
228.4769188875
 20
109.7279243078
 30
0.0
 11
228.4769188875
 21
89.2093513068
 31
0.0
  0
LINE
  5
17C
330
1F
100
AcDbEntity
  8
0
  6
HIDDEN
 62
     7
370
     0
100
AcDbLine
 10
228.4769188875
 20
89.2093513068
 30
0.0
 11
228.4769188875
 21
89.2381701525
 31
0.0
  0
CIRCLE
  5
17D
330
1F
100
AcDbEntity
  8
0
  6
HIDDEN
 62
     7
370
     0
100
AcDbCircle
 10
202.3253454977
 20
109.7279243078
 30
0.0
 40
2.0
  0
LINE
  5
17E
330
1F
100
AcDbEntity
  8
0
  6
HIDDEN
 62
     7
370
     0
100
AcDbLine
 10
228.4769188875
 20
109.7279243078
 30
0.0
 11
228.4769188875
 21
112.3286956828
 31
0.0
  0
LINE
  5
17F
330
1F
100
AcDbEntity
  8
0
  6
HIDDEN
 62
     7
370
     0
100
AcDbLine
 10
230.6618649774
 20
134.0928409155
 30
0.0
 11
241.2136454397
 21
134.0928409155
 31
0.0
  0
ELLIPSE
  5
180
330
1F
100
AcDbEntity
  8
0
  6
HIDDEN
 62
     7
370
     0
100
AcDbEllipse
 10
269.3228844415
 20
127.3572513787
 30
0.0
 11
-20.53701774402606
 21
-20.48699060099064
 31
0.0
210
0.0
220
0.0
230
1.0
 40
0.9950966972
 41
5.26162808532702
 42
5.490416028496779
  0
LINE
  5
181
330
1F
100
AcDbEntity
  8
0
  6
HIDDEN
 62
     7
370
     0
100
AcDbLine
 10
240.3871339076
 20
127.5347188022
 30
0.0
 11
240.1903976017
 21
109.7279243078
 31
0.0
  0
LINE
  5
182
330
1F
100
AcDbEntity
  8
0
  6
HIDDEN
 62
     7
370
     0
100
AcDbLine
 10
214.3253457063
 20
121.9779239874
 30
0.0
 11
214.3253457063
 21
125.4761326965
 31
0.0
  0
LINE
  5
183
330
1F
100
AcDbEntity
  8
0
  6
HIDDEN
 62
     7
370
     0
100
AcDbLine
 10
208.3253447228
 20
125.4778426047
 30
0.0
 11
208.3253447228
 21
121.9779239874
 31
0.0
  0
LINE
  5
184
330
1F
100
AcDbEntity
  8
0
  6
HIDDEN
 62
     7
370
     0
100
AcDbLine
 10
190.3253454977
 20
85.4779235926
 30
0.0
 11
190.4182387181
 21
85.5708174314
 31
0.0
  0
LINE
  5
185
330
1F
100
AcDbEntity
  8
0
  6
HIDDEN
 62
     7
370
     0
100
AcDbLine
 10
190.4182387181
 20
133.8850311842
 30
0.0
 11
190.3253454977
 21
133.9779250231
 31
0.0
  0
ARC
  5
186
330
1F
100
AcDbEntity
  8
0
  6
HIDDEN
 62
     7
370
     0
100
AcDbCircle
 10
189.7111319353
 20
86.2779243078
 30
0.0
 40
1.000000000000028
100
AcDbArc
 50
315.0
 51
0.0
  0
ARC
  5
187
330
1F
100
AcDbEntity
  8
0
  6
HIDDEN
 62
     7
370
     0
100
AcDbCircle
 10
189.7111319353
 20
86.2779243078
 30
0.0
 40
1.00000000000001
100
AcDbArc
 50
0.0
 51
52.1052014664
  0
ARC
  5
188
330
1F
100
AcDbEntity
  8
0
  6
HIDDEN
 62
     7
370
     0
100
AcDbCircle
 10
189.7111319353
 20
133.1779243078
 30
0.0
 40
1.000000000000006
100
AcDbArc
 50
351.8087250651
 51
45.0
  0
ARC
  5
189
330
1F
100
AcDbEntity
  8
0
  6
HIDDEN
 62
     7
370
     0
100
AcDbCircle
 10
189.7111319353
 20
133.1779243078
 30
0.0
 40
1.000000000000006
100
AcDbArc
 50
307.8947985336
 51
351.8087250651
  0
LINE
  5
18A
330
1F
100
AcDbEntity
  8
0
  6
HIDDEN
 62
     7
370
     0
100
AcDbLine
 10
190.7111319335
 20
86.2779240962
 30
0.0
 11
190.7111319335
 21
133.1779245194
 31
0.0
  0
LINE
  5
18B
330
1F
100
AcDbEntity
  8
0
  6
HIDDEN
 62
     7
370
     0
100
AcDbLine
 10
190.7111319335
 20
86.2779240962
 30
0.0
 11
190.7111319335
 21
133.1779245194
 31
0.0
  0
LINE
  5
18C
330
1F
100
AcDbEntity
  8
0
  6
HIDDEN
 62
     7
370
     0
100
AcDbLine
 10
213.825344693
 20
120.0292544346
 30
0.0
 11
213.825344693
 21
121.8277091067
 31
0.0
  0
LINE
  5
18D
330
1F
100
AcDbEntity
  8
0
  6
HIDDEN
 62
     7
370
     0
100
AcDbLine
 10
213.825344693
 20
114.2255986016
 30
0.0
 11
213.825344693
 21
117.927698968
 31
0.0
  0
LINE
  5
18E
330
1F
100
AcDbEntity
  8
0
  6
HIDDEN
 62
     7
370
     0
100
AcDbLine
 10
208.8253457361
 20
121.8277091067
 30
0.0
 11
208.8253457361
 21
114.2239590082
 31
0.0
  0
LINE
  5
18F
330
1F
100
AcDbEntity
  8
0
  6
HIDDEN
 62
     7
370
     0
100
AcDbLine
 10
220.0469892734
 20
128.9464529511
 30
0.0
 11
211.1350443476
 21
121.6158443969
 31
0.0
  0
LINE
  5
190
330
1F
100
AcDbEntity
  8
0
  6
HIDDEN
 62
     7
370
     0
100
AcDbLine
 10
213.4338371718
 20
117.0325494278
 30
0.0
 11
219.8399860674
 21
122.3019916471
 31
0.0
  0
LINE
  5
191
330
1F
100
AcDbEntity
  8
0
  6
HIDDEN
 62
     7
370
     0
100
AcDbLine
 10
152.3253467196
 20
93.5314945783
 30
0.0
 11
153.8555730396
 21
94.4149732497
 31
0.0
  0
LINE
  5
192
330
1F
100
AcDbEntity
  8
0
  6
HIDDEN
 62
     7
370
     0
100
AcDbLine
 10
153.8555730396
 20
125.040875366
 30
0.0
 11
152.3253467196
 21
125.9243540373
 31
0.0
  0
LINE
  5
193
330
1F
100
AcDbEntity
  8
0
  6
HIDDEN
 62
     7
370
     0
100
AcDbLine
 10
162.3253446334
 20
93.7279235478
 30
0.0
 11
163.3271459752
 21
93.7279235478
 31
0.0
  0
LINE
  5
194
330
1F
100
AcDbEntity
  8
0
  6
HIDDEN
 62
     7
370
     0
100
AcDbLine
 10
163.3271459752
 20
125.7279250678
 30
0.0
 11
162.3253446334
 21
125.7279250678
 31
0.0
  0
ARC
  5
195
330
1F
100
AcDbEntity
  8
0
  6
HIDDEN
 62
     7
370
     0
100
AcDbCircle
 10
163.3271468126
 20
95.7279243078
 30
0.0
 40
2.000000000000016
100
AcDbArc
 50
270.0
 51
315.0
  0
ARC
  5
196
330
1F
100
AcDbEntity
  8
0
  6
HIDDEN
 62
     7
370
     0
100
AcDbCircle
 10
163.3271468126
 20
123.7279243078
 30
0.0
 40
2.000000000000028
100
AcDbArc
 50
45.0
 51
90.0
  0
ARC
  5
197
330
1F
100
AcDbEntity
  8
0
  6
HIDDEN
 62
     7
370
     0
100
AcDbCircle
 10
162.3253454977
 20
95.7279243078
 30
0.0
 40
2.0
100
AcDbArc
 50
189.9742217944
 51
270.0
  0
ARC
  5
198
330
1F
100
AcDbEntity
  8
0
  6
HIDDEN
 62
     7
370
     0
100
AcDbCircle
 10
162.3253454977
 20
123.7279243078
 30
0.0
 40
2.0
100
AcDbArc
 50
90.0
 51
170.0257782056
  0
LINE
  5
199
330
1F
100
AcDbEntity
  8
0
  6
HIDDEN
 62
     7
370
     0
100
AcDbLine
 10
164.7413611674
 20
94.3137105461
 30
0.0
 11
166.1555744969
 21
95.7279238757
 31
0.0
  0
LINE
  5
19A
330
1F
100
AcDbEntity
  8
0
  6
HIDDEN
 62
     7
370
     0
100
AcDbLine
 10
166.1555744969
 20
123.7279247399
 30
0.0
 11
164.7413611674
 21
125.1421380695
 31
0.0
  0
LINE
  5
19B
330
1F
100
AcDbEntity
  8
0
  6
HIDDEN
 62
     7
370
     0
100
AcDbLine
 10
153.8555730396
 20
94.4149732497
 30
0.0
 11
158.7555740291
 21
95.7279238757
 31
0.0
  0
LINE
  5
19C
330
1F
100
AcDbEntity
  8
0
  6
HIDDEN
 62
     7
370
     0
100
AcDbLine
 10
158.7555740291
 20
123.7279247399
 30
0.0
 11
153.8555730396
 21
125.040875366
 31
0.0
  0
LINE
  5
19D
330
1F
100
AcDbEntity
  8
0
  6
HIDDEN
 62
     7
370
     0
100
AcDbLine
 10
160.3555731737
 20
124.0743348282
 30
0.0
 11
159.755574193
 21
123.7279247399
 31
0.0
  0
LINE
  5
19E
330
1F
100
AcDbEntity
  8
0
  6
HIDDEN
 62
     7
370
     0
100
AcDbLine
 10
159.755574193
 20
95.7279238757
 30
0.0
 11
160.3555731737
 21
95.3815137874
 31
0.0
  0
ARC
  5
19F
330
1F
100
AcDbEntity
  8
0
  6
HIDDEN
 62
     7
370
     0
100
AcDbCircle
 10
178.8253454977
 20
96.2279243078
 30
0.0
 40
0.5
100
AcDbArc
 50
270.0
 51
360.0
  0
ARC
  5
1A0
330
1F
100
AcDbEntity
  8
0
  6
HIDDEN
 62
     7
370
     0
100
AcDbCircle
 10
178.8253454977
 20
123.2279243078
 30
0.0
 40
0.5
100
AcDbArc
 50
0.0
 51
90.0
  0
LINE
  5
1A1
330
1F
100
AcDbEntity
  8
0
  6
HIDDEN
 62
     7
370
     0
100
AcDbLine
 10
166.1555744969
 20
95.7279238757
 30
0.0
 11
178.8253454753
 21
95.7279238757
 31
0.0
  0
LINE
  5
1A2
330
1F
100
AcDbEntity
  8
0
  6
HIDDEN
 62
     7
370
     0
100
AcDbLine
 10
178.8253454753
 20
123.7279247399
 30
0.0
 11
166.1555744969
 21
123.7279247399
 31
0.0
  0
LINE
  5
1A3
330
1F
100
AcDbEntity
  8
0
  6
HIDDEN
 62
     7
370
     0
100
AcDbLine
 10
158.7555740291
 20
95.7279238757
 30
0.0
 11
159.755574193
 21
95.7279238757
 31
0.0
  0
LINE
  5
1A4
330
1F
100
AcDbEntity
  8
0
  6
HIDDEN
 62
     7
370
     0
100
AcDbLine
 10
159.755574193
 20
123.7279247399
 30
0.0
 11
158.7555740291
 21
123.7279247399
 31
0.0
  0
LINE
  5
1A5
330
1F
100
AcDbEntity
  8
0
  6
HIDDEN
 62
     7
370
     0
100
AcDbLine
 10
179.3253455573
 20
99.4779240247
 30
0.0
 11
180.5753452965
 21
100.7279246952
 31
0.0
  0
LINE
  5
1A6
330
1F
100
AcDbEntity
  8
0
  6
HIDDEN
 62
     7
370
     0
100
AcDbLine
 10
180.5753452965
 20
118.7279239204
 30
0.0
 11
179.3253455573
 21
119.9779245909
 31
0.0
  0
LINE
  5
1A7
330
1F
100
AcDbEntity
  8
0
  6
HIDDEN
 62
     7
370
     0
100
AcDbLine
 10
217.325346198
 20
100.7279246952
 30
0.0
 11
222.7330912166
 21
109.7279243078
 31
0.0
  0
LINE
  5
1A8
330
1F
100
AcDbEntity
  8
0
  6
HIDDEN
 62
     7
370
     0
100
AcDbLine
 10
222.7330912166
 20
109.7279243078
 30
0.0
 11
217.325346198
 21
118.7279239204
 31
0.0
  0
LINE
  5
1A9
330
1F
100
AcDbEntity
  8
0
  6
HIDDEN
 62
     7
370
     0
100
AcDbLine
 10
217.325346198
 20
118.7279239204
 30
0.0
 11
180.5753452965
 21
118.7279239204
 31
0.0
  0
LINE
  5
1AA
330
1F
100
AcDbEntity
  8
0
  6
HIDDEN
 62
     7
370
     0
100
AcDbLine
 10
180.5753452965
 20
100.7279246952
 30
0.0
 11
217.325346198
 21
100.7279246952
 31
0.0
  0
LINE
  5
1AB
330
1F
100
AcDbEntity
  8
0
  6
HIDDEN
 62
     7
370
     0
100
AcDbLine
 10
231.0097176844
 20
135.7457112428
 30
0.0
 11
230.7900112384
 21
135.5265356507
 31
0.0
  0
LINE
  5
1AC
330
1F
100
AcDbEntity
  8
0
  6
HIDDEN
 62
     7
370
     0
100
AcDbLine
 10
242.9913241678
 20
144.7789423075
 30
0.0
 11
242.3809539789
 21
144.1700585093
 31
0.0
  0
LINE
  5
1AD
330
1F
100
AcDbEntity
  8
0
  6
HIDDEN
 62
     7
370
     0
100
AcDbLine
 10
244.7115589195
 20
141.8337650504
 30
0.0
 11
245.3219291085
 21
142.4426451232
 31
0.0
  0
LINE
  5
1AE
330
1F
100
AcDbEntity
  8
VERMASSUNG
  6
CENTERX2
100
AcDbLine
 10
146.243729139
 20
109.7279243078
 30
0.0
 11
255.3253454977
 21
109.7279243078
 31
0.0
  0
LINE
  5
1AF
330
1F
100
AcDbEntity
  8
VERMASSUNG
  6
CENTERX2
100
AcDbLine
 10
255.3253454977
 20
154.7279243078
 30
0.0
 11
266.3910725774
 21
154.7279243078
 31
0.0
  0
LINE
  5
1B0
330
1F
100
AcDbEntity
  8
VERMASSUNG
  6
CENTERX2
100
AcDbLine
 10
255.3253454977
 20
154.7279243078
 30
0.0
 11
255.3253454977
 21
109.7279243078
 31
0.0
  0
LINE
  5
1B1
330
1F
100
AcDbEntity
  8
VERMASSUNG
100
AcDbLine
 10
255.3253454977
 20
154.7279243078
 30
0.0
 11
255.3253454977
 21
168.9674609319
 31
0.0
  0
DIMENSION
  5
1B2
330
1F
100
AcDbEntity
  8
VERMASSUNG
100
AcDbDimension
  2
_D
 10
241.2816831177
 20
147.7423563688
 30
0.0
 11
244.5400860847
 21
161.5575840105
 31
0.0
 70
   162
  1
<>
 71
     1
 42
-1.0
  3
SLDDIMSTYLE0
100
AcDb2LineAngularDimension
 13
255.3253454977
 23
154.7279243078
 33
0.0
 14
255.3253454977
 24
168.9674609319
 34
0.0
 15
254.757215116
 25
154.6915427214
 35
0.0
 16
244.5400860847
 26
161.5575840105
 36
0.0
  0
DIMENSION
  5
1BB
330
1F
100
AcDbEntity
  8
VERMASSUNG
100
AcDbDimension
  2
_D_1
 10
255.3253454977
 20
175.023093987
 30
0.0
 11
222.8253454977
 21
175.023093987
 31
0.0
 70
   160
  1
<>
 71
     2
 42
-1.0
  3
SLDDIMSTYLE1
100
AcDbAlignedDimension
 13
190.3253454977
 23
140.7279243078
 33
0.0
 14
255.3253454977
 24
154.7279243078
 34
0.0
100
AcDbRotatedDimension
  0
DIMENSION
  5
1C8
330
1F
100
AcDbEntity
  8
VERMASSUNG
100
AcDbDimension
  2
_D_2
 10
265.5345363011
 20
109.7279243078
 30
0.0
 11
265.5345363011
 21
132.2279243078
 31
0.0
 70
   160
  1
<>
 71
     2
 42
-1.0
  3
SLDDIMSTYLE1
100
AcDbAlignedDimension
 13
255.3253454977
 23
154.7279243078
 33
0.0
 14
255.3253454977
 24
109.7279243078
 34
0.0
 50
90.0
100
AcDbRotatedDimension
  0
DIMENSION
  5
1D4
330
1F
100
AcDbEntity
  8
VERMASSUNG
100
AcDbDimension
  2
_D_3
 10
255.3253454977
 20
181.023093987
 30
0.0
 11
203.8253454977
 21
181.023093987
 31
0.0
 70
   160
  1
<>
 71
     2
 42
-1.0
  3
SLDDIMSTYLE2
100
AcDbAlignedDimension
 13
152.3253454977
 23
130.0202623003
 33
0.0
 14
255.3253454977
 24
154.7279243078
 34
0.0
100
AcDbRotatedDimension
  0
DIMENSION
  5
1DF
330
1F
100
AcDbEntity
  8
VERMASSUNG
100
AcDbDimension
  2
_D_4
 10
140.4196500795
 20
78.2279243078
 30
0.0
 11
140.4196500795
 21
109.7279243078
 31
0.0
 70
   160
  1
PSC%%c<>
 71
     2
 42
-1.0
  3
SLDDIMSTYLE2
100
AcDbAlignedDimension
 13
190.8253454977
 23
141.2279243078
 33
0.0
 14
190.8253454977
 24
78.2279243078
 34
0.0
 50
90.0
100
AcDbRotatedDimension
  0
SPLINE
  5
1EB
330
1F
100
AcDbEntity
  8
0
  6
Continuous
 62
     7
370
    15
100
AcDbSpline
210
0.0
220
0.0
230
1.0
 70
     8
 71
     3
 72
    10
 73
     6
 74
     0
 42
0.00000001
 43
0.00000001
 12
1.0
 22
0.0
 32
0.0
 13
1.0
 23
0.0
 33
0.0
 40
0.0
 40
0.0
 40
0.0
 40
0.0
 40
0.330688798498039
 40
0.6676516528490472
 40
1.0
 40
1.0
 40
1.0
 40
1.0
 10
74.48258529434528
 20
153.8158669974642
 30
0.0
 10
73.96677475187496
 20
153.9416453597316
 30
0.0
 10
72.92536735373679
 20
154.1955884380635
 30
0.0
 10
71.29433053079866
 20
154.4066304650922
 30
0.0
 10
70.23763062594257
 20
154.6364480975742
 30
0.0
 10
69.71292333578307
 20
154.75056468509
 30
0.0
  0
LINE
  5
1EC
330
1F
100
AcDbEntity
  8
0
  6
Continuous
 62
     7
370
    15
100
AcDbLine
 10
69.3691677788
 20
150.5828477349
 30
0.0
 11
69.071527736
 21
150.1375116315
 31
0.0
  0
LINE
  5
1ED
330
1F
100
AcDbEntity
  8
0
  6
Continuous
 62
     7
370
    15
100
AcDbLine
 10
67.5290026611
 20
138.1545118894
 30
0.0
 11
67.7192481143
 21
137.7602104004
 31
0.0
  0
LINE
  5
1EE
330
1F
100
AcDbEntity
  8
0
  6
Continuous
 62
     7
370
    15
100
AcDbLine
 10
66.7892089022
 20
133.5479482915
 30
0.0
 11
67.1584876163
 21
133.5697077122
 31
0.0
  0
ARC
  5
1EF
330
1F
100
AcDbEntity
  8
0
  6
Continuous
 62
     7
370
    15
100
AcDbCircle
 10
75.0191660614
 20
143.5234899887
 30
0.0
 40
7.000000000000004
100
AcDbArc
 50
190.365394812
 51
195.188830221
  0
ARC
  5
1F0
330
1F
100
AcDbEntity
  8
0
  6
Continuous
 62
     7
370
    15
100
AcDbCircle
 10
75.0191660614
 20
143.5234899887
 30
0.0
 40
7.00000000000002
100
AcDbArc
 50
156.3079487791
 51
161.634605188
  0
LINE
  5
1F1
330
1F
100
AcDbEntity
  8
0
  6
Continuous
 62
     7
370
    15
100
AcDbLine
 10
68.4085998127
 20
145.1278641727
 30
0.0
 11
68.4523843137
 21
145.1248019841
 31
0.0
  0
LINE
  5
1F2
330
1F
100
AcDbEntity
  8
0
  6
Continuous
 62
     7
370
    15
100
AcDbLine
 10
68.3446370439
 20
143.2895637956
 30
0.0
 11
68.1940416016
 21
143.3000914659
 31
0.0
  0
LINE
  5
1F3
330
1F
100
AcDbEntity
  8
0
  6
Continuous
 62
     7
370
    15
100
AcDbLine
 10
85.3546075431
 20
150.161014488
 30
0.0
 11
74.3957157155
 21
153.265816709
 31
0.0
  0
ARC
  5
1F4
330
1F
100
AcDbEntity
  8
0
  6
Continuous
 62
     7
370
    15
100
AcDbCircle
 10
66.7940001173
 20
114.7279243078
 30
0.0
 40
40.00000000000003
100
AcDbArc
 50
41.1955857342
 51
62.353495235
  0
LINE
  5
1F5
330
1F
100
AcDbEntity
  8
0
  6
Continuous
 62
     7
370
    15
100
AcDbLine
 10
74.4185806161
 20
153.4804902878
 30
0.0
 11
84.3625450415
 21
150.663232049
 31
0.0
  0
ARC
  5
1F6
330
1F
100
AcDbEntity
  8
0
  6
Continuous
 62
     7
370
    15
100
AcDbCircle
 10
66.7940001173
 20
114.7279243078
 30
0.0
 40
40.00000000000002
100
AcDbArc
 50
62.353495235
 51
63.9462825813
  0
LWPOLYLINE
  5
1F7
330
1F
100
AcDbEntity
  8
0
  6
Continuous
 62
     7
370
    15
100
AcDbPolyline
 90
        3
 70
   128
 43
0.0
 10
73.0344811363
 20
140.5330818053
 10
73.0219134038
 20
140.4095604923
 10
73.0020243117
 20
140.2129899617
  0
ARC
  5
1F8
330
1F
100
AcDbEntity
  8
0
  6
Continuous
 62
     7
370
    15
100
AcDbCircle
 10
411.0765950581
 20
106.0959022883
 30
0.0
 40
344.2089455252974
100
AcDbArc
 50
174.253797374
 51
176.0312722186
  0
LINE
  5
1F9
330
1F
100
AcDbEntity
  8
0
  6
Continuous
 62
     7
370
    15
100
AcDbLine
 10
68.5972457195
 20
140.5588310119
 30
0.0
 11
70.5472284953
 21
140.5474521127
 31
0.0
  0
SPLINE
  5
1FA
330
1F
100
AcDbEntity
  8
0
  6
Continuous
 62
     7
370
    15
100
AcDbSpline
210
0.0
220
0.0
230
1.0
 70
     8
 71
     3
 72
     8
 73
     4
 74
     0
 42
0.00000001
 43
0.00000001
 12
1.0
 22
0.0
 32
0.0
 13
1.0
 23
0.0
 33
0.0
 40
0.0022831964822631
 40
0.0022831964822631
 40
0.0022831964822631
 40
0.0022831964822631
 40
0.004807817125619
 40
0.004807817125619
 40
0.004807817125619
 40
0.004807817125619
 10
70.54722851400527
 20
140.5474524278265
 30
0.0
 10
71.3653141771924
 20
140.4356226214225
 30
0.0
 10
72.18358386544323
 20
140.3241419666738
 30
0.0
 10
73.00202424367772
 20
140.2129891661058
 30
0.0
  0
LINE
  5
1FB
330
1F
100
AcDbEntity
  8
0
  6
Continuous
 62
     7
370
    15
100
AcDbLine
 10
101.7940016372
 20
134.0928409155
 30
0.0
 11
101.7940016372
 21
127.5347188022
 31
0.0
  0
SPLINE
  5
1FC
330
1F
100
AcDbEntity
  8
0
  6
Continuous
 62
     7
370
    15
100
AcDbSpline
210
0.0
220
0.0
230
1.0
 70
     8
 71
     3
 72
    10
 73
     6
 74
     0
 42
0.00000001
 43
0.00000001
 12
1.0
 22
0.0
 32
0.0
 13
1.0
 23
0.0
 33
0.0
 40
0.0
 40
0.0
 40
0.0
 40
0.0
 40
0.5
 40
0.5
 40
1.0
 40
1.0
 40
1.0
 40
1.0
 10
96.89262629272831
 20
141.0731838880559
 30
0.0
 10
97.80128186465905
 20
140.0350736239125
 30
0.0
 10
98.66604685194943
 20
138.9392554259773
 30
0.0
 10
100.3024696285007
 20
136.6185247697912
 30
0.0
 10
101.0742040301102
 20
135.3937948927076
 30
0.0
 10
101.7940001172814
 20
134.0928410388441
 30
0.0
  0
LWPOLYLINE
  5
1FD
330
1F
100
AcDbEntity
  8
0
  6
Continuous
 62
     7
370
    15
100
AcDbPolyline
 90
        7
 70
   128
 43
0.0
 10
66.8916187623
 20
133.538733786
 10
66.8906595001
 20
133.4936242457
 10
66.8895312028
 20
133.100602394
 10
66.9035436494
 20
132.8288853075
 10
66.9315613249
 20
132.7004875895
 10
66.9713143634
 20
132.7258102503
 10
67.0195822513
 20
132.9028025176
  0
LINE
  5
1FE
330
1F
100
AcDbEntity
  8
0
  6
Continuous
 62
     7
370
    15
100
AcDbLine
 10
67.0195822513
 20
132.9028025176
 30
0.0
 11
67.0570703132
 21
133.0849096086
 31
0.0
  0
LINE
  5
1FF
330
1F
100
AcDbEntity
  8
0
  6
Continuous
 62
     7
370
    15
100
AcDbLine
 10
67.0570703132
 20
133.0849096086
 30
0.0
 11
67.0553347936
 21
133.0686170515
 31
0.0
  0
LINE
  5
200
330
1F
100
AcDbEntity
  8
0
  6
Continuous
 62
     7
370
    15
100
AcDbLine
 10
67.6930711979
 20
129.9192882981
 30
0.0
 11
66.1818408316
 21
108.3076878823
 31
0.0
  0
LINE
  5
201
330
1F
100
AcDbEntity
  8
0
  6
Continuous
 62
     7
370
    15
100
AcDbLine
 10
66.1818408316
 20
108.3076878823
 30
0.0
 11
62.9239561876
 21
80.9713672753
 31
0.0
  0
ARC
  5
202
330
1F
100
AcDbEntity
  8
0
  6
Continuous
 62
     7
370
    15
100
AcDbCircle
 10
69.7940001173
 20
109.7279243078
 30
0.0
 40
31.5
100
AcDbArc
 50
94.7281057248
 51
94.8520899683
  0
SPLINE
  5
203
330
1F
100
AcDbEntity
  8
0
  6
Continuous
 62
     7
370
    15
100
AcDbSpline
210
0.0
220
0.0
230
1.0
 70
     8
 71
     3
 72
    10
 73
     6
 74
     0
 42
0.00000001
 43
0.00000001
 12
1.0
 22
0.0
 32
0.0
 13
1.0
 23
0.0
 33
0.0
 40
0.0
 40
0.0
 40
0.0
 40
0.0
 40
0.5
 40
0.5
 40
1.0
 40
1.0
 40
1.0
 40
1.0
 10
67.19753743619512
 20
141.1207321074563
 30
0.0
 10
67.21317293153453
 20
141.1220253011205
 30
0.0
 10
67.23350239922591
 20
141.1977695304664
 30
0.0
 10
67.27687754168826
 20
141.4696624278474
 30
0.0
 10
67.29896590096745
 20
141.6598672933068
 30
0.0
 10
67.31791201001428
 20
141.8738841947273
 30
0.0
  0
LINE
  5
204
330
1F
100
AcDbEntity
  8
0
  6
Continuous
 62
     7
370
    15
100
AcDbLine
 10
67.3179121131
 20
141.8738827016
 30
0.0
 11
67.4280268049
 21
143.1176192965
 31
0.0
  0
ARC
  5
205
330
1F
100
AcDbEntity
  8
0
  6
Continuous
 62
     7
370
    15
100
AcDbCircle
 10
62.3287296977
 20
145.8308734503
 30
0.0
 40
5.776208020030782
100
AcDbArc
 50
331.9832737074
 51
348.518030012
  0
LINE
  5
206
330
1F
100
AcDbEntity
  8
0
  6
Continuous
 62
     7
370
    15
100
AcDbLine
 10
67.0553347936
 20
133.0686170515
 30
0.0
 11
68.5972457195
 21
140.5588310119
 31
0.0
  0
SPLINE
  5
207
330
1F
100
AcDbEntity
  8
0
  6
Continuous
 62
     7
370
    15
100
AcDbSpline
210
0.0
220
0.0
230
1.0
 70
     8
 71
     3
 72
    12
 73
     8
 74
     0
 42
0.00000001
 43
0.00000001
 12
1.0
 22
0.0
 32
0.0
 13
1.0
 23
0.0
 33
0.0
 40
0.0
 40
0.0
 40
0.0
 40
0.0
 40
0.499999999999999
 40
0.499999999999999
 40
0.7499999999999994
 40
0.7499999999999994
 40
1.0
 40
1.0
 40
1.0
 40
1.0
 10
92.14967575335328
 20
87.53617433501888
 30
0.0
 10
92.48367565943299
 20
87.87264142625558
 30
0.0
 10
92.85123982078068
 20
88.1813777732777
 30
0.0
 10
93.44034429430381
 20
88.61328649186603
 30
0.0
 10
93.64434515810268
 20
88.75208342607645
 30
0.0
 10
94.06561863977838
 20
89.0114359455043
 30
0.0
 10
94.28263900836747
 20
89.13250350932957
 30
0.0
 10
94.51107933360487
 20
89.23817059278892
 30
0.0
  0
ARC
  5
208
330
1F
100
AcDbEntity
  8
0
  6
Continuous
 62
     7
370
    15
100
AcDbCircle
 10
69.7940001173
 20
109.7279243078
 30
0.0
 40
31.5
100
AcDbArc
 50
275.8880258116
 51
315.2108361177
  0
LINE
  5
209
330
1F
100
AcDbEntity
  8
0
  6
Continuous
 62
     7
370
    15
100
AcDbLine
 10
73.0254165737
 20
78.3941090014
 30
0.0
 11
63.8956488019
 21
78.7850819435
 31
0.0
  0
ARC
  5
20A
330
1F
100
AcDbEntity
  8
0
  6
Continuous
 62
     7
370
    15
100
AcDbCircle
 10
69.7940001173
 20
109.7279243078
 30
0.0
 40
31.5
100
AcDbArc
 50
256.703376883
 51
259.2077030125
  0
ELLIPSE
  5
20B
330
1F
100
AcDbEntity
  8
0
  6
Continuous
 62
     7
370
    15
100
AcDbEllipse
 10
56.889311587
 20
80.4759243385
 30
0.0
 11
2.506513789563662
 21
8.367759467143586
 31
0.0
210
0.0
220
0.0
230
1.0
 40
0.6671520851
 41
4.744399152927019
 42
4.967725295874088
  0
LINE
  5
20C
330
1F
100
AcDbEntity
  8
0
  6
Continuous
 62
     7
370
    15
100
AcDbLine
 10
101.6613030715
 20
106.8167552259
 30
0.0
 11
66.1818408316
 21
108.3076878823
 31
0.0
  0
ARC
  5
20D
330
1F
100
AcDbEntity
  8
0
  6
Continuous
 62
     7
370
    15
100
AcDbCircle
 10
69.7940001173
 20
109.7279243078
 30
0.0
 40
32.00000000000002
100
AcDbArc
 50
320.1182381827
 51
354.7803550194
  0
LINE
  5
20E
330
1F
100
AcDbEntity
  8
0
  6
Continuous
 62
     7
370
    15
100
AcDbLine
 10
94.3498173637
 20
89.2093513068
 30
0.0
 11
94.5110795928
 21
89.2381701525
 31
0.0
  0
LINE
  5
20F
330
1F
100
AcDbEntity
  8
0
  6
Continuous
 62
     7
370
    15
100
AcDbLine
 10
101.7940016372
 20
127.5347188022
 30
0.0
 11
101.7940016372
 21
109.7279243078
 31
0.0
  0
ARC
  5
210
330
1F
100
AcDbEntity
  8
0
  6
Continuous
 62
     7
370
    15
100
AcDbCircle
 10
69.7940001173
 20
109.7279243078
 30
0.0
 40
32.00000000000002
100
AcDbArc
 50
354.7803550194
 51
0.0
  0
LINE
  5
211
330
1F
100
AcDbEntity
  8
0
  6
Continuous
 62
     7
370
    15
100
AcDbLine
 10
67.0587525146
 20
133.0852188077
 30
0.0
 11
67.0570703132
 21
133.0849096086
 31
0.0
  0
ARC
  5
212
330
1F
100
AcDbEntity
  8
0
  6
Continuous
 62
     7
370
    15
100
AcDbCircle
 10
69.7940001173
 20
109.7279243078
 30
0.0
 40
32.10551373655948
100
AcDbArc
 50
320.3422369718
 51
4.6464506928
  0
SPLINE
  5
213
330
1F
100
AcDbEntity
  8
0
  6
Continuous
 62
     7
370
    15
100
AcDbSpline
210
0.0
220
0.0
230
1.0
 70
     8
 71
     3
 72
    20
 73
    16
 74
     0
 42
0.00000001
 43
0.00000001
 12
1.0
 22
0.0
 32
0.0
 13
1.0
 23
0.0
 33
0.0
 40
0.0
 40
0.0
 40
0.0
 40
0.0
 40
0.250000000000001
 40
0.250000000000001
 40
0.3750000000000009
 40
0.3750000000000009
 40
0.5000000000000008
 40
0.5000000000000008
 40
0.6250000000000004
 40
0.6250000000000004
 40
0.7500000000000003
 40
0.7500000000000003
 40
0.8750000000000001
 40
0.8750000000000001
 40
1.0
 40
1.0
 40
1.0
 40
1.0
 10
62.63659715063233
 20
140.4039993952917
 30
0.0
 10
63.23355151171478
 20
140.5432819763514
 30
0.0
 10
63.79768623765987
 20
140.6565875403639
 30
0.0
 10
64.59043620685271
 20
140.7963153186728
 30
0.0
 10
64.84286949321736
 20
140.8372889809417
 30
0.0
 10
65.31192539552613
 20
140.9083231348141
 30
0.0
 10
65.5304979644886
 20
140.9387246139148
 30
0.0
 10
65.93455903291296
 20
140.9912609958654
 30
0.0
 10
66.12001134524631
 20
141.0133574088731
 30
0.0
 10
66.44366646321636
 20
141.0496704632301
 30
0.0
 10
66.58387183548213
 20
141.0641529164111
 30
0.0
 10
66.82060551793953
 20
141.0875013386426
 30
0.0
 10
66.91734715784678
 20
141.0963800181382
 30
0.0
 10
67.06024698048304
 20
141.1091565922008
 30
0.0
 10
67.10734418909858
 20
141.1131498022232
 30
0.0
 10
67.129611627072
 20
141.1150400397954
 30
0.0
  0
SPLINE
  5
214
330
1F
100
AcDbEntity
  8
0
  6
Continuous
 62
     7
370
    15
100
AcDbSpline
210
0.0
220
0.0
230
1.0
 70
     8
 71
     3
 72
    18
 73
    14
 74
     0
 42
0.00000001
 43
0.00000001
 12
1.0
 22
0.0
 32
0.0
 13
1.0
 23
0.0
 33
0.0
 40
0.0
 40
0.0
 40
0.0
 40
0.0
 40
0.1250000000000007
 40
0.1250000000000007
 40
0.2500000000000013
 40
0.2500000000000013
 40
0.375000000000002
 40
0.375000000000002
 40
0.5000000000000027
 40
0.5000000000000027
 40
0.7500000000000013
 40
0.7500000000000013
 40
1.0
 40
1.0
 40
1.0
 40
1.0
 10
62.54924015236283
 20
79.07236277240666
 30
0.0
 10
62.47614871056872
 20
79.0896363085863
 30
0.0
 10
62.38682176152232
 20
79.11101285957423
 30
0.0
 10
62.17800996123813
 20
79.16228589199757
 30
0.0
 10
62.0597906662117
 20
79.19187300358503
 30
0.0
 10
61.79691234877529
 20
79.25966193021314
 30
0.0
 10
61.65224943030695
 20
79.29786192105496
 30
0.0
 10
61.33639815971178
 20
79.38413136365143
 30
0.0
 10
61.1643273644528
 20
79.43247825391013
 30
0.0
 10
60.62314642322467
 20
79.59012982605796
 30
0.0
 10
60.22557200510852
 20
79.71286824384181
 30
0.0
 10
59.35978214687606
 20
80.0027581618144
 30
0.0
 10
58.906738540655
 20
80.16492052767134
 30
0.0
 10
58.43696800908357
 20
80.34650464004133
 30
0.0
  0
ARC
  5
215
330
1F
100
AcDbEntity
  8
0
  6
Continuous
 62
     7
370
    15
100
AcDbCircle
 10
69.7940001173
 20
109.7279243078
 30
0.0
 40
31.49999999999999
100
AcDbArc
 50
259.2077030125
 51
275.8880258116
  0
ELLIPSE
  5
216
330
1F
100
AcDbEntity
  8
0
  6
Continuous
 62
     7
370
    15
100
AcDbEllipse
 10
56.8361971961
 20
125.6242224378
 30
0.0
 11
2.160832348626534
 21
3.075616685380992
 31
0.0
210
0.0
220
0.0
230
1.0
 40
0.6487969398
 41
0.0
 42
6.283185307179586
  0
ARC
  5
217
330
1F
100
AcDbEntity
  8
0
  6
Continuous
 62
     7
370
    15
100
AcDbCircle
 10
69.7940001173
 20
109.7279243078
 30
0.0
 40
31.50000000000003
100
AcDbArc
 50
103.1334060825
 51
248.8665939175
  0
SPLINE
  5
218
330
1F
100
AcDbEntity
  8
0
  6
Continuous
 62
     7
370
    15
100
AcDbSpline
210
0.0
220
0.0
230
1.0
 70
     8
 71
     3
 72
    15
 73
    11
 74
     0
 42
0.00000001
 43
0.00000001
 12
1.0
 22
0.0
 32
0.0
 13
1.0
 23
0.0
 33
0.0
 40
0.0
 40
0.0
 40
0.0
 40
0.0
 40
0.136899271987423
 40
0.2736128692229355
 40
0.4079032329006839
 40
0.5393431425375038
 40
0.669209010136677
 40
0.7996794346012742
 40
0.9324909381456126
 40
1.0
 40
1.0
 40
1.0
 40
1.0
 10
69.7515410738109
 20
154.158023735507
 30
0.0
 10
69.75571697666986
 20
154.2005571309541
 30
0.0
 10
69.76406311866354
 20
154.2855662343417
 30
0.0
 10
69.77338171848798
 20
154.425022937137
 30
0.0
 10
69.77882337567
 20
154.5520388936963
 30
0.0
 10
69.77973683887474
 20
154.6535686330322
 30
0.0
 10
69.77623745057295
 20
154.7194109319282
 30
0.0
 10
69.76875813878131
 20
154.7434566475944
 30
0.0
 10
69.75988576608667
 20
154.7283424369239
 30
0.0
 10
69.75371207575276
 20
154.7008172988428
 30
0.0
 10
69.75163151032606
 20
154.6915411856012
 30
0.0
  0
SPLINE
  5
219
330
1F
100
AcDbEntity
  8
0
  6
Continuous
 62
     7
370
    15
100
AcDbSpline
210
0.0
220
0.0
230
1.0
 70
     8
 71
     3
 72
    15
 73
    11
 74
     0
 42
0.00000001
 43
0.00000001
 12
1.0
 22
0.0
 32
0.0
 13
1.0
 23
0.0
 33
0.0
 40
0.0
 40
0.0
 40
0.0
 40
0.0
 40
0.1386119339785959
 40
0.2774015254826726
 40
0.4121057034141459
 40
0.5418112187862358
 40
0.6691597225140704
 40
0.7974727413378586
 40
0.9295751149296329
 40
1.0
 40
1.0
 40
1.0
 40
1.0
 10
74.43989719281521
 20
153.8150995876627
 30
0.0
 10
74.440969320279
 20
153.8194721693741
 30
0.0
 10
74.44311494934156
 20
153.8282229370909
 30
0.0
 10
74.4455069389615
 20
153.8265878863644
 30
0.0
 10
74.4468748609959
 20
153.8138662252042
 30
0.0
 10
74.44707193924474
 20
153.7913703156397
 30
0.0
 10
74.44616301700925
 20
153.7623122803083
 30
0.0
 10
74.4442674139465
 20
153.7295543459998
 30
0.0
 10
74.44200980188711
 20
153.7013215113145
 30
0.0
 10
74.44042534072797
 20
153.685806691465
 30
0.0
 10
74.43987437541213
 20
153.6804117169218
 30
0.0
  0
SPLINE
  5
21A
330
1F
100
AcDbEntity
  8
0
  6
Continuous
 62
     7
370
    15
100
AcDbSpline
210
0.0
220
0.0
230
1.0
 70
     8
 71
     3
 72
    10
 73
     6
 74
     0
 42
0.00000001
 43
0.00000001
 12
1.0
 22
0.0
 32
0.0
 13
1.0
 23
0.0
 33
0.0
 40
0.0
 40
0.0
 40
0.0
 40
0.0
 40
0.2724671827909605
 40
0.5448123600998692
 40
0.9999999999999999
 40
0.9999999999999999
 40
0.9999999999999999
 40
0.9999999999999999
 10
68.32109507190611
 20
147.742354860528
 30
0.0
 10
68.31899001354812
 20
147.7313057843371
 30
0.0
 10
68.31478083943612
 20
147.7092125795159
 30
0.0
 10
68.30673449765683
 20
147.655289009453
 30
0.0
 10
68.30104315841524
 20
147.6053687340772
 30
0.0
 10
68.29748231934931
 20
147.5741356518106
 30
0.0
  0
LINE
  5
21B
330
1F
100
AcDbEntity
  8
0
  6
Continuous
 62
     7
370
    15
100
AcDbLine
 10
69.7516315103
 20
154.6915411856
 30
0.0
 11
68.3210950719
 21
147.7423548605
 31
0.0
  0
LINE
  5
21C
330
1F
100
AcDbEntity
  8
0
  6
Continuous
 62
     7
370
    15
100
AcDbLine
 10
68.3199041432
 20
140.7167106774
 30
0.0
 11
69.7515410738
 21
154.1580237355
 31
0.0
  0
SPLINE
  5
21D
330
1F
100
AcDbEntity
  8
0
  6
Continuous
 62
     7
370
    15
100
AcDbSpline
210
0.0
220
0.0
230
1.0
 70
     8
 71
     3
 72
    10
 73
     6
 74
     0
 42
0.00000001
 43
0.00000001
 12
1.0
 22
0.0
 32
0.0
 13
1.0
 23
0.0
 33
0.0
 40
0.0
 40
0.0
 40
0.0
 40
0.0
 40
0.2724661115645968
 40
0.5448204042457695
 40
0.9999999999999999
 40
0.9999999999999999
 40
0.9999999999999999
 40
0.9999999999999999
 10
68.29629139060702
 20
140.5484896060066
 30
0.0
 10
68.29839646265357
 20
140.55953847399
 30
0.0
 10
68.30260574283437
 20
140.5816316755504
 30
0.0
 10
68.31065187110461
 20
140.6355595274789
 30
0.0
 10
68.31634330995104
 20
140.6854788125973
 30
0.0
 10
68.31990414316382
 20
140.7167106773691
 30
0.0
  0
LINE
  5
21E
330
1F
100
AcDbEntity
  8
0
  6
Continuous
 62
     7
370
    15
100
AcDbLine
 10
66.8657550031
 20
133.5993032809
 30
0.0
 11
68.2962913906
 21
140.548489606
 31
0.0
  0
SPLINE
  5
21F
330
1F
100
AcDbEntity
  8
0
  6
Continuous
 62
     7
370
    15
100
AcDbSpline
210
0.0
220
0.0
230
1.0
 70
     8
 71
     3
 72
    15
 73
    11
 74
     0
 42
0.00000001
 43
0.00000001
 12
1.0
 22
0.0
 32
0.0
 13
1.0
 23
0.0
 33
0.0
 40
0.0
 40
0.0
 40
0.0
 40
0.0
 40
0.1368991820107562
 40
0.273614647212034
 40
0.4079014649998206
 40
0.5393416589669185
 40
0.6692139162071048
 40
0.7996766039079228
 40
0.932491698341949
 40
1.0
 40
1.0
 40
1.0
 40
1.0
 10
66.86584534140852
 20
134.1328225936727
 30
0.0
 10
66.861669403928
 20
134.0902892390807
 30
0.0
 10
66.85332313301733
 20
134.0052796090704
 30
0.0
 10
66.84400524600186
 20
133.8658227198256
 30
0.0
 10
66.83856276370206
 20
133.7388099498762
 30
0.0
 10
66.83764988895639
 20
133.6372720938043
 30
0.0
 10
66.84114854008178
 20
133.5714365135841
 30
0.0
 10
66.8486290320216
 20
133.5473892601993
 30
0.0
 10
66.85750061380266
 20
133.5625042722765
 30
0.0
 10
66.86367444354111
 20
133.5900279091309
 30
0.0
 10
66.86575500311878
 20
133.5993032809334
 30
0.0
  0
LINE
  5
220
330
1F
100
AcDbEntity
  8
0
  6
Continuous
 62
     7
370
    15
100
AcDbLine
 10
68.2974823193
 20
147.5741356518
 30
0.0
 11
66.8658453414
 21
134.1328225937
 31
0.0
  0
LINE
  5
221
330
1F
100
AcDbEntity
  8
0
  6
Continuous
 62
     7
370
    15
100
AcDbLine
 10
68.3193589702
 20
140.7264318224
 30
0.0
 11
69.7493418174
 21
154.1522160079
 31
0.0
  0
LWPOLYLINE
  5
222
330
1F
100
AcDbEntity
  8
0
  6
Continuous
 62
     7
370
    15
100
AcDbPolyline
 90
        9
 70
   128
 43
0.0
 10
69.7493418174
 20
154.1522160079
 10
69.7598982242
 20
154.2653195467
 10
69.7682940099
 20
154.3847337272
 10
69.7736959718
 20
154.4986046758
 10
69.7755680212
 20
154.5956335869
 10
69.773724379
 20
154.6661905851
 10
69.7683480066
 20
154.70327585
 10
69.7599724535
 20
154.7032050695
 10
69.749428907
 20
154.6659894194
  0
LINE
  5
223
330
1F
100
AcDbEntity
  8
0
  6
Continuous
 62
     7
370
    15
100
AcDbLine
 10
69.749428907
 20
154.6659894194
 30
0.0
 11
68.3205452423
 21
147.7248348203
 31
0.0
  0
ARC
  5
224
330
1F
100
AcDbEntity
  8
0
  6
Continuous
 62
     7
370
    15
100
AcDbCircle
 10
70.1417241832
 20
147.3874125554
 30
0.0
 40
1.852173458208422
100
AcDbArc
 50
169.5034461941
 51
174.5162492365
  0
LINE
  5
225
330
1F
100
AcDbEntity
  8
0
  6
Continuous
 62
     7
370
    15
100
AcDbLine
 10
68.2980274923
 20
147.5644126441
 30
0.0
 11
66.8680446597
 21
134.1386303212
 31
0.0
  0
LWPOLYLINE
  5
226
330
1F
100
AcDbEntity
  8
0
  6
Continuous
 62
     7
370
    15
100
AcDbPolyline
 90
        9
 70
   128
 43
0.0
 10
66.8680446597
 20
134.1386303212
 10
66.8574883511
 20
134.0255267825
 10
66.8490924781
 20
133.9061144646
 10
66.8436905743
 20
133.7922435161
 10
66.8418183831
 20
133.695214605
 10
66.843662169
 20
133.6246557441
 10
66.8490384614
 20
133.5875704791
 10
66.8574140781
 20
133.587639397
 10
66.867957581
 20
133.6248550471
  0
LINE
  5
227
330
1F
100
AcDbEntity
  8
0
  6
Continuous
 62
     7
370
    15
100
AcDbLine
 10
66.867957581
 20
133.6248550471
 30
0.0
 11
68.2968412202
 21
140.5660133716
 31
0.0
  0
ARC
  5
228
330
1F
100
AcDbEntity
  8
0
  6
Continuous
 62
     7
370
    15
100
AcDbCircle
 10
66.4758306762
 20
140.9034161091
 30
0.0
 40
1.852004321957336
100
AcDbArc
 50
349.5030911148
 51
354.5162380086
  0
LINE
  5
229
330
1F
100
AcDbEntity
  8
0
  6
Continuous
 62
     7
370
    15
100
AcDbLine
 10
73.0479364192
 20
140.6118232664
 30
0.0
 11
74.4398743754
 21
153.6804117169
 31
0.0
  0
LWPOLYLINE
  5
22A
330
1F
100
AcDbEntity
  8
0
  6
Continuous
 62
     7
370
    15
100
AcDbPolyline
 90
        9
 70
   128
 43
0.0
 10
69.0402269738
 20
148.6817650404
 10
69.0680069874
 20
148.9794045594
 10
69.0901011603
 20
149.2936476972
 10
69.1043168681
 20
149.5933063235
 10
69.1092432734
 20
149.8486488964
 10
69.1043916067
 20
150.0343248155
 10
69.0902432452
 20
150.1319162454
 10
69.0682023323
 20
150.1317374315
 10
69.0404561373
 20
150.0337995496
  0
LWPOLYLINE
  5
22B
330
1F
100
AcDbEntity
  8
0
  6
Continuous
 62
     7
370
    15
100
AcDbPolyline
 90
        9
 70
   128
 43
0.0
 10
67.5771594887
 20
139.6090831514
 10
67.5493795333
 20
139.3114417698
 10
67.5272853022
 20
138.997198632
 10
67.5130695945
 20
138.697538143
 10
67.5081431309
 20
138.4421992954
 10
67.5129948558
 20
138.256519651
 10
67.5271432755
 20
138.1589282211
 10
67.5491841884
 20
138.1591107603
 10
67.5769303834
 20
138.257044917
  0
LINE
  5
22C
330
1F
100
AcDbEntity
  8
0
  6
Continuous
 62
     7
370
    15
100
AcDbLine
 10
68.2794491203
 20
146.2027184572
 30
0.0
 11
67.5771594887
 21
139.6090831514
 31
0.0
  0
ARC
  5
22D
330
1F
100
AcDbEntity
  8
0
  6
Continuous
 62
     7
370
    15
100
AcDbCircle
 10
73.1308596261
 20
145.7369746353
 30
0.0
 40
4.873715338765527
100
AcDbArc
 50
169.5031433722
 51
174.5163110996
  0
LINE
  5
22E
330
1F
100
AcDbEntity
  8
0
  6
Continuous
 62
     7
370
    15
100
AcDbLine
 10
69.0404561373
 20
150.0337995496
 30
0.0
 11
68.3387063818
 21
146.6248758044
 31
0.0
  0
LINE
  5
22F
330
1F
100
AcDbEntity
  8
0
  6
Continuous
 62
     7
370
    15
100
AcDbLine
 10
68.3379373422
 20
142.088127872
 30
0.0
 11
69.0402269738
 21
148.6817650404
 31
0.0
  0
ARC
  5
230
330
1F
100
AcDbEntity
  8
0
  6
Continuous
 62
     7
370
    15
100
AcDbCircle
 10
63.4865724328
 20
142.5538652937
 30
0.0
 40
4.873669339374418
100
AcDbArc
 50
349.5031196991
 51
354.5163347727
  0
LINE
  5
231
330
1F
100
AcDbEntity
  8
0
  6
Continuous
 62
     7
370
    15
100
AcDbLine
 10
67.5769303834
 20
138.257044917
 30
0.0
 11
68.2786800807
 21
141.6659705248
 31
0.0
  0
LWPOLYLINE
  5
232
330
1F
100
AcDbEntity
  8
0
  6
Continuous
 62
     7
370
    15
100
AcDbPolyline
 90
       29
 70
   128
 43
0.0
 10
68.398711146
 20
142.7273578849
 10
68.4602552701
 20
143.3619238343
 10
68.5141993362
 20
144.0357766952
 10
68.5578384345
 20
144.7151318099
 10
68.5889844226
 20
145.3659176733
 10
68.6060754724
 20
145.9555007424
 10
68.6082545344
 20
146.4543208387
 10
68.5954122946
 20
146.8373626377
 10
68.5681927625
 20
147.0854185428
 10
68.5279609078
 20
147.186053535
 10
68.4767339753
 20
147.1342161205
 10
68.4170807853
 20
146.9325102773
 10
68.3519926296
 20
146.5910464432
 10
68.2847332118
 20
146.1269497778
 10
68.2186753165
 20
145.5634884443
 10
68.1571313089
 20
144.9289224949
 10
68.1031872427
 20
144.2550696339
 10
68.059548028
 20
143.5757145192
 10
68.02840204
 20
142.9249286558
 10
68.0113109901
 20
142.3353455868
 10
68.0091320446
 20
141.8365254905
 10
68.021974168
 20
141.4534836914
 10
68.0491937
 20
141.2054277863
 10
68.0894256711
 20
141.1047927942
 10
68.1406524872
 20
141.1566302087
 10
68.2003056772
 20
141.3583360519
 10
68.2653938329
 20
141.699799886
 10
68.3326532507
 20
142.1638965514
 10
68.398711146
 20
142.7273578849
  0
SPLINE
  5
233
330
1F
100
AcDbEntity
  8
0
  6
Continuous
 62
     7
370
    15
100
AcDbSpline
210
0.0
220
0.0
230
1.0
 70
     8
 71
     3
 72
    10
 73
     6
 74
     0
 42
0.00000001
 43
0.00000001
 12
1.0
 22
0.0
 32
0.0
 13
1.0
 23
0.0
 33
0.0
 40
0.0
 40
0.0
 40
0.0
 40
0.0
 40
0.4149370809538617
 40
0.7027883697502645
 40
1.0
 40
1.0
 40
1.0
 40
1.0
 10
73.04793641919818
 20
140.6118232663707
 30
0.0
 10
73.04712691517364
 20
140.604684629635
 30
0.0
 10
73.045755839799
 20
140.5925937582618
 30
0.0
 10
73.04374066671994
 20
140.5787849982997
 30
0.0
 10
73.04260841452852
 20
140.5728058620215
 30
0.0
 10
73.04203323105898
 20
140.5697684641914
 30
0.0
  0
LINE
  5
234
330
1F
100
AcDbEntity
  8
0
  6
Continuous
 62
     7
370
    15
100
AcDbLine
 10
72.9695001991
 20
140.2174211945
 30
0.0
 11
73.0420332311
 21
140.5697684642
 31
0.0
  0
LWPOLYLINE
  5
235
330
1F
100
AcDbEntity
  8
0
  6
Continuous
 62
     7
370
    15
100
AcDbPolyline
 90
       23
 70
   128
 43
0.0
 10
68.4648130463
 20
145.273031285
 10
68.4570869107
 20
145.5763630476
 10
68.4356192268
 20
145.7515187468
 10
68.4021493561
 20
145.784308752
 10
68.3593887279
 20
145.6720769312
 10
68.3108015127
 20
145.4239129927
 10
68.260324062
 20
145.0599260535
 10
68.2120456967
 20
144.6096017864
 10
68.1698776224
 20
144.1094182339
 10
68.1372360468
 20
143.5999065544
 10
68.1167654602
 20
143.1223355141
 10
68.1101241989
 20
142.7154034283
 10
68.1178503346
 20
142.4120716657
 10
68.1393180184
 20
142.2369122412
 10
68.1727878891
 20
142.204122236
 10
68.2155485174
 20
142.3163540568
 10
68.2641357325
 20
142.5645179953
 10
68.3146131832
 20
142.9285049345
 10
68.3628916649
 20
143.378832927
 10
68.4050596228
 20
143.8790127542
 10
68.4377011984
 20
144.3885281589
 10
68.4581717851
 20
144.866095474
 10
68.4648130463
 20
145.273031285
  0
LWPOLYLINE
  5
236
330
1F
100
AcDbEntity
  8
0
  6
Continuous
 62
     7
370
    15
100
AcDbPolyline
 90
        9
 70
   128
 43
0.0
 10
68.4273955321
 20
145.6210926082
 10
68.4150961369
 20
145.6564158108
 10
68.400713606
 20
145.6646114495
 10
68.3844826326
 20
145.6455416884
 10
68.3666681779
 20
145.5995194521
 10
68.347561164
 20
145.5272935238
 10
68.3274731181
 20
145.4300448205
 10
68.3067322152
 20
145.3093640413
 10
68.2856768744
 20
145.1672144141
  0
ARC
  5
237
330
1F
100
AcDbEntity
  8
0
  6
Continuous
 62
     7
370
    15
100
AcDbCircle
 10
88.2054570672
 20
142.6028286992
 30
0.0
 40
20.08416582848917
100
AcDbArc
 50
172.6643377328
 51
177.3051075055
  0
ARC
  5
238
330
1F
100
AcDbEntity
  8
0
  6
Continuous
 62
     7
370
    15
100
AcDbCircle
 10
75.55982667
 20
142.9676135718
 30
0.0
 40
7.43893151276164
100
AcDbArc
 50
175.5319177448
 51
184.4761203191
  0
LINE
  5
239
330
1F
100
AcDbEntity
  8
0
  6
Continuous
 62
     7
370
    15
100
AcDbLine
 10
68.1478686074
 20
142.3659339454
 30
0.0
 11
68.1435842907
 21
142.3870526161
 31
0.0
  0
LWPOLYLINE
  5
23A
330
1F
100
AcDbEntity
  8
0
  6
Continuous
 62
     7
370
    15
100
AcDbPolyline
 90
        9
 70
   128
 43
0.0
 10
68.1478686074
 20
142.3659339454
 10
68.1597385464
 20
142.3321828153
 10
68.1735430753
 20
142.3236034717
 10
68.1890727628
 20
142.3403262999
 10
68.2060927993
 20
142.38209798
 10
68.2243450919
 20
142.4482814874
 10
68.2435533872
 20
142.5378784444
 10
68.2634268796
 20
142.6495328452
 10
68.2836644027
 20
142.7815496828
  0
LINE
  5
23B
330
1F
100
AcDbEntity
  8
0
  6
Continuous
 62
     7
370
    15
100
AcDbLine
 10
68.2954682179
 20
142.8668215778
 30
0.0
 11
68.2836644027
 21
142.7815496828
 31
0.0
  0
ARC
  5
23C
330
1F
100
AcDbEntity
  8
0
  6
Continuous
 62
     7
370
    15
100
AcDbCircle
 10
48.1263899603
 20
145.3994284955
 30
0.0
 40
20.32746456298887
100
AcDbArc
 50
352.8428975445
 51
357.1265316957
  0
LINE
  5
23D
330
1F
100
AcDbEntity
  8
0
  6
Continuous
 62
     7
370
    15
100
AcDbLine
 10
68.434087434
 20
144.4956228044
 30
0.0
 11
68.4282963538
 21
144.3804033007
 31
0.0
  0
ARC
  5
23E
330
1F
100
AcDbEntity
  8
0
  6
Continuous
 62
     7
370
    15
100
AcDbCircle
 10
61.2986808043
 20
145.0319151333
 30
0.0
 40
7.155531932238344
100
AcDbArc
 50
355.7017693263
 51
4.5508984364
  0
LINE
  5
23F
330
1F
100
AcDbEntity
  8
0
  6
Continuous
 62
     7
370
    15
100
AcDbLine
 10
68.4273955321
 20
145.6210926082
 30
0.0
 11
68.4316530732
 21
145.5996684637
 31
0.0
  0
SPLINE
  5
240
330
1F
100
AcDbEntity
  8
0
  6
Continuous
 62
     7
370
    15
100
AcDbSpline
210
0.0
220
0.0
230
1.0
 70
     8
 71
     3
 72
    10
 73
     6
 74
     0
 42
0.00000001
 43
0.00000001
 12
1.0
 22
0.0
 32
0.0
 13
1.0
 23
0.0
 33
0.0
 40
0.0
 40
0.0
 40
0.0
 40
0.0
 40
0.2598597647651561
 40
0.7300469582987903
 40
1.0
 40
1.0
 40
1.0
 40
1.0
 10
68.4487735761198
 20
145.4373277630644
 30
0.0
 10
68.44707474551596
 20
145.4563278829062
 30
0.0
 10
68.4423020708538
 20
145.5097065954989
 30
0.0
 10
68.43649900516158
 20
145.5647031021162
 30
0.0
 10
68.43294817546973
 20
145.5903237764953
 30
0.0
 10
68.43165307323065
 20
145.5996684636907
 30
0.0
  0
SPLINE
  5
241
330
1F
100
AcDbEntity
  8
0
  6
Continuous
 62
     7
370
    15
100
AcDbSpline
210
0.0
220
0.0
230
1.0
 70
     8
 71
     3
 72
    11
 73
     7
 74
     0
 42
0.00000001
 43
0.00000001
 12
1.0
 22
0.0
 32
0.0
 13
1.0
 23
0.0
 33
0.0
 40
0.0
 40
0.0
 40
0.0
 40
0.0
 40
0.1604730547498241
 40
0.4656874097569247
 40
0.772373092138917
 40
1.0
 40
1.0
 40
1.0
 40
1.0
 10
68.15225990972098
 20
142.3667460586862
 30
0.0
 10
68.15423274435679
 20
142.3662505729216
 30
0.0
 10
68.1599578441429
 20
142.3648126898909
 30
0.0
 10
68.17693210491355
 20
142.3999444711521
 30
0.0
 10
68.1991744487663
 20
142.4617210802623
 30
0.0
 10
68.21524422555412
 20
142.5159835415329
 30
0.0
 10
68.222090243535
 20
142.5391003396349
 30
0.0
  0
LINE
  5
242
330
1F
100
AcDbEntity
  8
0
  6
Continuous
 62
     7
370
    15
100
AcDbLine
 10
68.4273955321
 20
145.6210926082
 30
0.0
 11
68.4260426696
 21
145.6201836374
 31
0.0
  0
SPLINE
  5
243
330
1F
100
AcDbEntity
  8
0
  6
Continuous
 62
     7
370
    15
100
AcDbSpline
210
0.0
220
0.0
230
1.0
 70
     8
 71
     3
 72
    10
 73
     6
 74
     0
 42
0.00000001
 43
0.00000001
 12
1.0
 22
0.0
 32
0.0
 13
1.0
 23
0.0
 33
0.0
 40
0.0
 40
0.0
 40
0.0
 40
0.0
 40
0.3620774861346441
 40
0.7258983805362885
 40
1.0
 40
1.0
 40
1.0
 40
1.0
 10
68.42415557725903
 20
145.6189170386629
 30
0.0
 10
68.42362194166287
 20
145.6089004681949
 30
0.0
 10
68.42255210100754
 20
145.5888190973291
 30
0.0
 10
68.42478189041158
 20
145.5222404845171
 30
0.0
 10
68.42842390447531
 20
145.4666076097944
 30
0.0
 10
68.42998879978981
 20
145.442703356965
 30
0.0
  0
SPLINE
  5
244
330
1F
100
AcDbEntity
  8
0
  6
Continuous
 62
     7
370
    15
100
AcDbSpline
210
0.0
220
0.0
230
1.0
 70
     8
 71
     3
 72
    12
 73
     8
 74
     0
 42
0.00000001
 43
0.00000001
 12
1.0
 22
0.0
 32
0.0
 13
1.0
 23
0.0
 33
0.0
 40
0.0
 40
0.0
 40
0.0
 40
0.0
 40
0.2058569888000989
 40
0.4121042397452431
 40
0.6141934173979262
 40
0.8133201648392079
 40
1.0
 40
1.0
 40
1.0
 40
1.0
 10
68.42998879978981
 20
145.442703356965
 30
0.0
 10
68.43339523282597
 20
145.3873575108719
 30
0.0
 10
68.44021455678863
 20
145.276560894443
 30
0.0
 10
68.43650465849585
 20
145.1673329216577
 30
0.0
 10
68.4187540518379
 20
145.1193160199609
 30
0.0
 10
68.3897761848526
 20
145.1332504251582
 30
0.0
 10
68.36758014073114
 20
145.1886681047521
 30
0.0
 10
68.35684016364243
 20
145.2154830005007
 30
0.0
  0
SPLINE
  5
245
330
1F
100
AcDbEntity
  8
0
  6
Continuous
 62
     7
370
    15
100
AcDbSpline
210
0.0
220
0.0
230
1.0
 70
     8
 71
     3
 72
    11
 73
     7
 74
     0
 42
0.00000001
 43
0.00000001
 12
1.0
 22
0.0
 32
0.0
 13
1.0
 23
0.0
 33
0.0
 40
0.0
 40
0.0
 40
0.0
 40
0.0
 40
0.2524792880418218
 40
0.5068907308931975
 40
0.7591805114880479
 40
1.0
 40
1.0
 40
1.0
 40
1.0
 10
68.35684016364243
 20
145.2154830005007
 30
0.0
 10
68.34995116649534
 20
145.2322111057625
 30
0.0
 10
68.33612045259369
 20
145.265795331892
 30
0.0
 10
68.31587263036175
 20
145.2690877132841
 30
0.0
 10
68.29800715061575
 20
145.2381930099816
 30
0.0
 10
68.28972273140923
 20
145.1905041802793
 30
0.0
 10
68.28567687439349
 20
145.1672144141035
 30
0.0
  0
SPLINE
  5
246
330
1F
100
AcDbEntity
  8
0
  6
Continuous
 62
     7
370
    15
100
AcDbSpline
210
0.0
220
0.0
230
1.0
 70
     8
 71
     3
 72
    11
 73
     7
 74
     0
 42
0.00000001
 43
0.00000001
 12
1.0
 22
0.0
 32
0.0
 13
1.0
 23
0.0
 33
0.0
 40
0.0
 40
0.0
 40
0.0
 40
0.0
 40
0.2794059411260188
 40
0.5596199864953088
 40
0.8375001482816429
 40
1.0
 40
1.0
 40
1.0
 40
1.0
 10
68.18950291740325
 20
142.7023574616747
 30
0.0
 10
68.18139443032992
 20
142.6650670086525
 30
0.0
 10
68.16515400463175
 20
142.5903782503083
 30
0.0
 10
68.14962977499674
 20
142.4898799356604
 30
0.0
 10
68.14293404897978
 20
142.4216254137072
 30
0.0
 10
68.14340902495881
 20
142.3963713457676
 30
0.0
 10
68.14358429069247
 20
142.3870526161032
 30
0.0
  0
SPLINE
  5
247
330
1F
100
AcDbEntity
  8
0
  6
Continuous
 62
     7
370
    15
100
AcDbSpline
210
0.0
220
0.0
230
1.0
 70
     8
 71
     3
 72
    12
 73
     8
 74
     0
 42
0.00000001
 43
0.00000001
 12
1.0
 22
0.0
 32
0.0
 13
1.0
 23
0.0
 33
0.0
 40
0.0
 40
0.0
 40
0.0
 40
0.0
 40
0.009174516217674
 40
0.2576735996792037
 40
0.5061897947521967
 40
0.7560296682206937
 40
1.0
 40
1.0
 40
1.0
 40
1.0
 10
68.14350291638252
 20
143.5471340920763
 30
0.0
 10
68.14343808144281
 20
143.5458171937834
 30
0.0
 10
68.14161714049003
 20
143.5088310557143
 30
0.0
 10
68.14106768175064
 20
143.43909755066
 30
0.0
 10
68.14911654819925
 20
143.3590552976244
 30
0.0
 10
68.16495859432425
 20
143.3071222167862
 30
0.0
 10
68.18087175485155
 20
143.3022917344666
 30
0.0
 10
68.18873376137194
 20
143.2999052014189
 30
0.0
  0
SPLINE
  5
248
330
1F
100
AcDbEntity
  8
0
  6
Continuous
 62
     7
370
    15
100
AcDbSpline
210
0.0
220
0.0
230
1.0
 70
     8
 71
     3
 72
    12
 73
     8
 74
     0
 42
0.00000001
 43
0.00000001
 12
1.0
 22
0.0
 32
0.0
 13
1.0
 23
0.0
 33
0.0
 40
0.0
 40
0.0
 40
0.0
 40
0.0
 40
0.2057502851070963
 40
0.4119595853580043
 40
0.6140136124372626
 40
0.813140224290599
 40
1.0
 40
1.0
 40
1.0
 40
1.0
 10
68.18873376137194
 20
143.2999052014189
 30
0.0
 10
68.20275271948648
 20
143.2954500776638
 30
0.0
 10
68.23082191107477
 20
143.2865298910703
 30
0.0
 10
68.25245663088188
 20
143.1928949417302
 30
0.0
 10
68.25105669213579
 20
143.0526594663386
 30
0.0
 10
68.2284621930782
 20
142.8817593053804
 30
0.0
 10
68.20221125339495
 20
142.7608775154448
 30
0.0
 10
68.18950291740325
 20
142.7023574616747
 30
0.0
  0
SPLINE
  5
249
330
1F
100
AcDbEntity
  8
0
  6
Continuous
 62
     7
370
    15
100
AcDbSpline
210
0.0
220
0.0
230
1.0
 70
     8
 71
     3
 72
    12
 73
     8
 74
     0
 42
0.00000001
 43
0.00000001
 12
1.0
 22
0.0
 32
0.0
 13
1.0
 23
0.0
 33
0.0
 40
0.0
 40
0.0
 40
0.0
 40
0.0
 40
0.009169440783853
 40
0.2573254362117416
 40
0.5054919561465162
 40
0.7549937991900063
 40
1.0
 40
1.0
 40
1.0
 40
1.0
 10
68.28567687439349
 20
145.1672144141035
 30
0.0
 10
68.28554240460721
 20
145.1662343226684
 30
0.0
 10
68.28176872884777
 20
145.1387296512256
 30
0.0
 10
68.27620355267793
 20
145.0747510888088
 30
0.0
 10
68.27456703497914
 20
144.9652856760275
 30
0.0
 10
68.27945281697737
 20
144.8512125245599
 30
0.0
 10
68.28829989174135
 20
144.7846736768992
 30
0.0
 10
68.29268321412232
 20
144.7517067100839
 30
0.0
  0
SPLINE
  5
24A
330
1F
100
AcDbEntity
  8
0
  6
Continuous
 62
     7
370
    15
100
AcDbSpline
210
0.0
220
0.0
230
1.0
 70
     8
 71
     3
 72
    12
 73
     8
 74
     0
 42
0.00000001
 43
0.00000001
 12
1.0
 22
0.0
 32
0.0
 13
1.0
 23
0.0
 33
0.0
 40
0.0
 40
0.0
 40
0.0
 40
0.0
 40
0.2058432834671562
 40
0.4120697264982041
 40
0.6141408500454418
 40
0.81325898202108
 40
1.0
 40
1.0
 40
1.0
 40
1.0
 10
68.29268321412232
 20
144.751706710084
 30
0.0
 10
68.30039638025613
 20
144.6925827202989
 30
0.0
 10
68.31583706991894
 20
144.574224686508
 30
0.0
 10
68.31813381222193
 20
144.3724152445278
 30
0.0
 10
68.30013075006967
 20
144.1840428515134
 30
0.0
 10
68.26505337178308
 20
144.0259210521674
 30
0.0
 10
68.23489784937787
 20
143.9592195706823
 30
0.0
 10
68.22030373400625
 20
143.9269386138754
 30
0.0
  0
SPLINE
  5
24B
330
1F
100
AcDbEntity
  8
0
  6
Continuous
 62
     7
370
    15
100
AcDbSpline
210
0.0
220
0.0
230
1.0
 70
     8
 71
     3
 72
    11
 73
     7
 74
     0
 42
0.00000001
 43
0.00000001
 12
1.0
 22
0.0
 32
0.0
 13
1.0
 23
0.0
 33
0.0
 40
0.0
 40
0.0
 40
0.0
 40
0.0
 40
0.2535046378744173
 40
0.5075637760905307
 40
0.7595042153692837
 40
1.0
 40
1.0
 40
1.0
 40
1.0
 10
68.22030373400625
 20
143.9269386138754
 30
0.0
 10
68.2109441390498
 20
143.9060195534296
 30
0.0
 10
68.19220447653863
 20
143.864135675481
 30
0.0
 10
68.16877746647579
 20
143.765981249084
 30
0.0
 10
68.15116277550169
 20
143.6558426382631
 30
0.0
 10
68.14601633346291
 20
143.5828044500449
 30
0.0
 10
68.14350291638252
 20
143.5471340920763
 30
0.0
  0
CIRCLE
  5
24C
330
1F
100
AcDbEntity
  8
VERMASSUNG
  6
CENTERX2
100
AcDbCircle
 10
69.7940001173
 20
114.7191877103
 30
0.0
 40
39.99999999999999
  0
DIMENSION
  5
24D
330
1F
100
AcDbEntity
  8
VERMASSUNG
100
AcDbDimension
  2
_D_5
 10
41.5097288698
 20
143.0034589578
 30
0.0
 11
34.2396175349
 21
150.2735702927
 31
0.0
 70
   160
  1
%%c<> min. 
 71
     2
 42
-1.0
  3
SLDDIMSTYLE3
100
AcDbAlignedDimension
 13
98.0782713647
 23
86.4349164629
 33
0.0
 14
41.5097288698
 24
143.0034589578
 34
0.0
 50
-45.0
100
AcDbRotatedDimension
  0
INSERT
  5
267
330
1F
100
AcDbEntity
  8
VERMASSUNG
100
AcDbBlockReference
  2
SW_CENTERMARKSYMBOL_0
 10
69.7940001173
 20
109.7279243078
 30
0.0
  0
OLE2FRAME
  5
268
330
1F
100
AcDbEntity
  8
0
100
AcDbOle2Frame
 70
     2
  3
Paintbrush-Bild
 10
13.8511154363
 20
38.264191557
 30
0.0
 11
51.6290888628
 21
31.9806341108
 31
0.0
 71
     2
 72
     0
 73
     1
 90
    12928
310
80552BED0767C5B32B40DDAF6807D121434000000000000000006FFBDDFB85D0
310
4940DDAF6807D121434000000000000000006FFBDDFB85D04940416F4BD60AFB
310
3F4000000000000000002BED0767C5B32B40416F4BD60AFB3F40000000000000
310
0000000000000100000000010000010000000100000000000100000000320000
310
D0CF11E0A1B11AE1000000000000000000000000000000003E000300FEFF0900
310
0600000000000000000000000100000001000000000000000010000002000000
310
01000000FEFFFFFF0000000000000000FFFFFFFFFFFFFFFFFFFFFFFFFFFFFFFF
310
FFFFFFFFFFFFFFFFFFFFFFFFFFFFFFFFFFFFFFFFFFFFFFFFFFFFFFFFFFFFFFFF
310
FFFFFFFFFFFFFFFFFFFFFFFFFFFFFFFFFFFFFFFFFFFFFFFFFFFFFFFFFFFFFFFF
310
FFFFFFFFFFFFFFFFFFFFFFFFFFFFFFFFFFFFFFFFFFFFFFFFFFFFFFFFFFFFFFFF
310
FFFFFFFFFFFFFFFFFFFFFFFFFFFFFFFFFFFFFFFFFFFFFFFFFFFFFFFFFFFFFFFF
310
FFFFFFFFFFFFFFFFFFFFFFFFFFFFFFFFFFFFFFFFFFFFFFFFFFFFFFFFFFFFFFFF
310
FFFFFFFFFFFFFFFFFFFFFFFFFFFFFFFFFFFFFFFFFFFFFFFFFFFFFFFFFFFFFFFF
310
FFFFFFFFFFFFFFFFFFFFFFFFFFFFFFFFFFFFFFFFFFFFFFFFFFFFFFFFFFFFFFFF
310
FFFFFFFFFFFFFFFFFFFFFFFFFFFFFFFFFFFFFFFFFFFFFFFFFFFFFFFFFFFFFFFF
310
FFFFFFFFFFFFFFFFFFFFFFFFFFFFFFFFFFFFFFFFFFFFFFFFFFFFFFFFFFFFFFFF
310
FFFFFFFFFFFFFFFFFFFFFFFFFFFFFFFFFFFFFFFFFFFFFFFFFFFFFFFFFFFFFFFF
310
FFFFFFFFFFFFFFFFFFFFFFFFFFFFFFFFFFFFFFFFFFFFFFFFFFFFFFFFFFFFFFFF
310
FFFFFFFFFFFFFFFFFFFFFFFFFFFFFFFFFFFFFFFFFFFFFFFFFFFFFFFFFFFFFFFF
310
FFFFFFFFFFFFFFFFFFFFFFFFFFFFFFFFFFFFFFFFFFFFFFFFFFFFFFFFFFFFFFFF
310
FDFFFFFFFEFFFFFFFEFFFFFFFEFFFFFF05000000060000000700000008000000
310
090000000A0000000B0000000C0000000D0000000E0000000F00000010000000
310
11000000120000001300000014000000150000001600000017000000FEFFFFFF
310
FFFFFFFFFFFFFFFFFFFFFFFFFFFFFFFFFFFFFFFFFFFFFFFFFFFFFFFFFFFFFFFF
310
FFFFFFFFFFFFFFFFFFFFFFFFFFFFFFFFFFFFFFFFFFFFFFFFFFFFFFFFFFFFFFFF
310
FFFFFFFFFFFFFFFFFFFFFFFFFFFFFFFFFFFFFFFFFFFFFFFFFFFFFFFFFFFFFFFF
310
FFFFFFFFFFFFFFFFFFFFFFFFFFFFFFFFFFFFFFFFFFFFFFFFFFFFFFFFFFFFFFFF
310
FFFFFFFFFFFFFFFFFFFFFFFFFFFFFFFFFFFFFFFFFFFFFFFFFFFFFFFFFFFFFFFF
310
FFFFFFFFFFFFFFFFFFFFFFFFFFFFFFFFFFFFFFFFFFFFFFFFFFFFFFFFFFFFFFFF
310
FFFFFFFFFFFFFFFFFFFFFFFFFFFFFFFFFFFFFFFFFFFFFFFFFFFFFFFFFFFFFFFF
310
FFFFFFFFFFFFFFFFFFFFFFFFFFFFFFFFFFFFFFFFFFFFFFFFFFFFFFFFFFFFFFFF
310
FFFFFFFFFFFFFFFFFFFFFFFFFFFFFFFFFFFFFFFFFFFFFFFFFFFFFFFFFFFFFFFF
310
FFFFFFFFFFFFFFFFFFFFFFFFFFFFFFFFFFFFFFFFFFFFFFFFFFFFFFFFFFFFFFFF
310
FFFFFFFFFFFFFFFFFFFFFFFFFFFFFFFFFFFFFFFFFFFFFFFFFFFFFFFFFFFFFFFF
310
FFFFFFFFFFFFFFFFFFFFFFFFFFFFFFFFFFFFFFFFFFFFFFFFFFFFFFFFFFFFFFFF
310
FFFFFFFFFFFFFFFFFFFFFFFFFFFFFFFFFFFFFFFFFFFFFFFFFFFFFFFFFFFFFFFF
310
52006F006F007400200045006E00740072007900000000000000000000000000
310
0000000000000000000000000000000000000000000000000000000000000000
310
16000500FFFFFFFFFFFFFFFF020000000A00030000000000C000000000000046
310
000000000000000000000000805E501BF438CD0103000000C000000000000000
310
01004F006C006500000000000000000000000000000000000000000000000000
310
0000000000000000000000000000000000000000000000000000000000000000
310
0A000200FFFFFFFFFFFFFFFFFFFFFFFF00000000000000000000000000000000
310
0000000000000000000000000000000000000000000000001400000000000000
310
010043006F006D0070004F0062006A0000000000000000000000000000000000
310
0000000000000000000000000000000000000000000000000000000000000000
310
120002010100000003000000FFFFFFFF00000000000000000000000000000000
310
0000000000000000000000000000000000000000010000004D00000000000000
310
01004F006C006500310030004E00610074006900760065000000000000000000
310
0000000000000000000000000000000000000000000000000000000000000000
310
1A000200FFFFFFFFFFFFFFFFFFFFFFFF00000000000000000000000000000000
310
0000000000000000000000000000000000000000040000002426000000000000
310
FEFFFFFF02000000FEFFFFFFFFFFFFFFFFFFFFFFFFFFFFFFFFFFFFFFFFFFFFFF
310
FFFFFFFFFFFFFFFFFFFFFFFFFFFFFFFFFFFFFFFFFFFFFFFFFFFFFFFFFFFFFFFF
310
FFFFFFFFFFFFFFFFFFFFFFFFFFFFFFFFFFFFFFFFFFFFFFFFFFFFFFFFFFFFFFFF
310
FFFFFFFFFFFFFFFFFFFFFFFFFFFFFFFFFFFFFFFFFFFFFFFFFFFFFFFFFFFFFFFF
310
FFFFFFFFFFFFFFFFFFFFFFFFFFFFFFFFFFFFFFFFFFFFFFFFFFFFFFFFFFFFFFFF
310
FFFFFFFFFFFFFFFFFFFFFFFFFFFFFFFFFFFFFFFFFFFFFFFFFFFFFFFFFFFFFFFF
310
FFFFFFFFFFFFFFFFFFFFFFFFFFFFFFFFFFFFFFFFFFFFFFFFFFFFFFFFFFFFFFFF
310
FFFFFFFFFFFFFFFFFFFFFFFFFFFFFFFFFFFFFFFFFFFFFFFFFFFFFFFFFFFFFFFF
310
FFFFFFFFFFFFFFFFFFFFFFFFFFFFFFFFFFFFFFFFFFFFFFFFFFFFFFFFFFFFFFFF
310
FFFFFFFFFFFFFFFFFFFFFFFFFFFFFFFFFFFFFFFFFFFFFFFFFFFFFFFFFFFFFFFF
310
FFFFFFFFFFFFFFFFFFFFFFFFFFFFFFFFFFFFFFFFFFFFFFFFFFFFFFFFFFFFFFFF
310
FFFFFFFFFFFFFFFFFFFFFFFFFFFFFFFFFFFFFFFFFFFFFFFFFFFFFFFFFFFFFFFF
310
FFFFFFFFFFFFFFFFFFFFFFFFFFFFFFFFFFFFFFFFFFFFFFFFFFFFFFFFFFFFFFFF
310
FFFFFFFFFFFFFFFFFFFFFFFFFFFFFFFFFFFFFFFFFFFFFFFFFFFFFFFFFFFFFFFF
310
FFFFFFFFFFFFFFFFFFFFFFFFFFFFFFFFFFFFFFFFFFFFFFFFFFFFFFFFFFFFFFFF
310
FFFFFFFFFFFFFFFFFFFFFFFFFFFFFFFFFFFFFFFFFFFFFFFFFFFFFFFFFFFFFFFF
310
0100000200000000000000000000000000000000000000000000000000000000
310
0000000000000000000000000000000000000000000000000000000000000000
310
0100FEFF030A0000FFFFFFFF0A00030000000000C00000000000004607000000
310
5042727573680007000000504272757368000700000050427275736800F439B2
310
7100000000000000000000000000000000000000000000000000000000000000
310
0000000000000000000000000000000000000000000000000000000000000000
310
0000000000000000000000000000000000000000000000000000000000000000
310
0000000000000000000000000000000000000000000000000000000000000000
310
0000000000000000000000000000000000000000000000000000000000000000
310
0000000000000000000000000000000000000000000000000000000000000000
310
0000000000000000000000000000000000000000000000000000000000000000
310
0000000000000000000000000000000000000000000000000000000000000000
310
0000000000000000000000000000000000000000000000000000000000000000
310
0000000000000000000000000000000000000000000000000000000000000000
310
0000000000000000000000000000000000000000000000000000000000000000
310
0000000000000000000000000000000000000000000000000000000000000000
310
20260000424D0E260000000000003E00000028000000B40200006E0000000100
310
01000000000000000000130B0000130B00000200000002000000000000FFFFFF
310
FFFFFFFFFFFFFFFFFFFFFFFFFFFFFFFFFFFFFFFFFFFFFFFFFFFFFFFFFFFFFFFF
310
FFFFFFFFFFFFFFFFFFFFFFFFFFFFFFFFFFFFFFFFFFFFFFFFFFFFFFFFFFFFFFFF
310
FFFFFFFFFFFFFFFFFFFFFFFFFFFFFFFFFFFFFFFFFFFFFFFFF000FFFFFFFFFFFF
310
FFFFFFFFFFFFFFFFFFFFFFFFFFFFFFFFFFFFFFFFFFFFFFFFFFFFFFFFFFFFFFFF
310
FFFFFFFFFFFFFFFFFFFFFFFFFFFFFFFFFFFFFFFFFFFFFFFFFFFFFFFFFFFFFFFF
310
FFFFFFFFFFFFFFFFFFFFFFFFFFFFFFFFF000FFFFFFFFFFFFFFFFFFFFFFFFFFFF
310
FFFFFFFFFFFFFFFFFFFFFFFFFFFFFFFFFFFFFFFFFFFFFFFFFFFFFFFFFFFFFFFF
310
FFFFFFFFFFFFFFFFFFFFFFFFFFFFFFFFFFFFFFFFFFFFFFFFFFFFFFFFFFFFFFFF
310
FFFFFFFFFFFFFFFFF000FFFFFFFFFFFFFFFFFFFFFFFFFFFFFFFFFFFFFFFFFFFF
310
FFFFFFFFFFFFFFFFFFFFFFFFFFFFFFFFFFFFFFFFFFFFFFFFFFFFFFFFFFFFFFFF
310
FFFFFFFFFFFFFFFFFFFFFFFFFFFFFFFFFFFFFFFFFFFFFFFFFFFFFFFFFFFFFFFF
310
F000FFFFFFFFFFFFFFFFFFFFFFFFFFFFFFFFFFFFFFFFFFFFFFFFFFFFFFFFFFFF
310
FFFFFFFFFFFFFFFFFFFFFFFFFFFFFFFFFFFFFFFFFFFFFFFFFFFFFFFFFFFFFFFF
310
FFFFFFFFFFFFFFFFFFFFFFFFFFFFFFFFFFFFFFFFFFFFFFFFF000FFFFFFFFFFFF
310
FFFFFFFFFFFFFFFFFFFFFFFFFFFFFFFFFFFFFFFFFFFFFFFFFFFFFFFFFFFFFFFF
310
FFFFFFFFFFFFFFFFFFFFFFFFFFFFFFFFFFFFFFFFFFFFFFFFFFFFFFFFFFFFFFFF
310
FFFFFFFFFFFFFFFFFFFFFFFFFFFFFFFFF000FFFFFFFFFFFFFFFFFFFFFFFFFFFF
310
FFFFFFFFFFFFFFFFFFFFFFFFFFFFFFFFFFFFFFFFFFFFFFFFFFFFFFFFFFFFFFFF
310
FFFFFFFFFFFFFFFFFFFFFFFFFFFFFFFFFFFFFFFFFFFFFFFFFFFFFFFFFFFFFFFF
310
FFFFFFFFFFFFFFFFF000FFFFFFFFFFFFFFFFFFFFFFFFFFFFFFFFFFFFFFFFFFFF
310
FFFFFFFFFFFFFFFFFFFFFFFFFFFFFFFFFFFFFFFFFFFFFFFFFFFFFFFFFFFFFFFF
310
FFFFFFFFFFFFFFFFFFFFFFFFFFFFFFFFFFFFFFFFFFFFFFFFFFFFFFFFFFFFFFFF
310
F000FFFFFFFFFFFFFFFFFFFFFFFFFFFFFFFFFFFFFFFFFFFFFFFFFFFFFFFFFFFF
310
FFFFFFFFFFFFFFFFFFFFFFFFFFFFFFFFFFFFFFFFFFFFFFFFFFFFFFFFFFFFFFFF
310
FFFFFFFFFFFFFFFFFFFFFFFFFFFFFFFFFFFFFFFFFFFFFFFFF000FFFFFFFFFFFF
310
FFFFFFFFFFFFFFFFFFFFFFFFFFFFFFFFFFFFFFFFFFFFFFFFFFFFFFFFFFFFFFFF
310
FFFFFFFFFFFFFFFFFFFFFFFFFFFFFFFFFFFFFFFFFFFFFFFFFFFFFFFFFFFFFFFF
310
FFFFFFFFFFFFFFFFFFFFFFFFFFFFFFFFF000FFFFFFFFFFFFFFFFFFFFFFFFFFFF
310
FFFFFFFFFFFFFFFFFFFFFFFFFFFFFFFFFFFFFFFFFFFFFFFFFFFFFFFFFFFFFFFF
310
FFFFFFFFFFFFFFFFFFFFFFFFFFFFFFFFFFFFFFFFFFFFFFFFFFFFFFFFFFFFFFFF
310
FFFFFFFFFFFFFFFFF000FFFFFFFFFFFFFFFFFFFFFFFFFFFFFFFFFFFFFFFFFFFF
310
FFFFFFFFFFFFFFFFFFFFFFFFFFFFFFFFFFFFFFFFFFFFFFFFFFFFFFFFFFFFFFFF
310
FFFFFFFFFFFFFFFFFFFFFFFFFFFFFFFFFFFFFFFFFFFFFFFFFFFFFFFFFFFFFFFF
310
F000FFFFFFFFFFFFFFFFFFFFFFFFFFFFFFFFFFFFFFFFFFFFFFFFFFFFFFFFFFFF
310
FFFFFFFFFFFFFFFFFFFFFFFFFFFFFFFFFFFFFFFFFFFFFFFFFFFFFFFFFFFFFFFF
310
FFFFFFFFFFFFFFFFFFFFFFFFFFFFFFFFFFFFFFFFFFFFFFFFF000FFFFFFFFFFFF
310
FFFFFFFFFFFFFFFFFFFFFFFFFFFFFFFFFFFFFFFFFFFFFFFFFFFFFFFFFFFFFFFF
310
FFFFFFFFFFFFFFFFFFFFFFFFFFFFFFFFFFFFFFFFFFFFFFFFFFFFFFFFFFFFFFFF
310
FFFFFFFFFFFFFFFFFFFFFFFFFFFFFFFFF000FFFFFFFFFFFFFFFFFFFFFFFFFFFF
310
FFFFFFFFFFFFFFFFFFFFFFFFFFFFFFFFFFFFFFFFFFFFFFFFFFFFFFFFFFFFFFFF
310
FFFFFFFFFFFFFFFFFFFFFFFFFFFFFFFFFFFFFFFFFFFFFFFFFFFFFFFFFFFFFFFF
310
FFFFFFFFFFFFFFFFF000FFFFFFFFFFFFFFFFFFFFFFFFFFFFFFFFFFFFFFFFFFFF
310
FFFFFFFFFFFFFFFFFFFFFFFFFFFFFFFFFFFFFFFFFFFFFFFFFFFFFFFFFFFFFFFF
310
FFFFFFFFFFFFFFFFFFFFFFFFFFFFFFFFFFFFFFFFFFFFFFFFFFFFFFFFFFFFFFFF
310
F000FFFFFFFFFFFFFFFFFFFFFFFFFFFFFFFFFFFFFFFFFFFFFFFFFFFFFFFFFFFF
310
FFFFFFFFFFFFFFFFFFFFFFFFFFFFFFFFFFFFFFFFFFFFFFFFFFFFFFFFFFFFFFFF
310
FFFFFFFFFFFFFFFFFFFFFFFFFFFFFFFFFFFFFFFFFFFFFFFFF000FFFFFFFFFFFF
310
FFFFFFFFFFFFFFFFFFFFFFFFFFFFFFFFFFFFFFFFFFFFFFFFFFFFFFFFFFFFFFFF
310
FFFFFFFFFFFFFFFFFFFFFFFFFFFFFFFFFFFFFFFFFFFFFFFFFFFFFFFFFFFFFFFF
310
FFFFFFFFFFFFFFFFFFFFFFFFFFFFFFFFF000FFFFFFFFFFFFFFFFFFFFFFFFFFFF
310
FFFFFFFFFFFFFFFFFFFFFFFFFFFFFFFFFFFFFFFFFFFFFFFFFFFFFFFFFFFFFFFF
310
FFFFFFFFFFFFFFFFFFFFFFFFFFFFFFFFFFFFFFFFFFFFFFFFFFFFFFFFFFFFFFFF
310
FFFFFFFFFFFFFFFFF000FFFFF80003FFFFFFFFFFFFFFFFFFFFFFFFFFFFFFFFFF
310
FFFFF00007FFFFFFFFFF00007FFFFFF800000000000000007FFFFFFFFFFFFFFF
310
FFFFFFFC001FFFFFFFFFFFFFFC001FFFFFFFFFFFFFFFFFFFFFFFFFFE0007FFFF
310
F000FFFF8000007FFFFFFFF8000FFFFFC0007FFFFF80007FFFFF0000007FFFFF
310
FFF8000007FFFFF800000000000000007FFFFFF0001FFFFFFFFFFFC00001FFFF
310
FFFFFFFFC00001FFFFFFFF000000000003FFFFE000007FFFF000FFFE0000000F
310
FFFFFFF0000FFFFF80007FFFFF80007FFFFC0000001FFFFFFFC0000001FFFFF8
310
00000000000000007FFFFFF0001FFFFFFFFFFE0000003FFFFFFFFFFE0000003F
310
FFFFFF000000000003FFFF0000000FFFF000FFF800000003FFFFFFF00007FFFF
310
80007FFFFF80007FFFF000000007FFFFFF000000003FFFF80000000000000000
310
7FFFFFF0001FFFFFFFFFF80000000FFFFFFFFFF80000000FFFFFFF0000000000
310
03FFFC00000003FFF000FFE000000000FFFFFFF00007FFFF80003FFFFF80007F
310
FFC000000001FFFFFC000000001FFFF800000000000000007FFFFFF0001FFFFF
310
FFFFE000000003FFFFFFFFE000000003FFFFFF000000000003FFF000000000FF
310
F000FF80000000007FFFFFF00007FFFF80003FFFFF80007FFF8000000000FFFF
310
F80000000007FFF800000000000000007FFFFFF0001FFFFFFFFFC000000001FF
310
FFFFFFC000000001FFFFFF000000000003FFC0000000007FF000FF0000000000
310
3FFFFFE00007FFFF00003FFFFF80007FFE00000000003FFFF00000000003FFF8
310
00000000000000007FFFFFF0001FFFFFFFFF8000000000FFFFFFFF8000000000
310
FFFFFF000000000003FF80000000003FF000FE00000000001FFFFFE00003FFFF
310
00003FFFFF80007FFC00000000001FFFE00000000001FFF8000001FFFE000000
310
7FFFFFF0001FFFFFFFFE00000000003FFFFFFE00000000003FFFFF0000000000
310
03FF00000000001FF000FC00000000000FFFFFE00003FFFF00001FFFFF80007F
310
F800000000001FFFC00000000000FFF8000001FFFE0000007FFFFFF0001FFFFF
310
FFFC00000000001FFFFFFC00000000001FFFFF000000000003FE00000000000F
310
F000F8000000000007FFFFE00003FFFF00001FFFFF80007FF800000000000FFF
310
800000000000FFF8000001FFFE0000007FFFFFF0001FFFFFFFF800000000000F
310
FFFFF800000000000FFFFF000000000003FC000000000007F000F80000000000
310
03FFFFC00003FFFE00001FFFFF80007FF0000000000007FF0000000000007FF8
310
000001FFFE0000007FFFFFF0001FFFFFFFF0000000000007FFFFF00000000000
310
07FFFF000000000003F8000000000003F000F0000000000003FFFFC00001FFFE
310
00001FFFFF80007FE0000000000007FE0000000000003FF8000001FFFE000000
310
7FFFFFF0001FFFFFFFF0000000000007FFFFF0000000000007FFFF0000000000
310
03F800001F800003F000E00001FFF00001FFFFC00001FFFE00000FFFFF80007F
310
E00001FFE00003FE00001FFF00003FF8000001FFFE0000007FFFFFF0001FFFFF
310
FFE000003E000003FFFFE000003E000003FFFF000000000003F00001FFF80001
310
F000E00007FFFC0001FFFFC00001FFFE00000FFFFF80007FC0000FFFFC0003FC
310
0000FFFFC0001FF8000001FFFE0000007FFFFFF0001FFFFFFFC00003FFE00001
310
FFFFC00003FFE00001FFFF0001FFFFFFFFF00007FFFE0001F000E0000FFFFF00
310
00FFFF800001FFFC00000FFFFF80007FC0001FFFFE0001FC0001FFFFE0001FF8
310
000001FFFE0000007FFFFFF0001FFFFFFF80000FFFF80000FFFF80000FFFF800
310
00FFFF0003FFFFFFFFE0000FFFFF8000F000C0003FFFFF8000FFFF800000FFFC
310
000007FFFF80007F80003FFFFF0001FC0003FFFFF0001FF8000001FFFE000000
310
7FFFFFF0001FFFFFFF80003FFFFE0000FFFF80003FFFFE0000FFFF0003FFFFFF
310
FFE0003FFFFF8000F000C0003FFFFF8000FFFF800000FFFC000007FFFF80007F
310
80007FFFFF8001F80007FFFFF8000FF8000001FFFE0000007FFFFFF0001FFFFF
310
FF00007FFFFF00007FFF00007FFFFF00007FFF0003FFFFFFFFE0003FFFFFC000
310
F000C0007FFFFFC000FFFF000000FFFC000007FFFF80007F8000FFFFFF8000F8
310
000FFFFFF8000FF8000001FFFE0000007FFFFFF0001FFFFFFF0000FFFFFF8000
310
7FFF0000FFFFFF80007FFF0003FFFFFFFFC0007FFFFFC00070008000FFFFFFC0
310
00FFFF000000FFF8000007FFFF80007F8000FFFFFF8000F8000FFFFFF8000FF8
310
000001FFFE0000007FFFFFF0001FFFFFFE0001FFFFFFC0003FFE0001FFFFFFC0
310
003FFF0003FFFFFFFFC0007FFFFFE00070008000FFFFFFC0007FFF0000007FF8
310
000003FFFF80007F0001FFFFFF8000F8000FFFFFF8000FF8000001FFFE000000
310
7FFFFFF0001FFFFFFE0001FFFFFFC0003FFE0001FFFFFFC0003FFF0003FFFFFF
310
FFC000FFFFFFE00070008000FFFFFFC0007FFF0000007FF8000003FFFF80007F
310
0001FFFFFF8000F8001FFFFFF8000FF8000001FFFE0000007FFFFFF0001FFFFF
310
FE0003FFFFFFE0003FFE0003FFFFFFE0003FFF0003FFFFFFFFC000FFFFFFE000
310
70008000FFFFFFC0007FFE0000007FF8000003FFFF80007F0001FFFFFF8000F0
310
001FFFFFF8000FF8000001FFFE0000007FFFFFF0001FFFFFFC0003FFFFFFE000
310
1FFC0003FFFFFFE0001FFF0003FFFFFFFFC000FFFFFFC00070008000FFFFFF80
310
007FFE0000007FF0000003FFFF80007F0001FFFFFF0000F0001FFFFFF8000FF8
310
000001FFFE0000007FFFFFF0001FFFFFFC0007FFFFFFF0001FFC0007FFFFFFF0
310
001FFF0003FFFFFFFFC000FFFFFFC00070008001FFFFFF0000FFFE0000003FF0
310
000001FFFF80007F0001FFFFFF0000F8001FFFFFF0000FF8000001FFFE000000
310
7FFFFFF0001FFFFFFC0007FFFFFFF0001FFC0007FFFFFFF0001FFF0003FFFFFF
310
FFC001FFFFFF80007000FFFFFFFFFE0000FFFE0008003FF0008001FFFF80007F
310
FFFFFFFFFC0000FFFFFFFFFFE0000FF8000001FFFE0000007FFFFFF0001FFFFF
310
F8000FFFFFFFF8000FF8000FFFFFFFF8000FFF0003FFFFFFFFFFFFFFFFFF0000
310
7000FFFFFFFFFC0000FFFC0008003FF0008001FFFF80007FFFFFFFFFF80001FF
310
FFFFFFFF80000FF8000001FFFE0000007FFFFFF0001FFFFFF8000FFFFFFFF800
310
0FF8000FFFFFFFF8000FFF0003FFFFFFFFFFFFFFFFFE0000F000FFFFFFFFE000
310
00FFFC000C003FE000C001FFFF80007FFFFFFFFFC00001FFFFFFFFFE00001FF8
310
000001FFFE0000007FFFFFF0001FFFFFF8000FFFFFFFF8000FF8000FFFFFFFF8
310
000FFF0003FFFFFFFFFFFFFFFFF00000F000FFFFFFFE000001FFFC000C001FE0
310
00C000FFFF80007FFFFFFFFE000001FFFFFFFFE000001FF80FFFFFFFFFFFFFC0
310
7FFFFFF0001FFFFFF8000FFFFFFFF8000FF8000FFFFFFFF8000FFF0003FFFFFF
310
FFFFFFFFFF800000F000FFFFFFC0000001FFFC001C001FE001C000FFFF80007F
310
FFFFFF80000003FFFFFFF80000001FF80FFFFFFFFFFFFFC07FFFFFF0001FFFFF
310
F8001FFFFFFFFC000FF8001FFFFFFFFC000FFF0003FFFFFFFFFFFFFFF0000001
310
F000FFFFF800000001FFF8001C001FE001C000FFFF80007FFFFFF800000003FF
310
FFFF800000003FF80FFFFFFFFFFFFFC07FFFFFF0001FFFFFF8001FFFFFFFFC00
310
0FF8001FFFFFFFFC000FFF0003FFFFFFFFFFFFFE00000001F000FFFFC0000000
310
03FFF8001E001FC001E000FFFF80007FFFFF8000000007FFFFFC000000003FF8
310
0FFFFFFFFFFFFFC07FFFFFF0001FFFFFF8001FFFFFFFFC000FF8001FFFFFFFFC
310
000FFF0003FFFFFFFFFFFFE000000003F000FFFE0000000007FFF8001E000FC0
310
01E0007FFF80007FFFFE0000000007FFFFE0000000007FF80FFFFFFFFFFFFFC0
310
7FFFFFF0001FFFFFF0001FFFFFFFFC0007F0001FFFFFFFFC0007FF0003FFFFFF
310
FFFFFF0000000003F000FFF80000000007FFF8001E000FC003E0007FFF80007F
310
FFF0000000000FFFFF8000000000FFF80FFFFFFFFFFFFFC07FFFFFF0001FFFFF
310
F0001FFFFFFFFC0007F0001FFFFFFFFC0007FF0003FFFFFFFFFFFC0000000007
310
F000FFE0000000000FFFF0003E000FC003E0007FFF80007FFFC0000000001FFF
310
FE0000000001FFF80FFFFFFFFFFFFFC07FFFFFF0001FFFFFF0001FFFFFFFFC00
310
07F0001FFFFFFFFC0007FF0003FFFFFFFFFFF0000000000FF000FFC000000000
310
1FFFF0003F000F8003F0003FFF80007FFF80000000003FFFF80000000003FFF8
310
0FFFFFFFFFFFFFC07FFFFFF0001FFFFFF0001FFFFFFFFC0007F0001FFFFFFFFC
310
0007FF0003FFFFFFFFFFE0000000001FF000FF00000000007FFFF0003F000780
310
03F0003FFF80007FFF00000000007FFFF00000000007FFF80FFFFFFFFFFFFFC0
310
7FFFFFF0001FFFFFF0001FFFFFFFFC0007F0001FFFFFFFFC0007FF0003FFFFFF
310
FFFF80000000007FF000FE0000000000FFFFE0003F00078007F0003FFF80007F
310
FE0000000001FFFFE0000000001FFFF80FFFFFFFFFFFFFC07FFFFFF0001FFFFF
310
F0001FFFFFFFFC0007F0001FFFFFFFFC0007FF0003FFFFFFFFFF0000000000FF
310
F000FC0000000003FFFFE0007F00078007F0003FFF80007FFC0000000007FFFF
310
C0000000007FFFF80FFFFFFFFFFFFFC07FFFFFF0001FFFFFF8001FFFFFFFFC00
310
0FF8001FFFFFFFFC000FFF0003FFFFFFFFFE0000000003FFF000FC000000000F
310
FFFFE0007F80070007F8001FFF80007FF8000000001FFFFF8000000001FFFFF8
310
0FFFFFFFFFFFFFC07FFFFFF0001FFFFFF8001FFFFFFFFC000FF8001FFFFFFFFC
310
000FFF0003FFFFFFFFFC000000000FFFF000F8000000007FFFFFE0007F800700
310
07F8001FFF80007FF000000000FFFFFF800000000FFFFFF80FFFFFFFFFFFFFC0
310
7FFFFFF0001FFFFFF8000FFFFFFFF8000FF8000FFFFFFFF8000FFF0003FFFFFF
310
FFFC000000007FFFF000F800000007FFFFFFC0007F8003000FF8001FFF80007F
310
F000000007FFFFFF000000007FFFFFF80FFFFFFFFFFFFFC07FFFFFF0001FFFFF
310
F8000FFFFFFFF8000FF8000FFFFFFFF8000FFF0003FFFFFFFFF80000000FFFFF
310
F000F0000000FFFFFFFFC000FF8003000FF8001FFF80007FE0000000FFFFFFFF
310
0000000FFFFFFFF8000001FFFE0000007FFFFFF0001FFFFFF8000FFFFFFFF800
310
0FF8000FFFFFFFF8000FFF0003FFFFFFFFF8000000FFFFFFF000F000000FFFFF
310
FFFFC000FFC002000FF8000FFF80007FE000001FFFFFFFFE000001FFFFFFFFF8
310
000001FFFE0000007FFFFFF0001FFFFFF8000FFFFFFFF8000FF8000FFFFFFFF8
310
000FFF0003FFFFFFFFF000001FFFFFFFF000E00000FFFFFFFFFFC000FFC00200
310
0FFC000FFF80007FE00001FFFFFFFFFE00001FFFFFFFFFF8000001FFFE000000
310
7FFFFFF0001FFFFFFC000FFFFFFFF8001FFC000FFFFFFFF8001FFF0003FFFFFF
310
FFF00001FFFFFFFFF000E00007FFFFFFFFFF8000FFC000001FFC000FFF80007F
310
C0000FFFFFFFFFFE0000FFFFFFFFFFF8000001FFFE0000007FFFFFF0001FFFFF
310
FC0007FFFFFFF0001FFC0007FFFFFFF0001FFF0003FFFFFFFFF00007FFFFFFFF
310
F000E0001FFFFFFFFFFF8000FFC000001FFC000FFF80007FC0003FFFFFFFFFFE
310
0001FFFFFFFFFFF8000001FFFE0000007FFFFFF0001FFFFFFC0007FFFFFFF000
310
1FFC0007FFFFFFF0001FFF0003FFFFFFFFF0001FFFFFFFFFF000E0003FFFFF00
310
03FF8001FFE000001FFC0007FF80007FC0007FFFFF0007FC0003FFFFF0003FF8
310
000001FFFE0000007FFFFFF0001FFFFFFC0003FFFFFFE0001FFC0003FFFFFFE0
310
001FFF0003FFFFFFFFF0003FFFFFFFFFF000E0003FFFFF0001FF8001FFE00000
310
1FFE0007FF80007FC0007FFFFE0003FC0007FFFFE0003FF8000001FFFE000000
310
7FFFFFF0001FFFFFFE0003FFFFFFE0003FFE0003FFFFFFE0003FFF0003FFFFFF
310
FFF0003FFFFF8001F000E0003FFFFF0001FF0001FFE000001FFE0007FF80007F
310
C0007FFFFE0003FC0007FFFFE0003FF8000001FFFE0000007FFFFFF0001FFFFF
310
FE0001FFFFFFC0003FFE0001FFFFFFC0003FFF0003FFFFFFFFF0003FFFFF0001
310
F000E0003FFFFF0003FF0001FFE000003FFE0007FF80007FC0007FFFFE0003FC
310
0007FFFFE0003FF8000001FFFE0000007FFFFFF0001FFFFFFF0001FFFFFFC000
310
7FFF0001FFFFFFC0007FFF0003FFFFFFFFF0003FFFFF0001F000E0003FFFFE00
310
03FF0003FFF000003FFE0003FF80007FC0007FFFFC0003FE0007FFFFE0003FF8
310
000001FFFE0000007FFFFFF0001FFFFFFF0000FFFFFF80007FFF0000FFFFFF80
310
007FFF0003FFFFFFFFF0003FFFFF0001F000E0003FFFFE0003FF0003FFF00000
310
3FFF0003FF80007FC0007FFFFC0007FE0007FFFFC0003FF8000001FFFE000000
310
7FFFFFF0001FFFFFFF80007FFFFF0000FFFF80007FFFFF0000FFFF0003FFFFFF
310
FFF0003FFFFF0003F000E0003FFFFC0003FE0003FFF000003FFF0003FF80007F
310
E0003FFFF80007FE0003FFFFC0007FF8000001FFFE0000007FFFFFF0001FFFFF
310
FF80003FFFFE0000FFFF80003FFFFE0000FFFF0003FFFFFFFFF0001FFFFE0003
310
F000F0001FFFF80003FE0003FFF000007FFF0001FF80007FE0003FFFF00007FE
310
0001FFFF80007FF8000001FFFE0000007FFFFFF0001FFFFFFFC0000FFFF80001
310
FFFFC0000FFFF80001FFFF0003FFFFFFFFF0001FFFFC0003F000F0000FFFF000
310
07FE0007FFF800007FFF0001FF80007FE0001FFFE00007FF0000FFFE00007FF8
310
000001FFFE0000007FFFFFF0001FFFFFFFC00003FFE00001FFFFC00003FFE000
310
01FFFF0003FFFFFFFFF8000FFFF80003F000F00003FFC00007FC0007FFF80000
310
7FFF8001FF80007FF00007FF80000FFF00007FF80000FFF8000001FFFE000000
310
7F80000000000001FFE000003E000003FFFFE000003E000003FFFF0003FFFFFF
310
FFF80003FFE00007F000F800000000000FFC0007FFF800007FFF8001FF80007F
310
F000000000000FFF000000000000FFF8000001FFFE0000007F80000000000001
310
FFF0000000000007FFFFF0000000000007FFFF0003FFFFFFFFFC00007E000007
310
F000F800000000000FFC0007FFF80000FFFF8000FF80007FF800000000001FFF
310
800000000001FFF8000001FFFE0000007F80000000000001FFF800000000000F
310
FFFFF800000000000FFFFF0003FFFFFFFFFC00000000000FF000FC0000000000
310
1FFC0007FFFC0000FFFF8000FF80007FF800000000003FFFC00000000001FFF8
310
000001FFFE0000007F80000000000001FFF800000000000FFFFFF80000000000
310
0FFFFF0003FFFFFFFFFE00000000001FF000FE00000000003FF8000FFFFC0000
310
FFFF8000FF80007FFC00000000003FFFC00000000003FFF8000001FFFE000000
310
7F80000000000001FFFC00000000001FFFFFFC00000000001FFFFF0003FFFFFF
310
FFFF00000000001FF000FF00000000003FF8000FFFFC0000FFFFC000FF80007F
310
FE00000000007FFFE00000000007FFF8000001FFFE0000007F80000000000001
310
FFFE00000000003FFFFFFE00000000003FFFFF0003FFFFFFFFFF80000000003F
310
F000FF80000000007FF8000FFFFC0001FFFFC0007F80007FFF0000000000FFFF
310
F0000000000FFFF800000000000000007F80000000000001FFFF8000000000FF
310
FFFFFF8000000000FFFFFF0003FFFFFFFFFFC0000000007FF000FFC000000000
310
FFF8000FFFFE0001FFFFC0007F80007FFF8000000001FFFFF8000000001FFFF8
310
00000000000000007F80000000000001FFFFC000000001FFFFFFFFC000000001
310
FFFFFF0003FFFFFFFFFFE000000000FFF000FFE000000003FFF0001FFFFE0001
310
FFFFC0007F80007FFFC000000007FFFFFE000000003FFFF80000000000000000
310
7F80000000000001FFFFE000000003FFFFFFFFE000000003FFFFFF0003FFFFFF
310
FFFFF000000003FFF000FFF80000000FFFF0001FFFFE0001FFFFE0007F80007F
310
FFF00000000FFFFFFF00000000FFFFF800000000000000007F80000000000001
310
FFFFF80000000FFFFFFFFFF80000000FFFFFFF0003FFFFFFFFFFFC0000000FFF
310
F000FFFE0000003FFFF0001FFFFE0003FFFFE0003F80007FFFFC0000003FFFFF
310
FFC0000003FFFFF800000000000000007F80000000000001FFFFFE0000003FFF
310
FFFFFFFE0000003FFFFFFF0003FFFFFFFFFFFF0000003FFFF000FFFF800000FF
310
FFF0001FFFFF0003FFFFE0003F80007FFFFF000001FFFFFFFFF800001FFFFFF8
310
00000000000000007F80000000000001FFFFFFC00001FFFFFFFFFFFFC00001FF
310
FFFFFF0003FFFFFFFFFFFFC00000FFFFF000FFFFF8000FFFFFFFFFFFFFFFFFFF
310
FFFFFFFFFFFFFFFFFFFFF0001FFFFFFFFFFF0000FFFFFFF80000000000000000
310
7FFFFFFFFFFFFFFFFFFFFFFC001FFFFFFFFFFFFFFC001FFFFFFFFFFFFFFFFFFF
310
FFFFFFFC001FFFFFF000FFFFFFFFFFFFFFFFFFFFFFFFFFFFFFFFFFFFFFFFFFFF
310
FFFFFFFFFFFFFFFFFFFFFFFFFFFFFFFFFFFFFFFFFFFFFFFFFFFFFFFFFFFFFFFF
310
FFFFFFFFFFFFFFFFFFFFFFFFFFFFFFFFFFFFFFFFFFFFFFFFFFFFFFFFFFFFFFFF
310
F000FFFFFFFFFFFFFFFFFFFFFFFFFFFFFFFFFFFFFFFFFFFFFFFFFFFFFFFFFFFF
310
FFFFFFFFFFFFFFFFFFFFFFFFFFFFFFFFFFFFFFFFFFFFFFFFFFFFFFFFFFFFFFFF
310
FFFFFFFFFFFFFFFFFFFFFFFFFFFFFFFFFFFFFFFFFFFFFFFFF000FFFFFFFFFFFF
310
FFFFFFFFFFFFFFFFFFFFFFFFFFFFFFFFFFFFFFFFFFFFFFFFFFFFFFFFFFFFFFFF
310
FFFFFFFFFFFFFFFFFFFFFFFFFFFFFFFFFFFFFFFFFFFFFFFFFFFFFFFFFFFFFFFF
310
FFFFFFFFFFFFFFFFFFFFFFFFFFFFFFFFF000FFFFFFFFFFFFFFFFFFFFFFFFFFFF
310
FFFFFFFFFFFFFFFFFFFFFFFFFFFFFFFFFFFFFFFFFFFFFFFFFFFFFFFFFFFFFFFF
310
FFFFFFFFFFFFFFFFFFFFFFFFFFFFFFFFFFFFFFFFFFFFFFFFFFFFFFFFFFFFFFFF
310
FFFFFFFFFFFFFFFFF000FFFFFFFFFFFFFFFFFFFFFFFFFFFFFFFFFFFFFFFFFFFF
310
FFFFFFFFFFFFFFFFFFFFFFFFFFFFFFFFFFFFFFFFFFFFFFFFFFFFFFFFFFFFFFFF
310
FFFFFFFFFFFFFFFFFFFFFFFFFFFFFFFFFFFFFFFFFFFFFFFFFFFFFFFFFFFFFFFF
310
F000FFFFFFFFFFFFFFFFFFFFFFFFFFFFFFFFFFFFFFFFFFFFFFFFFFFFFFFFFFFF
310
FFFFFFFFFFFFFFFFFFFFFFFFFFFFFFFFFFFFFFFFFFFFFFFFFFFFFFFFFFFFFFFF
310
FFFFFFFFFFFFFFFFFFFFFFFFFFFFFFFFFFFFFFFFFFFFFFFFF000FFFFFFFFFFFF
310
FFFFFFFFFFFFFFFFFFFFFFFFFFFFFFFFFFFFFFFFFFFFFFFFFFFFFFFFFFFFFFFF
310
FFFFFFFFFFFFFFFFFFFFFFFFFFFFFFFFFFFFFFFFFFFFFFFFFFFFFFFFFFFFFFFF
310
FFFFFFFFFFFFFFFFFFFFFFFFFFFFFFFFF000FFFFFFFFFFFFFFFFFFFFFFFFFFFF
310
FFFFFFFFFFFFFFFFFFFFFFFFFFFFFFFFFFFFFFFFFFFFFFFFFFFFFFFFFFFFFFFF
310
FFFFFFFFFFFFFFFFFFFFFFFFFFFFFFFFFFFFFFFFFFFFFFFFFFFFFFFFFFFFFFFF
310
FFFFFFFFFFFFFFFFF000FFFFFFFFFFFFFFFFFFFFFFFFFFFFFFFFFFFFFFFFFFFF
310
FFFFFFFFFFFFFFFFFFFFFFFFFFFFFFFFFFFFFFFFFFFFFFFFFFFFFFFFFFFFFFFF
310
FFFFFFFFFFFFFFFFFFFFFFFFFFFFFFFFFFFFFFFFFFFFFFFFFFFFFFFFFFFFFFFF
310
F000FFFFFFFFFFFFFFFFFFFFFFFFFFFFFFFFFFFFFFFFFFFFFFFFFFFFFFFFFFFF
310
FFFFFFFFFFFFFFFFFFFFFFFFFFFFFFFFFFFFFFFFFFFFFFFFFFFFFFFFFFFFFFFF
310
FFFFFFFFFFFFFFFFFFFFFFFFFFFFFFFFFFFFFFFFFFFFFFFFF000FFFFFFFFFFFF
310
FFFFFFFFFFFFFFFFFFFFFFFFFFFFFFFFFFFFFFFFFFFFFFFFFFFFFFFFFFFFFFFF
310
FFFFFFFFFFFFFFFFFFFFFFFFFFFFFFFFFFFFFFFFFFFFFFFFFFFFFFFFFFFFFFFF
310
FFFFFFFFFFFFFFFFFFFFFFFFFFFFFFFFF000FFFFFFFFFFFFFFFFFFFFFFFFFFFF
310
FFFFFFFFFFFFFFFFFFFFFFFFFFFFFFFFFFFFFFFFFFFFFFFFFFFFFFFFFFFFFFFF
310
FFFFFFFFFFFFFFFFFFFFFFFFFFFFFFFFFFFFFFFFFFFFFFFFFFFFFFFFFFFFFFFF
310
FFFFFFFFFFFFFFFFF000FFFFFFFFFFFFFFFFFFFFFFFFFFFFFFFFFFFFFFFFFFFF
310
FFFFFFFFFFFFFFFFFFFFFFFFFFFFFFFFFFFFFFFFFFFFFFFFFFFFFFFFFFFFFFFF
310
FFFFFFFFFFFFFFFFFFFFFFFFFFFFFFFFFFFFFFFFFFFFFFFFFFFFFFFFFFFFFFFF
310
F000FFFFFFFFFFFFFFFFFFFFFFFFFFFFFFFFFFFFFFFFFFFFFFFFFFFFFFFFFFFF
310
FFFFFFFFFFFFFFFFFFFFFFFFFFFFFFFFFFFFFFFFFFFFFFFFFFFFFFFFFFFFFFFF
310
FFFFFFFFFFFFFFFFFFFFFFFFFFFFFFFFFFFFFFFFFFFFFFFFF000FFFFFFFFFFFF
310
FFFFFFFFFFFFFFFFFFFFFFFFFFFFFFFFFFFFFFFFFFFFFFFFFFFFFFFFFFFFFFFF
310
FFFFFFFFFFFFFFFFFFFFFFFFFFFFFFFFFFFFFFFFFFFFFFFFFFFFFFFFFFFFFFFF
310
FFFFFFFFFFFFFFFFFFFFFFFFFFFFFFFFF000FFFFFFFFFFFFFFFFFFFFFFFFFFFF
310
FFFFFFFFFFFFFFFFFFFFFFFFFFFFFFFFFFFFFFFFFFFFFFFFFFFFFFFFFFFFFFFF
310
FFFFFFFFFFFFFFFFFFFFFFFFFFFFFFFFFFFFFFFFFFFFFFFFFFFFFFFFFFFFFFFF
310
FFFFFFFFFFFFFFFFF000FFFFFFFFFFFFFFFFFFFFFFFFFFFFFFFFFFFFFFFFFFFF
310
FFFFFFFFFFFFFFFFFFFFFFFFFFFFFFFFFFFFFFFFFFFFFFFFFFFFFFFFFFFFFFFF
310
FFFFFFFFFFFFFFFFFFFFFFFFFFFFFFFFFFFFFFFFFFFFFFFFFFFFFFFFFFFFFFFF
310
F000FFFFFFFFFFFFFFFFFFFFFFFFFFFFFFFFFFFFFFFFFFFFFFFFFFFFFFFFFFFF
310
FFFFFFFFFFFFFFFFFFFFFFFFFFFFFFFFFFFFFFFFFFFFFFFFFFFFFFFFFFFFFFFF
310
FFFFFFFFFFFFFFFFFFFFFFFFFFFFFFFFFFFFFFFFFFFFFFFFF000FFFFFFFFFFFF
310
FFFFFFFFFFFFFFFFFFFFFFFFFFFFFFFFFFFFFFFFFFFFFFFFFFFFFFFFFFFFFFFF
310
FFFFFFFFFFFFFFFFFFFFFFFFFFFFFFFFFFFFFFFFFFFFFFFFFFFFFFFFFFFFFFFF
310
FFFFFFFFFFFFFFFFFFFFFFFFFFFFFFFFF000FFFFFFFFFFFFFFFFFFFFFFFFFFFF
310
FFFFFFFFFFFFFFFFFFFFFFFFFFFFFFFFFFFFFFFFFFFFFFFFFFFFFFFFFFFFFFFF
310
FFFFFFFFFFFFFFFFFFFFFFFFFFFFFFFFFFFFFFFFFFFFFFFFFFFFFFFFFFFFFFFF
310
FFFFFFFFFFFFFFFFF000FFFFFFFFFFFFFFFFFFFFFFFFFFFFFFFFFFFFFFFFFFFF
310
FFFFFFFFFFFFFFFFFFFFFFFFFFFFFFFFFFFFFFFFFFFFFFFFFFFFFFFFFFFFFFFF
310
FFFFFFFFFFFFFFFFFFFFFFFFFFFFFFFFFFFFFFFFFFFFFFFFFFFFFFFFFFFFFFFF
310
F000FFFFFFFFFFFFFFFFFFFFFFFFFFFFFFFFFFFFFFFFFFFFFFFFFFFFFFFFFFFF
310
FFFFFFFFFFFFFFFFFFFFFFFFFFFFFFFFFFFFFFFFFFFFFFFFFFFFFFFFFFFFFFFF
310
FFFFFFFFFFFFFFFFFFFFFFFFFFFFFFFFFFFFFFFFFFFFFFFFF000FFFFFFFFFFFF
310
FFFFFFFFFFFFFFFFFFFFFFFFFFFFFFFFFFFFFFFFFFFFFFFFFFFFFFFFFFFFFFFF
310
FFFFFFFFFFFFFFFFFFFFFFFFFFFFFFFFFFFFFFFFFFFFFFFFFFFFFFFFFFFFFFFF
310
FFFFFFFFFFFFFFFFFFFFFFFFFFFFFFFFF0000000000000000000000000000000
310
0000000000000000000000000000000000000000000000000000000000000000
310
0000000000000000000000000000000000000000000000000000000000000000
310
0000000000000000000000000000000000000000000000000000000000000000
310
0000000000000000000000000000000000000000000000000000000000000000
310
0000000000000000000000000000000000000000000000000000000000000000
310
0000000000000000000000000000000000000000000000000000000000000000
310
0000000000000000000000000000000000000000000000000000000000000000
310
0000000000000000000000000000000000000000000000000000000000000000
310
0000000000000000000000000000000000000000000000000000000000000000
310
0000000000000000000000000000000000000000000000000000000000000000
310
0000000000000000000000000000000000000000000000000000000000000000
310
0000000000000000000000000000000000000000000000000000000000000000
310
0000000000000000000000000000000000000000000000000000000000000000
310
0000000000000000000000000000000000000000000000000000000000000000
310
0000000000000000000000000000000000000000000000000000000000000000
  1
OLE
  0
ENDSEC
  0
SECTION
  2
OBJECTS
  0
DICTIONARY
  5
C
330
0
100
AcDbDictionary
281
     1
  3
ACAD_GROUP
350
D
  3
ACAD_LAYOUT
350
1A
  3
ACAD_MLINESTYLE
350
17
  3
ACAD_PLOTSETTINGS
350
19
  3
ACAD_PLOTSTYLENAME
350
E
  0
DICTIONARY
  5
D
102
{ACAD_REACTORS
330
C
102
}
330
C
100
AcDbDictionary
281
     1
  0
DICTIONARY
  5
1A
102
{ACAD_REACTORS
330
C
102
}
330
C
100
AcDbDictionary
281
     1
  3
Layout1
350
1E
  3
Layout2
350
26
  3
Model
350
22
  0
DICTIONARY
  5
17
102
{ACAD_REACTORS
330
C
102
}
330
C
100
AcDbDictionary
281
     1
  3
Standard
350
18
  0
DICTIONARY
  5
19
102
{ACAD_REACTORS
330
C
102
}
330
C
100
AcDbDictionary
281
     1
  0
ACDBDICTIONARYWDFLT
  5
E
102
{ACAD_REACTORS
330
C
102
}
330
C
100
AcDbDictionary
281
     1
  3
Normal
350
F
100
AcDbDictionaryWithDefault
340
F
  0
LAYOUT
  5
1E
102
{ACAD_REACTORS
330
1A
102
}
330
1A
100
AcDbPlotSettings
  1

  2
none_device
  4

  6

 40
0.0
 41
0.0
 42
0.0
 43
0.0
 44
0.0
 45
0.0
 46
0.0
 47
0.0
 48
0.0
 49
0.0
140
0.0
141
0.0
142
1.0
143
1.0
 70
   688
 72
     0
 73
     0
 74
     5
  7

 75
    16
147
1.0
148
0.0
149
0.0
100
AcDbLayout
  1
Layout1
 70
     1
 71
     1
 10
0.0
 20
0.0
 11
420.0
 21
297.0
 12
0.0
 22
0.0
 32
0.0
 14
1.0000000000E+20
 24
1.0000000000E+20
 34
1.0000000000E+20
 15
-1.0000000000E+20
 25
-1.0000000000E+20
 35
-1.0000000000E+20
146
0.0
 13
0.0
 23
0.0
 33
0.0
 16
1.0
 26
0.0
 36
0.0
 17
0.0
 27
1.0
 37
0.0
 76
     0
330
1B
  0
LAYOUT
  5
26
102
{ACAD_REACTORS
330
1A
102
}
330
1A
100
AcDbPlotSettings
  1

  2
none_device
  4

  6

 40
0.0
 41
0.0
 42
0.0
 43
0.0
 44
0.0
 45
0.0
 46
0.0
 47
0.0
 48
0.0
 49
0.0
140
0.0
141
0.0
142
1.0
143
1.0
 70
   688
 72
     0
 73
     0
 74
     5
  7

 75
    16
147
1.0
148
0.0
149
0.0
100
AcDbLayout
  1
Layout2
 70
     1
 71
     2
 10
0.0
 20
0.0
 11
0.0
 21
0.0
 12
0.0
 22
0.0
 32
0.0
 14
0.0
 24
0.0
 34
0.0
 15
0.0
 25
0.0
 35
0.0
146
0.0
 13
0.0
 23
0.0
 33
0.0
 16
1.0
 26
0.0
 36
0.0
 17
0.0
 27
1.0
 37
0.0
 76
     0
330
23
  0
LAYOUT
  5
22
102
{ACAD_REACTORS
330
1A
102
}
330
1A
100
AcDbPlotSettings
  1

  2
none_device
  4

  6

 40
0.0
 41
0.0
 42
0.0
 43
0.0
 44
0.0
 45
0.0
 46
0.0
 47
0.0
 48
0.0
 49
0.0
140
0.0
141
0.0
142
1.0
143
1.0
 70
  1712
 72
     0
 73
     0
 74
     0
  7

 75
     0
147
1.0
148
0.0
149
0.0
100
AcDbLayout
  1
Model
 70
     1
 71
     0
 10
0.0
 20
0.0
 11
297.0
 21
210.0
 12
0.0
 22
0.0
 32
0.0
 14
0.0
 24
0.0
 34
0.0
 15
297.0
 25
210.0
 35
0.0
146
0.0
 13
0.0
 23
0.0
 33
0.0
 16
1.0
 26
0.0
 36
0.0
 17
0.0
 27
1.0
 37
0.0
 76
     0
330
1F
331
29
  0
MLINESTYLE
  5
18
102
{ACAD_REACTORS
330
17
102
}
330
17
100
AcDbMlineStyle
  2
Standard
 70
     0
  3

 62
   256
 51
90.0
 52
90.0
 71
     2
 49
0.5
 62
   256
  6
BYLAYER
 49
-0.5
 62
   256
  6
BYLAYER
  0
ACDBPLACEHOLDER
  5
F
102
{ACAD_REACTORS
330
E
102
}
330
E
  0
ENDSEC
  0
EOF
