  0
SECTION
  2
HEADER
  9
$ACADVER
  1
AC1015
  9
$ACADMAINTVER
 70
     6
  9
$DWGCODEPAGE
  3
ANSI_1252
  9
$INSBASE
 10
0.0
 20
0.0
 30
0.0
  9
$EXTMIN
 10
0.0
 20
0.0
 30
0.0
  9
$EXTMAX
 10
297.0
 20
210.0
 30
0.0
  9
$LIMMIN
 10
0.0
 20
0.0
  9
$LIMMAX
 10
297.0
 20
210.0
  9
$ORTHOMODE
 70
     0
  9
$REGENMODE
 70
     1
  9
$FILLMODE
 70
     1
  9
$QTEXTMODE
 70
     0
  9
$MIRRTEXT
 70
     1
  9
$LTSCALE
 40
1.0
  9
$ATTMODE
 70
     1
  9
$TEXTSIZE
 40
2.0
  9
$TRACEWID
 40
1.0
  9
$TEXTSTYLE
  7
Standard
  9
$CLAYER
  8
0
  9
$CELTYPE
  6
ByLayer
  9
$CECOLOR
 62
   256
  9
$CELTSCALE
 40
1.0
  9
$DISPSILH
 70
     0
  9
$DIMSCALE
 40
1.0
  9
$DIMASZ
 40
3.0
  9
$DIMEXO
 40
0.0
  9
$DIMDLI
 40
3.75
  9
$DIMRND
 40
0.0
  9
$DIMDLE
 40
0.0
  9
$DIMEXE
 40
1.0
  9
$DIMTP
 40
0.0
  9
$DIMTM
 40
0.0
  9
$DIMTXT
 40
2.0
  9
$DIMCEN
 40
2.5
  9
$DIMTSZ
 40
0.0
  9
$DIMTOL
 70
     0
  9
$DIMLIM
 70
     0
  9
$DIMTIH
 70
     1
  9
$DIMTOH
 70
     1
  9
$DIMSE1
 70
     0
  9
$DIMSE2
 70
     0
  9
$DIMTAD
 70
     1
  9
$DIMZIN
 70
     0
  9
$DIMBLK
  1

  9
$DIMASO
 70
     1
  9
$DIMSHO
 70
     1
  9
$DIMPOST
  1

  9
$DIMAPOST
  1

  9
$DIMALT
 70
     0
  9
$DIMALTD
 70
     3
  9
$DIMALTF
 40
0.0393700787
  9
$DIMLFAC
 40
1.0
  9
$DIMTOFL
 70
     1
  9
$DIMTVP
 40
0.0
  9
$DIMTIX
 70
     0
  9
$DIMSOXD
 70
     0
  9
$DIMSAH
 70
     0
  9
$DIMBLK1
  1

  9
$DIMBLK2
  1

  9
$DIMSTYLE
  2
ISO-25
  9
$DIMCLRD
 70
     0
  9
$DIMCLRE
 70
     0
  9
$DIMCLRT
 70
     0
  9
$DIMTFAC
 40
1.0
  9
$DIMGAP
 40
1.524
  9
$DIMJUST
 70
     0
  9
$DIMSD1
 70
     0
  9
$DIMSD2
 70
     0
  9
$DIMTOLJ
 70
     0
  9
$DIMTZIN
 70
     0
  9
$DIMALTZ
 70
     0
  9
$DIMALTTZ
 70
     0
  9
$DIMUPT
 70
     0
  9
$DIMDEC
 70
     2
  9
$DIMTDEC
 70
     3
  9
$DIMALTU
 70
     2
  9
$DIMALTTD
 70
     3
  9
$DIMTXSTY
  7
Standard
  9
$DIMAUNIT
 70
     0
  9
$DIMADEC
 70
     2
  9
$DIMALTRND
 40
0.0
  9
$DIMAZIN
 70
     0
  9
$DIMDSEP
 70
    44
  9
$DIMATFIT
 70
     3
  9
$DIMFRAC
 70
     0
  9
$DIMLDRBLK
  1

  9
$DIMLUNIT
 70
     2
  9
$DIMLWD
 70
    -2
  9
$DIMLWE
 70
    -2
  9
$DIMTMOVE
 70
     0
  9
$LUNITS
 70
     2
  9
$LUPREC
 70
     2
  9
$SKETCHINC
 40
1.0
  9
$FILLETRAD
 40
10.0
  9
$AUNITS
 70
     0
  9
$AUPREC
 70
     2
  9
$MENU
  1
.
  9
$ELEVATION
 40
0.0
  9
$PELEVATION
 40
0.0
  9
$THICKNESS
 40
0.0
  9
$LIMCHECK
 70
     0
  9
$CHAMFERA
 40
10.0
  9
$CHAMFERB
 40
10.0
  9
$CHAMFERC
 40
20.0
  9
$CHAMFERD
 40
0.0
  9
$SKPOLY
 70
     0
  9
$TDCREATE
 40
2456079.70236809
  9
$TDUCREATE
 40
2456079.619034757
  9
$TDUPDATE
 40
2456079.702369537
  9
$TDUUPDATE
 40
2456079.619036204
  9
$TDINDWG
 40
0.0000000116
  9
$TDUSRTIMER
 40
0.0000000116
  9
$USRTIMER
 70
     1
  9
$ANGBASE
 50
0.0
  9
$ANGDIR
 70
     0
  9
$PDMODE
 70
     0
  9
$PDSIZE
 40
-1.0
  9
$PLINEWID
 40
0.0
  9
$SPLFRAME
 70
     0
  9
$SPLINETYPE
 70
     6
  9
$SPLINESEGS
 70
     8
  9
$HANDSEED
  5
2C6
  9
$SURFTAB1
 70
     6
  9
$SURFTAB2
 70
     6
  9
$SURFTYPE
 70
     6
  9
$SURFU
 70
     6
  9
$SURFV
 70
     6
  9
$UCSBASE
  2

  9
$UCSNAME
  2

  9
$UCSORG
 10
0.0
 20
0.0
 30
0.0
  9
$UCSXDIR
 10
1.0
 20
0.0
 30
0.0
  9
$UCSYDIR
 10
0.0
 20
1.0
 30
0.0
  9
$UCSORTHOREF
  2

  9
$UCSORTHOVIEW
 70
     0
  9
$UCSORGTOP
 10
0.0
 20
0.0
 30
0.0
  9
$UCSORGBOTTOM
 10
0.0
 20
0.0
 30
0.0
  9
$UCSORGLEFT
 10
0.0
 20
0.0
 30
0.0
  9
$UCSORGRIGHT
 10
0.0
 20
0.0
 30
0.0
  9
$UCSORGFRONT
 10
0.0
 20
0.0
 30
0.0
  9
$UCSORGBACK
 10
0.0
 20
0.0
 30
0.0
  9
$PUCSBASE
  2

  9
$PUCSNAME
  2

  9
$PUCSORG
 10
0.0
 20
0.0
 30
0.0
  9
$PUCSXDIR
 10
1.0
 20
0.0
 30
0.0
  9
$PUCSYDIR
 10
0.0
 20
1.0
 30
0.0
  9
$PUCSORTHOREF
  2

  9
$PUCSORTHOVIEW
 70
     0
  9
$PUCSORGTOP
 10
0.0
 20
0.0
 30
0.0
  9
$PUCSORGBOTTOM
 10
0.0
 20
0.0
 30
0.0
  9
$PUCSORGLEFT
 10
0.0
 20
0.0
 30
0.0
  9
$PUCSORGRIGHT
 10
0.0
 20
0.0
 30
0.0
  9
$PUCSORGFRONT
 10
0.0
 20
0.0
 30
0.0
  9
$PUCSORGBACK
 10
0.0
 20
0.0
 30
0.0
  9
$USERI1
 70
     0
  9
$USERI2
 70
     0
  9
$USERI3
 70
     0
  9
$USERI4
 70
     0
  9
$USERI5
 70
     0
  9
$USERR1
 40
0.0
  9
$USERR2
 40
0.0
  9
$USERR3
 40
0.0
  9
$USERR4
 40
0.0
  9
$USERR5
 40
0.0
  9
$WORLDVIEW
 70
     1
  9
$SHADEDGE
 70
     3
  9
$SHADEDIF
 70
    70
  9
$TILEMODE
 70
     1
  9
$MAXACTVP
 70
    64
  9
$PINSBASE
 10
0.0
 20
0.0
 30
0.0
  9
$PLIMCHECK
 70
     0
  9
$PEXTMIN
 10
1.0000000000E+20
 20
1.0000000000E+20
 30
1.0000000000E+20
  9
$PEXTMAX
 10
-1.0000000000E+20
 20
-1.0000000000E+20
 30
-1.0000000000E+20
  9
$PLIMMIN
 10
0.0
 20
0.0
  9
$PLIMMAX
 10
420.0
 20
297.0
  9
$UNITMODE
 70
     0
  9
$VISRETAIN
 70
     1
  9
$PLINEGEN
 70
     0
  9
$PSLTSCALE
 70
     1
  9
$TREEDEPTH
 70
  3020
  9
$CMLSTYLE
  2
Standard
  9
$CMLJUST
 70
     0
  9
$CMLSCALE
 40
20.0
  9
$PROXYGRAPHICS
 70
     1
  9
$MEASUREMENT
 70
     1
  9
$CELWEIGHT
370
    -1
  9
$ENDCAPS
280
     0
  9
$JOINSTYLE
280
     0
  9
$LWDISPLAY
290
     1
  9
$INSUNITS
 70
     4
  9
$HYPERLINKBASE
  1

  9
$STYLESHEET
  1

  9
$XEDIT
290
     1
  9
$CEPSNTYPE
380
     0
  9
$PSTYLEMODE
290
     1
  9
$FINGERPRINTGUID
  2
{7B9245EB-17A7-400C-B749-F4D5CB4F742B}
  9
$VERSIONGUID
  2
{FAEB1C32-E019-11D5-929B-00C0DF256EC4}
  9
$EXTNAMES
290
     1
  9
$PSVPSCALE
 40
0.0
  9
$OLESTARTUP
290
     0
  0
ENDSEC
  0
SECTION
  2
CLASSES
  0
CLASS
  1
ACDBDICTIONARYWDFLT
  2
AcDbDictionaryWithDefault
  3
ObjectDBX Classes
 90
        0
280
     0
281
     0
  0
CLASS
  1
VISUALSTYLE
  2
AcDbVisualStyle
  3
ObjectDBX Classes
 90
     4095
280
     0
281
     0
  0
CLASS
  1
MATERIAL
  2
AcDbMaterial
  3
ObjectDBX Classes
 90
     1153
280
     0
281
     0
  0
CLASS
  1
ACDBPLACEHOLDER
  2
AcDbPlaceHolder
  3
ObjectDBX Classes
 90
        0
280
     0
281
     0
  0
CLASS
  1
LAYOUT
  2
AcDbLayout
  3
ObjectDBX Classes
 90
        0
280
     0
281
     0
  0
ENDSEC
  0
SECTION
  2
TABLES
  0
TABLE
  2
VPORT
  5
8
330
0
100
AcDbSymbolTable
 70
     1
  0
VPORT
  5
29
330
8
100
AcDbSymbolTableRecord
100
AcDbViewportTableRecord
  2
*Active
 70
     0
 10
0.0
 20
0.0
 11
1.0
 21
1.0
 12
148.5
 22
105.0
 13
0.0
 23
0.0
 14
10.0
 24
10.0
 15
10.0
 25
10.0
 16
0.0
 26
0.0
 36
1.0
 17
0.0
 27
0.0
 37
0.0
 40
210.0
 41
1.4142857143
 42
50.0
 43
0.0
 44
0.0
 50
0.0
 51
0.0
 71
     0
 72
  2000
 73
     1
 74
     3
 75
     0
 76
     0
 77
     0
 78
     0
281
     0
 65
     1
110
0.0
120
0.0
130
0.0
111
1.0
121
0.0
131
0.0
112
0.0
122
1.0
132
0.0
 79
     0
146
0.0
  0
ENDTAB
  0
TABLE
  2
LTYPE
  5
5
330
0
100
AcDbSymbolTable
 70
     6
  0
LTYPE
  5
14
330
5
100
AcDbSymbolTableRecord
100
AcDbLinetypeTableRecord
  2
ByBlock
 70
     0
  3

 72
    65
 73
     0
 40
0.0
  0
LTYPE
  5
15
330
5
100
AcDbSymbolTableRecord
100
AcDbLinetypeTableRecord
  2
ByLayer
 70
     0
  3

 72
    65
 73
     0
 40
0.0
  0
LTYPE
  5
16
330
5
100
AcDbSymbolTableRecord
100
AcDbLinetypeTableRecord
  2
Continuous
 70
     0
  3
Solid line
 72
    65
 73
     0
 40
0.0
  0
LTYPE
  5
3F
330
5
100
AcDbSymbolTableRecord
100
AcDbLinetypeTableRecord
  2
HIDDEN
 70
     0
  3
Hidden __ __ __ __ __ __ __ __ __ __ __ __ __ __
 72
    65
 73
     2
 40
1.905
 49
1.27
 74
     0
 49
-0.635
 74
     0
  0
LTYPE
  5
40
330
5
100
AcDbSymbolTableRecord
100
AcDbLinetypeTableRecord
  2
PHANTOM
 70
     0
  3
Phantom ______  __  __  ______  __  __  ______
 72
    65
 73
     6
 40
12.7
 49
6.35
 74
     0
 49
-1.27
 74
     0
 49
1.27
 74
     0
 49
-1.27
 74
     0
 49
1.27
 74
     0
 49
-1.27
 74
     0
  0
LTYPE
  5
41
330
5
100
AcDbSymbolTableRecord
100
AcDbLinetypeTableRecord
  2
CENTER
 70
     0
  3
Center ____ _ ____ _ ____ _ ____ _ ____ _ ____
 72
    65
 73
     4
 40
10.16
 49
6.35
 74
     0
 49
-1.27
 74
     0
 49
1.27
 74
     0
 49
-1.27
 74
     0
  0
LTYPE
  5
42
330
5
100
AcDbSymbolTableRecord
100
AcDbLinetypeTableRecord
  2
CENTERX2
 70
     0
  3
Center (2x) ________  __  ________  __  _____
 72
    65
 73
     4
 40
20.32
 49
12.7
 74
     0
 49
-2.54
 74
     0
 49
2.54
 74
     0
 49
-2.54
 74
     0
  0
LTYPE
  5
43
330
5
100
AcDbSymbolTableRecord
100
AcDbLinetypeTableRecord
  2
DOT2
 70
     0
  3
Dot (.5x) ........................................
 72
    65
 73
     2
 40
0.635
 49
0.0
 74
     0
 49
-0.635
 74
     0
  0
ENDTAB
  0
TABLE
  2
LAYER
  5
2
330
0
100
AcDbSymbolTable
 70
     5
  0
LAYER
  5
10
330
2
100
AcDbSymbolTableRecord
100
AcDbLayerTableRecord
  2
0
 70
     0
 62
     7
  6
Continuous
370
    -3
390
F
  0
LAYER
  5
44
330
2
100
AcDbSymbolTableRecord
100
AcDbLayerTableRecord
  2
FORMAT
 70
     0
 62
     7
  6
Continuous
370
    -3
390
F
  0
LAYER
  5
45
330
2
100
AcDbSymbolTableRecord
100
AcDbLayerTableRecord
  2
VERMASSUNG
 70
     0
 62
     7
  6
Continuous
370
    -3
390
F
  0
LAYER
  5
46
330
2
100
AcDbSymbolTableRecord
100
AcDbLayerTableRecord
  2
KOPF_DÜNN
 70
     0
 62
     7
  6
Continuous
370
    -3
390
F
  0
LAYER
  5
47
330
2
100
AcDbSymbolTableRecord
100
AcDbLayerTableRecord
  2
KOPF_DICK
 70
     0
 62
     7
  6
Continuous
370
    15
390
F
  0
ENDTAB
  0
TABLE
  2
STYLE
  5
3
330
0
100
AcDbSymbolTable
 70
     3
  0
STYLE
  5
11
330
3
100
AcDbSymbolTableRecord
100
AcDbTextStyleTableRecord
  2
Standard
 70
     0
 40
0.0
 41
1.0
 50
0.0
 71
     0
 42
2.0
  3
txt
  4

  0
STYLE
  5
48
330
3
100
AcDbSymbolTableRecord
100
AcDbTextStyleTableRecord
  2
SLDTEXTSTYLE0
 70
     0
 40
0.0
 41
0.7
 50
0.0
 71
     0
 42
0.2
  3
TXT
  4

  0
STYLE
  5
4C
330
3
100
AcDbSymbolTableRecord
100
AcDbTextStyleTableRecord
  2
SLDTEXTSTYLE1
 70
     0
 40
0.0
 41
0.6466666667
 50
0.0
 71
     0
 42
0.2
  3
TXT
  4

  0
ENDTAB
  0
TABLE
  2
VIEW
  5
6
330
0
100
AcDbSymbolTable
 70
     0
  0
ENDTAB
  0
TABLE
  2
UCS
  5
7
330
0
100
AcDbSymbolTable
 70
     0
  0
ENDTAB
  0
TABLE
  2
APPID
  5
9
330
0
100
AcDbSymbolTable
 70
     1
  0
APPID
  5
12
330
9
100
AcDbSymbolTableRecord
100
AcDbRegAppTableRecord
  2
ACAD
 70
     0
  0
ENDTAB
  0
TABLE
  2
DIMSTYLE
  5
A
330
0
100
AcDbSymbolTable
 70
     2
100
AcDbDimStyleTable
  0
DIMSTYLE
105
27
330
A
100
AcDbSymbolTableRecord
100
AcDbDimStyleTableRecord
  2
ISO-25
 70
     0
 41
2.5
 42
0.625
 43
3.75
 44
1.25
 73
     0
 74
     0
 77
     1
 78
     8
140
2.5
141
2.5
143
0.0393700787
147
0.625
171
     3
172
     1
178
     0
271
     2
272
     2
274
     3
278
    44
283
     0
284
     8
340
11
  0
DIMSTYLE
105
187
102
{ACAD_REACTORS
330
186
330
2B0
330
2BA
102
}
330
A
100
AcDbSymbolTableRecord
100
AcDbDimStyleTableRecord
  2
SLDDIMSTYLE0
 70
     0
 41
3.0
 44
0.0
 45
0.000000001
 73
     0
 74
     0
 77
     1
 78
    12
 79
     3
140
2.0
147
0.5
173
     1
178
     0
271
     2
272
     3
276
     2
284
    12
340
48
  0
ENDTAB
  0
TABLE
  2
BLOCK_RECORD
  5
1
330
0
100
AcDbSymbolTable
 70
     4
  0
BLOCK_RECORD
  5
1F
330
1
100
AcDbSymbolTableRecord
100
AcDbBlockTableRecord
  2
*Model_Space
340
22
  0
BLOCK_RECORD
  5
1B
330
1
100
AcDbSymbolTableRecord
100
AcDbBlockTableRecord
  2
*Paper_Space
340
1E
  0
BLOCK_RECORD
  5
23
330
1
100
AcDbSymbolTableRecord
100
AcDbBlockTableRecord
  2
*Paper_Space0
340
26
  0
BLOCK_RECORD
  5
188
330
1
100
AcDbSymbolTableRecord
100
AcDbBlockTableRecord
  2
_D
340
0
  0
BLOCK_RECORD
  5
2B1
330
1
100
AcDbSymbolTableRecord
100
AcDbBlockTableRecord
  2
_D_1
340
0
  0
BLOCK_RECORD
  5
2BB
330
1
100
AcDbSymbolTableRecord
100
AcDbBlockTableRecord
  2
_D_2
340
0
  0
ENDTAB
  0
ENDSEC
  0
SECTION
  2
BLOCKS
  0
BLOCK
  5
20
330
1F
100
AcDbEntity
  8
0
100
AcDbBlockBegin
  2
*Model_Space
 70
     0
 10
0.0
 20
0.0
 30
0.0
  3
*Model_Space
  1

  0
ENDBLK
  5
21
330
1F
100
AcDbEntity
  8
0
100
AcDbBlockEnd
  0
BLOCK
  5
1C
330
1B
100
AcDbEntity
 67
     1
  8
0
100
AcDbBlockBegin
  2
*Paper_Space
 70
     0
 10
0.0
 20
0.0
 30
0.0
  3
*Paper_Space
  1

  0
ENDBLK
  5
1D
330
1B
100
AcDbEntity
 67
     1
  8
0
100
AcDbBlockEnd
  0
BLOCK
  5
24
330
23
100
AcDbEntity
  8
0
100
AcDbBlockBegin
  2
*Paper_Space0
 70
     0
 10
0.0
 20
0.0
 30
0.0
  3
*Paper_Space0
  1

  0
ENDBLK
  5
25
330
23
100
AcDbEntity
  8
0
100
AcDbBlockEnd
  0
BLOCK
  5
189
330
188
100
AcDbEntity
  8
0
100
AcDbBlockBegin
  2
_D
 70
     0
 10
0.0
 20
0.0
 30
0.0
  3
_D
  1

  0
SOLID
  5
18B
330
188
100
AcDbEntity
  8
VERMASSUNG
100
AcDbTrace
 10
83.6902950395
 20
94.4157637479
 30
0.0
 11
83.2402950395
 21
91.4157637479
 31
0.0
 12
84.1402950395
 22
91.4157637479
 32
0.0
 13
84.1402950395
 23
91.4157637479
 33
0.0
  0
SOLID
  5
18C
330
188
100
AcDbEntity
  8
VERMASSUNG
100
AcDbTrace
 10
83.6902950395
 20
31.4157637479
 30
0.0
 11
84.1402950395
 21
34.4157637479
 31
0.0
 12
83.2402950395
 22
34.4157637479
 32
0.0
 13
83.2402950395
 23
34.4157637479
 33
0.0
  0
LINE
  5
18D
330
188
100
AcDbEntity
  8
VERMASSUNG
100
AcDbLine
 10
132.1902950395
 20
94.4157637479
 30
0.0
 11
82.6902950395
 21
94.4157637479
 31
0.0
  0
LINE
  5
18E
330
188
100
AcDbEntity
  8
VERMASSUNG
100
AcDbLine
 10
132.1902950395
 20
31.4157637479
 30
0.0
 11
82.6902950395
 21
31.4157637479
 31
0.0
  0
LINE
  5
18F
330
188
100
AcDbEntity
  8
VERMASSUNG
100
AcDbLine
 10
83.6902950395
 20
94.4157637479
 30
0.0
 11
83.6902950395
 21
31.4157637479
 31
0.0
  0
MTEXT
  5
190
330
188
100
AcDbEntity
  8
VERMASSUNG
100
AcDbMText
 10
80.9121595505
 20
56.5107636387
 30
0.1
 40
2.0
 41
0.0
 71
     1
 72
     1
  1
PSC
  7
SLDTEXTSTYLE0
 11
-7.044195017643634E-15
 21
1.0
 31
0.0
 73
     1
 44
1.0
  0
MTEXT
  5
191
330
188
100
AcDbEntity
  8
VERMASSUNG
100
AcDbMText
 10
81.11215956
 20
61.1107637407
 30
0.1
 40
2.0
 41
0.0
 71
     1
 72
     1
  1
%%c
  7
SLDTEXTSTYLE0
 11
-7.044195017643634E-15
 21
1.0
 31
0.0
 73
     1
 44
1.0
  0
MTEXT
  5
192
330
188
100
AcDbEntity
  8
VERMASSUNG
100
AcDbMText
 10
80.9121595505
 20
64.7207642207
 30
0.1
 40
2.0
 41
0.0
 71
     1
 72
     1
  1
63
  7
SLDTEXTSTYLE0
 11
-7.044195017643634E-15
 21
1.0
 31
0.0
 73
     1
 44
1.0
  0
ENDBLK
  5
18A
330
188
100
AcDbEntity
  8
0
100
AcDbBlockEnd
  0
BLOCK
  5
2B2
330
2B1
100
AcDbEntity
  8
0
100
AcDbBlockBegin
  2
_D_1
 70
     0
 10
0.0
 20
0.0
 30
0.0
  3
_D_1
  1

  0
SOLID
  5
2B4
330
2B1
100
AcDbEntity
  8
VERMASSUNG
100
AcDbTrace
 10
131.6902950395
 20
193.1033105292
 30
0.0
 11
134.6902950395
 21
192.6533105292
 31
0.0
 12
134.6902950395
 22
193.5533105292
 32
0.0
 13
134.6902950395
 23
193.5533105292
 33
0.0
  0
SOLID
  5
2B5
330
2B1
100
AcDbEntity
  8
VERMASSUNG
100
AcDbTrace
 10
261.6902950395
 20
193.1033105292
 30
0.0
 11
258.6902950395
 21
193.5533105292
 31
0.0
 12
258.6902950395
 22
192.6533105292
 32
0.0
 13
258.6902950395
 23
192.6533105292
 33
0.0
  0
LINE
  5
2B6
330
2B1
100
AcDbEntity
  8
VERMASSUNG
100
AcDbLine
 10
131.6902950395
 20
182.6033105292
 30
0.0
 11
131.6902950395
 21
194.1033105292
 31
0.0
  0
LINE
  5
2B7
330
2B1
100
AcDbEntity
  8
VERMASSUNG
100
AcDbLine
 10
261.6902950395
 20
155.7131376799
 30
0.0
 11
261.6902950395
 21
194.1033105292
 31
0.0
  0
LINE
  5
2B8
330
2B1
100
AcDbEntity
  8
VERMASSUNG
100
AcDbLine
 10
131.6902950395
 20
193.1033105292
 30
0.0
 11
261.6902950395
 21
193.1033105292
 31
0.0
  0
MTEXT
  5
2B9
330
2B1
100
AcDbEntity
  8
VERMASSUNG
100
AcDbMText
 10
193.8902949065
 20
195.6814458923
 30
0.1
 40
2.0
 41
0.0
 71
     1
 72
     1
  1
130
  7
SLDTEXTSTYLE0
 73
     1
 44
1.0
  0
ENDBLK
  5
2B3
330
2B1
100
AcDbEntity
  8
0
100
AcDbBlockEnd
  0
BLOCK
  5
2BC
330
2BB
100
AcDbEntity
  8
0
100
AcDbBlockBegin
  2
_D_2
 70
     0
 10
0.0
 20
0.0
 30
0.0
  3
_D_2
  1

  0
SOLID
  5
2BE
330
2BB
100
AcDbEntity
  8
VERMASSUNG
100
AcDbTrace
 10
93.6902950395
 20
199.1033105292
 30
0.0
 11
96.6902950395
 21
198.6533105292
 31
0.0
 12
96.6902950395
 22
199.5533105292
 32
0.0
 13
96.6902950395
 23
199.5533105292
 33
0.0
  0
SOLID
  5
2BF
330
2BB
100
AcDbEntity
  8
VERMASSUNG
100
AcDbTrace
 10
261.6902950395
 20
199.1033105292
 30
0.0
 11
258.6902950395
 21
199.5533105292
 31
0.0
 12
258.6902950395
 22
198.6533105292
 32
0.0
 13
258.6902950395
 23
198.6533105292
 33
0.0
  0
LINE
  5
2C0
330
2BB
100
AcDbEntity
  8
VERMASSUNG
100
AcDbLine
 10
93.6902950395
 20
171.7894262982
 30
0.0
 11
93.6902950395
 21
200.1033105292
 31
0.0
  0
LINE
  5
2C1
330
2BB
100
AcDbEntity
  8
VERMASSUNG
100
AcDbLine
 10
261.6902950395
 20
155.7131376799
 30
0.0
 11
261.6902950395
 21
200.1033105292
 31
0.0
  0
LINE
  5
2C2
330
2BB
100
AcDbEntity
  8
VERMASSUNG
100
AcDbLine
 10
93.6902950395
 20
199.1033105292
 30
0.0
 11
261.6902950395
 21
199.1033105292
 31
0.0
  0
MTEXT
  5
2C3
330
2BB
100
AcDbEntity
  8
VERMASSUNG
100
AcDbMText
 10
174.8902949065
 20
201.6814458923
 30
0.1
 40
2.0
 41
0.0
 71
     1
 72
     1
  1
168
  7
SLDTEXTSTYLE0
 73
     1
 44
1.0
  0
ENDBLK
  5
2BD
330
2BB
100
AcDbEntity
  8
0
100
AcDbBlockEnd
  0
ENDSEC
  0
SECTION
  2
ENTITIES
  0
MTEXT
  5
49
330
1F
100
AcDbEntity
  8
KOPF_DÜNN
100
AcDbMText
 10
13.8892156294
 20
23.8442973028
 30
0.0
 40
3.0
 41
0.0
 71
     1
 72
     1
  1
PS6.KVF.NVA.130
  7
SLDTEXTSTYLE0
 73
     1
 44
1.0
  0
MTEXT
  5
4A
330
1F
100
AcDbEntity
  8
VERMASSUNG
100
AcDbMText
 10
13.9329988022
 20
28.8834360957
 30
0.0
 40
3.0
 41
0.0
 71
     1
 72
     1
  1
Klemmhalter_Turning tool neutral
  7
SLDTEXTSTYLE0
 73
     1
 44
1.0
  0
MTEXT
  5
4B
330
1F
100
AcDbEntity
  8
VERMASSUNG
100
AcDbMText
 10
98.8601118557
 20
13.8365368179
 30
0.0
 40
2.0
 41
0.0
 71
     1
 72
     1
  1
Datum: 31.05.2012
  7
SLDTEXTSTYLE0
 73
     1
 44
1.0
  0
MTEXT
  5
4D
330
1F
100
AcDbEntity
  8
VERMASSUNG
100
AcDbMText
 10
13.933048693
 20
18.0482802738
 30
0.0
 40
2.0
 41
0.0
 71
     1
 72
     1
  1
PSC ø63 / VB.. 16 04 .. / 72.5° / 35° / 72.5°
  7
SLDTEXTSTYLE1
 73
     1
 44
1.0
  0
MTEXT
  5
4E
330
1F
100
AcDbEntity
  8
VERMASSUNG
100
AcDbMText
 10
13.9808475933
 20
13.9090973692
 30
0.0
 40
2.0
 41
0.0
 71
     1
 72
     1
  1
Gewicht: 2248g
  7
SLDTEXTSTYLE0
 73
     1
 44
1.0
  0
LINE
  5
4F
330
1F
100
AcDbEntity
  8
0
  6
Continuous
 62
     7
370
    15
100
AcDbLine
 10
193.5122624029
 20
94.4157642545
 30
0.0
 11
132.1902950633
 21
94.4157642545
 31
0.0
  0
LINE
  5
50
330
1F
100
AcDbEntity
  8
0
  6
Continuous
 62
     7
370
    15
100
AcDbLine
 10
132.1902950633
 20
31.4157632413
 30
0.0
 11
193.5122624029
 21
31.4157632413
 31
0.0
  0
ARC
  5
51
330
1F
100
AcDbEntity
  8
0
  6
Continuous
 62
     7
370
    15
100
AcDbCircle
 10
132.1902950395
 20
31.9157637479
 30
0.0
 40
0.5000000000000036
100
AcDbArc
 50
180.0
 51
270.0
  0
ARC
  5
52
330
1F
100
AcDbEntity
  8
0
  6
Continuous
 62
     7
370
    15
100
AcDbCircle
 10
132.1902950395
 20
93.9157637479
 30
0.0
 40
0.5
100
AcDbArc
 50
90.0
 51
180.0
  0
LWPOLYLINE
  5
53
330
1F
100
AcDbEntity
  8
0
  6
Continuous
 62
     7
370
    15
100
AcDbPolyline
 90
        3
 70
   128
 43
0.0
 10
131.4902950446
 20
40.3759432258
 10
131.6157499798
 20
40.3076418908
 10
131.6902950395
 20
40.2549029561
  0
LWPOLYLINE
  5
54
330
1F
100
AcDbEntity
  8
0
  6
Continuous
 62
     7
370
    15
100
AcDbPolyline
 90
        3
 70
   128
 43
0.0
 10
131.6902950395
 20
85.5766245397
 10
131.6157499798
 20
85.5238856049
 10
131.4902950446
 20
85.45558427
  0
SPLINE
  5
55
330
1F
100
AcDbEntity
  8
0
  6
Continuous
 62
     7
370
    15
100
AcDbSpline
210
0.0
220
0.0
230
1.0
 70
     8
 71
     3
 72
    12
 73
     8
 74
     0
 42
0.00000001
 43
0.00000001
 12
1.0
 22
0.0
 32
0.0
 13
1.0
 23
0.0
 33
0.0
 40
0.0
 40
0.0
 40
0.0
 40
0.0
 40
0.4999999999999982
 40
0.4999999999999982
 40
0.7499999999999991
 40
0.7499999999999991
 40
1.0
 40
1.0
 40
1.0
 40
1.0
 10
141.7850391512167
 20
72.82513306857622
 30
0.0
 10
141.8157613931358
 20
72.71257726916704
 30
0.0
 10
141.858598607671
 20
72.59981940942744
 30
0.0
 10
141.9580256318707
 20
72.45027852363108
 30
0.0
 10
141.9977778266874
 20
72.40298579192422
 30
0.0
 10
142.0958192835456
 20
72.32924949860278
 30
0.0
 10
142.1553753391331
 20
72.30383017922706
 30
0.0
 10
142.2180518531089
 20
72.30383017922708
 30
0.0
  0
LINE
  5
56
330
1F
100
AcDbEntity
  8
0
  6
Continuous
 62
     7
370
    15
100
AcDbLine
 10
142.218052036
 20
72.3038305761
 30
0.0
 11
145.1625382517
 21
72.3038305761
 31
0.0
  0
SPLINE
  5
57
330
1F
100
AcDbEntity
  8
0
  6
Continuous
 62
     7
370
    15
100
AcDbSpline
210
0.0
220
0.0
230
1.0
 70
     8
 71
     3
 72
    12
 73
     8
 74
     0
 42
0.00000001
 43
0.00000001
 12
1.0
 22
0.0
 32
0.0
 13
1.0
 23
0.0
 33
0.0
 40
0.0
 40
0.0
 40
0.0
 40
0.0
 40
0.2500000000000023
 40
0.2500000000000023
 40
0.5000000000000047
 40
0.5000000000000047
 40
1.0
 40
1.0
 40
1.0
 40
1.0
 10
145.162538225976
 20
72.30383017922706
 30
0.0
 10
145.2256182644694
 20
72.30383017922706
 30
0.0
 10
145.2847668866508
 20
72.329194498442
 30
0.0
 10
145.3832394367199
 20
72.40335935881492
 30
0.0
 10
145.4222760487046
 20
72.44987969936906
 30
0.0
 10
145.5221725154837
 20
72.6000220422143
 30
0.0
 10
145.5645933965503
 20
72.71171524918644
 30
0.0
 10
145.5955509278682
 20
72.8251330685762
 30
0.0
  0
ELLIPSE
  5
58
330
1F
100
AcDbEntity
  8
0
  6
Continuous
 62
     7
370
    15
100
AcDbEllipse
 10
129.3431408502
 20
62.9157637479
 30
0.0
 11
14.75368316065607
 21
31.09325491558116
 31
0.0
210
0.0
220
0.0
230
1.0
 40
0.3419987131
 41
5.193281737408618
 42
6.124043104552327
  0
SPLINE
  5
59
330
1F
100
AcDbEntity
  8
0
  6
Continuous
 62
     7
370
    15
100
AcDbSpline
210
0.0
220
0.0
230
1.0
 70
     8
 71
     3
 72
    12
 73
     8
 74
     0
 42
0.00000001
 43
0.00000001
 12
1.0
 22
0.0
 32
0.0
 13
1.0
 23
0.0
 33
0.0
 40
0.0
 40
0.0
 40
0.0
 40
0.0
 40
0.5000000000000037
 40
0.5000000000000037
 40
0.7500000000000018
 40
0.7500000000000018
 40
1.0
 40
1.0
 40
1.0
 40
1.0
 10
145.5955509278682
 20
92.81650620800835
 30
0.0
 10
145.5648286859492
 20
92.8538081909614
 30
0.0
 10
145.521991471414
 20
92.89042002300779
 30
0.0
 10
145.4225644472142
 20
92.938184806293
 30
0.0
 10
145.3828122523975
 20
92.95314232177537
 30
0.0
 10
145.2847707955393
 20
92.97633226754448
 30
0.0
 10
145.2252147399519
 20
92.98425570676419
 30
0.0
 10
145.162538225976
 20
92.98425570676422
 30
0.0
  0
LINE
  5
5A
330
1F
100
AcDbEntity
  8
0
  6
Continuous
 62
     7
370
    15
100
AcDbLine
 10
145.1625382517
 20
92.9842562648
 30
0.0
 11
142.218052036
 21
92.9842562648
 31
0.0
  0
SPLINE
  5
5B
330
1F
100
AcDbEntity
  8
0
  6
Continuous
 62
     7
370
    15
100
AcDbSpline
210
0.0
220
0.0
230
1.0
 70
     8
 71
     3
 72
    12
 73
     8
 74
     0
 42
0.00000001
 43
0.00000001
 12
1.0
 22
0.0
 32
0.0
 13
1.0
 23
0.0
 33
0.0
 40
0.0
 40
0.0
 40
0.0
 40
0.0
 40
0.2500000000000009
 40
0.2500000000000009
 40
0.5000000000000018
 40
0.5000000000000018
 40
1.0
 40
1.0
 40
1.0
 40
1.0
 10
142.2180518531089
 20
92.9842557067642
 30
0.0
 10
142.1549718146155
 20
92.98425570676422
 30
0.0
 10
142.0958231924342
 20
92.97634978055177
 30
0.0
 10
141.9973506423651
 20
92.95302461911554
 30
0.0
 10
141.9583140303804
 20
92.93831182928383
 30
0.0
 10
141.8584175636013
 20
92.8903560285529
 30
0.0
 10
141.8159966825347
 20
92.85409387197286
 30
0.0
 10
141.7850391512167
 20
92.81650620800835
 30
0.0
  0
ELLIPSE
  5
5C
330
1F
100
AcDbEntity
  8
0
  6
Continuous
 62
     7
370
    15
100
AcDbEllipse
 10
158.0374492289
 20
62.9157637479
 30
0.0
 11
-14.75368316065607
 21
31.09325491558116
 31
0.0
210
0.0
220
0.0
230
1.0
 40
0.3419987131
 41
0.1591422026273013
 42
1.089903569770978
  0
SPLINE
  5
5D
330
1F
100
AcDbEntity
  8
0
  6
Continuous
 62
     7
370
    15
100
AcDbSpline
210
0.0
220
0.0
230
1.0
 70
     8
 71
     3
 72
    12
 73
     8
 74
     0
 42
0.00000001
 43
0.00000001
 12
1.0
 22
0.0
 32
0.0
 13
1.0
 23
0.0
 33
0.0
 40
0.0
 40
0.0
 40
0.0
 40
0.0
 40
0.4999999999999972
 40
0.4999999999999972
 40
0.7499999999999986
 40
0.7499999999999986
 40
1.0
 40
1.0
 40
1.0
 40
1.0
 10
141.7850391512167
 20
33.01502128777393
 30
0.0
 10
141.8161843491788
 20
32.97720576485373
 30
0.0
 10
141.8584586155133
 20
32.94113890677011
 30
0.0
 10
141.9584041493385
 20
32.89317884175885
 30
0.0
 10
141.9981344540426
 20
32.87831786786119
 30
0.0
 10
142.0950225040488
 20
32.85536672173006
 30
0.0
 10
142.1550877457954
 20
32.84727178901802
 30
0.0
 10
142.2180518531089
 20
32.84727178901802
 30
0.0
  0
LINE
  5
5E
330
1F
100
AcDbEntity
  8
0
  6
Continuous
 62
     7
370
    15
100
AcDbLine
 10
142.218052036
 20
32.847271231
 30
0.0
 11
145.1625382517
 21
32.847271231
 31
0.0
  0
SPLINE
  5
5F
330
1F
100
AcDbEntity
  8
0
  6
Continuous
 62
     7
370
    15
100
AcDbSpline
210
0.0
220
0.0
230
1.0
 70
     8
 71
     3
 72
    12
 73
     8
 74
     0
 42
0.00000001
 43
0.00000001
 12
1.0
 22
0.0
 32
0.0
 13
1.0
 23
0.0
 33
0.0
 40
0.0
 40
0.0
 40
0.0
 40
0.0
 40
0.2500000000000001
 40
0.2500000000000001
 40
0.5000000000000001
 40
0.5000000000000001
 40
1.0
 40
1.0
 40
1.0
 40
1.0
 10
145.162538225976
 20
32.84727178901807
 30
0.0
 10
145.2255951808738
 20
32.84727178901807
 30
0.0
 10
145.2847253306194
 20
32.85517212009763
 30
0.0
 10
145.3831728811527
 20
32.87848286810266
 30
0.0
 10
145.4222051193408
 20
32.8931879943863
 30
0.0
 10
145.5220950037977
 20
32.94112152257294
 30
0.0
 10
145.5643939774071
 20
32.9771914953377
 30
0.0
 10
145.5955509278683
 20
33.01502128777392
 30
0.0
  0
ELLIPSE
  5
60
330
1F
100
AcDbEntity
  8
0
  6
Continuous
 62
     7
370
    15
100
AcDbEllipse
 10
129.3431408502
 20
62.9157637479
 30
0.0
 11
-14.75368316065617
 21
31.09325491558116
 31
0.0
210
0.0
220
0.0
230
1.0
 40
0.3419987131
 41
3.300734856217122
 42
4.231496223360772
  0
SPLINE
  5
61
330
1F
100
AcDbEntity
  8
0
  6
Continuous
 62
     7
370
    15
100
AcDbSpline
210
0.0
220
0.0
230
1.0
 70
     8
 71
     3
 72
    12
 73
     8
 74
     0
 42
0.00000001
 43
0.00000001
 12
1.0
 22
0.0
 32
0.0
 13
1.0
 23
0.0
 33
0.0
 40
0.0
 40
0.0
 40
0.0
 40
0.0
 40
0.5000000000000029
 40
0.5000000000000029
 40
0.7500000000000014
 40
0.7500000000000014
 40
1.0
 40
1.0
 40
1.0
 40
1.0
 10
145.5955509278682
 20
53.00639442720579
 30
0.0
 10
145.5644057299062
 20
53.1204997930711
 30
0.0
 10
145.5221314635717
 20
53.23160612028986
 30
0.0
 10
145.4221859297464
 20
53.38176372772016
 30
0.0
 10
145.3824556250424
 20
53.42875641933751
 30
0.0
 10
145.2855675750361
 20
53.50173200387601
 30
0.0
 10
145.2255023332896
 20
53.52769731655502
 30
0.0
 10
145.162538225976
 20
53.52769731655502
 30
0.0
  0
LINE
  5
62
330
1F
100
AcDbEntity
  8
0
  6
Continuous
 62
     7
370
    15
100
AcDbLine
 10
145.1625382517
 20
53.5276969196
 30
0.0
 11
142.218052036
 21
53.5276969196
 31
0.0
  0
SPLINE
  5
63
330
1F
100
AcDbEntity
  8
0
  6
Continuous
 62
     7
370
    15
100
AcDbSpline
210
0.0
220
0.0
230
1.0
 70
     8
 71
     3
 72
    12
 73
     8
 74
     0
 42
0.00000001
 43
0.00000001
 12
1.0
 22
0.0
 32
0.0
 13
1.0
 23
0.0
 33
0.0
 40
0.0
 40
0.0
 40
0.0
 40
0.0
 40
0.25
 40
0.25
 40
0.5
 40
0.5
 40
1.0
 40
1.0
 40
1.0
 40
1.0
 10
142.2180518531089
 20
53.52769731655492
 30
0.0
 10
142.1549948982111
 20
53.52769731655492
 30
0.0
 10
142.0958647484655
 20
53.50235096317422
 30
0.0
 10
141.9974171979322
 20
53.42823158103473
 30
0.0
 10
141.9583849597442
 20
53.38173506633673
 30
0.0
 10
141.8584950752872
 20
53.23166055932814
 30
0.0
 10
141.8161961016779
 20
53.1205428502133
 30
0.0
 10
141.7850391512167
 20
53.00639442720581
 30
0.0
  0
ELLIPSE
  5
64
330
1F
100
AcDbEntity
  8
0
  6
Continuous
 62
     7
370
    15
100
AcDbEllipse
 10
158.0374492289
 20
62.9157637479
 30
0.0
 11
14.75368316065621
 21
31.09325491558116
 31
0.0
210
0.0
220
0.0
230
1.0
 40
0.3419987131
 41
2.051689083818827
 42
2.982450450962502
  0
ELLIPSE
  5
65
330
1F
100
AcDbEntity
  8
0
  6
Continuous
 62
     7
370
    15
100
AcDbEllipse
 10
248.0718613251
 20
62.9157637479
 30
0.0
 11
54.8202832528242
 21
-31.40962933126402
 31
0.0
210
0.0
220
0.0
230
1.0
 40
0.0434941688
 41
2.403907552851113
 42
3.065826131388401
  0
ELLIPSE
  5
66
330
1F
100
AcDbEntity
  8
0
  6
Continuous
 62
     7
370
    15
100
AcDbEllipse
 10
213.6099102818
 20
62.9157637479
 30
0.0
 11
0.0
 21
31.5
 31
0.0
210
0.0
220
0.0
230
1.0
 40
0.2679491924
 41
0.6619185785373038
 42
2.479674075052489
  0
ELLIPSE
  5
67
330
1F
100
AcDbEntity
  8
0
  6
Continuous
 62
     7
370
    15
100
AcDbEllipse
 10
248.0718613251
 20
62.9157637479
 30
0.0
 11
54.8202832528242
 21
31.40962933126403
 31
0.0
210
0.0
220
0.0
230
1.0
 40
0.0434941688
 41
3.217359175791494
 42
3.879277754328648
  0
SPLINE
  5
68
330
1F
100
AcDbEntity
  8
0
  6
Continuous
 62
     7
370
    15
100
AcDbSpline
210
0.0
220
0.0
230
1.0
 70
     8
 71
     3
 72
    68
 73
    64
 74
     0
 42
0.00000001
 43
0.00000001
 12
1.0
 22
0.0
 32
0.0
 13
1.0
 23
0.0
 33
0.0
 40
-0.0624999999999999
 40
-0.0624999999999999
 40
0.0
 40
0.0
 40
0.03125
 40
0.03125
 40
0.0625
 40
0.0625
 40
0.09375
 40
0.09375
 40
0.125
 40
0.125
 40
0.1562500000000001
 40
0.1562500000000001
 40
0.1875000000000001
 40
0.1875000000000001
 40
0.2187500000000001
 40
0.2187500000000001
 40
0.2500000000000001
 40
0.2500000000000001
 40
0.2812500000000001
 40
0.2812500000000001
 40
0.3125000000000001
 40
0.3125000000000001
 40
0.3437500000000001
 40
0.3437500000000001
 40
0.3750000000000001
 40
0.3750000000000001
 40
0.4062500000000001
 40
0.4062500000000001
 40
0.4375000000000001
 40
0.4375000000000001
 40
0.4687500000000001
 40
0.4687500000000001
 40
0.5000000000000001
 40
0.5000000000000001
 40
0.5312500000000001
 40
0.5312500000000001
 40
0.5625000000000001
 40
0.5625000000000001
 40
0.5937500000000001
 40
0.5937500000000001
 40
0.6250000000000001
 40
0.6250000000000001
 40
0.6562500000000001
 40
0.6562500000000001
 40
0.6875000000000001
 40
0.6875000000000001
 40
0.7187500000000001
 40
0.7187500000000001
 40
0.7500000000000001
 40
0.7500000000000001
 40
0.7812500000000001
 40
0.7812500000000001
 40
0.8125000000000001
 40
0.8125000000000001
 40
0.8437500000000001
 40
0.8437500000000001
 40
0.8750000000000001
 40
0.8750000000000001
 40
0.9062500000000001
 40
0.9062500000000001
 40
0.9375000000000001
 40
0.9375000000000001
 40
1.0
 40
1.0
 40
1.03125
 40
1.03125
 10
195.6902950395425
 20
62.51913429496123
 30
0.0
 10
195.6902950395425
 20
63.1140784743562
 30
0.0
 10
195.7097657126428
 20
63.30905685515885
 30
0.0
 10
195.786034738763
 20
63.69262064722975
 30
0.0
 10
195.8437668457775
 20
63.88320186078276
 30
0.0
 10
195.9943857567559
 20
64.246452441448
 30
0.0
 10
196.0865392210662
 20
64.41871971228517
 30
0.0
 10
196.304239729326
 20
64.74474189148513
 30
0.0
 10
196.4308801304613
 20
64.899017508082
 30
0.0
 10
196.7074988366504
 20
65.1755802064749
 30
0.0
 10
196.8584537536578
 20
65.29972258673327
 30
0.0
 10
197.1863417818864
 20
65.51903608108078
 30
0.0
 10
197.3607907511002
 20
65.61216603606555
 30
0.0
 10
197.7217223538485
 20
65.76181959857048
 30
0.0
 10
197.9108740918577
 20
65.81946632083597
 30
0.0
 10
198.2981687771155
 20
65.8965728058704
 30
0.0
 10
198.4928903216648
 20
65.91565656874509
 30
0.0
 10
198.8844285591796
 20
65.9158700353091
 30
0.0
 10
199.0832949557569
 20
65.89637480845377
 30
0.0
 10
199.468135166983
 20
65.81980506382246
 30
0.0
 10
199.6551944183295
 20
65.7631519723958
 30
0.0
 10
200.0185391354847
 20
65.61287667356295
 30
0.0
 10
200.1940823585049
 20
65.51899369157803
 30
0.0
 10
200.519063784744
 20
65.30192956714052
 30
0.0
 10
200.6705766832964
 20
65.17799873802981
 30
0.0
 10
200.9507807814067
 20
64.89804191959784
 30
0.0
 10
201.0748848813832
 20
64.74658323431963
 30
0.0
 10
201.2921932001427
 20
64.42184962444708
 30
0.0
 10
201.3861912010271
 20
64.24648442537635
 30
0.0
 10
201.5368378720991
 20
63.88316621709144
 30
0.0
 10
201.5936399022183
 20
63.6961741438231
 30
0.0
 10
201.6705239048612
 20
63.31160170466905
 30
0.0
 10
201.6902231271663
 20
63.1126940043871
 30
0.0
 10
201.6903665496375
 20
62.72103061985713
 30
0.0
 10
201.6714476906411
 20
62.52632267322614
 30
0.0
 10
201.5947556889033
 20
62.13920478934214
 30
0.0
 10
201.5372175212501
 20
61.94973365872234
 30
0.0
 10
201.3878530328989
 20
61.58860037343035
 30
0.0
 10
201.2949406473638
 20
61.41418086264177
 30
0.0
 10
201.075840519512
 20
61.08598161151167
 30
0.0
 10
200.9518071603458
 20
60.9349032544778
 30
0.0
 10
200.675503815156
 20
60.65806769125878
 30
0.0
 10
200.5213554736584
 20
60.53130449067122
 30
0.0
 10
200.1954912350298
 20
60.31330093820166
 30
0.0
 10
200.0233301650388
 20
60.22102029616934
 30
0.0
 10
199.660376688392
 20
60.07014140629877
 30
0.0
 10
199.4697350051729
 20
60.01219515486976
 30
0.0
 10
199.0862254998664
 20
59.9355831652771
 30
0.0
 10
198.8913324479745
 20
59.91595514035746
 30
0.0
 10
198.4950109354747
 20
59.9155751138015
 30
0.0
 10
198.2996480960658
 20
59.93488746893623
 30
0.0
 10
197.9160470189572
 20
60.01080790872532
 30
0.0
 10
197.7255547269215
 20
60.06831345344316
 30
0.0
 10
197.3619887035206
 20
60.21867284696989
 30
0.0
 10
197.189629350825
 20
60.31069163965104
 30
0.0
 10
196.8635086021566
 20
60.52803480376711
 30
0.0
 10
196.709084118956
 20
60.65455361620396
 30
0.0
 10
196.432214589081
 20
60.93098651839165
 30
0.0
 10
196.3079648431097
 20
61.08181612207823
 30
0.0
 10
196.088465975154
 20
61.40932869161981
 30
0.0
 10
195.9950682054479
 20
61.58387773872192
 30
0.0
 10
195.7701069707476
 20
62.12508444662811
 30
0.0
 10
195.6902950395425
 20
62.51913429496123
 30
0.0
 10
195.6902950395425
 20
63.1140784743562
 30
0.0
  0
LINE
  5
69
330
1F
100
AcDbEntity
  8
0
  6
Continuous
 62
     7
370
    15
100
AcDbLine
 10
131.6902950395
 20
31.9157642545
 30
0.0
 11
131.6902950395
 21
93.9157632413
 31
0.0
  0
LINE
  5
6A
330
1F
100
AcDbEntity
  8
0
  6
Continuous
 62
     7
370
    15
100
AcDbLine
 10
212.4987035979
 20
41.9586383971
 30
0.0
 11
208.4221780289
 21
38.0681072595
 31
0.0
  0
LINE
  5
6B
330
1F
100
AcDbEntity
  8
0
  6
Continuous
 62
     7
370
    15
100
AcDbLine
 10
212.4987035979
 20
83.8728890987
 30
0.0
 11
208.4221780289
 21
87.7634202363
 31
0.0
  0
ELLIPSE
  5
6C
330
1F
100
AcDbEntity
  8
0
  6
Continuous
 62
     7
370
    15
100
AcDbEllipse
 10
209.8908795781
 20
62.9157637479
 30
0.0
 11
0.0
 21
2.5
 31
0.0
210
0.0
220
0.0
230
1.0
 40
0.2988584907
 41
0.0
 42
6.283185307179586
  0
SPLINE
  5
6D
330
1F
100
AcDbEntity
  8
0
  6
Continuous
 62
     7
370
    15
100
AcDbSpline
210
0.0
220
0.0
230
1.0
 70
     8
 71
     3
 72
    12
 73
     8
 74
     0
 42
0.00000001
 43
0.00000001
 12
1.0
 22
0.0
 32
0.0
 13
1.0
 23
0.0
 33
0.0
 40
0.0
 40
0.0
 40
0.0
 40
0.0
 40
0.5000000000000001
 40
0.5000000000000001
 40
0.7499999999999999
 40
0.7499999999999999
 40
1.0
 40
1.0
 40
1.0
 40
1.0
 10
130.873782753086
 20
41.06097004541534
 30
0.0
 10
130.9302192539932
 20
41.05955216407359
 30
0.0
 10
130.9993038846819
 20
41.05798782782529
 30
0.0
 10
131.1181061563998
 20
41.05504363585084
 30
0.0
 10
131.1582914318699
 20
41.05400543275346
 30
0.0
 10
131.2316724792738
 20
41.05207153753883
 30
0.0
 10
131.2650820430164
 20
41.05117665025002
 30
0.0
 10
131.2953181506729
 20
41.05039285997768
 30
0.0
  0
SPLINE
  5
6E
330
1F
100
AcDbEntity
  8
0
  6
Continuous
 62
     7
370
    15
100
AcDbSpline
210
0.0
220
0.0
230
1.0
 70
     8
 71
     3
 72
    16
 73
    12
 74
     0
 42
0.00000001
 43
0.00000001
 12
1.0
 22
0.0
 32
0.0
 13
1.0
 23
0.0
 33
0.0
 40
0.0
 40
0.0
 40
0.0
 40
0.0
 40
0.0625000000000035
 40
0.0625000000000035
 40
0.125000000000007
 40
0.125000000000007
 40
0.250000000000009
 40
0.250000000000009
 40
0.5000000000000048
 40
0.5000000000000048
 40
1.0
 40
1.0
 40
1.0
 40
1.0
 10
131.2953181506356
 20
41.05039286000192
 30
0.0
 10
131.3068985582236
 20
41.05009266889058
 30
0.0
 10
131.3202080849848
 20
41.04876492063157
 30
0.0
 10
131.349509515071
 20
41.04206624585657
 30
0.0
 10
131.3643236149553
 20
41.03670806275088
 30
0.0
 10
131.4001520166581
 20
41.01966241358353
 30
0.0
 10
131.4142716410212
 20
41.0081998758078
 30
0.0
 10
131.4487757851097
 20
40.97663655043554
 30
0.0
 10
131.4598803358143
 20
40.95873925139028
 30
0.0
 10
131.4860565130305
 20
40.90857783377604
 30
0.0
 10
131.4902950395425
 20
40.88083342157947
 30
0.0
 10
131.4902950395425
 20
40.85616925964992
 30
0.0
  0
LINE
  5
6F
330
1F
100
AcDbEntity
  8
0
  6
Continuous
 62
     7
370
    15
100
AcDbLine
 10
131.4902950446
 20
55.89387652
 30
0.0
 11
131.4902950446
 21
40.3759432258
 31
0.0
  0
SPLINE
  5
70
330
1F
100
AcDbEntity
  8
0
  6
Continuous
 62
     7
370
    15
100
AcDbSpline
210
0.0
220
0.0
230
1.0
 70
     8
 71
     3
 72
    16
 73
    12
 74
     0
 42
0.00000001
 43
0.00000001
 12
1.0
 22
0.0
 32
0.0
 13
1.0
 23
0.0
 33
0.0
 40
0.0
 40
0.0
 40
0.0
 40
0.0
 40
0.4999999999999989
 40
0.4999999999999989
 40
0.75
 40
0.75
 40
0.8749999999999989
 40
0.8749999999999989
 40
0.9374999999999994
 40
0.9374999999999994
 40
1.0
 40
1.0
 40
1.0
 40
1.0
 10
131.4902950395425
 20
55.89387642214109
 30
0.0
 10
131.4902950395425
 20
56.00756896626898
 30
0.0
 10
131.4861487644645
 20
56.12188912761849
 30
0.0
 10
131.460183169071
 20
56.29493741811558
 30
0.0
 10
131.4487222636936
 20
56.3541129252773
 30
0.0
 10
131.4144105259192
 20
56.43723604474545
 30
0.0
 10
131.4003857899896
 20
56.46535736084611
 30
0.0
 10
131.3643628269558
 20
56.49397317482354
 30
0.0
 10
131.3496083178662
 20
56.49976622272534
 30
0.0
 10
131.3202561567192
 20
56.49817279678832
 30
0.0
 10
131.3069162822152
 20
56.4916763934645
 30
0.0
 10
131.2953181506668
 20
56.48316064726137
 30
0.0
  0
SPLINE
  5
71
330
1F
100
AcDbEntity
  8
0
  6
Continuous
 62
     7
370
    15
100
AcDbSpline
210
0.0
220
0.0
230
1.0
 70
     8
 71
     3
 72
    12
 73
     8
 74
     0
 42
0.00000001
 43
0.00000001
 12
1.0
 22
0.0
 32
0.0
 13
1.0
 23
0.0
 33
0.0
 40
0.0
 40
0.0
 40
0.0
 40
0.0
 40
0.2500000000000001
 40
0.2500000000000001
 40
0.5000000000000002
 40
0.5000000000000002
 40
1.0
 40
1.0
 40
1.0
 40
1.0
 10
131.2953181506739
 20
56.48316064725223
 30
0.0
 10
131.2651197092333
 20
56.46098791520718
 30
0.0
 10
131.2317523538973
 20
56.44190825932994
 30
0.0
 10
131.1585970780674
 20
56.41673521488724
 30
0.0
 10
131.1183443790434
 20
56.41117867847044
 30
0.0
 10
131.0006156357685
 20
56.4220904894572
 30
0.0
 10
130.9301571877096
 20
56.46402624486803
 30
0.0
 10
130.8737827530913
 20
56.51323802724959
 30
0.0
  0
SPLINE
  5
72
330
1F
100
AcDbEntity
  8
0
  6
Continuous
 62
     7
370
    15
100
AcDbSpline
210
0.0
220
0.0
230
1.0
 70
     8
 71
     3
 72
    12
 73
     8
 74
     0
 42
0.00000001
 43
0.00000001
 12
1.0
 22
0.0
 32
0.0
 13
1.0
 23
0.0
 33
0.0
 40
0.0
 40
0.0
 40
0.0
 40
0.0
 40
0.4999999999999993
 40
0.4999999999999993
 40
0.7499999999999998
 40
0.7499999999999998
 40
1.0
 40
1.0
 40
1.0
 40
1.0
 10
130.3689746959828
 20
57.72958941913012
 30
0.0
 10
130.4127250478673
 20
57.5091424341556
 30
0.0
 10
130.4656151989918
 20
57.29359744435003
 30
0.0
 10
130.5772267421335
 20
56.98118336777812
 30
0.0
 10
130.619786086037
 20
56.87910389216222
 30
0.0
 10
130.7247633213744
 20
56.68466387952046
 30
0.0
 10
130.786330564469
 20
56.5895789804568
 30
0.0
 10
130.8737827530913
 20
56.51323802724962
 30
0.0
  0
SPLINE
  5
73
330
1F
100
AcDbEntity
  8
0
  6
Continuous
 62
     7
370
    15
100
AcDbSpline
210
0.0
220
0.0
230
1.0
 70
     8
 71
     3
 72
    12
 73
     8
 74
     0
 42
0.00000001
 43
0.00000001
 12
1.0
 22
0.0
 32
0.0
 13
1.0
 23
0.0
 33
0.0
 40
0.0
 40
0.0
 40
0.0
 40
0.0
 40
0.2499999999999997
 40
0.2499999999999997
 40
0.4999999999999993
 40
0.4999999999999993
 40
1.0
 40
1.0
 40
1.0
 40
1.0
 10
130.8737827530913
 20
69.31828946853273
 30
0.0
 10
130.7852893455234
 20
69.24103958842444
 30
0.0
 10
130.7252313047575
 20
69.14772026453521
 30
0.0
 10
130.6193830317749
 20
68.95168721156578
 30
0.0
 10
130.5768495104975
 20
68.84936085335404
 30
0.0
 10
130.4656982036738
 20
68.53801644757816
 30
0.0
 10
130.412767346626
 20
68.32259819440016
 30
0.0
 10
130.3689746959828
 20
68.1019380766523
 30
0.0
  0
SPLINE
  5
74
330
1F
100
AcDbEntity
  8
0
  6
Continuous
 62
     7
370
    15
100
AcDbSpline
210
0.0
220
0.0
230
1.0
 70
     8
 71
     3
 72
    12
 73
     8
 74
     0
 42
0.00000001
 43
0.00000001
 12
1.0
 22
0.0
 32
0.0
 13
1.0
 23
0.0
 33
0.0
 40
0.0
 40
0.0
 40
0.0
 40
0.0
 40
0.5000000000000007
 40
0.5000000000000007
 40
0.7500000000000003
 40
0.7500000000000003
 40
1.0
 40
1.0
 40
1.0
 40
1.0
 10
130.8737827530912
 20
69.31828946853275
 30
0.0
 10
130.9300913013869
 20
69.3674437357766
 30
0.0
 10
131.000365962105
 20
69.40940105438035
 30
0.0
 10
131.1184038764286
 20
69.4203607319128
 30
0.0
 10
131.1585801172825
 20
69.41485197366544
 30
0.0
 10
131.2325372119604
 20
69.38929474487648
 30
0.0
 10
131.2651535996719
 20
69.37051469703718
 30
0.0
 10
131.2953181506676
 20
69.34836684852046
 30
0.0
  0
SPLINE
  5
75
330
1F
100
AcDbEntity
  8
0
  6
Continuous
 62
     7
370
    15
100
AcDbSpline
210
0.0
220
0.0
230
1.0
 70
     8
 71
     3
 72
    16
 73
    12
 74
     0
 42
0.00000001
 43
0.00000001
 12
1.0
 22
0.0
 32
0.0
 13
1.0
 23
0.0
 33
0.0
 40
0.0
 40
0.0
 40
0.0
 40
0.0
 40
0.062499999999999
 40
0.062499999999999
 40
0.1249999999999981
 40
0.1249999999999981
 40
0.2499999999999983
 40
0.2499999999999983
 40
0.4999999999999989
 40
0.4999999999999989
 40
1.0
 40
1.0
 40
1.0
 40
1.0
 10
131.2953181506359
 20
69.34836684846593
 30
0.0
 10
131.3069310504752
 20
69.3398402588707
 30
0.0
 10
131.3202822349078
 20
69.33333999733793
 30
0.0
 10
131.3496820745269
 20
69.33177060022041
 30
0.0
 10
131.3645227990822
 20
69.33765399085102
 30
0.0
 10
131.4003560070507
 20
69.36620162690154
 30
0.0
 10
131.4144692148723
 20
69.39436864620735
 30
0.0
 10
131.4489605860912
 20
69.47812290462929
 30
0.0
 10
131.4600446572016
 20
69.5358363182507
 30
0.0
 10
131.4861674749976
 20
69.70942685489655
 30
0.0
 10
131.4902950395425
 20
69.82445490753848
 30
0.0
 10
131.4902950395425
 20
69.93765107364132
 30
0.0
  0
LINE
  5
76
330
1F
100
AcDbEntity
  8
0
  6
Continuous
 62
     7
370
    15
100
AcDbLine
 10
131.4902950446
 20
85.45558427
 30
0.0
 11
131.4902950446
 21
69.9376509758
 31
0.0
  0
SPLINE
  5
77
330
1F
100
AcDbEntity
  8
0
  6
Continuous
 62
     7
370
    15
100
AcDbSpline
210
0.0
220
0.0
230
1.0
 70
     8
 71
     3
 72
    16
 73
    12
 74
     0
 42
0.00000001
 43
0.00000001
 12
1.0
 22
0.0
 32
0.0
 13
1.0
 23
0.0
 33
0.0
 40
0.0
 40
0.0
 40
0.0
 40
0.0
 40
0.5000000000000016
 40
0.5000000000000016
 40
0.7500000000000043
 40
0.7500000000000043
 40
0.8750000000000057
 40
0.8750000000000057
 40
0.9375000000000028
 40
0.9375000000000028
 40
1.0
 40
1.0
 40
1.0
 40
1.0
 10
131.4902950395425
 20
84.9753582361325
 30
0.0
 10
131.4902950395425
 20
84.95068708008954
 30
0.0
 10
131.4861293410825
 20
84.9231052486983
 30
0.0
 10
131.4598710127576
 20
84.87276237787499
 30
0.0
 10
131.44836723102
 20
84.85447287981309
 30
0.0
 10
131.4142364716734
 20
84.82331784877604
 30
0.0
 10
131.3998145850027
 20
84.8116784735643
 30
0.0
 10
131.3642476165649
 20
84.79479644763326
 30
0.0
 10
131.3492958482702
 20
84.78940734382559
 30
0.0
 10
131.3202920299105
 20
84.78278684788108
 30
0.0
 10
131.3068766759012
 20
84.78143425967464
 30
0.0
 10
131.2953181506646
 20
84.78113463580304
 30
0.0
  0
SPLINE
  5
78
330
1F
100
AcDbEntity
  8
0
  6
Continuous
 62
     7
370
    15
100
AcDbSpline
210
0.0
220
0.0
230
1.0
 70
     8
 71
     3
 72
    12
 73
     8
 74
     0
 42
0.00000001
 43
0.00000001
 12
1.0
 22
0.0
 32
0.0
 13
1.0
 23
0.0
 33
0.0
 40
0.0
 40
0.0
 40
0.0
 40
0.0
 40
0.2500000000000004
 40
0.2500000000000004
 40
0.5000000000000004
 40
0.5000000000000004
 40
1.0
 40
1.0
 40
1.0
 40
1.0
 10
131.2953181506739
 20
84.78113463580478
 30
0.0
 10
131.2651303741242
 20
84.7803520983872
 30
0.0
 10
131.2317765700325
 20
84.77945876656867
 30
0.0
 10
131.1586503668366
 20
84.77753145776508
 30
0.0
 10
131.1184151638124
 20
84.77649192655242
 30
0.0
 10
131.0007235336793
 20
84.77357404320517
 30
0.0
 10
130.9303428605193
 20
84.77197843713495
 30
0.0
 10
130.8737827530887
 20
84.7705574503671
 30
0.0
  0
SPLINE
  5
79
330
1F
100
AcDbEntity
  8
0
  6
Continuous
 62
     7
370
    15
100
AcDbSpline
210
0.0
220
0.0
230
1.0
 70
     8
 71
     3
 72
    16
 73
    12
 74
     0
 42
0.00000001
 43
0.00000001
 12
1.0
 22
0.0
 32
0.0
 13
1.0
 23
0.0
 33
0.0
 40
0.0
 40
0.0
 40
0.0
 40
0.0
 40
0.25
 40
0.25
 40
0.3749999999999999
 40
0.3749999999999999
 40
0.4999999999999999
 40
0.4999999999999999
 40
0.75
 40
0.75
 40
1.0
 40
1.0
 40
1.0
 40
1.0
 10
130.3689746959828
 20
68.1019380766523
 30
0.0
 10
130.2077422184984
 20
67.28952830140545
 30
0.0
 10
130.0872623788587
 20
66.44945000702073
 30
0.0
 10
129.9648818615454
 20
65.14815495765794
 30
0.0
 10
129.933904201148
 20
64.70747392207316
 30
0.0
 10
129.89229046352
 20
63.81163428114202
 30
0.0
 10
129.8820545505872
 20
63.36497614993957
 30
0.0
 10
129.8818661535311
 20
62.02966619279967
 30
0.0
 10
129.9220108561687
 20
61.14517081949214
 30
0.0
 10
130.0861646111083
 20
59.38792093146613
 30
0.0
 10
130.2077162615178
 20
58.54212998505299
 30
0.0
 10
130.3689746959828
 20
57.72958941913012
 30
0.0
  0
LINE
  5
7A
330
1F
100
AcDbEntity
  8
0
  6
Continuous
 62
     7
370
    15
100
AcDbLine
 10
129.4902950515
 20
69.4009418832
 30
0.0
 11
129.4902950515
 21
56.4305856126
 31
0.0
  0
LINE
  5
7B
330
1F
100
AcDbEntity
  8
0
  6
Continuous
 62
     7
370
    15
100
AcDbLine
 10
95.190295576
 20
68.9700743416
 30
0.0
 11
95.190295576
 21
56.8614531541
 31
0.0
  0
LINE
  5
7C
330
1F
100
AcDbEntity
  8
0
  6
Continuous
 62
     7
370
    15
100
AcDbLine
 10
93.6902962614
 20
68.5370614985
 30
0.0
 11
93.6902962614
 21
57.2944659973
 31
0.0
  0
LINE
  5
7D
330
1F
100
AcDbEntity
  8
0
  6
Continuous
 62
     7
370
    15
100
AcDbLine
 10
95.190295576
 20
68.9700743416
 30
0.0
 11
95.190295576
 21
84.074127418
 31
0.0
  0
LINE
  5
7E
330
1F
100
AcDbEntity
  8
0
  6
Continuous
 62
     7
370
    15
100
AcDbLine
 10
95.190295576
 20
84.074127418
 30
0.0
 11
129.4902950515
 21
84.9358634325
 31
0.0
  0
LINE
  5
7F
330
1F
100
AcDbEntity
  8
0
  6
Continuous
 62
     7
370
    15
100
AcDbLine
 10
129.4902950515
 20
69.4009418832
 30
0.0
 11
129.4902950515
 21
84.9358634325
 31
0.0
  0
ARC
  5
80
330
1F
100
AcDbEntity
  8
0
  6
Continuous
 62
     7
370
    15
100
AcDbCircle
 10
129.6902319505
 20
84.9408856436
 30
0.0
 40
0.1999999999999924
100
AcDbArc
 50
181.4391666667
 51
271.4391666667
  0
LINE
  5
81
330
1F
100
AcDbEntity
  8
0
  6
Continuous
 62
     7
370
    15
100
AcDbLine
 10
95.190295576
 20
41.7574000778
 30
0.0
 11
95.190295576
 21
56.8614531541
 31
0.0
  0
LINE
  5
82
330
1F
100
AcDbEntity
  8
0
  6
Continuous
 62
     7
370
    15
100
AcDbLine
 10
129.4902950515
 20
40.8956640633
 30
0.0
 11
129.4902950515
 21
56.4305856126
 31
0.0
  0
LINE
  5
83
330
1F
100
AcDbEntity
  8
0
  6
Continuous
 62
     7
370
    15
100
AcDbLine
 10
95.190295576
 20
41.7574000778
 30
0.0
 11
129.4902950515
 21
40.8956640633
 31
0.0
  0
ARC
  5
84
330
1F
100
AcDbEntity
  8
0
  6
Continuous
 62
     7
370
    15
100
AcDbCircle
 10
129.6902319505
 20
40.8906418522
 30
0.0
 40
0.1999999999999924
100
AcDbArc
 50
88.5608333333
 51
178.5608333333
  0
LINE
  5
85
330
1F
100
AcDbEntity
  8
0
  6
Continuous
 62
     7
370
    15
100
AcDbLine
 10
129.6952551686
 20
84.7409487935
 30
0.0
 11
130.8737827687
 21
84.7705574008
 31
0.0
  0
LINE
  5
86
330
1F
100
AcDbEntity
  8
0
  6
Continuous
 62
     7
370
    15
100
AcDbLine
 10
129.6952551686
 20
41.0905787023
 30
0.0
 11
130.8737827687
 21
41.060970095
 31
0.0
  0
LINE
  5
87
330
1F
100
AcDbEntity
  8
0
  6
Continuous
 62
     7
370
    15
100
AcDbLine
 10
93.6902962614
 20
83.2081017317
 30
0.0
 11
95.190295576
 21
84.074127418
 31
0.0
  0
LINE
  5
88
330
1F
100
AcDbEntity
  8
0
  6
Continuous
 62
     7
370
    15
100
AcDbLine
 10
93.6902962614
 20
68.5370614985
 30
0.0
 11
93.6902962614
 21
83.2081017317
 31
0.0
  0
LINE
  5
89
330
1F
100
AcDbEntity
  8
0
  6
Continuous
 62
     7
370
    15
100
AcDbLine
 10
93.6902962614
 20
42.623425764
 30
0.0
 11
95.190295576
 21
41.7574000778
 31
0.0
  0
LINE
  5
8A
330
1F
100
AcDbEntity
  8
0
  6
Continuous
 62
     7
370
    15
100
AcDbLine
 10
93.6902962614
 20
42.623425764
 30
0.0
 11
93.6902962614
 21
57.2944659973
 31
0.0
  0
ELLIPSE
  5
8B
330
1F
100
AcDbEntity
  8
0
  6
Continuous
 62
     7
370
    15
100
AcDbEllipse
 10
218.2942569674
 20
45.147823577
 30
0.0
 11
5.994201362814891
 21
3.487395952140097
 31
0.0
210
0.0
220
0.0
230
1.0
 40
0.0756218638
 41
1.52682826478304
 42
2.835825203778773
  0
ELLIPSE
  5
8C
330
1F
100
AcDbEntity
  8
0
  6
Continuous
 62
     7
370
    15
100
AcDbEllipse
 10
218.2942569674
 20
80.6837039188
 30
0.0
 11
5.994201362814893
 21
-3.487395952140106
 31
0.0
210
0.0
220
0.0
230
1.0
 40
0.0756218638
 41
3.447360103400992
 42
4.756357042396548
  0
LINE
  5
8D
330
1F
100
AcDbEntity
  8
0
  6
Continuous
 62
     7
370
    15
100
AcDbLine
 10
230.9886604537
 20
62.9203504684
 30
0.0
 11
230.9741169204
 21
62.9157637479
 31
0.0
  0
LINE
  5
8E
330
1F
100
AcDbEntity
  8
0
  6
Continuous
 62
     7
370
    15
100
AcDbLine
 10
230.9741169204
 20
62.9157637479
 30
0.0
 11
232.0682793845
 21
62.5707742176
 31
0.0
  0
LINE
  5
8F
330
1F
100
AcDbEntity
  8
0
  6
Continuous
 62
     7
370
    15
100
AcDbLine
 10
246.2693840255
 20
58.0840100767
 30
0.0
 11
234.4033360471
 21
54.3426591205
 31
0.0
  0
ARC
  5
90
330
1F
100
AcDbEntity
  8
0
  6
Continuous
 62
     7
370
    15
100
AcDbCircle
 10
242.2243196553
 20
29.5376746343
 30
0.0
 40
26.00874886635258
100
AcDbArc
 50
107.5
 51
120.0
  0
ARC
  5
91
330
1F
100
AcDbEntity
  8
0
  6
Continuous
 62
     7
370
    15
100
AcDbCircle
 10
242.2243196553
 20
96.2938528615
 30
0.0
 40
26.00874886635261
100
AcDbArc
 50
240.0
 51
252.5
  0
LINE
  5
92
330
1F
100
AcDbEntity
  8
0
  6
Continuous
 62
     7
370
    15
100
AcDbLine
 10
237.4629318703
 20
64.9708522717
 30
0.0
 11
232.0329040278
 21
66.6829335271
 31
0.0
  0
ARC
  5
93
330
1F
100
AcDbEntity
  8
0
  6
Continuous
 62
     7
370
    15
100
AcDbCircle
 10
231.4461567425
 20
64.8220181397
 30
0.0
 40
1.951223926109635
100
AcDbArc
 50
72.5
 51
252.5
  0
LINE
  5
94
330
1F
100
AcDbEntity
  8
0
  6
Continuous
 62
     7
370
    15
100
AcDbLine
 10
230.8594152321
 20
62.9611028082
 30
0.0
 11
230.9886604537
 21
62.9203504684
 31
0.0
  0
LINE
  5
95
330
1F
100
AcDbEntity
  8
0
  6
Continuous
 62
     7
370
    15
100
AcDbLine
 10
246.2693840255
 20
67.7475174191
 30
0.0
 11
234.4033360471
 21
71.4888683753
 31
0.0
  0
LINE
  5
96
330
1F
100
AcDbEntity
  8
0
  6
Continuous
 62
     7
370
    15
100
AcDbLine
 10
229.219944774
 20
52.0619116025
 30
0.0
 11
218.2942569245
 21
45.7539622905
 31
0.0
  0
LINE
  5
97
330
1F
100
AcDbEntity
  8
0
  6
Continuous
 62
     7
370
    15
100
AcDbLine
 10
229.219944774
 20
73.7696158933
 30
0.0
 11
218.2942569245
 21
80.0775652053
 31
0.0
  0
ARC
  5
98
330
1F
100
AcDbEntity
  8
0
  6
Continuous
 62
     7
370
    15
100
AcDbCircle
 10
231.4461567425
 20
64.8220181397
 30
0.0
 40
1.750000000000014
100
AcDbArc
 50
72.5
 51
252.5
  0
LINE
  5
99
330
1F
100
AcDbEntity
  8
0
  6
Continuous
 62
     7
370
    15
100
AcDbLine
 10
237.1283411969
 20
64.8653577548
 30
0.0
 11
231.9723904122
 21
66.491022869
 31
0.0
  0
LINE
  5
9A
330
1F
100
AcDbEntity
  8
0
  6
Continuous
 62
     7
370
    15
100
AcDbLine
 10
231.6723778833
 20
62.9157637479
 30
0.0
 11
230.9741169204
 21
62.9157637479
 31
0.0
  0
LINE
  5
9B
330
1F
100
AcDbEntity
  8
0
  6
Continuous
 62
     7
370
    15
100
AcDbLine
 10
231.6723778833
 20
62.9157637479
 30
0.0
 11
231.8664580573
 21
62.854571169
 31
0.0
  0
LINE
  5
9C
330
1F
100
AcDbEntity
  8
0
  6
Continuous
 62
     7
370
    15
100
AcDbLine
 10
230.9199213971
 20
63.1530134735
 30
0.0
 11
231.65783435
 21
62.9203504684
 31
0.0
  0
LINE
  5
9D
330
1F
100
AcDbEntity
  8
0
  6
Continuous
 62
     7
370
    15
100
AcDbLine
 10
231.65783435
 20
62.9203504684
 30
0.0
 11
230.9886604537
 21
62.9203504684
 31
0.0
  0
LINE
  5
9E
330
1F
100
AcDbEntity
  8
0
  6
Continuous
 62
     7
370
    15
100
AcDbLine
 10
231.6723778833
 20
62.9157637479
 30
0.0
 11
231.65783435
 21
62.9203504684
 31
0.0
  0
ARC
  5
9F
330
1F
100
AcDbEntity
  8
0
  6
Continuous
 62
     7
370
    15
100
AcDbCircle
 10
246.6827597436
 20
62.9157637479
 30
0.0
 40
1.674999999999982
100
AcDbArc
 50
351.6787537241
 51
50.2786868513
  0
ARC
  5
A0
330
1F
100
AcDbEntity
  8
0
  6
Continuous
 62
     7
370
    15
100
AcDbCircle
 10
246.6827597436
 20
62.9157637479
 30
0.0
 40
1.674999999999994
100
AcDbArc
 50
50.2786868513
 51
110.3855285861
  0
ARC
  5
A1
330
1F
100
AcDbEntity
  8
0
  6
Continuous
 62
     7
370
    15
100
AcDbCircle
 10
246.6827597436
 20
62.9157637479
 30
0.0
 40
1.675000000000029
100
AcDbArc
 50
110.3855285861
 51
168.9854617133
  0
LINE
  5
A2
330
1F
100
AcDbEntity
  8
0
  6
Continuous
 62
     7
370
    15
100
AcDbLine
 10
245.0245037664
 20
63.1520021736
 30
0.0
 11
245.0386151661
 21
63.2357860042
 31
0.0
  0
ARC
  5
A3
330
1F
100
AcDbEntity
  8
0
  6
Continuous
 62
     7
370
    15
100
AcDbCircle
 10
246.6827597436
 20
62.9157637479
 30
0.0
 40
1.675000000000013
100
AcDbArc
 50
171.8920924852
 51
228.3358106515
  0
LINE
  5
A4
330
1F
100
AcDbEntity
  8
0
  6
Continuous
 62
     7
370
    15
100
AcDbLine
 10
245.6615731109
 20
61.5880563157
 30
0.0
 11
245.5692827691
 21
61.6644486319
 31
0.0
  0
ARC
  5
A5
330
1F
100
AcDbEntity
  8
0
  6
Continuous
 62
     7
370
    15
100
AcDbCircle
 10
246.6827597436
 20
62.9157637479
 30
0.0
 40
1.675000000000024
100
AcDbArc
 50
232.4349025517
 51
288.2293128857
  0
LINE
  5
A6
330
1F
100
AcDbEntity
  8
0
  6
Continuous
 62
     7
370
    15
100
AcDbLine
 10
247.3191186775
 20
61.3663527649
 30
0.0
 11
247.2067341198
 21
61.3248284673
 31
0.0
  0
ARC
  5
A7
330
1F
100
AcDbEntity
  8
0
  6
Continuous
 62
     7
370
    15
100
AcDbCircle
 10
246.6827597436
 20
62.9157637479
 30
0.0
 40
1.675
100
AcDbArc
 50
292.328404786
 51
348.7721229523
  0
LINE
  5
A8
330
1F
100
AcDbEntity
  8
0
  6
Continuous
 62
     7
370
    15
100
AcDbLine
 10
248.3401238908
 20
62.6733525162
 30
0.0
 11
248.3256995667
 21
62.5896218
 31
0.0
  0
CIRCLE
  5
A9
330
1F
100
AcDbEntity
  8
0
  6
Continuous
 62
     7
370
    15
100
AcDbCircle
 10
246.6827597436
 20
62.9157637479
 30
0.0
 40
1.799999999999969
  0
SPLINE
  5
AA
330
1F
100
AcDbEntity
  8
0
  6
Continuous
 62
     7
370
    15
100
AcDbSpline
210
0.0
220
0.0
230
1.0
 70
     8
 71
     3
 72
    11
 73
     7
 74
     0
 42
0.00000001
 43
0.00000001
 12
1.0
 22
0.0
 32
0.0
 13
1.0
 23
0.0
 33
0.0
 40
0.0
 40
0.0
 40
0.0
 40
0.0
 40
0.2668991828360662
 40
0.5546109122349709
 40
0.8439027094090256
 40
1.0
 40
1.0
 40
1.0
 40
1.0
 10
245.661573110946
 20
61.58805631568076
 30
0.0
 10
245.6933989048056
 20
61.57379986350501
 30
0.0
 10
245.7595322379148
 20
61.54417525445822
 30
0.0
 10
245.8712367104439
 20
61.54253591936885
 30
0.0
 10
245.9635726826115
 20
61.56969088552889
 30
0.0
 10
246.0109930720197
 20
61.60170781413979
 30
0.0
 10
246.0276126850923
 20
61.61292891485037
 30
0.0
  0
SPLINE
  5
AB
330
1F
100
AcDbEntity
  8
0
  6
Continuous
 62
     7
370
    15
100
AcDbSpline
210
0.0
220
0.0
230
1.0
 70
     8
 71
     3
 72
    12
 73
     8
 74
     0
 42
0.00000001
 43
0.00000001
 12
1.0
 22
0.0
 32
0.0
 13
1.0
 23
0.0
 33
0.0
 40
0.0
 40
0.0
 40
0.0
 40
0.0
 40
0.2058385926744159
 40
0.4120574263802883
 40
0.6141386144178682
 40
0.8132771802873978
 40
1.0
 40
1.0
 40
1.0
 40
1.0
 10
246.0276126850923
 20
61.61292891485037
 30
0.0
 10
246.0834879271186
 20
61.64724120774285
 30
0.0
 10
246.1953416282569
 20
61.71592917785952
 30
0.0
 10
246.3950543539001
 20
61.74195902565572
 30
0.0
 10
246.5878180826124
 20
61.70478788948045
 30
0.0
 10
246.7559819117286
 20
61.6117518222053
 30
0.0
 10
246.8325353472996
 20
61.51588461998852
 30
0.0
 10
246.8695804466088
 20
61.46949336399676
 30
0.0
  0
SPLINE
  5
AC
330
1F
100
AcDbEntity
  8
0
  6
Continuous
 62
     7
370
    15
100
AcDbSpline
210
0.0
220
0.0
230
1.0
 70
     8
 71
     3
 72
    11
 73
     7
 74
     0
 42
0.00000001
 43
0.00000001
 12
1.0
 22
0.0
 32
0.0
 13
1.0
 23
0.0
 33
0.0
 40
0.0
 40
0.0
 40
0.0
 40
0.0
 40
0.2928980945203856
 40
0.5864402929288266
 40
0.8775113951930176
 40
0.9999999999999999
 40
0.9999999999999999
 40
0.9999999999999999
 40
0.9999999999999999
 10
246.8695804466088
 20
61.46949336399676
 30
0.0
 10
246.8935221896488
 20
61.44010419369345
 30
0.0
 10
246.9414583253364
 20
61.38126122419639
 30
0.0
 10
247.0455343647816
 20
61.32983094081695
 30
0.0
 10
247.1377821298699
 20
61.31573393487899
 30
0.0
 10
247.1909783887101
 20
61.32275034011544
 30
0.0
 10
247.2067341197808
 20
61.32482846734466
 30
0.0
  0
SPLINE
  5
AD
330
1F
100
AcDbEntity
  8
0
  6
Continuous
 62
     7
370
    15
100
AcDbSpline
210
0.0
220
0.0
230
1.0
 70
     8
 71
     3
 72
    12
 73
     8
 74
     0
 42
0.00000001
 43
0.00000001
 12
1.0
 22
0.0
 32
0.0
 13
1.0
 23
0.0
 33
0.0
 40
0.0
 40
0.0
 40
0.0
 40
0.0
 40
0.2057902260420887
 40
0.4120338482203682
 40
0.6141337648915498
 40
0.8132655060676973
 40
1.0
 40
1.0
 40
1.0
 40
1.0
 10
247.4811315525849
 20
61.69610091020705
 30
0.0
 10
247.4793519337516
 20
61.76162935493976
 30
0.0
 10
247.4757887752365
 20
61.89283061639124
 30
0.0
 10
247.5530843021915
 20
62.07880469675362
 30
0.0
 10
247.6816665325121
 20
62.22716875951236
 30
0.0
 10
247.8463265502825
 20
62.32629976443706
 30
0.0
 10
247.9676314512839
 20
62.34466582584368
 30
0.0
 10
248.0263352383454
 20
62.35355382087992
 30
0.0
  0
SPLINE
  5
AE
330
1F
100
AcDbEntity
  8
0
  6
Continuous
 62
     7
370
    15
100
AcDbSpline
210
0.0
220
0.0
230
1.0
 70
     8
 71
     3
 72
    11
 73
     7
 74
     0
 42
0.00000001
 43
0.00000001
 12
1.0
 22
0.0
 32
0.0
 13
1.0
 23
0.0
 33
0.0
 40
0.0
 40
0.0
 40
0.0
 40
0.0
 40
0.2802354612477647
 40
0.5612856277856275
 40
0.8399901441422394
 40
0.9999999999999999
 40
0.9999999999999999
 40
0.9999999999999999
 40
0.9999999999999999
 10
248.0263352383454
 20
62.35355382087992
 30
0.0
 10
248.0637343183296
 20
62.3595854973498
 30
0.0
 10
248.1386412055383
 20
62.37166638568176
 30
0.0
 10
248.2351382991752
 20
62.43605263476024
 30
0.0
 10
248.2974076447865
 20
62.51342938097705
 30
0.0
 10
248.3181385125085
 20
62.56925927346617
 30
0.0
 10
248.3256995667298
 20
62.58962180001082
 30
0.0
  0
SPLINE
  5
AF
330
1F
100
AcDbEntity
  8
0
  6
Continuous
 62
     7
370
    15
100
AcDbSpline
210
0.0
220
0.0
230
1.0
 70
     8
 71
     3
 72
    11
 73
     7
 74
     0
 42
0.00000001
 43
0.00000001
 12
1.0
 22
0.0
 32
0.0
 13
1.0
 23
0.0
 33
0.0
 40
0.0
 40
0.0
 40
0.0
 40
0.0
 40
0.2657607194148847
 40
0.5530050889545043
 40
0.841821380252036
 40
1.0
 40
1.0
 40
1.0
 40
1.0
 10
247.3191186775048
 20
61.36635276490243
 30
0.0
 10
247.3473442508163
 20
61.38667201654238
 30
0.0
 10
247.4060771053717
 20
61.42895309399196
 30
0.0
 10
247.4635578513398
 20
61.52463126113159
 30
0.0
 10
247.4865410811231
 20
61.61841452157202
 30
0.0
 10
247.4825454805149
 20
61.67579545218184
 30
0.0
 10
247.4811315525849
 20
61.69610091020705
 30
0.0
  0
SPLINE
  5
B0
330
1F
100
AcDbEntity
  8
0
  6
Continuous
 62
     7
370
    15
100
AcDbSpline
210
0.0
220
0.0
230
1.0
 70
     8
 71
     3
 72
    11
 73
     7
 74
     0
 42
0.00000001
 43
0.00000001
 12
1.0
 22
0.0
 32
0.0
 13
1.0
 23
0.0
 33
0.0
 40
0.0
 40
0.0
 40
0.0
 40
0.0
 40
0.2431084357955591
 40
0.5182777137558241
 40
0.794778140298678
 40
1.0
 40
1.0
 40
1.0
 40
1.0
 10
245.0245037664254
 20
63.15200217360517
 30
0.0
 10
245.0260433986472
 20
63.11887966775261
 30
0.0
 10
245.0293257078987
 20
63.04826650062432
 30
0.0
 10
245.0763198791069
 20
62.9489608143238
 30
0.0
 10
245.1465034841957
 20
62.87215843786861
 30
0.0
 10
245.204228992908
 20
62.84268478284245
 30
0.0
 10
245.2288210381349
 20
62.83012850618807
 30
0.0
  0
SPLINE
  5
B1
330
1F
100
AcDbEntity
  8
0
  6
Continuous
 62
     7
370
    15
100
AcDbSpline
210
0.0
220
0.0
230
1.0
 70
     8
 71
     3
 72
    12
 73
     8
 74
     0
 42
0.00000001
 43
0.00000001
 12
1.0
 22
0.0
 32
0.0
 13
1.0
 23
0.0
 33
0.0
 40
0.0
 40
0.0
 40
0.0
 40
0.0
 40
0.2058192819366852
 40
0.4120214906467171
 40
0.6140772494754617
 40
0.8132116718521571
 40
0.9999999999999999
 40
0.9999999999999999
 40
0.9999999999999999
 40
0.9999999999999999
 10
245.2288210381349
 20
62.83012850618807
 30
0.0
 10
245.2864704726562
 20
62.79889789129552
 30
0.0
 10
245.4018765984718
 20
62.73637855695148
 30
0.0
 10
245.5242724948377
 20
62.57645202490834
 30
0.0
 10
245.5884685459983
 20
62.39094552417671
 30
0.0
 10
245.5920014676205
 20
62.19878452723295
 30
0.0
 10
245.5472466464452
 20
62.08453653669361
 30
0.0
 10
245.5255851138909
 20
62.02924000100585
 30
0.0
  0
SPLINE
  5
B2
330
1F
100
AcDbEntity
  8
0
  6
Continuous
 62
     7
370
    15
100
AcDbSpline
210
0.0
220
0.0
230
1.0
 70
     8
 71
     3
 72
    11
 73
     7
 74
     0
 42
0.00000001
 43
0.00000001
 12
1.0
 22
0.0
 32
0.0
 13
1.0
 23
0.0
 33
0.0
 40
0.0
 40
0.0
 40
0.0
 40
0.0
 40
0.2908624884343682
 40
0.5839555198024377
 40
0.8745995384259109
 40
1.0
 40
1.0
 40
1.0
 40
1.0
 10
245.5255851138909
 20
62.02924000100585
 30
0.0
 10
245.5121613659537
 20
61.99401125700789
 30
0.0
 10
245.4852109271171
 20
61.92328360964419
 30
0.0
 10
245.4924840809713
 20
61.80763330542252
 30
0.0
 10
245.5263857742944
 20
61.72023221760729
 30
0.0
 10
245.5593476814537
 20
61.67736829717527
 30
0.0
 10
245.5692827690919
 20
61.6644486319402
 30
0.0
  0
SPLINE
  5
B3
330
1F
100
AcDbEntity
  8
0
  6
Continuous
 62
     7
370
    15
100
AcDbSpline
210
0.0
220
0.0
230
1.0
 70
     8
 71
     3
 72
    12
 73
     8
 74
     0
 42
0.00000001
 43
0.00000001
 12
1.0
 22
0.0
 32
0.0
 13
1.0
 23
0.0
 33
0.0
 40
0.0
 40
0.0
 40
0.0
 40
0.0
 40
0.2058545563093152
 40
0.4121031819591012
 40
0.6141938110939733
 40
0.8133183258239046
 40
1.0
 40
1.0
 40
1.0
 40
1.0
 10
248.1358587731202
 20
62.99647246052164
 30
0.0
 10
248.078204259812
 20
63.02770969329756
 30
0.0
 10
247.962784864611
 20
63.09024395658201
 30
0.0
 10
247.8403748951111
 20
63.25019516359003
 30
0.0
 10
247.7761944118407
 20
63.4357367953147
 30
0.0
 10
247.7727057283869
 20
63.62787822687545
 30
0.0
 10
247.8174460220389
 20
63.74209460870027
 30
0.0
 10
247.8390946973641
 20
63.79736097297983
 30
0.0
  0
SPLINE
  5
B4
330
1F
100
AcDbEntity
  8
0
  6
Continuous
 62
     7
370
    15
100
AcDbSpline
210
0.0
220
0.0
230
1.0
 70
     8
 71
     3
 72
    11
 73
     7
 74
     0
 42
0.00000001
 43
0.00000001
 12
1.0
 22
0.0
 32
0.0
 13
1.0
 23
0.0
 33
0.0
 40
0.0
 40
0.0
 40
0.0
 40
0.0
 40
0.2524758320411289
 40
0.5068868560610058
 40
0.7591740908102187
 40
1.0
 40
1.0
 40
1.0
 40
1.0
 10
247.8390946973641
 20
63.79736097297983
 30
0.0
 10
247.8525253286348
 20
63.83259974874192
 30
0.0
 10
247.8794895350885
 20
63.90334740055903
 30
0.0
 10
247.8721125081604
 20
64.01881420223829
 30
0.0
 10
247.8313718631828
 20
64.12561341763927
 30
0.0
 10
247.7788333081296
 20
64.1783529970292
 30
0.0
 10
247.7531746019204
 20
64.20410987922342
 30
0.0
  0
SPLINE
  5
B5
330
1F
100
AcDbEntity
  8
0
  6
Continuous
 62
     7
370
    15
100
AcDbSpline
210
0.0
220
0.0
230
1.0
 70
     8
 71
     3
 72
    11
 73
     7
 74
     0
 42
0.00000001
 43
0.00000001
 12
1.0
 22
0.0
 32
0.0
 13
1.0
 23
0.0
 33
0.0
 40
0.0
 40
0.0
 40
0.0
 40
0.0
 40
0.2423600082196787
 40
0.5166807025142887
 40
0.7923244800564908
 40
1.0
 40
1.0
 40
1.0
 40
1.0
 10
248.3401238907655
 20
62.67335251615269
 30
0.0
 10
248.3387074877998
 20
62.70648073355463
 30
0.0
 10
248.3356878968834
 20
62.77710587821447
 30
0.0
 10
248.2890649884976
 20
62.87658127826409
 30
0.0
 10
248.2188871501037
 20
62.95397540413781
 30
0.0
 10
248.1608125946615
 20
62.98370015303399
 30
0.0
 10
248.1358587731202
 20
62.99647246052164
 30
0.0
  0
SPLINE
  5
B6
330
1F
100
AcDbEntity
  8
0
  6
Continuous
 62
     7
370
    15
100
AcDbSpline
210
0.0
220
0.0
230
1.0
 70
     8
 71
     3
 72
    12
 73
     8
 74
     0
 42
0.00000001
 43
0.00000001
 12
1.0
 22
0.0
 32
0.0
 13
1.0
 23
0.0
 33
0.0
 40
0.0
 40
0.0
 40
0.0
 40
0.0
 40
0.0091651212415528
 40
0.2576724451107595
 40
0.506185120151773
 40
0.7560332831535778
 40
1.0
 40
1.0
 40
1.0
 40
1.0
 10
246.0992947210153
 20
64.48585847393962
 30
0.0
 10
246.0980123250315
 20
64.48537554986136
 30
0.0
 10
246.0619584529628
 20
64.47179839962322
 30
0.0
 10
245.9953067062405
 20
64.43226698763675
 30
0.0
 10
245.9227116358572
 20
64.34568251489445
 30
0.0
 10
245.8802889214583
 20
64.24048098398592
 30
0.0
 10
245.8824704738593
 20
64.16686808297987
 30
0.0
 10
245.8835482586701
 20
64.13050000557097
 30
0.0
  0
SPLINE
  5
B7
330
1F
100
AcDbEntity
  8
0
  6
Continuous
 62
     7
370
    15
100
AcDbSpline
210
0.0
220
0.0
230
1.0
 70
     8
 71
     3
 72
    12
 73
     8
 74
     0
 42
0.00000001
 43
0.00000001
 12
1.0
 22
0.0
 32
0.0
 13
1.0
 23
0.0
 33
0.0
 40
0.0
 40
0.0
 40
0.0
 40
0.0
 40
0.2057526471957042
 40
0.4119592101126881
 40
0.6140175808588818
 40
0.8131412409320166
 40
1.0
 40
1.0
 40
1.0
 40
1.0
 10
245.8835482586701
 20
64.13050000557097
 30
0.0
 10
245.8853293857291
 20
64.06498089391681
 30
0.0
 10
245.8888955692328
 20
63.93379812736577
 30
0.0
 10
245.8116224133326
 20
63.7478458246803
 30
0.0
 10
245.6830773862504
 20
63.59948803536987
 30
0.0
 10
245.5184217857523
 20
63.5003202181009
 30
0.0
 10
245.3970851205661
 20
63.48194353010314
 30
0.0
 10
245.3383445729096
 20
63.47304715310575
 30
0.0
  0
SPLINE
  5
B8
330
1F
100
AcDbEntity
  8
0
  6
Continuous
 62
     7
370
    15
100
AcDbSpline
210
0.0
220
0.0
230
1.0
 70
     8
 71
     3
 72
    11
 73
     7
 74
     0
 42
0.00000001
 43
0.00000001
 12
1.0
 22
0.0
 32
0.0
 13
1.0
 23
0.0
 33
0.0
 40
0.0
 40
0.0
 40
0.0
 40
0.0
 40
0.2794027283780181
 40
0.5596245152792493
 40
0.837501280866932
 40
1.0
 40
1.0
 40
1.0
 40
1.0
 10
245.3383445729096
 20
63.47304715310575
 30
0.0
 10
245.3009425851479
 20
63.46701454958826
 30
0.0
 10
245.226028967113
 20
63.45493165820442
 30
0.0
 10
245.1295301572511
 20
63.39053759462214
 30
0.0
 10
245.0669870700288
 20
63.31283135735961
 30
0.0
 10
245.0462625293605
 20
63.25655280951383
 30
0.0
 10
245.038615166076
 20
63.23578600423762
 30
0.0
  0
SPLINE
  5
B9
330
1F
100
AcDbEntity
  8
0
  6
Continuous
 62
     7
370
    15
100
AcDbSpline
210
0.0
220
0.0
230
1.0
 70
     8
 71
     3
 72
    12
 73
     8
 74
     0
 42
0.00000001
 43
0.00000001
 12
1.0
 22
0.0
 32
0.0
 13
1.0
 23
0.0
 33
0.0
 40
0.0
 40
0.0
 40
0.0
 40
0.0
 40
0.2058455312183483
 40
0.4120703034984139
 40
0.6141410114384249
 40
0.8132593457346325
 40
1.0
 40
1.0
 40
1.0
 40
1.0
 10
247.3370745767434
 20
64.21367200092764
 30
0.0
 10
247.2811969110617
 20
64.179359493954
 30
0.0
 10
247.169338633061
 20
64.11067126410154
 30
0.0
 10
246.9696236371548
 20
64.08464172511717
 30
0.0
 10
246.776864328568
 20
64.12181378996691
 30
0.0
 10
246.6087043056804
 20
64.21484784420444
 30
0.0
 10
246.5321490926408
 20
64.31071278664058
 30
0.0
 10
246.4950993646463
 20
64.35710766819658
 30
0.0
  0
SPLINE
  5
BA
330
1F
100
AcDbEntity
  8
0
  6
Continuous
 62
     7
370
    15
100
AcDbSpline
210
0.0
220
0.0
230
1.0
 70
     8
 71
     3
 72
    11
 73
     7
 74
     0
 42
0.00000001
 43
0.00000001
 12
1.0
 22
0.0
 32
0.0
 13
1.0
 23
0.0
 33
0.0
 40
0.0
 40
0.0
 40
0.0
 40
0.0
 40
0.2535132175130652
 40
0.5075699165325702
 40
0.7595027678814243
 40
1.0
 40
1.0
 40
1.0
 40
1.0
 10
246.4950993646463
 20
64.35710766819658
 30
0.0
 10
246.4711483412974
 20
64.38651024408726
 30
0.0
 10
246.4231949484081
 20
64.44537842909583
 30
0.0
 10
246.3192160940765
 20
64.49661964226873
 30
0.0
 10
246.2063230135708
 20
64.51452711765532
 30
0.0
 10
246.1344141763427
 20
64.49526558609877
 30
0.0
 10
246.0992947210153
 20
64.48585847393962
 30
0.0
  0
SPLINE
  5
BB
330
1F
100
AcDbEntity
  8
0
  6
Continuous
 62
     7
370
    15
100
AcDbSpline
210
0.0
220
0.0
230
1.0
 70
     8
 71
     3
 72
    12
 73
     8
 74
     0
 42
0.00000001
 43
0.00000001
 12
1.0
 22
0.0
 32
0.0
 13
1.0
 23
0.0
 33
0.0
 40
0.0
 40
0.0
 40
0.0
 40
0.0
 40
0.0091640392100663
 40
0.2573301688693957
 40
0.5054989368692984
 40
0.7550009050038144
 40
1.0
 40
1.0
 40
1.0
 40
1.0
 10
247.7531746019204
 20
64.20410987922342
 30
0.0
 10
247.7521161009724
 20
64.20498287917938
 30
0.0
 10
247.7223929383513
 20
64.22949709402965
 30
0.0
 10
247.6548736462077
 20
64.2675480047732
 30
0.0
 10
247.5436392649108
 20
64.28734386671279
 30
0.0
 10
247.4310739335538
 20
64.27166425275942
 30
0.0
 10
247.3682169059176
 20
64.23288504511626
 30
0.0
 10
247.3370745767434
 20
64.21367200092764
 30
0.0
  0
CIRCLE
  5
BC
330
1F
100
AcDbEntity
  8
0
  6
Continuous
 62
     7
370
    15
100
AcDbCircle
 10
246.6827597436
 20
62.9157637479
 30
0.0
 40
2.624999999999977
  0
ARC
  5
BD
330
1F
100
AcDbEntity
  8
0
  6
Continuous
 62
     7
370
    15
100
AcDbCircle
 10
232.2752244477
 20
62.9157637479
 30
0.0
 40
0.3800000000000021
100
AcDbArc
 50
107.5
 51
252.5
  0
LINE
  5
BE
330
1F
100
AcDbEntity
  8
0
  6
Continuous
 62
     7
370
    15
100
AcDbLine
 10
261.4268973459
 20
63.2921037497
 30
0.0
 11
246.9025865187
 21
67.8716031136
 31
0.0
  0
LINE
  5
BF
330
1F
100
AcDbEntity
  8
0
  6
Continuous
 62
     7
370
    15
100
AcDbLine
 10
246.9025865187
 20
57.9599243822
 30
0.0
 11
261.4268973459
 21
62.5394237461
 31
0.0
  0
LINE
  5
C0
330
1F
100
AcDbEntity
  8
0
  6
Continuous
 62
     7
370
    15
100
AcDbLine
 10
232.1386203159
 20
62.5394237461
 30
0.0
 11
246.6629385938
 21
57.9599243822
 31
0.0
  0
LINE
  5
C1
330
1F
100
AcDbEntity
  8
0
  6
Continuous
 62
     7
370
    15
100
AcDbLine
 10
246.6629385938
 20
67.8716031136
 30
0.0
 11
232.1386203159
 21
63.2921037497
 31
0.0
  0
LINE
  5
C2
330
1F
100
AcDbEntity
  8
0
  6
Continuous
 62
     7
370
    15
100
AcDbLine
 10
246.8970283855
 20
57.9791431548
 30
0.0
 11
261.4045605053
 21
62.5533512968
 31
0.0
  0
ARC
  5
C3
330
1F
100
AcDbEntity
  8
0
  6
Continuous
 62
     7
370
    15
100
AcDbCircle
 10
261.2902950395
 20
62.9157637479
 30
0.0
 40
0.3800000000000192
100
AcDbArc
 50
287.5
 51
72.5
  0
LINE
  5
C4
330
1F
100
AcDbEntity
  8
0
  6
Continuous
 62
     7
370
    15
100
AcDbLine
 10
261.4045605053
 20
63.278176199
 30
0.0
 11
246.8970283855
 21
67.852384341
 31
0.0
  0
ARC
  5
C5
330
1F
100
AcDbEntity
  8
0
  6
Continuous
 62
     7
370
    15
100
AcDbCircle
 10
246.7827597436
 20
67.4899720563
 30
0.0
 40
0.3799999999999971
100
AcDbArc
 50
72.5
 51
107.5
  0
LINE
  5
C6
330
1F
100
AcDbEntity
  8
0
  6
Continuous
 62
     7
370
    15
100
AcDbLine
 10
246.6684892763
 20
67.852384341
 30
0.0
 11
232.1609571565
 21
63.278176199
 31
0.0
  0
LINE
  5
C7
330
1F
100
AcDbEntity
  8
0
  6
Continuous
 62
     7
370
    15
100
AcDbLine
 10
232.1609571565
 20
62.5533512968
 30
0.0
 11
246.6684892763
 21
57.9791431548
 31
0.0
  0
ARC
  5
C8
330
1F
100
AcDbEntity
  8
0
  6
Continuous
 62
     7
370
    15
100
AcDbCircle
 10
246.7827597436
 20
58.3415554395
 30
0.0
 40
0.3799999999999971
100
AcDbArc
 50
252.5
 51
287.5
  0
SPLINE
  5
C9
330
1F
100
AcDbEntity
  8
0
  6
Continuous
 62
     7
370
    15
100
AcDbSpline
210
0.0
220
0.0
230
1.0
 70
     8
 71
     3
 72
    10
 73
     6
 74
     0
 42
0.00000001
 43
0.00000001
 12
1.0
 22
0.0
 32
0.0
 13
1.0
 23
0.0
 33
0.0
 40
0.0
 40
0.0
 40
0.0
 40
0.0
 40
0.2724547382439516
 40
0.5447962613900793
 40
1.0
 40
1.0
 40
1.0
 40
1.0
 10
246.6629385937532
 20
57.95992438217046
 30
0.0
 10
246.6843092846778
 20
57.95434811722753
 30
0.0
 10
246.7270417862085
 20
57.94319790448757
 30
0.0
 10
246.8087068119964
 20
57.93840341710675
 30
0.0
 10
246.8664551049411
 20
57.9516416241614
 30
0.0
 10
246.9025865186532
 20
57.95992438217046
 30
0.0
  0
SPLINE
  5
CA
330
1F
100
AcDbEntity
  8
0
  6
Continuous
 62
     7
370
    15
100
AcDbSpline
210
0.0
220
0.0
230
1.0
 70
     8
 71
     3
 72
    10
 73
     6
 74
     0
 42
0.00000001
 43
0.00000001
 12
1.0
 22
0.0
 32
0.0
 13
1.0
 23
0.0
 33
0.0
 40
0.0
 40
0.0
 40
0.0
 40
0.0
 40
0.2724847464661067
 40
0.5448263599921515
 40
0.9999999999999999
 40
0.9999999999999999
 40
0.9999999999999999
 40
0.9999999999999999
 10
246.9025865186532
 20
67.87160311361195
 30
0.0
 10
246.8812133391217
 20
67.87717933330264
 30
0.0
 10
246.8384782071313
 20
67.88832884356324
 30
0.0
 10
246.7568133308971
 20
67.89312449314257
 30
0.0
 10
246.6990675419862
 20
67.8798859043885
 30
0.0
 10
246.6629385937532
 20
67.87160311361195
 30
0.0
  0
SPLINE
  5
CB
330
1F
100
AcDbEntity
  8
0
  6
Continuous
 62
     7
370
    15
100
AcDbSpline
210
0.0
220
0.0
230
1.0
 70
     8
 71
     3
 72
    15
 73
    11
 74
     0
 42
0.00000001
 43
0.00000001
 12
1.0
 22
0.0
 32
0.0
 13
1.0
 23
0.0
 33
0.0
 40
0.0
 40
0.0
 40
0.0
 40
0.0
 40
0.1368959897867314
 40
0.273610741414553
 40
0.4079003003005829
 40
0.5393383281210568
 40
0.6692101790940818
 40
0.799672664510243
 40
0.9324852594138735
 40
1.0
 40
1.0
 40
1.0
 40
1.0
 10
261.4268973459085
 20
62.53942374606969
 30
0.0
 10
261.4692562406892
 20
62.55748062986671
 30
0.0
 10
261.5539179508277
 20
62.59357049174681
 30
0.0
 10
261.648365166427
 20
62.69678338920184
 30
0.0
 10
261.7034525330114
 20
62.82142366183695
 30
0.0
 10
261.7125655869766
 20
62.95565753607746
 30
0.0
 10
261.6768841503635
 20
63.08385612773569
 30
0.0
 10
261.6008449041366
 20
63.1930977804917
 30
0.0
 10
261.51071985748
 20
63.26102099975112
 30
0.0
 10
261.4480264202008
 20
63.28426874547774
 30
0.0
 10
261.4268973459085
 20
63.29210374971272
 30
0.0
  0
SPLINE
  5
CC
330
1F
100
AcDbEntity
  8
0
  6
Continuous
 62
     7
370
    15
100
AcDbSpline
210
0.0
220
0.0
230
1.0
 70
     8
 71
     3
 72
    15
 73
    11
 74
     0
 42
0.00000001
 43
0.00000001
 12
1.0
 22
0.0
 32
0.0
 13
1.0
 23
0.0
 33
0.0
 40
0.0
 40
0.0
 40
0.0
 40
0.0
 40
0.1369034599989436
 40
0.2736139345938701
 40
0.4079013327909065
 40
0.5393401654198973
 40
0.6692108164426932
 40
0.7996783375556569
 40
0.9324917456844195
 40
1.0
 40
1.0
 40
1.0
 40
1.0
 10
232.1386203159173
 20
63.29210374971272
 30
0.0
 10
232.0962583683598
 20
63.27404771370112
 30
0.0
 10
232.0115941885914
 20
63.2379610942954
 30
0.0
 10
231.917151598463
 20
63.13474306770639
 30
0.0
 10
231.8620734867639
 20
63.01010195768235
 30
0.0
 10
231.8529620451783
 20
62.87587178541067
 30
0.0
 10
231.8886301335089
 20
62.74766756309934
 30
0.0
 10
231.9646816138715
 20
62.63843180612115
 30
0.0
 10
232.0548035623289
 20
62.57050897100157
 30
0.0
 10
232.1174937637173
 20
62.54725897708325
 30
0.0
 10
232.1386203159173
 20
62.53942374606969
 30
0.0
  0
LINE
  5
CD
330
1F
100
AcDbEntity
  8
0
  6
Continuous
 62
     7
370
    15
100
AcDbLine
 10
235.6194943179
 20
62.9157637479
 30
0.0
 11
232.2752267112
 21
62.9157637479
 31
0.0
  0
LINE
  5
CE
330
1F
100
AcDbEntity
  8
0
  6
Continuous
 62
     7
370
    15
100
AcDbLine
 10
235.6194943179
 20
62.9157637479
 30
0.0
 11
236.8173167099
 21
62.5380901212
 31
0.0
  0
LINE
  5
CF
330
1F
100
AcDbEntity
  8
0
  6
Continuous
 62
     7
370
    15
100
AcDbLine
 10
246.7827588309
 20
58.47817373
 30
0.0
 11
246.7827588309
 21
58.3415552275
 31
0.0
  0
LINE
  5
D0
330
1F
100
AcDbEntity
  8
0
  6
Continuous
 62
     7
370
    15
100
AcDbLine
 10
246.7827588309
 20
67.3533537658
 30
0.0
 11
246.7827588309
 21
67.4899722682
 31
0.0
  0
LINE
  5
D1
330
1F
100
AcDbEntity
  8
0
  6
Continuous
 62
     7
370
    15
100
AcDbLine
 10
236.8173167099
 20
63.2934373745
 30
0.0
 11
235.6194943179
 21
62.9157637479
 31
0.0
  0
ARC
  5
D2
330
1F
100
AcDbEntity
  8
0
  6
Continuous
 62
     7
370
    15
100
AcDbCircle
 10
239.6578555897
 20
62.9157637479
 30
0.0
 40
1.000000000000001
100
AcDbArc
 50
107.5
 51
252.5
  0
ARC
  5
D3
330
1F
100
AcDbEntity
  8
0
  6
Continuous
 62
     7
370
    15
100
AcDbCircle
 10
239.6578555897
 20
62.9157637479
 30
0.0
 40
2.385640646055124
100
AcDbArc
 50
179.0810823052
 51
180.9189176948
  0
LINE
  5
D4
330
1F
100
AcDbEntity
  8
0
  6
Continuous
 62
     7
370
    15
100
AcDbLine
 10
246.482053398
 20
66.1159543553
 30
0.0
 11
239.3571525801
 21
63.8694806723
 31
0.0
  0
ARC
  5
D5
330
1F
100
AcDbEntity
  8
0
  6
Continuous
 62
     7
370
    15
100
AcDbCircle
 10
246.7827597436
 20
65.1622373985
 30
0.0
 40
1.000000000000003
100
AcDbArc
 50
72.5
 51
107.5
  0
LINE
  5
D6
330
1F
100
AcDbEntity
  8
0
  6
Continuous
 62
     7
370
    15
100
AcDbLine
 10
254.2083725323
 20
63.8694806723
 30
0.0
 11
247.0834642638
 21
66.1159543553
 31
0.0
  0
ARC
  5
D7
330
1F
100
AcDbEntity
  8
0
  6
Continuous
 62
     7
370
    15
100
AcDbCircle
 10
253.9076638975
 20
62.9157637479
 30
0.0
 40
1.000000000295352
100
AcDbArc
 50
287.5
 51
72.5
  0
LINE
  5
D8
330
1F
100
AcDbEntity
  8
0
  6
Continuous
 62
     7
370
    15
100
AcDbLine
 10
247.0834642638
 20
59.7155731404
 30
0.0
 11
254.2083725323
 21
61.9620468235
 31
0.0
  0
ARC
  5
D9
330
1F
100
AcDbEntity
  8
0
  6
Continuous
 62
     7
370
    15
100
AcDbCircle
 10
246.7827597436
 20
60.6692900973
 30
0.0
 40
0.999999999999996
100
AcDbArc
 50
252.5
 51
287.5
  0
LINE
  5
DA
330
1F
100
AcDbEntity
  8
0
  6
Continuous
 62
     7
370
    15
100
AcDbLine
 10
239.3571525801
 20
61.9620468235
 30
0.0
 11
246.482053398
 21
59.7155731404
 31
0.0
  0
CIRCLE
  5
DB
330
1F
100
AcDbEntity
  8
0
  6
Continuous
 62
     7
370
    15
100
AcDbCircle
 10
246.7827597436
 20
62.9157637479
 30
0.0
 40
3.050000000000011
  0
LINE
  5
DC
330
1F
100
AcDbEntity
  8
0
  6
Continuous
 62
     7
370
    15
100
AcDbLine
 10
257.9460307945
 20
62.9157637479
 30
0.0
 11
261.2902984012
 21
62.9157637479
 31
0.0
  0
LINE
  5
DD
330
1F
100
AcDbEntity
  8
0
  6
Continuous
 62
     7
370
    15
100
AcDbLine
 10
257.9460307945
 20
62.9157637479
 30
0.0
 11
256.7482009519
 21
63.2934373745
 31
0.0
  0
LINE
  5
DE
330
1F
100
AcDbEntity
  8
0
  6
Continuous
 62
     7
370
    15
100
AcDbLine
 10
256.7482009519
 20
62.5380901212
 30
0.0
 11
257.9460307945
 21
62.9157637479
 31
0.0
  0
ARC
  5
DF
330
1F
100
AcDbEntity
  8
0
  6
Continuous
 62
     7
370
    15
100
AcDbCircle
 10
253.9076638975
 20
62.9157637479
 30
0.0
 40
2.385640646055123
100
AcDbArc
 50
359.0810823052
 51
0.9189176948
  0
SPLINE
  5
E0
330
1F
100
AcDbEntity
  8
0
  6
Continuous
 62
     7
370
    15
100
AcDbSpline
210
0.0
220
0.0
230
1.0
 70
     8
 71
     3
 72
    14
 73
    10
 74
     0
 42
0.00000001
 43
0.00000001
 12
1.0
 22
0.0
 32
0.0
 13
1.0
 23
0.0
 33
0.0
 40
0.0
 40
0.0
 40
0.0
 40
0.0
 40
0.2086066199951067
 40
0.3652087115082249
 40
0.4768575290307707
 40
0.589026435779798
 40
0.7185676974748817
 40
0.9352581264378879
 40
1.0
 40
1.0
 40
1.0
 40
1.0
 10
256.7482009519418
 20
63.29343737453574
 30
0.0
 10
256.7004020745792
 20
63.30611551094897
 30
0.0
 10
256.6167203275015
 20
63.32831119133492
 30
0.0
 10
256.5021298328496
 20
63.32325600422421
 30
0.0
 10
256.4169136771994
 20
63.29028976343594
 30
0.0
 10
256.3539726248044
 20
63.23244936952275
 30
0.0
 10
256.3056594013289
 20
63.13351016626577
 30
0.0
 10
256.2929295499795
 20
63.03566640900078
 30
0.0
 10
256.2929870518251
 20
62.96929232032723
 30
0.0
 10
256.2930002797921
 20
62.95402334509537
 30
0.0
  0
SPLINE
  5
E1
330
1F
100
AcDbEntity
  8
0
  6
Continuous
 62
     7
370
    15
100
AcDbSpline
210
0.0
220
0.0
230
1.0
 70
     8
 71
     3
 72
    14
 73
    10
 74
     0
 42
0.00000001
 43
0.00000001
 12
1.0
 22
0.0
 32
0.0
 13
1.0
 23
0.0
 33
0.0
 40
0.0
 40
0.0
 40
0.0
 40
0.0
 40
0.2055167383532974
 40
0.3570144505588816
 40
0.4668463989082303
 40
0.577083397951025
 40
0.7093623176624662
 40
0.924063166699758
 40
1.0
 40
1.0
 40
1.0
 40
1.0
 10
256.2930002797921
 20
62.87750415068705
 30
0.0
 10
256.2941235595231
 20
62.82882133481068
 30
0.0
 10
256.2960748706387
 20
62.74425173283557
 30
0.0
 10
256.3306644984187
 20
62.63748912313176
 30
0.0
 10
256.3843084321267
 20
62.56607278838366
 30
0.0
 10
256.456665706559
 20
62.52122739546212
 30
0.0
 10
256.5644767585264
 20
62.50048114031473
 30
0.0
 10
256.6652347105449
 20
62.51371980025792
 30
0.0
 10
256.7310142862743
 20
62.53304174793252
 30
0.0
 10
256.7482009519418
 20
62.53809012124667
 30
0.0
  0
SPLINE
  5
E2
330
1F
100
AcDbEntity
  8
0
  6
Continuous
 62
     7
370
    15
100
AcDbSpline
210
0.0
220
0.0
230
1.0
 70
     8
 71
     3
 72
    14
 73
    10
 74
     0
 42
0.00000001
 43
0.00000001
 12
1.0
 22
0.0
 32
0.0
 13
1.0
 23
0.0
 33
0.0
 40
0.0
 40
0.0
 40
0.0
 40
0.0
 40
0.2086056052500776
 40
0.3652069349887423
 40
0.4768552094073225
 40
0.5890235705224646
 40
0.7185690664728072
 40
0.9352584413679431
 40
0.9999999999999999
 40
0.9999999999999999
 40
0.9999999999999999
 40
0.9999999999999999
 10
236.817316709884
 20
62.53809012124667
 30
0.0
 10
236.8651156121998
 20
62.52541197166145
 30
0.0
 10
236.948797402963
 20
62.50321626821525
 30
0.0
 10
237.0633876550705
 20
62.50827158335743
 30
0.0
 10
237.1486044360103
 20
62.54123749407538
 30
0.0
 10
237.2115440772298
 20
62.59907988652308
 30
0.0
 10
237.2598692844492
 20
62.69801421141821
 30
0.0
 10
237.2725952823193
 20
62.79586123420391
 30
0.0
 10
237.2725380081952
 20
62.86223520302625
 30
0.0
 10
237.2725248326142
 20
62.87750415068705
 30
0.0
  0
SPLINE
  5
E3
330
1F
100
AcDbEntity
  8
0
  6
Continuous
 62
     7
370
    15
100
AcDbSpline
210
0.0
220
0.0
230
1.0
 70
     8
 71
     3
 72
    14
 73
    10
 74
     0
 42
0.00000001
 43
0.00000001
 12
1.0
 22
0.0
 32
0.0
 13
1.0
 23
0.0
 33
0.0
 40
0.0
 40
0.0
 40
0.0
 40
0.0
 40
0.2055174665971675
 40
0.3570151031625847
 40
0.4668469966747559
 40
0.5770839406781384
 40
0.7093627943450205
 40
0.9240530699913401
 40
1.0
 40
1.0
 40
1.0
 40
1.0
 10
237.2725248326142
 20
62.95402334509537
 30
0.0
 10
237.2713983243312
 20
63.00270610430415
 30
0.0
 10
237.2694414080771
 20
63.0872754627579
 30
0.0
 10
237.2348533994015
 20
63.19403837953121
 30
0.0
 10
237.1812091703225
 20
63.26545473413896
 30
0.0
 10
237.1088519953972
 20
63.31029997414723
 30
0.0
 10
237.0010432311019
 20
63.33104661992447
 30
0.0
 10
236.9002861251179
 20
63.31780485707655
 30
0.0
 10
236.834505867184
 20
63.29848569853827
 30
0.0
 10
236.817316709884
 20
63.29343737453574
 30
0.0
  0
SPLINE
  5
E4
330
1F
100
AcDbEntity
  8
0
  6
Continuous
 62
     7
370
    15
100
AcDbSpline
210
0.0
220
0.0
230
1.0
 70
    24
 71
     3
 72
    11
 73
     7
 74
     0
 42
0.00000001
 43
0.00000001
 12
1.0
 22
0.0
 32
0.0
 13
1.0
 23
0.0
 33
0.0
 40
0.0
 40
0.0
 40
0.0
 40
0.0
 40
0.3241878849073901
 40
0.648220524367283
 40
0.9887961374586687
 40
1.0
 40
1.0
 40
1.0
 40
1.0
 10
246.7827588309129
 20
67.35335376580598
 30
0.0
 10
246.7827588309129
 20
67.28043751802075
 30
0.0
 10
246.7827588309128
 20
67.13463994021261
 30
0.0
 10
246.782758830913
 20
66.88861304892379
 30
0.0
 10
246.7827588309126
 20
66.73118945804096
 30
0.0
 10
246.7827588309129
 20
66.65723423923842
 30
0.0
 10
246.7827588309129
 20
66.65487883148135
 30
0.0
  0
SPLINE
  5
E5
330
1F
100
AcDbEntity
  8
0
  6
Continuous
 62
     7
370
    15
100
AcDbSpline
210
0.0
220
0.0
230
1.0
 70
    24
 71
     3
 72
    11
 73
     7
 74
     0
 42
0.00000001
 43
0.00000001
 12
1.0
 22
0.0
 32
0.0
 13
1.0
 23
0.0
 33
0.0
 40
0.0
 40
0.0
 40
0.0
 40
0.0
 40
0.3241878849073901
 40
0.648220524367283
 40
0.9887961374586687
 40
1.0
 40
1.0
 40
1.0
 40
1.0
 10
246.7827588309129
 20
58.47817372997643
 30
0.0
 10
246.7827588309129
 20
58.55108997776167
 30
0.0
 10
246.7827588309128
 20
58.6968875555698
 30
0.0
 10
246.782758830913
 20
58.94291444685863
 30
0.0
 10
246.7827588309126
 20
59.10033803774145
 30
0.0
 10
246.7827588309129
 20
59.174293256544
 30
0.0
 10
246.7827588309129
 20
59.17664866430106
 30
0.0
  0
LWPOLYLINE
  5
E6
330
1F
100
AcDbEntity
  8
0
  6
Continuous
 62
     7
370
    15
100
AcDbPolyline
 90
        3
 70
   128
 43
0.0
 10
199.9236434687
 20
60.1810146356
 10
199.1738095869
 20
59.9549849751
 10
198.9728450764
 20
59.9290988641
  0
LWPOLYLINE
  5
E7
330
1F
100
AcDbEntity
  8
0
  6
Continuous
 62
     7
370
    15
100
AcDbPolyline
 90
        3
 70
   128
 43
0.0
 10
195.8415076126
 20
61.9753406383
 10
195.7295179356
 20
62.4322464457
 10
195.6903278817
 20
62.9299699551
  0
LINE
  5
E8
330
1F
100
AcDbEntity
  8
0
  6
Continuous
 62
     7
370
    15
100
AcDbLine
 10
200.4272058595
 20
60.469717416
 30
0.0
 11
199.9236434687
 21
60.1810146356
 31
0.0
  0
CIRCLE
  5
E9
330
1F
100
AcDbEntity
  8
0
  6
Continuous
 62
     7
370
    15
100
AcDbCircle
 10
198.6902950395
 20
62.9157637479
 30
0.0
 40
2.860000000000039
  0
CIRCLE
  5
EA
330
1F
100
AcDbEntity
  8
0
  6
Continuous
 62
     7
370
    15
100
AcDbCircle
 10
198.6902950395
 20
62.9157637479
 30
0.0
 40
2.500000000000025
  0
SPLINE
  5
EB
330
1F
100
AcDbEntity
  8
0
  6
HIDDEN
 62
     7
370
     0
100
AcDbSpline
210
0.0
220
0.0
230
1.0
 70
     8
 71
     3
 72
    60
 73
    56
 74
     0
 42
0.00000001
 43
0.00000001
 12
1.0
 22
0.0
 32
0.0
 13
1.0
 23
0.0
 33
0.0
 40
-0.0624999999999998
 40
-0.0624999999999998
 40
0.0
 40
0.0
 40
0.0312499999999999
 40
0.0312499999999999
 40
0.0624999999999998
 40
0.0624999999999998
 40
0.0937499999999997
 40
0.0937499999999997
 40
0.1249999999999996
 40
0.1249999999999996
 40
0.1874999999999993
 40
0.1874999999999993
 40
0.249999999999999
 40
0.249999999999999
 40
0.2812499999999991
 40
0.2812499999999991
 40
0.3124999999999992
 40
0.3124999999999992
 40
0.3437499999999992
 40
0.3437499999999992
 40
0.3749999999999993
 40
0.3749999999999993
 40
0.4062499999999994
 40
0.4062499999999994
 40
0.4374999999999994
 40
0.4374999999999994
 40
0.4687499999999996
 40
0.4687499999999996
 40
0.4999999999999997
 40
0.4999999999999997
 40
0.5624999999999998
 40
0.5624999999999998
 40
0.625
 40
0.625
 40
0.65625
 40
0.65625
 40
0.6875
 40
0.6875
 40
0.71875
 40
0.71875
 40
0.75
 40
0.75
 40
0.7812500000000001
 40
0.7812500000000001
 40
0.8125000000000001
 40
0.8125000000000001
 40
0.8437500000000001
 40
0.8437500000000001
 40
0.8750000000000001
 40
0.8750000000000001
 40
0.9062500000000001
 40
0.9062500000000001
 40
0.9375000000000002
 40
0.9375000000000002
 40
1.0
 40
1.0
 40
1.03125
 40
1.03125
 10
145.6902950395425
 20
62.65143322280449
 30
0.0
 10
145.6902950395425
 20
63.04792901043456
 30
0.0
 10
145.6773231810537
 20
63.1778790714387
 30
0.0
 10
145.6265030113613
 20
63.43353200479878
 30
0.0
 10
145.5880356878943
 20
63.56056151134811
 30
0.0
 10
145.4876374518223
 20
63.80274964247262
 30
0.0
 10
145.4262044208491
 20
63.91761113502549
 30
0.0
 10
145.2810695893041
 20
64.13499133084963
 30
0.0
 10
145.1966144718963
 20
64.23788889804825
 30
0.0
 10
144.919895021538
 20
64.51455593705603
 30
0.0
 10
144.6968181296199
 20
64.66355402753601
 30
0.0
 10
144.2155347673996
 20
64.8630651680007
 30
0.0
 10
143.9523043484086
 20
64.91562327099741
 30
0.0
 10
143.5609021467207
 20
64.91583355337549
 30
0.0
 10
143.4283791186118
 20
64.90284778264837
 30
0.0
 10
143.1718486653708
 20
64.85182063443455
 30
0.0
 10
143.0471618310741
 20
64.81406543528416
 30
0.0
 10
142.8049825688386
 20
64.71392710237542
 30
0.0
 10
142.6878890366885
 20
64.65132143496388
 30
0.0
 10
142.4711740333331
 20
64.50658814169893
 30
0.0
 10
142.3701552064704
 20
64.42396079441936
 30
0.0
 10
142.1833703190182
 20
64.23735574116779
 30
0.0
 10
142.100513437822
 20
64.13624067729161
 30
0.0
 10
141.9556291727482
 20
63.91970787330175
 30
0.0
 10
141.8929916649273
 20
63.80283766570065
 30
0.0
 10
141.7925428415275
 20
63.56053979505048
 30
0.0
 10
141.7546917405103
 20
63.43587579658951
 30
0.0
 10
141.7034701752539
 20
63.17958875252565
 30
0.0
 10
141.6903420486367
 20
63.04701675678005
 30
0.0
 10
141.6902014082965
 20
62.65541256400607
 30
0.0
 10
141.7425261576683
 20
62.39224723268212
 30
0.0
 10
141.9416372197256
 20
61.91074186350898
 30
0.0
 10
142.0904995561828
 20
61.68749032402488
 30
0.0
 10
142.3668205155083
 20
61.41063402513601
 30
0.0
 10
142.4695841638819
 20
61.32612057829231
 30
0.0
 10
142.6869677212613
 20
61.18070330485205
 30
0.0
 10
142.8017664892178
 20
61.11919210579367
 30
0.0
 10
143.0436432126418
 20
61.01866225753884
 30
0.0
 10
143.170796820642
 20
60.98001723432085
 30
0.0
 10
143.4264628300746
 20
60.92896090676986
 30
0.0
 10
143.5563288678306
 20
60.91589604822422
 30
0.0
 10
143.8202813945623
 20
60.91563342742629
 30
0.0
 10
143.9506857179863
 20
60.92851042767032
 30
0.0
 10
144.2063364813657
 20
60.97909643147612
 30
0.0
 10
144.3332020304801
 20
61.01737279609795
 30
0.0
 10
144.575722488426
 20
61.11764366357799
 30
0.0
 10
144.6906491270863
 20
61.17899968771887
 30
0.0
 10
144.9080205959183
 20
61.32384598289168
 30
0.0
 10
145.0110344085805
 20
61.40822349738632
 30
0.0
 10
145.1957349541625
 20
61.59263081757458
 30
0.0
 10
145.278564688419
 20
61.69320388084402
 30
0.0
 10
145.4248171270166
 20
61.91143002142301
 30
0.0
 10
145.487185607809
 20
62.02798513134427
 30
0.0
 10
145.6371417593757
 20
62.38883472537803
 30
0.0
 10
145.6902950395425
 20
62.65143322280449
 30
0.0
 10
145.6902950395425
 20
63.04792901043456
 30
0.0
  0
SPLINE
  5
EC
330
1F
100
AcDbEntity
  8
0
  6
HIDDEN
 62
     7
370
     0
100
AcDbSpline
210
0.0
220
0.0
230
1.0
 70
     8
 71
     3
 72
    12
 73
     8
 74
     0
 42
0.00000001
 43
0.00000001
 12
1.0
 22
0.0
 32
0.0
 13
1.0
 23
0.0
 33
0.0
 40
0.0
 40
0.0
 40
0.0
 40
0.0
 40
0.4999999999999981
 40
0.4999999999999981
 40
0.749999999999999
 40
0.749999999999999
 40
1.0
 40
1.0
 40
1.0
 40
1.0
 10
141.7850391512167
 20
53.00639442720599
 30
0.0
 10
141.8157613931358
 20
53.11895022661517
 30
0.0
 10
141.858598607671
 20
53.23170808635476
 30
0.0
 10
141.9580256318707
 20
53.38124897215111
 30
0.0
 10
141.9977778266874
 20
53.42854170385798
 30
0.0
 10
142.0958192835456
 20
53.50227799717943
 30
0.0
 10
142.1553753391331
 20
53.52769731655513
 30
0.0
 10
142.2180518531089
 20
53.52769731655513
 30
0.0
  0
LINE
  5
ED
330
1F
100
AcDbEntity
  8
0
  6
HIDDEN
 62
     7
370
     0
100
AcDbLine
 10
142.218052036
 20
53.5276969196
 30
0.0
 11
145.1625382517
 21
53.5276969196
 31
0.0
  0
SPLINE
  5
EE
330
1F
100
AcDbEntity
  8
0
  6
HIDDEN
 62
     7
370
     0
100
AcDbSpline
210
0.0
220
0.0
230
1.0
 70
     8
 71
     3
 72
    12
 73
     8
 74
     0
 42
0.00000001
 43
0.00000001
 12
1.0
 22
0.0
 32
0.0
 13
1.0
 23
0.0
 33
0.0
 40
0.0
 40
0.0
 40
0.0
 40
0.0
 40
0.25
 40
0.25
 40
0.5
 40
0.5
 40
1.0
 40
1.0
 40
1.0
 40
1.0
 10
145.162538225976
 20
53.52769731655514
 30
0.0
 10
145.2256182644694
 20
53.52769731655514
 30
0.0
 10
145.2847668866508
 20
53.5023329973402
 30
0.0
 10
145.3832394367199
 20
53.42816813696729
 30
0.0
 10
145.4222760487046
 20
53.38164779641315
 30
0.0
 10
145.5221725154837
 20
53.23150545356791
 30
0.0
 10
145.5645933965503
 20
53.11981224659576
 30
0.0
 10
145.5955509278682
 20
53.006394427206
 30
0.0
  0
ELLIPSE
  5
EF
330
1F
100
AcDbEntity
  8
0
  6
HIDDEN
 62
     7
370
     0
100
AcDbEllipse
 10
129.3431408502
 20
62.9157637479
 30
0.0
 11
-14.75368316065611
 21
31.09325491558116
 31
0.0
210
0.0
220
0.0
230
1.0
 40
0.3419987131
 41
3.300734856217128
 42
4.231496223360778
  0
SPLINE
  5
F0
330
1F
100
AcDbEntity
  8
0
  6
HIDDEN
 62
     7
370
     0
100
AcDbSpline
210
0.0
220
0.0
230
1.0
 70
     8
 71
     3
 72
    12
 73
     8
 74
     0
 42
0.00000001
 43
0.00000001
 12
1.0
 22
0.0
 32
0.0
 13
1.0
 23
0.0
 33
0.0
 40
0.0
 40
0.0
 40
0.0
 40
0.0
 40
0.4999999999999953
 40
0.4999999999999953
 40
0.7499999999999977
 40
0.7499999999999977
 40
1.0
 40
1.0
 40
1.0
 40
1.0
 10
145.5955509278682
 20
33.01502128777399
 30
0.0
 10
145.5648286859492
 20
32.97771930482096
 30
0.0
 10
145.521991471414
 20
32.94110747277455
 30
0.0
 10
145.4225644472142
 20
32.89334268948934
 30
0.0
 10
145.3828122523975
 20
32.87838517400699
 30
0.0
 10
145.2847707955393
 20
32.85519522823783
 30
0.0
 10
145.2252147399519
 20
32.84727178901812
 30
0.0
 10
145.162538225976
 20
32.84727178901812
 30
0.0
  0
LINE
  5
F1
330
1F
100
AcDbEntity
  8
0
  6
HIDDEN
 62
     7
370
     0
100
AcDbLine
 10
145.1625382517
 20
32.847271231
 30
0.0
 11
142.218052036
 21
32.847271231
 31
0.0
  0
SPLINE
  5
F2
330
1F
100
AcDbEntity
  8
0
  6
HIDDEN
 62
     7
370
     0
100
AcDbSpline
210
0.0
220
0.0
230
1.0
 70
     8
 71
     3
 72
    12
 73
     8
 74
     0
 42
0.00000001
 43
0.00000001
 12
1.0
 22
0.0
 32
0.0
 13
1.0
 23
0.0
 33
0.0
 40
0.0
 40
0.0
 40
0.0
 40
0.0
 40
0.2499999999999999
 40
0.2499999999999999
 40
0.4999999999999999
 40
0.4999999999999999
 40
1.0
 40
1.0
 40
1.0
 40
1.0
 10
142.2180518531089
 20
32.84727178901813
 30
0.0
 10
142.1549718146155
 20
32.84727178901812
 30
0.0
 10
142.0958231924342
 20
32.85517771523057
 30
0.0
 10
141.9973506423651
 20
32.87850287666681
 30
0.0
 10
141.9583140303803
 20
32.8932156664985
 30
0.0
 10
141.8584175636013
 20
32.94117146722944
 30
0.0
 10
141.8159966825347
 20
32.9774336238095
 30
0.0
 10
141.7850391512167
 20
33.01502128777399
 30
0.0
  0
ELLIPSE
  5
F3
330
1F
100
AcDbEntity
  8
0
  6
HIDDEN
 62
     7
370
     0
100
AcDbEllipse
 10
158.0374492289
 20
62.9157637479
 30
0.0
 11
14.75368316065612
 21
31.09325491558116
 31
0.0
210
0.0
220
0.0
230
1.0
 40
0.3419987131
 41
2.051689083818819
 42
2.982450450962495
  0
SPLINE
  5
F4
330
1F
100
AcDbEntity
  8
0
  6
HIDDEN
 62
     7
370
     0
100
AcDbSpline
210
0.0
220
0.0
230
1.0
 70
     8
 71
     3
 72
    12
 73
     8
 74
     0
 42
0.00000001
 43
0.00000001
 12
1.0
 22
0.0
 32
0.0
 13
1.0
 23
0.0
 33
0.0
 40
0.0
 40
0.0
 40
0.0
 40
0.0
 40
0.4999999999999963
 40
0.4999999999999963
 40
0.7499999999999981
 40
0.7499999999999981
 40
1.0
 40
1.0
 40
1.0
 40
1.0
 10
141.7850391512167
 20
92.81650620800856
 30
0.0
 10
141.8157613931358
 20
92.85380819096162
 30
0.0
 10
141.858598607671
 20
92.89042002300799
 30
0.0
 10
141.9580256318708
 20
92.93818480629318
 30
0.0
 10
141.9977778266874
 20
92.95314232177557
 30
0.0
 10
142.0958192835456
 20
92.9763322675447
 30
0.0
 10
142.1553753391331
 20
92.98425570676442
 30
0.0
 10
142.2180518531089
 20
92.98425570676442
 30
0.0
  0
LINE
  5
F5
330
1F
100
AcDbEntity
  8
0
  6
HIDDEN
 62
     7
370
     0
100
AcDbLine
 10
142.218052036
 20
92.9842562648
 30
0.0
 11
145.1625382517
 21
92.9842562648
 31
0.0
  0
SPLINE
  5
F6
330
1F
100
AcDbEntity
  8
0
  6
HIDDEN
 62
     7
370
     0
100
AcDbSpline
210
0.0
220
0.0
230
1.0
 70
     8
 71
     3
 72
    12
 73
     8
 74
     0
 42
0.00000001
 43
0.00000001
 12
1.0
 22
0.0
 32
0.0
 13
1.0
 23
0.0
 33
0.0
 40
0.0
 40
0.0
 40
0.0
 40
0.0
 40
0.2499999999999991
 40
0.2499999999999991
 40
0.4999999999999982
 40
0.4999999999999982
 40
1.0
 40
1.0
 40
1.0
 40
1.0
 10
145.162538225976
 20
92.98425570676442
 30
0.0
 10
145.2256182644694
 20
92.98425570676442
 30
0.0
 10
145.2847668866508
 20
92.97634978055197
 30
0.0
 10
145.3832394367199
 20
92.95302461911572
 30
0.0
 10
145.4222760487046
 20
92.93831182928405
 30
0.0
 10
145.5221725154836
 20
92.89035602855311
 30
0.0
 10
145.5645933965503
 20
92.85409387197303
 30
0.0
 10
145.5955509278682
 20
92.81650620800855
 30
0.0
  0
ELLIPSE
  5
F7
330
1F
100
AcDbEntity
  8
0
  6
HIDDEN
 62
     7
370
     0
100
AcDbEllipse
 10
129.3431408502
 20
62.9157637479
 30
0.0
 11
14.75368316065624
 21
31.09325491558116
 31
0.0
210
0.0
220
0.0
230
1.0
 40
0.3419987131
 41
5.193281737408638
 42
6.124043104552343
  0
SPLINE
  5
F8
330
1F
100
AcDbEntity
  8
0
  6
HIDDEN
 62
     7
370
     0
100
AcDbSpline
210
0.0
220
0.0
230
1.0
 70
     8
 71
     3
 72
    12
 73
     8
 74
     0
 42
0.00000001
 43
0.00000001
 12
1.0
 22
0.0
 32
0.0
 13
1.0
 23
0.0
 33
0.0
 40
0.0
 40
0.0
 40
0.0
 40
0.0
 40
0.5
 40
0.5
 40
0.75
 40
0.75
 40
1.0
 40
1.0
 40
1.0
 40
1.0
 10
145.5955509278682
 20
72.82513306857683
 30
0.0
 10
145.5648286859492
 20
72.71257726916765
 30
0.0
 10
145.521991471414
 20
72.59981940942805
 30
0.0
 10
145.4225644472142
 20
72.4502785236317
 30
0.0
 10
145.3828122523975
 20
72.40298579192483
 30
0.0
 10
145.2847707955393
 20
72.3292494986034
 30
0.0
 10
145.2252147399519
 20
72.3038301792277
 30
0.0
 10
145.162538225976
 20
72.3038301792277
 30
0.0
  0
LINE
  5
F9
330
1F
100
AcDbEntity
  8
0
  6
HIDDEN
 62
     7
370
     0
100
AcDbLine
 10
145.1625382517
 20
72.3038305761
 30
0.0
 11
142.218052036
 21
72.3038305761
 31
0.0
  0
SPLINE
  5
FA
330
1F
100
AcDbEntity
  8
0
  6
HIDDEN
 62
     7
370
     0
100
AcDbSpline
210
0.0
220
0.0
230
1.0
 70
     8
 71
     3
 72
    12
 73
     8
 74
     0
 42
0.00000001
 43
0.00000001
 12
1.0
 22
0.0
 32
0.0
 13
1.0
 23
0.0
 33
0.0
 40
0.0
 40
0.0
 40
0.0
 40
0.0
 40
0.2500000000000009
 40
0.2500000000000009
 40
0.5000000000000018
 40
0.5000000000000018
 40
1.0
 40
1.0
 40
1.0
 40
1.0
 10
142.2180518531089
 20
72.3038301792277
 30
0.0
 10
142.1549718146155
 20
72.3038301792277
 30
0.0
 10
142.0958231924342
 20
72.32919449844263
 30
0.0
 10
141.9973506423651
 20
72.40335935881555
 30
0.0
 10
141.9583140303803
 20
72.44987969936967
 30
0.0
 10
141.8584175636013
 20
72.60002204221493
 30
0.0
 10
141.8159966825347
 20
72.71171524918707
 30
0.0
 10
141.7850391512167
 20
72.82513306857682
 30
0.0
  0
ELLIPSE
  5
FB
330
1F
100
AcDbEntity
  8
0
  6
HIDDEN
 62
     7
370
     0
100
AcDbEllipse
 10
158.0374492289
 20
62.9157637479
 30
0.0
 11
-14.75368316065627
 21
31.09325491558116
 31
0.0
210
0.0
220
0.0
230
1.0
 40
0.3419987131
 41
0.1591422026272822
 42
1.08990356977096
  0
SPLINE
  5
FC
330
1F
100
AcDbEntity
  8
0
  6
HIDDEN
 62
     7
370
     0
100
AcDbSpline
210
0.0
220
0.0
230
1.0
 70
     8
 71
     3
 72
     8
 73
     4
 74
     0
 42
0.00000001
 43
0.00000001
 12
1.0
 22
0.0
 32
0.0
 13
1.0
 23
0.0
 33
0.0
 40
0.0
 40
0.0
 40
0.0
 40
0.0
 40
1.0
 40
1.0
 40
1.0
 40
1.0
 10
227.9072248280123
 20
71.49591720378098
 30
0.0
 10
229.6990874347211
 20
70.43092757037198
 30
0.0
 10
231.5976107657411
 20
69.57609063955329
 30
0.0
 10
233.5977828900918
 20
68.93397369443211
 30
0.0
  0
ELLIPSE
  5
FD
330
1F
100
AcDbEntity
  8
0
  6
HIDDEN
 62
     7
370
     0
100
AcDbEllipse
 10
248.0718613251
 20
62.9157637479
 30
0.0
 11
54.8202832528242
 21
-31.40962933126402
 31
0.0
210
0.0
220
0.0
230
1.0
 40
0.0434941688
 41
3.065826131388401
 42
4.360750712172814
  0
ELLIPSE
  5
FE
330
1F
100
AcDbEntity
  8
0
  6
HIDDEN
 62
     7
370
     0
100
AcDbEllipse
 10
248.0718613251
 20
62.9157637479
 30
0.0
 11
54.8202832528242
 21
31.40962933126403
 31
0.0
210
0.0
220
0.0
230
1.0
 40
0.0434941688
 41
1.922434595006811
 42
3.217359175791494
  0
SPLINE
  5
FF
330
1F
100
AcDbEntity
  8
0
  6
HIDDEN
 62
     7
370
     0
100
AcDbSpline
210
0.0
220
0.0
230
1.0
 70
     8
 71
     3
 72
     8
 73
     4
 74
     0
 42
0.00000001
 43
0.00000001
 12
1.0
 22
0.0
 32
0.0
 13
1.0
 23
0.0
 33
0.0
 40
0.0
 40
0.0
 40
0.0
 40
0.0
 40
1.0
 40
1.0
 40
1.0
 40
1.0
 10
227.9072248280123
 20
54.33561029200143
 30
0.0
 10
229.6990874347211
 20
55.40059992541043
 30
0.0
 10
231.5976107657411
 20
56.25543685622913
 30
0.0
 10
233.5977828900918
 20
56.89755380135029
 30
0.0
  0
ELLIPSE
  5
100
330
1F
100
AcDbEntity
  8
0
  6
HIDDEN
 62
     7
370
     0
100
AcDbEllipse
 10
261.6810348686
 20
62.9157637479
 30
0.0
 11
100.3213648072489
 21
31.39076627651701
 31
0.0
210
0.0
220
0.0
230
1.0
 40
0.0261263283
 41
1.660042471204201
 42
1.846336011283953
  0
ELLIPSE
  5
101
330
1F
100
AcDbEntity
  8
0
  6
HIDDEN
 62
     7
370
     0
100
AcDbEllipse
 10
261.0873451679
 20
62.9157637479
 30
0.0
 11
0.0
 21
31.5
 31
0.0
210
0.0
220
0.0
230
1.0
 40
0.2909443837
 41
1.564853763450551
 42
1.576738890139242
  0
ELLIPSE
  5
102
330
1F
100
AcDbEntity
  8
0
  6
HIDDEN
 62
     7
370
     0
100
AcDbEllipse
 10
261.6810348686
 20
62.9157637479
 30
0.0
 11
100.3213648072489
 21
-31.39076627651703
 31
0.0
210
0.0
220
0.0
230
1.0
 40
0.0261263283
 41
4.436849295895673
 42
4.623142835975389
  0
LINE
  5
103
330
1F
100
AcDbEntity
  8
0
  6
HIDDEN
 62
     7
370
     0
100
AcDbLine
 10
131.6902950395
 20
31.9157642545
 30
0.0
 11
131.6902950395
 21
93.9157632413
 31
0.0
  0
CIRCLE
  5
104
330
1F
100
AcDbEntity
  8
0
  6
HIDDEN
 62
     7
370
     0
100
AcDbCircle
 10
198.6902950395
 20
62.9157637479
 30
0.0
 40
2.5
  0
CIRCLE
  5
105
330
1F
100
AcDbEntity
  8
0
  6
HIDDEN
 62
     7
370
     0
100
AcDbCircle
 10
198.6902950395
 20
62.9157637479
 30
0.0
 40
3.0
  0
LINE
  5
106
330
1F
100
AcDbEntity
  8
0
  6
HIDDEN
 62
     7
370
     0
100
AcDbLine
 10
131.6902950395
 20
38.6657630326
 30
0.0
 11
131.6902950395
 21
87.1657644631
 31
0.0
  0
SPLINE
  5
107
330
1F
100
AcDbEntity
  8
0
  6
HIDDEN
 62
     7
370
     0
100
AcDbSpline
210
0.0
220
0.0
230
1.0
 70
     8
 71
     3
 72
    12
 73
     8
 74
     0
 42
0.00000001
 43
0.00000001
 12
1.0
 22
0.0
 32
0.0
 13
1.0
 23
0.0
 33
0.0
 40
0.0
 40
0.0
 40
0.0
 40
0.0
 40
0.4999999999999998
 40
0.4999999999999998
 40
0.75
 40
0.75
 40
1.0
 40
1.0
 40
1.0
 40
1.0
 10
130.8737827530954
 20
78.36803172972208
 30
0.0
 10
130.9301889317757
 20
78.32020935606225
 30
0.0
 10
131.0003518332475
 20
78.27993850912371
 30
0.0
 10
131.1183625466367
 20
78.27189264064677
 30
0.0
 10
131.1585683302322
 20
78.27845523898561
 30
0.0
 10
131.2322890269652
 20
78.30583733343926
 30
0.0
 10
131.2651497487517
 20
78.3255988239696
 30
0.0
 10
131.295318150681
 20
78.34853153515763
 30
0.0
  0
SPLINE
  5
108
330
1F
100
AcDbEntity
  8
0
  6
HIDDEN
 62
     7
370
     0
100
AcDbSpline
210
0.0
220
0.0
230
1.0
 70
     8
 71
     3
 72
    16
 73
    12
 74
     0
 42
0.00000001
 43
0.00000001
 12
1.0
 22
0.0
 32
0.0
 13
1.0
 23
0.0
 33
0.0
 40
0.0
 40
0.0
 40
0.0
 40
0.0
 40
0.0624999999999948
 40
0.0624999999999948
 40
0.1249999999999895
 40
0.1249999999999895
 40
0.2499999999999873
 40
0.2499999999999873
 40
0.4999999999999933
 40
0.4999999999999933
 40
1.0
 40
1.0
 40
1.0
 40
1.0
 10
131.2953181506358
 20
78.34853153520572
 30
0.0
 10
131.3069310504752
 20
78.35735915818712
 30
0.0
 10
131.3202822349077
 20
78.36519354006904
 30
0.0
 10
131.3496820745268
 20
78.37350366614142
 30
0.0
 10
131.3645227990821
 20
78.37300784690639
 30
0.0
 10
131.4003560070507
 20
78.36155687593703
 30
0.0
 10
131.4144692148723
 20
78.34487637507839
 30
0.0
 10
131.4489605860912
 20
78.29275568932134
 30
0.0
 10
131.4600446572016
 20
78.25296619529634
 30
0.0
 10
131.4861674749976
 20
78.12962956319923
 30
0.0
 10
131.4902950395425
 20
78.0422081527006
 30
0.0
 10
131.4902950395425
 20
77.95347091038236
 30
0.0
  0
LINE
  5
109
330
1F
100
AcDbEntity
  8
0
  6
HIDDEN
 62
     7
370
     0
100
AcDbLine
 10
131.4902950446
 20
47.8780566948
 30
0.0
 11
131.4902950446
 21
77.953470801
 31
0.0
  0
SPLINE
  5
10A
330
1F
100
AcDbEntity
  8
0
  6
HIDDEN
 62
     7
370
     0
100
AcDbSpline
210
0.0
220
0.0
230
1.0
 70
     8
 71
     3
 72
    16
 73
    12
 74
     0
 42
0.00000001
 43
0.00000001
 12
1.0
 22
0.0
 32
0.0
 13
1.0
 23
0.0
 33
0.0
 40
0.0
 40
0.0
 40
0.0
 40
0.0
 40
0.5000000000000079
 40
0.5000000000000079
 40
0.7500000000000143
 40
0.7500000000000143
 40
0.8750000000000102
 40
0.8750000000000102
 40
0.9375000000000051
 40
0.9375000000000051
 40
1.0
 40
1.0
 40
1.0
 40
1.0
 10
131.4902950395425
 20
47.87805658540005
 30
0.0
 10
131.4902950395425
 20
47.78893022021131
 30
0.0
 10
131.4861487644645
 20
47.70206885259788
 30
0.0
 10
131.460183169071
 20
47.57908660610385
 30
0.0
 10
131.4487222636936
 20
47.53831531087256
 30
0.0
 10
131.4144105259192
 20
47.4866109908728
 30
0.0
 10
131.4003857899895
 20
47.46994062428239
 30
0.0
 10
131.3643628269558
 20
47.45848840382567
 30
0.0
 10
131.3496083178661
 20
47.45803535755064
 30
0.0
 10
131.3202561567192
 20
47.46635067876679
 30
0.0
 10
131.3069162822152
 20
47.47417956384508
 30
0.0
 10
131.2953181506668
 20
47.48299596060771
 30
0.0
  0
SPLINE
  5
10B
330
1F
100
AcDbEntity
  8
0
  6
HIDDEN
 62
     7
370
     0
100
AcDbSpline
210
0.0
220
0.0
230
1.0
 70
     8
 71
     3
 72
    12
 73
     8
 74
     0
 42
0.00000001
 43
0.00000001
 12
1.0
 22
0.0
 32
0.0
 13
1.0
 23
0.0
 33
0.0
 40
0.0
 40
0.0
 40
0.0
 40
0.0
 40
0.2500000000000006
 40
0.2500000000000006
 40
0.5000000000000009
 40
0.5000000000000009
 40
1.0
 40
1.0
 40
1.0
 40
1.0
 10
131.2953181506739
 20
47.48299596061661
 30
0.0
 10
131.2651263089567
 20
47.50594648971444
 30
0.0
 10
131.2317673395421
 20
47.52591596373862
 30
0.0
 10
131.1586300549615
 20
47.55301709736412
 30
0.0
 10
131.1183881823075
 20
47.55961783800954
 30
0.0
 10
131.000682405339
 20
47.55164896350283
 30
0.0
 10
130.9302719275596
 20
47.51138850533497
 30
0.0
 10
130.8737827530913
 20
47.46349576605681
 30
0.0
  0
SPLINE
  5
10C
330
1F
100
AcDbEntity
  8
0
  6
HIDDEN
 62
     7
370
     0
100
AcDbSpline
210
0.0
220
0.0
230
1.0
 70
     8
 71
     3
 72
    12
 73
     8
 74
     0
 42
0.00000001
 43
0.00000001
 12
1.0
 22
0.0
 32
0.0
 13
1.0
 23
0.0
 33
0.0
 40
0.0
 40
0.0
 40
0.0
 40
0.0
 40
0.2500000000000044
 40
0.2500000000000044
 40
0.5000000000000061
 40
0.5000000000000061
 40
1.0
 40
1.0
 40
1.0
 40
1.0
 10
130.8737827530909
 20
47.46349576605701
 30
0.0
 10
130.7856288153532
 20
47.38875695820293
 30
0.0
 10
130.7252753907245
 20
47.29777645772054
 30
0.0
 10
130.6190134326576
 20
47.10886263496794
 30
0.0
 10
130.5767812660956
 20
47.01235817542736
 30
0.0
 10
130.4657105707784
 20
46.7215904212602
 30
0.0
 10
130.4127737943516
 20
46.52592360671647
 30
0.0
 10
130.3689746959828
 20
46.33185712165015
 30
0.0
  0
SPLINE
  5
10D
330
1F
100
AcDbEntity
  8
0
  6
HIDDEN
 62
     7
370
     0
100
AcDbSpline
210
0.0
220
0.0
230
1.0
 70
     8
 71
     3
 72
    12
 73
     8
 74
     0
 42
0.00000001
 43
0.00000001
 12
1.0
 22
0.0
 32
0.0
 13
1.0
 23
0.0
 33
0.0
 40
0.0
 40
0.0
 40
0.0
 40
0.0
 40
0.4999999999999998
 40
0.4999999999999998
 40
0.7499999999999999
 40
0.7499999999999999
 40
1.0
 40
1.0
 40
1.0
 40
1.0
 10
130.3689746959828
 20
41.1456827928891
 30
0.0
 10
130.4127212368194
 20
41.11908862224792
 30
0.0
 10
130.4656055920509
 20
41.0993283969222
 30
0.0
 10
130.5771726793871
 20
41.07887740669312
 30
0.0
 10
130.6197562759301
 20
41.07361718203667
 30
0.0
 10
130.7246730030118
 20
41.06573438811402
 30
0.0
 10
130.7862066108567
 20
41.06317026293488
 30
0.0
 10
130.8737827530828
 20
41.06097004541523
 30
0.0
  0
LINE
  5
10E
330
1F
100
AcDbEntity
  8
0
  6
HIDDEN
 62
     7
370
     0
100
AcDbLine
 10
131.4902950446
 20
40.3759432258
 30
0.0
 11
131.4902950446
 21
40.8561685356
 31
0.0
  0
LINE
  5
10F
330
1F
100
AcDbEntity
  8
0
  6
HIDDEN
 62
     7
370
     0
100
AcDbLine
 10
131.4902950446
 20
84.9753589602
 30
0.0
 11
131.4902950446
 21
85.45558427
 31
0.0
  0
SPLINE
  5
110
330
1F
100
AcDbEntity
  8
0
  6
HIDDEN
 62
     7
370
     0
100
AcDbSpline
210
0.0
220
0.0
230
1.0
 70
     8
 71
     3
 72
    12
 73
     8
 74
     0
 42
0.00000001
 43
0.00000001
 12
1.0
 22
0.0
 32
0.0
 13
1.0
 23
0.0
 33
0.0
 40
0.0
 40
0.0
 40
0.0
 40
0.0
 40
0.2500000000000005
 40
0.2500000000000005
 40
0.5000000000000009
 40
0.5000000000000009
 40
1.0
 40
1.0
 40
1.0
 40
1.0
 10
130.8737827530908
 20
84.77055745036712
 30
0.0
 10
130.7850980932344
 20
84.76832938302611
 30
0.0
 10
130.725179677511
 20
84.76582759899578
 30
0.0
 10
130.6195204501903
 20
84.75789616315977
 30
0.0
 10
130.5768792120753
 20
84.75260400826294
 30
0.0
 10
130.4656898699728
 20
84.7321990677758
 30
0.0
 10
130.4127631878518
 20
84.71246437618895
 30
0.0
 10
130.3689746959828
 20
84.68584470289332
 30
0.0
  0
SPLINE
  5
111
330
1F
100
AcDbEntity
  8
0
  6
HIDDEN
 62
     7
370
     0
100
AcDbSpline
210
0.0
220
0.0
230
1.0
 70
     8
 71
     3
 72
    12
 73
     8
 74
     0
 42
0.00000001
 43
0.00000001
 12
1.0
 22
0.0
 32
0.0
 13
1.0
 23
0.0
 33
0.0
 40
0.0
 40
0.0
 40
0.0
 40
0.0
 40
0.5000000000000014
 40
0.5000000000000014
 40
0.7499999999999993
 40
0.7499999999999993
 40
1.0
 40
1.0
 40
1.0
 40
1.0
 10
130.3689746959813
 20
79.49967037413244
 30
0.0
 10
130.41273617228
 20
79.30577058617035
 30
0.0
 10
130.465642487933
 20
79.1099142222335
 30
0.0
 10
130.5773536855804
 20
78.81777207573455
 30
0.0
 10
130.6198731291668
 20
78.72105413903662
 30
0.0
 10
130.7249964717342
 20
78.53432970261215
 30
0.0
 10
130.7865624354519
 20
78.44197899434245
 30
0.0
 10
130.8737827530946
 20
78.36803172972276
 30
0.0
  0
LINE
  5
112
330
1F
100
AcDbEntity
  8
0
  6
HIDDEN
 62
     7
370
     0
100
AcDbLine
 10
131.4902950446
 20
40.8561685356
 30
0.0
 11
131.4902950446
 21
55.89387652
 31
0.0
  0
LINE
  5
113
330
1F
100
AcDbEntity
  8
0
  6
HIDDEN
 62
     7
370
     0
100
AcDbLine
 10
131.4902950446
 20
69.9376509758
 30
0.0
 11
131.4902950446
 21
84.9753589602
 31
0.0
  0
ARC
  5
114
330
1F
100
AcDbEntity
  8
0
  6
HIDDEN
 62
     7
370
     0
100
AcDbCircle
 10
198.9053735803
 20
65.2405037643
 30
0.0
 40
0.1751570580294858
100
AcDbArc
 50
64.7349398544
 51
104.6936689615
  0
ARC
  5
115
330
1F
100
AcDbEntity
  8
0
  6
HIDDEN
 62
     7
370
     0
100
AcDbCircle
 10
198.9053735803
 20
60.5910237314
 30
0.0
 40
0.1751570580294789
100
AcDbArc
 50
255.3063310385
 51
295.2650601456
  0
ARC
  5
116
330
1F
100
AcDbEntity
  8
0
  6
HIDDEN
 62
     7
370
     0
100
AcDbCircle
 10
198.6902950395
 20
62.9157637479
 30
0.0
 40
2.50000000000021
100
AcDbArc
 50
276.6575341882
 51
83.3424658118
  0
ARC
  5
117
330
1F
100
AcDbEntity
  8
0
  6
HIDDEN
 62
     7
370
     0
100
AcDbCircle
 10
198.6902950395
 20
62.9157637479
 30
0.0
 40
2.500000000000218
100
AcDbArc
 50
273.9141232049
 51
86.0858767951
  0
CIRCLE
  5
118
330
1F
100
AcDbEntity
  8
0
  6
HIDDEN
 62
     7
370
     0
100
AcDbCircle
 10
116.1902950395
 20
62.9157637479
 30
0.0
 40
4.049999999999997
  0
SPLINE
  5
119
330
1F
100
AcDbEntity
  8
0
  6
HIDDEN
 62
     7
370
     0
100
AcDbSpline
210
0.0
220
0.0
230
1.0
 70
     8
 71
     3
 72
     8
 73
     4
 74
     0
 42
0.00000001
 43
0.00000001
 12
1.0
 22
0.0
 32
0.0
 13
1.0
 23
0.0
 33
0.0
 40
0.0
 40
0.0
 40
0.0
 40
0.0
 40
1.0
 40
1.0
 40
1.0
 40
1.0
 10
198.8609480750577
 20
60.42159504039176
 30
0.0
 10
198.8930929803808
 20
60.42379442075173
 30
0.0
 10
198.933370528585
 20
60.42716360153276
 30
0.0
 10
198.9801315360018
 20
60.43262162442743
 30
0.0
  0
SPLINE
  5
11A
330
1F
100
AcDbEntity
  8
0
  6
HIDDEN
 62
     7
370
     0
100
AcDbSpline
210
0.0
220
0.0
230
1.0
 70
     8
 71
     3
 72
     8
 73
     4
 74
     0
 42
0.00000001
 43
0.00000001
 12
1.0
 22
0.0
 32
0.0
 13
1.0
 23
0.0
 33
0.0
 40
0.0
 40
0.0
 40
0.0
 40
0.0
 40
1.0
 40
1.0
 40
1.0
 40
1.0
 10
198.9801315360017
 20
65.398905871355
 30
0.0
 10
198.9332968191573
 20
65.40437249773717
 30
0.0
 10
198.893103567204
 20
65.4077323506717
 30
0.0
 10
198.8609480750577
 20
65.40993245539065
 30
0.0
  0
LINE
  5
11B
330
1F
100
AcDbEntity
  8
0
  6
HIDDEN
 62
     7
370
     0
100
AcDbLine
 10
95.2205225815
 20
78.228714806
 30
0.0
 11
95.2205225815
 21
47.6028126897
 31
0.0
  0
LINE
  5
11C
330
1F
100
AcDbEntity
  8
0
  6
HIDDEN
 62
     7
370
     0
100
AcDbLine
 10
93.6902962614
 20
46.7193340184
 30
0.0
 11
93.6902962614
 21
79.0875991108
 31
0.0
  0
LINE
  5
11D
330
1F
100
AcDbEntity
  8
0
  6
HIDDEN
 62
     7
370
     0
100
AcDbLine
 10
101.7205227156
 20
77.2621742683
 30
0.0
 11
101.7205227156
 21
48.5693532275
 31
0.0
  0
LINE
  5
11E
330
1F
100
AcDbEntity
  8
0
  6
HIDDEN
 62
     7
370
     0
100
AcDbLine
 10
107.5205240388
 20
76.91576418
 30
0.0
 11
107.5205240388
 21
48.9157633158
 31
0.0
  0
LINE
  5
11F
330
1F
100
AcDbEntity
  8
0
  6
HIDDEN
 62
     7
370
     0
100
AcDbLine
 10
100.1205235709
 20
76.91576418
 30
0.0
 11
100.1205235709
 21
48.9157633158
 31
0.0
  0
LINE
  5
120
330
1F
100
AcDbEntity
  8
0
  6
HIDDEN
 62
     7
370
     0
100
AcDbLine
 10
101.1205237348
 20
76.91576418
 30
0.0
 11
101.1205237348
 21
48.9157633158
 31
0.0
  0
SPLINE
  5
121
330
1F
100
AcDbEntity
  8
0
  6
HIDDEN
 62
     7
370
     0
100
AcDbSpline
210
0.0
220
0.0
230
1.0
 70
     8
 71
     3
 72
    10
 73
     6
 74
     0
 42
0.00000001
 43
0.00000001
 12
1.0
 22
0.0
 32
0.0
 13
1.0
 23
0.0
 33
0.0
 40
0.0
 40
0.0
 40
0.0
 40
0.0
 40
0.5
 40
0.5
 40
1.0
 40
1.0
 40
1.0
 40
1.0
 10
120.1902950395425
 20
63.55019262491371
 30
0.0
 10
120.2234424576189
 20
63.34120202390569
 30
0.0
 10
120.2403013029806
 20
63.1296395578841
 30
0.0
 10
120.2402887726329
 20
62.70165079191649
 30
0.0
 10
120.2233738148925
 20
62.48989268750078
 30
0.0
 10
120.1902950395425
 20
62.2813348708687
 30
0.0
  0
LINE
  5
122
330
1F
100
AcDbEntity
  8
0
  6
HIDDEN
 62
     7
370
     0
100
AcDbLine
 10
120.6902950991
 20
76.4157640981
 30
0.0
 11
120.6902950991
 21
49.4157633977
 31
0.0
  0
SPLINE
  5
123
330
1F
100
AcDbEntity
  8
0
  6
HIDDEN
 62
     7
370
     0
100
AcDbSpline
210
0.0
220
0.0
230
1.0
 70
     8
 71
     3
 72
    10
 73
     6
 74
     0
 42
0.00000001
 43
0.00000001
 12
1.0
 22
0.0
 32
0.0
 13
1.0
 23
0.0
 33
0.0
 40
0.0
 40
0.0
 40
0.0
 40
0.0
 40
0.5
 40
0.5
 40
1.0
 40
1.0
 40
1.0
 40
1.0
 10
120.1902950395425
 20
62.2813348708687
 30
0.0
 10
120.2234840020162
 20
62.49058740445118
 30
0.0
 10
120.2401847782708
 20
62.70140416535013
 30
0.0
 10
120.2404042187155
 20
63.12593644655341
 30
0.0
 10
120.2235245033221
 20
63.34068473532603
 30
0.0
 10
120.1902950395425
 20
63.55019262491371
 30
0.0
  0
SPLINE
  5
124
330
1F
100
AcDbEntity
  8
0
  6
HIDDEN
 62
     7
370
     0
100
AcDbSpline
210
0.0
220
0.0
230
1.0
 70
     8
 71
     3
 72
    68
 73
    64
 74
     0
 42
0.00000001
 43
0.00000001
 12
1.0
 22
0.0
 32
0.0
 13
1.0
 23
0.0
 33
0.0
 40
0.0
 40
0.0
 40
0.0
 40
0.0
 40
0.03125
 40
0.03125
 40
0.0625
 40
0.0625
 40
0.09375
 40
0.09375
 40
0.125
 40
0.125
 40
0.1562499999999999
 40
0.1562499999999999
 40
0.1874999999999999
 40
0.1874999999999999
 40
0.2187499999999999
 40
0.2187499999999999
 40
0.2499999999999999
 40
0.2499999999999999
 40
0.2812499999999999
 40
0.2812499999999999
 40
0.3124999999999999
 40
0.3124999999999999
 40
0.3437499999999999
 40
0.3437499999999999
 40
0.3749999999999999
 40
0.3749999999999999
 40
0.4062499999999999
 40
0.4062499999999999
 40
0.4374999999999999
 40
0.4374999999999999
 40
0.4687499999999999
 40
0.4687499999999999
 40
0.4999999999999999
 40
0.4999999999999999
 40
0.5624999999999999
 40
0.5624999999999999
 40
0.5937499999999999
 40
0.5937499999999999
 40
0.6249999999999999
 40
0.6249999999999999
 40
0.6562499999999999
 40
0.6562499999999999
 40
0.6874999999999999
 40
0.6874999999999999
 40
0.7187499999999999
 40
0.7187499999999999
 40
0.7499999999999999
 40
0.7499999999999999
 40
0.78125
 40
0.78125
 40
0.8125
 40
0.8125
 40
0.84375
 40
0.84375
 40
0.875
 40
0.875
 40
0.90625
 40
0.90625
 40
0.9375
 40
0.9375
 40
0.96875
 40
0.96875
 40
1.0
 40
1.0
 40
1.0
 40
1.0
 10
120.1902950395425
 20
62.2813348708687
 30
0.0
 10
120.1502800871928
 20
62.0290452680531
 30
0.0
 10
120.0873382857815
 20
61.78504641767729
 30
0.0
 10
119.9179516237094
 20
61.31262802861478
 30
0.0
 10
119.8102580611239
 20
61.08221464245485
 30
0.0
 10
119.5549732925861
 20
60.64751004665775
 30
0.0
 10
119.4089340621138
 20
60.44486808000642
 30
0.0
 10
119.0807126255546
 20
60.06787878924861
 30
0.0
 10
118.8964653377796
 20
59.89222083567122
 30
0.0
 10
118.5035051704713
 20
59.58196286672498
 30
0.0
 10
118.2942105735121
 20
59.44601765907507
 30
0.0
 10
117.8493251465748
 20
59.21262756366923
 30
0.0
 10
117.6125275540758
 20
59.11538095725483
 30
0.0
 10
117.1317924851565
 20
58.96870949938346
 30
0.0
 10
116.8855493919737
 20
58.91781715444105
 30
0.0
 10
116.3808326119943
 20
58.86228980420556
 30
0.0
 10
116.1246379110578
 20
58.85846491713562
 30
0.0
 10
115.6222591618577
 20
58.89788869978003
 30
0.0
 10
115.3730094626741
 20
58.94091614899128
 30
0.0
 10
114.8814816651953
 20
59.07462111844257
 30
0.0
 10
114.6461860639695
 20
59.16329096434776
 30
0.0
 10
114.1952721693073
 20
59.38232232812518
 30
0.0
 10
113.977659818844
 20
59.51432389380873
 30
0.0
 10
113.5744526492957
 20
59.81368117481163
 30
0.0
 10
113.3888411568612
 20
59.9803001022495
 30
0.0
 10
113.0488530864588
 20
60.34741152767698
 30
0.0
 10
112.8937801556359
 20
60.54971527321769
 30
0.0
 10
112.6274370789725
 20
60.97379595281171
 30
0.0
 10
112.5144529782557
 20
61.19695555827791
 30
0.0
 10
112.3295977213248
 20
61.66631079987206
 30
0.0
 10
112.2584569598214
 20
61.91252130320757
 30
0.0
 10
112.1644965485333
 20
62.40704712957873
 30
0.0
 10
112.1404872185769
 20
62.65797812467075
 30
0.0
 10
112.1399140979043
 20
63.42222350422696
 30
0.0
 10
112.2353132092229
 20
63.92444780627793
 30
0.0
 10
112.5131770014241
 20
64.6320123125503
 30
0.0
 10
112.6263389575046
 20
64.85571857629112
 30
0.0
 10
112.8924701395485
 20
65.2799884876117
 30
0.0
 10
113.0472979137482
 20
65.48224044966777
 30
0.0
 10
113.387479019536
 20
65.84995119103594
 30
0.0
 10
113.5729814764857
 20
66.01656806628527
 30
0.0
 10
113.9752752775451
 20
66.3156174450807
 30
0.0
 10
114.1932833257971
 20
66.44807415310912
 30
0.0
 10
114.6438816929474
 20
66.6672805538138
 30
0.0
 10
114.8784306918281
 20
66.75576568381743
 30
0.0
 10
115.3668906853805
 20
66.88925191375607
 30
0.0
 10
115.6191560810943
 20
66.93319362624983
 30
0.0
 10
116.1213367192546
 20
66.97300262272333
 30
0.0
 10
116.3738188366063
 20
66.96965840990981
 30
0.0
 10
116.8816838796758
 20
66.9144790899193
 30
0.0
 10
117.1292293528596
 20
66.86343316144988
 30
0.0
 10
117.6101968903303
 20
66.7170227732143
 30
0.0
 10
117.8461567554356
 20
66.62037656844069
 30
0.0
 10
118.2927272049572
 20
66.38647162412764
 30
0.0
 10
118.5023720675307
 20
66.25034661030115
 30
0.0
 10
118.8953587742851
 20
65.94029234597204
 30
0.0
 10
119.0797546781001
 20
65.76463509839694
 30
0.0
 10
119.4083050959605
 20
65.38749517573251
 30
0.0
 10
119.5542471924837
 20
65.18502897046265
 30
0.0
 10
119.8091325476858
 20
64.75145267232932
 30
0.0
 10
119.9174438604942
 20
64.52016082874778
 30
0.0
 10
120.0872788379111
 20
64.04680114861453
 30
0.0
 10
120.1502741990482
 20
63.80251935179376
 30
0.0
 10
120.1902950395425
 20
63.55019262491371
 30
0.0
  0
SPLINE
  5
125
330
1F
100
AcDbEntity
  8
0
  6
HIDDEN
 62
     7
370
     0
100
AcDbSpline
210
0.0
220
0.0
230
1.0
 70
     8
 71
     3
 72
    68
 73
    64
 74
     0
 42
0.00000001
 43
0.00000001
 12
1.0
 22
0.0
 32
0.0
 13
1.0
 23
0.0
 33
0.0
 40
0.0
 40
0.0
 40
0.0
 40
0.0
 40
0.03125
 40
0.03125
 40
0.0625
 40
0.0625
 40
0.09375
 40
0.09375
 40
0.125
 40
0.125
 40
0.1562499999999999
 40
0.1562499999999999
 40
0.1874999999999999
 40
0.1874999999999999
 40
0.2187499999999999
 40
0.2187499999999999
 40
0.2499999999999999
 40
0.2499999999999999
 40
0.2812499999999999
 40
0.2812499999999999
 40
0.3124999999999999
 40
0.3124999999999999
 40
0.3437499999999999
 40
0.3437499999999999
 40
0.3749999999999999
 40
0.3749999999999999
 40
0.4062499999999999
 40
0.4062499999999999
 40
0.4374999999999999
 40
0.4374999999999999
 40
0.4687499999999999
 40
0.4687499999999999
 40
0.4999999999999999
 40
0.4999999999999999
 40
0.5624999999999999
 40
0.5624999999999999
 40
0.5937499999999999
 40
0.5937499999999999
 40
0.6249999999999999
 40
0.6249999999999999
 40
0.6562499999999999
 40
0.6562499999999999
 40
0.6874999999999999
 40
0.6874999999999999
 40
0.7187499999999999
 40
0.7187499999999999
 40
0.7499999999999999
 40
0.7499999999999999
 40
0.78125
 40
0.78125
 40
0.8125
 40
0.8125
 40
0.84375
 40
0.84375
 40
0.875
 40
0.875
 40
0.90625
 40
0.90625
 40
0.9375
 40
0.9375
 40
0.96875
 40
0.96875
 40
1.0
 40
1.0
 40
1.0
 40
1.0
 10
120.1902950395425
 20
63.55019262491371
 30
0.0
 10
120.1502800871928
 20
63.8024822277293
 30
0.0
 10
120.0873382857815
 20
64.04648107810512
 30
0.0
 10
119.9179516237094
 20
64.51889946716763
 30
0.0
 10
119.8102580611239
 20
64.74931285332757
 30
0.0
 10
119.5549732925861
 20
65.18401744912467
 30
0.0
 10
119.4089340621138
 20
65.386659415776
 30
0.0
 10
119.0807126255546
 20
65.76364870653381
 30
0.0
 10
118.8964653377796
 20
65.93930666011119
 30
0.0
 10
118.5035051704713
 20
66.24956462905743
 30
0.0
 10
118.2942105735121
 20
66.38550983670734
 30
0.0
 10
117.8493251465748
 20
66.6188999321132
 30
0.0
 10
117.6125275540758
 20
66.71614653852758
 30
0.0
 10
117.1317924851565
 20
66.86281799639896
 30
0.0
 10
116.8855493919737
 20
66.91371034134136
 30
0.0
 10
116.3808326119943
 20
66.96923769157685
 30
0.0
 10
116.1246379110578
 20
66.9730625786468
 30
0.0
 10
115.6222591618577
 20
66.93363879600238
 30
0.0
 10
115.3730094626741
 20
66.89061134679113
 30
0.0
 10
114.8814816651953
 20
66.75690637733985
 30
0.0
 10
114.6461860639695
 20
66.66823653143466
 30
0.0
 10
114.1952721693073
 20
66.44920516765723
 30
0.0
 10
113.977659818844
 20
66.31720360197369
 30
0.0
 10
113.5744526492957
 20
66.01784632097078
 30
0.0
 10
113.3888411568612
 20
65.85122739353291
 30
0.0
 10
113.0488530864588
 20
65.48411596810544
 30
0.0
 10
112.8937801556359
 20
65.28181222256472
 30
0.0
 10
112.6274370789725
 20
64.85773154297071
 30
0.0
 10
112.5144529782557
 20
64.6345719375045
 30
0.0
 10
112.3295977213248
 20
64.16521669591035
 30
0.0
 10
112.2584569598214
 20
63.91900619257485
 30
0.0
 10
112.1644965485333
 20
63.42448036620368
 30
0.0
 10
112.1404872185769
 20
63.17354937111166
 30
0.0
 10
112.1399140979043
 20
62.40930399155545
 30
0.0
 10
112.2353132092229
 20
61.90707968950449
 30
0.0
 10
112.5131770014241
 20
61.19951518323211
 30
0.0
 10
112.6263389575046
 20
60.97580891949129
 30
0.0
 10
112.8924701395485
 20
60.55153900817071
 30
0.0
 10
113.0472979137482
 20
60.34928704611464
 30
0.0
 10
113.387479019536
 20
59.98157630474648
 30
0.0
 10
113.5729814764857
 20
59.81495942949713
 30
0.0
 10
113.9752752775451
 20
59.51591005070171
 30
0.0
 10
114.1932833257971
 20
59.38345334267329
 30
0.0
 10
114.6438816929474
 20
59.16424694196862
 30
0.0
 10
114.8784306918281
 20
59.07576181196499
 30
0.0
 10
115.3668906853805
 20
58.94227558202635
 30
0.0
 10
115.6191560810943
 20
58.89833386953258
 30
0.0
 10
116.1213367192546
 20
58.8585248730591
 30
0.0
 10
116.3738188366063
 20
58.86186908587261
 30
0.0
 10
116.8816838796758
 20
58.91704840586312
 30
0.0
 10
117.1292293528596
 20
58.96809433433253
 30
0.0
 10
117.6101968903303
 20
59.11450472256811
 30
0.0
 10
117.8461567554356
 20
59.21115092734172
 30
0.0
 10
118.2927272049572
 20
59.44505587165477
 30
0.0
 10
118.5023720675307
 20
59.58118088548127
 30
0.0
 10
118.8953587742851
 20
59.89123514981036
 30
0.0
 10
119.0797546781001
 20
60.06689239738548
 30
0.0
 10
119.4083050959605
 20
60.44403232004991
 30
0.0
 10
119.5542471924837
 20
60.64649852531976
 30
0.0
 10
119.8091325476858
 20
61.0800748234531
 30
0.0
 10
119.9174438604942
 20
61.31136666703464
 30
0.0
 10
120.0872788379111
 20
61.78472634716788
 30
0.0
 10
120.1502741990482
 20
62.02900814398865
 30
0.0
 10
120.1902950395425
 20
62.2813348708687
 30
0.0
  0
LINE
  5
126
330
1F
100
AcDbEntity
  8
0
  6
HIDDEN
 62
     7
370
     0
100
AcDbLine
 10
121.9402948384
 20
71.9157633605
 30
0.0
 11
121.9402948384
 21
53.9157641353
 31
0.0
  0
LINE
  5
127
330
1F
100
AcDbEntity
  8
0
  6
HIDDEN
 62
     7
370
     0
100
AcDbLine
 10
120.6902950991
 20
52.6657634648
 30
0.0
 11
120.6902950991
 21
73.165764031
 31
0.0
  0
LINE
  5
128
330
1F
100
AcDbEntity
  8
0
  6
HIDDEN
 62
     7
370
     0
100
AcDbLine
 10
158.6902957399
 20
53.9157641353
 30
0.0
 11
158.6902957399
 21
71.9157633605
 31
0.0
  0
LINE
  5
129
330
1F
100
AcDbEntity
  8
0
  6
HIDDEN
 62
     7
370
     0
100
AcDbLine
 10
161.5443821986
 20
58.6657635169
 30
0.0
 11
161.5443821986
 21
67.1657639789
 31
0.0
  0
LINE
  5
12A
330
1F
100
AcDbEntity
  8
0
  6
HIDDEN
 62
     7
370
     0
100
AcDbLine
 10
202.6902973641
 20
58.6657635169
 30
0.0
 11
202.6902973641
 21
67.1657639789
 31
0.0
  0
SPLINE
  5
12B
330
1F
100
AcDbEntity
  8
0
  6
HIDDEN
 62
     7
370
     0
100
AcDbSpline
210
0.0
220
0.0
230
1.0
 70
     8
 71
     3
 72
    64
 73
    60
 74
     0
 42
0.00000001
 43
0.00000001
 12
1.0
 22
0.0
 32
0.0
 13
1.0
 23
0.0
 33
0.0
 40
-0.0312500000000016
 40
-0.0312500000000016
 40
0.0
 40
0.0
 40
0.0312499999999998
 40
0.0312499999999998
 40
0.0624999999999996
 40
0.0624999999999996
 40
0.1249999999999982
 40
0.1249999999999982
 40
0.1562499999999976
 40
0.1562499999999976
 40
0.1874999999999969
 40
0.1874999999999969
 40
0.2187499999999962
 40
0.2187499999999962
 40
0.2499999999999956
 40
0.2499999999999956
 40
0.2812499999999949
 40
0.2812499999999949
 40
0.3124999999999943
 40
0.3124999999999943
 40
0.3437499999999936
 40
0.3437499999999936
 40
0.374999999999993
 40
0.374999999999993
 40
0.4062499999999923
 40
0.4062499999999923
 40
0.4374999999999916
 40
0.4374999999999916
 40
0.4687499999999909
 40
0.4687499999999909
 40
0.4999999999999902
 40
0.4999999999999902
 40
0.5312499999999895
 40
0.5312499999999895
 40
0.5624999999999887
 40
0.5624999999999887
 40
0.6249999999999883
 40
0.6249999999999883
 40
0.656249999999989
 40
0.656249999999989
 40
0.6874999999999897
 40
0.6874999999999897
 40
0.7187499999999903
 40
0.7187499999999903
 40
0.7499999999999911
 40
0.7499999999999911
 40
0.7812499999999918
 40
0.7812499999999918
 40
0.8124999999999925
 40
0.8124999999999925
 40
0.8437499999999931
 40
0.8437499999999931
 40
0.8749999999999938
 40
0.8749999999999938
 40
0.9374999999999969
 40
0.9374999999999969
 40
0.9687499999999984
 40
0.9687499999999984
 40
1.0
 40
1.0
 40
1.03125
 40
1.03125
 10
196.1902950395425
 20
63.08515474123138
 30
0.0
 10
196.1902950395425
 20
62.74637275455103
 30
0.0
 10
196.2073271629437
 20
62.58052064673483
 30
0.0
 10
196.2733893599489
 20
62.25539691874031
 30
0.0
 10
196.3233205095158
 20
62.09466342033157
 30
0.0
 10
196.5141486048826
 20
61.64238894455546
 30
0.0
 10
196.6990310079828
 20
61.37107706239774
 30
0.0
 10
197.036743601377
 20
61.03399197871411
 30
0.0
 10
197.1612930795563
 20
60.93138438568433
 30
0.0
 10
197.4267774726096
 20
60.75263365359582
 30
0.0
 10
197.5671840297383
 20
60.67638639275584
 30
0.0
 10
197.8652678605289
 20
60.55027871667128
 30
0.0
 10
198.0250212811772
 20
60.50021272513155
 30
0.0
 10
198.3497616628243
 20
60.43352424766856
 30
0.0
 10
198.5165062929601
 20
60.41607897146962
 30
0.0
 10
198.8548931318963
 20
60.4154569711324
 30
0.0
 10
199.0207677546222
 20
60.43214243003673
 30
0.0
 10
199.3464237411199
 20
60.49768968101906
 30
0.0
 10
199.5061503147283
 20
60.54704732451174
 30
0.0
 10
199.806093739737
 20
60.67267868818432
 30
0.0
 10
199.9495189256712
 20
60.75009295563332
 30
0.0
 10
200.2161837403757
 20
60.92894758918266
 30
0.0
 10
200.3390846164144
 20
61.02976304180247
 30
0.0
 10
200.565666016638
 20
61.25489366554391
 30
0.0
 10
200.6692956216818
 20
61.37978431080333
 30
0.0
 10
200.8491938856158
 20
61.64500338193394
 30
0.0
 10
200.9266982987592
 20
61.78637805521672
 30
0.0
 10
201.0553051071562
 20
62.08887865264597
 30
0.0
 10
201.1052781741523
 20
62.24855245875786
 30
0.0
 10
201.1720941588563
 20
62.57227055120389
 30
0.0
 10
201.1897718212184
 20
62.738969027368
 30
0.0
 10
201.1907953946371
 20
63.07743789397982
 30
0.0
 10
201.1742935450367
 20
63.24359884358745
 30
0.0
 10
201.1088768018596
 20
63.57012349929335
 30
0.0
 10
201.0592299376093
 20
63.73123618491804
 30
0.0
 10
200.8691767068367
 20
64.18456872394
 30
0.0
 10
200.6845604691486
 20
64.45678807316861
 30
0.0
 10
200.3462437673142
 20
64.7954702288866
 30
0.0
 10
200.2212778120546
 20
64.89859393825651
 30
0.0
 10
199.956430590806
 20
65.07734293436103
 30
0.0
 10
199.8158819237751
 20
65.15396887584609
 30
0.0
 10
199.5160787356807
 20
65.28105216919471
 30
0.0
 10
199.3564679702954
 20
65.33106480103734
 30
0.0
 10
199.0318145440722
 20
65.39786567549663
 30
0.0
 10
198.8626183905537
 20
65.41549056292921
 30
0.0
 10
198.5259915096277
 20
65.41603050109603
 30
0.0
 10
198.3600276561451
 20
65.39947514319161
 30
0.0
 10
198.0325555617435
 20
65.33346464316878
 30
0.0
 10
197.8735503879203
 20
65.28419439864639
 30
0.0
 10
197.5731122308465
 20
65.15818167177252
 30
0.0
 10
197.4290444829301
 20
65.0802405487963
 30
0.0
 10
197.1628546078267
 20
64.90137159330564
 30
0.0
 10
197.0397058355019
 20
64.80026982997293
 30
0.0
 10
196.6982714965704
 20
64.46013215595922
 30
0.0
 10
196.5162862986363
 20
64.19383021820235
 30
0.0
 10
196.3228920264511
 20
63.73603501437783
 30
0.0
 10
196.2741166779111
 20
63.57870356318962
 30
0.0
 10
196.2077978321627
 20
63.25431166071152
 30
0.0
 10
196.1902950395425
 20
63.08515474123138
 30
0.0
 10
196.1902950395425
 20
62.74637275455103
 30
0.0
  0
LINE
  5
12C
330
1F
100
AcDbEntity
  8
0
  6
HIDDEN
 62
     7
370
     0
100
AcDbLine
 10
246.2839350094
 20
67.522768327
 30
0.0
 11
237.4920263876
 21
64.7506897105
 31
0.0
  0
LINE
  5
12D
330
1F
100
AcDbEntity
  8
0
  6
HIDDEN
 62
     7
370
     0
100
AcDbLine
 10
237.4774754037
 20
64.7552764742
 30
0.0
 11
237.4920263876
 21
64.7506897105
 31
0.0
  0
LINE
  5
12E
330
1F
100
AcDbEntity
  8
0
  6
HIDDEN
 62
     7
370
     0
100
AcDbLine
 10
237.4774754037
 20
64.966265508
 30
0.0
 11
237.4774754037
 21
64.7552764742
 31
0.0
  0
LINE
  5
12F
330
1F
100
AcDbEntity
  8
0
  6
HIDDEN
 62
     7
370
     0
100
AcDbLine
 10
246.2839350094
 20
67.742931121
 30
0.0
 11
237.4774754037
 21
64.966265508
 31
0.0
  0
LINE
  5
130
330
1F
100
AcDbEntity
  8
0
  6
HIDDEN
 62
     7
370
     0
100
AcDbLine
 10
246.2839350094
 20
67.742931121
 30
0.0
 11
246.2839350094
 21
67.522768327
 31
0.0
  0
LINE
  5
131
330
1F
100
AcDbEntity
  8
0
  6
HIDDEN
 62
     7
370
     0
100
AcDbLine
 10
232.0682793845
 20
62.5707742176
 30
0.0
 11
246.2839350094
 21
58.0885963747
 31
0.0
  0
LINE
  5
132
330
1F
100
AcDbEntity
  8
0
  6
HIDDEN
 62
     7
370
     0
100
AcDbLine
 10
246.2839350094
 20
58.0885963747
 30
0.0
 11
246.2693840255
 21
58.0840100767
 31
0.0
  0
LINE
  5
133
330
1F
100
AcDbEntity
  8
0
  6
HIDDEN
 62
     7
370
     0
100
AcDbLine
 10
237.4774754037
 20
64.966265508
 30
0.0
 11
237.4629318703
 21
64.9708522717
 31
0.0
  0
LINE
  5
134
330
1F
100
AcDbEntity
  8
0
  6
HIDDEN
 62
     7
370
     0
100
AcDbLine
 10
246.2839350094
 20
67.742931121
 30
0.0
 11
246.2693840255
 21
67.7475174191
 31
0.0
  0
LINE
  5
135
330
1F
100
AcDbEntity
  8
0
  6
HIDDEN
 62
     7
370
     0
100
AcDbLine
 10
237.4774754037
 20
64.7552764742
 30
0.0
 11
237.1283411969
 21
64.8653577548
 31
0.0
  0
LINE
  5
136
330
1F
100
AcDbEntity
  8
0
  6
HIDDEN
 62
     7
370
     0
100
AcDbLine
 10
231.8664580573
 20
62.854571169
 30
0.0
 11
246.2839350094
 21
58.3087591687
 31
0.0
  0
LINE
  5
137
330
1F
100
AcDbEntity
  8
0
  6
HIDDEN
 62
     7
370
     0
100
AcDbLine
 10
246.2839350094
 20
58.0885963747
 30
0.0
 11
246.2839350094
 21
58.3087591687
 31
0.0
  0
LINE
  5
138
330
1F
100
AcDbEntity
  8
0
  6
HIDDEN
 62
     7
370
     0
100
AcDbLine
 10
245.9551632394
 20
58.4124190966
 30
0.0
 11
246.2839350094
 21
58.3087591687
 31
0.0
  0
LINE
  5
139
330
1F
100
AcDbEntity
  8
0
  6
HIDDEN
 62
     7
370
     0
100
AcDbLine
 10
245.9551632394
 20
67.4191083992
 30
0.0
 11
246.2839350094
 21
67.522768327
 31
0.0
  0
LINE
  5
13A
330
1F
100
AcDbEntity
  8
0
  6
HIDDEN
 62
     7
370
     0
100
AcDbLine
 10
251.9227579225
 20
62.7285741095
 30
0.0
 11
259.6442565311
 21
62.7285741095
 31
0.0
  0
LINE
  5
13B
330
1F
100
AcDbEntity
  8
0
  6
HIDDEN
 62
     7
370
     0
100
AcDbLine
 10
259.6442565311
 20
63.1029533863
 30
0.0
 11
251.9227579225
 21
63.1029533863
 31
0.0
  0
CIRCLE
  5
13C
330
1F
100
AcDbEntity
  8
0
  6
HIDDEN
 62
     7
370
     0
100
AcDbCircle
 10
246.6827597436
 20
62.9157637479
 30
0.0
 40
2.100000000000001
  0
LINE
  5
13D
330
1F
100
AcDbEntity
  8
0
  6
HIDDEN
 62
     7
370
     0
100
AcDbLine
 10
259.6442565311
 20
62.7285741095
 30
0.0
 11
259.6442565311
 21
63.1029533863
 31
0.0
  0
LINE
  5
13E
330
1F
100
AcDbEntity
  8
0
  6
HIDDEN
 62
     7
370
     0
100
AcDbLine
 10
245.9551632394
 20
67.4191083992
 30
0.0
 11
237.4920263876
 21
64.7506897105
 31
0.0
  0
LINE
  5
13F
330
1F
100
AcDbEntity
  8
0
  6
HIDDEN
 62
     7
370
     0
100
AcDbLine
 10
230.9199213971
 20
63.1530134735
 30
0.0
 11
245.9551632394
 21
58.4124190966
 31
0.0
  0
ARC
  5
140
330
1F
100
AcDbEntity
  8
0
  6
HIDDEN
 62
     7
370
     0
100
AcDbCircle
 10
231.4461567425
 20
64.8220181397
 30
0.0
 40
1.750000000000014
100
AcDbArc
 50
72.5
 51
252.5
  0
LINE
  5
141
330
1F
100
AcDbEntity
  8
0
  6
HIDDEN
 62
     7
370
     0
100
AcDbLine
 10
237.4920263876
 20
64.7506897105
 30
0.0
 11
231.9723904122
 21
66.491022869
 31
0.0
  0
LINE
  5
142
330
1F
100
AcDbEntity
  8
0
  6
HIDDEN
 62
     7
370
     0
100
AcDbLine
 10
259.6442565311
 20
62.7285741095
 30
0.0
 11
245.9551632394
 21
58.4124190966
 31
0.0
  0
LINE
  5
143
330
1F
100
AcDbEntity
  8
0
  6
HIDDEN
 62
     7
370
     0
100
AcDbLine
 10
259.6442565311
 20
63.1029533863
 30
0.0
 11
245.9551632394
 21
67.4191083992
 31
0.0
  0
CIRCLE
  5
144
330
1F
100
AcDbEntity
  8
0
  6
HIDDEN
 62
     7
370
     0
100
AcDbCircle
 10
246.6827597436
 20
62.9157637479
 30
0.0
 40
1.649999999999999
  0
LINE
  5
145
330
1F
100
AcDbEntity
  8
0
  6
HIDDEN
 62
     7
370
     0
100
AcDbLine
 10
95.190295576
 20
47.8117111372
 30
0.0
 11
95.190295576
 21
41.7574000778
 31
0.0
  0
LINE
  5
146
330
1F
100
AcDbEntity
  8
0
  6
HIDDEN
 62
     7
370
     0
100
AcDbLine
 10
93.6902962614
 20
48.2447239803
 30
0.0
 11
93.6902962614
 21
42.623425764
 31
0.0
  0
SPLINE
  5
147
330
1F
100
AcDbEntity
  8
0
  6
HIDDEN
 62
     7
370
     0
100
AcDbSpline
210
0.0
220
0.0
230
1.0
 70
     8
 71
     3
 72
    16
 73
    12
 74
     0
 42
0.00000001
 43
0.00000001
 12
1.0
 22
0.0
 32
0.0
 13
1.0
 23
0.0
 33
0.0
 40
0.0
 40
0.0
 40
0.0
 40
0.0
 40
0.25
 40
0.25
 40
0.3750000000000001
 40
0.3750000000000001
 40
0.5000000000000002
 40
0.5000000000000002
 40
0.7500000000000001
 40
0.7500000000000001
 40
1.0
 40
1.0
 40
1.0
 40
1.0
 10
130.3689746959828
 20
46.33185712165015
 30
0.0
 10
130.2077422184983
 20
45.61746295945804
 30
0.0
 10
130.0872623788587
 20
44.96412069674935
 30
0.0
 10
129.9648818615454
 20
44.07586545494549
 30
0.0
 10
129.933904201148
 20
43.79518491859364
 30
0.0
 10
129.89229046352
 20
43.26615092875366
 30
0.0
 10
129.8820545505872
 20
43.0228299501752
 30
0.0
 10
129.8818661535311
 20
42.35480725966198
 30
0.0
 10
129.9220108561687
 20
41.99112635024252
 30
0.0
 10
130.0861646111083
 20
41.4312354776942
 30
0.0
 10
130.2077162615178
 20
41.24371418557705
 30
0.0
 10
130.3689746959828
 20
41.1456827928891
 30
0.0
  0
LINE
  5
148
330
1F
100
AcDbEntity
  8
0
  6
HIDDEN
 62
     7
370
     0
100
AcDbLine
 10
129.4902950515
 20
47.38084313
 30
0.0
 11
129.4902950515
 21
40.8956640633
 31
0.0
  0
LINE
  5
149
330
1F
100
AcDbEntity
  8
0
  6
HIDDEN
 62
     7
370
     0
100
AcDbLine
 10
129.4902950515
 20
84.9358634325
 30
0.0
 11
129.4902950515
 21
78.4506843658
 31
0.0
  0
LINE
  5
14A
330
1F
100
AcDbEntity
  8
0
  6
HIDDEN
 62
     7
370
     0
100
AcDbLine
 10
95.190295576
 20
84.074127418
 30
0.0
 11
95.190295576
 21
78.0198163586
 31
0.0
  0
SPLINE
  5
14B
330
1F
100
AcDbEntity
  8
0
  6
HIDDEN
 62
     7
370
     0
100
AcDbSpline
210
0.0
220
0.0
230
1.0
 70
     8
 71
     3
 72
    16
 73
    12
 74
     0
 42
0.00000001
 43
0.00000001
 12
1.0
 22
0.0
 32
0.0
 13
1.0
 23
0.0
 33
0.0
 40
0.0
 40
0.0
 40
0.0
 40
0.0
 40
0.2500000000000008
 40
0.2500000000000008
 40
0.3750000000000009
 40
0.3750000000000009
 40
0.5000000000000011
 40
0.5000000000000011
 40
0.7500000000000006
 40
0.7500000000000006
 40
1.0
 40
1.0
 40
1.0
 40
1.0
 10
130.3689746959828
 20
84.68584470289332
 30
0.0
 10
130.2077422184984
 20
84.5878290898386
 30
0.0
 10
130.0872623788587
 20
84.40109305816256
 30
0.0
 10
129.9648818615454
 20
83.98805325060366
 30
0.0
 10
129.933904201148
 20
83.82805275137073
 30
0.0
 10
129.89229046352
 20
83.46124710027956
 30
0.0
 10
129.8820545505872
 20
83.25790994765558
 30
0.0
 10
129.8818661535311
 20
82.5906226810289
 30
0.0
 10
129.9220108561687
 20
82.06980821714083
 30
0.0
 10
130.0861646111082
 20
80.87244920166314
 30
0.0
 10
130.2077162615178
 20
80.21417954736717
 30
0.0
 10
130.3689746959828
 20
79.49967037413224
 30
0.0
  0
LINE
  5
14C
330
1F
100
AcDbEntity
  8
0
  6
HIDDEN
 62
     7
370
     0
100
AcDbLine
 10
93.6902962614
 20
83.2081017317
 30
0.0
 11
93.6902962614
 21
77.5868035155
 31
0.0
  0
LINE
  5
14D
330
1F
100
AcDbEntity
  8
0
  6
HIDDEN
 62
     7
370
     0
100
AcDbLine
 10
93.6902962614
 20
77.5868035155
 30
0.0
 11
93.6902962614
 21
65.8177511534
 31
0.0
  0
LINE
  5
14E
330
1F
100
AcDbEntity
  8
0
  6
HIDDEN
 62
     7
370
     0
100
AcDbLine
 10
93.6902962614
 20
60.0137763424
 30
0.0
 11
93.6902962614
 21
48.2447239803
 31
0.0
  0
LINE
  5
14F
330
1F
100
AcDbEntity
  8
0
  6
HIDDEN
 62
     7
370
     0
100
AcDbLine
 10
95.190295576
 20
58.950552647
 30
0.0
 11
95.190295576
 21
47.8117111372
 31
0.0
  0
LINE
  5
150
330
1F
100
AcDbEntity
  8
0
  6
HIDDEN
 62
     7
370
     0
100
AcDbLine
 10
95.190295576
 20
78.0198163586
 30
0.0
 11
95.190295576
 21
66.8809748488
 31
0.0
  0
LINE
  5
151
330
1F
100
AcDbEntity
  8
0
  6
HIDDEN
 62
     7
370
     0
100
AcDbLine
 10
131.4902950446
 20
77.953470801
 30
0.0
 11
131.4902950446
 21
47.8780566948
 31
0.0
  0
LINE
  5
152
330
1F
100
AcDbEntity
  8
0
  6
HIDDEN
 62
     7
370
     0
100
AcDbLine
 10
129.4902950515
 20
78.4506843658
 30
0.0
 11
129.4902950515
 21
47.38084313
 31
0.0
  0
CIRCLE
  5
153
330
1F
100
AcDbEntity
  8
0
  6
HIDDEN
 62
     7
370
     0
100
AcDbCircle
 10
246.6827597436
 20
62.9157637479
 30
0.0
 40
1.649999999999977
  0
SPLINE
  5
154
330
1F
100
AcDbEntity
  8
0
  6
HIDDEN
 62
     7
370
     0
100
AcDbSpline
210
0.0
220
0.0
230
1.0
 70
     8
 71
     3
 72
    24
 73
    20
 74
     0
 42
0.00000001
 43
0.00000001
 12
1.0
 22
0.0
 32
0.0
 13
1.0
 23
0.0
 33
0.0
 40
0.0
 40
0.0
 40
0.0
 40
0.0
 40
0.1249999999999999
 40
0.1249999999999999
 40
0.2499999999999998
 40
0.2499999999999998
 40
0.3749999999999998
 40
0.3749999999999998
 40
0.4374999999999998
 40
0.4374999999999998
 40
0.4999999999999998
 40
0.4999999999999998
 40
0.6249999999999998
 40
0.6249999999999998
 40
0.7499999999999998
 40
0.7499999999999998
 40
0.8749999999999999
 40
0.8749999999999999
 40
1.0
 40
1.0
 40
1.0
 40
1.0
 10
100.1402950395425
 20
58.82980269479196
 30
0.0
 10
100.3780986718176
 20
59.12880979712209
 30
0.0
 10
100.6081843330289
 20
59.43314764844083
 30
0.0
 10
101.0429377316387
 20
60.05888118583681
 30
0.0
 10
101.2478705239248
 20
60.38010591316433
 30
0.0
 10
101.6129724744236
 20
61.05203168389706
 30
0.0
 10
101.7747728602151
 20
61.40734691577595
 30
0.0
 10
101.9466330647948
 20
61.95757813712839
 30
0.0
 10
101.9922182564549
 20
62.14398192210886
 30
0.0
 10
102.0546929960298
 20
62.52411642420512
 30
0.0
 10
102.0713641417782
 20
62.719786216491
 30
0.0
 10
102.0718851849547
 20
63.29826659516542
 30
0.0
 10
102.007442884068
 20
63.67617843413421
 30
0.0
 10
101.7775937906947
 20
64.41814645923264
 30
0.0
 10
101.6190731130316
 20
64.7668619193936
 30
0.0
 10
101.2548387831314
 20
65.43995431712676
 30
0.0
 10
101.0481025430678
 20
65.76490680436841
 30
0.0
 10
100.6101645973275
 20
66.39583061483019
 30
0.0
 10
100.3788918700479
 20
66.70172035517083
 30
0.0
 10
100.1402950395426
 20
67.00172480099033
 30
0.0
  0
LINE
  5
155
330
1F
100
AcDbEntity
  8
0
  6
HIDDEN
 62
     7
370
     0
100
AcDbLine
 10
100.1402936865
 20
58.8298024843
 30
0.0
 11
100.1402936865
 21
67.0017250115
 31
0.0
  0
SPLINE
  5
156
330
1F
100
AcDbEntity
  8
0
  6
HIDDEN
 62
     7
370
     0
100
AcDbSpline
210
0.0
220
0.0
230
1.0
 70
     8
 71
     3
 72
     8
 73
     4
 74
     0
 42
0.00000001
 43
0.00000001
 12
1.0
 22
0.0
 32
0.0
 13
1.0
 23
0.0
 33
0.0
 40
0.0000249638557296
 40
0.0000249638557296
 40
0.0000249638557296
 40
0.0000249638557296
 40
0.0049776420541172
 40
0.0049776420541172
 40
0.0049776420541172
 40
0.0049776420541172
 10
95.19029503954249
 20
58.95055285105466
 30
0.0
 10
96.84027127405203
 20
58.90927361328645
 30
0.0
 10
98.49027259379706
 20
58.86905193204697
 30
0.0
 10
100.1402950395425
 20
58.82980269479196
 30
0.0
  0
SPLINE
  5
157
330
1F
100
AcDbEntity
  8
0
  6
HIDDEN
 62
     7
370
     0
100
AcDbSpline
210
0.0
220
0.0
230
1.0
 70
     8
 71
     3
 72
     8
 73
     4
 74
     0
 42
0.00000001
 43
0.00000001
 12
1.0
 22
0.0
 32
0.0
 13
1.0
 23
0.0
 33
0.0
 40
0.0000249631533153
 40
0.0000249631533153
 40
0.0000249631533153
 40
0.0000249631533153
 40
0.0049776413517029
 40
0.0049776413517029
 40
0.0049776413517029
 40
0.0049776413517029
 10
100.1402950395425
 20
67.00172480099046
 30
0.0
 10
98.49027259379706
 20
66.96247556373544
 30
0.0
 10
96.84027127405201
 20
66.92225388249595
 30
0.0
 10
95.19029503954246
 20
66.88097464472776
 30
0.0
  0
SPLINE
  5
158
330
1F
100
AcDbEntity
  8
0
  6
HIDDEN
 62
     7
370
     0
100
AcDbSpline
210
0.0
220
0.0
230
1.0
 70
     8
 71
     3
 72
     8
 73
     4
 74
     0
 42
0.00000001
 43
0.00000001
 12
1.0
 22
0.0
 32
0.0
 13
1.0
 23
0.0
 33
0.0
 40
0.0
 40
0.0
 40
0.0
 40
0.0
 40
1.0
 40
1.0
 40
1.0
 40
1.0
 10
93.69029503954025
 20
60.01377641491085
 30
0.0
 10
94.15705565091802
 20
59.59841316928782
 30
0.0
 10
94.6628031976981
 20
59.25382273998324
 30
0.0
 10
95.19029503954249
 20
58.95055285105466
 30
0.0
  0
SPLINE
  5
159
330
1F
100
AcDbEntity
  8
0
  6
HIDDEN
 62
     7
370
     0
100
AcDbSpline
210
0.0
220
0.0
230
1.0
 70
     8
 71
     3
 72
     8
 73
     4
 74
     0
 42
0.00000001
 43
0.00000001
 12
1.0
 22
0.0
 32
0.0
 13
1.0
 23
0.0
 33
0.0
 40
0.0
 40
0.0
 40
0.0
 40
0.0
 40
1.0
 40
1.0
 40
1.0
 40
1.0
 10
95.19029503954249
 20
66.88097464472776
 30
0.0
 10
94.66280319769896
 20
66.57770475579967
 30
0.0
 10
94.15705565091967
 20
66.23311432649568
 30
0.0
 10
93.69029503954249
 20
65.81775108087355
 30
0.0
  0
LINE
  5
15A
330
1F
100
AcDbEntity
  8
0
  6
HIDDEN
 62
     7
370
     0
100
AcDbLine
 10
93.6902962614
 20
60.0137763424
 30
0.0
 11
93.6902962614
 21
65.8177511534
 31
0.0
  0
SPLINE
  5
15B
330
1F
100
AcDbEntity
  8
0
  6
HIDDEN
 62
     7
370
     0
100
AcDbSpline
210
0.0
220
0.0
230
1.0
 70
     8
 71
     3
 72
    72
 73
    68
 74
     0
 42
0.00000001
 43
0.00000001
 12
1.0
 22
0.0
 32
0.0
 13
1.0
 23
0.0
 33
0.0
 40
-0.03125
 40
-0.03125
 40
0.0
 40
0.0
 40
0.03125
 40
0.03125
 40
0.0625
 40
0.0625
 40
0.09375
 40
0.09375
 40
0.125
 40
0.125
 40
0.15625
 40
0.15625
 40
0.1875
 40
0.1875
 40
0.21875
 40
0.21875
 40
0.25
 40
0.25
 40
0.28125
 40
0.28125
 40
0.3125
 40
0.3125
 40
0.34375
 40
0.34375
 40
0.375
 40
0.375
 40
0.390625
 40
0.390625
 40
0.40625
 40
0.40625
 40
0.4375
 40
0.4375
 40
0.46875
 40
0.46875
 40
0.5
 40
0.5
 40
0.53125
 40
0.53125
 40
0.5625
 40
0.5625
 40
0.59375
 40
0.59375
 40
0.625
 40
0.625
 40
0.65625
 40
0.65625
 40
0.6875
 40
0.6875
 40
0.71875
 40
0.71875
 40
0.75
 40
0.75
 40
0.78125
 40
0.78125
 40
0.8125
 40
0.8125
 40
0.84375
 40
0.84375
 40
0.875
 40
0.875
 40
0.90625
 40
0.90625
 40
0.9375
 40
0.9375
 40
0.96875
 40
0.96875
 40
1.0
 40
1.0
 40
1.03125
 40
1.03125
 10
112.8142413583677
 20
65.35659739770605
 30
0.0
 10
113.1886715782416
 20
65.76695319819119
 30
0.0
 10
113.3935241795072
 20
65.95060228084971
 30
0.0
 10
113.8363923763542
 20
66.27755718434501
 30
0.0
 10
114.0763477936724
 20
66.42133539252485
 30
0.0
 10
114.571958776447
 20
66.65885274797074
 30
0.0
 10
114.8292250676015
 20
66.75417231286845
 30
0.0
 10
115.3625788354385
 20
66.89825784550295
 30
0.0
 10
115.6368589753368
 20
66.94599385247253
 30
0.0
 10
116.1832875099164
 20
66.99157599300636
 30
0.0
 10
116.4578638283841
 20
66.99014223293412
 30
0.0
 10
117.0098310026549
 20
66.93722892484325
 30
0.0
 10
117.2804479652265
 20
66.8862591986391
 30
0.0
 10
117.8067331363057
 20
66.7376525716955
 30
0.0
 10
118.0643646997134
 20
66.6393672009384
 30
0.0
 10
118.5602908643869
 20
66.39511384175267
 30
0.0
 10
118.7932745421785
 20
66.25203371073049
 30
0.0
 10
119.2296078175035
 20
65.92417516026165
 30
0.0
 10
119.4348890713618
 20
65.73718152256143
 30
0.0
 10
119.802923369222
 20
65.32775090273843
 30
0.0
 10
119.9644383592072
 20
65.10764546175395
 30
0.0
 10
120.2415960423543
 20
64.63589538031592
 30
0.0
 10
120.357990221788
 20
64.38087885387468
 30
0.0
 10
120.5312642584346
 20
63.8596410304777
 30
0.0
 10
120.5897108129004
 20
63.59215691269678
 30
0.0
 10
120.6335755383763
 20
63.18024125336433
 30
0.0
 10
120.6407557550057
 20
63.0405339502888
 30
0.0
 10
120.6397877277102
 20
62.76441089482638
 30
0.0
 10
120.6317849382966
 20
62.6272343284956
 30
0.0
 10
120.5857122063841
 20
62.21830088723234
 30
0.0
 10
120.5247773739321
 20
61.9463746382281
 30
0.0
 10
120.3466572175236
 20
61.42319412177301
 30
0.0
 10
120.2310893061812
 20
61.17448212140963
 30
0.0
 10
119.9492425222419
 20
60.70159759641767
 30
0.0
 10
119.7823725768273
 20
60.47798837918555
 30
0.0
 10
119.4130470220285
 20
60.07333099099792
 30
0.0
 10
119.208261865731
 20
59.88891740282838
 30
0.0
 10
118.7636089182148
 20
59.55989136793399
 30
0.0
 10
118.528759788704
 20
59.41872329194577
 30
0.0
 10
118.035350026227
 20
59.18031376316527
 30
0.0
 10
117.7740630725223
 20
59.0825312067604
 30
0.0
 10
117.2433247920096
 20
58.93720317857027
 30
0.0
 10
116.9736850911124
 20
58.88891378837531
 30
0.0
 10
116.4259337513672
 20
58.84049856458867
 30
0.0
 10
116.1460297095086
 20
58.84095675022463
 30
0.0
 10
115.5989518016736
 20
58.8911086058268
 30
0.0
 10
115.3293466969861
 20
58.94028217285882
 30
0.0
 10
114.7981919403301
 20
59.08795669616585
 30
0.0
 10
114.5368971238865
 20
59.18711186053145
 30
0.0
 10
114.0445831457111
 20
59.42812463100816
 30
0.0
 10
113.8106262701325
 20
59.57061275563289
 30
0.0
 10
113.368457649602
 20
59.90210018461782
 30
0.0
 10
113.1632641184904
 20
60.0895338126062
 30
0.0
 10
112.7975699021324
 20
60.49643753165662
 30
0.0
 10
112.634799279744
 20
60.71761660632561
 30
0.0
 10
112.3538468489785
 20
61.19736393554088
 30
0.0
 10
112.240642996705
 20
61.44737590235118
 30
0.0
 10
112.0680342725661
 20
61.96745111237158
 30
0.0
 10
112.0084279898897
 20
62.24118257700137
 30
0.0
 10
111.9505362198198
 20
62.78980022689985
 30
0.0
 10
111.9513257586798
 20
63.06414009079143
 30
0.0
 10
112.0125162342962
 20
63.61288204193038
 30
0.0
 10
112.0736449580302
 20
63.88594735578754
 30
0.0
 10
112.24972464366
 20
64.40611260455591
 30
0.0
 10
112.36605523865
 20
64.65843173811484
 30
0.0
 10
112.6492564683907
 20
65.13483607952182
 30
0.0
 10
112.8142413583677
 20
65.35659739770605
 30
0.0
 10
113.1886715782416
 20
65.76695319819119
 30
0.0
  0
CIRCLE
  5
15C
330
1F
100
AcDbEntity
  8
0
  6
HIDDEN
 62
     7
370
     0
100
AcDbCircle
 10
116.1902950395
 20
62.9157637479
 30
0.0
 40
4.049999999999997
  0
CIRCLE
  5
15D
330
1F
100
AcDbEntity
  8
0
  6
HIDDEN
 62
     7
370
     0
100
AcDbCircle
 10
143.6902950395
 20
62.9157637479
 30
0.0
 40
2.0
  0
LINE
  5
15E
330
1F
100
AcDbEntity
  8
0
  6
HIDDEN
 62
     7
370
     0
100
AcDbLine
 10
131.6902950395
 20
38.6657630326
 30
0.0
 11
131.78318826
 21
38.7586568715
 31
0.0
  0
LINE
  5
15F
330
1F
100
AcDbEntity
  8
0
  6
HIDDEN
 62
     7
370
     0
100
AcDbLine
 10
131.78318826
 20
87.0728706243
 30
0.0
 11
131.6902950395
 21
87.1657644631
 31
0.0
  0
ARC
  5
160
330
1F
100
AcDbEntity
  8
0
  6
HIDDEN
 62
     7
370
     0
100
AcDbCircle
 10
131.0760814772
 20
39.4657637479
 30
0.0
 40
1.000000000000013
100
AcDbArc
 50
315.0
 51
0.0
  0
ARC
  5
161
330
1F
100
AcDbEntity
  8
0
  6
HIDDEN
 62
     7
370
     0
100
AcDbCircle
 10
131.0760814772
 20
39.4657637479
 30
0.0
 40
1.000000000000016
100
AcDbArc
 50
0.0
 51
52.1052014664
  0
ARC
  5
162
330
1F
100
AcDbEntity
  8
0
  6
HIDDEN
 62
     7
370
     0
100
AcDbCircle
 10
131.0760814772
 20
86.3657637479
 30
0.0
 40
1.000000000000008
100
AcDbArc
 50
351.8087250651
 51
45.0
  0
ARC
  5
163
330
1F
100
AcDbEntity
  8
0
  6
HIDDEN
 62
     7
370
     0
100
AcDbCircle
 10
131.0760814772
 20
86.3657637479
 30
0.0
 40
1.000000000000016
100
AcDbArc
 50
307.8947985336
 51
351.8087250651
  0
LINE
  5
164
330
1F
100
AcDbEntity
  8
0
  6
HIDDEN
 62
     7
370
     0
100
AcDbLine
 10
132.0760814753
 20
39.4657635363
 30
0.0
 11
132.0760814753
 21
86.3657639595
 31
0.0
  0
LINE
  5
165
330
1F
100
AcDbEntity
  8
0
  6
HIDDEN
 62
     7
370
     0
100
AcDbLine
 10
132.0760814753
 20
39.4657635363
 30
0.0
 11
132.0760814753
 21
86.3657639595
 31
0.0
  0
LINE
  5
166
330
1F
100
AcDbEntity
  8
0
  6
HIDDEN
 62
     7
370
     0
100
AcDbLine
 10
209.8908811797
 20
65.415763692
 30
0.0
 11
198.9051192988
 21
65.415763692
 31
0.0
  0
LINE
  5
167
330
1F
100
AcDbEntity
  8
0
  6
HIDDEN
 62
     7
370
     0
100
AcDbLine
 10
198.9051192988
 20
60.4157638038
 30
0.0
 11
209.8908811797
 21
60.4157638038
 31
0.0
  0
LINE
  5
168
330
1F
100
AcDbEntity
  8
0
  6
HIDDEN
 62
     7
370
     0
100
AcDbLine
 10
93.6902962614
 20
46.7193340184
 30
0.0
 11
95.2205225815
 21
47.6028126897
 31
0.0
  0
LINE
  5
169
330
1F
100
AcDbEntity
  8
0
  6
HIDDEN
 62
     7
370
     0
100
AcDbLine
 10
95.2205225815
 20
78.228714806
 30
0.0
 11
93.6902962614
 21
79.1121934774
 31
0.0
  0
ARC
  5
16A
330
1F
100
AcDbEntity
  8
0
  6
HIDDEN
 62
     7
370
     0
100
AcDbCircle
 10
104.6920963544
 20
48.9157637479
 30
0.0
 40
2.000000000000016
100
AcDbArc
 50
270.0
 51
315.0
  0
ARC
  5
16B
330
1F
100
AcDbEntity
  8
0
  6
HIDDEN
 62
     7
370
     0
100
AcDbCircle
 10
104.6920963544
 20
76.9157637479
 30
0.0
 40
2.000000000000026
100
AcDbArc
 50
45.0
 51
90.0
  0
LINE
  5
16C
330
1F
100
AcDbEntity
  8
0
  6
HIDDEN
 62
     7
370
     0
100
AcDbLine
 10
103.6902941753
 20
46.9157629879
 30
0.0
 11
104.692095517
 21
46.9157629879
 31
0.0
  0
LINE
  5
16D
330
1F
100
AcDbEntity
  8
0
  6
HIDDEN
 62
     7
370
     0
100
AcDbLine
 10
104.692095517
 20
78.9157645079
 30
0.0
 11
103.6902941753
 21
78.9157645079
 31
0.0
  0
ARC
  5
16E
330
1F
100
AcDbEntity
  8
0
  6
HIDDEN
 62
     7
370
     0
100
AcDbCircle
 10
103.6902950395
 20
48.9157637479
 30
0.0
 40
1.999999999999993
100
AcDbArc
 50
189.9742217944
 51
270.0
  0
ARC
  5
16F
330
1F
100
AcDbEntity
  8
0
  6
HIDDEN
 62
     7
370
     0
100
AcDbCircle
 10
103.6902950395
 20
76.9157637479
 30
0.0
 40
2.0
100
AcDbArc
 50
90.0
 51
170.0257782056
  0
LINE
  5
170
330
1F
100
AcDbEntity
  8
0
  6
HIDDEN
 62
     7
370
     0
100
AcDbLine
 10
106.1063107092
 20
47.5015499862
 30
0.0
 11
107.5205240388
 21
48.9157633158
 31
0.0
  0
LINE
  5
171
330
1F
100
AcDbEntity
  8
0
  6
HIDDEN
 62
     7
370
     0
100
AcDbLine
 10
107.5205240388
 20
76.91576418
 30
0.0
 11
106.1063107092
 21
78.3299775096
 31
0.0
  0
LINE
  5
172
330
1F
100
AcDbEntity
  8
0
  6
HIDDEN
 62
     7
370
     0
100
AcDbLine
 10
95.2205225815
 20
47.6028126897
 30
0.0
 11
100.1205235709
 21
48.9157633158
 31
0.0
  0
LINE
  5
173
330
1F
100
AcDbEntity
  8
0
  6
HIDDEN
 62
     7
370
     0
100
AcDbLine
 10
100.1205235709
 20
76.91576418
 30
0.0
 11
95.2205225815
 21
78.228714806
 31
0.0
  0
LINE
  5
174
330
1F
100
AcDbEntity
  8
0
  6
HIDDEN
 62
     7
370
     0
100
AcDbLine
 10
101.7205227156
 20
77.2621742683
 30
0.0
 11
101.1205237348
 21
76.91576418
 31
0.0
  0
LINE
  5
175
330
1F
100
AcDbEntity
  8
0
  6
HIDDEN
 62
     7
370
     0
100
AcDbLine
 10
101.1205237348
 20
48.9157633158
 30
0.0
 11
101.7205227156
 21
48.5693532275
 31
0.0
  0
ARC
  5
176
330
1F
100
AcDbEntity
  8
0
  6
HIDDEN
 62
     7
370
     0
100
AcDbCircle
 10
120.1902950395
 20
49.4157637479
 30
0.0
 40
0.5
100
AcDbArc
 50
270.0
 51
0.0
  0
ARC
  5
177
330
1F
100
AcDbEntity
  8
0
  6
HIDDEN
 62
     7
370
     0
100
AcDbCircle
 10
120.1902950395
 20
76.4157637479
 30
0.0
 40
0.5
100
AcDbArc
 50
0.0
 51
90.0
  0
LINE
  5
178
330
1F
100
AcDbEntity
  8
0
  6
HIDDEN
 62
     7
370
     0
100
AcDbLine
 10
100.1205235709
 20
48.9157633158
 30
0.0
 11
101.1205237348
 21
48.9157633158
 31
0.0
  0
LINE
  5
179
330
1F
100
AcDbEntity
  8
0
  6
HIDDEN
 62
     7
370
     0
100
AcDbLine
 10
101.1205237348
 20
76.91576418
 30
0.0
 11
100.1205235709
 21
76.91576418
 31
0.0
  0
LINE
  5
17A
330
1F
100
AcDbEntity
  8
0
  6
HIDDEN
 62
     7
370
     0
100
AcDbLine
 10
107.5205240388
 20
48.9157633158
 30
0.0
 11
120.1902950172
 21
48.9157633158
 31
0.0
  0
LINE
  5
17B
330
1F
100
AcDbEntity
  8
0
  6
HIDDEN
 62
     7
370
     0
100
AcDbLine
 10
120.1902950172
 20
76.91576418
 30
0.0
 11
107.5205240388
 21
76.91576418
 31
0.0
  0
LINE
  5
17C
330
1F
100
AcDbEntity
  8
0
  6
HIDDEN
 62
     7
370
     0
100
AcDbLine
 10
120.6902950991
 20
52.6657634648
 30
0.0
 11
121.9402948384
 21
53.9157641353
 31
0.0
  0
LINE
  5
17D
330
1F
100
AcDbEntity
  8
0
  6
HIDDEN
 62
     7
370
     0
100
AcDbLine
 10
121.9402948384
 20
71.9157633605
 30
0.0
 11
120.6902950991
 21
73.165764031
 31
0.0
  0
LINE
  5
17E
330
1F
100
AcDbEntity
  8
0
  6
HIDDEN
 62
     7
370
     0
100
AcDbLine
 10
158.6902957399
 20
71.9157633605
 30
0.0
 11
121.9402948384
 21
71.9157633605
 31
0.0
  0
LINE
  5
17F
330
1F
100
AcDbEntity
  8
0
  6
HIDDEN
 62
     7
370
     0
100
AcDbLine
 10
121.9402948384
 20
53.9157641353
 30
0.0
 11
158.6902957399
 21
53.9157641353
 31
0.0
  0
LINE
  5
180
330
1F
100
AcDbEntity
  8
0
  6
HIDDEN
 62
     7
370
     0
100
AcDbLine
 10
158.6902957399
 20
53.9157641353
 30
0.0
 11
161.5443821986
 21
58.6657635169
 31
0.0
  0
LINE
  5
181
330
1F
100
AcDbEntity
  8
0
  6
HIDDEN
 62
     7
370
     0
100
AcDbLine
 10
161.5443821986
 20
67.1657639789
 30
0.0
 11
158.6902957399
 21
71.9157633605
 31
0.0
  0
LINE
  5
182
330
1F
100
AcDbEntity
  8
0
  6
HIDDEN
 62
     7
370
     0
100
AcDbLine
 10
202.6902973641
 20
67.1657639789
 30
0.0
 11
161.5443821986
 21
67.1657639789
 31
0.0
  0
LINE
  5
183
330
1F
100
AcDbEntity
  8
0
  6
HIDDEN
 62
     7
370
     0
100
AcDbLine
 10
161.5443821986
 20
58.6657635169
 30
0.0
 11
202.6902973641
 21
58.6657635169
 31
0.0
  0
LINE
  5
184
330
1F
100
AcDbEntity
  8
0
  6
HIDDEN
 62
     7
370
     0
100
AcDbLine
 10
202.6902973641
 20
58.6657635169
 30
0.0
 11
205.2439540614
 21
62.9157637479
 31
0.0
  0
LINE
  5
185
330
1F
100
AcDbEntity
  8
0
  6
HIDDEN
 62
     7
370
     0
100
AcDbLine
 10
205.2439540614
 20
62.9157637479
 30
0.0
 11
202.6902973641
 21
67.1657639789
 31
0.0
  0
DIMENSION
  5
186
330
1F
100
AcDbEntity
  8
VERMASSUNG
100
AcDbDimension
  2
_D
 10
83.6902950395
 20
31.4157637479
 30
0.0
 11
83.6902950395
 21
62.9157637479
 31
0.0
 70
   160
  1
PSC%%c<>
 71
     2
 42
-1.0
  3
SLDDIMSTYLE0
100
AcDbAlignedDimension
 13
132.1902950395
 23
94.4157637479
 33
0.0
 14
132.1902950395
 24
31.4157637479
 34
0.0
 50
90.0
100
AcDbRotatedDimension
  0
LINE
  5
193
330
1F
100
AcDbEntity
  8
VERMASSUNG
  6
CENTERX2
370
     0
100
AcDbLine
 10
88.1355308975
 20
62.9157637479
 30
0.0
 11
265.1079717222
 21
62.9157637479
 31
0.0
  0
LINE
  5
194
330
1F
100
AcDbEntity
  8
0
  6
Continuous
 62
     7
370
    15
100
AcDbLine
 10
195.6902980794
 20
183.1033110358
 30
0.0
 11
132.1902950633
 21
183.1033110358
 31
0.0
  0
LINE
  5
195
330
1F
100
AcDbEntity
  8
0
  6
Continuous
 62
     7
370
    15
100
AcDbLine
 10
205.1695078601
 20
183.1033110358
 30
0.0
 11
201.6530051817
 21
183.1033110358
 31
0.0
  0
LINE
  5
196
330
1F
100
AcDbEntity
  8
0
  6
Continuous
 62
     7
370
    15
100
AcDbLine
 10
145.6902954717
 20
120.1033100226
 30
0.0
 11
251.9225940098
 21
120.1033100226
 31
0.0
  0
LINE
  5
197
330
1F
100
AcDbEntity
  8
0
  6
Continuous
 62
     7
370
    15
100
AcDbLine
 10
132.1902950633
 20
120.1033100226
 30
0.0
 11
141.714913397
 21
120.1033100226
 31
0.0
  0
ARC
  5
198
330
1F
100
AcDbEntity
  8
0
  6
Continuous
 62
     7
370
    15
100
AcDbCircle
 10
132.1902950395
 20
120.6033105292
 30
0.0
 40
0.5
100
AcDbArc
 50
180.0
 51
270.0
  0
ARC
  5
199
330
1F
100
AcDbEntity
  8
0
  6
Continuous
 62
     7
370
    15
100
AcDbCircle
 10
132.1902950395
 20
182.6033105292
 30
0.0
 40
0.5
100
AcDbArc
 50
90.0
 51
180.0
  0
LWPOLYLINE
  5
19A
330
1F
100
AcDbEntity
  8
0
  6
Continuous
 62
     7
370
    15
100
AcDbPolyline
 90
        3
 70
   128
 43
0.0
 10
131.4902950446
 20
129.0634900071
 10
131.6157499798
 20
128.9951886722
 10
131.6902950395
 20
128.9424497374
  0
ARC
  5
19B
330
1F
100
AcDbEntity
  8
0
  6
Continuous
 62
     7
370
    15
100
AcDbCircle
 10
131.0760814772
 20
175.0533105292
 30
0.0
 40
1.000000000000016
100
AcDbArc
 50
225.0
 51
307.8947985336
  0
LINE
  5
19C
330
1F
100
AcDbEntity
  8
0
  6
Continuous
 62
     7
370
    15
100
AcDbLine
 10
120.6106362854
 20
131.2062993385
 30
0.0
 11
129.4902950515
 21
130.9832121917
 31
0.0
  0
LINE
  5
19D
330
1F
100
AcDbEntity
  8
0
  6
Continuous
 62
     7
370
    15
100
AcDbLine
 10
102.0323015739
 20
131.6730521359
 30
0.0
 11
112.0149787505
 21
131.4222525545
 31
0.0
  0
ARC
  5
19E
330
1F
100
AcDbEntity
  8
0
  6
Continuous
 62
     7
370
    15
100
AcDbCircle
 10
129.6902319505
 20
130.9781886335
 30
0.0
 40
0.2000000000000066
100
AcDbArc
 50
88.5608333333
 51
178.5608333333
  0
ARC
  5
19F
330
1F
100
AcDbEntity
  8
0
  6
Continuous
 62
     7
370
    15
100
AcDbCircle
 10
131.2902950395
 20
130.9379894794
 30
0.0
 40
0.2000000000000343
100
AcDbArc
 50
0.0
 51
88.5608333333
  0
LINE
  5
1A0
330
1F
100
AcDbEntity
  8
0
  6
Continuous
 62
     7
370
    15
100
AcDbLine
 10
129.6952551686
 20
131.178124968
 30
0.0
 11
131.295318138
 21
131.1379272231
 31
0.0
  0
ARC
  5
1A1
330
1F
100
AcDbEntity
  8
0
  6
Continuous
 62
     7
370
    15
100
AcDbCircle
 10
129.6902319505
 20
175.0284324249
 30
0.0
 40
0.1999999999999782
100
AcDbArc
 50
181.4391666666
 51
271.4391666667
  0
LINE
  5
1A2
330
1F
100
AcDbEntity
  8
0
  6
Continuous
 62
     7
370
    15
100
AcDbLine
 10
129.4902950515
 20
175.0234096982
 30
0.0
 11
95.190295576
 21
174.1616736837
 31
0.0
  0
LINE
  5
1A3
330
1F
100
AcDbEntity
  8
0
  6
Continuous
 62
     7
370
    15
100
AcDbLine
 10
129.8960342294
 20
174.8335391023
 30
0.0
 11
129.6952551686
 21
174.8284950592
 31
0.0
  0
LINE
  5
1A4
330
1F
100
AcDbEntity
  8
0
  6
Continuous
 62
     7
370
    15
100
AcDbLine
 10
95.190295576
 20
174.1616736837
 30
0.0
 11
93.6902962614
 21
173.2956479975
 31
0.0
  0
LINE
  5
1A5
330
1F
100
AcDbEntity
  8
0
  6
Continuous
 62
     7
370
    15
100
AcDbLine
 10
130.368974734
 20
174.346204076
 30
0.0
 11
129.9062296505
 21
174.808948461
 31
0.0
  0
SPLINE
  5
1A6
330
1F
100
AcDbEntity
  8
0
  6
Continuous
 62
     7
370
    15
100
AcDbSpline
210
0.0
220
0.0
230
1.0
 70
     8
 71
     3
 72
    10
 73
     6
 74
     0
 42
0.00000001
 43
0.00000001
 12
1.0
 22
0.0
 32
0.0
 13
1.0
 23
0.0
 33
0.0
 40
0.0
 40
0.0
 40
0.0
 40
0.0
 40
0.3313540130516427
 40
0.6674116175701069
 40
1.0
 40
1.0
 40
1.0
 40
1.0
 10
260.9923198808511
 20
146.5965110548404
 30
0.0
 10
261.1126775366994
 20
147.1245554865053
 30
0.0
 10
261.3551013330399
 20
148.1881399744089
 30
0.0
 10
261.4171368491754
 20
149.8244460114941
 30
0.0
 10
261.6155662884181
 20
150.8979060269438
 30
0.0
 10
261.7142662395318
 20
151.4318512492445
 30
0.0
  0
ARC
  5
1A7
330
1F
100
AcDbEntity
  8
0
  6
Continuous
 62
     7
370
    15
100
AcDbCircle
 10
143.6903390336
 20
88.6405752687
 30
0.0
 40
31.5262351692719
100
AcDbArc
 50
86.3628368575
 51
93.5924919873
  0
SPLINE
  5
1A8
330
1F
100
AcDbEntity
  8
0
  6
Continuous
 62
     7
370
    15
100
AcDbSpline
210
0.0
220
0.0
230
1.0
 70
     8
 71
     3
 72
    12
 73
     8
 74
     0
 42
0.00000001
 43
0.00000001
 12
1.0
 22
0.0
 32
0.0
 13
1.0
 23
0.0
 33
0.0
 40
0.0
 40
0.0
 40
0.0
 40
0.0
 40
0.4999999999999981
 40
0.4999999999999981
 40
0.749999999999999
 40
0.749999999999999
 40
1.0
 40
1.0
 40
1.0
 40
1.0
 10
141.7850391512167
 20
121.7025680690816
 30
0.0
 10
141.8157613931358
 20
121.6652660861286
 30
0.0
 10
141.858598607671
 20
121.6286542540822
 30
0.0
 10
141.9580256318707
 20
121.580889470797
 30
0.0
 10
141.9977778266874
 20
121.5659319553147
 30
0.0
 10
142.0958192835456
 20
121.5427420095455
 30
0.0
 10
142.1553753391331
 20
121.5348185703258
 30
0.0
 10
142.2180518531089
 20
121.5348185703258
 30
0.0
  0
LINE
  5
1A9
330
1F
100
AcDbEntity
  8
0
  6
Continuous
 62
     7
370
    15
100
AcDbLine
 10
142.218052036
 20
121.5348180123
 30
0.0
 11
145.1625382517
 21
121.5348180123
 31
0.0
  0
SPLINE
  5
1AA
330
1F
100
AcDbEntity
  8
0
  6
Continuous
 62
     7
370
    15
100
AcDbSpline
210
0.0
220
0.0
230
1.0
 70
     8
 71
     3
 72
    12
 73
     8
 74
     0
 42
0.00000001
 43
0.00000001
 12
1.0
 22
0.0
 32
0.0
 13
1.0
 23
0.0
 33
0.0
 40
0.0
 40
0.0
 40
0.0
 40
0.0
 40
0.25
 40
0.25
 40
0.5
 40
0.5
 40
1.0
 40
1.0
 40
1.0
 40
1.0
 10
145.162538225976
 20
121.5348185703258
 30
0.0
 10
145.2256182644694
 20
121.5348185703258
 30
0.0
 10
145.2847668866508
 20
121.5427244965382
 30
0.0
 10
145.3832394367199
 20
121.5660496579745
 30
0.0
 10
145.4222760487046
 20
121.5807624478062
 30
0.0
 10
145.5221725154837
 20
121.6287182485371
 30
0.0
 10
145.5645933965503
 20
121.6649804051171
 30
0.0
 10
145.5955509278682
 20
121.7025680690816
 30
0.0
  0
ELLIPSE
  5
1AB
330
1F
100
AcDbEntity
  8
0
  6
Continuous
 62
     7
370
    15
100
AcDbEllipse
 10
129.3431408502
 20
151.6033105292
 30
0.0
 11
-14.75368316065621
 21
31.09325491558116
 31
0.0
210
0.0
220
0.0
230
1.0
 40
0.3419987131
 41
3.300734856217119
 42
4.231496223360769
  0
SPLINE
  5
1AC
330
1F
100
AcDbEntity
  8
0
  6
Continuous
 62
     7
370
    15
100
AcDbSpline
210
0.0
220
0.0
230
1.0
 70
     8
 71
     3
 72
    12
 73
     8
 74
     0
 42
0.00000001
 43
0.00000001
 12
1.0
 22
0.0
 32
0.0
 13
1.0
 23
0.0
 33
0.0
 40
0.0
 40
0.0
 40
0.0
 40
0.0
 40
0.4999999999999953
 40
0.4999999999999953
 40
0.7499999999999977
 40
0.7499999999999977
 40
1.0
 40
1.0
 40
1.0
 40
1.0
 10
145.5955509278682
 20
141.6939412085134
 30
0.0
 10
145.5648286859492
 20
141.8064970079226
 30
0.0
 10
145.521991471414
 20
141.9192548676622
 30
0.0
 10
145.4225644472142
 20
142.0687957534586
 30
0.0
 10
145.3828122523975
 20
142.1160884851654
 30
0.0
 10
145.2847707955393
 20
142.1898247784869
 30
0.0
 10
145.2252147399519
 20
142.2152440978626
 30
0.0
 10
145.162538225976
 20
142.2152440978626
 30
0.0
  0
LINE
  5
1AD
330
1F
100
AcDbEntity
  8
0
  6
Continuous
 62
     7
370
    15
100
AcDbLine
 10
145.1625382517
 20
142.2152437009
 30
0.0
 11
142.218052036
 21
142.2152437009
 31
0.0
  0
SPLINE
  5
1AE
330
1F
100
AcDbEntity
  8
0
  6
Continuous
 62
     7
370
    15
100
AcDbSpline
210
0.0
220
0.0
230
1.0
 70
     8
 71
     3
 72
    12
 73
     8
 74
     0
 42
0.00000001
 43
0.00000001
 12
1.0
 22
0.0
 32
0.0
 13
1.0
 23
0.0
 33
0.0
 40
0.0
 40
0.0
 40
0.0
 40
0.0
 40
0.2499999999999999
 40
0.2499999999999999
 40
0.4999999999999999
 40
0.4999999999999999
 40
1.0
 40
1.0
 40
1.0
 40
1.0
 10
142.2180518531089
 20
142.2152440978626
 30
0.0
 10
142.1549718146155
 20
142.2152440978626
 30
0.0
 10
142.0958231924342
 20
142.1898797786477
 30
0.0
 10
141.9973506423651
 20
142.1157149182747
 30
0.0
 10
141.9583140303803
 20
142.0691945777206
 30
0.0
 10
141.8584175636013
 20
141.9190522348753
 30
0.0
 10
141.8159966825347
 20
141.8073590279032
 30
0.0
 10
141.7850391512167
 20
141.6939412085134
 30
0.0
  0
ELLIPSE
  5
1AF
330
1F
100
AcDbEntity
  8
0
  6
Continuous
 62
     7
370
    15
100
AcDbEllipse
 10
158.0374492289
 20
151.6033105292
 30
0.0
 11
14.75368316065624
 21
31.09325491558116
 31
0.0
210
0.0
220
0.0
230
1.0
 40
0.3419987131
 41
2.05168908381883
 42
2.982450450962506
  0
SPLINE
  5
1B0
330
1F
100
AcDbEntity
  8
0
  6
Continuous
 62
     7
370
    15
100
AcDbSpline
210
0.0
220
0.0
230
1.0
 70
     8
 71
     3
 72
    12
 73
     8
 74
     0
 42
0.00000001
 43
0.00000001
 12
1.0
 22
0.0
 32
0.0
 13
1.0
 23
0.0
 33
0.0
 40
0.0
 40
0.0
 40
0.0
 40
0.0
 40
0.4999999999999972
 40
0.4999999999999972
 40
0.7499999999999986
 40
0.7499999999999986
 40
1.0
 40
1.0
 40
1.0
 40
1.0
 10
141.7850391512167
 20
161.5126798498843
 30
0.0
 10
141.8161843491788
 20
161.398574484019
 30
0.0
 10
141.8584586155133
 20
161.2874681568002
 30
0.0
 10
141.9584041493385
 20
161.1373105493699
 30
0.0
 10
141.9981344540426
 20
161.0903178577526
 30
0.0
 10
142.0950225040488
 20
161.017342273214
 30
0.0
 10
142.1550877457954
 20
160.991376960535
 30
0.0
 10
142.2180518531089
 20
160.991376960535
 30
0.0
  0
LINE
  5
1B1
330
1F
100
AcDbEntity
  8
0
  6
Continuous
 62
     7
370
    15
100
AcDbLine
 10
142.218052036
 20
160.9913773574
 30
0.0
 11
145.1625382517
 21
160.9913773574
 31
0.0
  0
SPLINE
  5
1B2
330
1F
100
AcDbEntity
  8
0
  6
Continuous
 62
     7
370
    15
100
AcDbSpline
210
0.0
220
0.0
230
1.0
 70
     8
 71
     3
 72
    12
 73
     8
 74
     0
 42
0.00000001
 43
0.00000001
 12
1.0
 22
0.0
 32
0.0
 13
1.0
 23
0.0
 33
0.0
 40
0.0
 40
0.0
 40
0.0
 40
0.0
 40
0.2500000000000001
 40
0.2500000000000001
 40
0.5000000000000001
 40
0.5000000000000001
 40
1.0
 40
1.0
 40
1.0
 40
1.0
 10
145.162538225976
 20
160.9913769605351
 30
0.0
 10
145.2255951808738
 20
160.9913769605351
 30
0.0
 10
145.2847253306194
 20
161.0167233139158
 30
0.0
 10
145.3831728811527
 20
161.0908426960553
 30
0.0
 10
145.4222051193408
 20
161.1373392107533
 30
0.0
 10
145.5220950037977
 20
161.2874137177619
 30
0.0
 10
145.5643939774071
 20
161.3985314268768
 30
0.0
 10
145.5955509278683
 20
161.5126798498843
 30
0.0
  0
ELLIPSE
  5
1B3
330
1F
100
AcDbEntity
  8
0
  6
Continuous
 62
     7
370
    15
100
AcDbEllipse
 10
129.3431408502
 20
151.6033105292
 30
0.0
 11
14.75368316065618
 21
31.09325491558116
 31
0.0
210
0.0
220
0.0
230
1.0
 40
0.3419987131
 41
5.193281737408629
 42
6.124043104552338
  0
SPLINE
  5
1B4
330
1F
100
AcDbEntity
  8
0
  6
Continuous
 62
     7
370
    15
100
AcDbSpline
210
0.0
220
0.0
230
1.0
 70
     8
 71
     3
 72
    12
 73
     8
 74
     0
 42
0.00000001
 43
0.00000001
 12
1.0
 22
0.0
 32
0.0
 13
1.0
 23
0.0
 33
0.0
 40
0.0
 40
0.0
 40
0.0
 40
0.0
 40
0.5000000000000029
 40
0.5000000000000029
 40
0.7500000000000014
 40
0.7500000000000014
 40
1.0
 40
1.0
 40
1.0
 40
1.0
 10
145.5955509278682
 20
181.5040529893162
 30
0.0
 10
145.5644057299062
 20
181.5418685122364
 30
0.0
 10
145.5221314635717
 20
181.57793537032
 30
0.0
 10
145.4221859297464
 20
181.6258954353312
 30
0.0
 10
145.3824556250424
 20
181.6407564092289
 30
0.0
 10
145.2855675750361
 20
181.66370755536
 30
0.0
 10
145.2255023332896
 20
181.6718024880721
 30
0.0
 10
145.162538225976
 20
181.6718024880721
 30
0.0
  0
LINE
  5
1B5
330
1F
100
AcDbEntity
  8
0
  6
Continuous
 62
     7
370
    15
100
AcDbLine
 10
145.1625382517
 20
181.6718030461
 30
0.0
 11
142.218052036
 21
181.6718030461
 31
0.0
  0
SPLINE
  5
1B6
330
1F
100
AcDbEntity
  8
0
  6
Continuous
 62
     7
370
    15
100
AcDbSpline
210
0.0
220
0.0
230
1.0
 70
     8
 71
     3
 72
    12
 73
     8
 74
     0
 42
0.00000001
 43
0.00000001
 12
1.0
 22
0.0
 32
0.0
 13
1.0
 23
0.0
 33
0.0
 40
0.0
 40
0.0
 40
0.0
 40
0.0
 40
0.25
 40
0.25
 40
0.5
 40
0.5
 40
1.0
 40
1.0
 40
1.0
 40
1.0
 10
142.2180518531089
 20
181.671802488072
 30
0.0
 10
142.1549948982111
 20
181.671802488072
 30
0.0
 10
142.0958647484655
 20
181.6639021569925
 30
0.0
 10
141.9974171979322
 20
181.6405914089875
 30
0.0
 10
141.9583849597442
 20
181.6258862827038
 30
0.0
 10
141.8584950752872
 20
181.5779527545172
 30
0.0
 10
141.8161961016779
 20
181.5418827817524
 30
0.0
 10
141.7850391512167
 20
181.5040529893162
 30
0.0
  0
ELLIPSE
  5
1B7
330
1F
100
AcDbEntity
  8
0
  6
Continuous
 62
     7
370
    15
100
AcDbEllipse
 10
158.0374492289
 20
151.6033105292
 30
0.0
 11
-14.75368316065615
 21
31.09325491558116
 31
0.0
210
0.0
220
0.0
230
1.0
 40
0.3419987131
 41
0.1591422026272958
 42
1.08990356977097
  0
LWPOLYLINE
  5
1B8
330
1F
100
AcDbEntity
  8
0
  6
Continuous
 62
     7
370
    15
100
AcDbPolyline
 90
       13
 70
   128
 43
0.0
 10
208.4221780289
 20
170.9641992786
 10
207.9127222289
 20
172.8655017652
 10
207.4388355006
 20
174.6340665706
 10
207.0034757246
 20
176.2588500716
 10
206.6093623628
 20
177.7297120281
 10
206.2589466561
 20
179.0374677368
 10
205.954426526
 20
180.1739550867
 10
205.6977018703
 20
181.1320755371
 10
205.4903671135
 20
181.905849997
 10
205.333726107
 20
182.4904486277
 10
205.228754877
 20
182.8822187819
 10
205.1761016239
 20
183.0787203946
 10
205.1695078601
 20
183.1033110358
  0
ELLIPSE
  5
1B9
330
1F
100
AcDbEntity
  8
0
  6
Continuous
 62
     7
370
    15
100
AcDbEllipse
 10
248.0718613251
 20
151.6033105292
 30
0.0
 11
54.77253121534148
 21
4.685189640530866
 31
0.0
210
0.0
220
0.0
230
1.0
 40
0.5687088412
 41
2.330383962133376
 42
4.287227121455036
  0
SPLINE
  5
1BA
330
1F
100
AcDbEntity
  8
0
  6
Continuous
 62
     7
370
    15
100
AcDbSpline
210
0.0
220
0.0
230
1.0
 70
     8
 71
     3
 72
     8
 73
     4
 74
     0
 42
0.00000001
 43
0.00000001
 12
1.0
 22
0.0
 32
0.0
 13
1.0
 23
0.0
 33
0.0
 40
0.0
 40
0.0
 40
0.0
 40
0.0
 40
1.0
 40
1.0
 40
1.0
 40
1.0
 10
227.9072248280123
 20
121.2943850010087
 30
0.0
 10
229.6990874347211
 20
120.9928970952404
 30
0.0
 10
231.5976107657411
 20
120.8085385667055
 30
0.0
 10
233.5977828900918
 20
120.6835571498565
 30
0.0
  0
ELLIPSE
  5
1BB
330
1F
100
AcDbEntity
  8
0
  6
Continuous
 62
     7
370
    15
100
AcDbEllipse
 10
261.6810348686
 20
151.6033105292
 30
0.0
 11
100.3197713769981
 21
3.188873534942501
 31
0.0
210
0.0
220
0.0
230
1.0
 40
0.3123828189
 41
4.418745080623109
 42
4.605038620702859
  0
LINE
  5
1BC
330
1F
100
AcDbEntity
  8
0
  6
Continuous
 62
     7
370
    15
100
AcDbLine
 10
251.9225940098
 20
120.1033100226
 30
0.0
 11
251.9227579225
 21
120.1038650908
 31
0.0
  0
ARC
  5
1BD
330
1F
100
AcDbEntity
  8
0
  6
Continuous
 62
     7
370
    15
100
AcDbCircle
 10
198.6901830708
 20
214.5225912255
 30
0.0
 40
31.56216845528133
100
AcDbArc
 50
264.5459831306
 51
275.3864332858
  0
LINE
  5
1BE
330
1F
100
AcDbEntity
  8
0
  6
Continuous
 62
     7
370
    15
100
AcDbLine
 10
131.6902950395
 20
151.6033105292
 30
0.0
 11
131.6902950395
 21
182.6033100226
 31
0.0
  0
LINE
  5
1BF
330
1F
100
AcDbEntity
  8
0
  6
Continuous
 62
     7
370
    15
100
AcDbLine
 10
131.6902950395
 20
120.6033110358
 30
0.0
 11
131.6902950395
 21
151.6033105292
 31
0.0
  0
LINE
  5
1C0
330
1F
100
AcDbEntity
  8
0
  6
Continuous
 62
     7
370
    15
100
AcDbLine
 10
212.4987035979
 20
155.750396356
 30
0.0
 11
208.4221780289
 21
170.9641992786
 31
0.0
  0
ARC
  5
1C1
330
1F
100
AcDbEntity
  8
0
  6
Continuous
 62
     7
370
    15
100
AcDbCircle
 10
218.2942569674
 20
157.3033105292
 30
0.0
 40
6.000000000000017
100
AcDbArc
 50
195.0
 51
270.0
  0
LINE
  5
1C2
330
1F
100
AcDbEntity
  8
0
  6
Continuous
 62
     7
370
    15
100
AcDbLine
 10
229.219944774
 20
151.3033105149
 30
0.0
 11
218.2942569245
 21
151.3033105149
 31
0.0
  0
LINE
  5
1C3
330
1F
100
AcDbEntity
  8
0
  6
Continuous
 62
     7
370
    15
100
AcDbLine
 10
131.4902950446
 20
134.8131086417
 30
0.0
 11
131.4902950446
 21
129.0634900071
 31
0.0
  0
SPLINE
  5
1C4
330
1F
100
AcDbEntity
  8
0
  6
Continuous
 62
     7
370
    15
100
AcDbSpline
210
0.0
220
0.0
230
1.0
 70
     8
 71
     3
 72
    16
 73
    12
 74
     0
 42
0.00000001
 43
0.00000001
 12
1.0
 22
0.0
 32
0.0
 13
1.0
 23
0.0
 33
0.0
 40
0.0
 40
0.0
 40
0.0
 40
0.0
 40
0.5000000000000079
 40
0.5000000000000079
 40
0.7500000000000143
 40
0.7500000000000143
 40
0.8750000000000102
 40
0.8750000000000102
 40
0.9375000000000051
 40
0.9375000000000051
 40
1.0
 40
1.0
 40
1.0
 40
1.0
 10
131.4902950395425
 20
134.8131091754578
 30
0.0
 10
131.4902950395425
 20
134.8929328864383
 30
0.0
 10
131.4861487644645
 20
134.9747890043224
 30
0.0
 10
131.460183169071
 20
135.1036041254063
 30
0.0
 10
131.4487222636936
 20
135.1483947971079
 30
0.0
 10
131.4144105259192
 20
135.2145256048392
 30
0.0
 10
131.4003857899895
 20
135.2373726630423
 30
0.0
 10
131.3643628269558
 20
135.2638034162845
 30
0.0
 10
131.3496083178661
 20
135.2702310854268
 30
0.0
 10
131.3202561567192
 20
135.2731920085819
 30
0.0
 10
131.3069162822152
 20
135.2702106170738
 30
0.0
 10
131.2953181506668
 20
135.2654676293925
 30
0.0
  0
SPLINE
  5
1C5
330
1F
100
AcDbEntity
  8
0
  6
Continuous
 62
     7
370
    15
100
AcDbSpline
210
0.0
220
0.0
230
1.0
 70
     8
 71
     3
 72
    12
 73
     8
 74
     0
 42
0.00000001
 43
0.00000001
 12
1.0
 22
0.0
 32
0.0
 13
1.0
 23
0.0
 33
0.0
 40
0.0
 40
0.0
 40
0.0
 40
0.0
 40
0.2500000000000006
 40
0.2500000000000006
 40
0.5000000000000009
 40
0.5000000000000009
 40
1.0
 40
1.0
 40
1.0
 40
1.0
 10
131.2953181506739
 20
135.2654676293871
 30
0.0
 10
131.2651263089567
 20
135.2531208532926
 30
0.0
 10
131.2317673395421
 20
135.2426231668228
 30
0.0
 10
131.1586300549615
 20
135.2292021122435
 30
0.0
 10
131.1183881823075
 20
135.2265917009966
 30
0.0
 10
131.000682405339
 20
135.2345621537387
 30
0.0
 10
130.9302719275596
 20
135.2596499113566
 30
0.0
 10
130.8737827530913
 20
135.2889395536849
 30
0.0
  0
SPLINE
  5
1C6
330
1F
100
AcDbEntity
  8
0
  6
Continuous
 62
     7
370
    15
100
AcDbSpline
210
0.0
220
0.0
230
1.0
 70
     8
 71
     3
 72
    12
 73
     8
 74
     0
 42
0.00000001
 43
0.00000001
 12
1.0
 22
0.0
 32
0.0
 13
1.0
 23
0.0
 33
0.0
 40
0.0
 40
0.0
 40
0.0
 40
0.0
 40
0.2500000000000044
 40
0.2500000000000044
 40
0.5000000000000061
 40
0.5000000000000061
 40
1.0
 40
1.0
 40
1.0
 40
1.0
 10
130.8737827530909
 20
135.2889395536848
 30
0.0
 10
130.7856288153532
 20
135.3346473787764
 30
0.0
 10
130.7252753907245
 20
135.3900646170957
 30
0.0
 10
130.6190134326576
 20
135.508357344151
 30
0.0
 10
130.5767812660956
 20
135.5701524595599
 30
0.0
 10
130.4657105707784
 20
135.7615730860748
 30
0.0
 10
130.4127737943516
 20
135.8973197509603
 30
0.0
 10
130.3689746959828
 20
136.040109284774
 30
0.0
  0
SPLINE
  5
1C7
330
1F
100
AcDbEntity
  8
0
  6
Continuous
 62
     7
370
    15
100
AcDbSpline
210
0.0
220
0.0
230
1.0
 70
     8
 71
     3
 72
    12
 73
     8
 74
     0
 42
0.00000001
 43
0.00000001
 12
1.0
 22
0.0
 32
0.0
 13
1.0
 23
0.0
 33
0.0
 40
0.0
 40
0.0
 40
0.0
 40
0.0
 40
0.4999999999999998
 40
0.4999999999999998
 40
0.7499999999999999
 40
0.7499999999999999
 40
1.0
 40
1.0
 40
1.0
 40
1.0
 10
130.3689746959828
 20
145.0228267190976
 30
0.0
 10
130.4127212368194
 20
145.2620006461442
 30
0.0
 10
130.4656055920509
 20
145.4994435010601
 30
0.0
 10
130.5771726793871
 20
145.8482815374757
 30
0.0
 10
130.6197562759301
 20
145.9631904450862
 30
0.0
 10
130.7246730030118
 20
146.1830728899963
 30
0.0
 10
130.7862066108567
 20
146.2914338110107
 30
0.0
 10
130.8737827530828
 20
146.3784393986098
 30
0.0
  0
SPLINE
  5
1C8
330
1F
100
AcDbEntity
  8
0
  6
Continuous
 62
     7
370
    15
100
AcDbSpline
210
0.0
220
0.0
230
1.0
 70
     8
 71
     3
 72
    12
 73
     8
 74
     0
 42
0.00000001
 43
0.00000001
 12
1.0
 22
0.0
 32
0.0
 13
1.0
 23
0.0
 33
0.0
 40
0.0
 40
0.0
 40
0.0
 40
0.0
 40
0.5000000000000001
 40
0.5000000000000001
 40
0.7499999999999999
 40
0.7499999999999999
 40
1.0
 40
1.0
 40
1.0
 40
1.0
 10
130.873782753086
 20
146.3784393986099
 30
0.0
 10
130.9302192539932
 20
146.4345082182518
 30
0.0
 10
130.9993038846819
 20
146.4816208970061
 30
0.0
 10
131.1181061563998
 20
146.4929413435019
 30
0.0
 10
131.1582914318699
 20
146.4859404530105
 30
0.0
 10
131.2316724792738
 20
146.4557291563516
 30
0.0
 10
131.2650820430164
 20
146.4331503459701
 30
0.0
 10
131.2953181506729
 20
146.4070630246159
 30
0.0
  0
SPLINE
  5
1C9
330
1F
100
AcDbEntity
  8
0
  6
Continuous
 62
     7
370
    15
100
AcDbSpline
210
0.0
220
0.0
230
1.0
 70
     8
 71
     3
 72
    16
 73
    12
 74
     0
 42
0.00000001
 43
0.00000001
 12
1.0
 22
0.0
 32
0.0
 13
1.0
 23
0.0
 33
0.0
 40
0.0
 40
0.0
 40
0.0
 40
0.0
 40
0.0625000000000035
 40
0.0625000000000035
 40
0.125000000000007
 40
0.125000000000007
 40
0.250000000000009
 40
0.250000000000009
 40
0.5000000000000048
 40
0.5000000000000048
 40
1.0
 40
1.0
 40
1.0
 40
1.0
 10
131.2953181506356
 20
146.407063024559
 30
0.0
 10
131.3068985582236
 20
146.3970715991492
 30
0.0
 10
131.3202080849848
 20
146.3888141927675
 30
0.0
 10
131.349509515071
 20
146.3830649079553
 30
0.0
 10
131.3643236149553
 20
146.3866752066634
 30
0.0
 10
131.4001520166581
 20
146.4095956659461
 30
0.0
 10
131.4142716410212
 20
146.4353911741916
 30
0.0
 10
131.4487757851097
 20
146.5135461986107
 30
0.0
 10
131.4598803358143
 20
146.5696890413466
 30
0.0
 10
131.4860565130305
 20
146.7405950968804
 30
0.0
 10
131.4902950395425
 20
146.8578101894592
 30
0.0
 10
131.4902950395425
 20
146.975374788681
 30
0.0
  0
LINE
  5
1CA
330
1F
100
AcDbEntity
  8
0
  6
Continuous
 62
     7
370
    15
100
AcDbLine
 10
131.4902950446
 20
173.021448005
 30
0.0
 11
131.4902950446
 21
146.9753749408
 31
0.0
  0
SPLINE
  5
1CB
330
1F
100
AcDbEntity
  8
0
  6
Continuous
 62
     7
370
    15
100
AcDbSpline
210
0.0
220
0.0
230
1.0
 70
     8
 71
     3
 72
    16
 73
    12
 74
     0
 42
0.00000001
 43
0.00000001
 12
1.0
 22
0.0
 32
0.0
 13
1.0
 23
0.0
 33
0.0
 40
0.0
 40
0.0
 40
0.0
 40
0.0
 40
0.4999999999999989
 40
0.4999999999999989
 40
0.75
 40
0.75
 40
0.8749999999999989
 40
0.8749999999999989
 40
0.9374999999999994
 40
0.9374999999999994
 40
1.0
 40
1.0
 40
1.0
 40
1.0
 10
131.4902950395425
 20
173.0214476234581
 30
0.0
 10
131.4902950395425
 20
173.0587214643683
 30
0.0
 10
131.4861487644645
 20
173.0930175563869
 30
0.0
 10
131.460183169071
 20
173.1351157455232
 30
0.0
 10
131.4487222636936
 20
173.1480293870879
 30
0.0
 10
131.4144105259192
 20
173.1597412378275
 30
0.0
 10
131.4003857899896
 20
173.1627546696836
 30
0.0
 10
131.3643628269558
 20
173.1594572069078
 30
0.0
 10
131.3496083178662
 20
173.1566357219199
 30
0.0
 10
131.3202561567192
 20
173.1479539809285
 30
0.0
 10
131.3069162822152
 20
173.1426646633215
 30
0.0
 10
131.2953181506668
 20
173.1374009335958
 30
0.0
  0
SPLINE
  5
1CC
330
1F
100
AcDbEntity
  8
0
  6
Continuous
 62
     7
370
    15
100
AcDbSpline
210
0.0
220
0.0
230
1.0
 70
     8
 71
     3
 72
    12
 73
     8
 74
     0
 42
0.00000001
 43
0.00000001
 12
1.0
 22
0.0
 32
0.0
 13
1.0
 23
0.0
 33
0.0
 40
0.0
 40
0.0
 40
0.0
 40
0.0
 40
0.2500000000000001
 40
0.2500000000000001
 40
0.5000000000000002
 40
0.5000000000000002
 40
1.0
 40
1.0
 40
1.0
 40
1.0
 10
131.2953181506739
 20
173.1374009335908
 30
0.0
 10
131.2651197092333
 20
173.1236955851714
 30
0.0
 10
131.2317523538973
 20
173.111647979721
 30
0.0
 10
131.1585970780674
 20
173.0948879914914
 30
0.0
 10
131.1183443790434
 20
173.0904791019505
 30
0.0
 10
131.0006156357685
 20
173.0934088670481
 30
0.0
 10
130.9301571877096
 20
173.1157756273038
 30
0.0
 10
130.8737827530913
 20
173.1425526353094
 30
0.0
  0
SPLINE
  5
1CD
330
1F
100
AcDbEntity
  8
0
  6
Continuous
 62
     7
370
    15
100
AcDbSpline
210
0.0
220
0.0
230
1.0
 70
     8
 71
     3
 72
    12
 73
     8
 74
     0
 42
0.00000001
 43
0.00000001
 12
1.0
 22
0.0
 32
0.0
 13
1.0
 23
0.0
 33
0.0
 40
0.0
 40
0.0
 40
0.0
 40
0.0
 40
0.4999999999999993
 40
0.4999999999999993
 40
0.7499999999999998
 40
0.7499999999999998
 40
1.0
 40
1.0
 40
1.0
 40
1.0
 10
130.3689746959828
 20
173.7469955837252
 30
0.0
 10
130.4127250478673
 20
173.6504314359668
 30
0.0
 10
130.4656151989918
 20
173.5488071727811
 30
0.0
 10
130.5772267421335
 20
173.3920527085981
 30
0.0
 10
130.619786086037
 20
173.3391861389245
 30
0.0
 10
130.7247633213744
 20
173.2360300246102
 30
0.0
 10
130.786330564469
 20
173.1840911087453
 30
0.0
 10
130.8737827530913
 20
173.1425526353094
 30
0.0
  0
SPLINE
  5
1CE
330
1F
100
AcDbEntity
  8
0
  6
Continuous
 62
     7
370
    15
100
AcDbSpline
210
0.0
220
0.0
230
1.0
 70
     8
 71
     3
 72
    16
 73
    12
 74
     0
 42
0.00000001
 43
0.00000001
 12
1.0
 22
0.0
 32
0.0
 13
1.0
 23
0.0
 33
0.0
 40
0.0
 40
0.0
 40
0.0
 40
0.0
 40
0.25
 40
0.25
 40
0.3750000000000001
 40
0.3750000000000001
 40
0.5000000000000002
 40
0.5000000000000002
 40
0.7500000000000001
 40
0.7500000000000001
 40
1.0
 40
1.0
 40
1.0
 40
1.0
 10
130.3689746959828
 20
136.040109284774
 30
0.0
 10
130.2077422184983
 20
136.565743627787
 30
0.0
 10
130.0872623788587
 20
137.158575155346
 30
0.0
 10
129.9648818615454
 20
138.1483468464708
 30
0.0
 10
129.933904201148
 20
138.4951504922951
 30
0.0
 10
129.89229046352
 20
139.2241390915352
 30
0.0
 10
129.8820545505872
 20
139.5994140436244
 30
0.0
 10
129.8818661535311
 20
140.7556140898444
 30
0.0
 10
129.9220108561687
 20
141.5669701026441
 30
0.0
 10
130.0861646111083
 20
143.272814348432
 30
0.0
 10
130.2077162615178
 20
144.1411841411289
 30
0.0
 10
130.3689746959828
 20
145.0228267190976
 30
0.0
  0
LINE
  5
1CF
330
1F
100
AcDbEntity
  8
0
  6
Continuous
 62
     7
370
    15
100
AcDbLine
 10
129.4902950515
 20
146.3784395457
 30
0.0
 11
129.4902950515
 21
173.2857107856
 31
0.0
  0
LINE
  5
1D0
330
1F
100
AcDbEntity
  8
0
  6
Continuous
 62
     7
370
    15
100
AcDbLine
 10
95.190295576
 20
146.3784395457
 30
0.0
 11
95.190295576
 21
172.5394271054
 31
0.0
  0
LINE
  5
1D1
330
1F
100
AcDbEntity
  8
0
  6
Continuous
 62
     7
370
    15
100
AcDbLine
 10
129.4902950515
 20
135.1457807907
 30
0.0
 11
129.4902950515
 21
146.3784395457
 31
0.0
  0
LINE
  5
1D2
330
1F
100
AcDbEntity
  8
0
  6
Continuous
 62
     7
370
    15
100
AcDbLine
 10
95.190295576
 20
135.8920663335
 30
0.0
 11
95.190295576
 21
146.3784395457
 31
0.0
  0
LINE
  5
1D3
330
1F
100
AcDbEntity
  8
0
  6
Continuous
 62
     7
370
    15
100
AcDbLine
 10
93.6902962614
 20
136.6420659908
 30
0.0
 11
93.6902962614
 21
146.3784395457
 31
0.0
  0
LINE
  5
1D4
330
1F
100
AcDbEntity
  8
0
  6
Continuous
 62
     7
370
    15
100
AcDbLine
 10
93.6902962614
 20
146.3784395457
 30
0.0
 11
93.6902962614
 21
171.7894255855
 31
0.0
  0
SPLINE
  5
1D5
330
1F
100
AcDbEntity
  8
0
  6
Continuous
 62
     7
370
    15
100
AcDbSpline
210
0.0
220
0.0
230
1.0
 70
     8
 71
     3
 72
     8
 73
     4
 74
     0
 42
0.00000001
 43
0.00000001
 12
1.0
 22
0.0
 32
0.0
 13
1.0
 23
0.0
 33
0.0
 40
0.0000249638557296
 40
0.0000249638557296
 40
0.0000249638557296
 40
0.0000249638557296
 40
0.0049776420541172
 40
0.0049776420541172
 40
0.0049776420541172
 40
0.0049776420541172
 10
95.19029503954249
 20
132.1063209159967
 30
0.0
 10
96.84027127405203
 20
132.0699717030588
 30
0.0
 10
98.49027259379706
 20
132.0335471169267
 30
0.0
 10
100.1402950395425
 20
131.9970472387158
 30
0.0
  0
LINE
  5
1D6
330
1F
100
AcDbEntity
  8
0
  6
Continuous
 62
     7
370
    15
100
AcDbLine
 10
95.190295576
 20
132.1063201614
 30
0.0
 11
95.190295576
 21
135.8920663335
 31
0.0
  0
LINE
  5
1D7
330
1F
100
AcDbEntity
  8
0
  6
Continuous
 62
     7
370
    15
100
AcDbLine
 10
129.4902950515
 20
130.9832121917
 30
0.0
 11
129.4902950515
 21
135.1457807907
 31
0.0
  0
SPLINE
  5
1D8
330
1F
100
AcDbEntity
  8
0
  6
Continuous
 62
     7
370
    15
100
AcDbSpline
210
0.0
220
0.0
230
1.0
 70
     8
 71
     3
 72
    11
 73
     7
 74
     0
 42
0.00000001
 43
0.00000001
 12
1.0
 22
0.0
 32
0.0
 13
1.0
 23
0.0
 33
0.0
 40
0.0
 40
0.0
 40
0.0
 40
0.0
 40
0.3219025833169185
 40
0.6486447978197779
 40
0.945700110112147
 40
1.0
 40
1.0
 40
1.0
 40
1.0
 10
100.140293686517
 20
131.9970480837491
 30
0.0
 10
100.442017302657
 20
131.9403415932539
 30
0.0
 10
101.0500007862685
 20
131.826076060858
 30
0.0
 10
101.7345994784128
 20
131.7195231339572
 30
0.0
 10
102.1246456591232
 20
131.66447764521
 30
0.0
 10
102.0447625281819
 20
131.6758747498178
 30
0.0
 10
102.0324170578797
 20
131.6776361056235
 30
0.0
  0
SPLINE
  5
1D9
330
1F
100
AcDbEntity
  8
0
  6
Continuous
 62
     7
370
    15
100
AcDbSpline
210
0.0
220
0.0
230
1.0
 70
     8
 71
     3
 72
    17
 73
    13
 74
     0
 42
0.00000001
 43
0.00000001
 12
1.0
 22
0.0
 32
0.0
 13
1.0
 23
0.0
 33
0.0
 40
0.0
 40
0.0
 40
0.0
 40
0.0
 40
0.0814963198894112
 40
0.1776426501979228
 40
0.2779756612776855
 40
0.3853005089454375
 40
0.4989008095969844
 40
0.6154924751236023
 40
0.7315308020053202
 40
0.84389575367252
 40
0.949895873886425
 40
1.0
 40
1.0
 40
1.0
 40
1.0
 10
120.6107256923397
 20
131.2098793425229
 30
0.0
 10
120.5926456826975
 20
131.2126368577896
 30
0.0
 10
120.5532355494203
 20
131.2186475871157
 30
0.0
 10
119.9822385258658
 20
131.29968836915
 30
0.0
 10
119.0547495322592
 20
131.411309165579
 30
0.0
 10
117.7897253281204
 20
131.5244464877661
 30
0.0
 10
116.305548019335
 20
131.5964834901584
 30
0.0
 10
114.7788055650046
 20
131.6011555731946
 30
0.0
 10
113.4187455192121
 20
131.5450874552816
 30
0.0
 10
112.4556615798831
 20
131.4722614061226
 30
0.0
 10
111.9716645438704
 20
131.4250192369952
 30
0.0
 10
112.0045883012551
 20
131.4282322753737
 30
0.0
 10
112.0151557017644
 20
131.4292635508445
 30
0.0
  0
SPLINE
  5
1DA
330
1F
100
AcDbEntity
  8
0
  6
Continuous
 62
     7
370
    15
100
AcDbSpline
210
0.0
220
0.0
230
1.0
 70
     8
 71
     3
 72
     8
 73
     4
 74
     0
 42
0.00000001
 43
0.00000001
 12
1.0
 22
0.0
 32
0.0
 13
1.0
 23
0.0
 33
0.0
 40
0.0
 40
0.0
 40
0.0
 40
0.0
 40
1.0
 40
1.0
 40
1.0
 40
1.0
 10
93.69029503954025
 20
132.8548312155546
 30
0.0
 10
94.15705565091802
 20
132.6253017231706
 30
0.0
 10
94.6628031976981
 20
132.3733709480792
 30
0.0
 10
95.19029503954249
 20
132.1063209159967
 30
0.0
  0
LINE
  5
1DB
330
1F
100
AcDbEntity
  8
0
  6
Continuous
 62
     7
370
    15
100
AcDbLine
 10
93.6902962614
 20
132.8548315652
 30
0.0
 11
93.6902962614
 21
136.6420659908
 31
0.0
  0
LINE
  5
1DC
330
1F
100
AcDbEntity
  8
0
  6
Continuous
 62
     7
370
    15
100
AcDbLine
 10
234.4033360471
 20
151.3033105149
 30
0.0
 11
229.219944774
 21
151.3033105149
 31
0.0
  0
LINE
  5
1DD
330
1F
100
AcDbEntity
  8
0
  6
Continuous
 62
     7
370
    15
100
AcDbLine
 10
251.9227579225
 20
120.1038650908
 30
0.0
 11
259.6442565311
 21
146.6433104799
 31
0.0
  0
LINE
  5
1DE
330
1F
100
AcDbEntity
  8
0
  6
Continuous
 62
     7
370
    15
100
AcDbLine
 10
246.2839350094
 20
151.3033105149
 30
0.0
 11
246.2839350094
 21
148.9033104592
 31
0.0
  0
LINE
  5
1DF
330
1F
100
AcDbEntity
  8
0
  6
Continuous
 62
     7
370
    15
100
AcDbLine
 10
245.9551632394
 20
146.6433104799
 30
0.0
 11
246.2839350094
 21
148.9033104592
 31
0.0
  0
LINE
  5
1E0
330
1F
100
AcDbEntity
  8
0
  6
Continuous
 62
     7
370
    15
100
AcDbLine
 10
246.2839350094
 20
146.6433104799
 30
0.0
 11
245.9551632394
 21
146.6433104799
 31
0.0
  0
LINE
  5
1E1
330
1F
100
AcDbEntity
  8
0
  6
Continuous
 62
     7
370
    15
100
AcDbLine
 10
246.2839350094
 20
151.3033105149
 30
0.0
 11
234.4033360471
 21
151.3033105149
 31
0.0
  0
LINE
  5
1E2
330
1F
100
AcDbEntity
  8
0
  6
Continuous
 62
     7
370
    15
100
AcDbLine
 10
129.4902950515
 20
175.0234096982
 30
0.0
 11
129.4902950515
 21
173.2857107856
 31
0.0
  0
LINE
  5
1E3
330
1F
100
AcDbEntity
  8
0
  6
Continuous
 62
     7
370
    15
100
AcDbLine
 10
95.190295576
 20
174.1616736837
 30
0.0
 11
95.190295576
 21
172.5394271054
 31
0.0
  0
SPLINE
  5
1E4
330
1F
100
AcDbEntity
  8
0
  6
Continuous
 62
     7
370
    15
100
AcDbSpline
210
0.0
220
0.0
230
1.0
 70
     8
 71
     3
 72
    10
 73
     6
 74
     0
 42
0.00000001
 43
0.00000001
 12
1.0
 22
0.0
 32
0.0
 13
1.0
 23
0.0
 33
0.0
 40
0.0
 40
0.0
 40
0.0
 40
0.0
 40
0.1209913211536928
 40
0.5024127976154565
 40
1.0
 40
1.0
 40
1.0
 40
1.0
 10
129.896886040323
 20
174.7996352352765
 30
0.0
 10
129.8928587402214
 20
174.8087186168306
 30
0.0
 10
129.8761354984916
 20
174.8464370836996
 30
0.0
 10
129.9945266890094
 20
174.5784931352351
 30
0.0
 10
130.2336259670037
 20
174.0475499491088
 30
0.0
 10
130.3689747339641
 20
173.7469948568013
 30
0.0
  0
LINE
  5
1E5
330
1F
100
AcDbEntity
  8
0
  6
Continuous
 62
     7
370
    15
100
AcDbLine
 10
93.6902962614
 20
173.2956479975
 30
0.0
 11
93.6902962614
 21
171.7894255855
 31
0.0
  0
LINE
  5
1E6
330
1F
100
AcDbEntity
  8
0
  6
Continuous
 62
     7
370
    15
100
AcDbLine
 10
246.2839350094
 20
146.6433104799
 30
0.0
 11
246.7528000463
 21
146.6433104799
 31
0.0
  0
LINE
  5
1E7
330
1F
100
AcDbEntity
  8
0
  6
Continuous
 62
     7
370
    15
100
AcDbLine
 10
232.1386203159
 20
151.4033105343
 30
0.0
 11
246.6629385938
 21
151.4033105343
 31
0.0
  0
SPLINE
  5
1E8
330
1F
100
AcDbEntity
  8
0
  6
Continuous
 62
     7
370
    15
100
AcDbSpline
210
0.0
220
0.0
230
1.0
 70
    24
 71
     3
 72
    10
 73
     6
 74
     0
 42
0.00000001
 43
0.00000001
 12
1.0
 22
0.0
 32
0.0
 13
1.0
 23
0.0
 33
0.0
 40
0.0
 40
0.0
 40
0.0
 40
0.0
 40
0.4149177705059132
 40
0.7027302168314876
 40
1.0
 40
1.0
 40
1.0
 40
1.0
 10
246.8127176154931
 20
146.6433104798761
 30
0.0
 10
246.8045041299889
 20
146.6433104798761
 30
0.0
 10
246.7905932665371
 20
146.6433104798761
 30
0.0
 10
246.7701343934272
 20
146.6433104798761
 30
0.0
 10
246.7586400937606
 20
146.6433104798761
 30
0.0
 10
246.7528000463327
 20
146.6433104798761
 30
0.0
  0
SPLINE
  5
1E9
330
1F
100
AcDbEntity
  8
0
  6
Continuous
 62
     7
370
    15
100
AcDbSpline
210
0.0
220
0.0
230
1.0
 70
    24
 71
     3
 72
    10
 73
     6
 74
     0
 42
0.00000001
 43
0.00000001
 12
1.0
 22
0.0
 32
0.0
 13
1.0
 23
0.0
 33
0.0
 40
0.0
 40
0.0
 40
0.0
 40
0.0
 40
0.2724547382439516
 40
0.5447962613900793
 40
1.0
 40
1.0
 40
1.0
 40
1.0
 10
246.6629385937532
 20
151.4033105342514
 30
0.0
 10
246.6843092846778
 20
151.4033105342514
 30
0.0
 10
246.7270417862085
 20
151.4033105342514
 30
0.0
 10
246.8087068119964
 20
151.4033105342514
 30
0.0
 10
246.8664551049411
 20
151.4033105342514
 30
0.0
 10
246.9025865186532
 20
151.4033105342514
 30
0.0
  0
LINE
  5
1EA
330
1F
100
AcDbEntity
  8
0
  6
Continuous
 62
     7
370
    15
100
AcDbLine
 10
246.8127176155
 20
146.6433104799
 30
0.0
 11
260.934279858
 21
146.6433104799
 31
0.0
  0
LINE
  5
1EB
330
1F
100
AcDbEntity
  8
0
  6
Continuous
 62
     7
370
    15
100
AcDbLine
 10
246.9025865187
 20
151.4033105343
 30
0.0
 11
261.4268973459
 21
151.4033105343
 31
0.0
  0
SPLINE
  5
1EC
330
1F
100
AcDbEntity
  8
0
  6
Continuous
 62
     7
370
    15
100
AcDbSpline
210
0.0
220
0.0
230
1.0
 70
    24
 71
     3
 72
    11
 73
     7
 74
     0
 42
0.00000001
 43
0.00000001
 12
1.0
 22
0.0
 32
0.0
 13
1.0
 23
0.0
 33
0.0
 40
0.0
 40
0.0
 40
0.0
 40
0.0
 40
0.2737434629227724
 40
0.5471245137594715
 40
0.8156560386135064
 40
1.0
 40
1.0
 40
1.0
 40
1.0
 10
261.4268973459085
 20
151.4033105342514
 30
0.0
 10
261.4693463649207
 20
151.4033105342514
 30
0.0
 10
261.554188204206
 20
151.4033105342514
 30
0.0
 10
261.647293799074
 20
151.4033105342514
 30
0.0
 10
261.7014978354681
 20
151.4033105342514
 30
0.0
 10
261.7021213215288
 20
151.4033105342514
 30
0.0
 10
261.7023751128991
 20
151.4033105342514
 30
0.0
  0
SPLINE
  5
1ED
330
1F
100
AcDbEntity
  8
0
  6
HIDDEN
 62
     7
370
     0
100
AcDbSpline
210
0.0
220
0.0
230
1.0
 70
     8
 71
     3
 72
    17
 73
    13
 74
     0
 42
0.00000001
 43
0.00000001
 12
1.0
 22
0.0
 32
0.0
 13
1.0
 23
0.0
 33
0.0
 40
0.0
 40
0.0
 40
0.0
 40
0.0
 40
0.1072234224582824
 40
0.214441607846267
 40
0.3217951819223029
 40
0.4292379702048303
 40
0.5365334099379899
 40
0.6436746065198397
 40
0.7508956312686957
 40
0.8583056943422377
 40
0.9657193489690198
 40
0.9999999999999999
 40
0.9999999999999999
 40
0.9999999999999999
 40
0.9999999999999999
 10
145.6902954716762
 20
120.1033100225595
 30
0.0
 10
145.6682276741499
 20
120.1047501631311
 30
0.0
 10
145.624093156946
 20
120.1076303739342
 30
0.0
 10
145.2801116457789
 20
120.127676958132
 30
0.0
 10
144.7731650365714
 20
120.1499833400932
 30
0.0
 10
144.1395630949205
 20
120.1660531871701
 30
0.0
 10
143.4564230868388
 20
120.168451255125
 30
0.0
 10
142.8010659674818
 20
120.1563280783282
 30
0.0
 10
142.2414980201065
 20
120.1346708213859
 30
0.0
 10
141.8603718761238
 20
120.1141203724333
 30
0.0
 10
141.6792525626044
 20
120.1026144328654
 30
0.0
 10
141.7079665186048
 20
120.1044223475389
 30
0.0
 10
141.7149133969625
 20
120.1048597433236
 30
0.0
  0
SPLINE
  5
1EE
330
1F
100
AcDbEntity
  8
0
  6
HIDDEN
 62
     7
370
     0
100
AcDbSpline
210
0.0
220
0.0
230
1.0
 70
     8
 71
     3
 72
    12
 73
     8
 74
     0
 42
0.00000001
 43
0.00000001
 12
1.0
 22
0.0
 32
0.0
 13
1.0
 23
0.0
 33
0.0
 40
0.0
 40
0.0
 40
0.0
 40
0.0
 40
0.4999999999999963
 40
0.4999999999999963
 40
0.7499999999999981
 40
0.7499999999999981
 40
1.0
 40
1.0
 40
1.0
 40
1.0
 10
141.7850391512167
 20
141.6939412085139
 30
0.0
 10
141.8157613931358
 20
141.806497007923
 30
0.0
 10
141.858598607671
 20
141.9192548676626
 30
0.0
 10
141.9580256318708
 20
142.068795753459
 30
0.0
 10
141.9977778266874
 20
142.1160884851658
 30
0.0
 10
142.0958192835456
 20
142.1898247784873
 30
0.0
 10
142.1553753391331
 20
142.215244097863
 30
0.0
 10
142.2180518531089
 20
142.215244097863
 30
0.0
  0
LINE
  5
1EF
330
1F
100
AcDbEntity
  8
0
  6
HIDDEN
 62
     7
370
     0
100
AcDbLine
 10
142.218052036
 20
142.2152437009
 30
0.0
 11
145.1625382517
 21
142.2152437009
 31
0.0
  0
SPLINE
  5
1F0
330
1F
100
AcDbEntity
  8
0
  6
HIDDEN
 62
     7
370
     0
100
AcDbSpline
210
0.0
220
0.0
230
1.0
 70
     8
 71
     3
 72
    12
 73
     8
 74
     0
 42
0.00000001
 43
0.00000001
 12
1.0
 22
0.0
 32
0.0
 13
1.0
 23
0.0
 33
0.0
 40
0.0
 40
0.0
 40
0.0
 40
0.0
 40
0.2499999999999991
 40
0.2499999999999991
 40
0.4999999999999982
 40
0.4999999999999982
 40
1.0
 40
1.0
 40
1.0
 40
1.0
 10
145.162538225976
 20
142.215244097863
 30
0.0
 10
145.2256182644694
 20
142.215244097863
 30
0.0
 10
145.2847668866508
 20
142.189879778648
 30
0.0
 10
145.3832394367199
 20
142.1157149182751
 30
0.0
 10
145.4222760487046
 20
142.069194577721
 30
0.0
 10
145.5221725154836
 20
141.9190522348757
 30
0.0
 10
145.5645933965503
 20
141.8073590279036
 30
0.0
 10
145.5955509278682
 20
141.6939412085139
 30
0.0
  0
ELLIPSE
  5
1F1
330
1F
100
AcDbEntity
  8
0
  6
HIDDEN
 62
     7
370
     0
100
AcDbEllipse
 10
129.3431408502
 20
151.6033105292
 30
0.0
 11
-14.75368316065608
 21
31.09325491558116
 31
0.0
210
0.0
220
0.0
230
1.0
 40
0.3419987131
 41
3.300734856217132
 42
4.231496223360782
  0
SPLINE
  5
1F2
330
1F
100
AcDbEntity
  8
0
  6
HIDDEN
 62
     7
370
     0
100
AcDbSpline
210
0.0
220
0.0
230
1.0
 70
     8
 71
     3
 72
    12
 73
     8
 74
     0
 42
0.00000001
 43
0.00000001
 12
1.0
 22
0.0
 32
0.0
 13
1.0
 23
0.0
 33
0.0
 40
0.0
 40
0.0
 40
0.0
 40
0.0
 40
0.5
 40
0.5
 40
0.75
 40
0.75
 40
1.0
 40
1.0
 40
1.0
 40
1.0
 10
145.5955509278682
 20
121.7025680690818
 30
0.0
 10
145.5648286859492
 20
121.6652660861287
 30
0.0
 10
145.521991471414
 20
121.6286542540823
 30
0.0
 10
145.4225644472142
 20
121.5808894707971
 30
0.0
 10
145.3828122523975
 20
121.5659319553148
 30
0.0
 10
145.2847707955393
 20
121.5427420095456
 30
0.0
 10
145.2252147399519
 20
121.5348185703259
 30
0.0
 10
145.162538225976
 20
121.5348185703259
 30
0.0
  0
LINE
  5
1F3
330
1F
100
AcDbEntity
  8
0
  6
HIDDEN
 62
     7
370
     0
100
AcDbLine
 10
145.1625382517
 20
121.5348180123
 30
0.0
 11
142.218052036
 21
121.5348180123
 31
0.0
  0
SPLINE
  5
1F4
330
1F
100
AcDbEntity
  8
0
  6
HIDDEN
 62
     7
370
     0
100
AcDbSpline
210
0.0
220
0.0
230
1.0
 70
     8
 71
     3
 72
    12
 73
     8
 74
     0
 42
0.00000001
 43
0.00000001
 12
1.0
 22
0.0
 32
0.0
 13
1.0
 23
0.0
 33
0.0
 40
0.0
 40
0.0
 40
0.0
 40
0.0
 40
0.2500000000000009
 40
0.2500000000000009
 40
0.5000000000000018
 40
0.5000000000000018
 40
1.0
 40
1.0
 40
1.0
 40
1.0
 10
142.2180518531089
 20
121.5348185703259
 30
0.0
 10
142.1549718146155
 20
121.5348185703259
 30
0.0
 10
142.0958231924342
 20
121.5427244965384
 30
0.0
 10
141.9973506423651
 20
121.5660496579746
 30
0.0
 10
141.9583140303803
 20
121.5807624478063
 30
0.0
 10
141.8584175636013
 20
121.6287182485372
 30
0.0
 10
141.8159966825347
 20
121.6649804051173
 30
0.0
 10
141.7850391512167
 20
121.7025680690818
 30
0.0
  0
ELLIPSE
  5
1F5
330
1F
100
AcDbEntity
  8
0
  6
HIDDEN
 62
     7
370
     0
100
AcDbEllipse
 10
158.0374492289
 20
151.6033105292
 30
0.0
 11
14.75368316065612
 21
31.09325491558116
 31
0.0
210
0.0
220
0.0
230
1.0
 40
0.3419987131
 41
2.051689083818816
 42
2.982450450962495
  0
SPLINE
  5
1F6
330
1F
100
AcDbEntity
  8
0
  6
HIDDEN
 62
     7
370
     0
100
AcDbSpline
210
0.0
220
0.0
230
1.0
 70
     8
 71
     3
 72
    12
 73
     8
 74
     0
 42
0.00000001
 43
0.00000001
 12
1.0
 22
0.0
 32
0.0
 13
1.0
 23
0.0
 33
0.0
 40
0.0
 40
0.0
 40
0.0
 40
0.0
 40
0.4999999999999982
 40
0.4999999999999982
 40
0.7499999999999991
 40
0.7499999999999991
 40
1.0
 40
1.0
 40
1.0
 40
1.0
 10
141.7850391512167
 20
181.5040529893163
 30
0.0
 10
141.8157613931358
 20
181.5413549722694
 30
0.0
 10
141.858598607671
 20
181.5779668043158
 30
0.0
 10
141.9580256318707
 20
181.6257315876009
 30
0.0
 10
141.9977778266874
 20
181.6406891030833
 30
0.0
 10
142.0958192835456
 20
181.6638790488525
 30
0.0
 10
142.1553753391331
 20
181.6718024880722
 30
0.0
 10
142.2180518531089
 20
181.6718024880722
 30
0.0
  0
LINE
  5
1F7
330
1F
100
AcDbEntity
  8
0
  6
HIDDEN
 62
     7
370
     0
100
AcDbLine
 10
142.218052036
 20
181.6718030461
 30
0.0
 11
145.1625382517
 21
181.6718030461
 31
0.0
  0
SPLINE
  5
1F8
330
1F
100
AcDbEntity
  8
0
  6
HIDDEN
 62
     7
370
     0
100
AcDbSpline
210
0.0
220
0.0
230
1.0
 70
     8
 71
     3
 72
    12
 73
     8
 74
     0
 42
0.00000001
 43
0.00000001
 12
1.0
 22
0.0
 32
0.0
 13
1.0
 23
0.0
 33
0.0
 40
0.0
 40
0.0
 40
0.0
 40
0.0
 40
0.2500000000000023
 40
0.2500000000000023
 40
0.5000000000000047
 40
0.5000000000000047
 40
1.0
 40
1.0
 40
1.0
 40
1.0
 10
145.162538225976
 20
181.6718024880722
 30
0.0
 10
145.2256182644694
 20
181.6718024880722
 30
0.0
 10
145.2847668866508
 20
181.6638965618598
 30
0.0
 10
145.3832394367199
 20
181.6405714004235
 30
0.0
 10
145.4222760487046
 20
181.6258586105918
 30
0.0
 10
145.5221725154837
 20
181.5779028098609
 30
0.0
 10
145.5645933965503
 20
181.5416406532808
 30
0.0
 10
145.5955509278682
 20
181.5040529893163
 30
0.0
  0
ELLIPSE
  5
1F9
330
1F
100
AcDbEntity
  8
0
  6
HIDDEN
 62
     7
370
     0
100
AcDbEllipse
 10
129.3431408502
 20
151.6033105292
 30
0.0
 11
14.75368316065629
 21
31.09325491558115
 31
0.0
210
0.0
220
0.0
230
1.0
 40
0.3419987131
 41
5.193281737408642
 42
6.124043104552348
  0
SPLINE
  5
1FA
330
1F
100
AcDbEntity
  8
0
  6
HIDDEN
 62
     7
370
     0
100
AcDbSpline
210
0.0
220
0.0
230
1.0
 70
     8
 71
     3
 72
    12
 73
     8
 74
     0
 42
0.00000001
 43
0.00000001
 12
1.0
 22
0.0
 32
0.0
 13
1.0
 23
0.0
 33
0.0
 40
0.0
 40
0.0
 40
0.0
 40
0.0
 40
0.5000000000000037
 40
0.5000000000000037
 40
0.7500000000000018
 40
0.7500000000000018
 40
1.0
 40
1.0
 40
1.0
 40
1.0
 10
145.5955509278682
 20
161.5126798498847
 30
0.0
 10
145.5648286859492
 20
161.4001240504755
 30
0.0
 10
145.521991471414
 20
161.2873661907359
 30
0.0
 10
145.4225644472142
 20
161.1378253049396
 30
0.0
 10
145.3828122523975
 20
161.0905325732327
 30
0.0
 10
145.2847707955393
 20
161.0167962799113
 30
0.0
 10
145.2252147399519
 20
160.9913769605355
 30
0.0
 10
145.162538225976
 20
160.9913769605355
 30
0.0
  0
LINE
  5
1FB
330
1F
100
AcDbEntity
  8
0
  6
HIDDEN
 62
     7
370
     0
100
AcDbLine
 10
145.1625382517
 20
160.9913773574
 30
0.0
 11
142.218052036
 21
160.9913773574
 31
0.0
  0
SPLINE
  5
1FC
330
1F
100
AcDbEntity
  8
0
  6
HIDDEN
 62
     7
370
     0
100
AcDbSpline
210
0.0
220
0.0
230
1.0
 70
     8
 71
     3
 72
    12
 73
     8
 74
     0
 42
0.00000001
 43
0.00000001
 12
1.0
 22
0.0
 32
0.0
 13
1.0
 23
0.0
 33
0.0
 40
0.0
 40
0.0
 40
0.0
 40
0.0
 40
0.2500000000000009
 40
0.2500000000000009
 40
0.5000000000000018
 40
0.5000000000000018
 40
1.0
 40
1.0
 40
1.0
 40
1.0
 10
142.2180518531089
 20
160.9913769605355
 30
0.0
 10
142.1549718146155
 20
160.9913769605355
 30
0.0
 10
142.0958231924342
 20
161.0167412797505
 30
0.0
 10
141.9973506423651
 20
161.0909061401234
 30
0.0
 10
141.9583140303804
 20
161.1374264806775
 30
0.0
 10
141.8584175636013
 20
161.2875688235228
 30
0.0
 10
141.8159966825347
 20
161.3992620304949
 30
0.0
 10
141.7850391512167
 20
161.5126798498846
 30
0.0
  0
ELLIPSE
  5
1FD
330
1F
100
AcDbEntity
  8
0
  6
HIDDEN
 62
     7
370
     0
100
AcDbEllipse
 10
158.0374492289
 20
151.6033105292
 30
0.0
 11
-14.75368316065629
 21
31.09325491558118
 31
0.0
210
0.0
220
0.0
230
1.0
 40
0.3419987131
 41
0.1591422026272806
 42
1.089903569770958
  0
SPLINE
  5
1FE
330
1F
100
AcDbEntity
  8
0
  6
HIDDEN
 62
     7
370
     0
100
AcDbSpline
210
0.0
220
0.0
230
1.0
 70
     8
 71
     3
 72
     8
 73
     4
 74
     0
 42
0.00000001
 43
0.00000001
 12
1.0
 22
0.0
 32
0.0
 13
1.0
 23
0.0
 33
0.0
 40
0.0
 40
0.0
 40
0.0
 40
0.0
 40
1.0
 40
1.0
 40
1.0
 40
1.0
 10
227.9072248280123
 20
121.2943850010087
 30
0.0
 10
229.6990874347211
 20
120.9928970952404
 30
0.0
 10
231.5976107657411
 20
120.8085385667055
 30
0.0
 10
233.5977828900918
 20
120.6835571498565
 30
0.0
  0
ELLIPSE
  5
1FF
330
1F
100
AcDbEntity
  8
0
  6
HIDDEN
 62
     7
370
     0
100
AcDbEllipse
 10
248.0718613251
 20
151.6033105292
 30
0.0
 11
54.77253121534148
 21
4.685189640530866
 31
0.0
210
0.0
220
0.0
230
1.0
 40
0.5687088412
 41
2.330383962133376
 42
4.287227121455038
  0
LWPOLYLINE
  5
200
330
1F
100
AcDbEntity
  8
0
  6
HIDDEN
 62
     7
370
     0
100
AcDbPolyline
 90
       13
 70
   128
 43
0.0
 10
205.1695078601
 20
183.1033110358
 10
205.1761016239
 20
183.0787203946
 10
205.228754877
 20
182.8822187819
 10
205.333726107
 20
182.4904486277
 10
205.4903671135
 20
181.905849997
 10
205.6977018703
 20
181.1320755371
 10
205.954426526
 20
180.1739550867
 10
206.2589466561
 20
179.0374677368
 10
206.6093623628
 20
177.7297120281
 10
207.0034757246
 20
176.2588500716
 10
207.4388355006
 20
174.6340665706
 10
207.9127222289
 20
172.8655017652
 10
208.4221780289
 20
170.9641992786
  0
LINE
  5
201
330
1F
100
AcDbEntity
  8
0
  6
HIDDEN
 62
     7
370
     0
100
AcDbLine
 10
251.9227579225
 20
120.1038650908
 30
0.0
 11
251.9225940098
 21
120.1033100226
 31
0.0
  0
ELLIPSE
  5
202
330
1F
100
AcDbEntity
  8
0
  6
HIDDEN
 62
     7
370
     0
100
AcDbEllipse
 10
261.6810348686
 20
151.6033105292
 30
0.0
 11
100.3197713769981
 21
3.188873534942501
 31
0.0
210
0.0
220
0.0
230
1.0
 40
0.3123828189
 41
4.418745080623109
 42
4.60503862070286
  0
SPLINE
  5
203
330
1F
100
AcDbEntity
  8
0
  6
HIDDEN
 62
     7
370
     0
100
AcDbSpline
210
0.0
220
0.0
230
1.0
 70
     8
 71
     3
 72
    17
 73
    13
 74
     0
 42
0.00000001
 43
0.00000001
 12
1.0
 22
0.0
 32
0.0
 13
1.0
 23
0.0
 33
0.0
 40
0.0
 40
0.0
 40
0.0
 40
0.0
 40
0.1070403357579102
 40
0.2140690676319486
 40
0.3214004253137049
 40
0.4289348726655424
 40
0.5361389384386257
 40
0.642994214234418
 40
0.7500266277333958
 40
0.8574848300831202
 40
0.9649549294383984
 40
1.0
 40
1.0
 40
1.0
 40
1.0
 10
195.6902980793794
 20
183.1033110358384
 30
0.0
 10
195.723312379714
 20
183.1000781793175
 30
0.0
 10
195.7893374014137
 20
183.0936128167387
 30
0.0
 10
196.3038629677206
 20
183.0486158240639
 30
0.0
 10
197.0628180210114
 20
182.9983831599544
 30
0.0
 10
198.012703369895
 20
182.9620390962987
 30
0.0
 10
199.0368377522372
 20
182.9565261571903
 30
0.0
 10
200.0186899680946
 20
182.9836803559913
 30
0.0
 10
200.8579256642898
 20
183.0323195680741
 30
0.0
 10
201.431850707787
 20
183.0786922783595
 30
0.0
 10
201.7058118699758
 20
183.10476493547
 30
0.0
 10
201.6634276395016
 20
183.1007754040877
 30
0.0
 10
201.6530051816781
 20
183.0997943617967
 30
0.0
  0
LINE
  5
204
330
1F
100
AcDbEntity
  8
0
  6
HIDDEN
 62
     7
370
     0
100
AcDbLine
 10
131.6902950395
 20
182.6033100226
 30
0.0
 11
131.6902950395
 21
120.6033110358
 31
0.0
  0
LINE
  5
205
330
1F
100
AcDbEntity
  8
0
  6
HIDDEN
 62
     7
370
     0
100
AcDbLine
 10
131.6902950395
 20
127.3777290918
 30
0.0
 11
131.6902950395
 21
175.8288919665
 31
0.0
  0
SPLINE
  5
206
330
1F
100
AcDbEntity
  8
0
  6
HIDDEN
 62
     7
370
     0
100
AcDbSpline
210
0.0
220
0.0
230
1.0
 70
     8
 71
     3
 72
    12
 73
     8
 74
     0
 42
0.00000001
 43
0.00000001
 12
1.0
 22
0.0
 32
0.0
 13
1.0
 23
0.0
 33
0.0
 40
0.0
 40
0.0
 40
0.0
 40
0.0
 40
0.4999999999999998
 40
0.4999999999999998
 40
0.75
 40
0.75
 40
1.0
 40
1.0
 40
1.0
 40
1.0
 10
130.8737827530954
 20
135.2889395536827
 30
0.0
 10
130.9301889317757
 20
135.259692944679
 30
0.0
 10
131.0003518332475
 20
135.2346060687472
 30
0.0
 10
131.1183625466367
 20
135.2265826978695
 30
0.0
 10
131.1585683302322
 20
135.2291722188504
 30
0.0
 10
131.2322890269652
 20
135.2427375818552
 30
0.0
 10
131.2651497487517
 20
135.2531304388505
 30
0.0
 10
131.295318150681
 20
135.2654676293821
 30
0.0
  0
SPLINE
  5
207
330
1F
100
AcDbEntity
  8
0
  6
HIDDEN
 62
     7
370
     0
100
AcDbSpline
210
0.0
220
0.0
230
1.0
 70
     8
 71
     3
 72
    16
 73
    12
 74
     0
 42
0.00000001
 43
0.00000001
 12
1.0
 22
0.0
 32
0.0
 13
1.0
 23
0.0
 33
0.0
 40
0.0
 40
0.0
 40
0.0
 40
0.0
 40
0.0624999999999948
 40
0.0624999999999948
 40
0.1249999999999895
 40
0.1249999999999895
 40
0.2499999999999873
 40
0.2499999999999873
 40
0.4999999999999933
 40
0.4999999999999933
 40
1.0
 40
1.0
 40
1.0
 40
1.0
 10
131.2953181506358
 20
135.2654676294382
 30
0.0
 10
131.3069310504752
 20
135.2702166565298
 30
0.0
 10
131.3202822349077
 20
135.2731993295328
 30
0.0
 10
131.3496820745268
 20
135.2702136597046
 30
0.0
 10
131.3645227990821
 20
135.2637063667447
 30
0.0
 10
131.4003560070507
 20
135.2373536171994
 30
0.0
 10
131.4144692148723
 20
135.2144596365034
 30
0.0
 10
131.4489605860912
 20
135.1478404411642
 30
0.0
 10
131.4600446572016
 20
135.1041712064701
 30
0.0
 10
131.4861674749976
 20
134.9749345580897
 30
0.0
 10
131.4902950395425
 20
134.8925843786597
 30
0.0
 10
131.4902950395425
 20
134.8131091754578
 30
0.0
  0
LINE
  5
208
330
1F
100
AcDbEntity
  8
0
  6
HIDDEN
 62
     7
370
     0
100
AcDbLine
 10
131.4902950446
 20
129.0634900071
 30
0.0
 11
131.4902950446
 21
134.8131086417
 31
0.0
  0
SPLINE
  5
209
330
1F
100
AcDbEntity
  8
0
  6
HIDDEN
 62
     7
370
     0
100
AcDbSpline
210
0.0
220
0.0
230
1.0
 70
     8
 71
     3
 72
    12
 73
     8
 74
     0
 42
0.00000001
 43
0.00000001
 12
1.0
 22
0.0
 32
0.0
 13
1.0
 23
0.0
 33
0.0
 40
0.0
 40
0.0
 40
0.0
 40
0.0
 40
0.2499999999999997
 40
0.2499999999999997
 40
0.4999999999999993
 40
0.4999999999999993
 40
1.0
 40
1.0
 40
1.0
 40
1.0
 10
130.8737827530913
 20
173.1425526353095
 30
0.0
 10
130.7852893455234
 20
173.1845856720741
 30
0.0
 10
130.7252313047575
 20
173.2355750322365
 30
0.0
 10
130.6193830317749
 20
173.3395773315403
 30
0.0
 10
130.5768495104975
 20
173.392552461383
 30
0.0
 10
130.4656982036738
 20
173.5487509801974
 30
0.0
 10
130.412767346626
 20
173.6503380757214
 30
0.0
 10
130.3689746959828
 20
173.7469955837252
 30
0.0
  0
SPLINE
  5
20A
330
1F
100
AcDbEntity
  8
0
  6
HIDDEN
 62
     7
370
     0
100
AcDbSpline
210
0.0
220
0.0
230
1.0
 70
     8
 71
     3
 72
    12
 73
     8
 74
     0
 42
0.00000001
 43
0.00000001
 12
1.0
 22
0.0
 32
0.0
 13
1.0
 23
0.0
 33
0.0
 40
0.0
 40
0.0
 40
0.0
 40
0.0
 40
0.5000000000000007
 40
0.5000000000000007
 40
0.7500000000000003
 40
0.7500000000000003
 40
1.0
 40
1.0
 40
1.0
 40
1.0
 10
130.8737827530912
 20
173.1425526353095
 30
0.0
 10
130.9300913013869
 20
173.1158069223155
 30
0.0
 10
131.000365962105
 20
173.0934225368517
 30
0.0
 10
131.1184038764286
 20
173.0904738961628
 30
0.0
 10
131.1585801172825
 20
173.0948528874122
 30
0.0
 10
131.2325372119604
 20
173.1118593360709
 30
0.0
 10
131.2651535996719
 20
173.1237109661152
 30
0.0
 10
131.2953181506676
 20
173.1374009335962
 30
0.0
  0
SPLINE
  5
20B
330
1F
100
AcDbEntity
  8
0
  6
HIDDEN
 62
     7
370
     0
100
AcDbSpline
210
0.0
220
0.0
230
1.0
 70
     8
 71
     3
 72
    16
 73
    12
 74
     0
 42
0.00000001
 43
0.00000001
 12
1.0
 22
0.0
 32
0.0
 13
1.0
 23
0.0
 33
0.0
 40
0.0
 40
0.0
 40
0.0
 40
0.0
 40
0.062499999999999
 40
0.062499999999999
 40
0.1249999999999981
 40
0.1249999999999981
 40
0.2499999999999983
 40
0.2499999999999983
 40
0.4999999999999989
 40
0.4999999999999989
 40
1.0
 40
1.0
 40
1.0
 40
1.0
 10
131.2953181506359
 20
173.1374009335999
 30
0.0
 10
131.3069310504752
 20
173.142671365811
 30
0.0
 10
131.3202822349078
 20
173.1479648030422
 30
0.0
 10
131.3496820745269
 20
173.1566544182436
 30
0.0
 10
131.3645227990822
 20
173.1594786726703
 30
0.0
 10
131.4003560070507
 20
173.1627382156855
 30
0.0
 10
131.4144692148723
 20
173.1597394685421
 30
0.0
 10
131.4489605860912
 20
173.1479112282834
 30
0.0
 10
131.4600446572016
 20
173.1352871330011
 30
0.0
 10
131.4861674749976
 20
173.0930928005779
 30
0.0
 10
131.4902950395425
 20
173.0585587279665
 30
0.0
 10
131.4902950395425
 20
173.0214476234581
 30
0.0
  0
LINE
  5
20C
330
1F
100
AcDbEntity
  8
0
  6
HIDDEN
 62
     7
370
     0
100
AcDbLine
 10
131.4902950446
 20
146.9753749408
 30
0.0
 11
131.4902950446
 21
173.021448005
 31
0.0
  0
SPLINE
  5
20D
330
1F
100
AcDbEntity
  8
0
  6
HIDDEN
 62
     7
370
     0
100
AcDbSpline
210
0.0
220
0.0
230
1.0
 70
     8
 71
     3
 72
    16
 73
    12
 74
     0
 42
0.00000001
 43
0.00000001
 12
1.0
 22
0.0
 32
0.0
 13
1.0
 23
0.0
 33
0.0
 40
0.0
 40
0.0
 40
0.0
 40
0.0
 40
0.5000000000000016
 40
0.5000000000000016
 40
0.7500000000000043
 40
0.7500000000000043
 40
0.8750000000000057
 40
0.8750000000000057
 40
0.9375000000000028
 40
0.9375000000000028
 40
1.0
 40
1.0
 40
1.0
 40
1.0
 10
131.4902950395425
 20
146.9753747886809
 30
0.0
 10
131.4902950395425
 20
146.8577768512034
 30
0.0
 10
131.4861293410825
 20
146.7411424515425
 30
0.0
 10
131.4598710127576
 20
146.5695922983801
 30
0.0
 10
131.44836723102
 20
146.5124469979455
 30
0.0
 10
131.4142364716734
 20
146.4353993248196
 30
0.0
 10
131.3998145850027
 20
146.4092890473118
 30
0.0
 10
131.3642476165649
 20
146.3866724353049
 30
0.0
 10
131.3492958482702
 20
146.3830901086272
 30
0.0
 10
131.3202920299105
 20
146.3888145200185
 30
0.0
 10
131.3068766759012
 20
146.3970904790102
 30
0.0
 10
131.2953181506646
 20
146.4070630246057
 30
0.0
  0
SPLINE
  5
20E
330
1F
100
AcDbEntity
  8
0
  6
HIDDEN
 62
     7
370
     0
100
AcDbSpline
210
0.0
220
0.0
230
1.0
 70
     8
 71
     3
 72
    12
 73
     8
 74
     0
 42
0.00000001
 43
0.00000001
 12
1.0
 22
0.0
 32
0.0
 13
1.0
 23
0.0
 33
0.0
 40
0.0
 40
0.0
 40
0.0
 40
0.0
 40
0.2500000000000004
 40
0.2500000000000004
 40
0.5000000000000004
 40
0.5000000000000004
 40
1.0
 40
1.0
 40
1.0
 40
1.0
 10
131.2953181506739
 20
146.4070630246189
 30
0.0
 10
131.2651303741242
 20
146.4331086465214
 30
0.0
 10
131.2317765700325
 20
146.4556488791951
 30
0.0
 10
131.1586503668366
 20
146.4858298642557
 30
0.0
 10
131.1184151638124
 20
146.4928545987338
 30
0.0
 10
131.0007235336793
 20
146.4819855601415
 30
0.0
 10
130.9303428605193
 20
146.4346310194777
 30
0.0
 10
130.8737827530887
 20
146.378439398604
 30
0.0
  0
SPLINE
  5
20F
330
1F
100
AcDbEntity
  8
0
  6
HIDDEN
 62
     7
370
     0
100
AcDbSpline
210
0.0
220
0.0
230
1.0
 70
     8
 71
     3
 72
    12
 73
     8
 74
     0
 42
0.00000001
 43
0.00000001
 12
1.0
 22
0.0
 32
0.0
 13
1.0
 23
0.0
 33
0.0
 40
0.0
 40
0.0
 40
0.0
 40
0.0
 40
0.2500000000000005
 40
0.2500000000000005
 40
0.5000000000000009
 40
0.5000000000000009
 40
1.0
 40
1.0
 40
1.0
 40
1.0
 10
130.8737827530908
 20
146.378439398602
 30
0.0
 10
130.7850980932344
 20
146.290332515318
 30
0.0
 10
130.725179677511
 20
146.1840879543299
 30
0.0
 10
130.6195204501903
 20
145.9627429004867
 30
0.0
 10
130.5768792120753
 20
145.8474223610308
 30
0.0
 10
130.4656898699728
 20
145.4995897947726
 30
0.0
 10
130.4127631878518
 20
145.262230003551
 30
0.0
 10
130.3689746959828
 20
145.0228267190976
 30
0.0
  0
SPLINE
  5
210
330
1F
100
AcDbEntity
  8
0
  6
HIDDEN
 62
     7
370
     0
100
AcDbSpline
210
0.0
220
0.0
230
1.0
 70
     8
 71
     3
 72
    12
 73
     8
 74
     0
 42
0.00000001
 43
0.00000001
 12
1.0
 22
0.0
 32
0.0
 13
1.0
 23
0.0
 33
0.0
 40
0.0
 40
0.0
 40
0.0
 40
0.0
 40
0.5000000000000014
 40
0.5000000000000014
 40
0.7499999999999993
 40
0.7499999999999993
 40
1.0
 40
1.0
 40
1.0
 40
1.0
 10
130.3689746959813
 20
136.040109284773
 30
0.0
 10
130.41273617228
 20
135.8974424027495
 30
0.0
 10
130.465642487933
 20
135.7615360017591
 30
0.0
 10
130.5773536855804
 20
135.5692437138626
 30
0.0
 10
130.6198731291668
 20
135.5073439980626
 30
0.0
 10
130.7249964717342
 20
135.3904317432191
 30
0.0
 10
130.7865624354519
 20
135.3341632966661
 30
0.0
 10
130.8737827530946
 20
135.2889395536831
 30
0.0
  0
LINE
  5
211
330
1F
100
AcDbEntity
  8
0
  6
HIDDEN
 62
     7
370
     0
100
AcDbLine
 10
131.4902950446
 20
146.9753749408
 30
0.0
 11
131.4902950446
 21
173.021448005
 31
0.0
  0
LINE
  5
212
330
1F
100
AcDbEntity
  8
0
  6
HIDDEN
 62
     7
370
     0
100
AcDbLine
 10
95.2205225815
 20
136.290359471
 30
0.0
 11
95.2205225815
 21
166.9162615873
 31
0.0
  0
LINE
  5
213
330
1F
100
AcDbEntity
  8
0
  6
HIDDEN
 62
     7
370
     0
100
AcDbLine
 10
93.6902962614
 20
135.413031254
 30
0.0
 11
93.6902962614
 21
167.7935898044
 31
0.0
  0
LINE
  5
214
330
1F
100
AcDbEntity
  8
0
  6
HIDDEN
 62
     7
370
     0
100
AcDbLine
 10
101.7205227156
 20
137.2569000088
 30
0.0
 11
101.7205227156
 21
165.9497210496
 31
0.0
  0
LINE
  5
215
330
1F
100
AcDbEntity
  8
0
  6
HIDDEN
 62
     7
370
     0
100
AcDbLine
 10
129.4902950515
 20
135.1457807907
 30
0.0
 11
129.4902950515
 21
130.9832121917
 31
0.0
  0
LINE
  5
216
330
1F
100
AcDbEntity
  8
0
  6
HIDDEN
 62
     7
370
     0
100
AcDbLine
 10
95.190295576
 20
135.8920663335
 30
0.0
 11
95.190295576
 21
132.1063201614
 31
0.0
  0
SPLINE
  5
217
330
1F
100
AcDbEntity
  8
0
  6
HIDDEN
 62
     7
370
     0
100
AcDbSpline
210
0.0
220
0.0
230
1.0
 70
     8
 71
     3
 72
     8
 73
     4
 74
     0
 42
0.00000001
 43
0.00000001
 12
1.0
 22
0.0
 32
0.0
 13
1.0
 23
0.0
 33
0.0
 40
0.0000249631533153
 40
0.0000249631533153
 40
0.0000249631533153
 40
0.0000249631533153
 40
0.0049776413517029
 40
0.0049776413517029
 40
0.0049776413517029
 40
0.0049776413517029
 10
100.1402950395425
 20
131.9970472387158
 30
0.0
 10
98.49027259379706
 20
132.0335471169267
 30
0.0
 10
96.84027127405201
 20
132.0699717030588
 30
0.0
 10
95.19029503954246
 20
132.1063209159967
 30
0.0
  0
SPLINE
  5
218
330
1F
100
AcDbEntity
  8
0
  6
HIDDEN
 62
     7
370
     0
100
AcDbSpline
210
0.0
220
0.0
230
1.0
 70
     8
 71
     3
 72
    11
 73
     7
 74
     0
 42
0.00000001
 43
0.00000001
 12
1.0
 22
0.0
 32
0.0
 13
1.0
 23
0.0
 33
0.0
 40
0.0
 40
0.0
 40
0.0
 40
0.0
 40
0.2452683607374372
 40
0.4585635198302908
 40
0.6769553747508591
 40
1.0
 40
1.0
 40
1.0
 40
1.0
 10
102.0324170578797
 20
131.6776361056235
 30
0.0
 10
102.011746763964
 20
131.6804016879184
 30
0.0
 10
101.973100757176
 20
131.6855723309955
 30
0.0
 10
101.5304785363468
 20
131.7512487050055
 30
0.0
 10
100.9463911053883
 20
131.8452665539398
 30
0.0
 10
100.4415211360949
 20
131.9403294266152
 30
0.0
 10
100.140293686517
 20
131.9970480837491
 30
0.0
  0
SPLINE
  5
219
330
1F
100
AcDbEntity
  8
0
  6
HIDDEN
 62
     7
370
     0
100
AcDbSpline
210
0.0
220
0.0
230
1.0
 70
     8
 71
     3
 72
    16
 73
    12
 74
     0
 42
0.00000001
 43
0.00000001
 12
1.0
 22
0.0
 32
0.0
 13
1.0
 23
0.0
 33
0.0
 40
0.0
 40
0.0
 40
0.0
 40
0.0
 40
0.0298063349399068
 40
0.1194532531601674
 40
0.2591267988570242
 40
0.4049763844870695
 40
0.5542847216918226
 40
0.7032034644007256
 40
0.8464541855874916
 40
0.979667114513501
 40
0.9999999999999999
 40
0.9999999999999999
 40
0.9999999999999999
 40
0.9999999999999999
 10
113.0014561106046
 20
131.5118755885032
 30
0.0
 10
113.0807217182097
 20
131.516262966347
 30
0.0
 10
113.3983902511318
 20
131.5338460256982
 30
0.0
 10
114.0458885983925
 20
131.5762478891745
 30
0.0
 10
115.2915916513436
 20
131.6060376549977
 30
0.0
 10
116.7944172845126
 20
131.5803276422925
 30
0.0
 10
118.2840747084511
 20
131.4873579638366
 30
0.0
 10
119.5513059028344
 20
131.3555455538252
 30
0.0
 10
120.3534889859354
 20
131.2484202620868
 30
0.0
 10
120.6911072946259
 20
131.1981257856918
 30
0.0
 10
120.6201252905392
 20
131.2085049146876
 30
0.0
 10
120.6107256923397
 20
131.2098793425229
 30
0.0
  0
SPLINE
  5
21A
330
1F
100
AcDbEntity
  8
0
  6
HIDDEN
 62
     7
370
     0
100
AcDbSpline
210
0.0
220
0.0
230
1.0
 70
     8
 71
     3
 72
    11
 73
     7
 74
     0
 42
0.00000001
 43
0.00000001
 12
1.0
 22
0.0
 32
0.0
 13
1.0
 23
0.0
 33
0.0
 40
0.0
 40
0.0
 40
0.0
 40
0.0
 40
0.22466460277088
 40
0.6644837005779718
 40
0.7379199758153471
 40
1.0
 40
1.0
 40
1.0
 40
1.0
 10
112.0151557017644
 20
131.4292635508445
 30
0.0
 10
112.0053687147016
 20
131.4282133775265
 30
0.0
 10
111.9764220390757
 20
131.4251073116667
 30
0.0
 10
112.2229555380995
 20
131.4516306528832
 30
0.0
 10
112.6684005056382
 20
131.4858507611635
 30
0.0
 10
112.855392258542
 20
131.5004622194627
 30
0.0
 10
113.0014561106046
 20
131.5118755885032
 30
0.0
  0
LINE
  5
21B
330
1F
100
AcDbEntity
  8
0
  6
HIDDEN
 62
     7
370
     0
100
AcDbLine
 10
131.4902950446
 20
134.8131086417
 30
0.0
 11
131.4902950446
 21
130.9379890301
 31
0.0
  0
LINE
  5
21C
330
1F
100
AcDbEntity
  8
0
  6
HIDDEN
 62
     7
370
     0
100
AcDbLine
 10
107.5205240388
 20
137.6033100971
 30
0.0
 11
107.5205240388
 21
165.6033109613
 31
0.0
  0
LINE
  5
21D
330
1F
100
AcDbEntity
  8
0
  6
HIDDEN
 62
     7
370
     0
100
AcDbLine
 10
100.1205235709
 20
137.6033100971
 30
0.0
 11
100.1205235709
 21
165.6033109613
 31
0.0
  0
LINE
  5
21E
330
1F
100
AcDbEntity
  8
0
  6
HIDDEN
 62
     7
370
     0
100
AcDbLine
 10
101.1205237348
 20
137.6033100971
 30
0.0
 11
101.1205237348
 21
165.6033109613
 31
0.0
  0
SPLINE
  5
21F
330
1F
100
AcDbEntity
  8
0
  6
HIDDEN
 62
     7
370
     0
100
AcDbSpline
210
0.0
220
0.0
230
1.0
 70
    11
 71
     3
 72
    10
 73
     6
 74
     0
 42
0.00000001
 43
0.00000001
 12
1.0
 22
0.0
 32
0.0
 13
1.0
 23
0.0
 33
0.0
 40
0.0
 40
0.0
 40
0.0
 40
0.0
 40
0.5
 40
0.5
 40
1.0
 40
1.0
 40
1.0
 40
1.0
 10
120.1902950395425
 20
165.5889281415892
 30
0.0
 10
120.2234840020162
 20
165.5984204538756
 30
0.0
 10
120.2401847782708
 20
165.6007834265884
 30
0.0
 10
120.2404042187155
 20
165.6008248645789
 30
0.0
 10
120.2235245033221
 20
165.5984320375773
 30
0.0
 10
120.1902950395425
 20
165.5889281415892
 30
0.0
  0
SPLINE
  5
220
330
1F
100
AcDbEntity
  8
0
  6
HIDDEN
 62
     7
370
     0
100
AcDbSpline
210
0.0
220
0.0
230
1.0
 70
    11
 71
     3
 72
    10
 73
     6
 74
     0
 42
0.00000001
 43
0.00000001
 12
1.0
 22
0.0
 32
0.0
 13
1.0
 23
0.0
 33
0.0
 40
0.0
 40
0.0
 40
0.0
 40
0.0
 40
0.5
 40
0.5
 40
1.0
 40
1.0
 40
1.0
 40
1.0
 10
120.1902950395425
 20
137.6176929168087
 30
0.0
 10
120.2234424576189
 20
137.6082124865567
 30
0.0
 10
120.2403013029806
 20
137.6058156278972
 30
0.0
 10
120.2402887726329
 20
137.6058179940496
 30
0.0
 10
120.2233738148925
 20
137.6082321189328
 30
0.0
 10
120.1902950395425
 20
137.6176929168087
 30
0.0
  0
LINE
  5
221
330
1F
100
AcDbEntity
  8
0
  6
HIDDEN
 62
     7
370
     0
100
AcDbLine
 10
120.6902950991
 20
138.103310179
 30
0.0
 11
120.6902950991
 21
165.1033108794
 31
0.0
  0
SPLINE
  5
222
330
1F
100
AcDbEntity
  8
0
  6
HIDDEN
 62
     7
370
     0
100
AcDbSpline
210
0.0
220
0.0
230
1.0
 70
    11
 71
     3
 72
    68
 73
    64
 74
     0
 42
0.00000001
 43
0.00000001
 12
1.0
 22
0.0
 32
0.0
 13
1.0
 23
0.0
 33
0.0
 40
0.0
 40
0.0
 40
0.0
 40
0.0
 40
0.03125
 40
0.03125
 40
0.0625
 40
0.0625
 40
0.09375
 40
0.09375
 40
0.125
 40
0.125
 40
0.1562499999999999
 40
0.1562499999999999
 40
0.1874999999999999
 40
0.1874999999999999
 40
0.2187499999999999
 40
0.2187499999999999
 40
0.2499999999999999
 40
0.2499999999999999
 40
0.2812499999999999
 40
0.2812499999999999
 40
0.3124999999999999
 40
0.3124999999999999
 40
0.3437499999999999
 40
0.3437499999999999
 40
0.3749999999999999
 40
0.3749999999999999
 40
0.4062499999999999
 40
0.4062499999999999
 40
0.4374999999999999
 40
0.4374999999999999
 40
0.4687499999999999
 40
0.4687499999999999
 40
0.4999999999999999
 40
0.4999999999999999
 40
0.5624999999999999
 40
0.5624999999999999
 40
0.5937499999999999
 40
0.5937499999999999
 40
0.6249999999999999
 40
0.6249999999999999
 40
0.6562499999999999
 40
0.6562499999999999
 40
0.6874999999999999
 40
0.6874999999999999
 40
0.7187499999999999
 40
0.7187499999999999
 40
0.7499999999999999
 40
0.7499999999999999
 40
0.78125
 40
0.78125
 40
0.8125
 40
0.8125
 40
0.84375
 40
0.84375
 40
0.875
 40
0.875
 40
0.90625
 40
0.90625
 40
0.9375
 40
0.9375
 40
0.96875
 40
0.96875
 40
1.0
 40
1.0
 40
1.0
 40
1.0
 10
120.1902950395425
 20
137.6176929168087
 30
0.0
 10
120.1502800871928
 20
137.6291375175289
 30
0.0
 10
120.0873382857815
 20
137.6470284268777
 30
0.0
 10
119.9179516237094
 20
137.6933756743552
 30
0.0
 10
119.8102580611239
 20
137.7221587125839
 30
0.0
 10
119.5549732925861
 20
137.786534377549
 30
0.0
 10
119.4089340621138
 20
137.8217454919522
 30
0.0
 10
119.0807126255546
 20
137.8946850860784
 30
0.0
 10
118.8964653377796
 20
137.9327742830231
 30
0.0
 10
118.5035051704713
 20
138.0051067991183
 30
0.0
 10
118.2942105735121
 20
138.0395560250961
 30
0.0
 10
117.8493251465748
 20
138.101408568011
 30
0.0
 10
117.6125275540758
 20
138.1287821642306
 30
0.0
 10
117.1317924851565
 20
138.1710141219186
 30
0.0
 10
116.8855493919737
 20
138.1862593129913
 30
0.0
 10
116.3808326119943
 20
138.202930337194
 30
0.0
 10
116.1246379110578
 20
138.204103462866
 30
0.0
 10
115.6222591618577
 20
138.1922291445274
 30
0.0
 10
115.3730094626741
 20
138.1792487930609
 30
0.0
 10
114.8814816651953
 20
138.1403810474569
 30
0.0
 10
114.6461860639695
 20
138.1151003898067
 30
0.0
 10
114.1952721693073
 20
138.0560725638896
 30
0.0
 10
113.977659818844
 20
138.0219303272864
 30
0.0
 10
113.5744526492957
 20
137.9504439811205
 30
0.0
 10
113.3888411568612
 20
137.9132374828221
 30
0.0
 10
113.0488530864588
 20
137.8396404625729
 30
0.0
 10
112.8937801556359
 20
137.8030255373838
 30
0.0
 10
112.6274370789725
 20
137.7369911789641
 30
0.0
 10
112.5144529782557
 20
137.7072176271225
 30
0.0
 10
112.3295977213248
 20
137.6571796368508
 30
0.0
 10
112.2584569598214
 20
137.6371076687836
 30
0.0
 10
112.1644965485333
 20
137.6103649799824
 30
0.0
 10
112.1404872185769
 20
137.6033661238339
 30
0.0
 10
112.1399140979043
 20
137.6032003282535
 30
0.0
 10
112.2353132092229
 20
137.6316398129249
 30
0.0
 10
112.5131770014241
 20
137.7068812253197
 30
0.0
 10
112.6263389575046
 20
137.7367080029573
 30
0.0
 10
112.8924701395485
 20
137.8027115662156
 30
0.0
 10
113.0472979137482
 20
137.8392865146211
 30
0.0
 10
113.387479019536
 20
137.9129597746298
 30
0.0
 10
113.5729814764857
 20
137.9501554369626
 30
0.0
 10
113.9752752775451
 20
138.0215350108311
 30
0.0
 10
114.1932833257971
 20
138.0557768794705
 30
0.0
 10
114.6438816929474
 20
138.1148337269719
 30
0.0
 10
114.8784306918281
 20
138.140056243736
 30
0.0
 10
115.3668906853805
 20
138.1788469414542
 30
0.0
 10
115.6191560810943
 20
138.1920954724376
 30
0.0
 10
116.1213367192546
 20
138.2040849978937
 30
0.0
 10
116.3738188366063
 20
138.2030579982495
 30
0.0
 10
116.8816838796758
 20
138.1864887953684
 30
0.0
 10
117.1292293528596
 20
138.1711956664671
 30
0.0
 10
117.6101968903303
 20
138.1290300917593
 30
0.0
 10
117.8461567554356
 20
138.1018112388101
 30
0.0
 10
118.2927272049572
 20
138.0397996976929
 30
0.0
 10
118.5023720675307
 20
138.0052997337671
 30
0.0
 10
118.8953587742851
 20
137.9329935168415
 30
0.0
 10
119.0797546781001
 20
137.8948889309934
 30
0.0
 10
119.4083050959605
 20
137.8218942582019
 30
0.0
 10
119.5542471924837
 20
137.7867094726586
 30
0.0
 10
119.8091325476858
 20
137.722450484567
 30
0.0
 10
119.9174438604942
 20
137.693513005778
 30
0.0
 10
120.0872788379111
 20
137.6470462893031
 30
0.0
 10
120.1502741990482
 20
137.629139201586
 30
0.0
 10
120.1902950395425
 20
137.6176929168087
 30
0.0
  0
SPLINE
  5
223
330
1F
100
AcDbEntity
  8
0
  6
HIDDEN
 62
     7
370
     0
100
AcDbSpline
210
0.0
220
0.0
230
1.0
 70
    11
 71
     3
 72
    68
 73
    64
 74
     0
 42
0.00000001
 43
0.00000001
 12
1.0
 22
0.0
 32
0.0
 13
1.0
 23
0.0
 33
0.0
 40
0.0
 40
0.0
 40
0.0
 40
0.0
 40
0.03125
 40
0.03125
 40
0.0625
 40
0.0625
 40
0.09375
 40
0.09375
 40
0.125
 40
0.125
 40
0.1562499999999999
 40
0.1562499999999999
 40
0.1874999999999999
 40
0.1874999999999999
 40
0.2187499999999999
 40
0.2187499999999999
 40
0.2499999999999999
 40
0.2499999999999999
 40
0.2812499999999999
 40
0.2812499999999999
 40
0.3124999999999999
 40
0.3124999999999999
 40
0.3437499999999999
 40
0.3437499999999999
 40
0.3749999999999999
 40
0.3749999999999999
 40
0.4062499999999999
 40
0.4062499999999999
 40
0.4374999999999999
 40
0.4374999999999999
 40
0.4687499999999999
 40
0.4687499999999999
 40
0.4999999999999999
 40
0.4999999999999999
 40
0.5624999999999999
 40
0.5624999999999999
 40
0.5937499999999999
 40
0.5937499999999999
 40
0.6249999999999999
 40
0.6249999999999999
 40
0.6562499999999999
 40
0.6562499999999999
 40
0.6874999999999999
 40
0.6874999999999999
 40
0.7187499999999999
 40
0.7187499999999999
 40
0.7499999999999999
 40
0.7499999999999999
 40
0.78125
 40
0.78125
 40
0.8125
 40
0.8125
 40
0.84375
 40
0.84375
 40
0.875
 40
0.875
 40
0.90625
 40
0.90625
 40
0.9375
 40
0.9375
 40
0.96875
 40
0.96875
 40
1.0
 40
1.0
 40
1.0
 40
1.0
 10
120.1902950395425
 20
165.5889281415892
 30
0.0
 10
120.1502800871928
 20
165.577483540869
 30
0.0
 10
120.0873382857815
 20
165.5595926315202
 30
0.0
 10
119.9179516237094
 20
165.5132453840427
 30
0.0
 10
119.8102580611239
 20
165.484462345814
 30
0.0
 10
119.5549732925861
 20
165.4200866808489
 30
0.0
 10
119.4089340621138
 20
165.3848755664457
 30
0.0
 10
119.0807126255546
 20
165.3119359723195
 30
0.0
 10
118.8964653377796
 20
165.2738467753749
 30
0.0
 10
118.5035051704713
 20
165.2015142592796
 30
0.0
 10
118.2942105735121
 20
165.1670650333018
 30
0.0
 10
117.8493251465748
 20
165.1052124903869
 30
0.0
 10
117.6125275540758
 20
165.0778388941673
 30
0.0
 10
117.1317924851565
 20
165.0356069364793
 30
0.0
 10
116.8855493919737
 20
165.0203617454066
 30
0.0
 10
116.3808326119943
 20
165.003690721204
 30
0.0
 10
116.1246379110578
 20
165.0025175955319
 30
0.0
 10
115.6222591618577
 20
165.0143919138705
 30
0.0
 10
115.3730094626741
 20
165.027372265337
 30
0.0
 10
114.8814816651953
 20
165.066240010941
 30
0.0
 10
114.6461860639695
 20
165.0915206685912
 30
0.0
 10
114.1952721693073
 20
165.1505484945083
 30
0.0
 10
113.977659818844
 20
165.1846907311115
 30
0.0
 10
113.5744526492957
 20
165.2561770772774
 30
0.0
 10
113.3888411568612
 20
165.2933835755758
 30
0.0
 10
113.0488530864588
 20
165.366980595825
 30
0.0
 10
112.8937801556359
 20
165.4035955210141
 30
0.0
 10
112.6274370789725
 20
165.4696298794338
 30
0.0
 10
112.5144529782557
 20
165.4994034312754
 30
0.0
 10
112.3295977213248
 20
165.5494414215471
 30
0.0
 10
112.2584569598214
 20
165.5695133896143
 30
0.0
 10
112.1644965485333
 20
165.5962560784155
 30
0.0
 10
112.1404872185769
 20
165.603254934564
 30
0.0
 10
112.1399140979043
 20
165.6034207301444
 30
0.0
 10
112.2353132092229
 20
165.574981245473
 30
0.0
 10
112.5131770014241
 20
165.4997398330782
 30
0.0
 10
112.6263389575046
 20
165.4699130554406
 30
0.0
 10
112.8924701395485
 20
165.4039094921823
 30
0.0
 10
113.0472979137482
 20
165.3673345437768
 30
0.0
 10
113.387479019536
 20
165.2936612837681
 30
0.0
 10
113.5729814764857
 20
165.2564656214353
 30
0.0
 10
113.9752752775451
 20
165.1850860475668
 30
0.0
 10
114.1932833257971
 20
165.1508441789275
 30
0.0
 10
114.6438816929474
 20
165.091787331426
 30
0.0
 10
114.8784306918281
 20
165.0665648146619
 30
0.0
 10
115.3668906853805
 20
165.0277741169437
 30
0.0
 10
115.6191560810943
 20
165.0145255859603
 30
0.0
 10
116.1213367192546
 20
165.0025360605042
 30
0.0
 10
116.3738188366063
 20
165.0035630601484
 30
0.0
 10
116.8816838796758
 20
165.0201322630295
 30
0.0
 10
117.1292293528596
 20
165.0354253919308
 30
0.0
 10
117.6101968903303
 20
165.0775909666386
 30
0.0
 10
117.8461567554356
 20
165.1048098195879
 30
0.0
 10
118.2927272049572
 20
165.166821360705
 30
0.0
 10
118.5023720675307
 20
165.2013213246308
 30
0.0
 10
118.8953587742851
 20
165.2736275415564
 30
0.0
 10
119.0797546781001
 20
165.3117321274045
 30
0.0
 10
119.4083050959605
 20
165.384726800196
 30
0.0
 10
119.5542471924837
 20
165.4199115857393
 30
0.0
 10
119.8091325476858
 20
165.4841705738309
 30
0.0
 10
119.9174438604942
 20
165.5131080526199
 30
0.0
 10
120.0872788379111
 20
165.5595747690948
 30
0.0
 10
120.1502741990482
 20
165.5774818568119
 30
0.0
 10
120.1902950395425
 20
165.5889281415892
 30
0.0
  0
LINE
  5
224
330
1F
100
AcDbEntity
  8
0
  6
HIDDEN
 62
     7
370
     0
100
AcDbLine
 10
121.9402948384
 20
142.6033109166
 30
0.0
 11
121.9402948384
 21
160.6033101418
 31
0.0
  0
LINE
  5
225
330
1F
100
AcDbEntity
  8
0
  6
HIDDEN
 62
     7
370
     0
100
AcDbLine
 10
120.6902950991
 20
141.3772051894
 30
0.0
 11
120.6902950991
 21
161.829415869
 31
0.0
  0
LINE
  5
226
330
1F
100
AcDbEntity
  8
0
  6
HIDDEN
 62
     7
370
     0
100
AcDbLine
 10
158.6902957399
 20
142.6033109166
 30
0.0
 11
158.6902957399
 21
160.6033101418
 31
0.0
  0
LINE
  5
227
330
1F
100
AcDbEntity
  8
0
  6
HIDDEN
 62
     7
370
     0
100
AcDbLine
 10
161.5443821986
 20
147.3533102982
 30
0.0
 11
161.5443821986
 21
155.8533107602
 31
0.0
  0
LINE
  5
228
330
1F
100
AcDbEntity
  8
0
  6
HIDDEN
 62
     7
370
     0
100
AcDbLine
 10
259.6442565311
 20
146.6433104799
 30
0.0
 11
246.2839350094
 21
146.6433104799
 31
0.0
  0
LINE
  5
229
330
1F
100
AcDbEntity
  8
0
  6
HIDDEN
 62
     7
370
     0
100
AcDbLine
 10
129.4902950515
 20
173.2857107856
 30
0.0
 11
129.4902950515
 21
175.0234096982
 31
0.0
  0
LINE
  5
22A
330
1F
100
AcDbEntity
  8
0
  6
HIDDEN
 62
     7
370
     0
100
AcDbLine
 10
95.190295576
 20
172.5394271054
 30
0.0
 11
95.190295576
 21
174.1616736837
 31
0.0
  0
SPLINE
  5
22B
330
1F
100
AcDbEntity
  8
0
  6
HIDDEN
 62
     7
370
     0
100
AcDbSpline
210
0.0
220
0.0
230
1.0
 70
     8
 71
     3
 72
    10
 73
     6
 74
     0
 42
0.00000001
 43
0.00000001
 12
1.0
 22
0.0
 32
0.0
 13
1.0
 23
0.0
 33
0.0
 40
0.0
 40
0.0
 40
0.0
 40
0.0
 40
0.3700750097415306
 40
0.7506758965584123
 40
0.9999999999999999
 40
0.9999999999999999
 40
0.9999999999999999
 40
0.9999999999999999
 10
130.3689747339641
 20
173.7469948568013
 30
0.0
 10
130.2635342881873
 20
173.9808072865902
 30
0.0
 10
130.0496544014521
 20
174.4550823679602
 30
0.0
 10
129.8980153032196
 20
174.797173098076
 30
0.0
 10
129.8972062595433
 20
174.7989370598056
 30
0.0
 10
129.896886040323
 20
174.7996352352765
 30
0.0
  0
LINE
  5
22C
330
1F
100
AcDbEntity
  8
0
  6
HIDDEN
 62
     7
370
     0
100
AcDbLine
 10
93.6902962614
 20
171.7894255855
 30
0.0
 11
93.6902962614
 21
173.2956479975
 31
0.0
  0
LINE
  5
22D
330
1F
100
AcDbEntity
  8
0
  6
HIDDEN
 62
     7
370
     0
100
AcDbLine
 10
230.9741169204
 20
151.3033105149
 30
0.0
 11
246.2839350094
 21
151.3033105149
 31
0.0
  0
LINE
  5
22E
330
1F
100
AcDbEntity
  8
0
  6
HIDDEN
 62
     7
370
     0
100
AcDbLine
 10
231.6723778833
 20
148.9033104592
 30
0.0
 11
246.2839350094
 21
148.9033104592
 31
0.0
  0
LINE
  5
22F
330
1F
100
AcDbEntity
  8
0
  6
HIDDEN
 62
     7
370
     0
100
AcDbLine
 10
230.9199213971
 20
146.6433104799
 30
0.0
 11
245.9551632394
 21
146.6433104799
 31
0.0
  0
LINE
  5
230
330
1F
100
AcDbEntity
  8
0
  6
HIDDEN
 62
     7
370
     0
100
AcDbLine
 10
112.1402956535
 20
131.6055554636
 30
0.0
 11
120.2402949323
 21
131.6055554636
 31
0.0
  0
SPLINE
  5
231
330
1F
100
AcDbEntity
  8
0
  6
HIDDEN
 62
     7
370
     0
100
AcDbSpline
210
0.0
220
0.0
230
1.0
 70
    11
 71
     3
 72
    64
 73
    60
 74
     0
 42
0.00000001
 43
0.00000001
 12
1.0
 22
0.0
 32
0.0
 13
1.0
 23
0.0
 33
0.0
 40
-0.0312500000000016
 40
-0.0312500000000016
 40
0.0
 40
0.0
 40
0.0312499999999998
 40
0.0312499999999998
 40
0.0624999999999996
 40
0.0624999999999996
 40
0.1249999999999982
 40
0.1249999999999982
 40
0.1562499999999976
 40
0.1562499999999976
 40
0.1874999999999969
 40
0.1874999999999969
 40
0.2187499999999962
 40
0.2187499999999962
 40
0.2499999999999956
 40
0.2499999999999956
 40
0.2812499999999949
 40
0.2812499999999949
 40
0.3124999999999943
 40
0.3124999999999943
 40
0.3437499999999936
 40
0.3437499999999936
 40
0.374999999999993
 40
0.374999999999993
 40
0.4062499999999923
 40
0.4062499999999923
 40
0.4374999999999916
 40
0.4374999999999916
 40
0.4687499999999909
 40
0.4687499999999909
 40
0.4999999999999902
 40
0.4999999999999902
 40
0.5312499999999895
 40
0.5312499999999895
 40
0.5624999999999887
 40
0.5624999999999887
 40
0.6249999999999883
 40
0.6249999999999883
 40
0.656249999999989
 40
0.656249999999989
 40
0.6874999999999897
 40
0.6874999999999897
 40
0.7187499999999903
 40
0.7187499999999903
 40
0.7499999999999911
 40
0.7499999999999911
 40
0.7812499999999918
 40
0.7812499999999918
 40
0.8124999999999925
 40
0.8124999999999925
 40
0.8437499999999931
 40
0.8437499999999931
 40
0.8749999999999938
 40
0.8749999999999938
 40
0.9374999999999969
 40
0.9374999999999969
 40
0.9687499999999984
 40
0.9687499999999984
 40
1.0
 40
1.0
 40
1.03125
 40
1.03125
 10
196.1902950395425
 20
155.853310529199
 30
0.0
 10
196.1902950395425
 20
155.853310529199
 30
0.0
 10
196.2073271629437
 20
155.8432286916705
 30
0.0
 10
196.2733893599489
 20
155.8048828077973
 30
0.0
 10
196.3233205095158
 20
155.7761125044482
 30
0.0
 10
196.5141486048826
 20
155.6698747916298
 30
0.0
 10
196.6990310079828
 20
155.5703664140927
 30
0.0
 10
197.036743601377
 20
155.4160139462353
 30
0.0
 10
197.1612930795563
 20
155.3629943769622
 30
0.0
 10
197.4267774726096
 20
155.2630717623177
 30
0.0
 10
197.5671840297383
 20
155.2162478983528
 30
0.0
 10
197.8652678605289
 20
155.1349684881746
 30
0.0
 10
198.0250212811772
 20
155.1003489521506
 30
0.0
 10
198.3497616628243
 20
155.053332491258
 30
0.0
 10
198.5165062929601
 20
155.040471591242
 30
0.0
 10
198.8548931318963
 20
155.0400191537397
 30
0.0
 10
199.0207677546222
 20
155.0523298710399
 30
0.0
 10
199.3464237411199
 20
155.0985969377804
 30
0.0
 10
199.5061503147283
 20
155.1327969585179
 30
0.0
 10
199.806093739737
 20
155.2139422418019
 30
0.0
 10
199.9495189256712
 20
155.2615716164823
 30
0.0
 10
200.2161837403757
 20
155.3617098845982
 30
0.0
 10
200.3390846164144
 20
155.413933015028
 30
0.0
 10
200.565666016638
 20
155.5173050312949
 30
0.0
 10
200.6692956216818
 20
155.5685349267288
 30
0.0
 10
200.8491938856158
 20
155.6613156359275
 30
0.0
 10
200.9266982987592
 20
155.7034500553108
 30
0.0
 10
201.0553051071562
 20
155.7749909119301
 30
0.0
 10
201.1052781741523
 20
155.8037751666265
 30
0.0
 10
201.1720941588563
 20
155.842542358016
 30
0.0
 10
201.1897718212184
 20
155.8530027546245
 30
0.0
 10
201.1907953946371
 20
155.853604854835
 30
0.0
 10
201.1742935450367
 20
155.843834017558
 30
0.0
 10
201.1088768018596
 20
155.8058488836985
 30
0.0
 10
201.0592299376093
 20
155.7772277219987
 30
0.0
 10
200.8691767068367
 20
155.6713510949201
 30
0.0
 10
200.6845604691486
 20
155.5718588411587
 30
0.0
 10
200.3462437673142
 20
155.4170503556905
 30
0.0
 10
200.2212778120546
 20
155.3638109516818
 30
0.0
 10
199.956430590806
 20
155.2639872988603
 30
0.0
 10
199.8158819237751
 20
155.216986105993
 30
0.0
 10
199.5160787356807
 20
155.13511234317
 30
0.0
 10
199.3564679702954
 20
155.100522387498
 30
0.0
 10
199.0318145440722
 20
155.0534322633025
 30
0.0
 10
198.8626183905537
 20
155.0404410128474
 30
0.0
 10
198.5259915096277
 20
155.0400482663946
 30
0.0
 10
198.3600276561451
 20
155.0522683006063
 30
0.0
 10
198.0325555617435
 20
155.0988583239044
 30
0.0
 10
197.8735503879203
 20
155.1329934091632
 30
0.0
 10
197.5731122308465
 20
155.2143611845077
 30
0.0
 10
197.4290444829301
 20
155.2622778993509
 30
0.0
 10
197.1628546078267
 20
155.3623481083836
 30
0.0
 10
197.0397058355019
 20
155.4147004800107
 30
0.0
 10
196.6982714965704
 20
155.5706335992764
 30
0.0
 10
196.5162862986363
 20
155.668693892089
 30
0.0
 10
196.3228920264511
 20
155.7763464740268
 30
0.0
 10
196.2741166779111
 20
155.8044637841102
 30
0.0
 10
196.2077978321627
 20
155.8429523985889
 30
0.0
 10
196.1902950395425
 20
155.853310529199
 30
0.0
 10
196.1902950395425
 20
155.853310529199
 30
0.0
  0
SPLINE
  5
232
330
1F
100
AcDbEntity
  8
0
  6
HIDDEN
 62
     7
370
     0
100
AcDbSpline
210
0.0
220
0.0
230
1.0
 70
    11
 71
     3
 72
    64
 73
    60
 74
     0
 42
0.00000001
 43
0.00000001
 12
1.0
 22
0.0
 32
0.0
 13
1.0
 23
0.0
 33
0.0
 40
-0.0312500000000016
 40
-0.0312500000000016
 40
0.0
 40
0.0
 40
0.0312499999999998
 40
0.0312499999999998
 40
0.0624999999999996
 40
0.0624999999999996
 40
0.1249999999999982
 40
0.1249999999999982
 40
0.1562499999999976
 40
0.1562499999999976
 40
0.1874999999999969
 40
0.1874999999999969
 40
0.2187499999999962
 40
0.2187499999999962
 40
0.2499999999999956
 40
0.2499999999999956
 40
0.2812499999999949
 40
0.2812499999999949
 40
0.3124999999999943
 40
0.3124999999999943
 40
0.3437499999999936
 40
0.3437499999999936
 40
0.374999999999993
 40
0.374999999999993
 40
0.4062499999999923
 40
0.4062499999999923
 40
0.4374999999999916
 40
0.4374999999999916
 40
0.4687499999999909
 40
0.4687499999999909
 40
0.4999999999999902
 40
0.4999999999999902
 40
0.5312499999999895
 40
0.5312499999999895
 40
0.5624999999999887
 40
0.5624999999999887
 40
0.6249999999999883
 40
0.6249999999999883
 40
0.656249999999989
 40
0.656249999999989
 40
0.6874999999999897
 40
0.6874999999999897
 40
0.7187499999999903
 40
0.7187499999999903
 40
0.7499999999999911
 40
0.7499999999999911
 40
0.7812499999999918
 40
0.7812499999999918
 40
0.8124999999999925
 40
0.8124999999999925
 40
0.8437499999999931
 40
0.8437499999999931
 40
0.8749999999999938
 40
0.8749999999999938
 40
0.9374999999999969
 40
0.9374999999999969
 40
0.9687499999999984
 40
0.9687499999999984
 40
1.0
 40
1.0
 40
1.03125
 40
1.03125
 10
196.1902950395425
 20
155.853310529199
 30
0.0
 10
196.1902950395425
 20
155.853310529199
 30
0.0
 10
196.2073271629437
 20
155.8432286916705
 30
0.0
 10
196.2733893599489
 20
155.8048828077973
 30
0.0
 10
196.3233205095158
 20
155.7761125044482
 30
0.0
 10
196.5141486048826
 20
155.6698747916298
 30
0.0
 10
196.6990310079828
 20
155.5703664140927
 30
0.0
 10
197.036743601377
 20
155.4160139462353
 30
0.0
 10
197.1612930795563
 20
155.3629943769622
 30
0.0
 10
197.4267774726096
 20
155.2630717623177
 30
0.0
 10
197.5671840297383
 20
155.2162478983528
 30
0.0
 10
197.8652678605289
 20
155.1349684881746
 30
0.0
 10
198.0250212811772
 20
155.1003489521506
 30
0.0
 10
198.3497616628243
 20
155.053332491258
 30
0.0
 10
198.5165062929601
 20
155.040471591242
 30
0.0
 10
198.8548931318963
 20
155.0400191537397
 30
0.0
 10
199.0207677546222
 20
155.0523298710399
 30
0.0
 10
199.3464237411199
 20
155.0985969377804
 30
0.0
 10
199.5061503147283
 20
155.1327969585179
 30
0.0
 10
199.806093739737
 20
155.2139422418019
 30
0.0
 10
199.9495189256712
 20
155.2615716164823
 30
0.0
 10
200.2161837403757
 20
155.3617098845982
 30
0.0
 10
200.3390846164144
 20
155.413933015028
 30
0.0
 10
200.565666016638
 20
155.5173050312949
 30
0.0
 10
200.6692956216818
 20
155.5685349267288
 30
0.0
 10
200.8491938856158
 20
155.6613156359275
 30
0.0
 10
200.9266982987592
 20
155.7034500553108
 30
0.0
 10
201.0553051071562
 20
155.7749909119301
 30
0.0
 10
201.1052781741523
 20
155.8037751666265
 30
0.0
 10
201.1720941588563
 20
155.842542358016
 30
0.0
 10
201.1897718212184
 20
155.8530027546245
 30
0.0
 10
201.1907953946371
 20
155.853604854835
 30
0.0
 10
201.1742935450367
 20
155.843834017558
 30
0.0
 10
201.1088768018596
 20
155.8058488836985
 30
0.0
 10
201.0592299376093
 20
155.7772277219987
 30
0.0
 10
200.8691767068367
 20
155.6713510949201
 30
0.0
 10
200.6845604691486
 20
155.5718588411587
 30
0.0
 10
200.3462437673142
 20
155.4170503556905
 30
0.0
 10
200.2212778120546
 20
155.3638109516818
 30
0.0
 10
199.956430590806
 20
155.2639872988603
 30
0.0
 10
199.8158819237751
 20
155.216986105993
 30
0.0
 10
199.5160787356807
 20
155.13511234317
 30
0.0
 10
199.3564679702954
 20
155.100522387498
 30
0.0
 10
199.0318145440722
 20
155.0534322633025
 30
0.0
 10
198.8626183905537
 20
155.0404410128474
 30
0.0
 10
198.5259915096277
 20
155.0400482663946
 30
0.0
 10
198.3600276561451
 20
155.0522683006063
 30
0.0
 10
198.0325555617435
 20
155.0988583239044
 30
0.0
 10
197.8735503879203
 20
155.1329934091632
 30
0.0
 10
197.5731122308465
 20
155.2143611845077
 30
0.0
 10
197.4290444829301
 20
155.2622778993509
 30
0.0
 10
197.1628546078267
 20
155.3623481083836
 30
0.0
 10
197.0397058355019
 20
155.4147004800107
 30
0.0
 10
196.6982714965704
 20
155.5706335992764
 30
0.0
 10
196.5162862986363
 20
155.668693892089
 30
0.0
 10
196.3228920264511
 20
155.7763464740268
 30
0.0
 10
196.2741166779111
 20
155.8044637841102
 30
0.0
 10
196.2077978321627
 20
155.8429523985889
 30
0.0
 10
196.1902950395425
 20
155.853310529199
 30
0.0
 10
196.1902950395425
 20
155.853310529199
 30
0.0
  0
LINE
  5
233
330
1F
100
AcDbEntity
  8
0
  6
HIDDEN
 62
     7
370
     0
100
AcDbLine
 10
202.6902973641
 20
147.3533102982
 30
0.0
 11
202.6902973641
 21
155.8533107602
 31
0.0
  0
LINE
  5
234
330
1F
100
AcDbEntity
  8
0
  6
HIDDEN
 62
     7
370
     0
100
AcDbLine
 10
100.1402936865
 20
131.9970480837
 30
0.0
 11
100.1402936865
 21
133.6033113041
 31
0.0
  0
SPLINE
  5
235
330
1F
100
AcDbEntity
  8
0
  6
HIDDEN
 62
     7
370
     0
100
AcDbSpline
210
0.0
220
0.0
230
1.0
 70
     8
 71
     3
 72
     8
 73
     4
 74
     0
 42
0.00000001
 43
0.00000001
 12
1.0
 22
0.0
 32
0.0
 13
1.0
 23
0.0
 33
0.0
 40
0.0
 40
0.0
 40
0.0
 40
0.0
 40
1.0
 40
1.0
 40
1.0
 40
1.0
 10
95.19029503954249
 20
132.1063209159967
 30
0.0
 10
94.66280319769896
 20
132.3733709480788
 30
0.0
 10
94.15705565091967
 20
132.6253017231697
 30
0.0
 10
93.69029503954249
 20
132.8548312155535
 30
0.0
  0
LINE
  5
236
330
1F
100
AcDbEntity
  8
0
  6
HIDDEN
 62
     7
370
     0
100
AcDbLine
 10
93.6902962614
 20
132.8548315652
 30
0.0
 11
93.6902962614
 21
133.6033113041
 31
0.0
  0
LINE
  5
237
330
1F
100
AcDbEntity
  8
0
  6
HIDDEN
 62
     7
370
     0
100
AcDbLine
 10
112.1402956535
 20
169.1033106037
 30
0.0
 11
120.2402949323
 21
169.1033106037
 31
0.0
  0
LINE
  5
238
330
1F
100
AcDbEntity
  8
0
  6
HIDDEN
 62
     7
370
     0
100
AcDbLine
 10
201.6902953376
 20
176.1033098884
 30
0.0
 11
195.6902980794
 21
176.1033098884
 31
0.0
  0
LINE
  5
239
330
1F
100
AcDbEntity
  8
0
  6
HIDDEN
 62
     7
370
     0
100
AcDbLine
 10
201.1902943243
 20
175.802880127
 30
0.0
 11
196.1902916421
 21
175.802880127
 31
0.0
  0
LWPOLYLINE
  5
23A
330
1F
100
AcDbEntity
  8
0
  6
HIDDEN
 62
     7
370
     0
100
AcDbPolyline
 90
       17
 70
   128
 43
0.0
 10
198.9801317443
 20
168.7065094449
 10
199.4243651618
 20
169.0473828205
 10
199.8443990935
 20
169.3696874865
 10
200.2263829101
 20
169.6627933272
 10
200.5577251304
 20
169.9170388021
 10
200.8274957527
 20
170.1240420081
 10
201.0268062342
 20
170.2769782134
 10
201.149085163
 20
170.3708033749
 10
201.1902943243
 20
170.4024273642
 10
201.149085163
 20
170.3708033749
 10
201.0268062342
 20
170.2769782134
 10
200.8274957527
 20
170.1240420081
 10
200.5577251304
 20
169.9170388021
 10
200.2263829101
 20
169.6627933272
 10
199.8443990935
 20
169.3696874865
 10
199.4243651618
 20
169.0473828205
 10
198.9801317443
 20
168.7065094449
  0
SPLINE
  5
23B
330
1F
100
AcDbEntity
  8
0
  6
HIDDEN
 62
     7
370
     0
100
AcDbSpline
210
0.0
220
0.0
230
1.0
 70
     8
 71
     3
 72
     8
 73
     4
 74
     0
 42
0.00000001
 43
0.00000001
 12
1.0
 22
0.0
 32
0.0
 13
1.0
 23
0.0
 33
0.0
 40
0.0
 40
0.0
 40
0.0
 40
0.0
 40
1.0
 40
1.0
 40
1.0
 40
1.0
 10
198.9801315360017
 20
168.7065090181918
 30
0.0
 10
198.9332968191573
 20
168.5603694336693
 30
0.0
 10
198.893103567204
 20
168.4109797784579
 30
0.0
 10
198.8609480750577
 20
168.2617102865265
 30
0.0
  0
LWPOLYLINE
  5
23C
330
1F
100
AcDbEntity
  8
0
  6
HIDDEN
 62
     7
370
     0
100
AcDbPolyline
 90
       19
 70
   128
 43
0.0
 10
198.8609448065
 20
168.2617097833
 10
199.2968708266
 20
167.6936030128
 10
199.7138947238
 20
167.1501297244
 10
200.0990152348
 20
166.6482297443
 10
200.440236925
 20
166.2035418414
 10
200.7269203652
 20
165.8299250268
 10
200.9501397599
 20
165.5390226953
 10
201.1029288162
 20
165.3398994096
 10
201.1805340637
 20
165.2387624346
 10
201.1902943243
 20
165.2260461562
 10
201.1805340637
 20
165.2387624346
 10
201.1029288162
 20
165.3398994096
 10
200.9501397599
 20
165.5390226953
 10
200.7269203652
 20
165.8299250268
 10
200.440236925
 20
166.2035418414
 10
200.0990152348
 20
166.6482297443
 10
199.7138947238
 20
167.1501297244
 10
199.2968708266
 20
167.6936030128
 10
198.8609448065
 20
168.2617097833
  0
SPLINE
  5
23D
330
1F
100
AcDbEntity
  8
0
  6
HIDDEN
 62
     7
370
     0
100
AcDbSpline
210
0.0
220
0.0
230
1.0
 70
     8
 71
     3
 72
     8
 73
     4
 74
     0
 42
0.00000001
 43
0.00000001
 12
1.0
 22
0.0
 32
0.0
 13
1.0
 23
0.0
 33
0.0
 40
0.0
 40
0.0
 40
0.0
 40
0.0
 40
1.0
 40
1.0
 40
1.0
 40
1.0
 10
198.8609480750577
 20
168.2617102865266
 30
0.0
 10
198.8930929803808
 20
168.4109306332074
 30
0.0
 10
198.933370528585
 20
168.5605994311127
 30
0.0
 10
198.9801315360018
 20
168.706509018192
 30
0.0
  0
LWPOLYLINE
  5
23E
330
1F
100
AcDbEntity
  8
0
  6
HIDDEN
 62
     7
370
     0
100
AcDbPolyline
 90
        9
 70
   128
 43
0.0
 10
198.8609448065
 20
168.2617097833
 10
198.8758459677
 20
168.3173134663
 10
198.89076203
 20
168.3729767539
 10
198.9056855429
 20
168.4286661186
 10
198.9206090559
 20
168.4843554833
 10
198.9355176677
 20
168.540013183
 10
198.9504188289
 20
168.595611278
 10
198.9652901877
 20
168.6511199661
 10
198.9801317443
 20
168.7065094449
  0
LWPOLYLINE
  5
23F
330
1F
100
AcDbEntity
  8
0
  6
HIDDEN
 62
     7
370
     0
100
AcDbPolyline
 90
        9
 70
   128
 43
0.0
 10
198.9801317443
 20
168.7065094449
 10
198.9652901877
 20
168.6511199661
 10
198.9504188289
 20
168.595611278
 10
198.9355176677
 20
168.540013183
 10
198.9206090559
 20
168.4843554833
 10
198.9056855429
 20
168.4286661186
 10
198.89076203
 20
168.3729767539
 10
198.8758459677
 20
168.3173134663
 10
198.8609448065
 20
168.2617097833
  0
LWPOLYLINE
  5
240
330
1F
100
AcDbEntity
  8
0
  6
HIDDEN
 62
     7
370
     0
100
AcDbPolyline
 90
       37
 70
   128
 43
0.0
 10
210.638025402
 20
162.6945344471
 10
210.6266781677
 20
162.7368965857
 10
210.5929642905
 20
162.8626949825
 10
210.5379268516
 20
163.0681074896
 10
210.4632273306
 20
163.3468933143
 10
210.3711381544
 20
163.6905811467
 10
210.2644532908
 20
164.0887280666
 10
210.146421193
 20
164.5292371251
 10
210.0206181396
 20
164.9987233542
 10
209.8908811797
 20
165.4829216861
 10
209.7611367692
 20
165.9671209492
 10
209.6353411664
 20
166.4366071784
 10
209.5173090686
 20
166.8771162369
 10
209.410624205
 20
167.2752622255
 10
209.3185350288
 20
167.6189500578
 10
209.2438355078
 20
167.8977358826
 10
209.1887906183
 20
168.1031502523
 10
209.1550841917
 20
168.2289477178
 10
209.1437369574
 20
168.2713098564
 10
209.1550841917
 20
168.2289477178
 10
209.1887906183
 20
168.1031502523
 10
209.2438355078
 20
167.8977358826
 10
209.3185350288
 20
167.6189500578
 10
209.410624205
 20
167.2752622255
 10
209.5173090686
 20
166.8771162369
 10
209.6353411664
 20
166.4366071784
 10
209.7611367692
 20
165.9671209492
 10
209.8908811797
 20
165.4829216861
 10
210.0206181396
 20
164.9987233542
 10
210.146421193
 20
164.5292371251
 10
210.2644532908
 20
164.0887280666
 10
210.3711381544
 20
163.6905811467
 10
210.4632273306
 20
163.3468933143
 10
210.5379268516
 20
163.0681074896
 10
210.5929642905
 20
162.8626949825
 10
210.6266781677
 20
162.7368965857
 10
210.638025402
 20
162.6945344471
  0
LINE
  5
241
330
1F
100
AcDbEntity
  8
0
  6
HIDDEN
 62
     7
370
     0
100
AcDbLine
 10
245.0327590097
 20
146.193310313
 30
0.0
 11
248.3327627171
 21
146.193310313
 31
0.0
  0
LINE
  5
242
330
1F
100
AcDbEntity
  8
0
  6
HIDDEN
 62
     7
370
     0
100
AcDbLine
 10
244.5827588428
 20
146.6433104799
 30
0.0
 11
248.782762884
 21
146.6433104799
 31
0.0
  0
LINE
  5
243
330
1F
100
AcDbEntity
  8
0
  6
HIDDEN
 62
     7
370
     0
100
AcDbLine
 10
141.690294816
 20
120.6033110358
 30
0.0
 11
145.6902954717
 21
120.6033110358
 31
0.0
  0
LINE
  5
244
330
1F
100
AcDbEntity
  8
0
  6
HIDDEN
 62
     7
370
     0
100
AcDbLine
 10
245.0327590097
 20
135.1433109232
 30
0.0
 11
248.3327627171
 21
135.1433109232
 31
0.0
  0
LINE
  5
245
330
1F
100
AcDbEntity
  8
0
  6
HIDDEN
 62
     7
370
     0
100
AcDbLine
 10
231.65783435
 20
149.0033105221
 30
0.0
 11
230.9886604537
 21
151.3033105149
 31
0.0
  0
LINE
  5
246
330
1F
100
AcDbEntity
  8
0
  6
HIDDEN
 62
     7
370
     0
100
AcDbLine
 10
231.6723778833
 20
148.9033104592
 30
0.0
 11
231.65783435
 21
149.0033105221
 31
0.0
  0
LINE
  5
247
330
1F
100
AcDbEntity
  8
0
  6
HIDDEN
 62
     7
370
     0
100
AcDbLine
 10
231.6723778833
 20
148.9033104592
 30
0.0
 11
230.9741169204
 21
151.3033105149
 31
0.0
  0
LINE
  5
248
330
1F
100
AcDbEntity
  8
0
  6
HIDDEN
 62
     7
370
     0
100
AcDbLine
 10
230.9886604537
 20
151.3033105149
 30
0.0
 11
230.9741169204
 21
151.3033105149
 31
0.0
  0
LINE
  5
249
330
1F
100
AcDbEntity
  8
0
  6
HIDDEN
 62
     7
370
     0
100
AcDbLine
 10
230.9199213971
 20
149.0033105221
 30
0.0
 11
231.65783435
 21
149.0033105221
 31
0.0
  0
LINE
  5
24A
330
1F
100
AcDbEntity
  8
0
  6
HIDDEN
 62
     7
370
     0
100
AcDbLine
 10
230.8594152321
 20
151.3033105149
 30
0.0
 11
230.9886604537
 21
151.3033105149
 31
0.0
  0
LINE
  5
24B
330
1F
100
AcDbEntity
  8
0
  6
HIDDEN
 62
     7
370
     0
100
AcDbLine
 10
231.9723904122
 20
149.0033105221
 30
0.0
 11
229.6961560835
 21
149.0033105221
 31
0.0
  0
LINE
  5
24C
330
1F
100
AcDbEntity
  8
0
  6
HIDDEN
 62
     7
370
     0
100
AcDbLine
 10
232.0329040278
 20
151.3033105149
 30
0.0
 11
229.4950053085
 21
151.3033105149
 31
0.0
  0
LINE
  5
24D
330
1F
100
AcDbEntity
  8
0
  6
HIDDEN
 62
     7
370
     0
100
AcDbLine
 10
259.6442565311
 20
146.6433104799
 30
0.0
 11
251.9227579225
 21
120.1038650908
 31
0.0
  0
LINE
  5
24E
330
1F
100
AcDbEntity
  8
0
  6
HIDDEN
 62
     7
370
     0
100
AcDbLine
 10
259.6442565311
 20
146.6433104799
 30
0.0
 11
245.9551632394
 21
146.6433104799
 31
0.0
  0
LINE
  5
24F
330
1F
100
AcDbEntity
  8
0
  6
HIDDEN
 62
     7
370
     0
100
AcDbLine
 10
246.2839350094
 20
151.3033105149
 30
0.0
 11
234.4033360471
 21
151.3033105149
 31
0.0
  0
LINE
  5
250
330
1F
100
AcDbEntity
  8
0
  6
HIDDEN
 62
     7
370
     0
100
AcDbLine
 10
231.9723904122
 20
146.6433104799
 30
0.0
 11
229.6961560835
 21
146.6433104799
 31
0.0
  0
LINE
  5
251
330
1F
100
AcDbEntity
  8
0
  6
HIDDEN
 62
     7
370
     0
100
AcDbLine
 10
246.2839350094
 20
148.9033104592
 30
0.0
 11
237.4920263876
 21
148.9033104592
 31
0.0
  0
LINE
  5
252
330
1F
100
AcDbEntity
  8
0
  6
HIDDEN
 62
     7
370
     0
100
AcDbLine
 10
237.4774754037
 20
149.0033105221
 30
0.0
 11
237.4920263876
 21
148.9033104592
 31
0.0
  0
LINE
  5
253
330
1F
100
AcDbEntity
  8
0
  6
HIDDEN
 62
     7
370
     0
100
AcDbLine
 10
237.4774754037
 20
151.3033105149
 30
0.0
 11
237.4774754037
 21
149.0033105221
 31
0.0
  0
LINE
  5
254
330
1F
100
AcDbEntity
  8
0
  6
HIDDEN
 62
     7
370
     0
100
AcDbLine
 10
246.2839350094
 20
151.3033105149
 30
0.0
 11
246.2839350094
 21
148.9033104592
 31
0.0
  0
LINE
  5
255
330
1F
100
AcDbEntity
  8
0
  6
HIDDEN
 62
     7
370
     0
100
AcDbLine
 10
246.2839350094
 20
151.3033105149
 30
0.0
 11
237.4774754037
 21
151.3033105149
 31
0.0
  0
LINE
  5
256
330
1F
100
AcDbEntity
  8
0
  6
HIDDEN
 62
     7
370
     0
100
AcDbLine
 10
237.4920263876
 20
146.6433104799
 30
0.0
 11
237.4920263876
 21
148.9033104592
 31
0.0
  0
LINE
  5
257
330
1F
100
AcDbEntity
  8
0
  6
HIDDEN
 62
     7
370
     0
100
AcDbLine
 10
237.4774754037
 20
149.0033105221
 30
0.0
 11
231.9723904122
 21
149.0033105221
 31
0.0
  0
LINE
  5
258
330
1F
100
AcDbEntity
  8
0
  6
HIDDEN
 62
     7
370
     0
100
AcDbLine
 10
237.4920263876
 20
146.6433104799
 30
0.0
 11
231.9723904122
 21
146.6433104799
 31
0.0
  0
LINE
  5
259
330
1F
100
AcDbEntity
  8
0
  6
HIDDEN
 62
     7
370
     0
100
AcDbLine
 10
245.9551632394
 20
146.6433104799
 30
0.0
 11
246.2839350094
 21
148.9033104592
 31
0.0
  0
LINE
  5
25A
330
1F
100
AcDbEntity
  8
0
  6
HIDDEN
 62
     7
370
     0
100
AcDbLine
 10
245.9551632394
 20
146.6433104799
 30
0.0
 11
237.4920263876
 21
146.6433104799
 31
0.0
  0
LINE
  5
25B
330
1F
100
AcDbEntity
  8
0
  6
HIDDEN
 62
     7
370
     0
100
AcDbLine
 10
237.4774754037
 20
151.3033105149
 30
0.0
 11
232.0329040278
 21
151.3033105149
 31
0.0
  0
LINE
  5
25C
330
1F
100
AcDbEntity
  8
0
  6
HIDDEN
 62
     7
370
     0
100
AcDbLine
 10
93.6902962614
 20
136.6420659908
 30
0.0
 11
93.6902962614
 21
132.8548315652
 31
0.0
  0
LINE
  5
25D
330
1F
100
AcDbEntity
  8
0
  6
HIDDEN
 62
     7
370
     0
100
AcDbLine
 10
93.6902962614
 20
171.7894255855
 30
0.0
 11
93.6902962614
 21
146.3784395457
 31
0.0
  0
LINE
  5
25E
330
1F
100
AcDbEntity
  8
0
  6
HIDDEN
 62
     7
370
     0
100
AcDbLine
 10
234.4033360471
 20
151.3033105149
 30
0.0
 11
229.219944774
 21
151.3033105149
 31
0.0
  0
LINE
  5
25F
330
1F
100
AcDbEntity
  8
0
  6
HIDDEN
 62
     7
370
     0
100
AcDbLine
 10
95.190295576
 20
172.5394271054
 30
0.0
 11
95.190295576
 21
146.3784395457
 31
0.0
  0
LINE
  5
260
330
1F
100
AcDbEntity
  8
0
  6
HIDDEN
 62
     7
370
     0
100
AcDbLine
 10
131.4902950446
 20
173.021448005
 30
0.0
 11
131.4902950446
 21
146.9753749408
 31
0.0
  0
LINE
  5
261
330
1F
100
AcDbEntity
  8
0
  6
HIDDEN
 62
     7
370
     0
100
AcDbLine
 10
129.4902950515
 20
173.2857107856
 30
0.0
 11
129.4902950515
 21
146.3784395457
 31
0.0
  0
LINE
  5
262
330
1F
100
AcDbEntity
  8
0
  6
HIDDEN
 62
     7
370
     0
100
AcDbLine
 10
229.219944774
 20
151.3033105149
 30
0.0
 11
218.2942569245
 21
151.3033105149
 31
0.0
  0
ARC
  5
263
330
1F
100
AcDbEntity
  8
0
  6
HIDDEN
 62
     7
370
     0
100
AcDbCircle
 10
218.2942569674
 20
157.3033105292
 30
0.0
 40
6.000000000000017
100
AcDbArc
 50
195.0
 51
270.0
  0
LINE
  5
264
330
1F
100
AcDbEntity
  8
0
  6
HIDDEN
 62
     7
370
     0
100
AcDbLine
 10
212.4987035979
 20
155.750396356
 30
0.0
 11
208.4221780289
 21
170.9641992786
 31
0.0
  0
LINE
  5
265
330
1F
100
AcDbEntity
  8
0
  6
HIDDEN
 62
     7
370
     0
100
AcDbLine
 10
93.6902962614
 20
146.3784395457
 30
0.0
 11
93.6902962614
 21
136.6420659908
 31
0.0
  0
LINE
  5
266
330
1F
100
AcDbEntity
  8
0
  6
HIDDEN
 62
     7
370
     0
100
AcDbLine
 10
95.190295576
 20
146.3784395457
 30
0.0
 11
95.190295576
 21
135.8920663335
 31
0.0
  0
LINE
  5
267
330
1F
100
AcDbEntity
  8
0
  6
HIDDEN
 62
     7
370
     0
100
AcDbLine
 10
129.4902950515
 20
146.3784395457
 30
0.0
 11
129.4902950515
 21
135.1457807907
 31
0.0
  0
SPLINE
  5
268
330
1F
100
AcDbEntity
  8
0
  6
HIDDEN
 62
     7
370
     0
100
AcDbSpline
210
0.0
220
0.0
230
1.0
 70
     8
 71
     3
 72
    16
 73
    12
 74
     0
 42
0.00000001
 43
0.00000001
 12
1.0
 22
0.0
 32
0.0
 13
1.0
 23
0.0
 33
0.0
 40
0.0
 40
0.0
 40
0.0
 40
0.0
 40
0.2500000000000008
 40
0.2500000000000008
 40
0.3750000000000009
 40
0.3750000000000009
 40
0.5000000000000011
 40
0.5000000000000011
 40
0.7500000000000006
 40
0.7500000000000006
 40
1.0
 40
1.0
 40
1.0
 40
1.0
 10
130.3689746959828
 20
145.0228267190976
 30
0.0
 10
130.2077422184984
 20
144.1413260548175
 30
0.0
 10
130.0872623788587
 20
143.2790992941663
 30
0.0
 10
129.9648818615454
 20
142.014961844157
 30
0.0
 10
129.933904201148
 20
141.5984835464163
 30
0.0
 10
129.89229046352
 20
140.7758323721294
 30
0.0
 10
129.8820545505872
 20
140.3774727473621
 30
0.0
 10
129.8818661535311
 20
139.2208481039632
 30
0.0
 10
129.9220108561687
 20
138.5002131911347
 30
0.0
 10
130.0861646111082
 20
137.1624113492669
 30
0.0
 10
130.2077162615178
 20
136.5658282501945
 30
0.0
 10
130.3689746959828
 20
136.040109284774
 30
0.0
  0
LINE
  5
269
330
1F
100
AcDbEntity
  8
0
  6
HIDDEN
 62
     7
370
     0
100
AcDbLine
 10
131.6902950395
 20
127.3533098139
 30
0.0
 11
131.78318826
 21
127.4462036528
 31
0.0
  0
LINE
  5
26A
330
1F
100
AcDbEntity
  8
0
  6
HIDDEN
 62
     7
370
     0
100
AcDbLine
 10
131.78318826
 20
175.7604174056
 30
0.0
 11
131.6902950395
 21
175.8533112445
 31
0.0
  0
ARC
  5
26B
330
1F
100
AcDbEntity
  8
0
  6
HIDDEN
 62
     7
370
     0
100
AcDbCircle
 10
131.0760814772
 20
128.1533105292
 30
0.0
 40
1.000000000000028
100
AcDbArc
 50
315.0
 51
0.0
  0
ARC
  5
26C
330
1F
100
AcDbEntity
  8
0
  6
HIDDEN
 62
     7
370
     0
100
AcDbCircle
 10
131.0760814772
 20
128.1533105292
 30
0.0
 40
1.000000000000016
100
AcDbArc
 50
0.0
 51
52.1052014664
  0
ARC
  5
26D
330
1F
100
AcDbEntity
  8
0
  6
HIDDEN
 62
     7
370
     0
100
AcDbCircle
 10
131.0760814772
 20
175.0533105292
 30
0.0
 40
1.000000000000035
100
AcDbArc
 50
343.125
 51
45.0
  0
ARC
  5
26E
330
1F
100
AcDbEntity
  8
0
  6
HIDDEN
 62
     7
370
     0
100
AcDbCircle
 10
131.0760814772
 20
175.0533105292
 30
0.0
 40
1.000000000000035
100
AcDbArc
 50
307.8947985336
 51
343.125
  0
LINE
  5
26F
330
1F
100
AcDbEntity
  8
0
  6
HIDDEN
 62
     7
370
     0
100
AcDbLine
 10
132.0760814753
 20
128.1533103176
 30
0.0
 11
132.0760814753
 21
175.0533107408
 31
0.0
  0
LINE
  5
270
330
1F
100
AcDbEntity
  8
0
  6
HIDDEN
 62
     7
370
     0
100
AcDbLine
 10
132.0760814753
 20
128.1533103176
 30
0.0
 11
132.0760814753
 21
175.0533107408
 31
0.0
  0
LINE
  5
271
330
1F
100
AcDbEntity
  8
0
  6
HIDDEN
 62
     7
370
     0
100
AcDbLine
 10
93.6902962614
 20
135.4068807997
 30
0.0
 11
95.2205225815
 21
136.290359471
 31
0.0
  0
LINE
  5
272
330
1F
100
AcDbEntity
  8
0
  6
HIDDEN
 62
     7
370
     0
100
AcDbLine
 10
95.2205225815
 20
166.9162615873
 30
0.0
 11
93.6902962614
 21
167.7997402587
 31
0.0
  0
LINE
  5
273
330
1F
100
AcDbEntity
  8
0
  6
HIDDEN
 62
     7
370
     0
100
AcDbLine
 10
103.6902941753
 20
135.6033097692
 30
0.0
 11
104.692095517
 21
135.6033097692
 31
0.0
  0
LINE
  5
274
330
1F
100
AcDbEntity
  8
0
  6
HIDDEN
 62
     7
370
     0
100
AcDbLine
 10
104.692095517
 20
167.6033112892
 30
0.0
 11
103.6902941753
 21
167.6033112892
 31
0.0
  0
ARC
  5
275
330
1F
100
AcDbEntity
  8
0
  6
HIDDEN
 62
     7
370
     0
100
AcDbCircle
 10
104.6920963544
 20
137.6033105292
 30
0.0
 40
2.000000000000016
100
AcDbArc
 50
270.0
 51
315.0
  0
ARC
  5
276
330
1F
100
AcDbEntity
  8
0
  6
HIDDEN
 62
     7
370
     0
100
AcDbCircle
 10
104.6920963544
 20
165.6033105292
 30
0.0
 40
2.0
100
AcDbArc
 50
45.0
 51
90.0
  0
ARC
  5
277
330
1F
100
AcDbEntity
  8
0
  6
HIDDEN
 62
     7
370
     0
100
AcDbCircle
 10
103.6902950395
 20
137.6033105292
 30
0.0
 40
1.99999999999999
100
AcDbArc
 50
189.9742217944
 51
270.0
  0
ARC
  5
278
330
1F
100
AcDbEntity
  8
0
  6
HIDDEN
 62
     7
370
     0
100
AcDbCircle
 10
103.6902950395
 20
165.6033105292
 30
0.0
 40
1.999999999999985
100
AcDbArc
 50
90.0
 51
170.0257782056
  0
LINE
  5
279
330
1F
100
AcDbEntity
  8
0
  6
HIDDEN
 62
     7
370
     0
100
AcDbLine
 10
106.1063107092
 20
136.1890967675
 30
0.0
 11
107.5205240388
 21
137.6033100971
 31
0.0
  0
LINE
  5
27A
330
1F
100
AcDbEntity
  8
0
  6
HIDDEN
 62
     7
370
     0
100
AcDbLine
 10
107.5205240388
 20
165.6033109613
 30
0.0
 11
106.1063107092
 21
167.0175242909
 31
0.0
  0
LINE
  5
27B
330
1F
100
AcDbEntity
  8
0
  6
HIDDEN
 62
     7
370
     0
100
AcDbLine
 10
95.2205225815
 20
136.290359471
 30
0.0
 11
100.1205235709
 21
137.6033100971
 31
0.0
  0
LINE
  5
27C
330
1F
100
AcDbEntity
  8
0
  6
HIDDEN
 62
     7
370
     0
100
AcDbLine
 10
100.1205235709
 20
165.6033109613
 30
0.0
 11
95.2205225815
 21
166.9162615873
 31
0.0
  0
LINE
  5
27D
330
1F
100
AcDbEntity
  8
0
  6
HIDDEN
 62
     7
370
     0
100
AcDbLine
 10
101.7205227156
 20
165.9497210496
 30
0.0
 11
101.1205237348
 21
165.6033109613
 31
0.0
  0
LINE
  5
27E
330
1F
100
AcDbEntity
  8
0
  6
HIDDEN
 62
     7
370
     0
100
AcDbLine
 10
101.1205237348
 20
137.6033100971
 30
0.0
 11
101.7205227156
 21
137.2569000088
 31
0.0
  0
ARC
  5
27F
330
1F
100
AcDbEntity
  8
0
  6
HIDDEN
 62
     7
370
     0
100
AcDbCircle
 10
120.1902950395
 20
138.1033105292
 30
0.0
 40
0.5
100
AcDbArc
 50
275.5682401931
 51
0.0
  0
ARC
  5
280
330
1F
100
AcDbEntity
  8
0
  6
HIDDEN
 62
     7
370
     0
100
AcDbCircle
 10
120.1902950395
 20
165.1033105292
 30
0.0
 40
0.5
100
AcDbArc
 50
0.0
 51
86.7052363418
  0
LINE
  5
281
330
1F
100
AcDbEntity
  8
0
  6
HIDDEN
 62
     7
370
     0
100
AcDbLine
 10
107.5205240388
 20
137.6033100971
 30
0.0
 11
112.1542878438
 21
137.6033100971
 31
0.0
  0
LINE
  5
282
330
1F
100
AcDbEntity
  8
0
  6
HIDDEN
 62
     7
370
     0
100
AcDbLine
 10
112.1542878438
 20
165.6033109613
 30
0.0
 11
107.5205240388
 21
165.6033109613
 31
0.0
  0
LINE
  5
283
330
1F
100
AcDbEntity
  8
0
  6
HIDDEN
 62
     7
370
     0
100
AcDbLine
 10
100.1205235709
 20
137.6033100971
 30
0.0
 11
101.1205237348
 21
137.6033100971
 31
0.0
  0
LINE
  5
284
330
1F
100
AcDbEntity
  8
0
  6
HIDDEN
 62
     7
370
     0
100
AcDbLine
 10
101.1205237348
 20
165.6033109613
 30
0.0
 11
100.1205235709
 21
165.6033109613
 31
0.0
  0
LINE
  5
285
330
1F
100
AcDbEntity
  8
0
  6
HIDDEN
 62
     7
370
     0
100
AcDbLine
 10
120.6902950991
 20
141.3533102461
 30
0.0
 11
121.9402948384
 21
142.6033109166
 31
0.0
  0
LINE
  5
286
330
1F
100
AcDbEntity
  8
0
  6
HIDDEN
 62
     7
370
     0
100
AcDbLine
 10
121.9402948384
 20
160.6033101418
 30
0.0
 11
120.6902950991
 21
161.8533108123
 31
0.0
  0
LINE
  5
287
330
1F
100
AcDbEntity
  8
0
  6
HIDDEN
 62
     7
370
     0
100
AcDbLine
 10
158.6902957399
 20
160.6033101418
 30
0.0
 11
121.9402948384
 21
160.6033101418
 31
0.0
  0
LINE
  5
288
330
1F
100
AcDbEntity
  8
0
  6
HIDDEN
 62
     7
370
     0
100
AcDbLine
 10
121.9402948384
 20
142.6033109166
 30
0.0
 11
158.6902957399
 21
142.6033109166
 31
0.0
  0
LINE
  5
289
330
1F
100
AcDbEntity
  8
0
  6
HIDDEN
 62
     7
370
     0
100
AcDbLine
 10
158.6902957399
 20
142.6033109166
 30
0.0
 11
161.5443821986
 21
147.3533102982
 31
0.0
  0
LINE
  5
28A
330
1F
100
AcDbEntity
  8
0
  6
HIDDEN
 62
     7
370
     0
100
AcDbLine
 10
161.5443821986
 20
155.8533107602
 30
0.0
 11
158.6902957399
 21
160.6033101418
 31
0.0
  0
LINE
  5
28B
330
1F
100
AcDbEntity
  8
0
  6
HIDDEN
 62
     7
370
     0
100
AcDbLine
 10
120.6234261383
 20
131.2224242576
 30
0.0
 11
120.2402949323
 21
131.6055554636
 31
0.0
  0
LINE
  5
28C
330
1F
100
AcDbEntity
  8
0
  6
HIDDEN
 62
     7
370
     0
100
AcDbLine
 10
112.1402956535
 20
131.6055554636
 30
0.0
 11
111.9895797212
 21
131.4548395314
 31
0.0
  0
LINE
  5
28D
330
1F
100
AcDbEntity
  8
0
  6
HIDDEN
 62
     7
370
     0
100
AcDbLine
 10
196.1902916421
 20
155.8533107602
 30
0.0
 11
161.5443821986
 21
155.8533107602
 31
0.0
  0
LINE
  5
28E
330
1F
100
AcDbEntity
  8
0
  6
HIDDEN
 62
     7
370
     0
100
AcDbLine
 10
202.6902973641
 20
155.8533107602
 30
0.0
 11
201.1845871795
 21
155.8533107602
 31
0.0
  0
LINE
  5
28F
330
1F
100
AcDbEntity
  8
0
  6
HIDDEN
 62
     7
370
     0
100
AcDbLine
 10
161.5443821986
 20
147.3533102982
 30
0.0
 11
202.6902973641
 21
147.3533102982
 31
0.0
  0
LINE
  5
290
330
1F
100
AcDbEntity
  8
0
  6
HIDDEN
 62
     7
370
     0
100
AcDbLine
 10
202.6902973641
 20
147.3533102982
 30
0.0
 11
205.2439540614
 21
151.6033105292
 31
0.0
  0
LINE
  5
291
330
1F
100
AcDbEntity
  8
0
  6
HIDDEN
 62
     7
370
     0
100
AcDbLine
 10
205.2439540614
 20
151.6033105292
 30
0.0
 11
202.6902973641
 21
155.8533107602
 31
0.0
  0
LINE
  5
292
330
1F
100
AcDbEntity
  8
0
  6
HIDDEN
 62
     7
370
     0
100
AcDbLine
 10
102.0493112494
 20
131.6942956038
 30
0.0
 11
100.1402936865
 21
133.6033113041
 31
0.0
  0
LINE
  5
293
330
1F
100
AcDbEntity
  8
0
  6
HIDDEN
 62
     7
370
     0
100
AcDbLine
 10
100.1402936865
 20
133.6033113041
 30
0.0
 11
93.6902962614
 21
133.6033113041
 31
0.0
  0
LINE
  5
294
330
1F
100
AcDbEntity
  8
0
  6
HIDDEN
 62
     7
370
     0
100
AcDbLine
 10
120.2402949323
 20
131.6055554636
 30
0.0
 11
120.2402949323
 21
137.6061282792
 31
0.0
  0
LINE
  5
295
330
1F
100
AcDbEntity
  8
0
  6
HIDDEN
 62
     7
370
     0
100
AcDbLine
 10
112.1402956535
 20
137.6071946435
 30
0.0
 11
112.1402956535
 21
131.6055554636
 31
0.0
  0
LINE
  5
296
330
1F
100
AcDbEntity
  8
0
  6
HIDDEN
 62
     7
370
     0
100
AcDbLine
 10
120.2402949323
 20
165.5958212652
 30
0.0
 11
120.2402949323
 21
169.1033106037
 31
0.0
  0
LINE
  5
297
330
1F
100
AcDbEntity
  8
0
  6
HIDDEN
 62
     7
370
     0
100
AcDbLine
 10
112.1402956535
 20
169.1033106037
 30
0.0
 11
112.1402956535
 21
165.5994264149
 31
0.0
  0
LINE
  5
298
330
1F
100
AcDbEntity
  8
0
  6
HIDDEN
 62
     7
370
     0
100
AcDbLine
 10
120.2402949323
 20
169.1033106037
 30
0.0
 11
116.1902952929
 21
171.5367968865
 31
0.0
  0
LINE
  5
299
330
1F
100
AcDbEntity
  8
0
  6
HIDDEN
 62
     7
370
     0
100
AcDbLine
 10
116.1902952929
 20
171.5367968865
 30
0.0
 11
112.1402956535
 21
169.1033106037
 31
0.0
  0
LINE
  5
29A
330
1F
100
AcDbEntity
  8
0
  6
HIDDEN
 62
     7
370
     0
100
AcDbLine
 10
195.6902980794
 20
183.1033110358
 30
0.0
 11
195.6902980794
 21
176.1033098884
 31
0.0
  0
LINE
  5
29B
330
1F
100
AcDbEntity
  8
0
  6
HIDDEN
 62
     7
370
     0
100
AcDbLine
 10
201.6902953376
 20
176.1033098884
 30
0.0
 11
201.6902953376
 21
183.1033110358
 31
0.0
  0
LINE
  5
29C
330
1F
100
AcDbEntity
  8
0
  6
HIDDEN
 62
     7
370
     0
100
AcDbLine
 10
195.6902980794
 20
176.1033098884
 30
0.0
 11
196.1902916421
 21
175.802880127
 31
0.0
  0
LINE
  5
29D
330
1F
100
AcDbEntity
  8
0
  6
HIDDEN
 62
     7
370
     0
100
AcDbLine
 10
201.1902943243
 20
175.802880127
 30
0.0
 11
201.6902953376
 21
176.1033098884
 31
0.0
  0
LINE
  5
29E
330
1F
100
AcDbEntity
  8
0
  6
HIDDEN
 62
     7
370
     0
100
AcDbLine
 10
196.1902916421
 20
175.802880127
 30
0.0
 11
196.1902916421
 21
155.8533107602
 31
0.0
  0
LINE
  5
29F
330
1F
100
AcDbEntity
  8
0
  6
HIDDEN
 62
     7
370
     0
100
AcDbLine
 10
201.1902943243
 20
170.4024273642
 30
0.0
 11
201.1902943243
 21
175.802880127
 31
0.0
  0
LINE
  5
2A0
330
1F
100
AcDbEntity
  8
0
  6
HIDDEN
 62
     7
370
     0
100
AcDbLine
 10
201.1902943243
 20
155.850034833
 30
0.0
 11
201.1902943243
 21
165.2260461562
 31
0.0
  0
LINE
  5
2A1
330
1F
100
AcDbEntity
  8
0
  6
HIDDEN
 62
     7
370
     0
100
AcDbLine
 10
209.1437369574
 20
168.2713098564
 30
0.0
 11
201.1902943243
 21
170.4024273642
 31
0.0
  0
LINE
  5
2A2
330
1F
100
AcDbEntity
  8
0
  6
HIDDEN
 62
     7
370
     0
100
AcDbLine
 10
201.1902943243
 20
165.2260461562
 30
0.0
 11
210.638025402
 21
162.6945344471
 31
0.0
  0
LINE
  5
2A3
330
1F
100
AcDbEntity
  8
0
  6
HIDDEN
 62
     7
370
     0
100
AcDbLine
 10
244.5827588428
 20
146.6433104799
 30
0.0
 11
245.0327590097
 21
146.193310313
 31
0.0
  0
LINE
  5
2A4
330
1F
100
AcDbEntity
  8
0
  6
HIDDEN
 62
     7
370
     0
100
AcDbLine
 10
248.3327627171
 20
146.193310313
 30
0.0
 11
248.782762884
 21
146.6433104799
 31
0.0
  0
LINE
  5
2A5
330
1F
100
AcDbEntity
  8
0
  6
HIDDEN
 62
     7
370
     0
100
AcDbLine
 10
145.6902954717
 20
120.6033110358
 30
0.0
 11
143.6902951439
 21
121.8050319441
 31
0.0
  0
LINE
  5
2A6
330
1F
100
AcDbEntity
  8
0
  6
HIDDEN
 62
     7
370
     0
100
AcDbLine
 10
143.6902951439
 20
121.8050319441
 30
0.0
 11
141.690294816
 21
120.6033110358
 31
0.0
  0
LINE
  5
2A7
330
1F
100
AcDbEntity
  8
0
  6
HIDDEN
 62
     7
370
     0
100
AcDbLine
 10
141.690294816
 20
120.6033110358
 30
0.0
 11
141.690294816
 21
120.1033100226
 31
0.0
  0
LINE
  5
2A8
330
1F
100
AcDbEntity
  8
0
  6
HIDDEN
 62
     7
370
     0
100
AcDbLine
 10
145.6902954717
 20
120.1033100226
 30
0.0
 11
145.6902954717
 21
120.6033110358
 31
0.0
  0
LINE
  5
2A9
330
1F
100
AcDbEntity
  8
0
  6
HIDDEN
 62
     7
370
     0
100
AcDbLine
 10
245.0327590097
 20
146.193310313
 30
0.0
 11
245.0327590097
 21
135.1433109232
 31
0.0
  0
LINE
  5
2AA
330
1F
100
AcDbEntity
  8
0
  6
HIDDEN
 62
     7
370
     0
100
AcDbLine
 10
248.3327627171
 20
135.1433109232
 30
0.0
 11
248.3327627171
 21
146.193310313
 31
0.0
  0
LINE
  5
2AB
330
1F
100
AcDbEntity
  8
0
  6
HIDDEN
 62
     7
370
     0
100
AcDbLine
 10
245.0327590097
 20
135.1433109232
 30
0.0
 11
246.6827571381
 21
134.1518901028
 31
0.0
  0
LINE
  5
2AC
330
1F
100
AcDbEntity
  8
0
  6
HIDDEN
 62
     7
370
     0
100
AcDbLine
 10
246.6827571381
 20
134.1518901028
 30
0.0
 11
248.3327627171
 21
135.1433109232
 31
0.0
  0
LINE
  5
2AD
330
1F
100
AcDbEntity
  8
0
  6
HIDDEN
 62
     7
370
     0
100
AcDbLine
 10
229.4949308027
 20
151.3033105149
 30
0.0
 11
229.6961560835
 21
149.0033105221
 31
0.0
  0
LINE
  5
2AE
330
1F
100
AcDbEntity
  8
0
  6
HIDDEN
 62
     7
370
     0
100
AcDbLine
 10
229.6961560835
 20
149.0033105221
 30
0.0
 11
229.6961560835
 21
146.6433104799
 31
0.0
  0
LINE
  5
2AF
330
1F
100
AcDbEntity
  8
VERMASSUNG
100
AcDbLine
 10
261.6902950395
 20
151.6033105292
 30
0.0
 11
261.6902950395
 21
155.7131376799
 31
0.0
  0
DIMENSION
  5
2B0
330
1F
100
AcDbEntity
  8
VERMASSUNG
100
AcDbDimension
  2
_D_1
 10
261.6902950395
 20
193.1033105292
 30
0.0
 11
196.6902950395
 21
193.1033105292
 31
0.0
 70
   160
  1
<>
 71
     2
 42
-1.0
  3
SLDDIMSTYLE0
100
AcDbAlignedDimension
 13
131.6902950395
 23
182.6033105292
 33
0.0
 14
261.6902950395
 24
155.7131376799
 34
0.0
100
AcDbRotatedDimension
  0
DIMENSION
  5
2BA
330
1F
100
AcDbEntity
  8
VERMASSUNG
100
AcDbDimension
  2
_D_2
 10
261.6902950395
 20
199.1033105292
 30
0.0
 11
177.6902950395
 21
199.1033105292
 31
0.0
 70
   160
  1
<>
 71
     2
 42
-1.0
  3
SLDDIMSTYLE0
100
AcDbAlignedDimension
 13
93.6902950395
 23
171.7894262982
 33
0.0
 14
261.6902950395
 24
155.7131376799
 34
0.0
100
AcDbRotatedDimension
  0
LINE
  5
2C4
330
1F
100
AcDbEntity
  8
VERMASSUNG
  6
CENTERX2
370
     0
100
AcDbLine
 10
261.6904755669
 20
151.6033105292
 30
0.0
 11
88.2849737434
 21
151.6033105292
 31
0.0
  0
OLE2FRAME
  5
2C5
330
1F
100
AcDbEntity
  8
0
100
AcDbOle2Frame
 70
     2
  3
Paintbrush-Bild
 10
13.8511154363
 20
38.264191557
 30
0.0
 11
51.6290888628
 21
31.9806341108
 31
0.0
 71
     2
 72
     0
 73
     1
 90
    12928
310
80552BED0767C5B32B40DDAF6807D121434000000000000000006FFBDDFB85D0
310
4940DDAF6807D121434000000000000000006FFBDDFB85D04940416F4BD60AFB
310
3F4000000000000000002BED0767C5B32B40416F4BD60AFB3F40000000000000
310
0000000000000100000000010000010000000100000000000100000000320000
310
D0CF11E0A1B11AE1000000000000000000000000000000003E000300FEFF0900
310
0600000000000000000000000100000001000000000000000010000002000000
310
01000000FEFFFFFF0000000000000000FFFFFFFFFFFFFFFFFFFFFFFFFFFFFFFF
310
FFFFFFFFFFFFFFFFFFFFFFFFFFFFFFFFFFFFFFFFFFFFFFFFFFFFFFFFFFFFFFFF
310
FFFFFFFFFFFFFFFFFFFFFFFFFFFFFFFFFFFFFFFFFFFFFFFFFFFFFFFFFFFFFFFF
310
FFFFFFFFFFFFFFFFFFFFFFFFFFFFFFFFFFFFFFFFFFFFFFFFFFFFFFFFFFFFFFFF
310
FFFFFFFFFFFFFFFFFFFFFFFFFFFFFFFFFFFFFFFFFFFFFFFFFFFFFFFFFFFFFFFF
310
FFFFFFFFFFFFFFFFFFFFFFFFFFFFFFFFFFFFFFFFFFFFFFFFFFFFFFFFFFFFFFFF
310
FFFFFFFFFFFFFFFFFFFFFFFFFFFFFFFFFFFFFFFFFFFFFFFFFFFFFFFFFFFFFFFF
310
FFFFFFFFFFFFFFFFFFFFFFFFFFFFFFFFFFFFFFFFFFFFFFFFFFFFFFFFFFFFFFFF
310
FFFFFFFFFFFFFFFFFFFFFFFFFFFFFFFFFFFFFFFFFFFFFFFFFFFFFFFFFFFFFFFF
310
FFFFFFFFFFFFFFFFFFFFFFFFFFFFFFFFFFFFFFFFFFFFFFFFFFFFFFFFFFFFFFFF
310
FFFFFFFFFFFFFFFFFFFFFFFFFFFFFFFFFFFFFFFFFFFFFFFFFFFFFFFFFFFFFFFF
310
FFFFFFFFFFFFFFFFFFFFFFFFFFFFFFFFFFFFFFFFFFFFFFFFFFFFFFFFFFFFFFFF
310
FFFFFFFFFFFFFFFFFFFFFFFFFFFFFFFFFFFFFFFFFFFFFFFFFFFFFFFFFFFFFFFF
310
FFFFFFFFFFFFFFFFFFFFFFFFFFFFFFFFFFFFFFFFFFFFFFFFFFFFFFFFFFFFFFFF
310
FDFFFFFFFEFFFFFFFEFFFFFFFEFFFFFF05000000060000000700000008000000
310
090000000A0000000B0000000C0000000D0000000E0000000F00000010000000
310
11000000120000001300000014000000150000001600000017000000FEFFFFFF
310
FFFFFFFFFFFFFFFFFFFFFFFFFFFFFFFFFFFFFFFFFFFFFFFFFFFFFFFFFFFFFFFF
310
FFFFFFFFFFFFFFFFFFFFFFFFFFFFFFFFFFFFFFFFFFFFFFFFFFFFFFFFFFFFFFFF
310
FFFFFFFFFFFFFFFFFFFFFFFFFFFFFFFFFFFFFFFFFFFFFFFFFFFFFFFFFFFFFFFF
310
FFFFFFFFFFFFFFFFFFFFFFFFFFFFFFFFFFFFFFFFFFFFFFFFFFFFFFFFFFFFFFFF
310
FFFFFFFFFFFFFFFFFFFFFFFFFFFFFFFFFFFFFFFFFFFFFFFFFFFFFFFFFFFFFFFF
310
FFFFFFFFFFFFFFFFFFFFFFFFFFFFFFFFFFFFFFFFFFFFFFFFFFFFFFFFFFFFFFFF
310
FFFFFFFFFFFFFFFFFFFFFFFFFFFFFFFFFFFFFFFFFFFFFFFFFFFFFFFFFFFFFFFF
310
FFFFFFFFFFFFFFFFFFFFFFFFFFFFFFFFFFFFFFFFFFFFFFFFFFFFFFFFFFFFFFFF
310
FFFFFFFFFFFFFFFFFFFFFFFFFFFFFFFFFFFFFFFFFFFFFFFFFFFFFFFFFFFFFFFF
310
FFFFFFFFFFFFFFFFFFFFFFFFFFFFFFFFFFFFFFFFFFFFFFFFFFFFFFFFFFFFFFFF
310
FFFFFFFFFFFFFFFFFFFFFFFFFFFFFFFFFFFFFFFFFFFFFFFFFFFFFFFFFFFFFFFF
310
FFFFFFFFFFFFFFFFFFFFFFFFFFFFFFFFFFFFFFFFFFFFFFFFFFFFFFFFFFFFFFFF
310
FFFFFFFFFFFFFFFFFFFFFFFFFFFFFFFFFFFFFFFFFFFFFFFFFFFFFFFFFFFFFFFF
310
52006F006F007400200045006E00740072007900000000000000000000000000
310
0000000000000000000000000000000000000000000000000000000000000000
310
16000500FFFFFFFFFFFFFFFF020000000A00030000000000C000000000000046
310
0000000000000000000000008093BDD93C3FCD0103000000C000000000000000
310
01004F006C006500000000000000000000000000000000000000000000000000
310
0000000000000000000000000000000000000000000000000000000000000000
310
0A000200FFFFFFFFFFFFFFFFFFFFFFFF00000000000000000000000000000000
310
0000000000000000000000000000000000000000000000001400000000000000
310
010043006F006D0070004F0062006A0000000000000000000000000000000000
310
0000000000000000000000000000000000000000000000000000000000000000
310
120002010100000003000000FFFFFFFF00000000000000000000000000000000
310
0000000000000000000000000000000000000000010000004D00000000000000
310
01004F006C006500310030004E00610074006900760065000000000000000000
310
0000000000000000000000000000000000000000000000000000000000000000
310
1A000200FFFFFFFFFFFFFFFFFFFFFFFF00000000000000000000000000000000
310
0000000000000000000000000000000000000000040000002426000000000000
310
FEFFFFFF02000000FEFFFFFFFFFFFFFFFFFFFFFFFFFFFFFFFFFFFFFFFFFFFFFF
310
FFFFFFFFFFFFFFFFFFFFFFFFFFFFFFFFFFFFFFFFFFFFFFFFFFFFFFFFFFFFFFFF
310
FFFFFFFFFFFFFFFFFFFFFFFFFFFFFFFFFFFFFFFFFFFFFFFFFFFFFFFFFFFFFFFF
310
FFFFFFFFFFFFFFFFFFFFFFFFFFFFFFFFFFFFFFFFFFFFFFFFFFFFFFFFFFFFFFFF
310
FFFFFFFFFFFFFFFFFFFFFFFFFFFFFFFFFFFFFFFFFFFFFFFFFFFFFFFFFFFFFFFF
310
FFFFFFFFFFFFFFFFFFFFFFFFFFFFFFFFFFFFFFFFFFFFFFFFFFFFFFFFFFFFFFFF
310
FFFFFFFFFFFFFFFFFFFFFFFFFFFFFFFFFFFFFFFFFFFFFFFFFFFFFFFFFFFFFFFF
310
FFFFFFFFFFFFFFFFFFFFFFFFFFFFFFFFFFFFFFFFFFFFFFFFFFFFFFFFFFFFFFFF
310
FFFFFFFFFFFFFFFFFFFFFFFFFFFFFFFFFFFFFFFFFFFFFFFFFFFFFFFFFFFFFFFF
310
FFFFFFFFFFFFFFFFFFFFFFFFFFFFFFFFFFFFFFFFFFFFFFFFFFFFFFFFFFFFFFFF
310
FFFFFFFFFFFFFFFFFFFFFFFFFFFFFFFFFFFFFFFFFFFFFFFFFFFFFFFFFFFFFFFF
310
FFFFFFFFFFFFFFFFFFFFFFFFFFFFFFFFFFFFFFFFFFFFFFFFFFFFFFFFFFFFFFFF
310
FFFFFFFFFFFFFFFFFFFFFFFFFFFFFFFFFFFFFFFFFFFFFFFFFFFFFFFFFFFFFFFF
310
FFFFFFFFFFFFFFFFFFFFFFFFFFFFFFFFFFFFFFFFFFFFFFFFFFFFFFFFFFFFFFFF
310
FFFFFFFFFFFFFFFFFFFFFFFFFFFFFFFFFFFFFFFFFFFFFFFFFFFFFFFFFFFFFFFF
310
FFFFFFFFFFFFFFFFFFFFFFFFFFFFFFFFFFFFFFFFFFFFFFFFFFFFFFFFFFFFFFFF
310
0100000200000000000000000000000000000000000000000000000000000000
310
0000000000000000000000000000000000000000000000000000000000000000
310
0100FEFF030A0000FFFFFFFF0A00030000000000C00000000000004607000000
310
5042727573680007000000504272757368000700000050427275736800F439B2
310
7100000000000000000000000000000000000000000000000000000000000000
310
0000000000000000000000000000000000000000000000000000000000000000
310
0000000000000000000000000000000000000000000000000000000000000000
310
0000000000000000000000000000000000000000000000000000000000000000
310
0000000000000000000000000000000000000000000000000000000000000000
310
0000000000000000000000000000000000000000000000000000000000000000
310
0000000000000000000000000000000000000000000000000000000000000000
310
0000000000000000000000000000000000000000000000000000000000000000
310
0000000000000000000000000000000000000000000000000000000000000000
310
0000000000000000000000000000000000000000000000000000000000000000
310
0000000000000000000000000000000000000000000000000000000000000000
310
0000000000000000000000000000000000000000000000000000000000000000
310
20260000424D0E260000000000003E00000028000000B40200006E0000000100
310
01000000000000000000130B0000130B00000200000002000000000000FFFFFF
310
FFFFFFFFFFFFFFFFFFFFFFFFFFFFFFFFFFFFFFFFFFFFFFFFFFFFFFFFFFFFFFFF
310
FFFFFFFFFFFFFFFFFFFFFFFFFFFFFFFFFFFFFFFFFFFFFFFFFFFFFFFFFFFFFFFF
310
FFFFFFFFFFFFFFFFFFFFFFFFFFFFFFFFFFFFFFFFFFFFFFFFF000FFFFFFFFFFFF
310
FFFFFFFFFFFFFFFFFFFFFFFFFFFFFFFFFFFFFFFFFFFFFFFFFFFFFFFFFFFFFFFF
310
FFFFFFFFFFFFFFFFFFFFFFFFFFFFFFFFFFFFFFFFFFFFFFFFFFFFFFFFFFFFFFFF
310
FFFFFFFFFFFFFFFFFFFFFFFFFFFFFFFFF000FFFFFFFFFFFFFFFFFFFFFFFFFFFF
310
FFFFFFFFFFFFFFFFFFFFFFFFFFFFFFFFFFFFFFFFFFFFFFFFFFFFFFFFFFFFFFFF
310
FFFFFFFFFFFFFFFFFFFFFFFFFFFFFFFFFFFFFFFFFFFFFFFFFFFFFFFFFFFFFFFF
310
FFFFFFFFFFFFFFFFF000FFFFFFFFFFFFFFFFFFFFFFFFFFFFFFFFFFFFFFFFFFFF
310
FFFFFFFFFFFFFFFFFFFFFFFFFFFFFFFFFFFFFFFFFFFFFFFFFFFFFFFFFFFFFFFF
310
FFFFFFFFFFFFFFFFFFFFFFFFFFFFFFFFFFFFFFFFFFFFFFFFFFFFFFFFFFFFFFFF
310
F000FFFFFFFFFFFFFFFFFFFFFFFFFFFFFFFFFFFFFFFFFFFFFFFFFFFFFFFFFFFF
310
FFFFFFFFFFFFFFFFFFFFFFFFFFFFFFFFFFFFFFFFFFFFFFFFFFFFFFFFFFFFFFFF
310
FFFFFFFFFFFFFFFFFFFFFFFFFFFFFFFFFFFFFFFFFFFFFFFFF000FFFFFFFFFFFF
310
FFFFFFFFFFFFFFFFFFFFFFFFFFFFFFFFFFFFFFFFFFFFFFFFFFFFFFFFFFFFFFFF
310
FFFFFFFFFFFFFFFFFFFFFFFFFFFFFFFFFFFFFFFFFFFFFFFFFFFFFFFFFFFFFFFF
310
FFFFFFFFFFFFFFFFFFFFFFFFFFFFFFFFF000FFFFFFFFFFFFFFFFFFFFFFFFFFFF
310
FFFFFFFFFFFFFFFFFFFFFFFFFFFFFFFFFFFFFFFFFFFFFFFFFFFFFFFFFFFFFFFF
310
FFFFFFFFFFFFFFFFFFFFFFFFFFFFFFFFFFFFFFFFFFFFFFFFFFFFFFFFFFFFFFFF
310
FFFFFFFFFFFFFFFFF000FFFFFFFFFFFFFFFFFFFFFFFFFFFFFFFFFFFFFFFFFFFF
310
FFFFFFFFFFFFFFFFFFFFFFFFFFFFFFFFFFFFFFFFFFFFFFFFFFFFFFFFFFFFFFFF
310
FFFFFFFFFFFFFFFFFFFFFFFFFFFFFFFFFFFFFFFFFFFFFFFFFFFFFFFFFFFFFFFF
310
F000FFFFFFFFFFFFFFFFFFFFFFFFFFFFFFFFFFFFFFFFFFFFFFFFFFFFFFFFFFFF
310
FFFFFFFFFFFFFFFFFFFFFFFFFFFFFFFFFFFFFFFFFFFFFFFFFFFFFFFFFFFFFFFF
310
FFFFFFFFFFFFFFFFFFFFFFFFFFFFFFFFFFFFFFFFFFFFFFFFF000FFFFFFFFFFFF
310
FFFFFFFFFFFFFFFFFFFFFFFFFFFFFFFFFFFFFFFFFFFFFFFFFFFFFFFFFFFFFFFF
310
FFFFFFFFFFFFFFFFFFFFFFFFFFFFFFFFFFFFFFFFFFFFFFFFFFFFFFFFFFFFFFFF
310
FFFFFFFFFFFFFFFFFFFFFFFFFFFFFFFFF000FFFFFFFFFFFFFFFFFFFFFFFFFFFF
310
FFFFFFFFFFFFFFFFFFFFFFFFFFFFFFFFFFFFFFFFFFFFFFFFFFFFFFFFFFFFFFFF
310
FFFFFFFFFFFFFFFFFFFFFFFFFFFFFFFFFFFFFFFFFFFFFFFFFFFFFFFFFFFFFFFF
310
FFFFFFFFFFFFFFFFF000FFFFFFFFFFFFFFFFFFFFFFFFFFFFFFFFFFFFFFFFFFFF
310
FFFFFFFFFFFFFFFFFFFFFFFFFFFFFFFFFFFFFFFFFFFFFFFFFFFFFFFFFFFFFFFF
310
FFFFFFFFFFFFFFFFFFFFFFFFFFFFFFFFFFFFFFFFFFFFFFFFFFFFFFFFFFFFFFFF
310
F000FFFFFFFFFFFFFFFFFFFFFFFFFFFFFFFFFFFFFFFFFFFFFFFFFFFFFFFFFFFF
310
FFFFFFFFFFFFFFFFFFFFFFFFFFFFFFFFFFFFFFFFFFFFFFFFFFFFFFFFFFFFFFFF
310
FFFFFFFFFFFFFFFFFFFFFFFFFFFFFFFFFFFFFFFFFFFFFFFFF000FFFFFFFFFFFF
310
FFFFFFFFFFFFFFFFFFFFFFFFFFFFFFFFFFFFFFFFFFFFFFFFFFFFFFFFFFFFFFFF
310
FFFFFFFFFFFFFFFFFFFFFFFFFFFFFFFFFFFFFFFFFFFFFFFFFFFFFFFFFFFFFFFF
310
FFFFFFFFFFFFFFFFFFFFFFFFFFFFFFFFF000FFFFFFFFFFFFFFFFFFFFFFFFFFFF
310
FFFFFFFFFFFFFFFFFFFFFFFFFFFFFFFFFFFFFFFFFFFFFFFFFFFFFFFFFFFFFFFF
310
FFFFFFFFFFFFFFFFFFFFFFFFFFFFFFFFFFFFFFFFFFFFFFFFFFFFFFFFFFFFFFFF
310
FFFFFFFFFFFFFFFFF000FFFFFFFFFFFFFFFFFFFFFFFFFFFFFFFFFFFFFFFFFFFF
310
FFFFFFFFFFFFFFFFFFFFFFFFFFFFFFFFFFFFFFFFFFFFFFFFFFFFFFFFFFFFFFFF
310
FFFFFFFFFFFFFFFFFFFFFFFFFFFFFFFFFFFFFFFFFFFFFFFFFFFFFFFFFFFFFFFF
310
F000FFFFFFFFFFFFFFFFFFFFFFFFFFFFFFFFFFFFFFFFFFFFFFFFFFFFFFFFFFFF
310
FFFFFFFFFFFFFFFFFFFFFFFFFFFFFFFFFFFFFFFFFFFFFFFFFFFFFFFFFFFFFFFF
310
FFFFFFFFFFFFFFFFFFFFFFFFFFFFFFFFFFFFFFFFFFFFFFFFF000FFFFFFFFFFFF
310
FFFFFFFFFFFFFFFFFFFFFFFFFFFFFFFFFFFFFFFFFFFFFFFFFFFFFFFFFFFFFFFF
310
FFFFFFFFFFFFFFFFFFFFFFFFFFFFFFFFFFFFFFFFFFFFFFFFFFFFFFFFFFFFFFFF
310
FFFFFFFFFFFFFFFFFFFFFFFFFFFFFFFFF000FFFFFFFFFFFFFFFFFFFFFFFFFFFF
310
FFFFFFFFFFFFFFFFFFFFFFFFFFFFFFFFFFFFFFFFFFFFFFFFFFFFFFFFFFFFFFFF
310
FFFFFFFFFFFFFFFFFFFFFFFFFFFFFFFFFFFFFFFFFFFFFFFFFFFFFFFFFFFFFFFF
310
FFFFFFFFFFFFFFFFF000FFFFF80003FFFFFFFFFFFFFFFFFFFFFFFFFFFFFFFFFF
310
FFFFF00007FFFFFFFFFF00007FFFFFF800000000000000007FFFFFFFFFFFFFFF
310
FFFFFFFC001FFFFFFFFFFFFFFC001FFFFFFFFFFFFFFFFFFFFFFFFFFE0007FFFF
310
F000FFFF8000007FFFFFFFF8000FFFFFC0007FFFFF80007FFFFF0000007FFFFF
310
FFF8000007FFFFF800000000000000007FFFFFF0001FFFFFFFFFFFC00001FFFF
310
FFFFFFFFC00001FFFFFFFF000000000003FFFFE000007FFFF000FFFE0000000F
310
FFFFFFF0000FFFFF80007FFFFF80007FFFFC0000001FFFFFFFC0000001FFFFF8
310
00000000000000007FFFFFF0001FFFFFFFFFFE0000003FFFFFFFFFFE0000003F
310
FFFFFF000000000003FFFF0000000FFFF000FFF800000003FFFFFFF00007FFFF
310
80007FFFFF80007FFFF000000007FFFFFF000000003FFFF80000000000000000
310
7FFFFFF0001FFFFFFFFFF80000000FFFFFFFFFF80000000FFFFFFF0000000000
310
03FFFC00000003FFF000FFE000000000FFFFFFF00007FFFF80003FFFFF80007F
310
FFC000000001FFFFFC000000001FFFF800000000000000007FFFFFF0001FFFFF
310
FFFFE000000003FFFFFFFFE000000003FFFFFF000000000003FFF000000000FF
310
F000FF80000000007FFFFFF00007FFFF80003FFFFF80007FFF8000000000FFFF
310
F80000000007FFF800000000000000007FFFFFF0001FFFFFFFFFC000000001FF
310
FFFFFFC000000001FFFFFF000000000003FFC0000000007FF000FF0000000000
310
3FFFFFE00007FFFF00003FFFFF80007FFE00000000003FFFF00000000003FFF8
310
00000000000000007FFFFFF0001FFFFFFFFF8000000000FFFFFFFF8000000000
310
FFFFFF000000000003FF80000000003FF000FE00000000001FFFFFE00003FFFF
310
00003FFFFF80007FFC00000000001FFFE00000000001FFF8000001FFFE000000
310
7FFFFFF0001FFFFFFFFE00000000003FFFFFFE00000000003FFFFF0000000000
310
03FF00000000001FF000FC00000000000FFFFFE00003FFFF00001FFFFF80007F
310
F800000000001FFFC00000000000FFF8000001FFFE0000007FFFFFF0001FFFFF
310
FFFC00000000001FFFFFFC00000000001FFFFF000000000003FE00000000000F
310
F000F8000000000007FFFFE00003FFFF00001FFFFF80007FF800000000000FFF
310
800000000000FFF8000001FFFE0000007FFFFFF0001FFFFFFFF800000000000F
310
FFFFF800000000000FFFFF000000000003FC000000000007F000F80000000000
310
03FFFFC00003FFFE00001FFFFF80007FF0000000000007FF0000000000007FF8
310
000001FFFE0000007FFFFFF0001FFFFFFFF0000000000007FFFFF00000000000
310
07FFFF000000000003F8000000000003F000F0000000000003FFFFC00001FFFE
310
00001FFFFF80007FE0000000000007FE0000000000003FF8000001FFFE000000
310
7FFFFFF0001FFFFFFFF0000000000007FFFFF0000000000007FFFF0000000000
310
03F800001F800003F000E00001FFF00001FFFFC00001FFFE00000FFFFF80007F
310
E00001FFE00003FE00001FFF00003FF8000001FFFE0000007FFFFFF0001FFFFF
310
FFE000003E000003FFFFE000003E000003FFFF000000000003F00001FFF80001
310
F000E00007FFFC0001FFFFC00001FFFE00000FFFFF80007FC0000FFFFC0003FC
310
0000FFFFC0001FF8000001FFFE0000007FFFFFF0001FFFFFFFC00003FFE00001
310
FFFFC00003FFE00001FFFF0001FFFFFFFFF00007FFFE0001F000E0000FFFFF00
310
00FFFF800001FFFC00000FFFFF80007FC0001FFFFE0001FC0001FFFFE0001FF8
310
000001FFFE0000007FFFFFF0001FFFFFFF80000FFFF80000FFFF80000FFFF800
310
00FFFF0003FFFFFFFFE0000FFFFF8000F000C0003FFFFF8000FFFF800000FFFC
310
000007FFFF80007F80003FFFFF0001FC0003FFFFF0001FF8000001FFFE000000
310
7FFFFFF0001FFFFFFF80003FFFFE0000FFFF80003FFFFE0000FFFF0003FFFFFF
310
FFE0003FFFFF8000F000C0003FFFFF8000FFFF800000FFFC000007FFFF80007F
310
80007FFFFF8001F80007FFFFF8000FF8000001FFFE0000007FFFFFF0001FFFFF
310
FF00007FFFFF00007FFF00007FFFFF00007FFF0003FFFFFFFFE0003FFFFFC000
310
F000C0007FFFFFC000FFFF000000FFFC000007FFFF80007F8000FFFFFF8000F8
310
000FFFFFF8000FF8000001FFFE0000007FFFFFF0001FFFFFFF0000FFFFFF8000
310
7FFF0000FFFFFF80007FFF0003FFFFFFFFC0007FFFFFC00070008000FFFFFFC0
310
00FFFF000000FFF8000007FFFF80007F8000FFFFFF8000F8000FFFFFF8000FF8
310
000001FFFE0000007FFFFFF0001FFFFFFE0001FFFFFFC0003FFE0001FFFFFFC0
310
003FFF0003FFFFFFFFC0007FFFFFE00070008000FFFFFFC0007FFF0000007FF8
310
000003FFFF80007F0001FFFFFF8000F8000FFFFFF8000FF8000001FFFE000000
310
7FFFFFF0001FFFFFFE0001FFFFFFC0003FFE0001FFFFFFC0003FFF0003FFFFFF
310
FFC000FFFFFFE00070008000FFFFFFC0007FFF0000007FF8000003FFFF80007F
310
0001FFFFFF8000F8001FFFFFF8000FF8000001FFFE0000007FFFFFF0001FFFFF
310
FE0003FFFFFFE0003FFE0003FFFFFFE0003FFF0003FFFFFFFFC000FFFFFFE000
310
70008000FFFFFFC0007FFE0000007FF8000003FFFF80007F0001FFFFFF8000F0
310
001FFFFFF8000FF8000001FFFE0000007FFFFFF0001FFFFFFC0003FFFFFFE000
310
1FFC0003FFFFFFE0001FFF0003FFFFFFFFC000FFFFFFC00070008000FFFFFF80
310
007FFE0000007FF0000003FFFF80007F0001FFFFFF0000F0001FFFFFF8000FF8
310
000001FFFE0000007FFFFFF0001FFFFFFC0007FFFFFFF0001FFC0007FFFFFFF0
310
001FFF0003FFFFFFFFC000FFFFFFC00070008001FFFFFF0000FFFE0000003FF0
310
000001FFFF80007F0001FFFFFF0000F8001FFFFFF0000FF8000001FFFE000000
310
7FFFFFF0001FFFFFFC0007FFFFFFF0001FFC0007FFFFFFF0001FFF0003FFFFFF
310
FFC001FFFFFF80007000FFFFFFFFFE0000FFFE0008003FF0008001FFFF80007F
310
FFFFFFFFFC0000FFFFFFFFFFE0000FF8000001FFFE0000007FFFFFF0001FFFFF
310
F8000FFFFFFFF8000FF8000FFFFFFFF8000FFF0003FFFFFFFFFFFFFFFFFF0000
310
7000FFFFFFFFFC0000FFFC0008003FF0008001FFFF80007FFFFFFFFFF80001FF
310
FFFFFFFF80000FF8000001FFFE0000007FFFFFF0001FFFFFF8000FFFFFFFF800
310
0FF8000FFFFFFFF8000FFF0003FFFFFFFFFFFFFFFFFE0000F000FFFFFFFFE000
310
00FFFC000C003FE000C001FFFF80007FFFFFFFFFC00001FFFFFFFFFE00001FF8
310
000001FFFE0000007FFFFFF0001FFFFFF8000FFFFFFFF8000FF8000FFFFFFFF8
310
000FFF0003FFFFFFFFFFFFFFFFF00000F000FFFFFFFE000001FFFC000C001FE0
310
00C000FFFF80007FFFFFFFFE000001FFFFFFFFE000001FF80FFFFFFFFFFFFFC0
310
7FFFFFF0001FFFFFF8000FFFFFFFF8000FF8000FFFFFFFF8000FFF0003FFFFFF
310
FFFFFFFFFF800000F000FFFFFFC0000001FFFC001C001FE001C000FFFF80007F
310
FFFFFF80000003FFFFFFF80000001FF80FFFFFFFFFFFFFC07FFFFFF0001FFFFF
310
F8001FFFFFFFFC000FF8001FFFFFFFFC000FFF0003FFFFFFFFFFFFFFF0000001
310
F000FFFFF800000001FFF8001C001FE001C000FFFF80007FFFFFF800000003FF
310
FFFF800000003FF80FFFFFFFFFFFFFC07FFFFFF0001FFFFFF8001FFFFFFFFC00
310
0FF8001FFFFFFFFC000FFF0003FFFFFFFFFFFFFE00000001F000FFFFC0000000
310
03FFF8001E001FC001E000FFFF80007FFFFF8000000007FFFFFC000000003FF8
310
0FFFFFFFFFFFFFC07FFFFFF0001FFFFFF8001FFFFFFFFC000FF8001FFFFFFFFC
310
000FFF0003FFFFFFFFFFFFE000000003F000FFFE0000000007FFF8001E000FC0
310
01E0007FFF80007FFFFE0000000007FFFFE0000000007FF80FFFFFFFFFFFFFC0
310
7FFFFFF0001FFFFFF0001FFFFFFFFC0007F0001FFFFFFFFC0007FF0003FFFFFF
310
FFFFFF0000000003F000FFF80000000007FFF8001E000FC003E0007FFF80007F
310
FFF0000000000FFFFF8000000000FFF80FFFFFFFFFFFFFC07FFFFFF0001FFFFF
310
F0001FFFFFFFFC0007F0001FFFFFFFFC0007FF0003FFFFFFFFFFFC0000000007
310
F000FFE0000000000FFFF0003E000FC003E0007FFF80007FFFC0000000001FFF
310
FE0000000001FFF80FFFFFFFFFFFFFC07FFFFFF0001FFFFFF0001FFFFFFFFC00
310
07F0001FFFFFFFFC0007FF0003FFFFFFFFFFF0000000000FF000FFC000000000
310
1FFFF0003F000F8003F0003FFF80007FFF80000000003FFFF80000000003FFF8
310
0FFFFFFFFFFFFFC07FFFFFF0001FFFFFF0001FFFFFFFFC0007F0001FFFFFFFFC
310
0007FF0003FFFFFFFFFFE0000000001FF000FF00000000007FFFF0003F000780
310
03F0003FFF80007FFF00000000007FFFF00000000007FFF80FFFFFFFFFFFFFC0
310
7FFFFFF0001FFFFFF0001FFFFFFFFC0007F0001FFFFFFFFC0007FF0003FFFFFF
310
FFFF80000000007FF000FE0000000000FFFFE0003F00078007F0003FFF80007F
310
FE0000000001FFFFE0000000001FFFF80FFFFFFFFFFFFFC07FFFFFF0001FFFFF
310
F0001FFFFFFFFC0007F0001FFFFFFFFC0007FF0003FFFFFFFFFF0000000000FF
310
F000FC0000000003FFFFE0007F00078007F0003FFF80007FFC0000000007FFFF
310
C0000000007FFFF80FFFFFFFFFFFFFC07FFFFFF0001FFFFFF8001FFFFFFFFC00
310
0FF8001FFFFFFFFC000FFF0003FFFFFFFFFE0000000003FFF000FC000000000F
310
FFFFE0007F80070007F8001FFF80007FF8000000001FFFFF8000000001FFFFF8
310
0FFFFFFFFFFFFFC07FFFFFF0001FFFFFF8001FFFFFFFFC000FF8001FFFFFFFFC
310
000FFF0003FFFFFFFFFC000000000FFFF000F8000000007FFFFFE0007F800700
310
07F8001FFF80007FF000000000FFFFFF800000000FFFFFF80FFFFFFFFFFFFFC0
310
7FFFFFF0001FFFFFF8000FFFFFFFF8000FF8000FFFFFFFF8000FFF0003FFFFFF
310
FFFC000000007FFFF000F800000007FFFFFFC0007F8003000FF8001FFF80007F
310
F000000007FFFFFF000000007FFFFFF80FFFFFFFFFFFFFC07FFFFFF0001FFFFF
310
F8000FFFFFFFF8000FF8000FFFFFFFF8000FFF0003FFFFFFFFF80000000FFFFF
310
F000F0000000FFFFFFFFC000FF8003000FF8001FFF80007FE0000000FFFFFFFF
310
0000000FFFFFFFF8000001FFFE0000007FFFFFF0001FFFFFF8000FFFFFFFF800
310
0FF8000FFFFFFFF8000FFF0003FFFFFFFFF8000000FFFFFFF000F000000FFFFF
310
FFFFC000FFC002000FF8000FFF80007FE000001FFFFFFFFE000001FFFFFFFFF8
310
000001FFFE0000007FFFFFF0001FFFFFF8000FFFFFFFF8000FF8000FFFFFFFF8
310
000FFF0003FFFFFFFFF000001FFFFFFFF000E00000FFFFFFFFFFC000FFC00200
310
0FFC000FFF80007FE00001FFFFFFFFFE00001FFFFFFFFFF8000001FFFE000000
310
7FFFFFF0001FFFFFFC000FFFFFFFF8001FFC000FFFFFFFF8001FFF0003FFFFFF
310
FFF00001FFFFFFFFF000E00007FFFFFFFFFF8000FFC000001FFC000FFF80007F
310
C0000FFFFFFFFFFE0000FFFFFFFFFFF8000001FFFE0000007FFFFFF0001FFFFF
310
FC0007FFFFFFF0001FFC0007FFFFFFF0001FFF0003FFFFFFFFF00007FFFFFFFF
310
F000E0001FFFFFFFFFFF8000FFC000001FFC000FFF80007FC0003FFFFFFFFFFE
310
0001FFFFFFFFFFF8000001FFFE0000007FFFFFF0001FFFFFFC0007FFFFFFF000
310
1FFC0007FFFFFFF0001FFF0003FFFFFFFFF0001FFFFFFFFFF000E0003FFFFF00
310
03FF8001FFE000001FFC0007FF80007FC0007FFFFF0007FC0003FFFFF0003FF8
310
000001FFFE0000007FFFFFF0001FFFFFFC0003FFFFFFE0001FFC0003FFFFFFE0
310
001FFF0003FFFFFFFFF0003FFFFFFFFFF000E0003FFFFF0001FF8001FFE00000
310
1FFE0007FF80007FC0007FFFFE0003FC0007FFFFE0003FF8000001FFFE000000
310
7FFFFFF0001FFFFFFE0003FFFFFFE0003FFE0003FFFFFFE0003FFF0003FFFFFF
310
FFF0003FFFFF8001F000E0003FFFFF0001FF0001FFE000001FFE0007FF80007F
310
C0007FFFFE0003FC0007FFFFE0003FF8000001FFFE0000007FFFFFF0001FFFFF
310
FE0001FFFFFFC0003FFE0001FFFFFFC0003FFF0003FFFFFFFFF0003FFFFF0001
310
F000E0003FFFFF0003FF0001FFE000003FFE0007FF80007FC0007FFFFE0003FC
310
0007FFFFE0003FF8000001FFFE0000007FFFFFF0001FFFFFFF0001FFFFFFC000
310
7FFF0001FFFFFFC0007FFF0003FFFFFFFFF0003FFFFF0001F000E0003FFFFE00
310
03FF0003FFF000003FFE0003FF80007FC0007FFFFC0003FE0007FFFFE0003FF8
310
000001FFFE0000007FFFFFF0001FFFFFFF0000FFFFFF80007FFF0000FFFFFF80
310
007FFF0003FFFFFFFFF0003FFFFF0001F000E0003FFFFE0003FF0003FFF00000
310
3FFF0003FF80007FC0007FFFFC0007FE0007FFFFC0003FF8000001FFFE000000
310
7FFFFFF0001FFFFFFF80007FFFFF0000FFFF80007FFFFF0000FFFF0003FFFFFF
310
FFF0003FFFFF0003F000E0003FFFFC0003FE0003FFF000003FFF0003FF80007F
310
E0003FFFF80007FE0003FFFFC0007FF8000001FFFE0000007FFFFFF0001FFFFF
310
FF80003FFFFE0000FFFF80003FFFFE0000FFFF0003FFFFFFFFF0001FFFFE0003
310
F000F0001FFFF80003FE0003FFF000007FFF0001FF80007FE0003FFFF00007FE
310
0001FFFF80007FF8000001FFFE0000007FFFFFF0001FFFFFFFC0000FFFF80001
310
FFFFC0000FFFF80001FFFF0003FFFFFFFFF0001FFFFC0003F000F0000FFFF000
310
07FE0007FFF800007FFF0001FF80007FE0001FFFE00007FF0000FFFE00007FF8
310
000001FFFE0000007FFFFFF0001FFFFFFFC00003FFE00001FFFFC00003FFE000
310
01FFFF0003FFFFFFFFF8000FFFF80003F000F00003FFC00007FC0007FFF80000
310
7FFF8001FF80007FF00007FF80000FFF00007FF80000FFF8000001FFFE000000
310
7F80000000000001FFE000003E000003FFFFE000003E000003FFFF0003FFFFFF
310
FFF80003FFE00007F000F800000000000FFC0007FFF800007FFF8001FF80007F
310
F000000000000FFF000000000000FFF8000001FFFE0000007F80000000000001
310
FFF0000000000007FFFFF0000000000007FFFF0003FFFFFFFFFC00007E000007
310
F000F800000000000FFC0007FFF80000FFFF8000FF80007FF800000000001FFF
310
800000000001FFF8000001FFFE0000007F80000000000001FFF800000000000F
310
FFFFF800000000000FFFFF0003FFFFFFFFFC00000000000FF000FC0000000000
310
1FFC0007FFFC0000FFFF8000FF80007FF800000000003FFFC00000000001FFF8
310
000001FFFE0000007F80000000000001FFF800000000000FFFFFF80000000000
310
0FFFFF0003FFFFFFFFFE00000000001FF000FE00000000003FF8000FFFFC0000
310
FFFF8000FF80007FFC00000000003FFFC00000000003FFF8000001FFFE000000
310
7F80000000000001FFFC00000000001FFFFFFC00000000001FFFFF0003FFFFFF
310
FFFF00000000001FF000FF00000000003FF8000FFFFC0000FFFFC000FF80007F
310
FE00000000007FFFE00000000007FFF8000001FFFE0000007F80000000000001
310
FFFE00000000003FFFFFFE00000000003FFFFF0003FFFFFFFFFF80000000003F
310
F000FF80000000007FF8000FFFFC0001FFFFC0007F80007FFF0000000000FFFF
310
F0000000000FFFF800000000000000007F80000000000001FFFF8000000000FF
310
FFFFFF8000000000FFFFFF0003FFFFFFFFFFC0000000007FF000FFC000000000
310
FFF8000FFFFE0001FFFFC0007F80007FFF8000000001FFFFF8000000001FFFF8
310
00000000000000007F80000000000001FFFFC000000001FFFFFFFFC000000001
310
FFFFFF0003FFFFFFFFFFE000000000FFF000FFE000000003FFF0001FFFFE0001
310
FFFFC0007F80007FFFC000000007FFFFFE000000003FFFF80000000000000000
310
7F80000000000001FFFFE000000003FFFFFFFFE000000003FFFFFF0003FFFFFF
310
FFFFF000000003FFF000FFF80000000FFFF0001FFFFE0001FFFFE0007F80007F
310
FFF00000000FFFFFFF00000000FFFFF800000000000000007F80000000000001
310
FFFFF80000000FFFFFFFFFF80000000FFFFFFF0003FFFFFFFFFFFC0000000FFF
310
F000FFFE0000003FFFF0001FFFFE0003FFFFE0003F80007FFFFC0000003FFFFF
310
FFC0000003FFFFF800000000000000007F80000000000001FFFFFE0000003FFF
310
FFFFFFFE0000003FFFFFFF0003FFFFFFFFFFFF0000003FFFF000FFFF800000FF
310
FFF0001FFFFF0003FFFFE0003F80007FFFFF000001FFFFFFFFF800001FFFFFF8
310
00000000000000007F80000000000001FFFFFFC00001FFFFFFFFFFFFC00001FF
310
FFFFFF0003FFFFFFFFFFFFC00000FFFFF000FFFFF8000FFFFFFFFFFFFFFFFFFF
310
FFFFFFFFFFFFFFFFFFFFF0001FFFFFFFFFFF0000FFFFFFF80000000000000000
310
7FFFFFFFFFFFFFFFFFFFFFFC001FFFFFFFFFFFFFFC001FFFFFFFFFFFFFFFFFFF
310
FFFFFFFC001FFFFFF000FFFFFFFFFFFFFFFFFFFFFFFFFFFFFFFFFFFFFFFFFFFF
310
FFFFFFFFFFFFFFFFFFFFFFFFFFFFFFFFFFFFFFFFFFFFFFFFFFFFFFFFFFFFFFFF
310
FFFFFFFFFFFFFFFFFFFFFFFFFFFFFFFFFFFFFFFFFFFFFFFFFFFFFFFFFFFFFFFF
310
F000FFFFFFFFFFFFFFFFFFFFFFFFFFFFFFFFFFFFFFFFFFFFFFFFFFFFFFFFFFFF
310
FFFFFFFFFFFFFFFFFFFFFFFFFFFFFFFFFFFFFFFFFFFFFFFFFFFFFFFFFFFFFFFF
310
FFFFFFFFFFFFFFFFFFFFFFFFFFFFFFFFFFFFFFFFFFFFFFFFF000FFFFFFFFFFFF
310
FFFFFFFFFFFFFFFFFFFFFFFFFFFFFFFFFFFFFFFFFFFFFFFFFFFFFFFFFFFFFFFF
310
FFFFFFFFFFFFFFFFFFFFFFFFFFFFFFFFFFFFFFFFFFFFFFFFFFFFFFFFFFFFFFFF
310
FFFFFFFFFFFFFFFFFFFFFFFFFFFFFFFFF000FFFFFFFFFFFFFFFFFFFFFFFFFFFF
310
FFFFFFFFFFFFFFFFFFFFFFFFFFFFFFFFFFFFFFFFFFFFFFFFFFFFFFFFFFFFFFFF
310
FFFFFFFFFFFFFFFFFFFFFFFFFFFFFFFFFFFFFFFFFFFFFFFFFFFFFFFFFFFFFFFF
310
FFFFFFFFFFFFFFFFF000FFFFFFFFFFFFFFFFFFFFFFFFFFFFFFFFFFFFFFFFFFFF
310
FFFFFFFFFFFFFFFFFFFFFFFFFFFFFFFFFFFFFFFFFFFFFFFFFFFFFFFFFFFFFFFF
310
FFFFFFFFFFFFFFFFFFFFFFFFFFFFFFFFFFFFFFFFFFFFFFFFFFFFFFFFFFFFFFFF
310
F000FFFFFFFFFFFFFFFFFFFFFFFFFFFFFFFFFFFFFFFFFFFFFFFFFFFFFFFFFFFF
310
FFFFFFFFFFFFFFFFFFFFFFFFFFFFFFFFFFFFFFFFFFFFFFFFFFFFFFFFFFFFFFFF
310
FFFFFFFFFFFFFFFFFFFFFFFFFFFFFFFFFFFFFFFFFFFFFFFFF000FFFFFFFFFFFF
310
FFFFFFFFFFFFFFFFFFFFFFFFFFFFFFFFFFFFFFFFFFFFFFFFFFFFFFFFFFFFFFFF
310
FFFFFFFFFFFFFFFFFFFFFFFFFFFFFFFFFFFFFFFFFFFFFFFFFFFFFFFFFFFFFFFF
310
FFFFFFFFFFFFFFFFFFFFFFFFFFFFFFFFF000FFFFFFFFFFFFFFFFFFFFFFFFFFFF
310
FFFFFFFFFFFFFFFFFFFFFFFFFFFFFFFFFFFFFFFFFFFFFFFFFFFFFFFFFFFFFFFF
310
FFFFFFFFFFFFFFFFFFFFFFFFFFFFFFFFFFFFFFFFFFFFFFFFFFFFFFFFFFFFFFFF
310
FFFFFFFFFFFFFFFFF000FFFFFFFFFFFFFFFFFFFFFFFFFFFFFFFFFFFFFFFFFFFF
310
FFFFFFFFFFFFFFFFFFFFFFFFFFFFFFFFFFFFFFFFFFFFFFFFFFFFFFFFFFFFFFFF
310
FFFFFFFFFFFFFFFFFFFFFFFFFFFFFFFFFFFFFFFFFFFFFFFFFFFFFFFFFFFFFFFF
310
F000FFFFFFFFFFFFFFFFFFFFFFFFFFFFFFFFFFFFFFFFFFFFFFFFFFFFFFFFFFFF
310
FFFFFFFFFFFFFFFFFFFFFFFFFFFFFFFFFFFFFFFFFFFFFFFFFFFFFFFFFFFFFFFF
310
FFFFFFFFFFFFFFFFFFFFFFFFFFFFFFFFFFFFFFFFFFFFFFFFF000FFFFFFFFFFFF
310
FFFFFFFFFFFFFFFFFFFFFFFFFFFFFFFFFFFFFFFFFFFFFFFFFFFFFFFFFFFFFFFF
310
FFFFFFFFFFFFFFFFFFFFFFFFFFFFFFFFFFFFFFFFFFFFFFFFFFFFFFFFFFFFFFFF
310
FFFFFFFFFFFFFFFFFFFFFFFFFFFFFFFFF000FFFFFFFFFFFFFFFFFFFFFFFFFFFF
310
FFFFFFFFFFFFFFFFFFFFFFFFFFFFFFFFFFFFFFFFFFFFFFFFFFFFFFFFFFFFFFFF
310
FFFFFFFFFFFFFFFFFFFFFFFFFFFFFFFFFFFFFFFFFFFFFFFFFFFFFFFFFFFFFFFF
310
FFFFFFFFFFFFFFFFF000FFFFFFFFFFFFFFFFFFFFFFFFFFFFFFFFFFFFFFFFFFFF
310
FFFFFFFFFFFFFFFFFFFFFFFFFFFFFFFFFFFFFFFFFFFFFFFFFFFFFFFFFFFFFFFF
310
FFFFFFFFFFFFFFFFFFFFFFFFFFFFFFFFFFFFFFFFFFFFFFFFFFFFFFFFFFFFFFFF
310
F000FFFFFFFFFFFFFFFFFFFFFFFFFFFFFFFFFFFFFFFFFFFFFFFFFFFFFFFFFFFF
310
FFFFFFFFFFFFFFFFFFFFFFFFFFFFFFFFFFFFFFFFFFFFFFFFFFFFFFFFFFFFFFFF
310
FFFFFFFFFFFFFFFFFFFFFFFFFFFFFFFFFFFFFFFFFFFFFFFFF000FFFFFFFFFFFF
310
FFFFFFFFFFFFFFFFFFFFFFFFFFFFFFFFFFFFFFFFFFFFFFFFFFFFFFFFFFFFFFFF
310
FFFFFFFFFFFFFFFFFFFFFFFFFFFFFFFFFFFFFFFFFFFFFFFFFFFFFFFFFFFFFFFF
310
FFFFFFFFFFFFFFFFFFFFFFFFFFFFFFFFF000FFFFFFFFFFFFFFFFFFFFFFFFFFFF
310
FFFFFFFFFFFFFFFFFFFFFFFFFFFFFFFFFFFFFFFFFFFFFFFFFFFFFFFFFFFFFFFF
310
FFFFFFFFFFFFFFFFFFFFFFFFFFFFFFFFFFFFFFFFFFFFFFFFFFFFFFFFFFFFFFFF
310
FFFFFFFFFFFFFFFFF000FFFFFFFFFFFFFFFFFFFFFFFFFFFFFFFFFFFFFFFFFFFF
310
FFFFFFFFFFFFFFFFFFFFFFFFFFFFFFFFFFFFFFFFFFFFFFFFFFFFFFFFFFFFFFFF
310
FFFFFFFFFFFFFFFFFFFFFFFFFFFFFFFFFFFFFFFFFFFFFFFFFFFFFFFFFFFFFFFF
310
F000FFFFFFFFFFFFFFFFFFFFFFFFFFFFFFFFFFFFFFFFFFFFFFFFFFFFFFFFFFFF
310
FFFFFFFFFFFFFFFFFFFFFFFFFFFFFFFFFFFFFFFFFFFFFFFFFFFFFFFFFFFFFFFF
310
FFFFFFFFFFFFFFFFFFFFFFFFFFFFFFFFFFFFFFFFFFFFFFFFF000FFFFFFFFFFFF
310
FFFFFFFFFFFFFFFFFFFFFFFFFFFFFFFFFFFFFFFFFFFFFFFFFFFFFFFFFFFFFFFF
310
FFFFFFFFFFFFFFFFFFFFFFFFFFFFFFFFFFFFFFFFFFFFFFFFFFFFFFFFFFFFFFFF
310
FFFFFFFFFFFFFFFFFFFFFFFFFFFFFFFFF000FFFFFFFFFFFFFFFFFFFFFFFFFFFF
310
FFFFFFFFFFFFFFFFFFFFFFFFFFFFFFFFFFFFFFFFFFFFFFFFFFFFFFFFFFFFFFFF
310
FFFFFFFFFFFFFFFFFFFFFFFFFFFFFFFFFFFFFFFFFFFFFFFFFFFFFFFFFFFFFFFF
310
FFFFFFFFFFFFFFFFF000FFFFFFFFFFFFFFFFFFFFFFFFFFFFFFFFFFFFFFFFFFFF
310
FFFFFFFFFFFFFFFFFFFFFFFFFFFFFFFFFFFFFFFFFFFFFFFFFFFFFFFFFFFFFFFF
310
FFFFFFFFFFFFFFFFFFFFFFFFFFFFFFFFFFFFFFFFFFFFFFFFFFFFFFFFFFFFFFFF
310
F000FFFFFFFFFFFFFFFFFFFFFFFFFFFFFFFFFFFFFFFFFFFFFFFFFFFFFFFFFFFF
310
FFFFFFFFFFFFFFFFFFFFFFFFFFFFFFFFFFFFFFFFFFFFFFFFFFFFFFFFFFFFFFFF
310
FFFFFFFFFFFFFFFFFFFFFFFFFFFFFFFFFFFFFFFFFFFFFFFFF000FFFFFFFFFFFF
310
FFFFFFFFFFFFFFFFFFFFFFFFFFFFFFFFFFFFFFFFFFFFFFFFFFFFFFFFFFFFFFFF
310
FFFFFFFFFFFFFFFFFFFFFFFFFFFFFFFFFFFFFFFFFFFFFFFFFFFFFFFFFFFFFFFF
310
FFFFFFFFFFFFFFFFFFFFFFFFFFFFFFFFF0000000000000000000000000000000
310
0000000000000000000000000000000000000000000000000000000000000000
310
0000000000000000000000000000000000000000000000000000000000000000
310
0000000000000000000000000000000000000000000000000000000000000000
310
0000000000000000000000000000000000000000000000000000000000000000
310
0000000000000000000000000000000000000000000000000000000000000000
310
0000000000000000000000000000000000000000000000000000000000000000
310
0000000000000000000000000000000000000000000000000000000000000000
310
0000000000000000000000000000000000000000000000000000000000000000
310
0000000000000000000000000000000000000000000000000000000000000000
310
0000000000000000000000000000000000000000000000000000000000000000
310
0000000000000000000000000000000000000000000000000000000000000000
310
0000000000000000000000000000000000000000000000000000000000000000
310
0000000000000000000000000000000000000000000000000000000000000000
310
0000000000000000000000000000000000000000000000000000000000000000
310
0000000000000000000000000000000000000000000000000000000000000000
  1
OLE
  0
ENDSEC
  0
SECTION
  2
OBJECTS
  0
DICTIONARY
  5
C
330
0
100
AcDbDictionary
281
     1
  3
ACAD_GROUP
350
D
  3
ACAD_LAYOUT
350
1A
  3
ACAD_MLINESTYLE
350
17
  3
ACAD_PLOTSETTINGS
350
19
  3
ACAD_PLOTSTYLENAME
350
E
  0
DICTIONARY
  5
D
102
{ACAD_REACTORS
330
C
102
}
330
C
100
AcDbDictionary
281
     1
  0
DICTIONARY
  5
1A
102
{ACAD_REACTORS
330
C
102
}
330
C
100
AcDbDictionary
281
     1
  3
Layout1
350
1E
  3
Layout2
350
26
  3
Model
350
22
  0
DICTIONARY
  5
17
102
{ACAD_REACTORS
330
C
102
}
330
C
100
AcDbDictionary
281
     1
  3
Standard
350
18
  0
DICTIONARY
  5
19
102
{ACAD_REACTORS
330
C
102
}
330
C
100
AcDbDictionary
281
     1
  0
ACDBDICTIONARYWDFLT
  5
E
102
{ACAD_REACTORS
330
C
102
}
330
C
100
AcDbDictionary
281
     1
  3
Normal
350
F
100
AcDbDictionaryWithDefault
340
F
  0
LAYOUT
  5
1E
102
{ACAD_REACTORS
330
1A
102
}
330
1A
100
AcDbPlotSettings
  1

  2
none_device
  4

  6

 40
0.0
 41
0.0
 42
0.0
 43
0.0
 44
0.0
 45
0.0
 46
0.0
 47
0.0
 48
0.0
 49
0.0
140
0.0
141
0.0
142
1.0
143
1.0
 70
   688
 72
     0
 73
     0
 74
     5
  7

 75
    16
147
1.0
148
0.0
149
0.0
100
AcDbLayout
  1
Layout1
 70
     1
 71
     1
 10
0.0
 20
0.0
 11
420.0
 21
297.0
 12
0.0
 22
0.0
 32
0.0
 14
1.0000000000E+20
 24
1.0000000000E+20
 34
1.0000000000E+20
 15
-1.0000000000E+20
 25
-1.0000000000E+20
 35
-1.0000000000E+20
146
0.0
 13
0.0
 23
0.0
 33
0.0
 16
1.0
 26
0.0
 36
0.0
 17
0.0
 27
1.0
 37
0.0
 76
     0
330
1B
  0
LAYOUT
  5
26
102
{ACAD_REACTORS
330
1A
102
}
330
1A
100
AcDbPlotSettings
  1

  2
none_device
  4

  6

 40
0.0
 41
0.0
 42
0.0
 43
0.0
 44
0.0
 45
0.0
 46
0.0
 47
0.0
 48
0.0
 49
0.0
140
0.0
141
0.0
142
1.0
143
1.0
 70
   688
 72
     0
 73
     0
 74
     5
  7

 75
    16
147
1.0
148
0.0
149
0.0
100
AcDbLayout
  1
Layout2
 70
     1
 71
     2
 10
0.0
 20
0.0
 11
0.0
 21
0.0
 12
0.0
 22
0.0
 32
0.0
 14
0.0
 24
0.0
 34
0.0
 15
0.0
 25
0.0
 35
0.0
146
0.0
 13
0.0
 23
0.0
 33
0.0
 16
1.0
 26
0.0
 36
0.0
 17
0.0
 27
1.0
 37
0.0
 76
     0
330
23
  0
LAYOUT
  5
22
102
{ACAD_REACTORS
330
1A
102
}
330
1A
100
AcDbPlotSettings
  1

  2
none_device
  4

  6

 40
0.0
 41
0.0
 42
0.0
 43
0.0
 44
0.0
 45
0.0
 46
0.0
 47
0.0
 48
0.0
 49
0.0
140
0.0
141
0.0
142
1.0
143
1.0
 70
  1712
 72
     0
 73
     0
 74
     0
  7

 75
     0
147
1.0
148
0.0
149
0.0
100
AcDbLayout
  1
Model
 70
     1
 71
     0
 10
0.0
 20
0.0
 11
297.0
 21
210.0
 12
0.0
 22
0.0
 32
0.0
 14
0.0
 24
0.0
 34
0.0
 15
297.0
 25
210.0
 35
0.0
146
0.0
 13
0.0
 23
0.0
 33
0.0
 16
1.0
 26
0.0
 36
0.0
 17
0.0
 27
1.0
 37
0.0
 76
     0
330
1F
331
29
  0
MLINESTYLE
  5
18
102
{ACAD_REACTORS
330
17
102
}
330
17
100
AcDbMlineStyle
  2
Standard
 70
     0
  3

 62
   256
 51
90.0
 52
90.0
 71
     2
 49
0.5
 62
   256
  6
BYLAYER
 49
-0.5
 62
   256
  6
BYLAYER
  0
ACDBPLACEHOLDER
  5
F
102
{ACAD_REACTORS
330
E
102
}
330
E
  0
ENDSEC
  0
EOF
