  0
SECTION
  2
HEADER
  9
$ACADVER
  1
AC1015
  9
$ACADMAINTVER
 70
     6
  9
$DWGCODEPAGE
  3
ANSI_1252
  9
$INSBASE
 10
0.0
 20
0.0
 30
0.0
  9
$EXTMIN
 10
0.0
 20
0.0
 30
0.0
  9
$EXTMAX
 10
297.0
 20
210.0
 30
0.0
  9
$LIMMIN
 10
0.0
 20
0.0
  9
$LIMMAX
 10
297.0
 20
210.0
  9
$ORTHOMODE
 70
     0
  9
$REGENMODE
 70
     1
  9
$FILLMODE
 70
     1
  9
$QTEXTMODE
 70
     0
  9
$MIRRTEXT
 70
     1
  9
$LTSCALE
 40
1.0
  9
$ATTMODE
 70
     1
  9
$TEXTSIZE
 40
2.0
  9
$TRACEWID
 40
1.0
  9
$TEXTSTYLE
  7
STANDARD
  9
$CLAYER
  8
0
  9
$CELTYPE
  6
ByLayer
  9
$CECOLOR
 62
   256
  9
$CELTSCALE
 40
1.0
  9
$DISPSILH
 70
     0
  9
$DIMSCALE
 40
1.0
  9
$DIMASZ
 40
3.0
  9
$DIMEXO
 40
0.0
  9
$DIMDLI
 40
3.75
  9
$DIMRND
 40
0.0
  9
$DIMDLE
 40
0.0
  9
$DIMEXE
 40
1.0
  9
$DIMTP
 40
0.0
  9
$DIMTM
 40
0.0
  9
$DIMTXT
 40
2.0
  9
$DIMCEN
 40
2.5
  9
$DIMTSZ
 40
0.0
  9
$DIMTOL
 70
     0
  9
$DIMLIM
 70
     0
  9
$DIMTIH
 70
     1
  9
$DIMTOH
 70
     1
  9
$DIMSE1
 70
     0
  9
$DIMSE2
 70
     0
  9
$DIMTAD
 70
     1
  9
$DIMZIN
 70
     0
  9
$DIMBLK
  1

  9
$DIMASO
 70
     1
  9
$DIMSHO
 70
     1
  9
$DIMPOST
  1

  9
$DIMAPOST
  1

  9
$DIMALT
 70
     0
  9
$DIMALTD
 70
     3
  9
$DIMALTF
 40
0.0393700787
  9
$DIMLFAC
 40
1.0
  9
$DIMTOFL
 70
     1
  9
$DIMTVP
 40
0.0
  9
$DIMTIX
 70
     0
  9
$DIMSOXD
 70
     0
  9
$DIMSAH
 70
     0
  9
$DIMBLK1
  1

  9
$DIMBLK2
  1

  9
$DIMSTYLE
  2
ISO-25
  9
$DIMCLRD
 70
     0
  9
$DIMCLRE
 70
     0
  9
$DIMCLRT
 70
     0
  9
$DIMTFAC
 40
1.0
  9
$DIMGAP
 40
1.524
  9
$DIMJUST
 70
     0
  9
$DIMSD1
 70
     0
  9
$DIMSD2
 70
     0
  9
$DIMTOLJ
 70
     0
  9
$DIMTZIN
 70
     0
  9
$DIMALTZ
 70
     0
  9
$DIMALTTZ
 70
     0
  9
$DIMUPT
 70
     0
  9
$DIMDEC
 70
     2
  9
$DIMTDEC
 70
     3
  9
$DIMALTU
 70
     2
  9
$DIMALTTD
 70
     3
  9
$DIMTXSTY
  7
STANDARD
  9
$DIMAUNIT
 70
     0
  9
$DIMADEC
 70
     2
  9
$DIMALTRND
 40
0.0
  9
$DIMAZIN
 70
     0
  9
$DIMDSEP
 70
    44
  9
$DIMATFIT
 70
     3
  9
$DIMFRAC
 70
     0
  9
$DIMLDRBLK
  1

  9
$DIMLUNIT
 70
     2
  9
$DIMLWD
 70
    -2
  9
$DIMLWE
 70
    -2
  9
$DIMTMOVE
 70
     0
  9
$LUNITS
 70
     2
  9
$LUPREC
 70
     2
  9
$SKETCHINC
 40
1.0
  9
$FILLETRAD
 40
10.0
  9
$AUNITS
 70
     0
  9
$AUPREC
 70
     2
  9
$MENU
  1
.
  9
$ELEVATION
 40
0.0
  9
$PELEVATION
 40
0.0
  9
$THICKNESS
 40
0.0
  9
$LIMCHECK
 70
     0
  9
$CHAMFERA
 40
10.0
  9
$CHAMFERB
 40
10.0
  9
$CHAMFERC
 40
20.0
  9
$CHAMFERD
 40
0.0
  9
$SKPOLY
 70
     0
  9
$TDCREATE
 40
2457035.358728958
  9
$TDUCREATE
 40
2457035.317062292
  9
$TDUPDATE
 40
2457035.358729491
  9
$TDUUPDATE
 40
2457035.317062824
  9
$TDINDWG
 40
0.0000000116
  9
$TDUSRTIMER
 40
0.0000000116
  9
$USRTIMER
 70
     1
  9
$ANGBASE
 50
0.0
  9
$ANGDIR
 70
     0
  9
$PDMODE
 70
     0
  9
$PDSIZE
 40
-1.0
  9
$PLINEWID
 40
0.0
  9
$SPLFRAME
 70
     0
  9
$SPLINETYPE
 70
     6
  9
$SPLINESEGS
 70
     8
  9
$HANDSEED
  5
2C7
  9
$SURFTAB1
 70
     6
  9
$SURFTAB2
 70
     6
  9
$SURFTYPE
 70
     6
  9
$SURFU
 70
     6
  9
$SURFV
 70
     6
  9
$UCSBASE
  2

  9
$UCSNAME
  2

  9
$UCSORG
 10
0.0
 20
0.0
 30
0.0
  9
$UCSXDIR
 10
1.0
 20
0.0
 30
0.0
  9
$UCSYDIR
 10
0.0
 20
1.0
 30
0.0
  9
$UCSORTHOREF
  2

  9
$UCSORTHOVIEW
 70
     0
  9
$UCSORGTOP
 10
0.0
 20
0.0
 30
0.0
  9
$UCSORGBOTTOM
 10
0.0
 20
0.0
 30
0.0
  9
$UCSORGLEFT
 10
0.0
 20
0.0
 30
0.0
  9
$UCSORGRIGHT
 10
0.0
 20
0.0
 30
0.0
  9
$UCSORGFRONT
 10
0.0
 20
0.0
 30
0.0
  9
$UCSORGBACK
 10
0.0
 20
0.0
 30
0.0
  9
$PUCSBASE
  2

  9
$PUCSNAME
  2

  9
$PUCSORG
 10
0.0
 20
0.0
 30
0.0
  9
$PUCSXDIR
 10
1.0
 20
0.0
 30
0.0
  9
$PUCSYDIR
 10
0.0
 20
1.0
 30
0.0
  9
$PUCSORTHOREF
  2

  9
$PUCSORTHOVIEW
 70
     0
  9
$PUCSORGTOP
 10
0.0
 20
0.0
 30
0.0
  9
$PUCSORGBOTTOM
 10
0.0
 20
0.0
 30
0.0
  9
$PUCSORGLEFT
 10
0.0
 20
0.0
 30
0.0
  9
$PUCSORGRIGHT
 10
0.0
 20
0.0
 30
0.0
  9
$PUCSORGFRONT
 10
0.0
 20
0.0
 30
0.0
  9
$PUCSORGBACK
 10
0.0
 20
0.0
 30
0.0
  9
$USERI1
 70
     0
  9
$USERI2
 70
     0
  9
$USERI3
 70
     0
  9
$USERI4
 70
     0
  9
$USERI5
 70
     0
  9
$USERR1
 40
0.0
  9
$USERR2
 40
0.0
  9
$USERR3
 40
0.0
  9
$USERR4
 40
0.0
  9
$USERR5
 40
0.0
  9
$WORLDVIEW
 70
     1
  9
$SHADEDGE
 70
     3
  9
$SHADEDIF
 70
    70
  9
$TILEMODE
 70
     1
  9
$MAXACTVP
 70
    64
  9
$PINSBASE
 10
0.0
 20
0.0
 30
0.0
  9
$PLIMCHECK
 70
     0
  9
$PEXTMIN
 10
1.0000000000E+20
 20
1.0000000000E+20
 30
1.0000000000E+20
  9
$PEXTMAX
 10
-1.0000000000E+20
 20
-1.0000000000E+20
 30
-1.0000000000E+20
  9
$PLIMMIN
 10
0.0
 20
0.0
  9
$PLIMMAX
 10
420.0
 20
297.0
  9
$UNITMODE
 70
     0
  9
$VISRETAIN
 70
     1
  9
$PLINEGEN
 70
     0
  9
$PSLTSCALE
 70
     1
  9
$TREEDEPTH
 70
  3020
  9
$CMLSTYLE
  2
Standard
  9
$CMLJUST
 70
     0
  9
$CMLSCALE
 40
20.0
  9
$PROXYGRAPHICS
 70
     1
  9
$MEASUREMENT
 70
     1
  9
$CELWEIGHT
370
    -1
  9
$ENDCAPS
280
     0
  9
$JOINSTYLE
280
     0
  9
$LWDISPLAY
290
     1
  9
$INSUNITS
 70
     4
  9
$HYPERLINKBASE
  1

  9
$STYLESHEET
  1

  9
$XEDIT
290
     1
  9
$CEPSNTYPE
380
     0
  9
$PSTYLEMODE
290
     1
  9
$FINGERPRINTGUID
  2
{C417A4F0-6276-4BD3-8053-5F870D301E21}
  9
$VERSIONGUID
  2
{FAEB1C32-E019-11D5-929B-00C0DF256EC4}
  9
$EXTNAMES
290
     1
  9
$PSVPSCALE
 40
0.0
  9
$OLESTARTUP
290
     0
  0
ENDSEC
  0
SECTION
  2
CLASSES
  0
CLASS
  1
ACDBDICTIONARYWDFLT
  2
AcDbDictionaryWithDefault
  3
ObjectDBX Classes
 90
        0
280
     0
281
     0
  0
CLASS
  1
VISUALSTYLE
  2
AcDbVisualStyle
  3
ObjectDBX Classes
 90
     4095
280
     0
281
     0
  0
CLASS
  1
MATERIAL
  2
AcDbMaterial
  3
ObjectDBX Classes
 90
     1153
280
     0
281
     0
  0
CLASS
  1
ACDBPLACEHOLDER
  2
AcDbPlaceHolder
  3
ObjectDBX Classes
 90
        0
280
     0
281
     0
  0
CLASS
  1
LAYOUT
  2
AcDbLayout
  3
ObjectDBX Classes
 90
        0
280
     0
281
     0
  0
ENDSEC
  0
SECTION
  2
TABLES
  0
TABLE
  2
VPORT
  5
8
330
0
100
AcDbSymbolTable
 70
     1
  0
VPORT
  5
29
330
8
100
AcDbSymbolTableRecord
100
AcDbViewportTableRecord
  2
*Active
 70
     0
 10
0.0
 20
0.0
 11
1.0
 21
1.0
 12
148.5
 22
105.0
 13
0.0
 23
0.0
 14
10.0
 24
10.0
 15
10.0
 25
10.0
 16
0.0
 26
0.0
 36
1.0
 17
0.0
 27
0.0
 37
0.0
 40
210.0
 41
1.4142857143
 42
50.0
 43
0.0
 44
0.0
 50
0.0
 51
0.0
 71
     0
 72
  2000
 73
     1
 74
     3
 75
     0
 76
     0
 77
     0
 78
     0
281
     0
 65
     1
110
0.0
120
0.0
130
0.0
111
1.0
121
0.0
131
0.0
112
0.0
122
1.0
132
0.0
 79
     0
146
0.0
  0
ENDTAB
  0
TABLE
  2
LTYPE
  5
5
330
0
100
AcDbSymbolTable
 70
     8
  0
LTYPE
  5
14
330
5
100
AcDbSymbolTableRecord
100
AcDbLinetypeTableRecord
  2
ByBlock
 70
     0
  3

 72
    65
 73
     0
 40
0.0
  0
LTYPE
  5
15
330
5
100
AcDbSymbolTableRecord
100
AcDbLinetypeTableRecord
  2
ByLayer
 70
     0
  3

 72
    65
 73
     0
 40
0.0
  0
LTYPE
  5
16
330
5
100
AcDbSymbolTableRecord
100
AcDbLinetypeTableRecord
  2
Continuous
 70
     0
  3
Solid line
 72
    65
 73
     0
 40
0.0
  0
LTYPE
  5
3F
330
5
100
AcDbSymbolTableRecord
100
AcDbLinetypeTableRecord
  2
SLD-Durchgehend
 70
     0
  3
SolidWorks Line Style
 72
    65
 73
     0
 40
0.0
  0
LTYPE
  5
40
330
5
100
AcDbSymbolTableRecord
100
AcDbLinetypeTableRecord
  2
SLD-Gestrichelt
 70
     0
  3
SolidWorks Line Style
 72
    65
 73
     2
 40
1.905
 49
1.27
 74
     0
 49
-0.635
 74
     0
  0
LTYPE
  5
41
330
5
100
AcDbSymbolTableRecord
100
AcDbLinetypeTableRecord
  2
SLD-Phantom
 70
     0
  3
SolidWorks Line Style
 72
    65
 73
     6
 40
12.7
 49
6.35
 74
     0
 49
-1.27
 74
     0
 49
1.27
 74
     0
 49
-1.27
 74
     0
 49
1.27
 74
     0
 49
-1.27
 74
     0
  0
LTYPE
  5
42
330
5
100
AcDbSymbolTableRecord
100
AcDbLinetypeTableRecord
  2
SLD-Kette
 70
     0
  3
SolidWorks Line Style
 72
    65
 73
     4
 40
10.16
 49
6.35
 74
     0
 49
-1.27
 74
     0
 49
1.27
 74
     0
 49
-1.27
 74
     0
  0
LTYPE
  5
43
330
5
100
AcDbSymbolTableRecord
100
AcDbLinetypeTableRecord
  2
SLD-Punktstrich
 70
     0
  3
SolidWorks Line Style
 72
    65
 73
     4
 40
19.05
 49
15.24
 74
     0
 49
-1.27
 74
     0
 49
1.27
 74
     0
 49
-1.27
 74
     0
  0
LTYPE
  5
44
330
5
100
AcDbSymbolTableRecord
100
AcDbLinetypeTableRecord
  2
SLD-Naht
 70
     0
  3
SolidWorks Line Style
 72
    65
 73
     2
 40
0.635
 49
0.0
 74
     0
 49
-0.635
 74
     0
  0
LTYPE
  5
45
330
5
100
AcDbSymbolTableRecord
100
AcDbLinetypeTableRecord
  2
SLD-Dicke-Dünne-Kette
 70
     0
  3
SolidWorks Line Style
 72
    65
 73
     4
 40
10.16
 49
6.35
 74
     0
 49
-1.27
 74
     0
 49
1.27
 74
     0
 49
-1.27
 74
     0
  0
ENDTAB
  0
TABLE
  2
LAYER
  5
2
330
0
100
AcDbSymbolTable
 70
     5
  0
LAYER
  5
10
330
2
100
AcDbSymbolTableRecord
100
AcDbLayerTableRecord
  2
0
 70
     0
 62
     7
  6
Continuous
370
    -3
390
F
  0
LAYER
  5
46
330
2
100
AcDbSymbolTableRecord
100
AcDbLayerTableRecord
  2
FORMAT
 70
     0
 62
     7
  6
SLD-Durchgehend
370
    -3
390
F
  0
LAYER
  5
47
330
2
100
AcDbSymbolTableRecord
100
AcDbLayerTableRecord
  2
VERMASSUNG
 70
     0
 62
     7
  6
SLD-Durchgehend
370
    -3
390
F
  0
LAYER
  5
48
330
2
100
AcDbSymbolTableRecord
100
AcDbLayerTableRecord
  2
KOPF_DÜNN
 70
     0
 62
     7
  6
SLD-Durchgehend
370
    -3
390
F
  0
LAYER
  5
49
330
2
100
AcDbSymbolTableRecord
100
AcDbLayerTableRecord
  2
KOPF_DICK
 70
     0
 62
     7
  6
SLD-Durchgehend
370
    15
390
F
  0
ENDTAB
  0
TABLE
  2
STYLE
  5
3
330
0
100
AcDbSymbolTable
 70
     2
  0
STYLE
  5
11
330
3
100
AcDbSymbolTableRecord
100
AcDbTextStyleTableRecord
  2
STANDARD
 70
     0
 40
0.0
 41
1.0
 50
0.0
 71
     0
 42
2.0
  3
ISOCPEUR.TTF
  4

1001
ACAD
1000
ISOCPEUR
1071
       34
  0
STYLE
  5
4A
330
3
100
AcDbSymbolTableRecord
100
AcDbTextStyleTableRecord
  2
SLDTEXTSTYLE0
 70
     0
 40
0.0
 41
1.0
 50
0.0
 71
     0
 42
0.2
  3
ISOCPEUR.TTF
  4

1001
ACAD
1000
ISOCPEUR
1071
      290
  0
ENDTAB
  0
TABLE
  2
VIEW
  5
6
330
0
100
AcDbSymbolTable
 70
     0
  0
ENDTAB
  0
TABLE
  2
UCS
  5
7
330
0
100
AcDbSymbolTable
 70
     0
  0
ENDTAB
  0
TABLE
  2
APPID
  5
9
330
0
100
AcDbSymbolTable
 70
     1
  0
APPID
  5
12
330
9
100
AcDbSymbolTableRecord
100
AcDbRegAppTableRecord
  2
ACAD
 70
     0
  0
ENDTAB
  0
TABLE
  2
DIMSTYLE
  5
A
330
0
100
AcDbSymbolTable
 70
     2
100
AcDbDimStyleTable
  0
DIMSTYLE
105
27
330
A
100
AcDbSymbolTableRecord
100
AcDbDimStyleTableRecord
  2
ISO-25
 70
     0
 41
2.5
 42
0.625
 43
3.75
 44
1.25
 73
     0
 74
     0
 77
     1
 78
     8
140
2.5
141
2.5
143
0.0393700787
147
0.625
171
     3
172
     1
178
     0
271
     2
272
     2
274
     3
278
    44
283
     0
284
     8
340
11
  0
DIMSTYLE
105
188
102
{ACAD_REACTORS
330
187
330
2B2
330
2BC
102
}
330
A
100
AcDbSymbolTableRecord
100
AcDbDimStyleTableRecord
  2
SLDDIMSTYLE0
 70
     0
 41
3.0
 44
0.0
 45
0.000000001
 73
     0
 74
     0
 77
     1
 78
    12
 79
     3
140
2.0
147
0.5
173
     1
178
     0
271
     2
272
     3
276
     2
284
    12
340
4A
  0
ENDTAB
  0
TABLE
  2
BLOCK_RECORD
  5
1
330
0
100
AcDbSymbolTable
 70
     4
  0
BLOCK_RECORD
  5
1F
330
1
100
AcDbSymbolTableRecord
100
AcDbBlockTableRecord
  2
*Model_Space
340
22
  0
BLOCK_RECORD
  5
1B
330
1
100
AcDbSymbolTableRecord
100
AcDbBlockTableRecord
  2
*Paper_Space
340
1E
  0
BLOCK_RECORD
  5
23
330
1
100
AcDbSymbolTableRecord
100
AcDbBlockTableRecord
  2
*Paper_Space0
340
26
  0
BLOCK_RECORD
  5
189
330
1
100
AcDbSymbolTableRecord
100
AcDbBlockTableRecord
  2
_D
340
0
  0
BLOCK_RECORD
  5
2B3
330
1
100
AcDbSymbolTableRecord
100
AcDbBlockTableRecord
  2
_D_1
340
0
  0
BLOCK_RECORD
  5
2BD
330
1
100
AcDbSymbolTableRecord
100
AcDbBlockTableRecord
  2
_D_2
340
0
  0
ENDTAB
  0
ENDSEC
  0
SECTION
  2
BLOCKS
  0
BLOCK
  5
20
330
1F
100
AcDbEntity
  8
0
100
AcDbBlockBegin
  2
*Model_Space
 70
     0
 10
0.0
 20
0.0
 30
0.0
  3
*Model_Space
  1

  0
ENDBLK
  5
21
330
1F
100
AcDbEntity
  8
0
100
AcDbBlockEnd
  0
BLOCK
  5
1C
330
1B
100
AcDbEntity
 67
     1
  8
0
100
AcDbBlockBegin
  2
*Paper_Space
 70
     0
 10
0.0
 20
0.0
 30
0.0
  3
*Paper_Space
  1

  0
ENDBLK
  5
1D
330
1B
100
AcDbEntity
 67
     1
  8
0
100
AcDbBlockEnd
  0
BLOCK
  5
24
330
23
100
AcDbEntity
  8
0
100
AcDbBlockBegin
  2
*Paper_Space0
 70
     0
 10
0.0
 20
0.0
 30
0.0
  3
*Paper_Space0
  1

  0
ENDBLK
  5
25
330
23
100
AcDbEntity
  8
0
100
AcDbBlockEnd
  0
BLOCK
  5
18A
330
189
100
AcDbEntity
  8
0
100
AcDbBlockBegin
  2
_D
 70
     0
 10
0.0
 20
0.0
 30
0.0
  3
_D
  1

  0
SOLID
  5
18C
330
189
100
AcDbEntity
  8
VERMASSUNG
100
AcDbTrace
 10
95.2084273358
 20
98.9413540852
 30
0.0
 11
94.7584273358
 21
95.9413540852
 31
0.0
 12
95.6584273358
 22
95.9413540852
 32
0.0
 13
95.6584273358
 23
95.9413540852
 33
0.0
  0
SOLID
  5
18D
330
189
100
AcDbEntity
  8
VERMASSUNG
100
AcDbTrace
 10
95.2084273358
 20
35.9413540852
 30
0.0
 11
95.6584273358
 21
38.9413540852
 31
0.0
 12
94.7584273358
 22
38.9413540852
 32
0.0
 13
94.7584273358
 23
38.9413540852
 33
0.0
  0
LINE
  5
18E
330
189
100
AcDbEntity
  8
VERMASSUNG
100
AcDbLine
 10
141.7588591179
 20
98.9413540852
 30
0.0
 11
94.2084273358
 21
98.9413540852
 31
0.0
  0
LINE
  5
18F
330
189
100
AcDbEntity
  8
VERMASSUNG
100
AcDbLine
 10
141.7588591179
 20
35.9413540852
 30
0.0
 11
94.2084273358
 21
35.9413540852
 31
0.0
  0
LINE
  5
190
330
189
100
AcDbEntity
  8
VERMASSUNG
100
AcDbLine
 10
95.2084273358
 20
98.9413540852
 30
0.0
 11
95.2084273358
 21
35.9413540852
 31
0.0
  0
MTEXT
  5
191
330
189
100
AcDbEntity
  8
VERMASSUNG
100
AcDbMText
 10
92.4084273263
 20
61.0363539759
 30
0.1
 40
2.0
 41
0.0
 71
     1
 72
     1
  1
PSC
  7
SLDTEXTSTYLE0
 11
-7.044195017643634E-15
 21
1.0
 31
0.0
 73
     1
 44
1.0
  0
MTEXT
  5
192
330
189
100
AcDbEntity
  8
VERMASSUNG
100
AcDbMText
 10
92.6084273358
 20
65.636354078
 30
0.1
 40
2.0
 41
0.0
 71
     1
 72
     1
  1
%%c
  7
SLDTEXTSTYLE0
 11
-7.044195017643634E-15
 21
1.0
 31
0.0
 73
     1
 44
1.0
  0
MTEXT
  5
193
330
189
100
AcDbEntity
  8
VERMASSUNG
100
AcDbMText
 10
92.4084273263
 20
69.246354558
 30
0.1
 40
2.0
 41
0.0
 71
     1
 72
     1
  1
63
  7
SLDTEXTSTYLE0
 11
-7.044195017643634E-15
 21
1.0
 31
0.0
 73
     1
 44
1.0
  0
ENDBLK
  5
18B
330
189
100
AcDbEntity
  8
0
100
AcDbBlockEnd
  0
BLOCK
  5
2B4
330
2B3
100
AcDbEntity
  8
0
100
AcDbBlockBegin
  2
_D_1
 70
     0
 10
0.0
 20
0.0
 30
0.0
  3
_D_1
  1

  0
SOLID
  5
2B6
330
2B3
100
AcDbEntity
  8
VERMASSUNG
100
AcDbTrace
 10
141.2588591179
 20
191.6252912655
 30
0.0
 11
144.2588591179
 21
191.1752912655
 31
0.0
 12
144.2588591179
 22
192.0752912655
 32
0.0
 13
144.2588591179
 23
192.0752912655
 33
0.0
  0
SOLID
  5
2B7
330
2B3
100
AcDbEntity
  8
VERMASSUNG
100
AcDbTrace
 10
241.2588591179
 20
191.6252912655
 30
0.0
 11
238.2588591179
 21
192.0752912655
 31
0.0
 12
238.2588591179
 22
191.1752912655
 32
0.0
 13
238.2588591179
 23
191.1752912655
 33
0.0
  0
LINE
  5
2B8
330
2B3
100
AcDbEntity
  8
VERMASSUNG
100
AcDbLine
 10
141.2588591179
 20
181.1252912655
 30
0.0
 11
141.2588591179
 21
192.6252912655
 31
0.0
  0
LINE
  5
2B9
330
2B3
100
AcDbEntity
  8
VERMASSUNG
100
AcDbLine
 10
241.2588591179
 20
177.608088122
 30
0.0
 11
241.2588591179
 21
192.6252912655
 31
0.0
  0
LINE
  5
2BA
330
2B3
100
AcDbEntity
  8
VERMASSUNG
100
AcDbLine
 10
141.2588591179
 20
191.6252912655
 30
0.0
 11
241.2588591179
 21
191.6252912655
 31
0.0
  0
MTEXT
  5
2BB
330
2B3
100
AcDbEntity
  8
VERMASSUNG
100
AcDbMText
 10
188.4588589849
 20
194.2252911491
 30
0.1
 40
2.0
 41
0.0
 71
     1
 72
     1
  1
100
  7
SLDTEXTSTYLE0
 73
     1
 44
1.0
  0
ENDBLK
  5
2B5
330
2B3
100
AcDbEntity
  8
0
100
AcDbBlockEnd
  0
BLOCK
  5
2BE
330
2BD
100
AcDbEntity
  8
0
100
AcDbBlockBegin
  2
_D_2
 70
     0
 10
0.0
 20
0.0
 30
0.0
  3
_D_2
  1

  0
SOLID
  5
2C0
330
2BD
100
AcDbEntity
  8
VERMASSUNG
100
AcDbTrace
 10
103.2588591179
 20
197.6252912655
 30
0.0
 11
106.2588591179
 21
197.1752912655
 31
0.0
 12
106.2588591179
 22
198.0752912655
 32
0.0
 13
106.2588591179
 23
198.0752912655
 33
0.0
  0
SOLID
  5
2C1
330
2BD
100
AcDbEntity
  8
VERMASSUNG
100
AcDbTrace
 10
241.2588591179
 20
197.6252912655
 30
0.0
 11
238.2588591179
 21
198.0752912655
 31
0.0
 12
238.2588591179
 22
197.1752912655
 32
0.0
 13
238.2588591179
 23
197.1752912655
 33
0.0
  0
LINE
  5
2C2
330
2BD
100
AcDbEntity
  8
VERMASSUNG
100
AcDbLine
 10
103.2588591179
 20
170.3114070345
 30
0.0
 11
103.2588591179
 21
198.6252912655
 31
0.0
  0
LINE
  5
2C3
330
2BD
100
AcDbEntity
  8
VERMASSUNG
100
AcDbLine
 10
241.2588591179
 20
177.608088122
 30
0.0
 11
241.2588591179
 21
198.6252912655
 31
0.0
  0
LINE
  5
2C4
330
2BD
100
AcDbEntity
  8
VERMASSUNG
100
AcDbLine
 10
103.2588591179
 20
197.6252912655
 30
0.0
 11
241.2588591179
 21
197.6252912655
 31
0.0
  0
MTEXT
  5
2C5
330
2BD
100
AcDbEntity
  8
VERMASSUNG
100
AcDbMText
 10
169.4588589849
 20
200.2252911491
 30
0.1
 40
2.0
 41
0.0
 71
     1
 72
     1
  1
138
  7
SLDTEXTSTYLE0
 73
     1
 44
1.0
  0
ENDBLK
  5
2BF
330
2BD
100
AcDbEntity
  8
0
100
AcDbBlockEnd
  0
ENDSEC
  0
SECTION
  2
ENTITIES
  0
MTEXT
  5
4B
330
1F
100
AcDbEntity
  8
KOPF_DÜNN
100
AcDbMText
 10
13.8892156294
 20
23.8770940835
 30
0.0
 40
3.0
 41
0.0
 71
     1
 72
     1
  1
PS6.KVF.NVA.100
  7
SLDTEXTSTYLE0
 73
     1
 44
1.0
  0
MTEXT
  5
4C
330
1F
100
AcDbEntity
  8
VERMASSUNG
100
AcDbMText
 10
13.9329988022
 20
28.9162328764
 30
0.0
 40
3.0
 41
0.0
 71
     1
 72
     1
  1
Klemmhalter_Turning tool neutral
  7
SLDTEXTSTYLE0
 73
     1
 44
1.0
  0
MTEXT
  5
4D
330
1F
100
AcDbEntity
  8
VERMASSUNG
100
AcDbMText
 10
98.8601118557
 20
13.8584013384
 30
0.0
 40
2.0
 41
0.0
 71
     1
 72
     1
  1
Datum: 31.05.2012
  7
SLDTEXTSTYLE0
 73
     1
 44
1.0
  0
MTEXT
  5
4E
330
1F
100
AcDbEntity
  8
VERMASSUNG
100
AcDbMText
 10
13.933048693
 20
18.0701447943
 30
0.0
 40
2.0
 41
0.0
 71
     1
 72
     1
  1
PSC ø63 / VB.. 16 04 .. / 72.5° / 35° / 72.5° 
  7
SLDTEXTSTYLE0
 73
     1
 44
1.0
  0
MTEXT
  5
4F
330
1F
100
AcDbEntity
  8
VERMASSUNG
100
AcDbMText
 10
13.9808475933
 20
13.9309618897
 30
0.0
 40
2.0
 41
0.0
 71
     1
 72
     1
  1
Gewicht: 1527g
  7
SLDTEXTSTYLE0
 73
     1
 44
1.0
  0
LINE
  5
50
330
1F
100
AcDbEntity
  8
0
  6
SLD-Durchgehend
 62
     7
370
    15
100
AcDbLine
 10
173.0808252891
 20
98.9413545918
 30
0.0
 11
141.7588591416
 21
98.9413545918
 31
0.0
  0
LINE
  5
51
330
1F
100
AcDbEntity
  8
0
  6
SLD-Durchgehend
 62
     7
370
    15
100
AcDbLine
 10
141.7588591416
 20
35.9413535785
 30
0.0
 11
173.0808252891
 21
35.9413535785
 31
0.0
  0
ARC
  5
52
330
1F
100
AcDbEntity
  8
0
  6
SLD-Durchgehend
 62
     7
370
    15
100
AcDbCircle
 10
141.7588591179
 20
36.4413540852
 30
0.0
 40
0.5000000000000071
100
AcDbArc
 50
180.0
 51
270.0
  0
ARC
  5
53
330
1F
100
AcDbEntity
  8
0
  6
SLD-Durchgehend
 62
     7
370
    15
100
AcDbCircle
 10
141.7588591179
 20
98.4413540852
 30
0.0
 40
0.5
100
AcDbArc
 50
90.0
 51
180.0
  0
LWPOLYLINE
  5
54
330
1F
100
AcDbEntity
  8
0
  6
SLD-Durchgehend
 62
     7
370
    15
100
AcDbPolyline
 90
        3
 70
   128
 43
0.0
 10
141.0588591229
 20
44.9015335631
 10
141.1843140581
 20
44.8332322281
 10
141.2588591179
 20
44.7804932933
  0
LWPOLYLINE
  5
55
330
1F
100
AcDbEntity
  8
0
  6
SLD-Durchgehend
 62
     7
370
    15
100
AcDbPolyline
 90
        3
 70
   128
 43
0.0
 10
141.2588591179
 20
90.102214877
 10
141.1843140581
 20
90.0494759422
 10
141.0588591229
 20
89.9811746072
  0
CIRCLE
  5
56
330
1F
100
AcDbEntity
  8
0
  6
SLD-Durchgehend
 62
     7
370
    15
100
AcDbCircle
 10
178.2588591179
 20
67.4413540852
 30
0.0
 40
2.859999999999994
  0
CIRCLE
  5
57
330
1F
100
AcDbEntity
  8
0
  6
SLD-Durchgehend
 62
     7
370
    15
100
AcDbCircle
 10
178.2588591179
 20
67.4413540852
 30
0.0
 40
2.499999999999986
  0
LWPOLYLINE
  5
58
330
1F
100
AcDbEntity
  8
0
  6
SLD-Durchgehend
 62
     7
370
    15
100
AcDbPolyline
 90
        3
 70
   128
 43
0.0
 10
179.492206355
 20
64.7066049729
 10
178.8018988868
 20
64.4909122944
 10
178.5414042374
 20
64.4546892014
  0
ARC
  5
59
330
1F
100
AcDbEntity
  8
0
  6
SLD-Durchgehend
 62
     7
370
    15
100
AcDbCircle
 10
178.2588591179
 20
67.4413540852
 30
0.0
 40
2.999999999999999
100
AcDbArc
 50
179.728680417
 51
198.2687368772
  0
LINE
  5
5A
330
1F
100
AcDbEntity
  8
0
  6
SLD-Durchgehend
 62
     7
370
    15
100
AcDbLine
 10
179.9957687458
 20
64.9953077533
 30
0.0
 11
179.492206355
 21
64.7066049729
 31
0.0
  0
ARC
  5
5B
330
1F
100
AcDbEntity
  8
0
  6
SLD-Durchgehend
 62
     7
370
    15
100
AcDbCircle
 10
226.251323822
 20
67.4413540852
 30
0.0
 40
1.674999999999992
100
AcDbArc
 50
351.6787537241
 51
50.2786868513
  0
ARC
  5
5C
330
1F
100
AcDbEntity
  8
0
  6
SLD-Durchgehend
 62
     7
370
    15
100
AcDbCircle
 10
226.251323822
 20
67.4413540852
 30
0.0
 40
1.674999999999992
100
AcDbArc
 50
50.2786868513
 51
110.3855285861
  0
ARC
  5
5D
330
1F
100
AcDbEntity
  8
0
  6
SLD-Durchgehend
 62
     7
370
    15
100
AcDbCircle
 10
226.251323822
 20
67.4413540852
 30
0.0
 40
1.675000000000004
100
AcDbArc
 50
110.3855285861
 51
168.9854617133
  0
LINE
  5
5E
330
1F
100
AcDbEntity
  8
0
  6
SLD-Durchgehend
 62
     7
370
    15
100
AcDbLine
 10
224.5930666527
 20
67.6775925109
 30
0.0
 11
224.6071780523
 21
67.7613763415
 31
0.0
  0
ARC
  5
5F
330
1F
100
AcDbEntity
  8
0
  6
SLD-Durchgehend
 62
     7
370
    15
100
AcDbCircle
 10
226.251323822
 20
67.4413540852
 30
0.0
 40
1.675000000000011
100
AcDbArc
 50
171.8920924852
 51
228.3358106515
  0
LINE
  5
60
330
1F
100
AcDbEntity
  8
0
  6
SLD-Durchgehend
 62
     7
370
    15
100
AcDbLine
 10
225.2301359972
 20
66.1136466529
 30
0.0
 11
225.1378456553
 21
66.1900389692
 31
0.0
  0
ARC
  5
61
330
1F
100
AcDbEntity
  8
0
  6
SLD-Durchgehend
 62
     7
370
    15
100
AcDbCircle
 10
226.251323822
 20
67.4413540852
 30
0.0
 40
1.675000000000018
100
AcDbArc
 50
232.4349025517
 51
288.2293128857
  0
LINE
  5
62
330
1F
100
AcDbEntity
  8
0
  6
SLD-Durchgehend
 62
     7
370
    15
100
AcDbLine
 10
226.8876815638
 20
65.8919431022
 30
0.0
 11
226.775297006
 21
65.8504188046
 31
0.0
  0
ARC
  5
63
330
1F
100
AcDbEntity
  8
0
  6
SLD-Durchgehend
 62
     7
370
    15
100
AcDbCircle
 10
226.251323822
 20
67.4413540852
 30
0.0
 40
1.675000000000013
100
AcDbArc
 50
292.328404786
 51
348.7721229523
  0
LINE
  5
64
330
1F
100
AcDbEntity
  8
0
  6
SLD-Durchgehend
 62
     7
370
    15
100
AcDbLine
 10
227.908686777
 20
67.1989428534
 30
0.0
 11
227.894262453
 21
67.1152121373
 31
0.0
  0
CIRCLE
  5
65
330
1F
100
AcDbEntity
  8
0
  6
SLD-Durchgehend
 62
     7
370
    15
100
AcDbCircle
 10
226.251323822
 20
67.4413540852
 30
0.0
 40
1.799999999999978
  0
ARC
  5
66
330
1F
100
AcDbEntity
  8
0
  6
SLD-Durchgehend
 62
     7
370
    15
100
AcDbCircle
 10
225.3941513064
 20
66.4057638548
 30
0.0
 40
0.33501265839935
100
AcDbArc
 50
240.6870569556
 51
307.0875541
  0
ARC
  5
67
330
1F
100
AcDbEntity
  8
0
  6
SLD-Durchgehend
 62
     7
370
    15
100
AcDbCircle
 10
225.9497099341
 20
65.6708722991
 30
0.0
 40
0.5862424569120083
100
AcDbArc
 50
33.5753366536
 51
127.0887555691
  0
ARC
  5
68
330
1F
100
AcDbEntity
  8
0
  6
SLD-Durchgehend
 62
     7
370
    15
100
AcDbCircle
 10
226.7172515903
 20
66.1803539984
 30
0.0
 40
0.3350022423405543
100
AcDbArc
 50
213.5759555574
 51
279.9779250718
  0
ARC
  5
69
330
1F
100
AcDbEntity
  8
0
  6
SLD-Durchgehend
 62
     7
370
    15
100
AcDbCircle
 10
227.6314600844
 20
66.2940385128
 30
0.0
 40
0.5862468704795207
100
AcDbArc
 50
93.5756376225
 51
187.0888006624
  0
ARC
  5
6A
330
1F
100
AcDbEntity
  8
0
  6
SLD-Durchgehend
 62
     7
370
    15
100
AcDbCircle
 10
227.5740036559
 20
67.21349109
 30
0.0
 40
0.3349991785860599
100
AcDbArc
 50
273.5759563534
 51
342.9401352566
  0
ARC
  5
6B
330
1F
100
AcDbEntity
  8
0
  6
SLD-Durchgehend
 62
     7
370
    15
100
AcDbCircle
 10
226.7172561148
 20
66.1803514642
 30
0.0
 40
0.3349988312606391
100
AcDbArc
 50
300.5795693521
 51
7.0885270272
  0
ARC
  5
6C
330
1F
100
AcDbEntity
  8
0
  6
SLD-Durchgehend
 62
     7
370
    15
100
AcDbCircle
 10
224.9277982547
 20
67.6642871199
 30
0.0
 40
0.3349959384775015
100
AcDbArc
 50
177.7237236766
 51
247.0889732348
  0
ARC
  5
6D
330
1F
100
AcDbEntity
  8
0
  6
SLD-Durchgehend
 62
     7
370
    15
100
AcDbCircle
 10
224.5691515773
 20
66.8157176729
 30
0.0
 40
0.5862518814559746
100
AcDbArc
 50
333.5760885712
 51
67.0885732617
  0
ARC
  5
6E
330
1F
100
AcDbEntity
  8
0
  6
SLD-Durchgehend
 62
     7
370
    15
100
AcDbCircle
 10
225.394145705
 20
66.4057474446
 30
0.0
 40
0.3349923310031128
100
AcDbArc
 50
153.5745018349
 51
220.0847967613
  0
ARC
  5
6F
330
1F
100
AcDbEntity
  8
0
  6
SLD-Durchgehend
 62
     7
370
    15
100
AcDbCircle
 10
227.9326611343
 20
68.0620617279
 30
0.0
 40
0.586252592646522
100
AcDbArc
 50
153.5758778013
 51
247.0878463606
  0
ARC
  5
70
330
1F
100
AcDbEntity
  8
0
  6
SLD-Durchgehend
 62
     7
370
    15
100
AcDbCircle
 10
227.1076585888
 20
68.4720298316
 30
0.0
 40
0.3349982125608118
100
AcDbArc
 50
333.5758367967
 51
50.2793630577
  0
ARC
  5
71
330
1F
100
AcDbEntity
  8
0
  6
SLD-Durchgehend
 62
     7
370
    15
100
AcDbCircle
 10
227.5740144818
 20
67.2134993445
 30
0.0
 40
0.3349887112264631
100
AcDbArc
 50
357.5095035373
 51
67.0897789425
  0
ARC
  5
72
330
1F
100
AcDbEntity
  8
0
  6
SLD-Durchgehend
 62
     7
370
    15
100
AcDbCircle
 10
225.7844995388
 20
68.6974656783
 30
0.0
 40
0.3349462791045511
100
AcDbArc
 50
110.3783874637
 51
187.0957733594
  0
ARC
  5
73
330
1F
100
AcDbEntity
  8
0
  6
SLD-Durchgehend
 62
     7
370
    15
100
AcDbCircle
 10
224.8703415226
 20
68.5837530201
 30
0.0
 40
0.5862569836190105
100
AcDbArc
 50
273.5759652768
 51
7.0876985652
  0
ARC
  5
74
330
1F
100
AcDbEntity
  8
0
  6
SLD-Durchgehend
 62
     7
370
    15
100
AcDbCircle
 10
224.9278001687
 20
67.6642909492
 30
0.0
 40
0.3349986789776295
100
AcDbArc
 50
93.5756602349
 51
163.1535213804
  0
ARC
  5
75
330
1F
100
AcDbEntity
  8
0
  6
SLD-Durchgehend
 62
     7
370
    15
100
AcDbCircle
 10
227.1076580872
 20
68.4721097296
 30
0.0
 40
0.3349370819477747
100
AcDbArc
 50
50.2705627806
 51
127.0965471848
  0
ARC
  5
76
330
1F
100
AcDbEntity
  8
0
  6
SLD-Durchgehend
 62
     7
370
    15
100
AcDbCircle
 10
226.5521008269
 20
69.2069210549
 30
0.0
 40
0.5862532117976108
100
AcDbArc
 50
213.5760052248
 51
307.0882394736
  0
ARC
  5
77
330
1F
100
AcDbEntity
  8
0
  6
SLD-Durchgehend
 62
     7
370
    15
100
AcDbCircle
 10
225.7845581559
 20
68.6974368476
 30
0.0
 40
0.3349937200211492
100
AcDbArc
 50
33.57504696
 51
110.3860684977
  0
CIRCLE
  5
78
330
1F
100
AcDbEntity
  8
0
  6
SLD-Durchgehend
 62
     7
370
    15
100
AcDbCircle
 10
226.251323822
 20
67.4413540852
 30
0.0
 40
2.624999999999981
  0
LINE
  5
79
330
1F
100
AcDbEntity
  8
0
  6
SLD-Durchgehend
 62
     7
370
    15
100
AcDbLine
 10
240.9954676827
 20
67.817694087
 30
0.0
 11
226.4711494049
 21
72.3971934509
 31
0.0
  0
LINE
  5
7A
330
1F
100
AcDbEntity
  8
0
  6
SLD-Durchgehend
 62
     7
370
    15
100
AcDbLine
 10
226.4711494049
 20
62.4855147194
 30
0.0
 11
240.9954676827
 21
67.0650140833
 31
0.0
  0
LINE
  5
7B
330
1F
100
AcDbEntity
  8
0
  6
SLD-Durchgehend
 62
     7
370
    15
100
AcDbLine
 10
211.7071832022
 20
67.0650140833
 30
0.0
 11
226.23150148
 21
62.4855147194
 31
0.0
  0
LINE
  5
7C
330
1F
100
AcDbEntity
  8
0
  6
SLD-Durchgehend
 62
     7
370
    15
100
AcDbLine
 10
226.23150148
 20
72.3971934509
 30
0.0
 11
211.7071832022
 21
67.817694087
 31
0.0
  0
LINE
  5
7D
330
1F
100
AcDbEntity
  8
0
  6
SLD-Durchgehend
 62
     7
370
    15
100
AcDbLine
 10
226.4655912718
 20
62.5047334921
 30
0.0
 11
240.9731308421
 21
67.0789416341
 31
0.0
  0
ARC
  5
7E
330
1F
100
AcDbEntity
  8
0
  6
SLD-Durchgehend
 62
     7
370
    15
100
AcDbCircle
 10
240.8588591179
 20
67.4413540852
 30
0.0
 40
0.3800000000000106
100
AcDbArc
 50
287.5
 51
72.5
  0
LINE
  5
7F
330
1F
100
AcDbEntity
  8
0
  6
SLD-Durchgehend
 62
     7
370
    15
100
AcDbLine
 10
240.9731308421
 20
67.8037665362
 30
0.0
 11
226.4655912718
 21
72.3779746782
 31
0.0
  0
ARC
  5
80
330
1F
100
AcDbEntity
  8
0
  6
SLD-Durchgehend
 62
     7
370
    15
100
AcDbCircle
 10
226.351323822
 20
72.0155623936
 30
0.0
 40
0.3799999999999971
100
AcDbArc
 50
72.5
 51
107.5
  0
LINE
  5
81
330
1F
100
AcDbEntity
  8
0
  6
SLD-Durchgehend
 62
     7
370
    15
100
AcDbLine
 10
226.2370521625
 20
72.3779746782
 30
0.0
 11
211.7295200428
 21
67.8037665362
 31
0.0
  0
ARC
  5
82
330
1F
100
AcDbEntity
  8
0
  6
SLD-Durchgehend
 62
     7
370
    15
100
AcDbCircle
 10
211.843788526
 20
67.4413540852
 30
0.0
 40
0.3800000000000021
100
AcDbArc
 50
107.5
 51
252.5
  0
LINE
  5
83
330
1F
100
AcDbEntity
  8
0
  6
SLD-Durchgehend
 62
     7
370
    15
100
AcDbLine
 10
211.7295200428
 20
67.0789416341
 30
0.0
 11
226.2370521625
 21
62.5047334921
 31
0.0
  0
ARC
  5
84
330
1F
100
AcDbEntity
  8
0
  6
SLD-Durchgehend
 62
     7
370
    15
100
AcDbCircle
 10
226.351323822
 20
62.8671457767
 30
0.0
 40
0.3799999999999971
100
AcDbArc
 50
252.5
 51
287.5
  0
ARC
  5
85
330
1F
100
AcDbEntity
  8
0
  6
SLD-Durchgehend
 62
     7
370
    15
100
AcDbCircle
 10
226.3513254425
 20
62.8654704037
 30
0.0
 40
0.3984019377406243
100
AcDbArc
 50
252.4966539836
 51
287.5033460164
  0
ARC
  5
86
330
1F
100
AcDbEntity
  8
0
  6
SLD-Durchgehend
 62
     7
370
    15
100
AcDbCircle
 10
226.3513254425
 20
72.0172377666
 30
0.0
 40
0.3984019377406176
100
AcDbArc
 50
72.4966539836
 51
107.5033460164
  0
ARC
  5
87
330
1F
100
AcDbEntity
  8
0
  6
SLD-Durchgehend
 62
     7
370
    15
100
AcDbCircle
 10
240.8814530637
 20
67.4413540852
 30
0.0
 40
0.3932316497068601
100
AcDbArc
 50
286.8545214491
 51
73.1454785509
  0
ARC
  5
88
330
1F
100
AcDbEntity
  8
0
  6
SLD-Durchgehend
 62
     7
370
    15
100
AcDbCircle
 10
211.8211901581
 20
67.4413540852
 30
0.0
 40
0.3932294278987674
100
AcDbArc
 50
106.8534528461
 51
253.1465471539
  0
LINE
  5
89
330
1F
100
AcDbEntity
  8
0
  6
SLD-Durchgehend
 62
     7
370
    15
100
AcDbLine
 10
215.1880572041
 20
67.4413540852
 30
0.0
 11
211.8437895974
 21
67.4413540852
 31
0.0
  0
LINE
  5
8A
330
1F
100
AcDbEntity
  8
0
  6
SLD-Durchgehend
 62
     7
370
    15
100
AcDbLine
 10
226.3513217172
 20
71.8789441031
 30
0.0
 11
226.3513217172
 21
72.0155626055
 31
0.0
  0
LINE
  5
8B
330
1F
100
AcDbEntity
  8
0
  6
SLD-Durchgehend
 62
     7
370
    15
100
AcDbLine
 10
216.3858870467
 20
67.8190277118
 30
0.0
 11
215.1880572041
 21
67.4413540852
 31
0.0
  0
LINE
  5
8C
330
1F
100
AcDbEntity
  8
0
  6
SLD-Durchgehend
 62
     7
370
    15
100
AcDbLine
 10
215.1880572041
 20
67.4413540852
 30
0.0
 11
216.3858870467
 21
67.0636804585
 31
0.0
  0
LINE
  5
8D
330
1F
100
AcDbEntity
  8
0
  6
SLD-Durchgehend
 62
     7
370
    15
100
AcDbLine
 10
226.3513217172
 20
63.0037640672
 30
0.0
 11
226.3513217172
 21
62.8671455648
 31
0.0
  0
ARC
  5
8E
330
1F
100
AcDbEntity
  8
0
  6
SLD-Durchgehend
 62
     7
370
    15
100
AcDbCircle
 10
219.226419668
 20
67.4413540852
 30
0.0
 40
1.000000000000008
100
AcDbArc
 50
107.5
 51
252.5
  0
ARC
  5
8F
330
1F
100
AcDbEntity
  8
0
  6
SLD-Durchgehend
 62
     7
370
    15
100
AcDbCircle
 10
219.226419668
 20
67.4413540852
 30
0.0
 40
2.385640646055124
100
AcDbArc
 50
179.0810823052
 51
180.9189176948
  0
LINE
  5
90
330
1F
100
AcDbEntity
  8
0
  6
SLD-Durchgehend
 62
     7
370
    15
100
AcDbLine
 10
226.0506162843
 20
70.6415446926
 30
0.0
 11
218.9257154664
 21
68.3950710096
 31
0.0
  0
ARC
  5
91
330
1F
100
AcDbEntity
  8
0
  6
SLD-Durchgehend
 62
     7
370
    15
100
AcDbCircle
 10
226.351323822
 20
69.6878277358
 30
0.0
 40
1.000000000000003
100
AcDbArc
 50
72.5
 51
107.5
  0
LINE
  5
92
330
1F
100
AcDbEntity
  8
0
  6
SLD-Durchgehend
 62
     7
370
    15
100
AcDbLine
 10
233.7769354185
 20
68.3950710096
 30
0.0
 11
226.6520271501
 21
70.6415446926
 31
0.0
  0
ARC
  5
93
330
1F
100
AcDbEntity
  8
0
  6
SLD-Durchgehend
 62
     7
370
    15
100
AcDbCircle
 10
233.4762279759
 20
67.4413540852
 30
0.0
 40
1.000000000295352
100
AcDbArc
 50
287.5
 51
72.5
  0
LINE
  5
94
330
1F
100
AcDbEntity
  8
0
  6
SLD-Durchgehend
 62
     7
370
    15
100
AcDbLine
 10
226.6520271501
 20
64.2411634777
 30
0.0
 11
233.7769354185
 21
66.4876371607
 31
0.0
  0
ARC
  5
95
330
1F
100
AcDbEntity
  8
0
  6
SLD-Durchgehend
 62
     7
370
    15
100
AcDbCircle
 10
226.351323822
 20
65.1948804345
 30
0.0
 40
1.000000000000003
100
AcDbArc
 50
252.5
 51
287.5
  0
LINE
  5
96
330
1F
100
AcDbEntity
  8
0
  6
SLD-Durchgehend
 62
     7
370
    15
100
AcDbLine
 10
218.9257154664
 20
66.4876371607
 30
0.0
 11
226.0506162843
 21
64.2411634777
 31
0.0
  0
CIRCLE
  5
97
330
1F
100
AcDbEntity
  8
0
  6
SLD-Durchgehend
 62
     7
370
    15
100
AcDbCircle
 10
226.351323822
 20
67.4413540852
 30
0.0
 40
3.049999999999989
  0
LINE
  5
98
330
1F
100
AcDbEntity
  8
0
  6
SLD-Durchgehend
 62
     7
370
    15
100
AcDbLine
 10
237.5145936808
 20
67.4413540852
 30
0.0
 11
240.8588612875
 21
67.4413540852
 31
0.0
  0
LINE
  5
99
330
1F
100
AcDbEntity
  8
0
  6
SLD-Durchgehend
 62
     7
370
    15
100
AcDbLine
 10
237.5145936808
 20
67.4413540852
 30
0.0
 11
236.3167638382
 21
67.8190277118
 31
0.0
  0
LINE
  5
9A
330
1F
100
AcDbEntity
  8
0
  6
SLD-Durchgehend
 62
     7
370
    15
100
AcDbLine
 10
236.3167638382
 20
67.0636804585
 30
0.0
 11
237.5145936808
 21
67.4413540852
 31
0.0
  0
ARC
  5
9B
330
1F
100
AcDbEntity
  8
0
  6
SLD-Durchgehend
 62
     7
370
    15
100
AcDbCircle
 10
233.4762279759
 20
67.4413540852
 30
0.0
 40
2.385640646055123
100
AcDbArc
 50
359.0810823052
 51
0.9189176948
  0
LWPOLYLINE
  5
9C
330
1F
100
AcDbEntity
  8
0
  6
SLD-Durchgehend
 62
     7
370
    15
100
AcDbPolyline
 90
        8
 70
   128
 43
0.0
 10
236.3167638382
 20
67.8190277118
 10
236.1720363101
 20
67.8485572149
 10
236.0613877377
 20
67.8414165028
 10
235.988155981
 20
67.8116350187
 10
235.9294230541
 20
67.7581688374
 10
235.8870143494
 20
67.676832377
 10
235.8619878491
 20
67.5254538815
 10
235.861563166
 20
67.4796136824
  0
LWPOLYLINE
  5
9D
330
1F
100
AcDbEntity
  8
0
  6
SLD-Durchgehend
 62
     7
370
    15
100
AcDbPolyline
 90
        8
 70
   128
 43
0.0
 10
235.861563166
 20
67.4030944879
 10
235.8730594119
 20
67.2580151018
 10
235.9084943732
 20
67.1567553523
 10
235.9561557373
 20
67.0952999659
 10
236.022227486
 20
67.053727094
 10
236.1137355169
 20
67.0336781637
 10
236.2649674019
 20
67.049233288
 10
236.3167638382
 20
67.0636804585
  0
LWPOLYLINE
  5
9E
330
1F
100
AcDbEntity
  8
0
  6
SLD-Durchgehend
 62
     7
370
    15
100
AcDbPolyline
 90
        8
 70
   128
 43
0.0
 10
216.3858870467
 20
67.0636804585
 10
216.5306145748
 20
67.0341509554
 10
216.6412631473
 20
67.0412916675
 10
216.7144949039
 20
67.0710731516
 10
216.7732278308
 20
67.1245393329
 10
216.8156365355
 20
67.2058757933
 10
216.8406630358
 20
67.3572542888
 10
216.8410877189
 20
67.4030944879
  0
LWPOLYLINE
  5
9F
330
1F
100
AcDbEntity
  8
0
  6
SLD-Durchgehend
 62
     7
370
    15
100
AcDbPolyline
 90
        8
 70
   128
 43
0.0
 10
216.8410877189
 20
67.4796136824
 10
216.829591473
 20
67.6246930685
 10
216.7941565117
 20
67.725952818
 10
216.746487697
 20
67.7874082044
 10
216.6804233989
 20
67.8289810763
 10
216.588915368
 20
67.8490300066
 10
216.437683483
 20
67.8334748823
 10
216.3858870467
 20
67.8190277118
  0
LINE
  5
A0
330
1F
100
AcDbEntity
  8
0
  6
SLD-Durchgehend
 62
     7
370
    15
100
AcDbLine
 10
226.3513217172
 20
71.8789441031
 30
0.0
 11
226.3513217172
 21
71.1804691687
 31
0.0
  0
LINE
  5
A1
330
1F
100
AcDbEntity
  8
0
  6
SLD-Durchgehend
 62
     7
370
    15
100
AcDbLine
 10
226.3513217172
 20
63.0037640672
 30
0.0
 11
226.3513217172
 21
63.7022390016
 31
0.0
  0
LWPOLYLINE
  5
A2
330
1F
100
AcDbEntity
  8
0
  6
SLD-Durchgehend
 62
     7
370
    15
100
AcDbPolyline
 90
        6
 70
   128
 43
0.0
 10
151.3536032712
 20
77.3507231366
 10
151.3990397057
 20
77.2118908804
 10
151.5262658199
 20
76.980397616
 10
151.6069183549
 20
76.8982382011
 10
151.7101470804
 20
76.841519725
 10
151.7866161143
 20
76.8294209134
  0
LINE
  5
A3
330
1F
100
AcDbEntity
  8
0
  6
SLD-Durchgehend
 62
     7
370
    15
100
AcDbLine
 10
151.7866161143
 20
76.8294209134
 30
0.0
 11
154.73110233
 21
76.8294209134
 31
0.0
  0
ARC
  5
A4
330
1F
100
AcDbEntity
  8
0
  6
SLD-Durchgehend
 62
     7
370
    15
100
AcDbCircle
 10
154.5522300198
 20
77.4184881743
 30
0.0
 40
0.6156261375997998
100
AcDbArc
 50
286.8910943418
 51
353.6803618693
  0
ELLIPSE
  5
A5
330
1F
100
AcDbEntity
  8
0
  6
SLD-Durchgehend
 62
     7
370
    15
100
AcDbEllipse
 10
138.9117049285
 20
67.4413540852
 30
0.0
 11
14.75368316065604
 21
31.09325491558116
 31
0.0
210
0.0
220
0.0
230
1.0
 40
0.3419987131
 41
5.19328173740862
 42
6.124043104552324
  0
ARC
  5
A6
330
1F
100
AcDbEntity
  8
0
  6
SLD-Durchgehend
 62
     7
370
    15
100
AcDbCircle
 10
154.7591599372
 20
96.9395285111
 30
0.0
 40
0.5710078407187152
100
AcDbArc
 50
44.8306393001
 51
92.8164763541
  0
LINE
  5
A7
330
1F
100
AcDbEntity
  8
0
  6
SLD-Durchgehend
 62
     7
370
    15
100
AcDbLine
 10
154.73110233
 20
97.509846602
 30
0.0
 11
151.7866161143
 21
97.509846602
 31
0.0
  0
ARC
  5
A8
330
1F
100
AcDbEntity
  8
0
  6
SLD-Durchgehend
 62
     7
370
    15
100
AcDbCircle
 10
151.751273592
 20
96.9583330726
 30
0.0
 40
0.5526447928270523
100
AcDbArc
 50
86.3333406237
 51
136.0195437221
  0
ELLIPSE
  5
A9
330
1F
100
AcDbEntity
  8
0
  6
SLD-Durchgehend
 62
     7
370
    15
100
AcDbEllipse
 10
167.6060133072
 20
67.4413540852
 30
0.0
 11
-14.75368316065607
 21
31.09325491558116
 31
0.0
210
0.0
220
0.0
230
1.0
 40
0.3419987131
 41
0.1591422026273033
 42
1.089903569770979
  0
ARC
  5
AA
330
1F
100
AcDbEntity
  8
0
  6
SLD-Durchgehend
 62
     7
370
    15
100
AcDbCircle
 10
151.7676860713
 20
37.9667406529
 30
0.0
 40
0.5941807079842453
100
AcDbArc
 50
225.8214166368
 51
271.8256990174
  0
LINE
  5
AB
330
1F
100
AcDbEntity
  8
0
  6
SLD-Durchgehend
 62
     7
370
    15
100
AcDbLine
 10
151.7866161143
 20
37.3728615683
 30
0.0
 11
154.73110233
 21
37.3728615683
 31
0.0
  0
ARC
  5
AC
330
1F
100
AcDbEntity
  8
0
  6
SLD-Durchgehend
 62
     7
370
    15
100
AcDbCircle
 10
154.7664448524
 20
37.9243750977
 30
0.0
 40
0.5526447928270556
100
AcDbArc
 50
266.3333406237
 51
316.0195437221
  0
ELLIPSE
  5
AD
330
1F
100
AcDbEntity
  8
0
  6
SLD-Durchgehend
 62
     7
370
    15
100
AcDbEllipse
 10
138.9117049285
 20
67.4413540852
 30
0.0
 11
-14.75368316065618
 21
31.09325491558117
 31
0.0
210
0.0
220
0.0
230
1.0
 40
0.3419987131
 41
3.300734856217122
 42
4.231496223360772
  0
LWPOLYLINE
  5
AE
330
1F
100
AcDbEntity
  8
0
  6
SLD-Durchgehend
 62
     7
370
    15
100
AcDbPolyline
 90
        6
 70
   128
 43
0.0
 10
155.1641151732
 20
57.5319850337
 10
155.0383996641
 20
57.8349293661
 10
154.958774378
 20
57.9401809242
 10
154.8522049984
 20
58.0226504695
 10
154.7710644504
 20
58.0499987569
 10
154.73110233
 20
58.0532872569
  0
LINE
  5
AF
330
1F
100
AcDbEntity
  8
0
  6
SLD-Durchgehend
 62
     7
370
    15
100
AcDbLine
 10
154.73110233
 20
58.0532872569
 30
0.0
 11
151.7866161143
 21
58.0532872569
 31
0.0
  0
ARC
  5
B0
330
1F
100
AcDbEntity
  8
0
  6
SLD-Durchgehend
 62
     7
370
    15
100
AcDbCircle
 10
151.9654884246
 20
57.464219996
 30
0.0
 40
0.6156261375998079
100
AcDbArc
 50
106.8910943418
 51
173.6803618693
  0
ELLIPSE
  5
B1
330
1F
100
AcDbEntity
  8
0
  6
SLD-Durchgehend
 62
     7
370
    15
100
AcDbEllipse
 10
167.6060133072
 20
67.4413540852
 30
0.0
 11
14.75368316065615
 21
31.09325491558116
 31
0.0
210
0.0
220
0.0
230
1.0
 40
0.3419987131
 41
2.051689083818825
 42
2.982450450962495
  0
ELLIPSE
  5
B2
330
1F
100
AcDbEntity
  8
0
  6
SLD-Durchgehend
 62
     7
370
    15
100
AcDbEllipse
 10
227.6404254034
 20
67.4413540852
 30
0.0
 11
54.82028325282457
 21
-31.40962933126426
 31
0.0
210
0.0
220
0.0
230
1.0
 40
0.0434941688
 41
2.40390755285111
 42
3.065826131388411
  0
ELLIPSE
  5
B3
330
1F
100
AcDbEntity
  8
0
  6
SLD-Durchgehend
 62
     7
370
    15
100
AcDbEllipse
 10
193.1784743602
 20
67.4413540852
 30
0.0
 11
0.0
 21
31.49999999999998
 31
0.0
210
0.0
220
0.0
230
1.0
 40
0.2679491924
 41
0.6619185785373034
 42
2.479674075052489
  0
ELLIPSE
  5
B4
330
1F
100
AcDbEntity
  8
0
  6
SLD-Durchgehend
 62
     7
370
    15
100
AcDbEllipse
 10
227.6404254034
 20
67.4413540852
 30
0.0
 11
54.82028325282457
 21
31.40962933126427
 31
0.0
210
0.0
220
0.0
230
1.0
 40
0.0434941688
 41
3.217359175791494
 42
3.879277754328647
  0
CIRCLE
  5
B5
330
1F
100
AcDbEntity
  8
0
  6
SLD-Durchgehend
 62
     7
370
    15
100
AcDbCircle
 10
178.2588569818
 20
67.4413429154
 30
0.0
 40
2.999996016219984
  0
LINE
  5
B6
330
1F
100
AcDbEntity
  8
0
  6
SLD-Durchgehend
 62
     7
370
    15
100
AcDbLine
 10
141.2588591179
 20
36.4413545918
 30
0.0
 11
141.2588591179
 21
98.4413535785
 31
0.0
  0
LINE
  5
B7
330
1F
100
AcDbEntity
  8
0
  6
SLD-Durchgehend
 62
     7
370
    15
100
AcDbLine
 10
192.0672664842
 20
46.4842287343
 30
0.0
 11
187.9907409152
 21
42.5936975967
 31
0.0
  0
LINE
  5
B8
330
1F
100
AcDbEntity
  8
0
  6
SLD-Durchgehend
 62
     7
370
    15
100
AcDbLine
 10
192.0672664842
 20
88.398479436
 30
0.0
 11
187.9907409152
 21
92.2890105736
 31
0.0
  0
ELLIPSE
  5
B9
330
1F
100
AcDbEntity
  8
0
  6
SLD-Durchgehend
 62
     7
370
    15
100
AcDbEllipse
 10
189.4594436564
 20
67.4413540852
 30
0.0
 11
0.0
 21
2.5
 31
0.0
210
0.0
220
0.0
230
1.0
 40
0.2988584907
 41
0.0
 42
6.283185307179586
  0
ARC
  5
BA
330
1F
100
AcDbEntity
  8
0
  6
SLD-Durchgehend
 62
     7
370
    15
100
AcDbCircle
 10
136.917798869
 20
-103.2723259159
 30
0.0
 40
148.9006060540274
100
AcDbArc
 50
88.4814004382
 51
88.6436550418
  0
ARC
  5
BB
330
1F
100
AcDbEntity
  8
0
  6
SLD-Durchgehend
 62
     7
370
    15
100
AcDbCircle
 10
140.8588624756
 20
45.3759648928
 30
0.0
 40
0.2000805566606313
100
AcDbArc
 50
1.6594166842
 51
88.5623783636
  0
LINE
  5
BC
330
1F
100
AcDbEntity
  8
0
  6
SLD-Durchgehend
 62
     7
370
    15
100
AcDbLine
 10
141.0588591229
 20
60.4194668573
 30
0.0
 11
141.0588591229
 21
44.9015335631
 31
0.0
  0
LWPOLYLINE
  5
BD
330
1F
100
AcDbEntity
  8
0
  6
SLD-Durchgehend
 62
     7
370
    15
100
AcDbPolyline
 90
        9
 70
   128
 43
0.0
 10
141.0588591229
 20
60.4194668573
 10
141.0221516694
 20
60.8446016427
 10
141.0014401322
 20
60.9168485258
 10
140.9676346652
 20
60.9853552174
 10
140.9449924672
 20
61.0099789206
 10
140.926782899
 20
61.0207189325
 10
140.9062620209
 20
61.0246402662
 10
140.8884866819
 20
61.0217401277
 10
140.8638822163
 20
61.0087509718
  0
ARC
  5
BE
330
1F
100
AcDbEntity
  8
0
  6
SLD-Durchgehend
 62
     7
370
    15
100
AcDbCircle
 10
140.670093492
 20
61.2617491944
 30
0.0
 40
0.3186882022858766
100
AcDbArc
 50
224.386474213
 51
307.4509852435
  0
ARC
  5
BF
330
1F
100
AcDbEntity
  8
0
  6
SLD-Durchgehend
 62
     7
370
    15
100
AcDbCircle
 10
142.0025620215
 20
62.3992742938
 30
0.0
 40
2.07004447983761
100
AcDbArc
 50
183.9915578935
 51
221.0871381652
  0
LWPOLYLINE
  5
C0
330
1F
100
AcDbEntity
  8
0
  6
SLD-Durchgehend
 62
     7
370
    15
100
AcDbPolyline
 90
        3
 70
   128
 43
0.0
 10
140.4423468471
 20
73.8438796703
 10
140.2245813938
 20
73.5443304744
 10
139.9375388123
 20
72.6275286157
  0
ARC
  5
C1
330
1F
100
AcDbEntity
  8
0
  6
SLD-Durchgehend
 62
     7
370
    15
100
AcDbCircle
 10
140.6697713376
 20
73.625473958
 30
0.0
 40
0.3153140562150803
100
AcDbArc
 50
52.0036521225
 51
136.158888421
  0
LWPOLYLINE
  5
C2
330
1F
100
AcDbEntity
  8
0
  6
SLD-Durchgehend
 62
     7
370
    15
100
AcDbPolyline
 90
        9
 70
   128
 43
0.0
 10
140.8638822163
 20
73.8739571985
 10
140.885481042
 20
73.8620050702
 10
140.9055319514
 20
73.8580753546
 10
140.9262374059
 20
73.8617773619
 10
140.9425788283
 20
73.8708773147
 10
140.965024721
 20
73.8937892471
 10
140.9951565279
 20
73.9494068999
 10
141.0426753996
 20
74.1585800875
 10
141.0588591229
 20
74.463241313
  0
LINE
  5
C3
330
1F
100
AcDbEntity
  8
0
  6
SLD-Durchgehend
 62
     7
370
    15
100
AcDbLine
 10
141.0588591229
 20
89.9811746072
 30
0.0
 11
141.0588591229
 21
74.463241313
 31
0.0
  0
ARC
  5
C4
330
1F
100
AcDbEntity
  8
0
  6
SLD-Durchgehend
 62
     7
370
    15
100
AcDbCircle
 10
140.8589463634
 20
89.5066590643
 30
0.0
 40
0.1999942821130284
100
AcDbArc
 50
271.4142017239
 51
358.3640032283
  0
ARC
  5
C5
330
1F
100
AcDbEntity
  8
0
  6
SLD-Durchgehend
 62
     7
370
    15
100
AcDbCircle
 10
136.3907171199
 20
259.1594207421
 30
0.0
 40
169.9115864768955
100
AcDbArc
 50
271.3663770291
 51
271.5085674908
  0
ARC
  5
C6
330
1F
100
AcDbEntity
  8
0
  6
SLD-Durchgehend
 62
     7
370
    15
100
AcDbCircle
 10
167.0285776418
 20
67.4413540852
 30
0.0
 40
27.58298009862503
100
AcDbArc
 50
169.1626960163
 51
190.8373039837
  0
LINE
  5
C7
330
1F
100
AcDbEntity
  8
0
  6
SLD-Durchgehend
 62
     7
370
    15
100
AcDbLine
 10
139.0588591298
 20
73.9265322205
 30
0.0
 11
139.0588591298
 21
60.9561759498
 31
0.0
  0
LINE
  5
C8
330
1F
100
AcDbEntity
  8
0
  6
SLD-Durchgehend
 62
     7
370
    15
100
AcDbLine
 10
104.7588596543
 20
73.4956646789
 30
0.0
 11
104.7588596543
 21
61.3870434914
 31
0.0
  0
LINE
  5
C9
330
1F
100
AcDbEntity
  8
0
  6
SLD-Durchgehend
 62
     7
370
    15
100
AcDbLine
 10
103.2588603398
 20
73.0626518358
 30
0.0
 11
103.2588603398
 21
61.8200563345
 31
0.0
  0
LINE
  5
CA
330
1F
100
AcDbEntity
  8
0
  6
SLD-Durchgehend
 62
     7
370
    15
100
AcDbLine
 10
104.7588596543
 20
73.4956646789
 30
0.0
 11
104.7588596543
 21
88.5997177553
 31
0.0
  0
LINE
  5
CB
330
1F
100
AcDbEntity
  8
0
  6
SLD-Durchgehend
 62
     7
370
    15
100
AcDbLine
 10
104.7588596543
 20
88.5997177553
 30
0.0
 11
139.0588591298
 21
89.4614537697
 31
0.0
  0
LINE
  5
CC
330
1F
100
AcDbEntity
  8
0
  6
SLD-Durchgehend
 62
     7
370
    15
100
AcDbLine
 10
139.0588591298
 20
73.9265322205
 30
0.0
 11
139.0588591298
 21
89.4614537697
 31
0.0
  0
ARC
  5
CD
330
1F
100
AcDbEntity
  8
0
  6
SLD-Durchgehend
 62
     7
370
    15
100
AcDbCircle
 10
139.2587960288
 20
89.4664759808
 30
0.0
 40
0.2000000000000059
100
AcDbArc
 50
181.4391666667
 51
271.4391666667
  0
LINE
  5
CE
330
1F
100
AcDbEntity
  8
0
  6
SLD-Durchgehend
 62
     7
370
    15
100
AcDbLine
 10
104.7588596543
 20
46.282990415
 30
0.0
 11
104.7588596543
 21
61.3870434914
 31
0.0
  0
LINE
  5
CF
330
1F
100
AcDbEntity
  8
0
  6
SLD-Durchgehend
 62
     7
370
    15
100
AcDbLine
 10
139.0588591298
 20
45.4212544006
 30
0.0
 11
139.0588591298
 21
60.9561759498
 31
0.0
  0
LINE
  5
D0
330
1F
100
AcDbEntity
  8
0
  6
SLD-Durchgehend
 62
     7
370
    15
100
AcDbLine
 10
104.7588596543
 20
46.282990415
 30
0.0
 11
139.0588591298
 21
45.4212544006
 31
0.0
  0
ARC
  5
D1
330
1F
100
AcDbEntity
  8
0
  6
SLD-Durchgehend
 62
     7
370
    15
100
AcDbCircle
 10
139.2587960288
 20
45.4162321895
 30
0.0
 40
0.2000000000000059
100
AcDbArc
 50
88.5608333333
 51
178.5608333333
  0
LINE
  5
D2
330
1F
100
AcDbEntity
  8
0
  6
SLD-Durchgehend
 62
     7
370
    15
100
AcDbLine
 10
139.2638192469
 20
89.2665391308
 30
0.0
 11
140.4423468471
 21
89.296147738
 31
0.0
  0
LINE
  5
D3
330
1F
100
AcDbEntity
  8
0
  6
SLD-Durchgehend
 62
     7
370
    15
100
AcDbLine
 10
139.2638192469
 20
45.6161690396
 30
0.0
 11
140.4423468471
 21
45.5865604323
 31
0.0
  0
LINE
  5
D4
330
1F
100
AcDbEntity
  8
0
  6
SLD-Durchgehend
 62
     7
370
    15
100
AcDbLine
 10
103.2588603398
 20
87.733692069
 30
0.0
 11
104.7588596543
 21
88.5997177553
 31
0.0
  0
LINE
  5
D5
330
1F
100
AcDbEntity
  8
0
  6
SLD-Durchgehend
 62
     7
370
    15
100
AcDbLine
 10
103.2588603398
 20
73.0626518358
 30
0.0
 11
103.2588603398
 21
87.733692069
 31
0.0
  0
LINE
  5
D6
330
1F
100
AcDbEntity
  8
0
  6
SLD-Durchgehend
 62
     7
370
    15
100
AcDbLine
 10
103.2588603398
 20
47.1490161013
 30
0.0
 11
104.7588596543
 21
46.282990415
 31
0.0
  0
LINE
  5
D7
330
1F
100
AcDbEntity
  8
0
  6
SLD-Durchgehend
 62
     7
370
    15
100
AcDbLine
 10
103.2588603398
 20
47.1490161013
 30
0.0
 11
103.2588603398
 21
61.8200563345
 31
0.0
  0
ELLIPSE
  5
D8
330
1F
100
AcDbEntity
  8
0
  6
SLD-Durchgehend
 62
     7
370
    15
100
AcDbEllipse
 10
197.8628210458
 20
49.6734139142
 30
0.0
 11
5.994201362814948
 21
3.487395952140119
 31
0.0
210
0.0
220
0.0
230
1.0
 40
0.0756218638
 41
1.526828264783042
 42
2.835825203778764
  0
ELLIPSE
  5
D9
330
1F
100
AcDbEntity
  8
0
  6
SLD-Durchgehend
 62
     7
370
    15
100
AcDbEllipse
 10
197.8628210458
 20
85.2092942561
 30
0.0
 11
5.994201362814948
 21
-3.487395952140119
 31
0.0
210
0.0
220
0.0
230
1.0
 40
0.0756218638
 41
3.447360103400983
 42
4.75635704239654
  0
LINE
  5
DA
330
1F
100
AcDbEntity
  8
0
  6
SLD-Durchgehend
 62
     7
370
    15
100
AcDbLine
 10
210.5572233399
 20
67.4459408056
 30
0.0
 11
210.5426798066
 21
67.4413540852
 31
0.0
  0
LINE
  5
DB
330
1F
100
AcDbEntity
  8
0
  6
SLD-Durchgehend
 62
     7
370
    15
100
AcDbLine
 10
210.5426798066
 20
67.4413540852
 30
0.0
 11
211.6368497213
 21
67.0963645549
 31
0.0
  0
LINE
  5
DC
330
1F
100
AcDbEntity
  8
0
  6
SLD-Durchgehend
 62
     7
370
    15
100
AcDbLine
 10
225.8379469117
 20
62.609600414
 30
0.0
 11
213.9718989333
 21
58.8682494577
 31
0.0
  0
ARC
  5
DD
330
1F
100
AcDbEntity
  8
0
  6
SLD-Durchgehend
 62
     7
370
    15
100
AcDbCircle
 10
221.7928837337
 20
34.0632649715
 30
0.0
 40
26.0087488663526
100
AcDbArc
 50
107.5
 51
120.0
  0
LINE
  5
DE
330
1F
100
AcDbEntity
  8
0
  6
SLD-Durchgehend
 62
     7
370
    15
100
AcDbLine
 10
225.8379469117
 20
72.2731077563
 30
0.0
 11
213.9718989333
 21
76.0144587126
 31
0.0
  0
LINE
  5
DF
330
1F
100
AcDbEntity
  8
0
  6
SLD-Durchgehend
 62
     7
370
    15
100
AcDbLine
 10
217.0314947566
 20
69.4964426089
 30
0.0
 11
211.6014669141
 21
71.2085238643
 31
0.0
  0
ARC
  5
E0
330
1F
100
AcDbEntity
  8
0
  6
SLD-Durchgehend
 62
     7
370
    15
100
AcDbCircle
 10
211.0147208209
 20
69.347608477
 30
0.0
 40
1.951223926109626
100
AcDbArc
 50
72.5
 51
252.5
  0
LINE
  5
E1
330
1F
100
AcDbEntity
  8
0
  6
SLD-Durchgehend
 62
     7
370
    15
100
AcDbLine
 10
210.4279781183
 20
67.4866931455
 30
0.0
 11
210.5572233399
 21
67.4459408056
 31
0.0
  0
ARC
  5
E2
330
1F
100
AcDbEntity
  8
0
  6
SLD-Durchgehend
 62
     7
370
    15
100
AcDbCircle
 10
221.7928837337
 20
100.8194431988
 30
0.0
 40
26.0087488663526
100
AcDbArc
 50
240.0
 51
252.5
  0
LINE
  5
E3
330
1F
100
AcDbEntity
  8
0
  6
SLD-Durchgehend
 62
     7
370
    15
100
AcDbLine
 10
208.7885076603
 20
56.5875019398
 30
0.0
 11
197.8628198108
 21
50.2795526277
 31
0.0
  0
LINE
  5
E4
330
1F
100
AcDbEntity
  8
0
  6
SLD-Durchgehend
 62
     7
370
    15
100
AcDbLine
 10
208.7885076603
 20
78.2952062305
 30
0.0
 11
197.8628198108
 21
84.6031555426
 31
0.0
  0
ARC
  5
E5
330
1F
100
AcDbEntity
  8
0
  6
SLD-Durchgehend
 62
     7
370
    15
100
AcDbCircle
 10
211.0147208209
 20
69.347608477
 30
0.0
 40
1.750000000000005
100
AcDbArc
 50
72.5
 51
252.5
  0
LINE
  5
E6
330
1F
100
AcDbEntity
  8
0
  6
SLD-Durchgehend
 62
     7
370
    15
100
AcDbLine
 10
216.6969040832
 20
69.390948092
 30
0.0
 11
211.5409532985
 21
71.0166132063
 31
0.0
  0
LINE
  5
E7
330
1F
100
AcDbEntity
  8
0
  6
SLD-Durchgehend
 62
     7
370
    15
100
AcDbLine
 10
211.2409482202
 20
67.4413540852
 30
0.0
 11
210.5426798066
 21
67.4413540852
 31
0.0
  0
LINE
  5
E8
330
1F
100
AcDbEntity
  8
0
  6
SLD-Durchgehend
 62
     7
370
    15
100
AcDbLine
 10
211.2409482202
 20
67.4413540852
 30
0.0
 11
211.4350209435
 21
67.3801615063
 31
0.0
  0
LINE
  5
E9
330
1F
100
AcDbEntity
  8
0
  6
SLD-Durchgehend
 62
     7
370
    15
100
AcDbLine
 10
210.4884842833
 20
67.6786038108
 30
0.0
 11
211.2263972362
 21
67.4459408056
 31
0.0
  0
LINE
  5
EA
330
1F
100
AcDbEntity
  8
0
  6
SLD-Durchgehend
 62
     7
370
    15
100
AcDbLine
 10
211.2263972362
 20
67.4459408056
 30
0.0
 11
210.5572233399
 21
67.4459408056
 31
0.0
  0
LINE
  5
EB
330
1F
100
AcDbEntity
  8
0
  6
SLD-Durchgehend
 62
     7
370
    15
100
AcDbLine
 10
211.2409482202
 20
67.4413540852
 30
0.0
 11
211.2263972362
 21
67.4459408056
 31
0.0
  0
LWPOLYLINE
  5
EC
330
1F
100
AcDbEntity
  8
0
  6
SLD-Gestrichelt
 62
     7
370
     0
100
AcDbPolyline
 90
       24
 70
   128
 43
0.0
 10
155.2128745666
 20
67.014945978
 10
155.25885955
 20
67.4413540852
 10
155.1463809287
 20
68.1026106336
 10
155.0942734307
 20
68.196782771
 10
154.8217460936
 20
68.6893060789
 10
154.320791406
 20
69.1361400983
 10
153.6994940093
 20
69.3922106162
 10
153.0292183584
 20
69.4281266056
 10
152.3857731795
 20
69.2407207549
 10
151.8401485359
 20
68.8510562046
 10
151.4534494331
 20
68.301875655
 10
151.2703476896
 20
67.6554161197
 10
151.3114162212
 20
66.985869476
 10
151.5711807137
 20
66.3681613965
 10
152.0210188305
 20
65.8704460817
 10
152.611140204
 20
65.5491437515
 10
152.6734335771
 20
65.5390202752
 10
153.265770567
 20
65.4427574933
 10
153.2740518874
 20
65.4414117322
 10
153.9341174489
 20
65.5587957459
 10
154.5181442475
 20
65.8875840469
 10
154.961338309
 20
66.3917999933
 10
155.1465336656
 20
66.8505955706
 10
155.2128745666
 20
67.014945978
  0
LWPOLYLINE
  5
ED
330
1F
100
AcDbEntity
  8
0
  6
SLD-Gestrichelt
 62
     7
370
     0
100
AcDbPolyline
 90
        6
 70
   128
 43
0.0
 10
151.3536032712
 20
57.5319850337
 10
151.3990397057
 20
57.6708172899
 10
151.5262658199
 20
57.9023105543
 10
151.6069183549
 20
57.9844699692
 10
151.7101470804
 20
58.0411884453
 10
151.7866161143
 20
58.0532872569
  0
LINE
  5
EE
330
1F
100
AcDbEntity
  8
0
  6
SLD-Gestrichelt
 62
     7
370
     0
100
AcDbLine
 10
151.7866161143
 20
58.0532872569
 30
0.0
 11
154.73110233
 21
58.0532872569
 31
0.0
  0
ARC
  5
EF
330
1F
100
AcDbEntity
  8
0
  6
SLD-Gestrichelt
 62
     7
370
     0
100
AcDbCircle
 10
154.5522300198
 20
57.464219996
 30
0.0
 40
0.6156261375998079
100
AcDbArc
 50
6.3196381307
 51
73.1089056582
  0
ELLIPSE
  5
F0
330
1F
100
AcDbEntity
  8
0
  6
SLD-Gestrichelt
 62
     7
370
     0
100
AcDbEllipse
 10
138.9117049285
 20
67.4413540852
 30
0.0
 11
-14.75368316065611
 21
31.09325491558117
 31
0.0
210
0.0
220
0.0
230
1.0
 40
0.3419987131
 41
3.300734856217131
 42
4.231496223360779
  0
ARC
  5
F1
330
1F
100
AcDbEntity
  8
0
  6
SLD-Gestrichelt
 62
     7
370
     0
100
AcDbCircle
 10
154.7591599372
 20
37.9431796592
 30
0.0
 40
0.5710078407187053
100
AcDbArc
 50
267.1835236459
 51
315.1693606999
  0
LINE
  5
F2
330
1F
100
AcDbEntity
  8
0
  6
SLD-Gestrichelt
 62
     7
370
     0
100
AcDbLine
 10
154.73110233
 20
37.3728615683
 30
0.0
 11
151.7866161143
 21
37.3728615683
 31
0.0
  0
ARC
  5
F3
330
1F
100
AcDbEntity
  8
0
  6
SLD-Gestrichelt
 62
     7
370
     0
100
AcDbCircle
 10
151.751273592
 20
37.9243750977
 30
0.0
 40
0.5526447928270382
100
AcDbArc
 50
223.9804562779
 51
273.6666593763
  0
ELLIPSE
  5
F4
330
1F
100
AcDbEntity
  8
0
  6
SLD-Gestrichelt
 62
     7
370
     0
100
AcDbEllipse
 10
167.6060133072
 20
67.4413540852
 30
0.0
 11
14.7536831606561
 21
31.09325491558116
 31
0.0
210
0.0
220
0.0
230
1.0
 40
0.3419987131
 41
2.051689083818817
 42
2.98245045096249
  0
ARC
  5
F5
330
1F
100
AcDbEntity
  8
0
  6
SLD-Gestrichelt
 62
     7
370
     0
100
AcDbCircle
 10
151.7585570873
 20
96.9395321761
 30
0.0
 40
0.571004249930195
100
AcDbArc
 50
87.1833632799
 51
135.1695210658
  0
LINE
  5
F6
330
1F
100
AcDbEntity
  8
0
  6
SLD-Gestrichelt
 62
     7
370
     0
100
AcDbLine
 10
151.7866161143
 20
97.509846602
 30
0.0
 11
154.73110233
 21
97.509846602
 31
0.0
  0
ARC
  5
F7
330
1F
100
AcDbEntity
  8
0
  6
SLD-Gestrichelt
 62
     7
370
     0
100
AcDbCircle
 10
154.7664448524
 20
96.9583330726
 30
0.0
 40
0.5526447928270655
100
AcDbArc
 50
43.9804562779
 51
93.6666593763
  0
ELLIPSE
  5
F8
330
1F
100
AcDbEntity
  8
0
  6
SLD-Gestrichelt
 62
     7
370
     0
100
AcDbEllipse
 10
138.9117049285
 20
67.4413540852
 30
0.0
 11
14.75368316065624
 21
31.09325491558116
 31
0.0
210
0.0
220
0.0
230
1.0
 40
0.3419987131
 41
5.193281737408638
 42
6.12404310455234
  0
LWPOLYLINE
  5
F9
330
1F
100
AcDbEntity
  8
0
  6
SLD-Gestrichelt
 62
     7
370
     0
100
AcDbPolyline
 90
        6
 70
   128
 43
0.0
 10
155.1641151732
 20
77.3507231366
 10
155.1186778074
 20
77.2118908804
 10
154.9914526245
 20
76.980397616
 10
154.9108000895
 20
76.8982382011
 10
154.807571364
 20
76.841519725
 10
154.73110233
 20
76.8294209134
  0
LINE
  5
FA
330
1F
100
AcDbEntity
  8
0
  6
SLD-Gestrichelt
 62
     7
370
     0
100
AcDbLine
 10
154.73110233
 20
76.8294209134
 30
0.0
 11
151.7866161143
 21
76.8294209134
 31
0.0
  0
ARC
  5
FB
330
1F
100
AcDbEntity
  8
0
  6
SLD-Gestrichelt
 62
     7
370
     0
100
AcDbCircle
 10
151.9654884246
 20
77.4184881743
 30
0.0
 40
0.6156261375997998
100
AcDbArc
 50
186.3196381307
 51
253.1089056582
  0
ELLIPSE
  5
FC
330
1F
100
AcDbEntity
  8
0
  6
SLD-Gestrichelt
 62
     7
370
     0
100
AcDbEllipse
 10
167.6060133072
 20
67.4413540852
 30
0.0
 11
-14.75368316065627
 21
31.09325491558117
 31
0.0
210
0.0
220
0.0
230
1.0
 40
0.3419987131
 41
0.1591422026272851
 42
1.089903569770961
  0
LWPOLYLINE
  5
FD
330
1F
100
AcDbEntity
  8
0
  6
SLD-Gestrichelt
 62
     7
370
     0
100
AcDbPolyline
 90
        3
 70
   128
 43
0.0
 10
207.4757898649
 20
76.0215078931
 10
210.2220962247
 20
74.5919351917
 10
213.1663496098
 20
73.4595638219
  0
ELLIPSE
  5
FE
330
1F
100
AcDbEntity
  8
0
  6
SLD-Gestrichelt
 62
     7
370
     0
100
AcDbEllipse
 10
227.6404254034
 20
67.4413540852
 30
0.0
 11
54.82028325282457
 21
-31.40962933126426
 31
0.0
210
0.0
220
0.0
230
1.0
 40
0.0434941688
 41
3.065826131388411
 42
4.360750712172821
  0
ELLIPSE
  5
FF
330
1F
100
AcDbEntity
  8
0
  6
SLD-Gestrichelt
 62
     7
370
     0
100
AcDbEllipse
 10
227.6404254034
 20
67.4413540852
 30
0.0
 11
54.82028325282457
 21
31.40962933126427
 31
0.0
210
0.0
220
0.0
230
1.0
 40
0.0434941688
 41
1.922434595006804
 42
3.217359175791494
  0
LWPOLYLINE
  5
100
330
1F
100
AcDbEntity
  8
0
  6
SLD-Gestrichelt
 62
     7
370
     0
100
AcDbPolyline
 90
        3
 70
   128
 43
0.0
 10
207.4757898649
 20
58.8612002772
 10
210.2220962247
 20
60.2907729786
 10
213.1663496098
 20
61.4231443484
  0
ELLIPSE
  5
101
330
1F
100
AcDbEntity
  8
0
  6
SLD-Gestrichelt
 62
     7
370
     0
100
AcDbEllipse
 10
241.249598947
 20
67.4413540852
 30
0.0
 11
100.3213648072499
 21
31.39076627651729
 31
0.0
210
0.0
220
0.0
230
1.0
 40
0.0261263283
 41
1.660042471204201
 42
1.846336011283952
  0
ELLIPSE
  5
102
330
1F
100
AcDbEntity
  8
0
  6
SLD-Gestrichelt
 62
     7
370
     0
100
AcDbEllipse
 10
240.6559092463
 20
67.4413540852
 30
0.0
 11
0.0
 21
31.49999999999998
 31
0.0
210
0.0
220
0.0
230
1.0
 40
0.2909443837
 41
1.56485376345055
 42
1.576738890139243
  0
ELLIPSE
  5
103
330
1F
100
AcDbEntity
  8
0
  6
SLD-Gestrichelt
 62
     7
370
     0
100
AcDbEllipse
 10
241.249598947
 20
67.4413540852
 30
0.0
 11
100.3213648072499
 21
-31.39076627651728
 31
0.0
210
0.0
220
0.0
230
1.0
 40
0.0261263283
 41
4.436849295895673
 42
4.623142835975389
  0
LINE
  5
104
330
1F
100
AcDbEntity
  8
0
  6
SLD-Gestrichelt
 62
     7
370
     0
100
AcDbLine
 10
141.2588591179
 20
98.4413535785
 30
0.0
 11
141.2588591179
 21
36.4413545918
 31
0.0
  0
CIRCLE
  5
105
330
1F
100
AcDbEntity
  8
0
  6
SLD-Gestrichelt
 62
     7
370
     0
100
AcDbCircle
 10
178.2588591179
 20
67.4413540852
 30
0.0
 40
2.5
  0
CIRCLE
  5
106
330
1F
100
AcDbEntity
  8
0
  6
SLD-Gestrichelt
 62
     7
370
     0
100
AcDbCircle
 10
178.2588591179
 20
67.4413540852
 30
0.0
 40
3.000000000000028
  0
LINE
  5
107
330
1F
100
AcDbEntity
  8
0
  6
SLD-Gestrichelt
 62
     7
370
     0
100
AcDbLine
 10
141.2588591179
 20
43.1913533699
 30
0.0
 11
141.2588591179
 21
91.6913548004
 31
0.0
  0
ARC
  5
108
330
1F
100
AcDbEntity
  8
0
  6
SLD-Gestrichelt
 62
     7
370
     0
100
AcDbCircle
 10
140.6638392452
 20
83.1157095509
 30
0.0
 40
0.3136588937820802
100
AcDbArc
 50
225.0769142434
 51
309.6259094061
  0
LWPOLYLINE
  5
109
330
1F
100
AcDbEntity
  8
0
  6
SLD-Gestrichelt
 62
     7
370
     0
100
AcDbPolyline
 90
       10
 70
   128
 43
0.0
 10
140.8638822163
 20
82.8741216552
 10
140.885481042
 20
82.8878009211
 10
140.9055319514
 20
82.8954750192
 10
140.9262374059
 20
82.8979420927
 10
140.9425788283
 20
82.8955141347
 10
140.965024721
 20
82.8847247627
 10
140.9951565279
 20
82.8521396484
 10
141.0426753996
 20
82.7092980486
 10
141.0446280483
 20
82.6815185588
 10
141.0588591229
 20
82.4790611383
  0
LINE
  5
10A
330
1F
100
AcDbEntity
  8
0
  6
SLD-Gestrichelt
 62
     7
370
     0
100
AcDbLine
 10
141.0588591229
 20
52.403647032
 30
0.0
 11
141.0588591229
 21
82.4790611383
 31
0.0
  0
LWPOLYLINE
  5
10B
330
1F
100
AcDbEntity
  8
0
  6
SLD-Gestrichelt
 62
     7
370
     0
100
AcDbPolyline
 90
       10
 70
   128
 43
0.0
 10
141.0588591229
 20
52.403647032
 10
141.0395886328
 20
52.2383233052
 10
141.0221516694
 20
52.0887296166
 10
141.0014401322
 20
52.0409536999
 10
140.9676346652
 20
51.999887031
 10
140.9449924672
 20
51.9879148793
 10
140.926782899
 20
51.9847819101
 10
140.9062620209
 20
51.9870487493
 10
140.8884866819
 20
51.9934432101
 10
140.8638822163
 20
52.0085865151
  0
ARC
  5
10C
330
1F
100
AcDbEntity
  8
0
  6
SLD-Gestrichelt
 62
     7
370
     0
100
AcDbCircle
 10
140.6640371879
 20
51.7627196606
 30
0.0
 40
0.3168415148648036
100
AcDbArc
 50
50.8951646296
 51
134.4020117209
  0
LWPOLYLINE
  5
10D
330
1F
100
AcDbEntity
  8
0
  6
SLD-Gestrichelt
 62
     7
370
     0
100
AcDbPolyline
 90
        3
 70
   128
 43
0.0
 10
140.4423468471
 20
51.9890864831
 10
140.2402428634
 20
51.7280814689
 10
139.9375388123
 20
50.8574475985
  0
ARC
  5
10E
330
1F
100
AcDbEntity
  8
0
  6
SLD-Gestrichelt
 62
     7
370
     0
100
AcDbCircle
 10
140.3971742248
 20
46.8638153825
 30
0.0
 40
1.278053509735332
100
AcDbArc
 50
248.9220914089
 51
272.025533184
  0
LINE
  5
10F
330
1F
100
AcDbEntity
  8
0
  6
SLD-Gestrichelt
 62
     7
370
     0
100
AcDbLine
 10
141.0588591229
 20
44.9015335631
 30
0.0
 11
141.0588591229
 21
45.3817588728
 31
0.0
  0
LINE
  5
110
330
1F
100
AcDbEntity
  8
0
  6
SLD-Gestrichelt
 62
     7
370
     0
100
AcDbLine
 10
141.0588591229
 20
89.5009492975
 30
0.0
 11
141.0588591229
 21
89.9811746072
 31
0.0
  0
LWPOLYLINE
  5
111
330
1F
100
AcDbEntity
  8
0
  6
SLD-Gestrichelt
 62
     7
370
     0
100
AcDbPolyline
 90
        3
 70
   128
 43
0.0
 10
140.4423468471
 20
89.296147738
 10
140.2165049644
 20
89.2854617428
 10
139.9375388123
 20
89.2114346367
  0
ARC
  5
112
330
1F
100
AcDbEntity
  8
0
  6
SLD-Gestrichelt
 62
     7
370
     0
100
AcDbCircle
 10
141.9576719104
 20
84.247999967
 30
0.0
 40
2.032375598236448
100
AcDbArc
 50
186.2920034221
 51
221.7899396917
  0
LINE
  5
113
330
1F
100
AcDbEntity
  8
0
  6
SLD-Gestrichelt
 62
     7
370
     0
100
AcDbLine
 10
141.0588591229
 20
45.3817588728
 30
0.0
 11
141.0588591229
 21
60.4194668573
 31
0.0
  0
LINE
  5
114
330
1F
100
AcDbEntity
  8
0
  6
SLD-Gestrichelt
 62
     7
370
     0
100
AcDbLine
 10
141.0588591229
 20
74.463241313
 30
0.0
 11
141.0588591229
 21
89.5009492975
 31
0.0
  0
ARC
  5
115
330
1F
100
AcDbEntity
  8
0
  6
SLD-Gestrichelt
 62
     7
370
     0
100
AcDbCircle
 10
178.4739385723
 20
69.766101852
 30
0.0
 40
0.1751491503179738
100
AcDbArc
 50
64.7344806888
 51
104.6937995705
  0
ARC
  5
116
330
1F
100
AcDbEntity
  8
0
  6
SLD-Gestrichelt
 62
     7
370
     0
100
AcDbCircle
 10
178.4739385723
 20
65.1166063183
 30
0.0
 40
0.1751491503179744
100
AcDbArc
 50
255.3062004295
 51
295.2655193112
  0
ARC
  5
117
330
1F
100
AcDbEntity
  8
0
  6
SLD-Gestrichelt
 62
     7
370
     0
100
AcDbCircle
 10
178.2588591179
 20
67.4413540852
 30
0.0
 40
2.500000000000011
100
AcDbArc
 50
276.6575341882
 51
83.3424658118
  0
ARC
  5
118
330
1F
100
AcDbEntity
  8
0
  6
SLD-Gestrichelt
 62
     7
370
     0
100
AcDbCircle
 10
178.2588591179
 20
67.4413540852
 30
0.0
 40
2.500000000000005
100
AcDbArc
 50
273.9141232049
 51
86.0858767951
  0
CIRCLE
  5
119
330
1F
100
AcDbEntity
  8
0
  6
SLD-Gestrichelt
 62
     7
370
     0
100
AcDbCircle
 10
125.7588591179
 20
67.4413540852
 30
0.0
 40
4.049999999999997
  0
LWPOLYLINE
  5
11A
330
1F
100
AcDbEntity
  8
0
  6
SLD-Gestrichelt
 62
     7
370
     0
100
AcDbPolyline
 90
        3
 70
   128
 43
0.0
 10
178.5486946305
 20
69.9244961593
 10
178.5002882084
 20
69.9296691906
 10
178.429511418
 20
69.9355227858
  0
LWPOLYLINE
  5
11B
330
1F
100
AcDbEntity
  8
0
  6
SLD-Gestrichelt
 62
     7
370
     0
100
AcDbPolyline
 90
        3
 70
   128
 43
0.0
 10
178.429511418
 20
64.9471853845
 10
178.4843588671
 20
64.9515449055
 10
178.5486946305
 20
64.958212011
  0
LINE
  5
11C
330
1F
100
AcDbEntity
  8
0
  6
SLD-Gestrichelt
 62
     7
370
     0
100
AcDbLine
 10
104.7890866598
 20
82.7543051433
 30
0.0
 11
104.7890866598
 21
52.128403027
 31
0.0
  0
LINE
  5
11D
330
1F
100
AcDbEntity
  8
0
  6
SLD-Gestrichelt
 62
     7
370
     0
100
AcDbLine
 10
103.2588603398
 20
51.2449243557
 30
0.0
 11
103.2588603398
 21
83.6377838146
 31
0.0
  0
LINE
  5
11E
330
1F
100
AcDbEntity
  8
0
  6
SLD-Gestrichelt
 62
     7
370
     0
100
AcDbLine
 10
111.2890867939
 20
81.7877646055
 30
0.0
 11
111.2890867939
 21
53.0949435648
 31
0.0
  0
LINE
  5
11F
330
1F
100
AcDbEntity
  8
0
  6
SLD-Gestrichelt
 62
     7
370
     0
100
AcDbLine
 10
117.0890881171
 20
81.4413545173
 30
0.0
 11
117.0890881171
 21
53.441353653
 31
0.0
  0
LINE
  5
120
330
1F
100
AcDbEntity
  8
0
  6
SLD-Gestrichelt
 62
     7
370
     0
100
AcDbLine
 10
109.6890876492
 20
81.4413545173
 30
0.0
 11
109.6890876492
 21
53.441353653
 31
0.0
  0
LINE
  5
121
330
1F
100
AcDbEntity
  8
0
  6
SLD-Gestrichelt
 62
     7
370
     0
100
AcDbLine
 10
110.6890878132
 20
81.4413545173
 30
0.0
 11
110.6890878132
 21
53.441353653
 31
0.0
  0
LWPOLYLINE
  5
122
330
1F
100
AcDbEntity
  8
0
  6
SLD-Gestrichelt
 62
     7
370
     0
100
AcDbPolyline
 90
        3
 70
   128
 43
0.0
 10
129.7588590955
 20
68.0757829555
 10
129.8088236203
 20
67.4245015194
 10
129.7588590955
 20
66.8069252148
  0
LINE
  5
123
330
1F
100
AcDbEntity
  8
0
  6
SLD-Gestrichelt
 62
     7
370
     0
100
AcDbLine
 10
130.2588591775
 20
80.9413544353
 30
0.0
 11
130.2588591775
 21
53.941353735
 31
0.0
  0
LWPOLYLINE
  5
124
330
1F
100
AcDbEntity
  8
0
  6
SLD-Gestrichelt
 62
     7
370
     0
100
AcDbPolyline
 90
        3
 70
   128
 43
0.0
 10
129.7588590955
 20
66.8069252148
 10
129.7990763983
 20
67.7226837593
 10
129.7588590955
 20
68.0757829555
  0
ARC
  5
125
330
1F
100
AcDbEntity
  8
0
  6
SLD-Gestrichelt
 62
     7
370
     0
100
AcDbCircle
 10
125.7588591458
 20
67.4413540852
 30
0.0
 40
4.049999949281291
100
AcDbArc
 50
9.0124515182
 51
350.9875484818
  0
ARC
  5
126
330
1F
100
AcDbEntity
  8
0
  6
SLD-Gestrichelt
 62
     7
370
     0
100
AcDbCircle
 10
125.7588591651
 20
67.4413540852
 30
0.0
 40
4.049999930263658
100
AcDbArc
 50
9.0124515608
 51
350.9875484392
  0
LINE
  5
127
330
1F
100
AcDbEntity
  8
0
  6
SLD-Gestrichelt
 62
     7
370
     0
100
AcDbLine
 10
131.5088589167
 20
76.4413536977
 30
0.0
 11
131.5088589167
 21
58.4413544726
 31
0.0
  0
LINE
  5
128
330
1F
100
AcDbEntity
  8
0
  6
SLD-Gestrichelt
 62
     7
370
     0
100
AcDbLine
 10
130.2588591775
 20
57.191353802
 30
0.0
 11
130.2588591775
 21
77.6702943709
 31
0.0
  0
LINE
  5
129
330
1F
100
AcDbEntity
  8
0
  6
SLD-Gestrichelt
 62
     7
370
     0
100
AcDbLine
 10
168.2588598182
 20
58.4413544726
 30
0.0
 11
168.2588598182
 21
76.4413536977
 31
0.0
  0
LINE
  5
12A
330
1F
100
AcDbEntity
  8
0
  6
SLD-Gestrichelt
 62
     7
370
     0
100
AcDbLine
 10
171.1129462769
 20
63.1913538542
 30
0.0
 11
171.1129462769
 21
71.6913543161
 31
0.0
  0
LINE
  5
12B
330
1F
100
AcDbEntity
  8
0
  6
SLD-Gestrichelt
 62
     7
370
     0
100
AcDbLine
 10
182.2588602504
 20
63.1913538542
 30
0.0
 11
182.2588602504
 21
71.6913543161
 31
0.0
  0
CIRCLE
  5
12C
330
1F
100
AcDbEntity
  8
0
  6
SLD-Gestrichelt
 62
     7
370
     0
100
AcDbCircle
 10
178.258860531
 20
67.4413398557
 30
0.0
 40
2.500002277383567
  0
LINE
  5
12D
330
1F
100
AcDbEntity
  8
0
  6
SLD-Gestrichelt
 62
     7
370
     0
100
AcDbLine
 10
211.6368497213
 20
67.0963645549
 30
0.0
 11
225.8524978956
 21
62.614186712
 31
0.0
  0
LINE
  5
12E
330
1F
100
AcDbEntity
  8
0
  6
SLD-Gestrichelt
 62
     7
370
     0
100
AcDbLine
 10
225.8524978956
 20
62.614186712
 30
0.0
 11
225.8379469117
 21
62.609600414
 31
0.0
  0
LINE
  5
12F
330
1F
100
AcDbEntity
  8
0
  6
SLD-Gestrichelt
 62
     7
370
     0
100
AcDbLine
 10
225.8524978956
 20
72.2685214583
 30
0.0
 11
225.8379469117
 21
72.2731077563
 31
0.0
  0
LINE
  5
130
330
1F
100
AcDbEntity
  8
0
  6
SLD-Gestrichelt
 62
     7
370
     0
100
AcDbLine
 10
225.8524978956
 20
72.2685214583
 30
0.0
 11
217.0460382899
 21
69.4918558452
 31
0.0
  0
LINE
  5
131
330
1F
100
AcDbEntity
  8
0
  6
SLD-Gestrichelt
 62
     7
370
     0
100
AcDbLine
 10
217.0460382899
 20
69.4918558452
 30
0.0
 11
217.0314947566
 21
69.4964426089
 31
0.0
  0
LINE
  5
132
330
1F
100
AcDbEntity
  8
0
  6
SLD-Gestrichelt
 62
     7
370
     0
100
AcDbLine
 10
217.0460382899
 20
69.4918558452
 30
0.0
 11
217.0460382899
 21
69.2808668114
 31
0.0
  0
LINE
  5
133
330
1F
100
AcDbEntity
  8
0
  6
SLD-Gestrichelt
 62
     7
370
     0
100
AcDbLine
 10
217.0460382899
 20
69.2808668114
 30
0.0
 11
216.6969040832
 21
69.390948092
 31
0.0
  0
LINE
  5
134
330
1F
100
AcDbEntity
  8
0
  6
SLD-Gestrichelt
 62
     7
370
     0
100
AcDbLine
 10
225.8524978956
 20
72.2685214583
 30
0.0
 11
225.8524978956
 21
72.0483586643
 31
0.0
  0
LINE
  5
135
330
1F
100
AcDbEntity
  8
0
  6
SLD-Gestrichelt
 62
     7
370
     0
100
AcDbLine
 10
225.8524978956
 20
72.0483586643
 30
0.0
 11
217.0605892738
 21
69.2762800478
 31
0.0
  0
LINE
  5
136
330
1F
100
AcDbEntity
  8
0
  6
SLD-Gestrichelt
 62
     7
370
     0
100
AcDbLine
 10
217.0460382899
 20
69.2808668114
 30
0.0
 11
217.0605892738
 21
69.2762800478
 31
0.0
  0
LINE
  5
137
330
1F
100
AcDbEntity
  8
0
  6
SLD-Gestrichelt
 62
     7
370
     0
100
AcDbLine
 10
211.4350209435
 20
67.3801615063
 30
0.0
 11
225.8524978956
 21
62.834349506
 31
0.0
  0
LINE
  5
138
330
1F
100
AcDbEntity
  8
0
  6
SLD-Gestrichelt
 62
     7
370
     0
100
AcDbLine
 10
225.8524978956
 20
62.614186712
 30
0.0
 11
225.8524978956
 21
62.834349506
 31
0.0
  0
LINE
  5
139
330
1F
100
AcDbEntity
  8
0
  6
SLD-Gestrichelt
 62
     7
370
     0
100
AcDbLine
 10
225.5237335762
 20
62.9380094338
 30
0.0
 11
225.8524978956
 21
62.834349506
 31
0.0
  0
LINE
  5
13A
330
1F
100
AcDbEntity
  8
0
  6
SLD-Gestrichelt
 62
     7
370
     0
100
AcDbLine
 10
225.5237335762
 20
71.9446987365
 30
0.0
 11
225.8524978956
 21
72.0483586643
 31
0.0
  0
LINE
  5
13B
330
1F
100
AcDbEntity
  8
0
  6
SLD-Gestrichelt
 62
     7
370
     0
100
AcDbLine
 10
239.212826868
 20
67.2541644468
 30
0.0
 11
239.212826868
 21
67.6285437235
 31
0.0
  0
CIRCLE
  5
13C
330
1F
100
AcDbEntity
  8
0
  6
SLD-Gestrichelt
 62
     7
370
     0
100
AcDbCircle
 10
226.251323822
 20
67.4413540852
 30
0.0
 40
2.099999999999994
  0
LINE
  5
13D
330
1F
100
AcDbEntity
  8
0
  6
SLD-Gestrichelt
 62
     7
370
     0
100
AcDbLine
 10
225.5237335762
 20
71.9446987365
 30
0.0
 11
217.0605892738
 21
69.2762800478
 31
0.0
  0
LINE
  5
13E
330
1F
100
AcDbEntity
  8
0
  6
SLD-Gestrichelt
 62
     7
370
     0
100
AcDbLine
 10
210.4884842833
 20
67.6786038108
 30
0.0
 11
225.5237335762
 21
62.9380094338
 31
0.0
  0
ARC
  5
13F
330
1F
100
AcDbEntity
  8
0
  6
SLD-Gestrichelt
 62
     7
370
     0
100
AcDbCircle
 10
211.0147208209
 20
69.347608477
 30
0.0
 40
1.750000000000005
100
AcDbArc
 50
72.5
 51
252.5
  0
LINE
  5
140
330
1F
100
AcDbEntity
  8
0
  6
SLD-Gestrichelt
 62
     7
370
     0
100
AcDbLine
 10
217.0605892738
 20
69.2762800478
 30
0.0
 11
211.5409532985
 21
71.0166132063
 31
0.0
  0
LINE
  5
141
330
1F
100
AcDbEntity
  8
0
  6
SLD-Gestrichelt
 62
     7
370
     0
100
AcDbLine
 10
239.212826868
 20
67.2541644468
 30
0.0
 11
225.5237335762
 21
62.9380094338
 31
0.0
  0
LINE
  5
142
330
1F
100
AcDbEntity
  8
0
  6
SLD-Gestrichelt
 62
     7
370
     0
100
AcDbLine
 10
239.212826868
 20
67.6285437235
 30
0.0
 11
225.5237335762
 21
71.9446987365
 31
0.0
  0
CIRCLE
  5
143
330
1F
100
AcDbEntity
  8
0
  6
SLD-Gestrichelt
 62
     7
370
     0
100
AcDbCircle
 10
226.251323822
 20
67.4413540852
 30
0.0
 40
1.649999999999991
  0
LINE
  5
144
330
1F
100
AcDbEntity
  8
0
  6
SLD-Gestrichelt
 62
     7
370
     0
100
AcDbLine
 10
231.4913208088
 20
67.2541644468
 30
0.0
 11
239.212826868
 21
67.2541644468
 31
0.0
  0
LINE
  5
145
330
1F
100
AcDbEntity
  8
0
  6
SLD-Gestrichelt
 62
     7
370
     0
100
AcDbLine
 10
239.212826868
 20
67.6285437235
 30
0.0
 11
231.4913208088
 21
67.6285437235
 31
0.0
  0
LINE
  5
146
330
1F
100
AcDbEntity
  8
0
  6
SLD-Gestrichelt
 62
     7
370
     0
100
AcDbLine
 10
104.7588596543
 20
52.3373014745
 30
0.0
 11
104.7588596543
 21
46.282990415
 31
0.0
  0
LINE
  5
147
330
1F
100
AcDbEntity
  8
0
  6
SLD-Gestrichelt
 62
     7
370
     0
100
AcDbLine
 10
103.2588603398
 20
52.7703143176
 30
0.0
 11
103.2588603398
 21
47.1490161013
 31
0.0
  0
LWPOLYLINE
  5
148
330
1F
100
AcDbEntity
  8
0
  6
SLD-Gestrichelt
 62
     7
370
     0
100
AcDbPolyline
 90
        6
 70
   128
 43
0.0
 10
139.9375388123
 20
50.8574475985
 10
139.64553298
 20
49.3699429076
 10
139.4812481435
 20
48.0509889763
 10
139.4577876622
 20
47.0134080839
 10
139.5747628253
 20
46.2296219062
 10
139.9375388123
 20
45.6712735336
  0
LINE
  5
149
330
1F
100
AcDbEntity
  8
0
  6
SLD-Gestrichelt
 62
     7
370
     0
100
AcDbLine
 10
139.0588591298
 20
51.9064334672
 30
0.0
 11
139.0588591298
 21
45.4212544006
 31
0.0
  0
LINE
  5
14A
330
1F
100
AcDbEntity
  8
0
  6
SLD-Gestrichelt
 62
     7
370
     0
100
AcDbLine
 10
139.0588591298
 20
89.4614537697
 30
0.0
 11
139.0588591298
 21
82.9762747031
 31
0.0
  0
LWPOLYLINE
  5
14B
330
1F
100
AcDbEntity
  8
0
  6
SLD-Gestrichelt
 62
     7
370
     0
100
AcDbPolyline
 90
        6
 70
   128
 43
0.0
 10
139.9375388123
 20
89.2114346367
 10
139.64553298
 20
88.8473061364
 10
139.4812481435
 20
88.1665819775
 10
139.4577876622
 20
87.2205072534
 10
139.5747628253
 20
85.981371392
 10
139.9375388123
 20
84.0252605718
  0
LINE
  5
14C
330
1F
100
AcDbEntity
  8
0
  6
SLD-Gestrichelt
 62
     7
370
     0
100
AcDbLine
 10
104.7588596543
 20
88.5997177553
 30
0.0
 11
104.7588596543
 21
82.5454066958
 31
0.0
  0
LINE
  5
14D
330
1F
100
AcDbEntity
  8
0
  6
SLD-Gestrichelt
 62
     7
370
     0
100
AcDbLine
 10
103.2588603398
 20
87.733692069
 30
0.0
 11
103.2588603398
 21
82.1123938527
 31
0.0
  0
LINE
  5
14E
330
1F
100
AcDbEntity
  8
0
  6
SLD-Gestrichelt
 62
     7
370
     0
100
AcDbLine
 10
103.2588603398
 20
82.1123938527
 30
0.0
 11
103.2588603398
 21
70.3433414906
 31
0.0
  0
LINE
  5
14F
330
1F
100
AcDbEntity
  8
0
  6
SLD-Gestrichelt
 62
     7
370
     0
100
AcDbLine
 10
103.2588603398
 20
64.5393666797
 30
0.0
 11
103.2588603398
 21
52.7703143176
 31
0.0
  0
LINE
  5
150
330
1F
100
AcDbEntity
  8
0
  6
SLD-Gestrichelt
 62
     7
370
     0
100
AcDbLine
 10
104.7588596543
 20
63.4761429843
 30
0.0
 11
104.7588596543
 21
52.3373014745
 31
0.0
  0
LINE
  5
151
330
1F
100
AcDbEntity
  8
0
  6
SLD-Gestrichelt
 62
     7
370
     0
100
AcDbLine
 10
104.7588596543
 20
82.5454066958
 30
0.0
 11
104.7588596543
 21
71.406565186
 31
0.0
  0
LINE
  5
152
330
1F
100
AcDbEntity
  8
0
  6
SLD-Gestrichelt
 62
     7
370
     0
100
AcDbLine
 10
141.0588591229
 20
82.4790611383
 30
0.0
 11
141.0588591229
 21
52.403647032
 31
0.0
  0
LINE
  5
153
330
1F
100
AcDbEntity
  8
0
  6
SLD-Gestrichelt
 62
     7
370
     0
100
AcDbLine
 10
139.0588591298
 20
82.9762747031
 30
0.0
 11
139.0588591298
 21
51.9064334672
 31
0.0
  0
CIRCLE
  5
154
330
1F
100
AcDbEntity
  8
0
  6
SLD-Gestrichelt
 62
     7
370
     0
100
AcDbCircle
 10
226.251323822
 20
67.4413540852
 30
0.0
 40
1.649999999999977
  0
LWPOLYLINE
  5
155
330
1F
100
AcDbEntity
  8
0
  6
SLD-Gestrichelt
 62
     7
370
     0
100
AcDbPolyline
 90
        8
 70
   128
 43
0.0
 10
109.7088577649
 20
63.3553928215
 10
110.591518735
 20
64.5561130237
 10
111.2992046824
 20
65.8649609409
 10
111.6312826475
 20
67.1928126117
 10
111.4642518064
 20
68.5624758931
 10
111.0858815214
 20
69.4783265222
 10
110.5819782665
 20
70.3332617864
 10
109.7088577649
 20
71.5273153488
  0
LINE
  5
156
330
1F
100
AcDbEntity
  8
0
  6
SLD-Gestrichelt
 62
     7
370
     0
100
AcDbLine
 10
109.7088577649
 20
63.3553928215
 30
0.0
 11
109.7088577649
 21
71.5273153488
 31
0.0
  0
LINE
  5
157
330
1F
100
AcDbEntity
  8
0
  6
SLD-Gestrichelt
 62
     7
370
     0
100
AcDbLine
 10
104.7588596543
 20
63.4761429843
 30
0.0
 11
109.7088577649
 21
63.3553928215
 31
0.0
  0
LINE
  5
158
330
1F
100
AcDbEntity
  8
0
  6
SLD-Gestrichelt
 62
     7
370
     0
100
AcDbLine
 10
109.7088577649
 20
71.5273153488
 30
0.0
 11
104.7588596543
 21
71.406565186
 31
0.0
  0
LINE
  5
159
330
1F
100
AcDbEntity
  8
0
  6
SLD-Gestrichelt
 62
     7
370
     0
100
AcDbLine
 10
103.2588603398
 20
64.5393666797
 30
0.0
 11
104.7588596543
 21
63.4761429843
 31
0.0
  0
LINE
  5
15A
330
1F
100
AcDbEntity
  8
0
  6
SLD-Gestrichelt
 62
     7
370
     0
100
AcDbLine
 10
104.7588596543
 20
71.406565186
 30
0.0
 11
103.2588603398
 21
70.3433414906
 31
0.0
  0
LINE
  5
15B
330
1F
100
AcDbEntity
  8
0
  6
SLD-Gestrichelt
 62
     7
370
     0
100
AcDbLine
 10
103.2588603398
 20
64.5393666797
 30
0.0
 11
103.2588603398
 21
70.3433414906
 31
0.0
  0
LWPOLYLINE
  5
15C
330
1F
100
AcDbEntity
  8
0
  6
SLD-Gestrichelt
 62
     7
370
     0
100
AcDbPolyline
 90
       24
 70
   128
 43
0.0
 10
122.0045397481
 20
69.2965197828
 10
122.5700201889
 20
70.0873656184
 10
123.5182406804
 20
70.8635407951
 10
124.5137127539
 20
71.2630136855
 10
124.8489236882
 20
71.3975313571
 10
126.0847934013
 20
71.4699570541
 10
126.3437048024
 20
71.4851296958
 10
127.8177602639
 20
71.073311659
 10
129.061401864
 20
70.1922339373
 10
129.8854425972
 20
68.9784073489
 10
130.2031809887
 20
67.6487804172
 10
130.0565451806
 20
66.3759770556
 10
129.5124106532
 20
65.2359128449
 10
128.6017662337
 20
64.2854723133
 10
127.3590363985
 20
63.6225063805
 10
126.3117185285
 20
63.4446414638
 10
125.8865781551
 20
63.3724402156
 10
124.3722392669
 20
63.6205063652
 10
123.5031979581
 20
64.0995665904
 10
123.0354505083
 20
64.3574125584
 10
122.0681788823
 20
65.4740722835
 10
121.5844015082
 20
66.781903895
 10
121.5830455026
 20
68.0930252871
 10
122.0045397481
 20
69.2965197828
  0
CIRCLE
  5
15D
330
1F
100
AcDbEntity
  8
0
  6
SLD-Gestrichelt
 62
     7
370
     0
100
AcDbCircle
 10
125.7588591179
 20
67.4413540852
 30
0.0
 40
4.050000000000011
  0
CIRCLE
  5
15E
330
1F
100
AcDbEntity
  8
0
  6
SLD-Gestrichelt
 62
     7
370
     0
100
AcDbCircle
 10
153.2588591179
 20
67.4413540852
 30
0.0
 40
2.0
  0
LINE
  5
15F
330
1F
100
AcDbEntity
  8
0
  6
SLD-Gestrichelt
 62
     7
370
     0
100
AcDbLine
 10
141.2588591179
 20
43.1913533699
 30
0.0
 11
141.3517523383
 21
43.2842472088
 31
0.0
  0
LINE
  5
160
330
1F
100
AcDbEntity
  8
0
  6
SLD-Gestrichelt
 62
     7
370
     0
100
AcDbLine
 10
141.3517523383
 20
91.5984609615
 30
0.0
 11
141.2588591179
 21
91.6913548004
 31
0.0
  0
ARC
  5
161
330
1F
100
AcDbEntity
  8
0
  6
SLD-Gestrichelt
 62
     7
370
     0
100
AcDbCircle
 10
140.6446455555
 20
43.9913540852
 30
0.0
 40
1.0
100
AcDbArc
 50
315.0
 51
0.0
  0
ARC
  5
162
330
1F
100
AcDbEntity
  8
0
  6
SLD-Gestrichelt
 62
     7
370
     0
100
AcDbCircle
 10
140.6446455555
 20
43.9913540852
 30
0.0
 40
1.000000000000004
100
AcDbArc
 50
0.0
 51
52.1052014664
  0
ARC
  5
163
330
1F
100
AcDbEntity
  8
0
  6
SLD-Gestrichelt
 62
     7
370
     0
100
AcDbCircle
 10
140.6446455555
 20
90.8913540852
 30
0.0
 40
1.000000000000004
100
AcDbArc
 50
351.8087250651
 51
45.0
  0
ARC
  5
164
330
1F
100
AcDbEntity
  8
0
  6
SLD-Gestrichelt
 62
     7
370
     0
100
AcDbCircle
 10
140.6446455555
 20
90.8913540852
 30
0.0
 40
1.000000000000004
100
AcDbArc
 50
307.8947985336
 51
351.8087250651
  0
LINE
  5
165
330
1F
100
AcDbEntity
  8
0
  6
SLD-Gestrichelt
 62
     7
370
     0
100
AcDbLine
 10
141.6446455537
 20
43.9913538736
 30
0.0
 11
141.6446455537
 21
90.8913542967
 31
0.0
  0
LINE
  5
166
330
1F
100
AcDbEntity
  8
0
  6
SLD-Gestrichelt
 62
     7
370
     0
100
AcDbLine
 10
141.6446455537
 20
43.9913538736
 30
0.0
 11
141.6446455537
 21
90.8913542967
 31
0.0
  0
LINE
  5
167
330
1F
100
AcDbEntity
  8
0
  6
SLD-Gestrichelt
 62
     7
370
     0
100
AcDbLine
 10
189.4594440659
 20
69.9413540293
 30
0.0
 11
178.4736821851
 21
69.9413540293
 31
0.0
  0
LINE
  5
168
330
1F
100
AcDbEntity
  8
0
  6
SLD-Gestrichelt
 62
     7
370
     0
100
AcDbLine
 10
178.4736821851
 20
64.941354141
 30
0.0
 11
189.4594440659
 21
64.941354141
 31
0.0
  0
LINE
  5
169
330
1F
100
AcDbEntity
  8
0
  6
SLD-Gestrichelt
 62
     7
370
     0
100
AcDbLine
 10
103.2588603398
 20
51.2449243557
 30
0.0
 11
104.7890866598
 21
52.128403027
 31
0.0
  0
LINE
  5
16A
330
1F
100
AcDbEntity
  8
0
  6
SLD-Gestrichelt
 62
     7
370
     0
100
AcDbLine
 10
104.7890866598
 20
82.7543051433
 30
0.0
 11
103.2588603398
 21
83.6377838146
 31
0.0
  0
ARC
  5
16B
330
1F
100
AcDbEntity
  8
0
  6
SLD-Gestrichelt
 62
     7
370
     0
100
AcDbCircle
 10
114.2606604328
 20
53.4413540852
 30
0.0
 40
2.000000000000014
100
AcDbArc
 50
270.0
 51
315.0
  0
ARC
  5
16C
330
1F
100
AcDbEntity
  8
0
  6
SLD-Gestrichelt
 62
     7
370
     0
100
AcDbCircle
 10
114.2606604328
 20
81.4413540852
 30
0.0
 40
2.000000000000016
100
AcDbArc
 50
45.0
 51
90.0
  0
LINE
  5
16D
330
1F
100
AcDbEntity
  8
0
  6
SLD-Gestrichelt
 62
     7
370
     0
100
AcDbLine
 10
113.2588582536
 20
51.4413533252
 30
0.0
 11
114.2606595954
 21
51.4413533252
 31
0.0
  0
LINE
  5
16E
330
1F
100
AcDbEntity
  8
0
  6
SLD-Gestrichelt
 62
     7
370
     0
100
AcDbLine
 10
114.2606595954
 20
83.4413548451
 30
0.0
 11
113.2588582536
 21
83.4413548451
 31
0.0
  0
ARC
  5
16F
330
1F
100
AcDbEntity
  8
0
  6
SLD-Gestrichelt
 62
     7
370
     0
100
AcDbCircle
 10
113.2588591179
 20
53.4413540852
 30
0.0
 40
2.0
100
AcDbArc
 50
189.9742217944
 51
270.0
  0
ARC
  5
170
330
1F
100
AcDbEntity
  8
0
  6
SLD-Gestrichelt
 62
     7
370
     0
100
AcDbCircle
 10
113.2588591179
 20
81.4413540852
 30
0.0
 40
2.0
100
AcDbArc
 50
90.0
 51
170.0257782056
  0
LINE
  5
171
330
1F
100
AcDbEntity
  8
0
  6
SLD-Gestrichelt
 62
     7
370
     0
100
AcDbLine
 10
115.6748747876
 20
52.0271403235
 30
0.0
 11
117.0890881171
 21
53.441353653
 31
0.0
  0
LINE
  5
172
330
1F
100
AcDbEntity
  8
0
  6
SLD-Gestrichelt
 62
     7
370
     0
100
AcDbLine
 10
117.0890881171
 20
81.4413545173
 30
0.0
 11
115.6748747876
 21
82.8555678468
 31
0.0
  0
LINE
  5
173
330
1F
100
AcDbEntity
  8
0
  6
SLD-Gestrichelt
 62
     7
370
     0
100
AcDbLine
 10
104.7890866598
 20
52.128403027
 30
0.0
 11
109.6890876492
 21
53.441353653
 31
0.0
  0
LINE
  5
174
330
1F
100
AcDbEntity
  8
0
  6
SLD-Gestrichelt
 62
     7
370
     0
100
AcDbLine
 10
109.6890876492
 20
81.4413545173
 30
0.0
 11
104.7890866598
 21
82.7543051433
 31
0.0
  0
LINE
  5
175
330
1F
100
AcDbEntity
  8
0
  6
SLD-Gestrichelt
 62
     7
370
     0
100
AcDbLine
 10
111.2890867939
 20
81.7877646055
 30
0.0
 11
110.6890878132
 21
81.4413545173
 31
0.0
  0
LINE
  5
176
330
1F
100
AcDbEntity
  8
0
  6
SLD-Gestrichelt
 62
     7
370
     0
100
AcDbLine
 10
110.6890878132
 20
53.441353653
 30
0.0
 11
111.2890867939
 21
53.0949435648
 31
0.0
  0
ARC
  5
177
330
1F
100
AcDbEntity
  8
0
  6
SLD-Gestrichelt
 62
     7
370
     0
100
AcDbCircle
 10
129.7588591179
 20
53.9413540852
 30
0.0
 40
0.5
100
AcDbArc
 50
270.0
 51
0.0
  0
ARC
  5
178
330
1F
100
AcDbEntity
  8
0
  6
SLD-Gestrichelt
 62
     7
370
     0
100
AcDbCircle
 10
129.7588591179
 20
80.9413540852
 30
0.0
 40
0.5
100
AcDbArc
 50
0.0
 51
90.0
  0
LINE
  5
179
330
1F
100
AcDbEntity
  8
0
  6
SLD-Gestrichelt
 62
     7
370
     0
100
AcDbLine
 10
109.6890876492
 20
53.441353653
 30
0.0
 11
110.6890878132
 21
53.441353653
 31
0.0
  0
LINE
  5
17A
330
1F
100
AcDbEntity
  8
0
  6
SLD-Gestrichelt
 62
     7
370
     0
100
AcDbLine
 10
110.6890878132
 20
81.4413545173
 30
0.0
 11
109.6890876492
 21
81.4413545173
 31
0.0
  0
LINE
  5
17B
330
1F
100
AcDbEntity
  8
0
  6
SLD-Gestrichelt
 62
     7
370
     0
100
AcDbLine
 10
117.0890881171
 20
53.441353653
 30
0.0
 11
129.7588590955
 21
53.441353653
 31
0.0
  0
LINE
  5
17C
330
1F
100
AcDbEntity
  8
0
  6
SLD-Gestrichelt
 62
     7
370
     0
100
AcDbLine
 10
129.7588590955
 20
81.4413545173
 30
0.0
 11
117.0890881171
 21
81.4413545173
 31
0.0
  0
LINE
  5
17D
330
1F
100
AcDbEntity
  8
0
  6
SLD-Gestrichelt
 62
     7
370
     0
100
AcDbLine
 10
130.2588591775
 20
57.191353802
 30
0.0
 11
131.5088589167
 21
58.4413544726
 31
0.0
  0
LINE
  5
17E
330
1F
100
AcDbEntity
  8
0
  6
SLD-Gestrichelt
 62
     7
370
     0
100
AcDbLine
 10
131.5088589167
 20
76.4413536977
 30
0.0
 11
130.2588591775
 21
77.6913543683
 31
0.0
  0
LINE
  5
17F
330
1F
100
AcDbEntity
  8
0
  6
SLD-Gestrichelt
 62
     7
370
     0
100
AcDbLine
 10
168.2588598182
 20
76.4413536977
 30
0.0
 11
131.5088589167
 21
76.4413536977
 31
0.0
  0
LINE
  5
180
330
1F
100
AcDbEntity
  8
0
  6
SLD-Gestrichelt
 62
     7
370
     0
100
AcDbLine
 10
131.5088589167
 20
58.4413544726
 30
0.0
 11
168.2588598182
 21
58.4413544726
 31
0.0
  0
LINE
  5
181
330
1F
100
AcDbEntity
  8
0
  6
SLD-Gestrichelt
 62
     7
370
     0
100
AcDbLine
 10
168.2588598182
 20
58.4413544726
 30
0.0
 11
171.1129462769
 21
63.1913538542
 31
0.0
  0
LINE
  5
182
330
1F
100
AcDbEntity
  8
0
  6
SLD-Gestrichelt
 62
     7
370
     0
100
AcDbLine
 10
171.1129462769
 20
71.6913543161
 30
0.0
 11
168.2588598182
 21
76.4413536977
 31
0.0
  0
LINE
  5
183
330
1F
100
AcDbEntity
  8
0
  6
SLD-Gestrichelt
 62
     7
370
     0
100
AcDbLine
 10
182.2588602504
 20
71.6913543161
 30
0.0
 11
171.1129462769
 21
71.6913543161
 31
0.0
  0
LINE
  5
184
330
1F
100
AcDbEntity
  8
0
  6
SLD-Gestrichelt
 62
     7
370
     0
100
AcDbLine
 10
171.1129462769
 20
63.1913538542
 30
0.0
 11
182.2588602504
 21
63.1913538542
 31
0.0
  0
LINE
  5
185
330
1F
100
AcDbEntity
  8
0
  6
SLD-Gestrichelt
 62
     7
370
     0
100
AcDbLine
 10
182.2588602504
 20
63.1913538542
 30
0.0
 11
184.8125169476
 21
67.4413540852
 31
0.0
  0
LINE
  5
186
330
1F
100
AcDbEntity
  8
0
  6
SLD-Gestrichelt
 62
     7
370
     0
100
AcDbLine
 10
184.8125169476
 20
67.4413540852
 30
0.0
 11
182.2588602504
 21
71.6913543161
 31
0.0
  0
DIMENSION
  5
187
330
1F
100
AcDbEntity
  8
VERMASSUNG
100
AcDbDimension
  2
_D
 10
95.2084273358
 20
35.9413540852
 30
0.0
 11
95.2084273358
 21
67.4413540852
 31
0.0
 70
   160
  1
PSC%%c<>
 71
     2
 42
-1.0
  3
SLDDIMSTYLE0
100
AcDbAlignedDimension
 13
141.7588591179
 23
98.9413540852
 33
0.0
 14
141.7588591179
 24
35.9413540852
 34
0.0
 50
90.0
100
AcDbRotatedDimension
  0
LINE
  5
194
330
1F
100
AcDbEntity
  8
VERMASSUNG
  6
SLD-Punktstrich
370
     0
100
AcDbLine
 10
99.4039962934
 20
67.4413540852
 30
0.0
 11
245.4454560457
 21
67.4413540852
 31
0.0
  0
LWPOLYLINE
  5
195
330
1F
100
AcDbEntity
  8
0
  6
SLD-Durchgehend
 62
     7
370
    15
100
AcDbPolyline
 90
        4
 70
   128
 43
0.0
 10
240.5608753165
 20
145.1184917912
 10
240.8723989924
 20
146.7096512876
 10
241.0255531272
 20
148.3468873864
 10
241.2828216752
 20
149.9538319856
  0
LINE
  5
196
330
1F
100
AcDbEntity
  8
0
  6
SLD-Durchgehend
 62
     7
370
    15
100
AcDbLine
 10
175.2588609656
 20
181.6252917722
 30
0.0
 11
141.7588591416
 21
181.6252917722
 31
0.0
  0
LINE
  5
197
330
1F
100
AcDbEntity
  8
0
  6
SLD-Durchgehend
 62
     7
370
    15
100
AcDbLine
 10
184.7380744716
 20
181.6252917722
 30
0.0
 11
181.2215717932
 21
181.6252917722
 31
0.0
  0
LINE
  5
198
330
1F
100
AcDbEntity
  8
0
  6
SLD-Durchgehend
 62
     7
370
    15
100
AcDbLine
 10
155.25885955
 20
118.6252907589
 30
0.0
 11
231.4911643466
 21
118.6252907589
 31
0.0
  0
LINE
  5
199
330
1F
100
AcDbEntity
  8
0
  6
SLD-Durchgehend
 62
     7
370
    15
100
AcDbLine
 10
141.7588591416
 20
118.6252907589
 30
0.0
 11
151.2834774753
 21
118.6252907589
 31
0.0
  0
ARC
  5
19A
330
1F
100
AcDbEntity
  8
0
  6
SLD-Durchgehend
 62
     7
370
    15
100
AcDbCircle
 10
141.7588591179
 20
119.1252912655
 30
0.0
 40
0.5
100
AcDbArc
 50
180.0
 51
270.0
  0
ARC
  5
19B
330
1F
100
AcDbEntity
  8
0
  6
SLD-Durchgehend
 62
     7
370
    15
100
AcDbCircle
 10
141.7588591179
 20
181.1252912655
 30
0.0
 40
0.5
100
AcDbArc
 50
90.0
 51
180.0
  0
LWPOLYLINE
  5
19C
330
1F
100
AcDbEntity
  8
0
  6
SLD-Durchgehend
 62
     7
370
    15
100
AcDbPolyline
 90
        3
 70
   128
 43
0.0
 10
141.0588591229
 20
127.5854707435
 10
141.1843140581
 20
127.5171694085
 10
141.2588591179
 20
127.4644304737
  0
ARC
  5
19D
330
1F
100
AcDbEntity
  8
0
  6
SLD-Durchgehend
 62
     7
370
    15
100
AcDbCircle
 10
140.6446455555
 20
173.5752912655
 30
0.0
 40
1.000000000000008
100
AcDbArc
 50
225.0
 51
307.8947985336
  0
ARC
  5
19E
330
1F
100
AcDbEntity
  8
0
  6
SLD-Durchgehend
 62
     7
370
    15
100
AcDbCircle
 10
139.2587960288
 20
129.5001693698
 30
0.0
 40
0.2000000000000066
100
AcDbArc
 50
88.5608333333
 51
178.5608333333
  0
LINE
  5
19F
330
1F
100
AcDbEntity
  8
0
  6
SLD-Durchgehend
 62
     7
370
    15
100
AcDbLine
 10
130.1792003637
 20
129.7282800749
 30
0.0
 11
139.0588591298
 21
129.505192928
 31
0.0
  0
LINE
  5
1A0
330
1F
100
AcDbEntity
  8
0
  6
SLD-Durchgehend
 62
     7
370
    15
100
AcDbLine
 10
111.6008656522
 20
130.1950328722
 30
0.0
 11
121.5835428288
 21
129.9442332908
 31
0.0
  0
ARC
  5
1A1
330
1F
100
AcDbEntity
  8
0
  6
SLD-Durchgehend
 62
     7
370
    15
100
AcDbCircle
 10
140.8588591179
 20
129.4599702157
 30
0.0
 40
0.2000000000000059
100
AcDbArc
 50
0.0
 51
88.5608333333
  0
LINE
  5
1A2
330
1F
100
AcDbEntity
  8
0
  6
SLD-Durchgehend
 62
     7
370
    15
100
AcDbLine
 10
139.2638192469
 20
129.7001057043
 30
0.0
 11
140.8638822163
 21
129.6599079594
 31
0.0
  0
ARC
  5
1A3
330
1F
100
AcDbEntity
  8
0
  6
SLD-Durchgehend
 62
     7
370
    15
100
AcDbCircle
 10
139.2587960288
 20
173.5504131612
 30
0.0
 40
0.2000000000000052
100
AcDbArc
 50
181.4391666667
 51
271.4391666667
  0
LINE
  5
1A4
330
1F
100
AcDbEntity
  8
0
  6
SLD-Durchgehend
 62
     7
370
    15
100
AcDbLine
 10
139.0588591298
 20
173.5453904345
 30
0.0
 11
104.7588596543
 21
172.6836544201
 31
0.0
  0
LINE
  5
1A5
330
1F
100
AcDbEntity
  8
0
  6
SLD-Durchgehend
 62
     7
370
    15
100
AcDbLine
 10
139.4645983078
 20
173.3555198386
 30
0.0
 11
139.2638192469
 21
173.3504757955
 31
0.0
  0
LINE
  5
1A6
330
1F
100
AcDbEntity
  8
0
  6
SLD-Durchgehend
 62
     7
370
    15
100
AcDbLine
 10
104.7588596543
 20
172.6836544201
 30
0.0
 11
103.2588603398
 21
171.8176287338
 31
0.0
  0
LINE
  5
1A7
330
1F
100
AcDbEntity
  8
0
  6
SLD-Durchgehend
 62
     7
370
    15
100
AcDbLine
 10
139.9375388123
 20
172.8681848123
 30
0.0
 11
139.4747937288
 21
173.3309291973
 31
0.0
  0
LINE
  5
1A8
330
1F
100
AcDbEntity
  8
0
  6
SLD-Durchgehend
 62
     7
370
    15
100
AcDbLine
 10
225.8524978956
 20
145.1652912162
 30
0.0
 11
226.3213703832
 21
145.1652912162
 31
0.0
  0
LINE
  5
1A9
330
1F
100
AcDbEntity
  8
0
  6
SLD-Durchgehend
 62
     7
370
    15
100
AcDbLine
 10
211.7071832022
 20
149.9252912706
 30
0.0
 11
226.23150148
 21
149.9252912706
 31
0.0
  0
LINE
  5
1AA
330
1F
100
AcDbEntity
  8
0
  6
SLD-Durchgehend
 62
     7
370
    15
100
AcDbLine
 10
226.3812805017
 20
145.1652912162
 30
0.0
 11
226.3213703832
 21
145.1652912162
 31
0.0
  0
LINE
  5
1AB
330
1F
100
AcDbEntity
  8
0
  6
SLD-Durchgehend
 62
     7
370
    15
100
AcDbLine
 10
226.23150148
 20
149.9252912706
 30
0.0
 11
226.4711494049
 21
149.9252912706
 31
0.0
  0
LINE
  5
1AC
330
1F
100
AcDbEntity
  8
0
  6
SLD-Durchgehend
 62
     7
370
    15
100
AcDbLine
 10
226.3812805017
 20
145.1652912162
 30
0.0
 11
240.5028352937
 21
145.1652912162
 31
0.0
  0
LINE
  5
1AD
330
1F
100
AcDbEntity
  8
0
  6
SLD-Durchgehend
 62
     7
370
    15
100
AcDbLine
 10
226.4711494049
 20
149.9252912706
 30
0.0
 11
240.9954676827
 21
149.9252912706
 31
0.0
  0
LINE
  5
1AE
330
1F
100
AcDbEntity
  8
0
  6
SLD-Durchgehend
 62
     7
370
    15
100
AcDbLine
 10
211.7071832022
 20
149.9252912706
 30
0.0
 11
211.4290306767
 21
149.9252912706
 31
0.0
  0
LINE
  5
1AF
330
1F
100
AcDbEntity
  8
0
  6
SLD-Durchgehend
 62
     7
370
    15
100
AcDbLine
 10
240.9954676827
 20
149.9252912706
 30
0.0
 11
241.2709454497
 21
149.9252912706
 31
0.0
  0
ARC
  5
1B0
330
1F
100
AcDbEntity
  8
0
  6
SLD-Durchgehend
 62
     7
370
    15
100
AcDbCircle
 10
153.2589031119
 20
87.162556005
 30
0.0
 40
31.52623516927189
100
AcDbArc
 50
86.3628368575
 51
93.5924919873
  0
ARC
  5
1B1
330
1F
100
AcDbEntity
  8
0
  6
SLD-Durchgehend
 62
     7
370
    15
100
AcDbCircle
 10
151.7585570873
 20
120.6271131746
 30
0.0
 40
0.571004249930195
100
AcDbArc
 50
224.8304789342
 51
272.8166367201
  0
LINE
  5
1B2
330
1F
100
AcDbEntity
  8
0
  6
SLD-Durchgehend
 62
     7
370
    15
100
AcDbLine
 10
151.7866161143
 20
120.0567987486
 30
0.0
 11
154.73110233
 21
120.0567987486
 31
0.0
  0
ARC
  5
1B3
330
1F
100
AcDbEntity
  8
0
  6
SLD-Durchgehend
 62
     7
370
    15
100
AcDbCircle
 10
154.7664448524
 20
120.6083122781
 30
0.0
 40
0.5526447928270655
100
AcDbArc
 50
266.3333406237
 51
316.0195437221
  0
ELLIPSE
  5
1B4
330
1F
100
AcDbEntity
  8
0
  6
SLD-Durchgehend
 62
     7
370
    15
100
AcDbEllipse
 10
138.9117049285
 20
150.1252912655
 30
0.0
 11
-14.75368316065619
 21
31.09325491558115
 31
0.0
210
0.0
220
0.0
230
1.0
 40
0.3419987131
 41
3.300734856217123
 42
4.231496223360771
  0
LWPOLYLINE
  5
1B5
330
1F
100
AcDbEntity
  8
0
  6
SLD-Durchgehend
 62
     7
370
    15
100
AcDbPolyline
 90
        6
 70
   128
 43
0.0
 10
155.1641151732
 20
140.2159222141
 10
155.1186778074
 20
140.3547544703
 10
154.9914526245
 20
140.5862477347
 10
154.9108000895
 20
140.6684071496
 10
154.807571364
 20
140.7251256257
 10
154.73110233
 20
140.7372244373
  0
LINE
  5
1B6
330
1F
100
AcDbEntity
  8
0
  6
SLD-Durchgehend
 62
     7
370
    15
100
AcDbLine
 10
154.73110233
 20
140.7372244373
 30
0.0
 11
151.7866161143
 21
140.7372244373
 31
0.0
  0
ARC
  5
1B7
330
1F
100
AcDbEntity
  8
0
  6
SLD-Durchgehend
 62
     7
370
    15
100
AcDbCircle
 10
151.9654884246
 20
140.1481571763
 30
0.0
 40
0.6156261375997998
100
AcDbArc
 50
106.8910943418
 51
173.6803618693
  0
ELLIPSE
  5
1B8
330
1F
100
AcDbEntity
  8
0
  6
SLD-Durchgehend
 62
     7
370
    15
100
AcDbEllipse
 10
167.6060133072
 20
150.1252912655
 30
0.0
 11
14.75368316065618
 21
31.09325491558116
 31
0.0
210
0.0
220
0.0
230
1.0
 40
0.3419987131
 41
2.051689083818828
 42
2.982450450962499
  0
LWPOLYLINE
  5
1B9
330
1F
100
AcDbEntity
  8
0
  6
SLD-Durchgehend
 62
     7
370
    15
100
AcDbPolyline
 90
        6
 70
   128
 43
0.0
 10
151.3536032712
 20
160.034660317
 10
151.4793187803
 20
159.7317159846
 10
151.5589440664
 20
159.6264644265
 10
151.6655125147
 20
159.5439948812
 10
151.746653994
 20
159.5166465938
 10
151.7866161143
 20
159.5133580938
  0
LINE
  5
1BA
330
1F
100
AcDbEntity
  8
0
  6
SLD-Durchgehend
 62
     7
370
    15
100
AcDbLine
 10
151.7866161143
 20
159.5133580938
 30
0.0
 11
154.73110233
 21
159.5133580938
 31
0.0
  0
ARC
  5
1BB
330
1F
100
AcDbEntity
  8
0
  6
SLD-Durchgehend
 62
     7
370
    15
100
AcDbCircle
 10
154.5522300198
 20
160.1024253547
 30
0.0
 40
0.6156261375998215
100
AcDbArc
 50
286.8910943418
 51
353.6803618692
  0
ELLIPSE
  5
1BC
330
1F
100
AcDbEntity
  8
0
  6
SLD-Durchgehend
 62
     7
370
    15
100
AcDbEllipse
 10
138.9117049285
 20
150.1252912655
 30
0.0
 11
14.75368316065615
 21
31.09325491558116
 31
0.0
210
0.0
220
0.0
230
1.0
 40
0.3419987131
 41
5.193281737408631
 42
6.124043104552335
  0
ARC
  5
1BD
330
1F
100
AcDbEntity
  8
0
  6
SLD-Durchgehend
 62
     7
370
    15
100
AcDbCircle
 10
154.7500320237
 20
179.5999037959
 30
0.0
 40
0.5941815982283424
100
AcDbArc
 50
45.8214530794
 51
91.8256625748
  0
LINE
  5
1BE
330
1F
100
AcDbEntity
  8
0
  6
SLD-Durchgehend
 62
     7
370
    15
100
AcDbLine
 10
154.73110233
 20
180.1937837824
 30
0.0
 11
151.7866161143
 21
180.1937837824
 31
0.0
  0
ARC
  5
1BF
330
1F
100
AcDbEntity
  8
0
  6
SLD-Durchgehend
 62
     7
370
    15
100
AcDbCircle
 10
151.751273592
 20
179.642270253
 30
0.0
 40
0.5526447928270055
100
AcDbArc
 50
86.3333406237
 51
136.0195437221
  0
ELLIPSE
  5
1C0
330
1F
100
AcDbEntity
  8
0
  6
SLD-Durchgehend
 62
     7
370
    15
100
AcDbEllipse
 10
167.6060133072
 20
150.1252912655
 30
0.0
 11
-14.75368316065618
 21
31.09325491558116
 31
0.0
210
0.0
220
0.0
230
1.0
 40
0.3419987131
 41
0.1591422026272954
 42
1.08990356977097
  0
LWPOLYLINE
  5
1C1
330
1F
100
AcDbEntity
  8
0
  6
SLD-Durchgehend
 62
     7
370
    15
100
AcDbPolyline
 90
       14
 70
   128
 43
0.0
 10
187.9907409152
 20
169.4861800149
 10
187.5207769176
 20
171.24011188
 10
187.0807083746
 20
172.8824619874
 10
186.6728673181
 20
174.4045541361
 10
186.2993995151
 20
175.7983435616
 10
185.9622868201
 20
177.056465365
 10
185.6633099219
 20
178.1722699031
 10
185.4040446183
 20
179.1398637667
 10
185.1858618161
 20
179.9541302696
 10
185.0099163553
 20
180.6107667014
 10
184.8771358332
 20
181.1063048169
 10
184.7882243296
 20
181.438125737
 10
184.7436512312
 20
181.6044785753
 10
184.7380744716
 20
181.6252917722
  0
ELLIPSE
  5
1C2
330
1F
100
AcDbEntity
  8
0
  6
SLD-Durchgehend
 62
     7
370
    15
100
AcDbEllipse
 10
227.6404254034
 20
150.1252912655
 30
0.0
 11
54.7725312153415
 21
4.685189640530893
 31
0.0
210
0.0
220
0.0
230
1.0
 40
0.5687088412
 41
2.330383962133375
 42
4.287227121455036
  0
LWPOLYLINE
  5
1C3
330
1F
100
AcDbEntity
  8
0
  6
SLD-Durchgehend
 62
     7
370
    15
100
AcDbPolyline
 90
        3
 70
   128
 43
0.0
 10
207.4757898649
 20
119.8163666501
 10
210.2220962247
 20
119.4476262405
 10
213.1663496098
 20
119.2055382505
  0
ELLIPSE
  5
1C4
330
1F
100
AcDbEntity
  8
0
  6
SLD-Durchgehend
 62
     7
370
    15
100
AcDbEllipse
 10
241.249598947
 20
150.1252912655
 30
0.0
 11
100.3197713769982
 21
3.188873534942501
 31
0.0
210
0.0
220
0.0
230
1.0
 40
0.3123828189
 41
4.418745080623109
 42
4.605038620702858
  0
LINE
  5
1C5
330
1F
100
AcDbEntity
  8
0
  6
SLD-Durchgehend
 62
     7
370
    15
100
AcDbLine
 10
231.4911643466
 20
118.6252907589
 30
0.0
 11
231.4913208088
 21
118.6258458271
 31
0.0
  0
ARC
  5
1C6
330
1F
100
AcDbEntity
  8
0
  6
SLD-Durchgehend
 62
     7
370
    15
100
AcDbCircle
 10
178.2587478445
 20
213.0446336079
 30
0.0
 40
31.56223000168318
100
AcDbArc
 50
264.5459903563
 51
275.3864261023
  0
LINE
  5
1C7
330
1F
100
AcDbEntity
  8
0
  6
SLD-Durchgehend
 62
     7
370
    15
100
AcDbLine
 10
141.2588591179
 20
150.1252912655
 30
0.0
 11
141.2588591179
 21
181.1252907589
 31
0.0
  0
LINE
  5
1C8
330
1F
100
AcDbEntity
  8
0
  6
SLD-Durchgehend
 62
     7
370
    15
100
AcDbLine
 10
141.2588591179
 20
119.1252917722
 30
0.0
 11
141.2588591179
 21
150.1252912655
 31
0.0
  0
LINE
  5
1C9
330
1F
100
AcDbEntity
  8
0
  6
SLD-Durchgehend
 62
     7
370
    15
100
AcDbLine
 10
192.0672664842
 20
154.2723770924
 30
0.0
 11
187.9907409152
 21
169.4861800149
 31
0.0
  0
ARC
  5
1CA
330
1F
100
AcDbEntity
  8
0
  6
SLD-Durchgehend
 62
     7
370
    15
100
AcDbCircle
 10
197.8628210458
 20
155.8252912655
 30
0.0
 40
6.000000000000044
100
AcDbArc
 50
195.0
 51
270.0
  0
LINE
  5
1CB
330
1F
100
AcDbEntity
  8
0
  6
SLD-Durchgehend
 62
     7
370
    15
100
AcDbLine
 10
208.7885076603
 20
149.8252912513
 30
0.0
 11
197.8628198108
 21
149.8252912513
 31
0.0
  0
LINE
  5
1CC
330
1F
100
AcDbEntity
  8
0
  6
SLD-Durchgehend
 62
     7
370
    15
100
AcDbLine
 10
141.0588591229
 20
133.335089378
 30
0.0
 11
141.0588591229
 21
127.5854707435
 31
0.0
  0
LWPOLYLINE
  5
1CD
330
1F
100
AcDbEntity
  8
0
  6
SLD-Durchgehend
 62
     7
370
    15
100
AcDbPolyline
 90
        9
 70
   128
 43
0.0
 10
141.0588591229
 20
133.335089378
 10
141.0221516694
 20
133.6441748515
 10
141.0014401322
 20
133.7000150904
 10
140.9676346652
 20
133.7554101571
 10
140.9449924672
 20
133.7769311592
 10
140.926782899
 20
133.7875240221
 10
140.9062620209
 20
133.793361552
 10
140.8884866819
 20
133.7937042787
 10
140.8638822163
 20
133.7874476537
  0
ARC
  5
1CE
330
1F
100
AcDbEntity
  8
0
  6
SLD-Durchgehend
 62
     7
370
    15
100
AcDbCircle
 10
140.6778524968
 20
134.2434351578
 30
0.0
 40
0.4924750353977226
100
AcDbArc
 50
241.4315514587
 51
292.1940395248
  0
LWPOLYLINE
  5
1CF
330
1F
100
AcDbEntity
  8
0
  6
SLD-Durchgehend
 62
     7
370
    15
100
AcDbPolyline
 90
        3
 70
   128
 43
0.0
 10
140.4423468471
 20
133.8109207079
 10
140.2402428634
 20
133.9717098251
 10
139.9375388123
 20
134.5620901063
  0
ARC
  5
1D0
330
1F
100
AcDbEntity
  8
0
  6
SLD-Durchgehend
 62
     7
370
    15
100
AcDbCircle
 10
142.4117040185
 20
143.3952663372
 30
0.0
 40
2.47868030734357
100
AcDbArc
 50
142.6097932206
 51
176.5411871548
  0
ARC
  5
1D1
330
1F
100
AcDbEntity
  8
0
  6
SLD-Durchgehend
 62
     7
370
    15
100
AcDbCircle
 10
140.6662194953
 20
144.7217348866
 30
0.0
 40
0.2864392312086058
100
AcDbArc
 50
46.3644601353
 51
141.4046572264
  0
LWPOLYLINE
  5
1D2
330
1F
100
AcDbEntity
  8
0
  6
SLD-Durchgehend
 62
     7
370
    15
100
AcDbPolyline
 90
        9
 70
   128
 43
0.0
 10
140.8638822163
 20
144.92904355
 10
140.885481042
 20
144.9142457656
 10
140.9055319514
 20
144.9075462967
 10
140.9262374059
 20
144.9082592241
 10
140.9425788283
 20
144.9149149209
 10
140.965024721
 20
144.9343721121
 10
140.9951565279
 20
144.9852958992
 10
141.0426753996
 20
145.1885319054
 10
141.0588591229
 20
145.4973556772
  0
LINE
  5
1D3
330
1F
100
AcDbEntity
  8
0
  6
SLD-Durchgehend
 62
     7
370
    15
100
AcDbLine
 10
141.0588591229
 20
171.5434287414
 30
0.0
 11
141.0588591229
 21
145.4973556772
 31
0.0
  0
LWPOLYLINE
  5
1D4
330
1F
100
AcDbEntity
  8
0
  6
SLD-Durchgehend
 62
     7
370
    15
100
AcDbPolyline
 90
        9
 70
   128
 43
0.0
 10
141.0588591229
 20
171.5434287414
 10
141.0221516694
 20
171.6616117134
 10
141.0014401322
 20
171.675067462
 10
140.9676346652
 20
171.6829334125
 10
140.9449924672
 20
171.682542257
 10
140.926782899
 20
171.6799587682
 10
140.9062620209
 20
171.6750767752
 10
140.8884866819
 20
171.6693677678
 10
140.8638822163
 20
171.6593821272
  0
ARC
  5
1D5
330
1F
100
AcDbEntity
  8
0
  6
SLD-Durchgehend
 62
     7
370
    15
100
AcDbCircle
 10
140.6584860722
 20
172.1014497626
 30
0.0
 40
0.4874539673627249
100
AcDbArc
 50
243.6787033
 51
294.9208090432
  0
ARC
  5
1D6
330
1F
100
AcDbEntity
  8
0
  6
SLD-Durchgehend
 62
     7
370
    15
100
AcDbCircle
 10
140.9981593575
 20
172.6417487095
 30
0.0
 40
1.124222281050674
100
AcDbArc
 50
199.364891809
 51
240.3699815947
  0
ARC
  5
1D7
330
1F
100
AcDbEntity
  8
0
  6
SLD-Durchgehend
 62
     7
370
    15
100
AcDbCircle
 10
159.9719542825
 20
139.0534488689
 30
0.0
 40
20.53168543411515
100
AcDbArc
 50
167.3642245526
 51
192.6357754474
  0
LINE
  5
1D8
330
1F
100
AcDbEntity
  8
0
  6
SLD-Durchgehend
 62
     7
370
    15
100
AcDbLine
 10
139.0588591298
 20
144.900420282
 30
0.0
 11
139.0588591298
 21
171.8076915219
 31
0.0
  0
LINE
  5
1D9
330
1F
100
AcDbEntity
  8
0
  6
SLD-Durchgehend
 62
     7
370
    15
100
AcDbLine
 10
104.7588596543
 20
144.900420282
 30
0.0
 11
104.7588596543
 21
171.0614078417
 31
0.0
  0
LINE
  5
1DA
330
1F
100
AcDbEntity
  8
0
  6
SLD-Durchgehend
 62
     7
370
    15
100
AcDbLine
 10
139.0588591298
 20
133.667761527
 30
0.0
 11
139.0588591298
 21
144.900420282
 31
0.0
  0
LINE
  5
1DB
330
1F
100
AcDbEntity
  8
0
  6
SLD-Durchgehend
 62
     7
370
    15
100
AcDbLine
 10
104.7588596543
 20
134.4140470698
 30
0.0
 11
104.7588596543
 21
144.900420282
 31
0.0
  0
LINE
  5
1DC
330
1F
100
AcDbEntity
  8
0
  6
SLD-Durchgehend
 62
     7
370
    15
100
AcDbLine
 10
103.2588603398
 20
135.1640467271
 30
0.0
 11
103.2588603398
 21
144.900420282
 31
0.0
  0
LINE
  5
1DD
330
1F
100
AcDbEntity
  8
0
  6
SLD-Durchgehend
 62
     7
370
    15
100
AcDbLine
 10
103.2588603398
 20
144.900420282
 30
0.0
 11
103.2588603398
 21
170.3114063218
 31
0.0
  0
LINE
  5
1DE
330
1F
100
AcDbEntity
  8
0
  6
SLD-Durchgehend
 62
     7
370
    15
100
AcDbLine
 10
139.0588591298
 20
129.505192928
 30
0.0
 11
139.0588591298
 21
133.667761527
 31
0.0
  0
LINE
  5
1DF
330
1F
100
AcDbEntity
  8
0
  6
SLD-Durchgehend
 62
     7
370
    15
100
AcDbLine
 10
104.7588596543
 20
130.6283008978
 30
0.0
 11
109.7088577649
 21
130.5190288201
 31
0.0
  0
LINE
  5
1E0
330
1F
100
AcDbEntity
  8
0
  6
SLD-Durchgehend
 62
     7
370
    15
100
AcDbLine
 10
104.7588596543
 20
130.6283008978
 30
0.0
 11
104.7588596543
 21
134.4140470698
 31
0.0
  0
LWPOLYLINE
  5
1E1
330
1F
100
AcDbEntity
  8
0
  6
SLD-Durchgehend
 62
     7
370
    15
100
AcDbPolyline
 90
        5
 70
   128
 43
0.0
 10
109.7088577649
 20
130.5190288201
 10
110.5799368074
 20
130.3590518161
 10
111.2992046824
 20
130.2435491904
 10
111.6312826475
 20
130.195286192
 10
111.6009811362
 20
130.1996168419
  0
ARC
  5
1E2
330
1F
100
AcDbEntity
  8
0
  6
SLD-Durchgehend
 62
     7
370
    15
100
AcDbCircle
 10
124.9906196676
 20
94.9362809401
 30
0.0
 40
35.18031587467558
100
AcDbArc
 50
81.5186266954
 51
95.5572947612
  0
LINE
  5
1E3
330
1F
100
AcDbEntity
  8
0
  6
SLD-Durchgehend
 62
     7
370
    15
100
AcDbLine
 10
103.2588603398
 20
131.3768123016
 30
0.0
 11
104.7588596543
 21
130.6283008978
 31
0.0
  0
LINE
  5
1E4
330
1F
100
AcDbEntity
  8
0
  6
SLD-Durchgehend
 62
     7
370
    15
100
AcDbLine
 10
103.2588603398
 20
131.3768123016
 30
0.0
 11
103.2588603398
 21
135.1640467271
 31
0.0
  0
LINE
  5
1E5
330
1F
100
AcDbEntity
  8
0
  6
SLD-Durchgehend
 62
     7
370
    15
100
AcDbLine
 10
213.9718989333
 20
149.8252912513
 30
0.0
 11
208.7885076603
 21
149.8252912513
 31
0.0
  0
LINE
  5
1E6
330
1F
100
AcDbEntity
  8
0
  6
SLD-Durchgehend
 62
     7
370
    15
100
AcDbLine
 10
231.4913208088
 20
118.6258458271
 30
0.0
 11
239.212826868
 21
145.1652912162
 31
0.0
  0
LINE
  5
1E7
330
1F
100
AcDbEntity
  8
0
  6
SLD-Durchgehend
 62
     7
370
    15
100
AcDbLine
 10
225.8524978956
 20
149.8252912513
 30
0.0
 11
225.8524978956
 21
147.4252911955
 31
0.0
  0
LINE
  5
1E8
330
1F
100
AcDbEntity
  8
0
  6
SLD-Durchgehend
 62
     7
370
    15
100
AcDbLine
 10
225.5237335762
 20
145.1652912162
 30
0.0
 11
225.8524978956
 21
147.4252911955
 31
0.0
  0
LINE
  5
1E9
330
1F
100
AcDbEntity
  8
0
  6
SLD-Durchgehend
 62
     7
370
    15
100
AcDbLine
 10
225.8524978956
 20
145.1652912162
 30
0.0
 11
225.5237335762
 21
145.1652912162
 31
0.0
  0
LINE
  5
1EA
330
1F
100
AcDbEntity
  8
0
  6
SLD-Durchgehend
 62
     7
370
    15
100
AcDbLine
 10
225.8524978956
 20
149.8252912513
 30
0.0
 11
213.9718989333
 21
149.8252912513
 31
0.0
  0
LINE
  5
1EB
330
1F
100
AcDbEntity
  8
0
  6
SLD-Durchgehend
 62
     7
370
    15
100
AcDbLine
 10
139.0588591298
 20
173.5453904345
 30
0.0
 11
139.0588591298
 21
171.8076915219
 31
0.0
  0
LINE
  5
1EC
330
1F
100
AcDbEntity
  8
0
  6
SLD-Durchgehend
 62
     7
370
    15
100
AcDbLine
 10
104.7588596543
 20
172.6836544201
 30
0.0
 11
104.7588596543
 21
171.0614078417
 31
0.0
  0
LWPOLYLINE
  5
1ED
330
1F
100
AcDbEntity
  8
0
  6
SLD-Durchgehend
 62
     7
370
    15
100
AcDbPolyline
 90
        4
 70
   128
 43
0.0
 10
139.4654501187
 20
173.3216159716
 10
139.4577876622
 20
173.3388715163
 10
139.5747628253
 20
173.0759759173
 10
139.9375388123
 20
172.2689755931
  0
LINE
  5
1EE
330
1F
100
AcDbEntity
  8
0
  6
SLD-Durchgehend
 62
     7
370
    15
100
AcDbLine
 10
103.2588603398
 20
171.8176287338
 30
0.0
 11
103.2588603398
 21
170.3114063218
 31
0.0
  0
LWPOLYLINE
  5
1EF
330
1F
100
AcDbEntity
  8
0
  6
SLD-Gestrichelt
 62
     7
370
     0
100
AcDbPolyline
 90
       11
 70
   128
 43
0.0
 10
155.25885955
 20
118.6252907589
 10
155.1463809287
 20
118.6322309747
 10
154.8217460936
 20
118.6500229612
 10
154.320791406
 20
118.6709181145
 10
153.6994940093
 20
118.685759671
 10
153.0292183584
 20
118.6880097463
 10
152.3857731795
 20
118.676725842
 10
151.8401485359
 20
118.6568514183
 10
151.4534494331
 20
118.6370477751
 10
151.2703476896
 20
118.6260171905
 10
151.2834774753
 20
118.6268404796
  0
LWPOLYLINE
  5
1F0
330
1F
100
AcDbEntity
  8
0
  6
SLD-Gestrichelt
 62
     7
370
     0
100
AcDbPolyline
 90
        6
 70
   128
 43
0.0
 10
151.3536032712
 20
140.2159222141
 10
151.3990397057
 20
140.3547544703
 10
151.5262658199
 20
140.5862477347
 10
151.6069183549
 20
140.6684071496
 10
151.7101470804
 20
140.7251256257
 10
151.7866161143
 20
140.7372244373
  0
LINE
  5
1F1
330
1F
100
AcDbEntity
  8
0
  6
SLD-Gestrichelt
 62
     7
370
     0
100
AcDbLine
 10
151.7866161143
 20
140.7372244373
 30
0.0
 11
154.73110233
 21
140.7372244373
 31
0.0
  0
ARC
  5
1F2
330
1F
100
AcDbEntity
  8
0
  6
SLD-Gestrichelt
 62
     7
370
     0
100
AcDbCircle
 10
154.5522300198
 20
140.1481571763
 30
0.0
 40
0.6156261375997998
100
AcDbArc
 50
6.3196381307
 51
73.1089056582
  0
ELLIPSE
  5
1F3
330
1F
100
AcDbEntity
  8
0
  6
SLD-Gestrichelt
 62
     7
370
     0
100
AcDbEllipse
 10
138.9117049285
 20
150.1252912655
 30
0.0
 11
-14.75368316065608
 21
31.09325491558116
 31
0.0
210
0.0
220
0.0
230
1.0
 40
0.3419987131
 41
3.300734856217134
 42
4.231496223360784
  0
ARC
  5
1F4
330
1F
100
AcDbEntity
  8
0
  6
SLD-Gestrichelt
 62
     7
370
     0
100
AcDbCircle
 10
154.7591599372
 20
120.6271168396
 30
0.0
 40
0.5710078407187152
100
AcDbArc
 50
267.1835236459
 51
315.1693606999
  0
LINE
  5
1F5
330
1F
100
AcDbEntity
  8
0
  6
SLD-Gestrichelt
 62
     7
370
     0
100
AcDbLine
 10
154.73110233
 20
120.0567987486
 30
0.0
 11
151.7866161143
 21
120.0567987486
 31
0.0
  0
ARC
  5
1F6
330
1F
100
AcDbEntity
  8
0
  6
SLD-Gestrichelt
 62
     7
370
     0
100
AcDbCircle
 10
151.751273592
 20
120.6083122781
 30
0.0
 40
0.5526447928270523
100
AcDbArc
 50
223.9804562779
 51
273.6666593763
  0
ELLIPSE
  5
1F7
330
1F
100
AcDbEntity
  8
0
  6
SLD-Gestrichelt
 62
     7
370
     0
100
AcDbEllipse
 10
167.6060133072
 20
150.1252912655
 30
0.0
 11
14.7536831606561
 21
31.09325491558116
 31
0.0
210
0.0
220
0.0
230
1.0
 40
0.3419987131
 41
2.051689083818815
 42
2.982450450962491
  0
ARC
  5
1F8
330
1F
100
AcDbEntity
  8
0
  6
SLD-Gestrichelt
 62
     7
370
     0
100
AcDbCircle
 10
151.7585570873
 20
179.6234693565
 30
0.0
 40
0.571004249930185
100
AcDbArc
 50
87.1833632799
 51
135.1695210658
  0
LINE
  5
1F9
330
1F
100
AcDbEntity
  8
0
  6
SLD-Gestrichelt
 62
     7
370
     0
100
AcDbLine
 10
151.7866161143
 20
180.1937837824
 30
0.0
 11
154.73110233
 21
180.1937837824
 31
0.0
  0
ARC
  5
1FA
330
1F
100
AcDbEntity
  8
0
  6
SLD-Gestrichelt
 62
     7
370
     0
100
AcDbCircle
 10
154.7664448524
 20
179.642270253
 30
0.0
 40
0.552644792827026
100
AcDbArc
 50
43.9804562779
 51
93.6666593763
  0
ELLIPSE
  5
1FB
330
1F
100
AcDbEntity
  8
0
  6
SLD-Gestrichelt
 62
     7
370
     0
100
AcDbEllipse
 10
138.9117049285
 20
150.1252912655
 30
0.0
 11
14.75368316065629
 21
31.09325491558115
 31
0.0
210
0.0
220
0.0
230
1.0
 40
0.3419987131
 41
5.193281737408642
 42
6.124043104552348
  0
LWPOLYLINE
  5
1FC
330
1F
100
AcDbEntity
  8
0
  6
SLD-Gestrichelt
 62
     7
370
     0
100
AcDbPolyline
 90
        6
 70
   128
 43
0.0
 10
155.1641151732
 20
160.034660317
 10
155.1186778074
 20
159.8958280608
 10
154.9914526245
 20
159.6643347963
 10
154.9108000895
 20
159.5821753815
 10
154.807571364
 20
159.5254569053
 10
154.73110233
 20
159.5133580938
  0
LINE
  5
1FD
330
1F
100
AcDbEntity
  8
0
  6
SLD-Gestrichelt
 62
     7
370
     0
100
AcDbLine
 10
154.73110233
 20
159.5133580938
 30
0.0
 11
151.7866161143
 21
159.5133580938
 31
0.0
  0
ARC
  5
1FE
330
1F
100
AcDbEntity
  8
0
  6
SLD-Gestrichelt
 62
     7
370
     0
100
AcDbCircle
 10
151.9654884246
 20
160.1024253547
 30
0.0
 40
0.6156261375998215
100
AcDbArc
 50
186.3196381308
 51
253.1089056582
  0
ELLIPSE
  5
1FF
330
1F
100
AcDbEntity
  8
0
  6
SLD-Gestrichelt
 62
     7
370
     0
100
AcDbEllipse
 10
167.6060133072
 20
150.1252912655
 30
0.0
 11
-14.75368316065632
 21
31.09325491558117
 31
0.0
210
0.0
220
0.0
230
1.0
 40
0.3419987131
 41
0.1591422026272808
 42
1.089903569770958
  0
LWPOLYLINE
  5
200
330
1F
100
AcDbEntity
  8
0
  6
SLD-Gestrichelt
 62
     7
370
     0
100
AcDbPolyline
 90
        3
 70
   128
 43
0.0
 10
207.4757898649
 20
119.8163666501
 10
210.2220962247
 20
119.4476262405
 10
213.1663496098
 20
119.2055382505
  0
ELLIPSE
  5
201
330
1F
100
AcDbEntity
  8
0
  6
SLD-Gestrichelt
 62
     7
370
     0
100
AcDbEllipse
 10
227.6404254034
 20
150.1252912655
 30
0.0
 11
54.7725312153415
 21
4.685189640530893
 31
0.0
210
0.0
220
0.0
230
1.0
 40
0.5687088412
 41
2.330383962133375
 42
4.287227121455035
  0
LWPOLYLINE
  5
202
330
1F
100
AcDbEntity
  8
0
  6
SLD-Gestrichelt
 62
     7
370
     0
100
AcDbPolyline
 90
       14
 70
   128
 43
0.0
 10
184.7380744716
 20
181.6252917722
 10
184.7436512312
 20
181.6044785753
 10
184.7882243296
 20
181.438125737
 10
184.8771358332
 20
181.1063048169
 10
185.0099163553
 20
180.6107667014
 10
185.1858618161
 20
179.9541302696
 10
185.4040446183
 20
179.1398637667
 10
185.6633099219
 20
178.1722699031
 10
185.9622868201
 20
177.056465365
 10
186.2993995151
 20
175.7983435616
 10
186.6728673181
 20
174.4045541361
 10
187.0807083746
 20
172.8824619874
 10
187.5207769176
 20
171.24011188
 10
187.9907409152
 20
169.4861800149
  0
LINE
  5
203
330
1F
100
AcDbEntity
  8
0
  6
SLD-Gestrichelt
 62
     7
370
     0
100
AcDbLine
 10
231.4913208088
 20
118.6258458271
 30
0.0
 11
231.4911643466
 21
118.6252907589
 31
0.0
  0
ELLIPSE
  5
204
330
1F
100
AcDbEntity
  8
0
  6
SLD-Gestrichelt
 62
     7
370
     0
100
AcDbEllipse
 10
241.249598947
 20
150.1252912655
 30
0.0
 11
100.3197713769982
 21
3.188873534942501
 31
0.0
210
0.0
220
0.0
230
1.0
 40
0.3123828189
 41
4.418745080623109
 42
4.605038620702858
  0
LWPOLYLINE
  5
205
330
1F
100
AcDbEntity
  8
0
  6
SLD-Gestrichelt
 62
     7
370
     0
100
AcDbPolyline
 90
       11
 70
   128
 43
0.0
 10
175.2588609656
 20
181.6252917722
 10
175.4270838996
 20
181.6097163334
 10
175.912392368
 20
181.5697812214
 10
176.6626211306
 20
181.5227121785
 10
177.5949122807
 20
181.489136137
 10
178.5997087559
 20
181.4839617088
 10
179.5628900131
 20
181.5092117265
 10
180.3810941478
 20
181.5538444295
 10
180.9635023078
 20
181.5985367372
 10
181.2408278188
 20
181.6235781386
 10
181.2215717932
 20
181.6217750981
  0
LINE
  5
206
330
1F
100
AcDbEntity
  8
0
  6
SLD-Gestrichelt
 62
     7
370
     0
100
AcDbLine
 10
141.2588591179
 20
181.1252907589
 30
0.0
 11
141.2588591179
 21
119.1252917722
 31
0.0
  0
LINE
  5
207
330
1F
100
AcDbEntity
  8
0
  6
SLD-Gestrichelt
 62
     7
370
     0
100
AcDbLine
 10
141.2588591179
 20
125.8752905503
 30
0.0
 11
141.2588591179
 21
174.3752919808
 31
0.0
  0
ARC
  5
208
330
1F
100
AcDbEntity
  8
0
  6
SLD-Gestrichelt
 62
     7
370
     0
100
AcDbCircle
 10
140.6776768717
 20
134.2402812358
 30
0.0
 40
0.4896230013938612
100
AcDbArc
 50
241.2731071316
 51
292.3524838518
  0
LWPOLYLINE
  5
209
330
1F
100
AcDbEntity
  8
0
  6
SLD-Gestrichelt
 62
     7
370
     0
100
AcDbPolyline
 90
        9
 70
   128
 43
0.0
 10
140.8638822163
 20
133.7874476537
 10
140.885481042
 20
133.7933522388
 10
140.9055319514
 20
133.7934584096
 10
140.9262374059
 20
133.7877605781
 10
140.9425788283
 20
133.7786541059
 10
140.965024721
 20
133.7584257796
 10
140.9951565279
 20
133.7130182162
 10
141.0426753996
 20
133.553955771
 10
141.0588591229
 20
133.335089378
  0
LINE
  5
20A
330
1F
100
AcDbEntity
  8
0
  6
SLD-Gestrichelt
 62
     7
370
     0
100
AcDbLine
 10
141.0588591229
 20
127.5854707435
 30
0.0
 11
141.0588591229
 21
133.335089378
 31
0.0
  0
LWPOLYLINE
  5
20B
330
1F
100
AcDbEntity
  8
0
  6
SLD-Gestrichelt
 62
     7
370
     0
100
AcDbPolyline
 90
        3
 70
   128
 43
0.0
 10
140.4423468471
 20
171.6645342037
 10
140.2245813938
 20
171.8259417191
 10
139.9375388123
 20
172.2689755931
  0
ARC
  5
20C
330
1F
100
AcDbEntity
  8
0
  6
SLD-Gestrichelt
 62
     7
370
     0
100
AcDbCircle
 10
140.6584624247
 20
172.0995149551
 30
0.0
 40
0.4857099927022838
100
AcDbArc
 50
243.5800029126
 51
295.0195094306
  0
LWPOLYLINE
  5
20D
330
1F
100
AcDbEntity
  8
0
  6
SLD-Gestrichelt
 62
     7
370
     0
100
AcDbPolyline
 90
        9
 70
   128
 43
0.0
 10
140.8638822163
 20
171.6593821272
 10
140.885481042
 20
171.6682762578
 10
140.9055319514
 20
171.674868159
 10
140.9262374059
 20
171.67985446
 10
140.9425788283
 20
171.6823057011
 10
140.965024721
 20
171.6830749735
 10
140.9951565279
 20
171.6775596812
 10
141.0426753996
 20
171.6333870515
 10
141.0588591229
 20
171.5434287414
  0
LINE
  5
20E
330
1F
100
AcDbEntity
  8
0
  6
SLD-Gestrichelt
 62
     7
370
     0
100
AcDbLine
 10
141.0588591229
 20
145.4973556772
 30
0.0
 11
141.0588591229
 21
171.5434287414
 31
0.0
  0
LWPOLYLINE
  5
20F
330
1F
100
AcDbEntity
  8
0
  6
SLD-Gestrichelt
 62
     7
370
     0
100
AcDbPolyline
 90
       10
 70
   128
 43
0.0
 10
141.0588591229
 20
145.4973556772
 10
141.0353231608
 20
145.1369533986
 10
141.0138008782
 20
145.0381656848
 10
140.9741122757
 20
144.9462804682
 10
140.9524786709
 20
144.9218956493
 10
140.933285888
 20
144.9104268774
 10
140.9152508263
 20
144.9068687595
 10
140.8965508585
 20
144.9096855446
 10
140.8741132313
 20
144.9210746884
 10
140.8638822163
 20
144.92904355
  0
ARC
  5
210
330
1F
100
AcDbEntity
  8
0
  6
SLD-Gestrichelt
 62
     7
370
     0
100
AcDbCircle
 10
140.666522035
 20
144.7172793801
 30
0.0
 40
0.2894738413577856
100
AcDbArc
 50
47.0163723267
 51
140.752745035
  0
LWPOLYLINE
  5
211
330
1F
100
AcDbEntity
  8
0
  6
SLD-Gestrichelt
 62
     7
370
     0
100
AcDbPolyline
 90
        3
 70
   128
 43
0.0
 10
140.4423468471
 20
144.900420282
 10
140.2165049644
 20
144.5422783233
 10
139.9375388123
 20
143.5448076315
  0
ARC
  5
212
330
1F
100
AcDbEntity
  8
0
  6
SLD-Gestrichelt
 62
     7
370
     0
100
AcDbCircle
 10
141.0491198524
 20
134.7638977572
 30
0.0
 40
1.12975162609399
100
AcDbArc
 50
190.2899774279
 51
237.5145569944
  0
LINE
  5
213
330
1F
100
AcDbEntity
  8
0
  6
SLD-Gestrichelt
 62
     7
370
     0
100
AcDbLine
 10
141.0588591229
 20
145.4973556772
 30
0.0
 11
141.0588591229
 21
171.5434287414
 31
0.0
  0
LINE
  5
214
330
1F
100
AcDbEntity
  8
0
  6
SLD-Gestrichelt
 62
     7
370
     0
100
AcDbLine
 10
104.7890866598
 20
134.8123402074
 30
0.0
 11
104.7890866598
 21
165.4382423237
 31
0.0
  0
LINE
  5
215
330
1F
100
AcDbEntity
  8
0
  6
SLD-Gestrichelt
 62
     7
370
     0
100
AcDbLine
 10
103.2588603398
 20
133.9496505186
 30
0.0
 11
103.2588603398
 21
166.3009320125
 31
0.0
  0
LINE
  5
216
330
1F
100
AcDbEntity
  8
0
  6
SLD-Gestrichelt
 62
     7
370
     0
100
AcDbLine
 10
111.2890867939
 20
135.7788807451
 30
0.0
 11
111.2890867939
 21
164.4717017859
 31
0.0
  0
LINE
  5
217
330
1F
100
AcDbEntity
  8
0
  6
SLD-Gestrichelt
 62
     7
370
     0
100
AcDbLine
 10
139.0588591298
 20
133.667761527
 30
0.0
 11
139.0588591298
 21
129.505192928
 31
0.0
  0
LINE
  5
218
330
1F
100
AcDbEntity
  8
0
  6
SLD-Gestrichelt
 62
     7
370
     0
100
AcDbLine
 10
104.7588596543
 20
134.4140470698
 30
0.0
 11
104.7588596543
 21
130.6283008978
 31
0.0
  0
LINE
  5
219
330
1F
100
AcDbEntity
  8
0
  6
SLD-Gestrichelt
 62
     7
370
     0
100
AcDbLine
 10
109.7088577649
 20
130.5190288201
 30
0.0
 11
104.7588596543
 21
130.6283008978
 31
0.0
  0
ARC
  5
21A
330
1F
100
AcDbEntity
  8
0
  6
SLD-Gestrichelt
 62
     7
370
     0
100
AcDbCircle
 10
116.5839619003
 20
165.4816117784
 30
0.0
 40
35.63213807778432
100
AcDbArc
 50
258.8751984673
 51
261.9611156632
  0
LWPOLYLINE
  5
21B
330
1F
100
AcDbEntity
  8
0
  6
SLD-Gestrichelt
 62
     7
370
     0
100
AcDbPolyline
 90
       10
 70
   128
 43
0.0
 10
122.5700201889
 20
130.0338563248
 10
122.806622689
 20
130.04714071
 10
123.5182406804
 20
130.0870907232
 10
124.8489236882
 20
130.1180627867
 10
126.3437048024
 20
130.0916858688
 10
127.8177602639
 20
130.0025881007
 10
129.061401864
 20
129.8793815747
 10
129.8854425972
 20
129.7739875242
 10
130.2031809887
 20
129.7283750698
 10
130.1792897707
 20
129.7318600788
  0
LWPOLYLINE
  5
21C
330
1F
100
AcDbEntity
  8
0
  6
SLD-Gestrichelt
 62
     7
370
     0
100
AcDbPolyline
 90
        5
 70
   128
 43
0.0
 10
121.5837197801
 20
129.9512442872
 10
121.5830455026
 20
129.9511790946
 10
122.0045397481
 20
129.989868097
 10
122.128308793
 20
129.9994961098
 10
122.5700201889
 20
130.0338563248
  0
LINE
  5
21D
330
1F
100
AcDbEntity
  8
0
  6
SLD-Gestrichelt
 62
     7
370
     0
100
AcDbLine
 10
141.0588591229
 20
133.335089378
 30
0.0
 11
141.0588591229
 21
129.4833888039
 31
0.0
  0
LINE
  5
21E
330
1F
100
AcDbEntity
  8
0
  6
SLD-Gestrichelt
 62
     7
370
     0
100
AcDbLine
 10
117.0890881171
 20
136.1252908334
 30
0.0
 11
117.0890881171
 21
164.1252916977
 31
0.0
  0
LINE
  5
21F
330
1F
100
AcDbEntity
  8
0
  6
SLD-Gestrichelt
 62
     7
370
     0
100
AcDbLine
 10
109.6890876492
 20
136.1252908334
 30
0.0
 11
109.6890876492
 21
164.1252916977
 31
0.0
  0
LINE
  5
220
330
1F
100
AcDbEntity
  8
0
  6
SLD-Gestrichelt
 62
     7
370
     0
100
AcDbLine
 10
110.6890878132
 20
136.1252908334
 30
0.0
 11
110.6890878132
 21
164.1252916977
 31
0.0
  0
ARC
  5
221
330
1F
100
AcDbEntity
  8
0
  6
SLD-Gestrichelt
 62
     7
370
     0
100
AcDbCircle
 10
125.6699045221
 20
121.9353418453
 30
0.0
 40
14.78115625039614
100
AcDbArc
 50
73.9406501629
 51
105.5928935473
  0
ARC
  5
222
330
1F
100
AcDbEntity
  8
0
  6
SLD-Gestrichelt
 62
     7
370
     0
100
AcDbCircle
 10
125.6699045221
 20
178.3152406857
 30
0.0
 40
14.78115625039615
100
AcDbArc
 50
254.4071064527
 51
286.0593498371
  0
LWPOLYLINE
  5
223
330
1F
100
AcDbEntity
  8
0
  6
SLD-Gestrichelt
 62
     7
370
     0
100
AcDbPolyline
 90
        4
 70
   128
 43
0.0
 10
129.7588590955
 20
164.1109092831
 10
129.7867205417
 20
164.117791757
 10
129.7990763983
 20
164.120843701
 10
129.7588590955
 20
164.1109092831
  0
LWPOLYLINE
  5
224
330
1F
100
AcDbEntity
  8
0
  6
SLD-Gestrichelt
 62
     7
370
     0
100
AcDbPolyline
 90
        4
 70
   128
 43
0.0
 10
129.7588590955
 20
136.1396732479
 10
129.8075179061
 20
136.1281146034
 10
129.8088236203
 20
136.127804473
 10
129.7588590955
 20
136.1396732479
  0
LINE
  5
225
330
1F
100
AcDbEntity
  8
0
  6
SLD-Gestrichelt
 62
     7
370
     0
100
AcDbLine
 10
130.2588591775
 20
136.6252909153
 30
0.0
 11
130.2588591775
 21
163.6252916157
 31
0.0
  0
LINE
  5
226
330
1F
100
AcDbEntity
  8
0
  6
SLD-Gestrichelt
 62
     7
370
     0
100
AcDbLine
 10
131.5088589167
 20
141.125291653
 30
0.0
 11
131.5088589167
 21
159.1252908781
 31
0.0
  0
LINE
  5
227
330
1F
100
AcDbEntity
  8
0
  6
SLD-Gestrichelt
 62
     7
370
     0
100
AcDbLine
 10
130.2588591775
 20
139.8805576116
 30
0.0
 11
130.2588591775
 21
160.3700249195
 31
0.0
  0
LINE
  5
228
330
1F
100
AcDbEntity
  8
0
  6
SLD-Gestrichelt
 62
     7
370
     0
100
AcDbLine
 10
168.2588598182
 20
141.125291653
 30
0.0
 11
168.2588598182
 21
159.1252908781
 31
0.0
  0
LINE
  5
229
330
1F
100
AcDbEntity
  8
0
  6
SLD-Gestrichelt
 62
     7
370
     0
100
AcDbLine
 10
171.1129462769
 20
145.8752910346
 30
0.0
 11
171.1129462769
 21
154.3752914965
 31
0.0
  0
LINE
  5
22A
330
1F
100
AcDbEntity
  8
0
  6
SLD-Gestrichelt
 62
     7
370
     0
100
AcDbLine
 10
239.212826868
 20
145.1652912162
 30
0.0
 11
225.8524978956
 21
145.1652912162
 31
0.0
  0
LINE
  5
22B
330
1F
100
AcDbEntity
  8
0
  6
SLD-Gestrichelt
 62
     7
370
     0
100
AcDbLine
 10
139.0588591298
 20
171.8076915219
 30
0.0
 11
139.0588591298
 21
173.5453904345
 31
0.0
  0
LINE
  5
22C
330
1F
100
AcDbEntity
  8
0
  6
SLD-Gestrichelt
 62
     7
370
     0
100
AcDbLine
 10
104.7588596543
 20
171.0614078417
 30
0.0
 11
104.7588596543
 21
172.6836544201
 31
0.0
  0
LWPOLYLINE
  5
22D
330
1F
100
AcDbEntity
  8
0
  6
SLD-Gestrichelt
 62
     7
370
     0
100
AcDbPolyline
 90
        4
 70
   128
 43
0.0
 10
139.9375388123
 20
172.2689755931
 10
139.64553298
 20
172.9175579473
 10
139.4812481435
 20
173.2860394492
 10
139.4654501187
 20
173.3216159716
  0
LINE
  5
22E
330
1F
100
AcDbEntity
  8
0
  6
SLD-Gestrichelt
 62
     7
370
     0
100
AcDbLine
 10
103.2588603398
 20
170.3114063218
 30
0.0
 11
103.2588603398
 21
171.8176287338
 31
0.0
  0
LINE
  5
22F
330
1F
100
AcDbEntity
  8
0
  6
SLD-Gestrichelt
 62
     7
370
     0
100
AcDbLine
 10
210.5426798066
 20
149.8252912513
 30
0.0
 11
225.8524978956
 21
149.8252912513
 31
0.0
  0
LINE
  5
230
330
1F
100
AcDbEntity
  8
0
  6
SLD-Gestrichelt
 62
     7
370
     0
100
AcDbLine
 10
211.2409482202
 20
147.4252911955
 30
0.0
 11
225.8524978956
 21
147.4252911955
 31
0.0
  0
LINE
  5
231
330
1F
100
AcDbEntity
  8
0
  6
SLD-Gestrichelt
 62
     7
370
     0
100
AcDbLine
 10
210.4884842833
 20
145.1652912162
 30
0.0
 11
225.5237335762
 21
145.1652912162
 31
0.0
  0
LINE
  5
232
330
1F
100
AcDbEntity
  8
0
  6
SLD-Gestrichelt
 62
     7
370
     0
100
AcDbLine
 10
121.7088597318
 20
130.1275362
 30
0.0
 11
129.8088590106
 21
130.1275362
 31
0.0
  0
LWPOLYLINE
  5
233
330
1F
100
AcDbEntity
  8
0
  6
SLD-Gestrichelt
 62
     7
370
     0
100
AcDbPolyline
 90
       23
 70
   128
 43
0.0
 10
175.7628592154
 20
154.3729394413
 10
175.7588582536
 20
154.3752914965
 10
175.8757764896
 20
154.3075852766
 10
176.2038814327
 20
154.1297171004
 10
176.7462576231
 20
153.8803491946
 10
177.534808447
 20
153.6376621313
 10
178.2259168526
 20
153.5623809993
 10
178.9217265746
 20
153.6255616899
 10
179.5453215441
 20
153.7950987201
 10
180.1424334248
 20
154.0445206426
 10
180.5989565751
 20
154.2832432985
 10
180.7585331103
 20
154.3751001097
 10
180.7531537911
 20
154.3719769194
 10
180.659127464
 20
154.3174009509
 10
180.3619461557
 20
154.1546188034
 10
179.8466975292
 20
153.9112826083
 10
179.0831210514
 20
153.6596802268
 10
178.3888014456
 20
153.5646785721
 10
177.6776919564
 20
153.6110132672
 10
177.0495186051
 20
153.7687788456
 10
176.4465617439
 20
154.0107669513
 10
175.9613538584
 20
154.259421464
 10
175.7628592154
 20
154.3729394413
  0
LINE
  5
234
330
1F
100
AcDbEntity
  8
0
  6
SLD-Gestrichelt
 62
     7
370
     0
100
AcDbLine
 10
182.2588602504
 20
145.8752910346
 30
0.0
 11
182.2588602504
 21
154.3752914965
 31
0.0
  0
LINE
  5
235
330
1F
100
AcDbEntity
  8
0
  6
SLD-Gestrichelt
 62
     7
370
     0
100
AcDbLine
 10
109.7088577649
 20
130.5190288201
 30
0.0
 11
109.7088577649
 21
132.1252920404
 31
0.0
  0
LINE
  5
236
330
1F
100
AcDbEntity
  8
0
  6
SLD-Gestrichelt
 62
     7
370
     0
100
AcDbLine
 10
104.7588596543
 20
130.6283008978
 30
0.0
 11
103.2588603398
 21
131.3768123016
 31
0.0
  0
LINE
  5
237
330
1F
100
AcDbEntity
  8
0
  6
SLD-Gestrichelt
 62
     7
370
     0
100
AcDbLine
 10
103.2588603398
 20
131.3768123016
 30
0.0
 11
103.2588603398
 21
132.1252920404
 31
0.0
  0
LINE
  5
238
330
1F
100
AcDbEntity
  8
0
  6
SLD-Gestrichelt
 62
     7
370
     0
100
AcDbLine
 10
121.7088597318
 20
167.62529134
 30
0.0
 11
129.8088590106
 21
167.62529134
 31
0.0
  0
LINE
  5
239
330
1F
100
AcDbEntity
  8
0
  6
SLD-Gestrichelt
 62
     7
370
     0
100
AcDbLine
 10
180.7588609358
 20
174.3248608634
 30
0.0
 11
175.7588582536
 21
174.3248608634
 31
0.0
  0
LINE
  5
23A
330
1F
100
AcDbEntity
  8
0
  6
SLD-Gestrichelt
 62
     7
370
     0
100
AcDbLine
 10
181.2588582238
 20
174.6252906248
 30
0.0
 11
175.2588609656
 21
174.6252906248
 31
0.0
  0
LWPOLYLINE
  5
23B
330
1F
100
AcDbEntity
  8
0
  6
SLD-Gestrichelt
 62
     7
370
     0
100
AcDbPolyline
 90
        9
 70
   128
 43
0.0
 10
178.429511418
 20
166.7836905196
 10
178.4444125792
 20
166.8392942026
 10
178.4593249163
 20
166.8949574902
 10
178.4742484292
 20
166.9506468549
 10
178.4891682168
 20
167.0063362196
 10
178.5040842792
 20
167.0619939193
 10
178.5189817151
 20
167.1175920143
 10
178.533853074
 20
167.1731007024
 10
178.5486946305
 20
167.2284901812
  0
LWPOLYLINE
  5
23C
330
1F
100
AcDbEntity
  8
0
  6
SLD-Gestrichelt
 62
     7
370
     0
100
AcDbPolyline
 90
       17
 70
   128
 43
0.0
 10
178.5486946305
 20
167.2284901812
 10
178.9929317733
 20
167.5693635568
 10
179.4129657051
 20
167.8916682228
 10
179.7949495217
 20
168.1847740635
 10
180.1262880167
 20
168.4390195384
 10
180.3960623642
 20
168.6460227445
 10
180.5953728458
 20
168.7989589497
 10
180.7176480493
 20
168.8927841112
 10
180.7588609358
 20
168.9244081005
 10
180.7176480493
 20
168.8927841112
 10
180.5953728458
 20
168.7989589497
 10
180.3960623642
 20
168.6460227445
 10
180.1262880167
 20
168.4390195384
 10
179.7949495217
 20
168.1847740635
 10
179.4129657051
 20
167.8916682228
 10
178.9929317733
 20
167.5693635568
 10
178.5486946305
 20
167.2284901812
  0
LWPOLYLINE
  5
23D
330
1F
100
AcDbEntity
  8
0
  6
SLD-Gestrichelt
 62
     7
370
     0
100
AcDbPolyline
 90
       19
 70
   128
 43
0.0
 10
178.429511418
 20
166.7836905196
 10
178.8654374381
 20
166.2155837491
 10
179.28245761
 20
165.6721104607
 10
179.6675781211
 20
165.1702104807
 10
180.0087998113
 20
164.7255225777
 10
180.2954869768
 20
164.3519057631
 10
180.5187026462
 20
164.0610034317
 10
180.6714954277
 20
163.8618801459
 10
180.7491006752
 20
163.760743171
 10
180.7588609358
 20
163.7480268925
 10
180.7491006752
 20
163.760743171
 10
180.6714954277
 20
163.8618801459
 10
180.5187026462
 20
164.0610034317
 10
180.2954869768
 20
164.3519057631
 10
180.0087998113
 20
164.7255225777
 10
179.6675781211
 20
165.1702104807
 10
179.28245761
 20
165.6721104607
 10
178.8654374381
 20
166.2155837491
 10
178.429511418
 20
166.7836905196
  0
LWPOLYLINE
  5
23E
330
1F
100
AcDbEntity
  8
0
  6
SLD-Gestrichelt
 62
     7
370
     0
100
AcDbPolyline
 90
        9
 70
   128
 43
0.0
 10
178.5486946305
 20
167.2284901812
 10
178.533853074
 20
167.1731007024
 10
178.5189817151
 20
167.1175920143
 10
178.5040842792
 20
167.0619939193
 10
178.4891682168
 20
167.0063362196
 10
178.4742484292
 20
166.9506468549
 10
178.4593249163
 20
166.8949574902
 10
178.4444125792
 20
166.8392942026
 10
178.429511418
 20
166.7836905196
  0
LWPOLYLINE
  5
23F
330
1F
100
AcDbEntity
  8
0
  6
SLD-Gestrichelt
 62
     7
370
     0
100
AcDbPolyline
 90
       37
 70
   128
 43
0.0
 10
190.2065882882
 20
161.2165151834
 10
190.1952373287
 20
161.2588773221
 10
190.161530902
 20
161.3846757188
 10
190.1064897379
 20
161.5900882259
 10
190.0317902168
 20
161.8688740507
 10
189.9397010406
 20
162.212561883
 10
189.8330161771
 20
162.6107088029
 10
189.7149840793
 20
163.0512178614
 10
189.5891847512
 20
163.5207040906
 10
189.4594440659
 20
164.0049024224
 10
189.3297033807
 20
164.4891016856
 10
189.2039040526
 20
164.9585879147
 10
189.0858719548
 20
165.3990969732
 10
188.9791870913
 20
165.7972429618
 10
188.8870979151
 20
166.1409307942
 10
188.8123946687
 20
166.4197166189
 10
188.7573572298
 20
166.6251309886
 10
188.7236470779
 20
166.7509284541
 10
188.7122961184
 20
166.7932905927
 10
188.7236470779
 20
166.7509284541
 10
188.7573572298
 20
166.6251309886
 10
188.8123946687
 20
166.4197166189
 10
188.8870979151
 20
166.1409307942
 10
188.9791870913
 20
165.7972429618
 10
189.0858719548
 20
165.3990969732
 10
189.2039040526
 20
164.9585879147
 10
189.3297033807
 20
164.4891016856
 10
189.4594440659
 20
164.0049024224
 10
189.5891847512
 20
163.5207040906
 10
189.7149840793
 20
163.0512178614
 10
189.8330161771
 20
162.6107088029
 10
189.9397010406
 20
162.212561883
 10
190.0317902168
 20
161.8688740507
 10
190.1064897379
 20
161.5900882259
 10
190.161530902
 20
161.3846757188
 10
190.1952373287
 20
161.2588773221
 10
190.2065882882
 20
161.2165151834
  0
LWPOLYLINE
  5
240
330
1F
100
AcDbEntity
  8
0
  6
SLD-Gestrichelt
 62
     7
370
     0
100
AcDbPolyline
 90
        3
 70
   128
 43
0.0
 10
178.5486946305
 20
167.2284901812
 10
178.5002882084
 20
167.067989774
 10
178.429511418
 20
166.7836905196
  0
LWPOLYLINE
  5
241
330
1F
100
AcDbEntity
  8
0
  6
SLD-Gestrichelt
 62
     7
370
     0
100
AcDbPolyline
 90
        3
 70
   128
 43
0.0
 10
178.429511418
 20
166.7836905196
 10
178.4843588671
 20
167.0102254227
 10
178.5486946305
 20
167.2284901812
  0
LINE
  5
242
330
1F
100
AcDbEntity
  8
0
  6
SLD-Gestrichelt
 62
     7
370
     0
100
AcDbLine
 10
224.601321896
 20
144.7152910493
 30
0.0
 11
227.9013256034
 21
144.7152910493
 31
0.0
  0
LINE
  5
243
330
1F
100
AcDbEntity
  8
0
  6
SLD-Gestrichelt
 62
     7
370
     0
100
AcDbLine
 10
224.1726974448
 20
145.1652912162
 30
0.0
 11
228.3299500545
 21
145.1652912162
 31
0.0
  0
LINE
  5
244
330
1F
100
AcDbEntity
  8
0
  6
SLD-Gestrichelt
 62
     7
370
     0
100
AcDbLine
 10
151.2588588944
 20
119.1252917722
 30
0.0
 11
155.25885955
 21
119.1252917722
 31
0.0
  0
LINE
  5
245
330
1F
100
AcDbEntity
  8
0
  6
SLD-Gestrichelt
 62
     7
370
     0
100
AcDbLine
 10
224.601321896
 20
133.6652916595
 30
0.0
 11
227.9013256034
 21
133.6652916595
 31
0.0
  0
LINE
  5
246
330
1F
100
AcDbEntity
  8
0
  6
SLD-Gestrichelt
 62
     7
370
     0
100
AcDbLine
 10
211.2263972362
 20
147.5252912584
 30
0.0
 11
210.5572233399
 21
149.8252912513
 31
0.0
  0
LINE
  5
247
330
1F
100
AcDbEntity
  8
0
  6
SLD-Gestrichelt
 62
     7
370
     0
100
AcDbLine
 10
211.2409482202
 20
147.4252911955
 30
0.0
 11
211.2263972362
 21
147.5252912584
 31
0.0
  0
LINE
  5
248
330
1F
100
AcDbEntity
  8
0
  6
SLD-Gestrichelt
 62
     7
370
     0
100
AcDbLine
 10
211.2409482202
 20
147.4252911955
 30
0.0
 11
210.5426798066
 21
149.8252912513
 31
0.0
  0
LINE
  5
249
330
1F
100
AcDbEntity
  8
0
  6
SLD-Gestrichelt
 62
     7
370
     0
100
AcDbLine
 10
210.5572233399
 20
149.8252912513
 30
0.0
 11
210.5426798066
 21
149.8252912513
 31
0.0
  0
LINE
  5
24A
330
1F
100
AcDbEntity
  8
0
  6
SLD-Gestrichelt
 62
     7
370
     0
100
AcDbLine
 10
210.4884842833
 20
147.5252912584
 30
0.0
 11
211.2263972362
 21
147.5252912584
 31
0.0
  0
LINE
  5
24B
330
1F
100
AcDbEntity
  8
0
  6
SLD-Gestrichelt
 62
     7
370
     0
100
AcDbLine
 10
210.4279781183
 20
149.8252912513
 30
0.0
 11
210.5572233399
 21
149.8252912513
 31
0.0
  0
LINE
  5
24C
330
1F
100
AcDbEntity
  8
0
  6
SLD-Gestrichelt
 62
     7
370
     0
100
AcDbLine
 10
211.5409532985
 20
147.5252912584
 30
0.0
 11
209.2647189697
 21
147.5252912584
 31
0.0
  0
LINE
  5
24D
330
1F
100
AcDbEntity
  8
0
  6
SLD-Gestrichelt
 62
     7
370
     0
100
AcDbLine
 10
211.6014669141
 20
149.8252912513
 30
0.0
 11
209.0635681948
 21
149.8252912513
 31
0.0
  0
LINE
  5
24E
330
1F
100
AcDbEntity
  8
0
  6
SLD-Gestrichelt
 62
     7
370
     0
100
AcDbLine
 10
239.212826868
 20
145.1652912162
 30
0.0
 11
231.4913208088
 21
118.6258458271
 31
0.0
  0
LINE
  5
24F
330
1F
100
AcDbEntity
  8
0
  6
SLD-Gestrichelt
 62
     7
370
     0
100
AcDbLine
 10
239.212826868
 20
145.1652912162
 30
0.0
 11
225.5237335762
 21
145.1652912162
 31
0.0
  0
LINE
  5
250
330
1F
100
AcDbEntity
  8
0
  6
SLD-Gestrichelt
 62
     7
370
     0
100
AcDbLine
 10
225.8524978956
 20
149.8252912513
 30
0.0
 11
213.9718989333
 21
149.8252912513
 31
0.0
  0
LINE
  5
251
330
1F
100
AcDbEntity
  8
0
  6
SLD-Gestrichelt
 62
     7
370
     0
100
AcDbLine
 10
211.5409532985
 20
145.1652912162
 30
0.0
 11
209.2647189697
 21
145.1652912162
 31
0.0
  0
LINE
  5
252
330
1F
100
AcDbEntity
  8
0
  6
SLD-Gestrichelt
 62
     7
370
     0
100
AcDbLine
 10
217.0605892738
 20
145.1652912162
 30
0.0
 11
217.0605892738
 21
147.4252911955
 31
0.0
  0
LINE
  5
253
330
1F
100
AcDbEntity
  8
0
  6
SLD-Gestrichelt
 62
     7
370
     0
100
AcDbLine
 10
225.8524978956
 20
147.4252911955
 30
0.0
 11
217.0605892738
 21
147.4252911955
 31
0.0
  0
LINE
  5
254
330
1F
100
AcDbEntity
  8
0
  6
SLD-Gestrichelt
 62
     7
370
     0
100
AcDbLine
 10
225.5237335762
 20
145.1652912162
 30
0.0
 11
225.8524978956
 21
147.4252911955
 31
0.0
  0
LINE
  5
255
330
1F
100
AcDbEntity
  8
0
  6
SLD-Gestrichelt
 62
     7
370
     0
100
AcDbLine
 10
225.5237335762
 20
145.1652912162
 30
0.0
 11
217.0605892738
 21
145.1652912162
 31
0.0
  0
LINE
  5
256
330
1F
100
AcDbEntity
  8
0
  6
SLD-Gestrichelt
 62
     7
370
     0
100
AcDbLine
 10
217.0460382899
 20
147.5252912584
 30
0.0
 11
211.5409532985
 21
147.5252912584
 31
0.0
  0
LINE
  5
257
330
1F
100
AcDbEntity
  8
0
  6
SLD-Gestrichelt
 62
     7
370
     0
100
AcDbLine
 10
217.0460382899
 20
147.5252912584
 30
0.0
 11
217.0605892738
 21
147.4252911955
 31
0.0
  0
LINE
  5
258
330
1F
100
AcDbEntity
  8
0
  6
SLD-Gestrichelt
 62
     7
370
     0
100
AcDbLine
 10
217.0605892738
 20
145.1652912162
 30
0.0
 11
211.5409532985
 21
145.1652912162
 31
0.0
  0
LINE
  5
259
330
1F
100
AcDbEntity
  8
0
  6
SLD-Gestrichelt
 62
     7
370
     0
100
AcDbLine
 10
217.0460382899
 20
149.8252912513
 30
0.0
 11
217.0460382899
 21
147.5252912584
 31
0.0
  0
LINE
  5
25A
330
1F
100
AcDbEntity
  8
0
  6
SLD-Gestrichelt
 62
     7
370
     0
100
AcDbLine
 10
225.8524978956
 20
149.8252912513
 30
0.0
 11
225.8524978956
 21
147.4252911955
 31
0.0
  0
LINE
  5
25B
330
1F
100
AcDbEntity
  8
0
  6
SLD-Gestrichelt
 62
     7
370
     0
100
AcDbLine
 10
225.8524978956
 20
149.8252912513
 30
0.0
 11
217.0460382899
 21
149.8252912513
 31
0.0
  0
LINE
  5
25C
330
1F
100
AcDbEntity
  8
0
  6
SLD-Gestrichelt
 62
     7
370
     0
100
AcDbLine
 10
217.0460382899
 20
149.8252912513
 30
0.0
 11
211.6014669141
 21
149.8252912513
 31
0.0
  0
LINE
  5
25D
330
1F
100
AcDbEntity
  8
0
  6
SLD-Gestrichelt
 62
     7
370
     0
100
AcDbLine
 10
103.2588603398
 20
135.1640467271
 30
0.0
 11
103.2588603398
 21
131.3768123016
 31
0.0
  0
LINE
  5
25E
330
1F
100
AcDbEntity
  8
0
  6
SLD-Gestrichelt
 62
     7
370
     0
100
AcDbLine
 10
103.2588603398
 20
170.3114063218
 30
0.0
 11
103.2588603398
 21
144.900420282
 31
0.0
  0
LINE
  5
25F
330
1F
100
AcDbEntity
  8
0
  6
SLD-Gestrichelt
 62
     7
370
     0
100
AcDbLine
 10
213.9718989333
 20
149.8252912513
 30
0.0
 11
208.7885076603
 21
149.8252912513
 31
0.0
  0
LINE
  5
260
330
1F
100
AcDbEntity
  8
0
  6
SLD-Gestrichelt
 62
     7
370
     0
100
AcDbLine
 10
104.7588596543
 20
171.0614078417
 30
0.0
 11
104.7588596543
 21
144.900420282
 31
0.0
  0
LINE
  5
261
330
1F
100
AcDbEntity
  8
0
  6
SLD-Gestrichelt
 62
     7
370
     0
100
AcDbLine
 10
141.0588591229
 20
171.5434287414
 30
0.0
 11
141.0588591229
 21
145.4973556772
 31
0.0
  0
LINE
  5
262
330
1F
100
AcDbEntity
  8
0
  6
SLD-Gestrichelt
 62
     7
370
     0
100
AcDbLine
 10
139.0588591298
 20
171.8076915219
 30
0.0
 11
139.0588591298
 21
144.900420282
 31
0.0
  0
LINE
  5
263
330
1F
100
AcDbEntity
  8
0
  6
SLD-Gestrichelt
 62
     7
370
     0
100
AcDbLine
 10
208.7885076603
 20
149.8252912513
 30
0.0
 11
197.8628198108
 21
149.8252912513
 31
0.0
  0
ARC
  5
264
330
1F
100
AcDbEntity
  8
0
  6
SLD-Gestrichelt
 62
     7
370
     0
100
AcDbCircle
 10
197.8628210458
 20
155.8252912655
 30
0.0
 40
6.000000000000044
100
AcDbArc
 50
195.0
 51
270.0
  0
LINE
  5
265
330
1F
100
AcDbEntity
  8
0
  6
SLD-Gestrichelt
 62
     7
370
     0
100
AcDbLine
 10
192.0672664842
 20
154.2723770924
 30
0.0
 11
187.9907409152
 21
169.4861800149
 31
0.0
  0
LINE
  5
266
330
1F
100
AcDbEntity
  8
0
  6
SLD-Gestrichelt
 62
     7
370
     0
100
AcDbLine
 10
103.2588603398
 20
144.900420282
 30
0.0
 11
103.2588603398
 21
135.1640467271
 31
0.0
  0
LINE
  5
267
330
1F
100
AcDbEntity
  8
0
  6
SLD-Gestrichelt
 62
     7
370
     0
100
AcDbLine
 10
104.7588596543
 20
144.900420282
 30
0.0
 11
104.7588596543
 21
134.4140470698
 31
0.0
  0
LINE
  5
268
330
1F
100
AcDbEntity
  8
0
  6
SLD-Gestrichelt
 62
     7
370
     0
100
AcDbLine
 10
139.0588591298
 20
144.900420282
 30
0.0
 11
139.0588591298
 21
133.667761527
 31
0.0
  0
ARC
  5
269
330
1F
100
AcDbEntity
  8
0
  6
SLD-Gestrichelt
 62
     7
370
     0
100
AcDbCircle
 10
159.9766558511
 20
139.0534488689
 30
0.0
 40
20.53627315817429
100
AcDbArc
 50
167.3670939911
 51
192.6329060089
  0
LINE
  5
26A
330
1F
100
AcDbEntity
  8
0
  6
SLD-Gestrichelt
 62
     7
370
     0
100
AcDbLine
 10
141.2588591179
 20
125.8752905503
 30
0.0
 11
141.3517523383
 21
125.9681843891
 31
0.0
  0
LINE
  5
26B
330
1F
100
AcDbEntity
  8
0
  6
SLD-Gestrichelt
 62
     7
370
     0
100
AcDbLine
 10
141.3517523383
 20
174.2823981419
 30
0.0
 11
141.2588591179
 21
174.3752919808
 31
0.0
  0
ARC
  5
26C
330
1F
100
AcDbEntity
  8
0
  6
SLD-Gestrichelt
 62
     7
370
     0
100
AcDbCircle
 10
140.6446455555
 20
126.6752912655
 30
0.0
 40
1.0
100
AcDbArc
 50
315.0
 51
0.0
  0
ARC
  5
26D
330
1F
100
AcDbEntity
  8
0
  6
SLD-Gestrichelt
 62
     7
370
     0
100
AcDbCircle
 10
140.6446455555
 20
126.6752912655
 30
0.0
 40
1.0
100
AcDbArc
 50
0.0
 51
52.1052014664
  0
ARC
  5
26E
330
1F
100
AcDbEntity
  8
0
  6
SLD-Gestrichelt
 62
     7
370
     0
100
AcDbCircle
 10
140.6446455555
 20
173.5752912655
 30
0.0
 40
1.000000000000008
100
AcDbArc
 50
343.125
 51
45.0
  0
ARC
  5
26F
330
1F
100
AcDbEntity
  8
0
  6
SLD-Gestrichelt
 62
     7
370
     0
100
AcDbCircle
 10
140.6446455555
 20
173.5752912655
 30
0.0
 40
1.000000000000008
100
AcDbArc
 50
307.8947985336
 51
343.125
  0
LINE
  5
270
330
1F
100
AcDbEntity
  8
0
  6
SLD-Gestrichelt
 62
     7
370
     0
100
AcDbLine
 10
141.6446455537
 20
126.6752910539
 30
0.0
 11
141.6446455537
 21
173.5752914771
 31
0.0
  0
LINE
  5
271
330
1F
100
AcDbEntity
  8
0
  6
SLD-Gestrichelt
 62
     7
370
     0
100
AcDbLine
 10
141.6446455537
 20
126.6752910539
 30
0.0
 11
141.6446455537
 21
173.5752914771
 31
0.0
  0
LINE
  5
272
330
1F
100
AcDbEntity
  8
0
  6
SLD-Gestrichelt
 62
     7
370
     0
100
AcDbLine
 10
103.2588603398
 20
133.9288615361
 30
0.0
 11
104.7890866598
 21
134.8123402074
 31
0.0
  0
LINE
  5
273
330
1F
100
AcDbEntity
  8
0
  6
SLD-Gestrichelt
 62
     7
370
     0
100
AcDbLine
 10
104.7890866598
 20
165.4382423237
 30
0.0
 11
103.2588603398
 21
166.321720995
 31
0.0
  0
ARC
  5
274
330
1F
100
AcDbEntity
  8
0
  6
SLD-Gestrichelt
 62
     7
370
     0
100
AcDbCircle
 10
114.2606604328
 20
136.1252912655
 30
0.0
 40
2.000000000000006
100
AcDbArc
 50
270.0
 51
315.0
  0
ARC
  5
275
330
1F
100
AcDbEntity
  8
0
  6
SLD-Gestrichelt
 62
     7
370
     0
100
AcDbCircle
 10
114.2606604328
 20
164.1252912655
 30
0.0
 40
2.0
100
AcDbArc
 50
45.0
 51
90.0
  0
LINE
  5
276
330
1F
100
AcDbEntity
  8
0
  6
SLD-Gestrichelt
 62
     7
370
     0
100
AcDbLine
 10
113.2588582536
 20
134.1252905056
 30
0.0
 11
114.2606595954
 21
134.1252905056
 31
0.0
  0
LINE
  5
277
330
1F
100
AcDbEntity
  8
0
  6
SLD-Gestrichelt
 62
     7
370
     0
100
AcDbLine
 10
114.2606595954
 20
166.1252920255
 30
0.0
 11
113.2588582536
 21
166.1252920255
 31
0.0
  0
ARC
  5
278
330
1F
100
AcDbEntity
  8
0
  6
SLD-Gestrichelt
 62
     7
370
     0
100
AcDbCircle
 10
113.2588591179
 20
136.1252912655
 30
0.0
 40
1.99999999999999
100
AcDbArc
 50
189.9742217944
 51
270.0
  0
ARC
  5
279
330
1F
100
AcDbEntity
  8
0
  6
SLD-Gestrichelt
 62
     7
370
     0
100
AcDbCircle
 10
113.2588591179
 20
164.1252912655
 30
0.0
 40
1.99999999999999
100
AcDbArc
 50
90.0
 51
170.0257782056
  0
LINE
  5
27A
330
1F
100
AcDbEntity
  8
0
  6
SLD-Gestrichelt
 62
     7
370
     0
100
AcDbLine
 10
115.6748747876
 20
134.7110775038
 30
0.0
 11
117.0890881171
 21
136.1252908334
 31
0.0
  0
LINE
  5
27B
330
1F
100
AcDbEntity
  8
0
  6
SLD-Gestrichelt
 62
     7
370
     0
100
AcDbLine
 10
117.0890881171
 20
164.1252916977
 30
0.0
 11
115.6748747876
 21
165.5395050272
 31
0.0
  0
LINE
  5
27C
330
1F
100
AcDbEntity
  8
0
  6
SLD-Gestrichelt
 62
     7
370
     0
100
AcDbLine
 10
104.7890866598
 20
134.8123402074
 30
0.0
 11
109.6890876492
 21
136.1252908334
 31
0.0
  0
LINE
  5
27D
330
1F
100
AcDbEntity
  8
0
  6
SLD-Gestrichelt
 62
     7
370
     0
100
AcDbLine
 10
109.6890876492
 20
164.1252916977
 30
0.0
 11
104.7890866598
 21
165.4382423237
 31
0.0
  0
LINE
  5
27E
330
1F
100
AcDbEntity
  8
0
  6
SLD-Gestrichelt
 62
     7
370
     0
100
AcDbLine
 10
111.2890867939
 20
164.4717017859
 30
0.0
 11
110.6890878132
 21
164.1252916977
 31
0.0
  0
LINE
  5
27F
330
1F
100
AcDbEntity
  8
0
  6
SLD-Gestrichelt
 62
     7
370
     0
100
AcDbLine
 10
110.6890878132
 20
136.1252908334
 30
0.0
 11
111.2890867939
 21
135.7788807451
 31
0.0
  0
LINE
  5
280
330
1F
100
AcDbEntity
  8
0
  6
SLD-Gestrichelt
 62
     7
370
     0
100
AcDbLine
 10
117.0890881171
 20
136.1252908334
 30
0.0
 11
121.7228519222
 21
136.1252908334
 31
0.0
  0
LINE
  5
281
330
1F
100
AcDbEntity
  8
0
  6
SLD-Gestrichelt
 62
     7
370
     0
100
AcDbLine
 10
121.7228519222
 20
164.1252916977
 30
0.0
 11
117.0890881171
 21
164.1252916977
 31
0.0
  0
ARC
  5
282
330
1F
100
AcDbEntity
  8
0
  6
SLD-Gestrichelt
 62
     7
370
     0
100
AcDbCircle
 10
129.7588591179
 20
136.6252912655
 30
0.0
 40
0.5
100
AcDbArc
 50
275.5682401931
 51
0.0
  0
ARC
  5
283
330
1F
100
AcDbEntity
  8
0
  6
SLD-Gestrichelt
 62
     7
370
     0
100
AcDbCircle
 10
129.7588591179
 20
163.6252912655
 30
0.0
 40
0.5000000000000132
100
AcDbArc
 50
0.0
 51
86.7052363418
  0
LINE
  5
284
330
1F
100
AcDbEntity
  8
0
  6
SLD-Gestrichelt
 62
     7
370
     0
100
AcDbLine
 10
109.6890876492
 20
136.1252908334
 30
0.0
 11
110.6890878132
 21
136.1252908334
 31
0.0
  0
LINE
  5
285
330
1F
100
AcDbEntity
  8
0
  6
SLD-Gestrichelt
 62
     7
370
     0
100
AcDbLine
 10
110.6890878132
 20
164.1252916977
 30
0.0
 11
109.6890876492
 21
164.1252916977
 31
0.0
  0
LINE
  5
286
330
1F
100
AcDbEntity
  8
0
  6
SLD-Gestrichelt
 62
     7
370
     0
100
AcDbLine
 10
130.2588591775
 20
139.8752909824
 30
0.0
 11
131.5088589167
 21
141.125291653
 31
0.0
  0
LINE
  5
287
330
1F
100
AcDbEntity
  8
0
  6
SLD-Gestrichelt
 62
     7
370
     0
100
AcDbLine
 10
131.5088589167
 20
159.1252908781
 30
0.0
 11
130.2588591775
 21
160.3752915486
 31
0.0
  0
LINE
  5
288
330
1F
100
AcDbEntity
  8
0
  6
SLD-Gestrichelt
 62
     7
370
     0
100
AcDbLine
 10
168.2588598182
 20
159.1252908781
 30
0.0
 11
131.5088589167
 21
159.1252908781
 31
0.0
  0
LINE
  5
289
330
1F
100
AcDbEntity
  8
0
  6
SLD-Gestrichelt
 62
     7
370
     0
100
AcDbLine
 10
131.5088589167
 20
141.125291653
 30
0.0
 11
168.2588598182
 21
141.125291653
 31
0.0
  0
LINE
  5
28A
330
1F
100
AcDbEntity
  8
0
  6
SLD-Gestrichelt
 62
     7
370
     0
100
AcDbLine
 10
168.2588598182
 20
141.125291653
 30
0.0
 11
171.1129462769
 21
145.8752910346
 31
0.0
  0
LINE
  5
28B
330
1F
100
AcDbEntity
  8
0
  6
SLD-Gestrichelt
 62
     7
370
     0
100
AcDbLine
 10
171.1129462769
 20
154.3752914965
 30
0.0
 11
168.2588598182
 21
159.1252908781
 31
0.0
  0
LINE
  5
28C
330
1F
100
AcDbEntity
  8
0
  6
SLD-Gestrichelt
 62
     7
370
     0
100
AcDbLine
 10
130.1919902166
 20
129.7444049939
 30
0.0
 11
129.8088590106
 21
130.1275362
 31
0.0
  0
LINE
  5
28D
330
1F
100
AcDbEntity
  8
0
  6
SLD-Gestrichelt
 62
     7
370
     0
100
AcDbLine
 10
121.7088597318
 20
130.1275362
 30
0.0
 11
121.5581437996
 21
129.9768202677
 31
0.0
  0
LINE
  5
28E
330
1F
100
AcDbEntity
  8
0
  6
SLD-Gestrichelt
 62
     7
370
     0
100
AcDbLine
 10
175.7588582536
 20
154.3752914965
 30
0.0
 11
171.1129462769
 21
154.3752914965
 31
0.0
  0
LINE
  5
28F
330
1F
100
AcDbEntity
  8
0
  6
SLD-Gestrichelt
 62
     7
370
     0
100
AcDbLine
 10
182.2588602504
 20
154.3752914965
 30
0.0
 11
180.7531537911
 21
154.3752914965
 31
0.0
  0
LINE
  5
290
330
1F
100
AcDbEntity
  8
0
  6
SLD-Gestrichelt
 62
     7
370
     0
100
AcDbLine
 10
171.1129462769
 20
145.8752910346
 30
0.0
 11
182.2588602504
 21
145.8752910346
 31
0.0
  0
LINE
  5
291
330
1F
100
AcDbEntity
  8
0
  6
SLD-Gestrichelt
 62
     7
370
     0
100
AcDbLine
 10
182.2588602504
 20
145.8752910346
 30
0.0
 11
184.8125169476
 21
150.1252912655
 31
0.0
  0
LINE
  5
292
330
1F
100
AcDbEntity
  8
0
  6
SLD-Gestrichelt
 62
     7
370
     0
100
AcDbLine
 10
184.8125169476
 20
150.1252912655
 30
0.0
 11
182.2588602504
 21
154.3752914965
 31
0.0
  0
LINE
  5
293
330
1F
100
AcDbEntity
  8
0
  6
SLD-Gestrichelt
 62
     7
370
     0
100
AcDbLine
 10
111.6178753277
 20
130.2162763402
 30
0.0
 11
109.7088577649
 21
132.1252920404
 31
0.0
  0
LINE
  5
294
330
1F
100
AcDbEntity
  8
0
  6
SLD-Gestrichelt
 62
     7
370
     0
100
AcDbLine
 10
109.7088577649
 20
132.1252920404
 30
0.0
 11
103.2588603398
 21
132.1252920404
 31
0.0
  0
LINE
  5
295
330
1F
100
AcDbEntity
  8
0
  6
SLD-Gestrichelt
 62
     7
370
     0
100
AcDbLine
 10
129.8088590106
 20
130.1275362
 30
0.0
 11
129.8088590106
 21
136.1281090155
 31
0.0
  0
LINE
  5
296
330
1F
100
AcDbEntity
  8
0
  6
SLD-Gestrichelt
 62
     7
370
     0
100
AcDbLine
 10
121.7088597318
 20
136.1291753798
 30
0.0
 11
121.7088597318
 21
130.1275362
 31
0.0
  0
LINE
  5
297
330
1F
100
AcDbEntity
  8
0
  6
SLD-Gestrichelt
 62
     7
370
     0
100
AcDbLine
 10
129.8088590106
 20
164.1178020015
 30
0.0
 11
129.8088590106
 21
167.62529134
 31
0.0
  0
LINE
  5
298
330
1F
100
AcDbEntity
  8
0
  6
SLD-Gestrichelt
 62
     7
370
     0
100
AcDbLine
 10
121.7088597318
 20
167.62529134
 30
0.0
 11
121.7088597318
 21
164.1214071512
 31
0.0
  0
LINE
  5
299
330
1F
100
AcDbEntity
  8
0
  6
SLD-Gestrichelt
 62
     7
370
     0
100
AcDbLine
 10
129.8088590106
 20
167.62529134
 30
0.0
 11
125.7588593712
 21
170.0587776229
 31
0.0
  0
LINE
  5
29A
330
1F
100
AcDbEntity
  8
0
  6
SLD-Gestrichelt
 62
     7
370
     0
100
AcDbLine
 10
125.7588593712
 20
170.0587776229
 30
0.0
 11
121.7088597318
 21
167.62529134
 31
0.0
  0
LINE
  5
29B
330
1F
100
AcDbEntity
  8
0
  6
SLD-Gestrichelt
 62
     7
370
     0
100
AcDbLine
 10
175.2588609656
 20
174.6252906248
 30
0.0
 11
175.7588582536
 21
174.3248608634
 31
0.0
  0
LINE
  5
29C
330
1F
100
AcDbEntity
  8
0
  6
SLD-Gestrichelt
 62
     7
370
     0
100
AcDbLine
 10
180.7588609358
 20
174.3248608634
 30
0.0
 11
181.2588582238
 21
174.6252906248
 31
0.0
  0
LINE
  5
29D
330
1F
100
AcDbEntity
  8
0
  6
SLD-Gestrichelt
 62
     7
370
     0
100
AcDbLine
 10
175.2588609656
 20
181.6252917722
 30
0.0
 11
175.2588609656
 21
174.6252906248
 31
0.0
  0
LINE
  5
29E
330
1F
100
AcDbEntity
  8
0
  6
SLD-Gestrichelt
 62
     7
370
     0
100
AcDbLine
 10
181.2588582238
 20
174.6252906248
 30
0.0
 11
181.2588582238
 21
181.6252917722
 31
0.0
  0
LINE
  5
29F
330
1F
100
AcDbEntity
  8
0
  6
SLD-Gestrichelt
 62
     7
370
     0
100
AcDbLine
 10
188.7122961184
 20
166.7932905927
 30
0.0
 11
180.7588609358
 21
168.9244081005
 31
0.0
  0
LINE
  5
2A0
330
1F
100
AcDbEntity
  8
0
  6
SLD-Gestrichelt
 62
     7
370
     0
100
AcDbLine
 10
180.7588609358
 20
163.7480268925
 30
0.0
 11
190.2065882882
 21
161.2165151834
 31
0.0
  0
LINE
  5
2A1
330
1F
100
AcDbEntity
  8
0
  6
SLD-Gestrichelt
 62
     7
370
     0
100
AcDbLine
 10
175.7588582536
 20
174.3248608634
 30
0.0
 11
175.7588582536
 21
154.3752914965
 31
0.0
  0
LINE
  5
2A2
330
1F
100
AcDbEntity
  8
0
  6
SLD-Gestrichelt
 62
     7
370
     0
100
AcDbLine
 10
180.7588609358
 20
168.9244081005
 30
0.0
 11
180.7588609358
 21
174.3248608634
 31
0.0
  0
LINE
  5
2A3
330
1F
100
AcDbEntity
  8
0
  6
SLD-Gestrichelt
 62
     7
370
     0
100
AcDbLine
 10
180.7588609358
 20
154.3720155693
 30
0.0
 11
180.7588609358
 21
163.7480268925
 31
0.0
  0
LINE
  5
2A4
330
1F
100
AcDbEntity
  8
0
  6
SLD-Gestrichelt
 62
     7
370
     0
100
AcDbLine
 10
224.1513217291
 20
145.1652912162
 30
0.0
 11
224.601321896
 21
144.7152910493
 31
0.0
  0
LINE
  5
2A5
330
1F
100
AcDbEntity
  8
0
  6
SLD-Gestrichelt
 62
     7
370
     0
100
AcDbLine
 10
227.9013256034
 20
144.7152910493
 30
0.0
 11
228.3513257703
 21
145.1652912162
 31
0.0
  0
LINE
  5
2A6
330
1F
100
AcDbEntity
  8
0
  6
SLD-Gestrichelt
 62
     7
370
     0
100
AcDbLine
 10
155.25885955
 20
119.1252917722
 30
0.0
 11
153.2588592222
 21
120.3270126804
 31
0.0
  0
LINE
  5
2A7
330
1F
100
AcDbEntity
  8
0
  6
SLD-Gestrichelt
 62
     7
370
     0
100
AcDbLine
 10
153.2588592222
 20
120.3270126804
 30
0.0
 11
151.2588588944
 21
119.1252917722
 31
0.0
  0
LINE
  5
2A8
330
1F
100
AcDbEntity
  8
0
  6
SLD-Gestrichelt
 62
     7
370
     0
100
AcDbLine
 10
151.2588588944
 20
119.1252917722
 30
0.0
 11
151.2588588944
 21
118.6252907589
 31
0.0
  0
LINE
  5
2A9
330
1F
100
AcDbEntity
  8
0
  6
SLD-Gestrichelt
 62
     7
370
     0
100
AcDbLine
 10
155.25885955
 20
118.6252907589
 30
0.0
 11
155.25885955
 21
119.1252917722
 31
0.0
  0
LINE
  5
2AA
330
1F
100
AcDbEntity
  8
0
  6
SLD-Gestrichelt
 62
     7
370
     0
100
AcDbLine
 10
224.601321896
 20
144.7152910493
 30
0.0
 11
224.601321896
 21
133.6652916595
 31
0.0
  0
LINE
  5
2AB
330
1F
100
AcDbEntity
  8
0
  6
SLD-Gestrichelt
 62
     7
370
     0
100
AcDbLine
 10
227.9013256034
 20
133.6652916595
 30
0.0
 11
227.9013256034
 21
144.7152910493
 31
0.0
  0
LINE
  5
2AC
330
1F
100
AcDbEntity
  8
0
  6
SLD-Gestrichelt
 62
     7
370
     0
100
AcDbLine
 10
224.601321896
 20
133.6652916595
 30
0.0
 11
226.251327475
 21
132.6738708392
 31
0.0
  0
LINE
  5
2AD
330
1F
100
AcDbEntity
  8
0
  6
SLD-Gestrichelt
 62
     7
370
     0
100
AcDbLine
 10
226.251327475
 20
132.6738708392
 30
0.0
 11
227.9013256034
 21
133.6652916595
 31
0.0
  0
LINE
  5
2AE
330
1F
100
AcDbEntity
  8
0
  6
SLD-Gestrichelt
 62
     7
370
     0
100
AcDbLine
 10
209.063493689
 20
149.8252912513
 30
0.0
 11
209.2647189697
 21
147.5252912584
 31
0.0
  0
LINE
  5
2AF
330
1F
100
AcDbEntity
  8
0
  6
SLD-Gestrichelt
 62
     7
370
     0
100
AcDbLine
 10
209.2647189697
 20
147.5252912584
 30
0.0
 11
209.2647189697
 21
145.1652912162
 31
0.0
  0
LINE
  5
2B0
330
1F
100
AcDbEntity
  8
VERMASSUNG
100
AcDbLine
 10
241.2588591179
 20
150.1252912655
 30
0.0
 11
241.2588591179
 21
177.608088122
 31
0.0
  0
LINE
  5
2B1
330
1F
100
AcDbEntity
  8
VERMASSUNG
  6
SLD-Punktstrich
100
AcDbLine
 10
99.5710113481
 20
150.1252912655
 30
0.0
 11
241.2588591179
 21
150.1252912655
 31
0.0
  0
DIMENSION
  5
2B2
330
1F
100
AcDbEntity
  8
VERMASSUNG
100
AcDbDimension
  2
_D_1
 10
241.2588591179
 20
191.6252912655
 30
0.0
 11
191.2588591179
 21
191.6252912655
 31
0.0
 70
   160
  1
<>
 71
     2
 42
-1.0
  3
SLDDIMSTYLE0
100
AcDbAlignedDimension
 13
141.2588591179
 23
181.1252912655
 33
0.0
 14
241.2588591179
 24
177.608088122
 34
0.0
100
AcDbRotatedDimension
  0
DIMENSION
  5
2BC
330
1F
100
AcDbEntity
  8
VERMASSUNG
100
AcDbDimension
  2
_D_2
 10
241.2588591179
 20
197.6252912655
 30
0.0
 11
172.2588591179
 21
197.6252912655
 31
0.0
 70
   160
  1
<>
 71
     2
 42
-1.0
  3
SLDDIMSTYLE0
100
AcDbAlignedDimension
 13
103.2588591179
 23
170.3114070345
 33
0.0
 14
241.2588591179
 24
177.608088122
 34
0.0
100
AcDbRotatedDimension
  0
OLE2FRAME
  5
2C6
330
1F
100
AcDbEntity
  8
0
100
AcDbOle2Frame
 70
     2
  3
Paintbrush-Bild
 10
13.8511154363
 20
38.264191557
 30
0.0
 11
51.6290888628
 21
31.9806341108
 31
0.0
 71
     2
 72
     0
 73
     1
 90
    12928
310
80552BED0767C5B32B40DDAF6807D121434000000000000000006FFBDDFB85D0
310
4940DDAF6807D121434000000000000000006FFBDDFB85D04940416F4BD60AFB
310
3F4000000000000000002BED0767C5B32B40416F4BD60AFB3F40000000000000
310
0000000000000100000000010000010000000100000000000100000000320000
310
D0CF11E0A1B11AE1000000000000000000000000000000003E000300FEFF0900
310
0600000000000000000000000100000001000000000000000010000002000000
310
01000000FEFFFFFF0000000000000000FFFFFFFFFFFFFFFFFFFFFFFFFFFFFFFF
310
FFFFFFFFFFFFFFFFFFFFFFFFFFFFFFFFFFFFFFFFFFFFFFFFFFFFFFFFFFFFFFFF
310
FFFFFFFFFFFFFFFFFFFFFFFFFFFFFFFFFFFFFFFFFFFFFFFFFFFFFFFFFFFFFFFF
310
FFFFFFFFFFFFFFFFFFFFFFFFFFFFFFFFFFFFFFFFFFFFFFFFFFFFFFFFFFFFFFFF
310
FFFFFFFFFFFFFFFFFFFFFFFFFFFFFFFFFFFFFFFFFFFFFFFFFFFFFFFFFFFFFFFF
310
FFFFFFFFFFFFFFFFFFFFFFFFFFFFFFFFFFFFFFFFFFFFFFFFFFFFFFFFFFFFFFFF
310
FFFFFFFFFFFFFFFFFFFFFFFFFFFFFFFFFFFFFFFFFFFFFFFFFFFFFFFFFFFFFFFF
310
FFFFFFFFFFFFFFFFFFFFFFFFFFFFFFFFFFFFFFFFFFFFFFFFFFFFFFFFFFFFFFFF
310
FFFFFFFFFFFFFFFFFFFFFFFFFFFFFFFFFFFFFFFFFFFFFFFFFFFFFFFFFFFFFFFF
310
FFFFFFFFFFFFFFFFFFFFFFFFFFFFFFFFFFFFFFFFFFFFFFFFFFFFFFFFFFFFFFFF
310
FFFFFFFFFFFFFFFFFFFFFFFFFFFFFFFFFFFFFFFFFFFFFFFFFFFFFFFFFFFFFFFF
310
FFFFFFFFFFFFFFFFFFFFFFFFFFFFFFFFFFFFFFFFFFFFFFFFFFFFFFFFFFFFFFFF
310
FFFFFFFFFFFFFFFFFFFFFFFFFFFFFFFFFFFFFFFFFFFFFFFFFFFFFFFFFFFFFFFF
310
FFFFFFFFFFFFFFFFFFFFFFFFFFFFFFFFFFFFFFFFFFFFFFFFFFFFFFFFFFFFFFFF
310
FDFFFFFFFEFFFFFFFEFFFFFFFEFFFFFF05000000060000000700000008000000
310
090000000A0000000B0000000C0000000D0000000E0000000F00000010000000
310
11000000120000001300000014000000150000001600000017000000FEFFFFFF
310
FFFFFFFFFFFFFFFFFFFFFFFFFFFFFFFFFFFFFFFFFFFFFFFFFFFFFFFFFFFFFFFF
310
FFFFFFFFFFFFFFFFFFFFFFFFFFFFFFFFFFFFFFFFFFFFFFFFFFFFFFFFFFFFFFFF
310
FFFFFFFFFFFFFFFFFFFFFFFFFFFFFFFFFFFFFFFFFFFFFFFFFFFFFFFFFFFFFFFF
310
FFFFFFFFFFFFFFFFFFFFFFFFFFFFFFFFFFFFFFFFFFFFFFFFFFFFFFFFFFFFFFFF
310
FFFFFFFFFFFFFFFFFFFFFFFFFFFFFFFFFFFFFFFFFFFFFFFFFFFFFFFFFFFFFFFF
310
FFFFFFFFFFFFFFFFFFFFFFFFFFFFFFFFFFFFFFFFFFFFFFFFFFFFFFFFFFFFFFFF
310
FFFFFFFFFFFFFFFFFFFFFFFFFFFFFFFFFFFFFFFFFFFFFFFFFFFFFFFFFFFFFFFF
310
FFFFFFFFFFFFFFFFFFFFFFFFFFFFFFFFFFFFFFFFFFFFFFFFFFFFFFFFFFFFFFFF
310
FFFFFFFFFFFFFFFFFFFFFFFFFFFFFFFFFFFFFFFFFFFFFFFFFFFFFFFFFFFFFFFF
310
FFFFFFFFFFFFFFFFFFFFFFFFFFFFFFFFFFFFFFFFFFFFFFFFFFFFFFFFFFFFFFFF
310
FFFFFFFFFFFFFFFFFFFFFFFFFFFFFFFFFFFFFFFFFFFFFFFFFFFFFFFFFFFFFFFF
310
FFFFFFFFFFFFFFFFFFFFFFFFFFFFFFFFFFFFFFFFFFFFFFFFFFFFFFFFFFFFFFFF
310
FFFFFFFFFFFFFFFFFFFFFFFFFFFFFFFFFFFFFFFFFFFFFFFFFFFFFFFFFFFFFFFF
310
52006F006F007400200045006E00740072007900000000000000000000000000
310
0000000000000000000000000000000000000000000000000000000000000000
310
16000500FFFFFFFFFFFFFFFF020000000A00030000000000C000000000000046
310
0000000000000000000000004037807D3A2ED00103000000C000000000000000
310
01004F006C006500000000000000000000000000000000000000000000000000
310
0000000000000000000000000000000000000000000000000000000000000000
310
0A000200FFFFFFFFFFFFFFFFFFFFFFFF00000000000000000000000000000000
310
0000000000000000000000000000000000000000000000001400000000000000
310
010043006F006D0070004F0062006A0000000000000000000000000000000000
310
0000000000000000000000000000000000000000000000000000000000000000
310
120002010100000003000000FFFFFFFF00000000000000000000000000000000
310
0000000000000000000000000000000000000000010000004D00000000000000
310
01004F006C006500310030004E00610074006900760065000000000000000000
310
0000000000000000000000000000000000000000000000000000000000000000
310
1A000200FFFFFFFFFFFFFFFFFFFFFFFF00000000000000000000000000000000
310
0000000000000000000000000000000000000000040000002426000000000000
310
FEFFFFFF02000000FEFFFFFFFFFFFFFFFFFFFFFFFFFFFFFFFFFFFFFFFFFFFFFF
310
FFFFFFFFFFFFFFFFFFFFFFFFFFFFFFFFFFFFFFFFFFFFFFFFFFFFFFFFFFFFFFFF
310
FFFFFFFFFFFFFFFFFFFFFFFFFFFFFFFFFFFFFFFFFFFFFFFFFFFFFFFFFFFFFFFF
310
FFFFFFFFFFFFFFFFFFFFFFFFFFFFFFFFFFFFFFFFFFFFFFFFFFFFFFFFFFFFFFFF
310
FFFFFFFFFFFFFFFFFFFFFFFFFFFFFFFFFFFFFFFFFFFFFFFFFFFFFFFFFFFFFFFF
310
FFFFFFFFFFFFFFFFFFFFFFFFFFFFFFFFFFFFFFFFFFFFFFFFFFFFFFFFFFFFFFFF
310
FFFFFFFFFFFFFFFFFFFFFFFFFFFFFFFFFFFFFFFFFFFFFFFFFFFFFFFFFFFFFFFF
310
FFFFFFFFFFFFFFFFFFFFFFFFFFFFFFFFFFFFFFFFFFFFFFFFFFFFFFFFFFFFFFFF
310
FFFFFFFFFFFFFFFFFFFFFFFFFFFFFFFFFFFFFFFFFFFFFFFFFFFFFFFFFFFFFFFF
310
FFFFFFFFFFFFFFFFFFFFFFFFFFFFFFFFFFFFFFFFFFFFFFFFFFFFFFFFFFFFFFFF
310
FFFFFFFFFFFFFFFFFFFFFFFFFFFFFFFFFFFFFFFFFFFFFFFFFFFFFFFFFFFFFFFF
310
FFFFFFFFFFFFFFFFFFFFFFFFFFFFFFFFFFFFFFFFFFFFFFFFFFFFFFFFFFFFFFFF
310
FFFFFFFFFFFFFFFFFFFFFFFFFFFFFFFFFFFFFFFFFFFFFFFFFFFFFFFFFFFFFFFF
310
FFFFFFFFFFFFFFFFFFFFFFFFFFFFFFFFFFFFFFFFFFFFFFFFFFFFFFFFFFFFFFFF
310
FFFFFFFFFFFFFFFFFFFFFFFFFFFFFFFFFFFFFFFFFFFFFFFFFFFFFFFFFFFFFFFF
310
FFFFFFFFFFFFFFFFFFFFFFFFFFFFFFFFFFFFFFFFFFFFFFFFFFFFFFFFFFFFFFFF
310
0100000200000000000000000000000000000000000000000000000000000000
310
0000000000000000000000000000000000000000000000000000000000000000
310
0100FEFF030A0000FFFFFFFF0A00030000000000C00000000000004607000000
310
5042727573680007000000504272757368000700000050427275736800F439B2
310
7100000000000000000000000000000000000000000000000000000000000000
310
0000000000000000000000000000000000000000000000000000000000000000
310
0000000000000000000000000000000000000000000000000000000000000000
310
0000000000000000000000000000000000000000000000000000000000000000
310
0000000000000000000000000000000000000000000000000000000000000000
310
0000000000000000000000000000000000000000000000000000000000000000
310
0000000000000000000000000000000000000000000000000000000000000000
310
0000000000000000000000000000000000000000000000000000000000000000
310
0000000000000000000000000000000000000000000000000000000000000000
310
0000000000000000000000000000000000000000000000000000000000000000
310
0000000000000000000000000000000000000000000000000000000000000000
310
0000000000000000000000000000000000000000000000000000000000000000
310
20260000424D0E260000000000003E00000028000000B40200006E0000000100
310
01000000000000000000130B0000130B00000200000002000000000000FFFFFF
310
FFFFFFFFFFFFFFFFFFFFFFFFFFFFFFFFFFFFFFFFFFFFFFFFFFFFFFFFFFFFFFFF
310
FFFFFFFFFFFFFFFFFFFFFFFFFFFFFFFFFFFFFFFFFFFFFFFFFFFFFFFFFFFFFFFF
310
FFFFFFFFFFFFFFFFFFFFFFFFFFFFFFFFFFFFFFFFFFFFFFFFF000FFFFFFFFFFFF
310
FFFFFFFFFFFFFFFFFFFFFFFFFFFFFFFFFFFFFFFFFFFFFFFFFFFFFFFFFFFFFFFF
310
FFFFFFFFFFFFFFFFFFFFFFFFFFFFFFFFFFFFFFFFFFFFFFFFFFFFFFFFFFFFFFFF
310
FFFFFFFFFFFFFFFFFFFFFFFFFFFFFFFFF000FFFFFFFFFFFFFFFFFFFFFFFFFFFF
310
FFFFFFFFFFFFFFFFFFFFFFFFFFFFFFFFFFFFFFFFFFFFFFFFFFFFFFFFFFFFFFFF
310
FFFFFFFFFFFFFFFFFFFFFFFFFFFFFFFFFFFFFFFFFFFFFFFFFFFFFFFFFFFFFFFF
310
FFFFFFFFFFFFFFFFF000FFFFFFFFFFFFFFFFFFFFFFFFFFFFFFFFFFFFFFFFFFFF
310
FFFFFFFFFFFFFFFFFFFFFFFFFFFFFFFFFFFFFFFFFFFFFFFFFFFFFFFFFFFFFFFF
310
FFFFFFFFFFFFFFFFFFFFFFFFFFFFFFFFFFFFFFFFFFFFFFFFFFFFFFFFFFFFFFFF
310
F000FFFFFFFFFFFFFFFFFFFFFFFFFFFFFFFFFFFFFFFFFFFFFFFFFFFFFFFFFFFF
310
FFFFFFFFFFFFFFFFFFFFFFFFFFFFFFFFFFFFFFFFFFFFFFFFFFFFFFFFFFFFFFFF
310
FFFFFFFFFFFFFFFFFFFFFFFFFFFFFFFFFFFFFFFFFFFFFFFFF000FFFFFFFFFFFF
310
FFFFFFFFFFFFFFFFFFFFFFFFFFFFFFFFFFFFFFFFFFFFFFFFFFFFFFFFFFFFFFFF
310
FFFFFFFFFFFFFFFFFFFFFFFFFFFFFFFFFFFFFFFFFFFFFFFFFFFFFFFFFFFFFFFF
310
FFFFFFFFFFFFFFFFFFFFFFFFFFFFFFFFF000FFFFFFFFFFFFFFFFFFFFFFFFFFFF
310
FFFFFFFFFFFFFFFFFFFFFFFFFFFFFFFFFFFFFFFFFFFFFFFFFFFFFFFFFFFFFFFF
310
FFFFFFFFFFFFFFFFFFFFFFFFFFFFFFFFFFFFFFFFFFFFFFFFFFFFFFFFFFFFFFFF
310
FFFFFFFFFFFFFFFFF000FFFFFFFFFFFFFFFFFFFFFFFFFFFFFFFFFFFFFFFFFFFF
310
FFFFFFFFFFFFFFFFFFFFFFFFFFFFFFFFFFFFFFFFFFFFFFFFFFFFFFFFFFFFFFFF
310
FFFFFFFFFFFFFFFFFFFFFFFFFFFFFFFFFFFFFFFFFFFFFFFFFFFFFFFFFFFFFFFF
310
F000FFFFFFFFFFFFFFFFFFFFFFFFFFFFFFFFFFFFFFFFFFFFFFFFFFFFFFFFFFFF
310
FFFFFFFFFFFFFFFFFFFFFFFFFFFFFFFFFFFFFFFFFFFFFFFFFFFFFFFFFFFFFFFF
310
FFFFFFFFFFFFFFFFFFFFFFFFFFFFFFFFFFFFFFFFFFFFFFFFF000FFFFFFFFFFFF
310
FFFFFFFFFFFFFFFFFFFFFFFFFFFFFFFFFFFFFFFFFFFFFFFFFFFFFFFFFFFFFFFF
310
FFFFFFFFFFFFFFFFFFFFFFFFFFFFFFFFFFFFFFFFFFFFFFFFFFFFFFFFFFFFFFFF
310
FFFFFFFFFFFFFFFFFFFFFFFFFFFFFFFFF000FFFFFFFFFFFFFFFFFFFFFFFFFFFF
310
FFFFFFFFFFFFFFFFFFFFFFFFFFFFFFFFFFFFFFFFFFFFFFFFFFFFFFFFFFFFFFFF
310
FFFFFFFFFFFFFFFFFFFFFFFFFFFFFFFFFFFFFFFFFFFFFFFFFFFFFFFFFFFFFFFF
310
FFFFFFFFFFFFFFFFF000FFFFFFFFFFFFFFFFFFFFFFFFFFFFFFFFFFFFFFFFFFFF
310
FFFFFFFFFFFFFFFFFFFFFFFFFFFFFFFFFFFFFFFFFFFFFFFFFFFFFFFFFFFFFFFF
310
FFFFFFFFFFFFFFFFFFFFFFFFFFFFFFFFFFFFFFFFFFFFFFFFFFFFFFFFFFFFFFFF
310
F000FFFFFFFFFFFFFFFFFFFFFFFFFFFFFFFFFFFFFFFFFFFFFFFFFFFFFFFFFFFF
310
FFFFFFFFFFFFFFFFFFFFFFFFFFFFFFFFFFFFFFFFFFFFFFFFFFFFFFFFFFFFFFFF
310
FFFFFFFFFFFFFFFFFFFFFFFFFFFFFFFFFFFFFFFFFFFFFFFFF000FFFFFFFFFFFF
310
FFFFFFFFFFFFFFFFFFFFFFFFFFFFFFFFFFFFFFFFFFFFFFFFFFFFFFFFFFFFFFFF
310
FFFFFFFFFFFFFFFFFFFFFFFFFFFFFFFFFFFFFFFFFFFFFFFFFFFFFFFFFFFFFFFF
310
FFFFFFFFFFFFFFFFFFFFFFFFFFFFFFFFF000FFFFFFFFFFFFFFFFFFFFFFFFFFFF
310
FFFFFFFFFFFFFFFFFFFFFFFFFFFFFFFFFFFFFFFFFFFFFFFFFFFFFFFFFFFFFFFF
310
FFFFFFFFFFFFFFFFFFFFFFFFFFFFFFFFFFFFFFFFFFFFFFFFFFFFFFFFFFFFFFFF
310
FFFFFFFFFFFFFFFFF000FFFFFFFFFFFFFFFFFFFFFFFFFFFFFFFFFFFFFFFFFFFF
310
FFFFFFFFFFFFFFFFFFFFFFFFFFFFFFFFFFFFFFFFFFFFFFFFFFFFFFFFFFFFFFFF
310
FFFFFFFFFFFFFFFFFFFFFFFFFFFFFFFFFFFFFFFFFFFFFFFFFFFFFFFFFFFFFFFF
310
F000FFFFFFFFFFFFFFFFFFFFFFFFFFFFFFFFFFFFFFFFFFFFFFFFFFFFFFFFFFFF
310
FFFFFFFFFFFFFFFFFFFFFFFFFFFFFFFFFFFFFFFFFFFFFFFFFFFFFFFFFFFFFFFF
310
FFFFFFFFFFFFFFFFFFFFFFFFFFFFFFFFFFFFFFFFFFFFFFFFF000FFFFFFFFFFFF
310
FFFFFFFFFFFFFFFFFFFFFFFFFFFFFFFFFFFFFFFFFFFFFFFFFFFFFFFFFFFFFFFF
310
FFFFFFFFFFFFFFFFFFFFFFFFFFFFFFFFFFFFFFFFFFFFFFFFFFFFFFFFFFFFFFFF
310
FFFFFFFFFFFFFFFFFFFFFFFFFFFFFFFFF000FFFFFFFFFFFFFFFFFFFFFFFFFFFF
310
FFFFFFFFFFFFFFFFFFFFFFFFFFFFFFFFFFFFFFFFFFFFFFFFFFFFFFFFFFFFFFFF
310
FFFFFFFFFFFFFFFFFFFFFFFFFFFFFFFFFFFFFFFFFFFFFFFFFFFFFFFFFFFFFFFF
310
FFFFFFFFFFFFFFFFF000FFFFF80003FFFFFFFFFFFFFFFFFFFFFFFFFFFFFFFFFF
310
FFFFF00007FFFFFFFFFF00007FFFFFF800000000000000007FFFFFFFFFFFFFFF
310
FFFFFFFC001FFFFFFFFFFFFFFC001FFFFFFFFFFFFFFFFFFFFFFFFFFE0007FFFF
310
F000FFFF8000007FFFFFFFF8000FFFFFC0007FFFFF80007FFFFF0000007FFFFF
310
FFF8000007FFFFF800000000000000007FFFFFF0001FFFFFFFFFFFC00001FFFF
310
FFFFFFFFC00001FFFFFFFF000000000003FFFFE000007FFFF000FFFE0000000F
310
FFFFFFF0000FFFFF80007FFFFF80007FFFFC0000001FFFFFFFC0000001FFFFF8
310
00000000000000007FFFFFF0001FFFFFFFFFFE0000003FFFFFFFFFFE0000003F
310
FFFFFF000000000003FFFF0000000FFFF000FFF800000003FFFFFFF00007FFFF
310
80007FFFFF80007FFFF000000007FFFFFF000000003FFFF80000000000000000
310
7FFFFFF0001FFFFFFFFFF80000000FFFFFFFFFF80000000FFFFFFF0000000000
310
03FFFC00000003FFF000FFE000000000FFFFFFF00007FFFF80003FFFFF80007F
310
FFC000000001FFFFFC000000001FFFF800000000000000007FFFFFF0001FFFFF
310
FFFFE000000003FFFFFFFFE000000003FFFFFF000000000003FFF000000000FF
310
F000FF80000000007FFFFFF00007FFFF80003FFFFF80007FFF8000000000FFFF
310
F80000000007FFF800000000000000007FFFFFF0001FFFFFFFFFC000000001FF
310
FFFFFFC000000001FFFFFF000000000003FFC0000000007FF000FF0000000000
310
3FFFFFE00007FFFF00003FFFFF80007FFE00000000003FFFF00000000003FFF8
310
00000000000000007FFFFFF0001FFFFFFFFF8000000000FFFFFFFF8000000000
310
FFFFFF000000000003FF80000000003FF000FE00000000001FFFFFE00003FFFF
310
00003FFFFF80007FFC00000000001FFFE00000000001FFF8000001FFFE000000
310
7FFFFFF0001FFFFFFFFE00000000003FFFFFFE00000000003FFFFF0000000000
310
03FF00000000001FF000FC00000000000FFFFFE00003FFFF00001FFFFF80007F
310
F800000000001FFFC00000000000FFF8000001FFFE0000007FFFFFF0001FFFFF
310
FFFC00000000001FFFFFFC00000000001FFFFF000000000003FE00000000000F
310
F000F8000000000007FFFFE00003FFFF00001FFFFF80007FF800000000000FFF
310
800000000000FFF8000001FFFE0000007FFFFFF0001FFFFFFFF800000000000F
310
FFFFF800000000000FFFFF000000000003FC000000000007F000F80000000000
310
03FFFFC00003FFFE00001FFFFF80007FF0000000000007FF0000000000007FF8
310
000001FFFE0000007FFFFFF0001FFFFFFFF0000000000007FFFFF00000000000
310
07FFFF000000000003F8000000000003F000F0000000000003FFFFC00001FFFE
310
00001FFFFF80007FE0000000000007FE0000000000003FF8000001FFFE000000
310
7FFFFFF0001FFFFFFFF0000000000007FFFFF0000000000007FFFF0000000000
310
03F800001F800003F000E00001FFF00001FFFFC00001FFFE00000FFFFF80007F
310
E00001FFE00003FE00001FFF00003FF8000001FFFE0000007FFFFFF0001FFFFF
310
FFE000003E000003FFFFE000003E000003FFFF000000000003F00001FFF80001
310
F000E00007FFFC0001FFFFC00001FFFE00000FFFFF80007FC0000FFFFC0003FC
310
0000FFFFC0001FF8000001FFFE0000007FFFFFF0001FFFFFFFC00003FFE00001
310
FFFFC00003FFE00001FFFF0001FFFFFFFFF00007FFFE0001F000E0000FFFFF00
310
00FFFF800001FFFC00000FFFFF80007FC0001FFFFE0001FC0001FFFFE0001FF8
310
000001FFFE0000007FFFFFF0001FFFFFFF80000FFFF80000FFFF80000FFFF800
310
00FFFF0003FFFFFFFFE0000FFFFF8000F000C0003FFFFF8000FFFF800000FFFC
310
000007FFFF80007F80003FFFFF0001FC0003FFFFF0001FF8000001FFFE000000
310
7FFFFFF0001FFFFFFF80003FFFFE0000FFFF80003FFFFE0000FFFF0003FFFFFF
310
FFE0003FFFFF8000F000C0003FFFFF8000FFFF800000FFFC000007FFFF80007F
310
80007FFFFF8001F80007FFFFF8000FF8000001FFFE0000007FFFFFF0001FFFFF
310
FF00007FFFFF00007FFF00007FFFFF00007FFF0003FFFFFFFFE0003FFFFFC000
310
F000C0007FFFFFC000FFFF000000FFFC000007FFFF80007F8000FFFFFF8000F8
310
000FFFFFF8000FF8000001FFFE0000007FFFFFF0001FFFFFFF0000FFFFFF8000
310
7FFF0000FFFFFF80007FFF0003FFFFFFFFC0007FFFFFC00070008000FFFFFFC0
310
00FFFF000000FFF8000007FFFF80007F8000FFFFFF8000F8000FFFFFF8000FF8
310
000001FFFE0000007FFFFFF0001FFFFFFE0001FFFFFFC0003FFE0001FFFFFFC0
310
003FFF0003FFFFFFFFC0007FFFFFE00070008000FFFFFFC0007FFF0000007FF8
310
000003FFFF80007F0001FFFFFF8000F8000FFFFFF8000FF8000001FFFE000000
310
7FFFFFF0001FFFFFFE0001FFFFFFC0003FFE0001FFFFFFC0003FFF0003FFFFFF
310
FFC000FFFFFFE00070008000FFFFFFC0007FFF0000007FF8000003FFFF80007F
310
0001FFFFFF8000F8001FFFFFF8000FF8000001FFFE0000007FFFFFF0001FFFFF
310
FE0003FFFFFFE0003FFE0003FFFFFFE0003FFF0003FFFFFFFFC000FFFFFFE000
310
70008000FFFFFFC0007FFE0000007FF8000003FFFF80007F0001FFFFFF8000F0
310
001FFFFFF8000FF8000001FFFE0000007FFFFFF0001FFFFFFC0003FFFFFFE000
310
1FFC0003FFFFFFE0001FFF0003FFFFFFFFC000FFFFFFC00070008000FFFFFF80
310
007FFE0000007FF0000003FFFF80007F0001FFFFFF0000F0001FFFFFF8000FF8
310
000001FFFE0000007FFFFFF0001FFFFFFC0007FFFFFFF0001FFC0007FFFFFFF0
310
001FFF0003FFFFFFFFC000FFFFFFC00070008001FFFFFF0000FFFE0000003FF0
310
000001FFFF80007F0001FFFFFF0000F8001FFFFFF0000FF8000001FFFE000000
310
7FFFFFF0001FFFFFFC0007FFFFFFF0001FFC0007FFFFFFF0001FFF0003FFFFFF
310
FFC001FFFFFF80007000FFFFFFFFFE0000FFFE0008003FF0008001FFFF80007F
310
FFFFFFFFFC0000FFFFFFFFFFE0000FF8000001FFFE0000007FFFFFF0001FFFFF
310
F8000FFFFFFFF8000FF8000FFFFFFFF8000FFF0003FFFFFFFFFFFFFFFFFF0000
310
7000FFFFFFFFFC0000FFFC0008003FF0008001FFFF80007FFFFFFFFFF80001FF
310
FFFFFFFF80000FF8000001FFFE0000007FFFFFF0001FFFFFF8000FFFFFFFF800
310
0FF8000FFFFFFFF8000FFF0003FFFFFFFFFFFFFFFFFE0000F000FFFFFFFFE000
310
00FFFC000C003FE000C001FFFF80007FFFFFFFFFC00001FFFFFFFFFE00001FF8
310
000001FFFE0000007FFFFFF0001FFFFFF8000FFFFFFFF8000FF8000FFFFFFFF8
310
000FFF0003FFFFFFFFFFFFFFFFF00000F000FFFFFFFE000001FFFC000C001FE0
310
00C000FFFF80007FFFFFFFFE000001FFFFFFFFE000001FF80FFFFFFFFFFFFFC0
310
7FFFFFF0001FFFFFF8000FFFFFFFF8000FF8000FFFFFFFF8000FFF0003FFFFFF
310
FFFFFFFFFF800000F000FFFFFFC0000001FFFC001C001FE001C000FFFF80007F
310
FFFFFF80000003FFFFFFF80000001FF80FFFFFFFFFFFFFC07FFFFFF0001FFFFF
310
F8001FFFFFFFFC000FF8001FFFFFFFFC000FFF0003FFFFFFFFFFFFFFF0000001
310
F000FFFFF800000001FFF8001C001FE001C000FFFF80007FFFFFF800000003FF
310
FFFF800000003FF80FFFFFFFFFFFFFC07FFFFFF0001FFFFFF8001FFFFFFFFC00
310
0FF8001FFFFFFFFC000FFF0003FFFFFFFFFFFFFE00000001F000FFFFC0000000
310
03FFF8001E001FC001E000FFFF80007FFFFF8000000007FFFFFC000000003FF8
310
0FFFFFFFFFFFFFC07FFFFFF0001FFFFFF8001FFFFFFFFC000FF8001FFFFFFFFC
310
000FFF0003FFFFFFFFFFFFE000000003F000FFFE0000000007FFF8001E000FC0
310
01E0007FFF80007FFFFE0000000007FFFFE0000000007FF80FFFFFFFFFFFFFC0
310
7FFFFFF0001FFFFFF0001FFFFFFFFC0007F0001FFFFFFFFC0007FF0003FFFFFF
310
FFFFFF0000000003F000FFF80000000007FFF8001E000FC003E0007FFF80007F
310
FFF0000000000FFFFF8000000000FFF80FFFFFFFFFFFFFC07FFFFFF0001FFFFF
310
F0001FFFFFFFFC0007F0001FFFFFFFFC0007FF0003FFFFFFFFFFFC0000000007
310
F000FFE0000000000FFFF0003E000FC003E0007FFF80007FFFC0000000001FFF
310
FE0000000001FFF80FFFFFFFFFFFFFC07FFFFFF0001FFFFFF0001FFFFFFFFC00
310
07F0001FFFFFFFFC0007FF0003FFFFFFFFFFF0000000000FF000FFC000000000
310
1FFFF0003F000F8003F0003FFF80007FFF80000000003FFFF80000000003FFF8
310
0FFFFFFFFFFFFFC07FFFFFF0001FFFFFF0001FFFFFFFFC0007F0001FFFFFFFFC
310
0007FF0003FFFFFFFFFFE0000000001FF000FF00000000007FFFF0003F000780
310
03F0003FFF80007FFF00000000007FFFF00000000007FFF80FFFFFFFFFFFFFC0
310
7FFFFFF0001FFFFFF0001FFFFFFFFC0007F0001FFFFFFFFC0007FF0003FFFFFF
310
FFFF80000000007FF000FE0000000000FFFFE0003F00078007F0003FFF80007F
310
FE0000000001FFFFE0000000001FFFF80FFFFFFFFFFFFFC07FFFFFF0001FFFFF
310
F0001FFFFFFFFC0007F0001FFFFFFFFC0007FF0003FFFFFFFFFF0000000000FF
310
F000FC0000000003FFFFE0007F00078007F0003FFF80007FFC0000000007FFFF
310
C0000000007FFFF80FFFFFFFFFFFFFC07FFFFFF0001FFFFFF8001FFFFFFFFC00
310
0FF8001FFFFFFFFC000FFF0003FFFFFFFFFE0000000003FFF000FC000000000F
310
FFFFE0007F80070007F8001FFF80007FF8000000001FFFFF8000000001FFFFF8
310
0FFFFFFFFFFFFFC07FFFFFF0001FFFFFF8001FFFFFFFFC000FF8001FFFFFFFFC
310
000FFF0003FFFFFFFFFC000000000FFFF000F8000000007FFFFFE0007F800700
310
07F8001FFF80007FF000000000FFFFFF800000000FFFFFF80FFFFFFFFFFFFFC0
310
7FFFFFF0001FFFFFF8000FFFFFFFF8000FF8000FFFFFFFF8000FFF0003FFFFFF
310
FFFC000000007FFFF000F800000007FFFFFFC0007F8003000FF8001FFF80007F
310
F000000007FFFFFF000000007FFFFFF80FFFFFFFFFFFFFC07FFFFFF0001FFFFF
310
F8000FFFFFFFF8000FF8000FFFFFFFF8000FFF0003FFFFFFFFF80000000FFFFF
310
F000F0000000FFFFFFFFC000FF8003000FF8001FFF80007FE0000000FFFFFFFF
310
0000000FFFFFFFF8000001FFFE0000007FFFFFF0001FFFFFF8000FFFFFFFF800
310
0FF8000FFFFFFFF8000FFF0003FFFFFFFFF8000000FFFFFFF000F000000FFFFF
310
FFFFC000FFC002000FF8000FFF80007FE000001FFFFFFFFE000001FFFFFFFFF8
310
000001FFFE0000007FFFFFF0001FFFFFF8000FFFFFFFF8000FF8000FFFFFFFF8
310
000FFF0003FFFFFFFFF000001FFFFFFFF000E00000FFFFFFFFFFC000FFC00200
310
0FFC000FFF80007FE00001FFFFFFFFFE00001FFFFFFFFFF8000001FFFE000000
310
7FFFFFF0001FFFFFFC000FFFFFFFF8001FFC000FFFFFFFF8001FFF0003FFFFFF
310
FFF00001FFFFFFFFF000E00007FFFFFFFFFF8000FFC000001FFC000FFF80007F
310
C0000FFFFFFFFFFE0000FFFFFFFFFFF8000001FFFE0000007FFFFFF0001FFFFF
310
FC0007FFFFFFF0001FFC0007FFFFFFF0001FFF0003FFFFFFFFF00007FFFFFFFF
310
F000E0001FFFFFFFFFFF8000FFC000001FFC000FFF80007FC0003FFFFFFFFFFE
310
0001FFFFFFFFFFF8000001FFFE0000007FFFFFF0001FFFFFFC0007FFFFFFF000
310
1FFC0007FFFFFFF0001FFF0003FFFFFFFFF0001FFFFFFFFFF000E0003FFFFF00
310
03FF8001FFE000001FFC0007FF80007FC0007FFFFF0007FC0003FFFFF0003FF8
310
000001FFFE0000007FFFFFF0001FFFFFFC0003FFFFFFE0001FFC0003FFFFFFE0
310
001FFF0003FFFFFFFFF0003FFFFFFFFFF000E0003FFFFF0001FF8001FFE00000
310
1FFE0007FF80007FC0007FFFFE0003FC0007FFFFE0003FF8000001FFFE000000
310
7FFFFFF0001FFFFFFE0003FFFFFFE0003FFE0003FFFFFFE0003FFF0003FFFFFF
310
FFF0003FFFFF8001F000E0003FFFFF0001FF0001FFE000001FFE0007FF80007F
310
C0007FFFFE0003FC0007FFFFE0003FF8000001FFFE0000007FFFFFF0001FFFFF
310
FE0001FFFFFFC0003FFE0001FFFFFFC0003FFF0003FFFFFFFFF0003FFFFF0001
310
F000E0003FFFFF0003FF0001FFE000003FFE0007FF80007FC0007FFFFE0003FC
310
0007FFFFE0003FF8000001FFFE0000007FFFFFF0001FFFFFFF0001FFFFFFC000
310
7FFF0001FFFFFFC0007FFF0003FFFFFFFFF0003FFFFF0001F000E0003FFFFE00
310
03FF0003FFF000003FFE0003FF80007FC0007FFFFC0003FE0007FFFFE0003FF8
310
000001FFFE0000007FFFFFF0001FFFFFFF0000FFFFFF80007FFF0000FFFFFF80
310
007FFF0003FFFFFFFFF0003FFFFF0001F000E0003FFFFE0003FF0003FFF00000
310
3FFF0003FF80007FC0007FFFFC0007FE0007FFFFC0003FF8000001FFFE000000
310
7FFFFFF0001FFFFFFF80007FFFFF0000FFFF80007FFFFF0000FFFF0003FFFFFF
310
FFF0003FFFFF0003F000E0003FFFFC0003FE0003FFF000003FFF0003FF80007F
310
E0003FFFF80007FE0003FFFFC0007FF8000001FFFE0000007FFFFFF0001FFFFF
310
FF80003FFFFE0000FFFF80003FFFFE0000FFFF0003FFFFFFFFF0001FFFFE0003
310
F000F0001FFFF80003FE0003FFF000007FFF0001FF80007FE0003FFFF00007FE
310
0001FFFF80007FF8000001FFFE0000007FFFFFF0001FFFFFFFC0000FFFF80001
310
FFFFC0000FFFF80001FFFF0003FFFFFFFFF0001FFFFC0003F000F0000FFFF000
310
07FE0007FFF800007FFF0001FF80007FE0001FFFE00007FF0000FFFE00007FF8
310
000001FFFE0000007FFFFFF0001FFFFFFFC00003FFE00001FFFFC00003FFE000
310
01FFFF0003FFFFFFFFF8000FFFF80003F000F00003FFC00007FC0007FFF80000
310
7FFF8001FF80007FF00007FF80000FFF00007FF80000FFF8000001FFFE000000
310
7F80000000000001FFE000003E000003FFFFE000003E000003FFFF0003FFFFFF
310
FFF80003FFE00007F000F800000000000FFC0007FFF800007FFF8001FF80007F
310
F000000000000FFF000000000000FFF8000001FFFE0000007F80000000000001
310
FFF0000000000007FFFFF0000000000007FFFF0003FFFFFFFFFC00007E000007
310
F000F800000000000FFC0007FFF80000FFFF8000FF80007FF800000000001FFF
310
800000000001FFF8000001FFFE0000007F80000000000001FFF800000000000F
310
FFFFF800000000000FFFFF0003FFFFFFFFFC00000000000FF000FC0000000000
310
1FFC0007FFFC0000FFFF8000FF80007FF800000000003FFFC00000000001FFF8
310
000001FFFE0000007F80000000000001FFF800000000000FFFFFF80000000000
310
0FFFFF0003FFFFFFFFFE00000000001FF000FE00000000003FF8000FFFFC0000
310
FFFF8000FF80007FFC00000000003FFFC00000000003FFF8000001FFFE000000
310
7F80000000000001FFFC00000000001FFFFFFC00000000001FFFFF0003FFFFFF
310
FFFF00000000001FF000FF00000000003FF8000FFFFC0000FFFFC000FF80007F
310
FE00000000007FFFE00000000007FFF8000001FFFE0000007F80000000000001
310
FFFE00000000003FFFFFFE00000000003FFFFF0003FFFFFFFFFF80000000003F
310
F000FF80000000007FF8000FFFFC0001FFFFC0007F80007FFF0000000000FFFF
310
F0000000000FFFF800000000000000007F80000000000001FFFF8000000000FF
310
FFFFFF8000000000FFFFFF0003FFFFFFFFFFC0000000007FF000FFC000000000
310
FFF8000FFFFE0001FFFFC0007F80007FFF8000000001FFFFF8000000001FFFF8
310
00000000000000007F80000000000001FFFFC000000001FFFFFFFFC000000001
310
FFFFFF0003FFFFFFFFFFE000000000FFF000FFE000000003FFF0001FFFFE0001
310
FFFFC0007F80007FFFC000000007FFFFFE000000003FFFF80000000000000000
310
7F80000000000001FFFFE000000003FFFFFFFFE000000003FFFFFF0003FFFFFF
310
FFFFF000000003FFF000FFF80000000FFFF0001FFFFE0001FFFFE0007F80007F
310
FFF00000000FFFFFFF00000000FFFFF800000000000000007F80000000000001
310
FFFFF80000000FFFFFFFFFF80000000FFFFFFF0003FFFFFFFFFFFC0000000FFF
310
F000FFFE0000003FFFF0001FFFFE0003FFFFE0003F80007FFFFC0000003FFFFF
310
FFC0000003FFFFF800000000000000007F80000000000001FFFFFE0000003FFF
310
FFFFFFFE0000003FFFFFFF0003FFFFFFFFFFFF0000003FFFF000FFFF800000FF
310
FFF0001FFFFF0003FFFFE0003F80007FFFFF000001FFFFFFFFF800001FFFFFF8
310
00000000000000007F80000000000001FFFFFFC00001FFFFFFFFFFFFC00001FF
310
FFFFFF0003FFFFFFFFFFFFC00000FFFFF000FFFFF8000FFFFFFFFFFFFFFFFFFF
310
FFFFFFFFFFFFFFFFFFFFF0001FFFFFFFFFFF0000FFFFFFF80000000000000000
310
7FFFFFFFFFFFFFFFFFFFFFFC001FFFFFFFFFFFFFFC001FFFFFFFFFFFFFFFFFFF
310
FFFFFFFC001FFFFFF000FFFFFFFFFFFFFFFFFFFFFFFFFFFFFFFFFFFFFFFFFFFF
310
FFFFFFFFFFFFFFFFFFFFFFFFFFFFFFFFFFFFFFFFFFFFFFFFFFFFFFFFFFFFFFFF
310
FFFFFFFFFFFFFFFFFFFFFFFFFFFFFFFFFFFFFFFFFFFFFFFFFFFFFFFFFFFFFFFF
310
F000FFFFFFFFFFFFFFFFFFFFFFFFFFFFFFFFFFFFFFFFFFFFFFFFFFFFFFFFFFFF
310
FFFFFFFFFFFFFFFFFFFFFFFFFFFFFFFFFFFFFFFFFFFFFFFFFFFFFFFFFFFFFFFF
310
FFFFFFFFFFFFFFFFFFFFFFFFFFFFFFFFFFFFFFFFFFFFFFFFF000FFFFFFFFFFFF
310
FFFFFFFFFFFFFFFFFFFFFFFFFFFFFFFFFFFFFFFFFFFFFFFFFFFFFFFFFFFFFFFF
310
FFFFFFFFFFFFFFFFFFFFFFFFFFFFFFFFFFFFFFFFFFFFFFFFFFFFFFFFFFFFFFFF
310
FFFFFFFFFFFFFFFFFFFFFFFFFFFFFFFFF000FFFFFFFFFFFFFFFFFFFFFFFFFFFF
310
FFFFFFFFFFFFFFFFFFFFFFFFFFFFFFFFFFFFFFFFFFFFFFFFFFFFFFFFFFFFFFFF
310
FFFFFFFFFFFFFFFFFFFFFFFFFFFFFFFFFFFFFFFFFFFFFFFFFFFFFFFFFFFFFFFF
310
FFFFFFFFFFFFFFFFF000FFFFFFFFFFFFFFFFFFFFFFFFFFFFFFFFFFFFFFFFFFFF
310
FFFFFFFFFFFFFFFFFFFFFFFFFFFFFFFFFFFFFFFFFFFFFFFFFFFFFFFFFFFFFFFF
310
FFFFFFFFFFFFFFFFFFFFFFFFFFFFFFFFFFFFFFFFFFFFFFFFFFFFFFFFFFFFFFFF
310
F000FFFFFFFFFFFFFFFFFFFFFFFFFFFFFFFFFFFFFFFFFFFFFFFFFFFFFFFFFFFF
310
FFFFFFFFFFFFFFFFFFFFFFFFFFFFFFFFFFFFFFFFFFFFFFFFFFFFFFFFFFFFFFFF
310
FFFFFFFFFFFFFFFFFFFFFFFFFFFFFFFFFFFFFFFFFFFFFFFFF000FFFFFFFFFFFF
310
FFFFFFFFFFFFFFFFFFFFFFFFFFFFFFFFFFFFFFFFFFFFFFFFFFFFFFFFFFFFFFFF
310
FFFFFFFFFFFFFFFFFFFFFFFFFFFFFFFFFFFFFFFFFFFFFFFFFFFFFFFFFFFFFFFF
310
FFFFFFFFFFFFFFFFFFFFFFFFFFFFFFFFF000FFFFFFFFFFFFFFFFFFFFFFFFFFFF
310
FFFFFFFFFFFFFFFFFFFFFFFFFFFFFFFFFFFFFFFFFFFFFFFFFFFFFFFFFFFFFFFF
310
FFFFFFFFFFFFFFFFFFFFFFFFFFFFFFFFFFFFFFFFFFFFFFFFFFFFFFFFFFFFFFFF
310
FFFFFFFFFFFFFFFFF000FFFFFFFFFFFFFFFFFFFFFFFFFFFFFFFFFFFFFFFFFFFF
310
FFFFFFFFFFFFFFFFFFFFFFFFFFFFFFFFFFFFFFFFFFFFFFFFFFFFFFFFFFFFFFFF
310
FFFFFFFFFFFFFFFFFFFFFFFFFFFFFFFFFFFFFFFFFFFFFFFFFFFFFFFFFFFFFFFF
310
F000FFFFFFFFFFFFFFFFFFFFFFFFFFFFFFFFFFFFFFFFFFFFFFFFFFFFFFFFFFFF
310
FFFFFFFFFFFFFFFFFFFFFFFFFFFFFFFFFFFFFFFFFFFFFFFFFFFFFFFFFFFFFFFF
310
FFFFFFFFFFFFFFFFFFFFFFFFFFFFFFFFFFFFFFFFFFFFFFFFF000FFFFFFFFFFFF
310
FFFFFFFFFFFFFFFFFFFFFFFFFFFFFFFFFFFFFFFFFFFFFFFFFFFFFFFFFFFFFFFF
310
FFFFFFFFFFFFFFFFFFFFFFFFFFFFFFFFFFFFFFFFFFFFFFFFFFFFFFFFFFFFFFFF
310
FFFFFFFFFFFFFFFFFFFFFFFFFFFFFFFFF000FFFFFFFFFFFFFFFFFFFFFFFFFFFF
310
FFFFFFFFFFFFFFFFFFFFFFFFFFFFFFFFFFFFFFFFFFFFFFFFFFFFFFFFFFFFFFFF
310
FFFFFFFFFFFFFFFFFFFFFFFFFFFFFFFFFFFFFFFFFFFFFFFFFFFFFFFFFFFFFFFF
310
FFFFFFFFFFFFFFFFF000FFFFFFFFFFFFFFFFFFFFFFFFFFFFFFFFFFFFFFFFFFFF
310
FFFFFFFFFFFFFFFFFFFFFFFFFFFFFFFFFFFFFFFFFFFFFFFFFFFFFFFFFFFFFFFF
310
FFFFFFFFFFFFFFFFFFFFFFFFFFFFFFFFFFFFFFFFFFFFFFFFFFFFFFFFFFFFFFFF
310
F000FFFFFFFFFFFFFFFFFFFFFFFFFFFFFFFFFFFFFFFFFFFFFFFFFFFFFFFFFFFF
310
FFFFFFFFFFFFFFFFFFFFFFFFFFFFFFFFFFFFFFFFFFFFFFFFFFFFFFFFFFFFFFFF
310
FFFFFFFFFFFFFFFFFFFFFFFFFFFFFFFFFFFFFFFFFFFFFFFFF000FFFFFFFFFFFF
310
FFFFFFFFFFFFFFFFFFFFFFFFFFFFFFFFFFFFFFFFFFFFFFFFFFFFFFFFFFFFFFFF
310
FFFFFFFFFFFFFFFFFFFFFFFFFFFFFFFFFFFFFFFFFFFFFFFFFFFFFFFFFFFFFFFF
310
FFFFFFFFFFFFFFFFFFFFFFFFFFFFFFFFF000FFFFFFFFFFFFFFFFFFFFFFFFFFFF
310
FFFFFFFFFFFFFFFFFFFFFFFFFFFFFFFFFFFFFFFFFFFFFFFFFFFFFFFFFFFFFFFF
310
FFFFFFFFFFFFFFFFFFFFFFFFFFFFFFFFFFFFFFFFFFFFFFFFFFFFFFFFFFFFFFFF
310
FFFFFFFFFFFFFFFFF000FFFFFFFFFFFFFFFFFFFFFFFFFFFFFFFFFFFFFFFFFFFF
310
FFFFFFFFFFFFFFFFFFFFFFFFFFFFFFFFFFFFFFFFFFFFFFFFFFFFFFFFFFFFFFFF
310
FFFFFFFFFFFFFFFFFFFFFFFFFFFFFFFFFFFFFFFFFFFFFFFFFFFFFFFFFFFFFFFF
310
F000FFFFFFFFFFFFFFFFFFFFFFFFFFFFFFFFFFFFFFFFFFFFFFFFFFFFFFFFFFFF
310
FFFFFFFFFFFFFFFFFFFFFFFFFFFFFFFFFFFFFFFFFFFFFFFFFFFFFFFFFFFFFFFF
310
FFFFFFFFFFFFFFFFFFFFFFFFFFFFFFFFFFFFFFFFFFFFFFFFF000FFFFFFFFFFFF
310
FFFFFFFFFFFFFFFFFFFFFFFFFFFFFFFFFFFFFFFFFFFFFFFFFFFFFFFFFFFFFFFF
310
FFFFFFFFFFFFFFFFFFFFFFFFFFFFFFFFFFFFFFFFFFFFFFFFFFFFFFFFFFFFFFFF
310
FFFFFFFFFFFFFFFFFFFFFFFFFFFFFFFFF000FFFFFFFFFFFFFFFFFFFFFFFFFFFF
310
FFFFFFFFFFFFFFFFFFFFFFFFFFFFFFFFFFFFFFFFFFFFFFFFFFFFFFFFFFFFFFFF
310
FFFFFFFFFFFFFFFFFFFFFFFFFFFFFFFFFFFFFFFFFFFFFFFFFFFFFFFFFFFFFFFF
310
FFFFFFFFFFFFFFFFF000FFFFFFFFFFFFFFFFFFFFFFFFFFFFFFFFFFFFFFFFFFFF
310
FFFFFFFFFFFFFFFFFFFFFFFFFFFFFFFFFFFFFFFFFFFFFFFFFFFFFFFFFFFFFFFF
310
FFFFFFFFFFFFFFFFFFFFFFFFFFFFFFFFFFFFFFFFFFFFFFFFFFFFFFFFFFFFFFFF
310
F000FFFFFFFFFFFFFFFFFFFFFFFFFFFFFFFFFFFFFFFFFFFFFFFFFFFFFFFFFFFF
310
FFFFFFFFFFFFFFFFFFFFFFFFFFFFFFFFFFFFFFFFFFFFFFFFFFFFFFFFFFFFFFFF
310
FFFFFFFFFFFFFFFFFFFFFFFFFFFFFFFFFFFFFFFFFFFFFFFFF000FFFFFFFFFFFF
310
FFFFFFFFFFFFFFFFFFFFFFFFFFFFFFFFFFFFFFFFFFFFFFFFFFFFFFFFFFFFFFFF
310
FFFFFFFFFFFFFFFFFFFFFFFFFFFFFFFFFFFFFFFFFFFFFFFFFFFFFFFFFFFFFFFF
310
FFFFFFFFFFFFFFFFFFFFFFFFFFFFFFFFF0000000000000000000000000000000
310
0000000000000000000000000000000000000000000000000000000000000000
310
0000000000000000000000000000000000000000000000000000000000000000
310
0000000000000000000000000000000000000000000000000000000000000000
310
0000000000000000000000000000000000000000000000000000000000000000
310
0000000000000000000000000000000000000000000000000000000000000000
310
0000000000000000000000000000000000000000000000000000000000000000
310
0000000000000000000000000000000000000000000000000000000000000000
310
0000000000000000000000000000000000000000000000000000000000000000
310
0000000000000000000000000000000000000000000000000000000000000000
310
0000000000000000000000000000000000000000000000000000000000000000
310
0000000000000000000000000000000000000000000000000000000000000000
310
0000000000000000000000000000000000000000000000000000000000000000
310
0000000000000000000000000000000000000000000000000000000000000000
310
0000000000000000000000000000000000000000000000000000000000000000
310
0000000000000000000000000000000000000000000000000000000000000000
  1
OLE
  0
ENDSEC
  0
SECTION
  2
OBJECTS
  0
DICTIONARY
  5
C
330
0
100
AcDbDictionary
281
     1
  3
ACAD_GROUP
350
D
  3
ACAD_LAYOUT
350
1A
  3
ACAD_MLINESTYLE
350
17
  3
ACAD_PLOTSETTINGS
350
19
  3
ACAD_PLOTSTYLENAME
350
E
  0
DICTIONARY
  5
D
102
{ACAD_REACTORS
330
C
102
}
330
C
100
AcDbDictionary
281
     1
  0
DICTIONARY
  5
1A
102
{ACAD_REACTORS
330
C
102
}
330
C
100
AcDbDictionary
281
     1
  3
Layout1
350
1E
  3
Layout2
350
26
  3
Model
350
22
  0
DICTIONARY
  5
17
102
{ACAD_REACTORS
330
C
102
}
330
C
100
AcDbDictionary
281
     1
  3
Standard
350
18
  0
DICTIONARY
  5
19
102
{ACAD_REACTORS
330
C
102
}
330
C
100
AcDbDictionary
281
     1
  0
ACDBDICTIONARYWDFLT
  5
E
102
{ACAD_REACTORS
330
C
102
}
330
C
100
AcDbDictionary
281
     1
  3
Normal
350
F
100
AcDbDictionaryWithDefault
340
F
  0
LAYOUT
  5
1E
102
{ACAD_REACTORS
330
1A
102
}
330
1A
100
AcDbPlotSettings
  1

  2
none_device
  4

  6

 40
0.0
 41
0.0
 42
0.0
 43
0.0
 44
0.0
 45
0.0
 46
0.0
 47
0.0
 48
0.0
 49
0.0
140
0.0
141
0.0
142
1.0
143
1.0
 70
   688
 72
     0
 73
     0
 74
     5
  7

 75
    16
147
1.0
148
0.0
149
0.0
100
AcDbLayout
  1
Layout1
 70
     1
 71
     1
 10
0.0
 20
0.0
 11
420.0
 21
297.0
 12
0.0
 22
0.0
 32
0.0
 14
1.0000000000E+20
 24
1.0000000000E+20
 34
1.0000000000E+20
 15
-1.0000000000E+20
 25
-1.0000000000E+20
 35
-1.0000000000E+20
146
0.0
 13
0.0
 23
0.0
 33
0.0
 16
1.0
 26
0.0
 36
0.0
 17
0.0
 27
1.0
 37
0.0
 76
     0
330
1B
  0
LAYOUT
  5
26
102
{ACAD_REACTORS
330
1A
102
}
330
1A
100
AcDbPlotSettings
  1

  2
none_device
  4

  6

 40
0.0
 41
0.0
 42
0.0
 43
0.0
 44
0.0
 45
0.0
 46
0.0
 47
0.0
 48
0.0
 49
0.0
140
0.0
141
0.0
142
1.0
143
1.0
 70
   688
 72
     0
 73
     0
 74
     5
  7

 75
    16
147
1.0
148
0.0
149
0.0
100
AcDbLayout
  1
Layout2
 70
     1
 71
     2
 10
0.0
 20
0.0
 11
0.0
 21
0.0
 12
0.0
 22
0.0
 32
0.0
 14
0.0
 24
0.0
 34
0.0
 15
0.0
 25
0.0
 35
0.0
146
0.0
 13
0.0
 23
0.0
 33
0.0
 16
1.0
 26
0.0
 36
0.0
 17
0.0
 27
1.0
 37
0.0
 76
     0
330
23
  0
LAYOUT
  5
22
102
{ACAD_REACTORS
330
1A
102
}
330
1A
100
AcDbPlotSettings
  1

  2
none_device
  4

  6

 40
0.0
 41
0.0
 42
0.0
 43
0.0
 44
0.0
 45
0.0
 46
0.0
 47
0.0
 48
0.0
 49
0.0
140
0.0
141
0.0
142
1.0
143
1.0
 70
  1712
 72
     0
 73
     0
 74
     0
  7

 75
     0
147
1.0
148
0.0
149
0.0
100
AcDbLayout
  1
Model
 70
     1
 71
     0
 10
0.0
 20
0.0
 11
297.0
 21
210.0
 12
0.0
 22
0.0
 32
0.0
 14
0.0
 24
0.0
 34
0.0
 15
297.0
 25
210.0
 35
0.0
146
0.0
 13
0.0
 23
0.0
 33
0.0
 16
1.0
 26
0.0
 36
0.0
 17
0.0
 27
1.0
 37
0.0
 76
     0
330
1F
331
29
  0
MLINESTYLE
  5
18
102
{ACAD_REACTORS
330
17
102
}
330
17
100
AcDbMlineStyle
  2
Standard
 70
     0
  3

 62
   256
 51
90.0
 52
90.0
 71
     2
 49
0.5
 62
   256
  6
BYLAYER
 49
-0.5
 62
   256
  6
BYLAYER
  0
ACDBPLACEHOLDER
  5
F
102
{ACAD_REACTORS
330
E
102
}
330
E
  0
ENDSEC
  0
EOF
