  0
SECTION
  2
HEADER
  9
$ACADVER
  1
AC1015
  9
$ACADMAINTVER
 70
     6
  9
$DWGCODEPAGE
  3
ANSI_1252
  9
$INSBASE
 10
0.0
 20
0.0
 30
0.0
  9
$EXTMIN
 10
0.0
 20
0.0
 30
0.0
  9
$EXTMAX
 10
297.0
 20
210.0
 30
0.0
  9
$LIMMIN
 10
0.0
 20
0.0
  9
$LIMMAX
 10
297.0
 20
210.0
  9
$ORTHOMODE
 70
     0
  9
$REGENMODE
 70
     1
  9
$FILLMODE
 70
     1
  9
$QTEXTMODE
 70
     0
  9
$MIRRTEXT
 70
     1
  9
$LTSCALE
 40
1.0
  9
$ATTMODE
 70
     1
  9
$TEXTSIZE
 40
2.0
  9
$TRACEWID
 40
1.0
  9
$TEXTSTYLE
  7
Standard
  9
$CLAYER
  8
0
  9
$CELTYPE
  6
ByLayer
  9
$CECOLOR
 62
   256
  9
$CELTSCALE
 40
1.0
  9
$DISPSILH
 70
     0
  9
$DIMSCALE
 40
1.0
  9
$DIMASZ
 40
3.0
  9
$DIMEXO
 40
0.0
  9
$DIMDLI
 40
3.75
  9
$DIMRND
 40
0.0
  9
$DIMDLE
 40
0.0
  9
$DIMEXE
 40
1.0
  9
$DIMTP
 40
0.0
  9
$DIMTM
 40
0.0
  9
$DIMTXT
 40
2.0
  9
$DIMCEN
 40
2.5
  9
$DIMTSZ
 40
0.0
  9
$DIMTOL
 70
     0
  9
$DIMLIM
 70
     0
  9
$DIMTIH
 70
     1
  9
$DIMTOH
 70
     1
  9
$DIMSE1
 70
     0
  9
$DIMSE2
 70
     0
  9
$DIMTAD
 70
     1
  9
$DIMZIN
 70
     0
  9
$DIMBLK
  1

  9
$DIMASO
 70
     1
  9
$DIMSHO
 70
     1
  9
$DIMPOST
  1

  9
$DIMAPOST
  1

  9
$DIMALT
 70
     0
  9
$DIMALTD
 70
     3
  9
$DIMALTF
 40
0.0393700787
  9
$DIMLFAC
 40
1.0
  9
$DIMTOFL
 70
     1
  9
$DIMTVP
 40
0.0
  9
$DIMTIX
 70
     0
  9
$DIMSOXD
 70
     0
  9
$DIMSAH
 70
     0
  9
$DIMBLK1
  1

  9
$DIMBLK2
  1

  9
$DIMSTYLE
  2
ISO-25
  9
$DIMCLRD
 70
     0
  9
$DIMCLRE
 70
     0
  9
$DIMCLRT
 70
     0
  9
$DIMTFAC
 40
1.0
  9
$DIMGAP
 40
1.524
  9
$DIMJUST
 70
     0
  9
$DIMSD1
 70
     0
  9
$DIMSD2
 70
     0
  9
$DIMTOLJ
 70
     0
  9
$DIMTZIN
 70
     0
  9
$DIMALTZ
 70
     0
  9
$DIMALTTZ
 70
     0
  9
$DIMUPT
 70
     0
  9
$DIMDEC
 70
     2
  9
$DIMTDEC
 70
     3
  9
$DIMALTU
 70
     2
  9
$DIMALTTD
 70
     3
  9
$DIMTXSTY
  7
Standard
  9
$DIMAUNIT
 70
     0
  9
$DIMADEC
 70
     2
  9
$DIMALTRND
 40
0.0
  9
$DIMAZIN
 70
     0
  9
$DIMDSEP
 70
    44
  9
$DIMATFIT
 70
     3
  9
$DIMFRAC
 70
     0
  9
$DIMLDRBLK
  1

  9
$DIMLUNIT
 70
     2
  9
$DIMLWD
 70
    -2
  9
$DIMLWE
 70
    -2
  9
$DIMTMOVE
 70
     0
  9
$LUNITS
 70
     2
  9
$LUPREC
 70
     2
  9
$SKETCHINC
 40
1.0
  9
$FILLETRAD
 40
10.0
  9
$AUNITS
 70
     0
  9
$AUPREC
 70
     2
  9
$MENU
  1
.
  9
$ELEVATION
 40
0.0
  9
$PELEVATION
 40
0.0
  9
$THICKNESS
 40
0.0
  9
$LIMCHECK
 70
     0
  9
$CHAMFERA
 40
10.0
  9
$CHAMFERB
 40
10.0
  9
$CHAMFERC
 40
20.0
  9
$CHAMFERD
 40
0.0
  9
$SKPOLY
 70
     0
  9
$TDCREATE
 40
2456072.368897593
  9
$TDUCREATE
 40
2456072.285564259
  9
$TDUPDATE
 40
2456072.368899039
  9
$TDUUPDATE
 40
2456072.285565706
  9
$TDINDWG
 40
0.0000000116
  9
$TDUSRTIMER
 40
0.0000000116
  9
$USRTIMER
 70
     1
  9
$ANGBASE
 50
0.0
  9
$ANGDIR
 70
     0
  9
$PDMODE
 70
     0
  9
$PDSIZE
 40
-1.0
  9
$PLINEWID
 40
0.0
  9
$SPLFRAME
 70
     0
  9
$SPLINETYPE
 70
     6
  9
$SPLINESEGS
 70
     8
  9
$HANDSEED
  5
258
  9
$SURFTAB1
 70
     6
  9
$SURFTAB2
 70
     6
  9
$SURFTYPE
 70
     6
  9
$SURFU
 70
     6
  9
$SURFV
 70
     6
  9
$UCSBASE
  2

  9
$UCSNAME
  2

  9
$UCSORG
 10
0.0
 20
0.0
 30
0.0
  9
$UCSXDIR
 10
1.0
 20
0.0
 30
0.0
  9
$UCSYDIR
 10
0.0
 20
1.0
 30
0.0
  9
$UCSORTHOREF
  2

  9
$UCSORTHOVIEW
 70
     0
  9
$UCSORGTOP
 10
0.0
 20
0.0
 30
0.0
  9
$UCSORGBOTTOM
 10
0.0
 20
0.0
 30
0.0
  9
$UCSORGLEFT
 10
0.0
 20
0.0
 30
0.0
  9
$UCSORGRIGHT
 10
0.0
 20
0.0
 30
0.0
  9
$UCSORGFRONT
 10
0.0
 20
0.0
 30
0.0
  9
$UCSORGBACK
 10
0.0
 20
0.0
 30
0.0
  9
$PUCSBASE
  2

  9
$PUCSNAME
  2

  9
$PUCSORG
 10
0.0
 20
0.0
 30
0.0
  9
$PUCSXDIR
 10
1.0
 20
0.0
 30
0.0
  9
$PUCSYDIR
 10
0.0
 20
1.0
 30
0.0
  9
$PUCSORTHOREF
  2

  9
$PUCSORTHOVIEW
 70
     0
  9
$PUCSORGTOP
 10
0.0
 20
0.0
 30
0.0
  9
$PUCSORGBOTTOM
 10
0.0
 20
0.0
 30
0.0
  9
$PUCSORGLEFT
 10
0.0
 20
0.0
 30
0.0
  9
$PUCSORGRIGHT
 10
0.0
 20
0.0
 30
0.0
  9
$PUCSORGFRONT
 10
0.0
 20
0.0
 30
0.0
  9
$PUCSORGBACK
 10
0.0
 20
0.0
 30
0.0
  9
$USERI1
 70
     0
  9
$USERI2
 70
     0
  9
$USERI3
 70
     0
  9
$USERI4
 70
     0
  9
$USERI5
 70
     0
  9
$USERR1
 40
0.0
  9
$USERR2
 40
0.0
  9
$USERR3
 40
0.0
  9
$USERR4
 40
0.0
  9
$USERR5
 40
0.0
  9
$WORLDVIEW
 70
     1
  9
$SHADEDGE
 70
     3
  9
$SHADEDIF
 70
    70
  9
$TILEMODE
 70
     1
  9
$MAXACTVP
 70
    64
  9
$PINSBASE
 10
0.0
 20
0.0
 30
0.0
  9
$PLIMCHECK
 70
     0
  9
$PEXTMIN
 10
1.0000000000E+20
 20
1.0000000000E+20
 30
1.0000000000E+20
  9
$PEXTMAX
 10
-1.0000000000E+20
 20
-1.0000000000E+20
 30
-1.0000000000E+20
  9
$PLIMMIN
 10
0.0
 20
0.0
  9
$PLIMMAX
 10
420.0
 20
297.0
  9
$UNITMODE
 70
     0
  9
$VISRETAIN
 70
     1
  9
$PLINEGEN
 70
     0
  9
$PSLTSCALE
 70
     1
  9
$TREEDEPTH
 70
  3020
  9
$CMLSTYLE
  2
Standard
  9
$CMLJUST
 70
     0
  9
$CMLSCALE
 40
20.0
  9
$PROXYGRAPHICS
 70
     1
  9
$MEASUREMENT
 70
     1
  9
$CELWEIGHT
370
    -1
  9
$ENDCAPS
280
     0
  9
$JOINSTYLE
280
     0
  9
$LWDISPLAY
290
     1
  9
$INSUNITS
 70
     4
  9
$HYPERLINKBASE
  1

  9
$STYLESHEET
  1

  9
$XEDIT
290
     1
  9
$CEPSNTYPE
380
     0
  9
$PSTYLEMODE
290
     1
  9
$FINGERPRINTGUID
  2
{1A77DFF3-D288-4B7E-9E7E-8C437458209E}
  9
$VERSIONGUID
  2
{FAEB1C32-E019-11D5-929B-00C0DF256EC4}
  9
$EXTNAMES
290
     1
  9
$PSVPSCALE
 40
0.0
  9
$OLESTARTUP
290
     0
  0
ENDSEC
  0
SECTION
  2
CLASSES
  0
CLASS
  1
ACDBDICTIONARYWDFLT
  2
AcDbDictionaryWithDefault
  3
ObjectDBX Classes
 90
        0
280
     0
281
     0
  0
CLASS
  1
VISUALSTYLE
  2
AcDbVisualStyle
  3
ObjectDBX Classes
 90
     4095
280
     0
281
     0
  0
CLASS
  1
MATERIAL
  2
AcDbMaterial
  3
ObjectDBX Classes
 90
     1153
280
     0
281
     0
  0
CLASS
  1
ACDBPLACEHOLDER
  2
AcDbPlaceHolder
  3
ObjectDBX Classes
 90
        0
280
     0
281
     0
  0
CLASS
  1
LAYOUT
  2
AcDbLayout
  3
ObjectDBX Classes
 90
        0
280
     0
281
     0
  0
ENDSEC
  0
SECTION
  2
TABLES
  0
TABLE
  2
VPORT
  5
8
330
0
100
AcDbSymbolTable
 70
     1
  0
VPORT
  5
29
330
8
100
AcDbSymbolTableRecord
100
AcDbViewportTableRecord
  2
*Active
 70
     0
 10
0.0
 20
0.0
 11
1.0
 21
1.0
 12
148.5
 22
105.0
 13
0.0
 23
0.0
 14
10.0
 24
10.0
 15
10.0
 25
10.0
 16
0.0
 26
0.0
 36
1.0
 17
0.0
 27
0.0
 37
0.0
 40
210.0
 41
1.4142857143
 42
50.0
 43
0.0
 44
0.0
 50
0.0
 51
0.0
 71
     0
 72
  2000
 73
     1
 74
     3
 75
     0
 76
     0
 77
     0
 78
     0
281
     0
 65
     1
110
0.0
120
0.0
130
0.0
111
1.0
121
0.0
131
0.0
112
0.0
122
1.0
132
0.0
 79
     0
146
0.0
  0
ENDTAB
  0
TABLE
  2
LTYPE
  5
5
330
0
100
AcDbSymbolTable
 70
     6
  0
LTYPE
  5
14
330
5
100
AcDbSymbolTableRecord
100
AcDbLinetypeTableRecord
  2
ByBlock
 70
     0
  3

 72
    65
 73
     0
 40
0.0
  0
LTYPE
  5
15
330
5
100
AcDbSymbolTableRecord
100
AcDbLinetypeTableRecord
  2
ByLayer
 70
     0
  3

 72
    65
 73
     0
 40
0.0
  0
LTYPE
  5
16
330
5
100
AcDbSymbolTableRecord
100
AcDbLinetypeTableRecord
  2
Continuous
 70
     0
  3
Solid line
 72
    65
 73
     0
 40
0.0
  0
LTYPE
  5
3F
330
5
100
AcDbSymbolTableRecord
100
AcDbLinetypeTableRecord
  2
HIDDEN
 70
     0
  3
Hidden __ __ __ __ __ __ __ __ __ __ __ __ __ __
 72
    65
 73
     2
 40
1.905
 49
1.27
 74
     0
 49
-0.635
 74
     0
  0
LTYPE
  5
40
330
5
100
AcDbSymbolTableRecord
100
AcDbLinetypeTableRecord
  2
PHANTOM
 70
     0
  3
Phantom ______  __  __  ______  __  __  ______
 72
    65
 73
     6
 40
12.7
 49
6.35
 74
     0
 49
-1.27
 74
     0
 49
1.27
 74
     0
 49
-1.27
 74
     0
 49
1.27
 74
     0
 49
-1.27
 74
     0
  0
LTYPE
  5
41
330
5
100
AcDbSymbolTableRecord
100
AcDbLinetypeTableRecord
  2
CENTER
 70
     0
  3
Center ____ _ ____ _ ____ _ ____ _ ____ _ ____
 72
    65
 73
     4
 40
10.16
 49
6.35
 74
     0
 49
-1.27
 74
     0
 49
1.27
 74
     0
 49
-1.27
 74
     0
  0
LTYPE
  5
42
330
5
100
AcDbSymbolTableRecord
100
AcDbLinetypeTableRecord
  2
CENTERX2
 70
     0
  3
Center (2x) ________  __  ________  __  _____
 72
    65
 73
     4
 40
20.32
 49
12.7
 74
     0
 49
-2.54
 74
     0
 49
2.54
 74
     0
 49
-2.54
 74
     0
  0
LTYPE
  5
43
330
5
100
AcDbSymbolTableRecord
100
AcDbLinetypeTableRecord
  2
DOT2
 70
     0
  3
Dot (.5x) ........................................
 72
    65
 73
     2
 40
0.635
 49
0.0
 74
     0
 49
-0.635
 74
     0
  0
ENDTAB
  0
TABLE
  2
LAYER
  5
2
330
0
100
AcDbSymbolTable
 70
     5
  0
LAYER
  5
10
330
2
100
AcDbSymbolTableRecord
100
AcDbLayerTableRecord
  2
0
 70
     0
 62
     7
  6
Continuous
370
    -3
390
F
  0
LAYER
  5
44
330
2
100
AcDbSymbolTableRecord
100
AcDbLayerTableRecord
  2
FORMAT
 70
     0
 62
     7
  6
Continuous
370
    -3
390
F
  0
LAYER
  5
45
330
2
100
AcDbSymbolTableRecord
100
AcDbLayerTableRecord
  2
VERMASSUNG
 70
     0
 62
     7
  6
Continuous
370
    -3
390
F
  0
LAYER
  5
46
330
2
100
AcDbSymbolTableRecord
100
AcDbLayerTableRecord
  2
KOPF_DÜNN
 70
     0
 62
     7
  6
Continuous
370
    -3
390
F
  0
LAYER
  5
47
330
2
100
AcDbSymbolTableRecord
100
AcDbLayerTableRecord
  2
KOPF_DICK
 70
     0
 62
     7
  6
Continuous
370
    15
390
F
  0
ENDTAB
  0
TABLE
  2
STYLE
  5
3
330
0
100
AcDbSymbolTable
 70
     2
  0
STYLE
  5
11
330
3
100
AcDbSymbolTableRecord
100
AcDbTextStyleTableRecord
  2
Standard
 70
     0
 40
0.0
 41
1.0
 50
0.0
 71
     0
 42
2.0
  3
txt
  4

  0
STYLE
  5
48
330
3
100
AcDbSymbolTableRecord
100
AcDbTextStyleTableRecord
  2
SLDTEXTSTYLE0
 70
     0
 40
0.0
 41
0.7
 50
0.0
 71
     0
 42
0.2
  3
TXT
  4

  0
ENDTAB
  0
TABLE
  2
VIEW
  5
6
330
0
100
AcDbSymbolTable
 70
     0
  0
ENDTAB
  0
TABLE
  2
UCS
  5
7
330
0
100
AcDbSymbolTable
 70
     0
  0
ENDTAB
  0
TABLE
  2
APPID
  5
9
330
0
100
AcDbSymbolTable
 70
     1
  0
APPID
  5
12
330
9
100
AcDbSymbolTableRecord
100
AcDbRegAppTableRecord
  2
ACAD
 70
     0
  0
ENDTAB
  0
TABLE
  2
DIMSTYLE
  5
A
330
0
100
AcDbSymbolTable
 70
     5
100
AcDbDimStyleTable
  0
DIMSTYLE
105
27
330
A
100
AcDbSymbolTableRecord
100
AcDbDimStyleTableRecord
  2
ISO-25
 70
     0
 41
2.5
 42
0.625
 43
3.75
 44
1.25
 73
     0
 74
     0
 77
     1
 78
     8
140
2.5
141
2.5
143
0.0393700787
147
0.625
171
     3
172
     1
178
     0
271
     2
272
     2
274
     3
278
    44
283
     0
284
     8
340
11
  0
DIMSTYLE
105
1A7
102
{ACAD_REACTORS
330
1A6
102
}
330
A
100
AcDbSymbolTableRecord
100
AcDbDimStyleTableRecord
  2
SLDDIMSTYLE0
 70
     0
 41
3.0
 44
0.0
 73
     0
 74
     0
 77
     1
 78
    12
 79
     3
140
2.0
147
0.5
173
     1
178
     0
179
     2
272
     3
276
     2
284
    12
340
48
  0
DIMSTYLE
105
1B1
102
{ACAD_REACTORS
330
1B0
330
1BD
102
}
330
A
100
AcDbSymbolTableRecord
100
AcDbDimStyleTableRecord
  2
SLDDIMSTYLE1
 70
     0
 41
3.0
 44
0.0
 45
0.000000001
 47
0.1
 48
0.1
 71
     1
 73
     0
 74
     0
 77
     1
 78
    12
 79
     3
140
2.0
147
0.5
173
     1
178
     0
271
     2
272
     1
276
     2
284
     8
340
48
  0
DIMSTYLE
105
1CA
102
{ACAD_REACTORS
330
1C9
330
1D4
102
}
330
A
100
AcDbSymbolTableRecord
100
AcDbDimStyleTableRecord
  2
SLDDIMSTYLE2
 70
     0
 41
3.0
 44
0.0
 45
0.000000001
 73
     0
 74
     0
 77
     1
 78
    12
 79
     3
140
2.0
147
0.5
173
     1
178
     0
271
     2
272
     3
276
     2
284
    12
340
48
  0
DIMSTYLE
105
23D
102
{ACAD_REACTORS
330
23C
102
}
330
A
100
AcDbSymbolTableRecord
100
AcDbDimStyleTableRecord
  2
SLDDIMSTYLE3
 70
     0
 41
3.0
 44
0.0
 45
0.000000001
 73
     0
 74
     0
 77
     1
 78
    12
 79
     3
140
2.0
147
0.5
172
     1
173
     1
178
     0
271
     2
272
     3
276
     2
284
    12
289
     0
340
48
  0
ENDTAB
  0
TABLE
  2
BLOCK_RECORD
  5
1
330
0
100
AcDbSymbolTable
 70
     8
  0
BLOCK_RECORD
  5
1F
330
1
100
AcDbSymbolTableRecord
100
AcDbBlockTableRecord
  2
*Model_Space
340
22
  0
BLOCK_RECORD
  5
1B
330
1
100
AcDbSymbolTableRecord
100
AcDbBlockTableRecord
  2
*Paper_Space
340
1E
  0
BLOCK_RECORD
  5
23
330
1
100
AcDbSymbolTableRecord
100
AcDbBlockTableRecord
  2
*Paper_Space0
340
26
  0
BLOCK_RECORD
  5
1A8
330
1
100
AcDbSymbolTableRecord
100
AcDbBlockTableRecord
  2
_D
340
0
  0
BLOCK_RECORD
  5
1B2
330
1
100
AcDbSymbolTableRecord
100
AcDbBlockTableRecord
  2
_D_1
340
0
  0
BLOCK_RECORD
  5
1BE
330
1
100
AcDbSymbolTableRecord
100
AcDbBlockTableRecord
  2
_D_2
340
0
  0
BLOCK_RECORD
  5
1CB
330
1
100
AcDbSymbolTableRecord
100
AcDbBlockTableRecord
  2
_D_3
340
0
  0
BLOCK_RECORD
  5
1D5
330
1
100
AcDbSymbolTableRecord
100
AcDbBlockTableRecord
  2
_D_4
340
0
  0
BLOCK_RECORD
  5
23E
330
1
100
AcDbSymbolTableRecord
100
AcDbBlockTableRecord
  2
_D_5
340
0
  0
BLOCK_RECORD
  5
24B
330
1
100
AcDbSymbolTableRecord
100
AcDbBlockTableRecord
  2
SW_CENTERMARKSYMBOL_0
340
0
102
{BLKREFS
331
256
102
}
  0
ENDTAB
  0
ENDSEC
  0
SECTION
  2
BLOCKS
  0
BLOCK
  5
20
330
1F
100
AcDbEntity
  8
0
100
AcDbBlockBegin
  2
*Model_Space
 70
     0
 10
0.0
 20
0.0
 30
0.0
  3
*Model_Space
  1

  0
ENDBLK
  5
21
330
1F
100
AcDbEntity
  8
0
100
AcDbBlockEnd
  0
BLOCK
  5
1C
330
1B
100
AcDbEntity
 67
     1
  8
0
100
AcDbBlockBegin
  2
*Paper_Space
 70
     0
 10
0.0
 20
0.0
 30
0.0
  3
*Paper_Space
  1

  0
ENDBLK
  5
1D
330
1B
100
AcDbEntity
 67
     1
  8
0
100
AcDbBlockEnd
  0
BLOCK
  5
24
330
23
100
AcDbEntity
  8
0
100
AcDbBlockBegin
  2
*Paper_Space0
 70
     0
 10
0.0
 20
0.0
 30
0.0
  3
*Paper_Space0
  1

  0
ENDBLK
  5
25
330
23
100
AcDbEntity
  8
0
100
AcDbBlockEnd
  0
BLOCK
  5
1A9
330
1A8
100
AcDbEntity
  8
0
100
AcDbBlockBegin
  2
_D
 70
     0
 10
0.0
 20
0.0
 30
0.0
  3
_D
  1

  0
ARC
  5
1AB
330
1A8
100
AcDbEntity
  8
VERMASSUNG
100
AcDbCircle
 10
253.6979353381
 20
81.9720434392
 30
0.0
 40
14.48575015072685
100
AcDbArc
 50
152.7203307484
 51
270.0
  0
SOLID
  5
1AC
330
1A8
100
AcDbEntity
  8
VERMASSUNG
100
AcDbTrace
 10
240.8232914312
 20
88.611358291
 30
0.0
 11
239.3083374573
 21
85.9831622449
 31
0.0
 12
240.1461191127
 22
85.654343301
 32
0.0
 13
240.1461191127
 23
85.654343301
 33
0.0
  0
SOLID
  5
1AD
330
1A8
100
AcDbEntity
  8
VERMASSUNG
100
AcDbTrace
 10
253.6979353381
 20
67.4862932885
 30
0.0
 11
250.7594285426
 21
68.2397372566
 31
0.0
 12
250.6676922251
 22
67.3444247704
 32
0.0
 13
250.6676922251
 23
67.3444247704
 33
0.0
  0
LINE
  5
1AE
330
1A8
100
AcDbEntity
  8
VERMASSUNG
100
AcDbLine
 10
253.6979353381
 20
80.2437818113
 30
0.0
 11
253.6979353381
 21
66.4862932885
 31
0.0
  0
MTEXT
  5
1AF
330
1A8
100
AcDbEntity
  8
VERMASSUNG
100
AcDbMText
 10
241.3441229567
 20
79.3615629627
 30
0.1
 40
2.0
 41
0.0
 71
     1
 72
     1
  1
117.5°
  7
SLDTEXTSTYLE0
 11
0.5204160787235331
 21
-0.8539128204951729
 31
0.0
 73
     1
 44
1.0
  0
ENDBLK
  5
1AA
330
1A8
100
AcDbEntity
  8
0
100
AcDbBlockEnd
  0
BLOCK
  5
1B3
330
1B2
100
AcDbEntity
  8
0
100
AcDbBlockBegin
  2
_D_1
 70
     0
 10
0.0
 20
0.0
 30
0.0
  3
_D_1
  1

  0
SOLID
  5
1B5
330
1B2
100
AcDbEntity
  8
VERMASSUNG
100
AcDbTrace
 10
188.6979353381
 20
62.2210415023
 30
0.0
 11
191.6979353381
 21
61.7710415023
 31
0.0
 12
191.6979353381
 22
62.6710415023
 32
0.0
 13
191.6979353381
 23
62.6710415023
 33
0.0
  0
SOLID
  5
1B6
330
1B2
100
AcDbEntity
  8
VERMASSUNG
100
AcDbTrace
 10
253.6979353381
 20
62.2210415023
 30
0.0
 11
250.6979353381
 21
62.6710415023
 31
0.0
 12
250.6979353381
 22
61.7710415023
 32
0.0
 13
250.6979353381
 23
61.7710415023
 33
0.0
  0
LINE
  5
1B7
330
1B2
100
AcDbEntity
  8
VERMASSUNG
100
AcDbLine
 10
188.6979353381
 20
96.2286405564
 30
0.0
 11
188.6979353381
 21
61.2210415023
 31
0.0
  0
LINE
  5
1B8
330
1B2
100
AcDbEntity
  8
VERMASSUNG
100
AcDbLine
 10
253.6979353381
 20
82.2286405564
 30
0.0
 11
253.6979353381
 21
61.2210415023
 31
0.0
  0
LINE
  5
1B9
330
1B2
100
AcDbEntity
  8
VERMASSUNG
100
AcDbLine
 10
188.6979353381
 20
62.2210415023
 30
0.0
 11
253.6979353381
 21
62.2210415023
 31
0.0
  0
MTEXT
  5
1BA
330
1B2
100
AcDbEntity
  8
VERMASSUNG
100
AcDbMText
 10
216.6479351511
 20
64.7991768655
 30
0.1
 40
2.0
 41
0.0
 71
     1
 72
     1
  1
65
  7
SLDTEXTSTYLE0
 73
     1
 44
1.0
  0
MTEXT
  5
1BB
330
1B2
100
AcDbEntity
  8
VERMASSUNG
100
AcDbMText
 10
222.4354352531
 20
64.7991768655
 30
0.1
 40
2.0
 41
0.0
 71
     1
 72
     1
  1

  7
SLDTEXTSTYLE0
 73
     1
 44
1.0
  0
MTEXT
  5
1BC
330
1B2
100
AcDbEntity
  8
VERMASSUNG
100
AcDbMText
 10
222.447935543
 20
64.3046430027
 30
0.1
 40
1.5
 41
0.0
 71
     1
 72
     1
  1
±0.1
  7
SLDTEXTSTYLE0
 73
     1
 44
1.0
  0
ENDBLK
  5
1B4
330
1B2
100
AcDbEntity
  8
0
100
AcDbBlockEnd
  0
BLOCK
  5
1BF
330
1BE
100
AcDbEntity
  8
0
100
AcDbBlockBegin
  2
_D_2
 70
     0
 10
0.0
 20
0.0
 30
0.0
  3
_D_2
  1

  0
SOLID
  5
1C1
330
1BE
100
AcDbEntity
  8
VERMASSUNG
100
AcDbTrace
 10
263.1888309074
 20
82.2286405564
 30
0.0
 11
263.6388309074
 21
85.2286405564
 31
0.0
 12
262.7388309074
 22
85.2286405564
 32
0.0
 13
262.7388309074
 23
85.2286405564
 33
0.0
  0
SOLID
  5
1C2
330
1BE
100
AcDbEntity
  8
VERMASSUNG
100
AcDbTrace
 10
263.1888309074
 20
127.2286405564
 30
0.0
 11
262.7388309074
 21
124.2286405564
 31
0.0
 12
263.6388309074
 22
124.2286405564
 32
0.0
 13
263.6388309074
 23
124.2286405564
 33
0.0
  0
LINE
  5
1C3
330
1BE
100
AcDbEntity
  8
VERMASSUNG
100
AcDbLine
 10
253.6979353381
 20
82.2286405564
 30
0.0
 11
264.1888309074
 21
82.2286405564
 31
0.0
  0
LINE
  5
1C4
330
1BE
100
AcDbEntity
  8
VERMASSUNG
100
AcDbLine
 10
253.6979353381
 20
127.2286405564
 30
0.0
 11
264.1888309074
 21
127.2286405564
 31
0.0
  0
LINE
  5
1C5
330
1BE
100
AcDbEntity
  8
VERMASSUNG
100
AcDbLine
 10
263.1888309074
 20
82.2286405564
 30
0.0
 11
263.1888309074
 21
127.2286405564
 31
0.0
  0
MTEXT
  5
1C6
330
1BE
100
AcDbEntity
  8
VERMASSUNG
100
AcDbMText
 10
260.6106955443
 20
100.0786405393
 30
0.1
 40
2.0
 41
0.0
 71
     1
 72
     1
  1
45
  7
SLDTEXTSTYLE0
 11
6.123233995736766E-17
 21
1.0
 31
0.0
 73
     1
 44
1.0
  0
MTEXT
  5
1C7
330
1BE
100
AcDbEntity
  8
VERMASSUNG
100
AcDbMText
 10
260.6106955443
 20
106.0661407673
 30
0.1
 40
2.0
 41
0.0
 71
     1
 72
     1
  1

  7
SLDTEXTSTYLE0
 11
6.123233995736766E-17
 21
1.0
 31
0.0
 73
     1
 44
1.0
  0
MTEXT
  5
1C8
330
1BE
100
AcDbEntity
  8
VERMASSUNG
100
AcDbMText
 10
261.1052294071
 20
106.0786405914
 30
0.1
 40
1.5
 41
0.0
 71
     1
 72
     1
  1
±0.1
  7
SLDTEXTSTYLE0
 11
6.123233995736766E-17
 21
1.0
 31
0.0
 73
     1
 44
1.0
  0
ENDBLK
  5
1C0
330
1BE
100
AcDbEntity
  8
0
100
AcDbBlockEnd
  0
BLOCK
  5
1CC
330
1CB
100
AcDbEntity
  8
0
100
AcDbBlockBegin
  2
_D_3
 70
     0
 10
0.0
 20
0.0
 30
0.0
  3
_D_3
  1

  0
SOLID
  5
1CE
330
1CB
100
AcDbEntity
  8
VERMASSUNG
100
AcDbTrace
 10
150.6979353381
 20
54.0206403726
 30
0.0
 11
153.6979353381
 21
53.5706403726
 31
0.0
 12
153.6979353381
 22
54.4706403726
 32
0.0
 13
153.6979353381
 23
54.4706403726
 33
0.0
  0
SOLID
  5
1CF
330
1CB
100
AcDbEntity
  8
VERMASSUNG
100
AcDbTrace
 10
253.6979353381
 20
54.0206403726
 30
0.0
 11
250.6979353381
 21
54.4706403726
 31
0.0
 12
250.6979353381
 22
53.5706403726
 32
0.0
 13
250.6979353381
 23
53.5706403726
 33
0.0
  0
LINE
  5
1D0
330
1CB
100
AcDbEntity
  8
VERMASSUNG
100
AcDbLine
 10
150.6979353381
 20
106.9363025639
 30
0.0
 11
150.6979353381
 21
53.0206403726
 31
0.0
  0
LINE
  5
1D1
330
1CB
100
AcDbEntity
  8
VERMASSUNG
100
AcDbLine
 10
253.6979353381
 20
82.2286405564
 30
0.0
 11
253.6979353381
 21
53.0206403726
 31
0.0
  0
LINE
  5
1D2
330
1CB
100
AcDbEntity
  8
VERMASSUNG
100
AcDbLine
 10
150.6979353381
 20
54.0206403726
 30
0.0
 11
253.6979353381
 21
54.0206403726
 31
0.0
  0
MTEXT
  5
1D3
330
1CB
100
AcDbEntity
  8
VERMASSUNG
100
AcDbMText
 10
199.3979352051
 20
56.5987757357
 30
0.1
 40
2.0
 41
0.0
 71
     1
 72
     1
  1
103
  7
SLDTEXTSTYLE0
 73
     1
 44
1.0
  0
ENDBLK
  5
1CD
330
1CB
100
AcDbEntity
  8
0
100
AcDbBlockEnd
  0
BLOCK
  5
1D6
330
1D5
100
AcDbEntity
  8
0
100
AcDbBlockBegin
  2
_D_4
 70
     0
 10
0.0
 20
0.0
 30
0.0
  3
_D_4
  1

  0
SOLID
  5
1D8
330
1D5
100
AcDbEntity
  8
VERMASSUNG
100
AcDbTrace
 10
137.9136260755
 20
95.7286405564
 30
0.0
 11
138.3636260755
 21
98.7286405564
 31
0.0
 12
137.4636260755
 22
98.7286405564
 32
0.0
 13
137.4636260755
 23
98.7286405564
 33
0.0
  0
SOLID
  5
1D9
330
1D5
100
AcDbEntity
  8
VERMASSUNG
100
AcDbTrace
 10
137.9136260755
 20
158.7286405564
 30
0.0
 11
137.4636260755
 21
155.7286405564
 31
0.0
 12
138.3636260755
 22
155.7286405564
 32
0.0
 13
138.3636260755
 23
155.7286405564
 33
0.0
  0
LINE
  5
1DA
330
1D5
100
AcDbEntity
  8
VERMASSUNG
100
AcDbLine
 10
189.1979353381
 20
95.7286405564
 30
0.0
 11
136.9136260755
 21
95.7286405564
 31
0.0
  0
LINE
  5
1DB
330
1D5
100
AcDbEntity
  8
VERMASSUNG
100
AcDbLine
 10
189.1979353381
 20
158.7286405564
 30
0.0
 11
136.9136260755
 21
158.7286405564
 31
0.0
  0
LINE
  5
1DC
330
1D5
100
AcDbEntity
  8
VERMASSUNG
100
AcDbLine
 10
137.9136260755
 20
95.7286405564
 30
0.0
 11
137.9136260755
 21
158.7286405564
 31
0.0
  0
MTEXT
  5
1DD
330
1D5
100
AcDbEntity
  8
VERMASSUNG
100
AcDbMText
 10
135.1354905864
 20
120.8236404472
 30
0.35
 40
2.0
 41
0.0
 71
     1
 72
     1
  1
PSC
  7
SLDTEXTSTYLE0
 11
6.123233995736766E-17
 21
1.0
 31
0.0
 73
     1
 44
1.0
  0
MTEXT
  5
1DE
330
1D5
100
AcDbEntity
  8
VERMASSUNG
100
AcDbMText
 10
135.3354905959
 20
125.4236405493
 30
0.35
 40
2.0
 41
0.0
 71
     1
 72
     1
  1
%%c
  7
SLDTEXTSTYLE0
 11
6.123233995736766E-17
 21
1.0
 31
0.0
 73
     1
 44
1.0
  0
MTEXT
  5
1DF
330
1D5
100
AcDbEntity
  8
VERMASSUNG
100
AcDbMText
 10
135.1354905864
 20
129.0336410292
 30
0.35
 40
2.0
 41
0.0
 71
     1
 72
     1
  1
63
  7
SLDTEXTSTYLE0
 11
6.123233995736766E-17
 21
1.0
 31
0.0
 73
     1
 44
1.0
  0
ENDBLK
  5
1D7
330
1D5
100
AcDbEntity
  8
0
100
AcDbBlockEnd
  0
BLOCK
  5
23F
330
23E
100
AcDbEntity
  8
0
100
AcDbBlockBegin
  2
_D_5
 70
     0
 10
0.0
 20
0.0
 30
0.0
  3
_D_5
  1

  0
SOLID
  5
241
330
23E
100
AcDbEntity
  8
VERMASSUNG
100
AcDbTrace
 10
98.1121461104
 20
153.4534916281
 30
0.0
 11
100.3595317593
 21
155.4910778827
 31
0.0
 12
99.6627999935
 22
156.0607838125
 32
0.0
 13
99.6627999935
 23
156.0607838125
 33
0.0
  0
SOLID
  5
242
330
23E
100
AcDbEntity
  8
VERMASSUNG
100
AcDbTrace
 10
47.4716190165
 20
91.5217791082
 30
0.0
 11
45.2242333676
 21
89.4841928536
 31
0.0
 12
45.9209651334
 22
88.9144869238
 32
0.0
 13
45.9209651334
 23
88.9144869238
 33
0.0
  0
LINE
  5
243
330
23E
100
AcDbEntity
  8
VERMASSUNG
100
AcDbLine
 10
98.1121461104
 20
153.4534916281
 30
0.0
 11
97.3379997039
 21
154.0864982168
 31
0.0
  0
LINE
  5
244
330
23E
100
AcDbEntity
  8
VERMASSUNG
100
AcDbLine
 10
47.4716190165
 20
91.5217791082
 30
0.0
 11
46.69747261
 21
92.1547856968
 31
0.0
  0
LINE
  5
245
330
23E
100
AcDbEntity
  8
VERMASSUNG
100
AcDbLine
 10
98.1121461104
 20
153.4534916281
 30
0.0
 11
101.9101856424
 21
158.0983700671
 31
0.0
  0
LINE
  5
246
330
23E
100
AcDbEntity
  8
VERMASSUNG
100
AcDbLine
 10
98.1121461104
 20
153.4534916281
 30
0.0
 11
47.4716190165
 21
91.5217791082
 31
0.0
  0
LINE
  5
247
330
23E
100
AcDbEntity
  8
VERMASSUNG
100
AcDbLine
 10
47.4716190165
 20
91.5217791082
 30
0.0
 11
36.5606827395
 21
78.1780600038
 31
0.0
  0
MTEXT
  5
248
330
23E
100
AcDbEntity
  8
VERMASSUNG
100
AcDbMText
 10
34.5648284225
 20
79.8100367489
 30
0.1
 40
2.0
 41
0.0
 71
     1
 72
     1
  1
%%c
  7
SLDTEXTSTYLE0
 11
0.6330065886731232
 21
0.7741464064997108
 31
0.0
 73
     1
 44
1.0
  0
MTEXT
  5
249
330
23E
100
AcDbEntity
  8
VERMASSUNG
100
AcDbMText
 10
36.695152928
 20
82.7313066112
 30
0.1
 40
2.0
 41
0.0
 71
     1
 72
     1
  1
80
  7
SLDTEXTSTYLE0
 11
0.6330065886731232
 21
0.7741464064997108
 31
0.0
 73
     1
 44
1.0
  0
MTEXT
  5
24A
330
23E
100
AcDbEntity
  8
VERMASSUNG
100
AcDbMText
 10
40.3586789193
 20
87.2116793783
 30
0.1
 40
2.0
 41
0.0
 71
     1
 72
     1
  1
min.
  7
SLDTEXTSTYLE0
 11
0.6330065886731232
 21
0.7741464064997108
 31
0.0
 73
     1
 44
1.0
  0
ENDBLK
  5
240
330
23E
100
AcDbEntity
  8
0
100
AcDbBlockEnd
  0
BLOCK
  5
24C
330
24B
100
AcDbEntity
  8
0
100
AcDbBlockBegin
  2
SW_CENTERMARKSYMBOL_0
 70
     0
 10
0.0
 20
0.0
 30
0.0
  3
SW_CENTERMARKSYMBOL_0
  1

  0
LINE
  5
24E
330
24B
100
AcDbEntity
  8
VERMASSUNG
 62
     0
100
AcDbLine
 10
0.0
 20
0.0
 30
0.0
 11
0.0
 21
2.5
 31
0.0
  0
LINE
  5
24F
330
24B
100
AcDbEntity
  8
VERMASSUNG
 62
     0
100
AcDbLine
 10
0.0
 20
0.0
 30
0.0
 11
-2.5
 21
0.0
 31
0.0
  0
LINE
  5
250
330
24B
100
AcDbEntity
  8
VERMASSUNG
 62
     0
100
AcDbLine
 10
0.0
 20
0.0
 30
0.0
 11
0.0
 21
-2.5
 31
0.0
  0
LINE
  5
251
330
24B
100
AcDbEntity
  8
VERMASSUNG
 62
     0
100
AcDbLine
 10
0.0
 20
0.0
 30
0.0
 11
2.5
 21
0.0
 31
0.0
  0
LINE
  5
252
330
24B
100
AcDbEntity
  8
VERMASSUNG
 62
     0
100
AcDbLine
 10
0.0
 20
5.0
 30
0.0
 11
0.0
 21
34.0
 31
0.0
  0
LINE
  5
253
330
24B
100
AcDbEntity
  8
VERMASSUNG
 62
     0
100
AcDbLine
 10
-5.0
 20
0.0
 30
0.0
 11
-34.0
 21
0.0
 31
0.0
  0
LINE
  5
254
330
24B
100
AcDbEntity
  8
VERMASSUNG
 62
     0
100
AcDbLine
 10
0.0
 20
-5.0
 30
0.0
 11
0.0
 21
-45.3195789035
 31
0.0
  0
LINE
  5
255
330
24B
100
AcDbEntity
  8
VERMASSUNG
 62
     0
100
AcDbLine
 10
5.0
 20
0.0
 30
0.0
 11
34.0
 21
0.0
 31
0.0
  0
ENDBLK
  5
24D
330
24B
100
AcDbEntity
  8
0
100
AcDbBlockEnd
  0
ENDSEC
  0
SECTION
  2
ENTITIES
  0
MTEXT
  5
49
330
1F
100
AcDbEntity
  8
KOPF_DÜNN
100
AcDbMText
 10
13.8892156294
 20
23.8442973028
 30
0.0
 40
3.0
 41
0.0
 71
     1
 72
     1
  1
PS6.KVF.LPA.065
  7
SLDTEXTSTYLE0
 73
     1
 44
1.0
  0
MTEXT
  5
4A
330
1F
100
AcDbEntity
  8
VERMASSUNG
100
AcDbMText
 10
13.9329988022
 20
28.8834360957
 30
0.0
 40
3.0
 41
0.0
 71
     1
 72
     1
  1
Klemmhalter links_Turning tool left 117.5° /35°
  7
SLDTEXTSTYLE0
 73
     1
 44
1.0
  0
MTEXT
  5
4B
330
1F
100
AcDbEntity
  8
VERMASSUNG
100
AcDbMText
 10
98.8601118557
 20
13.8365368179
 30
0.0
 40
2.0
 41
0.0
 71
     1
 72
     1
  1
Datum: 24.05.2012
  7
SLDTEXTSTYLE0
 73
     1
 44
1.0
  0
MTEXT
  5
4C
330
1F
100
AcDbEntity
  8
VERMASSUNG
100
AcDbMText
 10
13.933048693
 20
18.0482802738
 30
0.0
 40
2.0
 41
0.0
 71
     1
 72
     1
  1
PSC ø63 / VB..16 04..
  7
SLDTEXTSTYLE0
 73
     1
 44
1.0
  0
MTEXT
  5
4D
330
1F
100
AcDbEntity
  8
VERMASSUNG
100
AcDbMText
 10
13.9808475933
 20
13.9090973692
 30
0.0
 40
2.0
 41
0.0
 71
     1
 72
     1
  1
Gewicht: 1232g
  7
SLDTEXTSTYLE0
 73
     1
 44
1.0
  0
ARC
  5
4E
330
1F
100
AcDbEntity
  8
0
  6
Continuous
 62
     7
370
    15
100
AcDbCircle
 10
209.6979353381
 20
113.5786405564
 30
0.0
 40
2.499999999999998
100
AcDbArc
 50
289.1056234321
 51
338.6286669096
  0
ARC
  5
4F
330
1F
100
AcDbEntity
  8
0
  6
Continuous
 62
     7
370
    15
100
AcDbCircle
 10
209.6979353381
 20
113.5786405564
 30
0.0
 40
2.499999999999998
100
AcDbArc
 50
201.3713330904
 51
289.1056234321
  0
LINE
  5
50
330
1F
100
AcDbEntity
  8
0
  6
Continuous
 62
     7
370
    15
100
AcDbLine
 10
243.6652716947
 20
93.9194639922
 30
0.0
 11
243.7573385192
 21
93.8276206852
 31
0.0
  0
LINE
  5
51
330
1F
100
AcDbEntity
  8
0
  6
Continuous
 62
     7
370
    15
100
AcDbLine
 10
242.0634117675
 20
92.1070134044
 30
0.0
 11
241.9713784707
 21
92.1988269091
 31
0.0
  0
LINE
  5
52
330
1F
100
AcDbEntity
  8
0
  6
Continuous
 62
     7
370
    15
100
AcDbLine
 10
244.7482508374
 20
94.8399347962
 30
0.0
 11
244.6977060986
 21
94.8903528751
 31
0.0
  0
LINE
  5
53
330
1F
100
AcDbEntity
  8
0
  6
Continuous
 62
     7
370
    15
100
AcDbLine
 10
240.9899283898
 20
91.1735189856
 30
0.0
 11
241.0404694033
 21
91.1230971814
 31
0.0
  0
ARC
  5
54
330
1F
100
AcDbEntity
  8
0
  6
Continuous
 62
     7
370
    15
100
AcDbCircle
 10
189.1979353381
 20
96.2286405564
 30
0.0
 40
0.5
100
AcDbArc
 50
180.0
 51
270.0
  0
ARC
  5
55
330
1F
100
AcDbEntity
  8
0
  6
Continuous
 62
     7
370
    15
100
AcDbCircle
 10
189.1979353381
 20
158.2286405564
 30
0.0
 40
0.5
100
AcDbArc
 50
90.0
 51
180.0
  0
LINE
  5
56
330
1F
100
AcDbEntity
  8
0
  6
Continuous
 62
     7
370
    15
100
AcDbLine
 10
222.1668821526
 20
158.728641063
 30
0.0
 11
189.1979353618
 21
158.728641063
 31
0.0
  0
LINE
  5
57
330
1F
100
AcDbEntity
  8
0
  6
Continuous
 62
     7
370
    15
100
AcDbLine
 10
189.1979353618
 20
95.7286400498
 30
0.0
 11
225.9306099964
 21
95.7286400498
 31
0.0
  0
LWPOLYLINE
  5
58
330
1F
100
AcDbEntity
  8
0
  6
Continuous
 62
     7
370
    15
100
AcDbPolyline
 90
        3
 70
   128
 43
0.0
 10
188.4979353431
 20
104.6888200343
 10
188.6233902783
 20
104.6205186994
 10
188.6979353381
 20
104.5677797646
  0
LWPOLYLINE
  5
59
330
1F
100
AcDbEntity
  8
0
  6
Continuous
 62
     7
370
    15
100
AcDbPolyline
 90
        3
 70
   128
 43
0.0
 10
188.6979353381
 20
149.8895013482
 10
188.6233902783
 20
149.8367624135
 10
188.4979353431
 20
149.7684610785
  0
ARC
  5
5A
330
1F
100
AcDbEntity
  8
0
  6
Continuous
 62
     7
370
    15
100
AcDbCircle
 10
225.9306083501
 20
94.7286405564
 30
0.0
 40
1.0
100
AcDbArc
 50
15.0
 51
90.0
  0
LINE
  5
5B
330
1F
100
AcDbEntity
  8
0
  6
Continuous
 62
     7
370
    15
100
AcDbLine
 10
226.8965330673
 20
94.9874600173
 30
0.0
 11
226.9903321517
 21
94.6373982132
 31
0.0
  0
ARC
  5
5C
330
1F
100
AcDbEntity
  8
0
  6
Continuous
 62
     7
370
    15
100
AcDbCircle
 10
209.7025675406
 20
112.3063565601
 30
0.0
 40
3.043297332941432
100
AcDbArc
 50
189.7945075877
 51
348.3646982244
  0
LWPOLYLINE
  5
5D
330
1F
100
AcDbEntity
  8
0
  6
Continuous
 62
     7
370
    15
100
AcDbPolyline
 90
       18
 70
   128
 43
0.0
 10
212.3533983482
 20
112.7984687463
 10
212.5267640454
 20
112.2433278487
 10
212.5476256711
 20
111.6685267315
 10
212.4148600501
 20
111.1050514282
 10
212.1356253279
 20
110.583281681
 10
211.7249716771
 20
110.1313462258
 10
211.2050422234
 20
109.7736065984
 10
210.6038641883
 20
109.5293486268
 10
209.9538457347
 20
109.4117430747
 10
209.2900325311
 20
109.4271285237
 10
208.6482078535
 20
109.5746760965
 10
208.0629759235
 20
109.8464304358
 10
207.5658843619
 20
110.2277418376
 10
207.1837329072
 20
110.6980522872
 10
206.9371224148
 20
111.2320093215
 10
206.8393465829
 20
111.8008276225
 10
206.8956804228
 20
112.3738406003
 10
206.9631119025
 20
112.6033846066
  0
LWPOLYLINE
  5
5E
330
1F
100
AcDbEntity
  8
0
  6
Continuous
 62
     7
370
    15
100
AcDbPolyline
 90
       26
 70
   128
 43
0.0
 10
212.0191448135
 20
112.6826867238
 10
212.1771120233
 20
112.1575027481
 10
212.179302494
 20
111.6147978009
 10
212.0255802525
 20
111.0886694641
 10
211.7256031138
 20
110.6121787579
 10
211.298221047
 20
110.2152658404
 10
210.7702859444
 20
109.9228678048
 10
210.1749715162
 20
109.753357783
 10
209.5496834022
 20
109.7173863799
 10
208.9337103767
 20
109.8172167093
 10
208.3657563431
 20
110.0465716571
 10
207.8815077198
 20
110.3910436631
 10
207.5113926781
 20
110.8289869279
 10
207.2786663426
 20
111.3328827322
 10
207.1979504777
 20
111.871070765
 10
207.2743189288
 20
112.4097347037
 10
207.5029716594
 20
112.9150284231
 10
207.8695420874
 20
113.3552012742
 10
208.3509967429
 20
113.7025967018
 10
208.9170844061
 20
113.9353863672
 10
209.5322360051
 20
114.0389429183
 10
210.1577997906
 20
114.0067601354
 10
210.7544683618
 20
113.8408599199
 10
211.2847503973
 20
113.551665634
 10
211.7153287632
 20
113.1573492438
 10
212.0191448135
 20
112.6826867238
  0
SPLINE
  5
5F
330
1F
100
AcDbEntity
  8
0
  6
Continuous
 62
     7
370
    15
100
AcDbSpline
210
0.0
220
0.0
230
1.0
 70
     8
 71
     3
 72
    10
 73
     6
 74
     0
 42
0.00000001
 43
0.00000001
 12
1.0
 22
0.0
 32
0.0
 13
1.0
 23
0.0
 33
0.0
 40
0.0
 40
0.0
 40
0.0
 40
0.0
 40
0.2724610893478655
 40
0.5448225281497748
 40
1.0
 40
1.0
 40
1.0
 40
1.0
 10
246.6458168578732
 20
96.23985418684582
 30
0.0
 10
246.6346754538891
 20
96.25880856418677
 30
0.0
 10
246.6123967208036
 20
96.29671038645107
 30
0.0
 10
246.5581694988712
 20
96.35743081306599
 30
0.0
 10
246.5080976119534
 20
96.38858435502628
 30
0.0
 10
246.4767706347096
 20
96.40807525820831
 30
0.0
  0
LINE
  5
60
330
1F
100
AcDbEntity
  8
0
  6
Continuous
 62
     7
370
    15
100
AcDbLine
 10
253.660732205
 20
82.7985411287
 30
0.0
 11
246.6458168579
 21
96.2398541868
 31
0.0
  0
SPLINE
  5
61
330
1F
100
AcDbEntity
  8
0
  6
Continuous
 62
     7
370
    15
100
AcDbSpline
210
0.0
220
0.0
230
1.0
 70
     8
 71
     3
 72
    15
 73
    11
 74
     0
 42
0.00000001
 43
0.00000001
 12
1.0
 22
0.0
 32
0.0
 13
1.0
 23
0.0
 33
0.0
 40
0.0
 40
0.0
 40
0.0
 40
0.0
 40
0.1369044621303205
 40
0.2736148401002554
 40
0.407900944976438
 40
0.5393422140900568
 40
0.6692119508457286
 40
0.7996792638252291
 40
0.9324932219773295
 40
1.0
 40
1.0
 40
1.0
 40
1.0
 10
253.1298038316357
 20
82.2650236786137
 30
0.0
 10
253.1724222430276
 20
82.24808694952517
 30
0.0
 10
253.2575986473381
 20
82.21423750189386
 30
0.0
 10
253.3970257060141
 20
82.2211016610317
 30
0.0
 10
253.5237975258845
 20
82.27079068695414
 30
0.0
 10
253.6249078954166
 20
82.35954202407866
 30
0.0
 10
253.690179506548
 20
82.4754556513161
 30
0.0
 10
253.7135864724254
 20
82.60626768219075
 30
0.0
 10
253.6979343278836
 20
82.71767555992892
 30
0.0
 10
253.6701091185464
 20
82.7781587045287
 30
0.0
 10
253.6607322049725
 20
82.79854112870792
 30
0.0
  0
LINE
  5
62
330
1F
100
AcDbEntity
  8
0
  6
Continuous
 62
     7
370
    15
100
AcDbLine
 10
239.6542739821
 20
89.2142100037
 30
0.0
 11
253.1298038316
 21
82.2650236786
 31
0.0
  0
SPLINE
  5
63
330
1F
100
AcDbEntity
  8
0
  6
Continuous
 62
     7
370
    15
100
AcDbSpline
210
0.0
220
0.0
230
1.0
 70
     8
 71
     3
 72
    10
 73
     6
 74
     0
 42
0.00000001
 43
0.00000001
 12
1.0
 22
0.0
 32
0.0
 13
1.0
 23
0.0
 33
0.0
 40
0.0
 40
0.0
 40
0.0
 40
0.0
 40
0.2724685293734664
 40
0.5448252806985542
 40
1.0
 40
1.0
 40
1.0
 40
1.0
 10
239.4852277589429
 20
89.38242921240429
 30
0.0
 10
239.4963689752278
 20
89.3634740722269
 30
0.0
 10
239.5186468372023
 20
89.3255715680677
 30
0.0
 10
239.5728757252186
 20
89.26485292821803
 30
0.0
 10
239.6229471580431
 20
89.23370037175499
 30
0.0
 10
239.6542739821065
 20
89.21421000368693
 30
0.0
  0
LINE
  5
64
330
1F
100
AcDbEntity
  8
0
  6
Continuous
 62
     7
370
    15
100
AcDbLine
 10
232.4703086866
 20
102.8237422705
 30
0.0
 11
239.4852277589
 21
89.3824292124
 31
0.0
  0
LINE
  5
65
330
1F
100
AcDbEntity
  8
0
  6
Continuous
 62
     7
370
    15
100
AcDbLine
 10
246.4767706347
 20
96.4080752582
 30
0.0
 11
233.0012407852
 21
103.3572615833
 31
0.0
  0
LINE
  5
66
330
1F
100
AcDbEntity
  8
0
  6
Continuous
 62
     7
370
    15
100
AcDbLine
 10
239.6639113081
 20
89.231730044
 30
0.0
 11
253.1238731695
 21
82.2905754448
 31
0.0
  0
ARC
  5
67
330
1F
100
AcDbEntity
  8
0
  6
Continuous
 62
     7
370
    15
100
AcDbCircle
 10
253.2973726266
 20
82.6292048382
 30
0.0
 40
0.3804890638299518
100
AcDbArc
 50
242.8713072032
 51
27.407299147
  0
LINE
  5
68
330
1F
100
AcDbEntity
  8
0
  6
Continuous
 62
     7
370
    15
100
AcDbLine
 10
253.6351543618
 20
82.8043488563
 30
0.0
 11
246.6283415211
 21
96.2301330418
 31
0.0
  0
ARC
  5
69
330
1F
100
AcDbEntity
  8
0
  6
Continuous
 62
     7
370
    15
100
AcDbCircle
 10
246.294622615
 20
96.0559813492
 30
0.0
 40
0.3764267794533228
100
AcDbArc
 50
27.5578694755
 51
62.723512123
  0
LINE
  5
6A
330
1F
100
AcDbEntity
  8
0
  6
Continuous
 62
     7
370
    15
100
AcDbLine
 10
246.4671333087
 20
96.3905514926
 30
0.0
 11
233.0071714473
 21
103.3317098171
 31
0.0
  0
ARC
  5
6B
330
1F
100
AcDbEntity
  8
0
  6
Continuous
 62
     7
370
    15
100
AcDbCircle
 10
232.8336734104
 20
102.9930783754
 30
0.0
 40
0.3804902391888996
100
AcDbArc
 50
62.8716381868
 51
207.4071758819
  0
LINE
  5
6C
330
1F
100
AcDbEntity
  8
0
  6
Continuous
 62
     7
370
    15
100
AcDbLine
 10
232.495890255
 20
102.817934543
 30
0.0
 11
239.5027030957
 21
89.3921522201
 31
0.0
  0
ARC
  5
6D
330
1F
100
AcDbEntity
  8
0
  6
Continuous
 62
     7
370
    15
100
AcDbCircle
 10
239.8364121153
 20
89.5662862083
 30
0.0
 40
0.3764098239501911
100
AcDbArc
 50
207.556176565
 51
242.7238745234
  0
SPLINE
  5
6E
330
1F
100
AcDbEntity
  8
0
  6
Continuous
 62
     7
370
    15
100
AcDbSpline
210
0.0
220
0.0
230
1.0
 70
     8
 71
     3
 72
    15
 73
    11
 74
     0
 42
0.00000001
 43
0.00000001
 12
1.0
 22
0.0
 32
0.0
 13
1.0
 23
0.0
 33
0.0
 40
0.0
 40
0.0
 40
0.0
 40
0.0
 40
0.1369004146087303
 40
0.2736150485583445
 40
0.4079017463856071
 40
0.5393407951296569
 40
0.6692129351158093
 40
0.7996789904459644
 40
0.9324941032343772
 40
1.0
 40
1.0
 40
1.0
 40
1.0
 10
233.0012407851804
 20
103.3572615832816
 30
0.0
 10
232.9586235011845
 20
103.3741964514363
 30
0.0
 10
232.873446766963
 20
103.408043206289
 30
0.0
 10
232.7340203369426
 20
103.4011826089499
 30
0.0
 10
232.6072470539311
 20
103.3514938447991
 30
0.0
 10
232.5061409182496
 20
103.2627389057322
 30
0.0
 10
232.4408651765772
 20
103.1468298025402
 30
0.0
 10
232.4174556355224
 20
103.0160158431799
 30
0.0
 10
232.4331183769253
 20
102.9046120355921
 30
0.0
 10
232.4609348516503
 20
102.8441255325749
 30
0.0
 10
232.4703086865533
 20
102.8237422705422
 30
0.0
  0
LINE
  5
6F
330
1F
100
AcDbEntity
  8
0
  6
Continuous
 62
     7
370
    15
100
AcDbLine
 10
235.1353217614
 20
100.7027948052
 30
0.0
 11
232.8168314648
 21
103.0098801256
 31
0.0
  0
LINE
  5
70
330
1F
100
AcDbEntity
  8
0
  6
Continuous
 62
     7
370
    15
100
AcDbLine
 10
235.1353217614
 20
100.7027948052
 30
0.0
 11
235.7138481689
 21
99.5942825229
 31
0.0
  0
LINE
  5
71
330
1F
100
AcDbEntity
  8
0
  6
Continuous
 62
     7
370
    15
100
AcDbLine
 10
239.9147649062
 20
89.6861670316
 30
0.0
 11
239.8236443055
 21
89.5840940774
 31
0.0
  0
LINE
  5
72
330
1F
100
AcDbEntity
  8
0
  6
Continuous
 62
     7
370
    15
100
AcDbLine
 10
246.1751785827
 20
95.9771169127
 30
0.0
 11
246.2767933262
 21
96.0687218011
 31
0.0
  0
LINE
  5
73
330
1F
100
AcDbEntity
  8
0
  6
Continuous
 62
     7
370
    15
100
AcDbLine
 10
236.2466578138
 20
100.1296924204
 30
0.0
 11
235.1353217614
 21
100.7027948052
 31
0.0
  0
SPLINE
  5
74
330
1F
100
AcDbEntity
  8
0
  6
Continuous
 62
     7
370
    15
100
AcDbSpline
210
0.0
220
0.0
230
1.0
 70
     8
 71
     3
 72
    14
 73
    10
 74
     0
 42
0.00000001
 43
0.00000001
 12
1.0
 22
0.0
 32
0.0
 13
1.0
 23
0.0
 33
0.0
 40
0.0
 40
0.0
 40
0.0
 40
0.0
 40
0.2055218195693909
 40
0.3570158148156961
 40
0.4668489398304858
 40
0.5770807464297837
 40
0.7093667468734477
 40
0.9240578149608211
 40
1.0
 40
1.0
 40
1.0
 40
1.0
 10
236.3283310783494
 20
99.569580122901
 30
0.0
 10
236.3618785729154
 20
99.60487796291424
 30
0.0
 10
236.4201545561303
 20
99.66619450409691
 30
0.0
 10
236.4710603674216
 20
99.76615192100103
 30
0.0
 10
236.4835994018734
 20
99.854425711213
 30
0.0
 10
236.4641958733833
 20
99.9370051955403
 30
0.0
 10
236.4027821153065
 20
100.0273860712778
 30
0.0
 10
236.3223708363982
 20
100.0887283863519
 30
0.0
 10
236.2623430228641
 20
100.1212060410104
 30
0.0
 10
236.2466578138459
 20
100.1296924204359
 30
0.0
  0
SPLINE
  5
75
330
1F
100
AcDbEntity
  8
0
  6
Continuous
 62
     7
370
    15
100
AcDbSpline
210
0.0
220
0.0
230
1.0
 70
     8
 71
     3
 72
    14
 73
    10
 74
     0
 42
0.00000001
 43
0.00000001
 12
1.0
 22
0.0
 32
0.0
 13
1.0
 23
0.0
 33
0.0
 40
0.0
 40
0.0
 40
0.0
 40
0.0
 40
0.2086043362851039
 40
0.3652007969743121
 40
0.4768527759453325
 40
0.5890225003175202
 40
0.7185686426341928
 40
0.9352594784310805
 40
1.0
 40
1.0
 40
1.0
 40
1.0
 10
235.7138481689084
 20
99.5942825228701
 30
0.0
 10
235.73862062476
 20
99.55174383679868
 30
0.0
 10
235.7819894289812
 20
99.47727193303976
 30
0.0
 10
235.8663853172025
 20
99.40042167970091
 30
0.0
 10
235.9497484392988
 20
99.36397060560958
 30
0.0
 10
236.0349470224634
 20
99.3607913406019
 30
0.0
 10
236.1388210586032
 20
99.39699803609501
 30
0.0
 10
236.2168162778959
 20
99.45742210478954
 30
0.0
 10
236.263594480764
 20
99.5045097159977
 30
0.0
 10
236.274355347215
 20
99.51534175880055
 30
0.0
  0
ARC
  5
76
330
1F
100
AcDbEntity
  8
0
  6
Continuous
 62
     7
370
    15
100
AcDbCircle
 10
238.0437750607
 20
97.8083884798
 30
0.0
 40
1.001287342716522
100
AcDbArc
 50
62.8714563814
 51
207.4073831405
  0
ARC
  5
77
330
1F
100
AcDbEntity
  8
0
  6
Continuous
 62
     7
370
    15
100
AcDbCircle
 10
238.012546451
 20
97.8395436897
 30
0.0
 40
2.414458009902658
100
AcDbArc
 50
134.2311065697
 51
136.0470037992
  0
LINE
  5
78
330
1F
100
AcDbEntity
  8
0
  6
Continuous
 62
     7
370
    15
100
AcDbLine
 10
245.1107737375
 20
95.2905943394
 30
0.0
 11
238.500350411
 21
98.6995199472
 31
0.0
  0
ARC
  5
79
330
1F
100
AcDbEntity
  8
0
  6
Continuous
 62
     7
370
    15
100
AcDbCircle
 10
244.6568279232
 20
94.4101953572
 30
0.0
 40
0.9905398377348904
100
AcDbArc
 50
27.5561766898
 51
62.7237461477
  0
LINE
  5
7A
330
1F
100
AcDbEntity
  8
0
  6
Continuous
 62
     7
370
    15
100
AcDbLine
 10
248.9761684788
 20
88.2747998238
 30
0.0
 11
245.5349986208
 21
94.8684369922
 31
0.0
  0
ARC
  5
7B
330
1F
100
AcDbEntity
  8
0
  6
Continuous
 62
     7
370
    15
100
AcDbCircle
 10
248.0872707721
 20
87.8138943021
 30
0.0
 40
1.001285690014887
100
AcDbArc
 50
242.8713297461
 51
27.4073519095
  0
LINE
  5
7C
330
1F
100
AcDbEntity
  8
0
  6
Continuous
 62
     7
370
    15
100
AcDbLine
 10
241.0202708793
 20
90.3316890598
 30
0.0
 11
247.6306942058
 21
86.9227653147
 31
0.0
  0
ARC
  5
7D
330
1F
100
AcDbEntity
  8
0
  6
Continuous
 62
     7
370
    15
100
AcDbCircle
 10
241.4742166936
 20
91.212088042
 30
0.0
 40
0.9905398377348904
100
AcDbArc
 50
207.5561766898
 51
242.7237461477
  0
LINE
  5
7E
330
1F
100
AcDbEntity
  8
0
  6
Continuous
 62
     7
370
    15
100
AcDbLine
 10
237.154876138
 20
97.3474817128
 30
0.0
 11
240.596045996
 21
90.753846407
 31
0.0
  0
CIRCLE
  5
7F
330
1F
100
AcDbEntity
  8
0
  6
Continuous
 62
     7
370
    15
100
AcDbCircle
 10
243.0557043112
 20
92.8065433146
 30
0.0
 40
3.040052022783239
  0
ARC
  5
80
330
1F
100
AcDbEntity
  8
0
  6
Continuous
 62
     7
370
    15
100
AcDbCircle
 10
242.9856171334
 20
92.8889717171
 30
0.0
 40
3.051359595322936
100
AcDbArc
 50
242.8025278697
 51
44.8229385925
  0
LWPOLYLINE
  5
81
330
1F
100
AcDbEntity
  8
0
  6
Continuous
 62
     7
370
    15
100
AcDbPolyline
 90
        3
 70
   128
 43
0.0
 10
240.8418257487
 20
90.7213208974
 10
241.0256501985
 20
90.5525056422
 10
241.5909667266
 20
90.1749809981
  0
LINE
  5
82
330
1F
100
AcDbEntity
  8
0
  6
Continuous
 62
     7
370
    15
100
AcDbLine
 10
250.8841094328
 20
85.0308282078
 30
0.0
 11
253.2836061669
 21
82.6429394782
 31
0.0
  0
LINE
  5
83
330
1F
100
AcDbEntity
  8
0
  6
Continuous
 62
     7
370
    15
100
AcDbLine
 10
249.7727771056
 20
85.6039305926
 30
0.0
 11
250.8841094328
 21
85.0308282078
 31
0.0
  0
LINE
  5
84
330
1F
100
AcDbEntity
  8
0
  6
Continuous
 62
     7
370
    15
100
AcDbLine
 10
250.8841094328
 20
85.0308282078
 30
0.0
 11
250.3055867506
 21
86.1393404902
 31
0.0
  0
SPLINE
  5
85
330
1F
100
AcDbEntity
  8
0
  6
Continuous
 62
     7
370
    15
100
AcDbSpline
210
0.0
220
0.0
230
1.0
 70
     8
 71
     3
 72
    11
 73
     7
 74
     0
 42
0.00000001
 43
0.00000001
 12
1.0
 22
0.0
 32
0.0
 13
1.0
 23
0.0
 33
0.0
 40
0.0
 40
0.0
 40
0.0
 40
0.0
 40
0.3241864766504668
 40
0.6482225628506066
 40
0.9887984275481783
 40
1.0
 40
1.0
 40
1.0
 40
1.0
 10
239.9147649062264
 20
89.68616703159908
 30
0.0
 10
239.9640229107979
 20
89.74002229474961
 30
0.0
 10
240.0625160691001
 20
89.84770783753697
 30
0.0
 10
240.2364135707249
 20
90.02174109259728
 30
0.0
 10
240.3512820532885
 20
90.12952399897345
 30
0.0
 10
240.4064129104869
 20
90.178979239913
 30
0.0
 10
240.4081684303868
 20
90.18055403239826
 30
0.0
  0
SPLINE
  5
86
330
1F
100
AcDbEntity
  8
0
  6
Continuous
 62
     7
370
    15
100
AcDbSpline
210
0.0
220
0.0
230
1.0
 70
     8
 71
     3
 72
    11
 73
     7
 74
     0
 42
0.00000001
 43
0.00000001
 12
1.0
 22
0.0
 32
0.0
 13
1.0
 23
0.0
 33
0.0
 40
0.0
 40
0.0
 40
0.0
 40
0.0
 40
0.3241900632557188
 40
0.6482228489521538
 40
0.9887974031148132
 40
0.9999999999999999
 40
0.9999999999999999
 40
0.9999999999999999
 40
0.9999999999999999
 10
246.1751785827267
 20
95.9771169126759
 30
0.0
 10
246.1215682017006
 20
95.92760241936855
 30
0.0
 10
246.0143734481872
 20
95.82859745421393
 30
0.0
 10
245.8411755226232
 20
95.6538643870058
 30
0.0
 10
245.7339791788577
 20
95.53843629800897
 30
0.0
 10
245.6847617583936
 20
95.48307725033138
 30
0.0
 10
245.6831943941701
 20
95.4813143015633
 30
0.0
  0
ARC
  5
87
330
1F
100
AcDbEntity
  8
0
  6
Continuous
 62
     7
370
    15
100
AcDbCircle
 10
248.0270190319
 20
87.8740993928
 30
0.0
 40
2.386097042475789
100
AcDbArc
 50
314.2193458689
 51
316.0567968468
  0
SPLINE
  5
88
330
1F
100
AcDbEntity
  8
0
  6
Continuous
 62
     7
370
    15
100
AcDbSpline
210
0.0
220
0.0
230
1.0
 70
     8
 71
     3
 72
    14
 73
    10
 74
     0
 42
0.00000001
 43
0.00000001
 12
1.0
 22
0.0
 32
0.0
 13
1.0
 23
0.0
 33
0.0
 40
0.0
 40
0.0
 40
0.0
 40
0.0
 40
0.2055183808134745
 40
0.3570169969601222
 40
0.4668474995158745
 40
0.5770804495758791
 40
0.7093664209079483
 40
0.9240591085787373
 40
1.0
 40
1.0
 40
1.0
 40
1.0
 10
249.6911001158345
 20
86.16404289014439
 30
0.0
 10
249.6575545174553
 20
86.12874458601172
 30
0.0
 10
249.5992806601624
 20
86.06742600959366
 30
0.0
 10
249.5483712213775
 20
85.96747127221407
 30
0.0
 10
249.5358306771266
 20
85.87919611143177
 30
0.0
 10
249.5552404172128
 20
85.79661833155482
 30
0.0
 10
249.6166526193801
 20
85.70623698603933
 30
0.0
 10
249.6970627943902
 20
85.64489180769293
 30
0.0
 10
249.7570918554233
 20
85.61241626588281
 30
0.0
 10
249.7727771056283
 20
85.60393059260944
 30
0.0
  0
SPLINE
  5
89
330
1F
100
AcDbEntity
  8
0
  6
Continuous
 62
     7
370
    15
100
AcDbSpline
210
0.0
220
0.0
230
1.0
 70
     8
 71
     3
 72
    14
 73
    10
 74
     0
 42
0.00000001
 43
0.00000001
 12
1.0
 22
0.0
 32
0.0
 13
1.0
 23
0.0
 33
0.0
 40
0.0
 40
0.0
 40
0.0
 40
0.0
 40
0.2086068750620376
 40
0.3652030729129
 40
0.4768490102719634
 40
0.5890186537529403
 40
0.7185653787549513
 40
0.9352558432893665
 40
1.0
 40
1.0
 40
1.0
 40
1.0
 10
250.3055867505658
 20
86.13934049017527
 30
0.0
 10
250.2808128133626
 20
86.18187895048686
 30
0.0
 10
250.2374416733074
 20
86.25635001678395
 30
0.0
 10
250.1530471337331
 20
86.33320104334155
 30
0.0
 10
250.0696850368438
 20
86.36964989736947
 30
0.0
 10
249.9844876808632
 20
86.37283285514721
 30
0.0
 10
249.8806139453583
 20
86.3366221204859
 30
0.0
 10
249.8026198139648
 20
86.27619668013911
 30
0.0
 10
249.7558380191591
 20
86.22911138432784
 30
0.0
 10
249.7450758469689
 20
86.2182793915997
 30
0.0
  0
CIRCLE
  5
8A
330
1F
100
AcDbEntity
  8
0
  6
Continuous
 62
     7
370
    15
100
AcDbCircle
 10
242.8996658492
 20
92.989473832
 30
0.0
 40
2.615612878956725
  0
CIRCLE
  5
8B
330
1F
100
AcDbEntity
  8
0
  6
Continuous
 62
     7
370
    15
100
AcDbCircle
 10
242.9167206646
 20
92.967813321
 30
0.0
 40
1.793902771495179
  0
ARC
  5
8C
330
1F
100
AcDbEntity
  8
0
  6
Continuous
 62
     7
370
    15
100
AcDbCircle
 10
242.9215777796
 20
92.9563673032
 30
0.0
 40
1.676745122312359
100
AcDbArc
 50
76.8617613317
 51
135.3209744162
  0
ARC
  5
8D
330
1F
100
AcDbEntity
  8
0
  6
Continuous
 62
     7
370
    15
100
AcDbCircle
 10
242.9191864837
 20
92.9545229528
 30
0.0
 40
1.676344272676528
100
AcDbArc
 50
135.2186820475
 51
195.1906376802
  0
ARC
  5
8E
330
1F
100
AcDbEntity
  8
0
  6
Continuous
 62
     7
370
    15
100
AcDbCircle
 10
242.902945954
 20
92.9516995355
 30
0.0
 40
1.65993207964036
100
AcDbArc
 50
195.2434750106
 51
254.1115345057
  0
LINE
  5
8F
330
1F
100
AcDbEntity
  8
0
  6
Continuous
 62
     7
370
    15
100
AcDbLine
 10
242.5304961157
 20
91.3340640963
 30
0.0
 11
242.4485136521
 21
91.355182767
 31
0.0
  0
ARC
  5
90
330
1F
100
AcDbEntity
  8
0
  6
Continuous
 62
     7
370
    15
100
AcDbCircle
 10
242.9055757836
 20
92.9680979729
 30
0.0
 40
1.676529590329792
100
AcDbArc
 50
257.072152232
 51
313.3853645459
  0
LINE
  5
91
330
1F
100
AcDbEntity
  8
0
  6
Continuous
 62
     7
370
    15
100
AcDbLine
 10
244.1413414431
 20
91.8349554539
 30
0.0
 11
244.0571871353
 21
91.7496798337
 31
0.0
  0
ARC
  5
92
330
1F
100
AcDbEntity
  8
0
  6
Continuous
 62
     7
370
    15
100
AcDbCircle
 10
242.9079190948
 20
92.970320361
 30
0.0
 40
1.676420043314825
100
AcDbArc
 50
317.370441524
 51
13.0387400612
  0
LINE
  5
93
330
1F
100
AcDbEntity
  8
0
  6
Continuous
 62
     7
370
    15
100
AcDbLine
 10
244.50991794
 20
93.4637566806
 30
0.0
 11
244.5411172462
 21
93.3485371769
 31
0.0
  0
ARC
  5
94
330
1F
100
AcDbEntity
  8
0
  6
Continuous
 62
     7
370
    15
100
AcDbCircle
 10
242.924263915
 20
92.9730703594
 30
0.0
 40
1.659840881699981
100
AcDbArc
 50
17.1948693074
 51
73.8984736064
  0
LINE
  5
95
330
1F
100
AcDbEntity
  8
0
  6
Continuous
 62
     7
370
    15
100
AcDbLine
 10
243.3027040911
 20
94.5892227591
 30
0.0
 11
243.3846045983
 21
94.5677986146
 31
0.0
  0
SPLINE
  5
96
330
1F
100
AcDbEntity
  8
0
  6
Continuous
 62
     7
370
    15
100
AcDbSpline
210
0.0
220
0.0
230
1.0
 70
     8
 71
     3
 72
    12
 73
     8
 74
     0
 42
0.00000001
 43
0.00000001
 12
1.0
 22
0.0
 32
0.0
 13
1.0
 23
0.0
 33
0.0
 40
0.0
 40
0.0
 40
0.0
 40
0.0
 40
0.2058582286758567
 40
0.4121037405715849
 40
0.6141922707415116
 40
0.8133179390191503
 40
1.0
 40
1.0
 40
1.0
 40
1.0
 10
242.9606926394094
 20
94.41622772820094
 30
0.0
 10
242.9238181093057
 20
94.36224098753864
 30
0.0
 10
242.8499996766625
 20
94.25416594039909
 30
0.0
 10
242.6790228657107
 20
94.14713559891734
 30
0.0
 10
242.4890179331128
 20
94.09896067217251
 30
0.0
 10
242.2989568763819
 20
94.11059725281606
 30
0.0
 10
242.1907619489372
 20
94.16345885561475
 30
0.0
 10
242.1384093118299
 20
94.18903717405894
 30
0.0
  0
SPLINE
  5
97
330
1F
100
AcDbEntity
  8
0
  6
Continuous
 62
     7
370
    15
100
AcDbSpline
210
0.0
220
0.0
230
1.0
 70
     8
 71
     3
 72
    11
 73
     7
 74
     0
 42
0.00000001
 43
0.00000001
 12
1.0
 22
0.0
 32
0.0
 13
1.0
 23
0.0
 33
0.0
 40
0.0
 40
0.0
 40
0.0
 40
0.0
 40
0.2524802689920565
 40
0.5068896495765495
 40
0.7591791854136287
 40
1.0
 40
1.0
 40
1.0
 40
1.0
 10
242.1384093118298
 20
94.18903717405895
 30
0.0
 10
242.1049954657974
 20
94.20497559722375
 30
0.0
 10
242.0379124704646
 20
94.23697422335425
 30
0.0
 10
241.9233940919733
 20
94.23854311710492
 30
0.0
 10
241.8141998612147
 20
94.20652982677574
 30
0.0
 10
241.7571688513126
 20
94.158702195168
 30
0.0
 10
241.7293165577042
 20
94.13534456498722
 30
0.0
  0
SPLINE
  5
98
330
1F
100
AcDbEntity
  8
0
  6
Continuous
 62
     7
370
    15
100
AcDbSpline
210
0.0
220
0.0
230
1.0
 70
     8
 71
     3
 72
    11
 73
     7
 74
     0
 42
0.00000001
 43
0.00000001
 12
1.0
 22
0.0
 32
0.0
 13
1.0
 23
0.0
 33
0.0
 40
0.0
 40
0.0
 40
0.0
 40
0.0
 40
0.2423577274246427
 40
0.5166781779958534
 40
0.7923335671180974
 40
1.0
 40
1.0
 40
1.0
 40
1.0
 10
243.3027040911306
 20
94.58922275908091
 30
0.0
 10
243.2695943568347
 20
94.59068807639899
 30
0.0
 10
243.1990082964201
 20
94.59381196062638
 30
0.0
 10
243.095371655779
 20
94.55651379029229
 30
0.0
 10
243.0113412869183
 20
94.49416418499273
 30
0.0
 10
242.9759143510435
 20
94.43965039256457
 30
0.0
 10
242.9606926394093
 20
94.41622772820095
 30
0.0
  0
SPLINE
  5
99
330
1F
100
AcDbEntity
  8
0
  6
Continuous
 62
     7
370
    15
100
AcDbSpline
210
0.0
220
0.0
230
1.0
 70
     8
 71
     3
 72
    12
 73
     8
 74
     0
 42
0.00000001
 43
0.00000001
 12
1.0
 22
0.0
 32
0.0
 13
1.0
 23
0.0
 33
0.0
 40
0.0
 40
0.0
 40
0.0
 40
0.0
 40
0.2058431167982484
 40
0.4120690425938237
 40
0.6141383795399297
 40
0.8132587697800253
 40
1.0
 40
1.0
 40
1.0
 40
1.0
 10
241.6798633289922
 20
93.72527205951313
 30
0.0
 10
241.7082732343411
 20
93.66750782770109
 30
0.0
 10
241.7651458792924
 20
93.5518719392187
 30
0.0
 10
241.7720408953541
 20
93.35225058446406
 30
0.0
 10
241.7179416441895
 20
93.16371818762009
 30
0.0
 10
241.6116265765889
 20
93.0032841019141
 30
0.0
 10
241.5108104209383
 20
92.93402584841195
 30
0.0
 10
241.462019528209
 20
92.90050768859486
 30
0.0
  0
SPLINE
  5
9A
330
1F
100
AcDbEntity
  8
0
  6
Continuous
 62
     7
370
    15
100
AcDbSpline
210
0.0
220
0.0
230
1.0
 70
     8
 71
     3
 72
    11
 73
     7
 74
     0
 42
0.00000001
 43
0.00000001
 12
1.0
 22
0.0
 32
0.0
 13
1.0
 23
0.0
 33
0.0
 40
0.0
 40
0.0
 40
0.0
 40
0.0
 40
0.2535112331796727
 40
0.507570851485607
 40
0.7595042753876936
 40
1.0
 40
1.0
 40
1.0
 40
1.0
 10
241.462019528209
 20
92.90050768859486
 30
0.0
 10
241.4310629165976
 20
92.87879209224629
 30
0.0
 10
241.3690827292991
 20
92.83531392525971
 30
0.0
 10
241.3097354045289
 20
92.73543430014105
 30
0.0
 10
241.2824059388657
 20
92.62417772474963
 30
0.0
 10
241.2951774028715
 20
92.55100468802476
 30
0.0
 10
241.3014148128617
 20
92.51526796825031
 30
0.0
  0
SPLINE
  5
9B
330
1F
100
AcDbEntity
  8
0
  6
Continuous
 62
     7
370
    15
100
AcDbSpline
210
0.0
220
0.0
230
1.0
 70
     8
 71
     3
 72
    12
 73
     8
 74
     0
 42
0.00000001
 43
0.00000001
 12
1.0
 22
0.0
 32
0.0
 13
1.0
 23
0.0
 33
0.0
 40
0.0
 40
0.0
 40
0.0
 40
0.0
 40
0.0091659243511123
 40
0.2573210437701491
 40
0.5054921186197153
 40
0.754990036902786
 40
1.0
 40
1.0
 40
1.0
 40
1.0
 10
241.7293165577042
 20
94.13534456498722
 30
0.0
 10
241.7283547276379
 20
94.13436567159097
 30
0.0
 10
241.7013526373834
 20
94.1068845512138
 30
0.0
 10
241.6573515466532
 20
94.04314693374461
 30
0.0
 10
241.6271756084867
 20
93.93480934330371
 30
0.0
 10
241.631820325382
 20
93.82245795277674
 30
0.0
 10
241.6639461815839
 20
93.75747075802987
 30
0.0
 10
241.6798633289922
 20
93.72527205951313
 30
0.0
  0
LWPOLYLINE
  5
9C
330
1F
100
AcDbEntity
  8
0
  6
Continuous
 62
     7
370
    15
100
AcDbPolyline
 90
        3
 70
   128
 43
0.0
 10
243.4379395795
 20
94.5430775882
 10
243.4791561914
 20
94.4579137266
 10
243.4947055531
 20
94.3476786614
  0
SPLINE
  5
9D
330
1F
100
AcDbEntity
  8
0
  6
Continuous
 62
     7
370
    15
100
AcDbSpline
210
0.0
220
0.0
230
1.0
 70
     8
 71
     3
 72
    11
 73
     7
 74
     0
 42
0.00000001
 43
0.00000001
 12
1.0
 22
0.0
 32
0.0
 13
1.0
 23
0.0
 33
0.0
 40
0.0
 40
0.0
 40
0.0
 40
0.0
 40
0.280241435935412
 40
0.5612883794859334
 40
0.8399868914607731
 40
1.0
 40
1.0
 40
1.0
 40
1.0
 10
243.5896781039822
 20
94.25294080383877
 30
0.0
 10
243.5874279012617
 20
94.29022922268894
 30
0.0
 10
243.5829210279856
 20
94.36491323977639
 30
0.0
 10
243.528453364726
 20
94.4654177242082
 30
0.0
 10
243.4576268629404
 20
94.53337621895649
 30
0.0
 10
243.4041202772243
 20
94.55859900370336
 30
0.0
 10
243.3846045983422
 20
94.56779861457447
 30
0.0
  0
SPLINE
  5
9E
330
1F
100
AcDbEntity
  8
0
  6
Continuous
 62
     7
370
    15
100
AcDbSpline
210
0.0
220
0.0
230
1.0
 70
     8
 71
     3
 72
    11
 73
     7
 74
     0
 42
0.00000001
 43
0.00000001
 12
1.0
 22
0.0
 32
0.0
 13
1.0
 23
0.0
 33
0.0
 40
0.0
 40
0.0
 40
0.0
 40
0.0
 40
0.2657591009746134
 40
0.5530109291485266
 40
0.8418274755145914
 40
1.0
 40
1.0
 40
1.0
 40
1.0
 10
244.5099179399598
 20
93.4637566805611
 30
0.0
 10
244.4921638340403
 20
93.49362313943313
 30
0.0
 10
244.455219794966
 20
93.55577144634205
 30
0.0
 10
244.3645918245838
 20
93.62170576671633
 30
0.0
 10
244.2726269407151
 20
93.65333370706395
 30
0.0
 10
244.2146405473153
 20
93.65483279223439
 30
0.0
 10
244.1941213560689
 20
93.6553632617722
 30
0.0
  0
SPLINE
  5
9F
330
1F
100
AcDbEntity
  8
0
  6
Continuous
 62
     7
370
    15
100
AcDbSpline
210
0.0
220
0.0
230
1.0
 70
     8
 71
     3
 72
    12
 73
     8
 74
     0
 42
0.00000001
 43
0.00000001
 12
1.0
 22
0.0
 32
0.0
 13
1.0
 23
0.0
 33
0.0
 40
0.0
 40
0.0
 40
0.0
 40
0.0
 40
0.2057906394207368
 40
0.4120332466496858
 40
0.6141307942096135
 40
0.8132638760149962
 40
1.0
 40
1.0
 40
1.0
 40
1.0
 10
244.1941213560689
 20
93.6553632617722
 30
0.0
 10
244.128175515955
 20
93.65982251734961
 30
0.0
 10
243.9961390021385
 20
93.66875082214702
 30
0.0
 10
243.817182880036
 20
93.76241118695928
 30
0.0
 10
243.6813541506132
 20
93.90269504178049
 30
0.0
 10
243.5987487870458
 20
94.07360347664759
 30
0.0
 10
243.5926362046305
 20
94.19445591795996
 30
0.0
 10
243.5896781039822
 20
94.25294080383877
 30
0.0
  0
LWPOLYLINE
  5
A0
330
1F
100
AcDbEntity
  8
0
  6
Continuous
 62
     7
370
    15
100
AcDbPolyline
 90
        3
 70
   128
 43
0.0
 10
241.5375162614
 20
92.3681674302
 10
241.4271061075
 20
92.3824613691
 10
241.3373489631
 20
92.4254698456
  0
SPLINE
  5
A1
330
1F
100
AcDbEntity
  8
0
  6
Continuous
 62
     7
370
    15
100
AcDbSpline
210
0.0
220
0.0
230
1.0
 70
     8
 71
     3
 72
    12
 73
     8
 74
     0
 42
0.00000001
 43
0.00000001
 12
1.0
 22
0.0
 32
0.0
 13
1.0
 23
0.0
 33
0.0
 40
0.0
 40
0.0
 40
0.0
 40
0.0
 40
0.0091741179007032
 40
0.2576770623172354
 40
0.5061954718589036
 40
0.7560376311725857
 40
1.0
 40
1.0
 40
1.0
 40
1.0
 10
241.3014148128617
 20
92.51526796825031
 30
0.0
 10
241.3017795619076
 20
92.51395100833987
 30
0.0
 10
241.3120244119995
 20
92.47696103670573
 30
0.0
 10
241.3452281065723
 20
92.4075069661666
 30
0.0
 10
241.4241854032904
 20
92.32857322449686
 30
0.0
 10
241.5240526856921
 20
92.27836754506815
 30
0.0
 10
241.5966090642035
 20
92.2750823927717
 30
0.0
 10
241.6324552846539
 20
92.27345937497715
 30
0.0
  0
SPLINE
  5
A2
330
1F
100
AcDbEntity
  8
0
  6
Continuous
 62
     7
370
    15
100
AcDbSpline
210
0.0
220
0.0
230
1.0
 70
     8
 71
     3
 72
    12
 73
     8
 74
     0
 42
0.00000001
 43
0.00000001
 12
1.0
 22
0.0
 32
0.0
 13
1.0
 23
0.0
 33
0.0
 40
0.0
 40
0.0
 40
0.0
 40
0.0
 40
0.2057547755386633
 40
0.4119606748863476
 40
0.6140158174694933
 40
0.8131400628259445
 40
1.0
 40
1.0
 40
1.0
 40
1.0
 10
241.6324552846539
 20
92.27345937497715
 30
0.0
 10
241.6970309757723
 20
92.270361872334
 30
0.0
 10
241.8263239422405
 20
92.26416007567585
 30
0.0
 10
242.0030673528562
 20
92.17270339242297
 30
0.0
 10
242.1390547352403
 20
92.03229801344906
 30
0.0
 10
242.2240120104087
 20
91.85908430696921
 30
0.0
 10
242.2326975027859
 20
91.73564189959396
 30
0.0
 10
242.2369022620309
 20
91.67588183291058
 30
0.0
  0
SPLINE
  5
A3
330
1F
100
AcDbEntity
  8
0
  6
Continuous
 62
     7
370
    15
100
AcDbSpline
210
0.0
220
0.0
230
1.0
 70
     8
 71
     3
 72
    11
 73
     7
 74
     0
 42
0.00000001
 43
0.00000001
 12
1.0
 22
0.0
 32
0.0
 13
1.0
 23
0.0
 33
0.0
 40
0.0
 40
0.0
 40
0.0
 40
0.0
 40
0.2794038282812175
 40
0.5596263046929999
 40
0.8375032486317655
 40
1.0
 40
1.0
 40
1.0
 40
1.0
 10
242.2369022620309
 20
91.67588183291058
 30
0.0
 10
242.2399465311915
 20
91.63779671760062
 30
0.0
 10
242.2460439891661
 20
91.56151489828618
 30
0.0
 10
242.3022582439395
 20
91.45928109901753
 30
0.0
 10
242.3743575769423
 20
91.39005711961882
 30
0.0
 10
242.4285257403453
 20
91.36458274510824
 30
0.0
 10
242.4485136521447
 20
91.35518276698689
 30
0.0
  0
ARC
  5
A4
330
1F
100
AcDbEntity
  8
0
  6
Continuous
 62
     7
370
    15
100
AcDbCircle
 10
244.0765455513
 20
94.3313595047
 30
0.0
 40
0.58206880893384
100
AcDbArc
 50
178.3934178797
 51
225.0432696584
  0
ARC
  5
A5
330
1F
100
AcDbEntity
  8
0
  6
Continuous
 62
     7
370
    15
100
AcDbCircle
 10
241.5604045623
 20
91.7863459917
 30
0.0
 40
0.5822714664440196
100
AcDbArc
 50
45.1048571899
 51
92.2527997264
  0
ARC
  5
A6
330
1F
100
AcDbEntity
  8
0
  6
Continuous
 62
     7
370
    15
100
AcDbCircle
 10
244.1112882556
 20
93.4169824593
 30
0.0
 40
0.3338112594195484
100
AcDbArc
 50
298.3035035666
 51
34.5698742768
  0
SPLINE
  5
A7
330
1F
100
AcDbEntity
  8
0
  6
Continuous
 62
     7
370
    15
100
AcDbSpline
210
0.0
220
0.0
230
1.0
 70
     8
 71
     3
 72
    11
 73
     7
 74
     0
 42
0.00000001
 43
0.00000001
 12
1.0
 22
0.0
 32
0.0
 13
1.0
 23
0.0
 33
0.0
 40
0.0
 40
0.0
 40
0.0
 40
0.0
 40
0.2928998574026269
 40
0.5864327463645294
 40
0.877515212751703
 40
1.0
 40
1.0
 40
1.0
 40
1.0
 10
244.3645571125138
 20
93.02831494815449
 30
0.0
 10
244.3962966638412
 20
93.04922875473015
 30
0.0
 10
244.45984436379
 20
93.09110156797037
 30
0.0
 10
244.521124174562
 20
93.18933235048897
 30
0.0
 10
244.5438352691339
 20
93.27938168864883
 30
0.0
 10
244.5417382987085
 20
93.33273554830576
 30
0.0
 10
244.5411172462094
 20
93.34853717691998
 30
0.0
  0
ARC
  5
A8
330
1F
100
AcDbEntity
  8
0
  6
Continuous
 62
     7
370
    15
100
AcDbCircle
 10
242.8508506431
 20
93.0249451984
 30
0.0
 40
2.625035362470328
100
AcDbArc
 50
45.4881455399
 51
224.8534399823
  0
ARC
  5
A9
330
1F
100
AcDbEntity
  8
0
  6
Continuous
 62
     7
370
    15
100
AcDbCircle
 10
242.4747751199
 20
91.7639712805
 30
0.0
 40
0.3350092288082906
100
AcDbArc
 50
237.2018336789
 51
332.1243842569
  0
SPLINE
  5
AA
330
1F
100
AcDbEntity
  8
0
  6
Continuous
 62
     7
370
    15
100
AcDbSpline
210
0.0
220
0.0
230
1.0
 70
     8
 71
     3
 72
    11
 73
     7
 74
     0
 42
0.00000001
 43
0.00000001
 12
1.0
 22
0.0
 32
0.0
 13
1.0
 23
0.0
 33
0.0
 40
0.0
 40
0.0
 40
0.0
 40
0.0
 40
0.2431090361020047
 40
0.5182794339293237
 40
0.7947844004297756
 40
0.9999999999999999
 40
0.9999999999999999
 40
0.9999999999999999
 40
0.9999999999999999
 10
242.530496115743
 20
91.33406409628489
 30
0.0
 10
242.5634732424934
 20
91.33286201397189
 30
0.0
 10
242.633776538738
 20
91.33029931802811
 30
0.0
 10
242.7360128245313
 20
91.36923709330618
 30
0.0
 10
242.8177434354771
 20
91.43335096312893
 30
0.0
 10
242.8515024683911
 20
91.48892153890363
 30
0.0
 10
242.8658840013135
 20
91.5125949085484
 30
0.0
  0
SPLINE
  5
AB
330
1F
100
AcDbEntity
  8
0
  6
Continuous
 62
     7
370
    15
100
AcDbSpline
210
0.0
220
0.0
230
1.0
 70
     8
 71
     3
 72
    11
 73
     7
 74
     0
 42
0.00000001
 43
0.00000001
 12
1.0
 22
0.0
 32
0.0
 13
1.0
 23
0.0
 33
0.0
 40
0.0
 40
0.0
 40
0.0
 40
0.0
 40
0.2668974861396173
 40
0.5546147255686149
 40
0.8439090792050662
 40
0.9999999999999999
 40
0.9999999999999999
 40
0.9999999999999999
 40
0.9999999999999999
 10
244.1413414431203
 20
91.8349554539452
 30
0.0
 10
244.1582613930396
 20
91.86547427262668
 30
0.0
 10
244.1934211598732
 20
91.92889257788137
 30
0.0
 10
244.2043370228598
 20
92.04049304092665
 30
0.0
 10
244.1847749093011
 20
92.1354111219375
 30
0.0
 10
244.1565907929325
 20
92.18586749949438
 30
0.0
 10
244.1467133117307
 20
92.2035505772362
 30
0.0
  0
SPLINE
  5
AC
330
1F
100
AcDbEntity
  8
0
  6
Continuous
 62
     7
370
    15
100
AcDbSpline
210
0.0
220
0.0
230
1.0
 70
     8
 71
     3
 72
    12
 73
     8
 74
     0
 42
0.00000001
 43
0.00000001
 12
1.0
 22
0.0
 32
0.0
 13
1.0
 23
0.0
 33
0.0
 40
0.0
 40
0.0
 40
0.0
 40
0.0
 40
0.2058406768642914
 40
0.4120618903062719
 40
0.6141392377341313
 40
0.8132771078899155
 40
1.0
 40
1.0
 40
1.0
 40
1.0
 10
244.1467133117307
 20
92.20355057723621
 30
0.0
 10
244.11694088728
 20
92.26267341999524
 30
0.0
 10
244.0573409982539
 20
92.381028405602
 30
0.0
 10
244.0482547418259
 20
92.58283459213587
 30
0.0
 10
244.1025158933589
 20
92.77121045352673
 30
0.0
 10
244.2111512460982
 20
92.92933567687157
 30
0.0
 10
244.314530558621
 20
92.99603722654709
 30
0.0
 10
244.3645571125138
 20
93.02831494815447
 30
0.0
  0
SPLINE
  5
AD
330
1F
100
AcDbEntity
  8
0
  6
Continuous
 62
     7
370
    15
100
AcDbSpline
210
0.0
220
0.0
230
1.0
 70
     8
 71
     3
 72
    12
 73
     8
 74
     0
 42
0.00000001
 43
0.00000001
 12
1.0
 22
0.0
 32
0.0
 13
1.0
 23
0.0
 33
0.0
 40
0.0
 40
0.0
 40
0.0
 40
0.0
 40
0.2058194499521311
 40
0.4120204873642054
 40
0.6140781799431309
 40
0.8132155652530867
 40
1.0
 40
1.0
 40
1.0
 40
1.0
 10
242.8658840013135
 20
91.5125949085484
 30
0.0
 10
242.9013908524623
 20
91.56793270017423
 30
0.0
 10
242.9724703841515
 20
91.67871087920754
 30
0.0
 10
243.1412218971708
 20
91.78792623287083
 30
0.0
 10
243.3313604634075
 20
91.8359559482341
 30
0.0
 10
243.5237554415886
 20
91.82204141205918
 30
0.0
 10
243.6345454569853
 20
91.76661270768474
 30
0.0
 10
243.688167328893
 20
91.73978546269038
 30
0.0
  0
SPLINE
  5
AE
330
1F
100
AcDbEntity
  8
0
  6
Continuous
 62
     7
370
    15
100
AcDbSpline
210
0.0
220
0.0
230
1.0
 70
     8
 71
     3
 72
    11
 73
     7
 74
     0
 42
0.00000001
 43
0.00000001
 12
1.0
 22
0.0
 32
0.0
 13
1.0
 23
0.0
 33
0.0
 40
0.0
 40
0.0
 40
0.0
 40
0.0
 40
0.2908693300644069
 40
0.583955211376597
 40
0.8746005498309033
 40
1.0
 40
1.0
 40
1.0
 40
1.0
 10
243.688167328893
 20
91.73978546269038
 30
0.0
 10
243.7223646726324
 20
91.72306460737659
 30
0.0
 10
243.7910199587963
 20
91.68949547653352
 30
0.0
 10
243.9074439627656
 20
91.68607041176996
 30
0.0
 10
243.9977690974711
 20
91.71191920788944
 30
0.0
 10
244.0434258118817
 20
91.7409344055177
 30
0.0
 10
244.057187135278
 20
91.7496798337231
 30
0.0
  0
ARC
  5
AF
330
1F
100
AcDbEntity
  8
0
  6
Continuous
 62
     7
370
    15
100
AcDbCircle
 10
244.5497754166
 20
92.6079158648
 30
0.0
 40
0.5864404286075937
100
AcDbArc
 50
118.5431461251
 51
211.8663419
  0
ARC
  5
B0
330
1F
100
AcDbEntity
  8
0
  6
Continuous
 62
     7
370
    15
100
AcDbCircle
 10
243.2892583672
 20
91.3329358206
 30
0.0
 40
0.5864974460645034
100
AcDbArc
 50
58.7881537061
 51
152.1043076754
  0
ARC
  5
B1
330
1F
100
AcDbEntity
  8
0
  6
Continuous
 62
     7
370
    15
100
AcDbCircle
 10
243.7668826416
 20
92.1213698815
 30
0.0
 40
0.3353231583285775
100
AcDbArc
 50
238.8014808874
 51
31.8483487606
  0
LINE
  5
B2
330
1F
100
AcDbEntity
  8
0
  6
Continuous
 62
     7
370
    15
100
AcDbLine
 10
188.6979353381
 20
96.228641063
 30
0.0
 11
188.6979353381
 21
158.2286400498
 31
0.0
  0
SPLINE
  5
B3
330
1F
100
AcDbEntity
  8
0
  6
Continuous
 62
     7
370
    15
100
AcDbSpline
210
0.0
220
0.0
230
1.0
 70
     8
 71
     3
 72
    68
 73
    64
 74
     0
 42
0.00000001
 43
0.00000001
 12
1.0
 22
0.0
 32
0.0
 13
1.0
 23
0.0
 33
0.0
 40
-0.0625
 40
-0.0625
 40
0.0
 40
0.0
 40
0.03125
 40
0.03125
 40
0.0625
 40
0.0625
 40
0.09375
 40
0.09375
 40
0.125
 40
0.125
 40
0.15625
 40
0.15625
 40
0.1875
 40
0.1875
 40
0.21875
 40
0.21875
 40
0.25
 40
0.25
 40
0.28125
 40
0.28125
 40
0.3125
 40
0.3125
 40
0.34375
 40
0.34375
 40
0.375
 40
0.375
 40
0.40625
 40
0.40625
 40
0.4375
 40
0.4375
 40
0.46875
 40
0.46875
 40
0.5
 40
0.5
 40
0.53125
 40
0.53125
 40
0.5625
 40
0.5625
 40
0.59375
 40
0.59375
 40
0.625
 40
0.625
 40
0.65625
 40
0.65625
 40
0.6875
 40
0.6875
 40
0.71875
 40
0.71875
 40
0.75
 40
0.75
 40
0.78125
 40
0.78125
 40
0.8125
 40
0.8125
 40
0.84375
 40
0.84375
 40
0.875
 40
0.875
 40
0.90625
 40
0.90625
 40
0.9375
 40
0.9375
 40
1.0
 40
1.0
 40
1.03125
 40
1.03125
 10
209.301305717709
 20
114.1483080474863
 30
0.0
 10
209.8962501482637
 20
114.1483080474863
 30
0.0
 10
210.0912283945133
 20
114.1305058842915
 30
0.0
 10
210.474791619659
 20
114.0608773511719
 30
0.0
 10
210.6653723951212
 20
114.008200161493
 30
0.0
 10
211.028621681908
 20
113.8711099299722
 30
0.0
 10
211.2008884209039
 20
113.7873638976508
 30
0.0
 10
211.5269101376118
 20
113.5901820579928
 30
0.0
 10
211.6811855043885
 20
113.4757689603774
 30
0.0
 10
211.9577484256396
 20
113.2268762553402
 30
0.0
 10
212.0818913159549
 20
113.0915054126086
 30
0.0
 10
212.3012060883259
 20
112.7988522859438
 30
0.0
 10
212.3943365437292
 20
112.643802714328
 30
0.0
 10
212.5439908742553
 20
112.3246383686532
 30
0.0
 10
212.6016378442472
 20
112.1581634867944
 30
0.0
 10
212.6787444060696
 20
111.8191545115402
 30
0.0
 10
212.697828187413
 20
111.6496029875379
 30
0.0
 10
212.6980415974904
 20
111.3105103554359
 30
0.0
 10
212.6785463069909
 20
111.1392238759415
 30
0.0
 10
212.6019764325139
 20
110.8095190827865
 30
0.0
 10
212.5453231913047
 20
110.6501406069802
 30
0.0
 10
212.3950472404954
 20
110.3420911510617
 30
0.0
 10
212.3011635780829
 20
110.1940672813084
 30
0.0
 10
212.0840983779865
 20
109.9212320088722
 30
0.0
 10
211.9601671217117
 20
109.7946604626435
 30
0.0
 10
211.6802102765595
 20
109.5614495317459
 30
0.0
 10
211.5287511256576
 20
109.4586222615674
 30
0.0
 10
211.20401811671
 20
109.2790557151641
 30
0.0
 10
211.0286536778935
 20
109.2016669501054
 30
0.0
 10
210.6653366589938
 20
109.0778561138175
 30
0.0
 10
210.4783452060032
 20
109.0313009578545
 30
0.0
 10
210.0937737076465
 20
108.9683234787504
 30
0.0
 10
209.8948658545271
 20
108.9522144762457
 30
0.0
 10
209.5032024548305
 20
108.9520971026068
 30
0.0
 10
209.3084947184437
 20
108.9675673235298
 30
0.0
 10
208.9213776547887
 20
109.0303862022725
 30
0.0
 10
208.7319066520618
 20
109.0775452424088
 30
0.0
 10
208.3707741540441
 20
109.2002999796578
 30
0.0
 10
208.1963549046839
 20
109.2767890426418
 30
0.0
 10
207.86815686688
 20
109.4578294190969
 30
0.0
 10
207.7170786294294
 20
109.5606015050893
 30
0.0
 10
207.4402425364018
 20
109.7905530884286
 30
0.0
 10
207.3134787198893
 20
109.9193130432034
 30
0.0
 10
207.0954741817324
 20
110.192879779302
 30
0.0
 10
207.0031930022023
 20
110.3380436683265
 30
0.0
 10
206.8523133150369
 20
110.6457329178009
 30
0.0
 10
206.7943668805669
 20
110.8081555874283
 30
0.0
 10
206.7177546981522
 20
111.1367071449806
 30
0.0
 10
206.6981266781368
 20
111.3045466554697
 30
0.0
 10
206.6977467548917
 20
111.6477534408944
 30
0.0
 10
206.7170590953963
 20
111.8178701947736
 30
0.0
 10
206.7929797120731
 20
112.1536259554783
 30
0.0
 10
206.8504854810392
 20
112.3212571268246
 30
0.0
 10
207.0008456276283
 20
112.6427363604756
 30
0.0
 10
207.0928649155196
 20
112.7959291126633
 30
0.0
 10
207.3102089305097
 20
113.0869826699232
 30
0.0
 10
207.4367283506413
 20
113.2254529149085
 30
0.0
 10
207.7131619701011
 20
113.4745652838896
 30
0.0
 10
207.8639915601774
 20
113.5868133989263
 30
0.0
 10
208.1915031524175
 20
113.7856138075496
 30
0.0
 10
208.3660516855057
 20
113.8704900009825
 30
0.0
 10
208.9072565538773
 20
114.0752414802271
 30
0.0
 10
209.301305717709
 20
114.1483080474863
 30
0.0
 10
209.8962501482637
 20
114.1483080474863
 30
0.0
  0
SPLINE
  5
B4
330
1F
100
AcDbEntity
  8
0
  6
Continuous
 62
     7
370
    15
100
AcDbSpline
210
0.0
220
0.0
230
1.0
 70
     8
 71
     3
 72
    12
 73
     8
 74
     0
 42
0.00000001
 43
0.00000001
 12
1.0
 22
0.0
 32
0.0
 13
1.0
 23
0.0
 33
0.0
 40
0.0
 40
0.0
 40
0.0
 40
0.0
 40
0.5
 40
0.5
 40
0.75
 40
0.75
 40
1.0
 40
1.0
 40
1.0
 40
1.0
 10
198.792679449753
 20
97.3278980962907
 30
0.0
 10
198.8238246477151
 20
97.2900825733705
 30
0.0
 10
198.8660989140496
 20
97.25401571528688
 30
0.0
 10
198.9660444478749
 20
97.20605565027563
 30
0.0
 10
199.0057747525789
 20
97.19119467637796
 30
0.0
 10
199.1026628025851
 20
97.16824353024684
 30
0.0
 10
199.1627280443317
 20
97.16014859753479
 30
0.0
 10
199.2256921516452
 20
97.16014859753479
 30
0.0
  0
LINE
  5
B5
330
1F
100
AcDbEntity
  8
0
  6
Continuous
 62
     7
370
    15
100
AcDbLine
 10
199.2256923345
 20
97.1601480395
 30
0.0
 11
202.1701785502
 21
97.1601480395
 31
0.0
  0
SPLINE
  5
B6
330
1F
100
AcDbEntity
  8
0
  6
Continuous
 62
     7
370
    15
100
AcDbSpline
210
0.0
220
0.0
230
1.0
 70
     8
 71
     3
 72
    12
 73
     8
 74
     0
 42
0.00000001
 43
0.00000001
 12
1.0
 22
0.0
 32
0.0
 13
1.0
 23
0.0
 33
0.0
 40
0.0
 40
0.0
 40
0.0
 40
0.0
 40
0.2500000000000009
 40
0.2500000000000009
 40
0.5000000000000018
 40
0.5000000000000018
 40
1.0
 40
1.0
 40
1.0
 40
1.0
 10
202.1701785245123
 20
97.16014859753484
 30
0.0
 10
202.2332354794101
 20
97.16014859753483
 30
0.0
 10
202.2923656291557
 20
97.1680489286144
 30
0.0
 10
202.390813179689
 20
97.19135967661943
 30
0.0
 10
202.4298454178771
 20
97.20606480290309
 30
0.0
 10
202.529735302334
 20
97.25399833108972
 30
0.0
 10
202.5720342759434
 20
97.29006830385448
 30
0.0
 10
202.6031912264046
 20
97.3278980962907
 30
0.0
  0
ELLIPSE
  5
B7
330
1F
100
AcDbEntity
  8
0
  6
Continuous
 62
     7
370
    15
100
AcDbEllipse
 10
186.3507811487
 20
127.2286405564
 30
0.0
 11
-14.75368316065618
 21
31.09325491558116
 31
0.0
210
0.0
220
0.0
230
1.0
 40
0.3419987131
 41
3.300734856217125
 42
4.231496223360773
  0
SPLINE
  5
B8
330
1F
100
AcDbEntity
  8
0
  6
Continuous
 62
     7
370
    15
100
AcDbSpline
210
0.0
220
0.0
230
1.0
 70
     8
 71
     3
 72
    12
 73
     8
 74
     0
 42
0.00000001
 43
0.00000001
 12
1.0
 22
0.0
 32
0.0
 13
1.0
 23
0.0
 33
0.0
 40
0.0
 40
0.0
 40
0.0
 40
0.0
 40
0.4999999999999991
 40
0.4999999999999991
 40
0.7499999999999996
 40
0.7499999999999996
 40
1.0
 40
1.0
 40
1.0
 40
1.0
 10
202.6031912264046
 20
117.3192712357225
 30
0.0
 10
202.5720460284425
 20
117.4333766015878
 30
0.0
 10
202.529771762108
 20
117.5444829288066
 30
0.0
 10
202.4298262282827
 20
117.6946405362369
 30
0.0
 10
202.3900959235787
 20
117.7416332278543
 30
0.0
 10
202.2932078735725
 20
117.8146088123927
 30
0.0
 10
202.2331426318259
 20
117.8405741250718
 30
0.0
 10
202.1701785245124
 20
117.8405741250718
 30
0.0
  0
LINE
  5
B9
330
1F
100
AcDbEntity
  8
0
  6
Continuous
 62
     7
370
    15
100
AcDbLine
 10
202.1701785502
 20
117.8405737282
 30
0.0
 11
199.2256923345
 21
117.8405737282
 31
0.0
  0
SPLINE
  5
BA
330
1F
100
AcDbEntity
  8
0
  6
Continuous
 62
     7
370
    15
100
AcDbSpline
210
0.0
220
0.0
230
1.0
 70
     8
 71
     3
 72
    12
 73
     8
 74
     0
 42
0.00000001
 43
0.00000001
 12
1.0
 22
0.0
 32
0.0
 13
1.0
 23
0.0
 33
0.0
 40
0.0
 40
0.0
 40
0.0
 40
0.0
 40
0.2500000000000023
 40
0.2500000000000023
 40
0.5000000000000047
 40
0.5000000000000047
 40
1.0
 40
1.0
 40
1.0
 40
1.0
 10
199.2256921516452
 20
117.8405741250717
 30
0.0
 10
199.1626351967474
 20
117.8405741250717
 30
0.0
 10
199.1035050470019
 20
117.815227771691
 30
0.0
 10
199.0050574964685
 20
117.7411083895515
 30
0.0
 10
198.9660252582805
 20
117.6946118748535
 30
0.0
 10
198.8661353738235
 20
117.5445373678449
 30
0.0
 10
198.8238364002142
 20
117.4334196587301
 30
0.0
 10
198.792679449753
 20
117.3192712357226
 30
0.0
  0
ELLIPSE
  5
BB
330
1F
100
AcDbEntity
  8
0
  6
Continuous
 62
     7
370
    15
100
AcDbEllipse
 10
215.0450895274
 20
127.2286405564
 30
0.0
 11
14.75368316065621
 21
31.09325491558116
 31
0.0
210
0.0
220
0.0
230
1.0
 40
0.3419987131
 41
2.051689083818828
 42
2.982450450962506
  0
SPLINE
  5
BC
330
1F
100
AcDbEntity
  8
0
  6
Continuous
 62
     7
370
    15
100
AcDbSpline
210
0.0
220
0.0
230
1.0
 70
     8
 71
     3
 72
    12
 73
     8
 74
     0
 42
0.00000001
 43
0.00000001
 12
1.0
 22
0.0
 32
0.0
 13
1.0
 23
0.0
 33
0.0
 40
0.0
 40
0.0
 40
0.0
 40
0.0
 40
0.5000000000000019
 40
0.5000000000000019
 40
0.7500000000000009
 40
0.7500000000000009
 40
1.0
 40
1.0
 40
1.0
 40
1.0
 10
198.792679449753
 20
137.138009877093
 30
0.0
 10
198.8234016916721
 20
137.0254540776838
 30
0.0
 10
198.8662389062072
 20
136.9126962179442
 30
0.0
 10
198.9656659304071
 20
136.7631553321479
 30
0.0
 10
199.0054181252237
 20
136.715862600441
 30
0.0
 10
199.1034595820819
 20
136.6421263071196
 30
0.0
 10
199.1630156376694
 20
136.6167069877438
 30
0.0
 10
199.2256921516452
 20
136.6167069877438
 30
0.0
  0
LINE
  5
BD
330
1F
100
AcDbEntity
  8
0
  6
Continuous
 62
     7
370
    15
100
AcDbLine
 10
199.2256923345
 20
136.6167073847
 30
0.0
 11
202.1701785502
 21
136.6167073847
 31
0.0
  0
SPLINE
  5
BE
330
1F
100
AcDbEntity
  8
0
  6
Continuous
 62
     7
370
    15
100
AcDbSpline
210
0.0
220
0.0
230
1.0
 70
     8
 71
     3
 72
    12
 73
     8
 74
     0
 42
0.00000001
 43
0.00000001
 12
1.0
 22
0.0
 32
0.0
 13
1.0
 23
0.0
 33
0.0
 40
0.0
 40
0.0
 40
0.0
 40
0.0
 40
0.2499999999999991
 40
0.2499999999999991
 40
0.4999999999999982
 40
0.4999999999999982
 40
1.0
 40
1.0
 40
1.0
 40
1.0
 10
202.1701785245123
 20
136.6167069877438
 30
0.0
 10
202.2332585630057
 20
136.6167069877438
 30
0.0
 10
202.2924071851871
 20
136.6420713069588
 30
0.0
 10
202.3908797352562
 20
136.7162361673317
 30
0.0
 10
202.4299163472409
 20
136.7627565078858
 30
0.0
 10
202.52981281402
 20
136.9128988507311
 30
0.0
 10
202.5722336950866
 20
137.0245920577032
 30
0.0
 10
202.6031912264046
 20
137.138009877093
 30
0.0
  0
ELLIPSE
  5
BF
330
1F
100
AcDbEntity
  8
0
  6
Continuous
 62
     7
370
    15
100
AcDbEllipse
 10
186.3507811487
 20
127.2286405564
 30
0.0
 11
14.75368316065607
 21
31.09325491558116
 31
0.0
210
0.0
220
0.0
230
1.0
 40
0.3419987131
 41
5.193281737408618
 42
6.124043104552321
  0
SPLINE
  5
C0
330
1F
100
AcDbEntity
  8
0
  6
Continuous
 62
     7
370
    15
100
AcDbSpline
210
0.0
220
0.0
230
1.0
 70
     8
 71
     3
 72
    12
 73
     8
 74
     0
 42
0.00000001
 43
0.00000001
 12
1.0
 22
0.0
 32
0.0
 13
1.0
 23
0.0
 33
0.0
 40
0.0
 40
0.0
 40
0.0
 40
0.0
 40
0.5
 40
0.5
 40
0.75
 40
0.75
 40
1.0
 40
1.0
 40
1.0
 40
1.0
 10
202.6031912264046
 20
157.1293830165251
 30
0.0
 10
202.5724689844855
 20
157.1666849994782
 30
0.0
 10
202.5296317699503
 20
157.2032968315245
 30
0.0
 10
202.4302047457505
 20
157.2510616148097
 30
0.0
 10
202.3904525509339
 20
157.2660191302921
 30
0.0
 10
202.2924110940756
 20
157.2892090760612
 30
0.0
 10
202.2328550384882
 20
157.297132515281
 30
0.0
 10
202.1701785245123
 20
157.297132515281
 30
0.0
  0
LINE
  5
C1
330
1F
100
AcDbEntity
  8
0
  6
Continuous
 62
     7
370
    15
100
AcDbLine
 10
202.1701785502
 20
157.2971330733
 30
0.0
 11
199.2256923345
 21
157.2971330733
 31
0.0
  0
SPLINE
  5
C2
330
1F
100
AcDbEntity
  8
0
  6
Continuous
 62
     7
370
    15
100
AcDbSpline
210
0.0
220
0.0
230
1.0
 70
     8
 71
     3
 72
    12
 73
     8
 74
     0
 42
0.00000001
 43
0.00000001
 12
1.0
 22
0.0
 32
0.0
 13
1.0
 23
0.0
 33
0.0
 40
0.0
 40
0.0
 40
0.0
 40
0.0
 40
0.2499999999999982
 40
0.2499999999999982
 40
0.4999999999999963
 40
0.4999999999999963
 40
1.0
 40
1.0
 40
1.0
 40
1.0
 10
199.2256921516452
 20
157.297132515281
 30
0.0
 10
199.1626121131519
 20
157.297132515281
 30
0.0
 10
199.1034634909705
 20
157.2892265890685
 30
0.0
 10
199.0049909409014
 20
157.2659014276323
 30
0.0
 10
198.9659543289166
 20
157.2511886378006
 30
0.0
 10
198.8660578621376
 20
157.2032328370697
 30
0.0
 10
198.823636981071
 20
157.1669706804896
 30
0.0
 10
198.792679449753
 20
157.1293830165251
 30
0.0
  0
ELLIPSE
  5
C3
330
1F
100
AcDbEntity
  8
0
  6
Continuous
 62
     7
370
    15
100
AcDbEllipse
 10
215.0450895274
 20
127.2286405564
 30
0.0
 11
-14.75368316065604
 21
31.09325491558116
 31
0.0
210
0.0
220
0.0
230
1.0
 40
0.3419987131
 41
0.1591422026273012
 42
1.089903569770976
  0
SPLINE
  5
C4
330
1F
100
AcDbEntity
  8
0
  6
Continuous
 62
     7
370
    15
100
AcDbSpline
210
0.0
220
0.0
230
1.0
 70
     8
 71
     3
 72
    18
 73
    14
 74
     0
 42
0.00000001
 43
0.00000001
 12
1.0
 22
0.0
 32
0.0
 13
1.0
 23
0.0
 33
0.0
 40
0.0
 40
0.0
 40
0.0
 40
0.0
 40
0.1250000000000008
 40
0.1250000000000008
 40
0.2500000000000017
 40
0.2500000000000017
 40
0.3750000000000025
 40
0.3750000000000025
 40
0.5000000000000033
 40
0.5000000000000033
 40
0.7500000000000021
 40
0.7500000000000021
 40
1.0
 40
1.0
 40
1.0
 40
1.0
 10
223.6621439910885
 20
157.8849095189297
 30
0.0
 10
223.4160556978941
 20
157.8677159942578
 30
0.0
 10
223.1727711035904
 20
157.8464204461001
 30
0.0
 10
222.6997156209955
 20
157.7952503206063
 30
0.0
 10
222.4725660179747
 20
157.7657038818136
 30
0.0
 10
222.0363804585685
 20
157.6979769799131
 30
0.0
 10
221.8273467456286
 20
157.6597983115701
 30
0.0
 10
221.4276471315929
 20
157.5735511644824
 30
0.0
 10
221.2363814761087
 20
157.5251941378437
 30
0.0
 10
220.7064556028418
 20
157.3674566161973
 30
0.0
 10
220.4053808112829
 20
157.244611864262
 30
0.0
 10
219.9074535864933
 20
156.954379811771
 30
0.0
 10
219.7194351516586
 20
156.7919551821791
 30
0.0
 10
219.5902523538107
 20
156.6100602241736
 30
0.0
  0
ELLIPSE
  5
C5
330
1F
100
AcDbEntity
  8
0
  6
Continuous
 62
     7
370
    15
100
AcDbEllipse
 10
222.0767733573
 20
127.2286405564
 30
0.0
 11
0.6340480480430698
 21
31.49954441786377
 31
0.0
210
0.0
220
0.0
230
1.0
 40
0.2671959542
 41
0.3742258005210588
 42
2.917749757669814
  0
SPLINE
  5
C6
330
1F
100
AcDbEntity
  8
0
  6
Continuous
 62
     7
370
    15
100
AcDbSpline
210
0.0
220
0.0
230
1.0
 70
     8
 71
     3
 72
    20
 73
    16
 74
     0
 42
0.00000001
 43
0.00000001
 12
1.0
 22
0.0
 32
0.0
 13
1.0
 23
0.0
 33
0.0
 40
0.0
 40
0.0
 40
0.0
 40
0.0
 40
0.2499999999999986
 40
0.2499999999999986
 40
0.3749999999999987
 40
0.3749999999999987
 40
0.4999999999999988
 40
0.4999999999999988
 40
0.6249999999999991
 40
0.6249999999999991
 40
0.7499999999999993
 40
0.7499999999999993
 40
0.8749999999999997
 40
0.8749999999999997
 40
1.0
 40
1.0
 40
1.0
 40
1.0
 10
219.5902523538107
 20
96.5525654689232
 30
0.0
 10
219.7472127969442
 20
96.41328288786352
 30
0.0
 10
219.9890454673778
 20
96.29997732385102
 30
0.0
 10
220.4845794203378
 20
96.16024954554211
 30
0.0
 10
220.6709741933755
 20
96.11927588327326
 30
0.0
 10
221.0767946405923
 20
96.04824172940083
 30
0.0
 10
221.2973869448317
 20
96.01784025030011
 30
0.0
 10
221.7748717098429
 20
95.96530386834957
 30
0.0
 10
222.0326906677052
 20
95.9432074553418
 30
0.0
 10
222.5667940635455
 20
95.90689440098481
 30
0.0
 10
222.8451638552281
 20
95.89241194780382
 30
0.0
 10
223.4246658506014
 20
95.86906352557237
 30
0.0
 10
223.7278142491285
 20
95.86018484607669
 30
0.0
 10
224.3404785582962
 20
95.8474082720141
 30
0.0
 10
224.6514906051629
 20
95.84341506199179
 30
0.0
 10
224.9672684690804
 20
95.8415248244195
 30
0.0
  0
ELLIPSE
  5
C7
330
1F
100
AcDbEntity
  8
0
  6
Continuous
 62
     7
370
    15
100
AcDbEllipse
 10
294.2876414919
 20
127.2286405564
 30
0.0
 11
450.4709607548085
 21
2.208072944663798
 31
0.0
210
0.0
220
0.0
230
1.0
 40
0.0697548059
 41
4.557548947722658
 42
4.559712880992921
  0
ELLIPSE
  5
C8
330
1F
100
AcDbEntity
  8
0
  6
Continuous
 62
     7
370
    15
100
AcDbEllipse
 10
244.7945397059
 20
127.2286405564
 30
0.0
 11
-22.8150705367803
 21
31.44612296399348
 31
0.0
210
0.0
220
0.0
230
1.0
 40
0.0807169094
 41
5.992717482391926
 42
6.224689668269349
  0
ELLIPSE
  5
C9
330
1F
100
AcDbEntity
  8
0
  6
Continuous
 62
     7
370
    15
100
AcDbEllipse
 10
218.3160774849
 20
111.3323424265
 30
0.0
 11
-0.252683384138777
 21
3.379637871025167
 31
0.0
210
0.0
220
0.0
230
1.0
 40
0.2133242954
 41
0.0
 42
6.283185307179586
  0
SPLINE
  5
CA
330
1F
100
AcDbEntity
  8
0
  6
Continuous
 62
     7
370
    15
100
AcDbSpline
210
0.0
220
0.0
230
1.0
 70
     8
 71
     3
 72
    12
 73
     8
 74
     0
 42
0.00000001
 43
0.00000001
 12
1.0
 22
0.0
 32
0.0
 13
1.0
 23
0.0
 33
0.0
 40
0.0
 40
0.0
 40
0.0
 40
0.0
 40
0.5000000000000002
 40
0.5000000000000002
 40
0.7500000000000003
 40
0.7500000000000003
 40
1.0
 40
1.0
 40
1.0
 40
1.0
 10
187.8814230516223
 20
105.3738468539321
 30
0.0
 10
187.9378595525295
 20
105.3724289725904
 30
0.0
 10
188.0069441832182
 20
105.370864636342
 30
0.0
 10
188.1257464549361
 20
105.3679204443676
 30
0.0
 10
188.1659317304062
 20
105.3668822412702
 30
0.0
 10
188.2393127778101
 20
105.3649483460556
 30
0.0
 10
188.2727223415527
 20
105.3640534587668
 30
0.0
 10
188.3029584492092
 20
105.3632696684944
 30
0.0
  0
SPLINE
  5
CB
330
1F
100
AcDbEntity
  8
0
  6
Continuous
 62
     7
370
    15
100
AcDbSpline
210
0.0
220
0.0
230
1.0
 70
     8
 71
     3
 72
    16
 73
    12
 74
     0
 42
0.00000001
 43
0.00000001
 12
1.0
 22
0.0
 32
0.0
 13
1.0
 23
0.0
 33
0.0
 40
0.0
 40
0.0
 40
0.0
 40
0.0
 40
0.0624999999999991
 40
0.0624999999999991
 40
0.1249999999999982
 40
0.1249999999999982
 40
0.2499999999999963
 40
0.2499999999999963
 40
0.4999999999999976
 40
0.4999999999999976
 40
1.0
 40
1.0
 40
1.0
 40
1.0
 10
188.3029584491719
 20
105.3632696685187
 30
0.0
 10
188.3145388567599
 20
105.3629694774073
 30
0.0
 10
188.3278483835211
 20
105.3616417291483
 30
0.0
 10
188.3571498136073
 20
105.3549430543733
 30
0.0
 10
188.3719639134916
 20
105.3495848712676
 30
0.0
 10
188.4077923151945
 20
105.3325392221003
 30
0.0
 10
188.4219119395575
 20
105.3210766843246
 30
0.0
 10
188.456416083646
 20
105.2895133589523
 30
0.0
 10
188.4675206343506
 20
105.271616059907
 30
0.0
 10
188.4936968115667
 20
105.2214546422928
 30
0.0
 10
188.4979353380788
 20
105.1937102300962
 30
0.0
 10
188.4979353380788
 20
105.1690460681667
 30
0.0
  0
LINE
  5
CC
330
1F
100
AcDbEntity
  8
0
  6
Continuous
 62
     7
370
    15
100
AcDbLine
 10
188.4979353431
 20
120.2067533285
 30
0.0
 11
188.4979353431
 21
104.6888200343
 31
0.0
  0
SPLINE
  5
CD
330
1F
100
AcDbEntity
  8
0
  6
Continuous
 62
     7
370
    15
100
AcDbSpline
210
0.0
220
0.0
230
1.0
 70
     8
 71
     3
 72
    16
 73
    12
 74
     0
 42
0.00000001
 43
0.00000001
 12
1.0
 22
0.0
 32
0.0
 13
1.0
 23
0.0
 33
0.0
 40
0.0
 40
0.0
 40
0.0
 40
0.0
 40
0.5000000000000016
 40
0.5000000000000016
 40
0.7500000000000007
 40
0.7500000000000007
 40
0.8750000000000002
 40
0.8750000000000002
 40
0.9375000000000001
 40
0.9375000000000001
 40
1.0
 40
1.0
 40
1.0
 40
1.0
 10
188.4979353380788
 20
120.2067532306579
 30
0.0
 10
188.4979353380788
 20
120.3204457747858
 30
0.0
 10
188.4937890630008
 20
120.4347659361353
 30
0.0
 10
188.4678234676073
 20
120.6078142266324
 30
0.0
 10
188.4563625622299
 20
120.6669897337941
 30
0.0
 10
188.4220508244555
 20
120.7501128532622
 30
0.0
 10
188.408026088526
 20
120.7782341693629
 30
0.0
 10
188.3720031254921
 20
120.8068499833403
 30
0.0
 10
188.3572486164025
 20
120.8126430312421
 30
0.0
 10
188.3278964552556
 20
120.8110496053051
 30
0.0
 10
188.3145565807515
 20
120.8045532019813
 30
0.0
 10
188.3029584492031
 20
120.7960374557781
 30
0.0
  0
SPLINE
  5
CE
330
1F
100
AcDbEntity
  8
0
  6
Continuous
 62
     7
370
    15
100
AcDbSpline
210
0.0
220
0.0
230
1.0
 70
     8
 71
     3
 72
    12
 73
     8
 74
     0
 42
0.00000001
 43
0.00000001
 12
1.0
 22
0.0
 32
0.0
 13
1.0
 23
0.0
 33
0.0
 40
0.0
 40
0.0
 40
0.0
 40
0.0
 40
0.2499999999999998
 40
0.2499999999999998
 40
0.4999999999999996
 40
0.4999999999999996
 40
1.0
 40
1.0
 40
1.0
 40
1.0
 10
188.3029584492102
 20
120.796037455769
 30
0.0
 10
188.2727600077696
 20
120.7738647237239
 30
0.0
 10
188.2393926524336
 20
120.7547850678467
 30
0.0
 10
188.1662373766037
 20
120.729612023404
 30
0.0
 10
188.1259846775797
 20
120.7240554869872
 30
0.0
 10
188.0082559343049
 20
120.734967297974
 30
0.0
 10
187.9377974862459
 20
120.7769030533848
 30
0.0
 10
187.8814230516276
 20
120.8261148357663
 30
0.0
  0
SPLINE
  5
CF
330
1F
100
AcDbEntity
  8
0
  6
Continuous
 62
     7
370
    15
100
AcDbSpline
210
0.0
220
0.0
230
1.0
 70
     8
 71
     3
 72
    12
 73
     8
 74
     0
 42
0.00000001
 43
0.00000001
 12
1.0
 22
0.0
 32
0.0
 13
1.0
 23
0.0
 33
0.0
 40
0.0
 40
0.0
 40
0.0
 40
0.0
 40
0.5000000000000016
 40
0.5000000000000016
 40
0.7500000000000008
 40
0.7500000000000008
 40
1.0
 40
1.0
 40
1.0
 40
1.0
 10
187.3766149945191
 20
122.0424662276469
 30
0.0
 10
187.4203653464036
 20
121.8220192426724
 30
0.0
 10
187.473255497528
 20
121.6064742528668
 30
0.0
 10
187.5848670406697
 20
121.2940601762949
 30
0.0
 10
187.6274263845733
 20
121.191980700679
 30
0.0
 10
187.7324036199107
 20
120.9975406880372
 30
0.0
 10
187.7939708630053
 20
120.9024557889736
 30
0.0
 10
187.8814230516277
 20
120.8261148357664
 30
0.0
  0
SPLINE
  5
D0
330
1F
100
AcDbEntity
  8
0
  6
Continuous
 62
     7
370
    15
100
AcDbSpline
210
0.0
220
0.0
230
1.0
 70
     8
 71
     3
 72
    12
 73
     8
 74
     0
 42
0.00000001
 43
0.00000001
 12
1.0
 22
0.0
 32
0.0
 13
1.0
 23
0.0
 33
0.0
 40
0.0
 40
0.0
 40
0.0
 40
0.0
 40
0.2500000000000003
 40
0.2500000000000003
 40
0.5000000000000007
 40
0.5000000000000007
 40
1.0
 40
1.0
 40
1.0
 40
1.0
 10
187.8814230516276
 20
133.6311662770495
 30
0.0
 10
187.7929296440597
 20
133.5539163969412
 30
0.0
 10
187.7328716032938
 20
133.460597073052
 30
0.0
 10
187.6270233303112
 20
133.2645640200825
 30
0.0
 10
187.5844898090338
 20
133.1622376618708
 30
0.0
 10
187.4733385022101
 20
132.8508932560949
 30
0.0
 10
187.4204076451623
 20
132.6354750029169
 30
0.0
 10
187.3766149945191
 20
132.414814885169
 30
0.0
  0
SPLINE
  5
D1
330
1F
100
AcDbEntity
  8
0
  6
Continuous
 62
     7
370
    15
100
AcDbSpline
210
0.0
220
0.0
230
1.0
 70
     8
 71
     3
 72
    12
 73
     8
 74
     0
 42
0.00000001
 43
0.00000001
 12
1.0
 22
0.0
 32
0.0
 13
1.0
 23
0.0
 33
0.0
 40
0.0
 40
0.0
 40
0.0
 40
0.0
 40
0.5000000000000006
 40
0.5000000000000006
 40
0.7500000000000004
 40
0.7500000000000004
 40
1.0
 40
1.0
 40
1.0
 40
1.0
 10
187.8814230516276
 20
133.6311662770495
 30
0.0
 10
187.9377315999232
 20
133.6803205442934
 30
0.0
 10
188.0080062606413
 20
133.7222778628971
 30
0.0
 10
188.1260441749649
 20
133.7332375404295
 30
0.0
 10
188.1662204158188
 20
133.7277287821822
 30
0.0
 10
188.2401775104968
 20
133.7021715533932
 30
0.0
 10
188.2727938982082
 20
133.6833915055539
 30
0.0
 10
188.3029584492039
 20
133.6612436570372
 30
0.0
  0
SPLINE
  5
D2
330
1F
100
AcDbEntity
  8
0
  6
Continuous
 62
     7
370
    15
100
AcDbSpline
210
0.0
220
0.0
230
1.0
 70
     8
 71
     3
 72
    16
 73
    12
 74
     0
 42
0.00000001
 43
0.00000001
 12
1.0
 22
0.0
 32
0.0
 13
1.0
 23
0.0
 33
0.0
 40
0.0
 40
0.0
 40
0.0
 40
0.0
 40
0.0625000000000003
 40
0.0625000000000003
 40
0.1250000000000006
 40
0.1250000000000006
 40
0.2500000000000022
 40
0.2500000000000022
 40
0.5000000000000003
 40
0.5000000000000003
 40
1.0
 40
1.0
 40
1.0
 40
1.0
 10
188.3029584491722
 20
133.6612436569827
 30
0.0
 10
188.3145713490115
 20
133.6527170673874
 30
0.0
 10
188.3279225334441
 20
133.6462168058547
 30
0.0
 10
188.3573223730632
 20
133.6446474087372
 30
0.0
 10
188.3721630976185
 20
133.6505307993677
 30
0.0
 10
188.4079963055871
 20
133.6790784354183
 30
0.0
 10
188.4221095134087
 20
133.7072454547241
 30
0.0
 10
188.4566008846275
 20
133.790999713146
 30
0.0
 10
188.4676849557379
 20
133.8487131267674
 30
0.0
 10
188.4938077735339
 20
134.0223036634133
 30
0.0
 10
188.4979353380788
 20
134.1373317160552
 30
0.0
 10
188.4979353380788
 20
134.2505278821581
 30
0.0
  0
LINE
  5
D3
330
1F
100
AcDbEntity
  8
0
  6
Continuous
 62
     7
370
    15
100
AcDbLine
 10
188.4979353431
 20
149.7684610785
 30
0.0
 11
188.4979353431
 21
134.2505277843
 31
0.0
  0
SPLINE
  5
D4
330
1F
100
AcDbEntity
  8
0
  6
Continuous
 62
     7
370
    15
100
AcDbSpline
210
0.0
220
0.0
230
1.0
 70
     8
 71
     3
 72
    16
 73
    12
 74
     0
 42
0.00000001
 43
0.00000001
 12
1.0
 22
0.0
 32
0.0
 13
1.0
 23
0.0
 33
0.0
 40
0.0
 40
0.0
 40
0.0
 40
0.0
 40
0.4999999999999953
 40
0.4999999999999953
 40
0.749999999999995
 40
0.749999999999995
 40
0.8749999999999948
 40
0.8749999999999948
 40
0.9374999999999974
 40
0.9374999999999974
 40
1.0
 40
1.0
 40
1.0
 40
1.0
 10
188.4979353380788
 20
149.2882350446492
 30
0.0
 10
188.4979353380788
 20
149.2635638886063
 30
0.0
 10
188.4937696396188
 20
149.2359820572151
 30
0.0
 10
188.4675113112939
 20
149.1856391863917
 30
0.0
 10
188.4560075295563
 20
149.1673496883298
 30
0.0
 10
188.4218767702097
 20
149.1361946572928
 30
0.0
 10
188.407454883539
 20
149.1245552820811
 30
0.0
 10
188.3718879151012
 20
149.10767325615
 30
0.0
 10
188.3569361468065
 20
149.1022841523423
 30
0.0
 10
188.3279323284468
 20
149.0956636563978
 30
0.0
 10
188.3145169744375
 20
149.0943110681914
 30
0.0
 10
188.302958449201
 20
149.0940114443198
 30
0.0
  0
SPLINE
  5
D5
330
1F
100
AcDbEntity
  8
0
  6
Continuous
 62
     7
370
    15
100
AcDbSpline
210
0.0
220
0.0
230
1.0
 70
     8
 71
     3
 72
    12
 73
     8
 74
     0
 42
0.00000001
 43
0.00000001
 12
1.0
 22
0.0
 32
0.0
 13
1.0
 23
0.0
 33
0.0
 40
0.0
 40
0.0
 40
0.0
 40
0.0
 40
0.2500000000000001
 40
0.2500000000000001
 40
0.5000000000000001
 40
0.5000000000000001
 40
1.0
 40
1.0
 40
1.0
 40
1.0
 10
188.3029584492102
 20
149.0940114443216
 30
0.0
 10
188.2727706726606
 20
149.093228906904
 30
0.0
 10
188.2394168685688
 20
149.0923355750855
 30
0.0
 10
188.1662906653729
 20
149.0904082662818
 30
0.0
 10
188.1260554623487
 20
149.0893687350692
 30
0.0
 10
188.0083638322157
 20
149.0864508517219
 30
0.0
 10
187.9379831590556
 20
149.0848552456517
 30
0.0
 10
187.881423051625
 20
149.0834342588838
 30
0.0
  0
SPLINE
  5
D6
330
1F
100
AcDbEntity
  8
0
  6
Continuous
 62
     7
370
    15
100
AcDbSpline
210
0.0
220
0.0
230
1.0
 70
     8
 71
     3
 72
    16
 73
    12
 74
     0
 42
0.00000001
 43
0.00000001
 12
1.0
 22
0.0
 32
0.0
 13
1.0
 23
0.0
 33
0.0
 40
0.0
 40
0.0
 40
0.0
 40
0.0
 40
0.25
 40
0.25
 40
0.3750000000000001
 40
0.3750000000000001
 40
0.5
 40
0.5
 40
0.75
 40
0.75
 40
1.0
 40
1.0
 40
1.0
 40
1.0
 10
187.3766149945191
 20
132.414814885169
 30
0.0
 10
187.2153825170347
 20
131.6024051099222
 30
0.0
 10
187.094902677395
 20
130.7623268155374
 30
0.0
 10
186.9725221600817
 20
129.4610317661747
 30
0.0
 10
186.9415444996843
 20
129.0203507305899
 30
0.0
 10
186.8999307620563
 20
128.1245110896588
 30
0.0
 10
186.8896948491235
 20
127.6778529584563
 30
0.0
 10
186.8895064520674
 20
126.3425430013164
 30
0.0
 10
186.929651154705
 20
125.4580476280089
 30
0.0
 10
187.0938049096446
 20
123.7007977399829
 30
0.0
 10
187.2153565600541
 20
122.8550067935698
 30
0.0
 10
187.3766149945191
 20
122.0424662276469
 30
0.0
  0
LINE
  5
D7
330
1F
100
AcDbEntity
  8
0
  6
Continuous
 62
     7
370
    15
100
AcDbLine
 10
186.49793535
 20
133.7138186917
 30
0.0
 11
186.49793535
 21
120.7434624211
 31
0.0
  0
LINE
  5
D8
330
1F
100
AcDbEntity
  8
0
  6
Continuous
 62
     7
370
    15
100
AcDbLine
 10
152.1979358745
 20
133.2829511502
 30
0.0
 11
152.1979358745
 21
121.1743299627
 31
0.0
  0
LINE
  5
D9
330
1F
100
AcDbEntity
  8
0
  6
Continuous
 62
     7
370
    15
100
AcDbLine
 10
150.69793656
 20
132.849938307
 30
0.0
 11
150.69793656
 21
121.6073428058
 31
0.0
  0
LINE
  5
DA
330
1F
100
AcDbEntity
  8
0
  6
Continuous
 62
     7
370
    15
100
AcDbLine
 10
186.49793535
 20
133.7138186917
 30
0.0
 11
186.49793535
 21
149.248740241
 31
0.0
  0
ARC
  5
DB
330
1F
100
AcDbEntity
  8
0
  6
Continuous
 62
     7
370
    15
100
AcDbCircle
 10
186.697872249
 20
149.2537624521
 30
0.0
 40
0.2000000000000059
100
AcDbArc
 50
181.4391666667
 51
271.4391666667
  0
LINE
  5
DC
330
1F
100
AcDbEntity
  8
0
  6
Continuous
 62
     7
370
    15
100
AcDbLine
 10
152.1979358745
 20
133.2829511502
 30
0.0
 11
152.1979358745
 21
148.3870042265
 31
0.0
  0
LINE
  5
DD
330
1F
100
AcDbEntity
  8
0
  6
Continuous
 62
     7
370
    15
100
AcDbLine
 10
152.1979358745
 20
148.3870042265
 30
0.0
 11
186.49793535
 21
149.248740241
 31
0.0
  0
LINE
  5
DE
330
1F
100
AcDbEntity
  8
0
  6
Continuous
 62
     7
370
    15
100
AcDbLine
 10
186.49793535
 20
105.2085408718
 30
0.0
 11
186.49793535
 21
120.7434624211
 31
0.0
  0
ARC
  5
DF
330
1F
100
AcDbEntity
  8
0
  6
Continuous
 62
     7
370
    15
100
AcDbCircle
 10
186.697872249
 20
105.2035186607
 30
0.0
 40
0.2000000000000059
100
AcDbArc
 50
88.5608333333
 51
178.5608333333
  0
LINE
  5
E0
330
1F
100
AcDbEntity
  8
0
  6
Continuous
 62
     7
370
    15
100
AcDbLine
 10
152.1979358745
 20
106.0702768863
 30
0.0
 11
152.1979358745
 21
121.1743299627
 31
0.0
  0
LINE
  5
E1
330
1F
100
AcDbEntity
  8
0
  6
Continuous
 62
     7
370
    15
100
AcDbLine
 10
152.1979358745
 20
106.0702768863
 30
0.0
 11
186.49793535
 21
105.2085408718
 31
0.0
  0
LINE
  5
E2
330
1F
100
AcDbEntity
  8
0
  6
Continuous
 62
     7
370
    15
100
AcDbLine
 10
186.7028954671
 20
149.053825602
 30
0.0
 11
187.8814230672
 21
149.0834342093
 31
0.0
  0
LINE
  5
E3
330
1F
100
AcDbEntity
  8
0
  6
Continuous
 62
     7
370
    15
100
AcDbLine
 10
186.7028954671
 20
105.4034555108
 30
0.0
 11
187.8814230672
 21
105.3738469035
 31
0.0
  0
LINE
  5
E4
330
1F
100
AcDbEntity
  8
0
  6
Continuous
 62
     7
370
    15
100
AcDbLine
 10
150.69793656
 20
147.5209785403
 30
0.0
 11
152.1979358745
 21
148.3870042265
 31
0.0
  0
LINE
  5
E5
330
1F
100
AcDbEntity
  8
0
  6
Continuous
 62
     7
370
    15
100
AcDbLine
 10
150.69793656
 20
132.849938307
 30
0.0
 11
150.69793656
 21
147.5209785403
 31
0.0
  0
LINE
  5
E6
330
1F
100
AcDbEntity
  8
0
  6
Continuous
 62
     7
370
    15
100
AcDbLine
 10
150.69793656
 20
106.9363025726
 30
0.0
 11
152.1979358745
 21
106.0702768863
 31
0.0
  0
LINE
  5
E7
330
1F
100
AcDbEntity
  8
0
  6
Continuous
 62
     7
370
    15
100
AcDbLine
 10
150.69793656
 20
106.9363025726
 30
0.0
 11
150.69793656
 21
121.6073428058
 31
0.0
  0
ELLIPSE
  5
E8
330
1F
100
AcDbEntity
  8
0
  6
Continuous
 62
     7
370
    15
100
AcDbEllipse
 10
225.3858073115
 20
156.453020159
 30
0.0
 11
-5.979867235638466
 21
8.510454020149808
 31
0.0
210
0.0
220
0.0
230
1.0
 40
0.0577065324
 41
1.361356446373047
 42
1.582926294649739
  0
ELLIPSE
  5
E9
330
1F
100
AcDbEntity
  8
0
  6
Continuous
 62
     7
370
    15
100
AcDbEllipse
 10
222.882864556
 20
68.6811815402
 30
0.0
 11
19.52855739459125
 21
17.31328357430642
 31
0.0
210
0.0
220
0.0
230
1.0
 40
0.9914322785
 41
0.3664475364584904
 42
0.6871244028289942
  0
LINE
  5
EA
330
1F
100
AcDbEntity
  8
0
  6
Continuous
 62
     7
370
    15
100
AcDbLine
 10
226.8965330673
 20
95.0826821626
 30
0.0
 11
227.0918537629
 21
94.3467771412
 31
0.0
  0
SPLINE
  5
EB
330
1F
100
AcDbEntity
  8
0
  6
Continuous
 62
     7
370
    15
100
AcDbSpline
210
0.0
220
0.0
230
1.0
 70
     8
 71
     3
 72
    10
 73
     6
 74
     0
 42
0.00000001
 43
0.00000001
 12
1.0
 22
0.0
 32
0.0
 13
1.0
 23
0.0
 33
0.0
 40
0.0
 40
0.0
 40
0.0
 40
0.0
 40
0.5
 40
0.5
 40
1.0
 40
1.0
 40
1.0
 40
1.0
 10
225.9306083500998
 20
95.83583275675859
 30
0.0
 10
226.1523716337062
 20
95.83453956309434
 30
0.0
 10
226.3668286548032
 20
95.75879533374845
 30
0.0
 10
226.7143805074116
 20
95.48690243636737
 30
0.0
 10
226.8397477621034
 20
95.29669757090777
 30
0.0
 10
226.8965341763889
 20
95.08268066948756
 30
0.0
  0
LINE
  5
EC
330
1F
100
AcDbEntity
  8
0
  6
Continuous
 62
     7
370
    15
100
AcDbLine
 10
244.1712257219
 20
107.051339537
 30
0.0
 11
244.1712257219
 21
128.7145985533
 31
0.0
  0
ELLIPSE
  5
ED
330
1F
100
AcDbEntity
  8
0
  6
Continuous
 62
     7
370
    15
100
AcDbEllipse
 10
270.1438869626
 20
107.2729023521
 30
0.0
 11
17.28642680684982
 21
19.5516570582039
 31
0.0
210
0.0
220
0.0
230
1.0
 40
0.9914502387
 41
2.299043391287548
 42
2.722111544105427
  0
LINE
  5
EE
330
1F
100
AcDbEntity
  8
0
  6
Continuous
 62
     7
370
    15
100
AcDbLine
 10
235.1580460322
 20
106.0135816932
 30
0.0
 11
237.8490802599
 21
100.8572825939
 31
0.0
  0
ARC
  5
EF
330
1F
100
AcDbEntity
  8
0
  6
Continuous
 62
     7
370
    15
100
AcDbCircle
 10
233.4602783564
 20
105.1155447947
 30
0.0
 40
1.920647118097428
100
AcDbArc
 50
27.8766727306
 51
207.5622755825
  0
LINE
  5
F0
330
1F
100
AcDbEntity
  8
0
  6
Continuous
 62
     7
370
    15
100
AcDbLine
 10
232.4388597859
 20
102.9214827121
 30
0.0
 11
231.7576084984
 21
104.2268374712
 31
0.0
  0
LINE
  5
F1
330
1F
100
AcDbEntity
  8
0
  6
Continuous
 62
     7
370
    15
100
AcDbLine
 10
239.4363370491
 20
89.4761090875
 30
0.0
 11
234.9646252347
 21
91.7821233869
 31
0.0
  0
LINE
  5
F2
330
1F
100
AcDbEntity
  8
0
  6
Continuous
 62
     7
370
    15
100
AcDbLine
 10
244.1712257219
 20
128.7145985533
 30
0.0
 11
224.9672685516
 21
156.0047385991
 31
0.0
  0
ARC
  5
F3
330
1F
100
AcDbEntity
  8
0
  6
Continuous
 62
     7
370
    15
100
AcDbCircle
 10
233.3193402956
 20
105.2486270449
 30
0.0
 40
1.743977894881298
100
AcDbArc
 50
164.2929353644
 51
207.5145596817
  0
ARC
  5
F4
330
1F
100
AcDbEntity
  8
0
  6
Continuous
 62
     7
370
    15
100
AcDbCircle
 10
233.3293211759
 20
105.2642380655
 30
0.0
 40
1.738413664359716
100
AcDbArc
 50
27.6225077938
 51
105.9073828713
  0
LINE
  5
F5
330
1F
100
AcDbEntity
  8
0
  6
Continuous
 62
     7
370
    15
100
AcDbLine
 10
231.772617693
 20
104.4429545999
 30
0.0
 11
232.4491006089
 21
103.1467417032
 31
0.0
  0
LINE
  5
F6
330
1F
100
AcDbEntity
  8
0
  6
Continuous
 62
     7
370
    15
100
AcDbLine
 10
234.8695930791
 20
106.0702433587
 30
0.0
 11
237.4948647571
 21
101.0399466158
 31
0.0
  0
LINE
  5
F7
330
1F
100
AcDbEntity
  8
0
  6
Continuous
 62
     7
370
    15
100
AcDbLine
 10
227.0419348729
 20
94.6512264908
 30
0.0
 11
227.0918537629
 21
94.3467771412
 31
0.0
  0
LINE
  5
F8
330
1F
100
AcDbEntity
  8
0
  6
Continuous
 62
     7
370
    15
100
AcDbLine
 10
234.6952010644
 20
106.2442106903
 30
0.0
 11
234.4667401863
 21
106.5794253499
 31
0.0
  0
LINE
  5
F9
330
1F
100
AcDbEntity
  8
0
  6
Continuous
 62
     7
370
    15
100
AcDbLine
 10
237.3804797185
 20
101.0989328624
 30
0.0
 11
234.6952010644
 21
106.2442106903
 31
0.0
  0
LINE
  5
FA
330
1F
100
AcDbEntity
  8
0
  6
HIDDEN
 62
     7
370
     0
100
AcDbLine
 10
188.6979353381
 20
158.2286400498
 30
0.0
 11
188.6979353381
 21
96.228641063
 31
0.0
  0
SPLINE
  5
FB
330
1F
100
AcDbEntity
  8
0
  6
HIDDEN
 62
     7
370
     0
100
AcDbSpline
210
0.0
220
0.0
230
1.0
 70
     8
 71
     3
 72
    12
 73
     8
 74
     0
 42
0.00000001
 43
0.00000001
 12
1.0
 22
0.0
 32
0.0
 13
1.0
 23
0.0
 33
0.0
 40
0.0
 40
0.0
 40
0.0
 40
0.0
 40
0.5000000000000009
 40
0.5000000000000009
 40
0.7500000000000004
 40
0.7500000000000004
 40
1.0
 40
1.0
 40
1.0
 40
1.0
 10
198.792679449753
 20
157.1293830165253
 30
0.0
 10
198.8234016916721
 20
157.1666849994783
 30
0.0
 10
198.8662389062073
 20
157.2032968315247
 30
0.0
 10
198.9656659304071
 20
157.2510616148099
 30
0.0
 10
199.0054181252237
 20
157.2660191302923
 30
0.0
 10
199.1034595820819
 20
157.2892090760614
 30
0.0
 10
199.1630156376694
 20
157.2971325152812
 30
0.0
 10
199.2256921516452
 20
157.2971325152812
 30
0.0
  0
LINE
  5
FC
330
1F
100
AcDbEntity
  8
0
  6
HIDDEN
 62
     7
370
     0
100
AcDbLine
 10
199.2256923345
 20
157.2971330733
 30
0.0
 11
202.1701785502
 21
157.2971330733
 31
0.0
  0
SPLINE
  5
FD
330
1F
100
AcDbEntity
  8
0
  6
HIDDEN
 62
     7
370
     0
100
AcDbSpline
210
0.0
220
0.0
230
1.0
 70
     8
 71
     3
 72
    12
 73
     8
 74
     0
 42
0.00000001
 43
0.00000001
 12
1.0
 22
0.0
 32
0.0
 13
1.0
 23
0.0
 33
0.0
 40
0.0
 40
0.0
 40
0.0
 40
0.0
 40
0.25
 40
0.25
 40
0.5
 40
0.5
 40
1.0
 40
1.0
 40
1.0
 40
1.0
 10
202.1701785245123
 20
157.2971325152812
 30
0.0
 10
202.2332585630057
 20
157.2971325152812
 30
0.0
 10
202.2924071851871
 20
157.2892265890687
 30
0.0
 10
202.3908797352562
 20
157.2659014276325
 30
0.0
 10
202.4299163472409
 20
157.2511886378008
 30
0.0
 10
202.5298128140199
 20
157.2032328370699
 30
0.0
 10
202.5722336950866
 20
157.1669706804898
 30
0.0
 10
202.6031912264046
 20
157.1293830165253
 30
0.0
  0
ELLIPSE
  5
FE
330
1F
100
AcDbEntity
  8
0
  6
HIDDEN
 62
     7
370
     0
100
AcDbEllipse
 10
186.3507811487
 20
127.2286405564
 30
0.0
 11
14.75368316065626
 21
31.09325491558118
 31
0.0
210
0.0
220
0.0
230
1.0
 40
0.3419987131
 41
5.193281737408638
 42
6.12404310455234
  0
SPLINE
  5
FF
330
1F
100
AcDbEntity
  8
0
  6
HIDDEN
 62
     7
370
     0
100
AcDbSpline
210
0.0
220
0.0
230
1.0
 70
     8
 71
     3
 72
    12
 73
     8
 74
     0
 42
0.00000001
 43
0.00000001
 12
1.0
 22
0.0
 32
0.0
 13
1.0
 23
0.0
 33
0.0
 40
0.0
 40
0.0
 40
0.0
 40
0.0
 40
0.4999999999999981
 40
0.4999999999999981
 40
0.749999999999999
 40
0.749999999999999
 40
1.0
 40
1.0
 40
1.0
 40
1.0
 10
202.6031912264046
 20
137.1380098770936
 30
0.0
 10
202.5724689844855
 20
137.0254540776844
 30
0.0
 10
202.5296317699503
 20
136.9126962179448
 30
0.0
 10
202.4302047457505
 20
136.7631553321485
 30
0.0
 10
202.3904525509338
 20
136.7158626004416
 30
0.0
 10
202.2924110940756
 20
136.6421263071202
 30
0.0
 10
202.2328550384882
 20
136.6167069877445
 30
0.0
 10
202.1701785245123
 20
136.6167069877445
 30
0.0
  0
LINE
  5
100
330
1F
100
AcDbEntity
  8
0
  6
HIDDEN
 62
     7
370
     0
100
AcDbLine
 10
202.1701785502
 20
136.6167073847
 30
0.0
 11
199.2256923345
 21
136.6167073847
 31
0.0
  0
SPLINE
  5
101
330
1F
100
AcDbEntity
  8
0
  6
HIDDEN
 62
     7
370
     0
100
AcDbSpline
210
0.0
220
0.0
230
1.0
 70
     8
 71
     3
 72
    12
 73
     8
 74
     0
 42
0.00000001
 43
0.00000001
 12
1.0
 22
0.0
 32
0.0
 13
1.0
 23
0.0
 33
0.0
 40
0.0
 40
0.0
 40
0.0
 40
0.0
 40
0.2499999999999991
 40
0.2499999999999991
 40
0.4999999999999982
 40
0.4999999999999982
 40
1.0
 40
1.0
 40
1.0
 40
1.0
 10
199.2256921516452
 20
136.6167069877445
 30
0.0
 10
199.1626121131519
 20
136.6167069877445
 30
0.0
 10
199.1034634909705
 20
136.6420713069594
 30
0.0
 10
199.0049909409014
 20
136.7162361673323
 30
0.0
 10
198.9659543289167
 20
136.7627565078865
 30
0.0
 10
198.8660578621376
 20
136.9128988507317
 30
0.0
 10
198.823636981071
 20
137.0245920577038
 30
0.0
 10
198.792679449753
 20
137.1380098770936
 30
0.0
  0
ELLIPSE
  5
102
330
1F
100
AcDbEntity
  8
0
  6
HIDDEN
 62
     7
370
     0
100
AcDbEllipse
 10
215.0450895274
 20
127.2286405564
 30
0.0
 11
-14.75368316065627
 21
31.09325491558116
 31
0.0
210
0.0
220
0.0
230
1.0
 40
0.3419987131
 41
0.1591422026272815
 42
1.08990356977096
  0
SPLINE
  5
103
330
1F
100
AcDbEntity
  8
0
  6
HIDDEN
 62
     7
370
     0
100
AcDbSpline
210
0.0
220
0.0
230
1.0
 70
     8
 71
     3
 72
    12
 73
     8
 74
     0
 42
0.00000001
 43
0.00000001
 12
1.0
 22
0.0
 32
0.0
 13
1.0
 23
0.0
 33
0.0
 40
0.0
 40
0.0
 40
0.0
 40
0.0
 40
0.5
 40
0.5
 40
0.75
 40
0.75
 40
1.0
 40
1.0
 40
1.0
 40
1.0
 10
198.792679449753
 20
117.3192712357227
 30
0.0
 10
198.8234016916721
 20
117.4318270351319
 30
0.0
 10
198.8662389062073
 20
117.5445848948715
 30
0.0
 10
198.9656659304071
 20
117.6941257806679
 30
0.0
 10
199.0054181252237
 20
117.7414185123747
 30
0.0
 10
199.1034595820819
 20
117.8151548056962
 30
0.0
 10
199.1630156376694
 20
117.8405741250719
 30
0.0
 10
199.2256921516452
 20
117.8405741250719
 30
0.0
  0
LINE
  5
104
330
1F
100
AcDbEntity
  8
0
  6
HIDDEN
 62
     7
370
     0
100
AcDbLine
 10
199.2256923345
 20
117.8405737282
 30
0.0
 11
202.1701785502
 21
117.8405737282
 31
0.0
  0
SPLINE
  5
105
330
1F
100
AcDbEntity
  8
0
  6
HIDDEN
 62
     7
370
     0
100
AcDbSpline
210
0.0
220
0.0
230
1.0
 70
     8
 71
     3
 72
    12
 73
     8
 74
     0
 42
0.00000001
 43
0.00000001
 12
1.0
 22
0.0
 32
0.0
 13
1.0
 23
0.0
 33
0.0
 40
0.0
 40
0.0
 40
0.0
 40
0.0
 40
0.2500000000000009
 40
0.2500000000000009
 40
0.5000000000000019
 40
0.5000000000000019
 40
1.0
 40
1.0
 40
1.0
 40
1.0
 10
202.1701785245123
 20
117.8405741250719
 30
0.0
 10
202.2332585630057
 20
117.8405741250719
 30
0.0
 10
202.2924071851871
 20
117.8152098058569
 30
0.0
 10
202.3908797352562
 20
117.741044945484
 30
0.0
 10
202.4299163472409
 20
117.6945246049299
 30
0.0
 10
202.5298128140199
 20
117.5443822620847
 30
0.0
 10
202.5722336950866
 20
117.4326890551125
 30
0.0
 10
202.6031912264046
 20
117.3192712357228
 30
0.0
  0
ELLIPSE
  5
106
330
1F
100
AcDbEntity
  8
0
  6
HIDDEN
 62
     7
370
     0
100
AcDbEllipse
 10
186.3507811487
 20
127.2286405564
 30
0.0
 11
-14.7536831606561
 21
31.09325491558116
 31
0.0
210
0.0
220
0.0
230
1.0
 40
0.3419987131
 41
3.300734856217133
 42
4.23149622336078
  0
SPLINE
  5
107
330
1F
100
AcDbEntity
  8
0
  6
HIDDEN
 62
     7
370
     0
100
AcDbSpline
210
0.0
220
0.0
230
1.0
 70
     8
 71
     3
 72
    12
 73
     8
 74
     0
 42
0.00000001
 43
0.00000001
 12
1.0
 22
0.0
 32
0.0
 13
1.0
 23
0.0
 33
0.0
 40
0.0
 40
0.0
 40
0.0
 40
0.0
 40
0.5000000000000047
 40
0.5000000000000047
 40
0.7500000000000023
 40
0.7500000000000023
 40
1.0
 40
1.0
 40
1.0
 40
1.0
 10
202.6031912264046
 20
97.32789809629077
 30
0.0
 10
202.5724689844855
 20
97.29059611333773
 30
0.0
 10
202.5296317699503
 20
97.25398428129134
 30
0.0
 10
202.4302047457505
 20
97.20621949800612
 30
0.0
 10
202.3904525509338
 20
97.19126198252376
 30
0.0
 10
202.2924110940756
 20
97.16807203675462
 30
0.0
 10
202.2328550384882
 20
97.16014859753491
 30
0.0
 10
202.1701785245123
 20
97.16014859753491
 30
0.0
  0
LINE
  5
108
330
1F
100
AcDbEntity
  8
0
  6
HIDDEN
 62
     7
370
     0
100
AcDbLine
 10
202.1701785502
 20
97.1601480395
 30
0.0
 11
199.2256923345
 21
97.1601480395
 31
0.0
  0
SPLINE
  5
109
330
1F
100
AcDbEntity
  8
0
  6
HIDDEN
 62
     7
370
     0
100
AcDbSpline
210
0.0
220
0.0
230
1.0
 70
     8
 71
     3
 72
    12
 73
     8
 74
     0
 42
0.00000001
 43
0.00000001
 12
1.0
 22
0.0
 32
0.0
 13
1.0
 23
0.0
 33
0.0
 40
0.0
 40
0.0
 40
0.0
 40
0.0
 40
0.2500000000000014
 40
0.2500000000000014
 40
0.5000000000000029
 40
0.5000000000000029
 40
1.0
 40
1.0
 40
1.0
 40
1.0
 10
199.2256921516452
 20
97.16014859753491
 30
0.0
 10
199.1626121131519
 20
97.16014859753491
 30
0.0
 10
199.1034634909705
 20
97.16805452374734
 30
0.0
 10
199.0049909409014
 20
97.19137968518358
 30
0.0
 10
198.9659543289167
 20
97.20609247501527
 30
0.0
 10
198.8660578621376
 20
97.25404827574621
 30
0.0
 10
198.823636981071
 20
97.29031043232625
 30
0.0
 10
198.792679449753
 20
97.32789809629075
 30
0.0
  0
ELLIPSE
  5
10A
330
1F
100
AcDbEntity
  8
0
  6
HIDDEN
 62
     7
370
     0
100
AcDbEllipse
 10
215.0450895274
 20
127.2286405564
 30
0.0
 11
14.75368316065612
 21
31.09325491558116
 31
0.0
210
0.0
220
0.0
230
1.0
 40
0.3419987131
 41
2.051689083818821
 42
2.982450450962499
  0
SPLINE
  5
10B
330
1F
100
AcDbEntity
  8
0
  6
HIDDEN
 62
     7
370
     0
100
AcDbSpline
210
0.0
220
0.0
230
1.0
 70
     8
 71
     3
 72
    60
 73
    56
 74
     0
 42
0.00000001
 43
0.00000001
 12
1.0
 22
0.0
 32
0.0
 13
1.0
 23
0.0
 33
0.0
 40
-0.0625000000000001
 40
-0.0625000000000001
 40
0.0
 40
0.0
 40
0.0312500000000001
 40
0.0312500000000001
 40
0.0625000000000001
 40
0.0625000000000001
 40
0.0937500000000002
 40
0.0937500000000002
 40
0.1250000000000003
 40
0.1250000000000003
 40
0.1875000000000005
 40
0.1875000000000005
 40
0.2500000000000007
 40
0.2500000000000007
 40
0.2812500000000006
 40
0.2812500000000006
 40
0.3125000000000004
 40
0.3125000000000004
 40
0.3437500000000003
 40
0.3437500000000003
 40
0.3750000000000002
 40
0.3750000000000002
 40
0.4062500000000001
 40
0.4062500000000001
 40
0.4375
 40
0.4375
 40
0.4687499999999999
 40
0.4687499999999999
 40
0.4999999999999998
 40
0.4999999999999998
 40
0.5624999999999996
 40
0.5624999999999996
 40
0.6249999999999993
 40
0.6249999999999993
 40
0.6562499999999993
 40
0.6562499999999993
 40
0.6874999999999994
 40
0.6874999999999994
 40
0.7187499999999994
 40
0.7187499999999994
 40
0.7499999999999996
 40
0.7499999999999996
 40
0.7812499999999996
 40
0.7812499999999996
 40
0.8124999999999997
 40
0.8124999999999997
 40
0.8437499999999997
 40
0.8437499999999997
 40
0.8749999999999998
 40
0.8749999999999998
 40
0.9062499999999998
 40
0.9062499999999998
 40
0.9374999999999999
 40
0.9374999999999999
 40
1.0
 40
1.0
 40
1.03125
 40
1.03125
 10
202.6979353380788
 20
126.9643100313212
 30
0.0
 10
202.6979353380788
 20
127.3608058189513
 30
0.0
 10
202.68496347959
 20
127.4907558799555
 30
0.0
 10
202.6341433098976
 20
127.7464088133156
 30
0.0
 10
202.5956759864306
 20
127.8734383198649
 30
0.0
 10
202.4952777503586
 20
128.1156264509894
 30
0.0
 10
202.4338447193854
 20
128.2304879435422
 30
0.0
 10
202.2887098878404
 20
128.4478681393664
 30
0.0
 10
202.2042547704326
 20
128.550765706565
 30
0.0
 10
201.9275353200743
 20
128.8274327455728
 30
0.0
 10
201.7044584281562
 20
128.9764308360528
 30
0.0
 10
201.2231750659359
 20
129.1759419765175
 30
0.0
 10
200.9599446469449
 20
129.2285000795142
 30
0.0
 10
200.568542445257
 20
129.2287103618923
 30
0.0
 10
200.4360194171481
 20
129.2157245911651
 30
0.0
 10
200.179488963907
 20
129.1646974429513
 30
0.0
 10
200.0548021296104
 20
129.1269422438009
 30
0.0
 10
199.8126228673749
 20
129.0268039108922
 30
0.0
 10
199.6955293352248
 20
128.9641982434806
 30
0.0
 10
199.4788143318694
 20
128.8194649502157
 30
0.0
 10
199.3777955050067
 20
128.7368376029361
 30
0.0
 10
199.1910106175545
 20
128.5502325496846
 30
0.0
 10
199.1081537363583
 20
128.4491174858084
 30
0.0
 10
198.9632694712845
 20
128.2325846818185
 30
0.0
 10
198.9006319634636
 20
128.1157144742174
 30
0.0
 10
198.8001831400638
 20
127.8734166035672
 30
0.0
 10
198.7623320390466
 20
127.7487526051063
 30
0.0
 10
198.7111104737902
 20
127.4924655610424
 30
0.0
 10
198.697982347173
 20
127.3598935652968
 30
0.0
 10
198.6978417068328
 20
126.9682893725228
 30
0.0
 10
198.7501664562046
 20
126.7051240411989
 30
0.0
 10
198.9492775182619
 20
126.2236186720258
 30
0.0
 10
199.0981398547191
 20
126.0003671325416
 30
0.0
 10
199.3744608140446
 20
125.7235108336528
 30
0.0
 10
199.4772244624182
 20
125.6389973868091
 30
0.0
 10
199.6946080197976
 20
125.4935801133688
 30
0.0
 10
199.8094067877541
 20
125.4320689143104
 30
0.0
 10
200.0512835111781
 20
125.3315390660556
 30
0.0
 10
200.1784371191783
 20
125.2928940428376
 30
0.0
 10
200.4341031286109
 20
125.2418377152866
 30
0.0
 10
200.5639691663669
 20
125.228772856741
 30
0.0
 10
200.8279216930986
 20
125.2285102359431
 30
0.0
 10
200.9583260165226
 20
125.2413872361871
 30
0.0
 10
201.213976779902
 20
125.2919732399929
 30
0.0
 10
201.3408423290163
 20
125.3302496046147
 30
0.0
 10
201.5833627869623
 20
125.4305204720947
 30
0.0
 10
201.6982894256226
 20
125.4918764962356
 30
0.0
 10
201.9156608944546
 20
125.6367227914084
 30
0.0
 10
202.0186747071168
 20
125.7211003059031
 30
0.0
 10
202.2033752526988
 20
125.9055076260913
 30
0.0
 10
202.2862049869553
 20
126.0060806893608
 30
0.0
 10
202.4324574255529
 20
126.2243068299398
 30
0.0
 10
202.4948259063453
 20
126.340861939861
 30
0.0
 10
202.644782057912
 20
126.7017115338948
 30
0.0
 10
202.6979353380788
 20
126.9643100313212
 30
0.0
 10
202.6979353380788
 20
127.3608058189513
 30
0.0
  0
ELLIPSE
  5
10C
330
1F
100
AcDbEntity
  8
0
  6
HIDDEN
 62
     7
370
     0
100
AcDbEllipse
 10
244.7945397059
 20
127.2286405564
 30
0.0
 11
-22.8150705367803
 21
31.44612296399348
 31
0.0
210
0.0
220
0.0
230
1.0
 40
0.0807169094
 41
6.224689668269349
 42
7.000304881082421
  0
LWPOLYLINE
  5
10D
330
1F
100
AcDbEntity
  8
0
  6
HIDDEN
 62
     7
370
     0
100
AcDbPolyline
 90
       29
 70
   128
 43
0.0
 10
209.697935055
 20
117.5767170043
 10
210.3654977632
 20
117.5115775094
 10
210.9995868755
 20
117.3194261045
 10
211.5684051765
 20
117.0098982529
 10
212.0434299809
 20
116.5985144452
 10
212.4008417827
 20
116.1059034765
 10
212.6227182103
 20
115.5567668156
 10
212.6979355467
 20
114.9786408768
 10
212.6227182103
 20
114.4005140067
 10
212.4008417827
 20
113.8513773457
 10
212.0434299809
 20
113.358766377
 10
211.5684051765
 20
112.9473825694
 10
210.9995868755
 20
112.6378547177
 10
210.3654977632
 20
112.4457033128
 10
209.697935055
 20
112.3805647493
 10
209.0303723467
 20
112.4457033128
 10
208.3962832344
 20
112.6378547177
 10
207.8274667961
 20
112.9473825694
 10
207.352440129
 20
113.358766377
 10
206.9950283272
 20
113.8513773457
 10
206.7731518996
 20
114.4005140067
 10
206.6979345632
 20
114.9786408768
 10
206.7731518996
 20
115.5567668156
 10
206.9950283272
 20
116.1059034765
 10
207.352440129
 20
116.5985144452
 10
207.8274667961
 20
117.0098982529
 10
208.3962832344
 20
117.3194261045
 10
209.0303723467
 20
117.5115775094
 10
209.697935055
 20
117.5767170043
  0
LINE
  5
10E
330
1F
100
AcDbEntity
  8
0
  6
HIDDEN
 62
     7
370
     0
100
AcDbLine
 10
188.6979353381
 20
102.9786398412
 30
0.0
 11
188.6979353381
 21
151.4786412717
 31
0.0
  0
SPLINE
  5
10F
330
1F
100
AcDbEntity
  8
0
  6
HIDDEN
 62
     7
370
     0
100
AcDbSpline
210
0.0
220
0.0
230
1.0
 70
     8
 71
     3
 72
    12
 73
     8
 74
     0
 42
0.00000001
 43
0.00000001
 12
1.0
 22
0.0
 32
0.0
 13
1.0
 23
0.0
 33
0.0
 40
0.0
 40
0.0
 40
0.0
 40
0.0
 40
0.5
 40
0.5
 40
0.75
 40
0.75
 40
1.0
 40
1.0
 40
1.0
 40
1.0
 10
187.8814230516317
 20
142.6809085382388
 30
0.0
 10
187.937829230312
 20
142.633086164579
 30
0.0
 10
188.0079921317838
 20
142.5928153176405
 30
0.0
 10
188.126002845173
 20
142.5847694491635
 30
0.0
 10
188.1662086287685
 20
142.5913320475024
 30
0.0
 10
188.2399293255015
 20
142.618714141956
 30
0.0
 10
188.272790047288
 20
142.6384756324863
 30
0.0
 10
188.3029584492173
 20
142.6614083436744
 30
0.0
  0
SPLINE
  5
110
330
1F
100
AcDbEntity
  8
0
  6
HIDDEN
 62
     7
370
     0
100
AcDbSpline
210
0.0
220
0.0
230
1.0
 70
     8
 71
     3
 72
    16
 73
    12
 74
     0
 42
0.00000001
 43
0.00000001
 12
1.0
 22
0.0
 32
0.0
 13
1.0
 23
0.0
 33
0.0
 40
0.0
 40
0.0
 40
0.0
 40
0.0
 40
0.0624999999999986
 40
0.0624999999999986
 40
0.1249999999999973
 40
0.1249999999999973
 40
0.2499999999999947
 40
0.2499999999999947
 40
0.4999999999999999
 40
0.4999999999999999
 40
1.0
 40
1.0
 40
1.0
 40
1.0
 10
188.3029584491721
 20
142.6614083437225
 30
0.0
 10
188.3145713490115
 20
142.6702359667039
 30
0.0
 10
188.327922533444
 20
142.6780703485858
 30
0.0
 10
188.3573223730631
 20
142.6863804746582
 30
0.0
 10
188.3721630976184
 20
142.6858846554232
 30
0.0
 10
188.407996305587
 20
142.6744336844538
 30
0.0
 10
188.4221095134086
 20
142.6577531835952
 30
0.0
 10
188.4566008846275
 20
142.6056324978381
 30
0.0
 10
188.4676849557379
 20
142.5658430038131
 30
0.0
 10
188.4938077735339
 20
142.442506371716
 30
0.0
 10
188.4979353380788
 20
142.3550849612174
 30
0.0
 10
188.4979353380788
 20
142.2663477188991
 30
0.0
  0
LINE
  5
111
330
1F
100
AcDbEntity
  8
0
  6
HIDDEN
 62
     7
370
     0
100
AcDbLine
 10
188.4979353431
 20
112.1909335033
 30
0.0
 11
188.4979353431
 21
142.2663476095
 31
0.0
  0
SPLINE
  5
112
330
1F
100
AcDbEntity
  8
0
  6
HIDDEN
 62
     7
370
     0
100
AcDbSpline
210
0.0
220
0.0
230
1.0
 70
     8
 71
     3
 72
    16
 73
    12
 74
     0
 42
0.00000001
 43
0.00000001
 12
1.0
 22
0.0
 32
0.0
 13
1.0
 23
0.0
 33
0.0
 40
0.0
 40
0.0
 40
0.0
 40
0.0
 40
0.4999999999999997
 40
0.4999999999999997
 40
0.7500000000000019
 40
0.7500000000000019
 40
0.8749999999999979
 40
0.8749999999999979
 40
0.9374999999999989
 40
0.9374999999999989
 40
1.0
 40
1.0
 40
1.0
 40
1.0
 10
188.4979353380788
 20
112.1909333939168
 30
0.0
 10
188.4979353380788
 20
112.101807028728
 30
0.0
 10
188.4937890630009
 20
112.0149456611146
 30
0.0
 10
188.4678234676073
 20
111.8919634146206
 30
0.0
 10
188.4563625622299
 20
111.8511921193893
 30
0.0
 10
188.4220508244555
 20
111.7994877993895
 30
0.0
 10
188.4080260885259
 20
111.7828174327991
 30
0.0
 10
188.3720031254921
 20
111.7713652123424
 30
0.0
 10
188.3572486164024
 20
111.7709121660674
 30
0.0
 10
188.3278964552555
 20
111.7792274872835
 30
0.0
 10
188.3145565807515
 20
111.7870563723618
 30
0.0
 10
188.3029584492031
 20
111.7958727691245
 30
0.0
  0
SPLINE
  5
113
330
1F
100
AcDbEntity
  8
0
  6
HIDDEN
 62
     7
370
     0
100
AcDbSpline
210
0.0
220
0.0
230
1.0
 70
     8
 71
     3
 72
    12
 73
     8
 74
     0
 42
0.00000001
 43
0.00000001
 12
1.0
 22
0.0
 32
0.0
 13
1.0
 23
0.0
 33
0.0
 40
0.0
 40
0.0
 40
0.0
 40
0.0
 40
0.2500000000000004
 40
0.2500000000000004
 40
0.5000000000000008
 40
0.5000000000000008
 40
1.0
 40
1.0
 40
1.0
 40
1.0
 10
188.3029584492102
 20
111.7958727691333
 30
0.0
 10
188.272766607493
 20
111.8188232982312
 30
0.0
 10
188.2394076380784
 20
111.8387927722554
 30
0.0
 10
188.1662703534978
 20
111.8658939058809
 30
0.0
 10
188.1260284808438
 20
111.8724946465263
 30
0.0
 10
188.0083227038753
 20
111.8645257720196
 30
0.0
 10
187.9379122260959
 20
111.8242653138517
 30
0.0
 10
187.8814230516276
 20
111.7763725745736
 30
0.0
  0
SPLINE
  5
114
330
1F
100
AcDbEntity
  8
0
  6
HIDDEN
 62
     7
370
     0
100
AcDbSpline
210
0.0
220
0.0
230
1.0
 70
     8
 71
     3
 72
    12
 73
     8
 74
     0
 42
0.00000001
 43
0.00000001
 12
1.0
 22
0.0
 32
0.0
 13
1.0
 23
0.0
 33
0.0
 40
0.0
 40
0.0
 40
0.0
 40
0.0
 40
0.249999999999999
 40
0.249999999999999
 40
0.499999999999998
 40
0.499999999999998
 40
1.0
 40
1.0
 40
1.0
 40
1.0
 10
187.8814230516273
 20
111.7763725745738
 30
0.0
 10
187.7932691138895
 20
111.7016337667197
 30
0.0
 10
187.7329156892608
 20
111.6106532662373
 30
0.0
 10
187.626653731194
 20
111.4217394434847
 30
0.0
 10
187.5844215646319
 20
111.3252349839441
 30
0.0
 10
187.4733508693147
 20
111.034467229777
 30
0.0
 10
187.4204140928879
 20
110.8388004152332
 30
0.0
 10
187.3766149945191
 20
110.6447339301669
 30
0.0
  0
SPLINE
  5
115
330
1F
100
AcDbEntity
  8
0
  6
HIDDEN
 62
     7
370
     0
100
AcDbSpline
210
0.0
220
0.0
230
1.0
 70
     8
 71
     3
 72
    12
 73
     8
 74
     0
 42
0.00000001
 43
0.00000001
 12
1.0
 22
0.0
 32
0.0
 13
1.0
 23
0.0
 33
0.0
 40
0.0
 40
0.0
 40
0.0
 40
0.0
 40
0.5000000000000011
 40
0.5000000000000011
 40
0.7500000000000006
 40
0.7500000000000006
 40
1.0
 40
1.0
 40
1.0
 40
1.0
 10
187.3766149945191
 20
105.4585596014059
 30
0.0
 10
187.4203615353557
 20
105.4319654307647
 30
0.0
 10
187.4732458905872
 20
105.412205205439
 30
0.0
 10
187.5848129779234
 20
105.3917542152099
 30
0.0
 10
187.6273965744664
 20
105.3864939905534
 30
0.0
 10
187.7323133015481
 20
105.3786111966308
 30
0.0
 10
187.7938469093929
 20
105.3760470714516
 30
0.0
 10
187.8814230516191
 20
105.373846853932
 30
0.0
  0
LINE
  5
116
330
1F
100
AcDbEntity
  8
0
  6
HIDDEN
 62
     7
370
     0
100
AcDbLine
 10
188.4979353431
 20
104.6888200343
 30
0.0
 11
188.4979353431
 21
105.1690453441
 31
0.0
  0
LINE
  5
117
330
1F
100
AcDbEntity
  8
0
  6
HIDDEN
 62
     7
370
     0
100
AcDbLine
 10
188.4979353431
 20
149.2882357687
 30
0.0
 11
188.4979353431
 21
149.7684610785
 31
0.0
  0
SPLINE
  5
118
330
1F
100
AcDbEntity
  8
0
  6
HIDDEN
 62
     7
370
     0
100
AcDbSpline
210
0.0
220
0.0
230
1.0
 70
     8
 71
     3
 72
    12
 73
     8
 74
     0
 42
0.00000001
 43
0.00000001
 12
1.0
 22
0.0
 32
0.0
 13
1.0
 23
0.0
 33
0.0
 40
0.0
 40
0.0
 40
0.0
 40
0.0
 40
0.2500000000000004
 40
0.2500000000000004
 40
0.5000000000000009
 40
0.5000000000000009
 40
1.0
 40
1.0
 40
1.0
 40
1.0
 10
187.8814230516271
 20
149.0834342588839
 30
0.0
 10
187.7927383917707
 20
149.0812061915429
 30
0.0
 10
187.7328199760473
 20
149.0787044075126
 30
0.0
 10
187.6271607487266
 20
149.0707729716765
 30
0.0
 10
187.5845195106116
 20
149.0654808167797
 30
0.0
 10
187.4733301685091
 20
149.0450758762925
 30
0.0
 10
187.4204034863881
 20
149.0253411847057
 30
0.0
 10
187.3766149945191
 20
148.9987215114101
 30
0.0
  0
SPLINE
  5
119
330
1F
100
AcDbEntity
  8
0
  6
HIDDEN
 62
     7
370
     0
100
AcDbSpline
210
0.0
220
0.0
230
1.0
 70
     8
 71
     3
 72
    12
 73
     8
 74
     0
 42
0.00000001
 43
0.00000001
 12
1.0
 22
0.0
 32
0.0
 13
1.0
 23
0.0
 33
0.0
 40
0.0
 40
0.0
 40
0.0
 40
0.0
 40
0.4999999999999982
 40
0.4999999999999982
 40
0.7499999999999991
 40
0.7499999999999991
 40
1.0
 40
1.0
 40
1.0
 40
1.0
 10
187.3766149945176
 20
143.8125471826492
 30
0.0
 10
187.4203764708163
 20
143.6186473946871
 30
0.0
 10
187.4732827864693
 20
143.4227910307503
 30
0.0
 10
187.5849939841167
 20
143.1306488842513
 30
0.0
 10
187.6275134277031
 20
143.0339309475534
 30
0.0
 10
187.7326367702705
 20
142.8472065111289
 30
0.0
 10
187.7942027339882
 20
142.7548558028592
 30
0.0
 10
187.8814230516309
 20
142.6809085382395
 30
0.0
  0
LWPOLYLINE
  5
11A
330
1F
100
AcDbEntity
  8
0
  6
HIDDEN
 62
     7
370
     0
100
AcDbPolyline
 90
       26
 70
   128
 43
0.0
 10
209.697935055
 20
117.2939190418
 10
210.3196599287
 20
117.2258998976
 10
210.9023195458
 20
117.0261153728
 10
211.4093036157
 20
116.7071187646
 10
211.8087553186
 20
116.2889549286
 10
212.0755773736
 20
115.797897406
 10
212.1930022491
 20
115.2648009137
 10
212.1536538703
 20
114.7231632621
 10
211.9600021047
 20
114.2070168406
 10
211.6242193384
 20
113.7487921641
 10
211.1673981649
 20
113.3772829325
 10
210.6182475341
 20
113.1158308835
 10
210.011269222
 20
112.9808645473
 10
209.3846027506
 20
112.9808645473
 10
208.7776244385
 20
113.1158308835
 10
208.228471945
 20
113.3772829325
 10
207.7716526342
 20
113.7487921641
 10
207.4358680052
 20
114.2070168406
 10
207.2422181023
 20
114.7231632621
 10
207.2028678609
 20
115.2648009137
 10
207.320294599
 20
115.797897406
 10
207.5871147913
 20
116.2889549286
 10
207.9865683568
 20
116.7071187646
 10
208.4935505641
 20
117.0261153728
 10
209.0762101812
 20
117.2258998976
 10
209.697935055
 20
117.2939190418
  0
SPLINE
  5
11B
330
1F
100
AcDbEntity
  8
0
  6
HIDDEN
 62
     7
370
     0
100
AcDbSpline
210
0.0
220
0.0
230
1.0
 70
     8
 71
     3
 72
    10
 73
     6
 74
     0
 42
0.00000001
 43
0.00000001
 12
1.0
 22
0.0
 32
0.0
 13
1.0
 23
0.0
 33
0.0
 40
0.0
 40
0.0
 40
0.0
 40
0.0
 40
0.5
 40
0.5
 40
1.0
 40
1.0
 40
1.0
 40
1.0
 10
211.7066450553256
 20
119.9675323254711
 30
0.0
 10
211.6176790953755
 20
119.8656703846723
 30
0.0
 10
211.5423869133464
 20
119.7241835968169
 30
0.0
 10
211.4985425830034
 20
119.3264819220932
 30
0.0
 10
211.533028731658
 20
119.0809213866233
 30
0.0
 10
211.5927973551955
 20
118.8083038989754
 30
0.0
  0
SPLINE
  5
11C
330
1F
100
AcDbEntity
  8
0
  6
HIDDEN
 62
     7
370
     0
100
AcDbSpline
210
0.0
220
0.0
230
1.0
 70
     8
 71
     3
 72
    66
 73
    62
 74
     0
 42
0.00000001
 43
0.00000001
 12
1.0
 22
0.0
 32
0.0
 13
1.0
 23
0.0
 33
0.0
 40
0.0
 40
0.0
 40
0.0
 40
0.0
 40
0.0312499999999999
 40
0.0312499999999999
 40
0.0624999999999998
 40
0.0624999999999998
 40
0.1249999999999997
 40
0.1249999999999997
 40
0.1874999999999995
 40
0.1874999999999995
 40
0.2187499999999993
 40
0.2187499999999993
 40
0.2499999999999991
 40
0.2499999999999991
 40
0.2812499999999989
 40
0.2812499999999989
 40
0.3124999999999987
 40
0.3124999999999987
 40
0.3437499999999986
 40
0.3437499999999986
 40
0.3749999999999983
 40
0.3749999999999983
 40
0.4062499999999982
 40
0.4062499999999982
 40
0.4374999999999979
 40
0.4374999999999979
 40
0.4687499999999978
 40
0.4687499999999978
 40
0.4999999999999976
 40
0.4999999999999976
 40
0.5156249999999976
 40
0.5156249999999976
 40
0.5312499999999974
 40
0.5312499999999974
 40
0.5624999999999977
 40
0.5624999999999977
 40
0.5937499999999978
 40
0.5937499999999978
 40
0.6249999999999979
 40
0.6249999999999979
 40
0.656249999999998
 40
0.656249999999998
 40
0.6874999999999982
 40
0.6874999999999982
 40
0.7187499999999983
 40
0.7187499999999983
 40
0.7499999999999984
 40
0.7499999999999984
 40
0.7812499999999986
 40
0.7812499999999986
 40
0.8124999999999987
 40
0.8124999999999987
 40
0.8437499999999989
 40
0.8437499999999989
 40
0.874999999999999
 40
0.874999999999999
 40
0.9374999999999992
 40
0.9374999999999992
 40
0.9687499999999997
 40
0.9687499999999997
 40
1.0
 40
1.0
 40
1.0
 40
1.0
 10
211.5927973551952
 20
118.8083038989751
 30
0.0
 10
211.6942421798299
 20
118.6835329148738
 30
0.0
 10
211.7777311594654
 20
118.5489157339557
 30
0.0
 10
211.9213337932066
 20
118.2669854436701
 30
0.0
 10
211.9814587008719
 20
118.1186498711706
 30
0.0
 10
212.1292435294663
 20
117.6632251231441
 30
0.0
 10
212.1845559512153
 20
117.3521735363124
 30
0.0
 10
212.2072245998596
 20
116.7140848555882
 30
0.0
 10
212.1722346028007
 20
116.3930761197418
 30
0.0
 10
212.0313836695271
 20
115.9450261929614
 30
0.0
 10
211.9707428903488
 20
115.8044677330998
 30
0.0
 10
211.818841592727
 20
115.543685761454
 30
0.0
 10
211.7287039732184
 20
115.426459356662
 30
0.0
 10
211.5276667008056
 20
115.2282069285032
 30
0.0
 10
211.4142605282701
 20
115.1452397709462
 30
0.0
 10
211.179186262877
 20
115.0206718978078
 30
0.0
 10
211.0548240706535
 20
114.9772113704546
 30
0.0
 10
210.8061959762489
 20
114.9262689963062
 30
0.0
 10
210.6822336139677
 20
114.9182574558583
 30
0.0
 10
210.4361058870325
 20
114.9308242269679
 30
0.0
 10
210.3140829307784
 20
114.9517517299146
 30
0.0
 10
210.0816174931936
 20
115.0159607593861
 30
0.0
 10
209.9699082942765
 20
115.0592998190111
 30
0.0
 10
209.7570782255509
 20
115.1648100950325
 30
0.0
 10
209.6553782345372
 20
115.2275010634977
 30
0.0
 10
209.4716225199053
 20
115.3660801445387
 30
0.0
 10
209.3888610444449
 20
115.4421092155993
 30
0.0
 10
209.2520139201877
 20
115.6042976473059
 30
0.0
 10
209.1988302632174
 20
115.6899881874388
 30
0.0
 10
209.1599869220693
 20
115.8155302715121
 30
0.0
 10
209.1539553158716
 20
115.8572825100657
 30
0.0
 10
209.1574859325641
 20
115.93613415313
 30
0.0
 10
209.1668251018926
 20
115.9736817497963
 30
0.0
 10
209.2162753041325
 20
116.0816831082608
 30
0.0
 10
209.277423893441
 20
116.1459275096865
 30
0.0
 10
209.4302511642445
 20
116.2667471971624
 30
0.0
 10
209.523213484453
 20
116.3248589412364
 30
0.0
 10
209.7237902363236
 20
116.442611269134
 30
0.0
 10
209.8322855942197
 20
116.5026785036069
 30
0.0
 10
210.0615469350207
 20
116.631867846762
 30
0.0
 10
210.1833676450083
 20
116.7015240450634
 30
0.0
 10
210.4293736158806
 20
116.8498978399223
 30
0.0
 10
210.554326456975
 20
116.9289374738105
 30
0.0
 10
210.8067606078879
 20
117.1006110056348
 30
0.0
 10
210.9360279372107
 20
117.1946577305435
 30
0.0
 10
211.185038360946
 20
117.3928142390012
 30
0.0
 10
211.3050725456442
 20
117.496856094754
 30
0.0
 10
211.533755824897
 20
117.7176733708424
 30
0.0
 10
211.6377268323428
 20
117.8300198126576
 30
0.0
 10
211.8228475300947
 20
118.0581251670911
 30
0.0
 10
211.904352950221
 20
118.1749112548759
 30
0.0
 10
212.0358294271792
 20
118.4006317843032
 30
0.0
 10
212.0876320728716
 20
118.512320752253
 30
0.0
 10
212.1615420368709
 20
118.7264800363204
 30
0.0
 10
212.1839318006325
 20
118.828694802888
 30
0.0
 10
212.2115719831651
 20
119.1252945378393
 30
0.0
 10
212.1779611744029
 20
119.3005519968453
 30
0.0
 10
212.0570673813094
 20
119.5526151143662
 30
0.0
 10
212.0047986314557
 20
119.6343111216816
 30
0.0
 10
211.8762190188111
 20
119.7972631476906
 30
0.0
 10
211.7998773527273
 20
119.8788561336371
 30
0.0
 10
211.7066450553258
 20
119.9675323254706
 30
0.0
  0
SPLINE
  5
11D
330
1F
100
AcDbEntity
  8
0
  6
HIDDEN
 62
     7
370
     0
100
AcDbSpline
210
0.0
220
0.0
230
1.0
 70
     8
 71
     3
 72
    62
 73
    58
 74
     0
 42
0.00000001
 43
0.00000001
 12
1.0
 22
0.0
 32
0.0
 13
1.0
 23
0.0
 33
0.0
 40
-0.0312500000000001
 40
-0.0312500000000001
 40
0.0
 40
0.0
 40
0.0312499999999998
 40
0.0312499999999998
 40
0.0624999999999996
 40
0.0624999999999996
 40
0.0937499999999994
 40
0.0937499999999994
 40
0.1249999999999992
 40
0.1249999999999992
 40
0.1874999999999992
 40
0.1874999999999992
 40
0.2187499999999993
 40
0.2187499999999993
 40
0.2499999999999993
 40
0.2499999999999993
 40
0.2812499999999994
 40
0.2812499999999994
 40
0.3124999999999996
 40
0.3124999999999996
 40
0.3749999999999997
 40
0.3749999999999997
 40
0.4062499999999998
 40
0.4062499999999998
 40
0.4374999999999999
 40
0.4374999999999999
 40
0.4687499999999999
 40
0.4687499999999999
 40
0.5
 40
0.5
 40
0.5624999999999994
 40
0.5624999999999994
 40
0.5937499999999996
 40
0.5937499999999996
 40
0.6249999999999996
 40
0.6249999999999996
 40
0.6562499999999996
 40
0.6562499999999996
 40
0.6874999999999996
 40
0.6874999999999996
 40
0.7187499999999997
 40
0.7187499999999997
 40
0.7499999999999997
 40
0.7499999999999997
 40
0.7812499999999997
 40
0.7812499999999997
 40
0.8124999999999997
 40
0.8124999999999997
 40
0.8749999999999998
 40
0.8749999999999998
 40
0.9062499999999998
 40
0.9062499999999998
 40
0.9374999999999998
 40
0.9374999999999998
 40
0.9687499999999999
 40
0.9687499999999999
 40
1.0
 40
1.0
 40
1.03125
 40
1.03125
 10
209.8639791570151
 20
125.0707999494215
 30
0.0
 10
209.5318915191428
 20
125.0707999494215
 30
0.0
 10
209.3687947885657
 20
125.054226305366
 30
0.0
 10
209.0481984836572
 20
124.9897377345375
 30
0.0
 10
208.8889962803508
 20
124.940993709079
 30
0.0
 10
208.5866857786367
 20
124.8154161655091
 30
0.0
 10
208.4434342043923
 20
124.7390418371884
 30
0.0
 10
208.1723233633251
 20
124.5604580467589
 30
0.0
 10
208.0446413681963
 20
124.4578561222724
 30
0.0
 10
207.7006412799811
 20
124.12541919993
 30
0.0
 10
207.5146396513967
 20
123.8621628586334
 30
0.0
 10
207.3271531382151
 20
123.4476185323245
 30
0.0
 10
207.278681193463
 20
123.3038616203466
 30
0.0
 10
207.2141192140493
 20
123.0152461528785
 30
0.0
 10
207.1980407138293
 20
122.8720367318383
 30
0.0
 10
207.1978309849156
 20
122.5880138915998
 30
0.0
 10
207.2142625323266
 20
122.4460478872218
 30
0.0
 10
207.2784312224789
 20
122.1765380989277
 30
0.0
 10
207.3259001852703
 20
122.0476200900255
 30
0.0
 10
207.5150236692245
 20
121.677427117483
 30
0.0
 10
207.6991635615907
 20
121.4622547823724
 30
0.0
 10
208.0458991453947
 20
121.1967509684842
 30
0.0
 10
208.1712161015464
 20
121.1191396545339
 30
0.0
 10
208.4412756043463
 20
120.9838757952011
 30
0.0
 10
208.5876489802275
 20
120.9259056244404
 30
0.0
 10
208.8890668832811
 20
120.834025748796
 30
0.0
 10
209.04491904472
 20
120.7994280929758
 30
0.0
 10
209.3672621060364
 20
120.7525664759619
 30
0.0
 10
209.5332135731059
 20
120.7407241620297
 30
0.0
 10
210.0241349406571
 20
120.7405709735604
 30
0.0
 10
210.3546179277599
 20
120.7878232463706
 30
0.0
 10
210.8065274253584
 20
120.9252961049634
 30
0.0
 10
210.9528246427377
 20
120.9830904098275
 30
0.0
 10
211.223708205294
 20
121.1185652973763
 30
0.0
 10
211.3490647274519
 20
121.1961741031854
 30
0.0
 10
211.5798423689411
 20
121.3726522388256
 30
0.0
 10
211.6846302490111
 20
121.4715364008664
 30
0.0
 10
211.8652938731933
 20
121.6839941411639
 30
0.0
 10
211.9424823703886
 20
121.7984672629951
 30
0.0
 10
212.0693457746798
 20
122.0460093126884
 30
0.0
 10
212.1170071286122
 20
122.1753163582512
 30
0.0
 10
212.1812374956747
 20
122.4439045193841
 30
0.0
 10
212.1978707095538
 20
122.5850500628831
 30
0.0
 10
212.1979995845653
 20
122.8705383859248
 30
0.0
 10
212.1819186054364
 20
123.0138043737483
 30
0.0
 10
212.117951192968
 20
123.3011410973924
 30
0.0
 10
212.0693871427244
 20
123.445909417123
 30
0.0
 10
211.8816563006818
 20
123.8616764968348
 30
0.0
 10
211.6957104631862
 20
124.1248044224868
 30
0.0
 10
211.3519352410818
 20
124.4572485497456
 30
0.0
 10
211.2247599367142
 20
124.5595742054687
 30
0.0
 10
210.9531175274396
 20
124.7386776993309
 30
0.0
 10
210.8099583564925
 20
124.8149922472133
 30
0.0
 10
210.5088314139547
 20
124.9402824811077
 30
0.0
 10
210.3493151852631
 20
124.9893380824218
 30
0.0
 10
210.0274492930313
 20
125.0542199231527
 30
0.0
 10
209.8639791570151
 20
125.0707999494215
 30
0.0
 10
209.5318915191428
 20
125.0707999494215
 30
0.0
  0
LINE
  5
11E
330
1F
100
AcDbEntity
  8
0
  6
HIDDEN
 62
     7
370
     0
100
AcDbLine
 10
188.4979353431
 20
105.1690453441
 30
0.0
 11
188.4979353431
 21
120.2067533285
 31
0.0
  0
LINE
  5
11F
330
1F
100
AcDbEntity
  8
0
  6
HIDDEN
 62
     7
370
     0
100
AcDbLine
 10
188.4979353431
 20
134.2505277843
 30
0.0
 11
188.4979353431
 21
149.2882357687
 31
0.0
  0
LWPOLYLINE
  5
120
330
1F
100
AcDbEntity
  8
0
  6
HIDDEN
 62
     7
370
     0
100
AcDbPolyline
 90
        9
 70
   128
 43
0.0
 10
211.5927965147
 20
118.8083035649
 10
211.7086604936
 20
119.0436376036
 10
211.7973764194
 20
119.259840414
 10
211.8573331041
 20
119.4529738986
 10
211.8874353123
 20
119.6195213833
 10
211.8871372891
 20
119.7564486191
 10
211.8564427597
 20
119.8612624557
 10
211.7959105176
 20
119.9320536815
 10
211.7066451115
 20
119.967532415
  0
CIRCLE
  5
121
330
1F
100
AcDbEntity
  8
0
  6
HIDDEN
 62
     7
370
     0
100
AcDbCircle
 10
173.1979353381
 20
127.2286405564
 30
0.0
 40
4.049999999999983
  0
LINE
  5
122
330
1F
100
AcDbEntity
  8
0
  6
HIDDEN
 62
     7
370
     0
100
AcDbLine
 10
152.22816288
 20
142.5415916146
 30
0.0
 11
152.22816288
 21
111.9156894983
 31
0.0
  0
LINE
  5
123
330
1F
100
AcDbEntity
  8
0
  6
HIDDEN
 62
     7
370
     0
100
AcDbLine
 10
150.69793656
 20
111.0322108269
 30
0.0
 11
150.69793656
 21
143.4250702859
 31
0.0
  0
LINE
  5
124
330
1F
100
AcDbEntity
  8
0
  6
HIDDEN
 62
     7
370
     0
100
AcDbLine
 10
158.7281630141
 20
141.5750510768
 30
0.0
 11
158.7281630141
 21
112.882230036
 31
0.0
  0
LINE
  5
125
330
1F
100
AcDbEntity
  8
0
  6
HIDDEN
 62
     7
370
     0
100
AcDbLine
 10
164.5281643373
 20
141.2286409885
 30
0.0
 11
164.5281643373
 21
113.2286401243
 31
0.0
  0
LINE
  5
126
330
1F
100
AcDbEntity
  8
0
  6
HIDDEN
 62
     7
370
     0
100
AcDbLine
 10
157.1281638694
 20
141.2286409885
 30
0.0
 11
157.1281638694
 21
113.2286401243
 31
0.0
  0
LINE
  5
127
330
1F
100
AcDbEntity
  8
0
  6
HIDDEN
 62
     7
370
     0
100
AcDbLine
 10
158.1281640334
 20
141.2286409885
 30
0.0
 11
158.1281640334
 21
113.2286401243
 31
0.0
  0
SPLINE
  5
128
330
1F
100
AcDbEntity
  8
0
  6
HIDDEN
 62
     7
370
     0
100
AcDbSpline
210
0.0
220
0.0
230
1.0
 70
     8
 71
     3
 72
    10
 73
     6
 74
     0
 42
0.00000001
 43
0.00000001
 12
1.0
 22
0.0
 32
0.0
 13
1.0
 23
0.0
 33
0.0
 40
0.0
 40
0.0
 40
0.0
 40
0.0
 40
0.5
 40
0.5
 40
1.0
 40
1.0
 40
1.0
 40
1.0
 10
177.1979353380788
 20
127.8630694334305
 30
0.0
 10
177.2310827561552
 20
127.6540788324225
 30
0.0
 10
177.2479416015169
 20
127.4425163664009
 30
0.0
 10
177.2479290711692
 20
127.0145276004332
 30
0.0
 10
177.2310141134288
 20
126.8027694960175
 30
0.0
 10
177.1979353380788
 20
126.5942116793855
 30
0.0
  0
LINE
  5
129
330
1F
100
AcDbEntity
  8
0
  6
HIDDEN
 62
     7
370
     0
100
AcDbLine
 10
177.6979353977
 20
140.7286409066
 30
0.0
 11
177.6979353977
 21
113.7286402062
 31
0.0
  0
SPLINE
  5
12A
330
1F
100
AcDbEntity
  8
0
  6
HIDDEN
 62
     7
370
     0
100
AcDbSpline
210
0.0
220
0.0
230
1.0
 70
     8
 71
     3
 72
    10
 73
     6
 74
     0
 42
0.00000001
 43
0.00000001
 12
1.0
 22
0.0
 32
0.0
 13
1.0
 23
0.0
 33
0.0
 40
0.0
 40
0.0
 40
0.0
 40
0.0
 40
0.5
 40
0.5
 40
1.0
 40
1.0
 40
1.0
 40
1.0
 10
177.1979353380788
 20
126.5942116793855
 30
0.0
 10
177.2311243005525
 20
126.8034642129679
 30
0.0
 10
177.2478250768071
 20
127.0142809738669
 30
0.0
 10
177.2480445172518
 20
127.4388132550702
 30
0.0
 10
177.2311648018584
 20
127.6535615438428
 30
0.0
 10
177.1979353380788
 20
127.8630694334305
 30
0.0
  0
SPLINE
  5
12B
330
1F
100
AcDbEntity
  8
0
  6
HIDDEN
 62
     7
370
     0
100
AcDbSpline
210
0.0
220
0.0
230
1.0
 70
     8
 71
     3
 72
    68
 73
    64
 74
     0
 42
0.00000001
 43
0.00000001
 12
1.0
 22
0.0
 32
0.0
 13
1.0
 23
0.0
 33
0.0
 40
0.0
 40
0.0
 40
0.0
 40
0.0
 40
0.0312500000000003
 40
0.0312500000000003
 40
0.0625000000000005
 40
0.0625000000000005
 40
0.0937500000000007
 40
0.0937500000000007
 40
0.1250000000000009
 40
0.1250000000000009
 40
0.1562500000000011
 40
0.1562500000000011
 40
0.1875000000000013
 40
0.1875000000000013
 40
0.2187500000000016
 40
0.2187500000000016
 40
0.2500000000000018
 40
0.2500000000000018
 40
0.2812500000000018
 40
0.2812500000000018
 40
0.3125000000000018
 40
0.3125000000000018
 40
0.3437500000000019
 40
0.3437500000000019
 40
0.3750000000000019
 40
0.3750000000000019
 40
0.4062500000000019
 40
0.4062500000000019
 40
0.4375000000000019
 40
0.4375000000000019
 40
0.4687500000000019
 40
0.4687500000000019
 40
0.5000000000000019
 40
0.5000000000000019
 40
0.562500000000002
 40
0.562500000000002
 40
0.5937500000000019
 40
0.5937500000000019
 40
0.6250000000000018
 40
0.6250000000000018
 40
0.6562500000000018
 40
0.6562500000000018
 40
0.6875000000000017
 40
0.6875000000000017
 40
0.7187500000000016
 40
0.7187500000000016
 40
0.7500000000000014
 40
0.7500000000000014
 40
0.7812500000000013
 40
0.7812500000000013
 40
0.8125000000000011
 40
0.8125000000000011
 40
0.8437500000000009
 40
0.8437500000000009
 40
0.8750000000000008
 40
0.8750000000000008
 40
0.9062500000000006
 40
0.9062500000000006
 40
0.9375000000000003
 40
0.9375000000000003
 40
0.9687500000000002
 40
0.9687500000000002
 40
1.0
 40
1.0
 40
1.0
 40
1.0
 10
177.1979353380788
 20
126.5942116793855
 30
0.0
 10
177.1579203857291
 20
126.3419220765699
 30
0.0
 10
177.0949785843178
 20
126.097923226194
 30
0.0
 10
176.9255919222457
 20
125.6255048371315
 30
0.0
 10
176.8178983596602
 20
125.3950914509716
 30
0.0
 10
176.5626135911224
 20
124.9603868551745
 30
0.0
 10
176.4165743606501
 20
124.7577448885232
 30
0.0
 10
176.0883529240909
 20
124.3807555977654
 30
0.0
 10
175.9041056363159
 20
124.205097644188
 30
0.0
 10
175.5111454690076
 20
123.8948396752417
 30
0.0
 10
175.3018508720484
 20
123.7588944675918
 30
0.0
 10
174.8569654451111
 20
123.525504372186
 30
0.0
 10
174.620167852612
 20
123.4282577657716
 30
0.0
 10
174.1394327836928
 20
123.2815863079002
 30
0.0
 10
173.89318969051
 20
123.2306939629578
 30
0.0
 10
173.3884729105306
 20
123.1751666127223
 30
0.0
 10
173.1322782095941
 20
123.1713417256524
 30
0.0
 10
172.629899460394
 20
123.2107655082968
 30
0.0
 10
172.3806497612104
 20
123.253792957508
 30
0.0
 10
171.8891219637316
 20
123.3874979269593
 30
0.0
 10
171.6538263625058
 20
123.4761677728645
 30
0.0
 10
171.2029124678436
 20
123.6951991366419
 30
0.0
 10
170.9853001173803
 20
123.8272007023255
 30
0.0
 10
170.582092947832
 20
124.1265579833284
 30
0.0
 10
170.3964814553975
 20
124.2931769107663
 30
0.0
 10
170.0564933849951
 20
124.6602883361937
 30
0.0
 10
169.9014204541722
 20
124.8625920817344
 30
0.0
 10
169.6350773775088
 20
125.2866727613285
 30
0.0
 10
169.522093276792
 20
125.5098323667947
 30
0.0
 10
169.3372380198611
 20
125.9791876083888
 30
0.0
 10
169.2660972583577
 20
126.2253981117243
 30
0.0
 10
169.1721368470696
 20
126.7199239380955
 30
0.0
 10
169.1481275171132
 20
126.9708549331875
 30
0.0
 10
169.1475543964406
 20
127.7351003127437
 30
0.0
 10
169.2429535077592
 20
128.2373246147947
 30
0.0
 10
169.5208172999603
 20
128.9448891210671
 30
0.0
 10
169.6339792560409
 20
129.1685953848079
 30
0.0
 10
169.9001104380848
 20
129.5928652961285
 30
0.0
 10
170.0549382122845
 20
129.7951172581845
 30
0.0
 10
170.3951193180723
 20
130.1628279995527
 30
0.0
 10
170.580621775022
 20
130.329444874802
 30
0.0
 10
170.9829155760814
 20
130.6284942535975
 30
0.0
 10
171.2009236243334
 20
130.7609509616259
 30
0.0
 10
171.6515219914836
 20
130.9801573623305
 30
0.0
 10
171.8860709903644
 20
131.0686424923342
 30
0.0
 10
172.3745309839167
 20
131.2021287222728
 30
0.0
 10
172.6267963796306
 20
131.2460704347666
 30
0.0
 10
173.1289770177909
 20
131.2858794312401
 30
0.0
 10
173.3814591351426
 20
131.2825352184266
 30
0.0
 10
173.8893241782121
 20
131.227355898436
 30
0.0
 10
174.1368696513959
 20
131.1763099699667
 30
0.0
 10
174.6178371888666
 20
131.0298995817311
 30
0.0
 10
174.8537970539718
 20
130.9332533769575
 30
0.0
 10
175.3003675034934
 20
130.6993484326444
 30
0.0
 10
175.5100123660669
 20
130.5632234188179
 30
0.0
 10
175.9029990728214
 20
130.2531691544888
 30
0.0
 10
176.0873949766364
 20
130.0775119069137
 30
0.0
 10
176.4159453944968
 20
129.7003719842493
 30
0.0
 10
176.5618874910199
 20
129.4979057789794
 30
0.0
 10
176.8167728462221
 20
129.0643294808461
 30
0.0
 10
176.9250841590304
 20
128.8330376372646
 30
0.0
 10
177.0949191364474
 20
128.3596779571313
 30
0.0
 10
177.1579144975844
 20
128.1153961603105
 30
0.0
 10
177.1979353380788
 20
127.8630694334305
 30
0.0
  0
SPLINE
  5
12C
330
1F
100
AcDbEntity
  8
0
  6
HIDDEN
 62
     7
370
     0
100
AcDbSpline
210
0.0
220
0.0
230
1.0
 70
     8
 71
     3
 72
    68
 73
    64
 74
     0
 42
0.00000001
 43
0.00000001
 12
1.0
 22
0.0
 32
0.0
 13
1.0
 23
0.0
 33
0.0
 40
0.0
 40
0.0
 40
0.0
 40
0.0
 40
0.0312500000000003
 40
0.0312500000000003
 40
0.0625000000000005
 40
0.0625000000000005
 40
0.0937500000000007
 40
0.0937500000000007
 40
0.1250000000000009
 40
0.1250000000000009
 40
0.1562500000000011
 40
0.1562500000000011
 40
0.1875000000000013
 40
0.1875000000000013
 40
0.2187500000000016
 40
0.2187500000000016
 40
0.2500000000000018
 40
0.2500000000000018
 40
0.2812500000000018
 40
0.2812500000000018
 40
0.3125000000000018
 40
0.3125000000000018
 40
0.3437500000000019
 40
0.3437500000000019
 40
0.3750000000000019
 40
0.3750000000000019
 40
0.4062500000000019
 40
0.4062500000000019
 40
0.4375000000000019
 40
0.4375000000000019
 40
0.4687500000000019
 40
0.4687500000000019
 40
0.5000000000000019
 40
0.5000000000000019
 40
0.562500000000002
 40
0.562500000000002
 40
0.5937500000000019
 40
0.5937500000000019
 40
0.6250000000000018
 40
0.6250000000000018
 40
0.6562500000000018
 40
0.6562500000000018
 40
0.6875000000000017
 40
0.6875000000000017
 40
0.7187500000000016
 40
0.7187500000000016
 40
0.7500000000000014
 40
0.7500000000000014
 40
0.7812500000000013
 40
0.7812500000000013
 40
0.8125000000000011
 40
0.8125000000000011
 40
0.8437500000000009
 40
0.8437500000000009
 40
0.8750000000000008
 40
0.8750000000000008
 40
0.9062500000000006
 40
0.9062500000000006
 40
0.9375000000000003
 40
0.9375000000000003
 40
0.9687500000000002
 40
0.9687500000000002
 40
1.0
 40
1.0
 40
1.0
 40
1.0
 10
177.1979353380788
 20
127.8630694334305
 30
0.0
 10
177.1579203857291
 20
128.1153590362461
 30
0.0
 10
177.0949785843178
 20
128.3593578866219
 30
0.0
 10
176.9255919222457
 20
128.8317762756844
 30
0.0
 10
176.8178983596602
 20
129.0621896618443
 30
0.0
 10
176.5626135911224
 20
129.4968942576414
 30
0.0
 10
176.4165743606501
 20
129.6995362242928
 30
0.0
 10
176.0883529240909
 20
130.0765255150506
 30
0.0
 10
175.9041056363159
 20
130.252183468628
 30
0.0
 10
175.5111454690076
 20
130.5624414375742
 30
0.0
 10
175.3018508720484
 20
130.6983866452241
 30
0.0
 10
174.8569654451111
 20
130.9317767406299
 30
0.0
 10
174.620167852612
 20
131.0290233470443
 30
0.0
 10
174.1394327836928
 20
131.1756948049157
 30
0.0
 10
173.89318969051
 20
131.2265871498581
 30
0.0
 10
173.3884729105306
 20
131.2821145000936
 30
0.0
 10
173.1322782095941
 20
131.2859393871636
 30
0.0
 10
172.629899460394
 20
131.2465156045191
 30
0.0
 10
172.3806497612104
 20
131.2034881553079
 30
0.0
 10
171.8891219637316
 20
131.0697831858566
 30
0.0
 10
171.6538263625058
 20
130.9811133399514
 30
0.0
 10
171.2029124678436
 20
130.762081976174
 30
0.0
 10
170.9853001173803
 20
130.6300804104904
 30
0.0
 10
170.582092947832
 20
130.3307231294876
 30
0.0
 10
170.3964814553975
 20
130.1641042020497
 30
0.0
 10
170.0564933849951
 20
129.7969927766222
 30
0.0
 10
169.9014204541722
 20
129.5946890310815
 30
0.0
 10
169.6350773775088
 20
129.1706083514875
 30
0.0
 10
169.522093276792
 20
128.9474487460213
 30
0.0
 10
169.3372380198611
 20
128.4780935044271
 30
0.0
 10
169.2660972583577
 20
128.2318830010916
 30
0.0
 10
169.1721368470696
 20
127.7373571747205
 30
0.0
 10
169.1481275171132
 20
127.4864261796284
 30
0.0
 10
169.1475543964406
 20
126.7221808000722
 30
0.0
 10
169.2429535077592
 20
126.2199564980213
 30
0.0
 10
169.5208172999603
 20
125.5123919917489
 30
0.0
 10
169.6339792560409
 20
125.288685728008
 30
0.0
 10
169.9001104380848
 20
124.8644158166875
 30
0.0
 10
170.0549382122845
 20
124.6621638546314
 30
0.0
 10
170.3951193180723
 20
124.2944531132632
 30
0.0
 10
170.580621775022
 20
124.1278362380139
 30
0.0
 10
170.9829155760814
 20
123.8287868592185
 30
0.0
 10
171.2009236243334
 20
123.6963301511901
 30
0.0
 10
171.6515219914836
 20
123.4771237504854
 30
0.0
 10
171.8860709903644
 20
123.3886386204818
 30
0.0
 10
172.3745309839167
 20
123.2551523905431
 30
0.0
 10
172.6267963796306
 20
123.2112106780493
 30
0.0
 10
173.1289770177909
 20
123.1714016815759
 30
0.0
 10
173.3814591351426
 20
123.1747458943894
 30
0.0
 10
173.8893241782121
 20
123.2299252143799
 30
0.0
 10
174.1368696513959
 20
123.2809711428493
 30
0.0
 10
174.6178371888666
 20
123.4273815310849
 30
0.0
 10
174.8537970539718
 20
123.5240277358585
 30
0.0
 10
175.3003675034934
 20
123.7579326801715
 30
0.0
 10
175.5100123660669
 20
123.894057693998
 30
0.0
 10
175.9029990728214
 20
124.2041119583271
 30
0.0
 10
176.0873949766364
 20
124.3797692059022
 30
0.0
 10
176.4159453944968
 20
124.7569091285666
 30
0.0
 10
176.5618874910199
 20
124.9593753338365
 30
0.0
 10
176.8167728462221
 20
125.3929516319698
 30
0.0
 10
176.9250841590304
 20
125.6242434755514
 30
0.0
 10
177.0949191364474
 20
126.0976031556846
 30
0.0
 10
177.1579144975844
 20
126.3418849525054
 30
0.0
 10
177.1979353380788
 20
126.5942116793854
 30
0.0
  0
LINE
  5
12D
330
1F
100
AcDbEntity
  8
0
  6
HIDDEN
 62
     7
370
     0
100
AcDbLine
 10
178.9479351369
 20
136.228640169
 30
0.0
 11
178.9479351369
 21
118.2286409438
 31
0.0
  0
LINE
  5
12E
330
1F
100
AcDbEntity
  8
0
  6
HIDDEN
 62
     7
370
     0
100
AcDbLine
 10
177.6979353977
 20
116.9786402733
 30
0.0
 11
177.6979353977
 21
137.4786408395
 31
0.0
  0
LINE
  5
12F
330
1F
100
AcDbEntity
  8
0
  6
HIDDEN
 62
     7
370
     0
100
AcDbLine
 10
215.6979360384
 20
118.2286409438
 30
0.0
 11
215.6979360384
 21
136.228640169
 31
0.0
  0
LINE
  5
130
330
1F
100
AcDbEntity
  8
0
  6
HIDDEN
 62
     7
370
     0
100
AcDbLine
 10
237.8629569662
 20
100.8306933344
 30
0.0
 11
246.4611430419
 21
96.3967019469
 31
0.0
  0
LINE
  5
131
330
1F
100
AcDbEntity
  8
0
  6
HIDDEN
 62
     7
370
     0
100
AcDbLine
 10
237.8490802599
 20
100.8572825939
 30
0.0
 11
237.8629569662
 21
100.8306933344
 31
0.0
  0
LINE
  5
132
330
1F
100
AcDbEntity
  8
0
  6
HIDDEN
 62
     7
370
     0
100
AcDbLine
 10
239.4631032599
 20
89.462306887
 30
0.0
 11
232.4388597859
 21
102.9214827121
 31
0.0
  0
LINE
  5
133
330
1F
100
AcDbEntity
  8
0
  6
HIDDEN
 62
     7
370
     0
100
AcDbLine
 10
239.4631032599
 20
89.462306887
 30
0.0
 11
239.4363370491
 21
89.4761090875
 31
0.0
  0
LINE
  5
134
330
1F
100
AcDbEntity
  8
0
  6
HIDDEN
 62
     7
370
     0
100
AcDbLine
 10
239.8022499633
 20
128.7145985533
 30
0.0
 11
244.1712257219
 21
128.7145985533
 31
0.0
  0
ARC
  5
135
330
1F
100
AcDbEntity
  8
0
  6
HIDDEN
 62
     7
370
     0
100
AcDbCircle
 10
233.3322218683
 20
105.2455082519
 30
0.0
 40
1.757222832656346
100
AcDbArc
 50
105.8309575296
 51
164.3087477829
  0
LINE
  5
136
330
1F
100
AcDbEntity
  8
0
  6
HIDDEN
 62
     7
370
     0
100
AcDbLine
 10
232.4491006089
 20
103.1467417032
 30
0.0
 11
239.4667428685
 21
89.7002039254
 31
0.0
  0
LINE
  5
137
330
1F
100
AcDbEntity
  8
0
  6
HIDDEN
 62
     7
370
     0
100
AcDbLine
 10
239.4667428685
 20
89.7002039254
 30
0.0
 11
239.4631032599
 21
89.462306887
 31
0.0
  0
LINE
  5
138
330
1F
100
AcDbEntity
  8
0
  6
HIDDEN
 62
     7
370
     0
100
AcDbLine
 10
237.8629569662
 20
100.8306933344
 30
0.0
 11
237.5994075788
 21
100.8396358938
 31
0.0
  0
LINE
  5
139
330
1F
100
AcDbEntity
  8
0
  6
HIDDEN
 62
     7
370
     0
100
AcDbLine
 10
237.4948647571
 20
101.0399466158
 30
0.0
 11
237.5994075788
 21
100.8396358938
 31
0.0
  0
SPLINE
  5
13A
330
1F
100
AcDbEntity
  8
0
  6
HIDDEN
 62
     7
370
     0
100
AcDbSpline
210
0.0
220
0.0
230
1.0
 70
     8
 71
     3
 72
    10
 73
     6
 74
     0
 42
0.00000001
 43
0.00000001
 12
1.0
 22
0.0
 32
0.0
 13
1.0
 23
0.0
 33
0.0
 40
0.0
 40
0.0
 40
0.0
 40
0.0
 40
0.5000000000000001
 40
0.5000000000000001
 40
1.0
 40
1.0
 40
1.0
 40
1.0
 10
226.8965341763889
 20
123.2924305307051
 30
0.0
 10
226.8751685298063
 20
123.9455554674652
 30
0.0
 10
226.8486013551578
 20
124.6027763468764
 30
0.0
 10
226.8091481670655
 20
125.9155799218525
 30
0.0
 10
226.7966337538843
 20
126.5721709378902
 30
0.0
 10
226.7966337538843
 20
127.228640556408
 30
0.0
  0
LINE
  5
13B
330
1F
100
AcDbEntity
  8
0
  6
HIDDEN
 62
     7
370
     0
100
AcDbLine
 10
226.7966319574
 20
148.143858254
 30
0.0
 11
226.7966319574
 21
127.2286405564
 31
0.0
  0
SPLINE
  5
13C
330
1F
100
AcDbEntity
  8
0
  6
HIDDEN
 62
     7
370
     0
100
AcDbSpline
210
0.0
220
0.0
230
1.0
 70
     8
 71
     3
 72
    12
 73
     8
 74
     0
 42
0.00000001
 43
0.00000001
 12
1.0
 22
0.0
 32
0.0
 13
1.0
 23
0.0
 33
0.0
 40
0.0
 40
0.0
 40
0.0
 40
0.0
 40
0.25
 40
0.25
 40
0.5
 40
0.5
 40
1.0
 40
1.0
 40
1.0
 40
1.0
 10
226.7966337538843
 20
148.143858690492
 30
0.0
 10
226.7467468010836
 20
148.2482270224751
 30
0.0
 10
226.6886005740915
 20
148.3627800697851
 30
0.0
 10
226.5614750586303
 20
148.605244680505
 30
0.0
 10
226.4922645733237
 20
148.7334915915721
 30
0.0
 10
226.2730445505606
 20
149.1312017649227
 30
0.0
 10
226.1119716782385
 20
149.4135643530546
 30
0.0
 10
225.9306083500998
 20
149.7193389309435
 30
0.0
  0
SPLINE
  5
13D
330
1F
100
AcDbEntity
  8
0
  6
HIDDEN
 62
     7
370
     0
100
AcDbSpline
210
0.0
220
0.0
230
1.0
 70
     8
 71
     3
 72
    10
 73
     6
 74
     0
 42
0.00000001
 43
0.00000001
 12
1.0
 22
0.0
 32
0.0
 13
1.0
 23
0.0
 33
0.0
 40
0.0
 40
0.0
 40
0.0
 40
0.0
 40
0.5
 40
0.5
 40
1.0
 40
1.0
 40
1.0
 40
1.0
 10
229.0344548520225
 20
102.8637238253709
 30
0.0
 10
228.4864417560379
 20
106.2398270935292
 30
0.0
 10
228.0079678460331
 20
109.6263348431916
 30
0.0
 10
227.2683461394496
 20
116.4318667646695
 30
0.0
 10
227.009107760136
 20
119.8511766242787
 30
0.0
 10
226.8965341763889
 20
123.2924305307051
 30
0.0
  0
SPLINE
  5
13E
330
1F
100
AcDbEntity
  8
0
  6
HIDDEN
 62
     7
370
     0
100
AcDbSpline
210
0.0
220
0.0
230
1.0
 70
     8
 71
     3
 72
    11
 73
     7
 74
     0
 42
0.00000001
 43
0.00000001
 12
1.0
 22
0.0
 32
0.0
 13
1.0
 23
0.0
 33
0.0
 40
0.0
 40
0.0
 40
0.0
 40
0.0
 40
0.269358807252976
 40
0.53866526768935
 40
0.8113808881894733
 40
1.0
 40
1.0
 40
1.0
 40
1.0
 10
229.2720612836468
 20
97.6959118396769
 30
0.0
 10
228.8584699438981
 20
97.48095770181463
 30
0.0
 10
228.0313676411672
 20
97.05109119997879
 30
0.0
 10
227.2194996851663
 20
96.2427559269974
 30
0.0
 10
226.8396933534126
 20
95.44786926174497
 30
0.0
 10
226.983243604111
 20
94.88241529481888
 30
0.0
 10
227.0419348729241
 20
94.65122649080853
 30
0.0
  0
SPLINE
  5
13F
330
1F
100
AcDbEntity
  8
0
  6
HIDDEN
 62
     7
370
     0
100
AcDbSpline
210
0.0
220
0.0
230
1.0
 70
     8
 71
     3
 72
     8
 73
     4
 74
     0
 42
0.00000001
 43
0.00000001
 12
1.0
 22
0.0
 32
0.0
 13
1.0
 23
0.0
 33
0.0
 40
0.0
 40
0.0
 40
0.0
 40
0.0
 40
1.0
 40
1.0
 40
1.0
 40
1.0
 10
229.0344548520225
 20
102.8637238253708
 30
0.0
 10
229.1153665390661
 20
101.040094676784
 30
0.0
 10
229.1945205805673
 20
99.31891008646807
 30
0.0
 10
229.2720619905479
 20
97.6959125030962
 30
0.0
  0
ELLIPSE
  5
140
330
1F
100
AcDbEntity
  8
0
  6
HIDDEN
 62
     7
370
     0
100
AcDbEllipse
 10
1937.8507093854
 20
107.2729023521
 30
0.0
 11
2131.982216634577
 21
23.00606950227582
 31
0.0
210
0.0
220
0.0
230
1.0
 40
0.0056814896
 41
2.487013114116811
 42
2.487196367346322
  0
LINE
  5
141
330
1F
100
AcDbEntity
  8
0
  6
HIDDEN
 62
     7
370
     0
100
AcDbLine
 10
246.2233242345
 20
96.3923731596
 30
0.0
 11
237.5994075788
 21
100.8396358938
 31
0.0
  0
ARC
  5
142
330
1F
100
AcDbEntity
  8
0
  6
HIDDEN
 62
     7
370
     0
100
AcDbCircle
 10
233.1506154304
 20
105.42550322
 30
0.0
 40
1.750348723775335
100
AcDbArc
 50
41.2429046629
 51
207.5133619631
  0
LINE
  5
143
330
1F
100
AcDbEntity
  8
0
  6
HIDDEN
 62
     7
370
     0
100
AcDbLine
 10
239.1339701367
 20
90.177648306
 30
0.0
 11
239.4667428685
 21
89.7002039254
 31
0.0
  0
LINE
  5
144
330
1F
100
AcDbEntity
  8
0
  6
HIDDEN
 62
     7
370
     0
100
AcDbLine
 10
237.5994075788
 20
100.8396358938
 30
0.0
 11
237.425015564
 21
101.0136013628
 31
0.0
  0
LINE
  5
145
330
1F
100
AcDbEntity
  8
0
  6
HIDDEN
 62
     7
370
     0
100
AcDbLine
 10
237.425015564
 20
101.0136013628
 30
0.0
 11
237.3804797185
 21
101.0989328624
 31
0.0
  0
ELLIPSE
  5
146
330
1F
100
AcDbEntity
  8
0
  6
HIDDEN
 62
     7
370
     0
100
AcDbEllipse
 10
240.6903548102
 20
107.2729023521
 30
0.0
 11
33.87061315251316
 21
-25.62367369971794
 31
0.0
210
0.0
220
0.0
230
1.0
 40
0.1301318729
 41
4.960578952836798
 42
4.973814585254173
  0
LINE
  5
147
330
1F
100
AcDbEntity
  8
0
  6
HIDDEN
 62
     7
370
     0
100
AcDbLine
 10
246.5559144271
 20
95.0796572269
 30
0.0
 11
252.5520038558
 21
83.590522945
 31
0.0
  0
LINE
  5
148
330
1F
100
AcDbEntity
  8
0
  6
HIDDEN
 62
     7
370
     0
100
AcDbLine
 10
252.3333963705
 20
83.3708463014
 30
0.0
 11
252.5520038558
 21
83.590522945
 31
0.0
  0
CIRCLE
  5
149
330
1F
100
AcDbEntity
  8
0
  6
HIDDEN
 62
     7
370
     0
100
AcDbCircle
 10
242.5831039603
 20
93.2820892719
 30
0.0
 40
2.395723798089865
  0
LINE
  5
14A
330
1F
100
AcDbEntity
  8
0
  6
HIDDEN
 62
     7
370
     0
100
AcDbLine
 10
245.7783792866
 20
96.7058619262
 30
0.0
 11
237.425015564
 21
101.0136013628
 31
0.0
  0
LINE
  5
14B
330
1F
100
AcDbEntity
  8
0
  6
HIDDEN
 62
     7
370
     0
100
AcDbLine
 10
231.5982256783
 20
104.6169200689
 30
0.0
 11
239.1339701367
 21
90.177648306
 31
0.0
  0
LINE
  5
14C
330
1F
100
AcDbEntity
  8
0
  6
HIDDEN
 62
     7
370
     0
100
AcDbLine
 10
239.1339701367
 20
90.177648306
 30
0.0
 11
252.3333963705
 21
83.3708463014
 31
0.0
  0
ELLIPSE
  5
14D
330
1F
100
AcDbEntity
  8
0
  6
HIDDEN
 62
     7
370
     0
100
AcDbEllipse
 10
269.5982860274
 20
107.2729023521
 30
0.0
 11
17.28642680684976
 21
19.55165705820393
 31
0.0
210
0.0
220
0.0
230
1.0
 40
0.9914502387
 41
2.709059164917594
 42
2.778646957592289
  0
CIRCLE
  5
14E
330
1F
100
AcDbEntity
  8
0
  6
HIDDEN
 62
     7
370
     0
100
AcDbCircle
 10
242.5305002417
 20
93.3379112494
 30
0.0
 40
1.647264282455234
  0
CIRCLE
  5
14F
330
1F
100
AcDbEntity
  8
0
  6
HIDDEN
 62
     7
370
     0
100
AcDbCircle
 10
241.920128446
 20
93.9467952975
 30
0.0
 40
1.647262674528144
  0
LINE
  5
150
330
1F
100
AcDbEntity
  8
0
  6
HIDDEN
 62
     7
370
     0
100
AcDbLine
 10
252.5520038558
 20
83.590522945
 30
0.0
 11
250.0487279845
 21
86.0836101473
 31
0.0
  0
LINE
  5
151
330
1F
100
AcDbEntity
  8
0
  6
HIDDEN
 62
     7
370
     0
100
AcDbLine
 10
250.1288254512
 20
85.5664504469
 30
0.0
 11
252.3333963705
 21
83.3708463014
 31
0.0
  0
LINE
  5
152
330
1F
100
AcDbEntity
  8
0
  6
HIDDEN
 62
     7
370
     0
100
AcDbLine
 10
152.1979358745
 20
112.1245879457
 30
0.0
 11
152.1979358745
 21
106.0702768863
 31
0.0
  0
LINE
  5
153
330
1F
100
AcDbEntity
  8
0
  6
HIDDEN
 62
     7
370
     0
100
AcDbLine
 10
150.69793656
 20
112.5576007888
 30
0.0
 11
150.69793656
 21
106.9363025726
 31
0.0
  0
LINE
  5
154
330
1F
100
AcDbEntity
  8
0
  6
HIDDEN
 62
     7
370
     0
100
AcDbLine
 10
186.49793535
 20
111.6937199385
 30
0.0
 11
186.49793535
 21
105.2085408718
 31
0.0
  0
SPLINE
  5
155
330
1F
100
AcDbEntity
  8
0
  6
HIDDEN
 62
     7
370
     0
100
AcDbSpline
210
0.0
220
0.0
230
1.0
 70
     8
 71
     3
 72
    16
 73
    12
 74
     0
 42
0.00000001
 43
0.00000001
 12
1.0
 22
0.0
 32
0.0
 13
1.0
 23
0.0
 33
0.0
 40
0.0
 40
0.0
 40
0.0
 40
0.0
 40
0.2500000000000007
 40
0.2500000000000007
 40
0.3750000000000007
 40
0.3750000000000007
 40
0.5000000000000008
 40
0.5000000000000008
 40
0.7500000000000003
 40
0.7500000000000003
 40
1.0
 40
1.0
 40
1.0
 40
1.0
 10
187.3766149945191
 20
110.6447339301669
 30
0.0
 10
187.2153825170347
 20
109.9303397679748
 30
0.0
 10
187.094902677395
 20
109.2769975052661
 30
0.0
 10
186.9725221600817
 20
108.3887422634622
 30
0.0
 10
186.9415444996843
 20
108.1080617271104
 30
0.0
 10
186.8999307620563
 20
107.5790277372704
 30
0.0
 10
186.8896948491235
 20
107.335706758692
 30
0.0
 10
186.8895064520674
 20
106.6676840681787
 30
0.0
 10
186.929651154705
 20
106.3040031587593
 30
0.0
 10
187.0938049096445
 20
105.7441122862109
 30
0.0
 10
187.2153565600541
 20
105.5565909940938
 30
0.0
 10
187.3766149945191
 20
105.4585596014059
 30
0.0
  0
LINE
  5
156
330
1F
100
AcDbEntity
  8
0
  6
HIDDEN
 62
     7
370
     0
100
AcDbLine
 10
186.49793535
 20
149.248740241
 30
0.0
 11
186.49793535
 21
142.7635611743
 31
0.0
  0
LINE
  5
157
330
1F
100
AcDbEntity
  8
0
  6
HIDDEN
 62
     7
370
     0
100
AcDbLine
 10
152.1979358745
 20
148.3870042265
 30
0.0
 11
152.1979358745
 21
142.3326931671
 31
0.0
  0
LINE
  5
158
330
1F
100
AcDbEntity
  8
0
  6
HIDDEN
 62
     7
370
     0
100
AcDbLine
 10
150.69793656
 20
147.5209785403
 30
0.0
 11
150.69793656
 21
141.899680324
 31
0.0
  0
SPLINE
  5
159
330
1F
100
AcDbEntity
  8
0
  6
HIDDEN
 62
     7
370
     0
100
AcDbSpline
210
0.0
220
0.0
230
1.0
 70
     8
 71
     3
 72
    16
 73
    12
 74
     0
 42
0.00000001
 43
0.00000001
 12
1.0
 22
0.0
 32
0.0
 13
1.0
 23
0.0
 33
0.0
 40
0.0
 40
0.0
 40
0.0
 40
0.0
 40
0.2499999999999997
 40
0.2499999999999997
 40
0.3749999999999997
 40
0.3749999999999997
 40
0.4999999999999998
 40
0.4999999999999998
 40
0.7499999999999999
 40
0.7499999999999999
 40
1.0
 40
1.0
 40
1.0
 40
1.0
 10
187.3766149945191
 20
148.9987215114101
 30
0.0
 10
187.2153825170347
 20
148.9007058983554
 30
0.0
 10
187.094902677395
 20
148.7139698666793
 30
0.0
 10
186.9725221600817
 20
148.3009300591204
 30
0.0
 10
186.9415444996843
 20
148.1409295598875
 30
0.0
 10
186.8999307620563
 20
147.7741239087963
 30
0.0
 10
186.8896948491235
 20
147.5707867561723
 30
0.0
 10
186.8895064520674
 20
146.9034994895457
 30
0.0
 10
186.929651154705
 20
146.3826850256576
 30
0.0
 10
187.0938049096446
 20
145.1853260101799
 30
0.0
 10
187.2153565600541
 20
144.5270563558839
 30
0.0
 10
187.3766149945191
 20
143.812547182649
 30
0.0
  0
ELLIPSE
  5
15A
330
1F
100
AcDbEntity
  8
0
  6
HIDDEN
 62
     7
370
     0
100
AcDbEllipse
 10
294.9793623863
 20
122.2286405564
 30
0.0
 11
43.96777171930069
 21
38.52224192788125
 31
0.0
210
0.0
220
0.0
230
1.0
 40
0.2449985756
 41
2.971623861746359
 42
3.002842147607629
  0
ELLIPSE
  5
15B
330
1F
100
AcDbEntity
  8
0
  6
HIDDEN
 62
     7
370
     0
100
AcDbEllipse
 10
232.8158774632
 20
122.2286405564
 30
0.0
 11
-21.62322954444218
 21
39.94698105171337
 31
0.0
210
0.0
220
0.0
230
1.0
 40
0.0952129519
 41
2.265327812219879
 42
2.647463640226074
  0
ELLIPSE
  5
15C
330
1F
100
AcDbEntity
  8
0
  6
HIDDEN
 62
     7
370
     0
100
AcDbEllipse
 10
177.0730996561
 20
122.2286405564
 30
0.0
 11
76.19573140918897
 21
-39.81616843128543
 31
0.0
210
0.0
220
0.0
230
1.0
 40
0.0502718471
 41
0.3155082111630174
 42
0.734497557501961
  0
SPLINE
  5
15D
330
1F
100
AcDbEntity
  8
0
  6
HIDDEN
 62
     7
370
     0
100
AcDbSpline
210
0.0
220
0.0
230
1.0
 70
     8
 71
     3
 72
    10
 73
     6
 74
     0
 42
0.00000001
 43
0.00000001
 12
1.0
 22
0.0
 32
0.0
 13
1.0
 23
0.0
 33
0.0
 40
0.0
 40
0.0
 40
0.0
 40
0.0
 40
0.5
 40
0.5
 40
1.0
 40
1.0
 40
1.0
 40
1.0
 10
240.3624793602577
 20
102.8637238253708
 30
0.0
 10
240.7177077447279
 20
101.3915985433047
 30
0.0
 10
241.1939459919263
 20
100.0176003293041
 30
0.0
 10
242.3316941885622
 20
97.43134730381934
 30
0.0
 10
242.9938015389431
 20
96.21943373177996
 30
0.0
 10
243.7328862658973
 20
95.07965770355035
 30
0.0
  0
SPLINE
  5
15E
330
1F
100
AcDbEntity
  8
0
  6
HIDDEN
 62
     7
370
     0
100
AcDbSpline
210
0.0
220
0.0
230
1.0
 70
     8
 71
     3
 72
    10
 73
     6
 74
     0
 42
0.00000001
 43
0.00000001
 12
1.0
 22
0.0
 32
0.0
 13
1.0
 23
0.0
 33
0.0
 40
0.0
 40
0.0
 40
0.0
 40
0.0
 40
0.5
 40
0.5
 40
1.0
 40
1.0
 40
1.0
 40
1.0
 10
229.2720619905479
 20
97.6959125030962
 30
0.0
 10
230.2934486114623
 20
97.4075395986815
 30
0.0
 10
231.2846738325912
 20
97.0533679843704
 30
0.0
 10
233.2018753416158
 20
96.22312529140213
 30
0.0
 10
234.1081520711369
 20
95.75569446212664
 30
0.0
 10
234.964624797175
 20
95.24562688818736
 30
0.0
  0
LINE
  5
15F
330
1F
100
AcDbEntity
  8
0
  6
HIDDEN
 62
     7
370
     0
100
AcDbLine
 10
150.69793656
 20
141.899680324
 30
0.0
 11
150.69793656
 21
130.1306279619
 31
0.0
  0
LINE
  5
160
330
1F
100
AcDbEntity
  8
0
  6
HIDDEN
 62
     7
370
     0
100
AcDbLine
 10
150.69793656
 20
124.3266531509
 30
0.0
 11
150.69793656
 21
112.5576007888
 31
0.0
  0
LINE
  5
161
330
1F
100
AcDbEntity
  8
0
  6
HIDDEN
 62
     7
370
     0
100
AcDbLine
 10
152.1979358745
 20
123.2634294555
 30
0.0
 11
152.1979358745
 21
112.1245879457
 31
0.0
  0
LINE
  5
162
330
1F
100
AcDbEntity
  8
0
  6
HIDDEN
 62
     7
370
     0
100
AcDbLine
 10
152.1979358745
 20
142.3326931671
 30
0.0
 11
152.1979358745
 21
131.1938516573
 31
0.0
  0
LINE
  5
163
330
1F
100
AcDbEntity
  8
0
  6
HIDDEN
 62
     7
370
     0
100
AcDbLine
 10
188.4979353431
 20
142.2663476095
 30
0.0
 11
188.4979353431
 21
112.1909335033
 31
0.0
  0
LINE
  5
164
330
1F
100
AcDbEntity
  8
0
  6
HIDDEN
 62
     7
370
     0
100
AcDbLine
 10
186.49793535
 20
142.7635611743
 30
0.0
 11
186.49793535
 21
111.6937199385
 31
0.0
  0
SPLINE
  5
165
330
1F
100
AcDbEntity
  8
0
  6
HIDDEN
 62
     7
370
     0
100
AcDbSpline
210
0.0
220
0.0
230
1.0
 70
     8
 71
     3
 72
    24
 73
    20
 74
     0
 42
0.00000001
 43
0.00000001
 12
1.0
 22
0.0
 32
0.0
 13
1.0
 23
0.0
 33
0.0
 40
0.0
 40
0.0
 40
0.0
 40
0.0
 40
0.1250000000000001
 40
0.1250000000000001
 40
0.2500000000000002
 40
0.2500000000000002
 40
0.3750000000000003
 40
0.3750000000000003
 40
0.4375000000000004
 40
0.4375000000000004
 40
0.5000000000000003
 40
0.5000000000000003
 40
0.6250000000000003
 40
0.6250000000000003
 40
0.7500000000000003
 40
0.7500000000000003
 40
0.8750000000000002
 40
0.8750000000000002
 40
1.0
 40
1.0
 40
1.0
 40
1.0
 10
157.1479353380788
 20
123.1426795033087
 30
0.0
 10
157.3857389703539
 20
123.4416866056388
 30
0.0
 10
157.6158246315651
 20
123.7460244569576
 30
0.0
 10
158.050578030175
 20
124.3717579943536
 30
0.0
 10
158.2555108224611
 20
124.6929827216811
 30
0.0
 10
158.6206127729598
 20
125.3649084924138
 30
0.0
 10
158.7824131587513
 20
125.7202237242927
 30
0.0
 10
158.9542733633311
 20
126.2704549456452
 30
0.0
 10
158.9998585549912
 20
126.4568587306256
 30
0.0
 10
159.062333294566
 20
126.8369932327219
 30
0.0
 10
159.0790044403145
 20
127.0326630250078
 30
0.0
 10
159.079525483491
 20
127.6111434036822
 30
0.0
 10
159.0150831826043
 20
127.989055242651
 30
0.0
 10
158.785234089231
 20
128.7310232677494
 30
0.0
 10
158.6267134115679
 20
129.0797387279104
 30
0.0
 10
158.2624790816677
 20
129.7528311256435
 30
0.0
 10
158.0557428416041
 20
130.0777836128852
 30
0.0
 10
157.6178048958637
 20
130.7087074233469
 30
0.0
 10
157.3865321685842
 20
131.0145971636876
 30
0.0
 10
157.1479353380789
 20
131.3146016095071
 30
0.0
  0
LINE
  5
166
330
1F
100
AcDbEntity
  8
0
  6
HIDDEN
 62
     7
370
     0
100
AcDbLine
 10
157.1479339851
 20
123.1426792928
 30
0.0
 11
157.1479339851
 21
131.31460182
 31
0.0
  0
SPLINE
  5
167
330
1F
100
AcDbEntity
  8
0
  6
HIDDEN
 62
     7
370
     0
100
AcDbSpline
210
0.0
220
0.0
230
1.0
 70
     8
 71
     3
 72
     8
 73
     4
 74
     0
 42
0.00000001
 43
0.00000001
 12
1.0
 22
0.0
 32
0.0
 13
1.0
 23
0.0
 33
0.0
 40
0.0000249638557296
 40
0.0000249638557296
 40
0.0000249638557296
 40
0.0000249638557296
 40
0.0049776420541172
 40
0.0049776420541172
 40
0.0049776420541172
 40
0.0049776420541172
 10
152.1979353380788
 20
123.2634296595714
 30
0.0
 10
153.8479115725883
 20
123.2221504218032
 30
0.0
 10
155.4979128923333
 20
123.1819287405637
 30
0.0
 10
157.1479353380788
 20
123.1426795033087
 30
0.0
  0
SPLINE
  5
168
330
1F
100
AcDbEntity
  8
0
  6
HIDDEN
 62
     7
370
     0
100
AcDbSpline
210
0.0
220
0.0
230
1.0
 70
     8
 71
     3
 72
     8
 73
     4
 74
     0
 42
0.00000001
 43
0.00000001
 12
1.0
 22
0.0
 32
0.0
 13
1.0
 23
0.0
 33
0.0
 40
0.0000249631533153
 40
0.0000249631533153
 40
0.0000249631533153
 40
0.0000249631533153
 40
0.0049776413517028
 40
0.0049776413517028
 40
0.0049776413517028
 40
0.0049776413517028
 10
157.1479353380788
 20
131.3146016095072
 30
0.0
 10
155.4979128923333
 20
131.2753523722522
 30
0.0
 10
153.8479115725883
 20
131.2351306910127
 30
0.0
 10
152.1979353380788
 20
131.1938514532445
 30
0.0
  0
SPLINE
  5
169
330
1F
100
AcDbEntity
  8
0
  6
HIDDEN
 62
     7
370
     0
100
AcDbSpline
210
0.0
220
0.0
230
1.0
 70
     8
 71
     3
 72
     8
 73
     4
 74
     0
 42
0.00000001
 43
0.00000001
 12
1.0
 22
0.0
 32
0.0
 13
1.0
 23
0.0
 33
0.0
 40
0.0
 40
0.0
 40
0.0
 40
0.0
 40
1.0
 40
1.0
 40
1.0
 40
1.0
 10
150.6979353380765
 20
124.3266532234276
 30
0.0
 10
151.1646959494543
 20
123.9112899778046
 30
0.0
 10
151.6704434962344
 20
123.5666995485
 30
0.0
 10
152.1979353380788
 20
123.2634296595714
 30
0.0
  0
SPLINE
  5
16A
330
1F
100
AcDbEntity
  8
0
  6
HIDDEN
 62
     7
370
     0
100
AcDbSpline
210
0.0
220
0.0
230
1.0
 70
     8
 71
     3
 72
     8
 73
     4
 74
     0
 42
0.00000001
 43
0.00000001
 12
1.0
 22
0.0
 32
0.0
 13
1.0
 23
0.0
 33
0.0
 40
0.0
 40
0.0
 40
0.0
 40
0.0
 40
1.0
 40
1.0
 40
1.0
 40
1.0
 10
152.1979353380788
 20
131.1938514532445
 30
0.0
 10
151.6704434962353
 20
130.8905815643164
 30
0.0
 10
151.164695949456
 20
130.5459911350125
 30
0.0
 10
150.6979353380788
 20
130.1306278893903
 30
0.0
  0
LINE
  5
16B
330
1F
100
AcDbEntity
  8
0
  6
HIDDEN
 62
     7
370
     0
100
AcDbLine
 10
150.69793656
 20
124.3266531509
 30
0.0
 11
150.69793656
 21
130.1306279619
 31
0.0
  0
SPLINE
  5
16C
330
1F
100
AcDbEntity
  8
0
  6
HIDDEN
 62
     7
370
     0
100
AcDbSpline
210
0.0
220
0.0
230
1.0
 70
     8
 71
     3
 72
    72
 73
    68
 74
     0
 42
0.00000001
 43
0.00000001
 12
1.0
 22
0.0
 32
0.0
 13
1.0
 23
0.0
 33
0.0
 40
-0.0312500000000001
 40
-0.0312500000000001
 40
0.0
 40
0.0
 40
0.03125
 40
0.03125
 40
0.0624999999999999
 40
0.0624999999999999
 40
0.0937499999999999
 40
0.0937499999999999
 40
0.1249999999999998
 40
0.1249999999999998
 40
0.1562499999999998
 40
0.1562499999999998
 40
0.1874999999999997
 40
0.1874999999999997
 40
0.2187499999999997
 40
0.2187499999999997
 40
0.2499999999999996
 40
0.2499999999999996
 40
0.2812499999999996
 40
0.2812499999999996
 40
0.3124999999999995
 40
0.3124999999999995
 40
0.3437499999999994
 40
0.3437499999999994
 40
0.3749999999999994
 40
0.3749999999999994
 40
0.3906249999999994
 40
0.3906249999999994
 40
0.4062499999999994
 40
0.4062499999999994
 40
0.4374999999999994
 40
0.4374999999999994
 40
0.4687499999999994
 40
0.4687499999999994
 40
0.4999999999999994
 40
0.4999999999999994
 40
0.5312499999999996
 40
0.5312499999999996
 40
0.5624999999999996
 40
0.5624999999999996
 40
0.5937499999999997
 40
0.5937499999999997
 40
0.6249999999999997
 40
0.6249999999999997
 40
0.6562499999999998
 40
0.6562499999999998
 40
0.6874999999999998
 40
0.6874999999999998
 40
0.7187499999999999
 40
0.7187499999999999
 40
0.7499999999999999
 40
0.7499999999999999
 40
0.78125
 40
0.78125
 40
0.8125000000000001
 40
0.8125000000000001
 40
0.84375
 40
0.84375
 40
0.875
 40
0.875
 40
0.9062499999999999
 40
0.9062499999999999
 40
0.9375
 40
0.9375
 40
0.9687499999999999
 40
0.9687499999999999
 40
1.0
 40
1.0
 40
1.03125
 40
1.03125
 10
169.821881656904
 20
129.6694742062228
 30
0.0
 10
170.1963118767779
 20
130.0798300067079
 30
0.0
 10
170.4011644780435
 20
130.2634790893665
 30
0.0
 10
170.8440326748905
 20
130.5904339928617
 30
0.0
 10
171.0839880922088
 20
130.7342122010416
 30
0.0
 10
171.5795990749833
 20
130.9717295564875
 30
0.0
 10
171.8368653661378
 20
131.0670491213852
 30
0.0
 10
172.3702191339748
 20
131.2111346540197
 30
0.0
 10
172.6444992738731
 20
131.2588706609893
 30
0.0
 10
173.1909278084527
 20
131.3044528015231
 30
0.0
 10
173.4655041269205
 20
131.3030190414509
 30
0.0
 10
174.0174713011912
 20
131.25010573336
 30
0.0
 10
174.2880882637629
 20
131.1991360071558
 30
0.0
 10
174.8143734348421
 20
131.0505293802123
 30
0.0
 10
175.0720049982496
 20
130.9522440094551
 30
0.0
 10
175.5679311629231
 20
130.7079906502694
 30
0.0
 10
175.8009148407148
 20
130.5649105192472
 30
0.0
 10
176.2372481160398
 20
130.2370519687784
 30
0.0
 10
176.4425293698981
 20
130.0500583310782
 30
0.0
 10
176.8105636677583
 20
129.6406277112552
 30
0.0
 10
176.9720786577435
 20
129.4205222702707
 30
0.0
 10
177.2492363408906
 20
128.9487721888327
 30
0.0
 10
177.3656305203243
 20
128.6937556623915
 30
0.0
 10
177.5389045569709
 20
128.1725178389945
 30
0.0
 10
177.5973511114367
 20
127.9050337212135
 30
0.0
 10
177.6412158369126
 20
127.4931180618811
 30
0.0
 10
177.6483960535419
 20
127.3534107588056
 30
0.0
 10
177.6474280262465
 20
127.0772877033431
 30
0.0
 10
177.6394252368328
 20
126.9401111370124
 30
0.0
 10
177.5933525049205
 20
126.5311776957491
 30
0.0
 10
177.5324176724684
 20
126.2592514467449
 30
0.0
 10
177.3542975160599
 20
125.7360709302898
 30
0.0
 10
177.2387296047175
 20
125.4873589299264
 30
0.0
 10
176.9568828207782
 20
125.0144744049344
 30
0.0
 10
176.7900128753635
 20
124.7908651877023
 30
0.0
 10
176.4206873205648
 20
124.3862077995147
 30
0.0
 10
176.2159021642673
 20
124.2017942113451
 30
0.0
 10
175.7712492167511
 20
123.8727681764508
 30
0.0
 10
175.5364000872403
 20
123.7316001004625
 30
0.0
 10
175.0429903247633
 20
123.493190571682
 30
0.0
 10
174.7817033710586
 20
123.3954080152772
 30
0.0
 10
174.2509650905459
 20
123.250079987087
 30
0.0
 10
173.9813253896487
 20
123.2017905968921
 30
0.0
 10
173.4335740499035
 20
123.1533753731054
 30
0.0
 10
173.1536700080449
 20
123.1538335587414
 30
0.0
 10
172.6065921002099
 20
123.2039854143436
 30
0.0
 10
172.3369869955224
 20
123.2531589813756
 30
0.0
 10
171.8058322388664
 20
123.4008335046826
 30
0.0
 10
171.5445374224228
 20
123.4999886690482
 30
0.0
 10
171.0522234442474
 20
123.7410014395249
 30
0.0
 10
170.8182665686688
 20
123.8834895641497
 30
0.0
 10
170.3760979481384
 20
124.2149769931346
 30
0.0
 10
170.1709044170267
 20
124.402410621123
 30
0.0
 10
169.8052102006687
 20
124.8093143401734
 30
0.0
 10
169.6424395782803
 20
125.0304934148424
 30
0.0
 10
169.3614871475148
 20
125.5102407440576
 30
0.0
 10
169.2482832952413
 20
125.7602527108679
 30
0.0
 10
169.0756745711024
 20
126.2803279208883
 30
0.0
 10
169.016068288426
 20
126.5540593855181
 30
0.0
 10
168.9581765183561
 20
127.1026770354166
 30
0.0
 10
168.9589660572161
 20
127.3770168993082
 30
0.0
 10
169.0201565328325
 20
127.9257588504471
 30
0.0
 10
169.0812852565665
 20
128.1988241643043
 30
0.0
 10
169.2573649421963
 20
128.7189894130727
 30
0.0
 10
169.3736955371863
 20
128.9713085466316
 30
0.0
 10
169.656896766927
 20
129.4477128880386
 30
0.0
 10
169.821881656904
 20
129.6694742062228
 30
0.0
 10
170.1963118767779
 20
130.0798300067079
 30
0.0
  0
CIRCLE
  5
16D
330
1F
100
AcDbEntity
  8
0
  6
HIDDEN
 62
     7
370
     0
100
AcDbCircle
 10
173.1979353381
 20
127.2286405564
 30
0.0
 40
4.049999999999983
  0
ELLIPSE
  5
16E
330
1F
100
AcDbEntity
  8
0
  6
HIDDEN
 62
     7
370
     0
100
AcDbEllipse
 10
243.7398774704
 20
127.2286405564
 30
0.0
 11
-0.2789549185387443
 21
31.99998167218419
 31
0.0
210
0.0
220
0.0
230
1.0
 40
0.1227753716
 41
1.52327315965812
 42
1.569726051784926
  0
ELLIPSE
  5
16F
330
1F
100
AcDbEntity
  8
0
  6
HIDDEN
 62
     7
370
     0
100
AcDbEllipse
 10
244.7945397059
 20
127.2286405564
 30
0.0
 11
-23.17721451355467
 21
31.94526777294584
 31
0.0
210
0.0
220
0.0
230
1.0
 40
0.0807169094
 41
0.7999685956788104
 42
1.465847795757687
  0
CIRCLE
  5
170
330
1F
100
AcDbEntity
  8
0
  6
HIDDEN
 62
     7
370
     0
100
AcDbCircle
 10
200.6979353381
 20
127.2286405564
 30
0.0
 40
2.0
  0
LINE
  5
171
330
1F
100
AcDbEntity
  8
0
  6
HIDDEN
 62
     7
370
     0
100
AcDbLine
 10
229.0344548178
 20
102.8637239487
 30
0.0
 11
240.3624777449
 21
102.8637239487
 31
0.0
  0
ELLIPSE
  5
172
330
1F
100
AcDbEntity
  8
0
  6
HIDDEN
 62
     7
370
     0
100
AcDbEllipse
 10
266.1783167893
 20
107.2729023521
 30
0.0
 11
26.19525546193006
 21
-7.105427357601002E-14
 31
0.0
210
7.412836503265367E-31
220
2.732856676000384E-16
230
1.0
 40
0.9925461516
 41
3.150114381959565
 42
3.311999979758269
  0
LINE
  5
173
330
1F
100
AcDbEntity
  8
0
  6
HIDDEN
 62
     7
370
     0
100
AcDbLine
 10
239.8107697023
 20
127.2286405564
 30
0.0
 11
239.9840143276
 21
107.051339537
 31
0.0
  0
LINE
  5
174
330
1F
100
AcDbEntity
  8
0
  6
HIDDEN
 62
     7
370
     0
100
AcDbLine
 10
206.6979345632
 20
114.9786408768
 30
0.0
 11
206.6979345632
 21
111.4787222595
 31
0.0
  0
LINE
  5
175
330
1F
100
AcDbEntity
  8
0
  6
HIDDEN
 62
     7
370
     0
100
AcDbLine
 10
212.6979355467
 20
111.4804321677
 30
0.0
 11
212.6979355467
 21
114.9786408768
 31
0.0
  0
LINE
  5
176
330
1F
100
AcDbEntity
  8
0
  6
HIDDEN
 62
     7
370
     0
100
AcDbLine
 10
188.6979353381
 20
102.9786398412
 30
0.0
 11
188.7908285585
 21
103.07153368
 31
0.0
  0
LINE
  5
177
330
1F
100
AcDbEntity
  8
0
  6
HIDDEN
 62
     7
370
     0
100
AcDbLine
 10
188.7908285585
 20
151.3857474328
 30
0.0
 11
188.6979353381
 21
151.4786412717
 31
0.0
  0
ARC
  5
178
330
1F
100
AcDbEntity
  8
0
  6
HIDDEN
 62
     7
370
     0
100
AcDbCircle
 10
188.0837217757
 20
103.7786405564
 30
0.0
 40
1.000000000000008
100
AcDbArc
 50
315.0
 51
0.0
  0
ARC
  5
179
330
1F
100
AcDbEntity
  8
0
  6
HIDDEN
 62
     7
370
     0
100
AcDbCircle
 10
188.0837217757
 20
103.7786405564
 30
0.0
 40
1.0
100
AcDbArc
 50
0.0
 51
52.1052014664
  0
ARC
  5
17A
330
1F
100
AcDbEntity
  8
0
  6
HIDDEN
 62
     7
370
     0
100
AcDbCircle
 10
188.0837217757
 20
150.6786405564
 30
0.0
 40
1.000000000000028
100
AcDbArc
 50
351.8087250651
 51
45.0
  0
ARC
  5
17B
330
1F
100
AcDbEntity
  8
0
  6
HIDDEN
 62
     7
370
     0
100
AcDbCircle
 10
188.0837217757
 20
150.6786405564
 30
0.0
 40
1.000000000000002
100
AcDbArc
 50
307.8947985336
 51
351.8087250651
  0
LINE
  5
17C
330
1F
100
AcDbEntity
  8
0
  6
HIDDEN
 62
     7
370
     0
100
AcDbLine
 10
189.0837217739
 20
103.7786403448
 30
0.0
 11
189.0837217739
 21
150.678640768
 31
0.0
  0
LINE
  5
17D
330
1F
100
AcDbEntity
  8
0
  6
HIDDEN
 62
     7
370
     0
100
AcDbLine
 10
189.0837217739
 20
103.7786403448
 30
0.0
 11
189.0837217739
 21
150.678640768
 31
0.0
  0
LINE
  5
17E
330
1F
100
AcDbEntity
  8
0
  6
HIDDEN
 62
     7
370
     0
100
AcDbLine
 10
207.1979355765
 20
122.732605856
 30
0.0
 11
207.1979355765
 21
115.1288557575
 31
0.0
  0
LINE
  5
17F
330
1F
100
AcDbEntity
  8
0
  6
HIDDEN
 62
     7
370
     0
100
AcDbLine
 10
212.1979345334
 20
119.026953891
 30
0.0
 11
212.1979345334
 21
122.7309662626
 31
0.0
  0
LINE
  5
180
330
1F
100
AcDbEntity
  8
0
  6
HIDDEN
 62
     7
370
     0
100
AcDbLine
 10
212.1979345334
 20
115.1288557575
 30
0.0
 11
212.1979345334
 21
116.9188372568
 31
0.0
  0
LINE
  5
181
330
1F
100
AcDbEntity
  8
0
  6
HIDDEN
 62
     7
370
     0
100
AcDbLine
 10
209.51657861
 20
115.3333639503
 30
0.0
 11
218.4195791138
 21
108.0101119132
 31
0.0
  0
LINE
  5
182
330
1F
100
AcDbEntity
  8
0
  6
HIDDEN
 62
     7
370
     0
100
AcDbLine
 10
218.2125759078
 20
114.6545732171
 30
0.0
 11
211.8064270121
 21
119.9240154364
 31
0.0
  0
LINE
  5
183
330
1F
100
AcDbEntity
  8
0
  6
HIDDEN
 62
     7
370
     0
100
AcDbLine
 10
150.69793656
 20
111.0322108269
 30
0.0
 11
152.22816288
 21
111.9156894983
 31
0.0
  0
LINE
  5
184
330
1F
100
AcDbEntity
  8
0
  6
HIDDEN
 62
     7
370
     0
100
AcDbLine
 10
152.22816288
 20
142.5415916146
 30
0.0
 11
150.69793656
 21
143.4250702859
 31
0.0
  0
LINE
  5
185
330
1F
100
AcDbEntity
  8
0
  6
HIDDEN
 62
     7
370
     0
100
AcDbLine
 10
160.6979344738
 20
111.2286397964
 30
0.0
 11
161.6997358156
 21
111.2286397964
 31
0.0
  0
LINE
  5
186
330
1F
100
AcDbEntity
  8
0
  6
HIDDEN
 62
     7
370
     0
100
AcDbLine
 10
161.6997358156
 20
143.2286413164
 30
0.0
 11
160.6979344738
 21
143.2286413164
 31
0.0
  0
ARC
  5
187
330
1F
100
AcDbEntity
  8
0
  6
HIDDEN
 62
     7
370
     0
100
AcDbCircle
 10
160.6979353381
 20
113.2286405564
 30
0.0
 40
2.0
100
AcDbArc
 50
189.9742217944
 51
270.0
  0
ARC
  5
188
330
1F
100
AcDbEntity
  8
0
  6
HIDDEN
 62
     7
370
     0
100
AcDbCircle
 10
160.6979353381
 20
141.2286405564
 30
0.0
 40
2.0
100
AcDbArc
 50
90.0
 51
170.0257782056
  0
ARC
  5
189
330
1F
100
AcDbEntity
  8
0
  6
HIDDEN
 62
     7
370
     0
100
AcDbCircle
 10
161.699736653
 20
113.2286405564
 30
0.0
 40
2.000000000000006
100
AcDbArc
 50
270.0
 51
315.0
  0
ARC
  5
18A
330
1F
100
AcDbEntity
  8
0
  6
HIDDEN
 62
     7
370
     0
100
AcDbCircle
 10
161.699736653
 20
141.2286405564
 30
0.0
 40
2.000000000000016
100
AcDbArc
 50
45.0
 51
90.0
  0
LINE
  5
18B
330
1F
100
AcDbEntity
  8
0
  6
HIDDEN
 62
     7
370
     0
100
AcDbLine
 10
163.1139510078
 20
111.8144267947
 30
0.0
 11
164.5281643373
 21
113.2286401243
 31
0.0
  0
LINE
  5
18C
330
1F
100
AcDbEntity
  8
0
  6
HIDDEN
 62
     7
370
     0
100
AcDbLine
 10
164.5281643373
 20
141.2286409885
 30
0.0
 11
163.1139510078
 21
142.6428543181
 31
0.0
  0
LINE
  5
18D
330
1F
100
AcDbEntity
  8
0
  6
HIDDEN
 62
     7
370
     0
100
AcDbLine
 10
152.22816288
 20
111.9156894983
 30
0.0
 11
157.1281638694
 21
113.2286401243
 31
0.0
  0
LINE
  5
18E
330
1F
100
AcDbEntity
  8
0
  6
HIDDEN
 62
     7
370
     0
100
AcDbLine
 10
157.1281638694
 20
141.2286409885
 30
0.0
 11
152.22816288
 21
142.5415916146
 31
0.0
  0
LINE
  5
18F
330
1F
100
AcDbEntity
  8
0
  6
HIDDEN
 62
     7
370
     0
100
AcDbLine
 10
158.7281630141
 20
141.5750510768
 30
0.0
 11
158.1281640334
 21
141.2286409885
 31
0.0
  0
LINE
  5
190
330
1F
100
AcDbEntity
  8
0
  6
HIDDEN
 62
     7
370
     0
100
AcDbLine
 10
158.1281640334
 20
113.2286401243
 30
0.0
 11
158.7281630141
 21
112.882230036
 31
0.0
  0
ARC
  5
191
330
1F
100
AcDbEntity
  8
0
  6
HIDDEN
 62
     7
370
     0
100
AcDbCircle
 10
177.1979353381
 20
113.7286405564
 30
0.0
 40
0.5
100
AcDbArc
 50
270.0
 51
0.0
  0
ARC
  5
192
330
1F
100
AcDbEntity
  8
0
  6
HIDDEN
 62
     7
370
     0
100
AcDbCircle
 10
177.1979353381
 20
140.7286405564
 30
0.0
 40
0.5
100
AcDbArc
 50
0.0
 51
90.0
  0
LINE
  5
193
330
1F
100
AcDbEntity
  8
0
  6
HIDDEN
 62
     7
370
     0
100
AcDbLine
 10
164.5281643373
 20
113.2286401243
 30
0.0
 11
177.1979353157
 21
113.2286401243
 31
0.0
  0
LINE
  5
194
330
1F
100
AcDbEntity
  8
0
  6
HIDDEN
 62
     7
370
     0
100
AcDbLine
 10
177.1979353157
 20
141.2286409885
 30
0.0
 11
164.5281643373
 21
141.2286409885
 31
0.0
  0
LINE
  5
195
330
1F
100
AcDbEntity
  8
0
  6
HIDDEN
 62
     7
370
     0
100
AcDbLine
 10
157.1281638694
 20
113.2286401243
 30
0.0
 11
158.1281640334
 21
113.2286401243
 31
0.0
  0
LINE
  5
196
330
1F
100
AcDbEntity
  8
0
  6
HIDDEN
 62
     7
370
     0
100
AcDbLine
 10
158.1281640334
 20
141.2286409885
 30
0.0
 11
157.1281638694
 21
141.2286409885
 31
0.0
  0
LINE
  5
197
330
1F
100
AcDbEntity
  8
0
  6
HIDDEN
 62
     7
370
     0
100
AcDbLine
 10
177.6979353977
 20
116.9786402733
 30
0.0
 11
178.9479351369
 21
118.2286409438
 31
0.0
  0
LINE
  5
198
330
1F
100
AcDbEntity
  8
0
  6
HIDDEN
 62
     7
370
     0
100
AcDbLine
 10
178.9479351369
 20
136.228640169
 30
0.0
 11
177.6979353977
 21
137.4786408395
 31
0.0
  0
LINE
  5
199
330
1F
100
AcDbEntity
  8
0
  6
HIDDEN
 62
     7
370
     0
100
AcDbLine
 10
215.6979360384
 20
136.228640169
 30
0.0
 11
178.9479351369
 21
136.228640169
 31
0.0
  0
LINE
  5
19A
330
1F
100
AcDbEntity
  8
0
  6
HIDDEN
 62
     7
370
     0
100
AcDbLine
 10
178.9479351369
 20
118.2286409438
 30
0.0
 11
215.6979360384
 21
118.2286409438
 31
0.0
  0
LINE
  5
19B
330
1F
100
AcDbEntity
  8
0
  6
HIDDEN
 62
     7
370
     0
100
AcDbLine
 10
215.6979360384
 20
118.2286409438
 30
0.0
 11
221.105681057
 21
127.2286405564
 31
0.0
  0
LINE
  5
19C
330
1F
100
AcDbEntity
  8
0
  6
HIDDEN
 62
     7
370
     0
100
AcDbLine
 10
221.105681057
 20
127.2286405564
 30
0.0
 11
215.6979360384
 21
136.228640169
 31
0.0
  0
LINE
  5
19D
330
1F
100
AcDbEntity
  8
0
  6
HIDDEN
 62
     7
370
     0
100
AcDbLine
 10
232.897036965
 20
106.9504027963
 30
0.0
 11
232.8103606356
 21
106.9234614969
 31
0.0
  0
LINE
  5
19E
330
1F
100
AcDbEntity
  8
0
  6
HIDDEN
 62
     7
370
     0
100
AcDbLine
 10
231.6530023468
 20
105.7632757128
 30
0.0
 11
231.6262733889
 21
105.6765323282
 31
0.0
  0
LINE
  5
19F
330
1F
100
AcDbEntity
  8
0
  6
HIDDEN
 62
     7
370
     0
100
AcDbLine
 10
234.5570300472
 20
106.4955448509
 30
0.0
 11
234.3826417578
 21
106.6695103199
 31
0.0
  0
LINE
  5
1A0
330
1F
100
AcDbEntity
  8
0
  6
HIDDEN
 62
     7
370
     0
100
AcDbLine
 10
243.6945189489
 20
94.513919741
 30
0.0
 11
243.0841487599
 21
95.1227998138
 31
0.0
  0
LINE
  5
1A1
330
1F
100
AcDbEntity
  8
0
  6
HIDDEN
 62
     7
370
     0
100
AcDbLine
 10
240.7535438192
 20
92.7865063549
 30
0.0
 11
241.3639140082
 21
92.1776225568
 31
0.0
  0
LINE
  5
1A2
330
1F
100
AcDbEntity
  8
VERMASSUNG
  6
CENTERX2
100
AcDbLine
 10
148.2909069557
 20
127.2286405564
 30
0.0
 11
253.6979353381
 21
127.2286405564
 31
0.0
  0
LINE
  5
1A3
330
1F
100
AcDbEntity
  8
VERMASSUNG
  6
CENTERX2
100
AcDbLine
 10
253.6979353381
 20
82.2286405564
 30
0.0
 11
253.6979353381
 21
127.2286405564
 31
0.0
  0
LINE
  5
1A4
330
1F
100
AcDbEntity
  8
VERMASSUNG
  6
CENTERX2
100
AcDbLine
 10
253.6979353381
 20
82.2286405564
 30
0.0
 11
257.7024275726
 21
82.2286405564
 31
0.0
  0
LINE
  5
1A5
330
1F
100
AcDbEntity
  8
VERMASSUNG
100
AcDbLine
 10
253.6979353381
 20
82.2286405564
 30
0.0
 11
253.6979353381
 21
80.2437818113
 31
0.0
  0
DIMENSION
  5
1A6
330
1F
100
AcDbEntity
  8
VERMASSUNG
100
AcDbDimension
  2
_D
 10
253.6979353381
 20
80.2437818113
 30
0.0
 11
241.3283675699
 21
74.4334261484
 31
0.0
 70
   162
  1
<>
 71
     1
 42
-1.0
  3
SLDDIMSTYLE0
100
AcDb2LineAngularDimension
 13
253.1298049564
 23
82.2650221428
 33
0.0
 14
239.6542729581
 24
89.2142084954
 34
0.0
 15
253.6979353381
 25
82.2286405564
 35
0.0
 16
241.3283675699
 26
74.4334261484
 36
0.0
  0
DIMENSION
  5
1B0
330
1F
100
AcDbEntity
  8
VERMASSUNG
100
AcDbDimension
  2
_D_1
 10
253.6979353381
 20
62.2210415023
 30
0.0
 11
221.1979353381
 21
62.2210415023
 31
0.0
 70
   160
  1
<>
 71
     2
 42
-1.0
  3
SLDDIMSTYLE1
100
AcDbAlignedDimension
 13
188.6979353381
 23
96.2286405564
 33
0.0
 14
253.6979353381
 24
82.2286405564
 34
0.0
 50
0.0
100
AcDbRotatedDimension
  0
DIMENSION
  5
1BD
330
1F
100
AcDbEntity
  8
VERMASSUNG
100
AcDbDimension
  2
_D_2
 10
263.1888309074
 20
127.2286405564
 30
0.0
 11
263.1888309074
 21
104.7286405564
 31
0.0
 70
   160
  1
<>
 71
     2
 42
-1.0
  3
SLDDIMSTYLE1
100
AcDbAlignedDimension
 13
253.6979353381
 23
82.2286405564
 33
0.0
 14
253.6979353381
 24
127.2286405564
 34
0.0
 50
90.0
100
AcDbRotatedDimension
  0
DIMENSION
  5
1C9
330
1F
100
AcDbEntity
  8
VERMASSUNG
100
AcDbDimension
  2
_D_3
 10
253.6979353381
 20
54.0206403726
 30
0.0
 11
202.1979353381
 21
54.0206403726
 31
0.0
 70
   160
  1
<>
 71
     2
 42
-1.0
  3
SLDDIMSTYLE2
100
AcDbAlignedDimension
 13
150.6979353381
 23
106.9363025639
 33
0.0
 14
253.6979353381
 24
82.2286405564
 34
0.0
100
AcDbRotatedDimension
  0
DIMENSION
  5
1D4
330
1F
100
AcDbEntity
  8
VERMASSUNG
100
AcDbDimension
  2
_D_4
 10
137.9136260755
 20
158.7286405564
 30
0.0
 11
137.9136260755
 21
127.2286405564
 31
0.0
 70
   160
  1
PSC%%c<>
 71
     2
 42
-1.0
  3
SLDDIMSTYLE2
100
AcDbAlignedDimension
 13
189.1979353381
 23
95.7286405564
 33
0.0
 14
189.1979353381
 24
158.7286405564
 34
0.0
 50
90.0
100
AcDbRotatedDimension
  0
SPLINE
  5
1E0
330
1F
100
AcDbEntity
  8
0
  6
Continuous
 62
     7
370
    15
100
AcDbSpline
210
0.0
220
0.0
230
1.0
 70
     8
 71
     3
 72
    10
 73
     6
 74
     0
 42
0.00000001
 43
0.00000001
 12
1.0
 22
0.0
 32
0.0
 13
1.0
 23
0.0
 33
0.0
 40
0.0
 40
0.0
 40
0.0
 40
0.0
 40
0.3323483471509529
 40
0.669311201501961
 40
1.0
 40
1.0
 40
1.0
 40
1.0
 10
72.71080578194413
 20
82.20600017912487
 30
0.0
 10
73.23551307210363
 20
82.32011676664072
 30
0.0
 10
74.29221297695972
 20
82.5499343991227
 30
0.0
 10
75.92324979989785
 20
82.7609764261514
 30
0.0
 10
76.96465719803601
 20
83.01491950448333
 30
0.0
 10
77.48046774050634
 20
83.14069786675076
 30
0.0
  0
LINE
  5
1E1
330
1F
100
AcDbEntity
  8
0
  6
Continuous
 62
     7
370
    15
100
AcDbLine
 10
72.0694101821
 20
86.8190532327
 30
0.0
 11
72.367050225
 21
86.3737171293
 31
0.0
  0
LINE
  5
1E2
330
1F
100
AcDbEntity
  8
0
  6
Continuous
 62
     7
370
    15
100
AcDbLine
 10
70.7171305605
 20
99.1963544638
 30
0.0
 11
70.5268851072
 21
98.8020529748
 31
0.0
  0
LINE
  5
1E3
330
1F
100
AcDbEntity
  8
0
  6
Continuous
 62
     7
370
    15
100
AcDbLine
 10
70.4119200875
 20
103.3717995287
 30
0.0
 11
69.7870913484
 21
103.4086165727
 31
0.0
  0
ARC
  5
1E4
330
1F
100
AcDbEntity
  8
0
  6
Continuous
 62
     7
370
    15
100
AcDbCircle
 10
78.0170485076
 20
93.4330748755
 30
0.0
 40
7.00000000000002
100
AcDbArc
 50
198.365394812
 51
203.6920512209
  0
ARC
  5
1E5
330
1F
100
AcDbEntity
  8
0
  6
Continuous
 62
     7
370
    15
100
AcDbCircle
 10
78.0170485076
 20
93.4330748755
 30
0.0
 40
7.000000000000006
100
AcDbArc
 50
164.811169779
 51
169.634605188
  0
LINE
  5
1E6
330
1F
100
AcDbEntity
  8
0
  6
Continuous
 62
     7
370
    15
100
AcDbLine
 10
71.2488633637
 20
94.1065704227
 30
0.0
 11
71.2906899918
 21
94.1094947756
 31
0.0
  0
LINE
  5
1E7
330
1F
100
AcDbEntity
  8
0
  6
Continuous
 62
     7
370
    15
100
AcDbLine
 10
71.4395649322
 20
92.2847544552
 30
0.0
 11
71.2869326873
 21
92.2740814985
 31
0.0
  0
SPLINE
  5
1E8
330
1F
100
AcDbEntity
  8
0
  6
Continuous
 62
     7
370
    15
100
AcDbSpline
210
0.0
220
0.0
230
1.0
 70
     8
 71
     3
 72
    10
 73
     6
 74
     0
 42
0.00000001
 43
0.00000001
 12
1.0
 22
0.0
 32
0.0
 13
1.0
 23
0.0
 33
0.0
 40
0.0
 40
0.0
 40
0.0
 40
0.0
 40
0.2724610893478655
 40
0.5448225281497748
 40
1.0
 40
1.0
 40
1.0
 40
1.0
 10
71.31778658932488
 20
96.23985418684582
 30
0.0
 10
71.31568014555852
 20
96.25880856418677
 30
0.0
 10
71.31146802844137
 20
96.29671038645107
 30
0.0
 10
71.3034212802475
 20
96.35743081306599
 30
0.0
 10
71.2977327863238
 20
96.38858435502628
 30
0.0
 10
71.29417383676808
 20
96.40807525820831
 30
0.0
  0
LINE
  5
1E9
330
1F
100
AcDbEntity
  8
0
  6
Continuous
 62
     7
370
    15
100
AcDbLine
 10
72.74942352
 20
82.7985411287
 30
0.0
 11
71.3177865893
 21
96.2398541868
 31
0.0
  0
SPLINE
  5
1EA
330
1F
100
AcDbEntity
  8
0
  6
Continuous
 62
     7
370
    15
100
AcDbSpline
210
0.0
220
0.0
230
1.0
 70
     8
 71
     3
 72
    15
 73
    11
 74
     0
 42
0.00000001
 43
0.00000001
 12
1.0
 22
0.0
 32
0.0
 13
1.0
 23
0.0
 33
0.0
 40
0.0
 40
0.0
 40
0.0
 40
0.0
 40
0.1369044621303205
 40
0.2736148401002554
 40
0.407900944976438
 40
0.5393422140900568
 40
0.6692119508457286
 40
0.7996792638252291
 40
0.9324932219773295
 40
1.0
 40
1.0
 40
1.0
 40
1.0
 10
72.74951395648712
 20
82.2650236786137
 30
0.0
 10
72.75368547224635
 20
82.24808694952517
 30
0.0
 10
72.76202258996827
 20
82.21423750189386
 30
0.0
 10
72.7713167987707
 20
82.2211016610317
 30
0.0
 10
72.77672858267495
 20
82.27079068695414
 30
0.0
 10
72.77760962166919
 20
82.35954202407866
 30
0.0
 10
72.77407973692051
 20
82.4754556513161
 30
0.0
 10
72.76657362311896
 20
82.60626768219075
 30
0.0
 10
72.75768554179041
 20
82.71767555992892
 30
0.0
 10
72.75150598888703
 20
82.7781587045287
 30
0.0
 10
72.74942351997196
 20
82.79854112870792
 30
0.0
  0
LINE
  5
1EB
330
1F
100
AcDbEntity
  8
0
  6
Continuous
 62
     7
370
    15
100
AcDbLine
 10
71.3189775181
 20
89.2142100037
 30
0.0
 11
72.7495139565
 21
82.2650236786
 31
0.0
  0
SPLINE
  5
1EC
330
1F
100
AcDbEntity
  8
0
  6
Continuous
 62
     7
370
    15
100
AcDbSpline
210
0.0
220
0.0
230
1.0
 70
     8
 71
     3
 72
    10
 73
     6
 74
     0
 42
0.00000001
 43
0.00000001
 12
1.0
 22
0.0
 32
0.0
 13
1.0
 23
0.0
 33
0.0
 40
0.0
 40
0.0
 40
0.0
 40
0.0
 40
0.2724685293734664
 40
0.5448252806985542
 40
1.0
 40
1.0
 40
1.0
 40
1.0
 10
71.29536476551037
 20
89.38242921240429
 30
0.0
 10
71.29747118240793
 20
89.3634740722269
 30
0.0
 10
71.30168315206227
 20
89.3255715680677
 30
0.0
 10
71.30973016645027
 20
89.26485292821803
 30
0.0
 10
71.31541859471635
 20
89.23370037175499
 30
0.0
 10
71.31897751806717
 20
89.21421000368693
 30
0.0
  0
LINE
  5
1ED
330
1F
100
AcDbEntity
  8
0
  6
Continuous
 62
     7
370
    15
100
AcDbLine
 10
69.8637277876
 20
102.8237422705
 30
0.0
 11
71.2953647655
 21
89.3824292124
 31
0.0
  0
SPLINE
  5
1EE
330
1F
100
AcDbEntity
  8
0
  6
Continuous
 62
     7
370
    15
100
AcDbSpline
210
0.0
220
0.0
230
1.0
 70
     8
 71
     3
 72
    15
 73
    11
 74
     0
 42
0.00000001
 43
0.00000001
 12
1.0
 22
0.0
 32
0.0
 13
1.0
 23
0.0
 33
0.0
 40
0.0
 40
0.0
 40
0.0
 40
0.0
 40
0.1369004146087303
 40
0.2736150485583445
 40
0.4079017463856071
 40
0.5393407951296569
 40
0.6692129351158093
 40
0.7996789904459644
 40
0.9324941032343772
 40
1.0
 40
1.0
 40
1.0
 40
1.0
 10
69.86363744927984
 20
103.3572615832816
 30
0.0
 10
69.85946584176149
 20
103.3741964514363
 30
0.0
 10
69.85112828780328
 20
103.408043206289
 30
0.0
 10
69.84183473779983
 20
103.4011826089499
 30
0.0
 10
69.83642278042127
 20
103.3514938447991
 30
0.0
 10
69.83554186406603
 20
103.2627389057322
 30
0.0
 10
69.83907157331119
 20
103.1468298025402
 30
0.0
 10
69.84657770304199
 20
103.0160158431799
 30
0.0
 10
69.8554659038773
 20
102.9046120355921
 30
0.0
 10
69.86164537592809
 20
102.8441255325749
 30
0.0
 10
69.86372778756957
 20
102.8237422705422
 30
0.0
  0
LINE
  5
1EF
330
1F
100
AcDbEntity
  8
0
  6
Continuous
 62
     7
370
    15
100
AcDbLine
 10
71.2941738368
 20
96.4080752582
 30
0.0
 11
69.8636374493
 21
103.3572615833
 31
0.0
  0
LINE
  5
1F0
330
1F
100
AcDbEntity
  8
0
  6
Continuous
 62
     7
370
    15
100
AcDbLine
 10
71.3184276885
 20
89.231730044
 30
0.0
 11
72.7473113531
 21
82.2905754448
 31
0.0
  0
LWPOLYLINE
  5
1F1
330
1F
100
AcDbEntity
  8
0
  6
Continuous
 62
     7
370
    15
100
AcDbPolyline
 90
        9
 70
   128
 43
0.0
 10
72.7473113531
 20
82.2905754448
 10
72.7578548997
 20
82.2533597947
 10
72.7662304527
 20
82.2532890142
 10
72.7716068252
 20
82.2903742791
 10
72.7734504673
 20
82.3609312773
 10
72.771578418
 20
82.4579601885
 10
72.766176456
 20
82.571831137
 10
72.7577806703
 20
82.6912453175
 10
72.7472242636
 20
82.8043488563
  0
LINE
  5
1F2
330
1F
100
AcDbEntity
  8
0
  6
Continuous
 62
     7
370
    15
100
AcDbLine
 10
72.7472242636
 20
82.8043488563
 30
0.0
 11
71.3172414164
 21
96.2301330418
 31
0.0
  0
ARC
  5
1F3
330
1F
100
AcDbEntity
  8
0
  6
Continuous
 62
     7
370
    15
100
AcDbCircle
 10
69.4737131224
 20
96.0531487551
 30
0.0
 40
1.852004321957314
100
AcDbArc
 50
5.4837619914
 51
10.4969088852
  0
LINE
  5
1F4
330
1F
100
AcDbEntity
  8
0
  6
Continuous
 62
     7
370
    15
100
AcDbLine
 10
71.2947236663
 20
96.3905514926
 30
0.0
 11
69.8658400272
 21
103.3317098171
 31
0.0
  0
LWPOLYLINE
  5
1F5
330
1F
100
AcDbEntity
  8
0
  6
Continuous
 62
     7
370
    15
100
AcDbPolyline
 90
        9
 70
   128
 43
0.0
 10
69.8658400272
 20
103.3317098171
 10
69.8552965243
 20
103.3689254672
 10
69.8469209076
 20
103.3689943851
 10
69.8415446152
 20
103.3319091202
 10
69.8397008293
 20
103.2613502593
 10
69.8415730205
 20
103.1643213481
 10
69.8469749243
 20
103.0504503996
 10
69.8553707973
 20
102.9310380817
 10
69.8659271058
 20
102.817934543
  0
LINE
  5
1F6
330
1F
100
AcDbEntity
  8
0
  6
Continuous
 62
     7
370
    15
100
AcDbLine
 10
69.8659271058
 20
102.817934543
 30
0.0
 11
71.2959099385
 21
89.3921522201
 31
0.0
  0
ARC
  5
1F7
330
1F
100
AcDbEntity
  8
0
  6
Continuous
 62
     7
370
    15
100
AcDbCircle
 10
73.1396066293
 20
89.5691523088
 30
0.0
 40
1.852173458208436
100
AcDbArc
 50
185.4837507635
 51
190.4965538059
  0
LINE
  5
1F8
330
1F
100
AcDbEntity
  8
0
  6
Continuous
 62
     7
370
    15
100
AcDbLine
 10
77.4377568216
 20
83.2761531473
 30
0.0
 11
76.0458188654
 21
96.3447415978
 31
0.0
  0
SPLINE
  5
1F9
330
1F
100
AcDbEntity
  8
0
  6
Continuous
 62
     7
370
    15
100
AcDbSpline
210
0.0
220
0.0
230
1.0
 70
     8
 71
     3
 72
    15
 73
    11
 74
     0
 42
0.00000001
 43
0.00000001
 12
1.0
 22
0.0
 32
0.0
 13
1.0
 23
0.0
 33
0.0
 40
0.0
 40
0.0
 40
0.0
 40
0.0
 40
0.1386109770280281
 40
0.2773959953706153
 40
0.4120912097866323
 40
0.5418339557248114
 40
0.6691614675289128
 40
0.7974537838424737
 40
0.9295644856974042
 40
1.0
 40
1.0
 40
1.0
 40
1.0
 10
77.43775682157319
 20
83.27615314729313
 30
0.0
 10
77.43883021348555
 20
83.26523981109935
 30
0.0
 10
77.44097834507176
 20
83.24339943581889
 30
0.0
 10
77.44337640231232
 20
83.20764218388979
 30
0.0
 10
77.44475225976056
 20
83.17536374988238
 30
0.0
 10
77.44495661822634
 20
83.15001965969034
 30
0.0
 10
77.44405555289902
 20
83.1338514535255
 30
0.0
 10
77.44216605973045
 20
83.1280589106576
 30
0.0
 10
77.43991343695276
 20
83.13195793777464
 30
0.0
 10
77.43833020753497
 20
83.13901216624583
 30
0.0
 10
77.43777963897627
 20
83.14146527655222
 30
0.0
  0
LWPOLYLINE
  5
1FA
330
1F
100
AcDbEntity
  8
0
  6
Continuous
 62
     7
370
    15
100
AcDbPolyline
 90
        9
 70
   128
 43
0.0
 10
70.5748128296
 20
98.6995199472
 10
70.5470666346
 20
98.7974541039
 10
70.5250257217
 20
98.7976366431
 10
70.510877302
 20
98.7000452132
 10
70.506025577
 20
98.5143655688
 10
70.5109520406
 20
98.2590267212
 10
70.5251677484
 20
97.9593662322
 10
70.5472619795
 20
97.6451230944
 10
70.5750419349
 20
97.3474817128
  0
LINE
  5
1FB
330
1F
100
AcDbEntity
  8
0
  6
Continuous
 62
     7
370
    15
100
AcDbLine
 10
71.2765625269
 20
95.2905943394
 30
0.0
 11
70.5748128296
 21
98.6995199472
 31
0.0
  0
ARC
  5
1FC
330
1F
100
AcDbEntity
  8
0
  6
Continuous
 62
     7
370
    15
100
AcDbCircle
 10
66.484454879
 20
94.4026995706
 30
0.0
 40
4.873669339374418
100
AcDbArc
 50
5.4836652273
 51
10.4968803009
  0
LINE
  5
1FD
330
1F
100
AcDbEntity
  8
0
  6
Continuous
 62
     7
370
    15
100
AcDbLine
 10
72.0381094199
 20
88.2747998238
 30
0.0
 11
71.3358197883
 21
94.8684369922
 31
0.0
  0
LWPOLYLINE
  5
1FE
330
1F
100
AcDbEntity
  8
0
  6
Continuous
 62
     7
370
    15
100
AcDbPolyline
 90
        9
 70
   128
 43
0.0
 10
72.0383385835
 20
86.9227653147
 10
72.0660847785
 20
86.8248274327
 10
72.0881256913
 20
86.8246486188
 10
72.1022740529
 20
86.9222400487
 10
72.1071257196
 20
87.1079159678
 10
72.1021993142
 20
87.3632585407
 10
72.0879836064
 20
87.662917167
 10
72.0658894336
 20
87.9771603049
 10
72.0381094199
 20
88.2747998238
  0
LINE
  5
1FF
330
1F
100
AcDbEntity
  8
0
  6
Continuous
 62
     7
370
    15
100
AcDbLine
 10
71.336588828
 20
90.3316890598
 30
0.0
 11
72.0383385835
 21
86.9227653147
 31
0.0
  0
ARC
  5
200
330
1F
100
AcDbEntity
  8
0
  6
Continuous
 62
     7
370
    15
100
AcDbCircle
 10
76.1287420723
 20
91.219590229
 30
0.0
 40
4.873715338765516
100
AcDbArc
 50
185.4836889004
 51
190.4968566278
  0
LINE
  5
201
330
1F
100
AcDbEntity
  8
0
  6
Continuous
 62
     7
370
    15
100
AcDbLine
 10
70.5750419349
 20
97.3474817128
 30
0.0
 11
71.2773315665
 21
90.753846407
 31
0.0
  0
LWPOLYLINE
  5
202
330
1F
100
AcDbEntity
  8
0
  6
Continuous
 62
     7
370
    15
100
AcDbPolyline
 90
       29
 70
   128
 43
0.0
 10
71.3972926662
 20
90.1054968835
 10
71.4587700843
 20
89.8636398614
 10
71.5126158959
 20
89.7695874573
 10
71.5561300805
 20
89.8280484379
 10
71.587130433
 20
90.0360947252
 10
71.6040626923
 20
90.383291781
 10
71.6060776087
 20
90.8522350491
 10
71.5930743665
 20
91.4194030464
 10
71.5657047751
 20
92.0563606323
 10
71.5253414875
 20
92.7311634422
 10
71.4740082678
 20
93.4099783898
 10
71.4142792915
 20
94.0587674976
 10
71.3491496919
 20
94.6449903548
 10
71.2818851518
 20
95.1392618716
 10
71.2158588051
 20
95.5167865158
 10
71.1543812706
 20
95.7586435378
 10
71.1005354589
 20
95.852695942
 10
71.0570213907
 20
95.7942349613
 10
71.0260209218
 20
95.586188674
 10
71.0090887789
 20
95.2389916182
 10
71.0070737461
 20
94.7700483502
 10
71.0200771047
 20
94.2028803528
 10
71.0474465797
 20
93.565922767
 10
71.0878099837
 20
92.891119957
 10
71.139143087
 20
92.2123050094
 10
71.1988720634
 20
91.5635159016
 10
71.2640017793
 20
90.9772930444
 10
71.331266203
 20
90.4830215276
 10
71.3972926662
 20
90.1054968835
  0
SPLINE
  5
203
330
1F
100
AcDbEntity
  8
0
  6
Continuous
 62
     7
370
    15
100
AcDbSpline
210
0.0
220
0.0
230
1.0
 70
     8
 71
     3
 72
    10
 73
     6
 74
     0
 42
0.00000001
 43
0.00000001
 12
1.0
 22
0.0
 32
0.0
 13
1.0
 23
0.0
 33
0.0
 40
0.0
 40
0.0
 40
0.0
 40
0.0
 40
0.4149237122881175
 40
0.7027887142913268
 40
1.0
 40
1.0
 40
1.0
 40
1.0
 10
76.03991567722004
 20
96.3867964000235
 30
0.0
 10
76.04072463454058
 20
96.38240480201837
 30
0.0
 10
76.04209482876756
 20
96.37496640931073
 30
0.0
 10
76.04411069420782
 20
96.36005710459214
 30
0.0
 10
76.04524344328664
 20
96.34990084703794
 30
0.0
 10
76.04581886535924
 20
96.34474159784416
 30
0.0
  0
LINE
  5
204
330
1F
100
AcDbEntity
  8
0
  6
Continuous
 62
     7
370
    15
100
AcDbLine
 10
76.0399156772
 20
96.3867964
 30
0.0
 11
75.9750844502
 21
96.7017305792
 31
0.0
  0
LWPOLYLINE
  5
205
330
1F
100
AcDbEntity
  8
0
  6
Continuous
 62
     7
370
    15
100
AcDbPolyline
 90
       22
 70
   128
 43
0.0
 10
71.2847232409
 20
94.2411614359
 10
71.2324752296
 20
94.5558963121
 10
71.1849253914
 20
94.7290366293
 10
71.146298904
 20
94.7452006639
 10
71.1200278076
 20
94.6029504538
 10
71.1084463457
 20
94.3149259091
 10
71.1125836298
 20
93.9067160488
 10
71.1320721368
 20
93.4145977498
 10
71.1651801887
 20
92.8822947443
 10
71.2089658538
 20
92.357103318
 10
71.2595386487
 20
91.8856901825
 10
71.3124050582
 20
91.5099462271
 10
71.3628676078
 20
91.2632537783
 10
71.4064424448
 20
91.1675324441
 10
71.4392578286
 20
91.2312870622
 10
71.4583979045
 20
91.4488551915
 10
71.4621619611
 20
91.8009063006
 10
71.4502156536
 20
92.2561554015
 10
71.4236203405
 20
92.774149567
 10
71.3847392528
 20
93.3088702858
 10
71.3370270152
 20
93.8127977551
 10
71.2847232409
 20
94.2411614359
  0
LWPOLYLINE
  5
206
330
1F
100
AcDbEntity
  8
0
  6
Continuous
 62
     7
370
    15
100
AcDbPolyline
 90
        9
 70
   128
 43
0.0
 10
71.1988661262
 20
94.5892227591
 10
71.181650512
 20
94.624549687
 10
71.1661274601
 20
94.6327453256
 10
71.1525504068
 20
94.6136755646
 10
71.1411410068
 20
94.5676533283
 10
71.1320854081
 20
94.4954273999
 10
71.1255313419
 20
94.3981786967
 10
71.1215859103
 20
94.2774941922
 10
71.1203136072
 20
94.135344565
  0
ARC
  5
207
330
1F
100
AcDbEntity
  8
0
  6
Continuous
 62
     7
370
    15
100
AcDbCircle
 10
91.0459490011
 20
94.3475883772
 30
0.0
 40
19.92676575081167
100
AcDbArc
 50
180.6102799002
 51
185.2759559085
  0
ARC
  5
208
330
1F
100
AcDbEntity
  8
0
  6
Continuous
 62
     7
370
    15
100
AcDbCircle
 10
78.8621258089
 20
92.9903501934
 30
0.0
 40
7.673241576007316
100
AcDbArc
 50
183.5496897937
 51
192.3040796095
  0
LINE
  5
209
330
1F
100
AcDbEntity
  8
0
  6
Continuous
 62
     7
370
    15
100
AcDbLine
 10
71.3723588326
 20
91.3340640963
 30
0.0
 11
71.3651354947
 21
91.355182767
 31
0.0
  0
LWPOLYLINE
  5
20A
330
1F
100
AcDbEntity
  8
0
  6
Continuous
 62
     7
370
    15
100
AcDbPolyline
 90
        9
 70
   128
 43
0.0
 10
71.3723588326
 20
91.3340640963
 10
71.3889257806
 20
91.3003166915
 10
71.4039240322
 20
91.2917373479
 10
71.4171265774
 20
91.3084601761
 10
71.4283335312
 20
91.3502281309
 10
71.4373749272
 20
91.4164153636
 10
71.4441140937
 20
91.5060123206
 10
71.4484488182
 20
91.6176629961
 10
71.4503135589
 20
91.7496798337
  0
LINE
  5
20B
330
1F
100
AcDbEntity
  8
0
  6
Continuous
 62
     7
370
    15
100
AcDbLine
 10
71.4502497633
 20
91.8349554539
 30
0.0
 11
71.4503135589
 21
91.7496798337
 31
0.0
  0
ARC
  5
20C
330
1F
100
AcDbEntity
  8
0
  6
Continuous
 62
     7
370
    15
100
AcDbCircle
 10
51.2834836992
 20
91.5569261066
 30
0.0
 40
20.16868250032645
100
AcDbArc
 50
0.7898588696
 51
5.0963784469
  0
LINE
  5
20D
330
1F
100
AcDbEntity
  8
0
  6
Continuous
 62
     7
370
    15
100
AcDbLine
 10
71.3621889065
 20
93.4637566806
 30
0.0
 11
71.3724329891
 21
93.3485371769
 31
0.0
  0
ARC
  5
20E
330
1F
100
AcDbEntity
  8
0
  6
Continuous
 62
     7
370
    15
100
AcDbCircle
 10
63.9909432197
 20
92.984702292
 30
0.0
 40
7.3867960633338
100
AcDbArc
 50
3.7184012216
 51
12.3753042549
  0
LINE
  5
20F
330
1F
100
AcDbEntity
  8
0
  6
Continuous
 62
     7
370
    15
100
AcDbLine
 10
71.1988661262
 20
94.5892227591
 30
0.0
 11
71.2061051801
 21
94.5677986146
 31
0.0
  0
SPLINE
  5
210
330
1F
100
AcDbEntity
  8
0
  6
Continuous
 62
     7
370
    15
100
AcDbSpline
210
0.0
220
0.0
230
1.0
 70
     8
 71
     3
 72
    10
 73
     6
 74
     0
 42
0.00000001
 43
0.00000001
 12
1.0
 22
0.0
 32
0.0
 13
1.0
 23
0.0
 33
0.0
 40
0.0
 40
0.0
 40
0.0
 40
0.0
 40
0.192812384772418
 40
0.7055911139632338
 40
0.9999999999999999
 40
0.9999999999999999
 40
0.9999999999999999
 40
0.9999999999999999
 10
71.24161057273339
 20
94.42514607317547
 30
0.0
 10
71.23868659438327
 20
94.43776375669528
 30
0.0
 10
71.22798638369038
 20
94.48393778945197
 30
0.0
 10
71.21581392342672
 20
94.53303826826843
 30
0.0
 10
71.2086999054286
 20
94.55850868416668
 30
0.0
 10
71.20610518014472
 20
94.56779861457447
 30
0.0
  0
SPLINE
  5
211
330
1F
100
AcDbEntity
  8
0
  6
Continuous
 62
     7
370
    15
100
AcDbSpline
210
0.0
220
0.0
230
1.0
 70
     8
 71
     3
 72
    11
 73
     7
 74
     0
 42
0.00000001
 43
0.00000001
 12
1.0
 22
0.0
 32
0.0
 13
1.0
 23
0.0
 33
0.0
 40
0.0
 40
0.0
 40
0.0
 40
0.0
 40
0.1529075541681474
 40
0.4608710210797187
 40
0.7703281021251311
 40
0.9999999999999999
 40
0.9999999999999999
 40
0.9999999999999999
 40
0.9999999999999999
 10
71.37697050912719
 20
91.33517795808415
 30
0.0
 10
71.37889482347062
 20
91.33482334741103
 30
0.0
 10
71.38469480321108
 20
91.33375453309449
 30
0.0
 10
71.39657375768219
 20
91.36984312779798
 30
0.0
 10
71.41009627186742
 20
91.4332438420598
 30
0.0
 10
71.41851935867048
 20
91.48888953751033
 30
0.0
 10
71.42210763978254
 20
91.5125949085484
 30
0.0
  0
LINE
  5
212
330
1F
100
AcDbEntity
  8
0
  6
Continuous
 62
     7
370
    15
100
AcDbLine
 10
71.1988661262
 20
94.5892227591
 30
0.0
 11
71.1975258366
 21
94.5884814263
 31
0.0
  0
SPLINE
  5
213
330
1F
100
AcDbEntity
  8
0
  6
Continuous
 62
     7
370
    15
100
AcDbSpline
210
0.0
220
0.0
230
1.0
 70
     8
 71
     3
 72
    10
 73
     6
 74
     0
 42
0.00000001
 43
0.00000001
 12
1.0
 22
0.0
 32
0.0
 13
1.0
 23
0.0
 33
0.0
 40
0.0
 40
0.0
 40
0.0
 40
0.0
 40
0.3620712049748068
 40
0.7259043741368755
 40
1.0
 40
1.0
 40
1.0
 40
1.0
 10
71.19589206396084
 20
94.5875799060593
 30
0.0
 10
71.19672625359281
 20
94.57793813868834
 30
0.0
 10
71.1983986923131
 20
94.55860768375898
 30
0.0
 10
71.209771805788
 20
94.49378753381522
 30
0.0
 10
71.22106013687582
 20
94.43953719555158
 30
0.0
 10
71.22591033677053
 20
94.41622772820095
 30
0.0
  0
SPLINE
  5
214
330
1F
100
AcDbEntity
  8
0
  6
Continuous
 62
     7
370
    15
100
AcDbSpline
210
0.0
220
0.0
230
1.0
 70
     8
 71
     3
 72
    12
 73
     8
 74
     0
 42
0.00000001
 43
0.00000001
 12
1.0
 22
0.0
 32
0.0
 13
1.0
 23
0.0
 33
0.0
 40
0.0
 40
0.0
 40
0.0
 40
0.0
 40
0.2058582286758567
 40
0.4121037405715849
 40
0.6141922707415116
 40
0.8133179390191503
 40
1.0
 40
1.0
 40
1.0
 40
1.0
 10
71.22591033677053
 20
94.41622772820094
 30
0.0
 10
71.23692472570872
 20
94.36224098753864
 30
0.0
 10
71.2589742250692
 20
94.25416594039909
 30
0.0
 10
71.270312346762
 20
94.14713559891734
 30
0.0
 10
71.2592554432722
 20
94.09896067217251
 30
0.0
 10
71.22849802165557
 20
94.11059725281606
 30
0.0
 10
71.1987677607091
 20
94.16345885561475
 30
0.0
 10
71.18438208109181
 20
94.18903717405894
 30
0.0
  0
SPLINE
  5
215
330
1F
100
AcDbEntity
  8
0
  6
Continuous
 62
     7
370
    15
100
AcDbSpline
210
0.0
220
0.0
230
1.0
 70
     8
 71
     3
 72
    11
 73
     7
 74
     0
 42
0.00000001
 43
0.00000001
 12
1.0
 22
0.0
 32
0.0
 13
1.0
 23
0.0
 33
0.0
 40
0.0
 40
0.0
 40
0.0
 40
0.0
 40
0.2524802689920565
 40
0.5068896495765495
 40
0.7591791854136287
 40
1.0
 40
1.0
 40
1.0
 40
1.0
 10
71.18438208109181
 20
94.18903717405895
 30
0.0
 10
71.17521997406233
 20
94.20497559722375
 30
0.0
 10
71.15682575561466
 20
94.23697422335425
 30
0.0
 10
71.13623918219106
 20
94.23854311710492
 30
0.0
 10
71.12275154886328
 20
94.20652982677574
 30
0.0
 10
71.12111355566014
 20
94.158702195168
 30
0.0
 10
71.12031360721629
 20
94.13534456498722
 30
0.0
  0
SPLINE
  5
216
330
1F
100
AcDbEntity
  8
0
  6
Continuous
 62
     7
370
    15
100
AcDbSpline
210
0.0
220
0.0
230
1.0
 70
     8
 71
     3
 72
    11
 73
     7
 74
     0
 42
0.00000001
 43
0.00000001
 12
1.0
 22
0.0
 32
0.0
 13
1.0
 23
0.0
 33
0.0
 40
0.0
 40
0.0
 40
0.0
 40
0.0
 40
0.2794038282812175
 40
0.5596263046929999
 40
0.8375032486317655
 40
1.0
 40
1.0
 40
1.0
 40
1.0
 10
71.36679778905999
 20
91.67588183291058
 30
0.0
 10
71.36393430127342
 20
91.63779671760062
 30
0.0
 10
71.35819893573316
 20
91.56151489828618
 30
0.0
 10
71.35678216258394
 20
91.45928109901753
 30
0.0
 10
71.35965303444159
 20
91.39005711961882
 30
0.0
 10
71.36365776097564
 20
91.36458274510824
 30
0.0
 10
71.36513549467962
 20
91.35518276698689
 30
0.0
  0
SPLINE
  5
217
330
1F
100
AcDbEntity
  8
0
  6
Continuous
 62
     7
370
    15
100
AcDbSpline
210
0.0
220
0.0
230
1.0
 70
     8
 71
     3
 72
    12
 73
     8
 74
     0
 42
0.00000001
 43
0.00000001
 12
1.0
 22
0.0
 32
0.0
 13
1.0
 23
0.0
 33
0.0
 40
0.0
 40
0.0
 40
0.0
 40
0.0
 40
0.0091741179007032
 40
0.2576770623172354
 40
0.5061954718589036
 40
0.7560376311725857
 40
1.0
 40
1.0
 40
1.0
 40
1.0
 10
71.20360551035445
 20
92.51526796825031
 30
0.0
 10
71.2037239664915
 20
92.51395100833987
 30
0.0
 10
71.20705109066148
 20
92.47696103670573
 30
0.0
 10
71.21618662600783
 20
92.4075069661666
 30
0.0
 10
71.23529776373566
 20
92.32857322449686
 30
0.0
 10
71.25824690149591
 20
92.27836754506815
 30
0.0
 10
71.2747252371089
 20
92.2750823927717
 30
0.0
 10
71.28286630014371
 20
92.27345937497715
 30
0.0
  0
SPLINE
  5
218
330
1F
100
AcDbEntity
  8
0
  6
Continuous
 62
     7
370
    15
100
AcDbSpline
210
0.0
220
0.0
230
1.0
 70
     8
 71
     3
 72
    12
 73
     8
 74
     0
 42
0.00000001
 43
0.00000001
 12
1.0
 22
0.0
 32
0.0
 13
1.0
 23
0.0
 33
0.0
 40
0.0
 40
0.0
 40
0.0
 40
0.0
 40
0.2057547755386633
 40
0.4119606748863476
 40
0.6140158174694933
 40
0.8131400628259445
 40
1.0
 40
1.0
 40
1.0
 40
1.0
 10
71.28286630014371
 20
92.27345937497715
 30
0.0
 10
71.29741072205564
 20
92.270361872334
 30
0.0
 10
71.32653145498145
 20
92.26416007567585
 30
0.0
 10
71.36104637340108
 20
92.17270339242297
 30
0.0
 10
71.37917457028604
 20
92.03229801344906
 30
0.0
 10
71.38052552270135
 20
91.85908430696921
 30
0.0
 10
71.37127573228665
 20
91.73564189959396
 30
0.0
 10
71.36679778905999
 20
91.67588183291058
 30
0.0
  0
SPLINE
  5
219
330
1F
100
AcDbEntity
  8
0
  6
Continuous
 62
     7
370
    15
100
AcDbSpline
210
0.0
220
0.0
230
1.0
 70
     8
 71
     3
 72
    12
 73
     8
 74
     0
 42
0.00000001
 43
0.00000001
 12
1.0
 22
0.0
 32
0.0
 13
1.0
 23
0.0
 33
0.0
 40
0.0
 40
0.0
 40
0.0
 40
0.0
 40
0.0091659243511123
 40
0.2573210437701491
 40
0.5054921186197153
 40
0.754990036902786
 40
1.0
 40
1.0
 40
1.0
 40
1.0
 10
71.12031360721629
 20
94.13534456498722
 30
0.0
 10
71.12031539603083
 20
94.13436567159097
 30
0.0
 10
71.12036561460218
 20
94.1068845512138
 30
0.0
 10
71.12369100187323
 20
94.04314693374461
 30
0.0
 10
71.13720853531748
 20
93.93480934330371
 30
0.0
 10
71.15785118995443
 20
93.82245795277674
 30
0.0
 10
71.17585002341791
 20
93.75747075802987
 30
0.0
 10
71.18476776505302
 20
93.72527205951313
 30
0.0
  0
SPLINE
  5
21A
330
1F
100
AcDbEntity
  8
0
  6
Continuous
 62
     7
370
    15
100
AcDbSpline
210
0.0
220
0.0
230
1.0
 70
     8
 71
     3
 72
    12
 73
     8
 74
     0
 42
0.00000001
 43
0.00000001
 12
1.0
 22
0.0
 32
0.0
 13
1.0
 23
0.0
 33
0.0
 40
0.0
 40
0.0
 40
0.0
 40
0.0
 40
0.2058431167982484
 40
0.4120690425938237
 40
0.6141383795399297
 40
0.8132587697800253
 40
1.0
 40
1.0
 40
1.0
 40
1.0
 10
71.18476776505302
 20
93.72527205951313
 30
0.0
 10
71.20061460030065
 20
93.66750782770109
 30
0.0
 10
71.23233774135196
 20
93.5518719392187
 30
0.0
 10
71.26256780008092
 20
93.35225058446406
 30
0.0
 10
71.27079161936432
 20
93.16371818762009
 30
0.0
 10
71.25788143559764
 20
93.0032841019141
 30
0.0
 10
71.23718642157445
 20
92.93402584841195
 30
0.0
 10
71.22717088187527
 20
92.90050768859486
 30
0.0
  0
SPLINE
  5
21B
330
1F
100
AcDbEntity
  8
0
  6
Continuous
 62
     7
370
    15
100
AcDbSpline
210
0.0
220
0.0
230
1.0
 70
     8
 71
     3
 72
    11
 73
     7
 74
     0
 42
0.00000001
 43
0.00000001
 12
1.0
 22
0.0
 32
0.0
 13
1.0
 23
0.0
 33
0.0
 40
0.0
 40
0.0
 40
0.0
 40
0.0
 40
0.2535112331796727
 40
0.507570851485607
 40
0.7595042753876936
 40
1.0
 40
1.0
 40
1.0
 40
1.0
 10
71.22717088187527
 20
92.90050768859486
 30
0.0
 10
71.220778031372
 20
92.87879209224629
 30
0.0
 10
71.20797850161284
 20
92.83531392525971
 30
0.0
 10
71.19833153293614
 20
92.73543430014105
 30
0.0
 10
71.19612229934859
 20
92.62417772474963
 30
0.0
 10
71.20115003323905
 20
92.55100468802476
 30
0.0
 10
71.20360551035445
 20
92.51526796825031
 30
0.0
  0
ARC
  5
21C
330
1F
100
AcDbEntity
  8
0
  6
Continuous
 62
     7
370
    15
100
AcDbCircle
 10
69.7918825634
 20
122.2286405564
 30
0.0
 40
40.00000000000001
100
AcDbArc
 50
295.36117309
 51
317.2559432355
  0
LINE
  5
21D
330
1F
100
AcDbEntity
  8
0
  6
Continuous
 62
     7
370
    15
100
AcDbLine
 10
77.4041463212
 20
83.5917113126
 30
0.0
 11
86.9247976281
 21
86.0836101473
 31
0.0
  0
LINE
  5
21E
330
1F
100
AcDbEntity
  8
0
  6
Continuous
 62
     7
370
    15
100
AcDbLine
 10
85.7882469483
 20
85.5664504469
 30
0.0
 11
77.4269106389
 21
83.3779839576
 31
0.0
  0
ARC
  5
21F
330
1F
100
AcDbEntity
  8
0
  6
Continuous
 62
     7
370
    15
100
AcDbCircle
 10
69.7918825634
 20
122.2286405564
 30
0.0
 40
40.0
100
AcDbArc
 50
293.5724970665
 51
295.36117309
  0
ELLIPSE
  5
220
330
1F
100
AcDbEntity
  8
0
  6
Continuous
 62
     7
370
    15
100
AcDbEllipse
 10
76.9384683149
 20
107.2729023521
 30
0.0
 11
-1.811399796278437
 21
25.99969358991974
 31
0.0
210
0.0
220
0.0
230
1.0
 40
0.0696847268
 41
1.984478928953341
 42
1.997948364887532
  0
ELLIPSE
  5
221
330
1F
100
AcDbEntity
  8
0
  6
Continuous
 62
     7
370
    15
100
AcDbEllipse
 10
312.3746746638
 20
107.2729023521
 30
0.0
 11
301.6190036006363
 21
23.07440241942838
 31
0.0
210
0.0
220
0.0
230
1.0
 40
0.0397261157
 41
2.46828878862511
 42
2.481524421042483
  0
ELLIPSE
  5
222
330
1F
100
AcDbEntity
  8
0
  6
Continuous
 62
     7
370
    15
100
AcDbEllipse
 10
-13509.8871968211
 20
107.2729023521
 30
0.0
 11
17265.23023159847
 21
-23.13641447666977
 31
0.0
210
0.0
220
0.0
230
1.0
 40
0.0006870438
 41
0.6652696754590964
 42
0.6654529286886364
  0
ELLIPSE
  5
223
330
1F
100
AcDbEntity
  8
0
  6
Continuous
 62
     7
370
    15
100
AcDbEllipse
 10
72.4949052872
 20
107.2729023521
 30
0.0
 11
-1.811399796278451
 21
25.99969358991974
 31
0.0
210
0.0
220
0.0
230
1.0
 40
0.0696847268
 41
1.574463155323293
 42
1.997531308141165
  0
LINE
  5
224
330
1F
100
AcDbEntity
  8
0
  6
Continuous
 62
     7
370
    15
100
AcDbLine
 10
104.7918840834
 20
107.051339537
 30
0.0
 11
104.7918840834
 21
102.8637239487
 31
0.0
  0
SPLINE
  5
225
330
1F
100
AcDbEntity
  8
0
  6
Continuous
 62
     7
370
    15
100
AcDbSpline
210
0.0
220
0.0
230
1.0
 70
     8
 71
     3
 72
    10
 73
     6
 74
     0
 42
0.00000001
 43
0.00000001
 12
1.0
 22
0.0
 32
0.0
 13
1.0
 23
0.0
 33
0.0
 40
0.0
 40
0.0
 40
0.0
 40
0.0
 40
0.5
 40
0.5
 40
1.0
 40
1.0
 40
1.0
 40
1.0
 10
104.7918825634424
 20
102.8637238253708
 30
0.0
 10
103.9773801775891
 20
101.3915985433047
 30
0.0
 10
103.0968929872214
 20
100.0176003293041
 30
0.0
 10
101.2187544192791
 20
97.43134730381934
 30
0.0
 10
100.2209781273251
 20
96.21943373177996
 30
0.0
 10
99.16759923649133
 20
95.07965770355035
 30
0.0
  0
ELLIPSE
  5
226
330
1F
100
AcDbEntity
  8
0
  6
Continuous
 62
     7
370
    15
100
AcDbEllipse
 10
71.8806186493
 20
68.6811815402
 30
0.0
 11
-1.809499522331834
 21
25.97289971548824
 31
0.0
210
0.0
220
0.0
230
1.0
 40
0.0698300398
 41
5.862491794843082
 42
6.124263100888169
  0
LINE
  5
227
330
1F
100
AcDbEntity
  8
0
  6
Continuous
 62
     7
370
    15
100
AcDbLine
 10
70.3157945593
 20
95.0826821626
 30
0.0
 11
70.38094523
 21
94.3467771412
 31
0.0
  0
SPLINE
  5
228
330
1F
100
AcDbEntity
  8
0
  6
Continuous
 62
     7
370
    15
100
AcDbSpline
210
0.0
220
0.0
230
1.0
 70
     8
 71
     3
 72
    10
 73
     6
 74
     0
 42
0.00000001
 43
0.00000001
 12
1.0
 22
0.0
 32
0.0
 13
1.0
 23
0.0
 33
0.0
 40
0.0
 40
0.0
 40
0.0
 40
0.0
 40
0.5
 40
0.5
 40
1.0
 40
1.0
 40
1.0
 40
1.0
 10
70.19541988235618
 20
95.83583275675859
 30
0.0
 10
70.2110553776956
 20
95.83453956309434
 30
0.0
 10
70.23138484538698
 20
95.75879533374845
 30
0.0
 10
70.27475998784935
 20
95.48690243636737
 30
0.0
 10
70.29684834712855
 20
95.29669757090777
 30
0.0
 10
70.31579445617535
 20
95.08268066948756
 30
0.0
  0
ARC
  5
229
330
1F
100
AcDbEntity
  8
0
  6
Continuous
 62
     7
370
    15
100
AcDbCircle
 10
72.7918825634
 20
127.2286405564
 30
0.0
 40
31.49999999999998
100
AcDbArc
 50
265.1479100317
 51
265.2718942752
  0
LINE
  5
22A
330
1F
100
AcDbEntity
  8
0
  6
Continuous
 62
     7
370
    15
100
AcDbLine
 10
69.1749353484
 20
128.7145985533
 30
0.0
 11
65.9204723836
 21
156.0047385991
 31
0.0
  0
LINE
  5
22B
330
1F
100
AcDbEntity
  8
0
  6
Continuous
 62
     7
370
    15
100
AcDbLine
 10
70.6897780821
 20
107.051339537
 30
0.0
 11
69.1749353484
 21
128.7145985533
 31
0.0
  0
LINE
  5
22C
330
1F
100
AcDbEntity
  8
0
  6
Continuous
 62
     7
370
    15
100
AcDbLine
 10
70.1305433233
 20
106.0135816932
 30
0.0
 11
70.6825738364
 21
100.8306933344
 31
0.0
  0
LWPOLYLINE
  5
22D
330
1F
100
AcDbEntity
  8
0
  6
Continuous
 62
     7
370
    15
100
AcDbPolyline
 90
       12
 70
   128
 43
0.0
 10
70.0171222035
 20
104.2268374712
 10
69.9685297497
 20
104.7408157737
 10
69.9284682107
 20
105.2855314464
 10
69.9001834784
 20
105.8168528379
 10
69.8859666065
 20
106.2917360813
 10
69.8869696409
 20
106.6717101038
 10
69.9031110909
 20
106.925990969
 10
69.9330836125
 20
107.0339759589
 10
69.9744585492
 20
106.9869218171
 10
70.0238843039
 20
106.7886357904
 10
70.0773566552
 20
106.4551850558
 10
70.1305433233
 20
106.0135816932
  0
LINE
  5
22E
330
1F
100
AcDbEntity
  8
0
  6
Continuous
 62
     7
370
    15
100
AcDbLine
 10
70.1062742212
 20
103.3898094446
 30
0.0
 11
70.0171222035
 21
104.2268374712
 31
0.0
  0
LINE
  5
22F
330
1F
100
AcDbEntity
  8
0
  6
Continuous
 62
     7
370
    15
100
AcDbLine
 10
70.6825738364
 20
100.8306933344
 30
0.0
 11
71.5953405072
 21
96.3967019469
 31
0.0
  0
ELLIPSE
  5
230
330
1F
100
AcDbEntity
  8
0
  6
Continuous
 62
     7
370
    15
100
AcDbEllipse
 10
59.8891254374
 20
156.453020159
 30
0.0
 11
-2.460843860057012
 21
8.356320619481323
 31
0.0
210
0.0
220
0.0
230
1.0
 40
0.670047375
 41
4.464914952997528
 42
4.686484801274208
  0
ARC
  5
231
330
1F
100
AcDbEntity
  8
0
  6
Continuous
 62
     7
370
    15
100
AcDbCircle
 10
72.7918825634
 20
127.2286405564
 30
0.0
 40
31.50000000000001
100
AcDbArc
 50
45.5605217797
 51
103.2910272152
  0
SPLINE
  5
232
330
1F
100
AcDbEntity
  8
0
  6
Continuous
 62
     7
370
    15
100
AcDbSpline
210
0.0
220
0.0
230
1.0
 70
     8
 71
     3
 72
    12
 73
     8
 74
     0
 42
0.00000001
 43
0.00000001
 12
1.0
 22
0.0
 32
0.0
 13
1.0
 23
0.0
 33
0.0
 40
0.0
 40
0.0
 40
0.0
 40
0.0
 40
0.25
 40
0.25
 40
0.5
 40
0.5
 40
1.0
 40
1.0
 40
1.0
 40
1.0
 10
97.01075228115802
 20
148.143858690492
 30
0.0
 10
96.80645282095516
 20
148.2482270224751
 30
0.0
 10
96.60983513182778
 20
148.3627800697851
 30
0.0
 10
96.22667534815712
 20
148.605244680505
 30
0.0
 10
96.04005428411382
 20
148.7334915915721
 30
0.0
 10
95.49869603243725
 20
149.1312017649227
 30
0.0
 10
95.15859631051087
 20
149.4135643530546
 30
0.0
 10
94.84677967555025
 20
149.7193389309435
 30
0.0
  0
ARC
  5
233
330
1F
100
AcDbEntity
  8
0
  6
Continuous
 62
     7
370
    15
100
AcDbCircle
 10
72.7918825634
 20
127.2286405564
 30
0.0
 40
32.0
100
AcDbArc
 50
2.661554665
 51
40.8136224951
  0
LINE
  5
234
330
1F
100
AcDbEntity
  8
0
  6
Continuous
 62
     7
370
    15
100
AcDbLine
 10
104.7573618182
 20
128.7145985533
 30
0.0
 11
69.1749353484
 21
128.7145985533
 31
0.0
  0
ARC
  5
235
330
1F
100
AcDbEntity
  8
0
  6
Continuous
 62
     7
370
    15
100
AcDbCircle
 10
72.7918825634
 20
127.2286405564
 30
0.0
 40
32.00000000000001
100
AcDbArc
 50
0.0
 51
2.661554665
  0
LINE
  5
236
330
1F
100
AcDbEntity
  8
0
  6
Continuous
 62
     7
370
    15
100
AcDbLine
 10
104.7918840834
 20
127.2286405564
 30
0.0
 11
104.7918840834
 21
107.051339537
 31
0.0
  0
SPLINE
  5
237
330
1F
100
AcDbEntity
  8
0
  6
Continuous
 62
     7
370
    15
100
AcDbSpline
210
0.0
220
0.0
230
1.0
 70
     8
 71
     3
 72
    18
 73
    14
 74
     0
 42
0.00000001
 43
0.00000001
 12
1.0
 22
0.0
 32
0.0
 13
1.0
 23
0.0
 33
0.0
 40
0.0
 40
0.0
 40
0.0
 40
0.0
 40
0.1250000000000008
 40
0.1250000000000008
 40
0.2500000000000017
 40
0.2500000000000017
 40
0.3750000000000025
 40
0.3750000000000025
 40
0.5000000000000033
 40
0.5000000000000033
 40
0.7500000000000021
 40
0.7500000000000021
 40
1.0
 40
1.0
 40
1.0
 40
1.0
 10
65.5501166670933
 20
157.8849095189297
 30
0.0
 10
65.47733202805621
 20
157.8677159942578
 30
0.0
 10
65.38829710800584
 20
157.8464204461001
 30
0.0
 10
65.17979411855401
 20
157.7952503206063
 30
0.0
 10
65.06167080821608
 20
157.7657038818136
 30
0.0
 10
64.7988888669773
 20
157.6979769799131
 30
0.0
 10
64.65422619835351
 20
157.6597983115701
 30
0.0
 10
64.3382908046801
 20
157.5735511644824
 30
0.0
 10
64.16609490338774
 20
157.5251941378437
 30
0.0
 10
63.62437182219865
 20
157.3674566161973
 30
0.0
 10
63.22629535620537
 20
157.244611864262
 30
0.0
 10
62.35926937712414
 20
156.954379811771
 30
0.0
 10
61.90542516575837
 20
156.7919551821791
 30
0.0
 10
61.43485045524462
 20
156.6100602241736
 30
0.0
  0
SPLINE
  5
238
330
1F
100
AcDbEntity
  8
0
  6
Continuous
 62
     7
370
    15
100
AcDbSpline
210
0.0
220
0.0
230
1.0
 70
     8
 71
     3
 72
    20
 73
    16
 74
     0
 42
0.00000001
 43
0.00000001
 12
1.0
 22
0.0
 32
0.0
 13
1.0
 23
0.0
 33
0.0
 40
0.0
 40
0.0
 40
0.0
 40
0.0
 40
0.2499999999999986
 40
0.2499999999999986
 40
0.3749999999999987
 40
0.3749999999999987
 40
0.4999999999999988
 40
0.4999999999999988
 40
0.6249999999999991
 40
0.6249999999999991
 40
0.7499999999999993
 40
0.7499999999999993
 40
0.8749999999999997
 40
0.8749999999999997
 40
1.0
 40
1.0
 40
1.0
 40
1.0
 10
65.63447959679338
 20
96.5525654689232
 30
0.0
 10
66.23143395787584
 20
96.41328288786352
 30
0.0
 10
66.79556868382092
 20
96.29997732385102
 30
0.0
 10
67.58831865301377
 20
96.16024954554211
 30
0.0
 10
67.8407519393784
 20
96.11927588327326
 30
0.0
 10
68.30980784168717
 20
96.04824172940083
 30
0.0
 10
68.52838041064966
 20
96.01784025030011
 30
0.0
 10
68.932441479074
 20
95.96530386834957
 30
0.0
 10
69.11789379140735
 20
95.9432074553418
 30
0.0
 10
69.44154890937743
 20
95.90689440098481
 30
0.0
 10
69.58175428164319
 20
95.89241194780382
 30
0.0
 10
69.81848796410057
 20
95.86906352557237
 30
0.0
 10
69.91522960400783
 20
95.86018484607669
 30
0.0
 10
70.0581294266441
 20
95.8474082720141
 30
0.0
 10
70.10522663525964
 20
95.84341506199179
 30
0.0
 10
70.12749407323304
 20
95.8415248244195
 30
0.0
  0
ELLIPSE
  5
239
330
1F
100
AcDbEntity
  8
0
  6
Continuous
 62
     7
370
    15
100
AcDbEllipse
 10
59.8340796422
 20
111.3323424265
 30
0.0
 11
-2.160832348626499
 21
3.075616685381021
 31
0.0
210
0.0
220
0.0
230
1.0
 40
0.6487969398
 41
0.0
 42
6.283185307179586
  0
ARC
  5
23A
330
1F
100
AcDbEntity
  8
0
  6
Continuous
 62
     7
370
    15
100
AcDbCircle
 10
72.7918825634
 20
127.2286405564
 30
0.0
 40
31.49999999999999
100
AcDbArc
 50
111.1334060825
 51
256.8665939175
  0
CIRCLE
  5
23B
330
1F
100
AcDbEntity
  8
VERMASSUNG
  6
CENTERX2
100
AcDbCircle
 10
72.7918825634
 20
122.4876353682
 30
0.0
 40
39.99999999999999
  0
DIMENSION
  5
23C
330
1F
100
AcDbEntity
  8
VERMASSUNG
100
AcDbDimension
  2
_D_5
 10
47.4716190165
 20
91.5217791082
 30
0.0
 11
40.9315930605
 21
83.5235407282
 31
0.0
 70
   160
  1
%%c<> min. 
 71
     2
 42
-1.0
  3
SLDDIMSTYLE3
100
AcDbAlignedDimension
 13
98.1121461104
 23
153.4534916281
 33
0.0
 14
47.4716190165
 24
91.5217791082
 34
0.0
 50
50.7277068164
100
AcDbRotatedDimension
  0
INSERT
  5
256
330
1F
100
AcDbEntity
  8
VERMASSUNG
100
AcDbBlockReference
  2
SW_CENTERMARKSYMBOL_0
 10
72.7918825634
 20
127.2286405564
 30
0.0
  0
OLE2FRAME
  5
257
330
1F
100
AcDbEntity
  8
0
100
AcDbOle2Frame
 70
     2
  3
Paintbrush-Bild
 10
13.8511154363
 20
38.264191557
 30
0.0
 11
51.6290888628
 21
31.9806341108
 31
0.0
 71
     2
 72
     0
 73
     1
 90
    12928
310
80552BED0767C5B32B40DDAF6807D121434000000000000000006FFBDDFB85D0
310
4940DDAF6807D121434000000000000000006FFBDDFB85D04940416F4BD60AFB
310
3F4000000000000000002BED0767C5B32B40416F4BD60AFB3F40000000000000
310
0000000000000100000000010000010000000100000000000100000000320000
310
D0CF11E0A1B11AE1000000000000000000000000000000003E000300FEFF0900
310
0600000000000000000000000100000001000000000000000010000002000000
310
01000000FEFFFFFF0000000000000000FFFFFFFFFFFFFFFFFFFFFFFFFFFFFFFF
310
FFFFFFFFFFFFFFFFFFFFFFFFFFFFFFFFFFFFFFFFFFFFFFFFFFFFFFFFFFFFFFFF
310
FFFFFFFFFFFFFFFFFFFFFFFFFFFFFFFFFFFFFFFFFFFFFFFFFFFFFFFFFFFFFFFF
310
FFFFFFFFFFFFFFFFFFFFFFFFFFFFFFFFFFFFFFFFFFFFFFFFFFFFFFFFFFFFFFFF
310
FFFFFFFFFFFFFFFFFFFFFFFFFFFFFFFFFFFFFFFFFFFFFFFFFFFFFFFFFFFFFFFF
310
FFFFFFFFFFFFFFFFFFFFFFFFFFFFFFFFFFFFFFFFFFFFFFFFFFFFFFFFFFFFFFFF
310
FFFFFFFFFFFFFFFFFFFFFFFFFFFFFFFFFFFFFFFFFFFFFFFFFFFFFFFFFFFFFFFF
310
FFFFFFFFFFFFFFFFFFFFFFFFFFFFFFFFFFFFFFFFFFFFFFFFFFFFFFFFFFFFFFFF
310
FFFFFFFFFFFFFFFFFFFFFFFFFFFFFFFFFFFFFFFFFFFFFFFFFFFFFFFFFFFFFFFF
310
FFFFFFFFFFFFFFFFFFFFFFFFFFFFFFFFFFFFFFFFFFFFFFFFFFFFFFFFFFFFFFFF
310
FFFFFFFFFFFFFFFFFFFFFFFFFFFFFFFFFFFFFFFFFFFFFFFFFFFFFFFFFFFFFFFF
310
FFFFFFFFFFFFFFFFFFFFFFFFFFFFFFFFFFFFFFFFFFFFFFFFFFFFFFFFFFFFFFFF
310
FFFFFFFFFFFFFFFFFFFFFFFFFFFFFFFFFFFFFFFFFFFFFFFFFFFFFFFFFFFFFFFF
310
FFFFFFFFFFFFFFFFFFFFFFFFFFFFFFFFFFFFFFFFFFFFFFFFFFFFFFFFFFFFFFFF
310
FDFFFFFFFEFFFFFFFEFFFFFFFEFFFFFF05000000060000000700000008000000
310
090000000A0000000B0000000C0000000D0000000E0000000F00000010000000
310
11000000120000001300000014000000150000001600000017000000FEFFFFFF
310
FFFFFFFFFFFFFFFFFFFFFFFFFFFFFFFFFFFFFFFFFFFFFFFFFFFFFFFFFFFFFFFF
310
FFFFFFFFFFFFFFFFFFFFFFFFFFFFFFFFFFFFFFFFFFFFFFFFFFFFFFFFFFFFFFFF
310
FFFFFFFFFFFFFFFFFFFFFFFFFFFFFFFFFFFFFFFFFFFFFFFFFFFFFFFFFFFFFFFF
310
FFFFFFFFFFFFFFFFFFFFFFFFFFFFFFFFFFFFFFFFFFFFFFFFFFFFFFFFFFFFFFFF
310
FFFFFFFFFFFFFFFFFFFFFFFFFFFFFFFFFFFFFFFFFFFFFFFFFFFFFFFFFFFFFFFF
310
FFFFFFFFFFFFFFFFFFFFFFFFFFFFFFFFFFFFFFFFFFFFFFFFFFFFFFFFFFFFFFFF
310
FFFFFFFFFFFFFFFFFFFFFFFFFFFFFFFFFFFFFFFFFFFFFFFFFFFFFFFFFFFFFFFF
310
FFFFFFFFFFFFFFFFFFFFFFFFFFFFFFFFFFFFFFFFFFFFFFFFFFFFFFFFFFFFFFFF
310
FFFFFFFFFFFFFFFFFFFFFFFFFFFFFFFFFFFFFFFFFFFFFFFFFFFFFFFFFFFFFFFF
310
FFFFFFFFFFFFFFFFFFFFFFFFFFFFFFFFFFFFFFFFFFFFFFFFFFFFFFFFFFFFFFFF
310
FFFFFFFFFFFFFFFFFFFFFFFFFFFFFFFFFFFFFFFFFFFFFFFFFFFFFFFFFFFFFFFF
310
FFFFFFFFFFFFFFFFFFFFFFFFFFFFFFFFFFFFFFFFFFFFFFFFFFFFFFFFFFFFFFFF
310
FFFFFFFFFFFFFFFFFFFFFFFFFFFFFFFFFFFFFFFFFFFFFFFFFFFFFFFFFFFFFFFF
310
52006F006F007400200045006E00740072007900000000000000000000000000
310
0000000000000000000000000000000000000000000000000000000000000000
310
16000500FFFFFFFFFFFFFFFF020000000A00030000000000C000000000000046
310
000000000000000000000000D0C1A59B7939CD0103000000C000000000000000
310
01004F006C006500000000000000000000000000000000000000000000000000
310
0000000000000000000000000000000000000000000000000000000000000000
310
0A000200FFFFFFFFFFFFFFFFFFFFFFFF00000000000000000000000000000000
310
0000000000000000000000000000000000000000000000001400000000000000
310
010043006F006D0070004F0062006A0000000000000000000000000000000000
310
0000000000000000000000000000000000000000000000000000000000000000
310
120002010100000003000000FFFFFFFF00000000000000000000000000000000
310
0000000000000000000000000000000000000000010000004D00000000000000
310
01004F006C006500310030004E00610074006900760065000000000000000000
310
0000000000000000000000000000000000000000000000000000000000000000
310
1A000200FFFFFFFFFFFFFFFFFFFFFFFF00000000000000000000000000000000
310
0000000000000000000000000000000000000000040000002426000000000000
310
FEFFFFFF02000000FEFFFFFFFFFFFFFFFFFFFFFFFFFFFFFFFFFFFFFFFFFFFFFF
310
FFFFFFFFFFFFFFFFFFFFFFFFFFFFFFFFFFFFFFFFFFFFFFFFFFFFFFFFFFFFFFFF
310
FFFFFFFFFFFFFFFFFFFFFFFFFFFFFFFFFFFFFFFFFFFFFFFFFFFFFFFFFFFFFFFF
310
FFFFFFFFFFFFFFFFFFFFFFFFFFFFFFFFFFFFFFFFFFFFFFFFFFFFFFFFFFFFFFFF
310
FFFFFFFFFFFFFFFFFFFFFFFFFFFFFFFFFFFFFFFFFFFFFFFFFFFFFFFFFFFFFFFF
310
FFFFFFFFFFFFFFFFFFFFFFFFFFFFFFFFFFFFFFFFFFFFFFFFFFFFFFFFFFFFFFFF
310
FFFFFFFFFFFFFFFFFFFFFFFFFFFFFFFFFFFFFFFFFFFFFFFFFFFFFFFFFFFFFFFF
310
FFFFFFFFFFFFFFFFFFFFFFFFFFFFFFFFFFFFFFFFFFFFFFFFFFFFFFFFFFFFFFFF
310
FFFFFFFFFFFFFFFFFFFFFFFFFFFFFFFFFFFFFFFFFFFFFFFFFFFFFFFFFFFFFFFF
310
FFFFFFFFFFFFFFFFFFFFFFFFFFFFFFFFFFFFFFFFFFFFFFFFFFFFFFFFFFFFFFFF
310
FFFFFFFFFFFFFFFFFFFFFFFFFFFFFFFFFFFFFFFFFFFFFFFFFFFFFFFFFFFFFFFF
310
FFFFFFFFFFFFFFFFFFFFFFFFFFFFFFFFFFFFFFFFFFFFFFFFFFFFFFFFFFFFFFFF
310
FFFFFFFFFFFFFFFFFFFFFFFFFFFFFFFFFFFFFFFFFFFFFFFFFFFFFFFFFFFFFFFF
310
FFFFFFFFFFFFFFFFFFFFFFFFFFFFFFFFFFFFFFFFFFFFFFFFFFFFFFFFFFFFFFFF
310
FFFFFFFFFFFFFFFFFFFFFFFFFFFFFFFFFFFFFFFFFFFFFFFFFFFFFFFFFFFFFFFF
310
FFFFFFFFFFFFFFFFFFFFFFFFFFFFFFFFFFFFFFFFFFFFFFFFFFFFFFFFFFFFFFFF
310
0100000200000000000000000000000000000000000000000000000000000000
310
0000000000000000000000000000000000000000000000000000000000000000
310
0100FEFF030A0000FFFFFFFF0A00030000000000C00000000000004607000000
310
5042727573680007000000504272757368000700000050427275736800F439B2
310
7100000000000000000000000000000000000000000000000000000000000000
310
0000000000000000000000000000000000000000000000000000000000000000
310
0000000000000000000000000000000000000000000000000000000000000000
310
0000000000000000000000000000000000000000000000000000000000000000
310
0000000000000000000000000000000000000000000000000000000000000000
310
0000000000000000000000000000000000000000000000000000000000000000
310
0000000000000000000000000000000000000000000000000000000000000000
310
0000000000000000000000000000000000000000000000000000000000000000
310
0000000000000000000000000000000000000000000000000000000000000000
310
0000000000000000000000000000000000000000000000000000000000000000
310
0000000000000000000000000000000000000000000000000000000000000000
310
0000000000000000000000000000000000000000000000000000000000000000
310
20260000424D0E260000000000003E00000028000000B40200006E0000000100
310
01000000000000000000130B0000130B00000200000002000000000000FFFFFF
310
FFFFFFFFFFFFFFFFFFFFFFFFFFFFFFFFFFFFFFFFFFFFFFFFFFFFFFFFFFFFFFFF
310
FFFFFFFFFFFFFFFFFFFFFFFFFFFFFFFFFFFFFFFFFFFFFFFFFFFFFFFFFFFFFFFF
310
FFFFFFFFFFFFFFFFFFFFFFFFFFFFFFFFFFFFFFFFFFFFFFFFF000FFFFFFFFFFFF
310
FFFFFFFFFFFFFFFFFFFFFFFFFFFFFFFFFFFFFFFFFFFFFFFFFFFFFFFFFFFFFFFF
310
FFFFFFFFFFFFFFFFFFFFFFFFFFFFFFFFFFFFFFFFFFFFFFFFFFFFFFFFFFFFFFFF
310
FFFFFFFFFFFFFFFFFFFFFFFFFFFFFFFFF000FFFFFFFFFFFFFFFFFFFFFFFFFFFF
310
FFFFFFFFFFFFFFFFFFFFFFFFFFFFFFFFFFFFFFFFFFFFFFFFFFFFFFFFFFFFFFFF
310
FFFFFFFFFFFFFFFFFFFFFFFFFFFFFFFFFFFFFFFFFFFFFFFFFFFFFFFFFFFFFFFF
310
FFFFFFFFFFFFFFFFF000FFFFFFFFFFFFFFFFFFFFFFFFFFFFFFFFFFFFFFFFFFFF
310
FFFFFFFFFFFFFFFFFFFFFFFFFFFFFFFFFFFFFFFFFFFFFFFFFFFFFFFFFFFFFFFF
310
FFFFFFFFFFFFFFFFFFFFFFFFFFFFFFFFFFFFFFFFFFFFFFFFFFFFFFFFFFFFFFFF
310
F000FFFFFFFFFFFFFFFFFFFFFFFFFFFFFFFFFFFFFFFFFFFFFFFFFFFFFFFFFFFF
310
FFFFFFFFFFFFFFFFFFFFFFFFFFFFFFFFFFFFFFFFFFFFFFFFFFFFFFFFFFFFFFFF
310
FFFFFFFFFFFFFFFFFFFFFFFFFFFFFFFFFFFFFFFFFFFFFFFFF000FFFFFFFFFFFF
310
FFFFFFFFFFFFFFFFFFFFFFFFFFFFFFFFFFFFFFFFFFFFFFFFFFFFFFFFFFFFFFFF
310
FFFFFFFFFFFFFFFFFFFFFFFFFFFFFFFFFFFFFFFFFFFFFFFFFFFFFFFFFFFFFFFF
310
FFFFFFFFFFFFFFFFFFFFFFFFFFFFFFFFF000FFFFFFFFFFFFFFFFFFFFFFFFFFFF
310
FFFFFFFFFFFFFFFFFFFFFFFFFFFFFFFFFFFFFFFFFFFFFFFFFFFFFFFFFFFFFFFF
310
FFFFFFFFFFFFFFFFFFFFFFFFFFFFFFFFFFFFFFFFFFFFFFFFFFFFFFFFFFFFFFFF
310
FFFFFFFFFFFFFFFFF000FFFFFFFFFFFFFFFFFFFFFFFFFFFFFFFFFFFFFFFFFFFF
310
FFFFFFFFFFFFFFFFFFFFFFFFFFFFFFFFFFFFFFFFFFFFFFFFFFFFFFFFFFFFFFFF
310
FFFFFFFFFFFFFFFFFFFFFFFFFFFFFFFFFFFFFFFFFFFFFFFFFFFFFFFFFFFFFFFF
310
F000FFFFFFFFFFFFFFFFFFFFFFFFFFFFFFFFFFFFFFFFFFFFFFFFFFFFFFFFFFFF
310
FFFFFFFFFFFFFFFFFFFFFFFFFFFFFFFFFFFFFFFFFFFFFFFFFFFFFFFFFFFFFFFF
310
FFFFFFFFFFFFFFFFFFFFFFFFFFFFFFFFFFFFFFFFFFFFFFFFF000FFFFFFFFFFFF
310
FFFFFFFFFFFFFFFFFFFFFFFFFFFFFFFFFFFFFFFFFFFFFFFFFFFFFFFFFFFFFFFF
310
FFFFFFFFFFFFFFFFFFFFFFFFFFFFFFFFFFFFFFFFFFFFFFFFFFFFFFFFFFFFFFFF
310
FFFFFFFFFFFFFFFFFFFFFFFFFFFFFFFFF000FFFFFFFFFFFFFFFFFFFFFFFFFFFF
310
FFFFFFFFFFFFFFFFFFFFFFFFFFFFFFFFFFFFFFFFFFFFFFFFFFFFFFFFFFFFFFFF
310
FFFFFFFFFFFFFFFFFFFFFFFFFFFFFFFFFFFFFFFFFFFFFFFFFFFFFFFFFFFFFFFF
310
FFFFFFFFFFFFFFFFF000FFFFFFFFFFFFFFFFFFFFFFFFFFFFFFFFFFFFFFFFFFFF
310
FFFFFFFFFFFFFFFFFFFFFFFFFFFFFFFFFFFFFFFFFFFFFFFFFFFFFFFFFFFFFFFF
310
FFFFFFFFFFFFFFFFFFFFFFFFFFFFFFFFFFFFFFFFFFFFFFFFFFFFFFFFFFFFFFFF
310
F000FFFFFFFFFFFFFFFFFFFFFFFFFFFFFFFFFFFFFFFFFFFFFFFFFFFFFFFFFFFF
310
FFFFFFFFFFFFFFFFFFFFFFFFFFFFFFFFFFFFFFFFFFFFFFFFFFFFFFFFFFFFFFFF
310
FFFFFFFFFFFFFFFFFFFFFFFFFFFFFFFFFFFFFFFFFFFFFFFFF000FFFFFFFFFFFF
310
FFFFFFFFFFFFFFFFFFFFFFFFFFFFFFFFFFFFFFFFFFFFFFFFFFFFFFFFFFFFFFFF
310
FFFFFFFFFFFFFFFFFFFFFFFFFFFFFFFFFFFFFFFFFFFFFFFFFFFFFFFFFFFFFFFF
310
FFFFFFFFFFFFFFFFFFFFFFFFFFFFFFFFF000FFFFFFFFFFFFFFFFFFFFFFFFFFFF
310
FFFFFFFFFFFFFFFFFFFFFFFFFFFFFFFFFFFFFFFFFFFFFFFFFFFFFFFFFFFFFFFF
310
FFFFFFFFFFFFFFFFFFFFFFFFFFFFFFFFFFFFFFFFFFFFFFFFFFFFFFFFFFFFFFFF
310
FFFFFFFFFFFFFFFFF000FFFFFFFFFFFFFFFFFFFFFFFFFFFFFFFFFFFFFFFFFFFF
310
FFFFFFFFFFFFFFFFFFFFFFFFFFFFFFFFFFFFFFFFFFFFFFFFFFFFFFFFFFFFFFFF
310
FFFFFFFFFFFFFFFFFFFFFFFFFFFFFFFFFFFFFFFFFFFFFFFFFFFFFFFFFFFFFFFF
310
F000FFFFFFFFFFFFFFFFFFFFFFFFFFFFFFFFFFFFFFFFFFFFFFFFFFFFFFFFFFFF
310
FFFFFFFFFFFFFFFFFFFFFFFFFFFFFFFFFFFFFFFFFFFFFFFFFFFFFFFFFFFFFFFF
310
FFFFFFFFFFFFFFFFFFFFFFFFFFFFFFFFFFFFFFFFFFFFFFFFF000FFFFFFFFFFFF
310
FFFFFFFFFFFFFFFFFFFFFFFFFFFFFFFFFFFFFFFFFFFFFFFFFFFFFFFFFFFFFFFF
310
FFFFFFFFFFFFFFFFFFFFFFFFFFFFFFFFFFFFFFFFFFFFFFFFFFFFFFFFFFFFFFFF
310
FFFFFFFFFFFFFFFFFFFFFFFFFFFFFFFFF000FFFFFFFFFFFFFFFFFFFFFFFFFFFF
310
FFFFFFFFFFFFFFFFFFFFFFFFFFFFFFFFFFFFFFFFFFFFFFFFFFFFFFFFFFFFFFFF
310
FFFFFFFFFFFFFFFFFFFFFFFFFFFFFFFFFFFFFFFFFFFFFFFFFFFFFFFFFFFFFFFF
310
FFFFFFFFFFFFFFFFF000FFFFF80003FFFFFFFFFFFFFFFFFFFFFFFFFFFFFFFFFF
310
FFFFF00007FFFFFFFFFF00007FFFFFF800000000000000007FFFFFFFFFFFFFFF
310
FFFFFFFC001FFFFFFFFFFFFFFC001FFFFFFFFFFFFFFFFFFFFFFFFFFE0007FFFF
310
F000FFFF8000007FFFFFFFF8000FFFFFC0007FFFFF80007FFFFF0000007FFFFF
310
FFF8000007FFFFF800000000000000007FFFFFF0001FFFFFFFFFFFC00001FFFF
310
FFFFFFFFC00001FFFFFFFF000000000003FFFFE000007FFFF000FFFE0000000F
310
FFFFFFF0000FFFFF80007FFFFF80007FFFFC0000001FFFFFFFC0000001FFFFF8
310
00000000000000007FFFFFF0001FFFFFFFFFFE0000003FFFFFFFFFFE0000003F
310
FFFFFF000000000003FFFF0000000FFFF000FFF800000003FFFFFFF00007FFFF
310
80007FFFFF80007FFFF000000007FFFFFF000000003FFFF80000000000000000
310
7FFFFFF0001FFFFFFFFFF80000000FFFFFFFFFF80000000FFFFFFF0000000000
310
03FFFC00000003FFF000FFE000000000FFFFFFF00007FFFF80003FFFFF80007F
310
FFC000000001FFFFFC000000001FFFF800000000000000007FFFFFF0001FFFFF
310
FFFFE000000003FFFFFFFFE000000003FFFFFF000000000003FFF000000000FF
310
F000FF80000000007FFFFFF00007FFFF80003FFFFF80007FFF8000000000FFFF
310
F80000000007FFF800000000000000007FFFFFF0001FFFFFFFFFC000000001FF
310
FFFFFFC000000001FFFFFF000000000003FFC0000000007FF000FF0000000000
310
3FFFFFE00007FFFF00003FFFFF80007FFE00000000003FFFF00000000003FFF8
310
00000000000000007FFFFFF0001FFFFFFFFF8000000000FFFFFFFF8000000000
310
FFFFFF000000000003FF80000000003FF000FE00000000001FFFFFE00003FFFF
310
00003FFFFF80007FFC00000000001FFFE00000000001FFF8000001FFFE000000
310
7FFFFFF0001FFFFFFFFE00000000003FFFFFFE00000000003FFFFF0000000000
310
03FF00000000001FF000FC00000000000FFFFFE00003FFFF00001FFFFF80007F
310
F800000000001FFFC00000000000FFF8000001FFFE0000007FFFFFF0001FFFFF
310
FFFC00000000001FFFFFFC00000000001FFFFF000000000003FE00000000000F
310
F000F8000000000007FFFFE00003FFFF00001FFFFF80007FF800000000000FFF
310
800000000000FFF8000001FFFE0000007FFFFFF0001FFFFFFFF800000000000F
310
FFFFF800000000000FFFFF000000000003FC000000000007F000F80000000000
310
03FFFFC00003FFFE00001FFFFF80007FF0000000000007FF0000000000007FF8
310
000001FFFE0000007FFFFFF0001FFFFFFFF0000000000007FFFFF00000000000
310
07FFFF000000000003F8000000000003F000F0000000000003FFFFC00001FFFE
310
00001FFFFF80007FE0000000000007FE0000000000003FF8000001FFFE000000
310
7FFFFFF0001FFFFFFFF0000000000007FFFFF0000000000007FFFF0000000000
310
03F800001F800003F000E00001FFF00001FFFFC00001FFFE00000FFFFF80007F
310
E00001FFE00003FE00001FFF00003FF8000001FFFE0000007FFFFFF0001FFFFF
310
FFE000003E000003FFFFE000003E000003FFFF000000000003F00001FFF80001
310
F000E00007FFFC0001FFFFC00001FFFE00000FFFFF80007FC0000FFFFC0003FC
310
0000FFFFC0001FF8000001FFFE0000007FFFFFF0001FFFFFFFC00003FFE00001
310
FFFFC00003FFE00001FFFF0001FFFFFFFFF00007FFFE0001F000E0000FFFFF00
310
00FFFF800001FFFC00000FFFFF80007FC0001FFFFE0001FC0001FFFFE0001FF8
310
000001FFFE0000007FFFFFF0001FFFFFFF80000FFFF80000FFFF80000FFFF800
310
00FFFF0003FFFFFFFFE0000FFFFF8000F000C0003FFFFF8000FFFF800000FFFC
310
000007FFFF80007F80003FFFFF0001FC0003FFFFF0001FF8000001FFFE000000
310
7FFFFFF0001FFFFFFF80003FFFFE0000FFFF80003FFFFE0000FFFF0003FFFFFF
310
FFE0003FFFFF8000F000C0003FFFFF8000FFFF800000FFFC000007FFFF80007F
310
80007FFFFF8001F80007FFFFF8000FF8000001FFFE0000007FFFFFF0001FFFFF
310
FF00007FFFFF00007FFF00007FFFFF00007FFF0003FFFFFFFFE0003FFFFFC000
310
F000C0007FFFFFC000FFFF000000FFFC000007FFFF80007F8000FFFFFF8000F8
310
000FFFFFF8000FF8000001FFFE0000007FFFFFF0001FFFFFFF0000FFFFFF8000
310
7FFF0000FFFFFF80007FFF0003FFFFFFFFC0007FFFFFC00070008000FFFFFFC0
310
00FFFF000000FFF8000007FFFF80007F8000FFFFFF8000F8000FFFFFF8000FF8
310
000001FFFE0000007FFFFFF0001FFFFFFE0001FFFFFFC0003FFE0001FFFFFFC0
310
003FFF0003FFFFFFFFC0007FFFFFE00070008000FFFFFFC0007FFF0000007FF8
310
000003FFFF80007F0001FFFFFF8000F8000FFFFFF8000FF8000001FFFE000000
310
7FFFFFF0001FFFFFFE0001FFFFFFC0003FFE0001FFFFFFC0003FFF0003FFFFFF
310
FFC000FFFFFFE00070008000FFFFFFC0007FFF0000007FF8000003FFFF80007F
310
0001FFFFFF8000F8001FFFFFF8000FF8000001FFFE0000007FFFFFF0001FFFFF
310
FE0003FFFFFFE0003FFE0003FFFFFFE0003FFF0003FFFFFFFFC000FFFFFFE000
310
70008000FFFFFFC0007FFE0000007FF8000003FFFF80007F0001FFFFFF8000F0
310
001FFFFFF8000FF8000001FFFE0000007FFFFFF0001FFFFFFC0003FFFFFFE000
310
1FFC0003FFFFFFE0001FFF0003FFFFFFFFC000FFFFFFC00070008000FFFFFF80
310
007FFE0000007FF0000003FFFF80007F0001FFFFFF0000F0001FFFFFF8000FF8
310
000001FFFE0000007FFFFFF0001FFFFFFC0007FFFFFFF0001FFC0007FFFFFFF0
310
001FFF0003FFFFFFFFC000FFFFFFC00070008001FFFFFF0000FFFE0000003FF0
310
000001FFFF80007F0001FFFFFF0000F8001FFFFFF0000FF8000001FFFE000000
310
7FFFFFF0001FFFFFFC0007FFFFFFF0001FFC0007FFFFFFF0001FFF0003FFFFFF
310
FFC001FFFFFF80007000FFFFFFFFFE0000FFFE0008003FF0008001FFFF80007F
310
FFFFFFFFFC0000FFFFFFFFFFE0000FF8000001FFFE0000007FFFFFF0001FFFFF
310
F8000FFFFFFFF8000FF8000FFFFFFFF8000FFF0003FFFFFFFFFFFFFFFFFF0000
310
7000FFFFFFFFFC0000FFFC0008003FF0008001FFFF80007FFFFFFFFFF80001FF
310
FFFFFFFF80000FF8000001FFFE0000007FFFFFF0001FFFFFF8000FFFFFFFF800
310
0FF8000FFFFFFFF8000FFF0003FFFFFFFFFFFFFFFFFE0000F000FFFFFFFFE000
310
00FFFC000C003FE000C001FFFF80007FFFFFFFFFC00001FFFFFFFFFE00001FF8
310
000001FFFE0000007FFFFFF0001FFFFFF8000FFFFFFFF8000FF8000FFFFFFFF8
310
000FFF0003FFFFFFFFFFFFFFFFF00000F000FFFFFFFE000001FFFC000C001FE0
310
00C000FFFF80007FFFFFFFFE000001FFFFFFFFE000001FF80FFFFFFFFFFFFFC0
310
7FFFFFF0001FFFFFF8000FFFFFFFF8000FF8000FFFFFFFF8000FFF0003FFFFFF
310
FFFFFFFFFF800000F000FFFFFFC0000001FFFC001C001FE001C000FFFF80007F
310
FFFFFF80000003FFFFFFF80000001FF80FFFFFFFFFFFFFC07FFFFFF0001FFFFF
310
F8001FFFFFFFFC000FF8001FFFFFFFFC000FFF0003FFFFFFFFFFFFFFF0000001
310
F000FFFFF800000001FFF8001C001FE001C000FFFF80007FFFFFF800000003FF
310
FFFF800000003FF80FFFFFFFFFFFFFC07FFFFFF0001FFFFFF8001FFFFFFFFC00
310
0FF8001FFFFFFFFC000FFF0003FFFFFFFFFFFFFE00000001F000FFFFC0000000
310
03FFF8001E001FC001E000FFFF80007FFFFF8000000007FFFFFC000000003FF8
310
0FFFFFFFFFFFFFC07FFFFFF0001FFFFFF8001FFFFFFFFC000FF8001FFFFFFFFC
310
000FFF0003FFFFFFFFFFFFE000000003F000FFFE0000000007FFF8001E000FC0
310
01E0007FFF80007FFFFE0000000007FFFFE0000000007FF80FFFFFFFFFFFFFC0
310
7FFFFFF0001FFFFFF0001FFFFFFFFC0007F0001FFFFFFFFC0007FF0003FFFFFF
310
FFFFFF0000000003F000FFF80000000007FFF8001E000FC003E0007FFF80007F
310
FFF0000000000FFFFF8000000000FFF80FFFFFFFFFFFFFC07FFFFFF0001FFFFF
310
F0001FFFFFFFFC0007F0001FFFFFFFFC0007FF0003FFFFFFFFFFFC0000000007
310
F000FFE0000000000FFFF0003E000FC003E0007FFF80007FFFC0000000001FFF
310
FE0000000001FFF80FFFFFFFFFFFFFC07FFFFFF0001FFFFFF0001FFFFFFFFC00
310
07F0001FFFFFFFFC0007FF0003FFFFFFFFFFF0000000000FF000FFC000000000
310
1FFFF0003F000F8003F0003FFF80007FFF80000000003FFFF80000000003FFF8
310
0FFFFFFFFFFFFFC07FFFFFF0001FFFFFF0001FFFFFFFFC0007F0001FFFFFFFFC
310
0007FF0003FFFFFFFFFFE0000000001FF000FF00000000007FFFF0003F000780
310
03F0003FFF80007FFF00000000007FFFF00000000007FFF80FFFFFFFFFFFFFC0
310
7FFFFFF0001FFFFFF0001FFFFFFFFC0007F0001FFFFFFFFC0007FF0003FFFFFF
310
FFFF80000000007FF000FE0000000000FFFFE0003F00078007F0003FFF80007F
310
FE0000000001FFFFE0000000001FFFF80FFFFFFFFFFFFFC07FFFFFF0001FFFFF
310
F0001FFFFFFFFC0007F0001FFFFFFFFC0007FF0003FFFFFFFFFF0000000000FF
310
F000FC0000000003FFFFE0007F00078007F0003FFF80007FFC0000000007FFFF
310
C0000000007FFFF80FFFFFFFFFFFFFC07FFFFFF0001FFFFFF8001FFFFFFFFC00
310
0FF8001FFFFFFFFC000FFF0003FFFFFFFFFE0000000003FFF000FC000000000F
310
FFFFE0007F80070007F8001FFF80007FF8000000001FFFFF8000000001FFFFF8
310
0FFFFFFFFFFFFFC07FFFFFF0001FFFFFF8001FFFFFFFFC000FF8001FFFFFFFFC
310
000FFF0003FFFFFFFFFC000000000FFFF000F8000000007FFFFFE0007F800700
310
07F8001FFF80007FF000000000FFFFFF800000000FFFFFF80FFFFFFFFFFFFFC0
310
7FFFFFF0001FFFFFF8000FFFFFFFF8000FF8000FFFFFFFF8000FFF0003FFFFFF
310
FFFC000000007FFFF000F800000007FFFFFFC0007F8003000FF8001FFF80007F
310
F000000007FFFFFF000000007FFFFFF80FFFFFFFFFFFFFC07FFFFFF0001FFFFF
310
F8000FFFFFFFF8000FF8000FFFFFFFF8000FFF0003FFFFFFFFF80000000FFFFF
310
F000F0000000FFFFFFFFC000FF8003000FF8001FFF80007FE0000000FFFFFFFF
310
0000000FFFFFFFF8000001FFFE0000007FFFFFF0001FFFFFF8000FFFFFFFF800
310
0FF8000FFFFFFFF8000FFF0003FFFFFFFFF8000000FFFFFFF000F000000FFFFF
310
FFFFC000FFC002000FF8000FFF80007FE000001FFFFFFFFE000001FFFFFFFFF8
310
000001FFFE0000007FFFFFF0001FFFFFF8000FFFFFFFF8000FF8000FFFFFFFF8
310
000FFF0003FFFFFFFFF000001FFFFFFFF000E00000FFFFFFFFFFC000FFC00200
310
0FFC000FFF80007FE00001FFFFFFFFFE00001FFFFFFFFFF8000001FFFE000000
310
7FFFFFF0001FFFFFFC000FFFFFFFF8001FFC000FFFFFFFF8001FFF0003FFFFFF
310
FFF00001FFFFFFFFF000E00007FFFFFFFFFF8000FFC000001FFC000FFF80007F
310
C0000FFFFFFFFFFE0000FFFFFFFFFFF8000001FFFE0000007FFFFFF0001FFFFF
310
FC0007FFFFFFF0001FFC0007FFFFFFF0001FFF0003FFFFFFFFF00007FFFFFFFF
310
F000E0001FFFFFFFFFFF8000FFC000001FFC000FFF80007FC0003FFFFFFFFFFE
310
0001FFFFFFFFFFF8000001FFFE0000007FFFFFF0001FFFFFFC0007FFFFFFF000
310
1FFC0007FFFFFFF0001FFF0003FFFFFFFFF0001FFFFFFFFFF000E0003FFFFF00
310
03FF8001FFE000001FFC0007FF80007FC0007FFFFF0007FC0003FFFFF0003FF8
310
000001FFFE0000007FFFFFF0001FFFFFFC0003FFFFFFE0001FFC0003FFFFFFE0
310
001FFF0003FFFFFFFFF0003FFFFFFFFFF000E0003FFFFF0001FF8001FFE00000
310
1FFE0007FF80007FC0007FFFFE0003FC0007FFFFE0003FF8000001FFFE000000
310
7FFFFFF0001FFFFFFE0003FFFFFFE0003FFE0003FFFFFFE0003FFF0003FFFFFF
310
FFF0003FFFFF8001F000E0003FFFFF0001FF0001FFE000001FFE0007FF80007F
310
C0007FFFFE0003FC0007FFFFE0003FF8000001FFFE0000007FFFFFF0001FFFFF
310
FE0001FFFFFFC0003FFE0001FFFFFFC0003FFF0003FFFFFFFFF0003FFFFF0001
310
F000E0003FFFFF0003FF0001FFE000003FFE0007FF80007FC0007FFFFE0003FC
310
0007FFFFE0003FF8000001FFFE0000007FFFFFF0001FFFFFFF0001FFFFFFC000
310
7FFF0001FFFFFFC0007FFF0003FFFFFFFFF0003FFFFF0001F000E0003FFFFE00
310
03FF0003FFF000003FFE0003FF80007FC0007FFFFC0003FE0007FFFFE0003FF8
310
000001FFFE0000007FFFFFF0001FFFFFFF0000FFFFFF80007FFF0000FFFFFF80
310
007FFF0003FFFFFFFFF0003FFFFF0001F000E0003FFFFE0003FF0003FFF00000
310
3FFF0003FF80007FC0007FFFFC0007FE0007FFFFC0003FF8000001FFFE000000
310
7FFFFFF0001FFFFFFF80007FFFFF0000FFFF80007FFFFF0000FFFF0003FFFFFF
310
FFF0003FFFFF0003F000E0003FFFFC0003FE0003FFF000003FFF0003FF80007F
310
E0003FFFF80007FE0003FFFFC0007FF8000001FFFE0000007FFFFFF0001FFFFF
310
FF80003FFFFE0000FFFF80003FFFFE0000FFFF0003FFFFFFFFF0001FFFFE0003
310
F000F0001FFFF80003FE0003FFF000007FFF0001FF80007FE0003FFFF00007FE
310
0001FFFF80007FF8000001FFFE0000007FFFFFF0001FFFFFFFC0000FFFF80001
310
FFFFC0000FFFF80001FFFF0003FFFFFFFFF0001FFFFC0003F000F0000FFFF000
310
07FE0007FFF800007FFF0001FF80007FE0001FFFE00007FF0000FFFE00007FF8
310
000001FFFE0000007FFFFFF0001FFFFFFFC00003FFE00001FFFFC00003FFE000
310
01FFFF0003FFFFFFFFF8000FFFF80003F000F00003FFC00007FC0007FFF80000
310
7FFF8001FF80007FF00007FF80000FFF00007FF80000FFF8000001FFFE000000
310
7F80000000000001FFE000003E000003FFFFE000003E000003FFFF0003FFFFFF
310
FFF80003FFE00007F000F800000000000FFC0007FFF800007FFF8001FF80007F
310
F000000000000FFF000000000000FFF8000001FFFE0000007F80000000000001
310
FFF0000000000007FFFFF0000000000007FFFF0003FFFFFFFFFC00007E000007
310
F000F800000000000FFC0007FFF80000FFFF8000FF80007FF800000000001FFF
310
800000000001FFF8000001FFFE0000007F80000000000001FFF800000000000F
310
FFFFF800000000000FFFFF0003FFFFFFFFFC00000000000FF000FC0000000000
310
1FFC0007FFFC0000FFFF8000FF80007FF800000000003FFFC00000000001FFF8
310
000001FFFE0000007F80000000000001FFF800000000000FFFFFF80000000000
310
0FFFFF0003FFFFFFFFFE00000000001FF000FE00000000003FF8000FFFFC0000
310
FFFF8000FF80007FFC00000000003FFFC00000000003FFF8000001FFFE000000
310
7F80000000000001FFFC00000000001FFFFFFC00000000001FFFFF0003FFFFFF
310
FFFF00000000001FF000FF00000000003FF8000FFFFC0000FFFFC000FF80007F
310
FE00000000007FFFE00000000007FFF8000001FFFE0000007F80000000000001
310
FFFE00000000003FFFFFFE00000000003FFFFF0003FFFFFFFFFF80000000003F
310
F000FF80000000007FF8000FFFFC0001FFFFC0007F80007FFF0000000000FFFF
310
F0000000000FFFF800000000000000007F80000000000001FFFF8000000000FF
310
FFFFFF8000000000FFFFFF0003FFFFFFFFFFC0000000007FF000FFC000000000
310
FFF8000FFFFE0001FFFFC0007F80007FFF8000000001FFFFF8000000001FFFF8
310
00000000000000007F80000000000001FFFFC000000001FFFFFFFFC000000001
310
FFFFFF0003FFFFFFFFFFE000000000FFF000FFE000000003FFF0001FFFFE0001
310
FFFFC0007F80007FFFC000000007FFFFFE000000003FFFF80000000000000000
310
7F80000000000001FFFFE000000003FFFFFFFFE000000003FFFFFF0003FFFFFF
310
FFFFF000000003FFF000FFF80000000FFFF0001FFFFE0001FFFFE0007F80007F
310
FFF00000000FFFFFFF00000000FFFFF800000000000000007F80000000000001
310
FFFFF80000000FFFFFFFFFF80000000FFFFFFF0003FFFFFFFFFFFC0000000FFF
310
F000FFFE0000003FFFF0001FFFFE0003FFFFE0003F80007FFFFC0000003FFFFF
310
FFC0000003FFFFF800000000000000007F80000000000001FFFFFE0000003FFF
310
FFFFFFFE0000003FFFFFFF0003FFFFFFFFFFFF0000003FFFF000FFFF800000FF
310
FFF0001FFFFF0003FFFFE0003F80007FFFFF000001FFFFFFFFF800001FFFFFF8
310
00000000000000007F80000000000001FFFFFFC00001FFFFFFFFFFFFC00001FF
310
FFFFFF0003FFFFFFFFFFFFC00000FFFFF000FFFFF8000FFFFFFFFFFFFFFFFFFF
310
FFFFFFFFFFFFFFFFFFFFF0001FFFFFFFFFFF0000FFFFFFF80000000000000000
310
7FFFFFFFFFFFFFFFFFFFFFFC001FFFFFFFFFFFFFFC001FFFFFFFFFFFFFFFFFFF
310
FFFFFFFC001FFFFFF000FFFFFFFFFFFFFFFFFFFFFFFFFFFFFFFFFFFFFFFFFFFF
310
FFFFFFFFFFFFFFFFFFFFFFFFFFFFFFFFFFFFFFFFFFFFFFFFFFFFFFFFFFFFFFFF
310
FFFFFFFFFFFFFFFFFFFFFFFFFFFFFFFFFFFFFFFFFFFFFFFFFFFFFFFFFFFFFFFF
310
F000FFFFFFFFFFFFFFFFFFFFFFFFFFFFFFFFFFFFFFFFFFFFFFFFFFFFFFFFFFFF
310
FFFFFFFFFFFFFFFFFFFFFFFFFFFFFFFFFFFFFFFFFFFFFFFFFFFFFFFFFFFFFFFF
310
FFFFFFFFFFFFFFFFFFFFFFFFFFFFFFFFFFFFFFFFFFFFFFFFF000FFFFFFFFFFFF
310
FFFFFFFFFFFFFFFFFFFFFFFFFFFFFFFFFFFFFFFFFFFFFFFFFFFFFFFFFFFFFFFF
310
FFFFFFFFFFFFFFFFFFFFFFFFFFFFFFFFFFFFFFFFFFFFFFFFFFFFFFFFFFFFFFFF
310
FFFFFFFFFFFFFFFFFFFFFFFFFFFFFFFFF000FFFFFFFFFFFFFFFFFFFFFFFFFFFF
310
FFFFFFFFFFFFFFFFFFFFFFFFFFFFFFFFFFFFFFFFFFFFFFFFFFFFFFFFFFFFFFFF
310
FFFFFFFFFFFFFFFFFFFFFFFFFFFFFFFFFFFFFFFFFFFFFFFFFFFFFFFFFFFFFFFF
310
FFFFFFFFFFFFFFFFF000FFFFFFFFFFFFFFFFFFFFFFFFFFFFFFFFFFFFFFFFFFFF
310
FFFFFFFFFFFFFFFFFFFFFFFFFFFFFFFFFFFFFFFFFFFFFFFFFFFFFFFFFFFFFFFF
310
FFFFFFFFFFFFFFFFFFFFFFFFFFFFFFFFFFFFFFFFFFFFFFFFFFFFFFFFFFFFFFFF
310
F000FFFFFFFFFFFFFFFFFFFFFFFFFFFFFFFFFFFFFFFFFFFFFFFFFFFFFFFFFFFF
310
FFFFFFFFFFFFFFFFFFFFFFFFFFFFFFFFFFFFFFFFFFFFFFFFFFFFFFFFFFFFFFFF
310
FFFFFFFFFFFFFFFFFFFFFFFFFFFFFFFFFFFFFFFFFFFFFFFFF000FFFFFFFFFFFF
310
FFFFFFFFFFFFFFFFFFFFFFFFFFFFFFFFFFFFFFFFFFFFFFFFFFFFFFFFFFFFFFFF
310
FFFFFFFFFFFFFFFFFFFFFFFFFFFFFFFFFFFFFFFFFFFFFFFFFFFFFFFFFFFFFFFF
310
FFFFFFFFFFFFFFFFFFFFFFFFFFFFFFFFF000FFFFFFFFFFFFFFFFFFFFFFFFFFFF
310
FFFFFFFFFFFFFFFFFFFFFFFFFFFFFFFFFFFFFFFFFFFFFFFFFFFFFFFFFFFFFFFF
310
FFFFFFFFFFFFFFFFFFFFFFFFFFFFFFFFFFFFFFFFFFFFFFFFFFFFFFFFFFFFFFFF
310
FFFFFFFFFFFFFFFFF000FFFFFFFFFFFFFFFFFFFFFFFFFFFFFFFFFFFFFFFFFFFF
310
FFFFFFFFFFFFFFFFFFFFFFFFFFFFFFFFFFFFFFFFFFFFFFFFFFFFFFFFFFFFFFFF
310
FFFFFFFFFFFFFFFFFFFFFFFFFFFFFFFFFFFFFFFFFFFFFFFFFFFFFFFFFFFFFFFF
310
F000FFFFFFFFFFFFFFFFFFFFFFFFFFFFFFFFFFFFFFFFFFFFFFFFFFFFFFFFFFFF
310
FFFFFFFFFFFFFFFFFFFFFFFFFFFFFFFFFFFFFFFFFFFFFFFFFFFFFFFFFFFFFFFF
310
FFFFFFFFFFFFFFFFFFFFFFFFFFFFFFFFFFFFFFFFFFFFFFFFF000FFFFFFFFFFFF
310
FFFFFFFFFFFFFFFFFFFFFFFFFFFFFFFFFFFFFFFFFFFFFFFFFFFFFFFFFFFFFFFF
310
FFFFFFFFFFFFFFFFFFFFFFFFFFFFFFFFFFFFFFFFFFFFFFFFFFFFFFFFFFFFFFFF
310
FFFFFFFFFFFFFFFFFFFFFFFFFFFFFFFFF000FFFFFFFFFFFFFFFFFFFFFFFFFFFF
310
FFFFFFFFFFFFFFFFFFFFFFFFFFFFFFFFFFFFFFFFFFFFFFFFFFFFFFFFFFFFFFFF
310
FFFFFFFFFFFFFFFFFFFFFFFFFFFFFFFFFFFFFFFFFFFFFFFFFFFFFFFFFFFFFFFF
310
FFFFFFFFFFFFFFFFF000FFFFFFFFFFFFFFFFFFFFFFFFFFFFFFFFFFFFFFFFFFFF
310
FFFFFFFFFFFFFFFFFFFFFFFFFFFFFFFFFFFFFFFFFFFFFFFFFFFFFFFFFFFFFFFF
310
FFFFFFFFFFFFFFFFFFFFFFFFFFFFFFFFFFFFFFFFFFFFFFFFFFFFFFFFFFFFFFFF
310
F000FFFFFFFFFFFFFFFFFFFFFFFFFFFFFFFFFFFFFFFFFFFFFFFFFFFFFFFFFFFF
310
FFFFFFFFFFFFFFFFFFFFFFFFFFFFFFFFFFFFFFFFFFFFFFFFFFFFFFFFFFFFFFFF
310
FFFFFFFFFFFFFFFFFFFFFFFFFFFFFFFFFFFFFFFFFFFFFFFFF000FFFFFFFFFFFF
310
FFFFFFFFFFFFFFFFFFFFFFFFFFFFFFFFFFFFFFFFFFFFFFFFFFFFFFFFFFFFFFFF
310
FFFFFFFFFFFFFFFFFFFFFFFFFFFFFFFFFFFFFFFFFFFFFFFFFFFFFFFFFFFFFFFF
310
FFFFFFFFFFFFFFFFFFFFFFFFFFFFFFFFF000FFFFFFFFFFFFFFFFFFFFFFFFFFFF
310
FFFFFFFFFFFFFFFFFFFFFFFFFFFFFFFFFFFFFFFFFFFFFFFFFFFFFFFFFFFFFFFF
310
FFFFFFFFFFFFFFFFFFFFFFFFFFFFFFFFFFFFFFFFFFFFFFFFFFFFFFFFFFFFFFFF
310
FFFFFFFFFFFFFFFFF000FFFFFFFFFFFFFFFFFFFFFFFFFFFFFFFFFFFFFFFFFFFF
310
FFFFFFFFFFFFFFFFFFFFFFFFFFFFFFFFFFFFFFFFFFFFFFFFFFFFFFFFFFFFFFFF
310
FFFFFFFFFFFFFFFFFFFFFFFFFFFFFFFFFFFFFFFFFFFFFFFFFFFFFFFFFFFFFFFF
310
F000FFFFFFFFFFFFFFFFFFFFFFFFFFFFFFFFFFFFFFFFFFFFFFFFFFFFFFFFFFFF
310
FFFFFFFFFFFFFFFFFFFFFFFFFFFFFFFFFFFFFFFFFFFFFFFFFFFFFFFFFFFFFFFF
310
FFFFFFFFFFFFFFFFFFFFFFFFFFFFFFFFFFFFFFFFFFFFFFFFF000FFFFFFFFFFFF
310
FFFFFFFFFFFFFFFFFFFFFFFFFFFFFFFFFFFFFFFFFFFFFFFFFFFFFFFFFFFFFFFF
310
FFFFFFFFFFFFFFFFFFFFFFFFFFFFFFFFFFFFFFFFFFFFFFFFFFFFFFFFFFFFFFFF
310
FFFFFFFFFFFFFFFFFFFFFFFFFFFFFFFFF000FFFFFFFFFFFFFFFFFFFFFFFFFFFF
310
FFFFFFFFFFFFFFFFFFFFFFFFFFFFFFFFFFFFFFFFFFFFFFFFFFFFFFFFFFFFFFFF
310
FFFFFFFFFFFFFFFFFFFFFFFFFFFFFFFFFFFFFFFFFFFFFFFFFFFFFFFFFFFFFFFF
310
FFFFFFFFFFFFFFFFF000FFFFFFFFFFFFFFFFFFFFFFFFFFFFFFFFFFFFFFFFFFFF
310
FFFFFFFFFFFFFFFFFFFFFFFFFFFFFFFFFFFFFFFFFFFFFFFFFFFFFFFFFFFFFFFF
310
FFFFFFFFFFFFFFFFFFFFFFFFFFFFFFFFFFFFFFFFFFFFFFFFFFFFFFFFFFFFFFFF
310
F000FFFFFFFFFFFFFFFFFFFFFFFFFFFFFFFFFFFFFFFFFFFFFFFFFFFFFFFFFFFF
310
FFFFFFFFFFFFFFFFFFFFFFFFFFFFFFFFFFFFFFFFFFFFFFFFFFFFFFFFFFFFFFFF
310
FFFFFFFFFFFFFFFFFFFFFFFFFFFFFFFFFFFFFFFFFFFFFFFFF000FFFFFFFFFFFF
310
FFFFFFFFFFFFFFFFFFFFFFFFFFFFFFFFFFFFFFFFFFFFFFFFFFFFFFFFFFFFFFFF
310
FFFFFFFFFFFFFFFFFFFFFFFFFFFFFFFFFFFFFFFFFFFFFFFFFFFFFFFFFFFFFFFF
310
FFFFFFFFFFFFFFFFFFFFFFFFFFFFFFFFF0000000000000000000000000000000
310
0000000000000000000000000000000000000000000000000000000000000000
310
0000000000000000000000000000000000000000000000000000000000000000
310
0000000000000000000000000000000000000000000000000000000000000000
310
0000000000000000000000000000000000000000000000000000000000000000
310
0000000000000000000000000000000000000000000000000000000000000000
310
0000000000000000000000000000000000000000000000000000000000000000
310
0000000000000000000000000000000000000000000000000000000000000000
310
0000000000000000000000000000000000000000000000000000000000000000
310
0000000000000000000000000000000000000000000000000000000000000000
310
0000000000000000000000000000000000000000000000000000000000000000
310
0000000000000000000000000000000000000000000000000000000000000000
310
0000000000000000000000000000000000000000000000000000000000000000
310
0000000000000000000000000000000000000000000000000000000000000000
310
0000000000000000000000000000000000000000000000000000000000000000
310
0000000000000000000000000000000000000000000000000000000000000000
  1
OLE
  0
ENDSEC
  0
SECTION
  2
OBJECTS
  0
DICTIONARY
  5
C
330
0
100
AcDbDictionary
281
     1
  3
ACAD_GROUP
350
D
  3
ACAD_LAYOUT
350
1A
  3
ACAD_MLINESTYLE
350
17
  3
ACAD_PLOTSETTINGS
350
19
  3
ACAD_PLOTSTYLENAME
350
E
  0
DICTIONARY
  5
D
102
{ACAD_REACTORS
330
C
102
}
330
C
100
AcDbDictionary
281
     1
  0
DICTIONARY
  5
1A
102
{ACAD_REACTORS
330
C
102
}
330
C
100
AcDbDictionary
281
     1
  3
Layout1
350
1E
  3
Layout2
350
26
  3
Model
350
22
  0
DICTIONARY
  5
17
102
{ACAD_REACTORS
330
C
102
}
330
C
100
AcDbDictionary
281
     1
  3
Standard
350
18
  0
DICTIONARY
  5
19
102
{ACAD_REACTORS
330
C
102
}
330
C
100
AcDbDictionary
281
     1
  0
ACDBDICTIONARYWDFLT
  5
E
102
{ACAD_REACTORS
330
C
102
}
330
C
100
AcDbDictionary
281
     1
  3
Normal
350
F
100
AcDbDictionaryWithDefault
340
F
  0
LAYOUT
  5
1E
102
{ACAD_REACTORS
330
1A
102
}
330
1A
100
AcDbPlotSettings
  1

  2
none_device
  4

  6

 40
0.0
 41
0.0
 42
0.0
 43
0.0
 44
0.0
 45
0.0
 46
0.0
 47
0.0
 48
0.0
 49
0.0
140
0.0
141
0.0
142
1.0
143
1.0
 70
   688
 72
     0
 73
     0
 74
     5
  7

 75
    16
147
1.0
148
0.0
149
0.0
100
AcDbLayout
  1
Layout1
 70
     1
 71
     1
 10
0.0
 20
0.0
 11
420.0
 21
297.0
 12
0.0
 22
0.0
 32
0.0
 14
1.0000000000E+20
 24
1.0000000000E+20
 34
1.0000000000E+20
 15
-1.0000000000E+20
 25
-1.0000000000E+20
 35
-1.0000000000E+20
146
0.0
 13
0.0
 23
0.0
 33
0.0
 16
1.0
 26
0.0
 36
0.0
 17
0.0
 27
1.0
 37
0.0
 76
     0
330
1B
  0
LAYOUT
  5
26
102
{ACAD_REACTORS
330
1A
102
}
330
1A
100
AcDbPlotSettings
  1

  2
none_device
  4

  6

 40
0.0
 41
0.0
 42
0.0
 43
0.0
 44
0.0
 45
0.0
 46
0.0
 47
0.0
 48
0.0
 49
0.0
140
0.0
141
0.0
142
1.0
143
1.0
 70
   688
 72
     0
 73
     0
 74
     5
  7

 75
    16
147
1.0
148
0.0
149
0.0
100
AcDbLayout
  1
Layout2
 70
     1
 71
     2
 10
0.0
 20
0.0
 11
0.0
 21
0.0
 12
0.0
 22
0.0
 32
0.0
 14
0.0
 24
0.0
 34
0.0
 15
0.0
 25
0.0
 35
0.0
146
0.0
 13
0.0
 23
0.0
 33
0.0
 16
1.0
 26
0.0
 36
0.0
 17
0.0
 27
1.0
 37
0.0
 76
     0
330
23
  0
LAYOUT
  5
22
102
{ACAD_REACTORS
330
1A
102
}
330
1A
100
AcDbPlotSettings
  1

  2
none_device
  4

  6

 40
0.0
 41
0.0
 42
0.0
 43
0.0
 44
0.0
 45
0.0
 46
0.0
 47
0.0
 48
0.0
 49
0.0
140
0.0
141
0.0
142
1.0
143
1.0
 70
  1712
 72
     0
 73
     0
 74
     0
  7

 75
     0
147
1.0
148
0.0
149
0.0
100
AcDbLayout
  1
Model
 70
     1
 71
     0
 10
0.0
 20
0.0
 11
297.0
 21
210.0
 12
0.0
 22
0.0
 32
0.0
 14
0.0
 24
0.0
 34
0.0
 15
297.0
 25
210.0
 35
0.0
146
0.0
 13
0.0
 23
0.0
 33
0.0
 16
1.0
 26
0.0
 36
0.0
 17
0.0
 27
1.0
 37
0.0
 76
     0
330
1F
331
29
  0
MLINESTYLE
  5
18
102
{ACAD_REACTORS
330
17
102
}
330
17
100
AcDbMlineStyle
  2
Standard
 70
     0
  3

 62
   256
 51
90.0
 52
90.0
 71
     2
 49
0.5
 62
   256
  6
BYLAYER
 49
-0.5
 62
   256
  6
BYLAYER
  0
ACDBPLACEHOLDER
  5
F
102
{ACAD_REACTORS
330
E
102
}
330
E
  0
ENDSEC
  0
EOF
