  0
SECTION
  2
HEADER
  9
$ACADVER
  1
AC1015
  9
$ACADMAINTVER
 70
     6
  9
$DWGCODEPAGE
  3
ANSI_1252
  9
$INSBASE
 10
0.0
 20
0.0
 30
0.0
  9
$EXTMIN
 10
0.0
 20
0.0
 30
0.0
  9
$EXTMAX
 10
297.0
 20
210.0
 30
0.0
  9
$LIMMIN
 10
0.0
 20
0.0
  9
$LIMMAX
 10
297.0
 20
210.0
  9
$ORTHOMODE
 70
     0
  9
$REGENMODE
 70
     1
  9
$FILLMODE
 70
     1
  9
$QTEXTMODE
 70
     0
  9
$MIRRTEXT
 70
     1
  9
$LTSCALE
 40
1.0
  9
$ATTMODE
 70
     1
  9
$TEXTSIZE
 40
2.0
  9
$TRACEWID
 40
1.0
  9
$TEXTSTYLE
  7
Standard
  9
$CLAYER
  8
0
  9
$CELTYPE
  6
ByLayer
  9
$CECOLOR
 62
   256
  9
$CELTSCALE
 40
1.0
  9
$DISPSILH
 70
     0
  9
$DIMSCALE
 40
1.0
  9
$DIMASZ
 40
3.0
  9
$DIMEXO
 40
0.0
  9
$DIMDLI
 40
3.75
  9
$DIMRND
 40
0.0
  9
$DIMDLE
 40
0.0
  9
$DIMEXE
 40
1.0
  9
$DIMTP
 40
0.0
  9
$DIMTM
 40
0.0
  9
$DIMTXT
 40
2.0
  9
$DIMCEN
 40
2.5
  9
$DIMTSZ
 40
0.0
  9
$DIMTOL
 70
     0
  9
$DIMLIM
 70
     0
  9
$DIMTIH
 70
     1
  9
$DIMTOH
 70
     1
  9
$DIMSE1
 70
     0
  9
$DIMSE2
 70
     0
  9
$DIMTAD
 70
     1
  9
$DIMZIN
 70
     0
  9
$DIMBLK
  1

  9
$DIMASO
 70
     1
  9
$DIMSHO
 70
     1
  9
$DIMPOST
  1

  9
$DIMAPOST
  1

  9
$DIMALT
 70
     0
  9
$DIMALTD
 70
     3
  9
$DIMALTF
 40
0.0393700787
  9
$DIMLFAC
 40
1.0
  9
$DIMTOFL
 70
     1
  9
$DIMTVP
 40
0.0
  9
$DIMTIX
 70
     0
  9
$DIMSOXD
 70
     0
  9
$DIMSAH
 70
     0
  9
$DIMBLK1
  1

  9
$DIMBLK2
  1

  9
$DIMSTYLE
  2
ISO-25
  9
$DIMCLRD
 70
     0
  9
$DIMCLRE
 70
     0
  9
$DIMCLRT
 70
     0
  9
$DIMTFAC
 40
1.0
  9
$DIMGAP
 40
1.524
  9
$DIMJUST
 70
     0
  9
$DIMSD1
 70
     0
  9
$DIMSD2
 70
     0
  9
$DIMTOLJ
 70
     0
  9
$DIMTZIN
 70
     0
  9
$DIMALTZ
 70
     0
  9
$DIMALTTZ
 70
     0
  9
$DIMUPT
 70
     0
  9
$DIMDEC
 70
     2
  9
$DIMTDEC
 70
     3
  9
$DIMALTU
 70
     2
  9
$DIMALTTD
 70
     3
  9
$DIMTXSTY
  7
Standard
  9
$DIMAUNIT
 70
     0
  9
$DIMADEC
 70
     2
  9
$DIMALTRND
 40
0.0
  9
$DIMAZIN
 70
     0
  9
$DIMDSEP
 70
    44
  9
$DIMATFIT
 70
     3
  9
$DIMFRAC
 70
     0
  9
$DIMLDRBLK
  1

  9
$DIMLUNIT
 70
     2
  9
$DIMLWD
 70
    -2
  9
$DIMLWE
 70
    -2
  9
$DIMTMOVE
 70
     0
  9
$LUNITS
 70
     2
  9
$LUPREC
 70
     2
  9
$SKETCHINC
 40
1.0
  9
$FILLETRAD
 40
10.0
  9
$AUNITS
 70
     0
  9
$AUPREC
 70
     2
  9
$MENU
  1
.
  9
$ELEVATION
 40
0.0
  9
$PELEVATION
 40
0.0
  9
$THICKNESS
 40
0.0
  9
$LIMCHECK
 70
     0
  9
$CHAMFERA
 40
10.0
  9
$CHAMFERB
 40
10.0
  9
$CHAMFERC
 40
20.0
  9
$CHAMFERD
 40
0.0
  9
$SKPOLY
 70
     0
  9
$TDCREATE
 40
2456072.49269706
  9
$TDUCREATE
 40
2456072.409363727
  9
$TDUPDATE
 40
2456072.492698322
  9
$TDUUPDATE
 40
2456072.409364989
  9
$TDINDWG
 40
0.0000000116
  9
$TDUSRTIMER
 40
0.0000000116
  9
$USRTIMER
 70
     1
  9
$ANGBASE
 50
0.0
  9
$ANGDIR
 70
     0
  9
$PDMODE
 70
     0
  9
$PDSIZE
 40
-1.0
  9
$PLINEWID
 40
0.0
  9
$SPLFRAME
 70
     0
  9
$SPLINETYPE
 70
     6
  9
$SPLINESEGS
 70
     8
  9
$HANDSEED
  5
2A2
  9
$SURFTAB1
 70
     6
  9
$SURFTAB2
 70
     6
  9
$SURFTYPE
 70
     6
  9
$SURFU
 70
     6
  9
$SURFV
 70
     6
  9
$UCSBASE
  2

  9
$UCSNAME
  2

  9
$UCSORG
 10
0.0
 20
0.0
 30
0.0
  9
$UCSXDIR
 10
1.0
 20
0.0
 30
0.0
  9
$UCSYDIR
 10
0.0
 20
1.0
 30
0.0
  9
$UCSORTHOREF
  2

  9
$UCSORTHOVIEW
 70
     0
  9
$UCSORGTOP
 10
0.0
 20
0.0
 30
0.0
  9
$UCSORGBOTTOM
 10
0.0
 20
0.0
 30
0.0
  9
$UCSORGLEFT
 10
0.0
 20
0.0
 30
0.0
  9
$UCSORGRIGHT
 10
0.0
 20
0.0
 30
0.0
  9
$UCSORGFRONT
 10
0.0
 20
0.0
 30
0.0
  9
$UCSORGBACK
 10
0.0
 20
0.0
 30
0.0
  9
$PUCSBASE
  2

  9
$PUCSNAME
  2

  9
$PUCSORG
 10
0.0
 20
0.0
 30
0.0
  9
$PUCSXDIR
 10
1.0
 20
0.0
 30
0.0
  9
$PUCSYDIR
 10
0.0
 20
1.0
 30
0.0
  9
$PUCSORTHOREF
  2

  9
$PUCSORTHOVIEW
 70
     0
  9
$PUCSORGTOP
 10
0.0
 20
0.0
 30
0.0
  9
$PUCSORGBOTTOM
 10
0.0
 20
0.0
 30
0.0
  9
$PUCSORGLEFT
 10
0.0
 20
0.0
 30
0.0
  9
$PUCSORGRIGHT
 10
0.0
 20
0.0
 30
0.0
  9
$PUCSORGFRONT
 10
0.0
 20
0.0
 30
0.0
  9
$PUCSORGBACK
 10
0.0
 20
0.0
 30
0.0
  9
$USERI1
 70
     0
  9
$USERI2
 70
     0
  9
$USERI3
 70
     0
  9
$USERI4
 70
     0
  9
$USERI5
 70
     0
  9
$USERR1
 40
0.0
  9
$USERR2
 40
0.0
  9
$USERR3
 40
0.0
  9
$USERR4
 40
0.0
  9
$USERR5
 40
0.0
  9
$WORLDVIEW
 70
     1
  9
$SHADEDGE
 70
     3
  9
$SHADEDIF
 70
    70
  9
$TILEMODE
 70
     1
  9
$MAXACTVP
 70
    64
  9
$PINSBASE
 10
0.0
 20
0.0
 30
0.0
  9
$PLIMCHECK
 70
     0
  9
$PEXTMIN
 10
1.0000000000E+20
 20
1.0000000000E+20
 30
1.0000000000E+20
  9
$PEXTMAX
 10
-1.0000000000E+20
 20
-1.0000000000E+20
 30
-1.0000000000E+20
  9
$PLIMMIN
 10
0.0
 20
0.0
  9
$PLIMMAX
 10
420.0
 20
297.0
  9
$UNITMODE
 70
     0
  9
$VISRETAIN
 70
     1
  9
$PLINEGEN
 70
     0
  9
$PSLTSCALE
 70
     1
  9
$TREEDEPTH
 70
  3020
  9
$CMLSTYLE
  2
Standard
  9
$CMLJUST
 70
     0
  9
$CMLSCALE
 40
20.0
  9
$PROXYGRAPHICS
 70
     1
  9
$MEASUREMENT
 70
     1
  9
$CELWEIGHT
370
    -1
  9
$ENDCAPS
280
     0
  9
$JOINSTYLE
280
     0
  9
$LWDISPLAY
290
     1
  9
$INSUNITS
 70
     4
  9
$HYPERLINKBASE
  1

  9
$STYLESHEET
  1

  9
$XEDIT
290
     1
  9
$CEPSNTYPE
380
     0
  9
$PSTYLEMODE
290
     1
  9
$FINGERPRINTGUID
  2
{06C63238-40BD-4F75-A252-9E97C923A5C4}
  9
$VERSIONGUID
  2
{FAEB1C32-E019-11D5-929B-00C0DF256EC4}
  9
$EXTNAMES
290
     1
  9
$PSVPSCALE
 40
0.0
  9
$OLESTARTUP
290
     0
  0
ENDSEC
  0
SECTION
  2
CLASSES
  0
CLASS
  1
ACDBDICTIONARYWDFLT
  2
AcDbDictionaryWithDefault
  3
ObjectDBX Classes
 90
        0
280
     0
281
     0
  0
CLASS
  1
VISUALSTYLE
  2
AcDbVisualStyle
  3
ObjectDBX Classes
 90
     4095
280
     0
281
     0
  0
CLASS
  1
MATERIAL
  2
AcDbMaterial
  3
ObjectDBX Classes
 90
     1153
280
     0
281
     0
  0
CLASS
  1
ACDBPLACEHOLDER
  2
AcDbPlaceHolder
  3
ObjectDBX Classes
 90
        0
280
     0
281
     0
  0
CLASS
  1
LAYOUT
  2
AcDbLayout
  3
ObjectDBX Classes
 90
        0
280
     0
281
     0
  0
ENDSEC
  0
SECTION
  2
TABLES
  0
TABLE
  2
VPORT
  5
8
330
0
100
AcDbSymbolTable
 70
     1
  0
VPORT
  5
29
330
8
100
AcDbSymbolTableRecord
100
AcDbViewportTableRecord
  2
*Active
 70
     0
 10
0.0
 20
0.0
 11
1.0
 21
1.0
 12
148.5
 22
105.0
 13
0.0
 23
0.0
 14
10.0
 24
10.0
 15
10.0
 25
10.0
 16
0.0
 26
0.0
 36
1.0
 17
0.0
 27
0.0
 37
0.0
 40
210.0
 41
1.4142857143
 42
50.0
 43
0.0
 44
0.0
 50
0.0
 51
0.0
 71
     0
 72
  2000
 73
     1
 74
     3
 75
     0
 76
     0
 77
     0
 78
     0
281
     0
 65
     1
110
0.0
120
0.0
130
0.0
111
1.0
121
0.0
131
0.0
112
0.0
122
1.0
132
0.0
 79
     0
146
0.0
  0
ENDTAB
  0
TABLE
  2
LTYPE
  5
5
330
0
100
AcDbSymbolTable
 70
     6
  0
LTYPE
  5
14
330
5
100
AcDbSymbolTableRecord
100
AcDbLinetypeTableRecord
  2
ByBlock
 70
     0
  3

 72
    65
 73
     0
 40
0.0
  0
LTYPE
  5
15
330
5
100
AcDbSymbolTableRecord
100
AcDbLinetypeTableRecord
  2
ByLayer
 70
     0
  3

 72
    65
 73
     0
 40
0.0
  0
LTYPE
  5
16
330
5
100
AcDbSymbolTableRecord
100
AcDbLinetypeTableRecord
  2
Continuous
 70
     0
  3
Solid line
 72
    65
 73
     0
 40
0.0
  0
LTYPE
  5
3F
330
5
100
AcDbSymbolTableRecord
100
AcDbLinetypeTableRecord
  2
HIDDEN
 70
     0
  3
Hidden __ __ __ __ __ __ __ __ __ __ __ __ __ __
 72
    65
 73
     2
 40
1.905
 49
1.27
 74
     0
 49
-0.635
 74
     0
  0
LTYPE
  5
40
330
5
100
AcDbSymbolTableRecord
100
AcDbLinetypeTableRecord
  2
PHANTOM
 70
     0
  3
Phantom ______  __  __  ______  __  __  ______
 72
    65
 73
     6
 40
12.7
 49
6.35
 74
     0
 49
-1.27
 74
     0
 49
1.27
 74
     0
 49
-1.27
 74
     0
 49
1.27
 74
     0
 49
-1.27
 74
     0
  0
LTYPE
  5
41
330
5
100
AcDbSymbolTableRecord
100
AcDbLinetypeTableRecord
  2
CENTER
 70
     0
  3
Center ____ _ ____ _ ____ _ ____ _ ____ _ ____
 72
    65
 73
     4
 40
10.16
 49
6.35
 74
     0
 49
-1.27
 74
     0
 49
1.27
 74
     0
 49
-1.27
 74
     0
  0
LTYPE
  5
42
330
5
100
AcDbSymbolTableRecord
100
AcDbLinetypeTableRecord
  2
CENTERX2
 70
     0
  3
Center (2x) ________  __  ________  __  _____
 72
    65
 73
     4
 40
20.32
 49
12.7
 74
     0
 49
-2.54
 74
     0
 49
2.54
 74
     0
 49
-2.54
 74
     0
  0
LTYPE
  5
43
330
5
100
AcDbSymbolTableRecord
100
AcDbLinetypeTableRecord
  2
DOT2
 70
     0
  3
Dot (.5x) ........................................
 72
    65
 73
     2
 40
0.635
 49
0.0
 74
     0
 49
-0.635
 74
     0
  0
ENDTAB
  0
TABLE
  2
LAYER
  5
2
330
0
100
AcDbSymbolTable
 70
     5
  0
LAYER
  5
10
330
2
100
AcDbSymbolTableRecord
100
AcDbLayerTableRecord
  2
0
 70
     0
 62
     7
  6
Continuous
370
    -3
390
F
  0
LAYER
  5
44
330
2
100
AcDbSymbolTableRecord
100
AcDbLayerTableRecord
  2
FORMAT
 70
     0
 62
     7
  6
Continuous
370
    -3
390
F
  0
LAYER
  5
45
330
2
100
AcDbSymbolTableRecord
100
AcDbLayerTableRecord
  2
VERMASSUNG
 70
     0
 62
     7
  6
Continuous
370
    -3
390
F
  0
LAYER
  5
46
330
2
100
AcDbSymbolTableRecord
100
AcDbLayerTableRecord
  2
KOPF_DÜNN
 70
     0
 62
     7
  6
Continuous
370
    -3
390
F
  0
LAYER
  5
47
330
2
100
AcDbSymbolTableRecord
100
AcDbLayerTableRecord
  2
KOPF_DICK
 70
     0
 62
     7
  6
Continuous
370
    15
390
F
  0
ENDTAB
  0
TABLE
  2
STYLE
  5
3
330
0
100
AcDbSymbolTable
 70
     2
  0
STYLE
  5
11
330
3
100
AcDbSymbolTableRecord
100
AcDbTextStyleTableRecord
  2
Standard
 70
     0
 40
0.0
 41
1.0
 50
0.0
 71
     0
 42
2.0
  3
txt
  4

  0
STYLE
  5
48
330
3
100
AcDbSymbolTableRecord
100
AcDbTextStyleTableRecord
  2
SLDTEXTSTYLE0
 70
     0
 40
0.0
 41
0.7
 50
0.0
 71
     0
 42
0.2
  3
TXT
  4

  0
ENDTAB
  0
TABLE
  2
VIEW
  5
6
330
0
100
AcDbSymbolTable
 70
     0
  0
ENDTAB
  0
TABLE
  2
UCS
  5
7
330
0
100
AcDbSymbolTable
 70
     0
  0
ENDTAB
  0
TABLE
  2
APPID
  5
9
330
0
100
AcDbSymbolTable
 70
     1
  0
APPID
  5
12
330
9
100
AcDbSymbolTableRecord
100
AcDbRegAppTableRecord
  2
ACAD
 70
     0
  0
ENDTAB
  0
TABLE
  2
DIMSTYLE
  5
A
330
0
100
AcDbSymbolTable
 70
     5
100
AcDbDimStyleTable
  0
DIMSTYLE
105
27
330
A
100
AcDbSymbolTableRecord
100
AcDbDimStyleTableRecord
  2
ISO-25
 70
     0
 41
2.5
 42
0.625
 43
3.75
 44
1.25
 73
     0
 74
     0
 77
     1
 78
     8
140
2.5
141
2.5
143
0.0393700787
147
0.625
171
     3
172
     1
178
     0
271
     2
272
     2
274
     3
278
    44
283
     0
284
     8
340
11
  0
DIMSTYLE
105
1C9
102
{ACAD_REACTORS
330
1C8
102
}
330
A
100
AcDbSymbolTableRecord
100
AcDbDimStyleTableRecord
  2
SLDDIMSTYLE0
 70
     0
 41
3.0
 44
0.0
 73
     0
 74
     0
 77
     1
 78
    12
 79
     3
140
2.0
147
0.5
173
     1
178
     0
179
     1
272
     3
276
     2
284
    12
340
48
  0
DIMSTYLE
105
1D3
102
{ACAD_REACTORS
330
1D2
330
1DF
102
}
330
A
100
AcDbSymbolTableRecord
100
AcDbDimStyleTableRecord
  2
SLDDIMSTYLE1
 70
     0
 41
3.0
 44
0.0
 45
0.000000001
 47
0.1
 48
0.1
 71
     1
 73
     0
 74
     0
 77
     1
 78
    12
 79
     3
140
2.0
147
0.5
173
     1
178
     0
271
     2
272
     1
276
     2
284
     8
340
48
  0
DIMSTYLE
105
1EC
102
{ACAD_REACTORS
330
1EB
330
1F6
102
}
330
A
100
AcDbSymbolTableRecord
100
AcDbDimStyleTableRecord
  2
SLDDIMSTYLE2
 70
     0
 41
3.0
 44
0.0
 45
0.000000001
 73
     0
 74
     0
 77
     1
 78
    12
 79
     3
140
2.0
147
0.5
173
     1
178
     0
271
     2
272
     3
276
     2
284
    12
340
48
  0
DIMSTYLE
105
287
102
{ACAD_REACTORS
330
286
102
}
330
A
100
AcDbSymbolTableRecord
100
AcDbDimStyleTableRecord
  2
SLDDIMSTYLE3
 70
     0
 41
3.0
 44
0.0
 45
0.000000001
 73
     0
 74
     0
 77
     1
 78
    12
 79
     3
140
2.0
147
0.5
172
     1
173
     1
178
     0
271
     2
272
     3
276
     2
284
    12
289
     0
340
48
  0
ENDTAB
  0
TABLE
  2
BLOCK_RECORD
  5
1
330
0
100
AcDbSymbolTable
 70
     8
  0
BLOCK_RECORD
  5
1F
330
1
100
AcDbSymbolTableRecord
100
AcDbBlockTableRecord
  2
*Model_Space
340
22
  0
BLOCK_RECORD
  5
1B
330
1
100
AcDbSymbolTableRecord
100
AcDbBlockTableRecord
  2
*Paper_Space
340
1E
  0
BLOCK_RECORD
  5
23
330
1
100
AcDbSymbolTableRecord
100
AcDbBlockTableRecord
  2
*Paper_Space0
340
26
  0
BLOCK_RECORD
  5
1CA
330
1
100
AcDbSymbolTableRecord
100
AcDbBlockTableRecord
  2
_D
340
0
  0
BLOCK_RECORD
  5
1D4
330
1
100
AcDbSymbolTableRecord
100
AcDbBlockTableRecord
  2
_D_1
340
0
  0
BLOCK_RECORD
  5
1E0
330
1
100
AcDbSymbolTableRecord
100
AcDbBlockTableRecord
  2
_D_2
340
0
  0
BLOCK_RECORD
  5
1ED
330
1
100
AcDbSymbolTableRecord
100
AcDbBlockTableRecord
  2
_D_3
340
0
  0
BLOCK_RECORD
  5
1F7
330
1
100
AcDbSymbolTableRecord
100
AcDbBlockTableRecord
  2
_D_4
340
0
  0
BLOCK_RECORD
  5
288
330
1
100
AcDbSymbolTableRecord
100
AcDbBlockTableRecord
  2
_D_5
340
0
  0
BLOCK_RECORD
  5
295
330
1
100
AcDbSymbolTableRecord
100
AcDbBlockTableRecord
  2
SW_CENTERMARKSYMBOL_0
340
0
102
{BLKREFS
331
2A0
102
}
  0
ENDTAB
  0
ENDSEC
  0
SECTION
  2
BLOCKS
  0
BLOCK
  5
20
330
1F
100
AcDbEntity
  8
0
100
AcDbBlockBegin
  2
*Model_Space
 70
     0
 10
0.0
 20
0.0
 30
0.0
  3
*Model_Space
  1

  0
ENDBLK
  5
21
330
1F
100
AcDbEntity
  8
0
100
AcDbBlockEnd
  0
BLOCK
  5
1C
330
1B
100
AcDbEntity
 67
     1
  8
0
100
AcDbBlockBegin
  2
*Paper_Space
 70
     0
 10
0.0
 20
0.0
 30
0.0
  3
*Paper_Space
  1

  0
ENDBLK
  5
1D
330
1B
100
AcDbEntity
 67
     1
  8
0
100
AcDbBlockEnd
  0
BLOCK
  5
24
330
23
100
AcDbEntity
  8
0
100
AcDbBlockBegin
  2
*Paper_Space0
 70
     0
 10
0.0
 20
0.0
 30
0.0
  3
*Paper_Space0
  1

  0
ENDBLK
  5
25
330
23
100
AcDbEntity
  8
0
100
AcDbBlockEnd
  0
BLOCK
  5
1CB
330
1CA
100
AcDbEntity
  8
0
100
AcDbBlockBegin
  2
_D
 70
     0
 10
0.0
 20
0.0
 30
0.0
  3
_D
  1

  0
ARC
  5
1CD
330
1CA
100
AcDbEntity
  8
VERMASSUNG
100
AcDbCircle
 10
258.5449276607
 20
157.5994144723
 30
0.0
 40
11.04679685472864
100
AcDbArc
 50
90.0
 51
207.5210251811
  0
SOLID
  5
1CE
330
1CA
100
AcDbEntity
  8
VERMASSUNG
100
AcDbTrace
 10
258.5449276607
 20
168.646211327
 30
0.0
 11
255.5117684698
 21
168.6956615312
 31
0.0
 12
255.630748521
 22
167.8035607816
 32
0.0
 13
255.630748521
 23
167.8035607816
 33
0.0
  0
SOLID
  5
1CF
330
1CA
100
AcDbEntity
  8
VERMASSUNG
100
AcDbTrace
 10
248.7481716368
 20
152.4949759961
 30
0.0
 11
248.1489023276
 21
155.4687574769
 31
0.0
 12
247.3027729141
 22
155.1620572721
 32
0.0
 13
247.3027729141
 23
155.1620572721
 33
0.0
  0
LINE
  5
1D0
330
1CA
100
AcDbEntity
  8
VERMASSUNG
100
AcDbLine
 10
258.5449276607
 20
164.4980314789
 30
0.0
 11
258.5449276607
 21
169.646211327
 31
0.0
  0
MTEXT
  5
1D1
330
1CA
100
AcDbEntity
  8
VERMASSUNG
100
AcDbMText
 10
244.7173259252
 20
161.074498202
 30
0.1
 40
2.0
 41
0.0
 71
     1
 72
     1
  1
117.5°
  7
SLDTEXTSTYLE0
 11
0.5186163907821655
 21
0.8550070404459137
 31
0.0
 73
     1
 44
1.0
  0
ENDBLK
  5
1CC
330
1CA
100
AcDbEntity
  8
0
100
AcDbBlockEnd
  0
BLOCK
  5
1D5
330
1D4
100
AcDbEntity
  8
0
100
AcDbBlockBegin
  2
_D_1
 70
     0
 10
0.0
 20
0.0
 30
0.0
  3
_D_1
  1

  0
SOLID
  5
1D7
330
1D4
100
AcDbEntity
  8
VERMASSUNG
100
AcDbTrace
 10
268.6339111859
 20
157.3369760729
 30
0.0
 11
268.1839111859
 21
154.3369760729
 31
0.0
 12
269.0839111859
 22
154.3369760729
 32
0.0
 13
269.0839111859
 23
154.3369760729
 33
0.0
  0
SOLID
  5
1D8
330
1D4
100
AcDbEntity
  8
VERMASSUNG
100
AcDbTrace
 10
268.6339111859
 20
112.3369760729
 30
0.0
 11
269.0839111859
 21
115.3369760729
 31
0.0
 12
268.1839111859
 22
115.3369760729
 32
0.0
 13
268.1839111859
 23
115.3369760729
 33
0.0
  0
LINE
  5
1D9
330
1D4
100
AcDbEntity
  8
VERMASSUNG
100
AcDbLine
 10
258.5449276607
 20
157.3369760729
 30
0.0
 11
269.6339111859
 21
157.3369760729
 31
0.0
  0
LINE
  5
1DA
330
1D4
100
AcDbEntity
  8
VERMASSUNG
100
AcDbLine
 10
258.5449276607
 20
112.3369760729
 30
0.0
 11
269.6339111859
 21
112.3369760729
 31
0.0
  0
LINE
  5
1DB
330
1D4
100
AcDbEntity
  8
VERMASSUNG
100
AcDbLine
 10
268.6339111859
 20
157.3369760729
 30
0.0
 11
268.6339111859
 21
112.3369760729
 31
0.0
  0
MTEXT
  5
1DC
330
1D4
100
AcDbEntity
  8
VERMASSUNG
100
AcDbMText
 10
266.0557758227
 20
130.1869760558
 30
0.1
 40
2.0
 41
0.0
 71
     1
 72
     1
  1
45
  7
SLDTEXTSTYLE0
 11
-7.044195017643634E-15
 21
1.0
 31
0.0
 73
     1
 44
1.0
  0
MTEXT
  5
1DD
330
1D4
100
AcDbEntity
  8
VERMASSUNG
100
AcDbMText
 10
266.0557758227
 20
136.1744762838
 30
0.1
 40
2.0
 41
0.0
 71
     1
 72
     1
  1

  7
SLDTEXTSTYLE0
 11
-7.044195017643634E-15
 21
1.0
 31
0.0
 73
     1
 44
1.0
  0
MTEXT
  5
1DE
330
1D4
100
AcDbEntity
  8
VERMASSUNG
100
AcDbMText
 10
266.5503096855
 20
136.1869761079
 30
0.1
 40
1.5
 41
0.0
 71
     1
 72
     1
  1
±0.1
  7
SLDTEXTSTYLE0
 11
-7.044195017643634E-15
 21
1.0
 31
0.0
 73
     1
 44
1.0
  0
ENDBLK
  5
1D6
330
1D4
100
AcDbEntity
  8
0
100
AcDbBlockEnd
  0
BLOCK
  5
1E1
330
1E0
100
AcDbEntity
  8
0
100
AcDbBlockBegin
  2
_D_2
 70
     0
 10
0.0
 20
0.0
 30
0.0
  3
_D_2
  1

  0
SOLID
  5
1E3
330
1E0
100
AcDbEntity
  8
VERMASSUNG
100
AcDbTrace
 10
193.5449276607
 20
174.4980314789
 30
0.0
 11
196.5449276607
 21
174.0480314789
 31
0.0
 12
196.5449276607
 22
174.9480314789
 32
0.0
 13
196.5449276607
 23
174.9480314789
 33
0.0
  0
SOLID
  5
1E4
330
1E0
100
AcDbEntity
  8
VERMASSUNG
100
AcDbTrace
 10
258.5449276607
 20
174.4980314789
 30
0.0
 11
255.5449276607
 21
174.9480314789
 31
0.0
 12
255.5449276607
 22
174.0480314789
 32
0.0
 13
255.5449276607
 23
174.0480314789
 33
0.0
  0
LINE
  5
1E5
330
1E0
100
AcDbEntity
  8
VERMASSUNG
100
AcDbLine
 10
193.5449276607
 20
143.3369760729
 30
0.0
 11
193.5449276607
 21
175.4980314789
 31
0.0
  0
LINE
  5
1E6
330
1E0
100
AcDbEntity
  8
VERMASSUNG
100
AcDbLine
 10
258.5449276607
 20
157.3369760729
 30
0.0
 11
258.5449276607
 21
175.4980314789
 31
0.0
  0
LINE
  5
1E7
330
1E0
100
AcDbEntity
  8
VERMASSUNG
100
AcDbLine
 10
193.5449276607
 20
174.4980314789
 30
0.0
 11
258.5449276607
 21
174.4980314789
 31
0.0
  0
MTEXT
  5
1E8
330
1E0
100
AcDbEntity
  8
VERMASSUNG
100
AcDbMText
 10
221.4949274737
 20
177.0761668421
 30
0.1
 40
2.0
 41
0.0
 71
     1
 72
     1
  1
65
  7
SLDTEXTSTYLE0
 73
     1
 44
1.0
  0
MTEXT
  5
1E9
330
1E0
100
AcDbEntity
  8
VERMASSUNG
100
AcDbMText
 10
227.2824275758
 20
177.0761668421
 30
0.1
 40
2.0
 41
0.0
 71
     1
 72
     1
  1

  7
SLDTEXTSTYLE0
 73
     1
 44
1.0
  0
MTEXT
  5
1EA
330
1E0
100
AcDbEntity
  8
VERMASSUNG
100
AcDbMText
 10
227.2949278656
 20
176.5816329793
 30
0.1
 40
1.5
 41
0.0
 71
     1
 72
     1
  1
±0.1
  7
SLDTEXTSTYLE0
 73
     1
 44
1.0
  0
ENDBLK
  5
1E2
330
1E0
100
AcDbEntity
  8
0
100
AcDbBlockEnd
  0
BLOCK
  5
1EE
330
1ED
100
AcDbEntity
  8
0
100
AcDbBlockBegin
  2
_D_3
 70
     0
 10
0.0
 20
0.0
 30
0.0
  3
_D_3
  1

  0
SOLID
  5
1F0
330
1ED
100
AcDbEntity
  8
VERMASSUNG
100
AcDbTrace
 10
155.5449276607
 20
181.1622662524
 30
0.0
 11
158.5449276607
 21
180.7122662524
 31
0.0
 12
158.5449276607
 22
181.6122662524
 32
0.0
 13
158.5449276607
 23
181.6122662524
 33
0.0
  0
SOLID
  5
1F1
330
1ED
100
AcDbEntity
  8
VERMASSUNG
100
AcDbTrace
 10
258.5449276607
 20
181.1622662524
 30
0.0
 11
255.5449276607
 21
181.6122662524
 31
0.0
 12
255.5449276607
 22
180.7122662524
 32
0.0
 13
255.5449276607
 23
180.7122662524
 33
0.0
  0
LINE
  5
1F2
330
1ED
100
AcDbEntity
  8
VERMASSUNG
100
AcDbLine
 10
155.5449276607
 20
132.6293140654
 30
0.0
 11
155.5449276607
 21
182.1622662524
 31
0.0
  0
LINE
  5
1F3
330
1ED
100
AcDbEntity
  8
VERMASSUNG
100
AcDbLine
 10
258.5449276607
 20
157.3369760729
 30
0.0
 11
258.5449276607
 21
182.1622662524
 31
0.0
  0
LINE
  5
1F4
330
1ED
100
AcDbEntity
  8
VERMASSUNG
100
AcDbLine
 10
155.5449276607
 20
181.1622662524
 30
0.0
 11
258.5449276607
 21
181.1622662524
 31
0.0
  0
MTEXT
  5
1F5
330
1ED
100
AcDbEntity
  8
VERMASSUNG
100
AcDbMText
 10
204.2449275277
 20
183.7404016156
 30
0.1
 40
2.0
 41
0.0
 71
     1
 72
     1
  1
103
  7
SLDTEXTSTYLE0
 73
     1
 44
1.0
  0
ENDBLK
  5
1EF
330
1ED
100
AcDbEntity
  8
0
100
AcDbBlockEnd
  0
BLOCK
  5
1F8
330
1F7
100
AcDbEntity
  8
0
100
AcDbBlockBegin
  2
_D_4
 70
     0
 10
0.0
 20
0.0
 30
0.0
  3
_D_4
  1

  0
SOLID
  5
1FA
330
1F7
100
AcDbEntity
  8
VERMASSUNG
100
AcDbTrace
 10
145.5449276607
 20
143.8369760729
 30
0.0
 11
145.0949276607
 21
140.8369760729
 31
0.0
 12
145.9949276607
 22
140.8369760729
 32
0.0
 13
145.9949276607
 23
140.8369760729
 33
0.0
  0
SOLID
  5
1FB
330
1F7
100
AcDbEntity
  8
VERMASSUNG
100
AcDbTrace
 10
145.5449276607
 20
80.8369760729
 30
0.0
 11
145.9949276607
 21
83.8369760729
 31
0.0
 12
145.0949276607
 22
83.8369760729
 32
0.0
 13
145.0949276607
 23
83.8369760729
 33
0.0
  0
LINE
  5
1FC
330
1F7
100
AcDbEntity
  8
VERMASSUNG
100
AcDbLine
 10
194.0449276607
 20
143.8369760729
 30
0.0
 11
144.5449276607
 21
143.8369760729
 31
0.0
  0
LINE
  5
1FD
330
1F7
100
AcDbEntity
  8
VERMASSUNG
100
AcDbLine
 10
194.0449276607
 20
80.8369760729
 30
0.0
 11
144.5449276607
 21
80.8369760729
 31
0.0
  0
LINE
  5
1FE
330
1F7
100
AcDbEntity
  8
VERMASSUNG
100
AcDbLine
 10
145.5449276607
 20
143.8369760729
 30
0.0
 11
145.5449276607
 21
80.8369760729
 31
0.0
  0
MTEXT
  5
1FF
330
1F7
100
AcDbEntity
  8
VERMASSUNG
100
AcDbMText
 10
142.7667921717
 20
105.9319759637
 30
0.4027568683
 40
2.0
 41
0.0
 71
     1
 72
     1
  1
PSC
  7
SLDTEXTSTYLE0
 11
-7.044195017643634E-15
 21
1.0
 31
0.0
 73
     1
 44
1.0
  0
MTEXT
  5
200
330
1F7
100
AcDbEntity
  8
VERMASSUNG
100
AcDbMText
 10
142.9667921812
 20
110.5319760658
 30
0.4027568683
 40
2.0
 41
0.0
 71
     1
 72
     1
  1
%%c
  7
SLDTEXTSTYLE0
 11
-7.044195017643634E-15
 21
1.0
 31
0.0
 73
     1
 44
1.0
  0
MTEXT
  5
201
330
1F7
100
AcDbEntity
  8
VERMASSUNG
100
AcDbMText
 10
142.7667921717
 20
114.1419765457
 30
0.4027568683
 40
2.0
 41
0.0
 71
     1
 72
     1
  1
63
  7
SLDTEXTSTYLE0
 11
-7.044195017643634E-15
 21
1.0
 31
0.0
 73
     1
 44
1.0
  0
ENDBLK
  5
1F9
330
1F7
100
AcDbEntity
  8
0
100
AcDbBlockEnd
  0
BLOCK
  5
289
330
288
100
AcDbEntity
  8
0
100
AcDbBlockBegin
  2
_D_5
 70
     0
 10
0.0
 20
0.0
 30
0.0
  3
_D_5
  1

  0
SOLID
  5
28B
330
288
100
AcDbEntity
  8
VERMASSUNG
100
AcDbTrace
 10
59.653199741
 20
82.6959347454
 30
0.0
 11
57.7634883093
 21
80.322858534
 31
0.0
 12
58.5429111727
 22
79.872858534
 32
0.0
 13
58.5429111727
 23
79.872858534
 33
0.0
  0
SOLID
  5
28C
330
288
100
AcDbEntity
  8
VERMASSUNG
100
AcDbTrace
 10
99.653199741
 20
151.9779670481
 30
0.0
 11
101.5429111727
 21
154.3510432595
 31
0.0
 12
100.7634883093
 22
154.8010432595
 32
0.0
 13
100.7634883093
 23
154.8010432595
 33
0.0
  0
LINE
  5
28D
330
288
100
AcDbEntity
  8
VERMASSUNG
100
AcDbLine
 10
59.653199741
 20
82.6959347454
 30
0.0
 11
58.7871743372
 21
83.1959347454
 31
0.0
  0
LINE
  5
28E
330
288
100
AcDbEntity
  8
VERMASSUNG
100
AcDbLine
 10
99.653199741
 20
151.9779670481
 30
0.0
 11
98.7871743372
 21
152.4779670481
 31
0.0
  0
LINE
  5
28F
330
288
100
AcDbEntity
  8
VERMASSUNG
100
AcDbLine
 10
59.653199741
 20
82.6959347454
 30
0.0
 11
56.653199741
 21
77.4997823226
 31
0.0
  0
LINE
  5
290
330
288
100
AcDbEntity
  8
VERMASSUNG
100
AcDbLine
 10
59.653199741
 20
82.6959347454
 30
0.0
 11
99.653199741
 21
151.9779670481
 31
0.0
  0
LINE
  5
291
330
288
100
AcDbEntity
  8
VERMASSUNG
100
AcDbLine
 10
99.653199741
 20
151.9779670481
 30
0.0
 11
108.6223135963
 21
167.5129279444
 31
0.0
  0
MTEXT
  5
292
330
288
100
AcDbEntity
  8
VERMASSUNG
100
AcDbMText
 10
99.4845830511
 20
156.8421853333
 30
0.1
 40
2.0
 41
0.0
 71
     1
 72
     1
  1
%%c
  7
SLDTEXTSTYLE0
 11
0.499999999999998
 21
0.8660254037844398
 31
0.0
 73
     1
 44
1.0
  0
MTEXT
  5
293
330
288
100
AcDbEntity
  8
VERMASSUNG
100
AcDbMText
 10
101.1163779693
 20
160.0685370581
 30
0.1
 40
2.0
 41
0.0
 71
     1
 72
     1
  1
80
  7
SLDTEXTSTYLE0
 11
0.499999999999998
 21
0.8660254037844398
 31
0.0
 73
     1
 44
1.0
  0
MTEXT
  5
294
330
288
100
AcDbEntity
  8
VERMASSUNG
100
AcDbMText
 10
104.0101282532
 20
165.0806595742
 30
0.1
 40
2.0
 41
0.0
 71
     1
 72
     1
  1
min.
  7
SLDTEXTSTYLE0
 11
0.499999999999998
 21
0.8660254037844398
 31
0.0
 73
     1
 44
1.0
  0
ENDBLK
  5
28A
330
288
100
AcDbEntity
  8
0
100
AcDbBlockEnd
  0
BLOCK
  5
296
330
295
100
AcDbEntity
  8
0
100
AcDbBlockBegin
  2
SW_CENTERMARKSYMBOL_0
 70
     0
 10
0.0
 20
0.0
 30
0.0
  3
SW_CENTERMARKSYMBOL_0
  1

  0
LINE
  5
298
330
295
100
AcDbEntity
  8
VERMASSUNG
 62
     0
100
AcDbLine
 10
0.0
 20
0.0
 30
0.0
 11
0.0
 21
2.5
 31
0.0
  0
LINE
  5
299
330
295
100
AcDbEntity
  8
VERMASSUNG
 62
     0
100
AcDbLine
 10
0.0
 20
0.0
 30
0.0
 11
-2.5
 21
0.0
 31
0.0
  0
LINE
  5
29A
330
295
100
AcDbEntity
  8
VERMASSUNG
 62
     0
100
AcDbLine
 10
0.0
 20
0.0
 30
0.0
 11
0.0
 21
-2.5
 31
0.0
  0
LINE
  5
29B
330
295
100
AcDbEntity
  8
VERMASSUNG
 62
     0
100
AcDbLine
 10
0.0
 20
0.0
 30
0.0
 11
2.5
 21
0.0
 31
0.0
  0
LINE
  5
29C
330
295
100
AcDbEntity
  8
VERMASSUNG
 62
     0
100
AcDbLine
 10
0.0
 20
5.0
 30
0.0
 11
0.0
 21
48.1061861146
 31
0.0
  0
LINE
  5
29D
330
295
100
AcDbEntity
  8
VERMASSUNG
 62
     0
100
AcDbLine
 10
-5.0
 20
0.0
 30
0.0
 11
-34.0
 21
0.0
 31
0.0
  0
LINE
  5
29E
330
295
100
AcDbEntity
  8
VERMASSUNG
 62
     0
100
AcDbLine
 10
0.0
 20
-5.0
 30
0.0
 11
0.0
 21
-34.0
 31
0.0
  0
LINE
  5
29F
330
295
100
AcDbEntity
  8
VERMASSUNG
 62
     0
100
AcDbLine
 10
5.0
 20
0.0
 30
0.0
 11
34.0
 21
0.0
 31
0.0
  0
ENDBLK
  5
297
330
295
100
AcDbEntity
  8
0
100
AcDbBlockEnd
  0
ENDSEC
  0
SECTION
  2
ENTITIES
  0
MTEXT
  5
49
330
1F
100
AcDbEntity
  8
KOPF_DÜNN
100
AcDbMText
 10
13.8892156294
 20
23.8442973028
 30
0.0
 40
3.0
 41
0.0
 71
     1
 72
     1
  1
PS6.KVD.RPA.065
  7
SLDTEXTSTYLE0
 73
     1
 44
1.0
  0
MTEXT
  5
4A
330
1F
100
AcDbEntity
  8
VERMASSUNG
100
AcDbMText
 10
13.9329988022
 20
28.8834360957
 30
0.0
 40
3.0
 41
0.0
 71
     1
 72
     1
  1
Klemmhalter rechts_Turning tool right 117.5° /35°
  7
SLDTEXTSTYLE0
 73
     1
 44
1.0
  0
MTEXT
  5
4B
330
1F
100
AcDbEntity
  8
VERMASSUNG
100
AcDbMText
 10
98.8601118557
 20
13.8365368179
 30
0.0
 40
2.0
 41
0.0
 71
     1
 72
     1
  1
Datum: 24.05.2012
  7
SLDTEXTSTYLE0
 73
     1
 44
1.0
  0
MTEXT
  5
4C
330
1F
100
AcDbEntity
  8
VERMASSUNG
100
AcDbMText
 10
13.933048693
 20
18.0482802738
 30
0.0
 40
2.0
 41
0.0
 71
     1
 72
     1
  1
PSC ø63 / VN..16 04..
  7
SLDTEXTSTYLE0
 73
     1
 44
1.0
  0
MTEXT
  5
4D
330
1F
100
AcDbEntity
  8
VERMASSUNG
100
AcDbMText
 10
13.9808475933
 20
13.9090973692
 30
0.0
 40
2.0
 41
0.0
 71
     1
 72
     1
  1
Gewicht: 1356g
  7
SLDTEXTSTYLE0
 73
     1
 44
1.0
  0
LINE
  5
4E
330
1F
100
AcDbEntity
  8
0
  6
Continuous
 62
     7
370
    15
100
AcDbLine
 10
230.7776006727
 20
143.8369760729
 30
0.0
 11
194.0449276607
 21
143.8369760729
 31
0.0
  0
LINE
  5
4F
330
1F
100
AcDbEntity
  8
0
  6
Continuous
 62
     7
370
    15
100
AcDbLine
 10
194.0449276607
 20
80.8369760729
 30
0.0
 11
226.0159939898
 21
80.8369760729
 31
0.0
  0
ARC
  5
50
330
1F
100
AcDbEntity
  8
0
  6
Continuous
 62
     7
370
    15
100
AcDbCircle
 10
194.0449276607
 20
81.3369760729
 30
0.0
 40
0.5
100
AcDbArc
 50
180.0
 51
270.0
  0
ARC
  5
51
330
1F
100
AcDbEntity
  8
0
  6
Continuous
 62
     7
370
    15
100
AcDbCircle
 10
194.0449276607
 20
143.3369760729
 30
0.0
 40
0.5
100
AcDbArc
 50
90.0
 51
180.0
  0
LWPOLYLINE
  5
52
330
1F
100
AcDbEntity
  8
0
  6
Continuous
 62
     7
370
    15
100
AcDbPolyline
 90
        3
 70
   128
 43
0.0
 10
193.3449276607
 20
89.7971557941
 10
193.4703826042
 20
89.7288536791
 10
193.5449276607
 20
89.676115921
  0
LWPOLYLINE
  5
53
330
1F
100
AcDbEntity
  8
0
  6
Continuous
 62
     7
370
    15
100
AcDbPolyline
 90
        3
 70
   128
 43
0.0
 10
193.5449276607
 20
134.9978362249
 10
193.4703826042
 20
134.9450984667
 10
193.3449276607
 20
134.8767963518
  0
ARC
  5
54
330
1F
100
AcDbEntity
  8
0
  6
Continuous
 62
     7
370
    15
100
AcDbCircle
 10
230.7776006727
 20
144.8369760729
 30
0.0
 40
1.0
100
AcDbArc
 50
270.0
 51
345.0
  0
LINE
  5
55
330
1F
100
AcDbEntity
  8
0
  6
Continuous
 62
     7
370
    15
100
AcDbLine
 10
231.8952620163
 20
145.1444416875
 30
0.0
 11
231.743526499
 21
144.5781570278
 31
0.0
  0
LINE
  5
56
330
1F
100
AcDbEntity
  8
0
  6
Continuous
 62
     7
370
    15
100
AcDbLine
 10
242.4327756742
 20
127.4018919837
 30
0.0
 11
243.497112869
 21
128.6568794217
 31
0.0
  0
LINE
  5
57
330
1F
100
AcDbEntity
  8
0
  6
Continuous
 62
     7
370
    15
100
AcDbLine
 10
241.2091352631
 20
130.5972810489
 30
0.0
 11
240.171224707
 21
129.3734539423
 31
0.0
  0
LINE
  5
58
330
1F
100
AcDbEntity
  8
0
  6
Continuous
 62
     7
370
    15
100
AcDbLine
 10
241.4735275441
 20
141.1562078777
 30
0.0
 11
241.1262311888
 21
140.7467017875
 31
0.0
  0
LINE
  5
59
330
1F
100
AcDbEntity
  8
0
  6
Continuous
 62
     7
370
    15
100
AcDbLine
 10
249.8968120114
 20
133.3084955499
 30
0.0
 11
250.2441083668
 21
133.71800164
 31
0.0
  0
LINE
  5
5A
330
1F
100
AcDbEntity
  8
0
  6
Continuous
 62
     7
370
    15
100
AcDbLine
 10
239.9992590087
 20
141.3504494205
 30
0.0
 11
239.2019686799
 21
140.4103438299
 31
0.0
  0
LINE
  5
5B
330
1F
100
AcDbEntity
  8
0
  6
Continuous
 62
     7
370
    15
100
AcDbLine
 10
249.8791975074
 20
131.3551362363
 30
0.0
 11
250.6764878362
 21
132.2952418269
 31
0.0
  0
LINE
  5
5C
330
1F
100
AcDbEntity
  8
0
  6
Continuous
 62
     7
370
    15
100
AcDbLine
 10
245.6225016235
 20
121.6573498999
 30
0.0
 11
246.7340056991
 21
122.9679530236
 31
0.0
  0
LINE
  5
5D
330
1F
100
AcDbEntity
  8
0
  6
Continuous
 62
     7
370
    15
100
AcDbLine
 10
242.4162993855
 20
146.1396120373
 30
0.0
 11
241.5534796979
 21
145.1222390897
 31
0.0
  0
LINE
  5
5E
330
1F
100
AcDbEntity
  8
0
  6
Continuous
 62
     7
370
    15
100
AcDbLine
 10
251.8483567439
 20
148.4094446446
 30
0.0
 11
247.1336575085
 21
150.4742673501
 31
0.0
  0
LINE
  5
5F
330
1F
100
AcDbEntity
  8
0
  6
Continuous
 62
     7
370
    15
100
AcDbLine
 10
244.783698781
 20
150.3983045774
 30
0.0
 11
244.0969385563
 21
149.5885278834
 31
0.0
  0
SPLINE
  5
60
330
1F
100
AcDbEntity
  8
0
  6
Continuous
 62
     7
370
    15
100
AcDbSpline
210
0.0
220
0.0
230
1.0
 70
     8
 71
     3
 72
    12
 73
     8
 74
     0
 42
0.00000001
 43
0.00000001
 12
1.0
 22
0.0
 32
0.0
 13
1.0
 23
0.0
 33
0.0
 40
0.0
 40
0.0
 40
0.0
 40
0.0
 40
0.4999999999999981
 40
0.4999999999999981
 40
0.749999999999999
 40
0.749999999999999
 40
1.0
 40
1.0
 40
1.0
 40
1.0
 10
203.639671772394
 20
122.2463453936115
 30
0.0
 10
203.6703940143131
 20
122.1337895942023
 30
0.0
 10
203.7132312288482
 20
122.0210317344627
 30
0.0
 10
203.812658253048
 20
121.8714908486663
 30
0.0
 10
203.8524104478647
 20
121.8241981169595
 30
0.0
 10
203.9504519047229
 20
121.750461823638
 30
0.0
 10
204.0100079603104
 20
121.7250425042623
 30
0.0
 10
204.0726844742862
 20
121.7250425042623
 30
0.0
  0
LINE
  5
61
330
1F
100
AcDbEntity
  8
0
  6
Continuous
 62
     7
370
    15
100
AcDbLine
 10
204.0726844743
 20
121.7250425043
 30
0.0
 11
207.0171708472
 21
121.7250425043
 31
0.0
  0
SPLINE
  5
62
330
1F
100
AcDbEntity
  8
0
  6
Continuous
 62
     7
370
    15
100
AcDbSpline
210
0.0
220
0.0
230
1.0
 70
     8
 71
     3
 72
    12
 73
     8
 74
     0
 42
0.00000001
 43
0.00000001
 12
1.0
 22
0.0
 32
0.0
 13
1.0
 23
0.0
 33
0.0
 40
0.0
 40
0.0
 40
0.0
 40
0.0
 40
0.2500000000000001
 40
0.2500000000000001
 40
0.5000000000000001
 40
0.5000000000000001
 40
1.0
 40
1.0
 40
1.0
 40
1.0
 10
207.0171708471533
 20
121.7250425042623
 30
0.0
 10
207.0802508856467
 20
121.7250425042623
 30
0.0
 10
207.1393995078281
 20
121.7504068234773
 30
0.0
 10
207.2378720578972
 20
121.8245716838502
 30
0.0
 10
207.2769086698819
 20
121.8710920244043
 30
0.0
 10
207.3768051366609
 20
122.0212343672496
 30
0.0
 10
207.4192260177276
 20
122.1329275742217
 30
0.0
 10
207.4501835490455
 20
122.2463453936115
 30
0.0
  0
ELLIPSE
  5
63
330
1F
100
AcDbEntity
  8
0
  6
Continuous
 62
     7
370
    15
100
AcDbEllipse
 10
191.1977734714
 20
112.3369760729
 30
0.0
 11
14.75368316065604
 21
31.09325491558113
 31
0.0
210
0.0
220
0.0
230
1.0
 40
0.3419987131
 41
5.193281737408619
 42
6.124043104552323
  0
SPLINE
  5
64
330
1F
100
AcDbEntity
  8
0
  6
Continuous
 62
     7
370
    15
100
AcDbSpline
210
0.0
220
0.0
230
1.0
 70
     8
 71
     3
 72
    12
 73
     8
 74
     0
 42
0.00000001
 43
0.00000001
 12
1.0
 22
0.0
 32
0.0
 13
1.0
 23
0.0
 33
0.0
 40
0.0
 40
0.0
 40
0.0
 40
0.0
 40
0.5
 40
0.5
 40
0.75
 40
0.75
 40
1.0
 40
1.0
 40
1.0
 40
1.0
 10
207.4501835490455
 20
142.2377185330436
 30
0.0
 10
207.4194613071264
 20
142.2750205159966
 30
0.0
 10
207.3766240925913
 20
142.311632348043
 30
0.0
 10
207.2771970683915
 20
142.3593971313282
 30
0.0
 10
207.2374448735748
 20
142.3743546468106
 30
0.0
 10
207.1394034167166
 20
142.3975445925797
 30
0.0
 10
207.0798473611292
 20
142.4054680317995
 30
0.0
 10
207.0171708471533
 20
142.4054680317995
 30
0.0
  0
LINE
  5
65
330
1F
100
AcDbEntity
  8
0
  6
Continuous
 62
     7
370
    15
100
AcDbLine
 10
207.0171708472
 20
142.4054680318
 30
0.0
 11
204.0726844743
 21
142.4054680318
 31
0.0
  0
SPLINE
  5
66
330
1F
100
AcDbEntity
  8
0
  6
Continuous
 62
     7
370
    15
100
AcDbSpline
210
0.0
220
0.0
230
1.0
 70
     8
 71
     3
 72
    12
 73
     8
 74
     0
 42
0.00000001
 43
0.00000001
 12
1.0
 22
0.0
 32
0.0
 13
1.0
 23
0.0
 33
0.0
 40
0.0
 40
0.0
 40
0.0
 40
0.0
 40
0.2500000000000009
 40
0.2500000000000009
 40
0.5000000000000018
 40
0.5000000000000018
 40
1.0
 40
1.0
 40
1.0
 40
1.0
 10
204.0726844742862
 20
142.4054680317995
 30
0.0
 10
204.0096044357928
 20
142.4054680317995
 30
0.0
 10
203.9504558136114
 20
142.397562105587
 30
0.0
 10
203.8519832635423
 20
142.3742369441508
 30
0.0
 10
203.8129466515576
 20
142.3595241543191
 30
0.0
 10
203.7130501847786
 20
142.3115683535882
 30
0.0
 10
203.6706293037119
 20
142.2753061970081
 30
0.0
 10
203.639671772394
 20
142.2377185330436
 30
0.0
  0
ELLIPSE
  5
67
330
1F
100
AcDbEntity
  8
0
  6
Continuous
 62
     7
370
    15
100
AcDbEllipse
 10
219.8920818501
 20
112.3369760729
 30
0.0
 11
-14.75368316065607
 21
31.09325491558113
 31
0.0
210
0.0
220
0.0
230
1.0
 40
0.3419987131
 41
0.1591422026273044
 42
1.089903569770979
  0
SPLINE
  5
68
330
1F
100
AcDbEntity
  8
0
  6
Continuous
 62
     7
370
    15
100
AcDbSpline
210
0.0
220
0.0
230
1.0
 70
     8
 71
     3
 72
    12
 73
     8
 74
     0
 42
0.00000001
 43
0.00000001
 12
1.0
 22
0.0
 32
0.0
 13
1.0
 23
0.0
 33
0.0
 40
0.0
 40
0.0
 40
0.0
 40
0.0
 40
0.4999999999999981
 40
0.4999999999999981
 40
0.749999999999999
 40
0.749999999999999
 40
1.0
 40
1.0
 40
1.0
 40
1.0
 10
203.639671772394
 20
82.43623361280919
 30
0.0
 10
203.6708169703561
 20
82.398418089889
 30
0.0
 10
203.7130912366905
 20
82.36235123180536
 30
0.0
 10
203.8130367705158
 20
82.31439116679412
 30
0.0
 10
203.8527670752199
 20
82.29953019289646
 30
0.0
 10
203.9496551252261
 20
82.27657904676532
 30
0.0
 10
204.0097203669727
 20
82.26848411405328
 30
0.0
 10
204.0726844742862
 20
82.26848411405328
 30
0.0
  0
LINE
  5
69
330
1F
100
AcDbEntity
  8
0
  6
Continuous
 62
     7
370
    15
100
AcDbLine
 10
204.0726844743
 20
82.2684841141
 30
0.0
 11
207.0171708472
 21
82.2684841141
 31
0.0
  0
SPLINE
  5
6A
330
1F
100
AcDbEntity
  8
0
  6
Continuous
 62
     7
370
    15
100
AcDbSpline
210
0.0
220
0.0
230
1.0
 70
     8
 71
     3
 72
    12
 73
     8
 74
     0
 42
0.00000001
 43
0.00000001
 12
1.0
 22
0.0
 32
0.0
 13
1.0
 23
0.0
 33
0.0
 40
0.0
 40
0.0
 40
0.0
 40
0.0
 40
0.2499999999999991
 40
0.2499999999999991
 40
0.4999999999999981
 40
0.4999999999999981
 40
1.0
 40
1.0
 40
1.0
 40
1.0
 10
207.0171708471533
 20
82.26848411405334
 30
0.0
 10
207.0802278020511
 20
82.26848411405332
 30
0.0
 10
207.1393579517967
 20
82.27638444513288
 30
0.0
 10
207.23780550233
 20
82.29969519313792
 30
0.0
 10
207.2768377405181
 20
82.31440031942155
 30
0.0
 10
207.376727624975
 20
82.36233384760821
 30
0.0
 10
207.4190265985844
 20
82.39840382037298
 30
0.0
 10
207.4501835490456
 20
82.43623361280918
 30
0.0
  0
ELLIPSE
  5
6B
330
1F
100
AcDbEntity
  8
0
  6
Continuous
 62
     7
370
    15
100
AcDbEllipse
 10
191.1977734714
 20
112.3369760729
 30
0.0
 11
-14.75368316065621
 21
31.09325491558113
 31
0.0
210
0.0
220
0.0
230
1.0
 40
0.3419987131
 41
3.300734856217118
 42
4.231496223360769
  0
SPLINE
  5
6C
330
1F
100
AcDbEntity
  8
0
  6
Continuous
 62
     7
370
    15
100
AcDbSpline
210
0.0
220
0.0
230
1.0
 70
     8
 71
     3
 72
    12
 73
     8
 74
     0
 42
0.00000001
 43
0.00000001
 12
1.0
 22
0.0
 32
0.0
 13
1.0
 23
0.0
 33
0.0
 40
0.0
 40
0.0
 40
0.0
 40
0.0
 40
0.5
 40
0.5
 40
0.75
 40
0.75
 40
1.0
 40
1.0
 40
1.0
 40
1.0
 10
207.4501835490455
 20
102.427606752241
 30
0.0
 10
207.4190383510834
 20
102.5417121181063
 30
0.0
 10
207.376764084749
 20
102.6528184453251
 30
0.0
 10
207.2768185509237
 20
102.8029760527554
 30
0.0
 10
207.2370882462196
 20
102.8499687443728
 30
0.0
 10
207.1402001962134
 20
102.9229443289112
 30
0.0
 10
207.0801349544669
 20
102.9489096415903
 30
0.0
 10
207.0171708471534
 20
102.9489096415903
 30
0.0
  0
LINE
  5
6D
330
1F
100
AcDbEntity
  8
0
  6
Continuous
 62
     7
370
    15
100
AcDbLine
 10
207.0171708472
 20
102.9489096416
 30
0.0
 11
204.0726844743
 21
102.9489096416
 31
0.0
  0
SPLINE
  5
6E
330
1F
100
AcDbEntity
  8
0
  6
Continuous
 62
     7
370
    15
100
AcDbSpline
210
0.0
220
0.0
230
1.0
 70
     8
 71
     3
 72
    12
 73
     8
 74
     0
 42
0.00000001
 43
0.00000001
 12
1.0
 22
0.0
 32
0.0
 13
1.0
 23
0.0
 33
0.0
 40
0.0
 40
0.0
 40
0.0
 40
0.0
 40
0.2500000000000004
 40
0.2500000000000004
 40
0.5000000000000009
 40
0.5000000000000009
 40
1.0
 40
1.0
 40
1.0
 40
1.0
 10
204.0726844742862
 20
102.9489096415902
 30
0.0
 10
204.0096275193884
 20
102.9489096415902
 30
0.0
 10
203.9504973696428
 20
102.9235632882095
 30
0.0
 10
203.8520498191095
 20
102.84944390607
 30
0.0
 10
203.8130175809215
 20
102.802947391372
 30
0.0
 10
203.7131276964645
 20
102.6528728843634
 30
0.0
 10
203.6708287228552
 20
102.5417551752485
 30
0.0
 10
203.6396717723939
 20
102.427606752241
 30
0.0
  0
ELLIPSE
  5
6F
330
1F
100
AcDbEntity
  8
0
  6
Continuous
 62
     7
370
    15
100
AcDbEllipse
 10
219.8920818501
 20
112.3369760729
 30
0.0
 11
14.75368316065618
 21
31.09325491558116
 31
0.0
210
0.0
220
0.0
230
1.0
 40
0.3419987131
 41
2.051689083818826
 42
2.982450450962501
  0
ELLIPSE
  5
70
330
1F
100
AcDbEntity
  8
0
  6
Continuous
 62
     7
370
    15
100
AcDbEllipse
 10
309.8779571657
 20
112.3369760729
 30
0.0
 11
178.6415948019417
 21
-6.749583177696025
 31
0.0
210
0.0
220
0.0
230
1.0
 40
0.1722352441
 41
2.035999052762649
 42
2.045186787275107
  0
SPLINE
  5
71
330
1F
100
AcDbEntity
  8
0
  6
Continuous
 62
     7
370
    15
100
AcDbSpline
210
0.0
220
0.0
230
1.0
 70
     8
 71
     3
 72
    20
 73
    16
 74
     0
 42
0.00000001
 43
0.00000001
 12
1.0
 22
0.0
 32
0.0
 13
1.0
 23
0.0
 33
0.0
 40
0.0
 40
0.0
 40
0.0
 40
0.0
 40
0.2499999999999995
 40
0.2499999999999995
 40
0.3749999999999996
 40
0.3749999999999996
 40
0.4999999999999997
 40
0.4999999999999997
 40
0.6249999999999998
 40
0.6249999999999998
 40
0.7499999999999998
 40
0.7499999999999998
 40
0.8749999999999999
 40
0.8749999999999999
 40
1.0
 40
1.0
 40
1.0
 40
1.0
 10
224.5556121613273
 20
141.0898986107399
 30
0.0
 10
224.6871243922604
 20
141.3380147788511
 30
0.0
 10
224.8817728476145
 20
141.5598503089295
 30
0.0
 10
225.2832001767841
 20
141.8571030740121
 30
0.0
 10
225.4370014736952
 20
141.9509472905474
 30
0.0
 10
225.7773246407337
 20
142.1226389033825
 30
0.0
 10
225.963582757408
 20
142.2007182001133
 30
0.0
 10
226.3695180726124
 20
142.3429197528898
 30
0.0
 10
226.5891712737684
 20
142.4070441691374
 30
0.0
 10
227.0650148590946
 20
142.5222850613264
 30
0.0
 10
227.3215027290289
 20
142.5731875593596
 30
0.0
 10
227.8515732173051
 20
142.6591202727659
 30
0.0
 10
228.1275813087231
 20
142.6948073103443
 30
0.0
 10
228.702266656272
 20
142.7528938213566
 30
0.0
 10
229.0029654726698
 20
142.7753618364615
 30
0.0
 10
229.3092780530602
 20
142.790828027564
 30
0.0
  0
ELLIPSE
  5
72
330
1F
100
AcDbEntity
  8
0
  6
Continuous
 62
     7
370
    15
100
AcDbEllipse
 10
229.5293826516
 20
112.3369760729
 30
0.0
 11
-1.8836048094727
 21
31.49615682494979
 31
0.0
210
0.0
220
0.0
230
1.0
 40
0.2612235458
 41
0.405108594906272
 42
2.286363010342059
  0
SPLINE
  5
73
330
1F
100
AcDbEntity
  8
0
  6
Continuous
 62
     7
370
    15
100
AcDbSpline
210
0.0
220
0.0
230
1.0
 70
     8
 71
     3
 72
    18
 73
    14
 74
     0
 42
0.00000001
 43
0.00000001
 12
1.0
 22
0.0
 32
0.0
 13
1.0
 23
0.0
 33
0.0
 40
0.0
 40
0.0
 40
0.0
 40
0.0
 40
0.2499999999999993
 40
0.2499999999999993
 40
0.4999999999999987
 40
0.4999999999999987
 40
0.6249999999999991
 40
0.6249999999999991
 40
0.7499999999999996
 40
0.7499999999999996
 40
0.875
 40
0.875
 40
1.0
 40
1.0
 40
1.0
 40
1.0
 10
229.3092780530602
 20
87.79049068339938
 30
0.0
 10
228.6990385817176
 20
87.86604590439153
 30
0.0
 10
228.1271788021419
 20
88.00405222313452
 30
0.0
 10
227.05628110551
 20
88.40781756255261
 30
0.0
 10
226.5835249901334
 20
88.66451986779799
 30
0.0
 10
225.9652206856244
 20
89.13016036153986
 30
0.0
 10
225.7771751061314
 20
89.29705864897745
 30
0.0
 10
225.4385792976574
 20
89.64954406672598
 30
0.0
 10
225.2871879838607
 20
89.83578307998283
 30
0.0
 10
225.0181132610172
 20
90.22853836750927
 30
0.0
 10
224.9010353067834
 20
90.43458773405841
 30
0.0
 10
224.70295391136
 20
90.85835915018858
 30
0.0
 10
224.6212281626565
 20
91.07709707273611
 30
0.0
 10
224.5556121613273
 20
91.30271857753675
 30
0.0
  0
ELLIPSE
  5
74
330
1F
100
AcDbEntity
  8
0
  6
Continuous
 62
     7
370
    15
100
AcDbEllipse
 10
309.8779571657
 20
112.3369760729
 30
0.0
 11
178.6415948019417
 21
-6.749583177696025
 31
0.0
210
0.0
220
0.0
230
1.0
 40
0.1722352441
 41
4.251013402555439
 42
4.260201137067897
  0
ELLIPSE
  5
75
330
1F
100
AcDbEntity
  8
0
  6
Continuous
 62
     7
370
    15
100
AcDbEllipse
 10
249.0781692594
 20
112.3369760729
 30
0.0
 11
23.0697054823234
 21
31.49782548750787
 31
0.0
210
0.0
220
0.0
230
1.0
 40
0.0160435947
 41
3.153342797152274
 42
3.774634557470919
  0
LINE
  5
76
330
1F
100
AcDbEntity
  8
0
  6
Continuous
 62
     7
370
    15
100
AcDbLine
 10
193.5449276607
 20
81.3369760729
 30
0.0
 11
193.5449276607
 21
143.3369760729
 31
0.0
  0
SPLINE
  5
77
330
1F
100
AcDbEntity
  8
0
  6
Continuous
 62
     7
370
    15
100
AcDbSpline
210
0.0
220
0.0
230
1.0
 70
     8
 71
     3
 72
    12
 73
     8
 74
     0
 42
0.00000001
 43
0.00000001
 12
1.0
 22
0.0
 32
0.0
 13
1.0
 23
0.0
 33
0.0
 40
0.0
 40
0.0
 40
0.0
 40
0.0
 40
0.5000000000000003
 40
0.5000000000000003
 40
0.7500000000000001
 40
0.7500000000000001
 40
1.0
 40
1.0
 40
1.0
 40
1.0
 10
192.7284153742633
 20
90.4821823704506
 30
0.0
 10
192.7848518751704
 20
90.48076448910885
 30
0.0
 10
192.8539365058592
 20
90.47920015286054
 30
0.0
 10
192.9727387775771
 20
90.47625596088609
 30
0.0
 10
193.0129240530472
 20
90.47521775778871
 30
0.0
 10
193.0863051004511
 20
90.47328386257408
 30
0.0
 10
193.1197146641937
 20
90.47238897528528
 30
0.0
 10
193.1499507718501
 20
90.47160518501293
 30
0.0
  0
SPLINE
  5
78
330
1F
100
AcDbEntity
  8
0
  6
Continuous
 62
     7
370
    15
100
AcDbSpline
210
0.0
220
0.0
230
1.0
 70
     8
 71
     3
 72
    16
 73
    12
 74
     0
 42
0.00000001
 43
0.00000001
 12
1.0
 22
0.0
 32
0.0
 13
1.0
 23
0.0
 33
0.0
 40
0.0
 40
0.0
 40
0.0
 40
0.0
 40
0.0624999999999992
 40
0.0624999999999992
 40
0.1249999999999983
 40
0.1249999999999983
 40
0.2499999999999965
 40
0.2499999999999965
 40
0.4999999999999977
 40
0.4999999999999977
 40
1.0
 40
1.0
 40
1.0
 40
1.0
 10
193.1499507718129
 20
90.47160518503718
 30
0.0
 10
193.1615311794009
 20
90.47130499392583
 30
0.0
 10
193.1748407061621
 20
90.46997724566683
 30
0.0
 10
193.2041421362483
 20
90.46327857089183
 30
0.0
 10
193.2189562361326
 20
90.45792038778613
 30
0.0
 10
193.2547846378354
 20
90.44087473861879
 30
0.0
 10
193.2689042621984
 20
90.42941220084305
 30
0.0
 10
193.303408406287
 20
90.39784887547081
 30
0.0
 10
193.3145129569915
 20
90.37995157642554
 30
0.0
 10
193.3406891342077
 20
90.32979015881129
 30
0.0
 10
193.3449276607197
 20
90.30204574661471
 30
0.0
 10
193.3449276607197
 20
90.27738158468517
 30
0.0
  0
LINE
  5
79
330
1F
100
AcDbEntity
  8
0
  6
Continuous
 62
     7
370
    15
100
AcDbLine
 10
193.3449276607
 20
105.3150887472
 30
0.0
 11
193.3449276607
 21
89.7971557941
 31
0.0
  0
SPLINE
  5
7A
330
1F
100
AcDbEntity
  8
0
  6
Continuous
 62
     7
370
    15
100
AcDbSpline
210
0.0
220
0.0
230
1.0
 70
     8
 71
     3
 72
    16
 73
    12
 74
     0
 42
0.00000001
 43
0.00000001
 12
1.0
 22
0.0
 32
0.0
 13
1.0
 23
0.0
 33
0.0
 40
0.0
 40
0.0
 40
0.0
 40
0.0
 40
0.5000000000000033
 40
0.5000000000000033
 40
0.7500000000000033
 40
0.7500000000000033
 40
0.8750000000000033
 40
0.8750000000000033
 40
0.9375000000000017
 40
0.9375000000000017
 40
1.0
 40
1.0
 40
1.0
 40
1.0
 10
193.3449276607197
 20
105.3150887471764
 30
0.0
 10
193.3449276607197
 20
105.4287812913043
 30
0.0
 10
193.3407813856418
 20
105.5431014526538
 30
0.0
 10
193.3148157902483
 20
105.7161497431509
 30
0.0
 10
193.3033548848709
 20
105.7753252503126
 30
0.0
 10
193.2690431470965
 20
105.8584483697807
 30
0.0
 10
193.255018411167
 20
105.8865696858814
 30
0.0
 10
193.2189954481331
 20
105.9151854998588
 30
0.0
 10
193.2042409390434
 20
105.9209785477606
 30
0.0
 10
193.1748887778965
 20
105.9193851218236
 30
0.0
 10
193.1615489033925
 20
105.9128887184998
 30
0.0
 10
193.1499507718441
 20
105.9043729722967
 30
0.0
  0
SPLINE
  5
7B
330
1F
100
AcDbEntity
  8
0
  6
Continuous
 62
     7
370
    15
100
AcDbSpline
210
0.0
220
0.0
230
1.0
 70
     8
 71
     3
 72
    12
 73
     8
 74
     0
 42
0.00000001
 43
0.00000001
 12
1.0
 22
0.0
 32
0.0
 13
1.0
 23
0.0
 33
0.0
 40
0.0
 40
0.0
 40
0.0
 40
0.0
 40
0.2499999999999998
 40
0.2499999999999998
 40
0.4999999999999999
 40
0.4999999999999999
 40
1.0
 40
1.0
 40
1.0
 40
1.0
 10
193.1499507718512
 20
105.9043729722875
 30
0.0
 10
193.1197523304106
 20
105.8822002402424
 30
0.0
 10
193.0863849750746
 20
105.8631205843652
 30
0.0
 10
193.0132296992447
 20
105.8379475399225
 30
0.0
 10
192.9729770002207
 20
105.8323910035057
 30
0.0
 10
192.8552482569458
 20
105.8433028144925
 30
0.0
 10
192.7847898088869
 20
105.8852385699033
 30
0.0
 10
192.7284153742686
 20
105.9344503522848
 30
0.0
  0
SPLINE
  5
7C
330
1F
100
AcDbEntity
  8
0
  6
Continuous
 62
     7
370
    15
100
AcDbSpline
210
0.0
220
0.0
230
1.0
 70
     8
 71
     3
 72
    12
 73
     8
 74
     0
 42
0.00000001
 43
0.00000001
 12
1.0
 22
0.0
 32
0.0
 13
1.0
 23
0.0
 33
0.0
 40
0.0
 40
0.0
 40
0.0
 40
0.0
 40
0.4999999999999991
 40
0.4999999999999991
 40
0.7499999999999994
 40
0.7499999999999994
 40
1.0
 40
1.0
 40
1.0
 40
1.0
 10
192.2236073171601
 20
107.1508017441654
 30
0.0
 10
192.2673576690445
 20
106.9303547591908
 30
0.0
 10
192.320247820169
 20
106.7148097693853
 30
0.0
 10
192.4318593633107
 20
106.4023956928134
 30
0.0
 10
192.4744187072142
 20
106.3003162171975
 30
0.0
 10
192.5793959425517
 20
106.1058762045557
 30
0.0
 10
192.6409631856463
 20
106.010791305492
 30
0.0
 10
192.7284153742686
 20
105.9344503522849
 30
0.0
  0
SPLINE
  5
7D
330
1F
100
AcDbEntity
  8
0
  6
Continuous
 62
     7
370
    15
100
AcDbSpline
210
0.0
220
0.0
230
1.0
 70
     8
 71
     3
 72
    12
 73
     8
 74
     0
 42
0.00000001
 43
0.00000001
 12
1.0
 22
0.0
 32
0.0
 13
1.0
 23
0.0
 33
0.0
 40
0.0
 40
0.0
 40
0.0
 40
0.0
 40
0.2500000000000004
 40
0.2500000000000004
 40
0.5000000000000008
 40
0.5000000000000008
 40
1.0
 40
1.0
 40
1.0
 40
1.0
 10
192.7284153742685
 20
118.739501793568
 30
0.0
 10
192.6399219667007
 20
118.6622519134597
 30
0.0
 10
192.5798639259348
 20
118.5689325895705
 30
0.0
 10
192.4740156529522
 20
118.372899536601
 30
0.0
 10
192.4314821316747
 20
118.2705731783893
 30
0.0
 10
192.3203308248511
 20
117.9592287726134
 30
0.0
 10
192.2673999678033
 20
117.7438105194354
 30
0.0
 10
192.2236073171601
 20
117.5231504016875
 30
0.0
  0
SPLINE
  5
7E
330
1F
100
AcDbEntity
  8
0
  6
Continuous
 62
     7
370
    15
100
AcDbSpline
210
0.0
220
0.0
230
1.0
 70
     8
 71
     3
 72
    12
 73
     8
 74
     0
 42
0.00000001
 43
0.00000001
 12
1.0
 22
0.0
 32
0.0
 13
1.0
 23
0.0
 33
0.0
 40
0.0
 40
0.0
 40
0.0
 40
0.0
 40
0.4999999999999996
 40
0.4999999999999996
 40
0.7499999999999996
 40
0.7499999999999996
 40
1.0
 40
1.0
 40
1.0
 40
1.0
 10
192.7284153742685
 20
118.739501793568
 30
0.0
 10
192.7847239225642
 20
118.7886560608119
 30
0.0
 10
192.8549985832823
 20
118.8306133794156
 30
0.0
 10
192.9730364976058
 20
118.841573056948
 30
0.0
 10
193.0132127384598
 20
118.8360642987007
 30
0.0
 10
193.0871698331377
 20
118.8105070699117
 30
0.0
 10
193.1197862208492
 20
118.7917270220724
 30
0.0
 10
193.1499507718449
 20
118.7695791735557
 30
0.0
  0
SPLINE
  5
7F
330
1F
100
AcDbEntity
  8
0
  6
Continuous
 62
     7
370
    15
100
AcDbSpline
210
0.0
220
0.0
230
1.0
 70
     8
 71
     3
 72
    16
 73
    12
 74
     0
 42
0.00000001
 43
0.00000001
 12
1.0
 22
0.0
 32
0.0
 13
1.0
 23
0.0
 33
0.0
 40
0.0
 40
0.0
 40
0.0
 40
0.0
 40
0.0624999999999996
 40
0.0624999999999996
 40
0.1249999999999993
 40
0.1249999999999993
 40
0.2499999999999993
 40
0.2499999999999993
 40
0.4999999999999996
 40
0.4999999999999996
 40
1.0
 40
1.0
 40
1.0
 40
1.0
 10
193.1499507718132
 20
118.7695791735012
 30
0.0
 10
193.1615636716525
 20
118.7610525839059
 30
0.0
 10
193.174914856085
 20
118.7545523223732
 30
0.0
 10
193.2043146957042
 20
118.7529829252556
 30
0.0
 10
193.2191554202595
 20
118.7588663158862
 30
0.0
 10
193.254988628228
 20
118.7874139519368
 30
0.0
 10
193.2691018360496
 20
118.8155809712426
 30
0.0
 10
193.3035932072685
 20
118.8993352296645
 30
0.0
 10
193.3146772783789
 20
118.9570486432859
 30
0.0
 10
193.3408000961749
 20
119.1306391799317
 30
0.0
 10
193.3449276607197
 20
119.2456672325737
 30
0.0
 10
193.3449276607197
 20
119.3588633986765
 30
0.0
  0
LINE
  5
80
330
1F
100
AcDbEntity
  8
0
  6
Continuous
 62
     7
370
    15
100
AcDbLine
 10
193.3449276607
 20
134.8767963518
 30
0.0
 11
193.3449276607
 21
119.3588633987
 31
0.0
  0
SPLINE
  5
81
330
1F
100
AcDbEntity
  8
0
  6
Continuous
 62
     7
370
    15
100
AcDbSpline
210
0.0
220
0.0
230
1.0
 70
     8
 71
     3
 72
    16
 73
    12
 74
     0
 42
0.00000001
 43
0.00000001
 12
1.0
 22
0.0
 32
0.0
 13
1.0
 23
0.0
 33
0.0
 40
0.0
 40
0.0
 40
0.0
 40
0.0
 40
0.5000000000000022
 40
0.5000000000000022
 40
0.7500000000000036
 40
0.7500000000000036
 40
0.8750000000000043
 40
0.8750000000000043
 40
0.9375000000000021
 40
0.9375000000000021
 40
1.0
 40
1.0
 40
1.0
 40
1.0
 10
193.3449276607197
 20
134.3965705611677
 30
0.0
 10
193.3449276607197
 20
134.3718994051248
 30
0.0
 10
193.3407619622598
 20
134.3443175737335
 30
0.0
 10
193.3145036339348
 20
134.2939747029102
 30
0.0
 10
193.3029998521972
 20
134.2756852048483
 30
0.0
 10
193.2688690928507
 20
134.2445301738113
 30
0.0
 10
193.25444720618
 20
134.2328907985995
 30
0.0
 10
193.2188802377422
 20
134.2160087726685
 30
0.0
 10
193.2039284694475
 20
134.2106196688608
 30
0.0
 10
193.1749246510878
 20
134.2039991729163
 30
0.0
 10
193.1615092970785
 20
134.2026465847099
 30
0.0
 10
193.1499507718419
 20
134.2023469608383
 30
0.0
  0
SPLINE
  5
82
330
1F
100
AcDbEntity
  8
0
  6
Continuous
 62
     7
370
    15
100
AcDbSpline
210
0.0
220
0.0
230
1.0
 70
     8
 71
     3
 72
    12
 73
     8
 74
     0
 42
0.00000001
 43
0.00000001
 12
1.0
 22
0.0
 32
0.0
 13
1.0
 23
0.0
 33
0.0
 40
0.0
 40
0.0
 40
0.0
 40
0.0
 40
0.2499999999999999
 40
0.2499999999999999
 40
0.4999999999999998
 40
0.4999999999999998
 40
1.0
 40
1.0
 40
1.0
 40
1.0
 10
193.1499507718512
 20
134.2023469608401
 30
0.0
 10
193.1197629953015
 20
134.2015644234225
 30
0.0
 10
193.0864091912098
 20
134.2006710916039
 30
0.0
 10
193.0132829880139
 20
134.1987437828003
 30
0.0
 10
192.9730477849897
 20
134.1977042515877
 30
0.0
 10
192.8553561548566
 20
134.1947863682404
 30
0.0
 10
192.7849754816966
 20
134.1931907621702
 30
0.0
 10
192.728415374266
 20
134.1917697754023
 30
0.0
  0
SPLINE
  5
83
330
1F
100
AcDbEntity
  8
0
  6
Continuous
 62
     7
370
    15
100
AcDbSpline
210
0.0
220
0.0
230
1.0
 70
     8
 71
     3
 72
    16
 73
    12
 74
     0
 42
0.00000001
 43
0.00000001
 12
1.0
 22
0.0
 32
0.0
 13
1.0
 23
0.0
 33
0.0
 40
0.0
 40
0.0
 40
0.0
 40
0.0
 40
0.2500000000000001
 40
0.2500000000000001
 40
0.3750000000000001
 40
0.3750000000000001
 40
0.5
 40
0.5
 40
0.75
 40
0.75
 40
1.0
 40
1.0
 40
1.0
 40
1.0
 10
192.2236073171601
 20
117.5231504016875
 30
0.0
 10
192.0623748396756
 20
116.7107406264407
 30
0.0
 10
191.941895000036
 20
115.870662332056
 30
0.0
 10
191.8195144827227
 20
114.5693672826932
 30
0.0
 10
191.7885368223253
 20
114.1286862471084
 30
0.0
 10
191.7469230846973
 20
113.2328466061773
 30
0.0
 10
191.7366871717645
 20
112.7861884749748
 30
0.0
 10
191.7364987747084
 20
111.4508785178349
 30
0.0
 10
191.776643477346
 20
110.5663831445274
 30
0.0
 10
191.9407972322855
 20
108.8091332565014
 30
0.0
 10
192.0623488826951
 20
107.9633423100883
 30
0.0
 10
192.2236073171601
 20
107.1508017441654
 30
0.0
  0
LINE
  5
84
330
1F
100
AcDbEntity
  8
0
  6
Continuous
 62
     7
370
    15
100
AcDbLine
 10
191.3449276607
 20
118.8221543346
 30
0.0
 11
191.3449276607
 21
105.8517978112
 31
0.0
  0
LINE
  5
85
330
1F
100
AcDbEntity
  8
0
  6
Continuous
 62
     7
370
    15
100
AcDbLine
 10
157.0449276607
 20
118.3912866405
 30
0.0
 11
157.0449276607
 21
106.2826655054
 31
0.0
  0
LINE
  5
86
330
1F
100
AcDbEntity
  8
0
  6
Continuous
 62
     7
370
    15
100
AcDbLine
 10
155.5449276607
 20
117.9582739386
 30
0.0
 11
155.5449276607
 21
106.7156782073
 31
0.0
  0
LINE
  5
87
330
1F
100
AcDbEntity
  8
0
  6
Continuous
 62
     7
370
    15
100
AcDbLine
 10
191.3449276607
 20
118.8221543346
 30
0.0
 11
191.3449276607
 21
134.3570748575
 31
0.0
  0
ARC
  5
88
330
1F
100
AcDbEntity
  8
0
  6
Continuous
 62
     7
370
    15
100
AcDbCircle
 10
191.5448645717
 20
134.3620979686
 30
0.0
 40
0.2000000000000066
100
AcDbArc
 50
181.4391666667
 51
271.4391666667
  0
LINE
  5
89
330
1F
100
AcDbEntity
  8
0
  6
Continuous
 62
     7
370
    15
100
AcDbLine
 10
157.0449276607
 20
118.3912866405
 30
0.0
 11
157.0449276607
 21
133.4953394692
 31
0.0
  0
LINE
  5
8A
330
1F
100
AcDbEntity
  8
0
  6
Continuous
 62
     7
370
    15
100
AcDbLine
 10
157.0449276607
 20
133.4953394692
 30
0.0
 11
191.3449276607
 21
134.3570748575
 31
0.0
  0
LINE
  5
8B
330
1F
100
AcDbEntity
  8
0
  6
Continuous
 62
     7
370
    15
100
AcDbLine
 10
191.3449276607
 20
90.3168772884
 30
0.0
 11
191.3449276607
 21
105.8517978112
 31
0.0
  0
ARC
  5
8C
330
1F
100
AcDbEntity
  8
0
  6
Continuous
 62
     7
370
    15
100
AcDbCircle
 10
191.5448645717
 20
90.3118541772
 30
0.0
 40
0.2000000000000059
100
AcDbArc
 50
88.5608333333
 51
178.5608333333
  0
LINE
  5
8D
330
1F
100
AcDbEntity
  8
0
  6
Continuous
 62
     7
370
    15
100
AcDbLine
 10
157.0449276607
 20
91.1786126766
 30
0.0
 11
157.0449276607
 21
106.2826655054
 31
0.0
  0
LINE
  5
8E
330
1F
100
AcDbEntity
  8
0
  6
Continuous
 62
     7
370
    15
100
AcDbLine
 10
157.0449276607
 20
91.1786126766
 30
0.0
 11
191.3449276607
 21
90.3168772884
 31
0.0
  0
LINE
  5
8F
330
1F
100
AcDbEntity
  8
0
  6
Continuous
 62
     7
370
    15
100
AcDbLine
 10
191.5498876828
 20
134.1621610577
 30
0.0
 11
192.7284153743
 21
134.1917697754
 31
0.0
  0
LINE
  5
90
330
1F
100
AcDbEntity
  8
0
  6
Continuous
 62
     7
370
    15
100
AcDbLine
 10
191.5498876828
 20
90.5117910882
 30
0.0
 11
192.7284153743
 21
90.4821823705
 31
0.0
  0
LINE
  5
91
330
1F
100
AcDbEntity
  8
0
  6
Continuous
 62
     7
370
    15
100
AcDbLine
 10
155.5449276607
 20
132.6293140654
 30
0.0
 11
157.0449276607
 21
133.4953394692
 31
0.0
  0
LINE
  5
92
330
1F
100
AcDbEntity
  8
0
  6
Continuous
 62
     7
370
    15
100
AcDbLine
 10
155.5449276607
 20
117.9582739386
 30
0.0
 11
155.5449276607
 21
132.6293140654
 31
0.0
  0
LINE
  5
93
330
1F
100
AcDbEntity
  8
0
  6
Continuous
 62
     7
370
    15
100
AcDbLine
 10
155.5449276607
 20
92.0446380804
 30
0.0
 11
157.0449276607
 21
91.1786126766
 31
0.0
  0
LINE
  5
94
330
1F
100
AcDbEntity
  8
0
  6
Continuous
 62
     7
370
    15
100
AcDbLine
 10
155.5449276607
 20
92.0446380804
 30
0.0
 11
155.5449276607
 21
106.7156782073
 31
0.0
  0
LINE
  5
95
330
1F
100
AcDbEntity
  8
0
  6
Continuous
 62
     7
370
    15
100
AcDbLine
 10
244.4378259639
 20
149.7661416562
 30
0.0
 11
242.938723204
 21
146.7253475264
 31
0.0
  0
LINE
  5
96
330
1F
100
AcDbEntity
  8
0
  6
Continuous
 62
     7
370
    15
100
AcDbLine
 10
238.674293045
 20
141.2383231126
 30
0.0
 11
235.5401168939
 21
139.6053122162
 31
0.0
  0
ARC
  5
97
330
1F
100
AcDbEntity
  8
0
  6
Continuous
 62
     7
370
    15
100
AcDbCircle
 10
236.5465555228
 20
137.8095099164
 30
0.0
 40
2.058597729958136
100
AcDbArc
 50
119.2679946648
 51
249.0691539564
  0
LINE
  5
98
330
1F
100
AcDbEntity
  8
0
  6
Continuous
 62
     7
370
    15
100
AcDbLine
 10
251.1067750598
 20
114.7685389468
 30
0.0
 11
251.1067750598
 21
132.4966211249
 31
0.0
  0
LINE
  5
99
330
1F
100
AcDbEntity
  8
0
  6
Continuous
 62
     7
370
    15
100
AcDbLine
 10
231.2941702855
 20
87.3909041362
 30
0.0
 11
251.1067750598
 21
114.7685389468
 31
0.0
  0
SPLINE
  5
9A
330
1F
100
AcDbEntity
  8
0
  6
Continuous
 62
     7
370
    15
100
AcDbSpline
210
0.0
220
0.0
230
1.0
 70
     8
 71
     3
 72
    10
 73
     6
 74
     0
 42
0.00000001
 43
0.00000001
 12
1.0
 22
0.0
 32
0.0
 13
1.0
 23
0.0
 33
0.0
 40
0.0
 40
0.0
 40
0.0
 40
0.0
 40
0.5
 40
0.5
 40
1.0
 40
1.0
 40
1.0
 40
1.0
 10
231.2941702855049
 20
87.39090413620956
 30
0.0
 10
231.2185160551238
 20
87.44969170903659
 30
0.0
 10
231.1376030650941
 20
87.4980251881351
 30
0.0
 10
230.964663991838
 20
87.57259999425604
 30
0.0
 10
230.8718455293431
 20
87.59866911403587
 30
0.0
 10
230.777600672741
 20
87.61015118101596
 30
0.0
  0
SPLINE
  5
9B
330
1F
100
AcDbEntity
  8
0
  6
Continuous
 62
     7
370
    15
100
AcDbSpline
210
0.0
220
0.0
230
1.0
 70
     8
 71
     3
 72
    10
 73
     6
 74
     0
 42
0.00000001
 43
0.00000001
 12
1.0
 22
0.0
 32
0.0
 13
1.0
 23
0.0
 33
0.0
 40
0.0
 40
0.0
 40
0.0
 40
0.0
 40
0.5
 40
0.5
 40
1.0
 40
1.0
 40
1.0
 40
1.0
 10
230.7776006727408
 20
142.8635088213062
 30
0.0
 10
231.0126981125201
 20
142.8749137299674
 30
0.0
 10
231.2306557615532
 20
142.9753683749775
 30
0.0
 10
231.5701098956175
 20
143.2850376269873
 30
0.0
 10
231.6883647234778
 20
143.4885450866805
 30
0.0
 10
231.7435264990299
 20
143.7137465211906
 30
0.0
  0
SPLINE
  5
9C
330
1F
100
AcDbEntity
  8
0
  6
Continuous
 62
     7
370
    15
100
AcDbSpline
210
0.0
220
0.0
230
1.0
 70
     8
 71
     3
 72
     8
 73
     4
 74
     0
 42
0.00000001
 43
0.00000001
 12
1.0
 22
0.0
 32
0.0
 13
1.0
 23
0.0
 33
0.0
 40
0.0
 40
0.0
 40
0.0
 40
0.0
 40
1.0
 40
1.0
 40
1.0
 40
1.0
 10
231.7435264990299
 20
143.7137465211906
 30
0.0
 10
231.9722978972049
 20
144.6477202109122
 30
0.0
 10
232.2033722173217
 20
145.5810382120114
 30
0.0
 10
232.4362750466427
 20
146.5138355994242
 30
0.0
  0
ARC
  5
9D
330
1F
100
AcDbEntity
  8
0
  6
Continuous
 62
     7
370
    15
100
AcDbCircle
 10
232.0570039358
 20
171.5560677478
 30
0.0
 40
25.0451040634681
100
AcDbArc
 50
270.8676931244
 51
297.4185198137
  0
LINE
  5
9E
330
1F
100
AcDbEntity
  8
0
  6
Continuous
 62
     7
370
    15
100
AcDbLine
 10
243.5899420295
 20
149.324365688
 30
0.0
 11
244.4378259639
 21
149.7661416562
 31
0.0
  0
SPLINE
  5
9F
330
1F
100
AcDbEntity
  8
0
  6
Continuous
 62
     7
370
    15
100
AcDbSpline
210
0.0
220
0.0
230
1.0
 70
     8
 71
     3
 72
     8
 73
     4
 74
     0
 42
0.00000001
 43
0.00000001
 12
1.0
 22
0.0
 32
0.0
 13
1.0
 23
0.0
 33
0.0
 40
0.0
 40
0.0
 40
0.0
 40
0.0
 40
1.0
 40
1.0
 40
1.0
 40
1.0
 10
230.7776006727408
 20
86.72346865331917
 30
0.0
 10
230.9705010273942
 20
86.9751121876065
 30
0.0
 10
231.1408619683678
 20
87.19501513534644
 30
0.0
 10
231.2941702855049
 20
87.39090413620956
 30
0.0
  0
LINE
  5
A0
330
1F
100
AcDbEntity
  8
0
  6
Continuous
 62
     7
370
    15
100
AcDbLine
 10
234.514059058
 20
138.1976290545
 30
0.0
 11
237.8812596115
 21
139.9520534803
 31
0.0
  0
SPLINE
  5
A1
330
1F
100
AcDbEntity
  8
0
  6
Continuous
 62
     7
370
    15
100
AcDbSpline
210
0.0
220
0.0
230
1.0
 70
     8
 71
     3
 72
     9
 73
     5
 74
     0
 42
0.00000001
 43
0.00000001
 12
1.0
 22
0.0
 32
0.0
 13
1.0
 23
0.0
 33
0.0
 40
0.0
 40
0.0
 40
0.0
 40
0.0
 40
0.1930657660630161
 40
1.0
 40
1.0
 40
1.0
 40
1.0
 10
231.9158759564524
 20
145.1389181988306
 30
0.0
 10
231.9321525877869
 20
145.2253130620961
 30
0.0
 10
232.016458737274
 20
145.6728023556529
 30
0.0
 10
232.2487949792268
 20
146.1382499784692
 30
0.0
 10
232.4362750466427
 20
146.5138355994242
 30
0.0
  0
LWPOLYLINE
  5
A2
330
1F
100
AcDbEntity
  8
0
  6
Continuous
 62
     7
370
    15
100
AcDbPolyline
 90
       20
 70
   128
 43
0.0
 10
242.4611803832
 20
128.1598280765
 10
241.9887834803
 20
128.2185426198
 10
241.553936034
 20
128.4224230433
 10
241.2014540373
 20
128.7504571421
 10
240.9676647839
 20
129.1688372577
 10
240.8766629251
 20
129.6344445431
 10
240.9378272412
 20
130.0992928525
 10
241.1448540512
 20
130.5154742613
 10
241.4764068792
 20
130.8400965243
 10
241.8983154214
 20
131.0397036116
 10
242.3670971861
 20
131.0937237345
 10
242.8344388614
 20
130.9965895024
 10
243.2521755526
 20
130.7583117068
 10
243.5772547251
 20
130.4034475947
 10
243.7761732592
 20
129.9685699637
 10
243.8284303294
 20
129.4984979179
 10
243.7286402478
 20
129.0416777477
 10
243.4870875218
 20
128.6451899865
 10
243.1286669169
 20
128.3498972241
 10
242.6903177682
 20
128.1862327505
  0
LINE
  5
A3
330
1F
100
AcDbEntity
  8
0
  6
Continuous
 62
     7
370
    15
100
AcDbLine
 10
242.7168701275
 20
128.309463386
 30
0.0
 11
242.6903177682
 21
128.1862327505
 31
0.0
  0
LWPOLYLINE
  5
A4
330
1F
100
AcDbEntity
  8
0
  6
Continuous
 62
     7
370
    15
100
AcDbPolyline
 90
       19
 70
   128
 43
0.0
 10
242.4991896117
 20
128.2843789457
 10
242.0261083105
 20
128.3474231799
 10
241.5955213818
 20
128.56313802
 10
241.2568244739
 20
128.9067773028
 10
241.0488718862
 20
129.3389197546
 10
240.9955193193
 20
129.8099912822
 10
241.1028872206
 20
130.2659519645
 10
241.3586586647
 20
130.6544953521
 10
241.7334923141
 20
130.931048906
 10
242.1843883706
 20
131.0638872274
 10
242.6596213831
 20
131.0377715002
 10
243.1046740377
 20
130.8556976427
 10
243.4684912211
 20
130.5385526248
 10
243.709336911
 20
130.1227183773
 10
243.799582008
 20
129.6558981649
 10
243.7288738638
 20
129.1916442103
 10
243.5053239058
 20
128.7832143425
 10
243.1545771186
 20
128.4774624181
 10
242.7168701275
 20
128.309463386
  0
LINE
  5
A5
330
1F
100
AcDbEntity
  8
0
  6
Continuous
 62
     7
370
    15
100
AcDbLine
 10
242.4991896117
 20
128.2843789457
 30
0.0
 11
242.4611803832
 21
128.1598280765
 31
0.0
  0
LINE
  5
A6
330
1F
100
AcDbEntity
  8
0
  6
Continuous
 62
     7
370
    15
100
AcDbLine
 10
242.6662910722
 20
128.5255905088
 30
0.0
 11
242.7168701275
 21
128.309463386
 31
0.0
  0
LWPOLYLINE
  5
A7
330
1F
100
AcDbEntity
  8
0
  6
Continuous
 62
     7
370
    15
100
AcDbPolyline
 90
       18
 70
   128
 43
0.0
 10
242.4829811642
 20
128.5044667696
 10
242.0618410733
 20
128.5648201235
 10
241.6836957452
 20
128.7682065177
 10
241.3971215462
 20
129.0884990343
 10
241.2389316596
 20
129.4845530512
 10
241.2294470817
 20
129.9054916607
 10
241.3698861968
 20
130.2972412922
 10
241.6422082641
 20
130.6094779774
 10
242.0114309223
 20
130.8020919423
 10
242.430124007
 20
130.85034009
 10
242.8445024067
 20
130.7480244869
 10
243.2013352723
 20
130.5082885458
 10
243.4547840262
 20
130.16192863
 10
243.5722907639
 20
129.753437967
 10
243.5387606265
 20
129.3352910702
 10
243.3585008794
 20
128.9612028879
 10
243.0546676026
 20
128.6792286075
 10
242.6662910722
 20
128.5255905088
  0
LINE
  5
A8
330
1F
100
AcDbEntity
  8
0
  6
Continuous
 62
     7
370
    15
100
AcDbLine
 10
242.4829811642
 20
128.5044667696
 30
0.0
 11
242.4991896117
 21
128.2843789457
 31
0.0
  0
LINE
  5
A9
330
1F
100
AcDbEntity
  8
0
  6
Continuous
 62
     7
370
    15
100
AcDbLine
 10
242.4961960639
 20
128.3250270974
 30
0.0
 11
242.6662910722
 21
128.5255905088
 31
0.0
  0
LINE
  5
AA
330
1F
100
AcDbEntity
  8
0
  6
Continuous
 62
     7
370
    15
100
AcDbLine
 10
242.6903177682
 20
128.1862327505
 30
0.0
 11
241.6133299092
 21
126.9163285882
 31
0.0
  0
LINE
  5
AB
330
1F
100
AcDbEntity
  8
0
  6
Continuous
 62
     7
370
    15
100
AcDbLine
 10
242.4611803832
 20
128.1598280765
 30
0.0
 11
241.3784889977
 21
126.8831987389
 31
0.0
  0
LWPOLYLINE
  5
AC
330
1F
100
AcDbEntity
  8
0
  6
Continuous
 62
     7
370
    15
100
AcDbPolyline
 90
       40
 70
   128
 43
0.0
 10
242.6913124881
 20
132.8910971261
 10
243.4852811861
 20
132.4176958825
 10
244.3407232396
 20
132.0742946923
 10
245.2354831489
 20
131.8697874659
 10
246.1463871023
 20
131.809470833
 10
247.0498431657
 20
131.8949069627
 10
247.9224523019
 20
132.1238831041
 10
248.7416143925
 20
132.4904688955
 10
249.4861135696
 20
132.9851699574
 10
250.1366676956
 20
133.5951737921
 10
250.6764277605
 20
134.3046816209
 10
251.0914142619
 20
135.0953175635
 10
251.3708792676
 20
135.9466045644
 10
251.5075847806
 20
136.8364947374
 10
251.4979902
 20
137.7419403944
 10
251.3423440204
 20
138.6394909687
 10
251.0446773961
 20
139.5059003717
 10
250.6126997363
 20
140.318729055
 10
250.0575990354
 20
141.0569251826
 10
249.3937521102
 20
141.7013698627
 10
248.6383522471
 20
142.2353723166
 10
247.8109639059
 20
142.6451021611
 10
246.9330160099
 20
142.9199476085
 10
246.0272469487
 20
143.0527903061
 10
245.1171156649
 20
143.0401896978
 10
244.2261940809
 20
142.8824721328
 10
243.3775565977
 20
142.5837224131
 10
242.5931824803
 20
142.1516779996
 10
241.8933866063
 20
141.5975286155
 10
241.2962933214
 20
140.935626439
 10
240.8173670278
 20
140.1831143886
 10
240.4690116652
 20
139.3594821312
 10
240.2602494543
 20
138.4860613097
 10
240.1964872268
 20
137.5854730645
 10
240.2793763909
 20
136.6810421581
 10
240.5067701608
 20
135.7961928759
 10
240.8727791573
 20
134.9538423496
 10
241.3679239395
 20
134.1758070152
 10
241.9793805179
 20
133.4822375794
 10
242.6913124881
 20
132.8910971261
  0
LWPOLYLINE
  5
AD
330
1F
100
AcDbEntity
  8
0
  6
Continuous
 62
     7
370
    15
100
AcDbPolyline
 90
       26
 70
   128
 43
0.0
 10
244.8289380206
 20
135.8700857912
 10
245.3797345399
 20
135.573402094
 10
245.9824555394
 20
135.4195524631
 10
246.5992298421
 20
135.4182038368
 10
247.1913032501
 20
135.569440954
 10
247.7214736139
 20
135.8637610306
 10
248.1564283795
 20
136.2826708537
 10
248.4688377394
 20
136.7998487784
 10
248.6390718646
 20
137.3827986138
 10
248.6564343189
 20
137.9948914777
 10
248.5198341554
 20
138.5976673244
 10
248.2378544648
 20
139.1532515305
 10
247.8282130682
 20
139.6267346971
 10
247.3166492409
 20
139.9883661355
 10
246.7353064198
 20
140.2154232124
 10
246.1207125121
 20
140.2936390966
 10
245.5114847136
 20
140.2180991965
 10
244.9459030474
 20
139.9935499618
 10
244.4595050895
 20
139.6341006467
 10
244.0828530126
 20
139.1623367738
 10
243.8396132519
 20
138.607901002
 10
243.7450694561
 20
138.0056305702
 10
243.8051621596
 20
137.3933683444
 10
244.0161155168
 20
136.809585012
 10
244.3646745526
 20
136.290961827
 10
244.8289380206
 20
135.8700857912
  0
SPLINE
  5
AE
330
1F
100
AcDbEntity
  8
0
  6
Continuous
 62
     7
370
    15
100
AcDbSpline
210
0.0
220
0.0
230
1.0
 70
     8
 71
     3
 72
    18
 73
    14
 74
     0
 42
0.00000001
 43
0.00000001
 12
1.0
 22
0.0
 32
0.0
 13
1.0
 23
0.0
 33
0.0
 40
0.0
 40
0.0
 40
0.0
 40
0.0
 40
0.1204443293691328
 40
0.2079207879696745
 40
0.2958855522859065
 40
0.3858419978487487
 40
0.4767244479903645
 40
0.5593766154369696
 40
0.6428389010649386
 40
0.7285793299764775
 40
0.8149585136358233
 40
0.9072774338546118
 40
1.0
 40
1.0
 40
1.0
 40
1.0
 10
246.3321462239971
 20
140.0551504230004
 30
0.0
 10
246.3963186922196
 20
139.9961332762598
 30
0.0
 10
246.5070984211506
 20
139.8942530821625
 30
0.0
 10
246.6754499198891
 20
139.7484074395628
 30
0.0
 10
246.8329190256869
 20
139.6178600216263
 30
0.0
 10
246.9996162203462
 20
139.4868678647134
 30
0.0
 10
247.1692540365433
 20
139.3611761602669
 30
0.0
 10
247.3389779697042
 20
139.2426850847709
 30
0.0
 10
247.5075964232517
 20
139.1315147903976
 30
0.0
 10
247.6793548234083
 20
139.0244710787865
 30
0.0
 10
247.8562450922516
 20
138.9200439415515
 30
0.0
 10
248.0362175213767
 20
138.8187787258007
 30
0.0
 10
248.1568981906084
 20
138.7546128636338
 30
0.0
 10
248.2173701504655
 20
138.7224599474637
 30
0.0
  0
SPLINE
  5
AF
330
1F
100
AcDbEntity
  8
0
  6
Continuous
 62
     7
370
    15
100
AcDbSpline
210
0.0
220
0.0
230
1.0
 70
     8
 71
     3
 72
    18
 73
    14
 74
     0
 42
0.00000001
 43
0.00000001
 12
1.0
 22
0.0
 32
0.0
 13
1.0
 23
0.0
 33
0.0
 40
0.0
 40
0.0
 40
0.0
 40
0.0
 40
0.1077528180473712
 40
0.271506430836801
 40
0.3833320595376185
 40
0.439778672278075
 40
0.5162756972751044
 40
0.5934260895748875
 40
0.6725110510283938
 40
0.7521814799657842
 40
0.8137768453853285
 40
0.8755437886633044
 40
1.0
 40
1.0
 40
1.0
 40
1.0
 10
244.2877932286346
 20
139.140275614581
 30
0.0
 10
244.3505178167417
 20
139.1635985768898
 30
0.0
 10
244.5085659249144
 20
139.2223658032858
 30
0.0
 10
244.7498974806491
 20
139.3175120168849
 30
0.0
 10
244.9725445583312
 20
139.4102993293722
 30
0.0
 10
245.1423021134777
 20
139.4836305824001
 30
0.0
 10
245.2912235049886
 20
139.5497017009534
 30
0.0
 10
245.4589011180537
 20
139.6263192043344
 30
0.0
 10
245.6301198907357
 20
139.706727486284
 30
0.0
 10
245.7899407992946
 20
139.7836534997888
 30
0.0
 10
245.9362711849841
 20
139.8554577863792
 30
0.0
 10
246.1137161076584
 20
139.9437429960823
 30
0.0
 10
246.244644485225
 20
140.0105213044024
 30
0.0
 10
246.3321462239971
 20
140.0551504230004
 30
0.0
  0
SPLINE
  5
B0
330
1F
100
AcDbEntity
  8
0
  6
Continuous
 62
     7
370
    15
100
AcDbSpline
210
0.0
220
0.0
230
1.0
 70
     8
 71
     3
 72
    11
 73
     7
 74
     0
 42
0.00000001
 43
0.00000001
 12
1.0
 22
0.0
 32
0.0
 13
1.0
 23
0.0
 33
0.0
 40
0.0
 40
0.0
 40
0.0
 40
0.0
 40
0.2164526859271171
 40
0.4403055508634006
 40
0.7518960204221907
 40
1.0
 40
1.0
 40
1.0
 40
1.0
 10
244.1286641597406
 20
136.8927103306249
 30
0.0
 10
244.1269858022936
 20
137.0318368915018
 30
0.0
 10
244.1235717069817
 20
137.3148465329127
 30
0.0
 10
244.1433920196413
 20
137.8708810776226
 30
0.0
 10
244.200389366463
 20
138.5094726344138
 30
0.0
 10
244.2609483558738
 20
138.9465333093897
 30
0.0
 10
244.2877932286346
 20
139.140275614581
 30
0.0
  0
SPLINE
  5
B1
330
1F
100
AcDbEntity
  8
0
  6
Continuous
 62
     7
370
    15
100
AcDbSpline
210
0.0
220
0.0
230
1.0
 70
     8
 71
     3
 72
    11
 73
     7
 74
     0
 42
0.00000001
 43
0.00000001
 12
1.0
 22
0.0
 32
0.0
 13
1.0
 23
0.0
 33
0.0
 40
0.0
 40
0.0
 40
0.0
 40
0.0
 40
0.1856336509827581
 40
0.5233285802669891
 40
0.8791086124659482
 40
1.0
 40
1.0
 40
1.0
 40
1.0
 10
246.0138880862091
 20
135.5600198550881
 30
0.0
 10
245.8928742699739
 20
135.6250552949196
 30
0.0
 10
245.551718513419
 20
135.8083997705245
 30
0.0
 10
244.947908435923
 20
136.1929402550043
 30
0.0
 10
244.4456699553357
 20
136.6013597273719
 30
0.0
 10
244.1927967831565
 20
136.8337679428828
 30
0.0
 10
244.1286641597406
 20
136.8927103306249
 30
0.0
  0
SPLINE
  5
B2
330
1F
100
AcDbEntity
  8
0
  6
Continuous
 62
     7
370
    15
100
AcDbSpline
210
0.0
220
0.0
230
1.0
 70
     8
 71
     3
 72
    18
 73
    14
 74
     0
 42
0.00000001
 43
0.00000001
 12
1.0
 22
0.0
 32
0.0
 13
1.0
 23
0.0
 33
0.0
 40
0.0
 40
0.0
 40
0.0
 40
0.0
 40
0.1077528180473715
 40
0.2715064308368015
 40
0.3833320595376197
 40
0.4397786722780768
 40
0.5162756972751056
 40
0.593426089574889
 40
0.6725110510283941
 40
0.7521814799657854
 40
0.8137768453853279
 40
0.8755437886633043
 40
1.0
 40
1.0
 40
1.0
 40
1.0
 10
248.0582410815715
 20
136.4748946635075
 30
0.0
 10
247.982539368519
 20
136.4362700384667
 30
0.0
 10
247.7917925992783
 20
136.3389469774343
 30
0.0
 10
247.5153254396367
 20
136.2023714670433
 30
0.0
 10
247.2739521190724
 20
136.0875035585822
 30
0.0
 10
247.0969845141078
 20
136.0056707498506
 30
0.0
 10
246.9464962838525
 20
135.9377521313215
 30
0.0
 10
246.7831367203699
 20
135.8662261515755
 30
0.0
 10
246.6222666833387
 20
135.7980203307485
 30
0.0
 10
246.4772187788775
 20
135.7385135474039
 30
0.0
 10
246.3481639761833
 20
135.6870793462989
 30
0.0
 10
246.1949840159983
 20
135.6274055797142
 30
0.0
 10
246.0864339832983
 20
135.5870141550136
 30
0.0
 10
246.0138880862091
 20
135.5600198550881
 30
0.0
  0
SPLINE
  5
B3
330
1F
100
AcDbEntity
  8
0
  6
Continuous
 62
     7
370
    15
100
AcDbSpline
210
0.0
220
0.0
230
1.0
 70
     8
 71
     3
 72
    11
 73
     7
 74
     0
 42
0.00000001
 43
0.00000001
 12
1.0
 22
0.0
 32
0.0
 13
1.0
 23
0.0
 33
0.0
 40
0.0
 40
0.0
 40
0.0
 40
0.0
 40
0.2164526859271185
 40
0.4403055508633988
 40
0.7518960204221884
 40
1.0
 40
1.0
 40
1.0
 40
1.0
 10
248.2173701504655
 20
138.7224599474637
 30
0.0
 10
248.1938910786054
 20
138.5536696128248
 30
0.0
 10
248.146130222117
 20
138.2103182658304
 30
0.0
 10
248.0836543162576
 20
137.6039874109961
 30
0.0
 10
248.0523731357393
 20
136.9957184491704
 30
0.0
 10
248.0564388241504
 20
136.6348583986282
 30
0.0
 10
248.0582410815715
 20
136.4748946635075
 30
0.0
  0
LINE
  5
B4
330
1F
100
AcDbEntity
  8
0
  6
Continuous
 62
     7
370
    15
100
AcDbLine
 10
245.8442988467
 20
139.4799169977
 30
0.0
 11
246.332146224
 21
140.055150423
 31
0.0
  0
LINE
  5
B5
330
1F
100
AcDbEntity
  8
0
  6
Continuous
 62
     7
370
    15
100
AcDbLine
 10
245.8442988467
 20
139.4799169977
 30
0.0
 11
244.822122349
 21
139.0224795935
 31
0.0
  0
LINE
  5
B6
330
1F
100
AcDbEntity
  8
0
  6
Continuous
 62
     7
370
    15
100
AcDbLine
 10
244.822122349
 20
139.0224795935
 30
0.0
 11
244.2381236414
 21
138.7611325038
 31
0.0
  0
LINE
  5
B7
330
1F
100
AcDbEntity
  8
0
  6
Continuous
 62
     7
370
    15
100
AcDbLine
 10
247.5946885992
 20
136.242806352
 30
0.0
 11
247.6499582387
 21
137.0234438802
 31
0.0
  0
LINE
  5
B8
330
1F
100
AcDbEntity
  8
0
  6
Continuous
 62
     7
370
    15
100
AcDbLine
 10
247.6499582387
 20
137.0234438802
 30
0.0
 11
247.7295227732
 21
138.1472265222
 31
0.0
  0
LINE
  5
B9
330
1F
100
AcDbEntity
  8
0
  6
Continuous
 62
     7
370
    15
100
AcDbLine
 10
247.7295227732
 20
138.1472265222
 30
0.0
 11
248.2173701505
 21
138.7224599475
 31
0.0
  0
ARC
  5
BA
330
1F
100
AcDbEntity
  8
0
  6
Continuous
 62
     7
370
    15
100
AcDbCircle
 10
245.6703493818
 20
137.005852559
 30
0.0
 40
5.615463935634411
100
AcDbArc
 50
233.6758837279
 51
318.8202008397
  0
ARC
  5
BB
330
1F
100
AcDbEntity
  8
0
  6
Continuous
 62
     7
370
    15
100
AcDbCircle
 10
245.5315418667
 20
137.1735122897
 30
0.0
 40
5.672252229615667
100
AcDbArc
 50
140.9541618821
 51
235.8091953251
  0
LINE
  5
BC
330
1F
100
AcDbEntity
  8
0
  6
Continuous
 62
     7
370
    15
100
AcDbLine
 10
247.7295227732
 20
138.1472265222
 30
0.0
 11
246.7869108099
 21
138.81357176
 31
0.0
  0
LINE
  5
BD
330
1F
100
AcDbEntity
  8
0
  6
Continuous
 62
     7
370
    15
100
AcDbLine
 10
246.7869108099
 20
138.81357176
 30
0.0
 11
245.8442988467
 21
139.4799169977
 31
0.0
  0
ARC
  5
BE
330
1F
100
AcDbEntity
  8
0
  6
Continuous
 62
     7
370
    15
100
AcDbCircle
 10
245.5842207744
 20
137.3158392099
 30
0.0
 40
1.869068058944064
100
AcDbArc
 50
114.0630989224
 51
137.2236011469
  0
ARC
  5
BF
330
1F
100
AcDbEntity
  8
0
  6
Continuous
 62
     7
370
    15
100
AcDbCircle
 10
245.6209170696
 20
137.1912632467
 30
0.0
 40
1.997855428888973
100
AcDbArc
 50
54.2942518282
 51
113.5673068542
  0
ARC
  5
C0
330
1F
100
AcDbEntity
  8
0
  6
Continuous
 62
     7
370
    15
100
AcDbCircle
 10
245.6245725753
 20
137.1500831324
 30
0.0
 40
2.029340923928106
100
AcDbArc
 50
356.4221820658
 51
55.0566406817
  0
ARC
  5
C1
330
1F
100
AcDbEntity
  8
0
  6
Continuous
 62
     7
370
    15
100
AcDbCircle
 10
245.7719825233
 20
137.1523594295
 30
0.0
 40
1.882395284323869
100
AcDbArc
 50
325.1561510162
 51
356.0730336381
  0
LWPOLYLINE
  5
C2
330
1F
100
AcDbEntity
  8
0
  6
Continuous
 62
     7
370
    15
100
AcDbPolyline
 90
        3
 70
   128
 43
0.0
 10
251.0043839852
 20
134.6631294327
 10
251.282600862
 20
135.5560996242
 10
251.3270803574
 20
135.7756485737
  0
LWPOLYLINE
  5
C3
330
1F
100
AcDbEntity
  8
0
  6
Continuous
 62
     7
370
    15
100
AcDbPolyline
 90
       27
 70
   128
 43
0.0
 10
243.3267069249
 20
142.5606527562
 10
242.8442214277
 20
142.3622935839
 10
242.0329828226
 20
141.8992459026
 10
241.3118365446
 20
141.3100251168
 10
240.6994599036
 20
140.6098917354
 10
240.2117131328
 20
139.8169788453
 10
239.8612286176
 20
138.9518224739
 10
239.6570837225
 20
138.0368297166
 10
239.6045656934
 20
137.0956984053
 10
239.7050347194
 20
136.1528033466
 10
239.9558887056
 20
135.2325650273
 10
240.3506306656
 20
134.3588171364
 10
240.8790369899
 20
133.5541892853
 10
241.5274222322
 20
132.8395209127
 10
242.2789935554
 20
132.2333215542
 10
243.1142856571
 20
131.7512914545
 10
244.0116649104
 20
131.4059149402
 10
244.9478896641
 20
131.2061370816
 10
245.898712189
 20
131.1571320202
 10
246.8395066809
 20
131.2601689613
 10
247.7459070569
 20
131.5125793024
 10
248.5944380231
 20
131.9078257482
 10
249.3631230734
 20
132.4356716233
 10
250.0320536687
 20
133.0824459969
 10
250.583904858
 20
133.8313977524
 10
251.0043839852
 20
134.6631294327
 10
251.0043839852
 20
134.6631294327
  0
LWPOLYLINE
  5
C4
330
1F
100
AcDbEntity
  8
0
  6
Continuous
 62
     7
370
    15
100
AcDbPolyline
 90
       37
 70
   128
 43
0.0
 10
246.3238916574
 20
130.0100660388
 10
247.3032736783
 20
130.1879328109
 10
248.2410704635
 20
130.5061854467
 10
249.11743949
 20
130.9580901469
 10
249.9138379634
 20
131.5340852136
 10
250.6134151594
 20
132.2219833631
 10
251.201368962
 20
133.0072295925
 10
251.6652590566
 20
133.8732091438
 10
251.9952701505
 20
134.8015990502
 10
252.1844196513
 20
135.7727558254
 10
252.2287054088
 20
136.7661310936
 10
252.1271903959
 20
137.7607063652
 10
251.8820225342
 20
138.7354377603
 10
251.4983892471
 20
139.6697012689
 10
250.9844077009
 20
140.543729127
 10
250.3509530562
 20
141.3390280766
 10
249.6114283645
 20
142.0387706577
 10
248.7814809771
 20
142.6281512548
 10
247.8786714688
 20
143.0946993645
 10
246.9221020786
 20
143.4285434539
 10
245.9320125331
 20
143.6226198295
 10
244.9293518003
 20
143.6728220953
 10
243.9353348375
 20
143.5780880386
 10
242.9709937116
 20
143.340422105
 10
242.0567325886
 20
142.9648529873
 10
241.2118960085
 20
142.4593272247
 10
240.4543595813
 20
141.8345410649
 10
239.8001517627
 20
141.1037141456
 10
239.2631147132
 20
140.2823097852
 10
238.8546114173
 20
139.3877077992
 10
238.5832852572
 20
138.4388367667
 10
238.4548771308
 20
137.4557735272
 10
238.4721039821
 20
136.4593183815
 10
238.634601314
 20
135.470554985
 10
238.9389309006
 20
134.5104042463
 10
239.3786535358
 20
133.5991816682
 10
239.9444652778
 20
132.7561674994
  0
SPLINE
  5
C5
330
1F
100
AcDbEntity
  8
0
  6
Continuous
 62
     7
370
    15
100
AcDbSpline
210
0.0
220
0.0
230
1.0
 70
     8
 71
     3
 72
    14
 73
    10
 74
     0
 42
0.00000001
 43
0.00000001
 12
1.0
 22
0.0
 32
0.0
 13
1.0
 23
0.0
 33
0.0
 40
0.0
 40
0.0
 40
0.0
 40
0.0
 40
0.24068776030225
 40
0.365495483173991
 40
0.491383249756643
 40
0.5985915213214252
 40
0.7015343678751432
 40
0.8683340671896904
 40
1.0
 40
1.0
 40
1.0
 40
1.0
 10
246.3238916574323
 20
130.010066038847
 30
0.0
 10
246.2248092438673
 20
130.1941925934767
 30
0.0
 10
246.0743480215164
 20
130.4737972728547
 30
0.0
 10
245.6879256146318
 20
130.7313375814416
 30
0.0
 10
245.3326115938854
 20
130.8285508897803
 30
0.0
 10
244.9714831028561
 20
130.8073740532611
 30
0.0
 10
244.592671020612
 20
130.6855168751946
 30
0.0
 10
244.2447058829401
 20
130.4656956491845
 30
0.0
 10
244.0513499737001
 20
130.2556881457012
 30
0.0
 10
243.9660524271343
 20
130.1630448700033
 30
0.0
  0
ARC
  5
C6
330
1F
100
AcDbEntity
  8
0
  6
Continuous
 62
     7
370
    15
100
AcDbCircle
 10
245.6118695016
 20
137.0681977391
 30
0.0
 40
7.098580843218185
100
AcDbArc
 50
256.3020500347
 51
256.5938943643
  0
SPLINE
  5
C7
330
1F
100
AcDbEntity
  8
0
  6
Continuous
 62
     7
370
    15
100
AcDbSpline
210
0.0
220
0.0
230
1.0
 70
     8
 71
     3
 72
    14
 73
    10
 74
     0
 42
0.00000001
 43
0.00000001
 12
1.0
 22
0.0
 32
0.0
 13
1.0
 23
0.0
 33
0.0
 40
0.0
 40
0.0
 40
0.0
 40
0.0
 40
0.2406877603021783
 40
0.3654954831739346
 40
0.4913832497566048
 40
0.598591521321395
 40
0.7015343678751095
 40
0.8683340671896335
 40
1.0
 40
1.0
 40
1.0
 40
1.0
 10
243.9309015361073
 20
130.1715176184052
 30
0.0
 10
243.8896574357423
 20
130.3881578937415
 30
0.0
 10
243.8270263639667
 20
130.7171361600627
 30
0.0
 10
243.5334824918017
 20
131.1042673682769
 30
0.0
 10
243.2240005259702
 20
131.3207116099509
 30
0.0
 10
242.875566056012
 20
131.4206343134718
 30
0.0
 10
242.4818309937172
 20
131.4258508464612
 30
0.0
 10
242.0893388991639
 20
131.3230941080751
 30
0.0
 10
241.8456651001977
 20
131.1789802151152
 30
0.0
 10
241.7381701842373
 20
131.1154054242342
 30
0.0
  0
ARC
  5
C8
330
1F
100
AcDbEntity
  8
0
  6
Continuous
 62
     7
370
    15
100
AcDbCircle
 10
245.6686504674
 20
137.211054993
 30
0.0
 40
7.252973109100869
100
AcDbArc
 50
236.8983531389
 51
237.1860410177
  0
SPLINE
  5
C9
330
1F
100
AcDbEntity
  8
0
  6
Continuous
 62
     7
370
    15
100
AcDbSpline
210
0.0
220
0.0
230
1.0
 70
     8
 71
     3
 72
    21
 73
    17
 74
     0
 42
0.00000001
 43
0.00000001
 12
1.0
 22
0.0
 32
0.0
 13
1.0
 23
0.0
 33
0.0
 40
0.0
 40
0.0
 40
0.0
 40
0.0
 40
0.1184898130331716
 40
0.2409333092381286
 40
0.3026367619998316
 40
0.3656706537113711
 40
0.4274946845529078
 40
0.4917637827061306
 40
0.5445506094066739
 40
0.5990253743182622
 40
0.6499283218777411
 40
0.7018700591745484
 40
0.784106669268171
 40
0.8686395319673668
 40
0.934032802279045
 40
1.0
 40
1.0
 40
1.0
 40
1.0
 10
241.7076129889694
 20
131.1352175185447
 30
0.0
 10
241.7244299160533
 20
131.2449184927086
 30
0.0
 10
241.7586249053931
 20
131.4679808645308
 30
0.0
 10
241.733382203796
 20
131.762075636712
 30
0.0
 10
241.6707134211217
 20
132.0002036932923
 30
0.0
 10
241.597084156473
 20
132.1762147497212
 30
0.0
 10
241.4939294805193
 20
132.3450457389326
 30
0.0
 10
241.3689759591199
 20
132.4885882144499
 30
0.0
 10
241.2287864162487
 20
132.6049377496244
 30
0.0
 10
241.0866986658765
 20
132.6913836814486
 30
0.0
 10
240.9378265077752
 20
132.7560994473787
 30
0.0
 10
240.7584060563626
 20
132.8088833743702
 30
0.0
 10
240.5445845125536
 20
132.8384964276259
 30
0.0
 10
240.3221944745329
 20
132.8332466374376
 30
0.0
 10
240.1210196279979
 20
132.8044793910223
 30
0.0
 10
240.0034878972973
 20
132.7723183016197
 30
0.0
 10
239.944465277831
 20
132.756167499363
 30
0.0
  0
LINE
  5
CA
330
1F
100
AcDbEntity
  8
0
  6
Continuous
 62
     7
370
    15
100
AcDbLine
 10
241.4264150474
 20
130.803649773
 30
0.0
 11
241.707612989
 21
131.1352175185
 31
0.0
  0
SPLINE
  5
CB
330
1F
100
AcDbEntity
  8
0
  6
Continuous
 62
     7
370
    15
100
AcDbSpline
210
0.0
220
0.0
230
1.0
 70
     8
 71
     3
 72
    12
 73
     8
 74
     0
 42
0.00000001
 43
0.00000001
 12
1.0
 22
0.0
 32
0.0
 13
1.0
 23
0.0
 33
0.0
 40
0.0
 40
0.0
 40
0.0
 40
0.0
 40
0.3225299189557835
 40
0.6507392287612034
 40
0.7703933552281189
 40
0.8911431906688912
 40
0.9999999999999999
 40
0.9999999999999999
 40
0.9999999999999999
 40
0.9999999999999999
 10
239.14717494903
 20
131.8160619087857
 30
0.0
 10
239.2083411871429
 20
131.7993064077895
 30
0.0
 10
239.3317507323557
 20
131.7655003601798
 30
0.0
 10
239.510391052787
 20
131.6821207136961
 30
0.0
 10
239.6607306800197
 20
131.5958911944113
 30
0.0
 10
239.7599583987539
 20
131.5338023444731
 30
0.0
 10
239.8323720480878
 20
131.482689946629
 30
0.0
 10
239.8667034535501
 20
131.4584574922411
 30
0.0
  0
SPLINE
  5
CC
330
1F
100
AcDbEntity
  8
0
  6
Continuous
 62
     7
370
    15
100
AcDbSpline
210
0.0
220
0.0
230
1.0
 70
     8
 71
     3
 72
    12
 73
     8
 74
     0
 42
0.00000001
 43
0.00000001
 12
1.0
 22
0.0
 32
0.0
 13
1.0
 23
0.0
 33
0.0
 40
0.0
 40
0.0
 40
0.0
 40
0.0
 40
0.1329872705575526
 40
0.2794555805931567
 40
0.5598958119102803
 40
0.846909831265725
 40
1.0
 40
1.0
 40
1.0
 40
1.0
 10
240.5037705014186
 20
130.874995892083
 30
0.0
 10
240.5367083284151
 20
130.8357000100156
 30
0.0
 10
240.6059229196176
 20
130.7531247868981
 30
0.0
 10
240.7118258083694
 20
130.607038885058
 30
0.0
 10
240.8119880923082
 20
130.4428781969289
 30
0.0
 10
240.8773683269072
 20
130.2999046385837
 30
0.0
 10
240.9018178853312
 20
130.2221565779472
 30
0.0
 10
240.9103226601684
 20
130.1951119279673
 30
0.0
  0
LINE
  5
CD
330
1F
100
AcDbEntity
  8
0
  6
Continuous
 62
     7
370
    15
100
AcDbLine
 10
239.9444652778
 20
132.7561674994
 30
0.0
 11
239.147174949
 21
131.8160619088
 31
0.0
  0
LINE
  5
CE
330
1F
100
AcDbEntity
  8
0
  6
Continuous
 62
     7
370
    15
100
AcDbLine
 10
243.7718191775
 20
129.9839395063
 30
0.0
 11
243.9309015361
 21
130.1715176184
 31
0.0
  0
LINE
  5
CF
330
1F
100
AcDbEntity
  8
0
  6
Continuous
 62
     7
370
    15
100
AcDbLine
 10
241.7381701842
 20
131.1154054242
 30
0.0
 11
241.5401655844
 21
130.8819330935
 31
0.0
  0
LINE
  5
D0
330
1F
100
AcDbEntity
  8
0
  6
Continuous
 62
     7
370
    15
100
AcDbLine
 10
245.5266013286
 20
129.0699604483
 30
0.0
 11
246.3238916574
 21
130.0100660388
 31
0.0
  0
SPLINE
  5
D1
330
1F
100
AcDbEntity
  8
0
  6
Continuous
 62
     7
370
    15
100
AcDbSpline
210
0.0
220
0.0
230
1.0
 70
     8
 71
     3
 72
    13
 73
     9
 74
     0
 42
0.00000001
 43
0.00000001
 12
1.0
 22
0.0
 32
0.0
 13
1.0
 23
0.0
 33
0.0
 40
0.0
 40
0.0
 40
0.0
 40
0.0
 40
0.0720989040705015
 40
0.2288080402732626
 40
0.3783842666124155
 40
0.5291244424272019
 40
0.8362060155015593
 40
1.0
 40
1.0
 40
1.0
 40
1.0
 10
244.67476315596
 20
129.4016360054561
 30
0.0
 10
244.7030359414784
 20
129.3953113071856
 30
0.0
 10
244.7927604765591
 20
129.3752396870238
 30
0.0
 10
244.9213296069085
 20
129.3367479675395
 30
0.0
 10
245.0650270673546
 20
129.2884278681686
 30
0.0
 10
245.2371877626289
 20
129.2207879717419
 30
0.0
 10
245.391849060344
 20
129.1479696846515
 30
0.0
 10
245.4918247882747
 20
129.0900928838249
 30
0.0
 10
245.5266013286313
 20
129.0699604482696
 30
0.0
  0
LINE
  5
D2
330
1F
100
AcDbEntity
  8
0
  6
Continuous
 62
     7
370
    15
100
AcDbLine
 10
243.9660524271
 20
130.16304487
 30
0.0
 11
243.782185513
 21
129.9462426492
 31
0.0
  0
ARC
  5
D3
330
1F
100
AcDbEntity
  8
0
  6
Continuous
 62
     7
370
    15
100
AcDbCircle
 10
244.8542403665
 20
135.6384164823
 30
0.0
 40
6.602778501134336
100
AcDbArc
 50
275.844560015
 51
319.5556815793
  0
ARC
  5
D4
330
1F
100
AcDbEntity
  8
0
  6
Continuous
 62
     7
370
    15
100
AcDbCircle
 10
244.444418538
 20
136.079604418
 30
0.0
 40
6.799895908672244
100
AcDbArc
 50
140.4402023435
 51
218.8292172513
  0
SPLINE
  5
D5
330
1F
100
AcDbEntity
  8
0
  6
Continuous
 62
     7
370
    15
100
AcDbSpline
210
0.0
220
0.0
230
1.0
 70
     8
 71
     3
 72
    11
 73
     7
 74
     0
 42
0.00000001
 43
0.00000001
 12
1.0
 22
0.0
 32
0.0
 13
1.0
 23
0.0
 33
0.0
 40
0.0
 40
0.0
 40
0.0
 40
0.0
 40
0.3400900925868358
 40
0.690378381841592
 40
0.8447679285328846
 40
1.0
 40
1.0
 40
1.0
 40
1.0
 10
234.2760539639263
 20
130.948140905416
 30
0.0
 10
234.1170213382388
 20
130.5309450149557
 30
0.0
 10
233.7941872152362
 20
129.6840428850639
 30
0.0
 10
233.6217199843329
 20
128.5849378205775
 30
0.0
 10
233.5737669391266
 20
127.7255626287048
 30
0.0
 10
233.5883149264711
 20
127.3229896497793
 30
0.0
 10
233.5956087137222
 20
127.1211554309447
 30
0.0
  0
SPLINE
  5
D6
330
1F
100
AcDbEntity
  8
0
  6
Continuous
 62
     7
370
    15
100
AcDbSpline
210
0.0
220
0.0
230
1.0
 70
     8
 71
     3
 72
    14
 73
    10
 74
     0
 42
0.00000001
 43
0.00000001
 12
1.0
 22
0.0
 32
0.0
 13
1.0
 23
0.0
 33
0.0
 40
0.0
 40
0.0
 40
0.0
 40
0.0
 40
0.1251584173861019
 40
0.2544524011474449
 40
0.419067758669885
 40
0.5883342101011385
 40
0.7907151138461189
 40
0.9982398708096726
 40
1.0
 40
1.0
 40
1.0
 40
1.0
 10
233.5956087137222
 20
127.1211554309447
 30
0.0
 10
233.6327007883847
 20
126.7172833284043
 30
0.0
 10
233.708110558327
 20
125.8961941168743
 30
0.0
 10
234.0133154753535
 20
124.6327201173468
 30
0.0
 10
234.4821664880167
 20
123.3536996047151
 30
0.0
 10
235.1778549935456
 20
122.0482675448099
 30
0.0
 10
236.0712413238024
 20
120.8508848301863
 30
0.0
 10
236.7968956884048
 20
120.1703905869762
 30
0.0
 10
237.1845259300466
 20
119.8718056019327
 30
0.0
 10
237.1877859805735
 20
119.8692944404359
 30
0.0
  0
SPLINE
  5
D7
330
1F
100
AcDbEntity
  8
0
  6
Continuous
 62
     7
370
    15
100
AcDbSpline
210
0.0
220
0.0
230
1.0
 70
     8
 71
     3
 72
    19
 73
    15
 74
     0
 42
0.00000001
 43
0.00000001
 12
1.0
 22
0.0
 32
0.0
 13
1.0
 23
0.0
 33
0.0
 40
0.0
 40
0.0
 40
0.0
 40
0.0
 40
0.1256094629854996
 40
0.2543059838147172
 40
0.2952830327111695
 40
0.4189459574339402
 40
0.5033423521294733
 40
0.5882365349729323
 40
0.6386458617972541
 40
0.7398628125291095
 40
0.8423715538878807
 40
0.9461511584723905
 40
0.9982408812230434
 40
1.0
 40
1.0
 40
1.0
 40
1.0
 10
245.5990314784567
 20
121.8642050656035
 30
0.0
 10
245.2677254606126
 20
121.6200593817153
 30
0.0
 10
244.5969710380631
 20
121.1257677347358
 30
0.0
 10
243.7526841086314
 20
120.6995126070452
 30
0.0
 10
242.9086052826086
 20
120.3415244913192
 30
0.0
 10
242.1832329217137
 20
120.0966524533179
 30
0.0
 10
241.3321645039834
 20
119.8893039561639
 30
0.0
 10
240.6974561369383
 20
119.7806972580066
 30
0.0
 10
240.0201034381085
 20
119.7023715468262
 30
0.0
 10
239.3003147253202
 20
119.663531501198
 30
0.0
 10
238.4473421752328
 20
119.6872959768882
 30
0.0
 10
237.7490426029141
 20
119.7657255055005
 30
0.0
 10
237.3331542039392
 20
119.8398772150468
 30
0.0
 10
237.1923846022437
 20
119.8683638471672
 30
0.0
 10
237.1877859805735
 20
119.8692944404359
 30
0.0
  0
SPLINE
  5
D8
330
1F
100
AcDbEntity
  8
0
  6
Continuous
 62
     7
370
    15
100
AcDbSpline
210
0.0
220
0.0
230
1.0
 70
     8
 71
     3
 72
    13
 73
     9
 74
     0
 42
0.00000001
 43
0.00000001
 12
1.0
 22
0.0
 32
0.0
 13
1.0
 23
0.0
 33
0.0
 40
0.0
 40
0.0
 40
0.0
 40
0.0
 40
0.1694696641521028
 40
0.3401862131632362
 40
0.5147388273411244
 40
0.6905728362827596
 40
0.8448654203226623
 40
1.0
 40
1.0
 40
1.0
 40
1.0
 10
247.9725216906031
 20
124.9497142540466
 30
0.0
 10
247.878702702759
 20
124.7482948168617
 30
0.0
 10
247.6903744473323
 20
124.3439739849522
 30
0.0
 10
247.3412411661972
 20
123.765385040414
 30
0.0
 10
246.9437435388101
 20
123.2093615994205
 30
0.0
 10
246.5133468734858
 20
122.7066132298839
 30
0.0
 10
246.0654473559712
 20
122.2547282479633
 30
0.0
 10
245.7547852230168
 20
121.9946153945017
 30
0.0
 10
245.5990314784567
 20
121.8642050656035
 30
0.0
  0
ARC
  5
D9
330
1F
100
AcDbEntity
  8
0
  6
Continuous
 62
     7
370
    15
100
AcDbCircle
 10
240.0465375304
 20
126.7238452618
 30
0.0
 40
7.533973109829738
100
AcDbArc
 50
165.4698452312
 51
317.7407330622
  0
SPLINE
  5
DA
330
1F
100
AcDbEntity
  8
0
  6
Continuous
 62
     7
370
    15
100
AcDbSpline
210
0.0
220
0.0
230
1.0
 70
     8
 71
     3
 72
    10
 73
     6
 74
     0
 42
0.00000001
 43
0.00000001
 12
1.0
 22
0.0
 32
0.0
 13
1.0
 23
0.0
 33
0.0
 40
0.0
 40
0.0
 40
0.0
 40
0.0
 40
0.1480669295196462
 40
0.9078073725016007
 40
1.0
 40
1.0
 40
1.0
 40
1.0
 10
232.753533040861
 20
128.6140400494481
 30
0.0
 10
232.7724731390829
 20
128.6610006389602
 30
0.0
 10
232.8885960360562
 20
128.9489188764383
 30
0.0
 10
233.0418387251593
 20
129.3254852383456
 30
0.0
 10
233.1938256542095
 20
129.65571504632
 30
0.0
 10
233.2102730428836
 20
129.6914511325577
 30
0.0
  0
ARC
  5
DB
330
1F
100
AcDbEntity
  8
0
  6
Continuous
 62
     7
370
    15
100
AcDbCircle
 10
-125.905106297
 20
288.0843094796
 30
0.0
 40
392.9659574073659
100
AcDbArc
 50
336.4298096133
 51
337.3277446678
  0
SPLINE
  5
DC
330
1F
100
AcDbEntity
  8
0
  6
Continuous
 62
     7
370
    15
100
AcDbSpline
210
0.0
220
0.0
230
1.0
 70
     8
 71
     3
 72
    15
 73
    11
 74
     0
 42
0.00000001
 43
0.00000001
 12
1.0
 22
0.0
 32
0.0
 13
1.0
 23
0.0
 33
0.0
 40
0.0
 40
0.0
 40
0.0
 40
0.0
 40
0.1827624516079636
 40
0.3069272234005659
 40
0.4331757146004954
 40
0.4966372756012951
 40
0.682651205287076
 40
0.8085329643402672
 40
0.9360172246967127
 40
1.0
 40
1.0
 40
1.0
 40
1.0
 10
236.6943481255467
 20
136.6119379607204
 30
0.0
 10
237.1415835192658
 20
137.6196317812574
 30
0.0
 10
237.8926607585618
 20
139.3119305201624
 30
0.0
 10
239.1167298380587
 20
141.5101444771174
 30
0.0
 10
240.0597944496308
 20
143.0082431739345
 30
0.0
 10
241.2381178391337
 20
144.6990831179856
 30
0.0
 10
242.4732957828494
 20
146.2563581190786
 30
0.0
 10
243.9748265232863
 20
147.8680959039907
 30
0.0
 10
245.0825333565118
 20
148.916918463471
 30
0.0
 10
245.7576579992922
 20
149.4847650191643
 30
0.0
 10
245.9832652333097
 20
149.6745230025921
 30
0.0
  0
SPLINE
  5
DD
330
1F
100
AcDbEntity
  8
0
  6
Continuous
 62
     7
370
    15
100
AcDbSpline
210
0.0
220
0.0
230
1.0
 70
     8
 71
     3
 72
     9
 73
     5
 74
     0
 42
0.00000001
 43
0.00000001
 12
1.0
 22
0.0
 32
0.0
 13
1.0
 23
0.0
 33
0.0
 40
0.0
 40
0.0
 40
0.0
 40
0.0
 40
0.6998940145503956
 40
1.0
 40
1.0
 40
1.0
 40
1.0
 10
250.3908158522235
 20
130.6135113093509
 30
0.0
 10
250.6694317818463
 20
131.2996472943782
 30
0.0
 10
251.0675148113201
 20
132.2799899902192
 30
0.0
 10
251.3592391387204
 20
133.2664546475434
 30
0.0
 10
251.4467873554746
 20
133.562498595641
 30
0.0
  0
SPLINE
  5
DE
330
1F
100
AcDbEntity
  8
0
  6
Continuous
 62
     7
370
    15
100
AcDbSpline
210
0.0
220
0.0
230
1.0
 70
     8
 71
     3
 72
    13
 73
     9
 74
     0
 42
0.00000001
 43
0.00000001
 12
1.0
 22
0.0
 32
0.0
 13
1.0
 23
0.0
 33
0.0
 40
0.0
 40
0.0
 40
0.0
 40
0.0
 40
0.0490017900402125
 40
0.2396804961975312
 40
0.427295846134624
 40
0.6149305572597482
 40
0.8074550890953585
 40
1.0
 40
1.0
 40
1.0
 40
1.0
 10
252.1775717959547
 20
136.3286217693153
 30
0.0
 10
252.2212773916598
 20
136.5114002433421
 30
0.0
 10
252.435052824284
 20
137.4054172846173
 30
0.0
 10
252.6549960170087
 20
138.9768126615918
 30
0.0
 10
252.8369854090137
 20
141.0224514811216
 30
0.0
 10
252.8558590382771
 20
143.0176957079275
 30
0.0
 10
252.7422067645482
 20
144.9700550964697
 30
0.0
 10
252.5516881973357
 20
146.2163800299911
 30
0.0
 10
252.4564238723128
 20
146.8395754764419
 30
0.0
  0
ARC
  5
DF
330
1F
100
AcDbEntity
  8
0
  6
Continuous
 62
     7
370
    15
100
AcDbCircle
 10
-112.2086385701
 20
282.0858828282
 30
0.0
 40
392.9659574071109
100
AcDbArc
 50
336.4298096133
 51
337.3277446678
  0
SPLINE
  5
E0
330
1F
100
AcDbEntity
  8
0
  6
Continuous
 62
     7
370
    15
100
AcDbSpline
210
0.0
220
0.0
230
1.0
 70
     8
 71
     3
 72
     9
 73
     5
 74
     0
 42
0.00000001
 43
0.00000001
 12
1.0
 22
0.0
 32
0.0
 13
1.0
 23
0.0
 33
0.0
 40
0.0
 40
0.0
 40
0.0
 40
0.0
 40
0.2688841257706978
 40
1.0
 40
1.0
 40
1.0
 40
1.0
 10
244.5100464870696
 20
129.4660997467149
 30
0.0
 10
244.4485732556438
 20
129.4672811358609
 30
0.0
 10
244.2199497500741
 20
129.4716748096882
 30
0.0
 10
243.9930198266559
 20
129.5039854729979
 30
0.0
 10
243.8271077573073
 20
129.5276083118505
 30
0.0
  0
SPLINE
  5
E1
330
1F
100
AcDbEntity
  8
0
  6
Continuous
 62
     7
370
    15
100
AcDbSpline
210
0.0
220
0.0
230
1.0
 70
     8
 71
     3
 72
     9
 73
     5
 74
     0
 42
0.00000001
 43
0.00000001
 12
1.0
 22
0.0
 32
0.0
 13
1.0
 23
0.0
 33
0.0
 40
0.0
 40
0.0
 40
0.0
 40
0.0
 40
0.6094093754315026
 40
1.0
 40
1.0
 40
1.0
 40
1.0
 10
240.3925975686003
 20
131.0505634653476
 30
0.0
 10
240.3063907916877
 20
131.1187010942801
 30
0.0
 10
240.1649312402137
 20
131.2305103832072
 30
0.0
 10
240.0384029488214
 20
131.3590265274191
 30
0.0
 10
239.9889821844609
 20
131.4092237284539
 30
0.0
  0
SPLINE
  5
E2
330
1F
100
AcDbEntity
  8
0
  6
Continuous
 62
     7
370
    15
100
AcDbSpline
210
0.0
220
0.0
230
1.0
 70
     8
 71
     3
 72
    37
 73
    33
 74
     0
 42
0.00000001
 43
0.00000001
 12
1.0
 22
0.0
 32
0.0
 13
1.0
 23
0.0
 33
0.0
 40
0.0
 40
0.0
 40
0.0
 40
0.0
 40
0.014447326223637
 40
0.0418014609287903
 40
0.0693464046566978
 40
0.0974983774123624
 40
0.1258627375720438
 40
0.1529948295342418
 40
0.1805329059454578
 40
0.2082794319882701
 40
0.2364584452914595
 40
0.2894948442519041
 40
0.3164418251157846
 40
0.3438127800169348
 40
0.3950624760940419
 40
0.4474601428872205
 40
0.4978655606091508
 40
0.5493402395693904
 40
0.6003144613116808
 40
0.6523286655567543
 40
0.7048824258071429
 40
0.7315349583991855
 40
0.7585500058029979
 40
0.7854993997707173
 40
0.8128217986028181
 40
0.8403329824262694
 40
0.8682318149377783
 40
0.8956049595008589
 40
0.9231685695902252
 40
0.9513363839331263
 40
0.9797147155331021
 40
1.0
 40
1.0
 40
1.0
 40
1.0
 10
242.4539884543464
 20
127.429149460617
 30
0.0
 10
242.4393110841722
 20
127.4114222905247
 30
0.0
 10
242.396844020968
 20
127.3601310275934
 30
0.0
 10
242.3173517649211
 20
127.2831353994006
 30
0.0
 10
242.216351930629
 20
127.1976787384534
 30
0.0
 10
242.1067325524721
 20
127.1205880429523
 30
0.0
 10
241.9915351762741
 20
127.0535142255661
 30
0.0
 10
241.8718940601462
 20
126.997027290751
 30
0.0
 10
241.748820935513
 20
126.9512728699142
 30
0.0
 10
241.6206305075654
 20
126.9159513189413
 30
0.0
 10
241.4499362695829
 20
126.8848679900843
 30
0.0
 10
241.2771476171907
 20
126.8762825180378
 30
0.0
 10
241.1068669087166
 20
126.8901108635393
 30
0.0
 10
240.9412989755383
 20
126.9185491038088
 30
0.0
 10
240.7413927383335
 20
126.9804154956068
 30
0.0
 10
240.522396702193
 20
127.0923904010806
 30
0.0
 10
240.3253804507946
 20
127.2400568126782
 30
0.0
 10
240.1572270129404
 20
127.4169077436771
 30
0.0
 10
240.019089048324
 20
127.6212494524405
 30
0.0
 10
239.9152562932472
 20
127.8470448140109
 30
0.0
 10
239.8596425839318
 20
128.0494496294186
 30
0.0
 10
239.8348362978339
 20
128.2169664986461
 30
0.0
 10
239.8264059895813
 20
128.3452858384022
 30
0.0
 10
239.8284636004079
 20
128.4749490156725
 30
0.0
 10
239.841157435565
 20
128.6048230109567
 30
0.0
 10
239.8647461117181
 20
128.7347068378265
 30
0.0
 10
239.8990363090568
 20
128.862262619758
 30
0.0
 10
239.9438042291665
 20
128.9865681357792
 30
0.0
 10
239.9987588259525
 20
129.107175713091
 30
0.0
 10
240.0646961725697
 20
129.2238407816876
 30
0.0
 10
240.1328208758691
 20
129.3256701106389
 30
0.0
 10
240.1825738642608
 20
129.3849753677851
 30
0.0
 10
240.2033132503603
 20
129.4096965888702
 30
0.0
  0
LINE
  5
E3
330
1F
100
AcDbEntity
  8
0
  6
Continuous
 62
     7
370
    15
100
AcDbLine
 10
235.5433935502
 20
135.2548177352
 30
0.0
 11
233.8334395926
 21
131.1138433404
 31
0.0
  0
ARC
  5
E4
330
1F
100
AcDbEntity
  8
0
  6
Continuous
 62
     7
370
    15
100
AcDbCircle
 10
199.6910514569
 20
145.2243158484
 30
0.0
 40
36.94330929970232
100
AcDbArc
 50
335.1369128574
 51
337.5455185198
  0
ARC
  5
E5
330
1F
100
AcDbEntity
  8
0
  6
Continuous
 62
     7
370
    15
100
AcDbCircle
 10
269.967704345
 20
121.0519778165
 30
0.0
 40
37.23914386040124
100
AcDbArc
 50
140.4800478651
 51
157.5798533268
  0
SPLINE
  5
E6
330
1F
100
AcDbEntity
  8
0
  6
Continuous
 62
     7
370
    15
100
AcDbSpline
210
0.0
220
0.0
230
1.0
 70
     8
 71
     3
 72
     9
 73
     5
 74
     0
 42
0.00000001
 43
0.00000001
 12
1.0
 22
0.0
 32
0.0
 13
1.0
 23
0.0
 33
0.0
 40
0.0
 40
0.0
 40
0.0
 40
0.0
 40
0.1064925076215824
 40
1.0
 40
1.0
 40
1.0
 40
1.0
 10
241.5535914259671
 20
145.122143960333
 30
0.0
 10
241.5428779924564
 20
145.1095818837828
 30
0.0
 10
241.44227529514
 20
144.9916198146117
 30
0.0
 10
241.3361444567935
 20
144.8634825835706
 30
0.0
 10
241.2413157575585
 20
144.7489910075828
 30
0.0
  0
SPLINE
  5
E7
330
1F
100
AcDbEntity
  8
0
  6
Continuous
 62
     7
370
    15
100
AcDbSpline
210
0.0
220
0.0
230
1.0
 70
     8
 71
     3
 72
    12
 73
     8
 74
     0
 42
0.00000001
 43
0.00000001
 12
1.0
 22
0.0
 32
0.0
 13
1.0
 23
0.0
 33
0.0
 40
0.0
 40
0.0
 40
0.0
 40
0.0
 40
0.2188995491151162
 40
0.4437466788580104
 40
0.6628055071018853
 40
0.8894870632045573
 40
1.0
 40
1.0
 40
1.0
 40
1.0
 10
245.9832652333097
 20
149.6745230025921
 30
0.0
 10
246.116604780412
 20
149.7823007697095
 30
0.0
 10
246.386906758768
 20
150.0007846652058
 30
0.0
 10
246.7156132729198
 20
150.2411314639054
 30
0.0
 10
246.9655914717404
 20
150.4043443141883
 30
0.0
 10
247.1086522885116
 20
150.479705666309
 30
0.0
 10
247.1230657770205
 20
150.4655303152966
 30
0.0
 10
247.127789688526
 20
150.4608844515489
 30
0.0
  0
SPLINE
  5
E8
330
1F
100
AcDbEntity
  8
0
  6
Continuous
 62
     7
370
    15
100
AcDbSpline
210
0.0
220
0.0
230
1.0
 70
     8
 71
     3
 72
    12
 73
     8
 74
     0
 42
0.00000001
 43
0.00000001
 12
1.0
 22
0.0
 32
0.0
 13
1.0
 23
0.0
 33
0.0
 40
0.0
 40
0.0
 40
0.0
 40
0.0
 40
0.218899549115118
 40
0.4437466788580124
 40
0.6628055071018855
 40
0.8894870632045568
 40
1.0
 40
1.0
 40
1.0
 40
1.0
 10
252.4564238723128
 20
146.8395754764419
 30
0.0
 10
252.4211264011762
 20
147.0212085473352
 30
0.0
 10
252.3495724137319
 20
147.3894097259376
 30
0.0
 10
252.2158611740965
 20
147.8322743587047
 30
0.0
 10
252.0691907172742
 20
148.1692011850812
 30
0.0
 10
251.9411096618492
 20
148.3633102804113
 30
0.0
 10
251.8668326508345
 20
148.3879773131932
 30
0.0
 10
251.8424889240048
 20
148.3960617460418
 30
0.0
  0
LINE
  5
E9
330
1F
100
AcDbEntity
  8
0
  6
Continuous
 62
     7
370
    15
100
AcDbLine
 10
244.7337661799
 20
150.3221866071
 30
0.0
 11
242.9851899298
 21
146.7753581045
 31
0.0
  0
ARC
  5
EA
330
1F
100
AcDbEntity
  8
0
  6
Continuous
 62
     7
370
    15
100
AcDbCircle
 10
245.0675410219
 20
150.1576212699
 30
0.0
 40
0.3721389462479051
100
AcDbArc
 50
117.4663127551
 51
153.7547224546
  0
LINE
  5
EB
330
1F
100
AcDbEntity
  8
0
  6
Continuous
 62
     7
370
    15
100
AcDbLine
 10
257.9581425852
 20
157.2936797669
 30
0.0
 11
244.8959004875
 21
150.4878135204
 31
0.0
  0
ARC
  5
EC
330
1F
100
AcDbEntity
  8
0
  6
Continuous
 62
     7
370
    15
100
AcDbCircle
 10
258.1393453119
 20
156.9325633874
 30
0.0
 40
0.4040290431580882
100
AcDbArc
 50
335.1618451654
 51
116.646804045
  0
LINE
  5
ED
330
1F
100
AcDbEntity
  8
0
  6
Continuous
 62
     7
370
    15
100
AcDbLine
 10
252.707248647
 20
145.0006049
 30
0.0
 11
258.5060008413
 21
156.7628483603
 31
0.0
  0
ARC
  5
EE
330
1F
100
AcDbEntity
  8
0
  6
Continuous
 62
     7
370
    15
100
AcDbCircle
 10
258.1399282743
 20
156.9332077484
 30
0.0
 40
0.3838275910002784
100
AcDbArc
 50
335.1618451654
 51
116.646804045
  0
LINE
  5
EF
330
1F
100
AcDbEntity
  8
0
  6
Continuous
 62
     7
370
    15
100
AcDbLine
 10
257.9677856839
 20
157.276268309
 30
0.0
 11
244.9055435863
 21
150.4704020621
 31
0.0
  0
ARC
  5
F0
330
1F
100
AcDbEntity
  8
0
  6
Continuous
 62
     7
370
    15
100
AcDbCircle
 10
245.0686020961
 20
150.1567194217
 30
0.0
 40
0.3535320021222788
100
AcDbArc
 50
117.4663128613
 51
153.7547222002
  0
LINE
  5
F1
330
1F
100
AcDbEntity
  8
0
  6
Continuous
 62
     7
370
    15
100
AcDbLine
 10
244.751515994
 20
150.3130564948
 30
0.0
 11
243.0325924782
 21
146.8263758771
 31
0.0
  0
LINE
  5
F2
330
1F
100
AcDbEntity
  8
0
  6
Continuous
 62
     7
370
    15
100
AcDbLine
 10
252.7024266917
 20
145.0359580026
 30
0.0
 11
258.4882510273
 21
156.7719784727
 31
0.0
  0
LINE
  5
F3
330
1F
100
AcDbEntity
  8
0
  6
Continuous
 62
     7
370
    15
100
AcDbLine
 10
245.0506652494
 20
150.0946629547
 30
0.0
 11
244.751515994
 21
150.3130564948
 31
0.0
  0
LINE
  5
F4
330
1F
100
AcDbEntity
  8
0
  6
Continuous
 62
     7
370
    15
100
AcDbLine
 10
245.2692295504
 20
149.8107717013
 30
0.0
 11
245.0506652494
 21
150.0946629547
 31
0.0
  0
LINE
  5
F5
330
1F
100
AcDbEntity
  8
0
  6
Continuous
 62
     7
370
    15
100
AcDbLine
 10
251.7966255763
 20
151.817303323
 30
0.0
 11
248.2666508231
 21
149.9780680796
 31
0.0
  0
ARC
  5
F6
330
1F
100
AcDbEntity
  8
0
  6
Continuous
 62
     7
370
    15
100
AcDbCircle
 10
252.2496323934
 20
150.9145123743
 30
0.0
 40
1.010072607951886
100
AcDbArc
 50
335.1618451513
 51
116.6468040615
  0
LINE
  5
F7
330
1F
100
AcDbEntity
  8
0
  6
Continuous
 62
     7
370
    15
100
AcDbLine
 10
252.0353687169
 20
148.196291545
 30
0.0
 11
253.166271217
 21
150.4902248062
 31
0.0
  0
LINE
  5
F8
330
1F
100
AcDbEntity
  8
0
  6
Continuous
 62
     7
370
    15
100
AcDbLine
 10
255.7581367102
 20
154.4791455598
 30
0.0
 11
258.1129073471
 21
156.9005292012
 31
0.0
  0
LINE
  5
F9
330
1F
100
AcDbEntity
  8
0
  6
Continuous
 62
     7
370
    15
100
AcDbLine
 10
258.1129073471
 20
156.9005292012
 30
0.0
 11
258.4882510273
 21
156.7719784727
 31
0.0
  0
LINE
  5
FA
330
1F
100
AcDbEntity
  8
0
  6
Continuous
 62
     7
370
    15
100
AcDbLine
 10
254.6081141446
 20
152.1464289773
 30
0.0
 11
255.7581367102
 21
154.4791455598
 31
0.0
  0
LINE
  5
FB
330
1F
100
AcDbEntity
  8
0
  6
Continuous
 62
     7
370
    15
100
AcDbLine
 10
245.0506652494
 20
150.0946629547
 30
0.0
 11
244.9055435863
 21
150.4704020621
 31
0.0
  0
LINE
  5
FC
330
1F
100
AcDbEntity
  8
0
  6
Continuous
 62
     7
370
    15
100
AcDbLine
 10
258.1129073471
 20
156.9005292012
 30
0.0
 11
257.9677856839
 21
157.276268309
 31
0.0
  0
LINE
  5
FD
330
1F
100
AcDbEntity
  8
0
  6
Continuous
 62
     7
370
    15
100
AcDbLine
 10
255.7581367102
 20
154.4791455598
 30
0.0
 11
253.4446449733
 21
153.2737387693
 31
0.0
  0
SPLINE
  5
FE
330
1F
100
AcDbEntity
  8
0
  6
Continuous
 62
     7
370
    15
100
AcDbSpline
210
0.0
220
0.0
230
1.0
 70
     8
 71
     3
 72
    10
 73
     6
 74
     0
 42
0.00000001
 43
0.00000001
 12
1.0
 22
0.0
 32
0.0
 13
1.0
 23
0.0
 33
0.0
 40
0.0
 40
0.0
 40
0.0
 40
0.0
 40
0.4011239688346958
 40
0.8020555758208805
 40
1.0
 40
1.0
 40
1.0
 40
1.0
 10
245.2692295504467
 20
149.8107717013496
 30
0.0
 10
245.3161187189829
 20
149.7539940753787
 30
0.0
 10
245.4098745700215
 20
149.6404660515509
 30
0.0
 10
245.5560704978019
 20
149.4966977720245
 30
0.0
 10
245.6421117401156
 20
149.4299204766668
 30
0.0
 10
245.6705506544805
 20
149.4078488080911
 30
0.0
  0
ARC
  5
FF
330
1F
100
AcDbEntity
  8
0
  6
Continuous
 62
     7
370
    15
100
AcDbCircle
 10
252.0262319818
 20
150.6489741788
 30
0.0
 40
2.473724759233896
100
AcDbArc
 50
36.2386582821
 51
55.5699909283
  0
SPLINE
  5
100
330
1F
100
AcDbEntity
  8
0
  6
Continuous
 62
     7
370
    15
100
AcDbSpline
210
0.0
220
0.0
230
1.0
 70
     8
 71
     3
 72
    14
 73
    10
 74
     0
 42
0.00000001
 43
0.00000001
 12
1.0
 22
0.0
 32
0.0
 13
1.0
 23
0.0
 33
0.0
 40
0.0
 40
0.0
 40
0.0
 40
0.0
 40
0.2210591904779767
 40
0.3460797326519474
 40
0.4396016244131548
 40
0.5338897453199776
 40
0.6146561933587734
 40
0.7517253237594131
 40
1.0
 40
1.0
 40
1.0
 40
1.0
 10
254.0214434765331
 20
152.1113165722042
 30
0.0
 10
254.0578051742729
 20
152.0648084597391
 30
0.0
 10
254.1147313152098
 20
151.9919975754992
 30
0.0
 10
254.2094258978204
 20
151.9207734239517
 30
0.0
 10
254.2883214158154
 20
151.8908852427284
 30
0.0
 10
254.3607220400109
 20
151.8923684112485
 30
0.0
 10
254.4363751786971
 20
151.9232741687192
 30
0.0
 10
254.5287806024944
 20
152.0029943432975
 30
0.0
 10
254.5770283887159
 20
152.0902260913728
 30
0.0
 10
254.6081141445969
 20
152.1464289773101
 30
0.0
  0
SPLINE
  5
101
330
1F
100
AcDbEntity
  8
0
  6
Continuous
 62
     7
370
    15
100
AcDbSpline
210
0.0
220
0.0
230
1.0
 70
     8
 71
     3
 72
    14
 73
    10
 74
     0
 42
0.00000001
 43
0.00000001
 12
1.0
 22
0.0
 32
0.0
 13
1.0
 23
0.0
 33
0.0
 40
0.0
 40
0.0
 40
0.0
 40
0.0
 40
0.2234968253973756
 40
0.3567622963774762
 40
0.4531212562341455
 40
0.5344619041500301
 40
0.6157317558035348
 40
0.7396161778922113
 40
1.0
 40
1.0
 40
1.0
 40
1.0
 10
253.4446449733292
 20
153.2737387692911
 30
0.0
 10
253.3945620257559
 20
153.2447567538673
 30
0.0
 10
253.3146158907098
 20
153.1984934999806
 30
0.0
 10
253.2347520532864
 20
153.1118381432229
 30
0.0
 10
253.1999069078161
 20
153.0384136562734
 30
0.0
 10
253.1942652653539
 20
152.9699567352033
 30
0.0
 10
253.2146064786035
 20
152.8960924239954
 30
0.0
 10
253.2853933363457
 20
152.791847286066
 30
0.0
 10
253.3685356640208
 20
152.7307474385808
 30
0.0
 10
253.424873697116
 20
152.6893455999989
 30
0.0
  0
SPLINE
  5
102
330
1F
100
AcDbEntity
  8
0
  6
HIDDEN
 62
     7
370
     0
100
AcDbSpline
210
0.0
220
0.0
230
1.0
 70
     8
 71
     3
 72
    60
 73
    56
 74
     0
 42
0.00000001
 43
0.00000001
 12
1.0
 22
0.0
 32
0.0
 13
1.0
 23
0.0
 33
0.0
 40
-0.0625000000000001
 40
-0.0625000000000001
 40
0.0
 40
0.0
 40
0.0312500000000002
 40
0.0312500000000002
 40
0.0625000000000003
 40
0.0625000000000003
 40
0.0937500000000004
 40
0.0937500000000004
 40
0.1250000000000006
 40
0.1250000000000006
 40
0.1875000000000008
 40
0.1875000000000008
 40
0.250000000000001
 40
0.250000000000001
 40
0.2812500000000009
 40
0.2812500000000009
 40
0.3125000000000007
 40
0.3125000000000007
 40
0.3437500000000006
 40
0.3437500000000006
 40
0.3750000000000005
 40
0.3750000000000005
 40
0.4062500000000004
 40
0.4062500000000004
 40
0.4375000000000002
 40
0.4375000000000002
 40
0.4687500000000001
 40
0.4687500000000001
 40
0.5
 40
0.5
 40
0.5624999999999998
 40
0.5624999999999998
 40
0.6249999999999994
 40
0.6249999999999994
 40
0.6562499999999996
 40
0.6562499999999996
 40
0.6874999999999996
 40
0.6874999999999996
 40
0.7187499999999997
 40
0.7187499999999997
 40
0.7499999999999997
 40
0.7499999999999997
 40
0.7812499999999997
 40
0.7812499999999997
 40
0.8124999999999998
 40
0.8124999999999998
 40
0.8437499999999998
 40
0.8437499999999998
 40
0.8749999999999998
 40
0.8749999999999998
 40
0.9062499999999999
 40
0.9062499999999999
 40
0.9374999999999999
 40
0.9374999999999999
 40
1.0
 40
1.0
 40
1.03125
 40
1.03125
 10
207.5449276607198
 20
112.0726455478397
 30
0.0
 10
207.5449276607198
 20
112.4691413354698
 30
0.0
 10
207.5319558022309
 20
112.599091396474
 30
0.0
 10
207.4811356325386
 20
112.854744329834
 30
0.0
 10
207.4426683090716
 20
112.9817738363834
 30
0.0
 10
207.3422700729995
 20
113.2239619675079
 30
0.0
 10
207.2808370420263
 20
113.3388234600608
 30
0.0
 10
207.1357022104814
 20
113.5562036558849
 30
0.0
 10
207.0512470930736
 20
113.6591012230835
 30
0.0
 10
206.7745276427152
 20
113.9357682620913
 30
0.0
 10
206.5514507507972
 20
114.0847663525713
 30
0.0
 10
206.0701673885769
 20
114.284277493036
 30
0.0
 10
205.8069369695859
 20
114.3368355960327
 30
0.0
 10
205.415534767898
 20
114.3370458784108
 30
0.0
 10
205.2830117397891
 20
114.3240601076836
 30
0.0
 10
205.026481286548
 20
114.2730329594698
 30
0.0
 10
204.9017944522514
 20
114.2352777603194
 30
0.0
 10
204.6596151900159
 20
114.1351394274107
 30
0.0
 10
204.5425216578658
 20
114.0725337599991
 30
0.0
 10
204.3258066545104
 20
113.9278004667342
 30
0.0
 10
204.2247878276476
 20
113.8451731194546
 30
0.0
 10
204.0380029401955
 20
113.658568066203
 30
0.0
 10
203.9551460589993
 20
113.5574530023269
 30
0.0
 10
203.8102617939255
 20
113.340920198337
 30
0.0
 10
203.7476242861046
 20
113.2240499907359
 30
0.0
 10
203.6471754627048
 20
112.9817521200857
 30
0.0
 10
203.6093243616876
 20
112.8570881216248
 30
0.0
 10
203.5581027964312
 20
112.6008010775609
 30
0.0
 10
203.544974669814
 20
112.4682290818153
 30
0.0
 10
203.5448340294737
 20
112.0766248890413
 30
0.0
 10
203.5971587788456
 20
111.8134595577174
 30
0.0
 10
203.7962698409029
 20
111.3319541885442
 30
0.0
 10
203.9451321773601
 20
111.1087026490601
 30
0.0
 10
204.2214531366856
 20
110.8318463501713
 30
0.0
 10
204.3242167850592
 20
110.7473329033276
 30
0.0
 10
204.5416003424386
 20
110.6019156298873
 30
0.0
 10
204.6563991103951
 20
110.5404044308289
 30
0.0
 10
204.8982758338191
 20
110.4398745825741
 30
0.0
 10
205.0254294418193
 20
110.4012295593561
 30
0.0
 10
205.2810954512519
 20
110.3501732318051
 30
0.0
 10
205.4109614890079
 20
110.3371083732595
 30
0.0
 10
205.6749140157396
 20
110.3368457524615
 30
0.0
 10
205.8053183391636
 20
110.3497227527056
 30
0.0
 10
206.060969102543
 20
110.4003087565114
 30
0.0
 10
206.1878346516573
 20
110.4385851211332
 30
0.0
 10
206.4303551096033
 20
110.5388559886132
 30
0.0
 10
206.5452817482636
 20
110.6002120127541
 30
0.0
 10
206.7626532170956
 20
110.7450583079269
 30
0.0
 10
206.8656670297578
 20
110.8294358224216
 30
0.0
 10
207.0503675753397
 20
111.0138431426098
 30
0.0
 10
207.1331973095963
 20
111.1144162058793
 30
0.0
 10
207.2794497481939
 20
111.3326423464583
 30
0.0
 10
207.3418182289862
 20
111.4491974563795
 30
0.0
 10
207.491774380553
 20
111.8100470504133
 30
0.0
 10
207.5449276607198
 20
112.0726455478397
 30
0.0
 10
207.5449276607198
 20
112.4691413354698
 30
0.0
  0
SPLINE
  5
103
330
1F
100
AcDbEntity
  8
0
  6
HIDDEN
 62
     7
370
     0
100
AcDbSpline
210
0.0
220
0.0
230
1.0
 70
     8
 71
     3
 72
    12
 73
     8
 74
     0
 42
0.00000001
 43
0.00000001
 12
1.0
 22
0.0
 32
0.0
 13
1.0
 23
0.0
 33
0.0
 40
0.0
 40
0.0
 40
0.0
 40
0.0
 40
0.4999999999999971
 40
0.4999999999999971
 40
0.7499999999999986
 40
0.7499999999999986
 40
1.0
 40
1.0
 40
1.0
 40
1.0
 10
203.639671772394
 20
102.4276067522412
 30
0.0
 10
203.6703940143131
 20
102.5401625516504
 30
0.0
 10
203.7132312288482
 20
102.65292041139
 30
0.0
 10
203.812658253048
 20
102.8024612971864
 30
0.0
 10
203.8524104478647
 20
102.8497540288932
 30
0.0
 10
203.9504519047229
 20
102.9234903222147
 30
0.0
 10
204.0100079603104
 20
102.9489096415904
 30
0.0
 10
204.0726844742862
 20
102.9489096415904
 30
0.0
  0
LINE
  5
104
330
1F
100
AcDbEntity
  8
0
  6
HIDDEN
 62
     7
370
     0
100
AcDbLine
 10
204.0726844743
 20
102.9489096416
 30
0.0
 11
207.0171708472
 21
102.9489096416
 31
0.0
  0
SPLINE
  5
105
330
1F
100
AcDbEntity
  8
0
  6
HIDDEN
 62
     7
370
     0
100
AcDbSpline
210
0.0
220
0.0
230
1.0
 70
     8
 71
     3
 72
    12
 73
     8
 74
     0
 42
0.00000001
 43
0.00000001
 12
1.0
 22
0.0
 32
0.0
 13
1.0
 23
0.0
 33
0.0
 40
0.0
 40
0.0
 40
0.0
 40
0.0
 40
0.2500000000000009
 40
0.2500000000000009
 40
0.5000000000000018
 40
0.5000000000000018
 40
1.0
 40
1.0
 40
1.0
 40
1.0
 10
207.0171708471533
 20
102.9489096415904
 30
0.0
 10
207.0802508856467
 20
102.9489096415904
 30
0.0
 10
207.1393995078281
 20
102.9235453223755
 30
0.0
 10
207.2378720578972
 20
102.8493804620025
 30
0.0
 10
207.2769086698819
 20
102.8028601214484
 30
0.0
 10
207.3768051366609
 20
102.6527177786032
 30
0.0
 10
207.4192260177276
 20
102.541024571631
 30
0.0
 10
207.4501835490455
 20
102.4276067522412
 30
0.0
  0
ELLIPSE
  5
106
330
1F
100
AcDbEntity
  8
0
  6
HIDDEN
 62
     7
370
     0
100
AcDbEllipse
 10
191.1977734714
 20
112.3369760729
 30
0.0
 11
-14.75368316065612
 21
31.09325491558116
 31
0.0
210
0.0
220
0.0
230
1.0
 40
0.3419987131
 41
3.300734856217128
 42
4.231496223360779
  0
SPLINE
  5
107
330
1F
100
AcDbEntity
  8
0
  6
HIDDEN
 62
     7
370
     0
100
AcDbSpline
210
0.0
220
0.0
230
1.0
 70
     8
 71
     3
 72
    12
 73
     8
 74
     0
 42
0.00000001
 43
0.00000001
 12
1.0
 22
0.0
 32
0.0
 13
1.0
 23
0.0
 33
0.0
 40
0.0
 40
0.0
 40
0.0
 40
0.0
 40
0.4999999999999981
 40
0.4999999999999981
 40
0.749999999999999
 40
0.749999999999999
 40
1.0
 40
1.0
 40
1.0
 40
1.0
 10
207.4501835490455
 20
82.43623361280925
 30
0.0
 10
207.4194613071264
 20
82.39893162985621
 30
0.0
 10
207.3766240925913
 20
82.3623197978098
 30
0.0
 10
207.2771970683915
 20
82.31455501452461
 30
0.0
 10
207.2374448735748
 20
82.29959749904225
 30
0.0
 10
207.1394034167166
 20
82.27640755327309
 30
0.0
 10
207.0798473611291
 20
82.26848411405338
 30
0.0
 10
207.0171708471533
 20
82.26848411405338
 30
0.0
  0
LINE
  5
108
330
1F
100
AcDbEntity
  8
0
  6
HIDDEN
 62
     7
370
     0
100
AcDbLine
 10
207.0171708472
 20
82.2684841141
 30
0.0
 11
204.0726844743
 21
82.2684841141
 31
0.0
  0
SPLINE
  5
109
330
1F
100
AcDbEntity
  8
0
  6
HIDDEN
 62
     7
370
     0
100
AcDbSpline
210
0.0
220
0.0
230
1.0
 70
     8
 71
     3
 72
    12
 73
     8
 74
     0
 42
0.00000001
 43
0.00000001
 12
1.0
 22
0.0
 32
0.0
 13
1.0
 23
0.0
 33
0.0
 40
0.0
 40
0.0
 40
0.0
 40
0.0
 40
0.2499999999999991
 40
0.2499999999999991
 40
0.4999999999999982
 40
0.4999999999999982
 40
1.0
 40
1.0
 40
1.0
 40
1.0
 10
204.0726844742862
 20
82.26848411405338
 30
0.0
 10
204.0096044357928
 20
82.26848411405338
 30
0.0
 10
203.9504558136114
 20
82.27639004026582
 30
0.0
 10
203.8519832635424
 20
82.29971520170207
 30
0.0
 10
203.8129466515576
 20
82.31442799153376
 30
0.0
 10
203.7130501847786
 20
82.3623837922647
 30
0.0
 10
203.6706293037119
 20
82.39864594884476
 30
0.0
 10
203.639671772394
 20
82.43623361280925
 30
0.0
  0
ELLIPSE
  5
10A
330
1F
100
AcDbEntity
  8
0
  6
HIDDEN
 62
     7
370
     0
100
AcDbEllipse
 10
219.8920818501
 20
112.3369760729
 30
0.0
 11
14.75368316065612
 21
31.09325491558112
 31
0.0
210
0.0
220
0.0
230
1.0
 40
0.3419987131
 41
2.05168908381882
 42
2.982450450962496
  0
SPLINE
  5
10B
330
1F
100
AcDbEntity
  8
0
  6
HIDDEN
 62
     7
370
     0
100
AcDbSpline
210
0.0
220
0.0
230
1.0
 70
     8
 71
     3
 72
    12
 73
     8
 74
     0
 42
0.00000001
 43
0.00000001
 12
1.0
 22
0.0
 32
0.0
 13
1.0
 23
0.0
 33
0.0
 40
0.0
 40
0.0
 40
0.0
 40
0.0
 40
0.5000000000000047
 40
0.5000000000000047
 40
0.7500000000000023
 40
0.7500000000000023
 40
1.0
 40
1.0
 40
1.0
 40
1.0
 10
203.639671772394
 20
142.2377185330438
 30
0.0
 10
203.6703940143131
 20
142.2750205159968
 30
0.0
 10
203.7132312288482
 20
142.3116323480432
 30
0.0
 10
203.812658253048
 20
142.3593971313284
 30
0.0
 10
203.8524104478647
 20
142.3743546468108
 30
0.0
 10
203.9504519047229
 20
142.3975445925799
 30
0.0
 10
204.0100079603104
 20
142.4054680317996
 30
0.0
 10
204.0726844742862
 20
142.4054680317996
 30
0.0
  0
LINE
  5
10C
330
1F
100
AcDbEntity
  8
0
  6
HIDDEN
 62
     7
370
     0
100
AcDbLine
 10
204.0726844743
 20
142.4054680318
 30
0.0
 11
207.0171708472
 21
142.4054680318
 31
0.0
  0
SPLINE
  5
10D
330
1F
100
AcDbEntity
  8
0
  6
HIDDEN
 62
     7
370
     0
100
AcDbSpline
210
0.0
220
0.0
230
1.0
 70
     8
 71
     3
 72
    12
 73
     8
 74
     0
 42
0.00000001
 43
0.00000001
 12
1.0
 22
0.0
 32
0.0
 13
1.0
 23
0.0
 33
0.0
 40
0.0
 40
0.0
 40
0.0
 40
0.0
 40
0.2500000000000023
 40
0.2500000000000023
 40
0.5000000000000047
 40
0.5000000000000047
 40
1.0
 40
1.0
 40
1.0
 40
1.0
 10
207.0171708471533
 20
142.4054680317996
 30
0.0
 10
207.0802508856467
 20
142.4054680317996
 30
0.0
 10
207.1393995078281
 20
142.3975621055872
 30
0.0
 10
207.2378720578972
 20
142.374236944151
 30
0.0
 10
207.2769086698819
 20
142.3595241543193
 30
0.0
 10
207.3768051366609
 20
142.3115683535883
 30
0.0
 10
207.4192260177276
 20
142.2753061970083
 30
0.0
 10
207.4501835490455
 20
142.2377185330438
 30
0.0
  0
ELLIPSE
  5
10E
330
1F
100
AcDbEntity
  8
0
  6
HIDDEN
 62
     7
370
     0
100
AcDbEllipse
 10
191.1977734714
 20
112.3369760729
 30
0.0
 11
14.75368316065624
 21
31.09325491558116
 31
0.0
210
0.0
220
0.0
230
1.0
 40
0.3419987131
 41
5.193281737408637
 42
6.124043104552343
  0
SPLINE
  5
10F
330
1F
100
AcDbEntity
  8
0
  6
HIDDEN
 62
     7
370
     0
100
AcDbSpline
210
0.0
220
0.0
230
1.0
 70
     8
 71
     3
 72
    12
 73
     8
 74
     0
 42
0.00000001
 43
0.00000001
 12
1.0
 22
0.0
 32
0.0
 13
1.0
 23
0.0
 33
0.0
 40
0.0
 40
0.0
 40
0.0
 40
0.0
 40
0.5000000000000019
 40
0.5000000000000019
 40
0.7500000000000009
 40
0.7500000000000009
 40
1.0
 40
1.0
 40
1.0
 40
1.0
 10
207.4501835490455
 20
122.2463453936121
 30
0.0
 10
207.4194613071264
 20
122.1337895942029
 30
0.0
 10
207.3766240925913
 20
122.0210317344633
 30
0.0
 10
207.2771970683915
 20
121.871490848667
 30
0.0
 10
207.2374448735748
 20
121.8241981169601
 30
0.0
 10
207.1394034167166
 20
121.7504618236386
 30
0.0
 10
207.0798473611291
 20
121.725042504263
 30
0.0
 10
207.0171708471533
 20
121.7250425042629
 30
0.0
  0
LINE
  5
110
330
1F
100
AcDbEntity
  8
0
  6
HIDDEN
 62
     7
370
     0
100
AcDbLine
 10
207.0171708472
 20
121.7250425043
 30
0.0
 11
204.0726844743
 21
121.7250425043
 31
0.0
  0
SPLINE
  5
111
330
1F
100
AcDbEntity
  8
0
  6
HIDDEN
 62
     7
370
     0
100
AcDbSpline
210
0.0
220
0.0
230
1.0
 70
     8
 71
     3
 72
    12
 73
     8
 74
     0
 42
0.00000001
 43
0.00000001
 12
1.0
 22
0.0
 32
0.0
 13
1.0
 23
0.0
 33
0.0
 40
0.0
 40
0.0
 40
0.0
 40
0.0
 40
0.2499999999999982
 40
0.2499999999999982
 40
0.4999999999999963
 40
0.4999999999999963
 40
1.0
 40
1.0
 40
1.0
 40
1.0
 10
204.0726844742862
 20
121.725042504263
 30
0.0
 10
204.0096044357928
 20
121.725042504263
 30
0.0
 10
203.9504558136114
 20
121.7504068234779
 30
0.0
 10
203.8519832635424
 20
121.8245716838508
 30
0.0
 10
203.8129466515576
 20
121.8710920244049
 30
0.0
 10
203.7130501847786
 20
122.0212343672502
 30
0.0
 10
203.670629303712
 20
122.1329275742223
 30
0.0
 10
203.639671772394
 20
122.2463453936121
 30
0.0
  0
ELLIPSE
  5
112
330
1F
100
AcDbEntity
  8
0
  6
HIDDEN
 62
     7
370
     0
100
AcDbEllipse
 10
219.8920818501
 20
112.3369760729
 30
0.0
 11
-14.75368316065627
 21
31.09325491558113
 31
0.0
210
0.0
220
0.0
230
1.0
 40
0.3419987131
 41
0.1591422026272847
 42
1.08990356977096
  0
ELLIPSE
  5
113
330
1F
100
AcDbEntity
  8
0
  6
HIDDEN
 62
     7
370
     0
100
AcDbEllipse
 10
249.0781692594
 20
112.3369760729
 30
0.0
 11
23.0697054823234
 21
31.49782548750787
 31
0.0
210
0.0
220
0.0
230
1.0
 40
0.0160435947
 41
2.46474806256023
 42
3.153342797152274
  0
LINE
  5
114
330
1F
100
AcDbEntity
  8
0
  6
HIDDEN
 62
     7
370
     0
100
AcDbLine
 10
193.5449276607
 20
143.3369760665
 30
0.0
 11
193.5449276607
 21
81.3369760729
 31
0.0
  0
LINE
  5
115
330
1F
100
AcDbEntity
  8
0
  6
HIDDEN
 62
     7
370
     0
100
AcDbLine
 10
193.5449276607
 20
88.0869760729
 30
0.0
 11
193.5449276607
 21
136.5869760729
 31
0.0
  0
SPLINE
  5
116
330
1F
100
AcDbEntity
  8
0
  6
HIDDEN
 62
     7
370
     0
100
AcDbSpline
210
0.0
220
0.0
230
1.0
 70
     8
 71
     3
 72
    12
 73
     8
 74
     0
 42
0.00000001
 43
0.00000001
 12
1.0
 22
0.0
 32
0.0
 13
1.0
 23
0.0
 33
0.0
 40
0.0
 40
0.0
 40
0.0
 40
0.0
 40
0.5000000000000012
 40
0.5000000000000012
 40
0.7500000000000007
 40
0.7500000000000007
 40
1.0
 40
1.0
 40
1.0
 40
1.0
 10
192.7284153742727
 20
127.7892440547573
 30
0.0
 10
192.784821552953
 20
127.7414216810975
 30
0.0
 10
192.8549844544248
 20
127.701150834159
 30
0.0
 10
192.9729951678139
 20
127.693104965682
 30
0.0
 10
193.0132009514094
 20
127.6996675640209
 30
0.0
 10
193.0869216481425
 20
127.7270496584745
 30
0.0
 10
193.119782369929
 20
127.7468111490049
 30
0.0
 10
193.1499507718582
 20
127.7697438601929
 30
0.0
  0
SPLINE
  5
117
330
1F
100
AcDbEntity
  8
0
  6
HIDDEN
 62
     7
370
     0
100
AcDbSpline
210
0.0
220
0.0
230
1.0
 70
     8
 71
     3
 72
    16
 73
    12
 74
     0
 42
0.00000001
 43
0.00000001
 12
1.0
 22
0.0
 32
0.0
 13
1.0
 23
0.0
 33
0.0
 40
0.0
 40
0.0
 40
0.0
 40
0.0
 40
0.0624999999999986
 40
0.0624999999999986
 40
0.1249999999999972
 40
0.1249999999999972
 40
0.2499999999999946
 40
0.2499999999999946
 40
0.4999999999999999
 40
0.4999999999999999
 40
1.0
 40
1.0
 40
1.0
 40
1.0
 10
193.1499507718131
 20
127.769743860241
 30
0.0
 10
193.1615636716525
 20
127.7785714832224
 30
0.0
 10
193.174914856085
 20
127.7864058651043
 30
0.0
 10
193.2043146957041
 20
127.7947159911767
 30
0.0
 10
193.2191554202594
 20
127.7942201719417
 30
0.0
 10
193.254988628228
 20
127.7827692009723
 30
0.0
 10
193.2691018360496
 20
127.7660887001137
 30
0.0
 10
193.3035932072685
 20
127.7139680143566
 30
0.0
 10
193.3146772783789
 20
127.6741785203316
 30
0.0
 10
193.3408000961749
 20
127.5508418882345
 30
0.0
 10
193.3449276607197
 20
127.4634204777359
 30
0.0
 10
193.3449276607197
 20
127.3746832354176
 30
0.0
  0
LINE
  5
118
330
1F
100
AcDbEntity
  8
0
  6
HIDDEN
 62
     7
370
     0
100
AcDbLine
 10
193.3449276607
 20
97.2992689104
 30
0.0
 11
193.3449276607
 21
127.3746832354
 31
0.0
  0
SPLINE
  5
119
330
1F
100
AcDbEntity
  8
0
  6
HIDDEN
 62
     7
370
     0
100
AcDbSpline
210
0.0
220
0.0
230
1.0
 70
     8
 71
     3
 72
    16
 73
    12
 74
     0
 42
0.00000001
 43
0.00000001
 12
1.0
 22
0.0
 32
0.0
 13
1.0
 23
0.0
 33
0.0
 40
0.0
 40
0.0
 40
0.0
 40
0.0
 40
0.5000000000000029
 40
0.5000000000000029
 40
0.7499999999999992
 40
0.7499999999999992
 40
0.8750000000000004
 40
0.8750000000000004
 40
0.9375000000000003
 40
0.9375000000000003
 40
1.0
 40
1.0
 40
1.0
 40
1.0
 10
193.3449276607197
 20
97.29926891043526
 30
0.0
 10
193.3449276607197
 20
97.21014254524651
 30
0.0
 10
193.3407813856418
 20
97.1232811776331
 30
0.0
 10
193.3148157902483
 20
97.00029893113908
 30
0.0
 10
193.3033548848708
 20
96.9595276359078
 30
0.0
 10
193.2690431470965
 20
96.90782331590805
 30
0.0
 10
193.2550184111668
 20
96.89115294931761
 30
0.0
 10
193.2189954481331
 20
96.87970072886088
 30
0.0
 10
193.2042409390434
 20
96.87924768258588
 30
0.0
 10
193.1748887778965
 20
96.88756300380203
 30
0.0
 10
193.1615489033925
 20
96.89539188888031
 30
0.0
 10
193.1499507718441
 20
96.90420828564295
 30
0.0
  0
SPLINE
  5
11A
330
1F
100
AcDbEntity
  8
0
  6
HIDDEN
 62
     7
370
     0
100
AcDbSpline
210
0.0
220
0.0
230
1.0
 70
     8
 71
     3
 72
    12
 73
     8
 74
     0
 42
0.00000001
 43
0.00000001
 12
1.0
 22
0.0
 32
0.0
 13
1.0
 23
0.0
 33
0.0
 40
0.0
 40
0.0
 40
0.0
 40
0.0
 40
0.2500000000000002
 40
0.2500000000000002
 40
0.5000000000000003
 40
0.5000000000000003
 40
1.0
 40
1.0
 40
1.0
 40
1.0
 10
193.1499507718512
 20
96.90420828565183
 30
0.0
 10
193.119758930134
 20
96.92715881474965
 30
0.0
 10
193.0863999607193
 20
96.94712828877383
 30
0.0
 10
193.0132626761388
 20
96.97422942239933
 30
0.0
 10
192.9730208034848
 20
96.98083016304479
 30
0.0
 10
192.8553150265163
 20
96.97286128853807
 30
0.0
 10
192.7849045487369
 20
96.93260083037022
 30
0.0
 10
192.7284153742686
 20
96.88470809109207
 30
0.0
  0
SPLINE
  5
11B
330
1F
100
AcDbEntity
  8
0
  6
HIDDEN
 62
     7
370
     0
100
AcDbSpline
210
0.0
220
0.0
230
1.0
 70
     8
 71
     3
 72
    12
 73
     8
 74
     0
 42
0.00000001
 43
0.00000001
 12
1.0
 22
0.0
 32
0.0
 13
1.0
 23
0.0
 33
0.0
 40
0.0
 40
0.0
 40
0.0
 40
0.0
 40
0.2500000000000002
 40
0.2500000000000002
 40
0.5000000000000032
 40
0.5000000000000032
 40
1.0
 40
1.0
 40
1.0
 40
1.0
 10
192.7284153742683
 20
96.88470809109226
 30
0.0
 10
192.6402614365305
 20
96.80996928323817
 30
0.0
 10
192.5799080119018
 20
96.7189887827558
 30
0.0
 10
192.4736460538349
 20
96.53007496000318
 30
0.0
 10
192.4314138872728
 20
96.43357050046261
 30
0.0
 10
192.3203431919557
 20
96.14280274629546
 30
0.0
 10
192.2674064155289
 20
95.94713593175172
 30
0.0
 10
192.2236073171601
 20
95.7530694466854
 30
0.0
  0
SPLINE
  5
11C
330
1F
100
AcDbEntity
  8
0
  6
HIDDEN
 62
     7
370
     0
100
AcDbSpline
210
0.0
220
0.0
230
1.0
 70
     8
 71
     3
 72
    12
 73
     8
 74
     0
 42
0.00000001
 43
0.00000001
 12
1.0
 22
0.0
 32
0.0
 13
1.0
 23
0.0
 33
0.0
 40
0.0
 40
0.0
 40
0.0
 40
0.0
 40
0.4999999999999998
 40
0.4999999999999998
 40
0.7499999999999999
 40
0.7499999999999999
 40
1.0
 40
1.0
 40
1.0
 40
1.0
 10
192.2236073171601
 20
90.56689511792436
 30
0.0
 10
192.2673538579967
 20
90.54030094728317
 30
0.0
 10
192.3202382132282
 20
90.52054072195745
 30
0.0
 10
192.4318053005643
 20
90.50008973172838
 30
0.0
 10
192.4743888971073
 20
90.49482950707193
 30
0.0
 10
192.5793056241891
 20
90.48694671314928
 30
0.0
 10
192.6408392320339
 20
90.48438258797013
 30
0.0
 10
192.7284153742601
 20
90.48218237045049
 30
0.0
  0
LINE
  5
11D
330
1F
100
AcDbEntity
  8
0
  6
HIDDEN
 62
     7
370
     0
100
AcDbLine
 10
193.3449276607
 20
89.7971557941
 30
0.0
 11
193.3449276607
 21
90.2773815847
 31
0.0
  0
LINE
  5
11E
330
1F
100
AcDbEntity
  8
0
  6
HIDDEN
 62
     7
370
     0
100
AcDbLine
 10
193.3449276607
 20
134.3965705612
 30
0.0
 11
193.3449276607
 21
134.8767963518
 31
0.0
  0
SPLINE
  5
11F
330
1F
100
AcDbEntity
  8
0
  6
HIDDEN
 62
     7
370
     0
100
AcDbSpline
210
0.0
220
0.0
230
1.0
 70
     8
 71
     3
 72
    12
 73
     8
 74
     0
 42
0.00000001
 43
0.00000001
 12
1.0
 22
0.0
 32
0.0
 13
1.0
 23
0.0
 33
0.0
 40
0.0
 40
0.0
 40
0.0
 40
0.0
 40
0.25
 40
0.25
 40
0.5
 40
0.5
 40
1.0
 40
1.0
 40
1.0
 40
1.0
 10
192.7284153742681
 20
134.1917697754024
 30
0.0
 10
192.6397307144117
 20
134.1895417080613
 30
0.0
 10
192.5798122986883
 20
134.187039924031
 30
0.0
 10
192.4741530713675
 20
134.179108488195
 30
0.0
 10
192.4315118332526
 20
134.1738163332982
 30
0.0
 10
192.3203224911501
 20
134.1534113928111
 30
0.0
 10
192.2673958090291
 20
134.1336767012242
 30
0.0
 10
192.2236073171601
 20
134.1070570279286
 30
0.0
  0
SPLINE
  5
120
330
1F
100
AcDbEntity
  8
0
  6
HIDDEN
 62
     7
370
     0
100
AcDbSpline
210
0.0
220
0.0
230
1.0
 70
     8
 71
     3
 72
    12
 73
     8
 74
     0
 42
0.00000001
 43
0.00000001
 12
1.0
 22
0.0
 32
0.0
 13
1.0
 23
0.0
 33
0.0
 40
0.0
 40
0.0
 40
0.0
 40
0.0
 40
0.4999999999999959
 40
0.4999999999999959
 40
0.7499999999999966
 40
0.7499999999999966
 40
1.0
 40
1.0
 40
1.0
 40
1.0
 10
192.2236073171585
 20
128.9208826991677
 30
0.0
 10
192.2673687934573
 20
128.7269829112056
 30
0.0
 10
192.3202751091103
 20
128.5311265472687
 30
0.0
 10
192.4319863067577
 20
128.2389844007698
 30
0.0
 10
192.4745057503441
 20
128.1422664640719
 30
0.0
 10
192.5796290929115
 20
127.9555420276474
 30
0.0
 10
192.6411950566292
 20
127.8631913193777
 30
0.0
 10
192.7284153742719
 20
127.789244054758
 30
0.0
  0
LINE
  5
121
330
1F
100
AcDbEntity
  8
0
  6
HIDDEN
 62
     7
370
     0
100
AcDbLine
 10
193.3449276607
 20
90.2773815847
 30
0.0
 11
193.3449276607
 21
105.3150887472
 31
0.0
  0
LINE
  5
122
330
1F
100
AcDbEntity
  8
0
  6
HIDDEN
 62
     7
370
     0
100
AcDbLine
 10
193.3449276607
 20
119.3588633987
 30
0.0
 11
193.3449276607
 21
134.3965705612
 31
0.0
  0
LWPOLYLINE
  5
123
330
1F
100
AcDbEntity
  8
0
  6
HIDDEN
 62
     7
370
     0
100
AcDbPolyline
 90
       31
 70
   128
 43
0.0
 10
242.3663824203
 20
137.1012426858
 10
243.0457174773
 20
137.1523629912
 10
243.7250525343
 20
137.0514332407
 10
244.3703228948
 20
136.8035144736
 10
244.9491720087
 20
136.4210383721
 10
245.4325739643
 20
135.9231838849
 10
245.7962889689
 20
135.3349155149
 10
246.0220788335
 20
134.6857314946
 10
246.0986215116
 20
134.0081846216
 10
246.0220788335
 20
133.3362499251
 10
245.7962889689
 20
132.7036210167
 10
245.4325739643
 20
132.1420205515
 10
245.4099610034
 20
132.1150237474
 10
244.9491720087
 20
131.6796095218
 10
244.3703228948
 20
131.3395751475
 10
243.7250525343
 20
131.1389681719
 10
243.0457174773
 20
131.0878478666
 10
242.3663824203
 20
131.1887776171
 10
241.7211120597
 20
131.4366963842
 10
241.1422629458
 20
131.8191724857
 10
240.6588609903
 20
132.3170269729
 10
240.2951459856
 20
132.9052953428
 10
240.069356121
 20
133.5544793631
 10
239.9928134429
 20
134.2320262362
 10
240.069356121
 20
134.9039609326
 10
240.2951459856
 20
135.536589841
 10
240.6588609903
 20
136.0981903063
 10
240.6814739511
 20
136.1251871103
 10
241.1422629458
 20
136.560601336
 10
241.7211120597
 20
136.9006357103
 10
242.3663824203
 20
137.1012426858
  0
ARC
  5
124
330
1F
100
AcDbEntity
  8
0
  6
HIDDEN
 62
     7
370
     0
100
AcDbCircle
 10
238.2746234904
 20
122.562574068
 30
0.0
 40
2.492834229910269
100
AcDbArc
 50
157.7702094104
 51
334.9273490377
  0
LINE
  5
125
330
1F
100
AcDbEntity
  8
0
  6
HIDDEN
 62
     7
370
     0
100
AcDbLine
 10
241.6393073231
 20
124.1863870657
 30
0.0
 11
240.5325608905
 21
121.5061928893
 31
0.0
  0
ARC
  5
126
330
1F
100
AcDbEntity
  8
0
  6
HIDDEN
 62
     7
370
     0
100
AcDbCircle
 10
239.331755481
 20
125.1294814374
 30
0.0
 40
2.492834229910237
100
AcDbArc
 50
337.7702094104
 51
154.9273490377
  0
LINE
  5
127
330
1F
100
AcDbEntity
  8
0
  6
HIDDEN
 62
     7
370
     0
100
AcDbLine
 10
235.9670716483
 20
123.5056684397
 30
0.0
 11
237.0738180809
 21
126.1858626161
 31
0.0
  0
LINE
  5
128
330
1F
100
AcDbEntity
  8
0
  6
HIDDEN
 62
     7
370
     0
100
AcDbLine
 10
242.938723204
 20
146.7253475264
 30
0.0
 11
240.7726322129
 21
142.3316281984
 31
0.0
  0
LINE
  5
129
330
1F
100
AcDbEntity
  8
0
  6
HIDDEN
 62
     7
370
     0
100
AcDbLine
 10
240.7726322129
 20
142.3316281984
 30
0.0
 11
238.674293045
 21
141.2383231126
 31
0.0
  0
ARC
  5
12A
330
1F
100
AcDbEntity
  8
0
  6
HIDDEN
 62
     7
370
     0
100
AcDbCircle
 10
236.6214580987
 20
137.8001011447
 30
0.0
 40
2.077862121780029
100
AcDbArc
 50
247.0469489162
 51
297.0117563884
  0
LINE
  5
12B
330
1F
100
AcDbEntity
  8
0
  6
HIDDEN
 62
     7
370
     0
100
AcDbLine
 10
237.5651676241
 20
135.9489060365
 30
0.0
 11
251.98109959
 21
143.4600901077
 31
0.0
  0
ARC
  5
12C
330
1F
100
AcDbEntity
  8
0
  6
HIDDEN
 62
     7
370
     0
100
AcDbCircle
 10
276.0187968625
 20
136.9180593732
 30
0.0
 40
24.91202633867963
100
AcDbArc
 50
164.7752908483
 51
180.0345754969
  0
LINE
  5
12D
330
1F
100
AcDbEntity
  8
0
  6
HIDDEN
 62
     7
370
     0
100
AcDbLine
 10
251.1067750598
 20
132.4966211249
 30
0.0
 11
251.1067750598
 21
136.9030260559
 31
0.0
  0
CIRCLE
  5
12E
330
1F
100
AcDbEntity
  8
0
  6
HIDDEN
 62
     7
370
     0
100
AcDbCircle
 10
178.0449276607
 20
112.3369760729
 30
0.0
 40
4.049999999999997
  0
LINE
  5
12F
330
1F
100
AcDbEntity
  8
0
  6
HIDDEN
 62
     7
370
     0
100
AcDbLine
 10
157.0751561004
 20
127.6499271158
 30
0.0
 11
157.0751561004
 21
97.02402503
 31
0.0
  0
LINE
  5
130
330
1F
100
AcDbEntity
  8
0
  6
HIDDEN
 62
     7
370
     0
100
AcDbLine
 10
155.5449276607
 20
96.1405472285
 30
0.0
 11
155.5449276607
 21
128.5144911624
 31
0.0
  0
LINE
  5
131
330
1F
100
AcDbEntity
  8
0
  6
HIDDEN
 62
     7
370
     0
100
AcDbLine
 10
163.5751561004
 20
126.6833862344
 30
0.0
 11
163.5751561004
 21
97.9905659114
 31
0.0
  0
LINE
  5
132
330
1F
100
AcDbEntity
  8
0
  6
HIDDEN
 62
     7
370
     0
100
AcDbLine
 10
169.3751561004
 20
126.3369760729
 30
0.0
 11
169.3751561004
 21
98.3369760729
 31
0.0
  0
LINE
  5
133
330
1F
100
AcDbEntity
  8
0
  6
HIDDEN
 62
     7
370
     0
100
AcDbLine
 10
161.9751561004
 20
126.3369760729
 30
0.0
 11
161.9751561004
 21
98.3369760729
 31
0.0
  0
LINE
  5
134
330
1F
100
AcDbEntity
  8
0
  6
HIDDEN
 62
     7
370
     0
100
AcDbLine
 10
162.9751561004
 20
126.3369760729
 30
0.0
 11
162.9751561004
 21
98.3369760729
 31
0.0
  0
SPLINE
  5
135
330
1F
100
AcDbEntity
  8
0
  6
HIDDEN
 62
     7
370
     0
100
AcDbSpline
210
0.0
220
0.0
230
1.0
 70
     8
 71
     3
 72
    10
 73
     6
 74
     0
 42
0.00000001
 43
0.00000001
 12
1.0
 22
0.0
 32
0.0
 13
1.0
 23
0.0
 33
0.0
 40
0.0
 40
0.0
 40
0.0
 40
0.0
 40
0.5
 40
0.5
 40
1.0
 40
1.0
 40
1.0
 40
1.0
 10
182.0449276607198
 20
112.971404949949
 30
0.0
 10
182.0780750787962
 20
112.762414348941
 30
0.0
 10
182.0949339241579
 20
112.5508518829194
 30
0.0
 10
182.0949213938102
 20
112.1228631169517
 30
0.0
 10
182.0780064360698
 20
111.911105012536
 30
0.0
 10
182.0449276607198
 20
111.702547195904
 30
0.0
  0
LINE
  5
136
330
1F
100
AcDbEntity
  8
0
  6
HIDDEN
 62
     7
370
     0
100
AcDbLine
 10
182.5449276607
 20
125.8369760729
 30
0.0
 11
182.5449276607
 21
98.8369760729
 31
0.0
  0
SPLINE
  5
137
330
1F
100
AcDbEntity
  8
0
  6
HIDDEN
 62
     7
370
     0
100
AcDbSpline
210
0.0
220
0.0
230
1.0
 70
     8
 71
     3
 72
    10
 73
     6
 74
     0
 42
0.00000001
 43
0.00000001
 12
1.0
 22
0.0
 32
0.0
 13
1.0
 23
0.0
 33
0.0
 40
0.0
 40
0.0
 40
0.0
 40
0.0
 40
0.5
 40
0.5
 40
1.0
 40
1.0
 40
1.0
 40
1.0
 10
182.0449276607198
 20
111.702547195904
 30
0.0
 10
182.0781166231935
 20
111.9117997294864
 30
0.0
 10
182.0948173994481
 20
112.1226164903854
 30
0.0
 10
182.0950368398928
 20
112.5471487715887
 30
0.0
 10
182.0781571244994
 20
112.7618970603613
 30
0.0
 10
182.0449276607198
 20
112.971404949949
 30
0.0
  0
SPLINE
  5
138
330
1F
100
AcDbEntity
  8
0
  6
HIDDEN
 62
     7
370
     0
100
AcDbSpline
210
0.0
220
0.0
230
1.0
 70
     8
 71
     3
 72
    68
 73
    64
 74
     0
 42
0.00000001
 43
0.00000001
 12
1.0
 22
0.0
 32
0.0
 13
1.0
 23
0.0
 33
0.0
 40
0.0
 40
0.0
 40
0.0
 40
0.0
 40
0.03125
 40
0.03125
 40
0.0625
 40
0.0625
 40
0.09375
 40
0.09375
 40
0.125
 40
0.125
 40
0.15625
 40
0.15625
 40
0.1875
 40
0.1875
 40
0.21875
 40
0.21875
 40
0.25
 40
0.25
 40
0.28125
 40
0.28125
 40
0.3125
 40
0.3125
 40
0.34375
 40
0.34375
 40
0.375
 40
0.375
 40
0.40625
 40
0.40625
 40
0.4375
 40
0.4375
 40
0.46875
 40
0.46875
 40
0.5
 40
0.5
 40
0.5625
 40
0.5625
 40
0.59375
 40
0.59375
 40
0.625
 40
0.625
 40
0.65625
 40
0.65625
 40
0.6875
 40
0.6875
 40
0.71875
 40
0.71875
 40
0.75
 40
0.75
 40
0.78125
 40
0.78125
 40
0.8125
 40
0.8125
 40
0.84375
 40
0.84375
 40
0.875
 40
0.875
 40
0.90625
 40
0.90625
 40
0.9375
 40
0.9375
 40
0.96875
 40
0.96875
 40
1.0
 40
1.0
 40
1.0
 40
1.0
 10
182.0449276607198
 20
111.702547195904
 30
0.0
 10
182.0049127083701
 20
111.4502575930884
 30
0.0
 10
181.9419709069588
 20
111.2062587427125
 30
0.0
 10
181.7725842448867
 20
110.73384035365
 30
0.0
 10
181.6648906823012
 20
110.5034269674901
 30
0.0
 10
181.4096059137634
 20
110.068722371693
 30
0.0
 10
181.2635666832911
 20
109.8660804050417
 30
0.0
 10
180.9353452467319
 20
109.4890911142839
 30
0.0
 10
180.7510979589569
 20
109.3134331607065
 30
0.0
 10
180.3581377916486
 20
109.0031751917602
 30
0.0
 10
180.1488431946894
 20
108.8672299841103
 30
0.0
 10
179.7039577677521
 20
108.6338398887045
 30
0.0
 10
179.467160175253
 20
108.5365932822901
 30
0.0
 10
178.9864251063338
 20
108.3899218244187
 30
0.0
 10
178.740182013151
 20
108.3390294794763
 30
0.0
 10
178.2354652331715
 20
108.2835021292408
 30
0.0
 10
177.9792705322351
 20
108.2796772421709
 30
0.0
 10
177.476891783035
 20
108.3191010248153
 30
0.0
 10
177.2276420838514
 20
108.3621284740265
 30
0.0
 10
176.7361142863726
 20
108.4958334434778
 30
0.0
 10
176.5008186851468
 20
108.584503289383
 30
0.0
 10
176.0499047904846
 20
108.8035346531604
 30
0.0
 10
175.8322924400212
 20
108.935536218844
 30
0.0
 10
175.429085270473
 20
109.2348934998469
 30
0.0
 10
175.2434737780385
 20
109.4015124272848
 30
0.0
 10
174.903485707636
 20
109.7686238527122
 30
0.0
 10
174.7484127768131
 20
109.9709275982529
 30
0.0
 10
174.4820697001498
 20
110.395008277847
 30
0.0
 10
174.369085599433
 20
110.6181678833132
 30
0.0
 10
174.1842303425021
 20
111.0875231249073
 30
0.0
 10
174.1130895809987
 20
111.3337336282428
 30
0.0
 10
174.0191291697105
 20
111.828259454614
 30
0.0
 10
173.9951198397542
 20
112.079190449706
 30
0.0
 10
173.9945467190816
 20
112.8434358292622
 30
0.0
 10
174.0899458304002
 20
113.3456601313132
 30
0.0
 10
174.3678096226014
 20
114.0532246375856
 30
0.0
 10
174.4809715786819
 20
114.2769309013264
 30
0.0
 10
174.7471027607257
 20
114.701200812647
 30
0.0
 10
174.9019305349255
 20
114.903452774703
 30
0.0
 10
175.2421116407133
 20
115.2711635160712
 30
0.0
 10
175.427614097663
 20
115.4377803913205
 30
0.0
 10
175.8299078987224
 20
115.736829770116
 30
0.0
 10
176.0479159469744
 20
115.8692864781444
 30
0.0
 10
176.4985143141247
 20
116.0884928788491
 30
0.0
 10
176.7330633130054
 20
116.1769780088527
 30
0.0
 10
177.2215233065577
 20
116.3104642387913
 30
0.0
 10
177.4737887022716
 20
116.3544059512851
 30
0.0
 10
177.9759693404319
 20
116.3942149477586
 30
0.0
 10
178.2284514577836
 20
116.3908707349451
 30
0.0
 10
178.7363165008531
 20
116.3356914149546
 30
0.0
 10
178.9838619740369
 20
116.2846454864851
 30
0.0
 10
179.4648295115076
 20
116.1382350982496
 30
0.0
 10
179.7007893766128
 20
116.0415888934759
 30
0.0
 10
180.1473598261345
 20
115.8076839491629
 30
0.0
 10
180.3570046887079
 20
115.6715589353364
 30
0.0
 10
180.7499913954624
 20
115.3615046710073
 30
0.0
 10
180.9343872992774
 20
115.1858474234322
 30
0.0
 10
181.2629377171378
 20
114.8087075007678
 30
0.0
 10
181.408879813661
 20
114.6062412954979
 30
0.0
 10
181.6637651688631
 20
114.1726649973646
 30
0.0
 10
181.7720764816714
 20
113.941373153783
 30
0.0
 10
181.9419114590884
 20
113.4680134736498
 30
0.0
 10
182.0049068202254
 20
113.223731676829
 30
0.0
 10
182.0449276607198
 20
112.971404949949
 30
0.0
  0
SPLINE
  5
139
330
1F
100
AcDbEntity
  8
0
  6
HIDDEN
 62
     7
370
     0
100
AcDbSpline
210
0.0
220
0.0
230
1.0
 70
     8
 71
     3
 72
    68
 73
    64
 74
     0
 42
0.00000001
 43
0.00000001
 12
1.0
 22
0.0
 32
0.0
 13
1.0
 23
0.0
 33
0.0
 40
0.0
 40
0.0
 40
0.0
 40
0.0
 40
0.03125
 40
0.03125
 40
0.0625
 40
0.0625
 40
0.09375
 40
0.09375
 40
0.125
 40
0.125
 40
0.15625
 40
0.15625
 40
0.1875
 40
0.1875
 40
0.21875
 40
0.21875
 40
0.25
 40
0.25
 40
0.28125
 40
0.28125
 40
0.3125
 40
0.3125
 40
0.34375
 40
0.34375
 40
0.375
 40
0.375
 40
0.40625
 40
0.40625
 40
0.4375
 40
0.4375
 40
0.46875
 40
0.46875
 40
0.5
 40
0.5
 40
0.5625
 40
0.5625
 40
0.59375
 40
0.59375
 40
0.625
 40
0.625
 40
0.65625
 40
0.65625
 40
0.6875
 40
0.6875
 40
0.71875
 40
0.71875
 40
0.75
 40
0.75
 40
0.78125
 40
0.78125
 40
0.8125
 40
0.8125
 40
0.84375
 40
0.84375
 40
0.875
 40
0.875
 40
0.90625
 40
0.90625
 40
0.9375
 40
0.9375
 40
0.96875
 40
0.96875
 40
1.0
 40
1.0
 40
1.0
 40
1.0
 10
182.0449276607198
 20
112.971404949949
 30
0.0
 10
182.0049127083701
 20
113.2236945527646
 30
0.0
 10
181.9419709069588
 20
113.4676934031404
 30
0.0
 10
181.7725842448867
 20
113.9401117922029
 30
0.0
 10
181.6648906823012
 20
114.1705251783628
 30
0.0
 10
181.4096059137634
 20
114.6052297741599
 30
0.0
 10
181.2635666832911
 20
114.8078717408112
 30
0.0
 10
180.9353452467319
 20
115.1848610315691
 30
0.0
 10
180.7510979589569
 20
115.3605189851464
 30
0.0
 10
180.3581377916486
 20
115.6707769540927
 30
0.0
 10
180.1488431946894
 20
115.8067221617426
 30
0.0
 10
179.7039577677521
 20
116.0401122571484
 30
0.0
 10
179.467160175253
 20
116.1373588635628
 30
0.0
 10
178.9864251063338
 20
116.2840303214342
 30
0.0
 10
178.740182013151
 20
116.3349226663766
 30
0.0
 10
178.2354652331715
 20
116.3904500166121
 30
0.0
 10
177.9792705322351
 20
116.394274903682
 30
0.0
 10
177.476891783035
 20
116.3548511210376
 30
0.0
 10
177.2276420838514
 20
116.3118236718264
 30
0.0
 10
176.7361142863726
 20
116.1781187023751
 30
0.0
 10
176.5008186851468
 20
116.0894488564699
 30
0.0
 10
176.0499047904846
 20
115.8704174926925
 30
0.0
 10
175.8322924400212
 20
115.7384159270089
 30
0.0
 10
175.429085270473
 20
115.439058646006
 30
0.0
 10
175.2434737780385
 20
115.2724397185682
 30
0.0
 10
174.903485707636
 20
114.9053282931407
 30
0.0
 10
174.7484127768131
 20
114.7030245476
 30
0.0
 10
174.4820697001498
 20
114.278943868006
 30
0.0
 10
174.369085599433
 20
114.0557842625398
 30
0.0
 10
174.1842303425021
 20
113.5864290209456
 30
0.0
 10
174.1130895809987
 20
113.3402185176101
 30
0.0
 10
174.0191291697105
 20
112.8456926912389
 30
0.0
 10
173.9951198397542
 20
112.5947616961469
 30
0.0
 10
173.9945467190816
 20
111.8305163165907
 30
0.0
 10
174.0899458304002
 20
111.3282920145397
 30
0.0
 10
174.3678096226014
 20
110.6207275082674
 30
0.0
 10
174.4809715786819
 20
110.3970212445266
 30
0.0
 10
174.7471027607257
 20
109.972751333206
 30
0.0
 10
174.9019305349255
 20
109.7704993711499
 30
0.0
 10
175.2421116407133
 20
109.4027886297817
 30
0.0
 10
175.427614097663
 20
109.2361717545324
 30
0.0
 10
175.8299078987224
 20
108.937122375737
 30
0.0
 10
176.0479159469744
 20
108.8046656677085
 30
0.0
 10
176.4985143141247
 20
108.5854592670039
 30
0.0
 10
176.7330633130054
 20
108.4969741370002
 30
0.0
 10
177.2215233065577
 20
108.3634879070616
 30
0.0
 10
177.4737887022716
 20
108.3195461945678
 30
0.0
 10
177.9759693404319
 20
108.2797371980944
 30
0.0
 10
178.2284514577836
 20
108.2830814109079
 30
0.0
 10
178.7363165008531
 20
108.3382607308984
 30
0.0
 10
178.9838619740369
 20
108.3893066593678
 30
0.0
 10
179.4648295115076
 20
108.5357170476034
 30
0.0
 10
179.7007893766128
 20
108.632363252377
 30
0.0
 10
180.1473598261345
 20
108.86626819669
 30
0.0
 10
180.3570046887079
 20
109.0023932105165
 30
0.0
 10
180.7499913954624
 20
109.3124474748456
 30
0.0
 10
180.9343872992774
 20
109.4881047224207
 30
0.0
 10
181.2629377171378
 20
109.8652446450852
 30
0.0
 10
181.408879813661
 20
110.067710850355
 30
0.0
 10
181.6637651688631
 20
110.5012871484883
 30
0.0
 10
181.7720764816714
 20
110.7325789920699
 30
0.0
 10
181.9419114590884
 20
111.2059386722031
 30
0.0
 10
182.0049068202254
 20
111.4502204690239
 30
0.0
 10
182.0449276607198
 20
111.702547195904
 30
0.0
  0
ARC
  5
13A
330
1F
100
AcDbEntity
  8
0
  6
HIDDEN
 62
     7
370
     0
100
AcDbCircle
 10
238.1799290279
 20
122.4422267801
 30
0.0
 40
1.994100686870376
100
AcDbArc
 50
157.5619284053
 51
335.1356300429
  0
LINE
  5
13B
330
1F
100
AcDbEntity
  8
0
  6
HIDDEN
 62
     7
370
     0
100
AcDbLine
 10
237.4435429163
 20
125.8835385386
 30
0.0
 11
236.3367964837
 21
123.2033443622
 31
0.0
  0
ARC
  5
13C
330
1F
100
AcDbEntity
  8
0
  6
HIDDEN
 62
     7
370
     0
100
AcDbCircle
 10
237.5721604061
 20
121.7255911224
 30
0.0
 40
1.994100686870433
100
AcDbArc
 50
157.5619284053
 51
335.1356300429
  0
LINE
  5
13D
330
1F
100
AcDbEntity
  8
0
  6
HIDDEN
 62
     7
370
     0
100
AcDbLine
 10
239.9891878775
 20
121.6037639218
 30
0.0
 11
241.0959343101
 21
124.2839580982
 31
0.0
  0
LINE
  5
13E
330
1F
100
AcDbEntity
  8
0
  6
HIDDEN
 62
     7
370
     0
100
AcDbLine
 10
183.7949276607
 20
121.3369760729
 30
0.0
 11
183.7949276607
 21
103.3369760729
 31
0.0
  0
LINE
  5
13F
330
1F
100
AcDbEntity
  8
0
  6
HIDDEN
 62
     7
370
     0
100
AcDbLine
 10
182.5449276607
 20
102.0869760729
 30
0.0
 11
182.5449276607
 21
122.5869760729
 31
0.0
  0
ARC
  5
140
330
1F
100
AcDbEntity
  8
0
  6
HIDDEN
 62
     7
370
     0
100
AcDbCircle
 10
239.2528017658
 20
125.0450756803
 30
0.0
 40
1.994100686870439
100
AcDbArc
 50
337.5619284053
 51
155.1356300429
  0
LINE
  5
141
330
1F
100
AcDbEntity
  8
0
  6
HIDDEN
 62
     7
370
     0
100
AcDbLine
 10
239.3814192556
 20
120.8871282641
 30
0.0
 11
240.4881656882
 21
123.5673224405
 31
0.0
  0
LINE
  5
142
330
1F
100
AcDbEntity
  8
0
  6
HIDDEN
 62
     7
370
     0
100
AcDbLine
 10
251.1067750598
 20
114.7685389468
 30
0.0
 11
243.6372657864
 21
105.9610479073
 31
0.0
  0
ARC
  5
143
330
1F
100
AcDbEntity
  8
0
  6
HIDDEN
 62
     7
370
     0
100
AcDbCircle
 10
238.645033144
 20
124.3284400226
 30
0.0
 40
1.994100686870418
100
AcDbArc
 50
337.5619284053
 51
155.1356300429
  0
LINE
  5
144
330
1F
100
AcDbEntity
  8
0
  6
HIDDEN
 62
     7
370
     0
100
AcDbLine
 10
220.5449276607
 20
103.3369760729
 30
0.0
 11
220.5449276607
 21
121.3369760729
 31
0.0
  0
SPLINE
  5
145
330
1F
100
AcDbEntity
  8
0
  6
HIDDEN
 62
     7
370
     0
100
AcDbSpline
210
0.0
220
0.0
230
1.0
 70
     8
 71
     3
 72
     8
 73
     4
 74
     0
 42
0.00000001
 43
0.00000001
 12
1.0
 22
0.0
 32
0.0
 13
1.0
 23
0.0
 33
0.0
 40
0.0
 40
0.0
 40
0.0
 40
0.0
 40
1.0
 40
1.0
 40
1.0
 40
1.0
 10
220.5449276607198
 20
120.2699316146876
 30
0.0
 10
220.5171635910091
 20
120.1800595293847
 30
0.0
 10
220.5171635910091
 20
120.0849637172812
 30
0.0
 10
220.5449276607198
 20
119.9846441783771
 30
0.0
  0
SPLINE
  5
146
330
1F
100
AcDbEntity
  8
0
  6
HIDDEN
 62
     7
370
     0
100
AcDbSpline
210
0.0
220
0.0
230
1.0
 70
     8
 71
     3
 72
    62
 73
    58
 74
     0
 42
0.00000001
 43
0.00000001
 12
1.0
 22
0.0
 32
0.0
 13
1.0
 23
0.0
 33
0.0
 40
0.0
 40
0.0
 40
0.0
 40
0.0
 40
0.0312499999999999
 40
0.0312499999999999
 40
0.0624999999999998
 40
0.0624999999999998
 40
0.0937499999999996
 40
0.0937499999999996
 40
0.1249999999999995
 40
0.1249999999999995
 40
0.1562499999999994
 40
0.1562499999999994
 40
0.1874999999999993
 40
0.1874999999999993
 40
0.2499999999999989
 40
0.2499999999999989
 40
0.3124999999999985
 40
0.3124999999999985
 40
0.3437499999999984
 40
0.3437499999999984
 40
0.3749999999999983
 40
0.3749999999999983
 40
0.4062499999999981
 40
0.4062499999999981
 40
0.437499999999998
 40
0.437499999999998
 40
0.499999999999998
 40
0.499999999999998
 40
0.531249999999998
 40
0.531249999999998
 40
0.5624999999999981
 40
0.5624999999999981
 40
0.5937499999999982
 40
0.5937499999999982
 40
0.6249999999999983
 40
0.6249999999999983
 40
0.6562499999999984
 40
0.6562499999999984
 40
0.6874999999999986
 40
0.6874999999999986
 40
0.7499999999999989
 40
0.7499999999999989
 40
0.781249999999999
 40
0.781249999999999
 40
0.8124999999999991
 40
0.8124999999999991
 40
0.8437499999999992
 40
0.8437499999999992
 40
0.8749999999999993
 40
0.8749999999999993
 40
0.9062499999999994
 40
0.9062499999999994
 40
0.9374999999999996
 40
0.9374999999999996
 40
0.9687499999999997
 40
0.9687499999999997
 40
1.0
 40
1.0
 40
1.0
 40
1.0
 10
220.5449276607198
 20
119.9846441783771
 30
0.0
 10
220.5523471508178
 20
119.8900001075749
 30
0.0
 10
220.5657913529291
 20
119.7853978383912
 30
0.0
 10
220.6043629351454
 20
119.5573786730272
 30
0.0
 10
220.6298410161316
 20
119.4325393449396
 30
0.0
 10
220.6917769816862
 20
119.1706702210483
 30
0.0
 10
220.7279468776185
 20
119.0344442789484
 30
0.0
 10
220.8110251363144
 20
118.7519739670515
 30
0.0
 10
220.8583789927105
 20
118.6046334916638
 30
0.0
 10
220.9610516434635
 20
118.3115162822936
 30
0.0
 10
221.0166656382341
 20
118.1645356694553
 30
0.0
 10
221.137407133437
 20
117.8701042888547
 30
0.0
 10
221.2023047201802
 20
117.7234939378932
 30
0.0
 10
221.4050858360179
 20
117.3010279690058
 30
0.0
 10
221.5563633661679
 20
117.0323259224025
 30
0.0
 10
221.8703502790324
 20
116.5741825008584
 30
0.0
 10
222.037287977854
 20
116.379231803269
 30
0.0
 10
222.2799068221654
 20
116.1685631142957
 30
0.0
 10
222.3610774425713
 20
116.1103793657876
 30
0.0
 10
222.5163799518853
 20
116.0231626163187
 30
0.0
 10
222.5904567280522
 20
115.9938056869287
 30
0.0
 10
222.7301028025541
 20
115.962451036803
 30
0.0
 10
222.7958581291095
 20
115.9607987432162
 30
0.0
 10
222.9112657674605
 20
115.9841278312893
 30
0.0
 10
222.9616978179868
 20
116.0087983488326
 30
0.0
 10
223.0873327833498
 20
116.120412024497
 30
0.0
 10
223.1329005119333
 20
116.2415678341878
 30
0.0
 10
223.1327980977845
 20
116.4816136122301
 30
0.0
 10
223.1214998587859
 20
116.5695038410662
 30
0.0
 10
223.0778724452967
 20
116.7609490241792
 30
0.0
 10
223.0450411516086
 20
116.8657436947135
 30
0.0
 10
222.961462004219
 20
117.0865661471038
 30
0.0
 10
222.911078071598
 20
117.2022131056592
 30
0.0
 10
222.7954588201684
 20
117.4454962480105
 30
0.0
 10
222.7296401762719
 20
117.5741077467984
 30
0.0
 10
222.5902556066201
 20
117.8344555821925
 30
0.0
 10
222.5162000989587
 20
117.9673099854061
 30
0.0
 10
222.3606232808291
 20
118.2394511038558
 30
0.0
 10
222.2796729338594
 20
118.3776696174115
 30
0.0
 10
222.0370376761183
 20
118.7848728445498
 30
0.0
 10
221.8701374422559
 20
119.0559083789076
 30
0.0
 10
221.6341959857547
 20
119.4234902143685
 30
0.0
 10
221.5564092115382
 20
119.541808640863
 30
0.0
 10
221.4077155446329
 20
119.7606101518599
 30
0.0
 10
221.3369104821878
 20
119.8610267707159
 30
0.0
 10
221.2013390430094
 20
120.0437643564856
 30
0.0
 10
221.1362085945507
 20
120.1264148768574
 30
0.0
 10
221.0161359460946
 20
120.2664624818819
 30
0.0
 10
220.960561998102
 20
120.324791695369
 30
0.0
 10
220.857602508046
 20
120.4171652976002
 30
0.0
 10
220.8104537721422
 20
120.4507628125784
 30
0.0
 10
220.7277118529506
 20
120.4898575624109
 30
0.0
 10
220.691545401136
 20
120.495925904161
 30
0.0
 10
220.62948141755
 20
120.4794709513704
 30
0.0
 10
220.6042350261174
 20
120.4568706403546
 30
0.0
 10
220.5657843124868
 20
120.3843765378682
 30
0.0
 10
220.5523479887255
 20
120.3344424993148
 30
0.0
 10
220.5449276607198
 20
120.2699316146876
 30
0.0
  0
ARC
  5
147
330
1F
100
AcDbEntity
  8
0
  6
HIDDEN
 62
     7
370
     0
100
AcDbCircle
 10
235.2590670588
 20
136.2311261164
 30
0.0
 40
2.090207060130561
100
AcDbArc
 50
120.0164196937
 51
297.9421378337
  0
LWPOLYLINE
  5
148
330
1F
100
AcDbEntity
  8
0
  6
HIDDEN
 62
     7
370
     0
100
AcDbPolyline
 90
       29
 70
   128
 43
0.0
 10
242.3511247666
 20
136.3333508109
 10
243.0304598236
 20
136.2324210605
 10
243.6757301842
 20
135.9845022934
 10
244.254579298
 20
135.6020261918
 10
244.7379812536
 20
135.1041717046
 10
245.1016962582
 20
134.5159033347
 10
245.3274861229
 20
133.8667193144
 10
245.4040288009
 20
133.1891724413
 10
245.3274861229
 20
132.5172377449
 10
245.1016962582
 20
131.8846088365
 10
244.7379812536
 20
131.3230083713
 10
244.254579298
 20
130.8605973415
 10
243.6757301842
 20
130.5205629672
 10
243.0304598236
 20
130.3199559917
 10
242.3511247666
 20
130.2688356864
 10
241.6717897096
 20
130.3697654368
 10
241.026519349
 20
130.6176842039
 10
240.4476702351
 20
131.0001603055
 10
239.9642682796
 20
131.4980147927
 10
239.600553275
 20
132.0862831626
 10
239.3747634103
 20
132.7354671829
 10
239.2982207322
 20
133.4130140559
 10
239.3747634103
 20
134.0849487524
 10
239.600553275
 20
134.7175776608
 10
239.9642682796
 20
135.279178126
 10
240.4476702351
 20
135.7415891558
 10
241.026519349
 20
136.0816235301
 10
241.6717897096
 20
136.2822305056
 10
242.3511247666
 20
136.3333508109
  0
LINE
  5
149
330
1F
100
AcDbEntity
  8
0
  6
HIDDEN
 62
     7
370
     0
100
AcDbLine
 10
231.6965025108
 20
114.9377475524
 30
0.0
 11
231.6965025108
 21
89.350372439
 31
0.0
  0
SPLINE
  5
14A
330
1F
100
AcDbEntity
  8
0
  6
HIDDEN
 62
     7
370
     0
100
AcDbSpline
210
0.0
220
0.0
230
1.0
 70
     8
 71
     3
 72
     9
 73
     5
 74
     0
 42
0.00000001
 43
0.00000001
 12
1.0
 22
0.0
 32
0.0
 13
1.0
 23
0.0
 33
0.0
 40
0.0
 40
0.0
 40
0.0
 40
0.0
 40
0.5
 40
1.0
 40
1.0
 40
1.0
 40
1.0
 10
231.7435264990299
 20
116.2731860986292
 30
0.0
 10
231.7362452899767
 20
116.0506073349118
 30
0.0
 10
231.72044945661
 20
115.6054623888235
 30
0.0
 10
231.704242848734
 20
115.1603216328053
 30
0.0
 10
231.6965025107827
 20
114.9377475523928
 30
0.0
  0
SPLINE
  5
14B
330
1F
100
AcDbEntity
  8
0
  6
HIDDEN
 62
     7
370
     0
100
AcDbSpline
210
0.0
220
0.0
230
1.0
 70
     8
 71
     3
 72
    10
 73
     6
 74
     0
 42
0.00000001
 43
0.00000001
 12
1.0
 22
0.0
 32
0.0
 13
1.0
 23
0.0
 33
0.0
 40
0.0
 40
0.0
 40
0.0
 40
0.0
 40
0.5
 40
0.5
 40
1.0
 40
1.0
 40
1.0
 40
1.0
 10
231.7435264990295
 20
143.5685524783364
 30
0.0
 10
231.7318332572113
 20
143.6899458441473
 30
0.0
 10
231.7234937845872
 20
143.8127103928672
 30
0.0
 10
231.7235577690961
 20
144.0616889666918
 30
0.0
 10
231.731919876971
 20
144.1878216040541
 30
0.0
 10
231.7435264990299
 20
144.3148584287218
 30
0.0
  0
SPLINE
  5
14C
330
1F
100
AcDbEntity
  8
0
  6
HIDDEN
 62
     7
370
     0
100
AcDbSpline
210
0.0
220
0.0
230
1.0
 70
     8
 71
     3
 72
    12
 73
     8
 74
     0
 42
0.00000001
 43
0.00000001
 12
1.0
 22
0.0
 32
0.0
 13
1.0
 23
0.0
 33
0.0
 40
0.0
 40
0.0
 40
0.0
 40
0.0
 40
0.2499999999999994
 40
0.2499999999999994
 40
0.4999999999999989
 40
0.4999999999999989
 40
1.0
 40
1.0
 40
1.0
 40
1.0
 10
231.696502510783
 20
89.35037243902296
 30
0.0
 10
231.6501173075046
 20
89.27935415194302
 30
0.0
 10
231.5912967273567
 20
89.19168051979292
 30
0.0
 10
231.4595982059707
 20
88.99750550284908
 30
0.0
 10
231.3861322127853
 20
88.89018888582511
 30
0.0
 10
231.1512986582338
 20
88.54923825206927
 30
0.0
 10
230.9764853309392
 20
88.29781082786911
 30
0.0
 10
230.7776006727408
 20
88.01457373154103
 30
0.0
  0
LINE
  5
14D
330
1F
100
AcDbEntity
  8
0
  6
HIDDEN
 62
     7
370
     0
100
AcDbLine
 10
239.4459601355
 20
140.7673149341
 30
0.0
 11
240.7726322129
 21
142.3316281984
 31
0.0
  0
LINE
  5
14E
330
1F
100
AcDbEntity
  8
0
  6
HIDDEN
 62
     7
370
     0
100
AcDbLine
 10
234.2134448165
 20
138.0409989519
 30
0.0
 11
234.514059058
 21
138.1976290545
 31
0.0
  0
LINE
  5
14F
330
1F
100
AcDbEntity
  8
0
  6
HIDDEN
 62
     7
370
     0
100
AcDbLine
 10
237.8812596115
 20
139.9520534803
 30
0.0
 11
239.4459601355
 21
140.7673149341
 31
0.0
  0
LINE
  5
150
330
1F
100
AcDbEntity
  8
0
  6
HIDDEN
 62
     7
370
     0
100
AcDbLine
 10
236.8357742944
 20
125.1669028809
 30
0.0
 11
235.7290278619
 21
122.4867087045
 31
0.0
  0
LINE
  5
151
330
1F
100
AcDbEntity
  8
0
  6
HIDDEN
 62
     7
370
     0
100
AcDbLine
 10
231.743526499
 20
144.3148584287
 30
0.0
 11
231.9158759565
 21
145.1389181988
 31
0.0
  0
LINE
  5
152
330
1F
100
AcDbEntity
  8
0
  6
HIDDEN
 62
     7
370
     0
100
AcDbLine
 10
250.6544275126
 20
141.8957768434
 30
0.0
 11
251.98109959
 21
143.4600901077
 31
0.0
  0
LWPOLYLINE
  5
153
330
1F
100
AcDbEntity
  8
0
  6
HIDDEN
 62
     7
370
     0
100
AcDbPolyline
 90
       26
 70
   128
 43
0.0
 10
242.2885217557
 20
135.6726454256
 10
242.9008010781
 20
135.5733732319
 10
243.4746086389
 20
135.3266871474
 10
243.9738899987
 20
134.9480873661
 10
244.3672734735
 20
134.4613627045
 10
244.6300413327
 20
133.8970958633
 10
244.7456829053
 20
133.2907418033
 10
244.7069320062
 20
132.68039998
 10
244.5162234967
 20
132.104420415
 10
244.1855402939
 20
131.5989940226
 10
243.7356604396
 20
131.1958786019
 10
243.1948515396
 20
130.9204033773
 10
242.597094606
 20
130.7898774703
 10
241.9799489054
 20
130.8125023036
 10
241.3821919718
 20
130.9868562759
 10
240.8413830718
 20
131.3019840857
 10
240.3915032175
 20
131.7380850939
 10
240.0608200147
 20
132.2677574702
 10
239.8701115052
 20
132.8577199512
 10
239.831360606
 20
133.4709030245
 10
239.9470021787
 20
134.0687781425
 10
240.2097700379
 20
134.6137786127
 10
240.6031535126
 20
135.0716600511
 10
241.1024348724
 20
135.4136520831
 10
241.6762424332
 20
135.6182660915
 10
242.2885217557
 20
135.6726454256
  0
LINE
  5
154
330
1F
100
AcDbEntity
  8
0
  6
HIDDEN
 62
     7
370
     0
100
AcDbLine
 10
243.1111538865
 20
148.201828392
 30
0.0
 11
244.4378259639
 21
149.7661416562
 31
0.0
  0
SPLINE
  5
155
330
1F
100
AcDbEntity
  8
0
  6
HIDDEN
 62
     7
370
     0
100
AcDbSpline
210
0.0
220
0.0
230
1.0
 70
     8
 71
     3
 72
     8
 73
     4
 74
     0
 42
0.00000001
 43
0.00000001
 12
1.0
 22
0.0
 32
0.0
 13
1.0
 23
0.0
 33
0.0
 40
0.0
 40
0.0
 40
0.0
 40
0.0
 40
1.0
 40
1.0
 40
1.0
 40
1.0
 10
242.2125619413995
 20
129.3824205783028
 30
0.0
 10
242.3262188401771
 20
129.5541220789994
 30
0.0
 10
242.4530013744267
 20
129.7680683343043
 30
0.0
 10
242.5662714615525
 20
130.0131418636251
 30
0.0
  0
SPLINE
  5
156
330
1F
100
AcDbEntity
  8
0
  6
HIDDEN
 62
     7
370
     0
100
AcDbSpline
210
0.0
220
0.0
230
1.0
 70
     8
 71
     3
 72
    24
 73
    20
 74
     0
 42
0.00000001
 43
0.00000001
 12
1.0
 22
0.0
 32
0.0
 13
1.0
 23
0.0
 33
0.0
 40
0.0
 40
0.0
 40
0.0
 40
0.0
 40
0.1249999999999979
 40
0.1249999999999979
 40
0.2499999999999958
 40
0.2499999999999958
 40
0.3749999999999937
 40
0.3749999999999937
 40
0.4999999999999916
 40
0.4999999999999916
 40
0.5624999999999926
 40
0.5624999999999926
 40
0.6249999999999937
 40
0.6249999999999937
 40
0.7499999999999958
 40
0.7499999999999958
 40
0.8749999999999979
 40
0.8749999999999979
 40
1.0
 40
1.0
 40
1.0
 40
1.0
 10
242.5662714615525
 20
130.013141863625
 30
0.0
 10
242.6290571521572
 20
130.1950697184485
 30
0.0
 10
242.6739513060172
 20
130.3801027793629
 30
0.0
 10
242.7262878962797
 20
130.7584316524083
 30
0.0
 10
242.7334054462968
 20
130.9542063559191
 30
0.0
 10
242.7025681158682
 20
131.340788279563
 30
0.0
 10
242.6649718280163
 20
131.5330823820895
 30
0.0
 10
242.538783588878
 20
131.9084111489911
 30
0.0
 10
242.4528248992058
 20
132.0842378467564
 30
0.0
 10
242.2879216745091
 20
132.3293616324391
 30
0.0
 10
242.2263211945475
 20
132.4084576907338
 30
0.0
 10
242.094819838356
 20
132.5549343909589
 30
0.0
 10
242.0246495431209
 20
132.6229013791696
 30
0.0
 10
241.8013843954607
 20
132.8116548220857
 30
0.0
 10
241.6343099742769
 20
132.917318998327
 30
0.0
 10
241.2864044907722
 20
133.080611844548
 30
0.0
 10
241.1015898646524
 20
133.1404207991644
 30
0.0
 10
240.7289178204444
 20
133.2168241934833
 30
0.0
 10
240.5399837829038
 20
133.2343697834028
 30
0.0
 10
240.3475293761585
 20
133.23289781445
 30
0.0
  0
SPLINE
  5
157
330
1F
100
AcDbEntity
  8
0
  6
HIDDEN
 62
     7
370
     0
100
AcDbSpline
210
0.0
220
0.0
230
1.0
 70
     8
 71
     3
 72
     8
 73
     4
 74
     0
 42
0.00000001
 43
0.00000001
 12
1.0
 22
0.0
 32
0.0
 13
1.0
 23
0.0
 33
0.0
 40
0.0
 40
0.0
 40
0.0
 40
0.0
 40
1.0
 40
1.0
 40
1.0
 40
1.0
 10
240.3475293761587
 20
133.23289781445
 30
0.0
 10
240.1331148746748
 20
133.1832003577559
 30
0.0
 10
239.9352862190395
 20
133.1131494557827
 30
0.0
 10
239.7648707141723
 20
133.0356785796157
 30
0.0
  0
SPLINE
  5
158
330
1F
100
AcDbEntity
  8
0
  6
HIDDEN
 62
     7
370
     0
100
AcDbSpline
210
0.0
220
0.0
230
1.0
 70
     8
 71
     3
 72
    44
 73
    40
 74
     0
 42
0.00000001
 43
0.00000001
 12
1.0
 22
0.0
 32
0.0
 13
1.0
 23
0.0
 33
0.0
 40
0.0
 40
0.0
 40
0.0
 40
0.0
 40
0.0625000000000003
 40
0.0625000000000003
 40
0.0937500000000004
 40
0.0937500000000004
 40
0.1250000000000006
 40
0.1250000000000006
 40
0.1562500000000007
 40
0.1562500000000007
 40
0.1875000000000008
 40
0.1875000000000008
 40
0.218750000000001
 40
0.218750000000001
 40
0.2500000000000011
 40
0.2500000000000011
 40
0.3125000000000011
 40
0.3125000000000011
 40
0.3750000000000011
 40
0.3750000000000011
 40
0.4375000000000011
 40
0.4375000000000011
 40
0.5000000000000009
 40
0.5000000000000009
 40
0.5625000000000007
 40
0.5625000000000007
 40
0.6250000000000006
 40
0.6250000000000006
 40
0.6875000000000003
 40
0.6875000000000003
 40
0.7500000000000002
 40
0.7500000000000002
 40
0.8125000000000001
 40
0.8125000000000001
 40
0.8750000000000001
 40
0.8750000000000001
 40
0.9375
 40
0.9375
 40
1.0
 40
1.0
 40
1.0
 40
1.0
 10
239.7648707141721
 20
133.0356785796157
 30
0.0
 10
239.5799283675451
 20
132.9982145963789
 30
0.0
 10
239.3991067979248
 20
132.9447662119182
 30
0.0
 10
239.1282076847841
 20
132.8397255911311
 30
0.0
 10
239.0380154278149
 20
132.80049933525
 30
0.0
 10
238.8585119315582
 20
132.71354515944
 30
0.0
 10
238.7677066518477
 20
132.6650078855932
 30
0.0
 10
238.5923809599072
 20
132.5614715657094
 30
0.0
 10
238.5067497751689
 20
132.5056255438286
 30
0.0
 10
238.3581273780214
 20
132.3980825078514
 30
0.0
 10
238.2935149951058
 20
132.3454355535931
 30
0.0
 10
238.1827582912925
 20
132.2444160649019
 30
0.0
 10
238.1348019030553
 20
132.1945367826607
 30
0.0
 10
238.0500017184935
 20
132.0948622305623
 30
0.0
 10
238.012925461551
 20
132.0448566744322
 30
0.0
 10
237.913026057523
 20
131.8909648313722
 30
0.0
 10
237.8613292020951
 20
131.7831951682647
 30
0.0
 10
237.7823592051359
 20
131.5487651532725
 30
0.0
 10
237.7559043565172
 20
131.4232995557107
 30
0.0
 10
237.7307793716416
 20
131.1565073566216
 30
0.0
 10
237.7317988106682
 20
131.0145857422717
 30
0.0
 10
237.7673030814814
 20
130.7072404659043
 30
0.0
 10
237.8018773097782
 20
130.5442271097864
 30
0.0
 10
237.9096644861053
 20
130.2060596184891
 30
0.0
 10
237.9839713540551
 20
130.0291450969892
 30
0.0
 10
238.1680976437998
 20
129.6833625454519
 30
0.0
 10
238.2814317545344
 20
129.5087195782952
 30
0.0
 10
238.5292627241933
 20
129.1893507338731
 30
0.0
 10
238.6669714542649
 20
129.0399927345472
 30
0.0
 10
238.9459735838292
 20
128.7801281661776
 30
0.0
 10
239.0901300204191
 20
128.6665653228003
 30
0.0
 10
239.3691770887663
 20
128.4768630643326
 30
0.0
 10
239.5065838582423
 20
128.3985917293891
 30
0.0
 10
239.7726224933519
 20
128.2703186289937
 30
0.0
 10
239.8986917422493
 20
128.2214788061346
 30
0.0
 10
240.1370048502975
 20
128.1463142290432
 30
0.0
 10
240.2497364925098
 20
128.1201924605
 30
0.0
 10
240.4540848091307
 20
128.0835950085856
 30
0.0
 10
240.5460472400622
 20
128.0742914987008
 30
0.0
 10
240.6106726601973
 20
128.0620423476667
 30
0.0
  0
ARC
  5
159
330
1F
100
AcDbEntity
  8
0
  6
HIDDEN
 62
     7
370
     0
100
AcDbCircle
 10
240.0415026823
 20
130.3336132109
 30
0.0
 40
2.341791760659784
100
AcDbArc
 50
284.0665607279
 51
325.8157085831
  0
SPLINE
  5
15A
330
1F
100
AcDbEntity
  8
0
  6
HIDDEN
 62
     7
370
     0
100
AcDbSpline
210
0.0
220
0.0
230
1.0
 70
     8
 71
     3
 72
     8
 73
     4
 74
     0
 42
0.00000001
 43
0.00000001
 12
1.0
 22
0.0
 32
0.0
 13
1.0
 23
0.0
 33
0.0
 40
0.0
 40
0.0
 40
0.0
 40
0.0
 40
1.0
 40
1.0
 40
1.0
 40
1.0
 10
241.9787139641857
 20
129.0178620567738
 30
0.0
 10
242.0580469514713
 20
129.1274483062631
 30
0.0
 10
242.13842398161
 20
129.2504419811879
 30
0.0
 10
242.2125619413995
 20
129.3824205783028
 30
0.0
  0
LWPOLYLINE
  5
15B
330
1F
100
AcDbEntity
  8
0
  6
HIDDEN
 62
     7
370
     0
100
AcDbPolyline
 90
       28
 70
   128
 43
0.0
 10
246.4067485789
 20
143.0791314696
 10
246.9945367285
 20
142.9838301637
 10
247.582324878
 20
143.0360343244
 10
248.1331801364
 20
143.2324637725
 10
248.6124902418
 20
143.5607761232
 10
248.9901383776
 20
144.0003423041
 10
249.2423955224
 20
144.5235427555
 10
249.3534114322
 20
145.0975028688
 10
249.316210569
 20
145.6861586192
 10
249.2952144381
 20
145.7848551196
 10
249.1331303998
 20
146.2525226009
 10
249.0985940459
 20
146.3236554404
 10
248.8156745252
 20
146.7610080822
 10
248.383789865
 20
147.17966505
 10
247.864613321
 20
147.4821877474
 10
247.2907666648
 20
147.6495675608
 10
246.6983067922
 20
147.6712874008
 10
246.1244601359
 20
147.5459825301
 10
245.6052835919
 20
147.2815263144
 10
245.1733989318
 20
146.8945355106
 10
244.8559430571
 20
146.4093261739
 10
244.672862888
 20
145.8563857914
 10
244.6356620248
 20
145.2704576411
 10
244.7466779345
 20
144.6883577435
 10
244.9989350794
 20
144.1466615759
 10
245.3765832151
 20
143.6794059008
 10
245.8558933206
 20
143.3159501107
 10
246.4067485789
 20
143.0791314696
  0
LINE
  5
15C
330
1F
100
AcDbEntity
  8
0
  6
HIDDEN
 62
     7
370
     0
100
AcDbLine
 10
256.5588097273
 20
154.8867914561
 30
0.0
 11
256.3428859215
 21
155.0960045806
 31
0.0
  0
LINE
  5
15D
330
1F
100
AcDbEntity
  8
0
  6
HIDDEN
 62
     7
370
     0
100
AcDbLine
 10
252.3103462405
 20
146.2691681833
 30
0.0
 11
256.5588097273
 21
154.8867914561
 31
0.0
  0
LINE
  5
15E
330
1F
100
AcDbEntity
  8
0
  6
HIDDEN
 62
     7
370
     0
100
AcDbLine
 10
243.1111538865
 20
148.201828392
 30
0.0
 11
256.3428859215
 21
155.0960045806
 31
0.0
  0
ARC
  5
15F
330
1F
100
AcDbEntity
  8
0
  6
HIDDEN
 62
     7
370
     0
100
AcDbCircle
 10
274.2200017034
 20
135.4732172935
 30
0.0
 40
24.4251009848011
100
AcDbArc
 50
153.7682940996
 51
164.7548734839
  0
LINE
  5
160
330
1F
100
AcDbEntity
  8
0
  6
HIDDEN
 62
     7
370
     0
100
AcDbLine
 10
243.1111538865
 20
148.201828392
 30
0.0
 11
239.4459601355
 21
140.7673149341
 31
0.0
  0
LINE
  5
161
330
1F
100
AcDbEntity
  8
0
  6
HIDDEN
 62
     7
370
     0
100
AcDbLine
 10
236.2384955467
 20
134.3845927722
 30
0.0
 11
250.6544275126
 21
141.8957768434
 31
0.0
  0
SPLINE
  5
162
330
1F
100
AcDbEntity
  8
0
  6
HIDDEN
 62
     7
370
     0
100
AcDbSpline
210
0.0
220
0.0
230
1.0
 70
     8
 71
     3
 72
    10
 73
     6
 74
     0
 42
0.00000001
 43
0.00000001
 12
1.0
 22
0.0
 32
0.0
 13
1.0
 23
0.0
 33
0.0
 40
0.0
 40
0.0
 40
0.0
 40
0.0
 40
0.5
 40
0.5
 40
1.0
 40
1.0
 40
1.0
 40
1.0
 10
240.610672660198
 20
128.062042347667
 30
0.0
 10
240.8334018647652
 20
128.2002233856832
 30
0.0
 10
241.0586035170357
 20
128.3484470572697
 30
0.0
 10
241.5168856038752
 20
128.6674408354127
 30
0.0
 10
241.7505538448233
 20
128.8389040077109
 30
0.0
 10
241.9787139641848
 20
129.0178620567727
 30
0.0
  0
LWPOLYLINE
  5
163
330
1F
100
AcDbEntity
  8
0
  6
HIDDEN
 62
     7
370
     0
100
AcDbPolyline
 90
       17
 70
   128
 43
0.0
 10
239.7648707142
 20
133.0356785796
 10
239.4781246985
 20
133.1311275167
 10
239.2708507341
 20
133.0863725929
 10
239.1568041611
 20
132.904383883
 10
239.1435534624
 20
132.5972387197
 10
239.2319779952
 20
132.1853202045
 10
239.4162096345
 20
131.6959645219
 10
239.6840221998
 20
131.1616468259
 10
240.0176428225
 20
130.6178260886
 10
240.3949314078
 20
130.1005919333
 10
240.7908499204
 20
129.6442696154
 10
241.1791239853
 20
129.2791420931
 10
241.5339865368
 20
129.029440356
 10
241.8318878001
 20
128.9117353824
 10
242.0530581277
 20
128.9338384378
 10
242.1828199737
 20
129.0942826952
 10
242.2125619414
 20
129.3824205783
  0
LWPOLYLINE
  5
164
330
1F
100
AcDbEntity
  8
0
  6
HIDDEN
 62
     7
370
     0
100
AcDbPolyline
 90
       21
 70
   128
 43
0.0
 10
246.8643005952
 20
143.5638760804
 10
247.3664324428
 20
143.624459725
 10
247.8194121266
 20
143.8370970592
 10
248.178898839
 20
144.1809736591
 10
248.409703516
 20
144.6224284873
 10
248.4892333877
 20
145.1182488694
 10
248.409703516
 20
145.6199004517
 10
248.178898839
 20
146.0782780822
 10
247.8194121266
 20
146.4485125648
 10
247.3664324428
 20
146.6943627686
 10
246.8643005952
 20
146.7917631628
 10
246.3621687476
 20
146.7311795182
 10
245.9091890638
 20
146.5185421841
 10
245.5497023514
 20
146.1746655841
 10
245.3188976744
 20
145.733210756
 10
245.2393678028
 20
145.2373903739
 10
245.3188976744
 20
144.7357387916
 10
245.5497023514
 20
144.277361161
 10
245.9091890638
 20
143.9071266785
 10
246.3621687476
 20
143.6612764746
 10
246.8643005952
 20
143.5638760804
  0
LWPOLYLINE
  5
165
330
1F
100
AcDbEntity
  8
0
  6
HIDDEN
 62
     7
370
     0
100
AcDbPolyline
 90
       21
 70
   128
 43
0.0
 10
244.9975826853
 20
141.362780846
 10
245.4997145329
 20
141.4233644906
 10
245.9526942167
 20
141.6360018248
 10
246.3121809291
 20
141.9798784247
 10
246.5429856061
 20
142.4213332529
 10
246.6225154778
 20
142.917153635
 10
246.5429856061
 20
143.4188052173
 10
246.3121809291
 20
143.8771828478
 10
245.9526942167
 20
144.2474173304
 10
245.4997145329
 20
144.4932675342
 10
244.9975826853
 20
144.5906679285
 10
244.4954508377
 20
144.5300842839
 10
244.0424711539
 20
144.3174469497
 10
243.6829844415
 20
143.9735703498
 10
243.4521797645
 20
143.5321155216
 10
243.3726498928
 20
143.0362951395
 10
243.4521797645
 20
142.5346435572
 10
243.6829844415
 20
142.0762659266
 10
244.0424711539
 20
141.7060314441
 10
244.4954508377
 20
141.4601812403
 10
244.9975826853
 20
141.362780846
  0
LINE
  5
166
330
1F
100
AcDbEntity
  8
0
  6
HIDDEN
 62
     7
370
     0
100
AcDbLine
 10
157.0449276607
 20
97.2329232442
 30
0.0
 11
157.0449276607
 21
91.1786126766
 31
0.0
  0
LINE
  5
167
330
1F
100
AcDbEntity
  8
0
  6
HIDDEN
 62
     7
370
     0
100
AcDbLine
 10
155.5449276607
 20
97.6659359461
 30
0.0
 11
155.5449276607
 21
92.0446380804
 31
0.0
  0
SPLINE
  5
168
330
1F
100
AcDbEntity
  8
0
  6
HIDDEN
 62
     7
370
     0
100
AcDbSpline
210
0.0
220
0.0
230
1.0
 70
     8
 71
     3
 72
    16
 73
    12
 74
     0
 42
0.00000001
 43
0.00000001
 12
1.0
 22
0.0
 32
0.0
 13
1.0
 23
0.0
 33
0.0
 40
0.0
 40
0.0
 40
0.0
 40
0.0
 40
0.25
 40
0.25
 40
0.3750000000000001
 40
0.3750000000000001
 40
0.5000000000000002
 40
0.5000000000000002
 40
0.7500000000000001
 40
0.7500000000000001
 40
1.0
 40
1.0
 40
1.0
 40
1.0
 10
192.2236073171601
 20
95.7530694466854
 30
0.0
 10
192.0623748396756
 20
95.0386752844933
 30
0.0
 10
191.941895000036
 20
94.3853330217846
 30
0.0
 10
191.8195144827227
 20
93.49707777998073
 30
0.0
 10
191.7885368223253
 20
93.2163972436289
 30
0.0
 10
191.7469230846973
 20
92.68736325378892
 30
0.0
 10
191.7366871717645
 20
92.44404227521045
 30
0.0
 10
191.7364987747084
 20
91.77601958469724
 30
0.0
 10
191.776643477346
 20
91.41233867527778
 30
0.0
 10
191.9407972322855
 20
90.85244780272946
 30
0.0
 10
192.0623488826951
 20
90.6649265106123
 30
0.0
 10
192.2236073171601
 20
90.56689511792436
 30
0.0
  0
LINE
  5
169
330
1F
100
AcDbEntity
  8
0
  6
HIDDEN
 62
     7
370
     0
100
AcDbLine
 10
191.3449276607
 20
96.80205555
 30
0.0
 11
191.3449276607
 21
90.3168772884
 31
0.0
  0
LINE
  5
16A
330
1F
100
AcDbEntity
  8
0
  6
HIDDEN
 62
     7
370
     0
100
AcDbLine
 10
157.0449276607
 20
133.4953394692
 30
0.0
 11
157.0449276607
 21
127.4410289017
 31
0.0
  0
LINE
  5
16B
330
1F
100
AcDbEntity
  8
0
  6
HIDDEN
 62
     7
370
     0
100
AcDbLine
 10
155.5449276607
 20
132.6293140654
 30
0.0
 11
155.5449276607
 21
127.0080161998
 31
0.0
  0
LINE
  5
16C
330
1F
100
AcDbEntity
  8
0
  6
HIDDEN
 62
     7
370
     0
100
AcDbLine
 10
191.3449276607
 20
134.3570748575
 30
0.0
 11
191.3449276607
 21
127.8718965958
 31
0.0
  0
SPLINE
  5
16D
330
1F
100
AcDbEntity
  8
0
  6
HIDDEN
 62
     7
370
     0
100
AcDbSpline
210
0.0
220
0.0
230
1.0
 70
     8
 71
     3
 72
    16
 73
    12
 74
     0
 42
0.00000001
 43
0.00000001
 12
1.0
 22
0.0
 32
0.0
 13
1.0
 23
0.0
 33
0.0
 40
0.0
 40
0.0
 40
0.0
 40
0.0
 40
0.2500000000000001
 40
0.2500000000000001
 40
0.3749999999999999
 40
0.3749999999999999
 40
0.4999999999999998
 40
0.4999999999999998
 40
0.7499999999999999
 40
0.7499999999999999
 40
1.0
 40
1.0
 40
1.0
 40
1.0
 10
192.2236073171601
 20
134.1070570279286
 30
0.0
 10
192.0623748396756
 20
134.0090414148738
 30
0.0
 10
191.941895000036
 20
133.8223053831978
 30
0.0
 10
191.8195144827227
 20
133.4092655756389
 30
0.0
 10
191.7885368223253
 20
133.249265076406
 30
0.0
 10
191.7469230846973
 20
132.8824594253148
 30
0.0
 10
191.7366871717645
 20
132.6791222726908
 30
0.0
 10
191.7364987747084
 20
132.0118350060641
 30
0.0
 10
191.776643477346
 20
131.4910205421761
 30
0.0
 10
191.9407972322855
 20
130.2936615266984
 30
0.0
 10
192.0623488826951
 20
129.6353918724024
 30
0.0
 10
192.2236073171601
 20
128.9208826991675
 30
0.0
  0
LINE
  5
16E
330
1F
100
AcDbEntity
  8
0
  6
HIDDEN
 62
     7
370
     0
100
AcDbLine
 10
254.9478928516
 20
152.9873178188
 30
0.0
 11
256.5588097273
 21
154.8867914561
 31
0.0
  0
LINE
  5
16F
330
1F
100
AcDbEntity
  8
0
  6
HIDDEN
 62
     7
370
     0
100
AcDbLine
 10
256.3428859215
 20
155.0960045806
 30
0.0
 11
254.8983826957
 21
153.3927535702
 31
0.0
  0
SPLINE
  5
170
330
1F
100
AcDbEntity
  8
0
  6
HIDDEN
 62
     7
370
     0
100
AcDbSpline
210
0.0
220
0.0
230
1.0
 70
     8
 71
     3
 72
    10
 73
     6
 74
     0
 42
0.00000001
 43
0.00000001
 12
1.0
 22
0.0
 32
0.0
 13
1.0
 23
0.0
 33
0.0
 40
0.0
 40
0.0
 40
0.0
 40
0.0
 40
0.5
 40
0.5
 40
1.0
 40
1.0
 40
1.0
 40
1.0
 10
234.4486895872751
 20
140.4150232607454
 30
0.0
 10
233.6963567682062
 20
140.6410822717674
 30
0.0
 10
233.0531650433378
 20
141.0603797966155
 30
0.0
 10
232.1097610330492
 20
142.1534827481158
 30
0.0
 10
231.8148740450237
 20
142.8278580767917
 30
0.0
 10
231.7435264990295
 20
143.5685524783364
 30
0.0
  0
LWPOLYLINE
  5
171
330
1F
100
AcDbEntity
  8
0
  6
HIDDEN
 62
     7
370
     0
100
AcDbPolyline
 90
       22
 70
   128
 43
0.0
 10
240.3475293762
 20
133.2328978144
 10
239.9590265099
 20
133.5201325883
 10
239.6214194288
 20
133.6823666305
 10
239.3527312477
 20
133.7109390955
 10
239.1673058541
 20
133.6043246457
 10
239.0750421609
 20
133.368214881
 10
239.0808656549
 20
133.0152144938
 10
239.1844654493
 20
132.5641683689
 10
239.3803108813
 20
132.0391555513
 10
239.6579467651
 20
131.4682037893
 10
240.0025515414
 20
130.8817932765
 10
240.3957285241
 20
130.3112294701
 10
240.8164880056
 20
129.7869718527
 10
241.2423677898
 20
129.3370078563
 10
241.6506323339
 20
128.9853587567
 10
242.0194864826
 20
128.7507973002
 10
242.3292389999
 20
128.645845523
 10
242.5633537836
 20
128.6761062636
 10
242.7093326432
 20
128.8399640557
 10
242.7593825142
 20
129.1286713703
 10
242.7108314901
 20
129.5268156008
 10
242.5662714616
 20
130.0131418636
  0
SPLINE
  5
172
330
1F
100
AcDbEntity
  8
0
  6
HIDDEN
 62
     7
370
     0
100
AcDbSpline
210
0.0
220
0.0
230
1.0
 70
     8
 71
     3
 72
    54
 73
    50
 74
     0
 42
0.00000001
 43
0.00000001
 12
1.0
 22
0.0
 32
0.0
 13
1.0
 23
0.0
 33
0.0
 40
0.0
 40
0.0
 40
0.0
 40
0.0
 40
0.0625000000000007
 40
0.0625000000000007
 40
0.093750000000001
 40
0.093750000000001
 40
0.1250000000000013
 40
0.1250000000000013
 40
0.1562500000000016
 40
0.1562500000000016
 40
0.1875000000000018
 40
0.1875000000000018
 40
0.2500000000000025
 40
0.2500000000000025
 40
0.3125000000000032
 40
0.3125000000000032
 40
0.3750000000000039
 40
0.3750000000000039
 40
0.4062500000000041
 40
0.4062500000000041
 40
0.4375000000000043
 40
0.4375000000000043
 40
0.4687500000000044
 40
0.4687500000000044
 40
0.5000000000000047
 40
0.5000000000000047
 40
0.5312500000000048
 40
0.5312500000000048
 40
0.5625000000000049
 40
0.5625000000000049
 40
0.6250000000000051
 40
0.6250000000000051
 40
0.6562500000000049
 40
0.6562500000000049
 40
0.6875000000000047
 40
0.6875000000000047
 40
0.750000000000004
 40
0.750000000000004
 40
0.8125000000000032
 40
0.8125000000000032
 40
0.8750000000000026
 40
0.8750000000000026
 40
0.9062500000000019
 40
0.9062500000000019
 40
0.9375000000000012
 40
0.9375000000000012
 40
0.9687500000000007
 40
0.9687500000000007
 40
1.0
 40
1.0
 40
1.0
 40
1.0
 10
247.4909616843033
 20
132.6395272449139
 30
0.0
 10
247.4423103085118
 20
132.8433709412027
 30
0.0
 10
247.4072740036884
 20
133.0974815741777
 30
0.0
 10
247.377465021523
 20
133.5376974444069
 30
0.0
 10
247.371494814746
 20
133.6935422094825
 30
0.0
 10
247.3677593509192
 20
134.015344279082
 30
0.0
 10
247.3699292596518
 20
134.1822112626075
 30
0.0
 10
247.3824517072059
 20
134.5268595800678
 30
0.0
 10
247.3928711743312
 20
134.7048828140456
 30
0.0
 10
247.4214279766698
 20
135.0636904828234
 30
0.0
 10
247.4395837550887
 20
135.2454081976651
 30
0.0
 10
247.5054331086088
 20
135.7969974168768
 30
0.0
 10
247.5651889640808
 20
136.1762065949054
 30
0.0
 10
247.7096495620931
 20
136.9233847033158
 30
0.0
 10
247.7944830514828
 20
137.2941973486523
 30
0.0
 10
247.9883822432134
 20
138.0304542285693
 30
0.0
 10
248.0954440338542
 20
138.3878411571109
 30
0.0
 10
248.2653089740451
 20
138.8932214013562
 30
0.0
 10
248.3239286373463
 20
139.0576769224833
 30
0.0
 10
248.4396860277575
 20
139.363586311984
 30
0.0
 10
248.4973560907178
 20
139.5066725418069
 30
0.0
 10
248.6093638197375
 20
139.7649156588386
 30
0.0
 10
248.6617550390186
 20
139.8756361833096
 30
0.0
 10
248.7562013897488
 20
140.0527186309348
 30
0.0
 10
248.7969237001594
 20
140.1162003729721
 30
0.0
 10
248.860868539516
 20
140.1861363899617
 30
0.0
 10
248.8844651108804
 20
140.192726874104
 30
0.0
 10
248.9144973023677
 20
140.1551339603565
 30
0.0
 10
248.9214741200219
 20
140.1110086044991
 30
0.0
 10
248.9244763564188
 20
139.9259122665227
 30
0.0
 10
248.9036825653737
 20
139.7300221339085
 30
0.0
 10
248.8598633751694
 20
139.3846594523514
 30
0.0
 10
248.8429784893105
 20
139.260150826604
 30
0.0
 10
248.8063081902537
 20
138.9946372086471
 30
0.0
 10
248.7864094751147
 20
138.852874519768
 30
0.0
 10
248.7251745029684
 20
138.4132416643806
 30
0.0
 10
248.6821668340085
 20
138.0994138250038
 30
0.0
 10
248.5959746850725
 20
137.432651551858
 30
0.0
 10
248.5524476076882
 20
137.0766176171014
 30
0.0
 10
248.4693588022107
 20
136.3534541727771
 30
0.0
 10
248.4293792186513
 20
135.9831766792946
 30
0.0
 10
248.3695253619808
 20
135.4122095761917
 30
0.0
 10
248.3495684827328
 20
135.2192846467934
 30
0.0
 10
248.3100485303909
 20
134.8396423745176
 30
0.0
 10
248.290341338658
 20
134.6515032906047
 30
0.0
 10
248.2499562798963
 20
134.2791246376021
 30
0.0
 10
248.2291243156277
 20
134.0936337206179
 30
0.0
 10
248.1862664541218
 20
133.7385910206705
 30
0.0
 10
248.1641503507696
 20
133.5679973629479
 30
0.0
 10
248.1404810729935
 20
133.4053923086661
 30
0.0
  0
ELLIPSE
  5
173
330
1F
100
AcDbEntity
  8
0
  6
HIDDEN
 62
     7
370
     0
100
AcDbEllipse
 10
247.8007969913
 20
135.839411777
 30
0.0
 11
0.07046115653542982
 21
3.651938161779071
 31
0.0
210
0.0
220
0.0
230
1.0
 40
0.1416183515
 41
2.64147404578159
 42
3.985619663678488
  0
LINE
  5
174
330
1F
100
AcDbEntity
  8
0
  6
HIDDEN
 62
     7
370
     0
100
AcDbLine
 10
155.5449276607
 20
127.0080161998
 30
0.0
 11
155.5449276607
 21
115.2389634059
 31
0.0
  0
LINE
  5
175
330
1F
100
AcDbEntity
  8
0
  6
HIDDEN
 62
     7
370
     0
100
AcDbLine
 10
155.5449276607
 20
109.4349887399
 30
0.0
 11
155.5449276607
 21
97.6659359461
 31
0.0
  0
SPLINE
  5
176
330
1F
100
AcDbEntity
  8
0
  6
HIDDEN
 62
     7
370
     0
100
AcDbSpline
210
0.0
220
0.0
230
1.0
 70
     8
 71
     3
 72
     8
 73
     4
 74
     0
 42
0.00000001
 43
0.00000001
 12
1.0
 22
0.0
 32
0.0
 13
1.0
 23
0.0
 33
0.0
 40
0.0
 40
0.0
 40
0.0
 40
0.0
 40
1.0
 40
1.0
 40
1.0
 40
1.0
 10
234.4348684459567
 20
139.9785307898624
 30
0.0
 10
234.4395042728476
 20
140.1248479477646
 30
0.0
 10
234.4441112481357
 20
140.2703442765973
 30
0.0
 10
234.4486895872751
 20
140.4150232607454
 30
0.0
  0
ELLIPSE
  5
177
330
1F
100
AcDbEntity
  8
0
  6
HIDDEN
 62
     7
370
     0
100
AcDbEllipse
 10
297.8438778549
 20
117.3369760729
 30
0.0
 11
42.3649781715676
 21
-38.3927247642403
 31
0.0
210
0.0
220
0.0
230
1.0
 40
0.1868161121
 41
3.341546389403414
 42
3.367138596942202
  0
ELLIPSE
  5
178
330
1F
100
AcDbEntity
  8
0
  6
HIDDEN
 62
     7
370
     0
100
AcDbEllipse
 10
237.7663400994
 20
117.3369760729
 30
0.0
 11
20.23561704217317
 21
39.1835914862806
 31
0.0
210
0.0
220
0.0
230
1.0
 40
0.0560442098
 41
0.4577778044736999
 42
0.9653063885110237
  0
ELLIPSE
  5
179
330
1F
100
AcDbEntity
  8
0
  6
HIDDEN
 62
     7
370
     0
100
AcDbEllipse
 10
186.6658299734
 20
117.3369760729
 30
0.0
 11
71.20316909743113
 21
39.05431468797902
 31
0.0
210
0.0
220
0.0
230
1.0
 40
0.0474201264
 41
5.478271921037354
 42
5.966175724687376
  0
SPLINE
  5
17A
330
1F
100
AcDbEntity
  8
0
  6
HIDDEN
 62
     7
370
     0
100
AcDbSpline
210
0.0
220
0.0
230
1.0
 70
     8
 71
     3
 72
     8
 73
     4
 74
     0
 42
0.00000001
 43
0.00000001
 12
1.0
 22
0.0
 32
0.0
 13
1.0
 23
0.0
 33
0.0
 40
0.0
 40
0.0
 40
0.0
 40
0.0
 40
1.0
 40
1.0
 40
1.0
 40
1.0
 10
247.4781312439651
 20
140.5713788473096
 30
0.0
 10
247.3670317992142
 20
140.375290192025
 30
0.0
 10
247.2573669301218
 20
140.1776829408951
 30
0.0
 10
247.149204803639
 20
139.9785307898624
 30
0.0
  0
SPLINE
  5
17B
330
1F
100
AcDbEntity
  8
0
  6
HIDDEN
 62
     7
370
     0
100
AcDbSpline
210
0.0
220
0.0
230
1.0
 70
     8
 71
     3
 72
     8
 73
     4
 74
     0
 42
0.00000001
 43
0.00000001
 12
1.0
 22
0.0
 32
0.0
 13
1.0
 23
0.0
 33
0.0
 40
0.0
 40
0.0
 40
0.0
 40
0.0
 40
1.0
 40
1.0
 40
1.0
 40
1.0
 10
234.4486895872751
 20
140.4150232607454
 30
0.0
 10
235.4650900234656
 20
140.8882574984132
 30
0.0
 10
236.4331067643128
 20
141.4118835827784
 30
0.0
 10
237.3568304731421
 20
141.9747430861402
 30
0.0
  0
LINE
  5
17C
330
1F
100
AcDbEntity
  8
0
  6
HIDDEN
 62
     7
370
     0
100
AcDbLine
 10
157.0449276607
 20
108.3717651761
 30
0.0
 11
157.0449276607
 21
97.2329232442
 31
0.0
  0
LINE
  5
17D
330
1F
100
AcDbEntity
  8
0
  6
HIDDEN
 62
     7
370
     0
100
AcDbLine
 10
157.0449276607
 20
127.4410289017
 30
0.0
 11
157.0449276607
 21
116.3021869698
 31
0.0
  0
LINE
  5
17E
330
1F
100
AcDbEntity
  8
0
  6
HIDDEN
 62
     7
370
     0
100
AcDbLine
 10
193.3449276607
 20
127.3746832354
 30
0.0
 11
193.3449276607
 21
97.2992689104
 31
0.0
  0
LINE
  5
17F
330
1F
100
AcDbEntity
  8
0
  6
HIDDEN
 62
     7
370
     0
100
AcDbLine
 10
191.3449276607
 20
127.8718965958
 30
0.0
 11
191.3449276607
 21
96.80205555
 31
0.0
  0
SPLINE
  5
180
330
1F
100
AcDbEntity
  8
0
  6
HIDDEN
 62
     7
370
     0
100
AcDbSpline
210
0.0
220
0.0
230
1.0
 70
     8
 71
     3
 72
     8
 73
     4
 74
     0
 42
0.00000001
 43
0.00000001
 12
1.0
 22
0.0
 32
0.0
 13
1.0
 23
0.0
 33
0.0
 40
0.0000249638557296
 40
0.0000249638557296
 40
0.0000249638557296
 40
0.0000249638557296
 40
0.0049776420541172
 40
0.0049776420541172
 40
0.0049776420541172
 40
0.0049776420541172
 10
157.0449276607198
 20
108.3717651760899
 30
0.0
 10
158.6949038952293
 20
108.3304859383217
 30
0.0
 10
160.3449052149743
 20
108.2902642570822
 30
0.0
 10
161.9949276607198
 20
108.2510150198272
 30
0.0
  0
SPLINE
  5
181
330
1F
100
AcDbEntity
  8
0
  6
HIDDEN
 62
     7
370
     0
100
AcDbSpline
210
0.0
220
0.0
230
1.0
 70
     8
 71
     3
 72
     8
 73
     4
 74
     0
 42
0.00000001
 43
0.00000001
 12
1.0
 22
0.0
 32
0.0
 13
1.0
 23
0.0
 33
0.0
 40
0.0000249631533153
 40
0.0000249631533153
 40
0.0000249631533153
 40
0.0000249631533153
 40
0.0049776413517029
 40
0.0049776413517029
 40
0.0049776413517029
 40
0.0049776413517029
 10
161.9949276607198
 20
116.4229371260257
 30
0.0
 10
160.3449052149743
 20
116.3836878887707
 30
0.0
 10
158.6949038952293
 20
116.3434662075312
 30
0.0
 10
157.0449276607198
 20
116.302186969763
 30
0.0
  0
SPLINE
  5
182
330
1F
100
AcDbEntity
  8
0
  6
HIDDEN
 62
     7
370
     0
100
AcDbSpline
210
0.0
220
0.0
230
1.0
 70
     8
 71
     3
 72
     8
 73
     4
 74
     0
 42
0.00000001
 43
0.00000001
 12
1.0
 22
0.0
 32
0.0
 13
1.0
 23
0.0
 33
0.0
 40
0.0
 40
0.0
 40
0.0
 40
0.0
 40
1.0
 40
1.0
 40
1.0
 40
1.0
 10
155.5449276607175
 20
109.4349887399461
 30
0.0
 10
156.0116882720953
 20
109.0196254943231
 30
0.0
 10
156.5174358188754
 20
108.6750350650185
 30
0.0
 10
157.0449276607198
 20
108.3717651760899
 30
0.0
  0
SPLINE
  5
183
330
1F
100
AcDbEntity
  8
0
  6
HIDDEN
 62
     7
370
     0
100
AcDbSpline
210
0.0
220
0.0
230
1.0
 70
     8
 71
     3
 72
     8
 73
     4
 74
     0
 42
0.00000001
 43
0.00000001
 12
1.0
 22
0.0
 32
0.0
 13
1.0
 23
0.0
 33
0.0
 40
0.0
 40
0.0
 40
0.0
 40
0.0
 40
1.0
 40
1.0
 40
1.0
 40
1.0
 10
157.0449276607198
 20
116.302186969763
 30
0.0
 10
156.5174358188762
 20
115.9989170808349
 30
0.0
 10
156.0116882720969
 20
115.6543266515309
 30
0.0
 10
155.5449276607198
 20
115.2389634059088
 30
0.0
  0
LINE
  5
184
330
1F
100
AcDbEntity
  8
0
  6
HIDDEN
 62
     7
370
     0
100
AcDbLine
 10
155.5449276607
 20
109.4349887399
 30
0.0
 11
155.5449276607
 21
115.2389634059
 31
0.0
  0
LINE
  5
185
330
1F
100
AcDbEntity
  8
0
  6
HIDDEN
 62
     7
370
     0
100
AcDbLine
 10
161.9949276607
 20
108.2510150198
 30
0.0
 11
161.9949276607
 21
116.422937126
 31
0.0
  0
SPLINE
  5
186
330
1F
100
AcDbEntity
  8
0
  6
HIDDEN
 62
     7
370
     0
100
AcDbSpline
210
0.0
220
0.0
230
1.0
 70
     8
 71
     3
 72
    24
 73
    20
 74
     0
 42
0.00000001
 43
0.00000001
 12
1.0
 22
0.0
 32
0.0
 13
1.0
 23
0.0
 33
0.0
 40
0.0
 40
0.0
 40
0.0
 40
0.0
 40
0.1249999999999999
 40
0.1249999999999999
 40
0.2499999999999998
 40
0.2499999999999998
 40
0.3749999999999997
 40
0.3749999999999997
 40
0.4374999999999997
 40
0.4374999999999997
 40
0.4999999999999997
 40
0.4999999999999997
 40
0.6249999999999997
 40
0.6249999999999997
 40
0.7499999999999997
 40
0.7499999999999997
 40
0.8749999999999999
 40
0.8749999999999999
 40
1.0
 40
1.0
 40
1.0
 40
1.0
 10
161.9949276607198
 20
108.2510150198272
 30
0.0
 10
162.2327312929949
 20
108.5500221221573
 30
0.0
 10
162.4628169542061
 20
108.8543599734761
 30
0.0
 10
162.897570352816
 20
109.4800935108721
 30
0.0
 10
163.1025031451021
 20
109.8013182381996
 30
0.0
 10
163.4676050956008
 20
110.4732440089323
 30
0.0
 10
163.6294054813923
 20
110.8285592408112
 30
0.0
 10
163.8012656859721
 20
111.3787904621636
 30
0.0
 10
163.8468508776322
 20
111.5651942471441
 30
0.0
 10
163.9093256172071
 20
111.9453287492404
 30
0.0
 10
163.9259967629555
 20
112.1409985415263
 30
0.0
 10
163.926517806132
 20
112.7194789202007
 30
0.0
 10
163.8620755052453
 20
113.0973907591695
 30
0.0
 10
163.632226411872
 20
113.8393587842679
 30
0.0
 10
163.4737057342089
 20
114.1880742444289
 30
0.0
 10
163.1094714043087
 20
114.861166642162
 30
0.0
 10
162.9027351642451
 20
115.1861191294037
 30
0.0
 10
162.4647972185048
 20
115.8170429398654
 30
0.0
 10
162.2335244912252
 20
116.1229326802061
 30
0.0
 10
161.9949276607199
 20
116.4229371260256
 30
0.0
  0
SPLINE
  5
187
330
1F
100
AcDbEntity
  8
0
  6
HIDDEN
 62
     7
370
     0
100
AcDbSpline
210
0.0
220
0.0
230
1.0
 70
     8
 71
     3
 72
    72
 73
    68
 74
     0
 42
0.00000001
 43
0.00000001
 12
1.0
 22
0.0
 32
0.0
 13
1.0
 23
0.0
 33
0.0
 40
-0.03125
 40
-0.03125
 40
0.0
 40
0.0
 40
0.03125
 40
0.03125
 40
0.0624999999999999
 40
0.0624999999999999
 40
0.0937499999999999
 40
0.0937499999999999
 40
0.1249999999999998
 40
0.1249999999999998
 40
0.1562499999999998
 40
0.1562499999999998
 40
0.1874999999999997
 40
0.1874999999999997
 40
0.2187499999999997
 40
0.2187499999999997
 40
0.2499999999999996
 40
0.2499999999999996
 40
0.2812499999999996
 40
0.2812499999999996
 40
0.3124999999999996
 40
0.3124999999999996
 40
0.3437499999999995
 40
0.3437499999999995
 40
0.3749999999999994
 40
0.3749999999999994
 40
0.3906249999999994
 40
0.3906249999999994
 40
0.4062499999999994
 40
0.4062499999999994
 40
0.4374999999999994
 40
0.4374999999999994
 40
0.4687499999999994
 40
0.4687499999999994
 40
0.4999999999999994
 40
0.4999999999999994
 40
0.5312499999999996
 40
0.5312499999999996
 40
0.5624999999999996
 40
0.5624999999999996
 40
0.5937499999999997
 40
0.5937499999999997
 40
0.6249999999999997
 40
0.6249999999999997
 40
0.6562499999999998
 40
0.6562499999999998
 40
0.6874999999999999
 40
0.6874999999999999
 40
0.7187499999999999
 40
0.7187499999999999
 40
0.75
 40
0.75
 40
0.7812500000000001
 40
0.7812500000000001
 40
0.8125000000000001
 40
0.8125000000000001
 40
0.8437500000000002
 40
0.8437500000000002
 40
0.8750000000000001
 40
0.8750000000000001
 40
0.9062500000000001
 40
0.9062500000000001
 40
0.9375000000000001
 40
0.9375000000000001
 40
0.96875
 40
0.96875
 40
1.0
 40
1.0
 40
1.03125
 40
1.03125
 10
174.668873979545
 20
114.7778097227413
 30
0.0
 10
175.0433041994188
 20
115.1881655232264
 30
0.0
 10
175.2481568006845
 20
115.3718146058849
 30
0.0
 10
175.6910249975314
 20
115.6987695093803
 30
0.0
 10
175.9309804148497
 20
115.8425477175601
 30
0.0
 10
176.4265913976243
 20
116.080065073006
 30
0.0
 10
176.6838576887787
 20
116.1753846379037
 30
0.0
 10
177.2172114566158
 20
116.3194701705382
 30
0.0
 10
177.4914915965141
 20
116.3672061775078
 30
0.0
 10
178.0379201310936
 20
116.4127883180416
 30
0.0
 10
178.3124964495614
 20
116.4113545579694
 30
0.0
 10
178.8644636238321
 20
116.3584412498785
 30
0.0
 10
179.1350805864038
 20
116.3074715236743
 30
0.0
 10
179.661365757483
 20
116.1588648967308
 30
0.0
 10
179.9189973208906
 20
116.0605795259736
 30
0.0
 10
180.4149234855641
 20
115.8163261667879
 30
0.0
 10
180.6479071633558
 20
115.6732460357657
 30
0.0
 10
181.0842404386808
 20
115.3453874852969
 30
0.0
 10
181.2895216925391
 20
115.1583938475967
 30
0.0
 10
181.6575559903993
 20
114.7489632277737
 30
0.0
 10
181.8190709803845
 20
114.5288577867892
 30
0.0
 10
182.0962286635316
 20
114.0571077053512
 30
0.0
 10
182.2126228429653
 20
113.8020911789099
 30
0.0
 10
182.3858968796119
 20
113.280853355513
 30
0.0
 10
182.4443434340777
 20
113.013369237732
 30
0.0
 10
182.4882081595536
 20
112.6014535783996
 30
0.0
 10
182.4953883761829
 20
112.4617462753241
 30
0.0
 10
182.4944203488875
 20
112.1856232198616
 30
0.0
 10
182.4864175594738
 20
112.0484466535308
 30
0.0
 10
182.4403448275614
 20
111.6395132122676
 30
0.0
 10
182.3794099951094
 20
111.3675869632634
 30
0.0
 10
182.2012898387009
 20
110.8444064468083
 30
0.0
 10
182.0857219273585
 20
110.5956944464449
 30
0.0
 10
181.8038751434192
 20
110.1228099214529
 30
0.0
 10
181.6370051980045
 20
109.8992007042208
 30
0.0
 10
181.2676796432058
 20
109.4945433160332
 30
0.0
 10
181.0628944869083
 20
109.3101297278636
 30
0.0
 10
180.6182415393921
 20
108.9811036929692
 30
0.0
 10
180.3833924098813
 20
108.839935616981
 30
0.0
 10
179.8899826474043
 20
108.6015260882005
 30
0.0
 10
179.6286956936996
 20
108.5037435317957
 30
0.0
 10
179.0979574131869
 20
108.3584155036055
 30
0.0
 10
178.8283177122897
 20
108.3101261134106
 30
0.0
 10
178.2805663725445
 20
108.2617108896239
 30
0.0
 10
178.0006623306859
 20
108.2621690752599
 30
0.0
 10
177.4535844228509
 20
108.3123209308621
 30
0.0
 10
177.1839793181634
 20
108.3614944978941
 30
0.0
 10
176.6528245615073
 20
108.5091690212011
 30
0.0
 10
176.3915297450638
 20
108.6083241855667
 30
0.0
 10
175.8992157668884
 20
108.8493369560434
 30
0.0
 10
175.6652588913098
 20
108.9918250806681
 30
0.0
 10
175.2230902707794
 20
109.3233125096531
 30
0.0
 10
175.0178967396677
 20
109.5107461376415
 30
0.0
 10
174.6522025233097
 20
109.9176498566919
 30
0.0
 10
174.4894319009213
 20
110.1388289313609
 30
0.0
 10
174.2084794701558
 20
110.6185762605761
 30
0.0
 10
174.0952756178823
 20
110.8685882273864
 30
0.0
 10
173.9226668937433
 20
111.3886634374068
 30
0.0
 10
173.8630606110669
 20
111.6623949020366
 30
0.0
 10
173.8051688409971
 20
112.2110125519351
 30
0.0
 10
173.8059583798571
 20
112.4853524158267
 30
0.0
 10
173.8671488554735
 20
113.0340943669656
 30
0.0
 10
173.9282775792075
 20
113.3071596808228
 30
0.0
 10
174.1043572648373
 20
113.8273249295912
 30
0.0
 10
174.2206878598273
 20
114.0796440631501
 30
0.0
 10
174.503889089568
 20
114.5560484045571
 30
0.0
 10
174.668873979545
 20
114.7778097227413
 30
0.0
 10
175.0433041994188
 20
115.1881655232264
 30
0.0
  0
CIRCLE
  5
188
330
1F
100
AcDbEntity
  8
0
  6
HIDDEN
 62
     7
370
     0
100
AcDbCircle
 10
178.0449276607
 20
112.3369760729
 30
0.0
 40
4.050000000000011
  0
ELLIPSE
  5
189
330
1F
100
AcDbEntity
  8
0
  6
HIDDEN
 62
     7
370
     0
100
AcDbEllipse
 10
249.2795082403
 20
112.3369760729
 30
0.0
 11
1.209024632648863
 21
31.99932245370937
 31
0.0
210
0.0
220
0.0
230
1.0
 40
0.1722352441
 41
1.577303768120367
 42
1.777893992326815
  0
ELLIPSE
  5
18A
330
1F
100
AcDbEntity
  8
0
  6
HIDDEN
 62
     7
370
     0
100
AcDbEllipse
 10
249.0781692594
 20
112.3369760729
 30
0.0
 11
23.43589128362839
 21
31.99779097143426
 31
0.0
210
0.0
220
0.0
230
1.0
 40
0.0160435947
 41
1.783136694562921
 42
2.384184529686187
  0
LINE
  5
18B
330
1F
100
AcDbEntity
  8
0
  6
HIDDEN
 62
     7
370
     0
100
AcDbLine
 10
231.6965025108
 20
112.3369760729
 30
0.0
 11
231.6965025108
 21
89.3450920763
 31
0.0
  0
LINE
  5
18C
330
1F
100
AcDbEntity
  8
0
  6
HIDDEN
 62
     7
370
     0
100
AcDbLine
 10
231.6965025108
 20
89.350372439
 30
0.0
 11
231.6965025108
 21
89.3450920763
 31
0.0
  0
CIRCLE
  5
18D
330
1F
100
AcDbEntity
  8
0
  6
HIDDEN
 62
     7
370
     0
100
AcDbCircle
 10
205.5449276607
 20
112.3369760729
 30
0.0
 40
2.0
  0
LINE
  5
18E
330
1F
100
AcDbEntity
  8
0
  6
HIDDEN
 62
     7
370
     0
100
AcDbLine
 10
231.6965025108
 20
112.3369760729
 30
0.0
 11
231.6965025108
 21
114.9377475524
 31
0.0
  0
LINE
  5
18F
330
1F
100
AcDbEntity
  8
0
  6
HIDDEN
 62
     7
370
     0
100
AcDbLine
 10
234.434868446
 20
139.9785307899
 30
0.0
 11
247.1492048036
 21
139.9785307899
 31
0.0
  0
SPLINE
  5
190
330
1F
100
AcDbEntity
  8
0
  6
HIDDEN
 62
     7
370
     0
100
AcDbSpline
210
0.0
220
0.0
230
1.0
 70
     8
 71
     3
 72
     8
 73
     4
 74
     0
 42
0.00000001
 43
0.00000001
 12
1.0
 22
0.0
 32
0.0
 13
1.0
 23
0.0
 33
0.0
 40
0.0
 40
0.0
 40
0.0
 40
0.0
 40
1.0
 40
1.0
 40
1.0
 40
1.0
 10
234.4348684459567
 20
139.9785307898624
 30
0.0
 10
233.0622794890432
 20
132.1421400164069
 30
0.0
 10
232.0048773729106
 20
124.2624024472037
 30
0.0
 10
231.7435264990299
 20
116.2731860986292
 30
0.0
  0
ELLIPSE
  5
191
330
1F
100
AcDbEntity
  8
0
  6
HIDDEN
 62
     7
370
     0
100
AcDbEllipse
 10
270.7708160195
 20
128.959195518
 30
0.0
 11
-17.45773393909479
 21
-20.58486436131487
 31
-1.421085471520200E-14
210
-3.405438800090092E-16
220
-4.015440723015636E-16
230
1.0
 40
0.9632873408
 41
4.969922195681916
 42
5.397380441352566
  0
LINE
  5
192
330
1F
100
AcDbEntity
  8
0
  6
HIDDEN
 62
     7
370
     0
100
AcDbLine
 10
243.7603462203
 20
112.3369760729
 30
0.0
 11
244.3697241105
 21
128.959195518
 31
0.0
  0
LINE
  5
193
330
1F
100
AcDbEntity
  8
0
  6
HIDDEN
 62
     7
370
     0
100
AcDbLine
 10
193.5449276607
 20
88.0869760729
 30
0.0
 11
193.6378208795
 21
88.1798692917
 31
0.0
  0
LINE
  5
194
330
1F
100
AcDbEntity
  8
0
  6
HIDDEN
 62
     7
370
     0
100
AcDbLine
 10
193.6378208795
 20
136.4940828541
 30
0.0
 11
193.5449276607
 21
136.5869760729
 31
0.0
  0
ARC
  5
195
330
1F
100
AcDbEntity
  8
0
  6
HIDDEN
 62
     7
370
     0
100
AcDbCircle
 10
192.9307140983
 20
88.8869760729
 30
0.0
 40
1.0
100
AcDbArc
 50
315.0
 51
0.0
  0
ARC
  5
196
330
1F
100
AcDbEntity
  8
0
  6
HIDDEN
 62
     7
370
     0
100
AcDbCircle
 10
192.9307140983
 20
88.8869760729
 30
0.0
 40
1.0
100
AcDbArc
 50
0.0
 51
52.1052014664
  0
ARC
  5
197
330
1F
100
AcDbEntity
  8
0
  6
HIDDEN
 62
     7
370
     0
100
AcDbCircle
 10
192.9307140983
 20
135.7869760729
 30
0.0
 40
1.000000000000008
100
AcDbArc
 50
351.8087250651
 51
45.0
  0
ARC
  5
198
330
1F
100
AcDbEntity
  8
0
  6
HIDDEN
 62
     7
370
     0
100
AcDbCircle
 10
192.9307140983
 20
135.7869760729
 30
0.0
 40
0.9999999999999765
100
AcDbArc
 50
307.8947985336
 51
351.8087250651
  0
LINE
  5
199
330
1F
100
AcDbEntity
  8
0
  6
HIDDEN
 62
     7
370
     0
100
AcDbLine
 10
193.9307140983
 20
88.8869760729
 30
0.0
 11
193.9307140983
 21
135.7869760729
 31
0.0
  0
LINE
  5
19A
330
1F
100
AcDbEntity
  8
0
  6
HIDDEN
 62
     7
370
     0
100
AcDbLine
 10
193.9307140983
 20
88.8869760729
 30
0.0
 11
193.9307140983
 21
135.7869760729
 31
0.0
  0
LINE
  5
19B
330
1F
100
AcDbEntity
  8
0
  6
HIDDEN
 62
     7
370
     0
100
AcDbLine
 10
155.5449276607
 20
96.1405472285
 30
0.0
 11
157.0751561004
 21
97.02402503
 31
0.0
  0
LINE
  5
19C
330
1F
100
AcDbEntity
  8
0
  6
HIDDEN
 62
     7
370
     0
100
AcDbLine
 10
157.0751561004
 20
127.6499271158
 30
0.0
 11
155.5449276607
 21
128.5334049174
 31
0.0
  0
LINE
  5
19D
330
1F
100
AcDbEntity
  8
0
  6
HIDDEN
 62
     7
370
     0
100
AcDbLine
 10
165.5449276607
 20
96.3369760729
 30
0.0
 11
166.5467289756
 21
96.3369760729
 31
0.0
  0
LINE
  5
19E
330
1F
100
AcDbEntity
  8
0
  6
HIDDEN
 62
     7
370
     0
100
AcDbLine
 10
166.5467289756
 20
128.3369760729
 30
0.0
 11
165.5449276607
 21
128.3369760729
 31
0.0
  0
ARC
  5
19F
330
1F
100
AcDbEntity
  8
0
  6
HIDDEN
 62
     7
370
     0
100
AcDbCircle
 10
166.5467289756
 20
98.3369760729
 30
0.0
 40
2.000000000000026
100
AcDbArc
 50
270.0
 51
315.0
  0
ARC
  5
1A0
330
1F
100
AcDbEntity
  8
0
  6
HIDDEN
 62
     7
370
     0
100
AcDbCircle
 10
166.5467289756
 20
126.3369760729
 30
0.0
 40
2.000000000000026
100
AcDbArc
 50
45.0
 51
90.0
  0
ARC
  5
1A1
330
1F
100
AcDbEntity
  8
0
  6
HIDDEN
 62
     7
370
     0
100
AcDbCircle
 10
165.5449276607
 20
98.3369760729
 30
0.0
 40
2.000000000000004
100
AcDbArc
 50
189.9742217944
 51
270.0
  0
ARC
  5
1A2
330
1F
100
AcDbEntity
  8
0
  6
HIDDEN
 62
     7
370
     0
100
AcDbCircle
 10
165.5449276607
 20
126.3369760729
 30
0.0
 40
2.000000000000001
100
AcDbArc
 50
90.0
 51
170.0257782056
  0
LINE
  5
1A3
330
1F
100
AcDbEntity
  8
0
  6
HIDDEN
 62
     7
370
     0
100
AcDbLine
 10
167.960942538
 20
96.9227625106
 30
0.0
 11
169.3751561004
 21
98.3369760729
 31
0.0
  0
LINE
  5
1A4
330
1F
100
AcDbEntity
  8
0
  6
HIDDEN
 62
     7
370
     0
100
AcDbLine
 10
169.3751561004
 20
126.3369760729
 30
0.0
 11
167.960942538
 21
127.7511896353
 31
0.0
  0
LINE
  5
1A5
330
1F
100
AcDbEntity
  8
0
  6
HIDDEN
 62
     7
370
     0
100
AcDbLine
 10
157.0751561004
 20
97.02402503
 30
0.0
 11
161.9751561004
 21
98.3369760729
 31
0.0
  0
LINE
  5
1A6
330
1F
100
AcDbEntity
  8
0
  6
HIDDEN
 62
     7
370
     0
100
AcDbLine
 10
161.9751561004
 20
126.3369760729
 30
0.0
 11
157.0751561004
 21
127.6499271158
 31
0.0
  0
LINE
  5
1A7
330
1F
100
AcDbEntity
  8
0
  6
HIDDEN
 62
     7
370
     0
100
AcDbLine
 10
163.5751561004
 20
126.6833862344
 30
0.0
 11
162.9751561004
 21
126.3369760729
 31
0.0
  0
LINE
  5
1A8
330
1F
100
AcDbEntity
  8
0
  6
HIDDEN
 62
     7
370
     0
100
AcDbLine
 10
162.9751561004
 20
98.3369760729
 30
0.0
 11
163.5751561004
 21
97.9905659114
 31
0.0
  0
ARC
  5
1A9
330
1F
100
AcDbEntity
  8
0
  6
HIDDEN
 62
     7
370
     0
100
AcDbCircle
 10
182.0449276607
 20
98.8369760729
 30
0.0
 40
0.5
100
AcDbArc
 50
270.0
 51
0.0
  0
ARC
  5
1AA
330
1F
100
AcDbEntity
  8
0
  6
HIDDEN
 62
     7
370
     0
100
AcDbCircle
 10
182.0449276607
 20
125.8369760729
 30
0.0
 40
0.5
100
AcDbArc
 50
0.0
 51
90.0
  0
LINE
  5
1AB
330
1F
100
AcDbEntity
  8
0
  6
HIDDEN
 62
     7
370
     0
100
AcDbLine
 10
169.3751561004
 20
98.3369760729
 30
0.0
 11
182.0449276607
 21
98.3369760729
 31
0.0
  0
LINE
  5
1AC
330
1F
100
AcDbEntity
  8
0
  6
HIDDEN
 62
     7
370
     0
100
AcDbLine
 10
182.0449276607
 20
126.3369760729
 30
0.0
 11
169.3751561004
 21
126.3369760729
 31
0.0
  0
LINE
  5
1AD
330
1F
100
AcDbEntity
  8
0
  6
HIDDEN
 62
     7
370
     0
100
AcDbLine
 10
161.9751561004
 20
98.3369760729
 30
0.0
 11
162.9751561004
 21
98.3369760729
 31
0.0
  0
LINE
  5
1AE
330
1F
100
AcDbEntity
  8
0
  6
HIDDEN
 62
     7
370
     0
100
AcDbLine
 10
162.9751561004
 20
126.3369760729
 30
0.0
 11
161.9751561004
 21
126.3369760729
 31
0.0
  0
LINE
  5
1AF
330
1F
100
AcDbEntity
  8
0
  6
HIDDEN
 62
     7
370
     0
100
AcDbLine
 10
239.0805419627
 20
120.3933173995
 30
0.0
 11
239.6883105845
 21
121.1099530572
 31
0.0
  0
LINE
  5
1B0
330
1F
100
AcDbEntity
  8
0
  6
HIDDEN
 62
     7
370
     0
100
AcDbLine
 10
182.5449276607
 20
102.0869760729
 30
0.0
 11
183.7949276607
 21
103.3369760729
 31
0.0
  0
LINE
  5
1B1
330
1F
100
AcDbEntity
  8
0
  6
HIDDEN
 62
     7
370
     0
100
AcDbLine
 10
183.7949276607
 20
121.3369760729
 30
0.0
 11
182.5449276607
 21
122.5869760729
 31
0.0
  0
LINE
  5
1B2
330
1F
100
AcDbEntity
  8
0
  6
HIDDEN
 62
     7
370
     0
100
AcDbLine
 10
237.7444202092
 20
126.3773494032
 30
0.0
 11
237.1366515874
 21
125.6607137455
 31
0.0
  0
LINE
  5
1B3
330
1F
100
AcDbEntity
  8
0
  6
HIDDEN
 62
     7
370
     0
100
AcDbLine
 10
220.5449276607
 20
121.3369760729
 30
0.0
 11
183.7949276607
 21
121.3369760729
 31
0.0
  0
LINE
  5
1B4
330
1F
100
AcDbEntity
  8
0
  6
HIDDEN
 62
     7
370
     0
100
AcDbLine
 10
183.7949276607
 20
103.3369760729
 30
0.0
 11
220.5449276607
 21
103.3369760729
 31
0.0
  0
LINE
  5
1B5
330
1F
100
AcDbEntity
  8
0
  6
HIDDEN
 62
     7
370
     0
100
AcDbLine
 10
220.5449276607
 20
103.3369760729
 30
0.0
 11
225.952673232
 21
112.3369760729
 31
0.0
  0
LINE
  5
1B6
330
1F
100
AcDbEntity
  8
0
  6
HIDDEN
 62
     7
370
     0
100
AcDbLine
 10
225.952673232
 20
112.3369760729
 30
0.0
 11
220.5449276607
 21
121.3369760729
 31
0.0
  0
LINE
  5
1B7
330
1F
100
AcDbEntity
  8
0
  6
HIDDEN
 62
     7
370
     0
100
AcDbLine
 10
234.9510579349
 20
139.1353902654
 30
0.0
 11
233.6243858575
 21
137.5710770011
 31
0.0
  0
LINE
  5
1B8
330
1F
100
AcDbEntity
  8
0
  6
HIDDEN
 62
     7
370
     0
100
AcDbLine
 10
244.7153682927
 20
131.2960115672
 30
0.0
 11
245.4099610034
 21
132.1150237474
 31
0.0
  0
LINE
  5
1B9
330
1F
100
AcDbEntity
  8
0
  6
HIDDEN
 62
     7
370
     0
100
AcDbLine
 10
240.6814739511
 20
136.1251871103
 30
0.0
 11
239.9868812405
 21
135.3061749301
 31
0.0
  0
LINE
  5
1BA
330
1F
100
AcDbEntity
  8
0
  6
HIDDEN
 62
     7
370
     0
100
AcDbLine
 10
241.8266982842
 20
128.8175492618
 30
0.0
 11
244.1951697606
 21
131.6102750678
 31
0.0
  0
LINE
  5
1BB
330
1F
100
AcDbEntity
  8
0
  6
HIDDEN
 62
     7
370
     0
100
AcDbLine
 10
240.3818737507
 20
134.8442777798
 30
0.0
 11
238.0914026526
 21
132.1435242316
 31
0.0
  0
LINE
  5
1BC
330
1F
100
AcDbEntity
  8
0
  6
HIDDEN
 62
     7
370
     0
100
AcDbLine
 10
222.9716256008
 20
116.0211763318
 30
0.0
 11
242.0766346562
 21
128.947877648
 31
0.0
  0
LINE
  5
1BD
330
1F
100
AcDbEntity
  8
0
  6
HIDDEN
 62
     7
370
     0
100
AcDbLine
 10
239.2746826642
 20
133.0890206103
 30
0.0
 11
220.628693044
 21
120.4728979031
 31
0.0
  0
LINE
  5
1BE
330
1F
100
AcDbEntity
  8
0
  6
HIDDEN
 62
     7
370
     0
100
AcDbLine
 10
245.605912912
 20
146.2450405166
 30
0.0
 11
243.7391950021
 21
144.0439452822
 31
0.0
  0
LINE
  5
1BF
330
1F
100
AcDbEntity
  8
0
  6
HIDDEN
 62
     7
370
     0
100
AcDbLine
 10
246.2559703685
 20
141.9095034923
 30
0.0
 11
248.1226882785
 21
144.1105987267
 31
0.0
  0
LINE
  5
1C0
330
1F
100
AcDbEntity
  8
0
  6
HIDDEN
 62
     7
370
     0
100
AcDbLine
 10
242.59357217
 20
128.6939463269
 30
0.0
 11
247.7820730704
 21
132.2045545252
 31
0.0
  0
LINE
  5
1C1
330
1F
100
AcDbEntity
  8
0
  6
HIDDEN
 62
     7
370
     0
100
AcDbLine
 10
248.8537140124
 20
140.1740177319
 30
0.0
 11
239.2312297796
 21
133.6633178816
 31
0.0
  0
LINE
  5
1C2
330
1F
100
AcDbEntity
  8
0
  6
HIDDEN
 62
     7
370
     0
100
AcDbLine
 10
239.0839134213
 20
132.993685988
 30
0.0
 11
239.1519190323
 21
132.5309940323
 31
0.0
  0
LINE
  5
1C3
330
1F
100
AcDbEntity
  8
0
  6
HIDDEN
 62
     7
370
     0
100
AcDbLine
 10
241.5129805086
 20
129.0414648955
 30
0.0
 11
241.9171871928
 21
128.8062510239
 31
0.0
  0
LINE
  5
1C4
330
1F
100
AcDbEntity
  8
VERMASSUNG
  6
CENTERX2
100
AcDbLine
 10
258.5449276607
 20
157.3369760729
 30
0.0
 11
270.6884618537
 21
157.3369760729
 31
0.0
  0
LINE
  5
1C5
330
1F
100
AcDbEntity
  8
VERMASSUNG
  6
CENTERX2
100
AcDbLine
 10
258.5449276607
 20
157.3369760729
 30
0.0
 11
258.5449276607
 21
112.3369760729
 31
0.0
  0
LINE
  5
1C6
330
1F
100
AcDbEntity
  8
VERMASSUNG
  6
CENTERX2
100
AcDbLine
 10
150.7067630338
 20
112.3369760729
 30
0.0
 11
258.5449276607
 21
112.3369760729
 31
0.0
  0
LINE
  5
1C7
330
1F
100
AcDbEntity
  8
VERMASSUNG
100
AcDbLine
 10
258.5449276607
 20
157.3369760729
 30
0.0
 11
258.5449276607
 21
164.4980314789
 31
0.0
  0
DIMENSION
  5
1C8
330
1F
100
AcDbEntity
  8
VERMASSUNG
100
AcDbDimension
  2
_D
 10
244.8959004875
 20
150.4878135204
 30
0.0
 11
249.0998385756
 21
163.3284643868
 31
0.0
 70
   162
  1
<>
 71
     1
 42
-1.0
  3
SLDDIMSTYLE0
100
AcDb2LineAngularDimension
 13
258.5449276607
 23
164.4980314789
 33
0.0
 14
258.5449276607
 24
157.3369760729
 34
0.0
 15
257.9581425852
 25
157.2936797669
 35
0.0
 16
249.0998385756
 26
163.3284643868
 36
0.0
  0
DIMENSION
  5
1D2
330
1F
100
AcDbEntity
  8
VERMASSUNG
100
AcDbDimension
  2
_D_1
 10
268.6339111859
 20
112.3369760729
 30
0.0
 11
268.6339111859
 21
134.8369760729
 31
0.0
 70
   160
  1
<>
 71
     2
 42
-1.0
  3
SLDDIMSTYLE1
100
AcDbAlignedDimension
 13
258.5449276607
 23
157.3369760729
 33
0.0
 14
258.5449276607
 24
112.3369760729
 34
0.0
 50
90.0
100
AcDbRotatedDimension
  0
DIMENSION
  5
1DF
330
1F
100
AcDbEntity
  8
VERMASSUNG
100
AcDbDimension
  2
_D_2
 10
258.5449276607
 20
174.4980314789
 30
0.0
 11
226.0449276607
 21
174.4980314789
 31
0.0
 70
   160
  1
<>
 71
     2
 42
-1.0
  3
SLDDIMSTYLE1
100
AcDbAlignedDimension
 13
193.5449276607
 23
143.3369760729
 33
0.0
 14
258.5449276607
 24
157.3369760729
 34
0.0
100
AcDbRotatedDimension
  0
DIMENSION
  5
1EB
330
1F
100
AcDbEntity
  8
VERMASSUNG
100
AcDbDimension
  2
_D_3
 10
258.5449276607
 20
181.1622662524
 30
0.0
 11
207.0449276607
 21
181.1622662524
 31
0.0
 70
   160
  1
<>
 71
     2
 42
-1.0
  3
SLDDIMSTYLE2
100
AcDbAlignedDimension
 13
155.5449276607
 23
132.6293140654
 33
0.0
 14
258.5449276607
 24
157.3369760729
 34
0.0
100
AcDbRotatedDimension
  0
DIMENSION
  5
1F6
330
1F
100
AcDbEntity
  8
VERMASSUNG
100
AcDbDimension
  2
_D_4
 10
145.5449276607
 20
80.8369760729
 30
0.0
 11
145.5449276607
 21
112.3369760729
 31
0.0
 70
   160
  1
PSC%%c<>
 71
     2
 42
-1.0
  3
SLDDIMSTYLE2
100
AcDbAlignedDimension
 13
194.0449276607
 23
143.8369760729
 33
0.0
 14
194.0449276607
 24
80.8369760729
 34
0.0
 50
90.0
100
AcDbRotatedDimension
  0
LWPOLYLINE
  5
202
330
1F
100
AcDbEntity
  8
0
  6
Continuous
 62
     7
370
    15
100
AcDbPolyline
 90
        3
 70
   128
 43
0.0
 10
91.1624301014
 20
135.3104948915
 10
90.5560813633
 20
135.15221662
 10
90.2738999364
 20
135.0181527354
  0
ARC
  5
203
330
1F
100
AcDbEntity
  8
0
  6
Continuous
 62
     7
370
    15
100
AcDbCircle
 10
91.4857102094
 20
132.8314853853
 30
0.0
 40
2.5
100
AcDbArc
 50
357.9230655756
 51
97.4298410008
  0
LINE
  5
204
330
1F
100
AcDbEntity
  8
0
  6
Continuous
 62
     7
370
    15
100
AcDbLine
 10
57.0590328214
 20
128.2890807755
 30
0.0
 11
57.2836100844
 21
128.1647771515
 31
0.0
  0
LINE
  5
205
330
1F
100
AcDbEntity
  8
0
  6
Continuous
 62
     7
370
    15
100
AcDbLine
 10
57.2966504631
 20
128.1598579056
 30
0.0
 11
63.314648324
 21
126.8806938
 31
0.0
  0
SPLINE
  5
206
330
1F
100
AcDbEntity
  8
0
  6
Continuous
 62
     7
370
    15
100
AcDbSpline
210
0.0
220
0.0
230
1.0
 70
     8
 71
     3
 72
    24
 73
    20
 74
     0
 42
0.00000001
 43
0.00000001
 12
1.0
 22
0.0
 32
0.0
 13
1.0
 23
0.0
 33
0.0
 40
0.0
 40
0.0
 40
0.0
 40
0.0
 40
0.0017762520547941
 40
0.0550666517497878
 40
0.1056333398709444
 40
0.154141386210872
 40
0.2013318406097526
 40
0.2485802067980641
 40
0.2984642004527403
 40
0.3568040735107461
 40
0.4366514427282928
 40
0.5080472070289845
 40
0.5821052717686013
 40
0.6516256776841148
 40
0.7197342760150792
 40
0.7880459567989829
 40
0.857736931783057
 40
0.9312747624809269
 40
0.9999999999999999
 40
0.9999999999999999
 40
0.9999999999999999
 40
0.9999999999999999
 10
57.75079501545638
 20
143.0599890567254
 30
0.0
 10
57.74449898087217
 20
143.0597029296873
 30
0.0
 10
57.54931184911462
 20
143.0508325343397
 30
0.0
 10
57.18681622353136
 20
142.9371123694106
 30
0.0
 10
56.69390583509889
 20
142.7310495552422
 30
0.0
 10
56.26806841907456
 20
142.4519625299601
 30
0.0
 10
55.9064611755491
 20
142.1318687760335
 30
0.0
 10
55.60239256401191
 20
141.7784741900259
 30
0.0
 10
55.33823204636175
 20
141.3873237796385
 30
0.0
 10
55.08060752732425
 20
140.908367421336
 30
0.0
 10
54.83954304568849
 20
140.3427893247394
 30
0.0
 10
54.60422687988779
 20
139.6673692909138
 30
0.0
 10
54.39811620972274
 20
138.9622127147307
 30
0.0
 10
54.21664185983327
 20
138.2271067137031
 30
0.0
 10
54.06555408421294
 20
137.4972750705994
 30
0.0
 10
53.94436974953442
 20
136.7767286475517
 30
0.0
 10
53.85693909669652
 20
136.0699692668529
 30
0.0
 10
53.80591145040467
 20
135.409320865457
 30
0.0
 10
53.81230440973057
 20
134.9953027432277
 30
0.0
 10
53.81539275622577
 20
134.7952965564918
 30
0.0
  0
SPLINE
  5
207
330
1F
100
AcDbEntity
  8
0
  6
Continuous
 62
     7
370
    15
100
AcDbSpline
210
0.0
220
0.0
230
1.0
 70
     8
 71
     3
 72
    14
 73
    10
 74
     0
 42
0.00000001
 43
0.00000001
 12
1.0
 22
0.0
 32
0.0
 13
1.0
 23
0.0
 33
0.0
 40
0.0
 40
0.0
 40
0.0
 40
0.0
 40
0.1240168135956332
 40
0.2743707310079118
 40
0.4223736977858224
 40
0.5726672248546185
 40
0.7261870356707466
 40
0.8834777548676923
 40
1.0
 40
1.0
 40
1.0
 40
1.0
 10
53.81539275622577
 20
134.7952965564918
 30
0.0
 10
53.82295091181109
 20
134.6693948294128
 30
0.0
 10
53.83967232734252
 20
134.3908539776338
 30
0.0
 10
53.91053166546156
 20
133.9514213177297
 30
0.0
 10
54.04881962091853
 20
133.4653297132704
 30
0.0
 10
54.27019649740829
 20
132.9759587375951
 30
0.0
 10
54.58712781595944
 20
132.5110855109204
 30
0.0
 10
54.95178957449674
 20
132.1234485678367
 30
0.0
 10
55.23842690754564
 20
131.9386891150205
 30
0.0
 10
55.36040661609382
 20
131.8600639618825
 30
0.0
  0
LINE
  5
208
330
1F
100
AcDbEntity
  8
0
  6
Continuous
 62
     7
370
    15
100
AcDbLine
 10
55.4350036917
 20
131.8127565004
 30
0.0
 11
57.3615785477
 21
131.403250239
 31
0.0
  0
LINE
  5
209
330
1F
100
AcDbEntity
  8
0
  6
Continuous
 62
     7
370
    15
100
AcDbLine
 10
59.7525629935
 20
142.6519468345
 30
0.0
 11
57.8259881375
 21
143.0614530958
 31
0.0
  0
SPLINE
  5
20A
330
1F
100
AcDbEntity
  8
0
  6
Continuous
 62
     7
370
    15
100
AcDbSpline
210
0.0
220
0.0
230
1.0
 70
     8
 71
     3
 72
    20
 73
    16
 74
     0
 42
0.00000001
 43
0.00000001
 12
1.0
 22
0.0
 32
0.0
 13
1.0
 23
0.0
 33
0.0
 40
0.0
 40
0.0
 40
0.0
 40
0.0
 40
0.0185525895017033
 40
0.0880483251243475
 40
0.1777838816783052
 40
0.2623805111043735
 40
0.3512620513969499
 40
0.4381327570853811
 40
0.5241453295703039
 40
0.6098103030726677
 40
0.6954141182403776
 40
0.7811384278145082
 40
0.8672345969279405
 40
0.9541396988666955
 40
1.0
 40
1.0
 40
1.0
 40
1.0
 10
71.33305256939143
 20
130.5466756142568
 30
0.0
 10
71.3537554363983
 20
130.5638781484696
 30
0.0
 10
71.45200871608517
 20
130.6455192759893
 30
0.0
 10
71.58578118546436
 20
130.8483481825591
 30
0.0
 10
71.77531310534744
 20
131.1889603045256
 30
0.0
 10
71.97238433718374
 20
131.6570631205292
 30
0.0
 10
72.16721059054986
 20
132.2072275529837
 30
0.0
 10
72.35548393870391
 20
132.8330352693701
 30
0.0
 10
72.52841126342328
 20
133.4999456714202
 30
0.0
 10
72.68140965206938
 20
134.1880740457694
 30
0.0
 10
72.8095304874637
 20
134.8744068004684
 30
0.0
 10
72.90909702124202
 20
135.5374274357817
 30
0.0
 10
72.97391064368952
 20
136.1502296161587
 30
0.0
 10
73.00481702409454
 20
136.6233093763478
 30
0.0
 10
72.997382346287
 20
136.8537908390531
 30
0.0
 10
72.99481423324555
 20
136.9334045715522
 30
0.0
  0
LINE
  5
20B
330
1F
100
AcDbEntity
  8
0
  6
Continuous
 62
     7
370
    15
100
AcDbLine
 10
60.7432871846
 20
143.6071596958
 30
0.0
 11
59.6052966801
 21
142.8427245386
 31
0.0
  0
LINE
  5
20C
330
1F
100
AcDbEntity
  8
0
  6
Continuous
 62
     7
370
    15
100
AcDbLine
 10
57.1494474796
 20
131.2888652004
 30
0.0
 11
57.7064081816
 21
130.4013110615
 31
0.0
  0
LINE
  5
20D
330
1F
100
AcDbEntity
  8
0
  6
Continuous
 62
     7
370
    15
100
AcDbLine
 10
65.3985887555
 20
142.7297737367
 30
0.0
 11
60.9757397113
 21
143.6698786832
 31
0.0
  0
LINE
  5
20E
330
1F
100
AcDbEntity
  8
0
  6
Continuous
 62
     7
370
    15
100
AcDbLine
 10
63.2513612298
 20
129.2581405409
 30
0.0
 11
63.6973920999
 21
129.407481841
 31
0.0
  0
LINE
  5
20F
330
1F
100
AcDbEntity
  8
0
  6
Continuous
 62
     7
370
    15
100
AcDbLine
 10
67.0166155112
 20
141.2892468192
 30
0.0
 11
65.5120685486
 21
142.6684722222
 31
0.0
  0
LINE
  5
210
330
1F
100
AcDbEntity
  8
0
  6
Continuous
 62
     7
370
    15
100
AcDbLine
 10
65.7989112449
 20
119.7446552955
 30
0.0
 11
68.4918798295
 21
119.172246746
 31
0.0
  0
LINE
  5
211
330
1F
100
AcDbEntity
  8
0
  6
Continuous
 62
     7
370
    15
100
AcDbLine
 10
62.992453554
 20
126.5733657323
 30
0.0
 11
63.9937575696
 21
121.5430345304
 31
0.0
  0
LINE
  5
212
330
1F
100
AcDbEntity
  8
0
  6
Continuous
 62
     7
370
    15
100
AcDbLine
 10
84.1673798648
 20
156.3620842911
 30
0.0
 11
79.5821320797
 21
157.3367096402
 31
0.0
  0
LINE
  5
213
330
1F
100
AcDbEntity
  8
0
  6
Continuous
 62
     7
370
    15
100
AcDbLine
 10
77.7759062847
 20
152.4343058385
 30
0.0
 11
77.3114398842
 21
151.8891692079
 31
0.0
  0
LINE
  5
214
330
1F
100
AcDbEntity
  8
0
  6
Continuous
 62
     7
370
    15
100
AcDbLine
 10
86.8733688047
 20
155.6412517942
 30
0.0
 11
84.1897451108
 21
156.2116756953
 31
0.0
  0
LINE
  5
215
330
1F
100
AcDbEntity
  8
0
  6
Continuous
 62
     7
370
    15
100
AcDbLine
 10
87.1053198141
 20
155.2820444025
 30
0.0
 11
86.8867146572
 21
155.6304074742
 31
0.0
  0
LINE
  5
216
330
1F
100
AcDbEntity
  8
0
  6
Continuous
 62
     7
370
    15
100
AcDbLine
 10
95.9532949863
 20
152.9873177327
 30
0.0
 11
87.035822661
 21
154.8827864148
 31
0.0
  0
ARC
  5
217
330
1F
100
AcDbEntity
  8
0
  6
Continuous
 62
     7
370
    15
100
AcDbCircle
 10
79.653199741
 20
117.3369760729
 30
0.0
 40
39.20000000000006
100
AcDbArc
 50
36.3498647016
 51
65.4291105492
  0
LINE
  5
218
330
1F
100
AcDbEntity
  8
0
  6
Continuous
 62
     7
370
    15
100
AcDbLine
 10
87.0918845547
 20
155.0812624313
 30
0.0
 11
95.0356870679
 21
153.3927522518
 31
0.0
  0
ARC
  5
219
330
1F
100
AcDbEntity
  8
0
  6
Continuous
 62
     7
370
    15
100
AcDbCircle
 10
79.653199741
 20
117.3369760729
 30
0.0
 40
39.20000000000006
100
AcDbArc
 50
65.4291105492
 51
66.8954360296
  0
ARC
  5
21A
330
1F
100
AcDbEntity
  8
0
  6
Continuous
 62
     7
370
    15
100
AcDbCircle
 10
208.1326244457
 20
109.2185449199
 30
0.0
 40
129.1438685636085
100
AcDbArc
 50
164.2603331092
 51
165.3431344457
  0
ARC
  5
21B
330
1F
100
AcDbEntity
  8
0
  6
Continuous
 62
     7
370
    15
100
AcDbCircle
 10
216.4227079691
 20
106.7351525221
 30
0.0
 40
145.3084027176168
100
AcDbArc
 50
165.3604145716
 51
168.0175113052
  0
LINE
  5
21C
330
1F
100
AcDbEntity
  8
0
  6
Continuous
 62
     7
370
    15
100
AcDbLine
 10
83.1912888469
 20
141.8957762338
 30
0.0
 11
75.8317736698
 21
143.4600908227
 31
0.0
  0
LINE
  5
21D
330
1F
100
AcDbEntity
  8
0
  6
Continuous
 62
     7
370
    15
100
AcDbLine
 10
111.6532012609
 20
128.9591953076
 30
0.0
 11
111.6532012609
 21
139.9785313673
 31
0.0
  0
SPLINE
  5
21E
330
1F
100
AcDbEntity
  8
0
  6
Continuous
 62
     7
370
    15
100
AcDbSpline
210
0.0
220
0.0
230
1.0
 70
     8
 71
     3
 72
    54
 73
    50
 74
     0
 42
0.00000001
 43
0.00000001
 12
1.0
 22
0.0
 32
0.0
 13
1.0
 23
0.0
 33
0.0
 40
0.0
 40
0.0
 40
0.0
 40
0.0
 40
0.0625000000000007
 40
0.0625000000000007
 40
0.093750000000001
 40
0.093750000000001
 40
0.1250000000000013
 40
0.1250000000000013
 40
0.1562500000000016
 40
0.1562500000000016
 40
0.1875000000000018
 40
0.1875000000000018
 40
0.2500000000000025
 40
0.2500000000000025
 40
0.3125000000000032
 40
0.3125000000000032
 40
0.3750000000000039
 40
0.3750000000000039
 40
0.4062500000000041
 40
0.4062500000000041
 40
0.4375000000000043
 40
0.4375000000000043
 40
0.4687500000000044
 40
0.4687500000000044
 40
0.5000000000000047
 40
0.5000000000000047
 40
0.5312500000000048
 40
0.5312500000000048
 40
0.5625000000000049
 40
0.5625000000000049
 40
0.6250000000000051
 40
0.6250000000000051
 40
0.6562500000000049
 40
0.6562500000000049
 40
0.6875000000000047
 40
0.6875000000000047
 40
0.750000000000004
 40
0.750000000000004
 40
0.8125000000000032
 40
0.8125000000000032
 40
0.8750000000000026
 40
0.8750000000000026
 40
0.9062500000000019
 40
0.9062500000000019
 40
0.9375000000000012
 40
0.9375000000000012
 40
0.9687500000000007
 40
0.9687500000000007
 40
1.0
 40
1.0
 40
1.0
 40
1.0
 10
94.33860028552016
 20
132.6395272449139
 30
0.0
 10
94.66400838379202
 20
132.8433709412027
 30
0.0
 10
94.94549022542309
 20
133.0974815741777
 30
0.0
 10
95.31690570490355
 20
133.5376974444069
 30
0.0
 10
95.43097827662564
 20
133.6935422094825
 30
0.0
 10
95.63761685810812
 20
134.015344279082
 30
0.0
 10
95.73094199789287
 20
134.1822112626075
 30
0.0
 10
95.89930496417557
 20
134.5268595800678
 30
0.0
 10
95.97428618349451
 20
134.7048828140456
 30
0.0
 10
96.10423316208299
 20
135.0636904828234
 30
0.0
 10
96.1596917580002
 20
135.2454081976651
 30
0.0
 10
96.29937839090735
 20
135.7969974168768
 30
0.0
 10
96.35710514411176
 20
136.1762065949054
 30
0.0
 10
96.39973726517393
 20
136.9233847033158
 30
0.0
 10
96.38609722795678
 20
137.2941973486523
 30
0.0
 10
96.27838741577415
 20
138.0304542285693
 30
0.0
 10
96.18561657047105
 20
138.3878411571109
 30
0.0
 10
95.9697437169683
 20
138.8932214013562
 30
0.0
 10
95.88392418796704
 20
139.0576769224833
 30
0.0
 10
95.68425348372523
 20
139.363586311984
 30
0.0
 10
95.56985993921897
 20
139.5066725418069
 30
0.0
 10
95.30352407765639
 20
139.7649156588386
 30
0.0
 10
95.15611939388576
 20
139.8756361833096
 30
0.0
 10
94.82643717607908
 20
140.0527186309348
 30
0.0
 10
94.6474330696615
 20
140.1162003729721
 30
0.0
 10
94.27630683207988
 20
140.1861363899617
 30
0.0
 10
94.0812822327895
 20
140.192726874104
 30
0.0
 10
93.69999735110963
 20
140.1551339603565
 30
0.0
 10
93.50938298734333
 20
140.1110086044991
 30
0.0
 10
92.96583287314228
 20
139.9259122665227
 30
0.0
 10
92.62717444982786
 20
139.7300221339085
 30
0.0
 10
92.17323505440916
 20
139.3846594523514
 30
0.0
 10
92.0297932071969
 20
139.260150826604
 30
0.0
 10
91.75662584732459
 20
138.9946372086471
 30
0.0
 10
91.62640924771044
 20
138.852874519768
 30
0.0
 10
91.26261684744749
 20
138.4132416643806
 30
0.0
 10
91.05288343906376
 20
138.0994138250038
 30
0.0
 10
90.69443832614125
 20
137.432651551858
 30
0.0
 10
90.54563807015892
 20
137.0766176171014
 30
0.0
 10
90.32853945926577
 20
136.3534541727771
 30
0.0
 10
90.2577561459025
 20
135.9831766792946
 30
0.0
 10
90.22044672631574
 20
135.4122095761917
 30
0.0
 10
90.21991630805832
 20
135.2192846467934
 30
0.0
 10
90.2451311013982
 20
134.8396423745176
 30
0.0
 10
90.27070338423432
 20
134.6515032906047
 30
0.0
 10
90.35101120713185
 20
134.2791246376021
 30
0.0
 10
90.40637932086646
 20
134.0936337206179
 30
0.0
 10
90.5472986654503
 20
133.7385910206705
 30
0.0
 10
90.63281718032279
 20
133.5679973629479
 30
0.0
 10
90.73548844679425
 20
133.4053923086661
 30
0.0
  0
SPLINE
  5
21F
330
1F
100
AcDbEntity
  8
0
  6
Continuous
 62
     7
370
    15
100
AcDbSpline
210
0.0
220
0.0
230
1.0
 70
     8
 71
     3
 72
     8
 73
     4
 74
     0
 42
0.00000001
 43
0.00000001
 12
1.0
 22
0.0
 32
0.0
 13
1.0
 23
0.0
 33
0.0
 40
0.0
 40
0.0
 40
0.0
 40
0.0
 40
1.0
 40
1.0
 40
1.0
 40
1.0
 10
111.2253793888837
 20
140.5713788473096
 30
0.0
 10
111.3696837367996
 20
140.375290192025
 30
0.0
 10
111.5122899183641
 20
140.1776829408951
 30
0.0
 10
111.653199741008
 20
139.9785307898624
 30
0.0
  0
ARC
  5
220
330
1F
100
AcDbEntity
  8
0
  6
Continuous
 62
     7
370
    15
100
AcDbCircle
 10
62.4429441113
 20
136.2136451772
 30
0.0
 40
10.59709888169854
100
AcDbArc
 50
331.6699903016
 51
4.0481786513
  0
ARC
  5
221
330
1F
100
AcDbEntity
  8
0
  6
Continuous
 62
     7
370
    15
100
AcDbCircle
 10
59.2437659829
 20
127.4331189918
 30
0.0
 40
11.10463029608676
100
AcDbArc
 50
345.54531319
 51
358.1454724284
  0
LINE
  5
222
330
1F
100
AcDbEntity
  8
0
  6
Continuous
 62
     7
370
    15
100
AcDbLine
 10
69.5755844725
 20
114.7685389418
 30
0.0
 11
74.2804156405
 21
136.9030266918
 31
0.0
  0
LINE
  5
223
330
1F
100
AcDbEntity
  8
0
  6
Continuous
 62
     7
370
    15
100
AcDbLine
 10
60.1847450969
 20
87.3909048654
 30
0.0
 11
69.5755844725
 21
114.7685389418
 31
0.0
  0
SPLINE
  5
224
330
1F
100
AcDbEntity
  8
0
  6
Continuous
 62
     7
370
    15
100
AcDbSpline
210
0.0
220
0.0
230
1.0
 70
     8
 71
     3
 72
    10
 73
     6
 74
     0
 42
0.00000001
 43
0.00000001
 12
1.0
 22
0.0
 32
0.0
 13
1.0
 23
0.0
 33
0.0
 40
0.0
 40
0.0
 40
0.0
 40
0.0
 40
0.5
 40
0.5
 40
1.0
 40
1.0
 40
1.0
 40
1.0
 10
60.18474543558205
 20
87.39090413620956
 30
0.0
 10
60.1836032170104
 20
87.44969170903659
 30
0.0
 10
60.17929093544226
 20
87.4980251881351
 30
0.0
 10
60.16396722500274
 20
87.57259999425604
 30
0.0
 10
60.15277635312823
 20
87.59866911403587
 30
0.0
 10
60.13822777677702
 20
87.61015118101596
 30
0.0
  0
ARC
  5
225
330
1F
100
AcDbEntity
  8
0
  6
Continuous
 62
     7
370
    15
100
AcDbCircle
 10
79.653199741
 20
112.3369760729
 30
0.0
 40
31.49999999999999
100
AcDbArc
 50
231.1922776966
 51
231.7186961074
  0
LINE
  5
226
330
1F
100
AcDbEntity
  8
0
  6
Continuous
 62
     7
370
    15
100
AcDbLine
 10
73.6201437911
 20
139.5003903575
 30
0.0
 11
74.9800377314
 21
141.935143239
 31
0.0
  0
LINE
  5
227
330
1F
100
AcDbEntity
  8
0
  6
Continuous
 62
     7
370
    15
100
AcDbLine
 10
75.3111419988
 20
142.5279524095
 30
0.0
 11
75.8317736698
 21
143.4600908227
 31
0.0
  0
LINE
  5
228
330
1F
100
AcDbEntity
  8
0
  6
Continuous
 62
     7
370
    15
100
AcDbLine
 10
111.6532012609
 20
112.3369760729
 30
0.0
 11
111.6532012609
 21
128.9591953076
 31
0.0
  0
ARC
  5
229
330
1F
100
AcDbEntity
  8
0
  6
Continuous
 62
     7
370
    15
100
AcDbCircle
 10
79.653199741
 20
112.3369760729
 30
0.0
 40
32.00000000000003
100
AcDbArc
 50
348.5070267414
 51
0.0
  0
LINE
  5
22A
330
1F
100
AcDbEntity
  8
0
  6
Continuous
 62
     7
370
    15
100
AcDbLine
 10
69.5755844725
 20
114.7685389418
 30
0.0
 11
111.0115721611
 21
105.9610481292
 31
0.0
  0
ELLIPSE
  5
22B
330
1F
100
AcDbEntity
  8
0
  6
Continuous
 62
     7
370
    15
100
AcDbEllipse
 10
93.2223373214
 20
135.839411777
 30
0.0
 11
1.058922219707469
 21
3.553106736421881
 31
0.0
210
0.0
220
0.0
230
1.0
 40
0.7969520202
 41
2.533490462864652
 42
3.877636080761508
  0
LINE
  5
22C
330
1F
100
AcDbEntity
  8
0
  6
Continuous
 62
     7
370
    15
100
AcDbLine
 10
102.0670365331
 20
89.3503721721
 30
0.0
 11
101.9101813225
 21
89.3450915731
 31
0.0
  0
SPLINE
  5
22D
330
1F
100
AcDbEntity
  8
0
  6
Continuous
 62
     7
370
    15
100
AcDbSpline
210
0.0
220
0.0
230
1.0
 70
     8
 71
     3
 72
    12
 73
     8
 74
     0
 42
0.00000001
 43
0.00000001
 12
1.0
 22
0.0
 32
0.0
 13
1.0
 23
0.0
 33
0.0
 40
0.0
 40
0.0
 40
0.0
 40
0.0
 40
0.2499999999999994
 40
0.2499999999999994
 40
0.4999999999999989
 40
0.4999999999999989
 40
1.0
 40
1.0
 40
1.0
 40
1.0
 10
102.0670362190831
 20
89.35037243902296
 30
0.0
 10
101.8394354910602
 20
89.27935415194302
 30
0.0
 10
101.6216314944429
 20
89.19168051979292
 30
0.0
 10
101.19709805024
 20
88.99750550284908
 30
0.0
 10
100.9900113085934
 20
88.89018888582511
 30
0.0
 10
100.3900311960518
 20
88.54923825206927
 30
0.0
 10
100.0141232216384
 20
88.29781082786911
 30
0.0
 10
99.66996132583404
 20
88.01457373154103
 30
0.0
  0
ARC
  5
22E
330
1F
100
AcDbEntity
  8
0
  6
Continuous
 62
     7
370
    15
100
AcDbCircle
 10
79.653199741
 20
112.3369760729
 30
0.0
 40
31.49999999999999
100
AcDbArc
 50
234.4026042875
 51
309.453572087
  0
SPLINE
  5
22F
330
1F
100
AcDbEntity
  8
0
  6
Continuous
 62
     7
370
    15
100
AcDbSpline
210
0.0
220
0.0
230
1.0
 70
     8
 71
     3
 72
     8
 73
     4
 74
     0
 42
0.00000001
 43
0.00000001
 12
1.0
 22
0.0
 32
0.0
 13
1.0
 23
0.0
 33
0.0
 40
0.0
 40
0.0
 40
0.0
 40
0.0
 40
1.0
 40
1.0
 40
1.0
 40
1.0
 10
61.31749038288055
 20
86.72346865331917
 30
0.0
 10
60.96596465749555
 20
86.9751121876065
 30
0.0
 10
60.58608202596538
 20
87.19501513534644
 30
0.0
 10
60.18474543558205
 20
87.39090413620956
 30
0.0
  0
ARC
  5
230
330
1F
100
AcDbEntity
  8
0
  6
Continuous
 62
     7
370
    15
100
AcDbCircle
 10
79.653199741
 20
112.3369760729
 30
0.0
 40
32.00000000000002
100
AcDbArc
 50
314.0695225034
 51
348.5070267414
  0
ARC
  5
231
330
1F
100
AcDbEntity
  8
0
  6
Continuous
 62
     7
370
    15
100
AcDbCircle
 10
73.8248933477
 20
125.02939125
 30
0.0
 40
3.912373906394705
100
AcDbArc
 50
153.0465616744
 51
162.5524030524
  0
ARC
  5
232
330
1F
100
AcDbEntity
  8
0
  6
Continuous
 62
     7
370
    15
100
AcDbCircle
 10
79.653199741
 20
112.3369760729
 30
0.0
 40
32.10551373655945
100
AcDbArc
 50
314.2772008445
 51
4.6464506928
  0
SPLINE
  5
233
330
1F
100
AcDbEntity
  8
0
  6
Continuous
 62
     7
370
    15
100
AcDbSpline
210
0.0
220
0.0
230
1.0
 70
     8
 71
     3
 72
    18
 73
    14
 74
     0
 42
0.00000001
 43
0.00000001
 12
1.0
 22
0.0
 32
0.0
 13
1.0
 23
0.0
 33
0.0
 40
0.0
 40
0.0
 40
0.0
 40
0.0
 40
0.2499999999999993
 40
0.2499999999999993
 40
0.4999999999999987
 40
0.4999999999999987
 40
0.6249999999999991
 40
0.6249999999999991
 40
0.7499999999999996
 40
0.7499999999999996
 40
0.875
 40
0.875
 40
1.0
 40
1.0
 40
1.0
 40
1.0
 10
59.91187113775199
 20
87.79049068339938
 30
0.0
 10
59.81792532663367
 20
87.86604590439153
 30
0.0
 10
59.64676411037119
 20
88.00405222313452
 30
0.0
 10
59.16554436739363
 20
88.40781756255261
 30
0.0
 10
58.86669007772289
 20
88.66451986779799
 30
0.0
 10
58.35185597519986
 20
89.13016036153986
 30
0.0
 10
58.17116420666606
 20
89.29705864897745
 30
0.0
 10
57.79922814394699
 20
89.64954406672598
 30
0.0
 10
57.60725550279477
 20
89.83578307998283
 30
0.0
 10
57.21340638888932
 20
90.22853836750927
 30
0.0
 10
57.0120698534911
 20
90.43458773405841
 30
0.0
 10
56.60966718594447
 20
90.85835915018858
 30
0.0
 10
56.40756759227778
 20
91.07709707273611
 30
0.0
 10
56.20517185767331
 20
91.30271857753675
 30
0.0
  0
ARC
  5
234
330
1F
100
AcDbEntity
  8
0
  6
Continuous
 62
     7
370
    15
100
AcDbCircle
 10
79.653199741
 20
112.3369760729
 30
0.0
 40
31.49999999999998
100
AcDbArc
 50
141.245832
 51
221.8939690974
  0
ARC
  5
235
330
1F
100
AcDbEntity
  8
0
  6
Continuous
 62
     7
370
    15
100
AcDbCircle
 10
92.0992691903
 20
133.9470045186
 30
0.0
 40
3.182659618456634
100
AcDbArc
 50
349.8010564869
 51
122.824122031
  0
ARC
  5
236
330
1F
100
AcDbEntity
  8
0
  6
Continuous
 62
     7
370
    15
100
AcDbCircle
 10
93.1090858557
 20
135.5919748477
 30
0.0
 40
3.364109643176119
100
AcDbArc
 50
237.2945977101
 51
273.8798005921
  0
LWPOLYLINE
  5
237
330
1F
100
AcDbEntity
  8
0
  6
Continuous
 62
     7
370
    15
100
AcDbPolyline
 90
       15
 70
   128
 43
0.0
 10
90.3132781175
 20
136.4175710745
 10
90.3581436512
 20
136.4628687419
 10
90.7940994737
 20
136.781902603
 10
91.3237649736
 20
136.9856983341
 10
91.9185848696
 20
137.0632663287
 10
92.5464918626
 20
137.0104268111
 10
93.1736351711
 20
136.8300296284
 10
93.7662068543
 20
136.5317977883
 10
94.2922588227
 20
136.1318096436
 10
94.7234341664
 20
135.6516309
 10
95.0364861426
 20
135.1171448745
 10
95.2145382551
 20
134.5571666874
 10
95.2479922933
 20
134.0018860914
 10
95.1350452167
 20
133.4812395193
 10
94.9801122559
 20
133.1657688983
  0
ARC
  5
238
330
1F
100
AcDbEntity
  8
0
  6
Continuous
 62
     7
370
    15
100
AcDbCircle
 10
93.0258806688
 20
135.5022581002
 30
0.0
 40
2.968771685459466
100
AcDbArc
 50
205.6230198157
 51
275.961639472
  0
LWPOLYLINE
  5
239
330
1F
100
AcDbEntity
  8
0
  6
Continuous
 62
     7
370
    15
100
AcDbPolyline
 90
       18
 70
   128
 43
0.0
 10
90.3672715438
 20
135.8942925848
 10
90.5673298774
 20
136.1673302866
 10
90.9623931882
 20
136.4844381727
 10
91.4561012549
 20
136.6859223612
 10
92.017433585
 20
136.7591243155
 10
92.6111181987
 20
136.6994433023
 10
93.1998528329
 20
136.5106288262
 10
93.746645355
 20
136.2045477994
 10
94.2171374125
 20
135.8004283078
 10
94.5817678956
 20
135.3236637927
 10
94.8176244063
 20
134.8042130388
 10
94.9098886711
 20
134.2747133143
 10
94.8527613444
 20
133.7684370495
 10
94.6498336059
 20
133.3171926357
 10
94.3138552619
 20
132.9493351199
 10
93.8659375322
 20
132.6879780657
 10
93.3342249853
 20
132.549542553
 10
93.3342249853
 20
132.549542553
  0
LINE
  5
23A
330
1F
100
AcDbEntity
  8
0
  6
Continuous
 62
     7
370
    15
100
AcDbLine
 10
57.3161225555
 20
128.1598281033
 30
0.0
 11
57.2836100844
 21
128.1647771515
 31
0.0
  0
ARC
  5
23B
330
1F
100
AcDbEntity
  8
0
  6
Continuous
 62
     7
370
    15
100
AcDbCircle
 10
53.150988053
 20
130.5498479534
 30
0.0
 40
4.829913408827753
100
AcDbArc
 50
330.7008144488
 51
355.1382623524
  0
LINE
  5
23C
330
1F
100
AcDbEntity
  8
0
  6
Continuous
 62
     7
370
    15
100
AcDbLine
 10
57.1344923017
 20
128.3094637014
 30
0.0
 11
57.3630407242
 21
128.186232961
 31
0.0
  0
ARC
  5
23D
330
1F
100
AcDbEntity
  8
0
  6
Continuous
 62
     7
370
    15
100
AcDbCircle
 10
60.9035084324
 20
129.0249410599
 30
0.0
 40
3.884826905526969
100
AcDbArc
 50
152.6909627382
 51
190.9895081976
  0
ARC
  5
23E
330
1F
100
AcDbEntity
  8
0
  6
Continuous
 62
     7
370
    15
100
AcDbCircle
 10
52.9488525644
 20
130.6365345268
 30
0.0
 40
4.789033163115333
100
AcDbArc
 50
330.9274554327
 51
357.0240321557
  0
LINE
  5
23F
330
1F
100
AcDbEntity
  8
0
  6
Continuous
 62
     7
370
    15
100
AcDbLine
 10
57.0899210659
 20
128.2843794592
 30
0.0
 11
57.3161225555
 21
128.1598281033
 31
0.0
  0
LINE
  5
240
330
1F
100
AcDbEntity
  8
0
  6
Continuous
 62
     7
370
    15
100
AcDbLine
 10
57.3630407242
 20
128.186232961
 30
0.0
 11
63.337471315
 21
126.9163289957
 31
0.0
  0
LINE
  5
241
330
1F
100
AcDbEntity
  8
0
  6
Continuous
 62
     7
370
    15
100
AcDbLine
 10
57.3161225555
 20
128.1598281033
 30
0.0
 11
63.3221920369
 21
126.8831990577
 31
0.0
  0
LINE
  5
242
330
1F
100
AcDbEntity
  8
0
  6
Continuous
 62
     7
370
    15
100
AcDbLine
 10
57.1713149337
 20
128.5255901433
 30
0.0
 11
57.1344923017
 21
128.3094637014
 31
0.0
  0
ARC
  5
243
330
1F
100
AcDbEntity
  8
0
  6
Continuous
 62
     7
370
    15
100
AcDbCircle
 10
60.3571916298
 20
129.1303266716
 30
0.0
 40
3.283607663494578
100
AcDbArc
 50
150.6675250568
 51
190.987893404
  0
ARC
  5
244
330
1F
100
AcDbEntity
  8
0
  6
Continuous
 62
     7
370
    15
100
AcDbCircle
 10
53.5755722724
 20
130.5156339178
 30
0.0
 40
4.109700659497681
100
AcDbArc
 50
331.0379090227
 51
358.1661051762
  0
LINE
  5
245
330
1F
100
AcDbEntity
  8
0
  6
Continuous
 62
     7
370
    15
100
AcDbLine
 10
57.1337807713
 20
128.5044658847
 30
0.0
 11
57.0899210659
 21
128.2843794592
 31
0.0
  0
LINE
  5
246
330
1F
100
AcDbEntity
  8
0
  6
Continuous
 62
     7
370
    15
100
AcDbLine
 10
57.1665297983
 20
128.4975051798
 30
0.0
 11
57.1337807713
 21
128.5044658847
 31
0.0
  0
LWPOLYLINE
  5
247
330
1F
100
AcDbEntity
  8
0
  6
Continuous
 62
     7
370
    15
100
AcDbPolyline
 90
       22
 70
   128
 43
0.0
 10
55.3747452585
 20
131.8377010442
 10
55.4861444769
 20
131.8094707943
 10
55.6671675084
 20
131.894906602
 10
55.873138809
 20
132.1238834329
 10
56.0987274883
 20
132.4904687621
 10
56.3380867032
 20
132.9851705499
 10
56.5850194333
 20
133.5951737977
 10
56.8331312177
 20
134.3046814121
 10
57.0759940681
 20
135.0953183986
 10
57.3073196945
 20
135.9466049738
 10
57.5211141047
 20
136.8364948697
 10
57.7118433801
 20
137.7419397153
 10
57.874565923
 20
138.6394906707
 10
58.0050665674
 20
139.5059000619
 10
58.0999683378
 20
140.3187286027
 10
58.1568106798
 20
141.0569246776
 10
58.1741221038
 20
141.7013700969
 10
58.151455575
 20
142.2353718348
 10
58.0893959639
 20
142.6451016135
 10
57.989552596
 20
142.9199479438
 10
57.85450896
 20
143.0527899332
 10
57.761773446
 20
143.063315741
  0
LWPOLYLINE
  5
248
330
1F
100
AcDbEntity
  8
0
  6
Continuous
 62
     7
370
    15
100
AcDbPolyline
 90
       22
 70
   128
 43
0.0
 10
57.3615785477
 20
131.403250239
 10
57.4127193329
 20
131.399964533
 10
57.5937423644
 20
131.4854003407
 10
57.799713665
 20
131.7143771715
 10
58.0253023443
 20
132.0809625007
 10
58.2646615592
 20
132.5756642885
 10
58.5115942893
 20
133.1856675364
 10
58.7597060738
 20
133.8951751508
 10
59.0025689242
 20
134.6858121373
 10
59.2338926879
 20
135.5370987125
 10
59.4476889608
 20
136.4269886084
 10
59.6384182361
 20
137.3324334539
 10
59.801140779
 20
138.2299844094
 10
59.9316414235
 20
139.0963938005
 10
60.0265431938
 20
139.9092223413
 10
60.0833855358
 20
140.6474184163
 10
60.1006969599
 20
141.2918638356
 10
60.078030431
 20
141.8258655734
 10
60.01597082
 20
142.2355953522
 10
59.916127452
 20
142.5104416825
 10
59.7810838161
 20
142.6432836719
 10
59.7525629935
 20
142.6519468345
  0
LWPOLYLINE
  5
249
330
1F
100
AcDbEntity
  8
0
  6
Continuous
 62
     7
370
    15
100
AcDbPolyline
 90
       26
 70
   128
 43
0.0
 10
54.0355387864
 20
135.8700856484
 10
54.0717672346
 20
135.5734016664
 10
54.1477165905
 20
135.419552765
 10
54.2586128948
 20
135.4182042099
 10
54.3974898545
 20
135.5694416828
 10
54.555620977
 20
135.8637601055
 10
54.7230709133
 20
136.2826708622
 10
54.8893175808
 20
136.7998491891
 10
55.0439152656
 20
137.3827993788
 10
55.1771484104
 20
137.9948906518
 10
55.2806481508
 20
138.5976668365
 10
55.3479101298
 20
139.1532510437
 10
55.3747080055
 20
139.6267354406
 10
55.3593579469
 20
139.9883661337
 10
55.3028229413
 20
140.2154225774
 10
55.2086587784
 20
140.2936387725
 10
55.0827793566
 20
140.2180991985
 10
54.9330934671
 20
139.9935498752
 10
54.7690093306
 20
139.6341003396
 10
54.6008348254
 20
139.1623370267
 10
54.4391386
 20
138.607900209
 10
54.2940795211
 20
138.0056306638
 10
54.1747715113
 20
137.3933680273
 10
54.0887117175
 20
136.8095852353
 10
54.0413092611
 20
136.2909614958
 10
54.0355387864
 20
135.8700856484
  0
LINE
  5
24A
330
1F
100
AcDbEntity
  8
0
  6
Continuous
 62
     7
370
    15
100
AcDbLine
 10
54.8309534577
 20
139.1402758576
 30
0.0
 11
55.3591865835
 21
139.4711617298
 31
0.0
  0
SPLINE
  5
24B
330
1F
100
AcDbEntity
  8
0
  6
Continuous
 62
     7
370
    15
100
AcDbSpline
210
0.0
220
0.0
230
1.0
 70
     8
 71
     3
 72
    10
 73
     6
 74
     0
 42
0.00000001
 43
0.00000001
 12
1.0
 22
0.0
 32
0.0
 13
1.0
 23
0.0
 33
0.0
 40
0.0
 40
0.0
 40
0.0
 40
0.0
 40
0.439122311603167
 40
0.7513715746284293
 40
1.0
 40
1.0
 40
1.0
 40
1.0
 10
54.32453190660686
 20
136.8927095003318
 30
0.0
 10
54.52898274182674
 20
137.1864233732067
 30
0.0
 10
54.87881362478147
 20
137.688990082574
 30
0.0
 10
54.95878042418427
 20
138.5106479507279
 30
0.0
 10
54.87021371387965
 20
138.9468944953095
 30
0.0
 10
54.83095345771522
 20
139.1402758575868
 30
0.0
  0
SPLINE
  5
24C
330
1F
100
AcDbEntity
  8
0
  6
Continuous
 62
     7
370
    15
100
AcDbSpline
210
0.0
220
0.0
230
1.0
 70
     8
 71
     3
 72
    10
 73
     6
 74
     0
 42
0.00000001
 43
0.00000001
 12
1.0
 22
0.0
 32
0.0
 13
1.0
 23
0.0
 33
0.0
 40
0.0
 40
0.0
 40
0.0
 40
0.0
 40
0.2626807777298853
 40
0.8130041689723543
 40
1.0
 40
1.0
 40
1.0
 40
1.0
 10
54.59402872002334
 20
135.9769623644542
 30
0.0
 10
54.61983671609996
 20
136.048030019664
 30
0.0
 10
54.69971316760299
 20
136.2679863501729
 30
0.0
 10
54.53017671158063
 20
136.6022125226532
 30
0.0
 10
54.36613538484233
 20
136.8339397945283
 30
0.0
 10
54.32453190660686
 20
136.8927095003318
 30
0.0
  0
LINE
  5
24D
330
1F
100
AcDbEntity
  8
0
  6
Continuous
 62
     7
370
    15
100
AcDbLine
 10
55.3360543934
 20
139.0329129912
 30
0.0
 11
54.8309534577
 21
139.1402758576
 31
0.0
  0
LINE
  5
24E
330
1F
100
AcDbEntity
  8
0
  6
Continuous
 62
     7
370
    15
100
AcDbLine
 10
54.8818204341
 20
136.7742545821
 30
0.0
 11
54.3245319066
 21
136.8927095003
 31
0.0
  0
LWPOLYLINE
  5
24F
330
1F
100
AcDbEntity
  8
0
  6
Continuous
 62
     7
370
    15
100
AcDbPolyline
 90
       15
 70
   128
 43
0.0
 10
59.0446647046
 20
134.6631288446
 10
59.2846236912
 20
135.5560995556
 10
59.5057420222
 20
136.4871799864
 10
59.7022883383
 20
137.4322581954
 10
59.8691738931
 20
138.3668553002
 10
60.0020773498
 20
139.2667680897
 10
60.0975546775
 20
140.1086855598
 10
60.1531360087
 20
140.870805449
 10
60.1673796562
 20
141.5333874442
 10
60.1399168161
 20
142.0792709954
 10
60.0714590189
 20
142.4943204887
 10
59.9637795029
 20
142.7677847363
 10
59.8196666477
 20
142.8925819613
 10
59.6428531942
 20
142.8654767491
 10
59.4614483205
 20
142.713825769
  0
LWPOLYLINE
  5
250
330
1F
100
AcDbEntity
  8
0
  6
Continuous
 62
     7
370
    15
100
AcDbPolyline
 90
       11
 70
   128
 43
0.0
 10
57.0704638747
 20
131.4651273109
 10
57.0917706726
 20
131.4059156842
 10
57.2180766401
 20
131.2061376788
 10
57.3790613351
 20
131.1571314849
 10
57.5705561576
 20
131.2601692893
 10
57.7876008836
 20
131.5125800587
 10
58.0245759127
 20
131.9078259088
 10
58.2753401039
 20
132.4356716044
 10
58.5334021387
 20
133.0824453302
 10
58.7920769838
 20
133.8313981809
 10
59.0446647046
 20
134.6631288446
  0
LWPOLYLINE
  5
251
330
1F
100
AcDbEntity
  8
0
  6
Continuous
 62
     7
370
    15
100
AcDbPolyline
 90
       23
 70
   128
 43
0.0
 10
58.2500025419
 20
130.0100661732
 10
58.464359471
 20
130.1879320212
 10
58.7010588286
 20
130.506185434
 10
58.9550938246
 20
130.9580892242
 10
59.2210888652
 20
131.534084297
 10
59.4934168992
 20
132.221983365
 10
59.7663149027
 20
133.0072298564
 10
60.0340068129
 20
133.8732089765
 10
60.2908320514
 20
134.8015997477
 10
60.5313554195
 20
135.7727549888
 10
60.7504881707
 20
136.7661315866
 10
60.943590456
 20
137.7607058652
 10
61.1065812198
 20
138.735437385
 10
61.2360089806
 20
139.6697010763
 10
61.3291356502
 20
140.5437286861
 10
61.3839905498
 20
141.3390278734
 10
61.3994151143
 20
142.0387715019
 10
61.3750796554
 20
142.6281515427
 10
61.3115019885
 20
143.0946994491
 10
61.2100250808
 20
143.4285432018
 10
61.0727984247
 20
143.6226196505
 10
60.9027221588
 20
143.6728216626
 10
60.7432871846
 20
143.6071596958
  0
SPLINE
  5
252
330
1F
100
AcDbEntity
  8
0
  6
Continuous
 62
     7
370
    15
100
AcDbSpline
210
0.0
220
0.0
230
1.0
 70
     8
 71
     3
 72
    14
 73
    10
 74
     0
 42
0.00000001
 43
0.00000001
 12
1.0
 22
0.0
 32
0.0
 13
1.0
 23
0.0
 33
0.0
 40
0.0
 40
0.0
 40
0.0
 40
0.0
 40
0.240687525668788
 40
0.3654959543546705
 40
0.4913832506350462
 40
0.5985917567899116
 40
0.7015352302103804
 40
0.8683346239064696
 40
1.0
 40
1.0
 40
1.0
 40
1.0
 10
58.25000254190177
 20
130.0100661732149
 30
0.0
 10
58.09961108950322
 20
130.1941923375132
 30
0.0
 10
57.871234204293
 20
130.47379705718
 30
0.0
 10
57.61890329645514
 20
130.7313371480616
 30
0.0
 10
57.49901035412719
 20
130.8285513029919
 30
0.0
 10
57.47556125690124
 20
130.8073728570316
 30
0.0
 10
57.53110825402847
 20
130.6855165225287
 30
0.0
 10
57.66482831049572
 20
130.4656970333626
 30
0.0
 10
57.79850809695259
 20
130.255688725717
 30
0.0
 10
57.85747987902374
 20
130.1630452193212
 30
0.0
  0
SPLINE
  5
253
330
1F
100
AcDbEntity
  8
0
  6
Continuous
 62
     7
370
    15
100
AcDbSpline
210
0.0
220
0.0
230
1.0
 70
    11
 71
     3
 72
    26
 73
    22
 74
     0
 42
0.00000001
 43
0.00000001
 12
1.0
 22
0.0
 32
0.0
 13
1.0
 23
0.0
 33
0.0
 40
0.0
 40
0.0
 40
0.0
 40
0.0
 40
0.0456328907648446
 40
0.0911464123698895
 40
0.1396862985903206
 40
0.1952350856004542
 40
0.2567869032432872
 40
0.3195020158315973
 40
0.3782715751845971
 40
0.4320411299233766
 40
0.4825623262923236
 40
0.5316194430686935
 40
0.5803374210128014
 40
0.6295795860036172
 40
0.6804006996713162
 40
0.7342113590393806
 40
0.7923203135015872
 40
0.85449148597128
 40
0.9168147747112898
 40
0.9638623669503562
 40
1.0
 40
1.0
 40
1.0
 40
1.0
 10
65.08683690554112
 20
142.2922272153091
 30
0.0
 10
65.06819101765804
 20
142.3328927601928
 30
0.0
 10
65.0309480168858
 20
142.4141174746716
 30
0.0
 10
64.85049717327146
 20
142.537249381487
 30
0.0
 10
64.59420412412013
 20
142.6557986485286
 30
0.0
 10
64.25632685916027
 20
142.7686820915335
 30
0.0
 10
63.86642843138691
 20
142.8656342734652
 30
0.0
 10
63.48681342880553
 20
142.9283393614828
 30
0.0
 10
63.18805727298475
 20
142.9389250451006
 30
0.0
 10
63.00584642015313
 20
142.8923212593951
 30
0.0
 10
62.94056766184017
 20
142.7952906557114
 30
0.0
 10
62.98265710117071
 20
142.6591395285175
 30
0.0
 10
63.12199663129645
 20
142.499136960066
 30
0.0
 10
63.34620575981754
 20
142.3345712654231
 30
0.0
 10
63.63987876068327
 20
142.1859825997879
 30
0.0
 10
63.98499890538123
 20
142.0726197106404
 30
0.0
 10
64.35606891841273
 20
142.0123066334715
 30
0.0
 10
64.7098157720227
 20
142.0189960219395
 30
0.0
 10
64.96325998739262
 20
142.0901555891873
 30
0.0
 10
65.08642213976528
 20
142.1906995146527
 30
0.0
 10
65.08671129127394
 20
142.2614789509632
 30
0.0
 10
65.08683690554112
 20
142.2922272153091
 30
0.0
  0
LWPOLYLINE
  5
254
330
1F
100
AcDbEntity
  8
0
  6
Continuous
 62
     7
370
    15
100
AcDbPolyline
 90
       22
 70
   128
 43
0.0
 10
62.6728515861
 20
129.0699612267
 10
62.8872085152
 20
129.2478270747
 10
63.1239078728
 20
129.5660804875
 10
63.3779428688
 20
130.0179842777
 10
63.6439379094
 20
130.5939793505
 10
63.9162659434
 20
131.2818784185
 10
64.1891630155
 20
132.0671249099
 10
64.4568567885
 20
132.93310403
 10
64.7136820269
 20
133.8614929385
 10
64.9542044637
 20
134.8326500423
 10
65.1733362836
 20
135.8260247774
 10
65.3664404315
 20
136.8206009187
 10
65.529430264
 20
137.7953324385
 10
65.6588580248
 20
138.7295961298
 10
65.7519846944
 20
139.6036237396
 10
65.8068405253
 20
140.3989229269
 10
65.8222641585
 20
141.0986646928
 10
65.7979286996
 20
141.6880447335
 10
65.7343510327
 20
142.1545945026
 10
65.632874125
 20
142.4884382553
 10
65.4956465376
 20
142.682514704
 10
65.3985887555
 20
142.7297737367
  0
LINE
  5
255
330
1F
100
AcDbEntity
  8
0
  6
Continuous
 62
     7
370
    15
100
AcDbLine
 10
62.6728515861
 20
129.0699612267
 30
0.0
 11
58.2500025419
 21
130.0100661732
 31
0.0
  0
SPLINE
  5
256
330
1F
100
AcDbEntity
  8
0
  6
Continuous
 62
     7
370
    15
100
AcDbSpline
210
0.0
220
0.0
230
1.0
 70
     8
 71
     3
 72
     9
 73
     5
 74
     0
 42
0.00000001
 43
0.00000001
 12
1.0
 22
0.0
 32
0.0
 13
1.0
 23
0.0
 33
0.0
 40
0.0
 40
0.0
 40
0.0
 40
0.0
 40
0.700198670240046
 40
1.0
 40
1.0
 40
1.0
 40
1.0
 10
63.25075400746078
 20
129.259947306652
 30
0.0
 10
63.12493928341838
 20
129.2178521589069
 30
0.0
 10
62.94525496039721
 20
129.1577332961694
 30
0.0
 10
62.7356818756074
 20
129.0902059999288
 30
0.0
 10
62.67285158610553
 20
129.0699612267207
 30
0.0
  0
LINE
  5
257
330
1F
100
AcDbEntity
  8
0
  6
Continuous
 62
     7
370
    15
100
AcDbLine
 10
57.857479879
 20
130.1630452193
 30
0.0
 11
58.1785663751
 21
130.0947960384
 31
0.0
  0
SPLINE
  5
258
330
1F
100
AcDbEntity
  8
0
  6
Continuous
 62
     7
370
    15
100
AcDbSpline
210
0.0
220
0.0
230
1.0
 70
     8
 71
     3
 72
    15
 73
    11
 74
     0
 42
0.00000001
 43
0.00000001
 12
1.0
 22
0.0
 32
0.0
 13
1.0
 23
0.0
 33
0.0
 40
0.0
 40
0.0
 40
0.0
 40
0.0
 40
0.1220877046459763
 40
0.2441780224045734
 40
0.370404024749047
 40
0.4966403263665269
 40
0.620848637906859
 40
0.7450698078579258
 40
0.8725280896675431
 40
1.0
 40
1.0
 40
1.0
 40
1.0
 10
64.58423750227898
 20
130.6135110475015
 30
0.0
 10
64.75806087849381
 20
131.2997940182679
 30
0.0
 10
65.10571135136412
 20
132.6723746487056
 30
0.0
 10
65.81579486451942
 20
134.7700176351076
 30
0.0
 10
66.6637396828387
 20
136.8808052270139
 30
0.0
 10
67.65101592637394
 20
138.9777729091222
 30
0.0
 10
68.75175381006814
 20
141.0221960502138
 30
0.0
 10
69.96410098132402
 20
143.0177662959547
 30
0.0
 10
71.27942880154787
 20
144.9700365820854
 30
0.0
 10
72.23665680205374
 20
146.2163736252344
 30
0.0
 10
72.7152963889262
 20
146.8395754612874
 30
0.0
  0
SPLINE
  5
259
330
1F
100
AcDbEntity
  8
0
  6
Continuous
 62
     7
370
    15
100
AcDbSpline
210
0.0
220
0.0
230
1.0
 70
     8
 71
     3
 72
    12
 73
     8
 74
     0
 42
0.00000001
 43
0.00000001
 12
1.0
 22
0.0
 32
0.0
 13
1.0
 23
0.0
 33
0.0
 40
0.0
 40
0.0
 40
0.0
 40
0.0
 40
0.3369380096194614
 40
0.5038342667274709
 40
0.6765380713618661
 40
0.8351217380635538
 40
1.0
 40
1.0
 40
1.0
 40
1.0
 10
72.7152963889262
 20
146.8395754612874
 30
0.0
 10
73.05036072792237
 20
147.1953529630162
 30
0.0
 10
73.55139323457044
 20
147.7273585295715
 30
0.0
 10
74.41681501840219
 20
148.1725785132438
 30
0.0
 10
75.09727403927667
 20
148.3795000347406
 30
0.0
 10
75.80667676920456
 20
148.4558200318901
 30
0.0
 10
76.26554779185689
 20
148.3868494981309
 30
0.0
 10
76.49944813674897
 20
148.3516931451749
 30
0.0
  0
ARC
  5
25A
330
1F
100
AcDbEntity
  8
0
  6
Continuous
 62
     7
370
    15
100
AcDbCircle
 10
-148.7970644901
 20
191.2888663432
 30
0.0
 40
229.3515193846268
100
AcDbArc
 50
347.6298798133
 51
349.2099224324
  0
SPLINE
  5
25B
330
1F
100
AcDbEntity
  8
0
  6
Continuous
 62
     7
370
    15
100
AcDbSpline
210
0.0
220
0.0
230
1.0
 70
     8
 71
     3
 72
    10
 73
     6
 74
     0
 42
0.00000001
 43
0.00000001
 12
1.0
 22
0.0
 32
0.0
 13
1.0
 23
0.0
 33
0.0
 40
0.0
 40
0.0
 40
0.0
 40
0.0
 40
0.4116163530145694
 40
0.8227990062406111
 40
1.0
 40
1.0
 40
1.0
 40
1.0
 10
75.2298598898074
 20
142.1558163978052
 30
0.0
 10
74.9439913739582
 20
141.9357519885888
 30
0.0
 10
74.37255554777303
 20
141.4958550411374
 30
0.0
 10
73.92927036537822
 20
140.7103628149065
 30
0.0
 10
73.79282920931003
 20
140.2174545675994
 30
0.0
 10
73.75173780819982
 20
140.0690074927997
 30
0.0
  0
ARC
  5
25C
330
1F
100
AcDbEntity
  8
0
  6
Continuous
 62
     7
370
    15
100
AcDbCircle
 10
-131.3307036043
 20
187.0849428823
 30
0.0
 40
210.4027232624222
100
AcDbArc
 50
344.0471051031
 51
347.0878464563
  0
SPLINE
  5
25D
330
1F
100
AcDbEntity
  8
0
  6
Continuous
 62
     7
370
    15
100
AcDbSpline
210
0.0
220
0.0
230
1.0
 70
     8
 71
     3
 72
    12
 73
     8
 74
     0
 42
0.00000001
 43
0.00000001
 12
1.0
 22
0.0
 32
0.0
 13
1.0
 23
0.0
 33
0.0
 40
0.0
 40
0.0
 40
0.0
 40
0.0
 40
0.188681756244461
 40
0.3888813027711377
 40
0.5891019549044304
 40
0.794540242779694
 40
1.0
 40
1.0
 40
1.0
 40
1.0
 10
65.66336655742138
 20
142.529775939126
 30
0.0
 10
65.98299511356633
 20
143.0757245757782
 30
0.0
 10
66.64176346399157
 20
144.2009484516487
 30
0.0
 10
67.81444281956405
 20
145.7399826878642
 30
0.0
 10
69.13261584928131
 20
147.1925182650021
 30
0.0
 10
70.57292212307716
 20
148.5199846275259
 30
0.0
 10
71.62494990304853
 20
149.2896623896142
 30
0.0
 10
72.15099127716034
 20
149.674521378417
 30
0.0
  0
ARC
  5
25E
330
1F
100
AcDbEntity
  8
0
  6
Continuous
 62
     7
370
    15
100
AcDbCircle
 10
91.2362025806
 20
124.379740505
 30
0.0
 40
27.3712830848858
100
AcDbArc
 50
166.8354432857
 51
178.8067977132
  0
SPLINE
  5
25F
330
1F
100
AcDbEntity
  8
0
  6
Continuous
 62
     7
370
    15
100
AcDbSpline
210
0.0
220
0.0
230
1.0
 70
     8
 71
     3
 72
    10
 73
     6
 74
     0
 42
0.00000001
 43
0.00000001
 12
1.0
 22
0.0
 32
0.0
 13
1.0
 23
0.0
 33
0.0
 40
0.0
 40
0.0
 40
0.0
 40
0.0
 40
0.3401614573273881
 40
0.690523111220342
 40
1.0
 40
1.0
 40
1.0
 40
1.0
 10
63.87085465467185
 20
124.9497147194933
 30
0.0
 10
63.86631867768075
 20
124.5504465208524
 30
0.0
 10
63.85711070635758
 20
123.7399375322589
 30
0.0
 10
63.88913593049384
 20
122.7010544015355
 30
0.0
 10
63.93022810535508
 20
122.1313888690067
 30
0.0
 10
63.94950112080783
 20
121.8642048455667
 30
0.0
  0
SPLINE
  5
260
330
1F
100
AcDbEntity
  8
0
  6
Continuous
 62
     7
370
    15
100
AcDbSpline
210
0.0
220
0.0
230
1.0
 70
     8
 71
     3
 72
    19
 73
    15
 74
     0
 42
0.00000001
 43
0.00000001
 12
1.0
 22
0.0
 32
0.0
 13
1.0
 23
0.0
 33
0.0
 40
0.0
 40
0.0
 40
0.0
 40
0.0
 40
0.0879962566699689
 40
0.1759673896547676
 40
0.2644306407840429
 40
0.3528662471292818
 40
0.4357805192478891
 40
0.5186935814597609
 40
0.5987823146799662
 40
0.6788883930730037
 40
0.760846167886126
 40
0.8428250499440159
 40
0.9297058555659958
 40
1.0
 40
1.0
 40
1.0
 40
1.0
 10
66.61510744816273
 20
138.0442619241666
 30
0.0
 10
66.52960037076255
 20
137.7233236365287
 30
0.0
 10
66.35861062896532
 20
137.0815386918835
 30
0.0
 10
66.05203357750176
 20
136.0497449896105
 30
0.0
 10
65.72762750482872
 20
134.9982092590478
 30
0.0
 10
65.40316142082158
 20
133.9731706177955
 30
0.0
 10
65.09592459074962
 20
133.011101712418
 30
0.0
 10
64.81639503499085
 20
132.14467366823
 30
0.0
 10
64.56588420409727
 20
131.3796029286725
 30
0.0
 10
64.34283299922693
 20
130.7234532850871
 30
0.0
 10
64.14672243766795
 20
130.1889409603502
 30
0.0
 10
63.97214512379522
 20
129.7838095365908
 30
0.0
 10
63.82714605741943
 20
129.5292739616588
 30
0.0
 10
63.74749889343188
 20
129.4905191556733
 30
0.0
 10
63.71187789118499
 20
129.4731866486263
 30
0.0
  0
SPLINE
  5
261
330
1F
100
AcDbEntity
  8
0
  6
Continuous
 62
     7
370
    15
100
AcDbSpline
210
0.0
220
0.0
230
1.0
 70
     8
 71
     3
 72
    14
 73
    10
 74
     0
 42
0.00000001
 43
0.00000001
 12
1.0
 22
0.0
 32
0.0
 13
1.0
 23
0.0
 33
0.0
 40
0.0
 40
0.0
 40
0.0
 40
0.0
 40
0.1166069979936239
 40
0.2478865691885016
 40
0.3826062330491913
 40
0.5173260609021305
 40
0.6525136067120841
 40
0.787698029117493
 40
1.0
 40
1.0
 40
1.0
 40
1.0
 10
66.32280440753907
 20
141.9252674944591
 30
0.0
 10
66.4171354190403
 20
141.9392661115475
 30
0.0
 10
66.61766704416969
 20
141.9690247814657
 30
0.0
 10
66.84760790748285
 20
141.8023979498724
 30
0.0
 10
67.00931103450452
 20
141.4702505782466
 30
0.0
 10
67.0827571996333
 20
140.9691717963032
 30
0.0
 10
67.06005033984168
 20
140.3128010981278
 30
0.0
 10
66.93591604179394
 20
139.3814911663889
 30
0.0
 10
66.73677538744704
 20
138.5514114503384
 30
0.0
 10
66.61510744816273
 20
138.0442619241666
 30
0.0
  0
SPLINE
  5
262
330
1F
100
AcDbEntity
  8
0
  6
Continuous
 62
     7
370
    15
100
AcDbSpline
210
0.0
220
0.0
230
1.0
 70
     8
 71
     3
 72
    11
 73
     7
 74
     0
 42
0.00000001
 43
0.00000001
 12
1.0
 22
0.0
 32
0.0
 13
1.0
 23
0.0
 33
0.0
 40
0.0
 40
0.0
 40
0.0
 40
0.0
 40
0.2935233307067519
 40
0.5870946217446786
 40
0.8784463638100651
 40
1.0
 40
1.0
 40
1.0
 40
1.0
 10
63.4069293526432
 20
127.8201263315868
 30
0.0
 10
63.40029768482933
 20
127.663779984918
 30
0.0
 10
63.38703326561829
 20
127.3510617453231
 30
0.0
 10
63.36111012731232
 20
127.0355766838554
 30
0.0
 10
63.3371911451584
 20
126.8753945252911
 30
0.0
 10
63.31926013778129
 20
126.8964107033025
 30
0.0
 10
63.31398149705142
 20
126.9025975756239
 30
0.0
  0
SPLINE
  5
263
330
1F
100
AcDbEntity
  8
0
  6
Continuous
 62
     7
370
    15
100
AcDbSpline
210
0.0
220
0.0
230
1.0
 70
     8
 71
     3
 72
    11
 73
     7
 74
     0
 42
0.00000001
 43
0.00000001
 12
1.0
 22
0.0
 32
0.0
 13
1.0
 23
0.0
 33
0.0
 40
0.0
 40
0.0
 40
0.0
 40
0.0
 40
0.1561796544952095
 40
0.4736546921660614
 40
0.7961641026789863
 40
0.9999999999999999
 40
0.9999999999999999
 40
0.9999999999999999
 40
0.9999999999999999
 10
63.41894713914603
 20
129.3142527259778
 30
0.0
 10
63.42175620660021
 20
129.249515181614
 30
0.0
 10
63.43027542112007
 20
129.0531820436881
 30
0.0
 10
63.42817189229115
 20
128.6326611593518
 30
0.0
 10
63.41960872051823
 20
128.1821796924697
 30
0.0
 10
63.41046889914209
 20
127.9211964100449
 30
0.0
 10
63.4069293526432
 20
127.8201263315868
 30
0.0
  0
SPLINE
  5
264
330
1F
100
AcDbEntity
  8
0
  6
Continuous
 62
     7
370
    15
100
AcDbSpline
210
0.0
220
0.0
230
1.0
 70
     8
 71
     3
 72
    12
 73
     8
 74
     0
 42
0.00000001
 43
0.00000001
 12
1.0
 22
0.0
 32
0.0
 13
1.0
 23
0.0
 33
0.0
 40
0.0
 40
0.0
 40
0.0
 40
0.0
 40
0.3369381025106954
 40
0.5038343610786881
 40
0.6765382395699434
 40
0.8351217706552054
 40
1.0
 40
1.0
 40
1.0
 40
1.0
 10
72.15099127716034
 20
149.674521378417
 30
0.0
 10
72.51554841660992
 20
149.8821315669913
 30
0.0
 10
73.06068241025024
 20
150.1925777466735
 30
0.0
 10
73.97221393777153
 20
150.406162473274
 30
0.0
 10
74.67882253541873
 20
150.481706593895
 30
0.0
 10
75.40539600343479
 20
150.4717679662528
 30
0.0
 10
75.8664388207203
 20
150.3918863034154
 30
0.0
 10
76.10144627033382
 20
150.3511682070684
 30
0.0
  0
LINE
  5
265
330
1F
100
AcDbEntity
  8
0
  6
Continuous
 62
     7
370
    15
100
AcDbLine
 10
76.1014462703
 20
150.3511682071
 30
0.0
 11
76.4994481367
 21
148.3516931452
 31
0.0
  0
ARC
  5
266
330
1F
100
AcDbEntity
  8
0
  6
Continuous
 62
     7
370
    15
100
AcDbCircle
 10
72.2139098325
 20
124.4086091778
 30
0.0
 40
2.533934902193479
100
AcDbArc
 50
163.8032473763
 51
196.4035343404
  0
LINE
  5
267
330
1F
100
AcDbEntity
  8
0
  6
Continuous
 62
     7
370
    15
100
AcDbLine
 10
70.9689864678
 20
129.2563915171
 30
0.0
 11
69.7805480821
 21
125.1154165633
 31
0.0
  0
LINE
  5
268
330
1F
100
AcDbEntity
  8
0
  6
Continuous
 62
     7
370
    15
100
AcDbLine
 10
62.9275813488
 20
127.0034532912
 30
0.0
 11
63.0160514054
 21
126.5782868408
 31
0.0
  0
SPLINE
  5
269
330
1F
100
AcDbEntity
  8
0
  6
Continuous
 62
     7
370
    15
100
AcDbSpline
210
0.0
220
0.0
230
1.0
 70
     8
 71
     3
 72
    12
 73
     8
 74
     0
 42
0.00000001
 43
0.00000001
 12
1.0
 22
0.0
 32
0.0
 13
1.0
 23
0.0
 33
0.0
 40
0.0
 40
0.0
 40
0.0
 40
0.0
 40
0.2041496085087801
 40
0.4150448931652273
 40
0.6835540894694799
 40
0.9596499636083013
 40
1.0
 40
1.0
 40
1.0
 40
1.0
 10
63.94950112080783
 20
121.8642048455667
 30
0.0
 10
63.98836912711145
 20
121.6213020655752
 30
0.0
 10
64.06738944775601
 20
121.127470315872
 30
0.0
 10
64.41206387966687
 20
120.5178712450024
 30
0.0
 10
64.94744709235344
 20
120.0510814498059
 30
0.0
 10
65.43802771427984
 20
119.7891818688897
 30
0.0
 10
65.7613484253345
 20
119.7640342821956
 30
0.0
 10
65.80257506793946
 20
119.7608277119588
 30
0.0
  0
SPLINE
  5
26A
330
1F
100
AcDbEntity
  8
0
  6
Continuous
 62
     7
370
    15
100
AcDbSpline
210
0.0
220
0.0
230
1.0
 70
     8
 71
     3
 72
    10
 73
     6
 74
     0
 42
0.00000001
 43
0.00000001
 12
1.0
 22
0.0
 32
0.0
 13
1.0
 23
0.0
 33
0.0
 40
0.0
 40
0.0
 40
0.0
 40
0.0
 40
0.1480678466266977
 40
0.9078077380835357
 40
1.0
 40
1.0
 40
1.0
 40
1.0
 10
70.39400653666466
 20
122.6661853410196
 30
0.0
 10
70.3529640998661
 20
122.7092965015649
 30
0.0
 10
70.10133187474516
 20
122.9736121246552
 30
0.0
 10
69.89702732891433
 20
123.3283698371941
 30
0.0
 10
69.7942381853881
 20
123.657416419268
 30
0.0
 10
69.78311480707139
 20
123.6930243588876
 30
0.0
  0
LWPOLYLINE
  5
26B
330
1F
100
AcDbEntity
  8
0
  6
Continuous
 62
     7
370
    15
100
AcDbPolyline
 90
        9
 70
   128
 43
0.0
 10
68.4918798295
 20
119.172246746
 10
68.5551808936
 20
119.1677275032
 10
68.7641929624
 20
119.2557994194
 10
68.9998781098
 20
119.494177486
 10
69.2573515487
 20
119.8779224336
 10
69.531276801
 20
120.3990807675
 10
69.8159783868
 20
121.0468510084
 10
70.1055554462
 20
121.8078095384
 10
70.3940065367
 20
122.666185341
  0
SPLINE
  5
26C
330
1F
100
AcDbEntity
  8
0
  6
Continuous
 62
     7
370
    15
100
AcDbSpline
210
0.0
220
0.0
230
1.0
 70
     8
 71
     3
 72
    10
 73
     6
 74
     0
 42
0.00000001
 43
0.00000001
 12
1.0
 22
0.0
 32
0.0
 13
1.0
 23
0.0
 33
0.0
 40
0.0
 40
0.0
 40
0.0
 40
0.0
 40
0.5718116930464726
 40
0.9572613302674278
 40
1.0
 40
1.0
 40
1.0
 40
1.0
 10
70.13546952730626
 20
125.6765039555621
 30
0.0
 10
70.10622438337097
 20
125.6886688616713
 30
0.0
 10
70.05726552903518
 20
125.7090339474965
 30
0.0
 10
69.99757069048687
 20
125.7452394973502
 30
0.0
 10
69.97122903876188
 20
125.7683561265576
 30
0.0
 10
69.96859980499953
 20
125.7706634618234
 30
0.0
  0
SPLINE
  5
26D
330
1F
100
AcDbEntity
  8
0
  6
Continuous
 62
     7
370
    15
100
AcDbSpline
210
0.0
220
0.0
230
1.0
 70
     8
 71
     3
 72
    13
 73
     9
 74
     0
 42
0.00000001
 43
0.00000001
 12
1.0
 22
0.0
 32
0.0
 13
1.0
 23
0.0
 33
0.0
 40
0.0
 40
0.0
 40
0.0
 40
0.0
 40
0.0108530592240512
 40
0.4108102287588684
 40
0.6223235635450587
 40
0.7801556689718621
 40
0.8900833176693476
 40
1.0
 40
1.0
 40
1.0
 40
1.0
 10
69.91838847971171
 20
125.0555856071305
 30
0.0
 10
69.91818208036507
 20
125.0566386192123
 30
0.0
 10
69.91036944790264
 20
125.0964972549475
 30
0.0
 10
69.91037740777388
 20
125.1447709743801
 30
0.0
 10
69.94340302705987
 20
125.1677427933015
 30
0.0
 10
69.98454916215846
 20
125.1589268793457
 30
0.0
 10
70.03413978380313
 20
125.1316406402359
 30
0.0
 10
70.07211166813666
 20
125.1020660187722
 30
0.0
 10
70.0910966632387
 20
125.0872794456672
 30
0.0
  0
LINE
  5
26E
330
1F
100
AcDbEntity
  8
0
  6
Continuous
 62
     7
370
    15
100
AcDbLine
 10
70.3940065367
 20
122.666185341
 30
0.0
 11
69.9183884797
 21
125.0555856071
 31
0.0
  0
ARC
  5
26F
330
1F
100
AcDbEntity
  8
0
  6
Continuous
 62
     7
370
    15
100
AcDbCircle
 10
76.2842526749
 20
150.1957907519
 30
0.0
 40
0.6203739237076942
100
AcDbArc
 50
151.9190936933
 51
159.5206940932
  0
LINE
  5
270
330
1F
100
AcDbEntity
  8
0
  6
Continuous
 62
     7
370
    15
100
AcDbLine
 10
79.5382192962
 20
157.2936788119
 30
0.0
 11
75.736906824
 21
150.4878118552
 31
0.0
  0
LWPOLYLINE
  5
271
330
1F
100
AcDbEntity
  8
0
  6
Continuous
 62
     7
370
    15
100
AcDbPolyline
 90
        9
 70
   128
 43
0.0
 10
79.5241479435
 20
156.7628472961
 10
79.5553748765
 20
156.8796500482
 10
79.5810039497
 20
157.0029832341
 10
79.5984917284
 20
157.12060555
 10
79.6061027293
 20
157.2208493866
 10
79.6030816353
 20
157.293757043
 10
79.5897282667
 20
157.3321014561
 10
79.5673678011
 20
157.332075379
 10
79.5382192962
 20
157.2936788119
  0
LINE
  5
272
330
1F
100
AcDbEntity
  8
0
  6
Continuous
 62
     7
370
    15
100
AcDbLine
 10
75.5541128827
 20
143.5920610942
 30
0.0
 11
79.5241479435
 21
156.7628472961
 31
0.0
  0
ARC
  5
273
330
1F
100
AcDbEntity
  8
0
  6
Continuous
 62
     7
370
    15
100
AcDbCircle
 10
74.3560333663
 20
143.9468674427
 30
0.0
 40
1.249512734010872
100
AcDbArc
 50
338.3525638091
 51
343.5035600428
  0
LWPOLYLINE
  5
274
330
1F
100
AcDbEntity
  8
0
  6
Continuous
 62
     7
370
    15
100
AcDbPolyline
 90
        9
 70
   128
 43
0.0
 10
79.5228889117
 20
156.7719779827
 10
79.5525545043
 20
156.8829394795
 10
79.5769021213
 20
157.00010731
 10
79.5935155118
 20
157.1118473925
 10
79.6007459619
 20
157.2070769884
 10
79.5978759241
 20
157.2763413109
 10
79.5851902229
 20
157.3127709247
 10
79.5639477808
 20
157.3127448477
 10
79.5362567013
 20
157.2762668051
  0
LINE
  5
275
330
1F
100
AcDbEntity
  8
0
  6
Continuous
 62
     7
370
    15
100
AcDbLine
 10
79.5362567013
 20
157.2762668051
 30
0.0
 11
75.7349440617
 21
150.4704035737
 31
0.0
  0
ARC
  5
276
330
1F
100
AcDbEntity
  8
0
  6
Continuous
 62
     7
370
    15
100
AcDbCircle
 10
74.3486703273
 20
143.9599127686
 30
0.0
 40
1.25647902771092
100
AcDbArc
 50
339.2242200167
 51
343.4114412923
  0
LINE
  5
277
330
1F
100
AcDbEntity
  8
0
  6
Continuous
 62
     7
370
    15
100
AcDbLine
 10
75.5528542002
 20
143.6011917807
 30
0.0
 11
79.5228889117
 21
156.7719779827
 31
0.0
  0
LWPOLYLINE
  5
278
330
1F
100
AcDbEntity
  8
0
  6
Continuous
 62
     7
370
    15
100
AcDbPolyline
 90
        8
 70
   128
 43
0.0
 10
84.1093957213
 20
155.7882256724
 10
84.1406225016
 20
155.9050284244
 10
84.1662515675
 20
156.028357885
 10
84.1837394772
 20
156.1459839262
 10
84.1913502452
 20
156.2462240375
 10
84.1883295005
 20
156.319131694
 10
84.1749761974
 20
156.357476107
 10
84.1673798648
 20
156.3620842911
  0
LINE
  5
279
330
1F
100
AcDbEntity
  8
0
  6
Continuous
 62
     7
370
    15
100
AcDbLine
 10
80.1393607479
 20
142.6174357451
 30
0.0
 11
84.1093957213
 21
155.7882256724
 31
0.0
  0
LWPOLYLINE
  5
27A
330
1F
100
AcDbEntity
  8
0
  6
Continuous
 62
     7
370
    15
100
AcDbPolyline
 90
        9
 70
   128
 43
0.0
 10
77.2282876795
 20
150.4902258433
 10
77.3063550958
 20
150.7822327234
 10
77.3704277606
 20
151.0905638255
 10
77.4141473019
 20
151.3846196152
 10
77.4331746878
 20
151.6352236189
 10
77.4256218945
 20
151.8174983479
 10
77.3922386368
 20
151.9133575179
 10
77.3363373963
 20
151.9132904626
 10
77.2634660614
 20
151.8173046328
  0
LINE
  5
27B
330
1F
100
AcDbEntity
  8
0
  6
Continuous
 62
     7
370
    15
100
AcDbLine
 10
76.3509850738
 20
147.5797310389
 30
0.0
 11
77.2282876795
 21
150.4902258433
 31
0.0
  0
LINE
  5
27C
330
1F
100
AcDbEntity
  8
0
  6
Continuous
 62
     7
370
    15
100
AcDbLine
 10
77.2634660614
 20
151.8173046328
 30
0.0
 11
76.1916029522
 21
149.898239962
 31
0.0
  0
ARC
  5
27D
330
1F
100
AcDbEntity
  8
0
  6
Continuous
 62
     7
370
    15
100
AcDbCircle
 10
78.7695272085
 20
143.0280082035
 30
0.0
 40
1.430039743897006
100
AcDbArc
 50
340.4395600443
 51
343.3152467301
  0
LINE
  5
27E
330
1F
100
AcDbEntity
  8
0
  6
Continuous
 62
     7
370
    15
100
AcDbLine
 10
80.1186951074
 20
142.5488773651
 30
0.0
 11
84.0266207022
 21
155.513615898
 31
0.0
  0
LINE
  5
27F
330
1F
100
AcDbEntity
  8
0
  6
Continuous
 62
     7
370
    15
100
AcDbLine
 10
82.8929627103
 20
141.9591881253
 30
0.0
 11
86.8008886253
 21
154.9239247955
 31
0.0
  0
LINE
  5
280
330
1F
100
AcDbEntity
  8
0
  6
Continuous
 62
     7
370
    15
100
AcDbLine
 10
87.0709894014
 20
154.999451331
 30
0.0
 11
83.8311118794
 21
144.2509978928
 31
0.0
  0
LINE
  5
281
330
1F
100
AcDbEntity
  8
0
  6
Continuous
 62
     7
370
    15
100
AcDbLine
 10
83.1755001353
 20
142.0759741135
 30
0.0
 11
82.9386347694
 21
141.9494800188
 31
0.0
  0
LWPOLYLINE
  5
282
330
1F
100
AcDbEntity
  8
0
  6
Continuous
 62
     7
370
    15
100
AcDbPolyline
 90
        8
 70
   128
 43
0.0
 10
86.8008886253
 20
154.9239247955
 10
86.839922217
 20
155.0699300982
 10
86.8719583166
 20
155.2240937866
 10
86.8938183201
 20
155.3711235441
 10
86.9033317802
 20
155.4964236833
 10
86.8995557328
 20
155.5875629105
 10
86.882864104
 20
155.6354924954
 10
86.8733688047
 20
155.6412517942
  0
ARC
  5
283
330
1F
100
AcDbEntity
  8
0
  6
Continuous
 62
     7
370
    15
100
AcDbCircle
 10
86.5267959185
 20
155.2089437196
 30
0.0
 40
0.583124007112922
100
AcDbArc
 50
338.9453211002
 51
7.2015712887
  0
LINE
  5
284
330
1F
100
AcDbEntity
  8
0
  6
Continuous
 62
     7
370
    15
100
AcDbLine
 10
83.1755001353
 20
142.0759741135
 30
0.0
 11
83.0872105224
 21
141.9178988702
 31
0.0
  0
CIRCLE
  5
285
330
1F
100
AcDbEntity
  8
VERMASSUNG
  6
CENTERX2
100
AcDbCircle
 10
79.653199741
 20
117.3369508967
 30
0.0
 40
40.0
  0
DIMENSION
  5
286
330
1F
100
AcDbEntity
  8
VERMASSUNG
100
AcDbDimension
  2
_D_5
 10
99.653199741
 20
151.9779670481
 30
0.0
 11
105.1698137336
 21
161.533022769
 31
0.0
 70
   160
  1
%%c<> min. 
 71
     2
 42
-1.0
  3
SLDDIMSTYLE3
100
AcDbAlignedDimension
 13
59.653199741
 23
82.6959347454
 33
0.0
 14
99.653199741
 24
151.9779670481
 34
0.0
 50
60.0
100
AcDbRotatedDimension
  0
INSERT
  5
2A0
330
1F
100
AcDbEntity
  8
VERMASSUNG
100
AcDbBlockReference
  2
SW_CENTERMARKSYMBOL_0
 10
79.653199741
 20
112.3369760729
 30
0.0
  0
OLE2FRAME
  5
2A1
330
1F
100
AcDbEntity
  8
0
100
AcDbOle2Frame
 70
     2
  3
Paintbrush-Bild
 10
13.8511154363
 20
38.264191557
 30
0.0
 11
51.6290888628
 21
31.9806341108
 31
0.0
 71
     2
 72
     0
 73
     1
 90
    12928
310
80552BED0767C5B32B40DDAF6807D121434000000000000000006FFBDDFB85D0
310
4940DDAF6807D121434000000000000000006FFBDDFB85D04940416F4BD60AFB
310
3F4000000000000000002BED0767C5B32B40416F4BD60AFB3F40000000000000
310
0000000000000100000000010000010000000100000000000100000000320000
310
D0CF11E0A1B11AE1000000000000000000000000000000003E000300FEFF0900
310
0600000000000000000000000100000001000000000000000010000002000000
310
01000000FEFFFFFF0000000000000000FFFFFFFFFFFFFFFFFFFFFFFFFFFFFFFF
310
FFFFFFFFFFFFFFFFFFFFFFFFFFFFFFFFFFFFFFFFFFFFFFFFFFFFFFFFFFFFFFFF
310
FFFFFFFFFFFFFFFFFFFFFFFFFFFFFFFFFFFFFFFFFFFFFFFFFFFFFFFFFFFFFFFF
310
FFFFFFFFFFFFFFFFFFFFFFFFFFFFFFFFFFFFFFFFFFFFFFFFFFFFFFFFFFFFFFFF
310
FFFFFFFFFFFFFFFFFFFFFFFFFFFFFFFFFFFFFFFFFFFFFFFFFFFFFFFFFFFFFFFF
310
FFFFFFFFFFFFFFFFFFFFFFFFFFFFFFFFFFFFFFFFFFFFFFFFFFFFFFFFFFFFFFFF
310
FFFFFFFFFFFFFFFFFFFFFFFFFFFFFFFFFFFFFFFFFFFFFFFFFFFFFFFFFFFFFFFF
310
FFFFFFFFFFFFFFFFFFFFFFFFFFFFFFFFFFFFFFFFFFFFFFFFFFFFFFFFFFFFFFFF
310
FFFFFFFFFFFFFFFFFFFFFFFFFFFFFFFFFFFFFFFFFFFFFFFFFFFFFFFFFFFFFFFF
310
FFFFFFFFFFFFFFFFFFFFFFFFFFFFFFFFFFFFFFFFFFFFFFFFFFFFFFFFFFFFFFFF
310
FFFFFFFFFFFFFFFFFFFFFFFFFFFFFFFFFFFFFFFFFFFFFFFFFFFFFFFFFFFFFFFF
310
FFFFFFFFFFFFFFFFFFFFFFFFFFFFFFFFFFFFFFFFFFFFFFFFFFFFFFFFFFFFFFFF
310
FFFFFFFFFFFFFFFFFFFFFFFFFFFFFFFFFFFFFFFFFFFFFFFFFFFFFFFFFFFFFFFF
310
FFFFFFFFFFFFFFFFFFFFFFFFFFFFFFFFFFFFFFFFFFFFFFFFFFFFFFFFFFFFFFFF
310
FDFFFFFFFEFFFFFFFEFFFFFFFEFFFFFF05000000060000000700000008000000
310
090000000A0000000B0000000C0000000D0000000E0000000F00000010000000
310
11000000120000001300000014000000150000001600000017000000FEFFFFFF
310
FFFFFFFFFFFFFFFFFFFFFFFFFFFFFFFFFFFFFFFFFFFFFFFFFFFFFFFFFFFFFFFF
310
FFFFFFFFFFFFFFFFFFFFFFFFFFFFFFFFFFFFFFFFFFFFFFFFFFFFFFFFFFFFFFFF
310
FFFFFFFFFFFFFFFFFFFFFFFFFFFFFFFFFFFFFFFFFFFFFFFFFFFFFFFFFFFFFFFF
310
FFFFFFFFFFFFFFFFFFFFFFFFFFFFFFFFFFFFFFFFFFFFFFFFFFFFFFFFFFFFFFFF
310
FFFFFFFFFFFFFFFFFFFFFFFFFFFFFFFFFFFFFFFFFFFFFFFFFFFFFFFFFFFFFFFF
310
FFFFFFFFFFFFFFFFFFFFFFFFFFFFFFFFFFFFFFFFFFFFFFFFFFFFFFFFFFFFFFFF
310
FFFFFFFFFFFFFFFFFFFFFFFFFFFFFFFFFFFFFFFFFFFFFFFFFFFFFFFFFFFFFFFF
310
FFFFFFFFFFFFFFFFFFFFFFFFFFFFFFFFFFFFFFFFFFFFFFFFFFFFFFFFFFFFFFFF
310
FFFFFFFFFFFFFFFFFFFFFFFFFFFFFFFFFFFFFFFFFFFFFFFFFFFFFFFFFFFFFFFF
310
FFFFFFFFFFFFFFFFFFFFFFFFFFFFFFFFFFFFFFFFFFFFFFFFFFFFFFFFFFFFFFFF
310
FFFFFFFFFFFFFFFFFFFFFFFFFFFFFFFFFFFFFFFFFFFFFFFFFFFFFFFFFFFFFFFF
310
FFFFFFFFFFFFFFFFFFFFFFFFFFFFFFFFFFFFFFFFFFFFFFFFFFFFFFFFFFFFFFFF
310
FFFFFFFFFFFFFFFFFFFFFFFFFFFFFFFFFFFFFFFFFFFFFFFFFFFFFFFFFFFFFFFF
310
52006F006F007400200045006E00740072007900000000000000000000000000
310
0000000000000000000000000000000000000000000000000000000000000000
310
16000500FFFFFFFFFFFFFFFF020000000A00030000000000C000000000000046
310
000000000000000000000000F0331D839239CD0103000000C000000000000000
310
01004F006C006500000000000000000000000000000000000000000000000000
310
0000000000000000000000000000000000000000000000000000000000000000
310
0A000200FFFFFFFFFFFFFFFFFFFFFFFF00000000000000000000000000000000
310
0000000000000000000000000000000000000000000000001400000000000000
310
010043006F006D0070004F0062006A0000000000000000000000000000000000
310
0000000000000000000000000000000000000000000000000000000000000000
310
120002010100000003000000FFFFFFFF00000000000000000000000000000000
310
0000000000000000000000000000000000000000010000004D00000000000000
310
01004F006C006500310030004E00610074006900760065000000000000000000
310
0000000000000000000000000000000000000000000000000000000000000000
310
1A000200FFFFFFFFFFFFFFFFFFFFFFFF00000000000000000000000000000000
310
0000000000000000000000000000000000000000040000002426000000000000
310
FEFFFFFF02000000FEFFFFFFFFFFFFFFFFFFFFFFFFFFFFFFFFFFFFFFFFFFFFFF
310
FFFFFFFFFFFFFFFFFFFFFFFFFFFFFFFFFFFFFFFFFFFFFFFFFFFFFFFFFFFFFFFF
310
FFFFFFFFFFFFFFFFFFFFFFFFFFFFFFFFFFFFFFFFFFFFFFFFFFFFFFFFFFFFFFFF
310
FFFFFFFFFFFFFFFFFFFFFFFFFFFFFFFFFFFFFFFFFFFFFFFFFFFFFFFFFFFFFFFF
310
FFFFFFFFFFFFFFFFFFFFFFFFFFFFFFFFFFFFFFFFFFFFFFFFFFFFFFFFFFFFFFFF
310
FFFFFFFFFFFFFFFFFFFFFFFFFFFFFFFFFFFFFFFFFFFFFFFFFFFFFFFFFFFFFFFF
310
FFFFFFFFFFFFFFFFFFFFFFFFFFFFFFFFFFFFFFFFFFFFFFFFFFFFFFFFFFFFFFFF
310
FFFFFFFFFFFFFFFFFFFFFFFFFFFFFFFFFFFFFFFFFFFFFFFFFFFFFFFFFFFFFFFF
310
FFFFFFFFFFFFFFFFFFFFFFFFFFFFFFFFFFFFFFFFFFFFFFFFFFFFFFFFFFFFFFFF
310
FFFFFFFFFFFFFFFFFFFFFFFFFFFFFFFFFFFFFFFFFFFFFFFFFFFFFFFFFFFFFFFF
310
FFFFFFFFFFFFFFFFFFFFFFFFFFFFFFFFFFFFFFFFFFFFFFFFFFFFFFFFFFFFFFFF
310
FFFFFFFFFFFFFFFFFFFFFFFFFFFFFFFFFFFFFFFFFFFFFFFFFFFFFFFFFFFFFFFF
310
FFFFFFFFFFFFFFFFFFFFFFFFFFFFFFFFFFFFFFFFFFFFFFFFFFFFFFFFFFFFFFFF
310
FFFFFFFFFFFFFFFFFFFFFFFFFFFFFFFFFFFFFFFFFFFFFFFFFFFFFFFFFFFFFFFF
310
FFFFFFFFFFFFFFFFFFFFFFFFFFFFFFFFFFFFFFFFFFFFFFFFFFFFFFFFFFFFFFFF
310
FFFFFFFFFFFFFFFFFFFFFFFFFFFFFFFFFFFFFFFFFFFFFFFFFFFFFFFFFFFFFFFF
310
0100000200000000000000000000000000000000000000000000000000000000
310
0000000000000000000000000000000000000000000000000000000000000000
310
0100FEFF030A0000FFFFFFFF0A00030000000000C00000000000004607000000
310
5042727573680007000000504272757368000700000050427275736800F439B2
310
7100000000000000000000000000000000000000000000000000000000000000
310
0000000000000000000000000000000000000000000000000000000000000000
310
0000000000000000000000000000000000000000000000000000000000000000
310
0000000000000000000000000000000000000000000000000000000000000000
310
0000000000000000000000000000000000000000000000000000000000000000
310
0000000000000000000000000000000000000000000000000000000000000000
310
0000000000000000000000000000000000000000000000000000000000000000
310
0000000000000000000000000000000000000000000000000000000000000000
310
0000000000000000000000000000000000000000000000000000000000000000
310
0000000000000000000000000000000000000000000000000000000000000000
310
0000000000000000000000000000000000000000000000000000000000000000
310
0000000000000000000000000000000000000000000000000000000000000000
310
20260000424D0E260000000000003E00000028000000B40200006E0000000100
310
01000000000000000000130B0000130B00000200000002000000000000FFFFFF
310
FFFFFFFFFFFFFFFFFFFFFFFFFFFFFFFFFFFFFFFFFFFFFFFFFFFFFFFFFFFFFFFF
310
FFFFFFFFFFFFFFFFFFFFFFFFFFFFFFFFFFFFFFFFFFFFFFFFFFFFFFFFFFFFFFFF
310
FFFFFFFFFFFFFFFFFFFFFFFFFFFFFFFFFFFFFFFFFFFFFFFFF000FFFFFFFFFFFF
310
FFFFFFFFFFFFFFFFFFFFFFFFFFFFFFFFFFFFFFFFFFFFFFFFFFFFFFFFFFFFFFFF
310
FFFFFFFFFFFFFFFFFFFFFFFFFFFFFFFFFFFFFFFFFFFFFFFFFFFFFFFFFFFFFFFF
310
FFFFFFFFFFFFFFFFFFFFFFFFFFFFFFFFF000FFFFFFFFFFFFFFFFFFFFFFFFFFFF
310
FFFFFFFFFFFFFFFFFFFFFFFFFFFFFFFFFFFFFFFFFFFFFFFFFFFFFFFFFFFFFFFF
310
FFFFFFFFFFFFFFFFFFFFFFFFFFFFFFFFFFFFFFFFFFFFFFFFFFFFFFFFFFFFFFFF
310
FFFFFFFFFFFFFFFFF000FFFFFFFFFFFFFFFFFFFFFFFFFFFFFFFFFFFFFFFFFFFF
310
FFFFFFFFFFFFFFFFFFFFFFFFFFFFFFFFFFFFFFFFFFFFFFFFFFFFFFFFFFFFFFFF
310
FFFFFFFFFFFFFFFFFFFFFFFFFFFFFFFFFFFFFFFFFFFFFFFFFFFFFFFFFFFFFFFF
310
F000FFFFFFFFFFFFFFFFFFFFFFFFFFFFFFFFFFFFFFFFFFFFFFFFFFFFFFFFFFFF
310
FFFFFFFFFFFFFFFFFFFFFFFFFFFFFFFFFFFFFFFFFFFFFFFFFFFFFFFFFFFFFFFF
310
FFFFFFFFFFFFFFFFFFFFFFFFFFFFFFFFFFFFFFFFFFFFFFFFF000FFFFFFFFFFFF
310
FFFFFFFFFFFFFFFFFFFFFFFFFFFFFFFFFFFFFFFFFFFFFFFFFFFFFFFFFFFFFFFF
310
FFFFFFFFFFFFFFFFFFFFFFFFFFFFFFFFFFFFFFFFFFFFFFFFFFFFFFFFFFFFFFFF
310
FFFFFFFFFFFFFFFFFFFFFFFFFFFFFFFFF000FFFFFFFFFFFFFFFFFFFFFFFFFFFF
310
FFFFFFFFFFFFFFFFFFFFFFFFFFFFFFFFFFFFFFFFFFFFFFFFFFFFFFFFFFFFFFFF
310
FFFFFFFFFFFFFFFFFFFFFFFFFFFFFFFFFFFFFFFFFFFFFFFFFFFFFFFFFFFFFFFF
310
FFFFFFFFFFFFFFFFF000FFFFFFFFFFFFFFFFFFFFFFFFFFFFFFFFFFFFFFFFFFFF
310
FFFFFFFFFFFFFFFFFFFFFFFFFFFFFFFFFFFFFFFFFFFFFFFFFFFFFFFFFFFFFFFF
310
FFFFFFFFFFFFFFFFFFFFFFFFFFFFFFFFFFFFFFFFFFFFFFFFFFFFFFFFFFFFFFFF
310
F000FFFFFFFFFFFFFFFFFFFFFFFFFFFFFFFFFFFFFFFFFFFFFFFFFFFFFFFFFFFF
310
FFFFFFFFFFFFFFFFFFFFFFFFFFFFFFFFFFFFFFFFFFFFFFFFFFFFFFFFFFFFFFFF
310
FFFFFFFFFFFFFFFFFFFFFFFFFFFFFFFFFFFFFFFFFFFFFFFFF000FFFFFFFFFFFF
310
FFFFFFFFFFFFFFFFFFFFFFFFFFFFFFFFFFFFFFFFFFFFFFFFFFFFFFFFFFFFFFFF
310
FFFFFFFFFFFFFFFFFFFFFFFFFFFFFFFFFFFFFFFFFFFFFFFFFFFFFFFFFFFFFFFF
310
FFFFFFFFFFFFFFFFFFFFFFFFFFFFFFFFF000FFFFFFFFFFFFFFFFFFFFFFFFFFFF
310
FFFFFFFFFFFFFFFFFFFFFFFFFFFFFFFFFFFFFFFFFFFFFFFFFFFFFFFFFFFFFFFF
310
FFFFFFFFFFFFFFFFFFFFFFFFFFFFFFFFFFFFFFFFFFFFFFFFFFFFFFFFFFFFFFFF
310
FFFFFFFFFFFFFFFFF000FFFFFFFFFFFFFFFFFFFFFFFFFFFFFFFFFFFFFFFFFFFF
310
FFFFFFFFFFFFFFFFFFFFFFFFFFFFFFFFFFFFFFFFFFFFFFFFFFFFFFFFFFFFFFFF
310
FFFFFFFFFFFFFFFFFFFFFFFFFFFFFFFFFFFFFFFFFFFFFFFFFFFFFFFFFFFFFFFF
310
F000FFFFFFFFFFFFFFFFFFFFFFFFFFFFFFFFFFFFFFFFFFFFFFFFFFFFFFFFFFFF
310
FFFFFFFFFFFFFFFFFFFFFFFFFFFFFFFFFFFFFFFFFFFFFFFFFFFFFFFFFFFFFFFF
310
FFFFFFFFFFFFFFFFFFFFFFFFFFFFFFFFFFFFFFFFFFFFFFFFF000FFFFFFFFFFFF
310
FFFFFFFFFFFFFFFFFFFFFFFFFFFFFFFFFFFFFFFFFFFFFFFFFFFFFFFFFFFFFFFF
310
FFFFFFFFFFFFFFFFFFFFFFFFFFFFFFFFFFFFFFFFFFFFFFFFFFFFFFFFFFFFFFFF
310
FFFFFFFFFFFFFFFFFFFFFFFFFFFFFFFFF000FFFFFFFFFFFFFFFFFFFFFFFFFFFF
310
FFFFFFFFFFFFFFFFFFFFFFFFFFFFFFFFFFFFFFFFFFFFFFFFFFFFFFFFFFFFFFFF
310
FFFFFFFFFFFFFFFFFFFFFFFFFFFFFFFFFFFFFFFFFFFFFFFFFFFFFFFFFFFFFFFF
310
FFFFFFFFFFFFFFFFF000FFFFFFFFFFFFFFFFFFFFFFFFFFFFFFFFFFFFFFFFFFFF
310
FFFFFFFFFFFFFFFFFFFFFFFFFFFFFFFFFFFFFFFFFFFFFFFFFFFFFFFFFFFFFFFF
310
FFFFFFFFFFFFFFFFFFFFFFFFFFFFFFFFFFFFFFFFFFFFFFFFFFFFFFFFFFFFFFFF
310
F000FFFFFFFFFFFFFFFFFFFFFFFFFFFFFFFFFFFFFFFFFFFFFFFFFFFFFFFFFFFF
310
FFFFFFFFFFFFFFFFFFFFFFFFFFFFFFFFFFFFFFFFFFFFFFFFFFFFFFFFFFFFFFFF
310
FFFFFFFFFFFFFFFFFFFFFFFFFFFFFFFFFFFFFFFFFFFFFFFFF000FFFFFFFFFFFF
310
FFFFFFFFFFFFFFFFFFFFFFFFFFFFFFFFFFFFFFFFFFFFFFFFFFFFFFFFFFFFFFFF
310
FFFFFFFFFFFFFFFFFFFFFFFFFFFFFFFFFFFFFFFFFFFFFFFFFFFFFFFFFFFFFFFF
310
FFFFFFFFFFFFFFFFFFFFFFFFFFFFFFFFF000FFFFFFFFFFFFFFFFFFFFFFFFFFFF
310
FFFFFFFFFFFFFFFFFFFFFFFFFFFFFFFFFFFFFFFFFFFFFFFFFFFFFFFFFFFFFFFF
310
FFFFFFFFFFFFFFFFFFFFFFFFFFFFFFFFFFFFFFFFFFFFFFFFFFFFFFFFFFFFFFFF
310
FFFFFFFFFFFFFFFFF000FFFFF80003FFFFFFFFFFFFFFFFFFFFFFFFFFFFFFFFFF
310
FFFFF00007FFFFFFFFFF00007FFFFFF800000000000000007FFFFFFFFFFFFFFF
310
FFFFFFFC001FFFFFFFFFFFFFFC001FFFFFFFFFFFFFFFFFFFFFFFFFFE0007FFFF
310
F000FFFF8000007FFFFFFFF8000FFFFFC0007FFFFF80007FFFFF0000007FFFFF
310
FFF8000007FFFFF800000000000000007FFFFFF0001FFFFFFFFFFFC00001FFFF
310
FFFFFFFFC00001FFFFFFFF000000000003FFFFE000007FFFF000FFFE0000000F
310
FFFFFFF0000FFFFF80007FFFFF80007FFFFC0000001FFFFFFFC0000001FFFFF8
310
00000000000000007FFFFFF0001FFFFFFFFFFE0000003FFFFFFFFFFE0000003F
310
FFFFFF000000000003FFFF0000000FFFF000FFF800000003FFFFFFF00007FFFF
310
80007FFFFF80007FFFF000000007FFFFFF000000003FFFF80000000000000000
310
7FFFFFF0001FFFFFFFFFF80000000FFFFFFFFFF80000000FFFFFFF0000000000
310
03FFFC00000003FFF000FFE000000000FFFFFFF00007FFFF80003FFFFF80007F
310
FFC000000001FFFFFC000000001FFFF800000000000000007FFFFFF0001FFFFF
310
FFFFE000000003FFFFFFFFE000000003FFFFFF000000000003FFF000000000FF
310
F000FF80000000007FFFFFF00007FFFF80003FFFFF80007FFF8000000000FFFF
310
F80000000007FFF800000000000000007FFFFFF0001FFFFFFFFFC000000001FF
310
FFFFFFC000000001FFFFFF000000000003FFC0000000007FF000FF0000000000
310
3FFFFFE00007FFFF00003FFFFF80007FFE00000000003FFFF00000000003FFF8
310
00000000000000007FFFFFF0001FFFFFFFFF8000000000FFFFFFFF8000000000
310
FFFFFF000000000003FF80000000003FF000FE00000000001FFFFFE00003FFFF
310
00003FFFFF80007FFC00000000001FFFE00000000001FFF8000001FFFE000000
310
7FFFFFF0001FFFFFFFFE00000000003FFFFFFE00000000003FFFFF0000000000
310
03FF00000000001FF000FC00000000000FFFFFE00003FFFF00001FFFFF80007F
310
F800000000001FFFC00000000000FFF8000001FFFE0000007FFFFFF0001FFFFF
310
FFFC00000000001FFFFFFC00000000001FFFFF000000000003FE00000000000F
310
F000F8000000000007FFFFE00003FFFF00001FFFFF80007FF800000000000FFF
310
800000000000FFF8000001FFFE0000007FFFFFF0001FFFFFFFF800000000000F
310
FFFFF800000000000FFFFF000000000003FC000000000007F000F80000000000
310
03FFFFC00003FFFE00001FFFFF80007FF0000000000007FF0000000000007FF8
310
000001FFFE0000007FFFFFF0001FFFFFFFF0000000000007FFFFF00000000000
310
07FFFF000000000003F8000000000003F000F0000000000003FFFFC00001FFFE
310
00001FFFFF80007FE0000000000007FE0000000000003FF8000001FFFE000000
310
7FFFFFF0001FFFFFFFF0000000000007FFFFF0000000000007FFFF0000000000
310
03F800001F800003F000E00001FFF00001FFFFC00001FFFE00000FFFFF80007F
310
E00001FFE00003FE00001FFF00003FF8000001FFFE0000007FFFFFF0001FFFFF
310
FFE000003E000003FFFFE000003E000003FFFF000000000003F00001FFF80001
310
F000E00007FFFC0001FFFFC00001FFFE00000FFFFF80007FC0000FFFFC0003FC
310
0000FFFFC0001FF8000001FFFE0000007FFFFFF0001FFFFFFFC00003FFE00001
310
FFFFC00003FFE00001FFFF0001FFFFFFFFF00007FFFE0001F000E0000FFFFF00
310
00FFFF800001FFFC00000FFFFF80007FC0001FFFFE0001FC0001FFFFE0001FF8
310
000001FFFE0000007FFFFFF0001FFFFFFF80000FFFF80000FFFF80000FFFF800
310
00FFFF0003FFFFFFFFE0000FFFFF8000F000C0003FFFFF8000FFFF800000FFFC
310
000007FFFF80007F80003FFFFF0001FC0003FFFFF0001FF8000001FFFE000000
310
7FFFFFF0001FFFFFFF80003FFFFE0000FFFF80003FFFFE0000FFFF0003FFFFFF
310
FFE0003FFFFF8000F000C0003FFFFF8000FFFF800000FFFC000007FFFF80007F
310
80007FFFFF8001F80007FFFFF8000FF8000001FFFE0000007FFFFFF0001FFFFF
310
FF00007FFFFF00007FFF00007FFFFF00007FFF0003FFFFFFFFE0003FFFFFC000
310
F000C0007FFFFFC000FFFF000000FFFC000007FFFF80007F8000FFFFFF8000F8
310
000FFFFFF8000FF8000001FFFE0000007FFFFFF0001FFFFFFF0000FFFFFF8000
310
7FFF0000FFFFFF80007FFF0003FFFFFFFFC0007FFFFFC00070008000FFFFFFC0
310
00FFFF000000FFF8000007FFFF80007F8000FFFFFF8000F8000FFFFFF8000FF8
310
000001FFFE0000007FFFFFF0001FFFFFFE0001FFFFFFC0003FFE0001FFFFFFC0
310
003FFF0003FFFFFFFFC0007FFFFFE00070008000FFFFFFC0007FFF0000007FF8
310
000003FFFF80007F0001FFFFFF8000F8000FFFFFF8000FF8000001FFFE000000
310
7FFFFFF0001FFFFFFE0001FFFFFFC0003FFE0001FFFFFFC0003FFF0003FFFFFF
310
FFC000FFFFFFE00070008000FFFFFFC0007FFF0000007FF8000003FFFF80007F
310
0001FFFFFF8000F8001FFFFFF8000FF8000001FFFE0000007FFFFFF0001FFFFF
310
FE0003FFFFFFE0003FFE0003FFFFFFE0003FFF0003FFFFFFFFC000FFFFFFE000
310
70008000FFFFFFC0007FFE0000007FF8000003FFFF80007F0001FFFFFF8000F0
310
001FFFFFF8000FF8000001FFFE0000007FFFFFF0001FFFFFFC0003FFFFFFE000
310
1FFC0003FFFFFFE0001FFF0003FFFFFFFFC000FFFFFFC00070008000FFFFFF80
310
007FFE0000007FF0000003FFFF80007F0001FFFFFF0000F0001FFFFFF8000FF8
310
000001FFFE0000007FFFFFF0001FFFFFFC0007FFFFFFF0001FFC0007FFFFFFF0
310
001FFF0003FFFFFFFFC000FFFFFFC00070008001FFFFFF0000FFFE0000003FF0
310
000001FFFF80007F0001FFFFFF0000F8001FFFFFF0000FF8000001FFFE000000
310
7FFFFFF0001FFFFFFC0007FFFFFFF0001FFC0007FFFFFFF0001FFF0003FFFFFF
310
FFC001FFFFFF80007000FFFFFFFFFE0000FFFE0008003FF0008001FFFF80007F
310
FFFFFFFFFC0000FFFFFFFFFFE0000FF8000001FFFE0000007FFFFFF0001FFFFF
310
F8000FFFFFFFF8000FF8000FFFFFFFF8000FFF0003FFFFFFFFFFFFFFFFFF0000
310
7000FFFFFFFFFC0000FFFC0008003FF0008001FFFF80007FFFFFFFFFF80001FF
310
FFFFFFFF80000FF8000001FFFE0000007FFFFFF0001FFFFFF8000FFFFFFFF800
310
0FF8000FFFFFFFF8000FFF0003FFFFFFFFFFFFFFFFFE0000F000FFFFFFFFE000
310
00FFFC000C003FE000C001FFFF80007FFFFFFFFFC00001FFFFFFFFFE00001FF8
310
000001FFFE0000007FFFFFF0001FFFFFF8000FFFFFFFF8000FF8000FFFFFFFF8
310
000FFF0003FFFFFFFFFFFFFFFFF00000F000FFFFFFFE000001FFFC000C001FE0
310
00C000FFFF80007FFFFFFFFE000001FFFFFFFFE000001FF80FFFFFFFFFFFFFC0
310
7FFFFFF0001FFFFFF8000FFFFFFFF8000FF8000FFFFFFFF8000FFF0003FFFFFF
310
FFFFFFFFFF800000F000FFFFFFC0000001FFFC001C001FE001C000FFFF80007F
310
FFFFFF80000003FFFFFFF80000001FF80FFFFFFFFFFFFFC07FFFFFF0001FFFFF
310
F8001FFFFFFFFC000FF8001FFFFFFFFC000FFF0003FFFFFFFFFFFFFFF0000001
310
F000FFFFF800000001FFF8001C001FE001C000FFFF80007FFFFFF800000003FF
310
FFFF800000003FF80FFFFFFFFFFFFFC07FFFFFF0001FFFFFF8001FFFFFFFFC00
310
0FF8001FFFFFFFFC000FFF0003FFFFFFFFFFFFFE00000001F000FFFFC0000000
310
03FFF8001E001FC001E000FFFF80007FFFFF8000000007FFFFFC000000003FF8
310
0FFFFFFFFFFFFFC07FFFFFF0001FFFFFF8001FFFFFFFFC000FF8001FFFFFFFFC
310
000FFF0003FFFFFFFFFFFFE000000003F000FFFE0000000007FFF8001E000FC0
310
01E0007FFF80007FFFFE0000000007FFFFE0000000007FF80FFFFFFFFFFFFFC0
310
7FFFFFF0001FFFFFF0001FFFFFFFFC0007F0001FFFFFFFFC0007FF0003FFFFFF
310
FFFFFF0000000003F000FFF80000000007FFF8001E000FC003E0007FFF80007F
310
FFF0000000000FFFFF8000000000FFF80FFFFFFFFFFFFFC07FFFFFF0001FFFFF
310
F0001FFFFFFFFC0007F0001FFFFFFFFC0007FF0003FFFFFFFFFFFC0000000007
310
F000FFE0000000000FFFF0003E000FC003E0007FFF80007FFFC0000000001FFF
310
FE0000000001FFF80FFFFFFFFFFFFFC07FFFFFF0001FFFFFF0001FFFFFFFFC00
310
07F0001FFFFFFFFC0007FF0003FFFFFFFFFFF0000000000FF000FFC000000000
310
1FFFF0003F000F8003F0003FFF80007FFF80000000003FFFF80000000003FFF8
310
0FFFFFFFFFFFFFC07FFFFFF0001FFFFFF0001FFFFFFFFC0007F0001FFFFFFFFC
310
0007FF0003FFFFFFFFFFE0000000001FF000FF00000000007FFFF0003F000780
310
03F0003FFF80007FFF00000000007FFFF00000000007FFF80FFFFFFFFFFFFFC0
310
7FFFFFF0001FFFFFF0001FFFFFFFFC0007F0001FFFFFFFFC0007FF0003FFFFFF
310
FFFF80000000007FF000FE0000000000FFFFE0003F00078007F0003FFF80007F
310
FE0000000001FFFFE0000000001FFFF80FFFFFFFFFFFFFC07FFFFFF0001FFFFF
310
F0001FFFFFFFFC0007F0001FFFFFFFFC0007FF0003FFFFFFFFFF0000000000FF
310
F000FC0000000003FFFFE0007F00078007F0003FFF80007FFC0000000007FFFF
310
C0000000007FFFF80FFFFFFFFFFFFFC07FFFFFF0001FFFFFF8001FFFFFFFFC00
310
0FF8001FFFFFFFFC000FFF0003FFFFFFFFFE0000000003FFF000FC000000000F
310
FFFFE0007F80070007F8001FFF80007FF8000000001FFFFF8000000001FFFFF8
310
0FFFFFFFFFFFFFC07FFFFFF0001FFFFFF8001FFFFFFFFC000FF8001FFFFFFFFC
310
000FFF0003FFFFFFFFFC000000000FFFF000F8000000007FFFFFE0007F800700
310
07F8001FFF80007FF000000000FFFFFF800000000FFFFFF80FFFFFFFFFFFFFC0
310
7FFFFFF0001FFFFFF8000FFFFFFFF8000FF8000FFFFFFFF8000FFF0003FFFFFF
310
FFFC000000007FFFF000F800000007FFFFFFC0007F8003000FF8001FFF80007F
310
F000000007FFFFFF000000007FFFFFF80FFFFFFFFFFFFFC07FFFFFF0001FFFFF
310
F8000FFFFFFFF8000FF8000FFFFFFFF8000FFF0003FFFFFFFFF80000000FFFFF
310
F000F0000000FFFFFFFFC000FF8003000FF8001FFF80007FE0000000FFFFFFFF
310
0000000FFFFFFFF8000001FFFE0000007FFFFFF0001FFFFFF8000FFFFFFFF800
310
0FF8000FFFFFFFF8000FFF0003FFFFFFFFF8000000FFFFFFF000F000000FFFFF
310
FFFFC000FFC002000FF8000FFF80007FE000001FFFFFFFFE000001FFFFFFFFF8
310
000001FFFE0000007FFFFFF0001FFFFFF8000FFFFFFFF8000FF8000FFFFFFFF8
310
000FFF0003FFFFFFFFF000001FFFFFFFF000E00000FFFFFFFFFFC000FFC00200
310
0FFC000FFF80007FE00001FFFFFFFFFE00001FFFFFFFFFF8000001FFFE000000
310
7FFFFFF0001FFFFFFC000FFFFFFFF8001FFC000FFFFFFFF8001FFF0003FFFFFF
310
FFF00001FFFFFFFFF000E00007FFFFFFFFFF8000FFC000001FFC000FFF80007F
310
C0000FFFFFFFFFFE0000FFFFFFFFFFF8000001FFFE0000007FFFFFF0001FFFFF
310
FC0007FFFFFFF0001FFC0007FFFFFFF0001FFF0003FFFFFFFFF00007FFFFFFFF
310
F000E0001FFFFFFFFFFF8000FFC000001FFC000FFF80007FC0003FFFFFFFFFFE
310
0001FFFFFFFFFFF8000001FFFE0000007FFFFFF0001FFFFFFC0007FFFFFFF000
310
1FFC0007FFFFFFF0001FFF0003FFFFFFFFF0001FFFFFFFFFF000E0003FFFFF00
310
03FF8001FFE000001FFC0007FF80007FC0007FFFFF0007FC0003FFFFF0003FF8
310
000001FFFE0000007FFFFFF0001FFFFFFC0003FFFFFFE0001FFC0003FFFFFFE0
310
001FFF0003FFFFFFFFF0003FFFFFFFFFF000E0003FFFFF0001FF8001FFE00000
310
1FFE0007FF80007FC0007FFFFE0003FC0007FFFFE0003FF8000001FFFE000000
310
7FFFFFF0001FFFFFFE0003FFFFFFE0003FFE0003FFFFFFE0003FFF0003FFFFFF
310
FFF0003FFFFF8001F000E0003FFFFF0001FF0001FFE000001FFE0007FF80007F
310
C0007FFFFE0003FC0007FFFFE0003FF8000001FFFE0000007FFFFFF0001FFFFF
310
FE0001FFFFFFC0003FFE0001FFFFFFC0003FFF0003FFFFFFFFF0003FFFFF0001
310
F000E0003FFFFF0003FF0001FFE000003FFE0007FF80007FC0007FFFFE0003FC
310
0007FFFFE0003FF8000001FFFE0000007FFFFFF0001FFFFFFF0001FFFFFFC000
310
7FFF0001FFFFFFC0007FFF0003FFFFFFFFF0003FFFFF0001F000E0003FFFFE00
310
03FF0003FFF000003FFE0003FF80007FC0007FFFFC0003FE0007FFFFE0003FF8
310
000001FFFE0000007FFFFFF0001FFFFFFF0000FFFFFF80007FFF0000FFFFFF80
310
007FFF0003FFFFFFFFF0003FFFFF0001F000E0003FFFFE0003FF0003FFF00000
310
3FFF0003FF80007FC0007FFFFC0007FE0007FFFFC0003FF8000001FFFE000000
310
7FFFFFF0001FFFFFFF80007FFFFF0000FFFF80007FFFFF0000FFFF0003FFFFFF
310
FFF0003FFFFF0003F000E0003FFFFC0003FE0003FFF000003FFF0003FF80007F
310
E0003FFFF80007FE0003FFFFC0007FF8000001FFFE0000007FFFFFF0001FFFFF
310
FF80003FFFFE0000FFFF80003FFFFE0000FFFF0003FFFFFFFFF0001FFFFE0003
310
F000F0001FFFF80003FE0003FFF000007FFF0001FF80007FE0003FFFF00007FE
310
0001FFFF80007FF8000001FFFE0000007FFFFFF0001FFFFFFFC0000FFFF80001
310
FFFFC0000FFFF80001FFFF0003FFFFFFFFF0001FFFFC0003F000F0000FFFF000
310
07FE0007FFF800007FFF0001FF80007FE0001FFFE00007FF0000FFFE00007FF8
310
000001FFFE0000007FFFFFF0001FFFFFFFC00003FFE00001FFFFC00003FFE000
310
01FFFF0003FFFFFFFFF8000FFFF80003F000F00003FFC00007FC0007FFF80000
310
7FFF8001FF80007FF00007FF80000FFF00007FF80000FFF8000001FFFE000000
310
7F80000000000001FFE000003E000003FFFFE000003E000003FFFF0003FFFFFF
310
FFF80003FFE00007F000F800000000000FFC0007FFF800007FFF8001FF80007F
310
F000000000000FFF000000000000FFF8000001FFFE0000007F80000000000001
310
FFF0000000000007FFFFF0000000000007FFFF0003FFFFFFFFFC00007E000007
310
F000F800000000000FFC0007FFF80000FFFF8000FF80007FF800000000001FFF
310
800000000001FFF8000001FFFE0000007F80000000000001FFF800000000000F
310
FFFFF800000000000FFFFF0003FFFFFFFFFC00000000000FF000FC0000000000
310
1FFC0007FFFC0000FFFF8000FF80007FF800000000003FFFC00000000001FFF8
310
000001FFFE0000007F80000000000001FFF800000000000FFFFFF80000000000
310
0FFFFF0003FFFFFFFFFE00000000001FF000FE00000000003FF8000FFFFC0000
310
FFFF8000FF80007FFC00000000003FFFC00000000003FFF8000001FFFE000000
310
7F80000000000001FFFC00000000001FFFFFFC00000000001FFFFF0003FFFFFF
310
FFFF00000000001FF000FF00000000003FF8000FFFFC0000FFFFC000FF80007F
310
FE00000000007FFFE00000000007FFF8000001FFFE0000007F80000000000001
310
FFFE00000000003FFFFFFE00000000003FFFFF0003FFFFFFFFFF80000000003F
310
F000FF80000000007FF8000FFFFC0001FFFFC0007F80007FFF0000000000FFFF
310
F0000000000FFFF800000000000000007F80000000000001FFFF8000000000FF
310
FFFFFF8000000000FFFFFF0003FFFFFFFFFFC0000000007FF000FFC000000000
310
FFF8000FFFFE0001FFFFC0007F80007FFF8000000001FFFFF8000000001FFFF8
310
00000000000000007F80000000000001FFFFC000000001FFFFFFFFC000000001
310
FFFFFF0003FFFFFFFFFFE000000000FFF000FFE000000003FFF0001FFFFE0001
310
FFFFC0007F80007FFFC000000007FFFFFE000000003FFFF80000000000000000
310
7F80000000000001FFFFE000000003FFFFFFFFE000000003FFFFFF0003FFFFFF
310
FFFFF000000003FFF000FFF80000000FFFF0001FFFFE0001FFFFE0007F80007F
310
FFF00000000FFFFFFF00000000FFFFF800000000000000007F80000000000001
310
FFFFF80000000FFFFFFFFFF80000000FFFFFFF0003FFFFFFFFFFFC0000000FFF
310
F000FFFE0000003FFFF0001FFFFE0003FFFFE0003F80007FFFFC0000003FFFFF
310
FFC0000003FFFFF800000000000000007F80000000000001FFFFFE0000003FFF
310
FFFFFFFE0000003FFFFFFF0003FFFFFFFFFFFF0000003FFFF000FFFF800000FF
310
FFF0001FFFFF0003FFFFE0003F80007FFFFF000001FFFFFFFFF800001FFFFFF8
310
00000000000000007F80000000000001FFFFFFC00001FFFFFFFFFFFFC00001FF
310
FFFFFF0003FFFFFFFFFFFFC00000FFFFF000FFFFF8000FFFFFFFFFFFFFFFFFFF
310
FFFFFFFFFFFFFFFFFFFFF0001FFFFFFFFFFF0000FFFFFFF80000000000000000
310
7FFFFFFFFFFFFFFFFFFFFFFC001FFFFFFFFFFFFFFC001FFFFFFFFFFFFFFFFFFF
310
FFFFFFFC001FFFFFF000FFFFFFFFFFFFFFFFFFFFFFFFFFFFFFFFFFFFFFFFFFFF
310
FFFFFFFFFFFFFFFFFFFFFFFFFFFFFFFFFFFFFFFFFFFFFFFFFFFFFFFFFFFFFFFF
310
FFFFFFFFFFFFFFFFFFFFFFFFFFFFFFFFFFFFFFFFFFFFFFFFFFFFFFFFFFFFFFFF
310
F000FFFFFFFFFFFFFFFFFFFFFFFFFFFFFFFFFFFFFFFFFFFFFFFFFFFFFFFFFFFF
310
FFFFFFFFFFFFFFFFFFFFFFFFFFFFFFFFFFFFFFFFFFFFFFFFFFFFFFFFFFFFFFFF
310
FFFFFFFFFFFFFFFFFFFFFFFFFFFFFFFFFFFFFFFFFFFFFFFFF000FFFFFFFFFFFF
310
FFFFFFFFFFFFFFFFFFFFFFFFFFFFFFFFFFFFFFFFFFFFFFFFFFFFFFFFFFFFFFFF
310
FFFFFFFFFFFFFFFFFFFFFFFFFFFFFFFFFFFFFFFFFFFFFFFFFFFFFFFFFFFFFFFF
310
FFFFFFFFFFFFFFFFFFFFFFFFFFFFFFFFF000FFFFFFFFFFFFFFFFFFFFFFFFFFFF
310
FFFFFFFFFFFFFFFFFFFFFFFFFFFFFFFFFFFFFFFFFFFFFFFFFFFFFFFFFFFFFFFF
310
FFFFFFFFFFFFFFFFFFFFFFFFFFFFFFFFFFFFFFFFFFFFFFFFFFFFFFFFFFFFFFFF
310
FFFFFFFFFFFFFFFFF000FFFFFFFFFFFFFFFFFFFFFFFFFFFFFFFFFFFFFFFFFFFF
310
FFFFFFFFFFFFFFFFFFFFFFFFFFFFFFFFFFFFFFFFFFFFFFFFFFFFFFFFFFFFFFFF
310
FFFFFFFFFFFFFFFFFFFFFFFFFFFFFFFFFFFFFFFFFFFFFFFFFFFFFFFFFFFFFFFF
310
F000FFFFFFFFFFFFFFFFFFFFFFFFFFFFFFFFFFFFFFFFFFFFFFFFFFFFFFFFFFFF
310
FFFFFFFFFFFFFFFFFFFFFFFFFFFFFFFFFFFFFFFFFFFFFFFFFFFFFFFFFFFFFFFF
310
FFFFFFFFFFFFFFFFFFFFFFFFFFFFFFFFFFFFFFFFFFFFFFFFF000FFFFFFFFFFFF
310
FFFFFFFFFFFFFFFFFFFFFFFFFFFFFFFFFFFFFFFFFFFFFFFFFFFFFFFFFFFFFFFF
310
FFFFFFFFFFFFFFFFFFFFFFFFFFFFFFFFFFFFFFFFFFFFFFFFFFFFFFFFFFFFFFFF
310
FFFFFFFFFFFFFFFFFFFFFFFFFFFFFFFFF000FFFFFFFFFFFFFFFFFFFFFFFFFFFF
310
FFFFFFFFFFFFFFFFFFFFFFFFFFFFFFFFFFFFFFFFFFFFFFFFFFFFFFFFFFFFFFFF
310
FFFFFFFFFFFFFFFFFFFFFFFFFFFFFFFFFFFFFFFFFFFFFFFFFFFFFFFFFFFFFFFF
310
FFFFFFFFFFFFFFFFF000FFFFFFFFFFFFFFFFFFFFFFFFFFFFFFFFFFFFFFFFFFFF
310
FFFFFFFFFFFFFFFFFFFFFFFFFFFFFFFFFFFFFFFFFFFFFFFFFFFFFFFFFFFFFFFF
310
FFFFFFFFFFFFFFFFFFFFFFFFFFFFFFFFFFFFFFFFFFFFFFFFFFFFFFFFFFFFFFFF
310
F000FFFFFFFFFFFFFFFFFFFFFFFFFFFFFFFFFFFFFFFFFFFFFFFFFFFFFFFFFFFF
310
FFFFFFFFFFFFFFFFFFFFFFFFFFFFFFFFFFFFFFFFFFFFFFFFFFFFFFFFFFFFFFFF
310
FFFFFFFFFFFFFFFFFFFFFFFFFFFFFFFFFFFFFFFFFFFFFFFFF000FFFFFFFFFFFF
310
FFFFFFFFFFFFFFFFFFFFFFFFFFFFFFFFFFFFFFFFFFFFFFFFFFFFFFFFFFFFFFFF
310
FFFFFFFFFFFFFFFFFFFFFFFFFFFFFFFFFFFFFFFFFFFFFFFFFFFFFFFFFFFFFFFF
310
FFFFFFFFFFFFFFFFFFFFFFFFFFFFFFFFF000FFFFFFFFFFFFFFFFFFFFFFFFFFFF
310
FFFFFFFFFFFFFFFFFFFFFFFFFFFFFFFFFFFFFFFFFFFFFFFFFFFFFFFFFFFFFFFF
310
FFFFFFFFFFFFFFFFFFFFFFFFFFFFFFFFFFFFFFFFFFFFFFFFFFFFFFFFFFFFFFFF
310
FFFFFFFFFFFFFFFFF000FFFFFFFFFFFFFFFFFFFFFFFFFFFFFFFFFFFFFFFFFFFF
310
FFFFFFFFFFFFFFFFFFFFFFFFFFFFFFFFFFFFFFFFFFFFFFFFFFFFFFFFFFFFFFFF
310
FFFFFFFFFFFFFFFFFFFFFFFFFFFFFFFFFFFFFFFFFFFFFFFFFFFFFFFFFFFFFFFF
310
F000FFFFFFFFFFFFFFFFFFFFFFFFFFFFFFFFFFFFFFFFFFFFFFFFFFFFFFFFFFFF
310
FFFFFFFFFFFFFFFFFFFFFFFFFFFFFFFFFFFFFFFFFFFFFFFFFFFFFFFFFFFFFFFF
310
FFFFFFFFFFFFFFFFFFFFFFFFFFFFFFFFFFFFFFFFFFFFFFFFF000FFFFFFFFFFFF
310
FFFFFFFFFFFFFFFFFFFFFFFFFFFFFFFFFFFFFFFFFFFFFFFFFFFFFFFFFFFFFFFF
310
FFFFFFFFFFFFFFFFFFFFFFFFFFFFFFFFFFFFFFFFFFFFFFFFFFFFFFFFFFFFFFFF
310
FFFFFFFFFFFFFFFFFFFFFFFFFFFFFFFFF000FFFFFFFFFFFFFFFFFFFFFFFFFFFF
310
FFFFFFFFFFFFFFFFFFFFFFFFFFFFFFFFFFFFFFFFFFFFFFFFFFFFFFFFFFFFFFFF
310
FFFFFFFFFFFFFFFFFFFFFFFFFFFFFFFFFFFFFFFFFFFFFFFFFFFFFFFFFFFFFFFF
310
FFFFFFFFFFFFFFFFF000FFFFFFFFFFFFFFFFFFFFFFFFFFFFFFFFFFFFFFFFFFFF
310
FFFFFFFFFFFFFFFFFFFFFFFFFFFFFFFFFFFFFFFFFFFFFFFFFFFFFFFFFFFFFFFF
310
FFFFFFFFFFFFFFFFFFFFFFFFFFFFFFFFFFFFFFFFFFFFFFFFFFFFFFFFFFFFFFFF
310
F000FFFFFFFFFFFFFFFFFFFFFFFFFFFFFFFFFFFFFFFFFFFFFFFFFFFFFFFFFFFF
310
FFFFFFFFFFFFFFFFFFFFFFFFFFFFFFFFFFFFFFFFFFFFFFFFFFFFFFFFFFFFFFFF
310
FFFFFFFFFFFFFFFFFFFFFFFFFFFFFFFFFFFFFFFFFFFFFFFFF000FFFFFFFFFFFF
310
FFFFFFFFFFFFFFFFFFFFFFFFFFFFFFFFFFFFFFFFFFFFFFFFFFFFFFFFFFFFFFFF
310
FFFFFFFFFFFFFFFFFFFFFFFFFFFFFFFFFFFFFFFFFFFFFFFFFFFFFFFFFFFFFFFF
310
FFFFFFFFFFFFFFFFFFFFFFFFFFFFFFFFF000FFFFFFFFFFFFFFFFFFFFFFFFFFFF
310
FFFFFFFFFFFFFFFFFFFFFFFFFFFFFFFFFFFFFFFFFFFFFFFFFFFFFFFFFFFFFFFF
310
FFFFFFFFFFFFFFFFFFFFFFFFFFFFFFFFFFFFFFFFFFFFFFFFFFFFFFFFFFFFFFFF
310
FFFFFFFFFFFFFFFFF000FFFFFFFFFFFFFFFFFFFFFFFFFFFFFFFFFFFFFFFFFFFF
310
FFFFFFFFFFFFFFFFFFFFFFFFFFFFFFFFFFFFFFFFFFFFFFFFFFFFFFFFFFFFFFFF
310
FFFFFFFFFFFFFFFFFFFFFFFFFFFFFFFFFFFFFFFFFFFFFFFFFFFFFFFFFFFFFFFF
310
F000FFFFFFFFFFFFFFFFFFFFFFFFFFFFFFFFFFFFFFFFFFFFFFFFFFFFFFFFFFFF
310
FFFFFFFFFFFFFFFFFFFFFFFFFFFFFFFFFFFFFFFFFFFFFFFFFFFFFFFFFFFFFFFF
310
FFFFFFFFFFFFFFFFFFFFFFFFFFFFFFFFFFFFFFFFFFFFFFFFF000FFFFFFFFFFFF
310
FFFFFFFFFFFFFFFFFFFFFFFFFFFFFFFFFFFFFFFFFFFFFFFFFFFFFFFFFFFFFFFF
310
FFFFFFFFFFFFFFFFFFFFFFFFFFFFFFFFFFFFFFFFFFFFFFFFFFFFFFFFFFFFFFFF
310
FFFFFFFFFFFFFFFFFFFFFFFFFFFFFFFFF0000000000000000000000000000000
310
0000000000000000000000000000000000000000000000000000000000000000
310
0000000000000000000000000000000000000000000000000000000000000000
310
0000000000000000000000000000000000000000000000000000000000000000
310
0000000000000000000000000000000000000000000000000000000000000000
310
0000000000000000000000000000000000000000000000000000000000000000
310
0000000000000000000000000000000000000000000000000000000000000000
310
0000000000000000000000000000000000000000000000000000000000000000
310
0000000000000000000000000000000000000000000000000000000000000000
310
0000000000000000000000000000000000000000000000000000000000000000
310
0000000000000000000000000000000000000000000000000000000000000000
310
0000000000000000000000000000000000000000000000000000000000000000
310
0000000000000000000000000000000000000000000000000000000000000000
310
0000000000000000000000000000000000000000000000000000000000000000
310
0000000000000000000000000000000000000000000000000000000000000000
310
0000000000000000000000000000000000000000000000000000000000000000
  1
OLE
  0
ENDSEC
  0
SECTION
  2
OBJECTS
  0
DICTIONARY
  5
C
330
0
100
AcDbDictionary
281
     1
  3
ACAD_GROUP
350
D
  3
ACAD_LAYOUT
350
1A
  3
ACAD_MLINESTYLE
350
17
  3
ACAD_PLOTSETTINGS
350
19
  3
ACAD_PLOTSTYLENAME
350
E
  0
DICTIONARY
  5
D
102
{ACAD_REACTORS
330
C
102
}
330
C
100
AcDbDictionary
281
     1
  0
DICTIONARY
  5
1A
102
{ACAD_REACTORS
330
C
102
}
330
C
100
AcDbDictionary
281
     1
  3
Layout1
350
1E
  3
Layout2
350
26
  3
Model
350
22
  0
DICTIONARY
  5
17
102
{ACAD_REACTORS
330
C
102
}
330
C
100
AcDbDictionary
281
     1
  3
Standard
350
18
  0
DICTIONARY
  5
19
102
{ACAD_REACTORS
330
C
102
}
330
C
100
AcDbDictionary
281
     1
  0
ACDBDICTIONARYWDFLT
  5
E
102
{ACAD_REACTORS
330
C
102
}
330
C
100
AcDbDictionary
281
     1
  3
Normal
350
F
100
AcDbDictionaryWithDefault
340
F
  0
LAYOUT
  5
1E
102
{ACAD_REACTORS
330
1A
102
}
330
1A
100
AcDbPlotSettings
  1

  2
none_device
  4

  6

 40
0.0
 41
0.0
 42
0.0
 43
0.0
 44
0.0
 45
0.0
 46
0.0
 47
0.0
 48
0.0
 49
0.0
140
0.0
141
0.0
142
1.0
143
1.0
 70
   688
 72
     0
 73
     0
 74
     5
  7

 75
    16
147
1.0
148
0.0
149
0.0
100
AcDbLayout
  1
Layout1
 70
     1
 71
     1
 10
0.0
 20
0.0
 11
420.0
 21
297.0
 12
0.0
 22
0.0
 32
0.0
 14
1.0000000000E+20
 24
1.0000000000E+20
 34
1.0000000000E+20
 15
-1.0000000000E+20
 25
-1.0000000000E+20
 35
-1.0000000000E+20
146
0.0
 13
0.0
 23
0.0
 33
0.0
 16
1.0
 26
0.0
 36
0.0
 17
0.0
 27
1.0
 37
0.0
 76
     0
330
1B
  0
LAYOUT
  5
26
102
{ACAD_REACTORS
330
1A
102
}
330
1A
100
AcDbPlotSettings
  1

  2
none_device
  4

  6

 40
0.0
 41
0.0
 42
0.0
 43
0.0
 44
0.0
 45
0.0
 46
0.0
 47
0.0
 48
0.0
 49
0.0
140
0.0
141
0.0
142
1.0
143
1.0
 70
   688
 72
     0
 73
     0
 74
     5
  7

 75
    16
147
1.0
148
0.0
149
0.0
100
AcDbLayout
  1
Layout2
 70
     1
 71
     2
 10
0.0
 20
0.0
 11
0.0
 21
0.0
 12
0.0
 22
0.0
 32
0.0
 14
0.0
 24
0.0
 34
0.0
 15
0.0
 25
0.0
 35
0.0
146
0.0
 13
0.0
 23
0.0
 33
0.0
 16
1.0
 26
0.0
 36
0.0
 17
0.0
 27
1.0
 37
0.0
 76
     0
330
23
  0
LAYOUT
  5
22
102
{ACAD_REACTORS
330
1A
102
}
330
1A
100
AcDbPlotSettings
  1

  2
none_device
  4

  6

 40
0.0
 41
0.0
 42
0.0
 43
0.0
 44
0.0
 45
0.0
 46
0.0
 47
0.0
 48
0.0
 49
0.0
140
0.0
141
0.0
142
1.0
143
1.0
 70
  1712
 72
     0
 73
     0
 74
     0
  7

 75
     0
147
1.0
148
0.0
149
0.0
100
AcDbLayout
  1
Model
 70
     1
 71
     0
 10
0.0
 20
0.0
 11
297.0
 21
210.0
 12
0.0
 22
0.0
 32
0.0
 14
0.0
 24
0.0
 34
0.0
 15
297.0
 25
210.0
 35
0.0
146
0.0
 13
0.0
 23
0.0
 33
0.0
 16
1.0
 26
0.0
 36
0.0
 17
0.0
 27
1.0
 37
0.0
 76
     0
330
1F
331
29
  0
MLINESTYLE
  5
18
102
{ACAD_REACTORS
330
17
102
}
330
17
100
AcDbMlineStyle
  2
Standard
 70
     0
  3

 62
   256
 51
90.0
 52
90.0
 71
     2
 49
0.5
 62
   256
  6
BYLAYER
 49
-0.5
 62
   256
  6
BYLAYER
  0
ACDBPLACEHOLDER
  5
F
102
{ACAD_REACTORS
330
E
102
}
330
E
  0
ENDSEC
  0
EOF
