  0
SECTION
  2
HEADER
  9
$ACADVER
  1
AC1015
  9
$ACADMAINTVER
 70
     6
  9
$DWGCODEPAGE
  3
ANSI_1252
  9
$INSBASE
 10
0.0
 20
0.0
 30
0.0
  9
$EXTMIN
 10
0.0
 20
0.0
 30
0.0
  9
$EXTMAX
 10
297.0
 20
210.0
 30
0.0
  9
$LIMMIN
 10
0.0
 20
0.0
  9
$LIMMAX
 10
297.0
 20
210.0
  9
$ORTHOMODE
 70
     0
  9
$REGENMODE
 70
     1
  9
$FILLMODE
 70
     1
  9
$QTEXTMODE
 70
     0
  9
$MIRRTEXT
 70
     1
  9
$LTSCALE
 40
1.0
  9
$ATTMODE
 70
     1
  9
$TEXTSIZE
 40
2.0
  9
$TRACEWID
 40
1.0
  9
$TEXTSTYLE
  7
Standard
  9
$CLAYER
  8
0
  9
$CELTYPE
  6
ByLayer
  9
$CECOLOR
 62
   256
  9
$CELTSCALE
 40
1.0
  9
$DISPSILH
 70
     0
  9
$DIMSCALE
 40
1.0
  9
$DIMASZ
 40
3.0
  9
$DIMEXO
 40
0.0
  9
$DIMDLI
 40
3.75
  9
$DIMRND
 40
0.0
  9
$DIMDLE
 40
0.0
  9
$DIMEXE
 40
1.0
  9
$DIMTP
 40
0.0
  9
$DIMTM
 40
0.0
  9
$DIMTXT
 40
2.0
  9
$DIMCEN
 40
2.5
  9
$DIMTSZ
 40
0.0
  9
$DIMTOL
 70
     0
  9
$DIMLIM
 70
     0
  9
$DIMTIH
 70
     1
  9
$DIMTOH
 70
     1
  9
$DIMSE1
 70
     0
  9
$DIMSE2
 70
     0
  9
$DIMTAD
 70
     1
  9
$DIMZIN
 70
     0
  9
$DIMBLK
  1

  9
$DIMASO
 70
     1
  9
$DIMSHO
 70
     1
  9
$DIMPOST
  1

  9
$DIMAPOST
  1

  9
$DIMALT
 70
     0
  9
$DIMALTD
 70
     3
  9
$DIMALTF
 40
0.0393700787
  9
$DIMLFAC
 40
2.0
  9
$DIMTOFL
 70
     1
  9
$DIMTVP
 40
0.0
  9
$DIMTIX
 70
     0
  9
$DIMSOXD
 70
     0
  9
$DIMSAH
 70
     0
  9
$DIMBLK1
  1

  9
$DIMBLK2
  1

  9
$DIMSTYLE
  2
ISO-25
  9
$DIMCLRD
 70
     0
  9
$DIMCLRE
 70
     0
  9
$DIMCLRT
 70
     0
  9
$DIMTFAC
 40
1.0
  9
$DIMGAP
 40
1.524
  9
$DIMJUST
 70
     0
  9
$DIMSD1
 70
     0
  9
$DIMSD2
 70
     0
  9
$DIMTOLJ
 70
     0
  9
$DIMTZIN
 70
     0
  9
$DIMALTZ
 70
     0
  9
$DIMALTTZ
 70
     0
  9
$DIMUPT
 70
     0
  9
$DIMDEC
 70
     2
  9
$DIMTDEC
 70
     3
  9
$DIMALTU
 70
     2
  9
$DIMALTTD
 70
     3
  9
$DIMTXSTY
  7
Standard
  9
$DIMAUNIT
 70
     0
  9
$DIMADEC
 70
     2
  9
$DIMALTRND
 40
0.0
  9
$DIMAZIN
 70
     0
  9
$DIMDSEP
 70
    44
  9
$DIMATFIT
 70
     3
  9
$DIMFRAC
 70
     0
  9
$DIMLDRBLK
  1

  9
$DIMLUNIT
 70
     2
  9
$DIMLWD
 70
    -2
  9
$DIMLWE
 70
    -2
  9
$DIMTMOVE
 70
     0
  9
$LUNITS
 70
     2
  9
$LUPREC
 70
     2
  9
$SKETCHINC
 40
1.0
  9
$FILLETRAD
 40
10.0
  9
$AUNITS
 70
     0
  9
$AUPREC
 70
     2
  9
$MENU
  1
.
  9
$ELEVATION
 40
0.0
  9
$PELEVATION
 40
0.0
  9
$THICKNESS
 40
0.0
  9
$LIMCHECK
 70
     0
  9
$CHAMFERA
 40
0.0
  9
$CHAMFERB
 40
0.0
  9
$CHAMFERC
 40
0.0
  9
$CHAMFERD
 40
0.0
  9
$SKPOLY
 70
     0
  9
$TDCREATE
 40
2458157.65366228
  9
$TDUCREATE
 40
2458157.611995613
  9
$TDUPDATE
 40
2458157.653664271
  9
$TDUUPDATE
 40
2458157.611997604
  9
$TDINDWG
 40
0.0000000116
  9
$TDUSRTIMER
 40
0.0000000116
  9
$USRTIMER
 70
     1
  9
$ANGBASE
 50
0.0
  9
$ANGDIR
 70
     0
  9
$PDMODE
 70
     0
  9
$PDSIZE
 40
-1.0
  9
$PLINEWID
 40
0.0
  9
$SPLFRAME
 70
     0
  9
$SPLINETYPE
 70
     6
  9
$SPLINESEGS
 70
     8
  9
$HANDSEED
  5
34C
  9
$SURFTAB1
 70
     6
  9
$SURFTAB2
 70
     6
  9
$SURFTYPE
 70
     6
  9
$SURFU
 70
     6
  9
$SURFV
 70
     6
  9
$UCSBASE
  2

  9
$UCSNAME
  2

  9
$UCSORG
 10
0.0
 20
0.0
 30
0.0
  9
$UCSXDIR
 10
1.0
 20
0.0
 30
0.0
  9
$UCSYDIR
 10
0.0
 20
1.0
 30
0.0
  9
$UCSORTHOREF
  2

  9
$UCSORTHOVIEW
 70
     0
  9
$UCSORGTOP
 10
0.0
 20
0.0
 30
0.0
  9
$UCSORGBOTTOM
 10
0.0
 20
0.0
 30
0.0
  9
$UCSORGLEFT
 10
0.0
 20
0.0
 30
0.0
  9
$UCSORGRIGHT
 10
0.0
 20
0.0
 30
0.0
  9
$UCSORGFRONT
 10
0.0
 20
0.0
 30
0.0
  9
$UCSORGBACK
 10
0.0
 20
0.0
 30
0.0
  9
$PUCSBASE
  2

  9
$PUCSNAME
  2

  9
$PUCSORG
 10
0.0
 20
0.0
 30
0.0
  9
$PUCSXDIR
 10
1.0
 20
0.0
 30
0.0
  9
$PUCSYDIR
 10
0.0
 20
1.0
 30
0.0
  9
$PUCSORTHOREF
  2

  9
$PUCSORTHOVIEW
 70
     0
  9
$PUCSORGTOP
 10
0.0
 20
0.0
 30
0.0
  9
$PUCSORGBOTTOM
 10
0.0
 20
0.0
 30
0.0
  9
$PUCSORGLEFT
 10
0.0
 20
0.0
 30
0.0
  9
$PUCSORGRIGHT
 10
0.0
 20
0.0
 30
0.0
  9
$PUCSORGFRONT
 10
0.0
 20
0.0
 30
0.0
  9
$PUCSORGBACK
 10
0.0
 20
0.0
 30
0.0
  9
$USERI1
 70
     0
  9
$USERI2
 70
     0
  9
$USERI3
 70
     0
  9
$USERI4
 70
     0
  9
$USERI5
 70
     0
  9
$USERR1
 40
0.0
  9
$USERR2
 40
0.0
  9
$USERR3
 40
0.0
  9
$USERR4
 40
0.0
  9
$USERR5
 40
0.0
  9
$WORLDVIEW
 70
     1
  9
$SHADEDGE
 70
     3
  9
$SHADEDIF
 70
    70
  9
$TILEMODE
 70
     1
  9
$MAXACTVP
 70
    64
  9
$PINSBASE
 10
0.0
 20
0.0
 30
0.0
  9
$PLIMCHECK
 70
     0
  9
$PEXTMIN
 10
1.0000000000E+20
 20
1.0000000000E+20
 30
1.0000000000E+20
  9
$PEXTMAX
 10
-1.0000000000E+20
 20
-1.0000000000E+20
 30
-1.0000000000E+20
  9
$PLIMMIN
 10
0.0
 20
0.0
  9
$PLIMMAX
 10
420.0
 20
297.0
  9
$UNITMODE
 70
     0
  9
$VISRETAIN
 70
     1
  9
$PLINEGEN
 70
     0
  9
$PSLTSCALE
 70
     1
  9
$TREEDEPTH
 70
  3020
  9
$CMLSTYLE
  2
Standard
  9
$CMLJUST
 70
     0
  9
$CMLSCALE
 40
20.0
  9
$PROXYGRAPHICS
 70
     1
  9
$MEASUREMENT
 70
     1
  9
$CELWEIGHT
370
    -1
  9
$ENDCAPS
280
     0
  9
$JOINSTYLE
280
     0
  9
$LWDISPLAY
290
     1
  9
$INSUNITS
 70
     4
  9
$HYPERLINKBASE
  1

  9
$STYLESHEET
  1

  9
$XEDIT
290
     1
  9
$CEPSNTYPE
380
     0
  9
$PSTYLEMODE
290
     1
  9
$FINGERPRINTGUID
  2
{3697B38D-5543-491A-8FAA-144A539D919A}
  9
$VERSIONGUID
  2
{FAEB1C32-E019-11D5-929B-00C0DF256EC4}
  9
$EXTNAMES
290
     1
  9
$PSVPSCALE
 40
0.0
  9
$OLESTARTUP
290
     0
  0
ENDSEC
  0
SECTION
  2
CLASSES
  0
CLASS
  1
ACDBDICTIONARYWDFLT
  2
AcDbDictionaryWithDefault
  3
ObjectDBX Classes
 90
        0
280
     0
281
     0
  0
CLASS
  1
VISUALSTYLE
  2
AcDbVisualStyle
  3
ObjectDBX Classes
 90
     4095
280
     0
281
     0
  0
CLASS
  1
MATERIAL
  2
AcDbMaterial
  3
ObjectDBX Classes
 90
     1153
280
     0
281
     0
  0
CLASS
  1
SCALE
  2
AcDbScale
  3
ObjectDBX Classes
 90
     1153
280
     0
281
     0
  0
CLASS
  1
TABLESTYLE
  2
AcDbTableStyle
  3
ObjectDBX Classes
 90
     4095
280
     0
281
     0
  0
CLASS
  1
MLEADERSTYLE
  2
AcDbMLeaderStyle
  3
ACDB_MLEADERSTYLE_CLASS
 90
     4095
280
     0
281
     0
  0
CLASS
  1
SUN
  2
AcDbSun
  3
SCENEOE
 90
     1153
280
     0
281
     0
  0
CLASS
  1
ACDBPLACEHOLDER
  2
AcDbPlaceHolder
  3
ObjectDBX Classes
 90
        0
280
     0
281
     0
  0
CLASS
  1
LAYOUT
  2
AcDbLayout
  3
ObjectDBX Classes
 90
        0
280
     0
281
     0
  0
ENDSEC
  0
SECTION
  2
TABLES
  0
TABLE
  2
VPORT
  5
8
330
0
100
AcDbSymbolTable
 70
     1
  0
VPORT
  5
29
330
8
100
AcDbSymbolTableRecord
100
AcDbViewportTableRecord
  2
*Active
 70
     0
 10
0.0
 20
0.0
 11
1.0
 21
1.0
 12
148.5
 22
105.0
 13
0.0
 23
0.0
 14
10.0
 24
10.0
 15
10.0
 25
10.0
 16
0.0
 26
0.0
 36
1.0
 17
0.0
 27
0.0
 37
0.0
 40
210.0
 41
1.4142857143
 42
50.0
 43
0.0
 44
0.0
 50
0.0
 51
0.0
 71
     0
 72
  2000
 73
     1
 74
     3
 75
     0
 76
     0
 77
     0
 78
     0
281
     0
 65
     1
110
0.0
120
0.0
130
0.0
111
1.0
121
0.0
131
0.0
112
0.0
122
1.0
132
0.0
 79
     0
146
0.0
  0
ENDTAB
  0
TABLE
  2
LTYPE
  5
5
330
0
100
AcDbSymbolTable
 70
     6
  0
LTYPE
  5
14
330
5
100
AcDbSymbolTableRecord
100
AcDbLinetypeTableRecord
  2
ByBlock
 70
     0
  3

 72
    65
 73
     0
 40
0.0
  0
LTYPE
  5
15
330
5
100
AcDbSymbolTableRecord
100
AcDbLinetypeTableRecord
  2
ByLayer
 70
     0
  3

 72
    65
 73
     0
 40
0.0
  0
LTYPE
  5
16
330
5
100
AcDbSymbolTableRecord
100
AcDbLinetypeTableRecord
  2
Continuous
 70
     0
  3
Solid line
 72
    65
 73
     0
 40
0.0
  0
LTYPE
  5
6E
330
5
100
AcDbSymbolTableRecord
100
AcDbLinetypeTableRecord
  2
HIDDEN
 70
     0
  3
Hidden __ __ __ __ __ __ __ __ __ __ __ __ __ __
 72
    65
 73
     2
 40
1.905
 49
1.27
 74
     0
 49
-0.635
 74
     0
  0
LTYPE
  5
6F
330
5
100
AcDbSymbolTableRecord
100
AcDbLinetypeTableRecord
  2
PHANTOM
 70
     0
  3
Phantom ______  __  __  ______  __  __  ______
 72
    65
 73
     6
 40
12.7
 49
6.35
 74
     0
 49
-1.27
 74
     0
 49
1.27
 74
     0
 49
-1.27
 74
     0
 49
1.27
 74
     0
 49
-1.27
 74
     0
  0
LTYPE
  5
70
330
5
100
AcDbSymbolTableRecord
100
AcDbLinetypeTableRecord
  2
CENTER
 70
     0
  3
Center ____ _ ____ _ ____ _ ____ _ ____ _ ____
 72
    65
 73
     4
 40
10.16
 49
6.35
 74
     0
 49
-1.27
 74
     0
 49
1.27
 74
     0
 49
-1.27
 74
     0
  0
LTYPE
  5
71
330
5
100
AcDbSymbolTableRecord
100
AcDbLinetypeTableRecord
  2
CENTERX2
 70
     0
  3
Center (2x) ________  __  ________  __  _____
 72
    65
 73
     4
 40
20.32
 49
12.7
 74
     0
 49
-2.54
 74
     0
 49
2.54
 74
     0
 49
-2.54
 74
     0
  0
LTYPE
  5
72
330
5
100
AcDbSymbolTableRecord
100
AcDbLinetypeTableRecord
  2
DOT2
 70
     0
  3
Dot (.5x) ........................................
 72
    65
 73
     2
 40
0.635
 49
0.0
 74
     0
 49
-0.635
 74
     0
  0
ENDTAB
  0
TABLE
  2
LAYER
  5
2
330
0
100
AcDbSymbolTable
 70
     5
  0
LAYER
  5
10
330
2
100
AcDbSymbolTableRecord
100
AcDbLayerTableRecord
  2
0
 70
     0
 62
     7
  6
Continuous
370
    -3
390
F
  0
LAYER
  5
73
330
2
100
AcDbSymbolTableRecord
100
AcDbLayerTableRecord
  2
FORMAT
 70
     0
 62
     7
  6
Continuous
370
    -3
390
F
  0
LAYER
  5
74
330
2
100
AcDbSymbolTableRecord
100
AcDbLayerTableRecord
  2
VERMASSUNG
 70
     0
 62
     7
  6
Continuous
370
    -3
390
F
  0
LAYER
  5
75
330
2
100
AcDbSymbolTableRecord
100
AcDbLayerTableRecord
  2
KOPF_DÜNN
 70
     0
 62
     7
  6
Continuous
370
    -3
390
F
  0
LAYER
  5
76
330
2
100
AcDbSymbolTableRecord
100
AcDbLayerTableRecord
  2
KOPF_DICK
 70
     0
 62
     7
  6
Continuous
370
    25
390
F
  0
ENDTAB
  0
TABLE
  2
STYLE
  5
3
330
0
100
AcDbSymbolTable
 70
     2
  0
STYLE
  5
11
330
3
100
AcDbSymbolTableRecord
100
AcDbTextStyleTableRecord
  2
Standard
 70
     0
 40
0.0
 41
1.0
 50
0.0
 71
     0
 42
2.0
  3
txt
  4

  0
STYLE
  5
77
330
3
100
AcDbSymbolTableRecord
100
AcDbTextStyleTableRecord
  2
SLDTEXTSTYLE0
 70
     0
 40
0.0
 41
0.7
 50
0.0
 71
     0
 42
2.0
  3
TXT
  4

  0
ENDTAB
  0
TABLE
  2
VIEW
  5
6
330
0
100
AcDbSymbolTable
 70
     0
  0
ENDTAB
  0
TABLE
  2
UCS
  5
7
330
0
100
AcDbSymbolTable
 70
     0
  0
ENDTAB
  0
TABLE
  2
APPID
  5
9
330
0
100
AcDbSymbolTable
 70
     1
  0
APPID
  5
12
330
9
100
AcDbSymbolTableRecord
100
AcDbRegAppTableRecord
  2
ACAD
 70
     0
  0
ENDTAB
  0
TABLE
  2
DIMSTYLE
  5
A
330
0
100
AcDbSymbolTable
 70
     5
100
AcDbDimStyleTable
  0
DIMSTYLE
105
27
330
A
100
AcDbSymbolTableRecord
100
AcDbDimStyleTableRecord
  2
ISO-25
 70
     0
 41
2.5
 42
0.625
 43
3.75
 44
1.25
 73
     0
 74
     0
 77
     1
 78
     8
140
2.5
141
2.5
143
0.0393700787
147
0.625
171
     3
172
     1
178
     0
271
     2
272
     2
274
     3
278
    44
283
     0
284
     8
340
11
  0
DIMSTYLE
105
16E
102
{ACAD_REACTORS
330
16D
330
17A
102
}
330
A
100
AcDbSymbolTableRecord
100
AcDbDimStyleTableRecord
  2
SLDDIMSTYLE0
 70
     0
 41
3.0
 44
0.0
 45
0.000000001
 47
0.1
 48
0.1
 71
     1
 73
     0
 74
     0
 77
     1
 78
    12
 79
     3
140
2.0
147
0.5
173
     1
178
     0
271
     2
272
     1
276
     2
284
     8
340
77
  0
DIMSTYLE
105
187
102
{ACAD_REACTORS
330
186
330
19B
102
}
330
A
100
AcDbSymbolTableRecord
100
AcDbDimStyleTableRecord
  2
SLDDIMSTYLE1
 70
     0
 41
3.0
 44
0.0
 45
0.000000001
 73
     0
 74
     0
 77
     1
 78
    12
 79
     3
140
2.0
147
0.5
173
     1
178
     0
271
     2
272
     3
276
     2
284
    12
340
77
  0
DIMSTYLE
105
192
102
{ACAD_REACTORS
330
191
102
}
330
A
100
AcDbSymbolTableRecord
100
AcDbDimStyleTableRecord
  2
SLDDIMSTYLE2
 70
     0
 41
3.0
 44
0.0
 73
     0
 74
     0
 77
     1
 78
    12
 79
     3
140
2.0
147
0.5
173
     1
178
     0
179
     1
272
     3
276
     2
284
    12
340
77
  0
DIMSTYLE
105
24C
102
{ACAD_REACTORS
330
24B
102
}
330
A
100
AcDbSymbolTableRecord
100
AcDbDimStyleTableRecord
  2
SLDDIMSTYLE3
 70
     0
 41
3.0
 44
0.0
 45
0.000000001
 73
     0
 74
     0
 77
     1
 78
    12
 79
     3
140
2.0
141
0.0
147
0.5
172
     1
173
     1
178
     0
271
     2
272
     3
276
     2
284
    12
340
77
341
24D
343
24D
  0
ENDTAB
  0
TABLE
  2
BLOCK_RECORD
  5
1
330
0
100
AcDbSymbolTable
 70
     9
  0
BLOCK_RECORD
  5
1F
330
1
100
AcDbSymbolTableRecord
100
AcDbBlockTableRecord
  2
*Model_Space
340
22
  0
BLOCK_RECORD
  5
1B
330
1
100
AcDbSymbolTableRecord
100
AcDbBlockTableRecord
  2
*Paper_Space
340
1E
  0
BLOCK_RECORD
  5
23
330
1
100
AcDbSymbolTableRecord
100
AcDbBlockTableRecord
  2
*Paper_Space0
340
26
  0
BLOCK_RECORD
  5
16F
330
1
100
AcDbSymbolTableRecord
100
AcDbBlockTableRecord
  2
_D
340
0
  0
BLOCK_RECORD
  5
17B
330
1
100
AcDbSymbolTableRecord
100
AcDbBlockTableRecord
  2
_D_1
340
0
  0
BLOCK_RECORD
  5
188
330
1
100
AcDbSymbolTableRecord
100
AcDbBlockTableRecord
  2
_D_2
340
0
  0
BLOCK_RECORD
  5
193
330
1
100
AcDbSymbolTableRecord
100
AcDbBlockTableRecord
  2
_D_3
340
0
  0
BLOCK_RECORD
  5
19C
330
1
100
AcDbSymbolTableRecord
100
AcDbBlockTableRecord
  2
_D_4
340
0
  0
BLOCK_RECORD
  5
24D
330
1
100
AcDbSymbolTableRecord
100
AcDbBlockTableRecord
  2
_None
340
0
  0
BLOCK_RECORD
  5
250
330
1
100
AcDbSymbolTableRecord
100
AcDbBlockTableRecord
  2
_D_5
340
0
  0
BLOCK_RECORD
  5
259
330
1
100
AcDbSymbolTableRecord
100
AcDbBlockTableRecord
  2
SW_CENTERMARKSYMBOL_0
340
0
102
{BLKREFS
331
264
102
}
  0
ENDTAB
  0
ENDSEC
  0
SECTION
  2
BLOCKS
  0
BLOCK
  5
20
330
1F
100
AcDbEntity
  8
0
100
AcDbBlockBegin
  2
*Model_Space
 70
     0
 10
0.0
 20
0.0
 30
0.0
  3
*Model_Space
  1

  0
ENDBLK
  5
21
330
1F
100
AcDbEntity
  8
0
100
AcDbBlockEnd
  0
BLOCK
  5
1C
330
1B
100
AcDbEntity
 67
     1
  8
0
100
AcDbBlockBegin
  2
*Paper_Space
 70
     0
 10
0.0
 20
0.0
 30
0.0
  3
*Paper_Space
  1

  0
ENDBLK
  5
1D
330
1B
100
AcDbEntity
 67
     1
  8
0
100
AcDbBlockEnd
  0
BLOCK
  5
24
330
23
100
AcDbEntity
  8
0
100
AcDbBlockBegin
  2
*Paper_Space0
 70
     0
 10
0.0
 20
0.0
 30
0.0
  3
*Paper_Space0
  1

  0
ENDBLK
  5
25
330
23
100
AcDbEntity
  8
0
100
AcDbBlockEnd
  0
BLOCK
  5
170
330
16F
100
AcDbEntity
  8
0
100
AcDbBlockBegin
  2
_D
 70
     0
 10
0.0
 20
0.0
 30
0.0
  3
_D
  1

  0
SOLID
  5
172
330
16F
100
AcDbEntity
  8
VERMASSUNG
100
AcDbTrace
 10
284.0861834708
 20
93.0484126717
 30
0.0
 11
284.5361834708
 21
96.0484126717
 31
0.0
 12
283.6361834708
 22
96.0484126717
 32
0.0
 13
283.6361834708
 23
96.0484126717
 33
0.0
  0
SOLID
  5
173
330
16F
100
AcDbEntity
  8
VERMASSUNG
100
AcDbTrace
 10
284.0861834708
 20
138.0484126717
 30
0.0
 11
283.6361834708
 21
135.0484126717
 31
0.0
 12
284.5361834708
 22
135.0484126717
 32
0.0
 13
284.5361834708
 23
135.0484126717
 33
0.0
  0
LINE
  5
174
330
16F
100
AcDbEntity
  8
VERMASSUNG
100
AcDbLine
 10
267.5773286423
 20
93.0484126717
 30
0.0
 11
285.0861834708
 21
93.0484126717
 31
0.0
  0
LINE
  5
175
330
16F
100
AcDbEntity
  8
VERMASSUNG
100
AcDbLine
 10
266.7535913633
 20
138.0484126717
 30
0.0
 11
285.0861834708
 21
138.0484126717
 31
0.0
  0
LINE
  5
176
330
16F
100
AcDbEntity
  8
VERMASSUNG
100
AcDbLine
 10
284.0861834708
 20
93.0484126717
 30
0.0
 11
284.0861834708
 21
138.0484126717
 31
0.0
  0
MTEXT
  5
177
330
16F
100
AcDbEntity
  8
VERMASSUNG
100
AcDbMText
 10
281.5080478749
 20
111.7984122899
 30
0.0
 40
2.0
 41
0.0
 71
     1
 72
     1
  1
45
  7
SLDTEXTSTYLE0
 11
6.123233995736766E-17
 21
1.0
 31
0.0
 73
     1
 44
1.0
  0
MTEXT
  5
178
330
16F
100
AcDbEntity
  8
VERMASSUNG
100
AcDbMText
 10
281.5080478749
 20
115.9859123159
 30
0.0
 40
2.0
 41
0.0
 71
     1
 72
     1
  1

  7
SLDTEXTSTYLE0
 11
6.123233995736766E-17
 21
1.0
 31
0.0
 73
     1
 44
1.0
  0
MTEXT
  5
179
330
16F
100
AcDbEntity
  8
VERMASSUNG
100
AcDbMText
 10
282.0025817085
 20
115.9984121401
 30
0.0
 40
1.5
 41
0.0
 71
     1
 72
     1
  1
±0.1
  7
SLDTEXTSTYLE0
 11
6.123233995736766E-17
 21
1.0
 31
0.0
 73
     1
 44
1.0
  0
ENDBLK
  5
171
330
16F
100
AcDbEntity
  8
0
100
AcDbBlockEnd
  0
BLOCK
  5
17C
330
17B
100
AcDbEntity
  8
0
100
AcDbBlockBegin
  2
_D_1
 70
     0
 10
0.0
 20
0.0
 30
0.0
  3
_D_1
  1

  0
SOLID
  5
17E
330
17B
100
AcDbEntity
  8
VERMASSUNG
100
AcDbTrace
 10
264.3097999704
 20
86.4880938263
 30
0.0
 11
261.3097999704
 21
86.9380938263
 31
0.0
 12
261.3097999704
 22
86.0380938263
 32
0.0
 13
261.3097999704
 23
86.0380938263
 33
0.0
  0
SOLID
  5
17F
330
17B
100
AcDbEntity
  8
VERMASSUNG
100
AcDbTrace
 10
199.3097999704
 20
86.4880938263
 30
0.0
 11
202.3097999704
 21
86.0380938263
 31
0.0
 12
202.3097999704
 22
86.9380938263
 32
0.0
 13
202.3097999704
 23
86.9380938263
 33
0.0
  0
LINE
  5
180
330
17B
100
AcDbEntity
  8
VERMASSUNG
100
AcDbLine
 10
264.3097999704
 20
93.0484126717
 30
0.0
 11
264.3097999704
 21
85.4880938263
 31
0.0
  0
LINE
  5
181
330
17B
100
AcDbEntity
  8
VERMASSUNG
100
AcDbLine
 10
199.3097999704
 20
107.0484126717
 30
0.0
 11
199.3097999704
 21
85.4880938263
 31
0.0
  0
LINE
  5
182
330
17B
100
AcDbEntity
  8
VERMASSUNG
100
AcDbLine
 10
264.3097999704
 20
86.4880938263
 30
0.0
 11
199.3097999704
 21
86.4880938263
 31
0.0
  0
MTEXT
  5
183
330
17B
100
AcDbEntity
  8
VERMASSUNG
100
AcDbMText
 10
228.1597998843
 20
89.0662294223
 30
0.0
 40
2.0
 41
0.0
 71
     1
 72
     1
  1
65
  7
SLDTEXTSTYLE0
 73
     1
 44
1.0
  0
MTEXT
  5
184
330
17B
100
AcDbEntity
  8
VERMASSUNG
100
AcDbMText
 10
232.1472997845
 20
89.0662294223
 30
0.0
 40
2.0
 41
0.0
 71
     1
 72
     1
  1

  7
SLDTEXTSTYLE0
 73
     1
 44
1.0
  0
MTEXT
  5
185
330
17B
100
AcDbEntity
  8
VERMASSUNG
100
AcDbMText
 10
232.1597996087
 20
88.5716955886
 30
0.0
 40
1.5
 41
0.0
 71
     1
 72
     1
  1
±0.1
  7
SLDTEXTSTYLE0
 73
     1
 44
1.0
  0
ENDBLK
  5
17D
330
17B
100
AcDbEntity
  8
0
100
AcDbBlockEnd
  0
BLOCK
  5
189
330
188
100
AcDbEntity
  8
0
100
AcDbBlockBegin
  2
_D_2
 70
     0
 10
0.0
 20
0.0
 30
0.0
  3
_D_2
  1

  0
SOLID
  5
18B
330
188
100
AcDbEntity
  8
VERMASSUNG
100
AcDbTrace
 10
161.3097999704
 20
79.8300009614
 30
0.0
 11
164.3097999704
 21
79.3800009614
 31
0.0
 12
164.3097999704
 22
80.2800009614
 32
0.0
 13
164.3097999704
 23
80.2800009614
 33
0.0
  0
SOLID
  5
18C
330
188
100
AcDbEntity
  8
VERMASSUNG
100
AcDbTrace
 10
264.3097999704
 20
79.8300009614
 30
0.0
 11
261.3097999704
 21
80.2800009614
 31
0.0
 12
261.3097999704
 22
79.3800009614
 32
0.0
 13
261.3097999704
 23
79.3800009614
 33
0.0
  0
LINE
  5
18D
330
188
100
AcDbEntity
  8
VERMASSUNG
100
AcDbLine
 10
161.3097999704
 20
117.7560746792
 30
0.0
 11
161.3097999704
 21
78.8300009614
 31
0.0
  0
LINE
  5
18E
330
188
100
AcDbEntity
  8
VERMASSUNG
100
AcDbLine
 10
264.3097999704
 20
93.0484126717
 30
0.0
 11
264.3097999704
 21
78.8300009614
 31
0.0
  0
LINE
  5
18F
330
188
100
AcDbEntity
  8
VERMASSUNG
100
AcDbLine
 10
161.3097999704
 20
79.8300009614
 30
0.0
 11
264.3097999704
 21
79.8300009614
 31
0.0
  0
MTEXT
  5
190
330
188
100
AcDbEntity
  8
VERMASSUNG
100
AcDbMText
 10
210.9097999383
 20
82.4081365574
 30
0.0
 40
2.0
 41
0.0
 71
     1
 72
     1
  1
103
  7
SLDTEXTSTYLE0
 73
     1
 44
1.0
  0
ENDBLK
  5
18A
330
188
100
AcDbEntity
  8
0
100
AcDbBlockEnd
  0
BLOCK
  5
194
330
193
100
AcDbEntity
  8
0
100
AcDbBlockBegin
  2
_D_3
 70
     0
 10
0.0
 20
0.0
 30
0.0
  3
_D_3
  1

  0
ARC
  5
196
330
193
100
AcDbEntity
  8
VERMASSUNG
100
AcDbCircle
 10
264.3315710942
 20
93.0484126717
 30
0.0
 40
10.58766615043294
100
AcDbArc
 50
0.0
 51
93.0370648283
  0
SOLID
  5
197
330
193
100
AcDbEntity
  8
VERMASSUNG
100
AcDbTrace
 10
274.9192372447
 20
93.0484126717
 30
0.0
 11
274.9521033938
 21
96.0817968901
 31
0.0
 12
274.0606664821
 22
95.9579411981
 32
0.0
 13
274.0606664821
 23
95.9579411981
 33
0.0
  0
SOLID
  5
198
330
193
100
AcDbEntity
  8
VERMASSUNG
100
AcDbTrace
 10
263.7706157688
 20
103.6212081221
 30
0.0
 11
266.7215465371
 21
102.9179957781
 31
0.0
 12
266.7979981935
 22
103.814742757
 32
0.0
 13
266.7979981935
 23
103.814742757
 33
0.0
  0
LINE
  5
199
330
193
100
AcDbEntity
  8
VERMASSUNG
100
AcDbLine
 10
267.5773286423
 20
93.0484126717
 30
0.0
 11
275.9192372447
 21
93.0484126717
 31
0.0
  0
MTEXT
  5
19A
330
193
100
AcDbEntity
  8
VERMASSUNG
100
AcDbMText
 10
271.9400276231
 20
103.9777184283
 30
0.0
 40
2.0
 41
0.0
 71
     1
 72
     1
  1
93°
  7
SLDTEXTSTYLE0
 11
0.7255969824835607
 21
-0.6881199161561532
 31
0.0
 73
     1
 44
1.0
  0
ENDBLK
  5
195
330
193
100
AcDbEntity
  8
0
100
AcDbBlockEnd
  0
BLOCK
  5
19D
330
19C
100
AcDbEntity
  8
0
100
AcDbBlockBegin
  2
_D_4
 70
     0
 10
0.0
 20
0.0
 30
0.0
  3
_D_4
  1

  0
SOLID
  5
19F
330
19C
100
AcDbEntity
  8
VERMASSUNG
100
AcDbTrace
 10
153.5958015119
 20
106.5484126717
 30
0.0
 11
154.0458015119
 21
109.5484126717
 31
0.0
 12
153.1458015119
 22
109.5484126717
 32
0.0
 13
153.1458015119
 23
109.5484126717
 33
0.0
  0
SOLID
  5
1A0
330
19C
100
AcDbEntity
  8
VERMASSUNG
100
AcDbTrace
 10
153.5958015119
 20
169.5484126717
 30
0.0
 11
153.1458015119
 21
166.5484126717
 31
0.0
 12
154.0458015119
 22
166.5484126717
 32
0.0
 13
154.0458015119
 23
166.5484126717
 33
0.0
  0
LINE
  5
1A1
330
19C
100
AcDbEntity
  8
VERMASSUNG
100
AcDbLine
 10
199.8097999704
 20
106.5484126717
 30
0.0
 11
152.5958015119
 21
106.5484126717
 31
0.0
  0
LINE
  5
1A2
330
19C
100
AcDbEntity
  8
VERMASSUNG
100
AcDbLine
 10
199.8097999704
 20
169.5484126717
 30
0.0
 11
152.5958015119
 21
169.5484126717
 31
0.0
  0
LINE
  5
1A3
330
19C
100
AcDbEntity
  8
VERMASSUNG
100
AcDbLine
 10
153.5958015119
 20
106.5484126717
 30
0.0
 11
153.5958015119
 21
169.5484126717
 31
0.0
  0
MTEXT
  5
1A4
330
19C
100
AcDbEntity
  8
VERMASSUNG
100
AcDbMText
 10
150.8176662557
 20
132.5434133619
 30
0.0
 40
2.0
 41
0.0
 71
     1
 72
     1
  1
PSC
  7
SLDTEXTSTYLE0
 11
6.123233995736766E-17
 21
1.0
 31
0.0
 73
     1
 44
1.0
  0
MTEXT
  5
1A5
330
19C
100
AcDbEntity
  8
VERMASSUNG
100
AcDbMText
 10
151.017666207
 20
137.1434129983
 30
0.0
 40
2.0
 41
0.0
 71
     1
 72
     1
  1
%%c
  7
SLDTEXTSTYLE0
 11
6.123233995736766E-17
 21
1.0
 31
0.0
 73
     1
 44
1.0
  0
MTEXT
  5
1A6
330
19C
100
AcDbEntity
  8
VERMASSUNG
100
AcDbMText
 10
150.8176662557
 20
140.7534130126
 30
0.0
 40
2.0
 41
0.0
 71
     1
 72
     1
  1
63
  7
SLDTEXTSTYLE0
 11
6.123233995736766E-17
 21
1.0
 31
0.0
 73
     1
 44
1.0
  0
ENDBLK
  5
19E
330
19C
100
AcDbEntity
  8
0
100
AcDbBlockEnd
  0
BLOCK
  5
24E
330
24D
100
AcDbEntity
  8
0
100
AcDbBlockBegin
  2
_None
 70
     0
 10
0.0
 20
0.0
 30
0.0
  3
_None
  1

  0
ENDBLK
  5
24F
330
24D
100
AcDbEntity
  8
0
100
AcDbBlockEnd
  0
BLOCK
  5
251
330
250
100
AcDbEntity
  8
0
100
AcDbBlockBegin
  2
_D_5
 70
     0
 10
0.0
 20
0.0
 30
0.0
  3
_D_5
  1

  0
SOLID
  5
253
330
250
100
AcDbEntity
  8
VERMASSUNG
100
AcDbTrace
 10
111.8564071124
 20
161.3326839192
 30
0.0
 11
114.2959255075
 21
163.1358062112
 31
0.0
 12
113.6595294045
 22
163.7722023143
 32
0.0
 13
113.6595294045
 23
163.7722023143
 33
0.0
  0
LINE
  5
254
330
250
100
AcDbEntity
  8
VERMASSUNG
100
AcDbLine
 10
111.8564071124
 20
161.3326839192
 30
0.0
 11
124.9847991768
 21
174.4610759835
 31
0.0
  0
LINE
  5
255
330
250
100
AcDbEntity
  8
VERMASSUNG
100
AcDbLine
 10
111.8564071124
 20
161.3326839192
 30
0.0
 11
55.2878646175
 21
104.7641414242
 31
0.0
  0
MTEXT
  5
256
330
250
100
AcDbEntity
  8
VERMASSUNG
100
AcDbMText
 10
114.6704511866
 20
167.7907194929
 30
0.0
 40
2.0
 41
0.0
 71
     1
 72
     1
  1
%%c
  7
SLDTEXTSTYLE0
 11
0.7071067811865465
 21
0.7071067811865487
 31
0.0
 73
     1
 44
1.0
  0
MTEXT
  5
257
330
250
100
AcDbEntity
  8
VERMASSUNG
100
AcDbMText
 10
117.081685355
 20
170.4847963049
 30
0.0
 40
2.0
 41
0.0
 71
     1
 72
     1
  1
80
  7
SLDTEXTSTYLE0
 11
0.7071067811865465
 21
0.7071067811865487
 31
0.0
 73
     1
 44
1.0
  0
MTEXT
  5
258
330
250
100
AcDbEntity
  8
VERMASSUNG
100
AcDbMText
 10
119.9012735744
 20
173.3043845243
 30
0.0
 40
2.0
 41
0.0
 71
     1
 72
     1
  1
min.
  7
SLDTEXTSTYLE0
 11
0.7071067811865465
 21
0.7071067811865487
 31
0.0
 73
     1
 44
1.0
  0
ENDBLK
  5
252
330
250
100
AcDbEntity
  8
0
100
AcDbBlockEnd
  0
BLOCK
  5
25A
330
259
100
AcDbEntity
  8
0
100
AcDbBlockBegin
  2
SW_CENTERMARKSYMBOL_0
 70
     0
 10
0.0
 20
0.0
 30
0.0
  3
SW_CENTERMARKSYMBOL_0
  1

  0
LINE
  5
25C
330
259
100
AcDbEntity
  8
VERMASSUNG
 62
     0
100
AcDbLine
 10
0.0
 20
0.0
 30
0.0
 11
0.0
 21
2.5
 31
0.0
  0
LINE
  5
25D
330
259
100
AcDbEntity
  8
VERMASSUNG
 62
     0
100
AcDbLine
 10
0.0
 20
0.0
 30
0.0
 11
-2.5
 21
0.0
 31
0.0
  0
LINE
  5
25E
330
259
100
AcDbEntity
  8
VERMASSUNG
 62
     0
100
AcDbLine
 10
0.0
 20
0.0
 30
0.0
 11
0.0
 21
-2.5
 31
0.0
  0
LINE
  5
25F
330
259
100
AcDbEntity
  8
VERMASSUNG
 62
     0
100
AcDbLine
 10
0.0
 20
0.0
 30
0.0
 11
2.5
 21
0.0
 31
0.0
  0
LINE
  5
260
330
259
100
AcDbEntity
  8
VERMASSUNG
 62
     0
100
AcDbLine
 10
0.0
 20
5.0
 30
0.0
 11
0.0
 21
34.0
 31
0.0
  0
LINE
  5
261
330
259
100
AcDbEntity
  8
VERMASSUNG
 62
     0
100
AcDbLine
 10
-5.0
 20
0.0
 30
0.0
 11
-34.0
 21
0.0
 31
0.0
  0
LINE
  5
262
330
259
100
AcDbEntity
  8
VERMASSUNG
 62
     0
100
AcDbLine
 10
0.0
 20
-5.0
 30
0.0
 11
0.0
 21
-48.5190176652
 31
0.0
  0
LINE
  5
263
330
259
100
AcDbEntity
  8
VERMASSUNG
 62
     0
100
AcDbLine
 10
5.0
 20
0.0
 30
0.0
 11
34.0
 21
0.0
 31
0.0
  0
ENDBLK
  5
25B
330
259
100
AcDbEntity
  8
0
100
AcDbBlockEnd
  0
ENDSEC
  0
SECTION
  2
ENTITIES
  0
MTEXT
  5
78
330
1F
100
AcDbEntity
  8
KOPF_DÜNN
100
AcDbMText
 10
13.8892156294
 20
23.8442973028
 30
0.0
 40
3.0
 41
0.0
 71
     1
 72
     1
  1
PS6.KVD.LUA.065
  7
SLDTEXTSTYLE0
 73
     1
 44
1.0
  0
MTEXT
  5
79
330
1F
100
AcDbEntity
  8
VERMASSUNG
100
AcDbMText
 10
13.9329988022
 20
28.8834360957
 30
0.0
 40
3.0
 41
0.0
 71
     1
 72
     1
  1
Klemmhalter links_Toolholder left 93°/35°
  7
SLDTEXTSTYLE0
 73
     1
 44
1.0
  0
MTEXT
  5
7A
330
1F
100
AcDbEntity
  8
VERMASSUNG
100
AcDbMText
 10
98.8601118557
 20
13.8365368761
 30
0.0
 40
2.0
 41
0.0
 71
     1
 72
     1
  1
Datum: 07.02.2018
  7
SLDTEXTSTYLE0
 73
     1
 44
1.0
  0
MTEXT
  5
7B
330
1F
100
AcDbEntity
  8
VERMASSUNG
100
AcDbMText
 10
13.933048693
 20
18.0482802738
 30
0.0
 40
2.0
 41
0.0
 71
     1
 72
     1
  1
PSC Ø63 / VN... 1604... Wp
  7
SLDTEXTSTYLE0
 73
     1
 44
1.0
  0
MTEXT
  5
7C
330
1F
100
AcDbEntity
  8
VERMASSUNG
100
AcDbMText
 10
13.9808475933
 20
13.9090974274
 30
0.0
 40
2.0
 41
0.0
 71
     1
 72
     1
  1
Gewicht: 1386g
  7
SLDTEXTSTYLE0
 73
     1
 44
1.0
  0
LINE
  5
7D
330
1F
100
AcDbEntity
  8
0
  6
Continuous
 62
     7
370
    25
100
AcDbLine
 10
244.5268164955
 20
127.9272286783
 30
0.0
 11
245.0136418712
 21
126.9609738983
 31
0.0
  0
LINE
  5
7E
330
1F
100
AcDbEntity
  8
0
  6
Continuous
 62
     7
370
    25
100
AcDbLine
 10
247.6928094936
 20
128.3108112406
 30
0.0
 11
247.1997845682
 21
129.2893709351
 31
0.0
  0
LINE
  5
7F
330
1F
100
AcDbEntity
  8
0
  6
Continuous
 62
     7
370
    25
100
AcDbLine
 10
255.7401471392
 20
122.9334514586
 30
0.0
 11
255.5658356537
 21
123.2794262465
 31
0.0
  0
LINE
  5
80
330
1F
100
AcDbEntity
  8
0
  6
Continuous
 62
     7
370
    25
100
AcDbLine
 10
245.295693101
 20
118.1050497674
 30
0.0
 11
245.4700045865
 21
117.7590749795
 31
0.0
  0
LINE
  5
81
330
1F
100
AcDbEntity
  8
0
  6
Continuous
 62
     7
370
    25
100
AcDbLine
 10
256.5949997537
 20
124.0148458664
 30
0.0
 11
256.1948318295
 21
124.8091022648
 31
0.0
  0
LINE
  5
82
330
1F
100
AcDbEntity
  8
0
  6
Continuous
 62
     7
370
    25
100
AcDbLine
 10
243.6920495914
 20
118.5098613337
 30
0.0
 11
244.0922175156
 21
117.7156049353
 31
0.0
  0
LINE
  5
83
330
1F
100
AcDbEntity
  8
0
  6
Continuous
 62
     7
370
    25
100
AcDbLine
 10
238.316504792
 20
126.8469003909
 30
0.0
 11
238.9189367089
 21
125.6511888516
 31
0.0
  0
LINE
  5
84
330
1F
100
AcDbEntity
  8
0
  6
Continuous
 62
     7
370
    25
100
AcDbLine
 10
258.9088887277
 20
121.0586305668
 30
0.0
 11
258.3099651951
 21
122.2473786377
 31
0.0
  0
LINE
  5
85
330
1F
100
AcDbEntity
  8
0
  6
Continuous
 62
     7
370
    25
100
AcDbLine
 10
258.0203794618
 20
103.1048362038
 30
0.0
 11
262.423969192
 21
105.6850894319
 31
0.0
  0
LINE
  5
86
330
1F
100
AcDbEntity
  8
0
  6
Continuous
 62
     7
370
    25
100
AcDbLine
 10
254.1620015709
 20
105.0496042442
 30
0.0
 11
254.2245574226
 21
104.9254429046
 31
0.0
  0
LINE
  5
87
330
1F
100
AcDbEntity
  8
0
  6
Continuous
 62
     7
370
    25
100
AcDbLine
 10
263.475461654
 20
108.5702569823
 30
0.0
 11
263.0606003185
 21
109.3936769774
 31
0.0
  0
ARC
  5
88
330
1F
100
AcDbEntity
  8
0
  6
Continuous
 62
     7
370
    25
100
AcDbCircle
 10
199.8097999704
 20
107.0484126717
 30
0.0
 40
0.5
100
AcDbArc
 50
180.0
 51
270.0
  0
ARC
  5
89
330
1F
100
AcDbEntity
  8
0
  6
Continuous
 62
     7
370
    25
100
AcDbCircle
 10
199.8097999704
 20
169.0484126717
 30
0.0
 40
0.5
100
AcDbArc
 50
90.0
 51
180.0
  0
LINE
  5
8A
330
1F
100
AcDbEntity
  8
0
  6
Continuous
 62
     7
370
    25
100
AcDbLine
 10
233.480104777
 20
169.5484126717
 30
0.0
 11
199.8097999704
 21
169.5484126717
 31
0.0
  0
LINE
  5
8B
330
1F
100
AcDbEntity
  8
0
  6
Continuous
 62
     7
370
    25
100
AcDbLine
 10
199.8097999704
 20
106.5484126717
 30
0.0
 11
236.5424729824
 21
106.5484126717
 31
0.0
  0
LWPOLYLINE
  5
8C
330
1F
100
AcDbEntity
  8
0
  6
Continuous
 62
     7
370
    25
100
AcDbPolyline
 90
        3
 70
   128
 43
0.0
 10
199.1097999704
 20
115.5085923928
 10
199.2352549139
 20
115.4402902779
 10
199.3097999704
 20
115.3875525198
  0
LWPOLYLINE
  5
8D
330
1F
100
AcDbEntity
  8
0
  6
Continuous
 62
     7
370
    25
100
AcDbPolyline
 90
        3
 70
   128
 43
0.0
 10
199.3097999704
 20
160.7092728236
 10
199.2352549139
 20
160.6565350655
 10
199.1097999704
 20
160.5882329506
  0
ARC
  5
8E
330
1F
100
AcDbEntity
  8
0
  6
Continuous
 62
     7
370
    25
100
AcDbCircle
 10
236.5424729824
 20
105.5484126717
 30
0.0
 40
1.0
100
AcDbArc
 50
15.0
 51
90.0
  0
LINE
  5
8F
330
1F
100
AcDbEntity
  8
0
  6
Continuous
 62
     7
370
    25
100
AcDbLine
 10
237.5083988087
 20
105.8072317168
 30
0.0
 11
237.5766179643
 21
105.5526343619
 31
0.0
  0
ARC
  5
90
330
1F
100
AcDbEntity
  8
0
  6
Continuous
 62
     7
370
    25
100
AcDbCircle
 10
246.3317818565
 20
127.6355122109
 30
0.0
 40
1.481758051609708
100
AcDbArc
 50
226.1232145552
 51
217.1739552723
  0
LINE
  5
91
330
1F
100
AcDbEntity
  8
0
  6
Continuous
 62
     7
370
    25
100
AcDbLine
 10
245.3789729723
 20
126.5775906937
 30
0.0
 11
245.3047607921
 21
126.5674135933
 31
0.0
  0
ARC
  5
92
330
1F
100
AcDbEntity
  8
0
  6
Continuous
 62
     7
370
    25
100
AcDbCircle
 10
246.3531945853
 20
127.5909962343
 30
0.0
 40
1.405737721214827
100
AcDbArc
 50
226.1293782639
 51
217.1677915636
  0
LINE
  5
93
330
1F
100
AcDbEntity
  8
0
  6
Continuous
 62
     7
370
    25
100
AcDbLine
 10
245.2330048404
 20
126.7417180252
 30
0.0
 11
245.151110127
 21
126.7401792055
 31
0.0
  0
LINE
  5
94
330
1F
100
AcDbEntity
  8
0
  6
Continuous
 62
     7
370
    25
100
AcDbLine
 10
245.5362427059
 20
126.7378625401
 30
0.0
 11
245.3789729723
 21
126.5775906937
 31
0.0
  0
ARC
  5
95
330
1F
100
AcDbEntity
  8
0
  6
Continuous
 62
     7
370
    25
100
AcDbCircle
 10
246.357833488
 20
127.5923182491
 30
0.0
 40
1.185371659841774
100
AcDbArc
 50
226.1233461184
 51
217.1738237091
  0
LINE
  5
96
330
1F
100
AcDbEntity
  8
0
  6
Continuous
 62
     7
370
    25
100
AcDbLine
 10
245.4133221738
 20
126.8760750298
 30
0.0
 11
245.2330048404
 21
126.7417180252
 31
0.0
  0
LINE
  5
97
330
1F
100
AcDbEntity
  8
0
  6
Continuous
 62
     7
370
    25
100
AcDbLine
 10
245.1889140275
 20
127.4272431938
 30
0.0
 11
245.5362427059
 21
126.7378625401
 31
0.0
  0
LWPOLYLINE
  5
98
330
1F
100
AcDbEntity
  8
0
  6
Continuous
 62
     7
370
    25
100
AcDbPolyline
 90
        3
 70
   128
 43
0.0
 10
246.0229219461
 20
128.716644811
 10
245.6862691086
 20
128.5461165548
 10
245.6812383771
 20
128.544495358
  0
LINE
  5
99
330
1F
100
AcDbEntity
  8
0
  6
Continuous
 62
     7
370
    25
100
AcDbLine
 10
245.2268392587
 20
127.2462077654
 30
0.0
 11
245.4133221738
 21
126.8760750298
 31
0.0
  0
LINE
  5
9A
330
1F
100
AcDbEntity
  8
0
  6
Continuous
 62
     7
370
    25
100
AcDbLine
 10
245.3047607921
 20
126.5674135933
 30
0.0
 11
245.2170921359
 21
126.7414190219
 31
0.0
  0
LWPOLYLINE
  5
9B
330
1F
100
AcDbEntity
  8
0
  6
Continuous
 62
     7
370
    25
100
AcDbPolyline
 90
       40
 70
   128
 43
0.0
 10
246.9686430448
 20
115.9158060469
 10
247.7256822119
 20
115.4073078282
 10
248.5572961622
 20
115.0267259598
 10
249.441946531
 20
114.7839173122
 10
250.3567213386
 20
114.6851705018
 10
251.277928398
 20
114.7330430192
 10
252.18170893
 20
114.9262949912
 10
253.0446554939
 20
115.2599212934
 10
253.8444182267
 20
115.7252811797
 10
254.5602836938
 20
116.3103220735
 10
255.1737113557
 20
116.9998917231
 10
255.6688137582
 20
117.7761306366
 10
256.032768009
 20
118.6189346339
 10
256.2561478842
 20
119.5064755343
 10
256.3331679625
 20
120.4157664947
 10
256.2618334642
 20
121.3232573566
 10
256.0439919154
 20
122.2054445836
 10
255.6852852978
 20
123.0394799899
 10
255.1950039243
 20
123.8037624965
 10
254.5858458251
 20
124.4784975879
 10
253.8735878747
 20
125.0462099797
 10
253.0766771802
 20
125.4921962192
 10
252.2157533098
 20
125.8049054971
 10
251.3131137396
 20
125.9762388072
 10
250.3921363603
 20
126.0017587069
 10
249.4766740022
 20
125.8808042441
 10
248.5904366597
 20
125.616508076
 10
247.7563774142
 20
125.2157153344
 10
246.9960979622
 20
124.6888063408
 10
246.3292891422
 20
124.0494277614
 10
245.7732209522
 20
123.3141391655
 10
245.3422952664
 20
122.5019841416
 10
245.0476728336
 20
121.6339970781
 10
244.8969842201
 20
120.7326583841
 10
244.8941321818
 20
119.8213122583
 10
245.039190585
 20
118.9235620866
 10
245.3284024933
 20
118.0626591269
 10
245.7542774702
 20
117.2609003138
 10
246.3057855774
 20
116.5390507791
 10
246.9686430448
 20
115.9158060469
  0
CIRCLE
  5
9C
330
1F
100
AcDbEntity
  8
0
  6
Continuous
 62
     7
370
    25
100
AcDbCircle
 10
250.7397720465
 20
119.9989110962
 30
0.0
 40
2.466032669965994
  0
SPLINE
  5
9D
330
1F
100
AcDbEntity
  8
0
  6
Continuous
 62
     7
370
    25
100
AcDbSpline
210
0.0
220
0.0
230
1.0
 70
     8
 71
     3
 72
    21
 73
    17
 74
     0
 42
0.000000001
 43
0.00000001
 40
0.0
 40
0.0
 40
0.0
 40
0.0
 40
0.0601902211716337
 40
0.1204666426487865
 40
0.1641854209394798
 40
0.2518948947402177
 40
0.3408401659472716
 40
0.4312469120759509
 40
0.4767692049899422
 40
0.6010393537238267
 40
0.6856451756934969
 40
0.7717147430005931
 40
0.8149466996397445
 40
0.8610837985064501
 40
0.9536139928405387
 40
1.0
 40
1.0
 40
1.0
 40
1.0
 10
251.1388436422791
 20
122.2826977939004
 30
0.0
 10
251.170477378939
 20
122.2596810279595
 30
0.0
 10
251.2337901559263
 20
122.2136145330446
 30
0.0
 10
251.3226280562281
 20
122.148208445131
 30
0.0
 10
251.4283639039224
 20
122.0697110411588
 30
0.0
 10
251.553254959485
 20
121.9758975906297
 30
0.0
 10
251.7099063367192
 20
121.8561962595055
 30
0.0
 10
251.8459395520043
 20
121.7503130775183
 30
0.0
 10
252.0057635992217
 20
121.624126996227
 30
0.0
 10
252.1645828194306
 20
121.4965268420936
 30
0.0
 10
252.3482248247294
 20
121.3460093559946
 30
0.0
 10
252.4802179427459
 20
121.2362396672767
 30
0.0
 10
252.5872303941003
 20
121.1463842096052
 30
0.0
 10
252.6972343559731
 20
121.0534365914665
 30
0.0
 10
252.8077023626037
 20
120.9593068405268
 30
0.0
 10
252.8891900292014
 20
120.8892661815151
 30
0.0
 10
252.9163998682667
 20
120.8658786538154
 30
0.0
  0
SPLINE
  5
9E
330
1F
100
AcDbEntity
  8
0
  6
Continuous
 62
     7
370
    25
100
AcDbSpline
210
0.0
220
0.0
230
1.0
 70
     8
 71
     3
 72
    18
 73
    14
 74
     0
 42
0.000000001
 43
0.00000001
 40
0.0
 40
0.0
 40
0.0
 40
0.0
 40
0.0718225527505983
 40
0.1436511610185274
 40
0.2901073646798274
 40
0.327245603357167
 40
0.4398697841932158
 40
0.5163771558654544
 40
0.6724740877077207
 40
0.7521552925419772
 40
0.81375898909911
 40
0.9376984304008585
 40
1.0
 40
1.0
 40
1.0
 40
1.0
 10
248.9852193316731
 20
121.4500787823167
 30
0.0
 10
249.0314694444828
 20
121.4731731342617
 30
0.0
 10
249.1239735695507
 20
121.5193637852873
 30
0.0
 10
249.3170196240935
 20
121.6125244694186
 30
0.0
 10
249.4942765814726
 20
121.6941893740411
 30
0.0
 10
249.70649541607
 20
121.7869688091111
 30
0.0
 10
249.8728309317852
 20
121.8565224623933
 30
0.0
 10
250.1311835220469
 20
121.9579410148216
 30
0.0
 10
250.367804150564
 20
122.0434164839354
 30
0.0
 10
250.5893956611604
 20
122.1172113810447
 30
0.0
 10
250.7845381920365
 20
122.1792368497399
 30
0.0
 10
250.9636849368082
 20
122.2330585532461
 30
0.0
 10
251.0949370317585
 20
122.2702548450896
 30
0.0
 10
251.1388436422791
 20
122.2826977939004
 30
0.0
  0
SPLINE
  5
9F
330
1F
100
AcDbEntity
  8
0
  6
Continuous
 62
     7
370
    25
100
AcDbSpline
210
0.0
220
0.0
230
1.0
 70
     8
 71
     3
 72
    13
 73
     9
 74
     0
 42
0.000000001
 43
0.00000001
 40
0.0
 40
0.0
 40
0.0
 40
0.0
 40
0.2161268135839924
 40
0.4396426651110874
 40
0.5932590105054164
 40
0.7520094001456943
 40
0.8754366676457828
 40
1.0
 40
1.0
 40
1.0
 40
1.0
 10
248.6091512470548
 20
119.2006406306481
 30
0.0
 10
248.6285849484704
 20
119.367204608696
 30
0.0
 10
248.6681167591775
 20
119.7060271268562
 30
0.0
 10
248.7366922328168
 20
120.183204593574
 30
0.0
 10
248.8078856674797
 20
120.6032073365795
 30
0.0
 10
248.8702451336863
 20
120.9261844447075
 30
0.0
 10
248.9299706932713
 20
121.2088510111836
 30
0.0
 10
248.9667469605279
 20
121.3694243255228
 30
0.0
 10
248.9852193316731
 20
121.4500787823167
 30
0.0
  0
SPLINE
  5
A0
330
1F
100
AcDbEntity
  8
0
  6
Continuous
 62
     7
370
    25
100
AcDbSpline
210
0.0
220
0.0
230
1.0
 70
     8
 71
     3
 72
    13
 73
     9
 74
     0
 42
0.000000001
 43
0.00000001
 40
0.0
 40
0.0
 40
0.0
 40
0.0
 40
0.1850976431720893
 40
0.3515068187791678
 40
0.5232476807925637
 40
0.698202764787978
 40
0.8794576802541308
 40
1.0
 40
1.0
 40
1.0
 40
1.0
 10
250.3867074730424
 20
117.7838214905631
 30
0.0
 10
250.277253172817
 20
117.8775512356869
 30
0.0
 10
250.0693956754734
 20
118.055547259671
 30
0.0
 10
249.7455533592102
 20
118.3249608022413
 30
0.0
 10
249.4241797071808
 20
118.5845217819014
 30
0.0
 10
249.1036305118189
 20
118.8339728329933
 30
0.0
 10
248.8324193223758
 20
119.0377671838383
 30
0.0
 10
248.6728754505031
 20
119.1541539995169
 30
0.0
 10
248.6091512470548
 20
119.2006406306481
 30
0.0
  0
SPLINE
  5
A1
330
1F
100
AcDbEntity
  8
0
  6
Continuous
 62
     7
370
    25
100
AcDbSpline
210
0.0
220
0.0
230
1.0
 70
     8
 71
     3
 72
    18
 73
    14
 74
     0
 42
0.000000001
 43
0.00000001
 40
0.0
 40
0.0
 40
0.0
 40
0.0
 40
0.0538547745293662
 40
0.1618887413368615
 40
0.2715889082384207
 40
0.3834158900082046
 40
0.4398631857420053
 40
0.5548447230501354
 40
0.6329647146285795
 40
0.7521765570918306
 40
0.844633410138033
 40
0.9377061021818739
 40
1.0
 40
1.0
 40
1.0
 40
1.0
 10
252.5403317836484
 20
118.6164405021468
 30
0.0
 10
252.5023927530001
 20
118.6057019902073
 30
0.0
 10
252.3883471187393
 20
118.5734217662737
 30
0.0
 10
252.1928477224982
 20
118.5152358251411
 30
0.0
 10
251.9502290894979
 20
118.4382483197925
 30
0.0
 10
251.7415522144836
 20
118.3668525136604
 30
0.0
 10
251.5281592839385
 20
118.2893288508315
 30
0.0
 10
251.3402859746827
 20
118.2168300568182
 30
0.0
 10
251.1098064814482
 20
118.1218793075921
 30
0.0
 10
250.9018056768142
 20
118.0307665288731
 30
0.0
 10
250.6918408965608
 20
117.9334515226262
 30
0.0
 10
250.5267590570799
 20
117.8538087172597
 30
0.0
 10
250.4267898929538
 20
117.8038516632182
 30
0.0
 10
250.3867074730424
 20
117.7838214905631
 30
0.0
  0
SPLINE
  5
A2
330
1F
100
AcDbEntity
  8
0
  6
Continuous
 62
     7
370
    25
100
AcDbSpline
210
0.0
220
0.0
230
1.0
 70
     8
 71
     3
 72
    13
 73
     9
 74
     0
 42
0.000000001
 43
0.00000001
 40
0.0
 40
0.0
 40
0.0
 40
0.0
 40
0.2161268135839931
 40
0.4396426651110884
 40
0.5932590105054156
 40
0.7520094001456957
 40
0.8754366676457824
 40
1.0
 40
1.0
 40
1.0
 40
1.0
 10
252.9163998682667
 20
120.8658786538154
 30
0.0
 10
252.8843324119553
 20
120.7243902504343
 30
0.0
 10
252.8191011631238
 20
120.4365761763115
 30
0.0
 10
252.733705864236
 20
119.9927828291512
 30
0.0
 10
252.6639781858157
 20
119.5698708417916
 30
0.0
 10
252.6141776333658
 20
119.2219667042698
 30
0.0
 10
252.5731759585699
 20
118.9021368260974
 30
0.0
 10
252.551313226932
 20
118.7119630106375
 30
0.0
 10
252.5403317836484
 20
118.6164405021468
 30
0.0
  0
LINE
  5
A3
330
1F
100
AcDbEntity
  8
0
  6
Continuous
 62
     7
370
    25
100
AcDbLine
 10
252.2954763461
 20
119.1024314729
 30
0.0
 11
252.5403317836
 21
118.6164405021
 31
0.0
  0
LINE
  5
A4
330
1F
100
AcDbEntity
  8
0
  6
Continuous
 62
     7
370
    25
100
AcDbLine
 10
252.2954763461
 20
119.1024314729
 30
0.0
 11
252.4835103884
 21
120.2271505487
 31
0.0
  0
LINE
  5
A5
330
1F
100
AcDbEntity
  8
0
  6
Continuous
 62
     7
370
    25
100
AcDbLine
 10
252.4835103884
 20
120.2271505487
 30
0.0
 11
252.6309964937
 21
121.1093335512
 31
0.0
  0
LINE
  5
A6
330
1F
100
AcDbEntity
  8
0
  6
Continuous
 62
     7
370
    25
100
AcDbLine
 10
248.6413100162
 20
119.4658346306
 30
0.0
 11
249.2530739225
 21
118.9782220314
 31
0.0
  0
LINE
  5
A7
330
1F
100
AcDbEntity
  8
0
  6
Continuous
 62
     7
370
    25
100
AcDbLine
 10
249.2530739225
 20
118.9782220314
 30
0.0
 11
250.1418520355
 21
118.2698124613
 31
0.0
  0
LINE
  5
A8
330
1F
100
AcDbEntity
  8
0
  6
Continuous
 62
     7
370
    25
100
AcDbLine
 10
250.1418520355
 20
118.2698124613
 30
0.0
 11
250.386707473
 21
117.7838214906
 31
0.0
  0
LINE
  5
A9
330
1F
100
AcDbEntity
  8
0
  6
Continuous
 62
     7
370
    25
100
AcDbLine
 10
250.1418520355
 20
118.2698124613
 30
0.0
 11
251.2186641908
 21
118.6861219671
 31
0.0
  0
LINE
  5
AA
330
1F
100
AcDbEntity
  8
0
  6
Continuous
 62
     7
370
    25
100
AcDbLine
 10
251.2186641908
 20
118.6861219671
 30
0.0
 11
252.2954763461
 21
119.1024314729
 31
0.0
  0
ARC
  5
AB
330
1F
100
AcDbEntity
  8
0
  6
Continuous
 62
     7
370
    25
100
AcDbCircle
 10
250.4680802588
 20
120.6181731562
 30
0.0
 40
5.750598062560233
100
AcDbArc
 50
27.5665442509
 51
205.9138664605
  0
ARC
  5
AC
330
1F
100
AcDbEntity
  8
0
  6
Continuous
 62
     7
370
    25
100
AcDbCircle
 10
250.4547554185
 20
120.4875929168
 30
0.0
 40
1.929310469425578
100
AcDbArc
 50
201.0373361708
 51
231.4750459752
  0
ARC
  5
AD
330
1F
100
AcDbEntity
  8
0
  6
Continuous
 62
     7
370
    25
100
AcDbCircle
 10
250.5739595576
 20
120.5491156938
 30
0.0
 40
1.936503532211644
100
AcDbArc
 50
350.4294997059
 51
27.1914806757
  0
ARC
  5
AE
330
1F
100
AcDbEntity
  8
0
  6
Continuous
 62
     7
370
    25
100
AcDbCircle
 10
250.4972203533
 20
120.5678638282
 30
0.0
 40
2.015299888939237
100
AcDbArc
 50
290.9763991628
 51
350.2666373272
  0
ARC
  5
AF
330
1F
100
AcDbEntity
  8
0
  6
Continuous
 62
     7
370
    25
100
AcDbCircle
 10
250.4906206197
 20
120.5464379458
 30
0.0
 40
1.997704428047318
100
AcDbArc
 50
231.721508763
 51
291.3731286321
  0
ARC
  5
B0
330
1F
100
AcDbEntity
  8
0
  6
Continuous
 62
     7
370
    25
100
AcDbCircle
 10
250.2725580304
 20
120.6247261947
 30
0.0
 40
5.828996140644829
100
AcDbArc
 50
211.0151195242
 51
248.1245776836
  0
ARC
  5
B1
330
1F
100
AcDbEntity
  8
0
  6
Continuous
 62
     7
370
    25
100
AcDbCircle
 10
250.4088399677
 20
120.6658593898
 30
0.0
 40
5.967090963718159
100
AcDbArc
 50
346.8224546871
 51
210.6793487869
  0
LWPOLYLINE
  5
B2
330
1F
100
AcDbEntity
  8
0
  6
Continuous
 62
     7
370
    25
100
AcDbPolyline
 90
       36
 70
   128
 43
0.0
 10
244.2875189884
 20
124.1908075778
 10
243.8395317531
 20
123.2525776336
 10
243.5371233595
 20
122.2609122858
 10
243.3870625258
 20
121.2380076886
 10
243.3927080196
 20
120.206759215
 10
243.5539334794
 20
119.1902489966
 10
243.8671302432
 20
118.2112292828
 10
244.3252881198
 20
117.2916131843
 10
244.9181522961
 20
116.451984198
 10
245.6324528675
 20
115.7111354928
 10
246.452201854
 20
115.0856492675
 10
247.3590510551
 20
114.5895255966
 10
248.3327027315
 20
114.2338690704
 10
249.3513639239
 20
114.0266402444
 10
250.3922342381
 20
113.9724774605
 10
251.4320161797
 20
114.0725930284
 10
252.447436615
 20
114.3247460908
 10
253.4157676868
 20
114.7232927798
 10
254.3153355253
 20
115.2593125419
 10
255.1260053678
 20
115.9208078043
 10
255.8296322295
 20
116.692972513
 10
256.410467037
 20
117.558523532
 10
256.8555091356
 20
118.4980874874
 10
257.1547972787
 20
119.4906343951
 10
257.3016325877
 20
120.5139483695
 10
257.2927284911
 20
121.5451248743
 10
257.1282842867
 20
122.5610833891
 10
256.8119806807
 20
123.5390840128
 10
256.3508974039
 20
124.4572364449
 10
255.7553547477
 20
125.2949899492
 10
255.0386825684
 20
126.0335933353
 10
254.2169219288
 20
126.6565146605
 10
253.3084660559
 20
127.1498112599
 10
252.3336486505
 20
127.5024418207
 10
251.3142887642
 20
127.7065135166
 10
250.2732024297
 20
127.7574586709
  0
SPLINE
  5
B3
330
1F
100
AcDbEntity
  8
0
  6
Continuous
 62
     7
370
    25
100
AcDbSpline
210
0.0
220
0.0
230
1.0
 70
     8
 71
     3
 72
    21
 73
    17
 74
     0
 42
0.000000001
 43
0.00000001
 40
0.0
 40
0.0
 40
0.0
 40
0.0
 40
0.1184898130330483
 40
0.2409333092378623
 40
0.3026367619995959
 40
0.3656706537111648
 40
0.4274946845527285
 40
0.4917637827059817
 40
0.544550609406536
 40
0.5990253743181353
 40
0.6499283218776103
 40
0.701870059174414
 40
0.7841066692680052
 40
0.8686395319671687
 40
0.9340328022789453
 40
1.0
 40
1.0
 40
1.0
 40
1.0
 10
244.2875189883653
 20
124.1908075777899
 30
0.0
 10
244.3894199550387
 20
124.1788468169747
 30
0.0
 10
244.5966220468195
 20
124.1545261972484
 30
0.0
 10
244.8694485264711
 20
124.1929460115369
 30
0.0
 10
245.0905497905648
 20
124.2664111949312
 30
0.0
 10
245.2541739732532
 20
124.3481083056991
 30
0.0
 10
245.4114650750455
 20
124.4591144432047
 30
0.0
 10
245.5456578368451
 20
124.5908779601151
 30
0.0
 10
245.654940164131
 20
124.7367302266261
 30
0.0
 10
245.7366238897202
 20
124.883163765061
 30
0.0
 10
245.7982904453373
 20
125.0354419981601
 30
0.0
 10
245.849241361789
 20
125.2178450135167
 30
0.0
 10
245.8790152251996
 20
125.4337320518592
 30
0.0
 10
245.8762855577206
 20
125.6566435249959
 30
0.0
 10
245.8512537187586
 20
125.857197457609
 30
0.0
 10
245.8221346880663
 20
125.9736624276769
 30
0.0
 10
245.8075115606986
 20
126.0321493364334
 30
0.0
  0
ARC
  5
B4
330
1F
100
AcDbEntity
  8
0
  6
Continuous
 62
     7
370
    25
100
AcDbCircle
 10
250.4500542238
 20
120.6454646249
 30
0.0
 40
7.111228765854324
100
AcDbArc
 50
130.4633008673
 51
130.7565808758
  0
SPLINE
  5
B5
330
1F
100
AcDbEntity
  8
0
  6
Continuous
 62
     7
370
    25
100
AcDbSpline
210
0.0
220
0.0
230
1.0
 70
     8
 71
     3
 72
    21
 73
    17
 74
     0
 42
0.000000001
 43
0.00000001
 40
0.0
 40
0.0
 40
0.0
 40
0.0
 40
0.118489813033012
 40
0.2409333092377983
 40
0.3026367619995357
 40
0.3656706537111124
 40
0.4274946845526797
 40
0.4917637827059383
 40
0.5445506094064945
 40
0.5990253743181
 40
0.649928321877582
 40
0.7018700591743899
 40
0.7841066692679695
 40
0.868639531967117
 40
0.9340328022789203
 40
1.0
 40
1.0
 40
1.0
 40
1.0
 10
245.8351450926586
 20
126.0558424556518
 30
0.0
 10
245.9316031962485
 20
126.0117142864615
 30
0.0
 10
246.1277379483073
 20
125.9219855109537
 30
0.0
 10
246.4080244306801
 20
125.8696915212434
 30
0.0
 10
246.6481918740471
 20
125.8668167331448
 30
0.0
 10
246.8342934329581
 20
125.8901834917373
 30
0.0
 10
247.0230771594331
 20
125.942918871822
 30
0.0
 10
247.1953818873866
 20
126.0224486088921
 30
0.0
 10
247.3473817573029
 20
126.1231371581515
 30
0.0
 10
247.4723373435379
 20
126.2332654050815
 30
0.0
 10
247.57933880542
 20
126.3552992779117
 30
0.0
 10
247.6849506271271
 20
126.508875997086
 30
0.0
 10
247.779942503816
 20
126.7005200637094
 30
0.0
 10
247.8452259656867
 20
126.9092567619657
 30
0.0
 10
247.881899136594
 20
127.1043984071414
 30
0.0
 10
247.8889823534604
 20
127.2224734599209
 30
0.0
 10
247.8925394355454
 20
127.2817689273417
 30
0.0
  0
ARC
  5
B6
330
1F
100
AcDbEntity
  8
0
  6
Continuous
 62
     7
370
    25
100
AcDbCircle
 10
250.462430329
 20
120.6300125116
 30
0.0
 40
7.130932801483436
100
AcDbArc
 50
110.8311859105
 51
111.123925413
  0
SPLINE
  5
B7
330
1F
100
AcDbEntity
  8
0
  6
Continuous
 62
     7
370
    25
100
AcDbSpline
210
0.0
220
0.0
230
1.0
 70
     8
 71
     3
 72
    30
 73
    26
 74
     0
 42
0.000000001
 43
0.00000001
 40
0.0
 40
0.0
 40
0.0
 40
0.0
 40
0.0590602000203237
 40
0.1185049800822052
 40
0.1794331125814491
 40
0.2410387124879786
 40
0.2718168420897078
 40
0.302734259149968
 40
0.3341521233787343
 40
0.36577655118997
 40
0.3965690294884032
 40
0.4276237199487627
 40
0.4596011458887477
 40
0.4919380608863625
 40
0.5182348222010341
 40
0.5718270130068518
 40
0.5991744014647054
 40
0.6500413387212292
 40
0.7019463308434281
 40
0.7429118621823688
 40
0.7842031639785438
 40
0.8263514103365266
 40
0.8687324603826716
 40
0.934079469493605
 40
1.0
 40
1.0
 40
1.0
 40
1.0
 10
247.9265584379507
 20
127.2948123113545
 30
0.0
 10
247.9655206334195
 20
127.2578093591562
 30
0.0
 10
248.0436987329924
 20
127.1835625040534
 30
0.0
 10
248.1763823204068
 20
127.0828540557674
 30
0.0
 10
248.3221504814806
 20
126.9916209784254
 30
0.0
 10
248.455720748859
 20
126.9267018058943
 30
0.0
 10
248.5693052233595
 20
126.8832555235331
 30
0.0
 10
248.6581515809286
 20
126.8553449413877
 30
0.0
 10
248.7507207202797
 20
126.8327074488889
 30
0.0
 10
248.845785770912
 20
126.8162628926024
 30
0.0
 10
248.942566126714
 20
126.8065370220347
 30
0.0
 10
249.0411285549591
 20
126.8039046197349
 30
0.0
 10
249.1418964006496
 20
126.8090329930074
 30
0.0
 10
249.2371816721162
 20
126.8217142317223
 30
0.0
 10
249.3533114430155
 20
126.8461733757224
 30
0.0
 10
249.4608176201399
 20
126.8807890818688
 30
0.0
 10
249.5852281511692
 20
126.9354879551739
 30
0.0
 10
249.7002653520903
 20
127.000164100729
 30
0.0
 10
249.8142978029593
 20
127.0839939739166
 30
0.0
 10
249.9096455627137
 20
127.1703554571638
 30
0.0
 10
249.9892093374607
 20
127.2559099402524
 30
0.0
 10
250.0610272574809
 20
127.3469949864807
 30
0.0
 10
250.1364204207903
 20
127.4600264569304
 30
0.0
 10
250.2109282993743
 20
127.5961979445901
 30
0.0
 10
250.2523840115215
 20
127.7035487531898
 30
0.0
 10
250.2732024297323
 20
127.7574586708572
 30
0.0
  0
LINE
  5
B8
330
1F
100
AcDbEntity
  8
0
  6
Continuous
 62
     7
370
    25
100
AcDbLine
 10
247.8359182537
 20
127.4747156518
 30
0.0
 11
247.926558438
 21
127.2948123114
 31
0.0
  0
SPLINE
  5
B9
330
1F
100
AcDbEntity
  8
0
  6
Continuous
 62
     7
370
    25
100
AcDbSpline
210
0.0
220
0.0
230
1.0
 70
     8
 71
     3
 72
    10
 73
     6
 74
     0
 42
0.000000001
 43
0.00000001
 40
0.0
 40
0.0
 40
0.0
 40
0.0
 40
0.4212212683754443
 40
0.8437806110140779
 40
1.0
 40
1.0
 40
1.0
 40
1.0
 10
249.8730345055664
 20
128.5517150692486
 30
0.0
 10
249.8474358188957
 20
128.5256980426504
 30
0.0
 10
249.7961571273818
 20
128.4735813423603
 30
0.0
 10
249.7260539154044
 20
128.4120825947071
 30
0.0
 10
249.6771315688961
 20
128.3767467910517
 30
0.0
 10
249.6639268350977
 20
128.3672092297095
 30
0.0
  0
LINE
  5
BA
330
1F
100
AcDbEntity
  8
0
  6
Continuous
 62
     7
370
    25
100
AcDbLine
 10
250.2732024297
 20
127.7574586709
 30
0.0
 11
249.8730345056
 21
128.5517150692
 31
0.0
  0
LINE
  5
BB
330
1F
100
AcDbEntity
  8
0
  6
Continuous
 62
     7
370
    25
100
AcDbLine
 10
245.7174807284
 20
126.289383598
 30
0.0
 11
245.8351450927
 21
126.0558424557
 31
0.0
  0
LINE
  5
BC
330
1F
100
AcDbEntity
  8
0
  6
Continuous
 62
     7
370
    25
100
AcDbLine
 10
247.8925394355
 20
127.2817689273
 30
0.0
 11
247.826685827
 21
127.4124756801
 31
0.0
  0
LINE
  5
BD
330
1F
100
AcDbEntity
  8
0
  6
Continuous
 62
     7
370
    25
100
AcDbLine
 10
243.8873510642
 20
124.9850639762
 30
0.0
 11
244.2875189884
 21
124.1908075778
 31
0.0
  0
SPLINE
  5
BE
330
1F
100
AcDbEntity
  8
0
  6
Continuous
 62
     7
370
    25
100
AcDbSpline
210
0.0
220
0.0
230
1.0
 70
     8
 71
     3
 72
    11
 73
     7
 74
     0
 42
0.000000001
 43
0.00000001
 40
0.0
 40
0.0
 40
0.0
 40
0.0
 40
0.0609154964483416
 40
0.4264128458263993
 40
0.8004778036823575
 40
1.0
 40
1.0
 40
1.0
 40
1.0
 10
244.4796978320393
 20
125.2719038767299
 30
0.0
 10
244.4657383127282
 20
125.2619274457157
 30
0.0
 10
244.3680206759545
 20
125.1920917128072
 30
0.0
 10
244.2032563054931
 20
125.1034083859676
 30
0.0
 10
244.0236370945356
 20
125.025578438836
 30
0.0
 10
243.9225234341659
 20
124.9955198509761
 30
0.0
 10
243.8873510641994
 20
124.9850639761812
 30
0.0
  0
LINE
  5
BF
330
1F
100
AcDbEntity
  8
0
  6
Continuous
 62
     7
370
    25
100
AcDbLine
 10
245.8075115607
 20
126.0321493364
 30
0.0
 11
245.6655233033
 21
126.3139687306
 31
0.0
  0
ARC
  5
C0
330
1F
100
AcDbEntity
  8
0
  6
Continuous
 62
     7
370
    25
100
AcDbCircle
 10
249.7942919546
 20
121.5663554908
 30
0.0
 40
6.824918929218679
100
AcDbArc
 50
149.9394046686
 51
206.6053957411
  0
ARC
  5
C1
330
1F
100
AcDbEntity
  8
0
  6
Continuous
 62
     7
370
    25
100
AcDbCircle
 10
250.0852100637
 20
121.6996022623
 30
0.0
 40
6.855397026215572
100
AcDbArc
 50
26.9738782347
 51
91.7735961371
  0
SPLINE
  5
C2
330
1F
100
AcDbEntity
  8
0
  6
Continuous
 62
     7
370
    25
100
AcDbSpline
210
0.0
220
0.0
230
1.0
 70
     8
 71
     3
 72
    11
 73
     7
 74
     0
 42
0.000000001
 43
0.00000001
 40
0.0
 40
0.0
 40
0.0
 40
0.0
 40
0.2470280283805142
 40
0.4952240180322457
 40
0.7470074342714763
 40
1.0
 40
1.0
 40
1.0
 40
1.0
 10
252.0953756580815
 20
132.8011435044829
 30
0.0
 10
252.0034964746793
 20
132.9511459914357
 30
0.0
 10
251.8193036983523
 20
133.2518601848435
 30
0.0
 10
251.5029302960595
 20
133.6798686828677
 30
0.0
 10
251.1594736717289
 20
134.0919470006752
 30
0.0
 10
250.9061432500282
 20
134.3467311106232
 30
0.0
 10
250.7791746230478
 20
134.4744283228228
 30
0.0
  0
SPLINE
  5
C3
330
1F
100
AcDbEntity
  8
0
  6
Continuous
 62
     7
370
    25
100
AcDbSpline
210
0.0
220
0.0
230
1.0
 70
     8
 71
     3
 72
    22
 73
    18
 74
     0
 42
0.000000001
 43
0.00000001
 40
0.0
 40
0.0
 40
0.0
 40
0.0
 40
0.0476791780794037
 40
0.1444810006522469
 40
0.1936188871149726
 40
0.2523113209590834
 40
0.3114721313229396
 40
0.3712503405513319
 40
0.4318137152535707
 40
0.5126580875066675
 40
0.5942831470308282
 40
0.6768613660692107
 40
0.7601460969721797
 40
0.8787236410541325
 40
0.9385650606652902
 40
0.9985554426257002
 40
0.9999999999999999
 40
0.9999999999999999
 40
0.9999999999999999
 40
0.9999999999999999
 10
250.7791746230478
 20
134.4744283228228
 30
0.0
 10
250.6396448806466
 20
134.6039560777569
 30
0.0
 10
250.2168314510754
 20
134.9964607390989
 30
0.0
 10
249.5968639527503
 20
135.448068157453
 30
0.0
 10
248.9227166554329
 20
135.8567746872497
 30
0.0
 10
248.3619027805593
 20
136.1477217033851
 30
0.0
 10
247.759928022707
 20
136.4097783588281
 30
0.0
 10
247.1502015815483
 20
136.6282629164257
 30
0.0
 10
246.4693970182759
 20
136.8232574568767
 30
0.0
 10
245.7219103506396
 20
136.9779075299377
 30
0.0
 10
244.9154726451322
 20
137.075370443606
 30
0.0
 10
244.1201310874623
 20
137.1045701881354
 30
0.0
 10
243.2323144168499
 20
137.062327036112
 30
0.0
 10
242.4480887280996
 20
136.9426994148218
 30
0.0
 10
241.7648809021222
 20
136.7722449065532
 30
0.0
 10
241.4284109881199
 20
136.6649695152559
 30
0.0
 10
241.261144216131
 20
136.6052955055735
 30
0.0
 10
241.2572111700245
 20
136.6038923540172
 30
0.0
  0
SPLINE
  5
C4
330
1F
100
AcDbEntity
  8
0
  6
Continuous
 62
     7
370
    25
100
AcDbSpline
210
0.0
220
0.0
230
1.0
 70
     8
 71
     3
 72
    22
 73
    18
 74
     0
 42
0.000000001
 43
0.00000001
 40
0.0
 40
0.0
 40
0.0
 40
0.0
 40
0.0957189419742264
 40
0.1935486211387579
 40
0.3113070722141461
 40
0.3710947572480448
 40
0.431667732217118
 40
0.4720012180237161
 40
0.5531468636996522
 40
0.635268294626865
 40
0.7183231758433689
 40
0.7600698731531419
 40
0.8193100855876314
 40
0.878704416804949
 40
0.9385553222414736
 40
0.9985552136401732
 40
1.0
 40
1.0
 40
1.0
 40
1.0
 10
238.3385546921641
 20
127.1849323201693
 30
0.0
 10
238.2563489283513
 20
127.5587420143021
 30
0.0
 10
238.0901246481048
 20
128.3146044316611
 30
0.0
 10
238.0308776964243
 20
129.5313017770912
 30
0.0
 10
238.1074952316335
 20
130.5664746840218
 30
0.0
 10
238.2590904036352
 20
131.4184965835936
 30
0.0
 10
238.3954414542711
 20
131.97281811614
 30
0.0
 10
238.57961568229
 20
132.5796029519458
 30
0.0
 10
238.8231857474737
 20
133.2294977051982
 30
0.0
 10
239.1719858077209
 20
133.9666043158204
 30
0.0
 10
239.5062824056295
 20
134.5432855426241
 30
0.0
 10
239.8285521906521
 20
135.0268061326513
 30
0.0
 10
240.1262842783526
 20
135.4274089849756
 30
0.0
 10
240.4782716161447
 20
135.8455582265619
 30
0.0
 10
240.851421987511
 20
136.237013331908
 30
0.0
 10
241.1165474857717
 20
136.4822352189581
 30
0.0
 10
241.2539796434854
 20
136.6010974730022
 30
0.0
 10
241.2572111700245
 20
136.6038923540172
 30
0.0
  0
SPLINE
  5
C5
330
1F
100
AcDbEntity
  8
0
  6
Continuous
 62
     7
370
    25
100
AcDbSpline
210
0.0
220
0.0
230
1.0
 70
     8
 71
     3
 72
    11
 73
     7
 74
     0
 42
0.000000001
 43
0.00000001
 40
0.0
 40
0.0
 40
0.0
 40
0.0
 40
0.2470280283805166
 40
0.4952240180322477
 40
0.7470074342714782
 40
0.9999999999999999
 40
0.9999999999999999
 40
0.9999999999999999
 40
0.9999999999999999
 10
239.1544269231393
 20
125.2184832674537
 30
0.0
 10
239.0684516095781
 20
125.3719450864852
 30
0.0
 10
238.8960944867347
 20
125.6795942999513
 30
0.0
 10
238.6774276454982
 20
126.1648532879196
 30
0.0
 10
238.4860014188988
 20
126.6660127755322
 30
0.0
 10
238.3877820265768
 20
127.01168313029
 30
0.0
 10
238.3385546921641
 20
127.1849323201693
 30
0.0
  0
SPLINE
  5
C6
330
1F
100
AcDbEntity
  8
0
  6
Continuous
 62
     7
370
    25
100
AcDbSpline
210
0.0
220
0.0
230
1.0
 70
     8
 71
     3
 72
    10
 73
     6
 74
     0
 42
0.000000001
 43
0.00000001
 40
0.0
 40
0.0
 40
0.0
 40
0.0
 40
0.2677678585222067
 40
0.9471469522616678
 40
1.0
 40
1.0
 40
1.0
 40
1.0
 10
238.0668003548422
 20
127.3781616755761
 30
0.0
 10
238.0864927175669
 20
127.3340972345845
 30
0.0
 10
238.1561484314397
 20
127.178232743534
 30
0.0
 10
238.235734313716
 20
127.0004687544416
 30
0.0
 10
238.3117114616818
 20
126.8575820269045
 30
0.0
 10
238.3171955473986
 20
126.8472683591426
 30
0.0
  0
ARC
  5
C7
330
1F
100
AcDbEntity
  8
0
  6
Continuous
 62
     7
370
    25
100
AcDbCircle
 10
245.0340761277
 20
130.1965604924
 30
0.0
 40
7.515737062041173
100
AcDbArc
 50
38.7114641405
 51
202.0242916082
  0
SPLINE
  5
C8
330
1F
100
AcDbEntity
  8
0
  6
Continuous
 62
     7
370
    25
100
AcDbSpline
210
0.0
220
0.0
230
1.0
 70
     8
 71
     3
 72
    10
 73
     6
 74
     0
 42
0.000000001
 43
0.00000001
 40
0.0
 40
0.0
 40
0.0
 40
0.0
 40
0.1480669295196394
 40
0.9078073725016051
 40
1.0
 40
1.0
 40
1.0
 40
1.0
 10
250.8986455063904
 20
134.8968934155171
 30
0.0
 10
250.9264710004053
 20
134.8578182616189
 30
0.0
 10
251.0970708007266
 20
134.6182461106628
 30
0.0
 10
251.3162378005915
 20
134.2923757537475
 30
0.0
 10
251.4960796953972
 20
133.9852399249204
 30
0.0
 10
251.5155414317599
 20
133.952002972348
 30
0.0
  0
LWPOLYLINE
  5
C9
330
1F
100
AcDbEntity
  8
0
  6
Continuous
 62
     7
370
    25
100
AcDbPolyline
 90
        9
 70
   128
 43
0.0
 10
252.0953756581
 20
132.8011435045
 10
252.8024500721
 20
131.5952850565
 10
253.5091713743
 20
130.3909947748
 10
254.2149868271
 20
129.1892145537
 10
254.919344401
 20
127.9908843243
 10
255.621693207
 20
126.7969413195
 10
256.3214839271
 20
125.6083193406
 10
257.0181692442
 20
124.4259480275
 10
257.7112042696
 20
123.2507521314
  0
SPLINE
  5
CA
330
1F
100
AcDbEntity
  8
0
  6
Continuous
 62
     7
370
    25
100
AcDbSpline
210
0.0
220
0.0
230
1.0
 70
     8
 71
     3
 72
    15
 73
    11
 74
     0
 42
0.000000001
 43
0.00000001
 40
0.0
 40
0.0
 40
0.0
 40
0.0
 40
0.1628903375038181
 40
0.3270642821452253
 40
0.4951568908559995
 40
0.6645300813048721
 40
0.7480639568610681
 40
0.8317347363883403
 40
0.9158040533644602
 40
1.0
 40
1.0
 40
1.0
 40
1.0
 10
257.7112042695918
 20
123.2507521313521
 30
0.0
 10
258.1516415043261
 20
122.4679563272554
 30
0.0
 10
259.0359867037767
 20
120.896196137814
 30
0.0
 10
260.1303102296238
 20
118.4517757129684
 30
0.0
 10
261.0475368712341
 20
115.9519805207135
 30
0.0
 10
261.6385103221367
 20
113.8449985166489
 30
0.0
 10
262.0080017184823
 20
112.16551782759
 30
0.0
 10
262.2322652936182
 20
110.9156496415149
 30
0.0
 10
262.4104182396426
 20
109.6675822911754
 30
0.0
 10
262.4876265461447
 20
108.840426994659
 30
0.0
 10
262.5262597513264
 20
108.4265381045223
 30
0.0
  0
SPLINE
  5
CB
330
1F
100
AcDbEntity
  8
0
  6
Continuous
 62
     7
370
    25
100
AcDbSpline
210
0.0
220
0.0
230
1.0
 70
     8
 71
     3
 72
    15
 73
    11
 74
     0
 42
0.000000001
 43
0.00000001
 40
0.0
 40
0.0
 40
0.0
 40
0.0
 40
0.0813845405925895
 40
0.2449159503194916
 40
0.4110464259502586
 40
0.5797819633953338
 40
0.6645648718571763
 40
0.7480982233375251
 40
0.915804581594017
 40
1.0
 40
1.0
 40
1.0
 40
1.0
 10
244.7702555346496
 20
115.6680918943228
 30
0.0
 10
245.0028453479202
 20
115.2835153973861
 30
0.0
 10
245.7027934552271
 20
114.1261835806556
 30
0.0
 10
246.986238496803
 20
112.2854466135584
 30
0.0
 10
248.6685794347446
 20
110.205556779727
 30
0.0
 10
250.1880346350148
 20
108.6010006187896
 30
0.0
 10
251.4602351538118
 20
107.4045343830185
 30
0.0
 10
252.761120340093
 20
106.2747546824854
 30
0.0
 10
254.1020289882527
 20
105.2335243376595
 30
0.0
 10
255.1407308274362
 20
104.5357021505053
 30
0.0
 10
255.487905575895
 20
104.3024627037699
 30
0.0
  0
LWPOLYLINE
  5
CC
330
1F
100
AcDbEntity
  8
0
  6
Continuous
 62
     7
370
    25
100
AcDbPolyline
 90
        9
 70
   128
 43
0.0
 10
239.1544269231
 20
125.2184832675
 10
239.8615013371
 20
124.0126248194
 10
240.5682226394
 20
122.8083345378
 10
241.2740380921
 20
121.6065543167
 10
241.978395666
 20
120.4082240873
 10
242.6807444721
 20
119.2142810824
 10
243.3805351922
 20
118.0256591036
 10
244.0772205092
 20
116.8432877905
 10
244.7702555346
 20
115.6680918943
  0
SPLINE
  5
CD
330
1F
100
AcDbEntity
  8
0
  6
Continuous
 62
     7
370
    25
100
AcDbSpline
210
0.0
220
0.0
230
1.0
 70
     8
 71
     3
 72
    10
 73
     6
 74
     0
 42
0.000000001
 43
0.00000001
 40
0.0
 40
0.0
 40
0.0
 40
0.0
 40
0.161693804672617
 40
0.5428977747270924
 40
1.0
 40
1.0
 40
1.0
 40
1.0
 10
244.3886895848599
 20
125.1381812412887
 30
0.0
 10
244.4343487519588
 20
125.2065446202335
 30
0.0
 10
244.5876524624138
 20
125.4360792420272
 30
0.0
 10
244.9073514105441
 20
125.8343291492777
 30
0.0
 10
245.2227512865609
 20
126.1221859133329
 30
0.0
 10
245.3947290030345
 20
126.2791452298009
 30
0.0
  0
SPLINE
  5
CE
330
1F
100
AcDbEntity
  8
0
  6
Continuous
 62
     7
370
    25
100
AcDbSpline
210
0.0
220
0.0
230
1.0
 70
     8
 71
     3
 72
    10
 73
     6
 74
     0
 42
0.000000001
 43
0.00000001
 40
0.0
 40
0.0
 40
0.0
 40
0.0
 40
0.2602259005721123
 40
0.6510765660789983
 40
1.0
 40
1.0
 40
1.0
 40
1.0
 10
248.0261407966593
 20
127.8644291421867
 30
0.0
 10
248.1510561543139
 20
127.9060340639701
 30
0.0
 10
248.4635902331025
 20
128.0101281973641
 30
0.0
 10
248.9585716230952
 20
128.1208611461105
 30
0.0
 10
249.3298589760656
 20
128.1676919319543
 30
0.0
 10
249.504981163055
 20
128.1897802405643
 30
0.0
  0
SPLINE
  5
CF
330
1F
100
AcDbEntity
  8
0
  6
Continuous
 62
     7
370
    25
100
AcDbSpline
210
0.0
220
0.0
230
1.0
 70
     8
 71
     3
 72
    37
 73
    33
 74
     0
 42
0.000000001
 43
0.00000001
 40
0.0
 40
0.0
 40
0.0
 40
0.0
 40
0.0130213780624028
 40
0.0399164132215194
 40
0.0669970921212726
 40
0.0946637870665765
 40
0.12253338220617
 40
0.14947962931118
 40
0.1766150306981214
 40
0.2043512999462132
 40
0.2322971984465758
 40
0.2860065026799039
 40
0.3132821795137473
 40
0.3409723869993233
 40
0.3936992570168131
 40
0.4204755937226557
 40
0.4476571995869471
 40
0.4994966730437866
 40
0.5524700445248015
 40
0.6040537291389168
 40
0.6567333562674411
 40
0.7088273857834013
 40
0.7352564598357384
 40
0.7620553646645274
 40
0.8151089314726206
 40
0.8420257336183486
 40
0.8693211442362422
 40
0.8961162582119191
 40
0.9232888450018244
 40
0.9506529379339044
 40
0.9784106452888226
 40
1.0
 40
1.0
 40
1.0
 40
1.0
 10
244.5419656926764
 20
127.9002352752491
 30
0.0
 10
244.5324251099414
 20
127.9185195828375
 30
0.0
 10
244.503178908733
 20
127.9745692554354
 30
0.0
 10
244.4645459145095
 20
128.073629807255
 30
0.0
 10
244.4255676216553
 20
128.1969590092865
 30
0.0
 10
244.397304230702
 20
128.3248808245
 30
0.0
 10
244.3799351560769
 20
128.4544789889611
 30
0.0
 10
244.3736494647871
 20
128.584248243128
 30
0.0
 10
244.3782042170958
 20
128.7138759896345
 30
0.0
 10
244.393966604023
 20
128.8442434672509
 30
0.0
 10
244.4296021045882
 20
129.0139356308981
 30
0.0
 10
244.4866337636929
 20
129.1777673623579
 30
0.0
 10
244.5636139969493
 20
129.3318793892821
 30
0.0
 10
244.6529083488267
 20
129.4773838736303
 30
0.0
 10
244.7601199756097
 20
129.6102182879974
 30
0.0
 10
244.8822712641062
 20
129.7271629850209
 30
0.0
 10
245.0130327595877
 20
129.8321981863464
 30
0.0
 10
245.1922418404665
 20
129.9417984559201
 30
0.0
 10
245.4234215106817
 20
130.0338874174673
 30
0.0
 10
245.6680235052699
 20
130.0861299995088
 30
0.0
 10
245.916524138951
 20
130.0969187204579
 30
0.0
 10
246.1237163494507
 20
130.0712945801706
 30
0.0
 10
246.2856198865379
 20
130.0305667277551
 30
0.0
 10
246.4450188563024
 20
129.9760604154223
 30
0.0
 10
246.5977995004487
 20
129.9015304471443
 30
0.0
 10
246.7402440003628
 20
129.8087214703237
 30
0.0
 10
246.8416516516559
 20
129.7298885406503
 30
0.0
 10
246.9364230437171
 20
129.6426369433073
 30
0.0
 10
247.0238062645242
 20
129.54780024411
 30
0.0
 10
247.1035967524038
 20
129.4446488324663
 30
0.0
 10
247.1706138458479
 20
129.3430612146824
 30
0.0
 10
247.2064310501679
 20
129.2735881132816
 30
0.0
 10
247.2221010879867
 20
129.2431936102205
 30
0.0
  0
LINE
  5
D0
330
1F
100
AcDbEntity
  8
0
  6
Continuous
 62
     7
370
    25
100
AcDbLine
 10
257.0969268558
 20
124.4699747048
 30
0.0
 11
252.2977174217
 21
132.6145232526
 31
0.0
  0
ARC
  5
D1
330
1F
100
AcDbEntity
  8
0
  6
Continuous
 62
     7
370
    25
100
AcDbCircle
 10
453.7058351424
 20
251.2981317937
 30
0.0
 40
233.7755950054432
100
AcDbArc
 50
210.1297946629
 51
210.5095368048
  0
LWPOLYLINE
  5
D2
330
1F
100
AcDbEntity
  8
0
  6
Continuous
 62
     7
370
    25
100
AcDbPolyline
 90
        3
 70
   128
 43
0.0
 10
258.3099651951
 20
122.2473786377
 10
257.7918861511
 20
123.2395074006
 10
257.0969268558
 20
124.4699747048
  0
SPLINE
  5
D3
330
1F
100
AcDbEntity
  8
0
  6
Continuous
 62
     7
370
    25
100
AcDbSpline
210
0.0
220
0.0
230
1.0
 70
     8
 71
     3
 72
    19
 73
    15
 74
     0
 42
0.000000001
 43
0.00000001
 40
0.0
 40
0.0
 40
0.0
 40
0.0
 40
0.0594275983886568
 40
0.1494159277941309
 40
0.2400123985156609
 40
0.3013712571386662
 40
0.3629318747571641
 40
0.4223620672448977
 40
0.534803691581271
 40
0.7268470689599101
 40
0.7816638973760597
 40
0.885477449142892
 40
0.9988522012774018
 40
1.0
 40
1.0
 40
1.0
 40
1.0
 10
262.5262597513264
 20
108.4265381045223
 30
0.0
 10
262.5332383470428
 20
108.3374519189088
 30
0.0
 10
262.5507842917205
 20
108.1134668439939
 30
0.0
 10
262.5706360627489
 20
107.7712072516228
 30
0.0
 10
262.5830975847819
 20
107.4457237534304
 30
0.0
 10
262.5882914032063
 20
107.1759390454295
 30
0.0
 10
262.588981420323
 20
106.9582690847514
 30
0.0
 10
262.585331586011
 20
106.6970056754281
 30
0.0
 10
262.5701648927597
 20
106.3306008138144
 30
0.0
 10
262.5403615193684
 20
106.0496329732561
 30
0.0
 10
262.5028329762971
 20
105.8518313968339
 30
0.0
 10
262.4697329490892
 20
105.7421146731508
 30
0.0
 10
262.4405037701796
 20
105.6872699103397
 30
0.0
 10
262.4240330712994
 20
105.6852819042982
 30
0.0
 10
262.4238679942296
 20
105.6852619795692
 30
0.0
  0
SPLINE
  5
D4
330
1F
100
AcDbEntity
  8
0
  6
Continuous
 62
     7
370
    25
100
AcDbSpline
210
0.0
220
0.0
230
1.0
 70
     8
 71
     3
 72
    19
 73
    15
 74
     0
 42
0.000000001
 43
0.00000001
 40
0.0
 40
0.0
 40
0.0
 40
0.0
 40
0.0594275983886569
 40
0.1494159277941313
 40
0.2400123985156615
 40
0.3013712571386666
 40
0.3629318747571645
 40
0.4223620672448982
 40
0.534803691581272
 40
0.72684706895991
 40
0.7816638973760598
 40
0.8854774491428927
 40
0.9988522012774025
 40
1.0
 40
1.0
 40
1.0
 40
1.0
 10
255.487905575895
 20
104.3024627037699
 30
0.0
 10
255.5633569235193
 20
104.2534976579466
 30
0.0
 10
255.7530605867043
 20
104.1303872185288
 30
0.0
 10
256.0471789638821
 20
103.9488322646961
 30
0.0
 10
256.330863955224
 20
103.7822702998628
 30
0.0
 10
256.5692442988897
 20
103.6491196384819
 30
0.0
 10
256.7638215952441
 20
103.5450566005152
 30
0.0
 10
257.0002869058057
 20
103.4244870150091
 30
0.0
 10
257.3385754352842
 20
103.2651868192014
 30
0.0
 10
257.6104673786506
 20
103.160995282215
 30
0.0
 10
257.8138668271214
 20
103.1043638115457
 30
0.0
 10
257.9357272434862
 20
103.085445097951
 30
0.0
 10
258.0060413764222
 20
103.0889270566238
 30
0.0
 10
258.0201369911518
 20
103.1048491725945
 30
0.0
 10
258.0202782640142
 20
103.1050087515092
 30
0.0
  0
LINE
  5
D5
330
1F
100
AcDbEntity
  8
0
  6
Continuous
 62
     7
370
    25
100
AcDbLine
 10
263.4322441583
 20
108.637572387
 30
0.0
 11
262.35578571
 21
109.98327364
 31
0.0
  0
ARC
  5
D6
330
1F
100
AcDbEntity
  8
0
  6
Continuous
 62
     7
370
    25
100
AcDbCircle
 10
263.1310846813
 20
108.3967347247
 30
0.0
 40
0.3856161435044703
100
AcDbArc
 50
3.0035970254
 51
38.6493755077
  0
LINE
  5
D7
330
1F
100
AcDbEntity
  8
0
  6
Continuous
 62
     7
370
    25
100
AcDbLine
 10
264.3092538703
 20
93.4690441072
 30
0.0
 11
263.5161710835
 21
108.4169404901
 31
0.0
  0
ARC
  5
D8
330
1F
100
AcDbEntity
  8
0
  6
Continuous
 62
     7
370
    25
100
AcDbCircle
 10
263.9077455497
 20
93.4504125402
 30
0.0
 40
0.4019403772035887
100
AcDbArc
 50
219.4369315684
 51
2.6568438448
  0
LINE
  5
D9
330
1F
100
AcDbEntity
  8
0
  6
Continuous
 62
     7
370
    25
100
AcDbLine
 10
254.2677749184
 20
104.8581275
 30
0.0
 11
263.5973172372
 21
93.1950885702
 31
0.0
  0
ARC
  5
DA
330
1F
100
AcDbEntity
  8
0
  6
Continuous
 62
     7
370
    25
100
AcDbCircle
 10
254.5689343954
 20
105.0989651622
 30
0.0
 40
0.3856161435045002
100
AcDbArc
 50
183.0035970254
 51
218.6493755077
  0
ARC
  5
DB
330
1F
100
AcDbEntity
  8
0
  6
Continuous
 62
     7
370
    25
100
AcDbCircle
 10
263.9079243767
 20
93.4500110275
 30
0.0
 40
0.3818433583434375
100
AcDbArc
 50
219.4369315684
 51
2.6568438448
  0
LINE
  5
DC
330
1F
100
AcDbEntity
  8
0
  6
Continuous
 62
     7
370
    25
100
AcDbLine
 10
264.2893572813
 20
93.4677110161
 30
0.0
 11
263.4962744943
 21
108.4156073991
 31
0.0
  0
ARC
  5
DD
330
1F
100
AcDbEntity
  8
0
  6
Continuous
 62
     7
370
    25
100
AcDbCircle
 10
263.1304424088
 20
108.3964119211
 30
0.0
 40
0.3663353396891689
100
AcDbArc
 50
3.0035971313
 51
38.6493752562
  0
LINE
  5
DE
330
1F
100
AcDbEntity
  8
0
  6
Continuous
 62
     7
370
    25
100
AcDbLine
 10
263.4165439156
 20
108.6252077011
 30
0.0
 11
262.3612491801
 21
109.9444517928
 31
0.0
  0
LINE
  5
DF
330
1F
100
AcDbEntity
  8
0
  6
Continuous
 62
     7
370
    25
100
AcDbLine
 10
254.2834751611
 20
104.8704921858
 30
0.0
 11
263.6130174799
 21
93.207453256
 31
0.0
  0
LINE
  5
E0
330
1F
100
AcDbEntity
  8
0
  6
Continuous
 62
     7
370
    25
100
AcDbLine
 10
263.0991179356
 20
108.428230911
 30
0.0
 11
263.4165439156
 21
108.6252077011
 31
0.0
  0
LINE
  5
E1
330
1F
100
AcDbEntity
  8
0
  6
Continuous
 62
     7
370
    25
100
AcDbLine
 10
262.7546144866
 20
108.3355961179
 30
0.0
 11
263.0991179356
 21
108.428230911
 31
0.0
  0
LINE
  5
E2
330
1F
100
AcDbEntity
  8
0
  6
Continuous
 62
     7
370
    25
100
AcDbLine
 10
261.8664635417
 20
101.4999423409
 30
0.0
 11
261.6679185277
 21
105.2420867257
 31
0.0
  0
ARC
  5
E3
330
1F
100
AcDbEntity
  8
0
  6
Continuous
 62
     7
370
    25
100
AcDbCircle
 10
260.8626927401
 20
101.4533634231
 30
0.0
 40
1.004850943071363
100
AcDbArc
 50
219.436931555
 51
2.6568438615
  0
LINE
  5
E4
330
1F
100
AcDbEntity
  8
0
  6
Continuous
 62
     7
370
    25
100
AcDbLine
 10
258.1801052455
 20
103.1984264323
 30
0.0
 11
260.0866219588
 21
100.8150534982
 31
0.0
  0
LINE
  5
E5
330
1F
100
AcDbEntity
  8
0
  6
Continuous
 62
     7
370
    25
100
AcDbLine
 10
262.6748670384
 20
96.6479399019
 30
0.0
 11
263.8922007224
 21
93.4803345281
 31
0.0
  0
LINE
  5
E6
330
1F
100
AcDbEntity
  8
0
  6
Continuous
 62
     7
370
    25
100
AcDbLine
 10
263.8922007224
 20
93.4803345281
 30
0.0
 11
263.6130174799
 21
93.207453256
 31
0.0
  0
LINE
  5
E7
330
1F
100
AcDbEntity
  8
0
  6
Continuous
 62
     7
370
    25
100
AcDbLine
 10
254.4375764762
 20
105.0211149901
 30
0.0
 11
254.2834751611
 21
104.8704921858
 31
0.0
  0
LINE
  5
E8
330
1F
100
AcDbEntity
  8
0
  6
Continuous
 62
     7
370
    25
100
AcDbLine
 10
261.0224846295
 20
98.7136146911
 30
0.0
 11
262.6748670384
 21
96.6479399019
 31
0.0
  0
LINE
  5
E9
330
1F
100
AcDbEntity
  8
0
  6
Continuous
 62
     7
370
    25
100
AcDbLine
 10
263.0991179356
 20
108.428230911
 30
0.0
 11
263.4962744943
 21
108.4156073991
 31
0.0
  0
LINE
  5
EA
330
1F
100
AcDbEntity
  8
0
  6
Continuous
 62
     7
370
    25
100
AcDbLine
 10
263.8922007224
 20
93.4803345281
 30
0.0
 11
264.2893572813
 21
93.4677110161
 31
0.0
  0
LINE
  5
EB
330
1F
100
AcDbEntity
  8
0
  6
Continuous
 62
     7
370
    25
100
AcDbLine
 10
262.6748670384
 20
96.6479399019
 30
0.0
 11
262.5344018365
 21
99.2954053605
 31
0.0
  0
LWPOLYLINE
  5
EC
330
1F
100
AcDbEntity
  8
0
  6
Continuous
 62
     7
370
    25
100
AcDbPolyline
 90
        3
 70
   128
 43
0.0
 10
263.0606003185
 20
109.3936769774
 10
263.0510483274
 20
109.4114597538
 10
263.0396760864
 20
109.4301125295
  0
SPLINE
  5
ED
330
1F
100
AcDbEntity
  8
0
  6
Continuous
 62
     7
370
    25
100
AcDbSpline
210
0.0
220
0.0
230
1.0
 70
     8
 71
     3
 72
     9
 73
     5
 74
     0
 42
0.000000001
 43
0.00000001
 40
0.0
 40
0.0
 40
0.0
 40
0.0
 40
0.9919300900129622
 40
1.0
 40
1.0
 40
1.0
 40
1.0
 10
262.7546144865744
 20
108.335596117921
 30
0.0
 10
262.6839726396076
 20
108.3163805518631
 30
0.0
 10
262.6127560814268
 20
108.2970086563522
 30
0.0
 10
262.5388452439877
 20
108.2685059773155
 30
0.0
 10
262.5382487901824
 20
108.2682759632613
 30
0.0
  0
ARC
  5
EE
330
1F
100
AcDbEntity
  8
0
  6
Continuous
 62
     7
370
    25
100
AcDbCircle
 10
260.7618166776
 20
101.6511771769
 30
0.0
 40
2.429502253897062
100
AcDbArc
 50
281.2037643408
 51
300.8900110724
  0
SPLINE
  5
EF
330
1F
100
AcDbEntity
  8
0
  6
Continuous
 62
     7
370
    25
100
AcDbSpline
210
0.0
220
0.0
230
1.0
 70
     8
 71
     3
 72
    14
 73
    10
 74
     0
 42
0.000000001
 43
0.00000001
 40
0.0
 40
0.0
 40
0.0
 40
0.0
 40
0.2210591904779625
 40
0.3460797326519324
 40
0.4396016244131578
 40
0.5338897453199899
 40
0.6146561933587664
 40
0.751725323759395
 40
0.9999999999999999
 40
0.9999999999999999
 40
0.9999999999999999
 40
0.9999999999999999
 10
261.2338660494299
 20
99.26797542453123
 30
0.0
 10
261.1763198500277
 20
99.25466919348347
 30
0.0
 10
261.0862282629682
 20
99.23383759234689
 30
0.0
 10
260.9819133999413
 20
99.17760892601108
 30
0.0
 10
260.9218906297721
 20
99.11802512582744
 30
0.0
 10
260.8932023511765
 20
99.05084430553698
 30
0.0
 10
260.890024865504
 20
98.96795087219843
 30
0.0
 10
260.9244596551087
 20
98.84855218995435
 30
0.0
 10
260.9840748932734
 20
98.76648809163584
 30
0.0
 10
261.0224846294603
 20
98.71361469107804
 30
0.0
  0
SPLINE
  5
F0
330
1F
100
AcDbEntity
  8
0
  6
Continuous
 62
     7
370
    25
100
AcDbSpline
210
0.0
220
0.0
230
1.0
 70
     8
 71
     3
 72
    14
 73
    10
 74
     0
 42
0.000000001
 43
0.00000001
 40
0.0
 40
0.0
 40
0.0
 40
0.0
 40
0.2234968253980432
 40
0.3567622963775195
 40
0.4531212562342649
 40
0.5344619041501519
 40
0.6157317558036486
 40
0.7396161778923855
 40
1.0
 40
1.0
 40
1.0
 40
1.0
 10
262.5344018364593
 20
99.29540536052889
 30
0.0
 10
262.5287253132521
 20
99.35396673672395
 30
0.0
 10
262.5196640236734
 20
99.44744677167822
 30
0.0
 10
262.4736939113627
 20
99.5583181963908
 30
0.0
 10
262.4211222079164
 20
99.62209389695606
 30
0.0
 10
262.3609676316105
 20
99.65688210170184
 30
0.0
 10
262.2850950914419
 20
99.67012924202082
 30
0.0
 10
262.1605551739532
 20
99.6501523389138
 30
0.0
 10
262.0702765217777
 20
99.60016259669923
 30
0.0
 10
262.0091028472333
 20
99.5662890712633
 30
0.0
  0
LINE
  5
F1
330
1F
100
AcDbEntity
  8
0
  6
Continuous
 62
     7
370
    25
100
AcDbLine
 10
263.0947342798
 20
109.3642938492
 30
0.0
 11
263.0395050064
 21
109.4333370181
 31
0.0
  0
LINE
  5
F2
330
1F
100
AcDbEntity
  8
0
  6
Continuous
 62
     7
370
    25
100
AcDbLine
 10
263.0970094475
 20
109.321411856
 30
0.0
 11
263.0947342798
 21
109.3642938492
 31
0.0
  0
LINE
  5
F3
330
1F
100
AcDbEntity
  8
0
  6
Continuous
 62
     7
370
    25
100
AcDbLine
 10
263.037098777
 20
109.4786892421
 30
0.0
 11
263.0947342798
 21
109.3642938492
 31
0.0
  0
LINE
  5
F4
330
1F
100
AcDbEntity
  8
0
  6
Continuous
 62
     7
370
    25
100
AcDbLine
 10
199.3097999704
 20
107.0484126717
 30
0.0
 11
199.3097999704
 21
169.0484126717
 31
0.0
  0
ELLIPSE
  5
F5
330
1F
100
AcDbEntity
  8
0
  6
Continuous
 62
     7
370
    25
100
AcDbEllipse
 10
234.0965112121
 20
138.0484126717
 30
0.0
 11
1.574944762879738
 21
31.49727103316101
 31
0.0
210
0.0
220
0.0
230
1.0
 40
0.263265937
 41
0.6645561195395047
 42
2.85242881509799
  0
SPLINE
  5
F6
330
1F
100
AcDbEntity
  8
0
  6
Continuous
 62
     7
370
    25
100
AcDbSpline
210
0.0
220
0.0
230
1.0
 70
     8
 71
     3
 72
    12
 73
     8
 74
     0
 42
0.000000001
 43
0.00000001
 40
0.0
 40
0.0
 40
0.0
 40
0.0
 40
0.5000000000000028
 40
0.5000000000000028
 40
0.7500000000000013
 40
0.7500000000000013
 40
1.0
 40
1.0
 40
1.0
 40
1.0
 10
209.404544082056
 20
147.9577819923926
 30
0.0
 10
209.4352663239751
 20
147.8452261929835
 30
0.0
 10
209.4781035385103
 20
147.7324683332438
 30
0.0
 10
209.5775305627101
 20
147.5829274474475
 30
0.0
 10
209.6172827575267
 20
147.5356347157406
 30
0.0
 10
209.7153242143849
 20
147.4618984224192
 30
0.0
 10
209.7748802699724
 20
147.4364791030435
 30
0.0
 10
209.8375567839483
 20
147.4364791030435
 30
0.0
  0
LINE
  5
F7
330
1F
100
AcDbEntity
  8
0
  6
Continuous
 62
     7
370
    25
100
AcDbLine
 10
209.8375567839
 20
147.436479103
 30
0.0
 11
212.7820431568
 21
147.436479103
 31
0.0
  0
SPLINE
  5
F8
330
1F
100
AcDbEntity
  8
0
  6
Continuous
 62
     7
370
    25
100
AcDbSpline
210
0.0
220
0.0
230
1.0
 70
     8
 71
     3
 72
    12
 73
     8
 74
     0
 42
0.000000001
 43
0.00000001
 40
0.0
 40
0.0
 40
0.0
 40
0.0
 40
0.2499999999999991
 40
0.2499999999999991
 40
0.4999999999999981
 40
0.4999999999999981
 40
1.0
 40
1.0
 40
1.0
 40
1.0
 10
212.7820431568154
 20
147.4364791030435
 30
0.0
 10
212.8451231953087
 20
147.4364791030435
 30
0.0
 10
212.9042718174901
 20
147.4618434222584
 30
0.0
 10
213.0027443675592
 20
147.5360082826313
 30
0.0
 10
213.0417809795439
 20
147.5825286231855
 30
0.0
 10
213.141677446323
 20
147.7326709660307
 30
0.0
 10
213.1840983273896
 20
147.8443641730029
 30
0.0
 10
213.2150558587076
 20
147.9577819923926
 30
0.0
  0
ELLIPSE
  5
F9
330
1F
100
AcDbEntity
  8
0
  6
Continuous
 62
     7
370
    25
100
AcDbEllipse
 10
196.962645781
 20
138.0484126717
 30
0.0
 11
14.75368316065604
 21
31.09325491558116
 31
0.0
210
0.0
220
0.0
230
1.0
 40
0.3419987131
 41
5.19328173740862
 42
6.124043104552324
  0
SPLINE
  5
FA
330
1F
100
AcDbEntity
  8
0
  6
Continuous
 62
     7
370
    25
100
AcDbSpline
210
0.0
220
0.0
230
1.0
 70
     8
 71
     3
 72
    12
 73
     8
 74
     0
 42
0.000000001
 43
0.00000001
 40
0.0
 40
0.0
 40
0.0
 40
0.0
 40
0.5000000000000019
 40
0.5000000000000019
 40
0.7500000000000009
 40
0.7500000000000009
 40
1.0
 40
1.0
 40
1.0
 40
1.0
 10
213.2150558587076
 20
167.9491551318248
 30
0.0
 10
213.1843336167885
 20
167.9864571147778
 30
0.0
 10
213.1414964022534
 20
168.0230689468242
 30
0.0
 10
213.0420693780536
 20
168.0708337301094
 30
0.0
 10
213.0023171832369
 20
168.0857912455918
 30
0.0
 10
212.9042757263787
 20
168.1089811913609
 30
0.0
 10
212.8447196707912
 20
168.1169046305806
 30
0.0
 10
212.7820431568154
 20
168.1169046305806
 30
0.0
  0
LINE
  5
FB
330
1F
100
AcDbEntity
  8
0
  6
Continuous
 62
     7
370
    25
100
AcDbLine
 10
212.7820431568
 20
168.1169046306
 30
0.0
 11
209.8375567839
 21
168.1169046306
 31
0.0
  0
SPLINE
  5
FC
330
1F
100
AcDbEntity
  8
0
  6
Continuous
 62
     7
370
    25
100
AcDbSpline
210
0.0
220
0.0
230
1.0
 70
     8
 71
     3
 72
    12
 73
     8
 74
     0
 42
0.000000001
 43
0.00000001
 40
0.0
 40
0.0
 40
0.0
 40
0.0
 40
0.2500000000000005
 40
0.2500000000000005
 40
0.500000000000001
 40
0.500000000000001
 40
1.0
 40
1.0
 40
1.0
 40
1.0
 10
209.8375567839483
 20
168.1169046305806
 30
0.0
 10
209.7744767454549
 20
168.1169046305806
 30
0.0
 10
209.7153281232735
 20
168.1089987043682
 30
0.0
 10
209.6168555732044
 20
168.085673542932
 30
0.0
 10
209.5778189612197
 20
168.0709607531003
 30
0.0
 10
209.4779224944406
 20
168.0230049523693
 30
0.0
 10
209.435501613374
 20
167.9867427957893
 30
0.0
 10
209.404544082056
 20
167.9491551318248
 30
0.0
  0
ELLIPSE
  5
FD
330
1F
100
AcDbEntity
  8
0
  6
Continuous
 62
     7
370
    25
100
AcDbEllipse
 10
225.6569541597
 20
138.0484126717
 30
0.0
 11
-14.75368316065607
 21
31.09325491558116
 31
0.0
210
0.0
220
0.0
230
1.0
 40
0.3419987131
 41
0.1591422026273034
 42
1.08990356977098
  0
SPLINE
  5
FE
330
1F
100
AcDbEntity
  8
0
  6
Continuous
 62
     7
370
    25
100
AcDbSpline
210
0.0
220
0.0
230
1.0
 70
     8
 71
     3
 72
    12
 73
     8
 74
     0
 42
0.000000001
 43
0.00000001
 40
0.0
 40
0.0
 40
0.0
 40
0.0
 40
0.5000000000000009
 40
0.5000000000000009
 40
0.7500000000000004
 40
0.7500000000000004
 40
1.0
 40
1.0
 40
1.0
 40
1.0
 10
209.404544082056
 20
108.1476702115903
 30
0.0
 10
209.4356892800181
 20
108.1098546886702
 30
0.0
 10
209.4779635463526
 20
108.0737878305865
 30
0.0
 10
209.5779090801779
 20
108.0258277655753
 30
0.0
 10
209.6176393848819
 20
108.0109667916776
 30
0.0
 10
209.7145274348881
 20
107.9880156455465
 30
0.0
 10
209.7745926766347
 20
107.9799207128344
 30
0.0
 10
209.8375567839482
 20
107.9799207128344
 30
0.0
  0
LINE
  5
FF
330
1F
100
AcDbEntity
  8
0
  6
Continuous
 62
     7
370
    25
100
AcDbLine
 10
209.8375567839
 20
107.9799207128
 30
0.0
 11
212.7820431568
 21
107.9799207128
 31
0.0
  0
SPLINE
  5
100
330
1F
100
AcDbEntity
  8
0
  6
Continuous
 62
     7
370
    25
100
AcDbSpline
210
0.0
220
0.0
230
1.0
 70
     8
 71
     3
 72
    12
 73
     8
 74
     0
 42
0.000000001
 43
0.00000001
 40
0.0
 40
0.0
 40
0.0
 40
0.0
 40
0.2499999999999991
 40
0.2499999999999991
 40
0.4999999999999982
 40
0.4999999999999982
 40
1.0
 40
1.0
 40
1.0
 40
1.0
 10
212.7820431568154
 20
107.9799207128345
 30
0.0
 10
212.8451001117132
 20
107.9799207128345
 30
0.0
 10
212.9042302614588
 20
107.9878210439141
 30
0.0
 10
213.0026778119921
 20
108.0111317919191
 30
0.0
 10
213.0417100501801
 20
108.0258369182027
 30
0.0
 10
213.1415999346371
 20
108.0737704463894
 30
0.0
 10
213.1838989082464
 20
108.1098404191541
 30
0.0
 10
213.2150558587076
 20
108.1476702115903
 30
0.0
  0
ELLIPSE
  5
101
330
1F
100
AcDbEntity
  8
0
  6
Continuous
 62
     7
370
    25
100
AcDbEllipse
 10
196.962645781
 20
138.0484126717
 30
0.0
 11
-14.75368316065618
 21
31.09325491558116
 31
0.0
210
0.0
220
0.0
230
1.0
 40
0.3419987131
 41
3.300734856217122
 42
4.231496223360772
  0
SPLINE
  5
102
330
1F
100
AcDbEntity
  8
0
  6
Continuous
 62
     7
370
    25
100
AcDbSpline
210
0.0
220
0.0
230
1.0
 70
     8
 71
     3
 72
    12
 73
     8
 74
     0
 42
0.000000001
 43
0.00000001
 40
0.0
 40
0.0
 40
0.0
 40
0.0
 40
0.5
 40
0.5
 40
0.75
 40
0.75
 40
1.0
 40
1.0
 40
1.0
 40
1.0
 10
213.2150558587076
 20
128.1390433510222
 30
0.0
 10
213.1839106607455
 20
128.2531487168875
 30
0.0
 10
213.1416363944111
 20
128.3642550441063
 30
0.0
 10
213.0416908605858
 20
128.5144126515366
 30
0.0
 10
213.0019605558817
 20
128.5614053431539
 30
0.0
 10
212.9050725058755
 20
128.6343809276924
 30
0.0
 10
212.8450072641289
 20
128.6603462403714
 30
0.0
 10
212.7820431568154
 20
128.6603462403714
 30
0.0
  0
LINE
  5
103
330
1F
100
AcDbEntity
  8
0
  6
Continuous
 62
     7
370
    25
100
AcDbLine
 10
212.7820431568
 20
128.6603462404
 30
0.0
 11
209.8375567839
 21
128.6603462404
 31
0.0
  0
SPLINE
  5
104
330
1F
100
AcDbEntity
  8
0
  6
Continuous
 62
     7
370
    25
100
AcDbSpline
210
0.0
220
0.0
230
1.0
 70
     8
 71
     3
 72
    12
 73
     8
 74
     0
 42
0.000000001
 43
0.00000001
 40
0.0
 40
0.0
 40
0.0
 40
0.0
 40
0.2499999999999995
 40
0.2499999999999995
 40
0.499999999999999
 40
0.499999999999999
 40
1.0
 40
1.0
 40
1.0
 40
1.0
 10
209.8375567839483
 20
128.6603462403714
 30
0.0
 10
209.7744998290505
 20
128.6603462403714
 30
0.0
 10
209.7153696793049
 20
128.6349998869906
 30
0.0
 10
209.6169221287716
 20
128.5608805048512
 30
0.0
 10
209.5778898905835
 20
128.5143839901531
 30
0.0
 10
209.4780000061265
 20
128.3643094831446
 30
0.0
 10
209.4357010325172
 20
128.2531917740297
 30
0.0
 10
209.404544082056
 20
128.1390433510222
 30
0.0
  0
ELLIPSE
  5
105
330
1F
100
AcDbEntity
  8
0
  6
Continuous
 62
     7
370
    25
100
AcDbEllipse
 10
225.6569541597
 20
138.0484126717
 30
0.0
 11
14.75368316065618
 21
31.09325491558116
 31
0.0
210
0.0
220
0.0
230
1.0
 40
0.3419987131
 41
2.051689083818825
 42
2.9824504509625
  0
ELLIPSE
  5
106
330
1F
100
AcDbEntity
  8
0
  6
Continuous
 62
     7
370
    25
100
AcDbEllipse
 10
350.1840348822
 20
138.0484126717
 30
0.0
 11
360.0463346069772
 21
5.510812639502917
 31
0.0
210
0.0
220
0.0
230
1.0
 40
0.0861394841
 41
1.89320425640602
 42
1.893665918972219
  0
SPLINE
  5
107
330
1F
100
AcDbEntity
  8
0
  6
Continuous
 62
     7
370
    25
100
AcDbSpline
210
0.0
220
0.0
230
1.0
 70
     8
 71
     3
 72
    18
 73
    14
 74
     0
 42
0.000000001
 43
0.00000001
 40
0.0
 40
0.0
 40
0.0
 40
0.0
 40
0.2499999999999996
 40
0.2499999999999996
 40
0.499999999999999
 40
0.499999999999999
 40
0.6249999999999993
 40
0.6249999999999993
 40
0.7499999999999997
 40
0.7499999999999997
 40
0.8750000000000001
 40
0.8750000000000001
 40
1.0
 40
1.0
 40
1.0
 40
1.0
 10
235.4950581931521
 20
165.7115567840087
 30
0.0
 10
234.8563680338789
 20
165.6833614099946
 30
0.0
 10
234.2454438466008
 20
165.6059599098303
 30
0.0
 10
233.0782545487109
 20
165.3460185408616
 30
0.0
 10
232.552067392585
 20
165.1696478158272
 30
0.0
 10
231.8500738824761
 20
164.8288404594387
 30
0.0
 10
231.6351379231895
 20
164.7042823028308
 30
0.0
 10
231.2453138313642
 20
164.4352856427977
 30
0.0
 10
231.0696295973316
 20
164.2904514404507
 30
0.0
 10
230.756003923803
 20
163.9785783082757
 30
0.0
 10
230.6199545730763
 20
163.8131108321558
 30
0.0
 10
230.3906292145741
 20
163.4678614225855
 30
0.0
 10
230.2965853772112
 20
163.2873174037815
 30
0.0
 10
230.2224376919037
 20
163.0984745570618
 30
0.0
  0
SPLINE
  5
108
330
1F
100
AcDbEntity
  8
0
  6
Continuous
 62
     7
370
    25
100
AcDbSpline
210
0.0
220
0.0
230
1.0
 70
     8
 71
     3
 72
    20
 73
    16
 74
     0
 42
0.000000001
 43
0.00000001
 40
0.0
 40
0.0
 40
0.0
 40
0.0
 40
0.2500000000000002
 40
0.2500000000000002
 40
0.3750000000000001
 40
0.3750000000000001
 40
0.5000000000000001
 40
0.5000000000000001
 40
0.6250000000000001
 40
0.6250000000000001
 40
0.75
 40
0.75
 40
0.875
 40
0.875
 40
1.0
 40
1.0
 40
1.0
 40
1.0
 10
230.2224376919037
 20
107.9770570043078
 30
0.0
 10
230.3708062187155
 20
107.7914895422017
 30
0.0
 10
230.5970478313666
 20
107.6333629668995
 30
0.0
 10
231.0652604670314
 20
107.4304043198642
 30
0.0
 10
231.2434121611036
 20
107.368692588316
 30
0.0
 10
231.6328937782657
 20
107.2594152434957
 30
0.0
 10
231.8455023327057
 20
107.211218940832
 30
0.0
 10
232.3077973108869
 20
107.1258145549009
 30
0.0
 10
232.5602344422487
 20
107.0883296893211
 30
0.0
 10
233.0887030383474
 20
107.0249481282177
 30
0.0
 10
233.3647721144087
 20
106.9988363381807
 30
0.0
 10
233.9405420228345
 20
106.9557563939811
 30
0.0
 10
234.2423717683301
 20
106.938710333486
 30
0.0
 10
234.8609472477116
 20
106.913275773997
 30
0.0
 10
235.1753913412523
 20
106.9049010144393
 30
0.0
 10
235.4950581931521
 20
106.9005020381314
 30
0.0
  0
ELLIPSE
  5
109
330
1F
100
AcDbEntity
  8
0
  6
Continuous
 62
     7
370
    25
100
AcDbEllipse
 10
350.1840348822
 20
138.0484126717
 30
0.0
 11
360.0463346069772
 21
5.510812639502917
 31
0.0
210
0.0
220
0.0
230
1.0
 40
0.0861394841
 41
4.386882514910048
 42
4.389949911129308
  0
ELLIPSE
  5
10A
330
1F
100
AcDbEntity
  8
0
  6
Continuous
 62
     7
370
    25
100
AcDbEllipse
 10
255.8600575817
 20
138.0484126717
 30
0.0
 11
-22.39639268334633
 21
31.49533398693895
 31
0.0
210
0.0
220
0.0
230
1.0
 40
0.0242074528
 41
5.785682621851977
 42
6.764232332322385
  0
SPLINE
  5
10B
330
1F
100
AcDbEntity
  8
0
  6
Continuous
 62
     7
370
    25
100
AcDbSpline
210
0.0
220
0.0
230
1.0
 70
     8
 71
     3
 72
    12
 73
     8
 74
     0
 42
0.000000001
 43
0.00000001
 40
0.0
 40
0.0
 40
0.0
 40
0.0
 40
0.5
 40
0.5
 40
0.75
 40
0.75
 40
1.0
 40
1.0
 40
1.0
 40
1.0
 10
198.4932876839253
 20
116.1936189692318
 30
0.0
 10
198.5497241848325
 20
116.19220108789
 30
0.0
 10
198.6188088155213
 20
116.1906367516417
 30
0.0
 10
198.7376110872392
 20
116.1876925596673
 30
0.0
 10
198.7777963627093
 20
116.1866543565699
 30
0.0
 10
198.8511774101131
 20
116.1847204613552
 30
0.0
 10
198.8845869738558
 20
116.1838255740664
 30
0.0
 10
198.9148230815122
 20
116.1830417837941
 30
0.0
  0
SPLINE
  5
10C
330
1F
100
AcDbEntity
  8
0
  6
Continuous
 62
     7
370
    25
100
AcDbSpline
210
0.0
220
0.0
230
1.0
 70
     8
 71
     3
 72
    16
 73
    12
 74
     0
 42
0.000000001
 43
0.00000001
 40
0.0
 40
0.0
 40
0.0
 40
0.0
 40
0.0625000000000029
 40
0.0625000000000029
 40
0.1250000000000058
 40
0.1250000000000058
 40
0.2500000000000063
 40
0.2500000000000063
 40
0.5000000000000053
 40
0.5000000000000053
 40
1.0
 40
1.0
 40
1.0
 40
1.0
 10
198.914823081475
 20
116.1830417838183
 30
0.0
 10
198.9264034890629
 20
116.182741592707
 30
0.0
 10
198.9397130158242
 20
116.181413844448
 30
0.0
 10
198.9690144459103
 20
116.174715169673
 30
0.0
 10
198.9838285457946
 20
116.1693569865673
 30
0.0
 10
199.0196569474975
 20
116.1523113374
 30
0.0
 10
199.0337765718605
 20
116.1408487996242
 30
0.0
 10
199.068280715949
 20
116.109285474252
 30
0.0
 10
199.0793852666536
 20
116.0913881752067
 30
0.0
 10
199.1055614438698
 20
116.0412267575924
 30
0.0
 10
199.1097999703818
 20
116.0134823453959
 30
0.0
 10
199.1097999703818
 20
115.9888181834663
 30
0.0
  0
LINE
  5
10D
330
1F
100
AcDbEntity
  8
0
  6
Continuous
 62
     7
370
    25
100
AcDbLine
 10
199.1097999704
 20
131.026525346
 30
0.0
 11
199.1097999704
 21
115.5085923928
 31
0.0
  0
SPLINE
  5
10E
330
1F
100
AcDbEntity
  8
0
  6
Continuous
 62
     7
370
    25
100
AcDbSpline
210
0.0
220
0.0
230
1.0
 70
     8
 71
     3
 72
    16
 73
    12
 74
     0
 42
0.000000001
 43
0.00000001
 40
0.0
 40
0.0
 40
0.0
 40
0.0
 40
0.5000000000000001
 40
0.5000000000000001
 40
0.75
 40
0.75
 40
0.875
 40
0.875
 40
0.9375
 40
0.9375
 40
1.0
 40
1.0
 40
1.0
 40
1.0
 10
199.1097999703818
 20
131.0265253459575
 30
0.0
 10
199.1097999703818
 20
131.1402178900854
 30
0.0
 10
199.1056536953039
 20
131.2545380514349
 30
0.0
 10
199.0796880999103
 20
131.427586341932
 30
0.0
 10
199.0682271945329
 20
131.4867618490937
 30
0.0
 10
199.0339154567586
 20
131.5698849685619
 30
0.0
 10
199.019890720829
 20
131.5980062846626
 30
0.0
 10
198.9838677577951
 20
131.62662209864
 30
0.0
 10
198.9691132487055
 20
131.6324151465418
 30
0.0
 10
198.9397610875586
 20
131.6308217206048
 30
0.0
 10
198.9264212130545
 20
131.6243253172809
 30
0.0
 10
198.9148230815062
 20
131.6158095710778
 30
0.0
  0
SPLINE
  5
10F
330
1F
100
AcDbEntity
  8
0
  6
Continuous
 62
     7
370
    25
100
AcDbSpline
210
0.0
220
0.0
230
1.0
 70
     8
 71
     3
 72
    12
 73
     8
 74
     0
 42
0.000000001
 43
0.00000001
 40
0.0
 40
0.0
 40
0.0
 40
0.0
 40
0.2500000000000001
 40
0.2500000000000001
 40
0.5000000000000002
 40
0.5000000000000002
 40
1.0
 40
1.0
 40
1.0
 40
1.0
 10
198.9148230815132
 20
131.6158095710687
 30
0.0
 10
198.8846246400726
 20
131.5936368390236
 30
0.0
 10
198.8512572847366
 20
131.5745571831464
 30
0.0
 10
198.7781020089067
 20
131.5493841387037
 30
0.0
 10
198.7378493098828
 20
131.5438276022869
 30
0.0
 10
198.6201205666079
 20
131.5547394132736
 30
0.0
 10
198.549662118549
 20
131.5966751686844
 30
0.0
 10
198.4932876839307
 20
131.645886951066
 30
0.0
  0
SPLINE
  5
110
330
1F
100
AcDbEntity
  8
0
  6
Continuous
 62
     7
370
    25
100
AcDbSpline
210
0.0
220
0.0
230
1.0
 70
     8
 71
     3
 72
    12
 73
     8
 74
     0
 42
0.000000001
 43
0.00000001
 40
0.0
 40
0.0
 40
0.0
 40
0.0
 40
0.4999999999999984
 40
0.4999999999999984
 40
0.7499999999999991
 40
0.7499999999999991
 40
1.0
 40
1.0
 40
1.0
 40
1.0
 10
197.9884796268221
 20
132.8622383429466
 30
0.0
 10
198.0322299787066
 20
132.641791357972
 30
0.0
 10
198.0851201298311
 20
132.4262463681665
 30
0.0
 10
198.1967316729728
 20
132.1138322915945
 30
0.0
 10
198.2392910168763
 20
132.0117528159787
 30
0.0
 10
198.3442682522137
 20
131.8173128033368
 30
0.0
 10
198.4058354953083
 20
131.7222279042732
 30
0.0
 10
198.4932876839307
 20
131.645886951066
 30
0.0
  0
SPLINE
  5
111
330
1F
100
AcDbEntity
  8
0
  6
Continuous
 62
     7
370
    25
100
AcDbSpline
210
0.0
220
0.0
230
1.0
 70
     8
 71
     3
 72
    12
 73
     8
 74
     0
 42
0.000000001
 43
0.00000001
 40
0.0
 40
0.0
 40
0.0
 40
0.0
 40
0.2499999999999999
 40
0.2499999999999999
 40
0.5
 40
0.5
 40
1.0
 40
1.0
 40
1.0
 40
1.0
 10
198.4932876839306
 20
144.4509383923491
 30
0.0
 10
198.4047942763627
 20
144.3736885122408
 30
0.0
 10
198.3447362355969
 20
144.2803691883516
 30
0.0
 10
198.2388879626143
 20
144.0843361353822
 30
0.0
 10
198.1963544413368
 20
143.9820097771704
 30
0.0
 10
198.0852031345131
 20
143.6706653713946
 30
0.0
 10
198.0322722774654
 20
143.4552471182166
 30
0.0
 10
197.9884796268221
 20
143.2345870004687
 30
0.0
  0
SPLINE
  5
112
330
1F
100
AcDbEntity
  8
0
  6
Continuous
 62
     7
370
    25
100
AcDbSpline
210
0.0
220
0.0
230
1.0
 70
     8
 71
     3
 72
    12
 73
     8
 74
     0
 42
0.000000001
 43
0.00000001
 40
0.0
 40
0.0
 40
0.0
 40
0.0
 40
0.5000000000000001
 40
0.5000000000000001
 40
0.75
 40
0.75
 40
1.0
 40
1.0
 40
1.0
 40
1.0
 10
198.4932876839306
 20
144.4509383923492
 30
0.0
 10
198.5495962322262
 20
144.500092659593
 30
0.0
 10
198.6198708929443
 20
144.5420499781968
 30
0.0
 10
198.7379088072679
 20
144.5530096557292
 30
0.0
 10
198.7780850481219
 20
144.5475008974818
 30
0.0
 10
198.8520421427998
 20
144.5219436686929
 30
0.0
 10
198.8846585305112
 20
144.5031636208536
 30
0.0
 10
198.914823081507
 20
144.4810157723369
 30
0.0
  0
SPLINE
  5
113
330
1F
100
AcDbEntity
  8
0
  6
Continuous
 62
     7
370
    25
100
AcDbSpline
210
0.0
220
0.0
230
1.0
 70
     8
 71
     3
 72
    16
 73
    12
 74
     0
 42
0.000000001
 43
0.00000001
 40
0.0
 40
0.0
 40
0.0
 40
0.0
 40
0.0624999999999999
 40
0.0624999999999999
 40
0.1249999999999998
 40
0.1249999999999998
 40
0.2499999999999993
 40
0.2499999999999993
 40
0.4999999999999984
 40
0.4999999999999984
 40
1.0
 40
1.0
 40
1.0
 40
1.0
 10
198.9148230814752
 20
144.4810157722823
 30
0.0
 10
198.9264359813146
 20
144.4724891826871
 30
0.0
 10
198.939787165747
 20
144.4659889211543
 30
0.0
 10
198.9691870053662
 20
144.4644195240368
 30
0.0
 10
198.9840277299215
 20
144.4703029146674
 30
0.0
 10
199.0198609378901
 20
144.4988505507179
 30
0.0
 10
199.0339741457117
 20
144.5270175700237
 30
0.0
 10
199.0684655169306
 20
144.6107718284457
 30
0.0
 10
199.0795495880409
 20
144.6684852420671
 30
0.0
 10
199.1056724058369
 20
144.8420757787129
 30
0.0
 10
199.1097999703818
 20
144.9571038313549
 30
0.0
 10
199.1097999703818
 20
145.0702999974577
 30
0.0
  0
LINE
  5
114
330
1F
100
AcDbEntity
  8
0
  6
Continuous
 62
     7
370
    25
100
AcDbLine
 10
199.1097999704
 20
160.5882329506
 30
0.0
 11
199.1097999704
 21
145.0702999975
 31
0.0
  0
SPLINE
  5
115
330
1F
100
AcDbEntity
  8
0
  6
Continuous
 62
     7
370
    25
100
AcDbSpline
210
0.0
220
0.0
230
1.0
 70
     8
 71
     3
 72
    16
 73
    12
 74
     0
 42
0.000000001
 43
0.00000001
 40
0.0
 40
0.0
 40
0.0
 40
0.0
 40
0.4999999999999969
 40
0.4999999999999969
 40
0.7499999999999973
 40
0.7499999999999973
 40
0.874999999999996
 40
0.874999999999996
 40
0.937499999999998
 40
0.937499999999998
 40
1.0
 40
1.0
 40
1.0
 40
1.0
 10
199.1097999703818
 20
160.1080071599489
 30
0.0
 10
199.1097999703818
 20
160.0833360039059
 30
0.0
 10
199.1056342719218
 20
160.0557541725147
 30
0.0
 10
199.0793759435969
 20
160.0054113016914
 30
0.0
 10
199.0678721618593
 20
159.9871218036295
 30
0.0
 10
199.0337414025128
 20
159.9559667725925
 30
0.0
 10
199.0193195158421
 20
159.9443273973807
 30
0.0
 10
198.9837525474042
 20
159.9274453714497
 30
0.0
 10
198.9688007791096
 20
159.922056267642
 30
0.0
 10
198.9397969607498
 20
159.9154357716975
 30
0.0
 10
198.9263816067406
 20
159.9140831834911
 30
0.0
 10
198.914823081504
 20
159.9137835596194
 30
0.0
  0
SPLINE
  5
116
330
1F
100
AcDbEntity
  8
0
  6
Continuous
 62
     7
370
    25
100
AcDbSpline
210
0.0
220
0.0
230
1.0
 70
     8
 71
     3
 72
    12
 73
     8
 74
     0
 42
0.000000001
 43
0.00000001
 40
0.0
 40
0.0
 40
0.0
 40
0.0
 40
0.25
 40
0.25
 40
0.5
 40
0.5
 40
1.0
 40
1.0
 40
1.0
 40
1.0
 10
198.9148230815132
 20
159.9137835596212
 30
0.0
 10
198.8846353049636
 20
159.9130010222036
 30
0.0
 10
198.8512815008719
 20
159.9121076903851
 30
0.0
 10
198.7781552976759
 20
159.9101803815815
 30
0.0
 10
198.7379200946517
 20
159.9091408503688
 30
0.0
 10
198.6202284645187
 20
159.9062229670216
 30
0.0
 10
198.5498477913586
 20
159.9046273609514
 30
0.0
 10
198.493287683928
 20
159.9032063741835
 30
0.0
  0
SPLINE
  5
117
330
1F
100
AcDbEntity
  8
0
  6
Continuous
 62
     7
370
    25
100
AcDbSpline
210
0.0
220
0.0
230
1.0
 70
     8
 71
     3
 72
    16
 73
    12
 74
     0
 42
0.000000001
 43
0.00000001
 40
0.0
 40
0.0
 40
0.0
 40
0.0
 40
0.25
 40
0.25
 40
0.3750000000000001
 40
0.3750000000000001
 40
0.5000000000000001
 40
0.5000000000000001
 40
0.7500000000000001
 40
0.7500000000000001
 40
1.0
 40
1.0
 40
1.0
 40
1.0
 10
197.9884796268221
 20
143.2345870004687
 30
0.0
 10
197.8272471493377
 20
142.4221772252218
 30
0.0
 10
197.7067673096981
 20
141.5820989308371
 30
0.0
 10
197.5843867923847
 20
140.2808038814743
 30
0.0
 10
197.5534091319873
 20
139.8401228458896
 30
0.0
 10
197.5117953943594
 20
138.9442832049585
 30
0.0
 10
197.5015594814265
 20
138.497625073756
 30
0.0
 10
197.5013710843704
 20
137.1623151166161
 30
0.0
 10
197.5415157870081
 20
136.2778197433086
 30
0.0
 10
197.7056695419476
 20
134.5205698552826
 30
0.0
 10
197.8272211923571
 20
133.6747789088695
 30
0.0
 10
197.9884796268222
 20
132.8622383429466
 30
0.0
  0
LINE
  5
118
330
1F
100
AcDbEntity
  8
0
  6
Continuous
 62
     7
370
    25
100
AcDbLine
 10
197.1097999704
 20
144.5335909334
 30
0.0
 11
197.1097999704
 21
131.56323441
 31
0.0
  0
LINE
  5
119
330
1F
100
AcDbEntity
  8
0
  6
Continuous
 62
     7
370
    25
100
AcDbLine
 10
162.8097999704
 20
144.1027232393
 30
0.0
 11
162.8097999704
 21
131.9941021042
 31
0.0
  0
LINE
  5
11A
330
1F
100
AcDbEntity
  8
0
  6
Continuous
 62
     7
370
    25
100
AcDbLine
 10
161.3097999704
 20
143.6697105374
 30
0.0
 11
161.3097999704
 21
132.4271148061
 31
0.0
  0
LINE
  5
11B
330
1F
100
AcDbEntity
  8
0
  6
Continuous
 62
     7
370
    25
100
AcDbLine
 10
197.1097999704
 20
144.5335909334
 30
0.0
 11
197.1097999704
 21
160.0685114563
 31
0.0
  0
ARC
  5
11C
330
1F
100
AcDbEntity
  8
0
  6
Continuous
 62
     7
370
    25
100
AcDbCircle
 10
197.3097368813
 20
160.0735345674
 30
0.0
 40
0.2000000000000066
100
AcDbArc
 50
181.4391666667
 51
271.4391666667
  0
LINE
  5
11D
330
1F
100
AcDbEntity
  8
0
  6
Continuous
 62
     7
370
    25
100
AcDbLine
 10
162.8097999704
 20
144.1027232393
 30
0.0
 11
162.8097999704
 21
159.206776068
 31
0.0
  0
LINE
  5
11E
330
1F
100
AcDbEntity
  8
0
  6
Continuous
 62
     7
370
    25
100
AcDbLine
 10
162.8097999704
 20
159.206776068
 30
0.0
 11
197.1097999704
 21
160.0685114563
 31
0.0
  0
LINE
  5
11F
330
1F
100
AcDbEntity
  8
0
  6
Continuous
 62
     7
370
    25
100
AcDbLine
 10
197.1097999704
 20
116.0283138871
 30
0.0
 11
197.1097999704
 21
131.56323441
 31
0.0
  0
ARC
  5
120
330
1F
100
AcDbEntity
  8
0
  6
Continuous
 62
     7
370
    25
100
AcDbCircle
 10
197.3097368813
 20
116.023290776
 30
0.0
 40
0.2000000000000059
100
AcDbArc
 50
88.5608333333
 51
178.5608333333
  0
LINE
  5
121
330
1F
100
AcDbEntity
  8
0
  6
Continuous
 62
     7
370
    25
100
AcDbLine
 10
162.8097999704
 20
116.8900492754
 30
0.0
 11
162.8097999704
 21
131.9941021042
 31
0.0
  0
LINE
  5
122
330
1F
100
AcDbEntity
  8
0
  6
Continuous
 62
     7
370
    25
100
AcDbLine
 10
162.8097999704
 20
116.8900492754
 30
0.0
 11
197.1097999704
 21
116.0283138871
 31
0.0
  0
LINE
  5
123
330
1F
100
AcDbEntity
  8
0
  6
Continuous
 62
     7
370
    25
100
AcDbLine
 10
197.3147599924
 20
159.8735976565
 30
0.0
 11
198.4932876839
 21
159.9032063742
 31
0.0
  0
LINE
  5
124
330
1F
100
AcDbEntity
  8
0
  6
Continuous
 62
     7
370
    25
100
AcDbLine
 10
197.3147599924
 20
116.223227687
 30
0.0
 11
198.4932876839
 21
116.1936189692
 31
0.0
  0
LINE
  5
125
330
1F
100
AcDbEntity
  8
0
  6
Continuous
 62
     7
370
    25
100
AcDbLine
 10
161.3097999704
 20
158.3407506642
 30
0.0
 11
162.8097999704
 21
159.206776068
 31
0.0
  0
LINE
  5
126
330
1F
100
AcDbEntity
  8
0
  6
Continuous
 62
     7
370
    25
100
AcDbLine
 10
161.3097999704
 20
143.6697105374
 30
0.0
 11
161.3097999704
 21
158.3407506642
 31
0.0
  0
LINE
  5
127
330
1F
100
AcDbEntity
  8
0
  6
Continuous
 62
     7
370
    25
100
AcDbLine
 10
161.3097999704
 20
117.7560746792
 30
0.0
 11
162.8097999704
 21
116.8900492754
 31
0.0
  0
LINE
  5
128
330
1F
100
AcDbEntity
  8
0
  6
Continuous
 62
     7
370
    25
100
AcDbLine
 10
161.3097999704
 20
117.7560746792
 30
0.0
 11
161.3097999704
 21
132.4271148061
 31
0.0
  0
SPLINE
  5
129
330
1F
100
AcDbEntity
  8
0
  6
Continuous
 62
     7
370
    25
100
AcDbSpline
210
0.0
220
0.0
230
1.0
 70
     8
 71
     3
 72
    10
 73
     6
 74
     0
 42
0.000000001
 43
0.00000001
 40
0.0
 40
0.0
 40
0.0
 40
0.0
 40
0.5
 40
0.5
 40
1.0
 40
1.0
 40
1.0
 40
1.0
 10
236.5424729824028
 20
106.8862423884508
 30
0.0
 10
236.7692526239052
 20
106.8831882790895
 30
0.0
 10
236.9859689614618
 20
106.8000279817998
 30
0.0
 10
237.3311590532824
 20
106.5156657091125
 30
0.0
 10
237.4525710070255
 20
106.3220017466101
 30
0.0
 10
237.5083988086919
 20
106.1057979018699
 30
0.0
  0
LINE
  5
12A
330
1F
100
AcDbEntity
  8
0
  6
Continuous
 62
     7
370
    25
100
AcDbLine
 10
261.9965691481
 20
129.0904237733
 30
0.0
 11
235.6526320133
 21
165.7185094907
 31
0.0
  0
LINE
  5
12B
330
1F
100
AcDbEntity
  8
0
  6
Continuous
 62
     7
370
    25
100
AcDbLine
 10
263.0557334853
 20
109.1274652668
 30
0.0
 11
261.9965691481
 21
129.0904237733
 31
0.0
  0
LINE
  5
12C
330
1F
100
AcDbEntity
  8
0
  6
Continuous
 62
     7
370
    25
100
AcDbLine
 10
262.352505137
 20
110.0065844478
 30
0.0
 11
263.0557334853
 21
109.1274652668
 31
0.0
  0
LINE
  5
12D
330
1F
100
AcDbEntity
  8
0
  6
Continuous
 62
     7
370
    25
100
AcDbLine
 10
254.2225957366
 20
103.9075351875
 30
0.0
 11
254.1577012703
 21
105.130655615
 31
0.0
  0
ARC
  5
12E
330
1F
100
AcDbEntity
  8
0
  6
Continuous
 62
     7
370
    25
100
AcDbCircle
 10
249.447896054
 20
94.0487251505
 30
0.0
 40
10.95417237427659
100
AcDbArc
 50
64.158726024
 51
90.926815595
  0
LINE
  5
12F
330
1F
100
AcDbEntity
  8
0
  6
Continuous
 62
     7
370
    25
100
AcDbLine
 10
237.8391267574
 20
104.8277929833
 30
0.0
 11
249.2707092677
 21
105.0014644082
 31
0.0
  0
SPLINE
  5
130
330
1F
100
AcDbEntity
  8
0
  6
Continuous
 62
     7
370
    25
100
AcDbSpline
210
0.0
220
0.0
230
1.0
 70
     8
 71
     3
 72
     8
 73
     4
 74
     0
 42
0.000000001
 43
0.00000001
 40
0.0
 40
0.0
 40
0.0
 40
0.0
 40
1.0
 40
1.0
 40
1.0
 40
1.0
 10
237.5083988086919
 20
106.1057979018699
 30
0.0
 10
237.6184160033536
 20
105.6797352634821
 30
0.0
 10
237.7286669618285
 20
105.2537358719964
 30
0.0
 10
237.8391267573929
 20
104.8277929832637
 30
0.0
  0
LINE
  5
131
330
1F
100
AcDbEntity
  8
0
  6
Continuous
 62
     7
370
    25
100
AcDbLine
 10
258.5980690151
 20
135.835793186
 30
0.0
 11
257.026058867
 21
138.0484126717
 31
0.0
  0
LINE
  5
132
330
1F
100
AcDbEntity
  8
0
  6
Continuous
 62
     7
370
    25
100
AcDbLine
 10
258.5980690151
 20
135.835793186
 30
0.0
 11
261.9965691481
 21
129.0904237733
 31
0.0
  0
SPLINE
  5
133
330
1F
100
AcDbEntity
  8
0
  6
Continuous
 62
     7
370
    25
100
AcDbSpline
210
0.0
220
0.0
230
1.0
 70
     8
 71
     3
 72
    12
 73
     8
 74
     0
 42
0.000000001
 43
0.00000001
 40
0.0
 40
0.0
 40
0.0
 40
0.0
 40
0.2499999999999999
 40
0.2499999999999999
 40
0.4999999999999999
 40
0.4999999999999999
 40
1.0
 40
1.0
 40
1.0
 40
1.0
 10
237.4613748204435
 20
164.8511767930924
 30
0.0
 10
237.4140399139278
 20
164.9034624801797
 30
0.0
 10
237.3541342907789
 20
164.9738246056419
 30
0.0
 10
237.2211700375206
 20
165.1334626167523
 30
0.0
 10
237.1476117209845
 20
165.2234295332728
 30
0.0
 10
236.9124811942991
 20
165.5143196882315
 30
0.0
 10
236.7385718284207
 20
165.7332520500206
 30
0.0
 10
236.5424729824032
 20
165.9845271132943
 30
0.0
  0
LINE
  5
134
330
1F
100
AcDbEntity
  8
0
  6
Continuous
 62
     7
370
    25
100
AcDbLine
 10
237.4613748204
 20
164.8420282586
 30
0.0
 11
237.4613748204
 21
164.8511767931
 31
0.0
  0
ELLIPSE
  5
135
330
1F
100
AcDbEntity
  8
0
  6
Continuous
 62
     7
370
    25
100
AcDbEllipse
 10
255.8600575817
 20
138.0484126717
 30
0.0
 11
-22.75189097990625
 21
31.99525992323797
 31
0.0
210
0.0
220
0.0
230
1.0
 40
0.0242074528
 41
4.695176714068301
 42
5.687503662573067
  0
SPLINE
  5
136
330
1F
100
AcDbEntity
  8
0
  6
Continuous
 62
     7
370
    25
100
AcDbSpline
210
0.0
220
0.0
230
1.0
 70
     8
 71
     3
 72
     9
 73
     5
 74
     0
 42
0.000000001
 43
0.00000001
 40
0.0
 40
0.0
 40
0.0
 40
0.0
 40
0.703420152501879
 40
1.0
 40
1.0
 40
1.0
 40
1.0
 10
237.8391267573951
 20
104.8277929832588
 30
0.0
 10
237.7648294992921
 20
104.998104678728
 30
0.0
 10
237.6592066253401
 20
105.2402241216577
 30
0.0
 10
237.6016230747392
 20
105.4828117813033
 30
0.0
 10
237.5845449540836
 20
105.5547583924059
 30
0.0
  0
LINE
  5
137
330
1F
100
AcDbEntity
  8
0
  6
Continuous
 62
     7
370
    25
100
AcDbLine
 10
254.1695733329
 20
104.9068928954
 30
0.0
 11
254.2792366191
 21
104.8437990091
 31
0.0
  0
CIRCLE
  5
138
330
1F
100
AcDbEntity
  8
0
  6
Continuous
 62
     7
370
    18
100
AcDbCircle
 10
250.7331011733
 20
119.9994705806
 30
0.0
 40
2.882501603683521
  0
LINE
  5
139
330
1F
100
AcDbEntity
  8
0
  6
Continuous
 62
     7
370
    18
100
AcDbLine
 10
252.0953756581
 20
132.8011435045
 30
0.0
 11
251.5155414318
 21
133.9520029723
 31
0.0
  0
LINE
  5
13A
330
1F
100
AcDbEntity
  8
0
  6
Continuous
 62
     7
370
    18
100
AcDbLine
 10
250.779174623
 20
134.4744283228
 30
0.0
 11
238.3385546922
 21
127.1849323202
 31
0.0
  0
LINE
  5
13B
330
1F
100
AcDbEntity
  8
0
  6
Continuous
 62
     7
370
    18
100
AcDbLine
 10
262.5262597513
 20
108.4265381045
 30
0.0
 11
255.4879055759
 21
104.3024627038
 31
0.0
  0
LINE
  5
13C
330
1F
100
AcDbEntity
  8
0
  6
Continuous
 62
     7
370
    18
100
AcDbLine
 10
257.7112042696
 20
123.2507521314
 30
0.0
 11
257.0969268558
 21
124.4699747048
 31
0.0
  0
LINE
  5
13D
330
1F
100
AcDbEntity
  8
0
  6
Continuous
 62
     7
370
    18
100
AcDbLine
 10
254.1577012703
 20
105.130655615
 30
0.0
 11
254.1838479931
 21
105.0787593969
 31
0.0
  0
LINE
  5
13E
330
1F
100
AcDbEntity
  8
0
  6
Continuous
 62
     7
370
    18
100
AcDbLine
 10
263.0404688259
 20
109.4151711041
 30
0.0
 11
263.4322441583
 21
108.637572387
 31
0.0
  0
LINE
  5
13F
330
1F
100
AcDbEntity
  8
0
  6
Continuous
 62
     7
370
    18
100
AcDbLine
 10
262.6270447491
 20
108.5284383146
 30
0.0
 11
262.7546144866
 21
108.3355961179
 31
0.0
  0
LINE
  5
140
330
1F
100
AcDbEntity
  8
0
  6
Continuous
 62
     7
370
    18
100
AcDbLine
 10
258.9941479726
 20
100.0453555107
 30
0.0
 11
255.6962783816
 21
104.1680852342
 31
0.0
  0
SPLINE
  5
141
330
1F
100
AcDbEntity
  8
0
  6
Continuous
 62
     7
370
    18
100
AcDbSpline
210
0.0
220
0.0
230
1.0
 70
     8
 71
     3
 72
    15
 73
    11
 74
     0
 42
0.000000001
 43
0.00000001
 40
0.0
 40
0.0
 40
0.0
 40
0.0
 40
0.0718911292648225
 40
0.216033325798467
 40
0.3617100722627288
 40
0.5091538344438605
 40
0.583255491491837
 40
0.6860569155510109
 40
0.8942914744514261
 40
1.0
 40
1.0
 40
1.0
 40
1.0
 10
261.0224846294603
 20
98.71361469107804
 30
0.0
 10
260.9683148569789
 20
98.73112325642913
 30
0.0
 10
260.8055343272171
 20
98.78373661278388
 30
0.0
 10
260.5362740934357
 20
98.88839615090808
 30
0.0
 10
260.2175216252408
 20
99.03911876212624
 30
0.0
 10
259.9581592241464
 20
99.18940631668323
 30
0.0
 10
259.736710433656
 20
99.33859253232312
 30
0.0
 10
259.4823528823749
 20
99.5319932383883
 30
0.0
 10
259.2237364985788
 20
99.77076986029337
 30
0.0
 10
259.0519803840094
 20
99.97618850748775
 30
0.0
 10
258.9941479725807
 20
100.0453555106508
 30
0.0
  0
LINE
  5
142
330
1F
100
AcDbEntity
  8
0
  6
Continuous
 62
     7
370
    18
100
AcDbLine
 10
259.5436564669
 20
100.4781195153
 30
0.0
 11
260.0866219588
 21
100.8150534982
 31
0.0
  0
LINE
  5
143
330
1F
100
AcDbEntity
  8
0
  6
Continuous
 62
     7
370
    18
100
AcDbLine
 10
257.2921311609
 20
103.2927942763
 30
0.0
 11
259.5436564669
 21
100.4781195153
 31
0.0
  0
SPLINE
  5
144
330
1F
100
AcDbEntity
  8
0
  6
Continuous
 62
     7
370
    18
100
AcDbSpline
210
0.0
220
0.0
230
1.0
 70
     8
 71
     3
 72
    15
 73
    11
 74
     0
 42
0.000000001
 43
0.00000001
 40
0.0
 40
0.0
 40
0.0
 40
0.0
 40
0.102697377666541
 40
0.2060064608597226
 40
0.3111362641184882
 40
0.4168430273274552
 40
0.560200012170897
 40
0.704654515237136
 40
0.8519537505688808
 40
0.9999999999999999
 40
0.9999999999999999
 40
0.9999999999999999
 40
0.9999999999999999
 10
263.1767756918378
 20
101.6548442905821
 30
0.0
 10
263.1796236978097
 20
101.5670463358049
 30
0.0
 10
263.1853366735847
 20
101.390927467482
 30
0.0
 10
263.1699366113517
 20
101.1272856468436
 30
0.0
 10
263.1370238027459
 20
100.8647703694567
 30
0.0
 10
263.079231014861
 20
100.5745384026321
 30
0.0
 10
262.990504106837
 20
100.2609119821614
 30
0.0
 10
262.8641511038928
 20
99.92755361959642
 30
0.0
 10
262.7130622768487
 20
99.60372994984712
 30
0.0
 10
262.5940556506411
 20
99.39835337587458
 30
0.0
 10
262.5344018364593
 20
99.29540536052889
 30
0.0
  0
LINE
  5
145
330
1F
100
AcDbEntity
  8
0
  6
Continuous
 62
     7
370
    18
100
AcDbLine
 10
262.8599970658
 20
107.625436714
 30
0.0
 11
263.1767756918
 21
101.6548442906
 31
0.0
  0
LINE
  5
146
330
1F
100
AcDbEntity
  8
0
  6
Continuous
 62
     7
370
    18
100
AcDbLine
 10
262.7546144866
 20
108.3355961179
 30
0.0
 11
262.8599970658
 21
107.625436714
 31
0.0
  0
LINE
  5
147
330
1F
100
AcDbEntity
  8
0
  6
Continuous
 62
     7
370
    18
100
AcDbLine
 10
262.4803950783
 20
101.6081861055
 30
0.0
 11
262.2689094429
 21
105.5942332344
 31
0.0
  0
LINE
  5
148
330
1F
100
AcDbEntity
  8
0
  6
Continuous
 62
     7
370
    18
100
AcDbLine
 10
262.4803950783
 20
101.6081861055
 30
0.0
 11
261.8664635417
 21
101.4999423409
 31
0.0
  0
LINE
  5
149
330
1F
100
AcDbEntity
  8
0
  6
Continuous
 62
     7
370
    18
100
AcDbLine
 10
262.5750828725
 20
107.6214500455
 30
0.0
 11
262.8599970658
 21
107.625436714
 31
0.0
  0
ARC
  5
14A
330
1F
100
AcDbEntity
  8
0
  6
Continuous
 62
     7
370
    18
100
AcDbCircle
 10
261.363697514
 20
97.6018402117
 30
0.0
 40
3.40375264166038
100
AcDbArc
 50
122.3246542705
 51
134.1195647042
  0
ARC
  5
14B
330
1F
100
AcDbEntity
  8
0
  6
Continuous
 62
     7
370
    18
100
AcDbCircle
 10
263.0683397785
 20
98.0531438749
 30
0.0
 40
3.603332378685165
100
AcDbArc
 50
88.275524528
 51
99.3907645216
  0
SPLINE
  5
14C
330
1F
100
AcDbEntity
  8
0
  6
Continuous
 62
     7
370
    18
100
AcDbSpline
210
0.0
220
0.0
230
1.0
 70
     8
 71
     3
 72
    15
 73
    11
 74
     0
 42
0.000000001
 43
0.00000001
 40
0.0
 40
0.0
 40
0.0
 40
0.0
 40
0.0994171454697113
 40
0.3006185124713489
 40
0.4024805795567304
 40
0.4759726912133414
 40
0.6235920980928311
 40
0.7730580820658307
 40
0.9242073560621161
 40
1.0
 40
1.0
 40
1.0
 40
1.0
 10
259.5436564669282
 20
100.478119515311
 30
0.0
 10
259.5903803133388
 20
100.4217118221316
 30
0.0
 10
259.731664325654
 20
100.2511457016156
 30
0.0
 10
259.9402031154566
 20
100.0467362233585
 30
0.0
 10
260.1458880718651
 20
99.87561791071828
 30
0.0
 10
260.3276608792843
 20
99.73936462439433
 30
0.0
 10
260.5430267921715
 20
99.59769619698294
 30
0.0
 10
260.812386592619
 20
99.44954460596703
 30
0.0
 10
261.0442666341566
 20
99.34238569875339
 30
0.0
 10
261.1863979279053
 20
99.28660478546236
 30
0.0
 10
261.2338660494299
 20
99.26797542453123
 30
0.0
  0
SPLINE
  5
14D
330
1F
100
AcDbEntity
  8
0
  6
Continuous
 62
     7
370
    18
100
AcDbSpline
210
0.0
220
0.0
230
1.0
 70
     8
 71
     3
 72
    15
 73
    11
 74
     0
 42
0.000000001
 43
0.00000001
 40
0.0
 40
0.0
 40
0.0
 40
0.0
 40
0.073733747815839
 40
0.221543544435247
 40
0.3707976802038768
 40
0.5217083386341608
 40
0.5975191244814085
 40
0.6970212932370969
 40
0.8981476989773667
 40
1.0
 40
1.0
 40
1.0
 40
1.0
 10
262.0091028472333
 20
99.5662890712633
 30
0.0
 10
262.0321120288423
 20
99.61102469286567
 30
0.0
 10
262.1012463913184
 20
99.74543923798082
 30
0.0
 10
262.2046596297481
 20
99.97830682257016
 30
0.0
 10
262.3108749052778
 20
100.2701297677617
 30
0.0
 10
262.3810611656619
 20
100.5245093914603
 30
0.0
 10
262.4282954388509
 20
100.7508493401498
 30
0.0
 10
262.4696882159395
 20
101.0168320970025
 30
0.0
 10
262.4908728241749
 20
101.3093638090827
 30
0.0
 10
262.4830311968603
 20
101.5330047633867
 30
0.0
 10
262.4803950783215
 20
101.6081861054755
 30
0.0
  0
LINE
  5
14E
330
1F
100
AcDbEntity
  8
0
  6
Continuous
 62
     7
370
    18
100
AcDbLine
 10
199.8097999704
 20
106.5484126717
 30
0.0
 11
199.8097999704
 21
169.5484126717
 31
0.0
  0
LINE
  5
14F
330
1F
100
AcDbEntity
  8
0
  6
Continuous
 62
     7
370
    18
100
AcDbLine
 10
230.2224376919
 20
163.0984745571
 30
0.0
 11
230.2224376919
 21
107.9770570043
 31
0.0
  0
LINE
  5
150
330
1F
100
AcDbEntity
  8
0
  6
Continuous
 62
     7
370
    18
100
AcDbLine
 10
236.5424729824
 20
106.8862423885
 30
0.0
 11
236.5424729824
 21
106.5484126717
 31
0.0
  0
LINE
  5
151
330
1F
100
AcDbEntity
  8
0
  6
Continuous
 62
     7
370
    18
100
AcDbLine
 10
213.2150558587
 20
128.139043351
 30
0.0
 11
213.2150558587
 21
108.1476702116
 31
0.0
  0
LINE
  5
152
330
1F
100
AcDbEntity
  8
0
  6
Continuous
 62
     7
370
    18
100
AcDbLine
 10
212.7820431568
 20
128.6603462404
 30
0.0
 11
212.7820431568
 21
107.9799207128
 31
0.0
  0
LINE
  5
153
330
1F
100
AcDbEntity
  8
0
  6
Continuous
 62
     7
370
    18
100
AcDbLine
 10
213.2150558587
 20
167.9491551318
 30
0.0
 11
213.2150558587
 21
147.9577819924
 31
0.0
  0
LINE
  5
154
330
1F
100
AcDbEntity
  8
0
  6
Continuous
 62
     7
370
    18
100
AcDbLine
 10
212.7820431568
 20
168.1169046306
 30
0.0
 11
212.7820431568
 21
147.436479103
 31
0.0
  0
LINE
  5
155
330
1F
100
AcDbEntity
  8
0
  6
Continuous
 62
     7
370
    18
100
AcDbLine
 10
209.8375567839
 20
128.6603462404
 30
0.0
 11
209.8375567839
 21
107.9799207128
 31
0.0
  0
LINE
  5
156
330
1F
100
AcDbEntity
  8
0
  6
Continuous
 62
     7
370
    18
100
AcDbLine
 10
209.4045440821
 20
128.139043351
 30
0.0
 11
209.4045440821
 21
108.1476702116
 31
0.0
  0
LINE
  5
157
330
1F
100
AcDbEntity
  8
0
  6
Continuous
 62
     7
370
    18
100
AcDbLine
 10
209.8375567839
 20
168.1169046306
 30
0.0
 11
209.8375567839
 21
147.436479103
 31
0.0
  0
LINE
  5
158
330
1F
100
AcDbEntity
  8
0
  6
Continuous
 62
     7
370
    18
100
AcDbLine
 10
209.4045440821
 20
167.9491551318
 30
0.0
 11
209.4045440821
 21
147.9577819924
 31
0.0
  0
LINE
  5
159
330
1F
100
AcDbEntity
  8
0
  6
Continuous
 62
     7
370
    18
100
AcDbLine
 10
197.9884796268
 20
132.8622383429
 30
0.0
 11
197.9884796268
 21
143.2345870005
 31
0.0
  0
LINE
  5
15A
330
1F
100
AcDbEntity
  8
0
  6
Continuous
 62
     7
370
    18
100
AcDbLine
 10
197.3147599924
 20
131.6606913099
 30
0.0
 11
198.4932876839
 21
131.6458869511
 31
0.0
  0
LINE
  5
15B
330
1F
100
AcDbEntity
  8
0
  6
Continuous
 62
     7
370
    18
100
AcDbLine
 10
197.3147599924
 20
144.4361340335
 30
0.0
 11
197.3147599924
 21
131.6606913099
 31
0.0
  0
LINE
  5
15C
330
1F
100
AcDbEntity
  8
0
  6
Continuous
 62
     7
370
    18
100
AcDbLine
 10
197.3147599924
 20
144.4361340335
 30
0.0
 11
198.4932876839
 21
144.4509383923
 31
0.0
  0
LINE
  5
15D
330
1F
100
AcDbEntity
  8
0
  6
Continuous
 62
     7
370
    18
100
AcDbLine
 10
162.8097999704
 20
131.9941021042
 30
0.0
 11
197.1097999704
 21
131.56323441
 31
0.0
  0
LINE
  5
15E
330
1F
100
AcDbEntity
  8
0
  6
Continuous
 62
     7
370
    18
100
AcDbLine
 10
162.8097999704
 20
144.1027232393
 30
0.0
 11
197.1097999704
 21
144.5335909334
 31
0.0
  0
LWPOLYLINE
  5
15F
330
1F
100
AcDbEntity
  8
0
  6
Continuous
 62
     7
370
    18
100
AcDbPolyline
 90
        9
 70
   128
 43
0.0
 10
197.1097999704
 20
131.56323441
 10
197.1146216624
 20
131.5826890294
 10
197.1269415229
 20
131.6012995009
 10
197.1462861065
 20
131.6183506347
 10
197.1719120117
 20
131.6331871652
 10
197.2028344494
 20
131.6452389329
 10
197.2378650875
 20
131.6540427951
 10
197.2756577184
 20
131.6592604243
 10
197.3147599924
 20
131.6606913099
  0
LWPOLYLINE
  5
160
330
1F
100
AcDbEntity
  8
0
  6
Continuous
 62
     7
370
    18
100
AcDbPolyline
 90
        9
 70
   128
 43
0.0
 10
197.1097999704
 20
144.5335909334
 10
197.1146216624
 20
144.5141363141
 10
197.1269415229
 20
144.4955258425
 10
197.1462861065
 20
144.4784747087
 10
197.1719120117
 20
144.4636381782
 10
197.2028344494
 20
144.4515864105
 10
197.2378650875
 20
144.4427825483
 10
197.2756577184
 20
144.4375649191
 10
197.3147599924
 20
144.4361340335
  0
LINE
  5
161
330
1F
100
AcDbEntity
  8
0
  6
Continuous
 62
     7
370
    18
100
AcDbLine
 10
161.3097999704
 20
132.4271148061
 30
0.0
 11
162.8097999704
 21
131.9941021042
 31
0.0
  0
LINE
  5
162
330
1F
100
AcDbEntity
  8
0
  6
Continuous
 62
     7
370
    18
100
AcDbLine
 10
161.3097999704
 20
143.6697105374
 30
0.0
 11
162.8097999704
 21
144.1027232393
 31
0.0
  0
LINE
  5
163
330
1F
100
AcDbEntity
  8
0
  6
Continuous
 62
     7
370
    18
100
AcDbLine
 10
197.3147599924
 20
144.4361340335
 30
0.0
 11
197.3147599924
 21
159.8735976565
 31
0.0
  0
LINE
  5
164
330
1F
100
AcDbEntity
  8
0
  6
Continuous
 62
     7
370
    18
100
AcDbLine
 10
197.3147599924
 20
116.223227687
 30
0.0
 11
197.3147599924
 21
131.6606913099
 31
0.0
  0
LINE
  5
165
330
1F
100
AcDbEntity
  8
0
  6
Continuous
 62
     7
370
    18
100
AcDbLine
 10
198.9148230815
 20
116.1830417838
 30
0.0
 11
198.9148230815
 21
131.6158095711
 31
0.0
  0
LINE
  5
166
330
1F
100
AcDbEntity
  8
0
  6
Continuous
 62
     7
370
    18
100
AcDbLine
 10
198.9148230815
 20
144.4810157723
 30
0.0
 11
198.9148230815
 21
159.9137835596
 31
0.0
  0
LINE
  5
167
330
1F
100
AcDbEntity
  8
0
  6
Continuous
 62
     7
370
    18
100
AcDbLine
 10
235.4950581932
 20
165.711556784
 30
0.0
 11
235.4950581932
 21
106.9005020381
 31
0.0
  0
LINE
  5
168
330
1F
100
AcDbEntity
  8
0
  6
Continuous
 62
     7
370
    18
100
AcDbLine
 10
237.5083988087
 20
106.1057979019
 30
0.0
 11
237.5083988087
 21
105.8072317168
 31
0.0
  0
LINE
  5
169
330
1F
100
AcDbEntity
  8
VERMASSUNG
  6
CENTERX2
100
AcDbLine
 10
264.3097999704
 20
93.0824105122
 30
0.0
 11
264.3097999704
 21
138.0484126717
 31
0.0
  0
LINE
  5
16A
330
1F
100
AcDbEntity
  8
VERMASSUNG
  6
CENTERX2
100
AcDbLine
 10
264.3097999704
 20
93.0824105122
 30
0.0
 11
252.579807547
 21
93.0824105122
 31
0.0
  0
LINE
  5
16B
330
1F
100
AcDbEntity
  8
VERMASSUNG
100
AcDbLine
 10
264.3097999704
 20
93.0484126717
 30
0.0
 11
264.3097999704
 21
93.0824105122
 31
0.0
  0
LINE
  5
16C
330
1F
100
AcDbEntity
  8
VERMASSUNG
100
AcDbLine
 10
264.3097999704
 20
93.0484126717
 30
0.0
 11
267.5773286423
 21
93.0484126717
 31
0.0
  0
DIMENSION
  5
16D
330
1F
100
AcDbEntity
  8
VERMASSUNG
100
AcDbDimension
  2
_D
 10
284.0861834708
 20
138.0484126717
 30
0.0
 11
284.0861834708
 21
115.5484126717
 31
0.0
 70
   160
  1
<>
 71
     2
 42
-1.0
  3
SLDDIMSTYLE0
100
AcDbAlignedDimension
 13
267.5773286423
 23
93.0484126717
 33
0.0
 14
266.7535913633
 24
138.0484126717
 34
0.0
 50
90.0
100
AcDbRotatedDimension
  0
DIMENSION
  5
17A
330
1F
100
AcDbEntity
  8
VERMASSUNG
100
AcDbDimension
  2
_D_1
 10
199.3097999704
 20
86.4880938263
 30
0.0
 11
231.8097999704
 21
86.4880938263
 31
0.0
 70
   160
  1
<>
 71
     2
 42
-1.0
  3
SLDDIMSTYLE0
100
AcDbAlignedDimension
 13
264.3097999704
 23
93.0484126717
 33
0.0
 14
199.3097999704
 24
107.0484126717
 34
0.0
100
AcDbRotatedDimension
  0
DIMENSION
  5
186
330
1F
100
AcDbEntity
  8
VERMASSUNG
100
AcDbDimension
  2
_D_2
 10
264.3097999704
 20
79.8300009614
 30
0.0
 11
212.8097999704
 21
79.8300009614
 31
0.0
 70
   160
  1
<>
 71
     2
 42
-1.0
  3
SLDDIMSTYLE1
100
AcDbAlignedDimension
 13
161.3097999704
 23
117.7560746792
 33
0.0
 14
264.3097999704
 24
93.0484126717
 34
0.0
100
AcDbRotatedDimension
  0
DIMENSION
  5
191
330
1F
100
AcDbEntity
  8
VERMASSUNG
100
AcDbDimension
  2
_D_3
 10
263.5161710835
 20
108.4169404901
 30
0.0
 11
271.617155038
 21
100.730791282
 31
0.0
 70
   162
  1
<>
 71
     1
 42
-1.0
  3
SLDDIMSTYLE2
100
AcDb2LineAngularDimension
 13
267.5773286423
 23
93.0484126717
 33
0.0
 14
264.3097999704
 24
93.0484126717
 34
0.0
 15
264.3092538703
 25
93.4690441072
 35
0.0
 16
271.617155038
 26
100.730791282
 36
0.0
  0
DIMENSION
  5
19B
330
1F
100
AcDbEntity
  8
VERMASSUNG
100
AcDbDimension
  2
_D_4
 10
153.5958015119
 20
169.5484126717
 30
0.0
 11
153.5958015119
 21
138.0484126717
 31
0.0
 70
   160
  1
PSC%%c<>
 71
     2
 42
-1.0
  3
SLDDIMSTYLE1
100
AcDbAlignedDimension
 13
199.8097999704
 23
106.5484126717
 33
0.0
 14
199.8097999704
 24
169.5484126717
 34
0.0
 50
90.0
100
AcDbRotatedDimension
  0
LINE
  5
1A7
330
1F
100
AcDbEntity
  8
VERMASSUNG
  6
CENTERX2
370
    18
100
AcDbLine
 10
266.7535913633
 20
138.0484126717
 30
0.0
 11
162.1710570071
 21
138.0484126717
 31
0.0
  0
LINE
  5
1A8
330
1F
100
AcDbEntity
  8
0
  6
CENTERX2
 62
     7
100
AcDbLine
 10
83.572135865
 20
93.0484126717
 30
0.0
 11
83.572135865
 21
138.0484126717
 31
0.0
  0
LINE
  5
1A9
330
1F
100
AcDbEntity
  8
0
  6
CENTERX2
 62
     7
100
AcDbLine
 10
83.572135865
 20
93.0484126717
 30
0.0
 11
83.572135865
 21
110.8307918377
 31
0.0
  0
LINE
  5
1AA
330
1F
100
AcDbEntity
  8
0
  6
CENTERX2
 62
     7
100
AcDbLine
 10
83.572135865
 20
138.0484126717
 30
0.0
 11
83.572135865
 21
99.5091134559
 31
0.0
  0
POINT
  5
1AB
330
1F
100
AcDbEntity
  8
0
  6
Continuous
 62
     7
100
AcDbPoint
 10
83.572135865
 20
93.0484126717
 30
0.0
  0
ARC
  5
1AC
330
1F
100
AcDbEntity
  8
0
  6
Continuous
 62
     7
370
    25
100
AcDbCircle
 10
98.4002262415
 20
121.5801499286
 30
0.0
 40
2.500000000000001
100
AcDbArc
 50
250.2321291341
 51
16.6081678764
  0
LINE
  5
1AD
330
1F
100
AcDbEntity
  8
0
  6
Continuous
 62
     7
370
    25
100
AcDbLine
 10
62.618292854
 20
129.1119994564
 30
0.0
 11
62.3862158743
 21
128.9949472636
 31
0.0
  0
LINE
  5
1AE
330
1F
100
AcDbEntity
  8
0
  6
Continuous
 62
     7
370
    25
100
AcDbLine
 10
68.1511243658
 20
130.0881116554
 30
0.0
 11
62.6215823044
 21
129.113104199
 31
0.0
  0
SPLINE
  5
1AF
330
1F
100
AcDbEntity
  8
0
  6
Continuous
 62
     7
370
    25
100
AcDbSpline
210
0.0
220
0.0
230
1.0
 70
     8
 71
     3
 72
    26
 73
    22
 74
     0
 42
0.000000001
 43
0.00000001
 40
0.0
 40
0.0
 40
0.0
 40
0.0
 40
0.0013533079520502
 40
0.0557077501074485
 40
0.106573417024442
 40
0.1542816871548469
 40
0.1989578933671102
 40
0.2406164211313511
 40
0.2797138246855917
 40
0.3190928156181982
 40
0.3638393805629074
 40
0.4262397270187892
 40
0.4979653787246927
 40
0.5644568045736457
 40
0.6339830339159156
 40
0.7010872913908306
 40
0.7674225686629612
 40
0.8338645519262822
 40
0.9010668425956702
 40
0.970370015706695
 40
1.0
 40
1.0
 40
1.0
 40
1.0
 10
60.52534430848394
 20
126.002199684046
 30
0.0
 10
60.5211213858644
 20
126.0003195217652
 30
0.0
 10
60.34728843257664
 20
125.9229242693841
 30
0.0
 10
60.0594751676472
 20
125.6896796007644
 30
0.0
 10
59.687141474036
 20
125.3265648230257
 30
0.0
 10
59.4068068465689
 20
124.9266170847929
 30
0.0
 10
59.20510626075216
 20
124.52375226878
 30
0.0
 10
59.07363605290593
 20
124.1337883070687
 30
0.0
 10
58.99753066373137
 20
123.7694898096176
 30
0.0
 10
58.96049887485304
 20
123.4280381456315
 30
0.0
 10
58.94918358176474
 20
123.0654067391011
 30
0.0
 10
58.96285500151088
 20
122.6403050484747
 30
0.0
 10
59.0045694356691
 20
122.1185699122321
 30
0.0
 10
59.07351958484586
 20
121.5112301526801
 30
0.0
 10
59.16360033912511
 20
120.8618170931227
 30
0.0
 10
59.27286720063899
 20
120.1793630019401
 30
0.0
 10
59.39476659668519
 20
119.5007846157269
 30
0.0
 10
59.52619086164766
 20
118.8416354282881
 30
0.0
 10
59.6646409488421
 20
118.2183221781419
 30
0.0
 10
59.77892695008806
 20
117.7586053595097
 30
0.0
 10
59.84827751220702
 20
117.5122418418988
 30
0.0
 10
59.86904765762873
 20
117.4384572043842
 30
0.0
  0
SPLINE
  5
1B0
330
1F
100
AcDbEntity
  8
0
  6
Continuous
 62
     7
370
    25
100
AcDbSpline
210
0.0
220
0.0
230
1.0
 70
     8
 71
     3
 72
    16
 73
    12
 74
     0
 42
0.000000001
 43
0.00000001
 40
0.0
 40
0.0
 40
0.0
 40
0.0
 40
0.0834729782982674
 40
0.2315493588430033
 40
0.3469839978340186
 40
0.4397962378603792
 40
0.5410694827762926
 40
0.652279190988083
 40
0.7711473288245733
 40
0.8963480430333388
 40
1.0
 40
1.0
 40
1.0
 40
1.0
 10
59.86904765762873
 20
117.4384572043842
 30
0.0
 10
59.89554598545062
 20
117.3489581420129
 30
0.0
 10
59.96905086023354
 20
117.1006927640238
 30
0.0
 10
60.08880355494833
 20
116.758480746997
 30
0.0
 10
60.25827315102208
 20
116.3764037160386
 30
0.0
 10
60.46790229726612
 20
116.0151458195895
 30
0.0
 10
60.73638449832382
 20
115.6623706097228
 30
0.0
 10
61.09259139750535
 20
115.3161705181554
 30
0.0
 10
61.53756739352646
 20
115.0137149771777
 30
0.0
 10
62.02049475909151
 20
114.7891033157572
 30
0.0
 10
62.36308475116121
 20
114.7231797655041
 30
0.0
 10
62.51825061806078
 20
114.6933216696434
 30
0.0
  0
LINE
  5
1B1
330
1F
100
AcDbEntity
  8
0
  6
Continuous
 62
     7
370
    25
100
AcDbLine
 10
62.5366662802
 20
114.6836186392
 30
0.0
 11
64.4987868046
 21
115.0295934271
 31
0.0
  0
LINE
  5
1B2
330
1F
100
AcDbEntity
  8
0
  6
Continuous
 62
     7
370
    25
100
AcDbLine
 10
62.5018327615
 20
126.3548825867
 30
0.0
 11
60.5397122371
 21
126.0089077989
 31
0.0
  0
SPLINE
  5
1B3
330
1F
100
AcDbEntity
  8
0
  6
Continuous
 62
     7
370
    25
100
AcDbSpline
210
0.0
220
0.0
230
1.0
 70
     8
 71
     3
 72
     9
 73
     5
 74
     0
 42
0.000000001
 43
0.00000001
 40
0.0
 40
0.0
 40
0.0
 40
0.0
 40
0.8193349881060578
 40
1.0
 40
1.0
 40
1.0
 40
1.0
 10
77.33776880130235
 20
120.0745936540616
 30
0.0
 10
77.39725651689879
 20
120.073963770375
 30
0.0
 10
77.4698613933657
 20
120.0731949960694
 30
0.0
 10
77.51706791177668
 20
120.0463971806012
 30
0.0
 10
77.52559647798687
 20
120.0415557529509
 30
0.0
  0
SPLINE
  5
1B4
330
1F
100
AcDbEntity
  8
0
  6
Continuous
 62
     7
370
    25
100
AcDbSpline
210
0.0
220
0.0
230
1.0
 70
     8
 71
     3
 72
    11
 73
     7
 74
     0
 42
0.000000001
 43
0.00000001
 40
0.0
 40
0.0
 40
0.0
 40
0.0
 40
0.2565833725107927
 40
0.6120948184628485
 40
0.9562171744929949
 40
1.0
 40
1.0
 40
1.0
 40
1.0
 10
76.46636224612423
 20
126.1122077146596
 30
0.0
 10
76.43438792726552
 20
126.082406572466
 30
0.0
 10
76.35811129754562
 20
126.0113141842787
 30
0.0
 10
76.17091449966664
 20
125.9620185569607
 30
0.0
 10
76.01728502562655
 20
125.9814790931632
 30
0.0
 10
75.96720672015452
 20
126.0101203302327
 30
0.0
 10
75.96155438599008
 20
126.0133530642734
 30
0.0
  0
LINE
  5
1B5
330
1F
100
AcDbEntity
  8
0
  6
Continuous
 62
     7
370
    25
100
AcDbLine
 10
77.577250752
 20
120.0265600087
 30
0.0
 11
77.7734628045
 21
120.0611574875
 31
0.0
  0
LINE
  5
1B6
330
1F
100
AcDbEntity
  8
0
  6
Continuous
 62
     7
370
    25
100
AcDbLine
 10
76.6968441029
 20
126.1669655562
 30
0.0
 11
76.5006320505
 21
126.1323680774
 31
0.0
  0
LINE
  5
1B7
330
1F
100
AcDbEntity
  8
0
  6
Continuous
 62
     7
370
    25
100
AcDbLine
 10
62.784284925
 20
127.0987975792
 30
0.0
 11
62.4173600461
 21
126.5704825936
 31
0.0
  0
LINE
  5
1B8
330
1F
100
AcDbEntity
  8
0
  6
Continuous
 62
     7
370
    25
100
AcDbLine
 10
64.4931479626
 20
114.7981043213
 30
0.0
 11
65.6396812547
 21
113.988736101
 31
0.0
  0
LINE
  5
1B9
330
1F
100
AcDbEntity
  8
0
  6
Continuous
 62
     7
370
    25
100
AcDbLine
 10
65.6969072889
 20
113.9715711298
 30
0.0
 11
70.2013591612
 21
114.7658275281
 31
0.0
  0
LINE
  5
1BA
330
1F
100
AcDbEntity
  8
0
  6
Continuous
 62
     7
370
    25
100
AcDbLine
 10
70.2301559568
 20
114.7799787081
 30
0.0
 11
70.6909270004
 21
115.1683474989
 31
0.0
  0
LINE
  5
1BB
330
1F
100
AcDbEntity
  8
0
  6
Continuous
 62
     7
370
    25
100
AcDbLine
 10
68.2494906497
 20
128.3857626016
 30
0.0
 11
67.8021847988
 21
128.5496873952
 31
0.0
  0
LINE
  5
1BC
330
1F
100
AcDbEntity
  8
0
  6
Continuous
 62
     7
370
    25
100
AcDbLine
 10
68.0948565833
 20
132.3651410915
 30
0.0
 11
68.1698068012
 21
129.3320759023
 31
0.0
  0
LINE
  5
1BD
330
1F
100
AcDbEntity
  8
0
  6
Continuous
 62
     7
370
    25
100
AcDbLine
 10
74.2858798806
 20
137.7020868648
 30
0.0
 11
70.4512101656
 21
137.0259311319
 31
0.0
  0
LINE
  5
1BE
330
1F
100
AcDbEntity
  8
0
  6
Continuous
 62
     7
370
    25
100
AcDbLine
 10
83.5367275592
 20
93.0484591859
 30
0.0
 11
88.2065744072
 21
93.871879181
 31
0.0
  0
LINE
  5
1BF
330
1F
100
AcDbEntity
  8
0
  6
Continuous
 62
     7
370
    25
100
AcDbLine
 10
81.9468516728
 20
100.457559281
 30
0.0
 11
82.3104603332
 21
100.0183242224
 31
0.0
  0
LINE
  5
1C0
330
1F
100
AcDbEntity
  8
0
  6
Continuous
 62
     7
370
    25
100
AcDbLine
 10
79.5386528303
 20
113.5062223545
 30
0.0
 11
79.3701690797
 21
113.0335538181
 31
0.0
  0
LINE
  5
1C1
330
1F
100
AcDbEntity
  8
0
  6
Continuous
 62
     7
370
    25
100
AcDbLine
 10
78.4254328189
 20
120.5564094355
 30
0.0
 11
77.8063061596
 21
120.447240701
 31
0.0
  0
LINE
  5
1C2
330
1F
100
AcDbEntity
  8
0
  6
Continuous
 62
     7
370
    25
100
AcDbLine
 10
88.2001303341
 20
94.0854967387
 30
0.0
 11
90.9853067874
 21
94.5765984935
 31
0.0
  0
LINE
  5
1C3
330
1F
100
AcDbEntity
  8
0
  6
Continuous
 62
     7
370
    25
100
AcDbLine
 10
90.98872851
 20
94.5791486544
 30
0.0
 11
91.2288991018
 21
94.9249571019
 31
0.0
  0
ARC
  5
1C4
330
1F
100
AcDbEntity
  8
0
  6
Continuous
 62
     7
370
    25
100
AcDbCircle
 10
99.1032148785
 20
119.9196628824
 30
0.0
 40
2.44588565664402
100
AcDbArc
 50
243.7455446432
 51
277.2390264218
  0
ARC
  5
1C5
330
1F
100
AcDbEntity
  8
0
  6
Continuous
 62
     7
370
    25
100
AcDbCircle
 10
99.1882409544
 20
120.6751479457
 30
0.0
 40
3.189692071951947
100
AcDbArc
 50
274.0121688541
 51
19.0260056643
  0
ARC
  5
1C6
330
1F
100
AcDbEntity
  8
0
  6
Continuous
 62
     7
370
    25
100
AcDbCircle
 10
99.17887037
 20
119.8229576939
 30
0.0
 40
2.282950027026236
100
AcDbArc
 50
236.7952361365
 51
277.4872005884
  0
ARC
  5
1C7
330
1F
100
AcDbEntity
  8
0
  6
Continuous
 62
     7
370
    25
100
AcDbCircle
 10
99.3226226794
 20
120.5235778771
 30
0.0
 40
2.968089442128423
100
AcDbArc
 50
272.9688596925
 51
27.2431590211
  0
ARC
  5
1C8
330
1F
100
AcDbEntity
  8
0
  6
Continuous
 62
     7
370
    25
100
AcDbCircle
 10
99.2097952898
 20
119.6945223038
 30
0.0
 40
1.835295467024119
100
AcDbArc
 50
211.0518785907
 51
279.2608383978
  0
LWPOLYLINE
  5
1C9
330
1F
100
AcDbEntity
  8
0
  6
Continuous
 62
     7
370
    25
100
AcDbPolyline
 90
       19
 70
   128
 43
0.0
 10
97.9584831328
 20
121.2459013926
 10
98.0605403804
 20
121.3717212166
 10
98.5151068141
 20
121.8029400452
 10
99.0444472779
 20
122.129098367
 10
99.6153013638
 20
122.329702455
 10
100.1918002101
 20
122.3921476165
 10
100.7377202741
 20
122.3125101925
 10
101.2187593904
 20
122.0957940951
 10
101.6046921021
 20
121.7556163938
 10
101.8712688377
 20
121.3133517047
 10
102.0017396004
 20
120.7967891446
 10
101.9879064325
 20
120.2383862391
 10
101.8306385226
 20
119.6732294963
 10
101.539817592
 20
119.1368297929
 10
101.1337169893
 20
118.6628910951
 10
100.6378535089
 20
118.2811927141
 10
100.0833840769
 20
118.0157181631
 10
99.505148047
 20
117.8831481845
 10
99.505148047
 20
117.8831481845
  0
ARC
  5
1CA
330
1F
100
AcDbEntity
  8
0
  6
Continuous
 62
     7
370
    25
100
AcDbCircle
 10
57.2562203363
 20
126.8468650382
 30
0.0
 40
5.820881000199898
100
AcDbArc
 50
6.0290189424
 51
22.9009639263
  0
LWPOLYLINE
  5
1CB
330
1F
100
AcDbEntity
  8
0
  6
Continuous
 62
     7
370
    25
100
AcDbPolyline
 90
       14
 70
   128
 43
0.0
 10
62.64778314
 20
126.9022561542
 10
62.591889054
 20
127.1631030766
 10
62.503552164
 20
127.6337639792
 10
62.4304998645
 20
128.0997079178
 10
62.3811124973
 20
128.5074831934
 10
62.3610556341
 20
128.8103110424
 10
62.3726301382
 20
128.973451957
 10
62.4145082172
 20
128.978190898
 10
62.4818857427
 20
128.8239842282
 10
62.5670333659
 20
128.528522077
 10
62.6601832054
 20
128.1256989812
 10
62.7506493893
 20
127.661725605
 10
62.828053907
 20
127.1898275906
 10
62.8330540507
 20
127.1557615071
  0
LWPOLYLINE
  5
1CC
330
1F
100
AcDbEntity
  8
0
  6
Continuous
 62
     7
370
    25
100
AcDbPolyline
 90
       13
 70
   128
 43
0.0
 10
62.6653622771
 20
126.9275673884
 10
62.5943949584
 20
127.2535229611
 10
62.5165307864
 20
127.6745344385
 10
62.4541149914
 20
128.0850265307
 10
62.4151654762
 20
128.4322676219
 10
62.4046856768
 20
128.6716512891
 10
62.4240218231
 20
128.7724264221
 10
62.4706900032
 20
128.721647496
 10
62.5386952451
 20
128.525837547
 10
62.6193016283
 20
128.2101502267
 10
62.7021544957
 20
127.8151385757
 10
62.7766106081
 20
127.3915456001
 10
62.8155981177
 20
127.1288580598
  0
LWPOLYLINE
  5
1CD
330
1F
100
AcDbEntity
  8
0
  6
Continuous
 62
     7
370
    25
100
AcDbPolyline
 90
       21
 70
   128
 43
0.0
 10
62.5208648769
 20
114.6836462068
 10
62.5877265155
 20
114.7330430192
 10
62.6339413203
 20
114.9262949912
 10
62.6517767223
 20
115.2599212934
 10
62.6407707939
 20
115.7252811797
 10
62.601208583
 20
116.3103220735
 10
62.5341147299
 20
116.9998917231
 10
62.4412269302
 20
117.7761306366
 10
62.3249509292
 20
118.6189346339
 10
62.1882982142
 20
119.5064755343
 10
62.0348080187
 20
120.4157664947
 10
61.8684556582
 20
121.3232573566
 10
61.6935495715
 20
122.2054445836
 10
61.5146197342
 20
123.0394799899
 10
61.3363003352
 20
123.8037624965
 10
61.1632097534
 20
124.4784975879
 10
60.9998309437
 20
125.0462099797
 10
60.8503953316
 20
125.4921962192
 10
60.7187732209
 20
125.8049054971
 10
60.6083735552
 20
125.9762388072
 10
60.5248994982
 20
126.0034924308
  0
LWPOLYLINE
  5
1CE
330
1F
100
AcDbEntity
  8
0
  6
Continuous
 62
     7
370
    25
100
AcDbPolyline
 90
       21
 70
   128
 43
0.0
 10
64.4987868046
 20
115.0295934271
 10
64.5498470399
 20
115.079017807
 10
64.5960618447
 20
115.2722697791
 10
64.6138972467
 20
115.6058960812
 10
64.6028913183
 20
116.0712559675
 10
64.5633291074
 20
116.6562968614
 10
64.4962352543
 20
117.3458665109
 10
64.4033474546
 20
118.1221054244
 10
64.2870714536
 20
118.9649094218
 10
64.1504187386
 20
119.8524503222
 10
63.9969285431
 20
120.7617412825
 10
63.8305761826
 20
121.6692321445
 10
63.6556700958
 20
122.5514193715
 10
63.4767402586
 20
123.3854547777
 10
63.2984208596
 20
124.1497372843
 10
63.1253302777
 20
124.8244723757
 10
62.9619514681
 20
125.3921847676
 10
62.812515856
 20
125.8381710071
 10
62.6808937453
 20
126.1508802849
 10
62.5704940796
 20
126.322213595
 10
62.5018327615
 20
126.3548825867
  0
LWPOLYLINE
  5
1CF
330
1F
100
AcDbEntity
  8
0
  6
Continuous
 62
     7
370
    25
100
AcDbPolyline
 90
       26
 70
   128
 43
0.0
 10
59.7752663709
 20
118.0740027042
 10
59.8787774209
 20
117.7530919728
 10
59.9632681708
 20
117.5733808596
 10
60.0234297561
 20
117.5461612746
 10
60.0554820031
 20
117.6731435245
 10
60.0574109513
 20
117.9463488475
 10
60.0290953978
 20
118.3486107484
 10
59.9723145128
 20
118.8546536326
 10
59.8906360483
 20
119.4326809646
 10
59.7891921626
 20
120.0463731612
 10
59.674356948
 20
120.6571696847
 10
59.5533459235
 20
121.2266919432
 10
59.4337626568
 20
121.7191547587
 10
59.3231210043
 20
122.1036148812
 10
59.2283729879
 20
122.3559152674
 10
59.155471974
 20
122.4602029561
 10
59.1089986014
 20
122.4099251683
 10
59.091872963
 20
122.2082410423
 10
59.1051711257
 20
121.8678231334
 10
59.148057517
 20
121.4100611509
 10
59.2178374271
 20
120.8637179636
 10
59.3101263278
 20
120.2631223233
 10
59.4191253679
 20
119.646011863
 10
59.537985737
 20
119.0511619023
 10
59.6592390008
 20
118.5159490522
 10
59.7752663709
 20
118.0740027042
  0
SPLINE
  5
1D0
330
1F
100
AcDbEntity
  8
0
  6
Continuous
 62
     7
370
    25
100
AcDbSpline
210
0.0
220
0.0
230
1.0
 70
     8
 71
     3
 72
     9
 73
     5
 74
     0
 42
0.000000001
 43
0.00000001
 40
0.0
 40
0.0
 40
0.0
 40
0.0
 40
0.6400479325259006
 40
1.0
 40
1.0
 40
1.0
 40
1.0
 10
59.35531921888764
 20
121.4500787823167
 30
0.0
 10
59.38135253505759
 20
121.4731780825637
 30
0.0
 10
59.42202654531059
 20
121.509268036258
 30
0.0
 10
59.45701247697785
 20
121.5452847172876
 30
0.0
 10
59.46960573541399
 20
121.5582489960878
 30
0.0
  0
SPLINE
  5
1D1
330
1F
100
AcDbEntity
  8
0
  6
Continuous
 62
     7
370
    25
100
AcDbSpline
210
0.0
220
0.0
230
1.0
 70
     8
 71
     3
 72
     9
 73
     5
 74
     0
 42
0.000000001
 43
0.00000001
 40
0.0
 40
0.0
 40
0.0
 40
0.0
 40
0.9498794947949805
 40
1.0
 40
1.0
 40
1.0
 40
1.0
 10
59.71854660067823
 20
119.2006406306481
 30
0.0
 10
59.77429480919154
 20
119.3665106566714
 30
0.0
 10
59.83298457859786
 20
119.5411328344658
 30
0.0
 10
59.83888085835877
 20
119.7220254619456
 30
0.0
 10
59.83917638287922
 20
119.7310918918227
 30
0.0
  0
SPLINE
  5
1D2
330
1F
100
AcDbEntity
  8
0
  6
Continuous
 62
     7
370
    25
100
AcDbSpline
210
0.0
220
0.0
230
1.0
 70
     8
 71
     3
 72
     9
 73
     5
 74
     0
 42
0.000000001
 43
0.00000001
 40
0.0
 40
0.0
 40
0.0
 40
0.0
 40
0.2946164666543478
 40
1.0
 40
1.0
 40
1.0
 40
1.0
 10
59.57876605689503
 20
121.0968568541764
 30
0.0
 10
59.55960648103359
 20
121.1332473506954
 30
0.0
 10
59.49457421695471
 20
121.25676555364
 30
0.0
 10
59.41291809952176
 20
121.3701202476996
 30
0.0
 10
59.35531921888763
 20
121.4500787823167
 30
0.0
  0
SPLINE
  5
1D3
330
1F
100
AcDbEntity
  8
0
  6
Continuous
 62
     7
370
    25
100
AcDbSpline
210
0.0
220
0.0
230
1.0
 70
     8
 71
     3
 72
     9
 73
     5
 74
     0
 42
0.000000001
 43
0.00000001
 40
0.0
 40
0.0
 40
0.0
 40
0.0
 40
0.3315182505077589
 40
1.0
 40
1.0
 40
1.0
 40
1.0
 10
59.95068348598858
 20
118.982637508194
 30
0.0
 10
59.9289731730431
 20
119.0084993835898
 30
0.0
 10
59.86348563830791
 20
119.0865097958556
 30
0.0
 10
59.77661682019001
 20
119.1549138013697
 30
0.0
 10
59.71854660067823
 20
119.2006406306481
 30
0.0
  0
ARC
  5
1D4
330
1F
100
AcDbEntity
  8
0
  6
Continuous
 62
     7
370
    25
100
AcDbCircle
 10
58.4631623961
 20
120.1442593991
 30
0.0
 40
18.48651784096205
100
AcDbArc
 50
7.8971319419
 51
17.6661579451
  0
LWPOLYLINE
  5
1D5
330
1F
100
AcDbEntity
  8
0
  6
Continuous
 62
     7
370
    25
100
AcDbPolyline
 90
       17
 70
   128
 43
0.0
 10
77.561009951
 20
120.0289353392
 10
77.5733083639
 20
120.0262004177
 10
77.6208612896
 20
120.1032719927
 10
77.6392343221
 20
120.3295822646
 10
77.627506161
 20
120.6937830914
 10
77.5862649053
 20
121.1776119229
 10
77.5175785636
 20
121.7568075611
 10
77.4248913559
 20
122.4023267182
 10
77.312851006
 20
123.0818003683
 10
77.1870756847
 20
123.7611568653
 10
77.0538722919
 20
124.4063304376
 10
76.9199202019
 20
124.9849693885
 10
76.7919363319
 20
125.4680583446
 10
76.6763383274
 20
125.8313732086
 10
76.5789227551
 20
126.056695856
 10
76.5045744386
 20
126.1327276685
 10
76.4851582296
 20
126.1235730854
  0
LINE
  5
1D6
330
1F
100
AcDbEntity
  8
0
  6
Continuous
 62
     7
370
    25
100
AcDbLine
 10
59.4952912445
 20
121.474759627
 30
0.0
 11
59.3553192189
 21
121.4500787823
 31
0.0
  0
LINE
  5
1D7
330
1F
100
AcDbEntity
  8
0
  6
Continuous
 62
     7
370
    25
100
AcDbLine
 10
59.9200509408
 20
119.2361712825
 30
0.0
 11
59.7185466007
 21
119.2006406306
 31
0.0
  0
LWPOLYLINE
  5
1D8
330
1F
100
AcDbEntity
  8
0
  6
Continuous
 62
     7
370
    25
100
AcDbPolyline
 90
       25
 70
   128
 43
0.0
 10
64.3516787661
 20
115.0036543108
 10
64.3942688137
 20
114.9235861999
 10
64.5018277278
 20
114.7925260459
 10
64.5834478531
 20
114.8142653327
 10
64.6370152714
 20
114.9882410243
 10
64.6611426147
 20
115.3099472414
 10
64.6552049974
 20
115.7710519623
 10
64.6193562006
 20
116.3596128167
 10
64.5545246895
 20
117.0603863877
 10
64.462389566
 20
117.8552230079
 10
64.3453370815
 20
118.7235368264
 10
64.2063988338
 20
119.6428389713
 10
64.0491732506
 20
120.5893200001
 10
63.877732392
 20
121.5384665511
 10
63.696516486
 20
122.4656962274
 10
63.5102189294
 20
123.3469942673
 10
63.3236647312
 20
124.1595355146
 10
63.141685547
 20
124.8822755777
 10
62.9689945421
 20
125.4964958686
 10
62.810064323
 20
125.9862884045
 10
62.6690110986
 20
126.3389678159
 10
62.5494880735
 20
126.5453998913
 10
62.4545908313
 20
126.6002381485
 10
62.3867771606
 20
126.5020623053
 10
62.3547247229
 20
126.3289434705
  0
LWPOLYLINE
  5
1D9
330
1F
100
AcDbEntity
  8
0
  6
Continuous
 62
     7
370
    25
100
AcDbPolyline
 90
       24
 70
   128
 43
0.0
 10
65.6396812547
 20
113.988736101
 10
65.7010672951
 20
113.9724774605
 10
65.7757866972
 20
114.0725930284
 10
65.8215335518
 20
114.3247460908
 10
65.8372839203
 20
114.7232927798
 10
65.822685267
 20
115.2593125419
 10
65.7780643493
 20
115.9208078043
 10
65.7044199039
 20
116.692972513
 10
65.6034002929
 20
117.558523532
 10
65.4772666086
 20
118.4980874874
 10
65.3288420641
 20
119.4906343951
 10
65.1614488025
 20
120.5139483695
 10
64.9788335378
 20
121.5451248743
 10
64.785083694
 20
122.5610833891
 10
64.5845359168
 20
123.5390840128
 10
64.3816790082
 20
124.4572364449
 10
64.1810534549
 20
125.2949899492
 10
63.9871497995
 20
126.0335933353
 10
63.8043081306
 20
126.6565146605
 10
63.6366209397
 20
127.1498112599
 10
63.4878415197
 20
127.5024418207
 10
63.3612999568
 20
127.7065135166
 10
63.2598285936
 20
127.7574586709
 10
63.2598285936
 20
127.7574586709
  0
SPLINE
  5
1DA
330
1F
100
AcDbEntity
  8
0
  6
Continuous
 62
     7
370
    25
100
AcDbSpline
210
0.0
220
0.0
230
1.0
 70
     8
 71
     3
 72
    13
 73
     9
 74
     0
 42
0.000000001
 43
0.00000001
 40
0.0
 40
0.0
 40
0.0
 40
0.0
 40
0.1273433159313709
 40
0.267501982185696
 40
0.4105694500910272
 40
0.5544271438553754
 40
0.7762401950860898
 40
1.0
 40
1.0
 40
1.0
 40
1.0
 10
62.78431836305812
 20
127.0987743286276
 30
0.0
 10
62.80090000413313
 20
127.1225159139491
 30
0.0
 10
62.83573200000988
 20
127.172388348064
 30
0.0
 10
62.8955361589425
 20
127.2560066246301
 30
0.0
 10
62.96118384510351
 20
127.3469690770996
 30
0.0
 10
63.04331733066118
 20
127.4600376702527
 30
0.0
 10
63.14258557899385
 20
127.5961946271729
 30
0.0
 10
63.22063392166458
 20
127.7035476441678
 30
0.0
 10
63.25982859362231
 20
127.7574586708572
 30
0.0
  0
SPLINE
  5
1DB
330
1F
100
AcDbEntity
  8
0
  6
Continuous
 62
     7
370
    25
100
AcDbSpline
210
0.0
220
0.0
230
1.0
 70
    11
 71
     3
 72
    66
 73
    62
 74
     0
 42
0.000000001
 43
0.00000001
 40
0.0
 40
0.0
 40
0.0
 40
0.0
 40
0.0111969353859164
 40
0.0340073285966699
 40
0.0456461263859549
 40
0.0568417288583995
 40
0.0795795384669327
 40
0.0911356339955119
 40
0.1030949954814079
 40
0.1273347073348351
 40
0.139627102602237
 40
0.1533059016376167
 40
0.1810486057690802
 40
0.195132479294973
 40
0.2102629906022629
 40
0.2410148292381872
 40
0.2566741506884926
 40
0.2720575123072617
 40
0.2875565643339672
 40
0.30343710589006
 40
0.3194571953623743
 40
0.3338613154531874
 40
0.363242318906738
 40
0.3782735497831511
 40
0.391461405796822
 40
0.4183391832729754
 40
0.4320716992284576
 40
0.4444738354377989
 40
0.4697232738581869
 40
0.4826047477593529
 40
0.4946543077350953
 40
0.5191687978376893
 40
0.5316634396140568
 40
0.5436348917328118
 40
0.5679780354850754
 40
0.5803764139520279
 40
0.5924823465134011
 40
0.6170848604316261
 40
0.6296050519470917
 40
0.6421062562766042
 40
0.6674945716465581
 40
0.680402377281087
 40
0.6936448601314484
 40
0.7205238892541427
 40
0.7341803175256827
 40
0.7484787136649659
 40
0.7775051576020466
 40
0.7922580785194314
 40
0.8075350621299141
 40
0.8229151236255585
 40
0.8386259623237109
 40
0.8544546683819951
 40
0.8697238674880065
 40
0.8851139613451315
 40
0.900916620035022
 40
0.9168773507191834
 40
0.9284448386522349
 40
0.9519475552194411
 40
0.9639204951458834
 40
0.9817862311391847
 40
0.9999999999999999
 40
0.9999999999999999
 40
0.9999999999999999
 40
0.9999999999999999
 10
69.67876518561803
 20
115.6527748191211
 30
0.0
 10
69.67777184648115
 20
115.6653695871837
 30
0.0
 10
69.6747548771702
 20
115.7036224127418
 30
0.0
 10
69.6549192519996
 20
115.7533640419696
 30
0.0
 10
69.62339002263036
 20
115.8003298124221
 30
0.0
 10
69.5839051763513
 20
115.8450751469204
 30
0.0
 10
69.53348107997726
 20
115.8861853396163
 30
0.0
 10
69.47268766033338
 20
115.9234628743339
 30
0.0
 10
69.4037471622222
 20
115.9586257298045
 30
0.0
 10
69.32492702274364
 20
115.9888860646473
 30
0.0
 10
69.23623724356294
 20
116.0140166737673
 30
0.0
 10
69.13654371664258
 20
116.0361142132682
 30
0.0
 10
69.02657016292375
 20
116.0508629823332
 30
0.0
 10
68.90908536870488
 20
116.0572443844028
 30
0.0
 10
68.78262647887607
 20
116.0574682441784
 30
0.0
 10
68.64943181453998
 20
116.047031098529
 30
0.0
 10
68.51550503243162
 20
116.0256297779238
 30
0.0
 10
68.4151124494724
 20
116.0040285321877
 30
0.0
 10
68.31551421933437
 20
115.9769153799727
 30
0.0
 10
68.21667744598558
 20
115.9440024934765
 30
0.0
 10
68.1230828565119
 20
115.9066658957968
 30
0.0
 10
68.00703806769742
 20
115.8525004975226
 30
0.0
 10
67.90086051510362
 20
115.7912211457491
 30
0.0
 10
67.8082160706126
 20
115.7253078822526
 30
0.0
 10
67.7271747492178
 20
115.6593076399871
 30
0.0
 10
67.65941754641612
 20
115.5914856376249
 30
0.0
 10
67.60606274844491
 20
115.5236088703127
 30
0.0
 10
67.56302940850684
 20
115.4577514364907
 30
0.0
 10
67.53348767451165
 20
115.3936067202427
 30
0.0
 10
67.51781561577164
 20
115.3324880582951
 30
0.0
 10
67.51121169121768
 20
115.2743370941038
 30
0.0
 10
67.51766588239133
 20
115.2202092136821
 30
0.0
 10
67.53708791620599
 20
115.1711250861967
 30
0.0
 10
67.56481494543391
 20
115.1256920876945
 30
0.0
 10
67.60473603943802
 20
115.0858220297659
 30
0.0
 10
67.65617183308126
 20
115.0520767396637
 30
0.0
 10
67.71516368769903
 20
115.0223562216973
 30
0.0
 10
67.78478403698328
 20
114.998943188652
 30
0.0
 10
67.86387346486747
 20
114.981891743616
 30
0.0
 10
67.94980426800245
 20
114.968925400894
 30
0.0
 10
68.04419652757053
 20
114.9623541706053
 30
0.0
 10
68.1456529136368
 20
114.961909803396
 30
0.0
 10
68.25345373994529
 20
114.9656138463014
 30
0.0
 10
68.36717271380437
 20
114.9755656608934
 30
0.0
 10
68.48506220052255
 20
114.9914287094732
 30
0.0
 10
68.60835538523429
 20
115.0118072972562
 30
0.0
 10
68.73427637271142
 20
115.0384658937513
 30
0.0
 10
68.85975478666053
 20
115.0709940374645
 30
0.0
 10
68.95443301102569
 20
115.0987937567937
 30
0.0
 10
69.04851207180415
 20
115.1299808029276
 30
0.0
 10
69.14035487803339
 20
115.1643383038146
 30
0.0
 10
69.22781820110363
 20
115.2013789386666
 30
0.0
 10
69.30980029358852
 20
115.2408061044731
 30
0.0
 10
69.38611125963786
 20
115.2827450948136
 30
0.0
 10
69.45682518356153
 20
115.3278213977034
 30
0.0
 10
69.51457443920889
 20
115.3714703019644
 30
0.0
 10
69.57411130628114
 20
115.4248710417674
 30
0.0
 10
69.61838297194403
 20
115.4763737285387
 30
0.0
 10
69.65390289680892
 20
115.536246523212
 30
0.0
 10
69.6755328256622
 20
115.591099742609
 30
0.0
 10
69.67768082556601
 20
115.6320846762875
 30
0.0
 10
69.67876518561803
 20
115.6527748191211
 30
0.0
  0
LWPOLYLINE
  5
1DC
330
1F
100
AcDbEntity
  8
0
  6
Continuous
 62
     7
370
    25
100
AcDbPolyline
 90
       24
 70
   128
 43
0.0
 10
70.2013591612
 20
114.7658275281
 10
70.2055191674
 20
114.7667338589
 10
70.2802385695
 20
114.8668494268
 10
70.3259854241
 20
115.1190024892
 10
70.3417357926
 20
115.5175491782
 10
70.3271371393
 20
116.0535689403
 10
70.2825162216
 20
116.7150642027
 10
70.2088717762
 20
117.4872289114
 10
70.1078521652
 20
118.3527799304
 10
69.9817184809
 20
119.2923438858
 10
69.8332939364
 20
120.2848907935
 10
69.6659006748
 20
121.3082047678
 10
69.4832854101
 20
122.3393812727
 10
69.2895355663
 20
123.3553397875
 10
69.0889877891
 20
124.3333404112
 10
68.8861308806
 20
125.2514928433
 10
68.6855053272
 20
126.0892463476
 10
68.4916016718
 20
126.8278497337
 10
68.3087600029
 20
127.4507710589
 10
68.141072812
 20
127.9440676583
 10
67.992293392
 20
128.2966982191
 10
67.8657518292
 20
128.500769915
 10
67.7642804659
 20
128.5517150692
 10
67.7642804659
 20
128.5517150692
  0
LINE
  5
1DD
330
1F
100
AcDbEntity
  8
0
  6
Continuous
 62
     7
370
    25
100
AcDbLine
 10
63.2598285936
 20
127.7574586709
 30
0.0
 11
67.7642804659
 21
128.5517150692
 31
0.0
  0
ARC
  5
1DE
330
1F
100
AcDbEntity
  8
0
  6
Continuous
 62
     7
370
    25
100
AcDbCircle
 10
-280.4780985473
 20
43.2213676943
 30
0.0
 40
365.9822816980176
100
AcDbArc
 50
11.1556636979
 51
12.8266166043
  0
SPLINE
  5
1DF
330
1F
100
AcDbEntity
  8
0
  6
Continuous
 62
     7
370
    25
100
AcDbSpline
210
0.0
220
0.0
230
1.0
 70
     8
 71
     3
 72
    10
 73
     6
 74
     0
 42
0.000000001
 43
0.00000001
 40
0.0
 40
0.0
 40
0.0
 40
0.0
 40
0.4116162920382827
 40
0.8227990113789394
 40
1.0
 40
1.0
 40
1.0
 40
1.0
 10
80.0114783688083
 20
111.9412287311711
 30
0.0
 10
79.72928568226786
 20
112.1660446858321
 30
0.0
 10
79.16519755457477
 20
112.6154397870838
 30
0.0
 10
78.74441975332184
 20
113.3980326020944
 30
0.0
 10
78.62497903602492
 20
113.8836249059375
 30
0.0
 10
78.58900758933082
 20
114.0298686498471
 30
0.0
  0
ARC
  5
1E0
330
1F
100
AcDbEntity
  8
0
  6
Continuous
 62
     7
370
    25
100
AcDbCircle
 10
-363.5279557249
 20
26.627265522
 30
0.0
 40
451.6699037069617
100
AcDbArc
 50
10.0885430336
 51
10.8877591358
  0
SPLINE
  5
1E1
330
1F
100
AcDbEntity
  8
0
  6
Continuous
 62
     7
370
    25
100
AcDbSpline
210
0.0
220
0.0
230
1.0
 70
     8
 71
     3
 72
    21
 73
    17
 74
     0
 42
0.000000001
 43
0.00000001
 40
0.0
 40
0.0
 40
0.0
 40
0.0
 40
0.0501412815886434
 40
0.1260677919433477
 40
0.2025074138119084
 40
0.2542781717020858
 40
0.3062191611829797
 40
0.3563626315097818
 40
0.4512338243731096
 40
0.6132679856629676
 40
0.659518988630222
 40
0.747110354813574
 40
0.8427688624086617
 40
0.8972833628460032
 40
0.9485049427837102
 40
1.0
 40
1.0
 40
1.0
 40
1.0
 10
75.9554152682508
 20
108.4265381045223
 30
0.0
 10
76.00908253230392
 20
108.3374519209591
 30
0.0
 10
76.14401553091214
 20
108.1134668511992
 30
0.0
 10
76.38926630763031
 20
107.7712072046501
 30
0.0
 10
76.66181832145057
 20
107.4457239045391
 30
0.0
 10
76.92170128042342
 20
107.1759386793944
 30
0.0
 10
77.15619919445062
 20
106.9582704533329
 30
0.0
 10
77.47159443617541
 20
106.6969989140355
 30
0.0
 10
77.99519478241349
 20
106.330668419042
 30
0.0
 10
78.56394341519292
 20
106.0493297659005
 30
0.0
 10
79.14541168229094
 20
105.8522104001528
 30
0.0
 10
79.60876298014323
 20
105.7389493211905
 30
0.0
 10
80.09972366419132
 20
105.6817594035029
 30
0.0
 10
80.51715444269182
 20
105.6778099454206
 30
0.0
 10
80.84262579933788
 20
105.697455231839
 30
0.0
 10
81.05290893126205
 20
105.7299356702462
 30
0.0
 10
81.1583304307395
 20
105.7462191281215
 30
0.0
  0
SPLINE
  5
1E2
330
1F
100
AcDbEntity
  8
0
  6
Continuous
 62
     7
370
    25
100
AcDbSpline
210
0.0
220
0.0
230
1.0
 70
     8
 71
     3
 72
    15
 73
    11
 74
     0
 42
0.000000001
 43
0.00000001
 40
0.0
 40
0.0
 40
0.0
 40
0.0
 40
0.1628903375038182
 40
0.3270642821452257
 40
0.4951568908559999
 40
0.6645300813048722
 40
0.7480639568610681
 40
0.8317347363883406
 40
0.9158040533644605
 40
1.0
 40
1.0
 40
1.0
 40
1.0
 10
69.45702700153694
 20
123.2507521313521
 30
0.0
 10
69.68754751902509
 20
122.4679563272554
 30
0.0
 10
70.15040509994353
 20
120.896196137814
 30
0.0
 10
71.04156348585559
 20
118.4517757129684
 30
0.0
 10
72.07600861287595
 20
115.9519805207135
 30
0.0
 10
73.05800777692964
 20
113.8449985166489
 30
0.0
 10
73.90117738430611
 20
112.1655178275899
 30
0.0
 10
74.55845756055685
 20
110.9156496415149
 30
0.0
 10
75.24142262578611
 20
109.6675822911754
 30
0.0
 10
75.71729834579662
 20
108.840426994659
 30
0.0
 10
75.9554152682508
 20
108.4265381045223
 30
0.0
  0
SPLINE
  5
1E3
330
1F
100
AcDbEntity
  8
0
  6
Continuous
 62
     7
370
    25
100
AcDbSpline
210
0.0
220
0.0
230
1.0
 70
     8
 71
     3
 72
    11
 73
     7
 74
     0
 42
0.000000001
 43
0.00000001
 40
0.0
 40
0.0
 40
0.0
 40
0.0
 40
0.247028028380517
 40
0.4952240180322457
 40
0.74700743427148
 40
1.0
 40
1.0
 40
1.0
 40
1.0
 10
68.08663821419717
 20
132.8011435044829
 30
0.0
 10
68.08524213079959
 20
132.9511459914357
 30
0.0
 10
68.08244336325004
 20
133.2518601848435
 30
0.0
 10
68.08600245470659
 20
133.6798686828677
 30
0.0
 10
68.09478937991726
 20
134.0919470006752
 30
0.0
 10
68.1056629963817
 20
134.3467311106232
 30
0.0
 10
68.11111282804238
 20
134.4744283228228
 30
0.0
  0
ARC
  5
1E4
330
1F
100
AcDbEntity
  8
0
  6
Continuous
 62
     7
370
    25
100
AcDbCircle
 10
105.5419139214
 20
133.3020988334
 30
0.0
 40
37.45862563608873
100
AcDbArc
 50
180.7662716195
 51
195.5650332572
  0
SPLINE
  5
1E5
330
1F
100
AcDbEntity
  8
0
  6
Continuous
 62
     7
370
    25
100
AcDbSpline
210
0.0
220
0.0
230
1.0
 70
     8
 71
     3
 72
    15
 73
    11
 74
     0
 42
0.000000001
 43
0.00000001
 40
0.0
 40
0.0
 40
0.0
 40
0.0
 40
0.0149503759380672
 40
0.1903083584585421
 40
0.3684533710309235
 40
0.5493918431892104
 40
0.6403062418659865
 40
0.7298807157436978
 40
0.9097155785925349
 40
1.0
 40
1.0
 40
1.0
 40
1.0
 10
69.9275656169186
 20
114.7175503391448
 30
0.0
 10
69.94697729791716
 20
114.6519561509781
 30
0.0
 10
70.1940751074345
 20
113.8169856909616
 30
0.0
 10
70.76723347330623
 20
112.288638857511
 30
0.0
 10
71.71200067585778
 20
110.2046616287422
 30
0.0
 10
72.62563138826236
 20
108.6011129114456
 30
0.0
 10
73.41846598780445
 20
107.4045139485967
 30
0.0
 10
74.24735864560404
 20
106.2747665809914
 30
0.0
 10
75.1250402758285
 20
105.2335226280795
 30
0.0
 10
75.8237795261227
 20
104.5357017222399
 30
0.0
 10
76.05732549119953
 20
104.3024627037699
 30
0.0
  0
SPLINE
  5
1E6
330
1F
100
AcDbEntity
  8
0
  6
Continuous
 62
     7
370
    25
100
AcDbSpline
210
0.0
220
0.0
230
1.0
 70
     8
 71
     3
 72
    29
 73
    25
 74
     0
 42
0.000000001
 43
0.00000001
 40
0.0
 40
0.0
 40
0.0
 40
0.0
 40
0.0171321092750872
 40
0.0523342107452529
 40
0.1239286195842237
 40
0.1603997851373768
 40
0.1958244571640376
 40
0.2678115039986664
 40
0.3044432853526446
 40
0.3410812529325481
 40
0.4155195393869514
 40
0.4533921284266149
 40
0.4914629959695717
 40
0.5688396750559953
 40
0.6082279566631196
 40
0.6472526667101257
 40
0.7266065118856865
 40
0.7670282033913246
 40
0.8063624243282117
 40
0.8459711071118392
 40
0.8864505324517328
 40
0.9272334937888662
 40
0.9547134353630402
 40
1.0
 40
1.0
 40
1.0
 40
1.0
 10
69.00577202978108
 20
124.8066351368298
 30
0.0
 10
69.02206826279794
 20
124.7326348464896
 30
0.0
 10
69.07184908542544
 20
124.5065828917831
 30
0.0
 10
69.19846133678814
 20
123.9416730790558
 30
0.0
 10
69.35275168159491
 20
123.2624121463855
 30
0.0
 10
69.51252795530633
 20
122.5644394534117
 30
0.0
 10
69.67413509685413
 20
121.8585488332172
 30
0.0
 10
69.83588075829586
 20
121.1478362750774
 30
0.0
 10
69.99268045560596
 20
120.4434906662277
 30
0.0
 10
70.14611058185828
 20
119.7391511612224
 30
0.0
 10
70.28897122217583
 20
119.0524530947124
 30
0.0
 10
70.41511606863774
 20
118.3981925221238
 30
0.0
 10
70.52982958105719
 20
117.7610570608993
 30
0.0
 10
70.62204843382735
 20
117.168478813497
 30
0.0
 10
70.68667571770672
 20
116.637326175602
 30
0.0
 10
70.73232706119953
 20
116.1462022252887
 30
0.0
 10
70.74710322746199
 20
115.7272178467536
 30
0.0
 10
70.72982911064469
 20
115.394244941741
 30
0.0
 10
70.70120690703844
 20
115.1890508131066
 30
0.0
 10
70.65749195143518
 20
115.0298292352987
 30
0.0
 10
70.59861416909936
 20
114.9167865196985
 30
0.0
 10
70.53277361315304
 20
114.8620186899676
 30
0.0
 10
70.45496133721497
 20
114.8405000206205
 30
0.0
 10
70.39564028703973
 20
114.8699895166567
 30
0.0
 10
70.35872156284951
 20
114.8883424380473
 30
0.0
  0
SPLINE
  5
1E7
330
1F
100
AcDbEntity
  8
0
  6
Continuous
 62
     7
370
    25
100
AcDbSpline
210
0.0
220
0.0
230
1.0
 70
     8
 71
     3
 72
    15
 73
    11
 74
     0
 42
0.000000001
 43
0.00000001
 40
0.0
 40
0.0
 40
0.0
 40
0.0
 40
0.1306117830450001
 40
0.2639633703348638
 40
0.4002402559258514
 40
0.5375337462401277
 40
0.6693145517655771
 40
0.803011771614917
 40
0.9376862658790396
 40
1.0
 40
1.0
 40
1.0
 40
1.0
 10
68.16980991352905
 20
129.3320396561731
 30
0.0
 10
68.1707488154352
 20
129.295255446484
 30
0.0
 10
68.17264631431152
 20
129.2209154157588
 30
0.0
 10
68.17609238398389
 20
129.1020687586463
 30
0.0
 10
68.17998379975936
 20
128.9776714611867
 30
0.0
 10
68.18425147065085
 20
128.850534669186
 30
0.0
 10
68.188805486917
 20
128.7221041064948
 30
0.0
 10
68.19358566570767
 20
128.5933705617406
 30
0.0
 10
68.19767599647581
 20
128.4865580457065
 30
0.0
 10
68.20017301004647
 20
128.4234953883653
 30
0.0
 10
68.20096289602603
 20
128.4035466346009
 30
0.0
  0
SPLINE
  5
1E8
330
1F
100
AcDbEntity
  8
0
  6
Continuous
 62
     7
370
    25
100
AcDbSpline
210
0.0
220
0.0
230
1.0
 70
     8
 71
     3
 72
    21
 73
    17
 74
     0
 42
0.000000001
 43
0.00000001
 40
0.0
 40
0.0
 40
0.0
 40
0.0
 40
0.0501412815886436
 40
0.1260677919433482
 40
0.2025074138119082
 40
0.2542781717020871
 40
0.3062191611829799
 40
0.3563626315097822
 40
0.4512338243731107
 40
0.6132679856629679
 40
0.6595189886302224
 40
0.7471103548135746
 40
0.8427688624086623
 40
0.8972833628460025
 40
0.9485049427837098
 40
1.0
 40
1.0
 40
1.0
 40
1.0
 10
76.05732549119953
 20
104.3024627037699
 30
0.0
 10
76.11000131988727
 20
104.2534976590231
 30
0.0
 10
76.24244160065093
 20
104.1303872223117
 30
0.0
 10
76.48372119678355
 20
103.9488322400341
 30
0.0
 10
76.75234609537574
 20
103.7822703791992
 30
0.0
 10
77.00885267786845
 20
103.649119446303
 30
0.0
 10
77.24054326619621
 20
103.5450573190599
 30
0.0
 10
77.5524617207418
 20
103.4244834650835
 30
0.0
 10
78.0709451665981
 20
103.2652223138909
 30
0.0
 10
78.63532111950961
 20
103.1608360896303
 30
0.0
 10
79.2133089325564
 20
103.1045627991918
 30
0.0
 10
79.67437491624457
 20
103.0837831971065
 30
0.0
 10
80.16363492545952
 20
103.0954157296221
 30
0.0
 10
80.58014451753479
 20
103.1287445952041
 30
0.0
 10
80.90516655410794
 20
103.1665728450795
 30
0.0
 10
81.11539489303
 20
103.2012706319091
 30
0.0
 10
81.22078892306476
 20
103.2186657157784
 30
0.0
  0
LINE
  5
1E9
330
1F
100
AcDbEntity
  8
0
  6
Continuous
 62
     7
370
    25
100
AcDbLine
 10
81.1583304307
 20
105.7462191281
 30
0.0
 11
81.2207889231
 21
103.2186657158
 31
0.0
  0
ARC
  5
1EA
330
1F
100
AcDbEntity
  8
0
  6
Continuous
 62
     7
370
    25
100
AcDbCircle
 10
76.7095771621
 20
133.1156357631
 30
0.0
 40
2.256791038203451
100
AcDbArc
 50
158.2473620963
 51
192.8292612171
  0
LINE
  5
1EB
330
1F
100
AcDbEntity
  8
0
  6
Continuous
 62
     7
370
    25
100
AcDbLine
 10
76.3715818165
 20
124.4699747048
 30
0.0
 11
74.5091244719
 21
132.6145232526
 31
0.0
  0
SPLINE
  5
1EC
330
1F
100
AcDbEntity
  8
0
  6
Continuous
 62
     7
370
    25
100
AcDbSpline
210
0.0
220
0.0
230
1.0
 70
     8
 71
     3
 72
    10
 73
     6
 74
     0
 42
0.000000001
 43
0.00000001
 40
0.0
 40
0.0
 40
0.0
 40
0.0
 40
0.1480669295196373
 40
0.9078073725016055
 40
0.9999999999999999
 40
0.9999999999999999
 40
0.9999999999999999
 40
0.9999999999999999
 10
75.30748682721556
 20
134.8968934155171
 30
0.0
 10
75.26264409074757
 20
134.8578182616189
 30
0.0
 10
74.98771053940798
 20
134.6182461106628
 30
0.0
 10
74.75406021364331
 20
134.2923757537475
 30
0.0
 10
74.62721341980732
 20
133.9852399249204
 30
0.0
 10
74.61348659123512
 20
133.952002972348
 30
0.0
  0
LINE
  5
1ED
330
1F
100
AcDbEntity
  8
0
  6
Continuous
 62
     7
370
    25
100
AcDbLine
 10
75.3821255549
 20
131.8764335268
 30
0.0
 11
75.3074868272
 21
134.8968934155
 31
0.0
  0
SPLINE
  5
1EE
330
1F
100
AcDbEntity
  8
0
  6
Continuous
 62
     7
370
    25
100
AcDbSpline
210
0.0
220
0.0
230
1.0
 70
     8
 71
     3
 72
    20
 73
    16
 74
     0
 42
0.000000001
 43
0.00000001
 40
0.0
 40
0.0
 40
0.0
 40
0.0
 40
0.0380505370559014
 40
0.1114539820839611
 40
0.1854421089401367
 40
0.2608336581237709
 40
0.3365645696231754
 40
0.4026750326024964
 40
0.4689294627023694
 40
0.5355643430393124
 40
0.6023062441488798
 40
0.7382085633268117
 40
0.8747751665725548
 40
0.9373620005909562
 40
1.0
 40
1.0
 40
1.0
 40
1.0
 10
75.49483901823965
 20
131.7119495535744
 30
0.0
 10
75.4915074400715
 20
131.7119028158963
 30
0.0
 10
75.48174890097606
 20
131.7117659163743
 30
0.0
 10
75.46754565689496
 20
131.7141037693067
 30
0.0
 10
75.45243731786691
 20
131.7191943053179
 30
0.0
 10
75.43918606011472
 20
131.7266353510266
 30
0.0
 10
75.42807876102799
 20
131.7356608156767
 30
0.0
 10
75.4188092039987
 20
131.7457756264229
 30
0.0
 10
75.41106295260398
 20
131.7566242306194
 30
0.0
 10
75.40433550181355
 20
131.7685857837582
 30
0.0
 10
75.39658201095594
 20
131.7860619361855
 30
0.0
 10
75.38917762535982
 20
131.810447998388
 30
0.0
 10
75.38474656985153
 20
131.8373143144732
 30
0.0
 10
75.38273341826546
 20
131.8596483672388
 30
0.0
 10
75.3823282311868
 20
131.8708369497921
 30
0.0
 10
75.38212555487014
 20
131.8764335268301
 30
0.0
  0
SPLINE
  5
1EF
330
1F
100
AcDbEntity
  8
0
  6
Continuous
 62
     7
370
    25
100
AcDbSpline
210
0.0
220
0.0
230
1.0
 70
     8
 71
     3
 72
    28
 73
    24
 74
     0
 42
0.000000001
 43
0.00000001
 40
0.0
 40
0.0
 40
0.0
 40
0.0
 40
0.0110529535073072
 40
0.1120280875598646
 40
0.2134117592303965
 40
0.3162625523510796
 40
0.4197360684446458
 40
0.4732812942914303
 40
0.5269696009875793
 40
0.581194842044598
 40
0.6356597724075237
 40
0.6754837574824852
 40
0.7154703108427939
 40
0.7560907940327188
 40
0.7970034746003956
 40
0.8246856964542075
 40
0.8525137664381394
 40
0.8808647527265077
 40
0.9094281906104609
 40
0.9371221564214696
 40
0.9650509149592246
 40
0.9937286453853829
 40
1.0
 40
1.0
 40
1.0
 40
1.0
 10
75.41864383641128
 20
130.398621564263
 30
0.0
 10
75.4186147527156
 20
130.3999615492346
 30
0.0
 10
75.41831997260964
 20
130.4135430732705
 30
0.0
 10
75.41901919288823
 20
130.4405393036207
 30
0.0
 10
75.42323769273996
 20
130.4818313744057
 30
0.0
 10
75.43109999376496
 20
130.5262608127958
 30
0.0
 10
75.44115859210717
 20
130.5661916661245
 30
0.0
 10
75.45175167237862
 20
130.6000544757147
 30
0.0
 10
75.46127070458053
 20
130.6267893759216
 30
0.0
 10
75.47241251728175
 20
130.6544635181418
 30
0.0
 10
75.48422299252074
 20
130.6804818786207
 30
0.0
 10
75.49633489843903
 20
130.7045116352604
 30
0.0
 10
75.50839467844742
 20
130.726407350047
 30
0.0
 10
75.52189692713117
 20
130.7487736890847
 30
0.0
 10
75.53535135195625
 20
130.7690144402852
 30
0.0
 10
75.54826346780379
 20
130.7868455305965
 30
0.0
 10
75.56023783357723
 20
130.8022433629398
 30
0.0
 10
75.57309205182736
 20
130.81758029424
 30
0.0
 10
75.58665631328947
 20
130.8325259373901
 30
0.0
 10
75.60079562006506
 20
130.8469143021463
 30
0.0
 10
75.61552164946416
 20
130.8606051150028
 30
0.0
 10
75.62677017662442
 20
130.8704540089824
 30
0.0
 10
75.63317313120486
 20
130.8754243965258
 30
0.0
 10
75.63432209400912
 20
130.8763162957793
 30
0.0
  0
LINE
  5
1F0
330
1F
100
AcDbEntity
  8
0
  6
Continuous
 62
     7
370
    25
100
AcDbLine
 10
75.4674442597
 20
128.423779202
 30
0.0
 11
75.4186438364
 21
130.3986215643
 31
0.0
  0
SPLINE
  5
1F1
330
1F
100
AcDbEntity
  8
0
  6
Continuous
 62
     7
370
    25
100
AcDbSpline
210
0.0
220
0.0
230
1.0
 70
     8
 71
     3
 72
    24
 73
    20
 74
     0
 42
0.000000001
 43
0.00000001
 40
0.0
 40
0.0
 40
0.0
 40
0.0
 40
0.0281797905923713
 40
0.0801335466507891
 40
0.1323406150046591
 40
0.1925424957301654
 40
0.2531569816042211
 40
0.3152844158323747
 40
0.3781020664646986
 40
0.4344967273909073
 40
0.4920336600978222
 40
0.5485512387027646
 40
0.6072425782128662
 40
0.6565625226502846
 40
0.7070813917137155
 40
0.8643080095252553
 40
0.9236048309502872
 40
0.9833398919553815
 40
1.0
 40
1.0
 40
1.0
 40
1.0
 10
74.85179807241634
 20
131.1160074431447
 30
0.0
 10
74.8626262298982
 20
131.1281718386113
 30
0.0
 10
74.89341775263397
 20
131.1627631585295
 30
0.0
 10
74.94762098021388
 20
131.2094181966654
 30
0.0
 10
75.01649579316607
 20
131.2588879142413
 30
0.0
 10
75.09052527348658
 20
131.298558777503
 30
0.0
 10
75.1685138786981
 20
131.3265250332445
 30
0.0
 10
75.24507643361724
 20
131.3391879988223
 30
0.0
 10
75.31415347594253
 20
131.3342014400232
 30
0.0
 10
75.37185181267527
 20
131.3107351403196
 30
0.0
 10
75.41388598423444
 20
131.2684862078479
 30
0.0
 10
75.43711104898901
 20
131.2037748334707
 30
0.0
 10
75.43674042982623
 20
131.1213714568988
 30
0.0
 10
75.41649732175304
 20
131.0266159298525
 30
0.0
 10
75.35869901697572
 20
130.8554978443527
 30
0.0
 10
75.25888611049875
 20
130.6501831849673
 30
0.0
 10
75.14739103481871
 20
130.4268874403291
 30
0.0
 10
75.09116811746856
 20
130.3145949663148
 30
0.0
 10
75.06000643651437
 20
130.2494368736381
 30
0.0
 10
75.05321075848909
 20
130.2352273250832
 30
0.0
  0
SPLINE
  5
1F2
330
1F
100
AcDbEntity
  8
0
  6
Continuous
 62
     7
370
    25
100
AcDbSpline
210
0.0
220
0.0
230
1.0
 70
     8
 71
     3
 72
    16
 73
    12
 74
     0
 42
0.000000001
 43
0.00000001
 40
0.0
 40
0.0
 40
0.0
 40
0.0
 40
0.0858797856364411
 40
0.2602393301304272
 40
0.3487465428390621
 40
0.4544634163266636
 40
0.5610239300935913
 40
0.668696503343805
 40
0.7777833174702108
 40
0.9234002856873647
 40
1.0
 40
1.0
 40
1.0
 40
1.0
 10
68.11111282804238
 20
134.4744283228228
 30
0.0
 10
68.12181393699657
 20
134.6039559746763
 30
0.0
 10
68.15424123528621
 20
134.9964603236555
 30
0.0
 10
68.29784566422494
 20
135.4480711288047
 30
0.0
 10
68.51633144201884
 20
135.8567691112613
 30
0.0
 10
68.73500001693003
 20
136.1477477597592
 30
0.0
 10
69.00720778352267
 20
136.4096802548091
 30
0.0
 10
69.31724548098379
 20
136.6286351415907
 30
0.0
 10
69.70055688900581
 20
136.8216488331122
 30
0.0
 10
70.07789884918701
 20
136.9573684925272
 30
0.0
 10
70.35673399135968
 20
137.0014299836772
 30
0.0
 10
70.45285050244964
 20
137.0166183016552
 30
0.0
  0
LWPOLYLINE
  5
1F3
330
1F
100
AcDbEntity
  8
0
  6
Continuous
 62
     7
370
    25
100
AcDbPolyline
 90
        8
 70
   128
 43
0.0
 10
75.3074868272
 20
134.8968934155
 10
75.1057292161
 20
135.681517554
 10
74.9139714998
 20
136.3549437852
 10
74.736187791
 20
136.9032155825
 10
74.5760625957
 20
137.3149702017
 10
74.4369144536
 20
137.5816741703
 10
74.3216271618
 20
137.6978001404
 10
74.2858798806
 20
137.7020868648
  0
LINE
  5
1F4
330
1F
100
AcDbEntity
  8
0
  6
Continuous
 62
     7
370
    25
100
AcDbLine
 10
77.8451150393
 20
120.0266557798
 30
0.0
 11
79.1576502022
 21
112.7766996873
 31
0.0
  0
LWPOLYLINE
  5
1F5
330
1F
100
AcDbEntity
  8
0
  6
Continuous
 62
     7
370
    25
100
AcDbPolyline
 90
        9
 70
   128
 43
0.0
 10
77.8600565391
 20
120.3006113168
 10
77.8372329218
 20
120.3837487184
 10
77.8182332644
 20
120.4340941906
 10
77.8049430895
 20
120.4466514571
 10
77.7986813121
 20
120.420174337
 10
77.8000693498
 20
120.3572904151
 10
77.808969454
 20
120.2642402815
 10
77.8244983799
 20
120.150258216
 10
77.8451150393
 20
120.0266557798
  0
LINE
  5
1F6
330
1F
100
AcDbEntity
  8
0
  6
Continuous
 62
     7
370
    25
100
AcDbLine
 10
80.7453858191
 20
108.637572387
 30
0.0
 11
80.2916864307
 21
110.4715099088
 31
0.0
  0
LINE
  5
1F7
330
1F
100
AcDbEntity
  8
0
  6
Continuous
 62
     7
370
    25
100
AcDbLine
 10
79.9037623113
 20
112.0395715294
 30
0.0
 11
77.8600565391
 21
120.3006113168
 31
0.0
  0
ARC
  5
1F8
330
1F
100
AcDbEntity
  8
0
  6
Continuous
 62
     7
370
    25
100
AcDbCircle
 10
77.1820522928
 20
107.7736565222
 30
0.0
 40
3.666564664797107
100
AcDbArc
 50
10.104611426
 51
13.6281708273
  0
LINE
  5
1F9
330
1F
100
AcDbEntity
  8
0
  6
Continuous
 62
     7
370
    25
100
AcDbLine
 10
83.4979186795
 20
93.4690441072
 30
0.0
 11
80.7917451022
 21
108.4169404901
 31
0.0
  0
LWPOLYLINE
  5
1FA
330
1F
100
AcDbEntity
  8
0
  6
Continuous
 62
     7
370
    25
100
AcDbPolyline
 90
        9
 70
   128
 43
0.0
 10
83.4829771797
 20
93.1950885702
 10
83.505800797
 20
93.1119511686
 10
83.5248004544
 20
93.0616056964
 10
83.5380906293
 20
93.0490484298
 10
83.5443524067
 20
93.07552555
 10
83.542964369
 20
93.1384094718
 10
83.5340642648
 20
93.2314596055
 10
83.5185353389
 20
93.345441671
 10
83.4979186795
 20
93.4690441072
  0
LINE
  5
1FB
330
1F
100
AcDbEntity
  8
0
  6
Continuous
 62
     7
370
    25
100
AcDbLine
 10
81.0113621372
 20
103.1858174136
 30
0.0
 11
83.4829771797
 21
93.1950885702
 31
0.0
  0
LWPOLYLINE
  5
1FC
330
1F
100
AcDbEntity
  8
0
  6
Continuous
 62
     7
370
    25
100
AcDbPolyline
 90
        9
 70
   128
 43
0.0
 10
83.482191735
 20
93.207453256
 10
83.5038741714
 20
93.1284727245
 10
83.521923846
 20
93.0806445259
 10
83.534549512
 20
93.0687151226
 10
83.5404982006
 20
93.0938683868
 10
83.5391795648
 20
93.1536081126
 10
83.5307244658
 20
93.2420057395
 10
83.5159719862
 20
93.3502887018
 10
83.4963861597
 20
93.4677110161
  0
LINE
  5
1FD
330
1F
100
AcDbEntity
  8
0
  6
Continuous
 62
     7
370
    25
100
AcDbLine
 10
83.4963861597
 20
93.4677110161
 30
0.0
 11
80.7902125826
 21
108.4156073991
 31
0.0
  0
ARC
  5
1FE
330
1F
100
AcDbEntity
  8
0
  6
Continuous
 62
     7
370
    25
100
AcDbCircle
 10
77.3610045741
 20
107.8044876609
 30
0.0
 40
3.483236268147432
100
AcDbArc
 50
10.1046113815
 51
13.6281709486
  0
LINE
  5
1FF
330
1F
100
AcDbEntity
  8
0
  6
Continuous
 62
     7
370
    25
100
AcDbLine
 10
80.7461712635
 20
108.6252077011
 30
0.0
 11
80.2990222475
 21
110.4326673965
 31
0.0
  0
LINE
  5
200
330
1F
100
AcDbEntity
  8
0
  6
Continuous
 62
     7
370
    25
100
AcDbLine
 10
79.9008255353
 20
112.0422527524
 30
0.0
 11
77.8608419835
 21
120.2882466309
 31
0.0
  0
LWPOLYLINE
  5
201
330
1F
100
AcDbEntity
  8
0
  6
Continuous
 62
     7
370
    25
100
AcDbPolyline
 90
        9
 70
   128
 43
0.0
 10
77.8608419835
 20
120.2882466309
 10
77.8391595471
 20
120.3672271624
 10
77.8211098725
 20
120.415055361
 10
77.8084842064
 20
120.4269847642
 10
77.8025355179
 20
120.4018315001
 10
77.8038541537
 20
120.3420917743
 10
77.8123092527
 20
120.2536941474
 10
77.8270617322
 20
120.1454111851
 10
77.8466475587
 20
120.0279888708
  0
LINE
  5
202
330
1F
100
AcDbEntity
  8
0
  6
Continuous
 62
     7
370
    25
100
AcDbLine
 10
77.8466475587
 20
120.0279888708
 30
0.0
 11
79.1602947157
 21
112.7718905369
 31
0.0
  0
LINE
  5
203
330
1F
100
AcDbEntity
  8
0
  6
Continuous
 62
     7
370
    25
100
AcDbLine
 10
81.0135506808
 20
103.1861606836
 30
0.0
 11
83.482191735
 21
93.207453256
 31
0.0
  0
LINE
  5
204
330
1F
100
AcDbEntity
  8
0
  6
Continuous
 62
     7
370
    25
100
AcDbLine
 10
88.1677655275
 20
94.2924641023
 30
0.0
 11
85.4615919502
 21
109.2403604852
 31
0.0
  0
LINE
  5
205
330
1F
100
AcDbEntity
  8
0
  6
Continuous
 62
     7
370
    25
100
AcDbLine
 10
81.8648412593
 20
101.4999423409
 30
0.0
 11
81.1681682491
 21
105.3481049484
 31
0.0
  0
LWPOLYLINE
  5
206
330
1F
100
AcDbEntity
  8
0
  6
Continuous
 62
     7
370
    25
100
AcDbPolyline
 90
        8
 70
   128
 43
0.0
 10
79.5155462085
 20
112.6806463885
 10
79.4584871653
 20
112.8884898925
 10
79.4109880217
 20
113.014353573
 10
79.3777625846
 20
113.0457467394
 10
79.3621081411
 20
112.979553939
 10
79.3655782353
 20
112.8223441343
 10
79.3878284958
 20
112.5897188003
 10
79.3989085336
 20
112.5006048038
  0
LINE
  5
207
330
1F
100
AcDbEntity
  8
0
  6
Continuous
 62
     7
370
    25
100
AcDbLine
 10
79.6071479602
 20
112.3103750285
 30
0.0
 11
79.5155462085
 21
112.6806463885
 31
0.0
  0
LWPOLYLINE
  5
208
330
1F
100
AcDbEntity
  8
0
  6
Continuous
 62
     7
370
    25
100
AcDbPolyline
 90
        9
 70
   128
 43
0.0
 10
81.8274875102
 20
100.8150534982
 10
81.8845465533
 20
100.6072099942
 10
81.932045697
 20
100.4813463136
 10
81.965271134
 20
100.4499531472
 10
81.9809255775
 20
100.5161459476
 10
81.9774554832
 20
100.6733557524
 10
81.9552052226
 20
100.9059810864
 10
81.916382908
 20
101.1909362503
 10
81.8648412593
 20
101.4999423409
  0
LINE
  5
209
330
1F
100
AcDbEntity
  8
0
  6
Continuous
 62
     7
370
    25
100
AcDbLine
 10
81.2194498465
 20
103.2728551054
 30
0.0
 11
81.8274875102
 21
100.8150534982
 31
0.0
  0
LINE
  5
20A
330
1F
100
AcDbEntity
  8
0
  6
Continuous
 62
     7
370
    25
100
AcDbLine
 10
83.5273968008
 20
93.2690345273
 30
0.0
 11
83.482191735
 21
93.207453256
 31
0.0
  0
ARC
  5
20B
330
1F
100
AcDbEntity
  8
0
  6
Continuous
 62
     7
370
    25
100
AcDbCircle
 10
87.1557922506
 20
93.9870027193
 30
0.0
 40
1.057069803549952
100
AcDbArc
 50
353.7476197877
 51
16.7962970514
  0
ARC
  5
20C
330
1F
100
AcDbEntity
  8
0
  6
Continuous
 62
     7
370
    25
100
AcDbCircle
 10
81.8518991409
 20
108.5970765173
 30
0.0
 40
3.666564664776359
100
AcDbArc
 50
10.104611426
 51
13.6281708273
  0
LINE
  5
20D
330
1F
100
AcDbEntity
  8
0
  6
Continuous
 62
     7
370
    25
100
AcDbLine
 10
85.4152326672
 20
109.4609923821
 30
0.0
 11
85.3068762945
 21
109.8989890437
 31
0.0
  0
LINE
  5
20E
330
1F
100
AcDbEntity
  8
0
  6
Continuous
 62
     7
370
    25
100
AcDbLine
 10
77.9204961212
 20
120.0471134836
 30
0.0
 11
77.8466475587
 21
120.0279888708
 31
0.0
  0
ARC
  5
20F
330
1F
100
AcDbEntity
  8
0
  6
Continuous
 62
     7
370
    25
100
AcDbCircle
 10
89.6718290917
 20
94.7205029163
 30
0.0
 40
1.321337254436399
100
AcDbArc
 50
353.7476197877
 51
16.7962970514
  0
LINE
  5
210
330
1F
100
AcDbEntity
  8
0
  6
Continuous
 62
     7
370
    25
100
AcDbLine
 10
85.4391550008
 20
109.3642938492
 30
0.0
 11
85.3068762945
 21
109.8989890437
 31
0.0
  0
LINE
  5
211
330
1F
100
AcDbEntity
  8
0
  6
Continuous
 62
     7
370
    25
100
AcDbLine
 10
88.1113421327
 20
94.6041259505
 30
0.0
 11
85.4391550008
 21
109.3642938492
 31
0.0
  0
LINE
  5
212
330
1F
100
AcDbEntity
  8
0
  6
Continuous
 62
     7
370
    25
100
AcDbLine
 10
88.2646085559
 20
109.8624975437
 30
0.0
 11
85.4391550008
 21
109.3642938492
 31
0.0
  0
LINE
  5
213
330
1F
100
AcDbEntity
  8
0
  6
Continuous
 62
     7
370
    25
100
AcDbLine
 10
90.9367956878
 20
95.102329645
 30
0.0
 11
88.2646085559
 21
109.8624975437
 31
0.0
  0
ARC
  5
214
330
1F
100
AcDbEntity
  8
0
  6
Continuous
 62
     7
370
    25
100
AcDbCircle
 10
90.5444526931
 20
94.9626837015
 30
0.0
 40
0.6854853628989029
100
AcDbArc
 50
356.8450564019
 51
14.4925726817
  0
LINE
  5
215
330
1F
100
AcDbEntity
  8
0
  6
Continuous
 62
     7
370
    25
100
AcDbLine
 10
88.2646085559
 20
109.8624975437
 30
0.0
 11
88.5527665531
 21
109.8014473738
 31
0.0
  0
LINE
  5
216
330
1F
100
AcDbEntity
  8
0
  6
Continuous
 62
     7
370
    25
100
AcDbLine
 10
88.5527665531
 20
109.8014473738
 30
0.0
 11
91.2081259729
 21
95.1342294982
 31
0.0
  0
LINE
  5
217
330
1F
100
AcDbEntity
  8
0
  6
Continuous
 62
     7
370
    25
100
AcDbLine
 10
88.2646085559
 20
109.8624975437
 30
0.0
 11
88.1323298496
 21
110.3971927382
 31
0.0
  0
LINE
  5
218
330
1F
100
AcDbEntity
  8
0
  6
Continuous
 62
     7
370
    25
100
AcDbLine
 10
88.3939713497
 20
110.4433271939
 30
0.0
 11
88.5527665531
 21
109.8014473738
 31
0.0
  0
LINE
  5
219
330
1F
100
AcDbEntity
  8
0
  6
Continuous
 62
     7
370
    25
100
AcDbLine
 10
88.5196968765
 20
109.9351211724
 30
0.0
 11
88.4266479283
 21
110.4490889564
 31
0.0
  0
LINE
  5
21A
330
1F
100
AcDbEntity
  8
0
  6
Continuous
 62
     7
370
    25
100
AcDbLine
 10
88.4266479283
 20
110.4490889564
 30
0.0
 11
80.931347525
 21
109.1274652668
 31
0.0
  0
LINE
  5
21B
330
1F
100
AcDbEntity
  8
0
  6
Continuous
 62
     7
370
    25
100
AcDbLine
 10
80.931347525
 20
109.1274652668
 30
0.0
 11
77.3172449482
 21
129.0904237733
 31
0.0
  0
LINE
  5
21C
330
1F
100
AcDbEntity
  8
0
  6
Continuous
 62
     7
370
    25
100
AcDbLine
 10
115.572135865
 20
135.835793186
 30
0.0
 11
77.3172449482
 21
129.0904237733
 31
0.0
  0
LINE
  5
21D
330
1F
100
AcDbEntity
  8
0
  6
Continuous
 62
     7
370
    25
100
AcDbLine
 10
115.572135865
 20
125.5484126717
 30
0.0
 11
115.572135865
 21
135.835793186
 31
0.0
  0
ARC
  5
21E
330
1F
100
AcDbEntity
  8
0
  6
Continuous
 62
     7
370
    25
100
AcDbCircle
 10
83.572135865
 20
125.5484126717
 30
0.0
 40
32.00000000000001
100
AcDbArc
 50
293.615290713
 51
0.0
  0
LINE
  5
21F
330
1F
100
AcDbEntity
  8
0
  6
Continuous
 62
     7
370
    25
100
AcDbLine
 10
91.1765305739
 20
95.308750732
 30
0.0
 11
96.391130138
 21
96.2282253287
 31
0.0
  0
ELLIPSE
  5
220
330
1F
100
AcDbEntity
  8
0
  6
Continuous
 62
     7
370
    25
100
AcDbEllipse
 10
100.7480853006
 20
118.9725882744
 30
0.0
 11
-2.050857248096591
 21
3.051404383173832
 31
0.0
210
0.0
220
0.0
230
1.0
 40
0.8118275499
 41
0.0
 42
6.283185307179586
  0
LINE
  5
221
330
1F
100
AcDbEntity
  8
0
  6
Continuous
 62
     7
370
    25
100
AcDbLine
 10
95.967335955
 20
96.0465650223
 30
0.0
 11
91.1952910652
 21
95.2051247551
 31
0.0
  0
ARC
  5
222
330
1F
100
AcDbEntity
  8
0
  6
Continuous
 62
     7
370
    25
100
AcDbCircle
 10
83.572135865
 20
125.5484126717
 30
0.0
 40
32.00000000000001
100
AcDbArc
 50
292.7897090087
 51
293.615290713
  0
LINE
  5
223
330
1F
100
AcDbEntity
  8
0
  6
Continuous
 62
     7
370
    25
100
AcDbLine
 10
68.5183741415
 20
165.7185094907
 30
0.0
 11
68.5056014983
 21
165.711556784
 31
0.0
  0
LINE
  5
224
330
1F
100
AcDbEntity
  8
0
  6
Continuous
 62
     7
370
    25
100
AcDbLine
 10
77.3172449482
 20
129.0904237733
 30
0.0
 11
68.5183741415
 21
165.7185094907
 31
0.0
  0
LINE
  5
225
330
1F
100
AcDbEntity
  8
0
  6
Continuous
 62
     7
370
    25
100
AcDbLine
 10
78.2186181628
 20
121.6987766794
 30
0.0
 11
79.3026659543
 21
115.7108998489
 31
0.0
  0
LWPOLYLINE
  5
226
330
1F
100
AcDbEntity
  8
0
  6
Continuous
 62
     7
370
    25
100
AcDbPolyline
 90
       12
 70
   128
 43
0.0
 10
77.8967890533
 20
121.4188275687
 10
77.7980534083
 20
122.0058804511
 10
77.7203530783
 20
122.5567137064
 10
77.6699828819
 20
123.0267021
 10
77.6510235129
 20
123.3777699676
 10
77.6650109466
 20
123.5814758782
 10
77.7108120042
 20
123.6213167906
 10
77.7847161566
 20
123.494065031
 10
77.8807361288
 20
123.2100297801
 10
77.9910929536
 20
122.7922218847
 10
78.1068461776
 20
122.2744896558
 10
78.2186181628
 20
121.6987766794
  0
LINE
  5
227
330
1F
100
AcDbEntity
  8
0
  6
Continuous
 62
     7
370
    25
100
AcDbLine
 10
78.0644451629
 20
120.4927575721
 30
0.0
 11
77.8967890533
 21
121.4188275687
 31
0.0
  0
LWPOLYLINE
  5
228
330
1F
100
AcDbEntity
  8
0
  6
Continuous
 62
     7
370
    25
100
AcDbPolyline
 90
        3
 70
   128
 43
0.0
 10
77.7734628045
 20
120.0611574875
 10
77.8191742166
 20
120.1481401249
 10
77.8222117986
 20
120.1654806488
  0
ARC
  5
229
330
1F
100
AcDbEntity
  8
0
  6
Continuous
 62
     7
370
    25
100
AcDbCircle
 10
60.309635892
 20
119.9319084209
 30
0.0
 40
17.53329776251894
100
AcDbArc
 50
1.7009199653
 51
20.8309782598
  0
LWPOLYLINE
  5
22A
330
1F
100
AcDbEntity
  8
0
  6
Continuous
 62
     7
370
    25
100
AcDbPolyline
 90
       13
 70
   128
 43
0.0
 10
75.3698073885
 20
132.374921758
 10
75.3970667487
 20
132.2408390238
 10
75.516736994
 20
131.6049107516
 10
75.6217840263
 20
130.9664040125
 10
75.705049064
 20
130.3688319855
 10
75.7608577324
 20
129.8529182167
 10
75.7854067629
 20
129.4538213769
 10
75.7770231797
 20
129.1987392561
 10
75.7362783102
 20
129.1050552794
 10
75.6659488498
 20
129.1791538549
 10
75.570827635
 20
129.4159852871
 10
75.4573970195
 20
129.7994099054
 10
75.4309620028
 20
129.9001333319
  0
LINE
  5
22B
330
1F
100
AcDbEntity
  8
0
  6
Continuous
 62
     7
370
    25
100
AcDbLine
 10
79.3026659543
 20
115.7108998489
 30
0.0
 11
80.931347525
 21
109.1274652668
 31
0.0
  0
LINE
  5
22C
330
1F
100
AcDbEntity
  8
0
  6
Continuous
 62
     7
370
    25
100
AcDbLine
 10
115.572135865
 20
135.835793186
 30
0.0
 11
115.572135865
 21
138.0484126717
 31
0.0
  0
ARC
  5
22D
330
1F
100
AcDbEntity
  8
0
  6
Continuous
 62
     7
370
    25
100
AcDbCircle
 10
83.572135865
 20
138.0484126717
 30
0.0
 40
31.5
100
AcDbArc
 50
62.4813860501
 51
118.5481545038
  0
SPLINE
  5
22E
330
1F
100
AcDbEntity
  8
0
  6
Continuous
 62
     7
370
    25
100
AcDbSpline
210
0.0
220
0.0
230
1.0
 70
     8
 71
     3
 72
    12
 73
     8
 74
     0
 42
0.000000001
 43
0.00000001
 40
0.0
 40
0.0
 40
0.0
 40
0.0
 40
0.2499999999999999
 40
0.2499999999999999
 40
0.4999999999999999
 40
0.4999999999999999
 40
1.0
 40
1.0
 40
1.0
 40
1.0
 10
101.2462934896424
 20
164.8511767930924
 30
0.0
 10
100.9667123480747
 20
164.9034624801797
 30
0.0
 10
100.6945997501107
 20
164.9738246056419
 30
0.0
 10
100.1581890494795
 20
165.1334626167523
 30
0.0
 10
99.89365145533155
 20
165.2234295332728
 30
0.0
 10
99.11257695786178
 20
165.5143196882315
 30
0.0
 10
98.60860595878165
 20
165.7332520500206
 30
0.0
 10
98.1262936869345
 20
165.9845271132943
 30
0.0
  0
LINE
  5
22F
330
1F
100
AcDbEntity
  8
0
  6
Continuous
 62
     7
370
    25
100
AcDbLine
 10
101.0679114632
 20
164.8420282586
 30
0.0
 11
101.2462934896
 21
164.8511767931
 31
0.0
  0
ARC
  5
230
330
1F
100
AcDbEntity
  8
0
  6
Continuous
 62
     7
370
    25
100
AcDbCircle
 10
83.572135865
 20
138.0484126717
 30
0.0
 40
32.00000000000001
100
AcDbArc
 50
0.0
 51
56.8561460464
  0
ARC
  5
231
330
1F
100
AcDbEntity
  8
0
  6
Continuous
 62
     7
370
    25
100
AcDbCircle
 10
83.572135865
 20
138.0484126717
 30
0.0
 40
32.10551373655941
100
AcDbArc
 50
355.3535493072
 51
56.5985235967
  0
SPLINE
  5
232
330
1F
100
AcDbEntity
  8
0
  6
Continuous
 62
     7
370
    25
100
AcDbSpline
210
0.0
220
0.0
230
1.0
 70
     8
 71
     3
 72
    18
 73
    14
 74
     0
 42
0.000000001
 43
0.00000001
 40
0.0
 40
0.0
 40
0.0
 40
0.0
 40
0.2499999999999996
 40
0.2499999999999996
 40
0.499999999999999
 40
0.499999999999999
 40
0.6249999999999993
 40
0.6249999999999993
 40
0.7499999999999997
 40
0.7499999999999997
 40
0.8750000000000001
 40
0.8750000000000001
 40
1.0
 40
1.0
 40
1.0
 40
1.0
 10
68.50560149830348
 20
165.7115567840087
 30
0.0
 10
68.45383294452246
 20
165.6833614099946
 30
0.0
 10
68.31102725396683
 20
165.6059599098303
 30
0.0
 10
67.85079496698903
 20
165.3460185408616
 30
0.0
 10
67.54468915258651
 20
165.1696478158272
 30
0.0
 10
66.9858072033508
 20
164.8288404594387
 30
0.0
 10
66.78592866402
 20
164.7042823028308
 30
0.0
 10
66.36617547933002
 20
164.4352856427977
 30
0.0
 10
66.145639026711
 20
164.2904514404507
 30
0.0
 10
65.6848806016769
 20
163.9785783082757
 30
0.0
 10
65.44707057804911
 20
163.8131108321558
 30
0.0
 10
64.96597322578934
 20
163.4678614225855
 30
0.0
 10
64.72154696877665
 20
163.2873174037815
 30
0.0
 10
64.4738532317127
 20
163.0984745570618
 30
0.0
  0
ARC
  5
233
330
1F
100
AcDbEntity
  8
0
  6
Continuous
 62
     7
370
    25
100
AcDbCircle
 10
83.572135865
 20
138.0484126717
 30
0.0
 40
31.5
100
AcDbArc
 50
127.3220642163
 51
221.2274896197
  0
ARC
  5
234
330
1F
100
AcDbEntity
  8
0
  6
Continuous
 62
     7
370
    25
100
AcDbCircle
 10
83.572135865
 20
138.0484126717
 30
0.0
 40
31.5
100
AcDbArc
 50
228.049423151
 51
249.7971764977
  0
LWPOLYLINE
  5
235
330
1F
100
AcDbEntity
  8
0
  6
Continuous
 62
     7
370
    18
100
AcDbPolyline
 90
       28
 70
   128
 43
0.0
 10
59.8088568991
 20
117.7491747792
 10
59.921538603
 20
117.3965009602
 10
60.0155959369
 20
117.1841979977
 10
60.0859582456
 20
117.1237111994
 10
60.1288322787
 20
117.2183014243
 10
60.141906686
 20
117.4628692888
 10
60.124476623
 20
117.844230076
 10
60.0774817486
 20
118.3418245273
 10
60.0034555689
 20
118.9288271969
 10
59.9063888544
 20
119.5735926189
 10
59.7915144966
 20
120.2413613227
 10
59.665025402
 20
120.8961337245
 10
59.5337406305
 20
121.5026108746
 10
59.4047377779
 20
122.028097433
 10
59.2849714216
 20
122.4442642831
 10
59.1808981968
 20
122.7286757626
 10
59.0981287179
 20
122.8659991747
 10
59.041125109
 20
122.8488313789
 10
59.0129604494
 20
122.6780978955
 10
59.0151531032
 20
122.3630030108
 10
59.0475848639
 20
121.9205335715
 10
59.1085073268
 20
121.3745432196
 10
59.1946361462
 20
120.7544664364
 10
59.3013280952
 20
120.0937317217
 10
59.4228313831
 20
119.4279594551
 10
59.5525957363
 20
118.7930415917
 10
59.6836255249
 20
118.2232067178
 10
59.8088568991
 20
117.7491747792
  0
LINE
  5
236
330
1F
100
AcDbEntity
  8
0
  6
Continuous
 62
     7
370
    18
100
AcDbLine
 10
69.4570270015
 20
123.2507521314
 30
0.0
 11
76.3715818165
 21
124.4699747048
 31
0.0
  0
LINE
  5
237
330
1F
100
AcDbEntity
  8
0
  6
Continuous
 62
     7
370
    18
100
AcDbLine
 10
75.9554152683
 20
108.4265381045
 30
0.0
 11
76.0573254912
 21
104.3024627038
 31
0.0
  0
LINE
  5
238
330
1F
100
AcDbEntity
  8
0
  6
Continuous
 62
     7
370
    18
100
AcDbLine
 10
68.0866382142
 20
132.8011435045
 30
0.0
 11
74.6134865912
 21
133.9520029723
 31
0.0
  0
LINE
  5
239
330
1F
100
AcDbEntity
  8
0
  6
Continuous
 62
     7
370
    18
100
AcDbLine
 10
85.4615919502
 20
109.2403604852
 30
0.0
 11
80.7917451022
 21
108.4169404901
 31
0.0
  0
LINE
  5
23A
330
1F
100
AcDbEntity
  8
0
  6
Continuous
 62
     7
370
    18
100
AcDbLine
 10
88.1677655275
 20
94.2924641023
 30
0.0
 11
83.4979186795
 21
93.4690441072
 31
0.0
  0
LINE
  5
23B
330
1F
100
AcDbEntity
  8
0
  6
Continuous
 62
     7
370
    18
100
AcDbLine
 10
80.9533647849
 20
107.5144153117
 30
0.0
 11
80.8451713693
 21
107.4863963887
 31
0.0
  0
LINE
  5
23C
330
1F
100
AcDbEntity
  8
0
  6
Continuous
 62
     7
370
    18
100
AcDbLine
 10
82.0342833999
 20
101.5438228883
 30
0.0
 11
81.8648412593
 21
101.4999423409
 31
0.0
  0
LINE
  5
23D
330
1F
100
AcDbEntity
  8
0
  6
Continuous
 62
     7
370
    18
100
AcDbLine
 10
82.2486750335
 20
100.0453555107
 30
0.0
 11
82.231878522
 21
100.1132501419
 31
0.0
  0
SPLINE
  5
23E
330
1F
100
AcDbEntity
  8
0
  6
Continuous
 62
     7
370
    18
100
AcDbSpline
210
0.0
220
0.0
230
1.0
 70
     8
 71
     3
 72
     9
 73
     5
 74
     0
 42
0.000000001
 43
0.00000001
 40
0.0
 40
0.0
 40
0.0
 40
0.0
 40
0.4891013759135114
 40
1.0
 40
1.0
 40
1.0
 40
1.0
 10
82.37422017678924
 20
99.66613855938873
 30
0.0
 10
82.35038859581572
 20
99.72260915114735
 30
0.0
 10
82.30166335776252
 20
99.83806699800606
 30
0.0
 10
82.26659262344306
 20
99.97526251155023
 30
0.0
 10
82.24867503353354
 20
100.0453555106508
 30
0.0
  0
LINE
  5
23F
330
1F
100
AcDbEntity
  8
0
  6
Continuous
 62
     7
370
    18
100
AcDbLine
 10
85.4152326672
 20
109.4609923821
 30
0.0
 11
80.7453858191
 21
108.637572387
 31
0.0
  0
LINE
  5
240
330
1F
100
AcDbEntity
  8
0
  6
Continuous
 62
     7
370
    18
100
AcDbLine
 10
78.4528202324
 20
120.4051315491
 30
0.0
 11
77.8600565391
 21
120.3006113168
 31
0.0
  0
LINE
  5
241
330
1F
100
AcDbEntity
  8
0
  6
Continuous
 62
     7
370
    18
100
AcDbLine
 10
80.8231843818
 20
108.2334834428
 30
0.0
 11
80.7315122156
 21
108.1086016749
 31
0.0
  0
LINE
  5
242
330
1F
100
AcDbEntity
  8
0
  6
Continuous
 62
     7
370
    18
100
AcDbLine
 10
79.6855870121
 20
112.912286995
 30
0.0
 11
79.5155462085
 21
112.6806463885
 31
0.0
  0
LINE
  5
243
330
1F
100
AcDbEntity
  8
0
  6
Continuous
 62
     7
370
    18
100
AcDbLine
 10
82.2486750335
 20
100.0453555107
 30
0.0
 11
82.2665526557
 21
100.0713641893
 31
0.0
  0
LINE
  5
244
330
1F
100
AcDbEntity
  8
0
  6
Continuous
 62
     7
370
    18
100
AcDbLine
 10
88.1113421327
 20
94.6041259505
 30
0.0
 11
90.9367956878
 21
95.102329645
 31
0.0
  0
LINE
  5
245
330
1F
100
AcDbEntity
  8
0
  6
Continuous
 62
     7
370
    18
100
AcDbLine
 10
91.2081259729
 20
95.1342294982
 30
0.0
 11
90.9367956878
 21
95.102329645
 31
0.0
  0
LINE
  5
246
330
1F
100
AcDbEntity
  8
0
  6
Continuous
 62
     7
370
    18
100
AcDbLine
 10
68.5056014983
 20
165.711556784
 30
0.0
 11
73.4697996766
 21
137.5581899064
 31
0.0
  0
LINE
  5
247
330
1F
100
AcDbEntity
  8
0
  6
Continuous
 62
     7
370
    18
100
AcDbLine
 10
78.2577767092
 20
121.4824794322
 30
0.0
 11
77.8967890533
 21
121.4188275687
 31
0.0
  0
LINE
  5
248
330
1F
100
AcDbEntity
  8
0
  6
Continuous
 62
     7
370
    18
100
AcDbLine
 10
75.6819049256
 20
130.5474403684
 30
0.0
 11
75.4195085777
 21
130.363627447
 31
0.0
  0
LINE
  5
249
330
1F
100
AcDbEntity
  8
0
  6
Continuous
 62
     7
370
    18
100
AcDbLine
 10
64.4738532317
 20
163.0984745571
 30
0.0
 11
69.1625185075
 21
136.5077324204
 31
0.0
  0
CIRCLE
  5
24A
330
1F
100
AcDbEntity
  8
VERMASSUNG
100
AcDbCircle
 10
83.572135865
 20
133.0484126717
 30
0.0
 40
40.0
  0
DIMENSION
  5
24B
330
1F
100
AcDbEntity
  8
VERMASSUNG
100
AcDbDimension
  2
_D_5
 10
55.2878646175
 20
104.7641414242
 30
0.0
 11
120.7654904648
 21
170.2417672715
 31
0.0
 70
   163
  1
<> min.
 71
     1
 42
-1.0
  3
SLDDIMSTYLE3
100
AcDbDiametricDimension
 15
111.8564071124
 25
161.3326839192
 35
0.0
 40
0.0
  0
INSERT
  5
264
330
1F
100
AcDbEntity
  8
VERMASSUNG
100
AcDbBlockReference
  2
SW_CENTERMARKSYMBOL_0
 10
83.572135865
 20
138.0484126717
 30
0.0
  0
LINE
  5
265
330
1F
100
AcDbEntity
  8
0
  6
Continuous
 62
     7
370
    25
100
AcDbLine
 10
193.6607200993
 20
28.5404465513
 30
0.0
 11
193.7019919593
 21
28.5974140973
 31
0.0
  0
LINE
  5
266
330
1F
100
AcDbEntity
  8
0
  6
Continuous
 62
     7
370
    25
100
AcDbLine
 10
191.4247511713
 20
47.8529576267
 30
0.0
 11
191.3823457288
 21
47.9284643635
 31
0.0
  0
LINE
  5
267
330
1F
100
AcDbEntity
  8
0
  6
Continuous
 62
     7
370
    25
100
AcDbLine
 10
191.489614703
 20
47.5298588674
 30
0.0
 11
191.4755282487
 21
47.6911393051
 31
0.0
  0
SPLINE
  5
268
330
1F
100
AcDbEntity
  8
0
  6
Continuous
 62
     7
370
    25
100
AcDbSpline
210
0.0
220
0.0
230
1.0
 70
     8
 71
     3
 72
    20
 73
    16
 74
     0
 42
0.000000001
 43
0.00000001
 40
0.0
 40
0.0
 40
0.0
 40
0.0
 40
0.0502601065990737
 40
0.1280973380085937
 40
0.2078792001851952
 40
0.2901184119917074
 40
0.3746640231690456
 40
0.4609309326598433
 40
0.548417604804055
 40
0.6371478098891853
 40
0.727293713433942
 40
0.8186608077611905
 40
0.8986620241636158
 40
0.976591356728537
 40
1.0
 40
1.0
 40
1.0
 40
1.0
 10
192.2145066715063
 20
46.84227724661802
 30
0.0
 10
192.1555450540018
 20
46.92694994629949
 30
0.0
 10
192.0052702782785
 20
47.14275425244072
 30
0.0
 10
191.6791350994806
 20
47.42651946639749
 30
0.0
 10
191.2573854095953
 20
47.69254287410308
 30
0.0
 10
190.7750292194489
 20
47.88679821645778
 30
0.0
 10
190.2481672779809
 20
48.00392604367263
 30
0.0
 10
189.6924951081875
 20
48.03596118306838
 30
0.0
 10
189.127973888842
 20
47.97861092243099
 30
0.0
 10
188.5742977875985
 20
47.82969816979816
 30
0.0
 10
188.0525687427632
 20
47.58821649437214
 30
0.0
 10
187.6027010589638
 20
47.27100424017834
 30
0.0
 10
187.2493073469683
 20
46.89557113133469
 30
0.0
 10
187.030023605307
 20
46.58800380722036
 30
0.0
 10
186.9563199422557
 20
46.39382828208965
 30
0.0
 10
186.9392947082116
 20
46.34897455808028
 30
0.0
  0
LINE
  5
269
330
1F
100
AcDbEntity
  8
0
  6
Continuous
 62
     7
370
    25
100
AcDbLine
 10
186.7902591981
 20
45.5687486765
 30
0.0
 11
186.8509513407
 21
44.873864417
 31
0.0
  0
LINE
  5
26A
330
1F
100
AcDbEntity
  8
0
  6
Continuous
 62
     7
370
    25
100
AcDbLine
 10
192.5791440497
 20
45.3741726107
 30
0.0
 11
192.5184519071
 21
46.0690568702
 31
0.0
  0
LINE
  5
26B
330
1F
100
AcDbEntity
  8
0
  6
Continuous
 62
     7
370
    25
100
AcDbLine
 10
186.2586677697
 20
44.4720409619
 30
0.0
 11
186.3979990859
 21
42.8767909939
 31
0.0
  0
LINE
  5
26C
330
1F
100
AcDbEntity
  8
0
  6
Continuous
 62
     7
370
    25
100
AcDbLine
 10
193.3714510795
 20
43.4858618383
 30
0.0
 11
193.2321197632
 21
45.0811118063
 31
0.0
  0
LINE
  5
26D
330
1F
100
AcDbEntity
  8
0
  6
Continuous
 62
     7
370
    25
100
AcDbLine
 10
192.8116465905
 20
41.9333812748
 30
0.0
 11
192.8214167115
 21
41.9446998499
 31
0.0
  0
LINE
  5
26E
330
1F
100
AcDbEntity
  8
0
  6
Continuous
 62
     7
370
    25
100
AcDbLine
 10
185.4249780152
 20
37.5849600332
 30
0.0
 11
185.5811791319
 21
35.7965621833
 31
0.0
  0
LINE
  5
26F
330
1F
100
AcDbEntity
  8
0
  6
Continuous
 62
     7
370
    25
100
AcDbLine
 10
194.9215443316
 20
43.5946043142
 30
0.0
 11
194.7072736253
 21
46.0478599532
 31
0.0
  0
LINE
  5
270
330
1F
100
AcDbEntity
  8
0
  6
Continuous
 62
     7
370
    25
100
AcDbLine
 10
194.1167180989
 20
46.6798029592
 30
0.0
 11
192.1277776434
 21
46.958602972
 31
0.0
  0
LINE
  5
271
330
1F
100
AcDbEntity
  8
0
  6
Continuous
 62
     7
370
    25
100
AcDbLine
 10
184.6476242135
 20
28.6415382541
 30
0.0
 11
184.7920715129
 21
26.9877137166
 31
0.0
  0
LINE
  5
272
330
1F
100
AcDbEntity
  8
0
  6
Continuous
 62
     7
370
    25
100
AcDbLine
 10
184.824467903
 20
26.919217779
 30
0.0
 11
184.8964715572
 21
26.0948243103
 31
0.0
  0
LINE
  5
273
330
1F
100
AcDbEntity
  8
0
  6
Continuous
 62
     7
370
    25
100
AcDbLine
 10
188.5369669612
 20
62.8802792185
 30
0.0
 11
185.8285285139
 21
64.443827453
 31
0.0
  0
LINE
  5
274
330
1F
100
AcDbEntity
  8
0
  6
Continuous
 62
     7
370
    25
100
AcDbLine
 10
196.2388851538
 20
58.4340564864
 30
0.0
 11
191.2518180503
 21
61.3130290446
 31
0.0
  0
LINE
  5
275
330
1F
100
AcDbEntity
  8
0
  6
Continuous
 62
     7
370
    25
100
AcDbLine
 10
175.5030980113
 20
34.0324898796
 30
0.0
 11
180.8087259124
 21
30.9696160874
 31
0.0
  0
LINE
  5
276
330
1F
100
AcDbEntity
  8
0
  6
Continuous
 62
     7
370
    25
100
AcDbLine
 10
170.0798084749
 20
37.163288288
 30
0.0
 11
172.7882469222
 21
35.5997400535
 31
0.0
  0
LINE
  5
277
330
1F
100
AcDbEntity
  8
0
  6
Continuous
 62
     7
370
    25
100
AcDbLine
 10
185.9610817011
 20
22.6040063881
 30
0.0
 11
187.3550350266
 21
21.7992942621
 31
0.0
  0
SPLINE
  5
278
330
1F
100
AcDbEntity
  8
0
  6
Continuous
 62
     7
370
    25
100
AcDbSpline
210
0.0
220
0.0
230
1.0
 70
     8
 71
     3
 72
    32
 73
    28
 74
     0
 42
0.000000001
 43
0.00000001
 40
0.0
 40
0.0
 40
0.0
 40
0.0
 40
0.0287247579546914
 40
0.069835556397321
 40
0.1110426070577109
 40
0.1523133200971145
 40
0.1936195776874597
 40
0.2349405852929728
 40
0.2762602431028399
 40
0.317571390944679
 40
0.3588711445189205
 40
0.4001589003091203
 40
0.4414354524153945
 40
0.4827024128167229
 40
0.5239618510282573
 40
0.5652160814800646
 40
0.6064675454624221
 40
0.6477187505115484
 40
0.6889717726121305
 40
0.7302288012226861
 40
0.7714924129630183
 40
0.8127651607054512
 40
0.8540495054647043
 40
0.8953476848480492
 40
0.936661476833244
 40
0.977991799777912
 40
1.0
 40
1.0
 40
1.0
 40
1.0
 10
182.3277084429497
 20
65.1742767285113
 30
0.0
 10
182.1311206272144
 20
65.159595294234
 30
0.0
 10
181.6531768438597
 20
65.12390182962474
 30
0.0
 10
180.8653143489388
 20
64.95680872138645
 30
0.0
 10
179.9745166347144
 20
64.6899409621709
 30
0.0
 10
179.0693271503617
 20
64.32689757545323
 30
0.0
 10
178.1571995344302
 20
63.87467807092981
 30
0.0
 10
177.2440145940979
 20
63.33528299206083
 30
0.0
 10
176.3359822158046
 20
62.71282355677334
 30
0.0
 10
175.4390802065284
 20
62.01152551520661
 30
0.0
 10
174.5591680486013
 20
61.2361843601264
 30
0.0
 10
173.7019601069956
 20
60.39201017550123
 30
0.0
 10
172.8730190453199
 20
59.48463981093968
 30
0.0
 10
172.0777261450142
 20
58.52009641988865
 30
0.0
 10
171.321252124713
 20
57.50475835010997
 30
0.0
 10
170.6085257032517
 20
56.44532095528308
 30
0.0
 10
169.9442025688766
 20
55.34875584746494
 30
0.0
 10
169.3326374916556
 20
54.22227097081304
 30
0.0
 10
168.77785548969
 20
53.07326421987997
 30
0.0
 10
168.2835207810555
 20
51.90926970498081
 30
0.0
 10
167.852923600225
 20
50.73790943577703
 30
0.0
 10
167.4889227998362
 20
49.56682050943392
 30
0.0
 10
167.1940816831251
 20
48.40369683453731
 30
0.0
 10
166.970099627827
 20
47.25591507606553
 30
0.0
 10
166.8198849139419
 20
46.13170964071443
 30
0.0
 10
166.7522748624257
 20
45.20653731871896
 30
0.0
 10
166.7461437575305
 20
44.66467543948396
 30
0.0
 10
166.7440133860383
 20
44.47639500390254
 30
0.0
  0
SPLINE
  5
279
330
1F
100
AcDbEntity
  8
0
  6
Continuous
 62
     7
370
    25
100
AcDbSpline
210
0.0
220
0.0
230
1.0
 70
     8
 71
     3
 72
    13
 73
     9
 74
     0
 42
0.000000001
 43
0.00000001
 40
0.0
 40
0.0
 40
0.0
 40
0.0
 40
0.1058271893132822
 40
0.3068181794542853
 40
0.5078802238395306
 40
0.7088772323212906
 40
0.9096964439264704
 40
1.0
 40
1.0
 40
1.0
 40
1.0
 10
166.7440133860383
 20
44.47639500390253
 30
0.0
 10
166.7460941218825
 20
44.29246214071861
 30
0.0
 10
166.7521266697355
 20
43.75919704514056
 30
0.0
 10
166.8196088015104
 20
42.91046045961708
 30
0.0
 10
166.9695722031317
 20
41.95120502185495
 30
0.0
 10
167.1986387118496
 20
41.0546919098239
 30
0.0
 10
167.4326928758809
 20
40.36222898195043
 30
0.0
 10
167.6159196069752
 20
39.99691404486013
 30
0.0
 10
167.6727548229821
 20
39.88359677266917
 30
0.0
  0
LINE
  5
27A
330
1F
100
AcDbEntity
  8
0
  6
Continuous
 62
     7
370
    25
100
AcDbLine
 10
158.5929083565
 20
49.16365076
 30
0.0
 11
166.7508690716
 21
44.1133695624
 31
0.0
  0
LINE
  5
27B
330
1F
100
AcDbEntity
  8
0
  6
Continuous
 62
     7
370
    25
100
AcDbLine
 10
177.1062350229
 20
63.2264033997
 30
0.0
 11
169.0891633525
 21
67.5313474934
 31
0.0
  0
LINE
  5
27C
330
1F
100
AcDbEntity
  8
0
  6
Continuous
 62
     7
370
    25
100
AcDbLine
 10
166.3997937881
 20
68.1216040258
 30
0.0
 11
165.7602433356
 21
68.0343929603
 31
0.0
  0
LINE
  5
27D
330
1F
100
AcDbEntity
  8
0
  6
Continuous
 62
     7
370
    25
100
AcDbLine
 10
157.4296572899
 20
50.8996928135
 30
0.0
 11
157.6739615827
 21
50.3022432643
 31
0.0
  0
LWPOLYLINE
  5
27E
330
1F
100
AcDbEntity
  8
0
  6
Continuous
 62
     7
370
    25
100
AcDbPolyline
 90
        3
 70
   128
 43
0.0
 10
193.8401361401
 20
28.92799552
 10
193.8109772825
 20
28.7983536044
 10
193.7019919593
 20
28.5974140973
  0
LWPOLYLINE
  5
27F
330
1F
100
AcDbEntity
  8
0
  6
Continuous
 62
     7
370
    25
100
AcDbPolyline
 90
        9
 70
   128
 43
0.0
 10
193.7850315533
 20
28.9739813111
 10
193.7897954841
 20
28.9485956523
 10
193.7646194407
 20
28.7320088814
 10
193.6305352335
 20
28.5008230194
 10
193.3984055674
 20
28.2737673699
 10
193.0870362075
 20
28.0692366314
 10
192.7216524474
 20
27.9038006678
 10
192.3318555065
 20
27.790862117
 10
192.1232528487
 20
27.7552395874
  0
LWPOLYLINE
  5
280
330
1F
100
AcDbEntity
  8
0
  6
Continuous
 62
     7
370
    25
100
AcDbPolyline
 90
        8
 70
   128
 43
0.0
 10
193.5683270933
 20
29.0256312145
 10
193.6142397873
 20
28.9162740516
 10
193.5954053419
 20
28.7093258065
 10
193.4615441258
 20
28.4869582737
 10
193.2257594076
 20
28.2709383368
 10
192.9111314382
 20
28.0824115322
 10
192.5484581954
 20
27.9398321771
 10
192.1887599142
 20
27.8592948153
  0
LWPOLYLINE
  5
281
330
1F
100
AcDbEntity
  8
0
  6
Continuous
 62
     7
370
    25
100
AcDbPolyline
 90
        3
 70
   128
 43
0.0
 10
191.4247511713
 20
47.8529576267
 10
191.4689554391
 20
47.7359011377
 10
191.4614353752
 20
47.5477277527
  0
LWPOLYLINE
  5
282
330
1F
100
AcDbEntity
  8
0
  6
Continuous
 62
     7
370
    25
100
AcDbPolyline
 90
        9
 70
   128
 43
0.0
 10
190.1552514791
 20
47.9989439216
 10
190.3087894753
 20
48.1122212573
 10
190.5728985043
 20
48.2067902708
 10
190.8613336846
 20
48.2200929549
 10
191.1266500973
 20
48.1499411413
 10
191.3252056472
 20
48.0078741543
 10
191.4243397832
 20
47.8172606989
 10
191.407745857
 20
47.6094549252
 10
191.3999817263
 20
47.5898107443
  0
LWPOLYLINE
  5
283
330
1F
100
AcDbEntity
  8
0
  6
Continuous
 62
     7
370
    25
100
AcDbPolyline
 90
        8
 70
   128
 43
0.0
 10
190.2797917105
 20
47.9855064539
 10
190.3738415834
 20
48.0491456241
 10
190.5962491868
 20
48.1287826881
 10
190.8391419702
 20
48.1399849484
 10
191.0625663178
 20
48.080909737
 10
191.2297709914
 20
47.9612743795
 10
191.313252369
 20
47.8007577855
 10
191.3058396117
 20
47.6454425686
  0
LWPOLYLINE
  5
284
330
1F
100
AcDbEntity
  8
0
  6
Continuous
 62
     7
370
    25
100
AcDbPolyline
 90
       19
 70
   128
 43
0.0
 10
186.802279245
 20
45.4697898425
 10
186.9245840779
 20
45.0667329223
 10
187.1586460758
 20
44.6944699241
 10
187.4948827129
 20
44.368241339
 10
187.9195284217
 20
44.1014030034
 10
188.4151981572
 20
43.9048793101
 10
188.961599142
 20
43.7867159624
 10
189.5363616556
 20
43.7517505814
 10
190.1159548533
 20
43.8014146541
 10
190.6766501213
 20
43.9336749274
 10
191.1954925296
 20
44.1431166502
 10
191.651240609
 20
44.4211652539
 10
192.0252359795
 20
44.7564373957
 10
192.3021672268
 20
45.135206995
 10
192.470696753
 20
45.5419671798
 10
192.5239249396
 20
45.9600651403
 10
192.4596726184
 20
46.3723838969
 10
192.2805702868
 20
46.7620430713
 10
192.2323023528
 20
46.834730133
  0
ARC
  5
285
330
1F
100
AcDbEntity
  8
0
  6
Continuous
 62
     7
370
    25
100
AcDbCircle
 10
188.3598221659
 20
45.694646856
 30
0.0
 40
1.573690130595803
100
AcDbArc
 50
155.5141806258
 51
188.214834348
  0
LWPOLYLINE
  5
286
330
1F
100
AcDbEntity
  8
0
  6
Continuous
 62
     7
370
    25
100
AcDbPolyline
 90
       18
 70
   128
 43
0.0
 10
186.8509513407
 20
44.873864417
 10
186.8629713875
 20
44.774905583
 10
186.9852762205
 20
44.3718486628
 10
187.2193382184
 20
43.9995856647
 10
187.5555748555
 20
43.6733570795
 10
187.9802205643
 20
43.4065187439
 10
188.4758902998
 20
43.2099950506
 10
189.0222912846
 20
43.0918317029
 10
189.5970537982
 20
43.0568663219
 10
190.1766469958
 20
43.1065303946
 10
190.7373422639
 20
43.2387906679
 10
191.2561846722
 20
43.4482323908
 10
191.7119327515
 20
43.7262809944
 10
192.0859281221
 20
44.0615531362
 10
192.3628593694
 20
44.4403227355
 10
192.5313888956
 20
44.8470829203
 10
192.5846170822
 20
45.2651808808
 10
192.5791440497
 20
45.3741726107
  0
LWPOLYLINE
  5
287
330
1F
100
AcDbEntity
  8
0
  6
Continuous
 62
     7
370
    25
100
AcDbPolyline
 90
       21
 70
   128
 43
0.0
 10
188.3536302328
 20
46.361998802
 10
188.4569864873
 20
46.0956406866
 10
188.6716085988
 20
45.8702136489
 10
188.9764878595
 20
45.707784058
 10
189.3417805632
 20
45.6242516541
 10
189.7317293149
 20
45.6277931708
 10
190.1081632139
 20
45.7180619398
 10
190.4342342874
 20
45.8862218251
 10
190.6780244267
 20
46.1158121654
 10
190.8156697546
 20
46.3843590585
 10
190.8336965872
 20
46.6655752636
 10
190.7303403326
 20
46.9319333791
 10
190.5157182212
 20
47.1573604168
 10
190.2108389605
 20
47.3197900076
 10
189.8455462567
 20
47.4033224115
 10
189.455597505
 20
47.3997808948
 10
189.079163606
 20
47.3095121258
 10
188.7530925326
 20
47.1413522405
 10
188.5093023932
 20
46.9117619003
 10
188.3716570654
 20
46.6432150071
 10
188.3536302328
 20
46.361998802
  0
SPLINE
  5
288
330
1F
100
AcDbEntity
  8
0
  6
Continuous
 62
     7
370
    25
100
AcDbSpline
210
0.0
220
0.0
230
1.0
 70
     8
 71
     3
 72
    21
 73
    17
 74
     0
 42
0.000000001
 43
0.00000001
 40
0.0
 40
0.0
 40
0.0
 40
0.0
 40
0.0601902211716305
 40
0.1204666426487849
 40
0.1641854209394797
 40
0.2518948947402125
 40
0.3408401659472709
 40
0.4312469120759508
 40
0.4767692049899475
 40
0.6010393537238314
 40
0.6856451756934996
 40
0.7717147430006001
 40
0.8149466996397489
 40
0.8610837985064571
 40
0.9536139928405442
 40
1.0
 40
1.0
 40
1.0
 40
1.0
 10
190.5277039703636
 20
46.97821855740857
 30
0.0
 10
190.530750529578
 20
46.95542700644121
 30
0.0
 10
190.5368480110798
 20
46.90981126401079
 30
0.0
 10
190.5451324077974
 20
46.84867848262455
 30
0.0
 10
190.5547626519298
 20
46.77835248801879
 30
0.0
 10
190.565750244561
 20
46.69938723712254
 30
0.0
 10
190.5788140586457
 20
46.60794375120516
 30
0.0
 10
190.5894737051447
 20
46.53578688417505
 30
0.0
 10
190.6013665220505
 20
46.4576934986634
 30
0.0
 10
190.6124041287127
 20
46.38835557605309
 30
0.0
 10
190.6241154147876
 20
46.31931481364986
 30
0.0
 10
190.6319725835667
 20
46.27562539850292
 30
0.0
 10
190.6380384968556
 20
46.24342616389441
 30
0.0
 10
190.644068825014
 20
46.21249931689668
 30
0.0
 10
190.6498452707099
 20
46.18439988522422
 30
0.0
 10
190.653892399054
 20
46.16593737040841
 30
0.0
 10
190.6552437901973
 20
46.15977248585774
 30
0.0
  0
SPLINE
  5
289
330
1F
100
AcDbEntity
  8
0
  6
Continuous
 62
     7
370
    25
100
AcDbSpline
210
0.0
220
0.0
230
1.0
 70
     8
 71
     3
 72
    18
 73
    14
 74
     0
 42
0.000000001
 43
0.00000001
 40
0.0
 40
0.0
 40
0.0
 40
0.0
 40
0.0718225527506046
 40
0.1436511610185286
 40
0.2901073646798266
 40
0.3272456033571652
 40
0.4398697841932129
 40
0.5163771558654512
 40
0.6724740877077227
 40
0.7521552925419707
 40
0.8137589890991057
 40
0.9376984304008584
 40
1.0
 40
1.0
 40
1.0
 40
1.0
 10
189.471907518667
 20
47.26601100854975
 30
0.0
 10
189.4964244892999
 20
47.25077271332162
 30
0.0
 10
189.5454604976453
 20
47.22029483809118
 30
0.0
 10
189.6466498605142
 20
47.16230986476416
 30
0.0
 10
189.7381925627236
 20
47.11580197235569
 30
0.0
 10
189.8460257350895
 20
47.0687955952728
 30
0.0
 10
189.9294251505928
 20
47.03745321761848
 30
0.0
 10
190.0566234579285
 20
47.00026032037393
 30
0.0
 10
190.1705016253428
 20
46.97907355370575
 30
0.0
 10
190.2749364913223
 20
46.97009384349072
 30
0.0
 10
190.3658591095228
 20
46.96733093053729
 30
0.0
 10
190.4482258943127
 20
46.97021437283635
 30
0.0
 10
190.5077813926036
 20
46.9762121677541
 30
0.0
 10
190.5277039703636
 20
46.97821855740857
 30
0.0
  0
SPLINE
  5
28A
330
1F
100
AcDbEntity
  8
0
  6
Continuous
 62
     7
370
    25
100
AcDbSpline
210
0.0
220
0.0
230
1.0
 70
     8
 71
     3
 72
    13
 73
     9
 74
     0
 42
0.000000001
 43
0.00000001
 40
0.0
 40
0.0
 40
0.0
 40
0.0
 40
0.2161268135839925
 40
0.4396426651110878
 40
0.5932590105054164
 40
0.7520094001456892
 40
0.8754366676457785
 40
1.0
 40
1.0
 40
1.0
 40
1.0
 10
188.5436508868039
 20
46.73535738814012
 30
0.0
 10
188.6094109970207
 20
46.74651100598793
 30
0.0
 10
188.7431794528374
 20
46.7691995664443
 30
0.0
 10
188.9361322553269
 20
46.84430465093737
 30
0.0
 10
189.109796329388
 20
46.94665011740289
 30
0.0
 10
189.2460333817636
 20
47.05081497404421
 30
0.0
 10
189.367087278845
 20
47.1592018523616
 30
0.0
 10
189.4368608925504
 20
47.23029938864585
 30
0.0
 10
189.471907518667
 20
47.26601100854976
 30
0.0
  0
SPLINE
  5
28B
330
1F
100
AcDbEntity
  8
0
  6
Continuous
 62
     7
370
    25
100
AcDbSpline
210
0.0
220
0.0
230
1.0
 70
     8
 71
     3
 72
    13
 73
     9
 74
     0
 42
0.000000001
 43
0.00000001
 40
0.0
 40
0.0
 40
0.0
 40
0.0
 40
0.1850976431720914
 40
0.3515068187791643
 40
0.5232476807925652
 40
0.6982027647879778
 40
0.8794576802541274
 40
1.0
 40
1.0
 40
1.0
 40
1.0
 10
188.6711907066376
 20
45.91691131658928
 30
0.0
 10
188.6656312368658
 20
45.94301654490759
 30
0.0
 10
188.6550736117114
 20
45.99259127531699
 30
0.0
 10
188.6358301342265
 20
46.09942313731732
 30
0.0
 10
188.6139760543287
 20
46.23463908657902
 30
0.0
 10
188.5888390643571
 20
46.40486632457964
 30
0.0
 10
188.5650036124877
 20
46.57608102849775
 30
0.0
 10
188.5497452889423
 20
46.68989742199064
 30
0.0
 10
188.5436508868039
 20
46.73535738814012
 30
0.0
  0
SPLINE
  5
28C
330
1F
100
AcDbEntity
  8
0
  6
Continuous
 62
     7
370
    25
100
AcDbSpline
210
0.0
220
0.0
230
1.0
 70
     8
 71
     3
 72
    18
 73
    14
 74
     0
 42
0.000000001
 43
0.00000001
 40
0.0
 40
0.0
 40
0.0
 40
0.0
 40
0.0538547745293653
 40
0.1618887413368614
 40
0.2715889082384191
 40
0.3834158900082036
 40
0.4398631857420018
 40
0.5548447230501343
 40
0.6329647146285843
 40
0.7521765570918287
 40
0.8446334101380344
 40
0.9377061021818749
 40
1.0
 40
1.0
 40
1.0
 40
1.0
 10
189.7269871583342
 20
45.62911886544809
 30
0.0
 10
189.7097770481066
 20
45.62736215471362
 30
0.0
 10
189.6580430448104
 20
45.62208144019609
 30
0.0
 10
189.5683517336382
 20
45.61798157854056
 30
0.0
 10
189.4553538997705
 20
45.62119411889202
 30
0.0
 10
189.3563332537387
 20
45.63295459610728
 30
0.0
 10
189.2534787057714
 20
45.65282400313252
 30
0.0
 10
189.1614232658447
 20
45.67769448861008
 30
0.0
 10
189.0463663002212
 20
45.71864784913074
 30
0.0
 10
188.9406136786543
 20
45.76502817161094
 30
0.0
 10
188.8319738682763
 20
45.82112743522309
 30
0.0
 10
188.7454506403288
 20
45.87067316715439
 30
0.0
 10
188.6924437175568
 20
45.90367807160808
 30
0.0
 10
188.6711907066376
 20
45.91691131658928
 30
0.0
  0
SPLINE
  5
28D
330
1F
100
AcDbEntity
  8
0
  6
Continuous
 62
     7
370
    25
100
AcDbSpline
210
0.0
220
0.0
230
1.0
 70
     8
 71
     3
 72
    13
 73
     9
 74
     0
 42
0.000000001
 43
0.00000001
 40
0.0
 40
0.0
 40
0.0
 40
0.0
 40
0.2161268135839904
 40
0.4396426651110899
 40
0.5932590105054147
 40
0.7520094001456921
 40
0.8754366676457837
 40
1.0
 40
1.0
 40
1.0
 40
1.0
 10
190.6552437901973
 20
46.15977248585774
 30
0.0
 10
190.5938825275456
 20
46.09825501854598
 30
0.0
 10
190.4690621565821
 20
45.97311689786891
 30
0.0
 10
190.2819657165083
 20
45.83096039803544
 30
0.0
 10
190.1077912923311
 20
45.73445809754502
 30
0.0
 10
189.9671814507367
 20
45.6803587398069
 30
0.0
 10
189.8396082317518
 20
45.64661371758746
 30
0.0
 10
189.7646419915957
 20
45.63496826574459
 30
0.0
 10
189.7269871583342
 20
45.62911886544809
 30
0.0
  0
LINE
  5
28E
330
1F
100
AcDbEntity
  8
0
  6
Continuous
 62
     7
370
    25
100
AcDbLine
 10
190.6035211523
 20
46.1101627588
 30
0.0
 11
190.5277039704
 21
46.9782185574
 31
0.0
  0
LINE
  5
28F
330
1F
100
AcDbEntity
  8
0
  6
Continuous
 62
     7
370
    25
100
AcDbLine
 10
189.557161804
 20
46.2899067151
 30
0.0
 11
189.4719075187
 21
47.2660110085
 31
0.0
  0
LINE
  5
290
330
1F
100
AcDbEntity
  8
0
  6
Continuous
 62
     7
370
    25
100
AcDbLine
 10
189.557161804
 20
46.2899067151
 30
0.0
 11
189.0930334881
 21
46.0245799049
 31
0.0
  0
LINE
  5
291
330
1F
100
AcDbEntity
  8
0
  6
Continuous
 62
     7
370
    25
100
AcDbLine
 10
189.0930334881
 20
46.0245799049
 30
0.0
 11
188.7854215559
 21
45.8487283356
 31
0.0
  0
LINE
  5
292
330
1F
100
AcDbEntity
  8
0
  6
Continuous
 62
     7
370
    25
100
AcDbLine
 10
190.5178888415
 20
46.028028596
 30
0.0
 11
190.0850600299
 21
46.1460104896
 31
0.0
  0
LINE
  5
293
330
1F
100
AcDbEntity
  8
0
  6
Continuous
 62
     7
370
    25
100
AcDbLine
 10
190.0850600299
 20
46.1460104896
 30
0.0
 11
189.557161804
 21
46.2899067151
 31
0.0
  0
ARC
  5
294
330
1F
100
AcDbEntity
  8
0
  6
Continuous
 62
     7
370
    25
100
AcDbCircle
 10
189.5499407737
 20
45.2061838004
 30
0.0
 40
0.9373027533674959
100
AcDbArc
 50
119.1744490941
 51
139.247775908
  0
ARC
  5
295
330
1F
100
AcDbEntity
  8
0
  6
Continuous
 62
     7
370
    25
100
AcDbCircle
 10
189.7402053839
 20
44.850405582
 30
0.0
 40
1.340715034384538
100
AcDbArc
 50
75.0950097208
 51
118.8623191604
  0
ARC
  5
296
330
1F
100
AcDbEntity
  8
0
  6
Continuous
 62
     7
370
    25
100
AcDbCircle
 10
189.842474108
 20
45.1996678442
 30
0.0
 40
0.9769402908731619
100
AcDbArc
 50
51.5638742016
 51
75.6223570805
  0
LWPOLYLINE
  5
297
330
1F
100
AcDbEntity
  8
0
  6
Continuous
 62
     7
370
    25
100
AcDbPolyline
 90
       20
 70
   128
 43
0.0
 10
186.8071332906
 20
45.5149857791
 10
186.7227783204
 20
45.0798991374
 10
186.76092721
 20
44.6466187482
 10
186.9200181393
 20
44.2328831615
 10
187.193537907
 20
43.8556307608
 10
187.5702885817
 20
43.5303063037
 10
188.0348459465
 20
43.2702286118
 10
188.5681909684
 20
43.0860452963
 10
189.1484884393
 20
42.9852968437
 10
189.7519809128
 20
42.9721079077
 10
190.353961336
 20
43.0470184446
 10
190.9297845597
 20
43.2069616085
 10
191.4558763134
 20
43.4453893073
 10
191.910698339
 20
43.752540283
 10
192.2756301692
 20
44.1158397387
 10
192.535731452
 20
44.5204141518
 10
192.6803536105
 20
44.9497001985
 10
192.7035757964
 20
45.3861228575
 10
192.6044472906
 20
45.8118149338
 10
192.5257148367
 20
45.9859012056
  0
LWPOLYLINE
  5
298
330
1F
100
AcDbEntity
  8
0
  6
Continuous
 62
     7
370
    25
100
AcDbPolyline
 90
       26
 70
   128
 43
0.0
 10
186.8212822789
 20
46.0276754339
 10
186.7526875074
 20
45.9461786447
 10
186.4695511742
 20
45.5110061983
 10
186.3008603925
 20
45.0501755517
 10
186.2525085802
 20
44.5797863849
 10
186.3261849669
 20
44.1162723164
 10
186.5193155782
 20
43.6758267749
 10
186.8251531609
 20
43.2738372619
 10
187.2330129065
 20
42.9243477708
 10
187.728645738
 20
42.6395681426
 10
188.2947361187
 20
42.4294475005
 10
188.9115069914
 20
42.3013266652
 10
189.5574107144
 20
42.2596816942
 10
190.2098818544
 20
42.3059675051
 10
190.8461255371
 20
42.4385670469
 10
191.4439138146
 20
42.652847793
 10
191.9823622251
 20
42.9413235845
 10
192.4426594175
 20
43.2939161682
 10
192.8087243486
 20
43.6983072926
 10
193.0677680941
 20
44.1403690614
 10
193.2107406453
 20
44.6046575079
 10
193.2326470819
 20
45.0749521498
 10
193.1327220758
 20
45.5348226709
 10
192.9144566288
 20
45.9682029342
 10
192.5854761103
 20
46.3599522724
 10
192.4083389024
 20
46.5156566086
  0
SPLINE
  5
299
330
1F
100
AcDbEntity
  8
0
  6
Continuous
 62
     7
370
    25
100
AcDbSpline
210
0.0
220
0.0
230
1.0
 70
    11
 71
     3
 72
    66
 73
    62
 74
     0
 42
0.000000001
 43
0.00000001
 40
0.0
 40
0.0
 40
0.0
 40
0.0
 40
0.0111969353859146
 40
0.0340073285966693
 40
0.0456461263859538
 40
0.0568417288583981
 40
0.0795795384669331
 40
0.0911356339955115
 40
0.1030949954814073
 40
0.1273347073348342
 40
0.1396271026022363
 40
0.1533059016376158
 40
0.1810486057690797
 40
0.1951324792949721
 40
0.2102629906022614
 40
0.2410148292381862
 40
0.256674150688492
 40
0.2720575123072609
 40
0.2875565643339664
 40
0.3034371058900588
 40
0.3194571953623727
 40
0.3338613154531863
 40
0.3632423189067372
 40
0.3782735497831518
 40
0.3914614057968213
 40
0.4183391832729753
 40
0.4320716992284575
 40
0.4444738354377982
 40
0.4697232738581868
 40
0.4826047477593525
 40
0.494654307735094
 40
0.5191687978376881
 40
0.5316634396140556
 40
0.5436348917328102
 40
0.5679780354850757
 40
0.5803764139520267
 40
0.5924823465134008
 40
0.6170848604316261
 40
0.6296050519470919
 40
0.6421062562766039
 40
0.6674945716465579
 40
0.6804023772810868
 40
0.6936448601314478
 40
0.7205238892541415
 40
0.734180317525682
 40
0.7484787136649652
 40
0.7775051576020462
 40
0.7922580785194309
 40
0.8075350621299131
 40
0.822915123625558
 40
0.8386259623237102
 40
0.8544546683819947
 40
0.8697238674880063
 40
0.8851139613451312
 40
0.900916620035022
 40
0.9168773507191825
 40
0.928444838652235
 40
0.9519475552194403
 40
0.9639204951458836
 40
0.9817862311391832
 40
1.0
 40
1.0
 40
1.0
 40
1.0
 10
189.0304399356599
 20
40.93962435281005
 30
0.0
 10
189.04239868536
 20
40.93826749993536
 30
0.0
 10
189.0787197961495
 20
40.93414646681543
 30
0.0
 10
189.1267551753323
 20
40.9348192662068
 30
0.0
 10
189.172826146604
 20
40.94026712986921
 30
0.0
 10
189.2172844256867
 20
40.94898763289855
 30
0.0
 10
189.2590449767743
 20
40.96224779359944
 30
0.0
 10
189.2980490535285
 20
40.97976821435076
 30
0.0
 10
189.3357823414034
 20
41.00048523629427
 30
0.0
 10
189.3699485907323
 20
41.02529380214614
 30
0.0
 10
189.4005714958609
 20
41.0540834040264
 30
0.0
 10
189.4296830985035
 20
41.08699985549729
 30
0.0
 10
189.4536352942879
 20
41.12409200196527
 30
0.0
 10
189.4715397797661
 20
41.16432644134255
 30
0.0
 10
189.4854398093518
 20
41.208022927819
 30
0.0
 10
189.4915702901228
 20
41.25460283109237
 30
0.0
 10
189.48916612994
 20
41.30193295904893
 30
0.0
 10
189.4829988755514
 20
41.33766284370091
 30
0.0
 10
189.472405669727
 20
41.37337348240188
 30
0.0
 10
189.457129488849
 20
41.40910918972808
 30
0.0
 10
189.4377156962934
 20
41.4432874840471
 30
0.0
 10
189.4072348470205
 20
41.48615082155752
 30
0.0
 10
189.3696547772818
 20
41.52618000659893
 30
0.0
 10
189.3261861122434
 20
41.56219185624941
 30
0.0
 10
189.2808584740757
 20
41.59450415138165
 30
0.0
 10
189.2317127464665
 20
41.622853420281
 30
0.0
 10
189.1797681312118
 20
41.64691602168427
 30
0.0
 10
189.1275940639098
 20
41.66772143719476
 30
0.0
 10
189.074130121718
 20
41.68446239645455
 30
0.0
 10
189.0203246141322
 20
41.69697320691114
 30
0.0
 10
188.9671919546231
 20
41.70660476587661
 30
0.0
 10
188.9147597502318
 20
41.71214295761273
 30
0.0
 10
188.864040638644
 20
41.71345669595013
 30
0.0
 10
188.814857685911
 20
41.71198335046773
 30
0.0
 10
188.7681929165821
 20
41.70634862777795
 30
0.0
 10
188.7249511081514
 20
41.696536915795
 30
0.0
 10
188.6840566014061
 20
41.68392814762109
 30
0.0
 10
188.6472377773582
 20
41.66720197900293
 30
0.0
 10
188.6151027164525
 20
41.64650281293999
 30
0.0
 10
188.5859487373356
 20
41.62295712927423
 30
0.0
 10
188.5620524742094
 20
41.59553217935381
 30
0.0
 10
188.5437072714197
 20
41.56451960707812
 30
0.0
 10
188.5289442115289
 20
41.53054225836515
 30
0.0
 10
188.5203665913478
 20
41.49312829255394
 30
0.0
 10
188.5180931284428
 20
41.4527853069234
 30
0.0
 10
188.5202652994404
 20
41.4095130029125
 30
0.0
 10
188.5295339996405
 20
41.36363463072016
 30
0.0
 10
188.5458559576359
 20
41.31626116212716
 30
0.0
 10
188.5619721609412
 20
41.27965111708139
 30
0.0
 10
188.5820583249487
 20
41.24237660380594
 30
0.0
 10
188.6060262308436
 20
41.20506839767931
 30
0.0
 10
188.6335378075643
 20
41.16859775346344
 30
0.0
 10
188.664292741545
 20
41.13346677480684
 30
0.0
 10
188.6983117549124
 20
41.09979217328357
 30
0.0
 10
188.7360862736482
 20
41.06751533502641
 30
0.0
 10
188.7736777201781
 20
41.04005460257451
 30
0.0
 10
188.820585947572
 20
41.01046631699244
 30
0.0
 10
188.8668108141318
 20
40.98673006425305
 30
0.0
 10
188.9215288325555
 20
40.96508060806816
 30
0.0
 10
188.9722859421984
 20
40.94933959917454
 30
0.0
 10
189.010931010838
 20
40.94288352728234
 30
0.0
 10
189.0304399356599
 20
40.93962435281005
 30
0.0
  0
LWPOLYLINE
  5
29A
330
1F
100
AcDbEntity
  8
0
  6
Continuous
 62
     7
370
    25
100
AcDbPolyline
 90
       19
 70
   128
 43
0.0
 10
186.3979990859
 20
42.8767909939
 10
186.4655162831
 20
42.5210223484
 10
186.6586468944
 20
42.0805768069
 10
186.9644844771
 20
41.6785872939
 10
187.3723442228
 20
41.3290978028
 10
187.8679770543
 20
41.0443181746
 10
188.4340674349
 20
40.8341975325
 10
189.0508383076
 20
40.7060766973
 10
189.6967420307
 20
40.6644317262
 10
190.3492131706
 20
40.7107175371
 10
190.9854568534
 20
40.8433170789
 10
191.5832451309
 20
41.057597825
 10
192.1216935414
 20
41.3460736165
 10
192.5819907337
 20
41.6986662002
 10
192.9480556648
 20
42.1030573247
 10
193.2070994104
 20
42.5451190934
 10
193.3500719616
 20
43.0094075399
 10
193.3719783981
 20
43.4797021818
 10
193.3714510795
 20
43.4858618383
  0
ARC
  5
29B
330
1F
100
AcDbEntity
  8
0
  6
Continuous
 62
     7
370
    25
100
AcDbCircle
 10
180.9354867872
 20
43.7221740747
 30
0.0
 40
13.23966880805463
100
AcDbArc
 50
320.9335603229
 51
340.3936563831
  0
SPLINE
  5
29C
330
1F
100
AcDbEntity
  8
0
  6
Continuous
 62
     7
370
    25
100
AcDbSpline
210
0.0
220
0.0
230
1.0
 70
     8
 71
     3
 72
    10
 73
     6
 74
     0
 42
0.000000001
 43
0.00000001
 40
0.0
 40
0.0
 40
0.0
 40
0.0
 40
0.4116162920382816
 40
0.8227990113789387
 40
1.0
 40
1.0
 40
1.0
 40
1.0
 10
190.6153482038212
 20
34.29106711222222
 30
0.0
 10
190.6845749846426
 20
34.45808504952102
 30
0.0
 10
190.8229556268147
 20
34.79194499712298
 30
0.0
 10
191.0446782152986
 20
35.15519595624315
 30
0.0
 10
191.1755570852556
 20
35.32662605093034
 30
0.0
 10
191.2149733111506
 20
35.37825491462407
 30
0.0
  0
ARC
  5
29D
330
1F
100
AcDbEntity
  8
0
  6
Continuous
 62
     7
370
    25
100
AcDbCircle
 10
177.6531568765
 20
46.082084368
 30
0.0
 40
17.52274213506733
100
AcDbArc
 50
308.8378640326
 51
317.7088741001
  0
SPLINE
  5
29E
330
1F
100
AcDbEntity
  8
0
  6
Continuous
 62
     7
370
    25
100
AcDbSpline
210
0.0
220
0.0
230
1.0
 70
     8
 71
     3
 72
    21
 73
    17
 74
     0
 42
0.000000001
 43
0.00000001
 40
0.0
 40
0.0
 40
0.0
 40
0.0
 40
0.050141281588643
 40
0.1260677919433477
 40
0.2025074138119084
 40
0.254278171702085
 40
0.3062191611829806
 40
0.3563626315097819
 40
0.4512338243731097
 40
0.6132679856629676
 40
0.659518988630222
 40
0.7471103548135738
 40
0.8427688624086617
 40
0.8972833628460026
 40
0.9485049427837101
 40
1.0
 40
1.0
 40
1.0
 40
1.0
 10
189.6548713070323
 20
35.06679818200341
 30
0.0
 10
189.6258418909258
 20
35.02528041007373
 30
0.0
 10
189.5528546382269
 20
34.92089429013923
 30
0.0
 10
189.4388662414706
 20
34.74685798084233
 30
0.0
 10
189.3281963276205
 20
34.56660783764591
 30
0.0
 10
189.2346491461746
 20
34.40438153170835
 30
0.0
 10
189.1579357394872
 20
34.26407562746724
 30
0.0
 10
189.0642720078579
 20
34.0827279033981
 30
0.0
 10
188.9293913017856
 20
33.79728475784019
 30
0.0
 10
188.8193913768379
 20
33.51373954836155
 30
0.0
 10
188.7364208902883
 20
33.24377618066447
 30
0.0
 10
188.6847259777893
 20
33.03821276414989
 30
0.0
 10
188.6509706855743
 20
32.83390940542783
 30
0.0
 10
188.6374190210721
 20
32.66969579662395
 30
0.0
 10
188.6345907810347
 20
32.54646746753922
 30
0.0
 10
188.6395233310593
 20
32.47102623408275
 30
0.0
 10
188.6419961723904
 20
32.43320518833061
 30
0.0
  0
SPLINE
  5
29F
330
1F
100
AcDbEntity
  8
0
  6
Continuous
 62
     7
370
    25
100
AcDbSpline
210
0.0
220
0.0
230
1.0
 70
     8
 71
     3
 72
    15
 73
    11
 74
     0
 42
0.000000001
 43
0.00000001
 40
0.0
 40
0.0
 40
0.0
 40
0.0
 40
0.1628903375038181
 40
0.3270642821452256
 40
0.4951568908559999
 40
0.6645300813048722
 40
0.7480639568610675
 40
0.8317347363883405
 40
0.9158040533644605
 40
1.0
 40
1.0
 40
1.0
 40
1.0
 10
193.1936432476363
 20
41.72831253189517
 30
0.0
 10
193.0726012146396
 20
41.38453348275434
 30
0.0
 10
192.8295633141837
 20
40.69426633955332
 30
0.0
 10
192.3522319779133
 20
39.60816792682533
 30
0.0
 10
191.7927095009867
 20
38.48841350903039
 30
0.0
 10
191.2567195368478
 20
37.53683413199376
 30
0.0
 10
190.7935683807681
 20
36.7743935762558
 30
0.0
 10
190.4309623931625
 20
36.20517224994268
 30
0.0
 10
190.0526905278723
 20
35.63524337071729
 30
0.0
 10
189.7875442267876
 20
35.2563749519449
 30
0.0
 10
189.6548713070323
 20
35.06679818200341
 30
0.0
  0
SPLINE
  5
2A0
330
1F
100
AcDbEntity
  8
0
  6
Continuous
 62
     7
370
    25
100
AcDbSpline
210
0.0
220
0.0
230
1.0
 70
     8
 71
     3
 72
    15
 73
    11
 74
     0
 42
0.000000001
 43
0.00000001
 40
0.0
 40
0.0
 40
0.0
 40
0.0
 40
0.0813845405925896
 40
0.2449159503194916
 40
0.4110464259502584
 40
0.5797819633953338
 40
0.6645648718571763
 40
0.7480982233375251
 40
0.915804581594017
 40
1.0
 40
1.0
 40
1.0
 40
1.0
 10
185.9374517083853
 20
42.74545021864215
 30
0.0
 10
185.8837163010502
 20
42.57396060256636
 30
0.0
 10
185.7220067397813
 20
42.05788541205344
 30
0.0
 10
185.524974289963
 20
41.14573990221817
 30
0.0
 10
185.3844195298945
 20
39.99034825123791
 30
0.0
 10
185.3543317967079
 20
38.98016455679058
 30
0.0
 10
185.3811079092559
 20
38.15255556417249
 30
0.0
 10
185.4416028338912
 20
37.31805376687782
 30
0.0
 10
185.5475551141221
 20
36.47351696523462
 30
0.0
 10
185.6680742708813
 20
35.8338148943274
 30
0.0
 10
185.7083564831139
 20
35.6200014618506
 30
0.0
  0
SPLINE
  5
2A1
330
1F
100
AcDbEntity
  8
0
  6
Continuous
 62
     7
370
    25
100
AcDbSpline
210
0.0
220
0.0
230
1.0
 70
     8
 71
     3
 72
    21
 73
    17
 74
     0
 42
0.000000001
 43
0.00000001
 40
0.0
 40
0.0
 40
0.0
 40
0.0
 40
0.0501412815886436
 40
0.1260677919433481
 40
0.2025074138119081
 40
0.254278171702087
 40
0.3062191611829805
 40
0.3563626315097817
 40
0.451233824373111
 40
0.613267985662968
 40
0.6595189886302231
 40
0.7471103548135746
 40
0.8427688624086621
 40
0.8972833628460025
 40
0.9485049427837098
 40
1.0
 40
1.0
 40
1.0
 40
1.0
 10
185.7083564831139
 20
35.62000146185059
 30
0.0
 10
185.7177208046831
 20
35.5731018422514
 30
0.0
 10
185.741265064141
 20
35.45518440379502
 30
0.0
 10
185.7810622503797
 20
35.25959117840839
 30
0.0
 10
185.8224714706373
 20
35.05802332083908
 30
0.0
 10
185.8596758413372
 20
34.87746889738028
 30
0.0
 10
185.8916772639161
 20
34.72192387639908
 30
0.0
 10
185.9326535295839
 20
34.52170297145346
 30
0.0
 10
185.9959268715051
 20
34.20848355387943
 30
0.0
 10
186.055260752525
 20
33.90120195393226
 30
0.0
 10
186.1070722643834
 20
33.61234550033272
 30
0.0
 10
186.1438770721772
 20
33.39437662286944
 30
0.0
 10
186.1759811044294
 20
33.18084142392146
 30
0.0
 10
186.1981027588305
 20
33.01162730253854
 30
0.0
 10
186.2126746213258
 20
32.88595991159283
 30
0.0
 10
186.2197290526373
 20
32.81022124312352
 30
0.0
 10
186.2232656593067
 20
32.77225108391293
 30
0.0
  0
ARC
  5
2A2
330
1F
100
AcDbEntity
  8
0
  6
Continuous
 62
     7
370
    25
100
AcDbCircle
 10
196.0446793378
 20
36.4268712362
 30
0.0
 40
10.47933276030672
100
AcDbArc
 50
187.9086319336
 51
200.4106035304
  0
SPLINE
  5
2A3
330
1F
100
AcDbEntity
  8
0
  6
Continuous
 62
     7
370
    25
100
AcDbSpline
210
0.0
220
0.0
230
1.0
 70
     8
 71
     3
 72
    11
 73
     7
 74
     0
 42
0.000000001
 43
0.00000001
 40
0.0
 40
0.0
 40
0.0
 40
0.0
 40
0.3142459836632635
 40
0.6378271799858101
 40
0.9519793968759035
 40
1.0
 40
1.0
 40
1.0
 40
1.0
 10
185.6650181815262
 20
34.98498033106085
 30
0.0
 10
185.6551049459555
 20
35.07354631965987
 30
0.0
 10
185.6349839852518
 20
35.25330930053314
 30
0.0
 10
185.6076951019098
 20
35.51431138067043
 30
0.0
 10
185.5893570412641
 20
35.69843847989787
 30
0.0
 10
185.5823347887666
 20
35.78509166618232
 30
0.0
 10
185.5814037061961
 20
35.79658103821151
 30
0.0
  0
SPLINE
  5
2A4
330
1F
100
AcDbEntity
  8
0
  6
Continuous
 62
     7
370
    25
100
AcDbSpline
210
0.0
220
0.0
230
1.0
 70
     8
 71
     3
 72
    11
 73
     7
 74
     0
 42
0.000000001
 43
0.00000001
 40
0.0
 40
0.0
 40
0.0
 40
0.0
 40
0.2470280283805178
 40
0.4952240180322457
 40
0.7470074342714802
 40
1.0
 40
1.0
 40
1.0
 40
1.0
 10
194.5847212525094
 20
45.38325797368912
 30
0.0
 10
194.6052709435521
 20
45.43319649266935
 30
0.0
 10
194.6464674856378
 20
45.53330964252567
 30
0.0
 10
194.6859364522428
 20
45.68378642624008
 30
0.0
 10
194.7101978846399
 20
45.83440519859911
 30
0.0
 10
194.7107118410486
 20
45.93367302913435
 30
0.0
 10
194.7109694348231
 20
45.9834258383776
 30
0.0
  0
ARC
  5
2A5
330
1F
100
AcDbEntity
  8
0
  6
Continuous
 62
     7
370
    25
100
AcDbCircle
 10
231.2847303298
 20
29.3229806207
 30
0.0
 40
40.06024431939505
100
AcDbArc
 50
156.3653503309
 51
161.9608421485
  0
ARC
  5
2A6
330
1F
100
AcDbEntity
  8
0
  6
Continuous
 62
     7
370
    25
100
AcDbCircle
 10
233.1011005641
 20
27.155125076
 30
0.0
 40
49.67361484165398
100
AcDbArc
 50
160.3722034661
 51
161.7082794756
  0
SPLINE
  5
2A7
330
1F
100
AcDbEntity
  8
0
  6
Continuous
 62
     7
370
    25
100
AcDbSpline
210
0.0
220
0.0
230
1.0
 70
     8
 71
     3
 72
    13
 73
     9
 74
     0
 42
0.000000001
 43
0.00000001
 40
0.0
 40
0.0
 40
0.0
 40
0.0
 40
0.1412417247090067
 40
0.4286488562859341
 40
0.5752204253557347
 40
0.7137413037595038
 40
0.9958389306607823
 40
1.0
 40
1.0
 40
1.0
 40
1.0
 10
186.9688309452995
 20
41.60820850392219
 30
0.0
 10
186.9171798315666
 20
41.66761031858157
 30
0.0
 10
186.7604259341394
 20
41.84788650798318
 30
0.0
 10
186.6005001341608
 20
42.11306380523544
 30
0.0
 10
186.4861552180465
 20
42.38739675728132
 30
0.0
 10
186.4083247521903
 20
42.66479988492215
 30
0.0
 10
186.374848216042
 20
42.87752435846623
 30
0.0
 10
186.3852694976258
 20
43.01874898810546
 30
0.0
 10
186.3854209818457
 20
43.02080183570119
 30
0.0
  0
SPLINE
  5
2A8
330
1F
100
AcDbEntity
  8
0
  6
Continuous
 62
     7
370
    25
100
AcDbSpline
210
0.0
220
0.0
230
1.0
 70
     8
 71
     3
 72
    31
 73
    27
 74
     0
 42
0.000000001
 43
0.00000001
 40
0.0
 40
0.0
 40
0.0
 40
0.0
 40
0.0646861092898376
 40
0.0978940936508549
 40
0.1289974133229664
 40
0.1922556760929208
 40
0.2244802954661596
 40
0.2557802705332373
 40
0.3193854542137151
 40
0.3517519879724262
 40
0.3841239876594331
 40
0.4498949991258287
 40
0.4833578662421431
 40
0.5169959251627662
 40
0.5853631954188078
 40
0.6201652743571867
 40
0.6546461144494237
 40
0.7247603380504922
 40
0.7604755010686112
 40
0.7952298139294591
 40
0.8302266314761191
 40
0.8659928060483147
 40
0.902027174187367
 40
0.9263074691600083
 40
0.975280044957326
 40
1.0
 40
1.0
 40
1.0
 40
1.0
 10
193.3278151982955
 20
43.04002416670982
 30
0.0
 10
193.306797443001
 20
42.91042011424603
 30
0.0
 10
193.2749897778358
 20
42.71428107622516
 30
0.0
 10
193.1703697027874
 20
42.45656898138723
 30
0.0
 10
193.0408135795782
 20
42.20510180134156
 30
0.0
 10
192.8700925793924
 20
41.9622689284996
 30
0.0
 10
192.6621088187848
 20
41.73237425039937
 30
0.0
 10
192.4301544337614
 20
41.51210667845111
 30
0.0
 10
192.1649623742714
 20
41.3090665350083
 30
0.0
 10
191.8706589751833
 20
41.12742761646462
 30
0.0
 10
191.5547899334906
 20
40.95962052348963
 30
0.0
 10
191.2134839348167
 20
40.8180132226618
 30
0.0
 10
190.8538626733536
 20
40.70704518853988
 30
0.0
 10
190.4788967029489
 20
40.61659301415626
 30
0.0
 10
190.0904832724362
 20
40.56127621735128
 30
0.0
 10
189.6991065369736
 20
40.54400920228555
 30
0.0
 10
189.3045813220528
 20
40.55264657788698
 30
0.0
 10
188.9135080862932
 20
40.60134644842019
 30
0.0
 10
188.5375915205791
 20
40.68948562324807
 30
0.0
 10
188.2650523975388
 20
40.77475691713739
 30
0.0
 10
188.0038011350815
 20
40.87837642744195
 30
0.0
 10
187.7530394375745
 20
41.00122409282894
 30
0.0
 10
187.5415356389633
 20
41.12719943659469
 30
0.0
 10
187.316531290606
 20
41.28430621861865
 30
0.0
 10
187.1309348803935
 20
41.43872471661808
 30
0.0
 10
187.009549376013
 20
41.56563634892536
 30
0.0
 10
186.9688309452995
 20
41.60820850392219
 30
0.0
  0
LINE
  5
2A9
330
1F
100
AcDbEntity
  8
0
  6
Continuous
 62
     7
370
    25
100
AcDbLine
 10
188.6419961724
 20
32.4332051883
 30
0.0
 11
186.2232656593
 21
32.7722510839
 31
0.0
  0
ARC
  5
2AA
330
1F
100
AcDbEntity
  8
0
  6
Continuous
 62
     7
370
    25
100
AcDbCircle
 10
195.7459699306
 20
42.3444247699
 30
0.0
 40
1.203916273313701
100
AcDbArc
 50
142.831925821
 51
163.7280141684
  0
LINE
  5
2AB
330
1F
100
AcDbEntity
  8
0
  6
Continuous
 62
     7
370
    25
100
AcDbLine
 10
193.4075236599
 20
39.2795254963
 30
0.0
 11
194.5902796463
 21
42.6817589659
 31
0.0
  0
SPLINE
  5
2AC
330
1F
100
AcDbEntity
  8
0
  6
Continuous
 62
     7
370
    25
100
AcDbSpline
210
0.0
220
0.0
230
1.0
 70
     8
 71
     3
 72
    14
 73
    10
 74
     0
 42
0.000000001
 43
0.00000001
 40
0.0
 40
0.0
 40
0.0
 40
0.0
 40
0.1194590878398611
 40
0.3619938355347511
 40
0.4851076837944723
 40
0.6321602315217499
 40
0.7803862858837514
 40
0.9301592189496606
 40
1.0
 40
1.0
 40
1.0
 40
1.0
 10
194.7109694348231
 20
45.9834258383776
 30
0.0
 10
194.7074326856382
 20
46.03397131728151
 30
0.0
 10
194.6967153645376
 20
46.18713799642019
 30
0.0
 10
194.6372079293987
 20
46.34724400530191
 30
0.0
 10
194.5433179415228
 20
46.47899271656964
 30
0.0
 10
194.4480629011443
 20
46.56379487917626
 30
0.0
 10
194.3272662742952
 20
46.62810065760466
 30
0.0
 10
194.2160438699609
 20
46.6656494631433
 30
0.0
 10
194.1403745744537
 20
46.674192818065
 30
0.0
 10
194.1163104912018
 20
46.67690974575289
 30
0.0
  0
LWPOLYLINE
  5
2AD
330
1F
100
AcDbEntity
  8
0
  6
Continuous
 62
     7
370
    25
100
AcDbPolyline
 90
        3
 70
   128
 43
0.0
 10
194.9025727366
 20
43.107201037
 10
194.9217685608
 20
43.5920169103
 10
194.9215443316
 20
43.5946043142
  0
LINE
  5
2AE
330
1F
100
AcDbEntity
  8
0
  6
Continuous
 62
     7
370
    25
100
AcDbLine
 10
194.9025727366
 20
43.107201037
 30
0.0
 11
194.8903783147
 21
43.120019462
 31
0.0
  0
SPLINE
  5
2AF
330
1F
100
AcDbEntity
  8
0
  6
Continuous
 62
     7
370
    25
100
AcDbSpline
210
0.0
220
0.0
230
1.0
 70
     8
 71
     3
 72
     9
 73
     5
 74
     0
 42
0.000000001
 43
0.00000001
 40
0.0
 40
0.0
 40
0.0
 40
0.0
 40
0.8632752407664204
 40
1.0
 40
1.0
 40
1.0
 40
1.0
 10
194.8694964405874
 20
43.11225984938165
 30
0.0
 10
194.849978463337
 20
43.11380289634632
 30
0.0
 10
194.8273692463356
 20
43.11559032970686
 30
0.0
 10
194.79151176788
 20
43.07704687463639
 30
0.0
 10
194.7866091627714
 20
43.07177703002184
 30
0.0
  0
LINE
  5
2B0
330
1F
100
AcDbEntity
  8
0
  6
Continuous
 62
     7
370
    25
100
AcDbLine
 10
194.8686711925
 20
43.1119531908
 30
0.0
 11
194.9025727366
 21
43.107201037
 31
0.0
  0
LINE
  5
2B1
330
1F
100
AcDbEntity
  8
0
  6
Continuous
 62
     7
370
    25
100
AcDbLine
 10
185.760010824
 20
34.4154005319
 30
0.0
 11
185.5217648312
 21
34.2098538389
 31
0.0
  0
LINE
  5
2B2
330
1F
100
AcDbEntity
  8
0
  6
Continuous
 62
     7
370
    25
100
AcDbLine
 10
190.049797052
 20
32.969354231
 30
0.0
 11
190.1795254311
 21
33.8283164
 31
0.0
  0
ARC
  5
2B3
330
1F
100
AcDbEntity
  8
0
  6
Continuous
 62
     7
370
    25
100
AcDbCircle
 10
189.9161177953
 20
32.9940852055
 30
0.0
 40
0.1359476545297978
100
AcDbArc
 50
308.8873536618
 51
349.5186525524
  0
LINE
  5
2B4
330
1F
100
AcDbEntity
  8
0
  6
Continuous
 62
     7
370
    25
100
AcDbLine
 10
184.9969822057
 20
28.570649679
 30
0.0
 11
190.0014645458
 21
32.8882660345
 31
0.0
  0
LWPOLYLINE
  5
2B5
330
1F
100
AcDbEntity
  8
0
  6
Continuous
 62
     7
370
    25
100
AcDbPolyline
 90
        9
 70
   128
 43
0.0
 10
184.6484166862
 20
28.666142681
 10
184.6515147679
 20
28.6210989645
 10
184.6739994437
 20
28.5798106137
 10
184.7136393379
 20
28.5463750776
 10
184.7665005941
 20
28.5241104934
 10
184.82733727
 20
28.5152263946
 10
184.8901119439
 20
28.5206044378
 10
184.9485948677
 20
28.5397109069
 10
184.9969822057
 20
28.570649679
  0
LINE
  5
2B6
330
1F
100
AcDbEntity
  8
0
  6
Continuous
 62
     7
370
    25
100
AcDbLine
 10
185.4734323249
 20
34.1287656424
 30
0.0
 11
184.6484166862
 21
28.666142681
 31
0.0
  0
ARC
  5
2B7
330
1F
100
AcDbEntity
  8
0
  6
Continuous
 62
     7
370
    25
100
AcDbCircle
 10
185.6071115816
 20
34.1040346679
 30
0.0
 40
0.135947654529855
100
AcDbArc
 50
128.8873536618
 51
169.5186525524
  0
LWPOLYLINE
  5
2B8
330
1F
100
AcDbEntity
  8
0
  6
Continuous
 62
     7
370
    25
100
AcDbPolyline
 90
        9
 70
   128
 43
0.0
 10
184.6583391368
 20
28.665782561
 10
184.6612823145
 20
28.6229910303
 10
184.6826427565
 20
28.583767097
 10
184.720300656
 20
28.5520033377
 10
184.7705188494
 20
28.5308519827
 10
184.8283136915
 20
28.5224120889
 10
184.8879496317
 20
28.5275212299
 10
184.9435084093
 20
28.5456723755
 10
184.9894763803
 20
28.575064209
  0
LINE
  5
2B9
330
1F
100
AcDbEntity
  8
0
  6
Continuous
 62
     7
370
    25
100
AcDbLine
 10
184.9894763803
 20
28.575064209
 30
0.0
 11
189.9939587203
 21
32.8926805645
 31
0.0
  0
ARC
  5
2BA
330
1F
100
AcDbEntity
  8
0
  6
Continuous
 62
     7
370
    25
100
AcDbCircle
 10
189.9128793064
 20
32.9932087777
 30
0.0
 40
0.1291502730206203
100
AcDbArc
 50
308.8873537902
 51
349.5186523041
  0
LINE
  5
2BB
330
1F
100
AcDbEntity
  8
0
  6
Continuous
 62
     7
370
    25
100
AcDbLine
 10
190.0398746014
 20
32.9697143512
 30
0.0
 11
190.1677300022
 21
33.8162750897
 31
0.0
  0
LINE
  5
2BC
330
1F
100
AcDbEntity
  8
0
  6
Continuous
 62
     7
370
    25
100
AcDbLine
 10
185.7618376204
 20
34.4060864207
 30
0.0
 11
185.5292706565
 21
34.205439309
 31
0.0
  0
ARC
  5
2BD
330
1F
100
AcDbEntity
  8
0
  6
Continuous
 62
     7
370
    25
100
AcDbCircle
 10
185.6103500694
 20
34.1049110965
 30
0.0
 40
0.129150271803358
100
AcDbArc
 50
128.8873536618
 51
169.5186525524
  0
LINE
  5
2BE
330
1F
100
AcDbEntity
  8
0
  6
Continuous
 62
     7
370
    25
100
AcDbLine
 10
185.4833547756
 20
34.1284055223
 30
0.0
 11
184.6583391368
 21
28.665782561
 31
0.0
  0
LINE
  5
2BF
330
1F
100
AcDbEntity
  8
0
  6
Continuous
 62
     7
370
    25
100
AcDbLine
 10
185.141429505
 20
26.9168251414
 30
0.0
 11
190.1459118451
 21
31.2344414969
 31
0.0
  0
LINE
  5
2C0
330
1F
100
AcDbEntity
  8
0
  6
Continuous
 62
     7
370
    25
100
AcDbLine
 10
189.8580057579
 20
32.9003302271
 30
0.0
 11
189.9939587203
 21
32.8926805645
 31
0.0
  0
LINE
  5
2C1
330
1F
100
AcDbEntity
  8
0
  6
Continuous
 62
     7
370
    25
100
AcDbLine
 10
184.8535234178
 20
28.5827138716
 30
0.0
 11
184.9894763803
 21
28.575064209
 31
0.0
  0
LINE
  5
2C2
330
1F
100
AcDbEntity
  8
0
  6
Continuous
 62
     7
370
    25
100
AcDbLine
 10
185.5430485863
 20
29.5082537591
 30
0.0
 11
184.8535234178
 21
28.5827138716
 31
0.0
  0
LINE
  5
2C3
330
1F
100
AcDbEntity
  8
0
  6
Continuous
 62
     7
370
    25
100
AcDbLine
 10
185.5430485863
 20
29.5082537591
 30
0.0
 11
186.4294070272
 21
30.2729593653
 31
0.0
  0
LINE
  5
2C4
330
1F
100
AcDbEntity
  8
0
  6
Continuous
 62
     7
370
    25
100
AcDbLine
 10
189.7034540502
 20
32.8771013536
 30
0.0
 11
189.8580057579
 21
32.9003302271
 31
0.0
  0
LWPOLYLINE
  5
2C5
330
1F
100
AcDbEntity
  8
0
  6
Continuous
 62
     7
370
    25
100
AcDbPolyline
 90
        9
 70
   128
 43
0.0
 10
184.7920715129
 20
26.9877137166
 10
184.7959620673
 20
26.9672744269
 10
184.8184467431
 20
26.9259860761
 10
184.8580866373
 20
26.89255054
 10
184.9109478935
 20
26.8702859558
 10
184.9717845694
 20
26.861401857
 10
185.0345592433
 20
26.8667799002
 10
185.0930421671
 20
26.8858863693
 10
185.141429505
 20
26.9168251414
  0
LINE
  5
2C6
330
1F
100
AcDbEntity
  8
0
  6
Continuous
 62
     7
370
    25
100
AcDbLine
 10
184.8535234178
 20
28.5827138716
 30
0.0
 11
184.6583391368
 21
28.665782561
 31
0.0
  0
LINE
  5
2C7
330
1F
100
AcDbEntity
  8
0
  6
Continuous
 62
     7
370
    25
100
AcDbLine
 10
185.6785390565
 20
34.0453368329
 30
0.0
 11
185.4833547756
 21
34.1284055223
 31
0.0
  0
LINE
  5
2C8
330
1F
100
AcDbEntity
  8
0
  6
Continuous
 62
     7
370
    25
100
AcDbLine
 10
185.8448254747
 20
33.9342111535
 30
0.0
 11
185.6785390565
 21
34.0453368329
 31
0.0
  0
LINE
  5
2C9
330
1F
100
AcDbEntity
  8
0
  6
Continuous
 62
     7
370
    25
100
AcDbLine
 10
185.6891695086
 20
30.4757548196
 30
0.0
 11
185.5430485863
 21
29.5082537591
 31
0.0
  0
SPLINE
  5
2CA
330
1F
100
AcDbEntity
  8
0
  6
Continuous
 62
     7
370
    25
100
AcDbSpline
210
0.0
220
0.0
230
1.0
 70
     8
 71
     3
 72
    14
 73
    10
 74
     0
 42
0.000000001
 43
0.00000001
 40
0.0
 40
0.0
 40
0.0
 40
0.0
 40
0.2210591904779429
 40
0.3460797326519202
 40
0.4396016244131573
 40
0.533889745319994
 40
0.6146561933587621
 40
0.7517253237594033
 40
1.0
 40
1.0
 40
1.0
 40
1.0
 10
185.9599002432736
 20
30.57799870077512
 30
0.0
 10
185.9348501262562
 20
30.58815746845973
 30
0.0
 10
185.895632856974
 20
30.60406155096706
 30
0.0
 10
185.8388721478301
 20
30.61361169672458
 30
0.0
 10
185.7965848393446
 20
30.611588937179
 30
0.0
 10
185.7626899943803
 20
30.59993677084062
 30
0.0
 10
185.7322593291324
 20
30.57781440917768
 30
0.0
 10
185.7022200568118
 20
30.53657233162252
 30
0.0
 10
185.6942831861894
 20
30.49958532411608
 30
0.0
 10
185.6891695086107
 20
30.47575481962761
 30
0.0
  0
ARC
  5
2CB
330
1F
100
AcDbEntity
  8
0
  6
Continuous
 62
     7
370
    25
100
AcDbCircle
 10
186.5186997187
 20
31.8729948325
 30
0.0
 40
1.410415483110649
100
AcDbArc
 50
246.6594798323
 51
262.6988456962
  0
SPLINE
  5
2CC
330
1F
100
AcDbEntity
  8
0
  6
Continuous
 62
     7
370
    25
100
AcDbSpline
210
0.0
220
0.0
230
1.0
 70
     8
 71
     3
 72
    14
 73
    10
 74
     0
 42
0.000000001
 43
0.00000001
 40
0.0
 40
0.0
 40
0.0
 40
0.0
 40
0.2234968253980164
 40
0.3567622963775233
 40
0.4531212562342684
 40
0.534461904150155
 40
0.6157317558036512
 40
0.7396161778923867
 40
1.0
 40
1.0
 40
1.0
 40
1.0
 10
186.4294070272414
 20
30.2729593652628
 30
0.0
 10
186.4481046463263
 20
30.29049211867987
 30
0.0
 10
186.4779511799835
 20
30.31847920690698
 30
0.0
 10
186.5008972590371
 20
30.36013975397016
 30
0.0
 10
186.5048584702067
 20
30.39038442821459
 30
0.0
 10
186.4958901035346
 20
30.41444862333994
 30
0.0
 10
186.4737486810805
 20
30.43634368167537
 30
0.0
 10
186.4226542691611
 20
30.46076415568329
 30
0.0
 10
186.3730619027314
 20
30.46866289971316
 30
0.0
 10
186.339457642912
 20
30.47401516389687
 30
0.0
  0
LWPOLYLINE
  5
2CD
330
1F
100
AcDbEntity
  8
0
  6
Continuous
 62
     7
370
    25
100
AcDbPolyline
 90
        9
 70
   128
 43
0.0
 10
186.1012629037
 20
31.6138204411
 10
186.1090081081
 20
31.5012111497
 10
186.1652197975
 20
31.3979902726
 10
186.2643195331
 20
31.3144014324
 10
186.3964726737
 20
31.2587399719
 10
186.5485643634
 20
31.236529725
 10
186.7055010483
 20
31.249974833
 10
186.8517083577
 20
31.2977410057
 10
186.9726767025
 20
31.375087936
  0
LINE
  5
2CE
330
1F
100
AcDbEntity
  8
0
  6
Continuous
 62
     7
370
    25
100
AcDbLine
 10
186.9726767025
 20
31.375087936
 30
0.0
 11
188.2610226558
 21
32.4866082055
 31
0.0
  0
LINE
  5
2CF
330
1F
100
AcDbEntity
  8
0
  6
Continuous
 62
     7
370
    25
100
AcDbLine
 10
186.2751219447
 20
32.7649821217
 30
0.0
 11
186.1012629037
 21
31.6138204411
 31
0.0
  0
ARC
  5
2D0
330
1F
100
AcDbEntity
  8
0
  6
Continuous
 62
     7
370
    25
100
AcDbCircle
 10
190.0605650947
 20
31.3402606679
 30
0.0
 40
0.1359476545298212
100
AcDbArc
 50
308.8873536618
 51
349.5186525524
  0
LINE
  5
2D1
330
1F
100
AcDbEntity
  8
0
  6
Continuous
 62
     7
370
    25
100
AcDbLine
 10
189.8580057579
 20
32.9003302271
 30
0.0
 11
190.0398746014
 21
32.9697143512
 31
0.0
  0
SPLINE
  5
2D2
330
1F
100
AcDbEntity
  8
0
  6
Continuous
 62
     7
370
    25
100
AcDbSpline
210
0.0
220
0.0
230
1.0
 70
     8
 71
     3
 72
    11
 73
     7
 74
     0
 42
0.000000001
 43
0.00000001
 40
0.0
 40
0.0
 40
0.0
 40
0.0
 40
0.3243049751551381
 40
0.6484544275559291
 40
0.9886727705617574
 40
1.0
 40
1.0
 40
1.0
 40
1.0
 10
189.7034540502271
 20
32.8771013536258
 30
0.0
 10
189.6710698492641
 20
32.87539303265803
 30
0.0
 10
189.6063169774118
 20
32.87197720995994
 30
0.0
 10
189.4937586676342
 20
32.9044990722908
 30
0.0
 10
189.4201646354148
 20
32.94332561182106
 30
0.0
 10
189.3851084813916
 20
32.9672811159904
 30
0.0
 10
189.3839789291202
 20
32.96805299171095
 30
0.0
  0
LINE
  5
2D3
330
1F
100
AcDbEntity
  8
0
  6
Continuous
 62
     7
370
    25
100
AcDbLine
 10
190.1942443514
 20
31.3155296934
 30
0.0
 11
190.2252271937
 21
31.5206743933
 31
0.0
  0
LINE
  5
2D4
330
1F
100
AcDbEntity
  8
0
  6
Continuous
 62
     7
370
    25
100
AcDbLine
 10
185.6785390565
 20
34.0453368329
 30
0.0
 11
185.5292706565
 21
34.205439309
 31
0.0
  0
LWPOLYLINE
  5
2D5
330
1F
100
AcDbEntity
  8
0
  6
Continuous
 62
     7
370
    25
100
AcDbPolyline
 90
        9
 70
   128
 43
0.0
 10
184.8964715572
 20
26.0948243103
 10
184.9013347503
 20
26.0692751982
 10
184.929440595
 20
26.0176647597
 10
184.9789904628
 20
25.9758703396
 10
185.045067033
 20
25.9480396093
 10
185.1211128779
 20
25.9369344859
 10
185.1995812203
 20
25.9436570399
 10
185.272684875
 20
25.9675401262
 10
185.3331690474
 20
26.0062135913
  0
LINE
  5
2D6
330
1F
100
AcDbEntity
  8
0
  6
Continuous
 62
     7
370
    25
100
AcDbLine
 10
190.1874041271
 20
31.2702389567
 30
0.0
 11
190.2252271937
 21
31.5206743933
 31
0.0
  0
LINE
  5
2D7
330
1F
100
AcDbEntity
  8
0
  6
Continuous
 62
     7
370
    25
100
AcDbLine
 10
185.2457723621
 20
27.006846925
 30
0.0
 11
190.1874041271
 21
31.2702389567
 31
0.0
  0
LINE
  5
2D8
330
1F
100
AcDbEntity
  8
0
  6
Continuous
 62
     7
370
    25
100
AcDbLine
 10
190.2748008124
 20
30.269605623
 30
0.0
 11
190.1874041271
 21
31.2702389567
 31
0.0
  0
LINE
  5
2D9
330
1F
100
AcDbEntity
  8
0
  6
Continuous
 62
     7
370
    25
100
AcDbLine
 10
185.3331690474
 20
26.0062135913
 30
0.0
 11
190.2748008124
 21
30.269605623
 31
0.0
  0
LINE
  5
2DA
330
1F
100
AcDbEntity
  8
0
  6
Continuous
 62
     7
370
    25
100
AcDbLine
 10
190.2748008124
 20
30.269605623
 30
0.0
 11
190.312623879
 21
30.5200410596
 31
0.0
  0
SPLINE
  5
2DB
330
1F
100
AcDbEntity
  8
0
  6
Continuous
 62
     7
370
    25
100
AcDbSpline
210
0.0
220
0.0
230
1.0
 70
     8
 71
     3
 72
    10
 73
     6
 74
     0
 42
0.000000001
 43
0.00000001
 40
0.0
 40
0.0
 40
0.0
 40
0.0
 40
0.5
 40
0.5
 40
1.0
 40
1.0
 40
1.0
 40
1.0
 10
179.9236386214934
 20
38.82453224118014
 30
0.0
 10
180.0027375419441
 20
38.76917753373267
 30
0.0
 10
180.0499567328147
 20
38.69412515680481
 30
0.0
 10
180.0714626145117
 20
38.53264119793554
 30
0.0
 10
180.0459176718376
 20
38.44998825409288
 30
0.0
 10
179.989216178039
 20
38.37687684830715
 30
0.0
  0
ELLIPSE
  5
2DC
330
1F
100
AcDbEntity
  8
0
  6
Continuous
 62
     7
370
    25
100
AcDbEllipse
 10
231.1194891054
 20
20.1118715727
 30
0.0
 11
129.4932702682624
 21
-84.75092049486051
 31
0.0
210
0.0
220
0.0
230
1.0
 40
0.0851505449
 41
4.359205551154954
 42
4.362272947374214
  0
ELLIPSE
  5
2DD
330
1F
100
AcDbEntity
  8
0
  6
Continuous
 62
     7
370
    25
100
AcDbEllipse
 10
231.1194891054
 20
20.1118715727
 30
0.0
 11
129.4932702682624
 21
-84.75092049486051
 31
0.0
210
0.0
220
0.0
230
1.0
 40
0.0851505449
 41
1.865527292650924
 42
1.865988955217123
  0
LINE
  5
2DE
330
1F
100
AcDbEntity
  8
0
  6
Continuous
 62
     7
370
    25
100
AcDbLine
 10
196.7733842393
 20
38.8364553225
 30
0.0
 11
200.4093798401
 21
55.2814914472
 31
0.0
  0
LINE
  5
2DF
330
1F
100
AcDbEntity
  8
0
  6
Continuous
 62
     7
370
    25
100
AcDbLine
 10
190.0898837157
 20
33.070266292
 30
0.0
 11
196.7733842393
 21
38.8364553225
 31
0.0
  0
LINE
  5
2E0
330
1F
100
AcDbEntity
  8
0
  6
Continuous
 62
     7
370
    25
100
AcDbLine
 10
190.2089192056
 20
33.8584283215
 30
0.0
 11
190.0898837157
 21
33.070266292
 31
0.0
  0
LINE
  5
2E1
330
1F
100
AcDbEntity
  8
0
  6
Continuous
 62
     7
370
    25
100
AcDbLine
 10
185.1213739369
 20
33.7523296982
 30
0.0
 11
185.4608078907
 21
34.0451762887
 31
0.0
  0
ARC
  5
2E2
330
1F
100
AcDbEntity
  8
0
  6
Continuous
 62
     7
370
    25
100
AcDbCircle
 10
181.7233828098
 20
32.016045363
 30
0.0
 40
3.815891375828772
100
AcDbArc
 50
27.0658406947
 51
57.789365707
  0
LINE
  5
2E3
330
1F
100
AcDbEntity
  8
0
  6
Continuous
 62
     7
370
    25
100
AcDbLine
 10
179.6543031935
 20
37.944533278
 30
0.0
 11
183.757380071
 21
35.2446491066
 31
0.0
  0
SPLINE
  5
2E4
330
1F
100
AcDbEntity
  8
0
  6
Continuous
 62
     7
370
    25
100
AcDbSpline
210
0.0
220
0.0
230
1.0
 70
     8
 71
     3
 72
     8
 73
     4
 74
     0
 42
0.000000001
 43
0.00000001
 40
0.0
 40
0.0
 40
0.0
 40
0.0
 40
1.0
 40
1.0
 40
1.0
 40
1.0
 10
179.989216178039
 20
38.37687684830715
 30
0.0
 10
179.877477239828
 20
38.2327996766789
 30
0.0
 10
179.7658433107626
 20
38.08868377666355
 30
0.0
 10
179.6543031934981
 20
37.94453327794996
 30
0.0
  0
LINE
  5
2E5
330
1F
100
AcDbEntity
  8
0
  6
Continuous
 62
     7
370
    25
100
AcDbLine
 10
190.2931592205
 20
30.3911609692
 30
0.0
 11
190.3217277004
 21
30.4158084207
 31
0.0
  0
LINE
  5
2E6
330
1F
100
AcDbEntity
  8
0
  6
Continuous
 62
     7
370
    25
100
AcDbLine
 10
190.3217277004
 20
30.4158084207
 30
0.0
 11
190.0898837157
 21
33.070266292
 31
0.0
  0
LINE
  5
2E7
330
1F
100
AcDbEntity
  8
0
  6
Continuous
 62
     7
370
    25
100
AcDbLine
 10
197.956681221
 20
25.2884998242
 30
0.0
 11
196.7733842393
 21
38.8364553225
 31
0.0
  0
LINE
  5
2E8
330
1F
100
AcDbEntity
  8
0
  6
Continuous
 62
     7
370
    25
100
AcDbLine
 10
194.5632347958
 20
23.0481442964
 30
0.0
 11
197.956681221
 21
25.2884998242
 31
0.0
  0
ELLIPSE
  5
2E9
330
1F
100
AcDbEntity
  8
0
  6
Continuous
 62
     7
370
    25
100
AcDbEllipse
 10
195.4346645525
 20
35.6097315961
 30
0.0
 11
8.105517370436985
 21
13.79536001309537
 31
0.0
210
0.0
220
0.0
230
1.0
 40
0.4942093201
 41
2.772066378818983
 42
3.93069812885674
  0
LINE
  5
2EA
330
1F
100
AcDbEntity
  8
0
  6
Continuous
 62
     7
370
    25
100
AcDbLine
 10
185.2593393875
 20
25.9616797862
 30
0.0
 11
185.4138727888
 21
24.1923761576
 31
0.0
  0
ELLIPSE
  5
2EB
330
1F
100
AcDbEntity
  8
0
  6
Continuous
 62
     7
370
    25
100
AcDbEllipse
 10
192.7977919153
 20
27.4352557294
 30
0.0
 11
0.9851139580618168
 21
1.540097888890362
 31
0.0
210
0.0
220
0.0
230
1.0
 40
0.4056626029
 41
0.0
 42
6.283185307179586
  0
ELLIPSE
  5
2EC
330
1F
100
AcDbEntity
  8
0
  6
Continuous
 62
     7
370
    25
100
AcDbEllipse
 10
176.9475474772
 20
51.3846678145
 30
0.0
 11
-0.746104128997132
 21
17.93477386060238
 31
0.0
210
0.0
220
0.0
230
1.0
 40
0.4444802122
 41
2.401404845694034
 42
2.866866793327973
  0
SPLINE
  5
2ED
330
1F
100
AcDbEntity
  8
0
  6
Continuous
 62
     7
370
    25
100
AcDbSpline
210
0.0
220
0.0
230
1.0
 70
     8
 71
     3
 72
    12
 73
     8
 74
     0
 42
0.000000001
 43
0.00000001
 40
0.0
 40
0.0
 40
0.0
 40
0.0
 40
0.5000000000000028
 40
0.5000000000000028
 40
0.7500000000000013
 40
0.7500000000000013
 40
1.0
 40
1.0
 40
1.0
 40
1.0
 10
172.122133287487
 20
37.91901354977196
 30
0.0
 10
172.098083092141
 20
37.96362381319952
 30
0.0
 10
172.0699936123427
 20
38.0109301235594
 30
0.0
 10
172.0179534497388
 20
38.08252760984794
 30
0.0
 10
171.9986106461643
 20
38.10689647695469
 30
0.0
 10
171.955748872719
 20
38.15227816857058
 30
0.0
 10
171.9318912685344
 20
38.17319444612021
 30
0.0
 10
171.9097317745076
 20
38.18598684972787
 30
0.0
  0
LINE
  5
2EE
330
1F
100
AcDbEntity
  8
0
  6
Continuous
 62
     7
370
    25
100
AcDbLine
 10
171.9097317745
 20
38.1859868497
 30
0.0
 11
170.8686986338
 21
38.7869624897
 31
0.0
  0
SPLINE
  5
2EF
330
1F
100
AcDbEntity
  8
0
  6
Continuous
 62
     7
370
    25
100
AcDbSpline
210
0.0
220
0.0
230
1.0
 70
     8
 71
     3
 72
    12
 73
     8
 74
     0
 42
0.000000001
 43
0.00000001
 40
0.0
 40
0.0
 40
0.0
 40
0.0
 40
0.2500000000000014
 40
0.2500000000000014
 40
0.5000000000000028
 40
0.5000000000000028
 40
1.0
 40
1.0
 40
1.0
 40
1.0
 10
170.8686986338248
 20
38.78696248971791
 30
0.0
 10
170.8463964723367
 20
38.79983725349793
 30
0.0
 10
170.8282794434337
 20
38.80316772190641
 30
0.0
 10
170.8017108293884
 20
38.79774756417386
 30
0.0
 10
170.793111059594
 20
38.78972504776336
 30
0.0
 10
170.774747261003
 20
38.75860332013734
 30
0.0
 10
170.772569823079
 20
38.72906165673516
 30
0.0
 10
170.7749139289563
 20
38.69674673093552
 30
0.0
  0
ELLIPSE
  5
2F0
330
1F
100
AcDbEntity
  8
0
  6
Continuous
 62
     7
370
    25
100
AcDbEllipse
 10
187.0925174953
 20
45.5281012836
 30
0.0
 11
15.90471575942235
 21
8.32220498109897
 31
0.0
210
0.0
220
0.0
230
1.0
 40
0.4445305117
 41
2.950908281021533
 42
3.578705763440486
  0
SPLINE
  5
2F1
330
1F
100
AcDbEntity
  8
0
  6
Continuous
 62
     7
370
    25
100
AcDbSpline
210
0.0
220
0.0
230
1.0
 70
     8
 71
     3
 72
    12
 73
     8
 74
     0
 42
0.000000001
 43
0.00000001
 40
0.0
 40
0.0
 40
0.0
 40
0.0
 40
0.5000000000000028
 40
0.5000000000000028
 40
0.7500000000000013
 40
0.7500000000000013
 40
1.0
 40
1.0
 40
1.0
 40
1.0
 10
184.8499139289562
 20
63.07536177591908
 30
0.0
 10
184.8209813972412
 20
63.06134773284516
 30
0.0
 10
184.7962607160567
 20
63.04453799017767
 30
0.0
 10
184.7785427903736
 20
63.01322408231319
 30
0.0
 10
184.7758768079891
 20
63.00156474720436
 30
0.0
 10
184.7844699809665
 20
62.97597232860801
 30
0.0
 10
184.7965391397979
 20
62.96186358799841
 30
0.0
 10
184.8186986338247
 20
62.94907118439075
 30
0.0
  0
LINE
  5
2F2
330
1F
100
AcDbEntity
  8
0
  6
Continuous
 62
     7
370
    25
100
AcDbLine
 10
184.8186986338
 20
62.9490711844
 30
0.0
 11
185.8597317745
 21
62.3480955444
 31
0.0
  0
SPLINE
  5
2F3
330
1F
100
AcDbEntity
  8
0
  6
Continuous
 62
     7
370
    25
100
AcDbSpline
210
0.0
220
0.0
230
1.0
 70
     8
 71
     3
 72
    12
 73
     8
 74
     0
 42
0.000000001
 43
0.00000001
 40
0.0
 40
0.0
 40
0.0
 40
0.0
 40
0.2499999999999991
 40
0.2499999999999991
 40
0.4999999999999981
 40
0.4999999999999981
 40
1.0
 40
1.0
 40
1.0
 40
1.0
 10
185.8597317745075
 20
62.34809554440072
 30
0.0
 10
185.8820339359956
 20
62.3352207806207
 30
0.0
 10
185.9119137729753
 20
62.32509758016808
 30
0.0
 10
185.9729503147803
 20
62.31061335827791
 30
0.0
 10
186.0031992654392
 20
62.30613400577846
 30
0.0
 10
186.0916013343618
 20
62.29681035674825
 30
0.0
 10
186.1460888927261
 20
62.29614421355947
 30
0.0
 10
186.1971332874869
 20
62.2976285947555
 30
0.0
  0
ELLIPSE
  5
2F4
330
1F
100
AcDbEntity
  8
0
  6
Continuous
 62
     7
370
    25
100
AcDbEllipse
 10
176.9475474772
 20
51.3846678145
 30
0.0
 11
15.90471575942226
 21
8.322204981098992
 31
0.0
210
0.0
220
0.0
230
1.0
 40
0.4445305117
 41
0.2747775750656705
 42
0.7400769945754156
  0
ELLIPSE
  5
2F5
330
1F
100
AcDbEntity
  8
0
  6
Continuous
 62
     7
370
    25
100
AcDbEllipse
 10
187.0925174953
 20
45.5281012836
 30
0.0
 11
-0.7461041289971889
 21
17.93477386060239
 31
0.0
210
0.0
220
0.0
230
1.0
 40
0.4444802122
 41
5.846123912132792
 42
6.473758866427517
  0
SPLINE
  5
2F6
330
1F
100
AcDbEntity
  8
0
  6
Continuous
 62
     7
370
    25
100
AcDbSpline
210
0.0
220
0.0
230
1.0
 70
     8
 71
     3
 72
    12
 73
     8
 74
     0
 42
0.000000001
 43
0.00000001
 40
0.0
 40
0.0
 40
0.0
 40
0.0
 40
0.5000000000000009
 40
0.5000000000000009
 40
0.7500000000000004
 40
0.7500000000000004
 40
1.0
 40
1.0
 40
1.0
 40
1.0
 10
170.7749139289563
 20
46.78815120132374
 30
0.0
 10
170.772555612951
 20
46.72749033430028
 30
0.0
 10
170.7747502631848
 20
46.6661393266178
 30
0.0
 10
170.7931299019456
 20
46.57464658660829
 30
0.0
 10
170.801922538174
 20
46.54431867065401
 30
0.0
 10
170.828063181229
 20
46.49006547617035
 30
0.0
 10
170.8464374601983
 20
46.46555297758964
 30
0.0
 10
170.8686986338247
 20
46.45270187559853
 30
0.0
  0
LINE
  5
2F7
330
1F
100
AcDbEntity
  8
0
  6
Continuous
 62
     7
370
    25
100
AcDbLine
 10
170.8686986338
 20
46.4527018756
 30
0.0
 11
171.9097317745
 21
45.8517262356
 31
0.0
  0
SPLINE
  5
2F8
330
1F
100
AcDbEntity
  8
0
  6
Continuous
 62
     7
370
    25
100
AcDbSpline
210
0.0
220
0.0
230
1.0
 70
     8
 71
     3
 72
    12
 73
     8
 74
     0
 42
0.000000001
 43
0.00000001
 40
0.0
 40
0.0
 40
0.0
 40
0.0
 40
0.2499999999999991
 40
0.2499999999999991
 40
0.4999999999999982
 40
0.4999999999999982
 40
1.0
 40
1.0
 40
1.0
 40
1.0
 10
171.9097317745076
 20
45.85172623560855
 30
0.0
 10
171.9320257747122
 20
45.83885618323718
 30
0.0
 10
171.9557246284811
 20
45.83874823933956
 30
0.0
 10
171.9987726877621
 20
45.85367341580376
 30
0.0
 10
172.0177717151727
 20
45.86769135386045
 30
0.0
 10
172.0700351839219
 20
45.91835793607856
 30
0.0
 10
172.0977427906297
 20
45.96245265658182
 30
0.0
 10
172.122133287487
 20
46.01041802016015
 30
0.0
  0
ELLIPSE
  5
2F9
330
1F
100
AcDbEntity
  8
0
  6
Continuous
 62
     7
370
    25
100
AcDbEllipse
 10
176.9475474772
 20
51.3846678145
 30
0.0
 11
7.874888476696725
 21
13.63996451050153
 31
0.0
210
0.0
220
0.0
230
1.0
 40
0.1059897947
 41
1.105338485463668
 42
2.03609985260733
  0
SPLINE
  5
2FA
330
1F
100
AcDbEntity
  8
0
  6
Continuous
 62
     7
370
    25
100
AcDbSpline
210
0.0
220
0.0
230
1.0
 70
     8
 71
     3
 72
    12
 73
     8
 74
     0
 42
0.000000001
 43
0.00000001
 40
0.0
 40
0.0
 40
0.0
 40
0.0
 40
0.5
 40
0.5
 40
0.75
 40
0.75
 40
1.0
 40
1.0
 40
1.0
 40
1.0
 10
179.1901510435485
 20
58.25258384652819
 30
0.0
 10
179.2194818921948
 20
58.29766874006064
 30
0.0
 10
179.243817700702
 20
58.34369906104479
 30
0.0
 10
179.2615703495738
 20
58.41432629458433
 30
0.0
 10
179.2641379910908
 20
58.43809392984983
 30
0.0
 10
179.2556836578472
 20
58.48213371588414
 30
0.0
 10
179.2436275123064
 20
58.50299764797298
 30
0.0
 10
179.22136633868
 20
58.51584874996409
 30
0.0
  0
LINE
  5
2FB
330
1F
100
AcDbEntity
  8
0
  6
Continuous
 62
     7
370
    25
100
AcDbLine
 10
179.2213663387
 20
58.51584875
 30
0.0
 11
178.180333198
 21
59.11682439
 31
0.0
  0
SPLINE
  5
2FC
330
1F
100
AcDbEntity
  8
0
  6
Continuous
 62
     7
370
    25
100
AcDbSpline
210
0.0
220
0.0
230
1.0
 70
     8
 71
     3
 72
    12
 73
     8
 74
     0
 42
0.000000001
 43
0.00000001
 40
0.0
 40
0.0
 40
0.0
 40
0.0
 40
0.2499999999999995
 40
0.2499999999999995
 40
0.499999999999999
 40
0.499999999999999
 40
1.0
 40
1.0
 40
1.0
 40
1.0
 10
178.1803331979971
 20
59.11682438995409
 30
0.0
 10
178.1580391977925
 20
59.12969444232544
 30
0.0
 10
178.1281722436868
 20
59.13336431229862
 30
0.0
 10
178.067160619536
 20
59.12881265225339
 30
0.0
 10
178.0369216389599
 20
59.12128551040323
 30
0.0
 10
177.9485458808297
 20
59.09147288615722
 30
0.0
 10
177.894304892479
 20
59.06270054025617
 30
0.0
 10
177.8429316850177
 20
59.03031702769179
 30
0.0
  0
ELLIPSE
  5
2FD
330
1F
100
AcDbEntity
  8
0
  6
Continuous
 62
     7
370
    25
100
AcDbEllipse
 10
187.0925174953
 20
45.5281012836
 30
0.0
 11
14.30238360604711
 21
-8.263902107297792
 31
0.0
210
0.0
220
0.0
230
1.0
 40
0.9534948969
 41
2.676532761479943
 42
3.607294128623637
  0
SPLINE
  5
2FE
330
1F
100
AcDbEntity
  8
0
  6
Continuous
 62
     7
370
    25
100
AcDbSpline
210
0.0
220
0.0
230
1.0
 70
     8
 71
     3
 72
    18
 73
    14
 74
     0
 42
0.000000001
 43
0.00000001
 40
0.0
 40
0.0
 40
0.0
 40
0.0
 40
0.2499999999999996
 40
0.2499999999999996
 40
0.499999999999999
 40
0.499999999999999
 40
0.6249999999999993
 40
0.6249999999999993
 40
0.7499999999999997
 40
0.7499999999999997
 40
0.8750000000000001
 40
0.8750000000000001
 40
1.0
 40
1.0
 40
1.0
 40
1.0
 10
200.3512109286611
 20
55.31744821412268
 30
0.0
 10
200.1154312872297
 20
55.46318700631767
 30
0.0
 10
199.8720714066021
 20
55.63038340597207
 30
0.0
 10
199.3675045205146
 20
56.00345377075591
 30
0.0
 10
199.1191127995423
 20
56.1998259588615
 30
0.0
 10
198.7504270174786
 20
56.50171974559396
 30
0.0
 10
198.6303977217176
 20
56.60177053079471
 30
0.0
 10
198.3974694111049
 20
56.79780445776537
 30
0.0
 10
198.2841490311752
 20
56.89413951883087
 30
0.0
 10
198.0630018076066
 20
57.08261124530549
 30
0.0
 10
197.9563995111541
 20
57.1736977411379
 30
0.0
 10
197.7532566537527
 20
57.34645521853117
 30
0.0
 10
197.6561751861892
 20
57.42859236325419
 30
0.0
 10
197.563193991897
 20
57.50630887079387
 30
0.0
  0
ELLIPSE
  5
2FF
330
1F
100
AcDbEntity
  8
0
  6
Continuous
 62
     7
370
    25
100
AcDbEllipse
 10
190.0763515062
 20
43.8055705742
 30
0.0
 11
3.962798420124557
 21
15.52732298782059
 31
0.0
210
0.0
220
0.0
230
1.0
 40
0.730833604
 41
5.946750635263814
 42
8.13462333082228
  0
SPLINE
  5
300
330
1F
100
AcDbEntity
  8
0
  6
Continuous
 62
     7
370
    25
100
AcDbSpline
210
0.0
220
0.0
230
1.0
 70
     8
 71
     3
 72
    20
 73
    16
 74
     0
 42
0.000000001
 43
0.00000001
 40
0.0
 40
0.0
 40
0.0
 40
0.0
 40
0.2500000000000002
 40
0.2500000000000002
 40
0.3750000000000001
 40
0.3750000000000001
 40
0.5000000000000001
 40
0.5000000000000001
 40
0.6250000000000001
 40
0.6250000000000001
 40
0.75
 40
0.75
 40
0.875
 40
0.875
 40
1.0
 40
1.0
 40
1.0
 40
1.0
 10
178.0748299218132
 20
42.28777518600714
 30
0.0
 10
178.0616781121134
 20
41.97670486069934
 30
0.0
 10
178.0857604145185
 20
41.66590690213827
 30
0.0
 10
178.1795418615669
 20
41.19914347531087
 30
0.0
 10
178.2207096051178
 20
41.04364760123903
 30
0.0
 10
178.319776775663
 20
40.7432063569204
 30
0.0
 10
178.3779052847336
 20
40.59686546562924
 30
0.0
 10
178.5111562315063
 20
40.31195810009583
 30
0.0
 10
178.5871533338892
 20
40.17211176072962
 30
0.0
 10
178.7515864320328
 20
39.90900988083045
 30
0.0
 10
178.8399596780101
 20
39.78535694215093
 30
0.0
 10
179.0282940209973
 20
39.55355554706687
 30
0.0
 10
179.1289802584149
 20
39.44473863380615
 30
0.0
 10
179.3386872417425
 20
39.24683250605433
 30
0.0
 10
179.4468990925288
 20
39.15829198482537
 30
0.0
 10
179.5583631188895
 20
39.08023847924252
 30
0.0
  0
ELLIPSE
  5
301
330
1F
100
AcDbEntity
  8
0
  6
Continuous
 62
     7
370
    25
100
AcDbEllipse
 10
197.7709271165
 20
39.3635866246
 30
0.0
 11
1.808230923558853
 21
17.09754209661826
 31
0.0
210
0.0
220
0.0
230
1.0
 40
0.1579378412
 41
4.94734343432376
 42
5.925893144794729
  0
ARC
  5
302
330
1F
100
AcDbEntity
  8
0
  6
Continuous
 62
     7
370
    25
100
AcDbCircle
 10
182.9748671777
 20
59.3552161326
 30
0.0
 40
5.834153596906838
100
AcDbArc
 50
60.7165648472
 51
95.4653038415
  0
ARC
  5
303
330
1F
100
AcDbEntity
  8
0
  6
Continuous
 62
     7
370
    25
100
AcDbCircle
 10
173.1333030475
 20
42.248119288
 30
0.0
 40
5.93121702542279
100
AcDbArc
 50
204.291490665
 51
239.014739952
  0
ELLIPSE
  5
304
330
1F
100
AcDbEntity
  8
0
  6
Continuous
 62
     7
370
    25
100
AcDbEllipse
 10
225.5350004631
 20
18.2331775453
 30
0.0
 11
41.45711404682001
 21
-9.721416883385544
 31
0.0
210
0.0
220
0.0
230
1.0
 40
0.2507981881
 41
3.447032687123405
 42
3.461441806106512
  0
LINE
  5
305
330
1F
100
AcDbEntity
  8
0
  6
Continuous
 62
     7
370
    25
100
AcDbLine
 10
185.2635683178
 20
24.378013231
 30
0.0
 11
185.1274205585
 21
25.9368136107
 31
0.0
  0
LINE
  5
306
330
1F
100
AcDbEntity
  8
0
  6
Continuous
 62
     7
370
    25
100
AcDbLine
 10
185.1213739369
 20
33.7523296982
 30
0.0
 11
185.2295402134
 21
32.5138984982
 31
0.0
  0
SPLINE
  5
307
330
1F
100
AcDbEntity
  8
0
  6
Continuous
 62
     7
370
    25
100
AcDbSpline
210
0.0
220
0.0
230
1.0
 70
     8
 71
     3
 72
    10
 73
     6
 74
     0
 42
0.000000001
 43
0.00000001
 40
0.0
 40
0.0
 40
0.0
 40
0.0
 40
0.19520575502162
 40
0.595448357929032
 40
1.0
 40
1.0
 40
1.0
 40
1.0
 10
185.4361721009746
 20
23.66541698599452
 30
0.0
 10
185.3975439957827
 20
23.69421411408524
 30
0.0
 10
185.2797142637448
 20
23.78205580006826
 30
0.0
 10
185.0463669124543
 20
23.93607074716735
 30
0.0
 10
184.8349057728226
 20
24.06161898454096
 30
0.0
 10
184.7286090991001
 20
24.12472920917978
 30
0.0
  0
LINE
  5
308
330
1F
100
AcDbEntity
  8
0
  6
Continuous
 62
     7
370
    25
100
AcDbLine
 10
184.7286090991
 20
24.1247292092
 30
0.0
 11
182.238189331
 21
25.5624179393
 31
0.0
  0
ELLIPSE
  5
309
330
1F
100
AcDbEntity
  8
0
  6
Continuous
 62
     7
370
    25
100
AcDbEllipse
 10
187.2603112315
 20
40.3286853226
 30
0.0
 11
1.170481773780154
 21
17.76550949092488
 31
0.0
210
0.0
220
0.0
230
1.0
 40
0.1223909633
 41
2.693643939210729
 42
3.081367908896222
  0
SPLINE
  5
30A
330
1F
100
AcDbEntity
  8
0
  6
Continuous
 62
     7
370
    25
100
AcDbSpline
210
0.0
220
0.0
230
1.0
 70
     8
 71
     3
 72
    14
 73
    10
 74
     0
 42
0.000000001
 43
0.00000001
 40
0.0
 40
0.0
 40
0.0
 40
0.0
 40
0.2500000000000002
 40
0.2500000000000002
 40
0.5000000000000002
 40
0.5000000000000002
 40
0.7500000000000003
 40
0.7500000000000003
 40
1.0
 40
1.0
 40
1.0
 40
1.0
 10
179.8991487967012
 20
35.85162051357761
 30
0.0
 10
179.9318425697722
 20
35.6154467634006
 30
0.0
 10
179.9627341172007
 20
35.38037104211024
 30
0.0
 10
180.0293691582837
 20
34.90726348960248
 30
0.0
 10
180.0652370543848
 20
34.66924923861293
 30
0.0
 10
180.1457977635345
 20
34.18818657543278
 30
0.0
 10
180.1904900566158
 20
33.9451362973775
 30
0.0
 10
180.2849645033272
 20
33.45612974286745
 30
0.0
 10
180.3346074558047
 20
33.21026556702038
 30
0.0
 10
180.3824673817179
 20
32.9653873019968
 30
0.0
  0
SPLINE
  5
30B
330
1F
100
AcDbEntity
  8
0
  6
Continuous
 62
     7
370
    25
100
AcDbSpline
210
0.0
220
0.0
230
1.0
 70
     8
 71
     3
 72
     8
 73
     4
 74
     0
 42
0.000000001
 43
0.00000001
 40
0.0
 40
0.0
 40
0.0
 40
0.0
 40
1.0
 40
1.0
 40
1.0
 40
1.0
 10
179.6543031934971
 20
37.94453327795975
 30
0.0
 10
179.7201655356223
 20
37.2569123115804
 30
0.0
 10
179.8011302446638
 20
36.55968834567889
 30
0.0
 10
179.8991487967012
 20
35.85162051357761
 30
0.0
  0
SPLINE
  5
30C
330
1F
100
AcDbEntity
  8
0
  6
Continuous
 62
     7
370
    25
100
AcDbSpline
210
0.0
220
0.0
230
1.0
 70
     8
 71
     3
 72
    10
 73
     6
 74
     0
 42
0.000000001
 43
0.00000001
 40
0.0
 40
0.0
 40
0.0
 40
0.0
 40
0.5
 40
0.5
 40
1.0
 40
1.0
 40
1.0
 40
1.0
 10
180.3824673817179
 20
32.9653873019968
 30
0.0
 10
180.6146302657615
 20
31.77751157585107
 30
0.0
 10
180.8919961902578
 20
30.56089301897734
 30
0.0
 10
181.5199795692211
 20
28.08107814618048
 30
0.0
 10
181.868088625554
 20
26.82574938408055
 30
0.0
 10
182.2381893309562
 20
25.56241793926421
 30
0.0
  0
LINE
  5
30D
330
1F
100
AcDbEntity
  8
0
  6
Continuous
 62
     7
370
    25
100
AcDbLine
 10
197.956681221
 20
25.2884998242
 30
0.0
 11
198.1831708244
 21
26.0609504075
 31
0.0
  0
SPLINE
  5
30E
330
1F
100
AcDbEntity
  8
0
  6
Continuous
 62
     7
370
    25
100
AcDbSpline
210
0.0
220
0.0
230
1.0
 70
     8
 71
     3
 72
    12
 73
     8
 74
     0
 42
0.000000001
 43
0.00000001
 40
0.0
 40
0.0
 40
0.0
 40
0.0
 40
0.2499999999999999
 40
0.2499999999999999
 40
0.4999999999999999
 40
0.4999999999999999
 40
1.0
 40
1.0
 40
1.0
 40
1.0
 10
200.7422185762328
 20
41.37345809177646
 30
0.0
 10
200.74396894149
 20
41.50793556311879
 30
0.0
 10
200.7476658733366
 20
41.64561899562045
 30
0.0
 10
200.7570964708651
 20
41.92434032566134
 30
0.0
 10
200.7628977870245
 20
42.06571902830008
 30
0.0
 10
200.7826117926587
 20
42.49197051832386
 30
0.0
 10
200.7985298255176
 20
42.77790675598429
 30
0.0
 10
200.8180375642086
 20
43.06613050514335
 30
0.0
  0
LINE
  5
30F
330
1F
100
AcDbEntity
  8
0
  6
Continuous
 62
     7
370
    25
100
AcDbLine
 10
200.7389840808
 20
41.4444189597
 30
0.0
 11
200.7422185762
 21
41.3734580918
 31
0.0
  0
ELLIPSE
  5
310
330
1F
100
AcDbEntity
  8
0
  6
Continuous
 62
     7
370
    25
100
AcDbEllipse
 10
197.7709271165
 20
39.3635866246
 30
0.0
 11
1.836933001710576
 21
17.36893165370744
 31
0.0
210
0.0
220
0.0
230
1.0
 40
0.1579378412
 41
3.856837526540589
 42
4.849164475044878
  0
LWPOLYLINE
  5
311
330
1F
100
AcDbEntity
  8
0
  6
Continuous
 62
     7
370
    25
100
AcDbPolyline
 90
       12
 70
   128
 43
0.0
 10
157.3920819243
 20
51.90370777
 10
157.440442598
 20
53.1039591571
 10
157.5850866575
 20
54.3491769273
 10
157.8247041836
 20
55.6280841954
 10
158.157125163
 20
56.9290989792
 10
158.5793391398
 20
58.2404390874
 10
159.0875224789
 20
59.550228821
 10
159.6770729932
 20
60.8466065212
 10
160.342651622
 20
62.1178319908
 10
161.0782307822
 20
63.3523928152
 10
161.877148955
 20
64.5391086203
 10
162.7321710136
 20
65.667232324
  0
LINE
  5
312
330
1F
100
AcDbEntity
  8
0
  6
Continuous
 62
     7
370
    25
100
AcDbLine
 10
170.8686986338
 20
38.7869624897
 30
0.0
 11
171.9113663275
 21
38.1848475689
 31
0.0
  0
LWPOLYLINE
  5
313
330
1F
100
AcDbEntity
  8
0
  6
Continuous
 62
     7
370
    25
100
AcDbPolyline
 90
        9
 70
   128
 43
0.0
 10
167.0132150713
 20
68.1386264535
 10
166.5109776766
 20
68.1346981656
 10
165.9807087775
 20
68.0364401536
 10
165.4314814221
 20
67.8455336393
 10
164.8726930425
 20
67.5652450861
 10
164.3139046629
 20
67.2003703089
 10
163.7646773074
 20
66.7571524163
 10
163.2344084084
 20
66.2431749892
 10
162.7321710136
 20
65.667232324
  0
ARC
  5
314
330
1F
100
AcDbEntity
  8
0
  6
Continuous
 62
     7
370
    25
100
AcDbCircle
 10
160.4630129786
 20
51.6163805045
 30
0.0
 40
3.084343446773473
100
AcDbArc
 50
174.6547638622
 51
232.6759834224
  0
ARC
  5
315
330
1F
100
AcDbEntity
  8
0
  6
Continuous
 62
     7
370
    25
100
AcDbCircle
 10
166.5822200839
 20
62.8134002946
 30
0.0
 40
5.342638891244091
100
AcDbArc
 50
62.0154699427
 51
85.3728752634
  0
LWPOLYLINE
  5
316
330
1F
100
AcDbEntity
  8
0
  6
Continuous
 62
     7
370
    25
100
AcDbPolyline
 90
       12
 70
   128
 43
0.0
 10
157.1679380563
 20
52.3866183531
 10
157.2149122951
 20
53.5524601614
 10
157.3554096056
 20
54.7619792276
 10
157.5881576224
 20
56.0042219595
 10
157.9110485433
 20
57.2679384146
 10
158.3211582183
 20
58.5416841812
 10
158.8147726305
 20
59.8139240201
 10
159.3874215314
 20
61.0731363305
 10
160.033918924
 20
62.3079174907
 10
160.7484100277
 20
63.5070851313
 10
161.5244243004
 20
64.6597794043
 10
162.3549340367
 20
65.7555613321
  0
ARC
  5
317
330
1F
100
AcDbEntity
  8
0
  6
Continuous
 62
     7
370
    25
100
AcDbCircle
 10
167.1342933812
 20
62.2973881982
 30
0.0
 40
5.899257340447935
100
AcDbArc
 50
103.4689958683
 51
144.1118487458
  0
ARC
  5
318
330
1F
100
AcDbEntity
  8
0
  6
Continuous
 62
     7
370
    25
100
AcDbCircle
 10
161.078975713
 20
52.3085186249
 30
0.0
 40
3.91181736787687
100
AcDbArc
 50
178.8560094402
 51
201.1091694604
  0
LWPOLYLINE
  5
319
330
1F
100
AcDbEntity
  8
0
  6
Continuous
 62
     7
370
    18
100
AcDbPolyline
 90
       23
 70
   128
 43
0.0
 10
188.144524492
 20
46.3364028817
 10
188.2486817402
 20
46.0518827887
 10
188.4618014044
 20
45.8047834306
 10
188.7666177968
 20
45.6151233277
 10
189.1384365062
 20
45.4982676137
 10
189.547134992
 20
45.4636832434
 10
189.9596029335
 20
45.514172037
 10
190.3424246312
 20
45.6456436926
 10
190.6645861477
 20
45.8474471585
 10
190.8999878731
 20
46.1032335182
 10
191.0295589594
 20
46.392280482
 10
191.042802328
 20
46.691171184
 10
190.9386450798
 20
46.9756912769
 10
190.7255254156
 20
47.222790635
 10
190.4207090231
 20
47.4124507379
 10
190.0488903137
 20
47.529306452
 10
189.6401918279
 20
47.5638908222
 10
189.2277238864
 20
47.5134020287
 10
188.8449021888
 20
47.3819303731
 10
188.5227406723
 20
47.1801269071
 10
188.2873389469
 20
46.9243405474
 10
188.1577678605
 20
46.6352935836
 10
188.144524492
 20
46.3364028817
  0
LINE
  5
31A
330
1F
100
AcDbEntity
  8
0
  6
Continuous
 62
     7
370
    18
100
AcDbLine
 10
193.1936432476
 20
41.7283125319
 30
0.0
 11
193.4075236599
 21
39.2795254963
 31
0.0
  0
LINE
  5
31B
330
1F
100
AcDbEntity
  8
0
  6
Continuous
 62
     7
370
    18
100
AcDbLine
 10
194.7109694348
 20
45.9834258384
 30
0.0
 11
192.6756280613
 21
46.2687301065
 31
0.0
  0
LINE
  5
31C
330
1F
100
AcDbEntity
  8
0
  6
Continuous
 62
     7
370
    18
100
AcDbLine
 10
189.654871307
 20
35.066798182
 30
0.0
 11
185.7083564831
 21
35.6200014619
 31
0.0
  0
LINE
  5
31D
330
1F
100
AcDbEntity
  8
0
  6
Continuous
 62
     7
370
    18
100
AcDbLine
 10
194.5847212525
 20
45.3832579737
 30
0.0
 11
194.7866091628
 21
43.07177703
 31
0.0
  0
LINE
  5
31E
330
1F
100
AcDbEntity
  8
0
  6
Continuous
 62
     7
370
    18
100
AcDbLine
 10
190.1459118451
 20
31.2344414969
 30
0.0
 11
190.0014645458
 21
32.8882660345
 31
0.0
  0
LINE
  5
31F
330
1F
100
AcDbEntity
  8
0
  6
Continuous
 62
     7
370
    18
100
AcDbLine
 10
185.141429505
 20
26.9168251414
 30
0.0
 11
184.9969822057
 21
28.570649679
 31
0.0
  0
SPLINE
  5
320
330
1F
100
AcDbEntity
  8
0
  6
Continuous
 62
     7
370
    18
100
AcDbSpline
210
0.0
220
0.0
230
1.0
 70
     8
 71
     3
 72
    15
 73
    11
 74
     0
 42
0.000000001
 43
0.00000001
 40
0.0
 40
0.0
 40
0.0
 40
0.0
 40
0.1026973776665509
 40
0.2060064608597269
 40
0.3111362641184918
 40
0.4168430273274569
 40
0.5602000121708992
 40
0.7046545152371365
 40
0.8519537505688807
 40
1.0
 40
1.0
 40
1.0
 40
1.0
 10
187.490708115457
 20
30.94671988868375
 30
0.0
 10
187.4606737730262
 20
30.92137821849499
 30
0.0
 10
187.4004261919388
 20
30.87054393327292
 30
0.0
 10
187.3017699881321
 20
30.79468920443774
 30
0.0
 10
187.1973203866529
 20
30.71933609862513
 30
0.0
 10
187.0742750546149
 20
30.63624325016298
 30
0.0
 10
186.9320216711091
 20
30.54671792743613
 30
0.0
 10
186.7694891591391
 20
30.45188363497695
 30
0.0
 10
186.6015822356627
 20
30.36004804142662
 30
0.0
 10
186.4868954553875
 20
30.30203783217968
 30
0.0
 10
186.4294070272414
 20
30.27295936526281
 30
0.0
  0
LINE
  5
321
330
1F
100
AcDbEntity
  8
0
  6
Continuous
 62
     7
370
    18
100
AcDbLine
 10
189.4896331533
 20
32.6712921522
 30
0.0
 11
187.4907081155
 21
30.9467198887
 31
0.0
  0
LINE
  5
322
330
1F
100
AcDbEntity
  8
0
  6
Continuous
 62
     7
370
    18
100
AcDbLine
 10
189.7034540502
 20
32.8771013536
 30
0.0
 11
189.4896331533
 21
32.6712921522
 31
0.0
  0
LINE
  5
323
330
1F
100
AcDbEntity
  8
0
  6
Continuous
 62
     7
370
    18
100
AcDbLine
 10
185.7724191556
 20
33.6896600174
 30
0.0
 11
185.8448254747
 21
33.9342111535
 31
0.0
  0
LINE
  5
324
330
1F
100
AcDbEntity
  8
0
  6
Continuous
 62
     7
370
    18
100
AcDbLine
 10
185.4428856885
 20
31.5077412759
 30
0.0
 11
185.7724191556
 21
33.6896600174
 31
0.0
  0
SPLINE
  5
325
330
1F
100
AcDbEntity
  8
0
  6
Continuous
 62
     7
370
    18
100
AcDbSpline
210
0.0
220
0.0
230
1.0
 70
     8
 71
     3
 72
    15
 73
    11
 74
     0
 42
0.000000001
 43
0.00000001
 40
0.0
 40
0.0
 40
0.0
 40
0.0
 40
0.0718911292648248
 40
0.2160333257984723
 40
0.3617100722627268
 40
0.5091538344438651
 40
0.5832554914918359
 40
0.686056915551008
 40
0.8942914744514285
 40
1.0
 40
1.0
 40
1.0
 40
1.0
 10
185.6891695086107
 20
30.47575481962761
 30
0.0
 10
185.6762078145265
 20
30.50098108405271
 30
0.0
 10
185.6372578368364
 20
30.57678617790721
 30
0.0
 10
185.5790627027928
 20
30.70445692216184
 30
0.0
 10
185.5196551771378
 20
30.85906263096479
 30
0.0
 10
185.481091395316
 20
30.98843643617299
 30
0.0
 10
185.4555427169646
 20
31.10159614672329
 30
0.0
 10
185.4339912176587
 20
31.23442204404356
 30
0.0
 10
185.4269768025735
 20
31.37491947121632
 30
0.0
 10
185.4388783051191
 20
31.47428400607905
 30
0.0
 10
185.4428856884577
 20
31.50774127585962
 30
0.0
  0
SPLINE
  5
326
330
1F
100
AcDbEntity
  8
0
  6
Continuous
 62
     7
370
    18
100
AcDbSpline
210
0.0
220
0.0
230
1.0
 70
     8
 71
     3
 72
    15
 73
    11
 74
     0
 42
0.000000001
 43
0.00000001
 40
0.0
 40
0.0
 40
0.0
 40
0.0
 40
0.0737337478158382
 40
0.2215435444352471
 40
0.3707976802038721
 40
0.5217083386341601
 40
0.5975191244814075
 40
0.6970212932370902
 40
0.8981476989773695
 40
1.0
 40
1.0
 40
1.0
 40
1.0
 10
186.339457642912
 20
30.47401516389687
 30
0.0
 10
186.3634090477824
 20
30.48798632168152
 30
0.0
 10
186.4353744542128
 20
30.5299646546317
 30
0.0
 10
186.5542676793827
 20
30.60295168653071
 30
0.0
 10
186.6949954419045
 20
30.69450491811939
 30
0.0
 10
186.8097468106928
 20
30.77403953748652
 30
0.0
 10
186.9064699044168
 20
30.84425719412826
 30
0.0
 10
187.0151435666272
 20
30.92604778059084
 30
0.0
 10
187.1260590353592
 20
31.01434367653932
 30
0.0
 10
187.2023556191041
 20
31.07936891421924
 30
0.0
 10
187.2280042288616
 20
31.10122843746101
 30
0.0
  0
ARC
  5
327
330
1F
100
AcDbEntity
  8
0
  6
Continuous
 62
     7
370
    18
100
AcDbCircle
 10
187.5691407015
 20
31.3806612955
 30
0.0
 40
0.4409725785936768
100
AcDbArc
 50
219.3217068038
 51
259.754705537
  0
SPLINE
  5
328
330
1F
100
AcDbEntity
  8
0
  6
Continuous
 62
     7
370
    18
100
AcDbSpline
210
0.0
220
0.0
230
1.0
 70
     8
 71
     3
 72
    15
 73
    11
 74
     0
 42
0.000000001
 43
0.00000001
 40
0.0
 40
0.0
 40
0.0
 40
0.0
 40
0.0994171454697025
 40
0.3006185124713536
 40
0.4024805795567262
 40
0.4759726912133422
 40
0.6235920980928279
 40
0.7730580820658268
 40
0.9242073560621158
 40
1.0
 40
1.0
 40
1.0
 40
1.0
 10
185.7901714609684
 20
31.49513707101002
 30
0.0
 10
185.7867477041093
 20
31.46788488180452
 30
0.0
 10
185.7763949154712
 20
31.38547945221952
 30
0.0
 10
185.777854847569
 20
31.26643777711286
 30
0.0
 10
185.7900760016747
 20
31.15149104876569
 30
0.0
 10
185.8061695826961
 20
31.05133039234164
 30
0.0
 10
185.8322255785642
 20
30.93478741227415
 30
0.0
 10
185.8750791519765
 20
30.79277381122766
 30
0.0
 10
185.9191747318954
 20
30.67346834216223
 30
0.0
 10
185.9497042016852
 20
30.60190048619328
 30
0.0
 10
185.9599002432736
 20
30.57799870077512
 30
0.0
  0
LINE
  5
329
330
1F
100
AcDbEntity
  8
0
  6
Continuous
 62
     7
370
    18
100
AcDbLine
 10
185.790171461
 20
31.495137071
 30
0.0
 11
186.1012629037
 21
31.6138204411
 31
0.0
  0
LINE
  5
32A
330
1F
100
AcDbEntity
  8
0
  6
Continuous
 62
     7
370
    18
100
AcDbLine
 10
187.2280042289
 20
31.1012284375
 30
0.0
 11
186.9726767025
 21
31.375087936
 31
0.0
  0
ARC
  5
32B
330
1F
100
AcDbEntity
  8
0
  6
Continuous
 62
     7
370
    18
100
AcDbCircle
 10
185.6326947411
 20
31.9468682703
 30
0.0
 40
0.4783931371800489
100
AcDbArc
 50
246.6239801971
 51
289.2189194209
  0
LINE
  5
32C
330
1F
100
AcDbEntity
  8
0
  6
Continuous
 62
     7
370
    18
100
AcDbLine
 10
187.2280042289
 20
31.1012284375
 30
0.0
 11
189.2269292667
 21
32.8258007009
 31
0.0
  0
SPLINE
  5
32D
330
1F
100
AcDbEntity
  8
0
  6
Continuous
 62
     7
370
    18
100
AcDbSpline
210
0.0
220
0.0
230
1.0
 70
     8
 71
     3
 72
    10
 73
     6
 74
     0
 42
0.000000001
 43
0.00000001
 40
0.0
 40
0.0
 40
0.0
 40
0.0
 40
0.2765306019330262
 40
0.562668270406267
 40
1.0
 40
1.0
 40
1.0
 40
1.0
 10
189.2269292667241
 20
32.82580070094829
 30
0.0
 10
189.2507237012532
 20
32.8024032110993
 30
0.0
 10
189.2991392228201
 20
32.75479536931562
 30
0.0
 10
189.3935517114609
 20
32.69193279565498
 30
0.0
 10
189.4534344779835
 20
32.67906851290988
 30
0.0
 10
189.4896331533196
 20
32.67129215217103
 30
0.0
  0
LINE
  5
32E
330
1F
100
AcDbEntity
  8
0
  6
Continuous
 62
     7
370
    18
100
AcDbLine
 10
189.2269292667
 20
32.8258007009
 30
0.0
 11
189.1753927125
 21
32.8810778389
 31
0.0
  0
LINE
  5
32F
330
1F
100
AcDbEntity
  8
0
  6
Continuous
 62
     7
370
    18
100
AcDbLine
 10
186.0701490294
 20
33.3489345291
 30
0.0
 11
185.790171461
 21
31.495137071
 31
0.0
  0
SPLINE
  5
330
330
1F
100
AcDbEntity
  8
0
  6
Continuous
 62
     7
370
    18
100
AcDbSpline
210
0.0
220
0.0
230
1.0
 70
     8
 71
     3
 72
    10
 73
     6
 74
     0
 42
0.000000001
 43
0.00000001
 40
0.0
 40
0.0
 40
0.0
 40
0.0
 40
0.438103304992956
 40
0.8914269421051425
 40
0.9999999999999999
 40
0.9999999999999999
 40
0.9999999999999999
 40
0.9999999999999999
 10
185.7724191556244
 20
33.68966001743183
 30
0.0
 10
185.8034478945348
 20
33.67907030781377
 30
0.0
 10
185.8665833548908
 20
33.65752298699918
 30
0.0
 10
185.9469502346448
 20
33.64488276187237
 30
0.0
 10
185.986757617363
 20
33.65305432739986
 30
0.0
 10
185.9944494391995
 20
33.6546332864238
 30
0.0
  0
LINE
  5
331
330
1F
100
AcDbEntity
  8
0
  6
Continuous
 62
     7
370
    18
100
AcDbLine
 10
190.1942443514
 20
31.3155296934
 30
0.0
 11
190.049797052
 21
32.969354231
 31
0.0
  0
LINE
  5
332
330
1F
100
AcDbEntity
  8
0
  6
Continuous
 62
     7
370
    18
100
AcDbLine
 10
189.2269292667
 20
32.8258007009
 30
0.0
 11
189.3839789291
 21
32.9680529917
 31
0.0
  0
LINE
  5
333
330
1F
100
AcDbEntity
  8
0
  6
Continuous
 62
     7
370
    18
100
AcDbLine
 10
189.7735866275
 20
33.1476853068
 30
0.0
 11
189.7034540502
 21
32.8771013536
 31
0.0
  0
LINE
  5
334
330
1F
100
AcDbEntity
  8
0
  6
Continuous
 62
     7
370
    18
100
AcDbLine
 10
189.8341384855
 20
33.548613428
 30
0.0
 11
189.7735866275
 21
33.1476853068
 31
0.0
  0
LINE
  5
335
330
1F
100
AcDbEntity
  8
0
  6
Continuous
 62
     7
370
    18
100
AcDbLine
 10
189.3839789291
 20
32.9680529917
 30
0.0
 11
189.426300855
 21
33.1602895116
 31
0.0
  0
SPLINE
  5
336
330
1F
100
AcDbEntity
  8
0
  6
Continuous
 62
     7
370
    18
100
AcDbSpline
210
0.0
220
0.0
230
1.0
 70
     8
 71
     3
 72
    10
 73
     6
 74
     0
 42
0.000000001
 43
0.00000001
 40
0.0
 40
0.0
 40
0.0
 40
0.0
 40
0.276530601933016
 40
0.5626682704062549
 40
1.0
 40
1.0
 40
1.0
 40
1.0
 10
189.7735866274637
 20
33.14768530678532
 30
0.0
 10
189.7441413773024
 20
33.13887335978615
 30
0.0
 10
189.6842279070966
 20
33.12094332621201
 30
0.0
 10
189.5609856815477
 20
33.11770943327588
 30
0.0
 10
189.4770433523207
 20
33.14424747060717
 30
0.0
 10
189.426300854953
 20
33.16028951163492
 30
0.0
  0
LINE
  5
337
330
1F
100
AcDbEntity
  8
0
  6
Continuous
 62
     7
370
    18
100
AcDbLine
 10
185.2457723621
 20
27.006846925
 30
0.0
 11
185.3331690474
 21
26.0062135913
 31
0.0
  0
LINE
  5
338
330
1F
100
AcDbEntity
  8
0
  6
Continuous
 62
     7
370
    18
100
AcDbLine
 10
200.3512109287
 20
55.3174482141
 30
0.0
 11
191.1550904705
 21
48.1361646308
 31
0.0
  0
LINE
  5
339
330
1F
100
AcDbEntity
  8
0
  6
Continuous
 62
     7
370
    18
100
AcDbLine
 10
186.2717100778
 20
44.3227152959
 30
0.0
 11
179.5583631189
 21
39.0802384792
 31
0.0
  0
LINE
  5
33A
330
1F
100
AcDbEntity
  8
0
  6
Continuous
 62
     7
370
    18
100
AcDbLine
 10
179.9236386215
 20
38.8245322412
 30
0.0
 11
179.8637297307
 21
38.2394567273
 31
0.0
  0
ARC
  5
33B
330
1F
100
AcDbEntity
  8
0
  6
Continuous
 62
     7
370
    18
100
AcDbCircle
 10
191.7919440859
 20
36.7527340857
 30
0.0
 40
11.98590353013636
100
AcDbArc
 50
180.8908502362
 51
194.4335510185
  0
LWPOLYLINE
  5
33C
330
1F
100
AcDbEntity
  8
0
  6
Continuous
 62
     7
370
    18
100
AcDbPolyline
 90
       25
 70
   128
 43
0.0
 10
166.8172366907
 20
44.3743439899
 10
166.858463664
 20
45.5036956383
 10
166.9818393539
 20
46.6722856123
 10
167.1864503298
 20
47.8714620807
 10
167.4707817237
 20
49.0923467605
 10
167.8327284454
 20
50.3259006487
 10
168.2696107681
 20
51.5629909438
 10
168.7781941678
 20
52.7944586622
 10
169.3547132711
 20
54.0111864476
 10
169.9948997322
 20
55.2041660733
 10
170.6940138344
 20
56.3645651355
 10
171.4468795817
 20
57.4837924456
 10
172.2479230194
 20
58.5535616361
 10
173.0912135021
 20
59.5659525101
 10
173.9705076022
 20
60.51346968
 10
174.8792953338
 20
61.38909806
 10
175.8108483505
 20
62.186354804
 10
176.7582697596
 20
62.899337302
 10
177.7145451846
 20
63.522766881
 10
178.6725946967
 20
64.0520278866
 10
179.6253252326
 20
64.4832018554
 10
180.5656831086
 20
64.8130965262
 10
181.4867062442
 20
65.0392694744
 10
182.3815757061
 20
65.1600461944
 10
182.4192051161
 20
65.1628479964
  0
ARC
  5
33D
330
1F
100
AcDbEntity
  8
0
  6
Continuous
 62
     7
370
    18
100
AcDbCircle
 10
177.4964175062
 20
44.1287656657
 30
0.0
 40
10.68200410044937
100
AcDbArc
 50
178.6826590638
 51
203.8583545571
  0
LINE
  5
33E
330
1F
100
AcDbEntity
  8
0
  6
Continuous
 62
     7
370
    18
100
AcDbLine
 10
184.7286090991
 20
24.1247292092
 30
0.0
 11
183.757380071
 21
35.2446491066
 31
0.0
  0
LINE
  5
33F
330
1F
100
AcDbEntity
  8
0
  6
Continuous
 62
     7
370
    18
100
AcDbLine
 10
197.5631939919
 20
57.5063088708
 30
0.0
 11
178.0748299218
 21
42.287775186
 31
0.0
  0
LINE
  5
340
330
1F
100
AcDbEntity
  8
0
  6
Continuous
 62
     7
370
    18
100
AcDbLine
 10
179.2213663387
 20
58.51584875
 30
0.0
 11
177.867890349
 21
56.1715595759
 31
0.0
  0
LINE
  5
341
330
1F
100
AcDbEntity
  8
0
  6
Continuous
 62
     7
370
    18
100
AcDbLine
 10
173.2632981201
 20
48.1961719107
 30
0.0
 11
171.9097317745
 21
45.8517262356
 31
0.0
  0
LINE
  5
342
330
1F
100
AcDbEntity
  8
0
  6
Continuous
 62
     7
370
    18
100
AcDbLine
 10
178.180333198
 20
59.11682439
 30
0.0
 11
170.8686986338
 21
46.4527018756
 31
0.0
  0
LINE
  5
343
330
1F
100
AcDbEntity
  8
0
  6
Continuous
 62
     7
370
    18
100
AcDbLine
 10
177.842931685
 20
59.0303170277
 30
0.0
 11
170.774913929
 21
46.7881512013
 31
0.0
  0
LINE
  5
344
330
1F
100
AcDbEntity
  8
0
  6
Continuous
 62
     7
370
    18
100
AcDbLine
 10
162.7321710136
 20
65.667232324
 30
0.0
 11
173.1458197015
 21
59.7675751562
 31
0.0
  0
LINE
  5
345
330
1F
100
AcDbEntity
  8
0
  6
Continuous
 62
     7
370
    18
100
AcDbLine
 10
157.3920819243
 20
51.90370777
 30
0.0
 11
166.8361760031
 21
46.1707441061
 31
0.0
  0
LINE
  5
346
330
1F
100
AcDbEntity
  8
0
  6
Continuous
 62
     7
370
    18
100
AcDbLine
 10
170.774913929
 20
38.6967467309
 30
0.0
 11
172.1223312185
 21
37.9186464219
 31
0.0
  0
LINE
  5
347
330
1F
100
AcDbEntity
  8
0
  6
Continuous
 62
     7
370
    18
100
AcDbLine
 10
186.1967086139
 20
62.2976210057
 30
0.0
 11
184.849913929
 21
63.0753617759
 31
0.0
  0
LINE
  5
348
330
1F
100
AcDbEntity
  8
0
  6
Continuous
 62
     7
370
    18
100
AcDbLine
 10
167.0132150713
 20
68.1386264535
 30
0.0
 11
176.6818062641
 21
62.9354642539
 31
0.0
  0
LINE
  5
349
330
1F
100
AcDbEntity
  8
0
  6
Continuous
 62
     7
370
    18
100
AcDbLine
 10
162.3549340367
 20
65.7555613321
 30
0.0
 11
162.7321710136
 21
65.667232324
 31
0.0
  0
LINE
  5
34A
330
1F
100
AcDbEntity
  8
0
  6
Continuous
 62
     7
370
    18
100
AcDbLine
 10
157.1679380563
 20
52.3866183531
 30
0.0
 11
157.3920819243
 21
51.90370777
 31
0.0
  0
OLE2FRAME
  5
34B
330
1F
100
AcDbEntity
  8
0
100
AcDbOle2Frame
 70
     2
  3
Paintbrush-Bild
 10
13.8511154363
 20
38.264191557
 30
0.0
 11
51.6290888628
 21
31.9806341108
 31
0.0
 71
     2
 72
     0
 73
     1
 90
    12928
310
80552BED0767C5B32B40DDAF6807D121434000000000000000006FFBDDFB85D0
310
4940DDAF6807D121434000000000000000006FFBDDFB85D04940416F4BD60AFB
310
3F4000000000000000002BED0767C5B32B40416F4BD60AFB3F40000000000000
310
0000000000000100000000010000010000000100000000000100000000320000
310
D0CF11E0A1B11AE1000000000000000000000000000000003E000300FEFF0900
310
0600000000000000000000000100000001000000000000000010000002000000
310
01000000FEFFFFFF0000000000000000FFFFFFFFFFFFFFFFFFFFFFFFFFFFFFFF
310
FFFFFFFFFFFFFFFFFFFFFFFFFFFFFFFFFFFFFFFFFFFFFFFFFFFFFFFFFFFFFFFF
310
FFFFFFFFFFFFFFFFFFFFFFFFFFFFFFFFFFFFFFFFFFFFFFFFFFFFFFFFFFFFFFFF
310
FFFFFFFFFFFFFFFFFFFFFFFFFFFFFFFFFFFFFFFFFFFFFFFFFFFFFFFFFFFFFFFF
310
FFFFFFFFFFFFFFFFFFFFFFFFFFFFFFFFFFFFFFFFFFFFFFFFFFFFFFFFFFFFFFFF
310
FFFFFFFFFFFFFFFFFFFFFFFFFFFFFFFFFFFFFFFFFFFFFFFFFFFFFFFFFFFFFFFF
310
FFFFFFFFFFFFFFFFFFFFFFFFFFFFFFFFFFFFFFFFFFFFFFFFFFFFFFFFFFFFFFFF
310
FFFFFFFFFFFFFFFFFFFFFFFFFFFFFFFFFFFFFFFFFFFFFFFFFFFFFFFFFFFFFFFF
310
FFFFFFFFFFFFFFFFFFFFFFFFFFFFFFFFFFFFFFFFFFFFFFFFFFFFFFFFFFFFFFFF
310
FFFFFFFFFFFFFFFFFFFFFFFFFFFFFFFFFFFFFFFFFFFFFFFFFFFFFFFFFFFFFFFF
310
FFFFFFFFFFFFFFFFFFFFFFFFFFFFFFFFFFFFFFFFFFFFFFFFFFFFFFFFFFFFFFFF
310
FFFFFFFFFFFFFFFFFFFFFFFFFFFFFFFFFFFFFFFFFFFFFFFFFFFFFFFFFFFFFFFF
310
FFFFFFFFFFFFFFFFFFFFFFFFFFFFFFFFFFFFFFFFFFFFFFFFFFFFFFFFFFFFFFFF
310
FFFFFFFFFFFFFFFFFFFFFFFFFFFFFFFFFFFFFFFFFFFFFFFFFFFFFFFFFFFFFFFF
310
FDFFFFFFFEFFFFFFFEFFFFFFFEFFFFFF05000000060000000700000008000000
310
090000000A0000000B0000000C0000000D0000000E0000000F00000010000000
310
11000000120000001300000014000000150000001600000017000000FEFFFFFF
310
FFFFFFFFFFFFFFFFFFFFFFFFFFFFFFFFFFFFFFFFFFFFFFFFFFFFFFFFFFFFFFFF
310
FFFFFFFFFFFFFFFFFFFFFFFFFFFFFFFFFFFFFFFFFFFFFFFFFFFFFFFFFFFFFFFF
310
FFFFFFFFFFFFFFFFFFFFFFFFFFFFFFFFFFFFFFFFFFFFFFFFFFFFFFFFFFFFFFFF
310
FFFFFFFFFFFFFFFFFFFFFFFFFFFFFFFFFFFFFFFFFFFFFFFFFFFFFFFFFFFFFFFF
310
FFFFFFFFFFFFFFFFFFFFFFFFFFFFFFFFFFFFFFFFFFFFFFFFFFFFFFFFFFFFFFFF
310
FFFFFFFFFFFFFFFFFFFFFFFFFFFFFFFFFFFFFFFFFFFFFFFFFFFFFFFFFFFFFFFF
310
FFFFFFFFFFFFFFFFFFFFFFFFFFFFFFFFFFFFFFFFFFFFFFFFFFFFFFFFFFFFFFFF
310
FFFFFFFFFFFFFFFFFFFFFFFFFFFFFFFFFFFFFFFFFFFFFFFFFFFFFFFFFFFFFFFF
310
FFFFFFFFFFFFFFFFFFFFFFFFFFFFFFFFFFFFFFFFFFFFFFFFFFFFFFFFFFFFFFFF
310
FFFFFFFFFFFFFFFFFFFFFFFFFFFFFFFFFFFFFFFFFFFFFFFFFFFFFFFFFFFFFFFF
310
FFFFFFFFFFFFFFFFFFFFFFFFFFFFFFFFFFFFFFFFFFFFFFFFFFFFFFFFFFFFFFFF
310
FFFFFFFFFFFFFFFFFFFFFFFFFFFFFFFFFFFFFFFFFFFFFFFFFFFFFFFFFFFFFFFF
310
FFFFFFFFFFFFFFFFFFFFFFFFFFFFFFFFFFFFFFFFFFFFFFFFFFFFFFFFFFFFFFFF
310
52006F006F007400200045006E00740072007900000000000000000000000000
310
0000000000000000000000000000000000000000000000000000000000000000
310
16000500FFFFFFFFFFFFFFFF020000000A00030000000000C000000000000046
310
000000000000000000000000F0BBA7B521A0D30103000000C000000000000000
310
01004F006C006500000000000000000000000000000000000000000000000000
310
0000000000000000000000000000000000000000000000000000000000000000
310
0A000200FFFFFFFFFFFFFFFFFFFFFFFF00000000000000000000000000000000
310
0000000000000000000000000000000000000000000000001400000000000000
310
010043006F006D0070004F0062006A0000000000000000000000000000000000
310
0000000000000000000000000000000000000000000000000000000000000000
310
120002010100000003000000FFFFFFFF00000000000000000000000000000000
310
0000000000000000000000000000000000000000010000004D00000000000000
310
01004F006C006500310030004E00610074006900760065000000000000000000
310
0000000000000000000000000000000000000000000000000000000000000000
310
1A000200FFFFFFFFFFFFFFFFFFFFFFFF00000000000000000000000000000000
310
0000000000000000000000000000000000000000040000002426000000000000
310
FEFFFFFF02000000FEFFFFFFFFFFFFFFFFFFFFFFFFFFFFFFFFFFFFFFFFFFFFFF
310
FFFFFFFFFFFFFFFFFFFFFFFFFFFFFFFFFFFFFFFFFFFFFFFFFFFFFFFFFFFFFFFF
310
FFFFFFFFFFFFFFFFFFFFFFFFFFFFFFFFFFFFFFFFFFFFFFFFFFFFFFFFFFFFFFFF
310
FFFFFFFFFFFFFFFFFFFFFFFFFFFFFFFFFFFFFFFFFFFFFFFFFFFFFFFFFFFFFFFF
310
FFFFFFFFFFFFFFFFFFFFFFFFFFFFFFFFFFFFFFFFFFFFFFFFFFFFFFFFFFFFFFFF
310
FFFFFFFFFFFFFFFFFFFFFFFFFFFFFFFFFFFFFFFFFFFFFFFFFFFFFFFFFFFFFFFF
310
FFFFFFFFFFFFFFFFFFFFFFFFFFFFFFFFFFFFFFFFFFFFFFFFFFFFFFFFFFFFFFFF
310
FFFFFFFFFFFFFFFFFFFFFFFFFFFFFFFFFFFFFFFFFFFFFFFFFFFFFFFFFFFFFFFF
310
FFFFFFFFFFFFFFFFFFFFFFFFFFFFFFFFFFFFFFFFFFFFFFFFFFFFFFFFFFFFFFFF
310
FFFFFFFFFFFFFFFFFFFFFFFFFFFFFFFFFFFFFFFFFFFFFFFFFFFFFFFFFFFFFFFF
310
FFFFFFFFFFFFFFFFFFFFFFFFFFFFFFFFFFFFFFFFFFFFFFFFFFFFFFFFFFFFFFFF
310
FFFFFFFFFFFFFFFFFFFFFFFFFFFFFFFFFFFFFFFFFFFFFFFFFFFFFFFFFFFFFFFF
310
FFFFFFFFFFFFFFFFFFFFFFFFFFFFFFFFFFFFFFFFFFFFFFFFFFFFFFFFFFFFFFFF
310
FFFFFFFFFFFFFFFFFFFFFFFFFFFFFFFFFFFFFFFFFFFFFFFFFFFFFFFFFFFFFFFF
310
FFFFFFFFFFFFFFFFFFFFFFFFFFFFFFFFFFFFFFFFFFFFFFFFFFFFFFFFFFFFFFFF
310
FFFFFFFFFFFFFFFFFFFFFFFFFFFFFFFFFFFFFFFFFFFFFFFFFFFFFFFFFFFFFFFF
310
0100000200000000000000000000000000000000000000000000000000000000
310
0000000000000000000000000000000000000000000000000000000000000000
310
0100FEFF030A0000FFFFFFFF0A00030000000000C00000000000004607000000
310
5042727573680007000000504272757368000700000050427275736800F439B2
310
7100000000000000000000000000000000000000000000000000000000000000
310
0000000000000000000000000000000000000000000000000000000000000000
310
0000000000000000000000000000000000000000000000000000000000000000
310
0000000000000000000000000000000000000000000000000000000000000000
310
0000000000000000000000000000000000000000000000000000000000000000
310
0000000000000000000000000000000000000000000000000000000000000000
310
0000000000000000000000000000000000000000000000000000000000000000
310
0000000000000000000000000000000000000000000000000000000000000000
310
0000000000000000000000000000000000000000000000000000000000000000
310
0000000000000000000000000000000000000000000000000000000000000000
310
0000000000000000000000000000000000000000000000000000000000000000
310
0000000000000000000000000000000000000000000000000000000000000000
310
20260000424D0E260000000000003E00000028000000B40200006E0000000100
310
01000000000000000000130B0000130B00000200000002000000000000FFFFFF
310
FFFFFFFFFFFFFFFFFFFFFFFFFFFFFFFFFFFFFFFFFFFFFFFFFFFFFFFFFFFFFFFF
310
FFFFFFFFFFFFFFFFFFFFFFFFFFFFFFFFFFFFFFFFFFFFFFFFFFFFFFFFFFFFFFFF
310
FFFFFFFFFFFFFFFFFFFFFFFFFFFFFFFFFFFFFFFFFFFFFFFFF000FFFFFFFFFFFF
310
FFFFFFFFFFFFFFFFFFFFFFFFFFFFFFFFFFFFFFFFFFFFFFFFFFFFFFFFFFFFFFFF
310
FFFFFFFFFFFFFFFFFFFFFFFFFFFFFFFFFFFFFFFFFFFFFFFFFFFFFFFFFFFFFFFF
310
FFFFFFFFFFFFFFFFFFFFFFFFFFFFFFFFF000FFFFFFFFFFFFFFFFFFFFFFFFFFFF
310
FFFFFFFFFFFFFFFFFFFFFFFFFFFFFFFFFFFFFFFFFFFFFFFFFFFFFFFFFFFFFFFF
310
FFFFFFFFFFFFFFFFFFFFFFFFFFFFFFFFFFFFFFFFFFFFFFFFFFFFFFFFFFFFFFFF
310
FFFFFFFFFFFFFFFFF000FFFFFFFFFFFFFFFFFFFFFFFFFFFFFFFFFFFFFFFFFFFF
310
FFFFFFFFFFFFFFFFFFFFFFFFFFFFFFFFFFFFFFFFFFFFFFFFFFFFFFFFFFFFFFFF
310
FFFFFFFFFFFFFFFFFFFFFFFFFFFFFFFFFFFFFFFFFFFFFFFFFFFFFFFFFFFFFFFF
310
F000FFFFFFFFFFFFFFFFFFFFFFFFFFFFFFFFFFFFFFFFFFFFFFFFFFFFFFFFFFFF
310
FFFFFFFFFFFFFFFFFFFFFFFFFFFFFFFFFFFFFFFFFFFFFFFFFFFFFFFFFFFFFFFF
310
FFFFFFFFFFFFFFFFFFFFFFFFFFFFFFFFFFFFFFFFFFFFFFFFF000FFFFFFFFFFFF
310
FFFFFFFFFFFFFFFFFFFFFFFFFFFFFFFFFFFFFFFFFFFFFFFFFFFFFFFFFFFFFFFF
310
FFFFFFFFFFFFFFFFFFFFFFFFFFFFFFFFFFFFFFFFFFFFFFFFFFFFFFFFFFFFFFFF
310
FFFFFFFFFFFFFFFFFFFFFFFFFFFFFFFFF000FFFFFFFFFFFFFFFFFFFFFFFFFFFF
310
FFFFFFFFFFFFFFFFFFFFFFFFFFFFFFFFFFFFFFFFFFFFFFFFFFFFFFFFFFFFFFFF
310
FFFFFFFFFFFFFFFFFFFFFFFFFFFFFFFFFFFFFFFFFFFFFFFFFFFFFFFFFFFFFFFF
310
FFFFFFFFFFFFFFFFF000FFFFFFFFFFFFFFFFFFFFFFFFFFFFFFFFFFFFFFFFFFFF
310
FFFFFFFFFFFFFFFFFFFFFFFFFFFFFFFFFFFFFFFFFFFFFFFFFFFFFFFFFFFFFFFF
310
FFFFFFFFFFFFFFFFFFFFFFFFFFFFFFFFFFFFFFFFFFFFFFFFFFFFFFFFFFFFFFFF
310
F000FFFFFFFFFFFFFFFFFFFFFFFFFFFFFFFFFFFFFFFFFFFFFFFFFFFFFFFFFFFF
310
FFFFFFFFFFFFFFFFFFFFFFFFFFFFFFFFFFFFFFFFFFFFFFFFFFFFFFFFFFFFFFFF
310
FFFFFFFFFFFFFFFFFFFFFFFFFFFFFFFFFFFFFFFFFFFFFFFFF000FFFFFFFFFFFF
310
FFFFFFFFFFFFFFFFFFFFFFFFFFFFFFFFFFFFFFFFFFFFFFFFFFFFFFFFFFFFFFFF
310
FFFFFFFFFFFFFFFFFFFFFFFFFFFFFFFFFFFFFFFFFFFFFFFFFFFFFFFFFFFFFFFF
310
FFFFFFFFFFFFFFFFFFFFFFFFFFFFFFFFF000FFFFFFFFFFFFFFFFFFFFFFFFFFFF
310
FFFFFFFFFFFFFFFFFFFFFFFFFFFFFFFFFFFFFFFFFFFFFFFFFFFFFFFFFFFFFFFF
310
FFFFFFFFFFFFFFFFFFFFFFFFFFFFFFFFFFFFFFFFFFFFFFFFFFFFFFFFFFFFFFFF
310
FFFFFFFFFFFFFFFFF000FFFFFFFFFFFFFFFFFFFFFFFFFFFFFFFFFFFFFFFFFFFF
310
FFFFFFFFFFFFFFFFFFFFFFFFFFFFFFFFFFFFFFFFFFFFFFFFFFFFFFFFFFFFFFFF
310
FFFFFFFFFFFFFFFFFFFFFFFFFFFFFFFFFFFFFFFFFFFFFFFFFFFFFFFFFFFFFFFF
310
F000FFFFFFFFFFFFFFFFFFFFFFFFFFFFFFFFFFFFFFFFFFFFFFFFFFFFFFFFFFFF
310
FFFFFFFFFFFFFFFFFFFFFFFFFFFFFFFFFFFFFFFFFFFFFFFFFFFFFFFFFFFFFFFF
310
FFFFFFFFFFFFFFFFFFFFFFFFFFFFFFFFFFFFFFFFFFFFFFFFF000FFFFFFFFFFFF
310
FFFFFFFFFFFFFFFFFFFFFFFFFFFFFFFFFFFFFFFFFFFFFFFFFFFFFFFFFFFFFFFF
310
FFFFFFFFFFFFFFFFFFFFFFFFFFFFFFFFFFFFFFFFFFFFFFFFFFFFFFFFFFFFFFFF
310
FFFFFFFFFFFFFFFFFFFFFFFFFFFFFFFFF000FFFFFFFFFFFFFFFFFFFFFFFFFFFF
310
FFFFFFFFFFFFFFFFFFFFFFFFFFFFFFFFFFFFFFFFFFFFFFFFFFFFFFFFFFFFFFFF
310
FFFFFFFFFFFFFFFFFFFFFFFFFFFFFFFFFFFFFFFFFFFFFFFFFFFFFFFFFFFFFFFF
310
FFFFFFFFFFFFFFFFF000FFFFFFFFFFFFFFFFFFFFFFFFFFFFFFFFFFFFFFFFFFFF
310
FFFFFFFFFFFFFFFFFFFFFFFFFFFFFFFFFFFFFFFFFFFFFFFFFFFFFFFFFFFFFFFF
310
FFFFFFFFFFFFFFFFFFFFFFFFFFFFFFFFFFFFFFFFFFFFFFFFFFFFFFFFFFFFFFFF
310
F000FFFFFFFFFFFFFFFFFFFFFFFFFFFFFFFFFFFFFFFFFFFFFFFFFFFFFFFFFFFF
310
FFFFFFFFFFFFFFFFFFFFFFFFFFFFFFFFFFFFFFFFFFFFFFFFFFFFFFFFFFFFFFFF
310
FFFFFFFFFFFFFFFFFFFFFFFFFFFFFFFFFFFFFFFFFFFFFFFFF000FFFFFFFFFFFF
310
FFFFFFFFFFFFFFFFFFFFFFFFFFFFFFFFFFFFFFFFFFFFFFFFFFFFFFFFFFFFFFFF
310
FFFFFFFFFFFFFFFFFFFFFFFFFFFFFFFFFFFFFFFFFFFFFFFFFFFFFFFFFFFFFFFF
310
FFFFFFFFFFFFFFFFFFFFFFFFFFFFFFFFF000FFFFFFFFFFFFFFFFFFFFFFFFFFFF
310
FFFFFFFFFFFFFFFFFFFFFFFFFFFFFFFFFFFFFFFFFFFFFFFFFFFFFFFFFFFFFFFF
310
FFFFFFFFFFFFFFFFFFFFFFFFFFFFFFFFFFFFFFFFFFFFFFFFFFFFFFFFFFFFFFFF
310
FFFFFFFFFFFFFFFFF000FFFFF80003FFFFFFFFFFFFFFFFFFFFFFFFFFFFFFFFFF
310
FFFFF00007FFFFFFFFFF00007FFFFFF800000000000000007FFFFFFFFFFFFFFF
310
FFFFFFFC001FFFFFFFFFFFFFFC001FFFFFFFFFFFFFFFFFFFFFFFFFFE0007FFFF
310
F000FFFF8000007FFFFFFFF8000FFFFFC0007FFFFF80007FFFFF0000007FFFFF
310
FFF8000007FFFFF800000000000000007FFFFFF0001FFFFFFFFFFFC00001FFFF
310
FFFFFFFFC00001FFFFFFFF000000000003FFFFE000007FFFF000FFFE0000000F
310
FFFFFFF0000FFFFF80007FFFFF80007FFFFC0000001FFFFFFFC0000001FFFFF8
310
00000000000000007FFFFFF0001FFFFFFFFFFE0000003FFFFFFFFFFE0000003F
310
FFFFFF000000000003FFFF0000000FFFF000FFF800000003FFFFFFF00007FFFF
310
80007FFFFF80007FFFF000000007FFFFFF000000003FFFF80000000000000000
310
7FFFFFF0001FFFFFFFFFF80000000FFFFFFFFFF80000000FFFFFFF0000000000
310
03FFFC00000003FFF000FFE000000000FFFFFFF00007FFFF80003FFFFF80007F
310
FFC000000001FFFFFC000000001FFFF800000000000000007FFFFFF0001FFFFF
310
FFFFE000000003FFFFFFFFE000000003FFFFFF000000000003FFF000000000FF
310
F000FF80000000007FFFFFF00007FFFF80003FFFFF80007FFF8000000000FFFF
310
F80000000007FFF800000000000000007FFFFFF0001FFFFFFFFFC000000001FF
310
FFFFFFC000000001FFFFFF000000000003FFC0000000007FF000FF0000000000
310
3FFFFFE00007FFFF00003FFFFF80007FFE00000000003FFFF00000000003FFF8
310
00000000000000007FFFFFF0001FFFFFFFFF8000000000FFFFFFFF8000000000
310
FFFFFF000000000003FF80000000003FF000FE00000000001FFFFFE00003FFFF
310
00003FFFFF80007FFC00000000001FFFE00000000001FFF8000001FFFE000000
310
7FFFFFF0001FFFFFFFFE00000000003FFFFFFE00000000003FFFFF0000000000
310
03FF00000000001FF000FC00000000000FFFFFE00003FFFF00001FFFFF80007F
310
F800000000001FFFC00000000000FFF8000001FFFE0000007FFFFFF0001FFFFF
310
FFFC00000000001FFFFFFC00000000001FFFFF000000000003FE00000000000F
310
F000F8000000000007FFFFE00003FFFF00001FFFFF80007FF800000000000FFF
310
800000000000FFF8000001FFFE0000007FFFFFF0001FFFFFFFF800000000000F
310
FFFFF800000000000FFFFF000000000003FC000000000007F000F80000000000
310
03FFFFC00003FFFE00001FFFFF80007FF0000000000007FF0000000000007FF8
310
000001FFFE0000007FFFFFF0001FFFFFFFF0000000000007FFFFF00000000000
310
07FFFF000000000003F8000000000003F000F0000000000003FFFFC00001FFFE
310
00001FFFFF80007FE0000000000007FE0000000000003FF8000001FFFE000000
310
7FFFFFF0001FFFFFFFF0000000000007FFFFF0000000000007FFFF0000000000
310
03F800001F800003F000E00001FFF00001FFFFC00001FFFE00000FFFFF80007F
310
E00001FFE00003FE00001FFF00003FF8000001FFFE0000007FFFFFF0001FFFFF
310
FFE000003E000003FFFFE000003E000003FFFF000000000003F00001FFF80001
310
F000E00007FFFC0001FFFFC00001FFFE00000FFFFF80007FC0000FFFFC0003FC
310
0000FFFFC0001FF8000001FFFE0000007FFFFFF0001FFFFFFFC00003FFE00001
310
FFFFC00003FFE00001FFFF0001FFFFFFFFF00007FFFE0001F000E0000FFFFF00
310
00FFFF800001FFFC00000FFFFF80007FC0001FFFFE0001FC0001FFFFE0001FF8
310
000001FFFE0000007FFFFFF0001FFFFFFF80000FFFF80000FFFF80000FFFF800
310
00FFFF0003FFFFFFFFE0000FFFFF8000F000C0003FFFFF8000FFFF800000FFFC
310
000007FFFF80007F80003FFFFF0001FC0003FFFFF0001FF8000001FFFE000000
310
7FFFFFF0001FFFFFFF80003FFFFE0000FFFF80003FFFFE0000FFFF0003FFFFFF
310
FFE0003FFFFF8000F000C0003FFFFF8000FFFF800000FFFC000007FFFF80007F
310
80007FFFFF8001F80007FFFFF8000FF8000001FFFE0000007FFFFFF0001FFFFF
310
FF00007FFFFF00007FFF00007FFFFF00007FFF0003FFFFFFFFE0003FFFFFC000
310
F000C0007FFFFFC000FFFF000000FFFC000007FFFF80007F8000FFFFFF8000F8
310
000FFFFFF8000FF8000001FFFE0000007FFFFFF0001FFFFFFF0000FFFFFF8000
310
7FFF0000FFFFFF80007FFF0003FFFFFFFFC0007FFFFFC00070008000FFFFFFC0
310
00FFFF000000FFF8000007FFFF80007F8000FFFFFF8000F8000FFFFFF8000FF8
310
000001FFFE0000007FFFFFF0001FFFFFFE0001FFFFFFC0003FFE0001FFFFFFC0
310
003FFF0003FFFFFFFFC0007FFFFFE00070008000FFFFFFC0007FFF0000007FF8
310
000003FFFF80007F0001FFFFFF8000F8000FFFFFF8000FF8000001FFFE000000
310
7FFFFFF0001FFFFFFE0001FFFFFFC0003FFE0001FFFFFFC0003FFF0003FFFFFF
310
FFC000FFFFFFE00070008000FFFFFFC0007FFF0000007FF8000003FFFF80007F
310
0001FFFFFF8000F8001FFFFFF8000FF8000001FFFE0000007FFFFFF0001FFFFF
310
FE0003FFFFFFE0003FFE0003FFFFFFE0003FFF0003FFFFFFFFC000FFFFFFE000
310
70008000FFFFFFC0007FFE0000007FF8000003FFFF80007F0001FFFFFF8000F0
310
001FFFFFF8000FF8000001FFFE0000007FFFFFF0001FFFFFFC0003FFFFFFE000
310
1FFC0003FFFFFFE0001FFF0003FFFFFFFFC000FFFFFFC00070008000FFFFFF80
310
007FFE0000007FF0000003FFFF80007F0001FFFFFF0000F0001FFFFFF8000FF8
310
000001FFFE0000007FFFFFF0001FFFFFFC0007FFFFFFF0001FFC0007FFFFFFF0
310
001FFF0003FFFFFFFFC000FFFFFFC00070008001FFFFFF0000FFFE0000003FF0
310
000001FFFF80007F0001FFFFFF0000F8001FFFFFF0000FF8000001FFFE000000
310
7FFFFFF0001FFFFFFC0007FFFFFFF0001FFC0007FFFFFFF0001FFF0003FFFFFF
310
FFC001FFFFFF80007000FFFFFFFFFE0000FFFE0008003FF0008001FFFF80007F
310
FFFFFFFFFC0000FFFFFFFFFFE0000FF8000001FFFE0000007FFFFFF0001FFFFF
310
F8000FFFFFFFF8000FF8000FFFFFFFF8000FFF0003FFFFFFFFFFFFFFFFFF0000
310
7000FFFFFFFFFC0000FFFC0008003FF0008001FFFF80007FFFFFFFFFF80001FF
310
FFFFFFFF80000FF8000001FFFE0000007FFFFFF0001FFFFFF8000FFFFFFFF800
310
0FF8000FFFFFFFF8000FFF0003FFFFFFFFFFFFFFFFFE0000F000FFFFFFFFE000
310
00FFFC000C003FE000C001FFFF80007FFFFFFFFFC00001FFFFFFFFFE00001FF8
310
000001FFFE0000007FFFFFF0001FFFFFF8000FFFFFFFF8000FF8000FFFFFFFF8
310
000FFF0003FFFFFFFFFFFFFFFFF00000F000FFFFFFFE000001FFFC000C001FE0
310
00C000FFFF80007FFFFFFFFE000001FFFFFFFFE000001FF80FFFFFFFFFFFFFC0
310
7FFFFFF0001FFFFFF8000FFFFFFFF8000FF8000FFFFFFFF8000FFF0003FFFFFF
310
FFFFFFFFFF800000F000FFFFFFC0000001FFFC001C001FE001C000FFFF80007F
310
FFFFFF80000003FFFFFFF80000001FF80FFFFFFFFFFFFFC07FFFFFF0001FFFFF
310
F8001FFFFFFFFC000FF8001FFFFFFFFC000FFF0003FFFFFFFFFFFFFFF0000001
310
F000FFFFF800000001FFF8001C001FE001C000FFFF80007FFFFFF800000003FF
310
FFFF800000003FF80FFFFFFFFFFFFFC07FFFFFF0001FFFFFF8001FFFFFFFFC00
310
0FF8001FFFFFFFFC000FFF0003FFFFFFFFFFFFFE00000001F000FFFFC0000000
310
03FFF8001E001FC001E000FFFF80007FFFFF8000000007FFFFFC000000003FF8
310
0FFFFFFFFFFFFFC07FFFFFF0001FFFFFF8001FFFFFFFFC000FF8001FFFFFFFFC
310
000FFF0003FFFFFFFFFFFFE000000003F000FFFE0000000007FFF8001E000FC0
310
01E0007FFF80007FFFFE0000000007FFFFE0000000007FF80FFFFFFFFFFFFFC0
310
7FFFFFF0001FFFFFF0001FFFFFFFFC0007F0001FFFFFFFFC0007FF0003FFFFFF
310
FFFFFF0000000003F000FFF80000000007FFF8001E000FC003E0007FFF80007F
310
FFF0000000000FFFFF8000000000FFF80FFFFFFFFFFFFFC07FFFFFF0001FFFFF
310
F0001FFFFFFFFC0007F0001FFFFFFFFC0007FF0003FFFFFFFFFFFC0000000007
310
F000FFE0000000000FFFF0003E000FC003E0007FFF80007FFFC0000000001FFF
310
FE0000000001FFF80FFFFFFFFFFFFFC07FFFFFF0001FFFFFF0001FFFFFFFFC00
310
07F0001FFFFFFFFC0007FF0003FFFFFFFFFFF0000000000FF000FFC000000000
310
1FFFF0003F000F8003F0003FFF80007FFF80000000003FFFF80000000003FFF8
310
0FFFFFFFFFFFFFC07FFFFFF0001FFFFFF0001FFFFFFFFC0007F0001FFFFFFFFC
310
0007FF0003FFFFFFFFFFE0000000001FF000FF00000000007FFFF0003F000780
310
03F0003FFF80007FFF00000000007FFFF00000000007FFF80FFFFFFFFFFFFFC0
310
7FFFFFF0001FFFFFF0001FFFFFFFFC0007F0001FFFFFFFFC0007FF0003FFFFFF
310
FFFF80000000007FF000FE0000000000FFFFE0003F00078007F0003FFF80007F
310
FE0000000001FFFFE0000000001FFFF80FFFFFFFFFFFFFC07FFFFFF0001FFFFF
310
F0001FFFFFFFFC0007F0001FFFFFFFFC0007FF0003FFFFFFFFFF0000000000FF
310
F000FC0000000003FFFFE0007F00078007F0003FFF80007FFC0000000007FFFF
310
C0000000007FFFF80FFFFFFFFFFFFFC07FFFFFF0001FFFFFF8001FFFFFFFFC00
310
0FF8001FFFFFFFFC000FFF0003FFFFFFFFFE0000000003FFF000FC000000000F
310
FFFFE0007F80070007F8001FFF80007FF8000000001FFFFF8000000001FFFFF8
310
0FFFFFFFFFFFFFC07FFFFFF0001FFFFFF8001FFFFFFFFC000FF8001FFFFFFFFC
310
000FFF0003FFFFFFFFFC000000000FFFF000F8000000007FFFFFE0007F800700
310
07F8001FFF80007FF000000000FFFFFF800000000FFFFFF80FFFFFFFFFFFFFC0
310
7FFFFFF0001FFFFFF8000FFFFFFFF8000FF8000FFFFFFFF8000FFF0003FFFFFF
310
FFFC000000007FFFF000F800000007FFFFFFC0007F8003000FF8001FFF80007F
310
F000000007FFFFFF000000007FFFFFF80FFFFFFFFFFFFFC07FFFFFF0001FFFFF
310
F8000FFFFFFFF8000FF8000FFFFFFFF8000FFF0003FFFFFFFFF80000000FFFFF
310
F000F0000000FFFFFFFFC000FF8003000FF8001FFF80007FE0000000FFFFFFFF
310
0000000FFFFFFFF8000001FFFE0000007FFFFFF0001FFFFFF8000FFFFFFFF800
310
0FF8000FFFFFFFF8000FFF0003FFFFFFFFF8000000FFFFFFF000F000000FFFFF
310
FFFFC000FFC002000FF8000FFF80007FE000001FFFFFFFFE000001FFFFFFFFF8
310
000001FFFE0000007FFFFFF0001FFFFFF8000FFFFFFFF8000FF8000FFFFFFFF8
310
000FFF0003FFFFFFFFF000001FFFFFFFF000E00000FFFFFFFFFFC000FFC00200
310
0FFC000FFF80007FE00001FFFFFFFFFE00001FFFFFFFFFF8000001FFFE000000
310
7FFFFFF0001FFFFFFC000FFFFFFFF8001FFC000FFFFFFFF8001FFF0003FFFFFF
310
FFF00001FFFFFFFFF000E00007FFFFFFFFFF8000FFC000001FFC000FFF80007F
310
C0000FFFFFFFFFFE0000FFFFFFFFFFF8000001FFFE0000007FFFFFF0001FFFFF
310
FC0007FFFFFFF0001FFC0007FFFFFFF0001FFF0003FFFFFFFFF00007FFFFFFFF
310
F000E0001FFFFFFFFFFF8000FFC000001FFC000FFF80007FC0003FFFFFFFFFFE
310
0001FFFFFFFFFFF8000001FFFE0000007FFFFFF0001FFFFFFC0007FFFFFFF000
310
1FFC0007FFFFFFF0001FFF0003FFFFFFFFF0001FFFFFFFFFF000E0003FFFFF00
310
03FF8001FFE000001FFC0007FF80007FC0007FFFFF0007FC0003FFFFF0003FF8
310
000001FFFE0000007FFFFFF0001FFFFFFC0003FFFFFFE0001FFC0003FFFFFFE0
310
001FFF0003FFFFFFFFF0003FFFFFFFFFF000E0003FFFFF0001FF8001FFE00000
310
1FFE0007FF80007FC0007FFFFE0003FC0007FFFFE0003FF8000001FFFE000000
310
7FFFFFF0001FFFFFFE0003FFFFFFE0003FFE0003FFFFFFE0003FFF0003FFFFFF
310
FFF0003FFFFF8001F000E0003FFFFF0001FF0001FFE000001FFE0007FF80007F
310
C0007FFFFE0003FC0007FFFFE0003FF8000001FFFE0000007FFFFFF0001FFFFF
310
FE0001FFFFFFC0003FFE0001FFFFFFC0003FFF0003FFFFFFFFF0003FFFFF0001
310
F000E0003FFFFF0003FF0001FFE000003FFE0007FF80007FC0007FFFFE0003FC
310
0007FFFFE0003FF8000001FFFE0000007FFFFFF0001FFFFFFF0001FFFFFFC000
310
7FFF0001FFFFFFC0007FFF0003FFFFFFFFF0003FFFFF0001F000E0003FFFFE00
310
03FF0003FFF000003FFE0003FF80007FC0007FFFFC0003FE0007FFFFE0003FF8
310
000001FFFE0000007FFFFFF0001FFFFFFF0000FFFFFF80007FFF0000FFFFFF80
310
007FFF0003FFFFFFFFF0003FFFFF0001F000E0003FFFFE0003FF0003FFF00000
310
3FFF0003FF80007FC0007FFFFC0007FE0007FFFFC0003FF8000001FFFE000000
310
7FFFFFF0001FFFFFFF80007FFFFF0000FFFF80007FFFFF0000FFFF0003FFFFFF
310
FFF0003FFFFF0003F000E0003FFFFC0003FE0003FFF000003FFF0003FF80007F
310
E0003FFFF80007FE0003FFFFC0007FF8000001FFFE0000007FFFFFF0001FFFFF
310
FF80003FFFFE0000FFFF80003FFFFE0000FFFF0003FFFFFFFFF0001FFFFE0003
310
F000F0001FFFF80003FE0003FFF000007FFF0001FF80007FE0003FFFF00007FE
310
0001FFFF80007FF8000001FFFE0000007FFFFFF0001FFFFFFFC0000FFFF80001
310
FFFFC0000FFFF80001FFFF0003FFFFFFFFF0001FFFFC0003F000F0000FFFF000
310
07FE0007FFF800007FFF0001FF80007FE0001FFFE00007FF0000FFFE00007FF8
310
000001FFFE0000007FFFFFF0001FFFFFFFC00003FFE00001FFFFC00003FFE000
310
01FFFF0003FFFFFFFFF8000FFFF80003F000F00003FFC00007FC0007FFF80000
310
7FFF8001FF80007FF00007FF80000FFF00007FF80000FFF8000001FFFE000000
310
7F80000000000001FFE000003E000003FFFFE000003E000003FFFF0003FFFFFF
310
FFF80003FFE00007F000F800000000000FFC0007FFF800007FFF8001FF80007F
310
F000000000000FFF000000000000FFF8000001FFFE0000007F80000000000001
310
FFF0000000000007FFFFF0000000000007FFFF0003FFFFFFFFFC00007E000007
310
F000F800000000000FFC0007FFF80000FFFF8000FF80007FF800000000001FFF
310
800000000001FFF8000001FFFE0000007F80000000000001FFF800000000000F
310
FFFFF800000000000FFFFF0003FFFFFFFFFC00000000000FF000FC0000000000
310
1FFC0007FFFC0000FFFF8000FF80007FF800000000003FFFC00000000001FFF8
310
000001FFFE0000007F80000000000001FFF800000000000FFFFFF80000000000
310
0FFFFF0003FFFFFFFFFE00000000001FF000FE00000000003FF8000FFFFC0000
310
FFFF8000FF80007FFC00000000003FFFC00000000003FFF8000001FFFE000000
310
7F80000000000001FFFC00000000001FFFFFFC00000000001FFFFF0003FFFFFF
310
FFFF00000000001FF000FF00000000003FF8000FFFFC0000FFFFC000FF80007F
310
FE00000000007FFFE00000000007FFF8000001FFFE0000007F80000000000001
310
FFFE00000000003FFFFFFE00000000003FFFFF0003FFFFFFFFFF80000000003F
310
F000FF80000000007FF8000FFFFC0001FFFFC0007F80007FFF0000000000FFFF
310
F0000000000FFFF800000000000000007F80000000000001FFFF8000000000FF
310
FFFFFF8000000000FFFFFF0003FFFFFFFFFFC0000000007FF000FFC000000000
310
FFF8000FFFFE0001FFFFC0007F80007FFF8000000001FFFFF8000000001FFFF8
310
00000000000000007F80000000000001FFFFC000000001FFFFFFFFC000000001
310
FFFFFF0003FFFFFFFFFFE000000000FFF000FFE000000003FFF0001FFFFE0001
310
FFFFC0007F80007FFFC000000007FFFFFE000000003FFFF80000000000000000
310
7F80000000000001FFFFE000000003FFFFFFFFE000000003FFFFFF0003FFFFFF
310
FFFFF000000003FFF000FFF80000000FFFF0001FFFFE0001FFFFE0007F80007F
310
FFF00000000FFFFFFF00000000FFFFF800000000000000007F80000000000001
310
FFFFF80000000FFFFFFFFFF80000000FFFFFFF0003FFFFFFFFFFFC0000000FFF
310
F000FFFE0000003FFFF0001FFFFE0003FFFFE0003F80007FFFFC0000003FFFFF
310
FFC0000003FFFFF800000000000000007F80000000000001FFFFFE0000003FFF
310
FFFFFFFE0000003FFFFFFF0003FFFFFFFFFFFF0000003FFFF000FFFF800000FF
310
FFF0001FFFFF0003FFFFE0003F80007FFFFF000001FFFFFFFFF800001FFFFFF8
310
00000000000000007F80000000000001FFFFFFC00001FFFFFFFFFFFFC00001FF
310
FFFFFF0003FFFFFFFFFFFFC00000FFFFF000FFFFF8000FFFFFFFFFFFFFFFFFFF
310
FFFFFFFFFFFFFFFFFFFFF0001FFFFFFFFFFF0000FFFFFFF80000000000000000
310
7FFFFFFFFFFFFFFFFFFFFFFC001FFFFFFFFFFFFFFC001FFFFFFFFFFFFFFFFFFF
310
FFFFFFFC001FFFFFF000FFFFFFFFFFFFFFFFFFFFFFFFFFFFFFFFFFFFFFFFFFFF
310
FFFFFFFFFFFFFFFFFFFFFFFFFFFFFFFFFFFFFFFFFFFFFFFFFFFFFFFFFFFFFFFF
310
FFFFFFFFFFFFFFFFFFFFFFFFFFFFFFFFFFFFFFFFFFFFFFFFFFFFFFFFFFFFFFFF
310
F000FFFFFFFFFFFFFFFFFFFFFFFFFFFFFFFFFFFFFFFFFFFFFFFFFFFFFFFFFFFF
310
FFFFFFFFFFFFFFFFFFFFFFFFFFFFFFFFFFFFFFFFFFFFFFFFFFFFFFFFFFFFFFFF
310
FFFFFFFFFFFFFFFFFFFFFFFFFFFFFFFFFFFFFFFFFFFFFFFFF000FFFFFFFFFFFF
310
FFFFFFFFFFFFFFFFFFFFFFFFFFFFFFFFFFFFFFFFFFFFFFFFFFFFFFFFFFFFFFFF
310
FFFFFFFFFFFFFFFFFFFFFFFFFFFFFFFFFFFFFFFFFFFFFFFFFFFFFFFFFFFFFFFF
310
FFFFFFFFFFFFFFFFFFFFFFFFFFFFFFFFF000FFFFFFFFFFFFFFFFFFFFFFFFFFFF
310
FFFFFFFFFFFFFFFFFFFFFFFFFFFFFFFFFFFFFFFFFFFFFFFFFFFFFFFFFFFFFFFF
310
FFFFFFFFFFFFFFFFFFFFFFFFFFFFFFFFFFFFFFFFFFFFFFFFFFFFFFFFFFFFFFFF
310
FFFFFFFFFFFFFFFFF000FFFFFFFFFFFFFFFFFFFFFFFFFFFFFFFFFFFFFFFFFFFF
310
FFFFFFFFFFFFFFFFFFFFFFFFFFFFFFFFFFFFFFFFFFFFFFFFFFFFFFFFFFFFFFFF
310
FFFFFFFFFFFFFFFFFFFFFFFFFFFFFFFFFFFFFFFFFFFFFFFFFFFFFFFFFFFFFFFF
310
F000FFFFFFFFFFFFFFFFFFFFFFFFFFFFFFFFFFFFFFFFFFFFFFFFFFFFFFFFFFFF
310
FFFFFFFFFFFFFFFFFFFFFFFFFFFFFFFFFFFFFFFFFFFFFFFFFFFFFFFFFFFFFFFF
310
FFFFFFFFFFFFFFFFFFFFFFFFFFFFFFFFFFFFFFFFFFFFFFFFF000FFFFFFFFFFFF
310
FFFFFFFFFFFFFFFFFFFFFFFFFFFFFFFFFFFFFFFFFFFFFFFFFFFFFFFFFFFFFFFF
310
FFFFFFFFFFFFFFFFFFFFFFFFFFFFFFFFFFFFFFFFFFFFFFFFFFFFFFFFFFFFFFFF
310
FFFFFFFFFFFFFFFFFFFFFFFFFFFFFFFFF000FFFFFFFFFFFFFFFFFFFFFFFFFFFF
310
FFFFFFFFFFFFFFFFFFFFFFFFFFFFFFFFFFFFFFFFFFFFFFFFFFFFFFFFFFFFFFFF
310
FFFFFFFFFFFFFFFFFFFFFFFFFFFFFFFFFFFFFFFFFFFFFFFFFFFFFFFFFFFFFFFF
310
FFFFFFFFFFFFFFFFF000FFFFFFFFFFFFFFFFFFFFFFFFFFFFFFFFFFFFFFFFFFFF
310
FFFFFFFFFFFFFFFFFFFFFFFFFFFFFFFFFFFFFFFFFFFFFFFFFFFFFFFFFFFFFFFF
310
FFFFFFFFFFFFFFFFFFFFFFFFFFFFFFFFFFFFFFFFFFFFFFFFFFFFFFFFFFFFFFFF
310
F000FFFFFFFFFFFFFFFFFFFFFFFFFFFFFFFFFFFFFFFFFFFFFFFFFFFFFFFFFFFF
310
FFFFFFFFFFFFFFFFFFFFFFFFFFFFFFFFFFFFFFFFFFFFFFFFFFFFFFFFFFFFFFFF
310
FFFFFFFFFFFFFFFFFFFFFFFFFFFFFFFFFFFFFFFFFFFFFFFFF000FFFFFFFFFFFF
310
FFFFFFFFFFFFFFFFFFFFFFFFFFFFFFFFFFFFFFFFFFFFFFFFFFFFFFFFFFFFFFFF
310
FFFFFFFFFFFFFFFFFFFFFFFFFFFFFFFFFFFFFFFFFFFFFFFFFFFFFFFFFFFFFFFF
310
FFFFFFFFFFFFFFFFFFFFFFFFFFFFFFFFF000FFFFFFFFFFFFFFFFFFFFFFFFFFFF
310
FFFFFFFFFFFFFFFFFFFFFFFFFFFFFFFFFFFFFFFFFFFFFFFFFFFFFFFFFFFFFFFF
310
FFFFFFFFFFFFFFFFFFFFFFFFFFFFFFFFFFFFFFFFFFFFFFFFFFFFFFFFFFFFFFFF
310
FFFFFFFFFFFFFFFFF000FFFFFFFFFFFFFFFFFFFFFFFFFFFFFFFFFFFFFFFFFFFF
310
FFFFFFFFFFFFFFFFFFFFFFFFFFFFFFFFFFFFFFFFFFFFFFFFFFFFFFFFFFFFFFFF
310
FFFFFFFFFFFFFFFFFFFFFFFFFFFFFFFFFFFFFFFFFFFFFFFFFFFFFFFFFFFFFFFF
310
F000FFFFFFFFFFFFFFFFFFFFFFFFFFFFFFFFFFFFFFFFFFFFFFFFFFFFFFFFFFFF
310
FFFFFFFFFFFFFFFFFFFFFFFFFFFFFFFFFFFFFFFFFFFFFFFFFFFFFFFFFFFFFFFF
310
FFFFFFFFFFFFFFFFFFFFFFFFFFFFFFFFFFFFFFFFFFFFFFFFF000FFFFFFFFFFFF
310
FFFFFFFFFFFFFFFFFFFFFFFFFFFFFFFFFFFFFFFFFFFFFFFFFFFFFFFFFFFFFFFF
310
FFFFFFFFFFFFFFFFFFFFFFFFFFFFFFFFFFFFFFFFFFFFFFFFFFFFFFFFFFFFFFFF
310
FFFFFFFFFFFFFFFFFFFFFFFFFFFFFFFFF000FFFFFFFFFFFFFFFFFFFFFFFFFFFF
310
FFFFFFFFFFFFFFFFFFFFFFFFFFFFFFFFFFFFFFFFFFFFFFFFFFFFFFFFFFFFFFFF
310
FFFFFFFFFFFFFFFFFFFFFFFFFFFFFFFFFFFFFFFFFFFFFFFFFFFFFFFFFFFFFFFF
310
FFFFFFFFFFFFFFFFF000FFFFFFFFFFFFFFFFFFFFFFFFFFFFFFFFFFFFFFFFFFFF
310
FFFFFFFFFFFFFFFFFFFFFFFFFFFFFFFFFFFFFFFFFFFFFFFFFFFFFFFFFFFFFFFF
310
FFFFFFFFFFFFFFFFFFFFFFFFFFFFFFFFFFFFFFFFFFFFFFFFFFFFFFFFFFFFFFFF
310
F000FFFFFFFFFFFFFFFFFFFFFFFFFFFFFFFFFFFFFFFFFFFFFFFFFFFFFFFFFFFF
310
FFFFFFFFFFFFFFFFFFFFFFFFFFFFFFFFFFFFFFFFFFFFFFFFFFFFFFFFFFFFFFFF
310
FFFFFFFFFFFFFFFFFFFFFFFFFFFFFFFFFFFFFFFFFFFFFFFFF000FFFFFFFFFFFF
310
FFFFFFFFFFFFFFFFFFFFFFFFFFFFFFFFFFFFFFFFFFFFFFFFFFFFFFFFFFFFFFFF
310
FFFFFFFFFFFFFFFFFFFFFFFFFFFFFFFFFFFFFFFFFFFFFFFFFFFFFFFFFFFFFFFF
310
FFFFFFFFFFFFFFFFFFFFFFFFFFFFFFFFF000FFFFFFFFFFFFFFFFFFFFFFFFFFFF
310
FFFFFFFFFFFFFFFFFFFFFFFFFFFFFFFFFFFFFFFFFFFFFFFFFFFFFFFFFFFFFFFF
310
FFFFFFFFFFFFFFFFFFFFFFFFFFFFFFFFFFFFFFFFFFFFFFFFFFFFFFFFFFFFFFFF
310
FFFFFFFFFFFFFFFFF000FFFFFFFFFFFFFFFFFFFFFFFFFFFFFFFFFFFFFFFFFFFF
310
FFFFFFFFFFFFFFFFFFFFFFFFFFFFFFFFFFFFFFFFFFFFFFFFFFFFFFFFFFFFFFFF
310
FFFFFFFFFFFFFFFFFFFFFFFFFFFFFFFFFFFFFFFFFFFFFFFFFFFFFFFFFFFFFFFF
310
F000FFFFFFFFFFFFFFFFFFFFFFFFFFFFFFFFFFFFFFFFFFFFFFFFFFFFFFFFFFFF
310
FFFFFFFFFFFFFFFFFFFFFFFFFFFFFFFFFFFFFFFFFFFFFFFFFFFFFFFFFFFFFFFF
310
FFFFFFFFFFFFFFFFFFFFFFFFFFFFFFFFFFFFFFFFFFFFFFFFF000FFFFFFFFFFFF
310
FFFFFFFFFFFFFFFFFFFFFFFFFFFFFFFFFFFFFFFFFFFFFFFFFFFFFFFFFFFFFFFF
310
FFFFFFFFFFFFFFFFFFFFFFFFFFFFFFFFFFFFFFFFFFFFFFFFFFFFFFFFFFFFFFFF
310
FFFFFFFFFFFFFFFFFFFFFFFFFFFFFFFFF0000000000000000000000000000000
310
0000000000000000000000000000000000000000000000000000000000000000
310
0000000000000000000000000000000000000000000000000000000000000000
310
0000000000000000000000000000000000000000000000000000000000000000
310
0000000000000000000000000000000000000000000000000000000000000000
310
0000000000000000000000000000000000000000000000000000000000000000
310
0000000000000000000000000000000000000000000000000000000000000000
310
0000000000000000000000000000000000000000000000000000000000000000
310
0000000000000000000000000000000000000000000000000000000000000000
310
0000000000000000000000000000000000000000000000000000000000000000
310
0000000000000000000000000000000000000000000000000000000000000000
310
0000000000000000000000000000000000000000000000000000000000000000
310
0000000000000000000000000000000000000000000000000000000000000000
310
0000000000000000000000000000000000000000000000000000000000000000
310
0000000000000000000000000000000000000000000000000000000000000000
310
0000000000000000000000000000000000000000000000000000000000000000
  1
OLE
  0
ENDSEC
  0
SECTION
  2
OBJECTS
  0
DICTIONARY
  5
C
330
0
100
AcDbDictionary
281
     1
  3
ACAD_GROUP
350
D
  3
ACAD_LAYOUT
350
1A
  3
ACAD_MLINESTYLE
350
17
  3
ACAD_PLOTSETTINGS
350
19
  3
ACAD_PLOTSTYLENAME
350
E
  3
ACAD_SCALELIST
350
47
  0
DICTIONARY
  5
D
102
{ACAD_REACTORS
330
C
102
}
330
C
100
AcDbDictionary
281
     1
  0
DICTIONARY
  5
1A
102
{ACAD_REACTORS
330
C
102
}
330
C
100
AcDbDictionary
281
     1
  3
Layout1
350
1E
  3
Layout2
350
26
  3
Model
350
22
  0
DICTIONARY
  5
17
102
{ACAD_REACTORS
330
C
102
}
330
C
100
AcDbDictionary
281
     1
  3
Standard
350
18
  0
DICTIONARY
  5
19
102
{ACAD_REACTORS
330
C
102
}
330
C
100
AcDbDictionary
281
     1
  0
ACDBDICTIONARYWDFLT
  5
E
102
{ACAD_REACTORS
330
C
102
}
330
C
100
AcDbDictionary
281
     1
  3
Normal
350
F
100
AcDbDictionaryWithDefault
340
F
  0
DICTIONARY
  5
47
102
{ACAD_REACTORS
330
C
102
}
330
C
100
AcDbDictionary
281
     1
  3
A0
350
48
  3
A1
350
49
  3
A2
350
4A
  3
A3
350
4B
  3
A4
350
4C
  3
A5
350
4D
  3
A6
350
4E
  3
A7
350
4F
  3
A8
350
50
  3
A9
350
51
  3
B0
350
52
  3
B1
350
53
  3
B2
350
54
  3
B3
350
55
  3
B4
350
56
  3
B5
350
57
  3
B6
350
58
  3
B7
350
59
  3
B8
350
5A
  3
B9
350
5B
  3
C0
350
5C
  3
C1
350
5D
  3
C2
350
5E
  3
C3
350
5F
  3
C4
350
60
  3
C5
350
61
  3
C6
350
62
  3
C7
350
63
  3
C8
350
64
  3
C9
350
65
  3
D0
350
66
  3
D1
350
67
  3
D2
350
68
  0
LAYOUT
  5
1E
102
{ACAD_REACTORS
330
1A
102
}
330
1A
100
AcDbPlotSettings
  1

  2
none_device
  4

  6

 40
0.0
 41
0.0
 42
0.0
 43
0.0
 44
0.0
 45
0.0
 46
0.0
 47
0.0
 48
0.0
 49
0.0
140
0.0
141
0.0
142
1.0
143
1.0
 70
   688
 72
     1
 73
     0
 74
     5
  7

 75
    16
147
1.0
148
0.0
149
0.0
100
AcDbLayout
  1
Layout1
 70
     1
 71
     1
 10
0.0
 20
0.0
 11
420.0
 21
297.0
 12
0.0
 22
0.0
 32
0.0
 14
1.0000000000E+20
 24
1.0000000000E+20
 34
1.0000000000E+20
 15
-1.0000000000E+20
 25
-1.0000000000E+20
 35
-1.0000000000E+20
146
0.0
 13
0.0
 23
0.0
 33
0.0
 16
1.0
 26
0.0
 36
0.0
 17
0.0
 27
1.0
 37
0.0
 76
     0
330
1B
  0
LAYOUT
  5
26
102
{ACAD_REACTORS
330
1A
102
}
330
1A
100
AcDbPlotSettings
  1

  2
none_device
  4

  6

 40
0.0
 41
0.0
 42
0.0
 43
0.0
 44
0.0
 45
0.0
 46
0.0
 47
0.0
 48
0.0
 49
0.0
140
0.0
141
0.0
142
1.0
143
1.0
 70
   688
 72
     1
 73
     0
 74
     5
  7

 75
    16
147
1.0
148
0.0
149
0.0
100
AcDbLayout
  1
Layout2
 70
     1
 71
     2
 10
0.0
 20
0.0
 11
0.0
 21
0.0
 12
0.0
 22
0.0
 32
0.0
 14
0.0
 24
0.0
 34
0.0
 15
0.0
 25
0.0
 35
0.0
146
0.0
 13
0.0
 23
0.0
 33
0.0
 16
1.0
 26
0.0
 36
0.0
 17
0.0
 27
1.0
 37
0.0
 76
     0
330
23
  0
LAYOUT
  5
22
102
{ACAD_REACTORS
330
1A
102
}
330
1A
100
AcDbPlotSettings
  1

  2
none_device
  4
Letter_(8.50_x_11.00_Inches)
  6

 40
6.35
 41
6.35
 42
6.35000508
 43
6.35000508
 44
215.9
 45
279.4
 46
0.0
 47
0.0
 48
0.0
 49
0.0
140
0.0
141
0.0
142
1.0
143
1.0
 70
  1712
 72
     1
 73
     0
 74
     0
  7

 75
     0
147
1.0
148
0.0
149
0.0
100
AcDbLayout
  1
Model
 70
     1
 71
     0
 10
0.0
 20
0.0
 11
297.0
 21
210.0
 12
0.0
 22
0.0
 32
0.0
 14
0.0
 24
0.0
 34
0.0
 15
297.0
 25
210.0
 35
0.0
146
0.0
 13
0.0
 23
0.0
 33
0.0
 16
1.0
 26
0.0
 36
0.0
 17
0.0
 27
1.0
 37
0.0
 76
     0
330
1F
331
29
  0
MLINESTYLE
  5
18
102
{ACAD_REACTORS
330
17
102
}
330
17
100
AcDbMlineStyle
  2
Standard
 70
     0
  3

 62
   256
 51
90.0
 52
90.0
 71
     2
 49
0.5
 62
   256
  6
BYLAYER
 49
-0.5
 62
   256
  6
BYLAYER
  0
ACDBPLACEHOLDER
  5
F
102
{ACAD_REACTORS
330
E
102
}
330
E
  0
SCALE
  5
48
102
{ACAD_REACTORS
330
47
102
}
330
47
100
AcDbScale
 70
     0
300
1:1
140
1.0
141
1.0
290
     1
  0
SCALE
  5
49
102
{ACAD_REACTORS
330
47
102
}
330
47
100
AcDbScale
 70
     0
300
1:2
140
1.0
141
2.0
290
     0
  0
SCALE
  5
4A
102
{ACAD_REACTORS
330
47
102
}
330
47
100
AcDbScale
 70
     0
300
1:4
140
1.0
141
4.0
290
     0
  0
SCALE
  5
4B
102
{ACAD_REACTORS
330
47
102
}
330
47
100
AcDbScale
 70
     0
300
1:5
140
1.0
141
5.0
290
     0
  0
SCALE
  5
4C
102
{ACAD_REACTORS
330
47
102
}
330
47
100
AcDbScale
 70
     0
300
1:8
140
1.0
141
8.0
290
     0
  0
SCALE
  5
4D
102
{ACAD_REACTORS
330
47
102
}
330
47
100
AcDbScale
 70
     0
300
1:10
140
1.0
141
10.0
290
     0
  0
SCALE
  5
4E
102
{ACAD_REACTORS
330
47
102
}
330
47
100
AcDbScale
 70
     0
300
1:16
140
1.0
141
16.0
290
     0
  0
SCALE
  5
4F
102
{ACAD_REACTORS
330
47
102
}
330
47
100
AcDbScale
 70
     0
300
1:20
140
1.0
141
20.0
290
     0
  0
SCALE
  5
50
102
{ACAD_REACTORS
330
47
102
}
330
47
100
AcDbScale
 70
     0
300
1:30
140
1.0
141
30.0
290
     0
  0
SCALE
  5
51
102
{ACAD_REACTORS
330
47
102
}
330
47
100
AcDbScale
 70
     0
300
1:40
140
1.0
141
40.0
290
     0
  0
SCALE
  5
52
102
{ACAD_REACTORS
330
47
102
}
330
47
100
AcDbScale
 70
     0
300
1:50
140
1.0
141
50.0
290
     0
  0
SCALE
  5
53
102
{ACAD_REACTORS
330
47
102
}
330
47
100
AcDbScale
 70
     0
300
1:100
140
1.0
141
100.0
290
     0
  0
SCALE
  5
54
102
{ACAD_REACTORS
330
47
102
}
330
47
100
AcDbScale
 70
     0
300
2:1
140
2.0
141
1.0
290
     0
  0
SCALE
  5
55
102
{ACAD_REACTORS
330
47
102
}
330
47
100
AcDbScale
 70
     0
300
4:1
140
4.0
141
1.0
290
     0
  0
SCALE
  5
56
102
{ACAD_REACTORS
330
47
102
}
330
47
100
AcDbScale
 70
     0
300
8:1
140
8.0
141
1.0
290
     0
  0
SCALE
  5
57
102
{ACAD_REACTORS
330
47
102
}
330
47
100
AcDbScale
 70
     0
300
10:1
140
10.0
141
1.0
290
     0
  0
SCALE
  5
58
102
{ACAD_REACTORS
330
47
102
}
330
47
100
AcDbScale
 70
     0
300
100:1
140
100.0
141
1.0
290
     0
  0
SCALE
  5
59
102
{ACAD_REACTORS
330
47
102
}
330
47
100
AcDbScale
 70
     0
300
1/128" = 1'-0"
140
0.0078125
141
12.0
290
     0
  0
SCALE
  5
5A
102
{ACAD_REACTORS
330
47
102
}
330
47
100
AcDbScale
 70
     0
300
1/64" = 1'-0"
140
0.015625
141
12.0
290
     0
  0
SCALE
  5
5B
102
{ACAD_REACTORS
330
47
102
}
330
47
100
AcDbScale
 70
     0
300
1/32" = 1'-0"
140
0.03125
141
12.0
290
     0
  0
SCALE
  5
5C
102
{ACAD_REACTORS
330
47
102
}
330
47
100
AcDbScale
 70
     0
300
1/16" = 1'-0"
140
0.0625
141
12.0
290
     0
  0
SCALE
  5
5D
102
{ACAD_REACTORS
330
47
102
}
330
47
100
AcDbScale
 70
     0
300
3/32" = 1'-0"
140
0.09375
141
12.0
290
     0
  0
SCALE
  5
5E
102
{ACAD_REACTORS
330
47
102
}
330
47
100
AcDbScale
 70
     0
300
1/8" = 1'-0"
140
0.125
141
12.0
290
     0
  0
SCALE
  5
5F
102
{ACAD_REACTORS
330
47
102
}
330
47
100
AcDbScale
 70
     0
300
3/16" = 1'-0"
140
0.1875
141
12.0
290
     0
  0
SCALE
  5
60
102
{ACAD_REACTORS
330
47
102
}
330
47
100
AcDbScale
 70
     0
300
1/4" = 1'-0"
140
0.25
141
12.0
290
     0
  0
SCALE
  5
61
102
{ACAD_REACTORS
330
47
102
}
330
47
100
AcDbScale
 70
     0
300
3/8" = 1'-0"
140
0.375
141
12.0
290
     0
  0
SCALE
  5
62
102
{ACAD_REACTORS
330
47
102
}
330
47
100
AcDbScale
 70
     0
300
1/2" = 1'-0"
140
0.5
141
12.0
290
     0
  0
SCALE
  5
63
102
{ACAD_REACTORS
330
47
102
}
330
47
100
AcDbScale
 70
     0
300
3/4" = 1'-0"
140
0.75
141
12.0
290
     0
  0
SCALE
  5
64
102
{ACAD_REACTORS
330
47
102
}
330
47
100
AcDbScale
 70
     0
300
1" = 1'-0"
140
1.0
141
12.0
290
     0
  0
SCALE
  5
65
102
{ACAD_REACTORS
330
47
102
}
330
47
100
AcDbScale
 70
     0
300
1-1/2" = 1'-0"
140
1.5
141
12.0
290
     0
  0
SCALE
  5
66
102
{ACAD_REACTORS
330
47
102
}
330
47
100
AcDbScale
 70
     0
300
3" = 1'-0"
140
3.0
141
12.0
290
     0
  0
SCALE
  5
67
102
{ACAD_REACTORS
330
47
102
}
330
47
100
AcDbScale
 70
     0
300
6" = 1'-0"
140
6.0
141
12.0
290
     0
  0
SCALE
  5
68
102
{ACAD_REACTORS
330
47
102
}
330
47
100
AcDbScale
 70
     0
300
1'-0" = 1'-0"
140
12.0
141
12.0
290
     0
  0
ENDSEC
  0
EOF
