  0
SECTION
  2
HEADER
  9
$ACADVER
  1
AC1015
  9
$ACADMAINTVER
 70
     6
  9
$DWGCODEPAGE
  3
ANSI_1252
  9
$INSBASE
 10
0.0
 20
0.0
 30
0.0
  9
$EXTMIN
 10
0.0
 20
0.0
 30
0.0
  9
$EXTMAX
 10
297.0
 20
210.0
 30
0.0
  9
$LIMMIN
 10
0.0
 20
0.0
  9
$LIMMAX
 10
297.0
 20
210.0
  9
$ORTHOMODE
 70
     0
  9
$REGENMODE
 70
     1
  9
$FILLMODE
 70
     1
  9
$QTEXTMODE
 70
     0
  9
$MIRRTEXT
 70
     1
  9
$LTSCALE
 40
1.0
  9
$ATTMODE
 70
     1
  9
$TEXTSIZE
 40
2.0
  9
$TRACEWID
 40
1.0
  9
$TEXTSTYLE
  7
Standard
  9
$CLAYER
  8
0
  9
$CELTYPE
  6
ByLayer
  9
$CECOLOR
 62
   256
  9
$CELTSCALE
 40
1.0
  9
$DISPSILH
 70
     0
  9
$DIMSCALE
 40
1.0
  9
$DIMASZ
 40
3.0
  9
$DIMEXO
 40
0.0
  9
$DIMDLI
 40
3.75
  9
$DIMRND
 40
0.0
  9
$DIMDLE
 40
0.0
  9
$DIMEXE
 40
1.0
  9
$DIMTP
 40
0.0
  9
$DIMTM
 40
0.0
  9
$DIMTXT
 40
2.0
  9
$DIMCEN
 40
2.5
  9
$DIMTSZ
 40
0.0
  9
$DIMTOL
 70
     0
  9
$DIMLIM
 70
     0
  9
$DIMTIH
 70
     1
  9
$DIMTOH
 70
     1
  9
$DIMSE1
 70
     0
  9
$DIMSE2
 70
     0
  9
$DIMTAD
 70
     1
  9
$DIMZIN
 70
     0
  9
$DIMBLK
  1

  9
$DIMASO
 70
     1
  9
$DIMSHO
 70
     1
  9
$DIMPOST
  1

  9
$DIMAPOST
  1

  9
$DIMALT
 70
     0
  9
$DIMALTD
 70
     3
  9
$DIMALTF
 40
0.0393700787
  9
$DIMLFAC
 40
2.0
  9
$DIMTOFL
 70
     1
  9
$DIMTVP
 40
0.0
  9
$DIMTIX
 70
     0
  9
$DIMSOXD
 70
     0
  9
$DIMSAH
 70
     0
  9
$DIMBLK1
  1

  9
$DIMBLK2
  1

  9
$DIMSTYLE
  2
ISO-25
  9
$DIMCLRD
 70
     0
  9
$DIMCLRE
 70
     0
  9
$DIMCLRT
 70
     0
  9
$DIMTFAC
 40
1.0
  9
$DIMGAP
 40
1.524
  9
$DIMJUST
 70
     0
  9
$DIMSD1
 70
     0
  9
$DIMSD2
 70
     0
  9
$DIMTOLJ
 70
     0
  9
$DIMTZIN
 70
     0
  9
$DIMALTZ
 70
     0
  9
$DIMALTTZ
 70
     0
  9
$DIMUPT
 70
     0
  9
$DIMDEC
 70
     2
  9
$DIMTDEC
 70
     3
  9
$DIMALTU
 70
     2
  9
$DIMALTTD
 70
     3
  9
$DIMTXSTY
  7
Standard
  9
$DIMAUNIT
 70
     0
  9
$DIMADEC
 70
     2
  9
$DIMALTRND
 40
0.0
  9
$DIMAZIN
 70
     0
  9
$DIMDSEP
 70
    44
  9
$DIMATFIT
 70
     3
  9
$DIMFRAC
 70
     0
  9
$DIMLDRBLK
  1

  9
$DIMLUNIT
 70
     2
  9
$DIMLWD
 70
    -2
  9
$DIMLWE
 70
    -2
  9
$DIMTMOVE
 70
     0
  9
$LUNITS
 70
     2
  9
$LUPREC
 70
     2
  9
$SKETCHINC
 40
1.0
  9
$FILLETRAD
 40
10.0
  9
$AUNITS
 70
     0
  9
$AUPREC
 70
     2
  9
$MENU
  1
.
  9
$ELEVATION
 40
0.0
  9
$PELEVATION
 40
0.0
  9
$THICKNESS
 40
0.0
  9
$LIMCHECK
 70
     0
  9
$CHAMFERA
 40
0.0
  9
$CHAMFERB
 40
0.0
  9
$CHAMFERC
 40
0.0
  9
$CHAMFERD
 40
0.0
  9
$SKPOLY
 70
     0
  9
$TDCREATE
 40
2458162.444221401
  9
$TDUCREATE
 40
2458162.402554734
  9
$TDUPDATE
 40
2458162.444223252
  9
$TDUUPDATE
 40
2458162.402556586
  9
$TDINDWG
 40
0.0000000116
  9
$TDUSRTIMER
 40
0.0000000116
  9
$USRTIMER
 70
     1
  9
$ANGBASE
 50
0.0
  9
$ANGDIR
 70
     0
  9
$PDMODE
 70
     0
  9
$PDSIZE
 40
-1.0
  9
$PLINEWID
 40
0.0
  9
$SPLFRAME
 70
     0
  9
$SPLINETYPE
 70
     6
  9
$SPLINESEGS
 70
     8
  9
$HANDSEED
  5
252
  9
$SURFTAB1
 70
     6
  9
$SURFTAB2
 70
     6
  9
$SURFTYPE
 70
     6
  9
$SURFU
 70
     6
  9
$SURFV
 70
     6
  9
$UCSBASE
  2

  9
$UCSNAME
  2

  9
$UCSORG
 10
0.0
 20
0.0
 30
0.0
  9
$UCSXDIR
 10
1.0
 20
0.0
 30
0.0
  9
$UCSYDIR
 10
0.0
 20
1.0
 30
0.0
  9
$UCSORTHOREF
  2

  9
$UCSORTHOVIEW
 70
     0
  9
$UCSORGTOP
 10
0.0
 20
0.0
 30
0.0
  9
$UCSORGBOTTOM
 10
0.0
 20
0.0
 30
0.0
  9
$UCSORGLEFT
 10
0.0
 20
0.0
 30
0.0
  9
$UCSORGRIGHT
 10
0.0
 20
0.0
 30
0.0
  9
$UCSORGFRONT
 10
0.0
 20
0.0
 30
0.0
  9
$UCSORGBACK
 10
0.0
 20
0.0
 30
0.0
  9
$PUCSBASE
  2

  9
$PUCSNAME
  2

  9
$PUCSORG
 10
0.0
 20
0.0
 30
0.0
  9
$PUCSXDIR
 10
1.0
 20
0.0
 30
0.0
  9
$PUCSYDIR
 10
0.0
 20
1.0
 30
0.0
  9
$PUCSORTHOREF
  2

  9
$PUCSORTHOVIEW
 70
     0
  9
$PUCSORGTOP
 10
0.0
 20
0.0
 30
0.0
  9
$PUCSORGBOTTOM
 10
0.0
 20
0.0
 30
0.0
  9
$PUCSORGLEFT
 10
0.0
 20
0.0
 30
0.0
  9
$PUCSORGRIGHT
 10
0.0
 20
0.0
 30
0.0
  9
$PUCSORGFRONT
 10
0.0
 20
0.0
 30
0.0
  9
$PUCSORGBACK
 10
0.0
 20
0.0
 30
0.0
  9
$USERI1
 70
     0
  9
$USERI2
 70
     0
  9
$USERI3
 70
     0
  9
$USERI4
 70
     0
  9
$USERI5
 70
     0
  9
$USERR1
 40
0.0
  9
$USERR2
 40
0.0
  9
$USERR3
 40
0.0
  9
$USERR4
 40
0.0
  9
$USERR5
 40
0.0
  9
$WORLDVIEW
 70
     1
  9
$SHADEDGE
 70
     3
  9
$SHADEDIF
 70
    70
  9
$TILEMODE
 70
     1
  9
$MAXACTVP
 70
    64
  9
$PINSBASE
 10
0.0
 20
0.0
 30
0.0
  9
$PLIMCHECK
 70
     0
  9
$PEXTMIN
 10
1.0000000000E+20
 20
1.0000000000E+20
 30
1.0000000000E+20
  9
$PEXTMAX
 10
-1.0000000000E+20
 20
-1.0000000000E+20
 30
-1.0000000000E+20
  9
$PLIMMIN
 10
0.0
 20
0.0
  9
$PLIMMAX
 10
420.0
 20
297.0
  9
$UNITMODE
 70
     0
  9
$VISRETAIN
 70
     1
  9
$PLINEGEN
 70
     0
  9
$PSLTSCALE
 70
     1
  9
$TREEDEPTH
 70
  3020
  9
$CMLSTYLE
  2
Standard
  9
$CMLJUST
 70
     0
  9
$CMLSCALE
 40
20.0
  9
$PROXYGRAPHICS
 70
     1
  9
$MEASUREMENT
 70
     1
  9
$CELWEIGHT
370
    -1
  9
$ENDCAPS
280
     0
  9
$JOINSTYLE
280
     0
  9
$LWDISPLAY
290
     1
  9
$INSUNITS
 70
     4
  9
$HYPERLINKBASE
  1

  9
$STYLESHEET
  1

  9
$XEDIT
290
     1
  9
$CEPSNTYPE
380
     0
  9
$PSTYLEMODE
290
     1
  9
$FINGERPRINTGUID
  2
{125B8D19-F562-4915-98BB-31D54FD86B16}
  9
$VERSIONGUID
  2
{FAEB1C32-E019-11D5-929B-00C0DF256EC4}
  9
$EXTNAMES
290
     1
  9
$PSVPSCALE
 40
0.0
  9
$OLESTARTUP
290
     0
  0
ENDSEC
  0
SECTION
  2
CLASSES
  0
CLASS
  1
ACDBDICTIONARYWDFLT
  2
AcDbDictionaryWithDefault
  3
ObjectDBX Classes
 90
        0
280
     0
281
     0
  0
CLASS
  1
VISUALSTYLE
  2
AcDbVisualStyle
  3
ObjectDBX Classes
 90
     4095
280
     0
281
     0
  0
CLASS
  1
MATERIAL
  2
AcDbMaterial
  3
ObjectDBX Classes
 90
     1153
280
     0
281
     0
  0
CLASS
  1
SCALE
  2
AcDbScale
  3
ObjectDBX Classes
 90
     1153
280
     0
281
     0
  0
CLASS
  1
TABLESTYLE
  2
AcDbTableStyle
  3
ObjectDBX Classes
 90
     4095
280
     0
281
     0
  0
CLASS
  1
MLEADERSTYLE
  2
AcDbMLeaderStyle
  3
ACDB_MLEADERSTYLE_CLASS
 90
     4095
280
     0
281
     0
  0
CLASS
  1
SUN
  2
AcDbSun
  3
SCENEOE
 90
     1153
280
     0
281
     0
  0
CLASS
  1
ACDBPLACEHOLDER
  2
AcDbPlaceHolder
  3
ObjectDBX Classes
 90
        0
280
     0
281
     0
  0
CLASS
  1
LAYOUT
  2
AcDbLayout
  3
ObjectDBX Classes
 90
        0
280
     0
281
     0
  0
ENDSEC
  0
SECTION
  2
TABLES
  0
TABLE
  2
VPORT
  5
8
330
0
100
AcDbSymbolTable
 70
     1
  0
VPORT
  5
29
330
8
100
AcDbSymbolTableRecord
100
AcDbViewportTableRecord
  2
*Active
 70
     0
 10
0.0
 20
0.0
 11
1.0
 21
1.0
 12
148.5
 22
105.0
 13
0.0
 23
0.0
 14
10.0
 24
10.0
 15
10.0
 25
10.0
 16
0.0
 26
0.0
 36
1.0
 17
0.0
 27
0.0
 37
0.0
 40
210.0
 41
1.4142857143
 42
50.0
 43
0.0
 44
0.0
 50
0.0
 51
0.0
 71
     0
 72
  2000
 73
     1
 74
     3
 75
     0
 76
     0
 77
     0
 78
     0
281
     0
 65
     1
110
0.0
120
0.0
130
0.0
111
1.0
121
0.0
131
0.0
112
0.0
122
1.0
132
0.0
 79
     0
146
0.0
  0
ENDTAB
  0
TABLE
  2
LTYPE
  5
5
330
0
100
AcDbSymbolTable
 70
     6
  0
LTYPE
  5
14
330
5
100
AcDbSymbolTableRecord
100
AcDbLinetypeTableRecord
  2
ByBlock
 70
     0
  3

 72
    65
 73
     0
 40
0.0
  0
LTYPE
  5
15
330
5
100
AcDbSymbolTableRecord
100
AcDbLinetypeTableRecord
  2
ByLayer
 70
     0
  3

 72
    65
 73
     0
 40
0.0
  0
LTYPE
  5
16
330
5
100
AcDbSymbolTableRecord
100
AcDbLinetypeTableRecord
  2
Continuous
 70
     0
  3
Solid line
 72
    65
 73
     0
 40
0.0
  0
LTYPE
  5
6E
330
5
100
AcDbSymbolTableRecord
100
AcDbLinetypeTableRecord
  2
HIDDEN
 70
     0
  3
Hidden __ __ __ __ __ __ __ __ __ __ __ __ __ __
 72
    65
 73
     2
 40
1.905
 49
1.27
 74
     0
 49
-0.635
 74
     0
  0
LTYPE
  5
6F
330
5
100
AcDbSymbolTableRecord
100
AcDbLinetypeTableRecord
  2
PHANTOM
 70
     0
  3
Phantom ______  __  __  ______  __  __  ______
 72
    65
 73
     6
 40
12.7
 49
6.35
 74
     0
 49
-1.27
 74
     0
 49
1.27
 74
     0
 49
-1.27
 74
     0
 49
1.27
 74
     0
 49
-1.27
 74
     0
  0
LTYPE
  5
70
330
5
100
AcDbSymbolTableRecord
100
AcDbLinetypeTableRecord
  2
CENTER
 70
     0
  3
Center ____ _ ____ _ ____ _ ____ _ ____ _ ____
 72
    65
 73
     4
 40
10.16
 49
6.35
 74
     0
 49
-1.27
 74
     0
 49
1.27
 74
     0
 49
-1.27
 74
     0
  0
LTYPE
  5
71
330
5
100
AcDbSymbolTableRecord
100
AcDbLinetypeTableRecord
  2
CENTERX2
 70
     0
  3
Center (2x) ________  __  ________  __  _____
 72
    65
 73
     4
 40
20.32
 49
12.7
 74
     0
 49
-2.54
 74
     0
 49
2.54
 74
     0
 49
-2.54
 74
     0
  0
LTYPE
  5
72
330
5
100
AcDbSymbolTableRecord
100
AcDbLinetypeTableRecord
  2
DOT2
 70
     0
  3
Dot (.5x) ........................................
 72
    65
 73
     2
 40
0.635
 49
0.0
 74
     0
 49
-0.635
 74
     0
  0
ENDTAB
  0
TABLE
  2
LAYER
  5
2
330
0
100
AcDbSymbolTable
 70
     5
  0
LAYER
  5
10
330
2
100
AcDbSymbolTableRecord
100
AcDbLayerTableRecord
  2
0
 70
     0
 62
     7
  6
Continuous
370
    -3
390
F
  0
LAYER
  5
73
330
2
100
AcDbSymbolTableRecord
100
AcDbLayerTableRecord
  2
FORMAT
 70
     0
 62
     7
  6
Continuous
370
    -3
390
F
  0
LAYER
  5
74
330
2
100
AcDbSymbolTableRecord
100
AcDbLayerTableRecord
  2
VERMASSUNG
 70
     0
 62
     7
  6
Continuous
370
    -3
390
F
  0
LAYER
  5
75
330
2
100
AcDbSymbolTableRecord
100
AcDbLayerTableRecord
  2
KOPF_DÜNN
 70
     0
 62
     7
  6
Continuous
370
    -3
390
F
  0
LAYER
  5
76
330
2
100
AcDbSymbolTableRecord
100
AcDbLayerTableRecord
  2
KOPF_DICK
 70
     0
 62
     7
  6
Continuous
370
    25
390
F
  0
ENDTAB
  0
TABLE
  2
STYLE
  5
3
330
0
100
AcDbSymbolTable
 70
     3
  0
STYLE
  5
11
330
3
100
AcDbSymbolTableRecord
100
AcDbTextStyleTableRecord
  2
Standard
 70
     0
 40
0.0
 41
1.0
 50
0.0
 71
     0
 42
2.0
  3
txt
  4

  0
STYLE
  5
77
330
3
100
AcDbSymbolTableRecord
100
AcDbTextStyleTableRecord
  2
SLDTEXTSTYLE0
 70
     0
 40
0.0
 41
0.7
 50
0.0
 71
     0
 42
2.0
  3
TXT
  4

  0
STYLE
  5
7B
330
3
100
AcDbSymbolTableRecord
100
AcDbTextStyleTableRecord
  2
SLDTEXTSTYLE1
 70
     0
 40
0.0
 41
0.6416666667
 50
0.0
 71
     0
 42
2.0
  3
TXT
  4

  0
ENDTAB
  0
TABLE
  2
VIEW
  5
6
330
0
100
AcDbSymbolTable
 70
     0
  0
ENDTAB
  0
TABLE
  2
UCS
  5
7
330
0
100
AcDbSymbolTable
 70
     0
  0
ENDTAB
  0
TABLE
  2
APPID
  5
9
330
0
100
AcDbSymbolTable
 70
     1
  0
APPID
  5
12
330
9
100
AcDbSymbolTableRecord
100
AcDbRegAppTableRecord
  2
ACAD
 70
     0
  0
ENDTAB
  0
TABLE
  2
DIMSTYLE
  5
A
330
0
100
AcDbSymbolTable
 70
     4
100
AcDbDimStyleTable
  0
DIMSTYLE
105
27
330
A
100
AcDbSymbolTableRecord
100
AcDbDimStyleTableRecord
  2
ISO-25
 70
     0
 41
2.5
 42
0.625
 43
3.75
 44
1.25
 73
     0
 74
     0
 77
     1
 78
     8
140
2.5
141
2.5
143
0.0393700787
147
0.625
171
     3
172
     1
178
     0
271
     2
272
     2
274
     3
278
    44
283
     0
284
     8
340
11
  0
DIMSTYLE
105
109
102
{ACAD_REACTORS
330
108
102
}
330
A
100
AcDbSymbolTableRecord
100
AcDbDimStyleTableRecord
  2
SLDDIMSTYLE0
 70
     0
 41
3.0
 44
0.0
 73
     0
 74
     0
 77
     1
 78
    12
 79
     3
140
2.0
147
0.5
173
     1
178
     0
179
     2
272
     3
276
     2
284
    12
340
77
  0
DIMSTYLE
105
114
102
{ACAD_REACTORS
330
113
330
120
102
}
330
A
100
AcDbSymbolTableRecord
100
AcDbDimStyleTableRecord
  2
SLDDIMSTYLE1
 70
     0
 41
3.0
 44
0.0
 45
0.000000001
 47
0.1
 48
0.1
 71
     1
 73
     0
 74
     0
 77
     1
 78
    12
 79
     3
140
2.0
147
0.5
173
     1
178
     0
271
     2
272
     1
276
     2
284
     8
340
77
  0
DIMSTYLE
105
12D
102
{ACAD_REACTORS
330
12C
330
137
102
}
330
A
100
AcDbSymbolTableRecord
100
AcDbDimStyleTableRecord
  2
SLDDIMSTYLE2
 70
     0
 41
3.0
 44
0.0
 45
0.000000001
 73
     0
 74
     0
 77
     1
 78
    12
 79
     3
140
2.0
147
0.5
173
     1
178
     0
271
     2
272
     3
276
     2
284
    12
340
77
  0
ENDTAB
  0
TABLE
  2
BLOCK_RECORD
  5
1
330
0
100
AcDbSymbolTable
 70
     7
  0
BLOCK_RECORD
  5
1F
330
1
100
AcDbSymbolTableRecord
100
AcDbBlockTableRecord
  2
*Model_Space
340
22
  0
BLOCK_RECORD
  5
1B
330
1
100
AcDbSymbolTableRecord
100
AcDbBlockTableRecord
  2
*Paper_Space
340
1E
  0
BLOCK_RECORD
  5
23
330
1
100
AcDbSymbolTableRecord
100
AcDbBlockTableRecord
  2
*Paper_Space0
340
26
  0
BLOCK_RECORD
  5
10A
330
1
100
AcDbSymbolTableRecord
100
AcDbBlockTableRecord
  2
_D
340
0
  0
BLOCK_RECORD
  5
115
330
1
100
AcDbSymbolTableRecord
100
AcDbBlockTableRecord
  2
_D_1
340
0
  0
BLOCK_RECORD
  5
121
330
1
100
AcDbSymbolTableRecord
100
AcDbBlockTableRecord
  2
_D_2
340
0
  0
BLOCK_RECORD
  5
12E
330
1
100
AcDbSymbolTableRecord
100
AcDbBlockTableRecord
  2
_D_3
340
0
  0
BLOCK_RECORD
  5
138
330
1
100
AcDbSymbolTableRecord
100
AcDbBlockTableRecord
  2
_D_4
340
0
  0
BLOCK_RECORD
  5
16D
330
1
100
AcDbSymbolTableRecord
100
AcDbBlockTableRecord
  2
SW_CENTERMARKSYMBOL_0
340
0
102
{BLKREFS
331
178
102
}
  0
ENDTAB
  0
ENDSEC
  0
SECTION
  2
BLOCKS
  0
BLOCK
  5
20
330
1F
100
AcDbEntity
  8
0
100
AcDbBlockBegin
  2
*Model_Space
 70
     0
 10
0.0
 20
0.0
 30
0.0
  3
*Model_Space
  1

  0
ENDBLK
  5
21
330
1F
100
AcDbEntity
  8
0
100
AcDbBlockEnd
  0
BLOCK
  5
1C
330
1B
100
AcDbEntity
 67
     1
  8
0
100
AcDbBlockBegin
  2
*Paper_Space
 70
     0
 10
0.0
 20
0.0
 30
0.0
  3
*Paper_Space
  1

  0
ENDBLK
  5
1D
330
1B
100
AcDbEntity
 67
     1
  8
0
100
AcDbBlockEnd
  0
BLOCK
  5
24
330
23
100
AcDbEntity
  8
0
100
AcDbBlockBegin
  2
*Paper_Space0
 70
     0
 10
0.0
 20
0.0
 30
0.0
  3
*Paper_Space0
  1

  0
ENDBLK
  5
25
330
23
100
AcDbEntity
  8
0
100
AcDbBlockEnd
  0
BLOCK
  5
10B
330
10A
100
AcDbEntity
  8
0
100
AcDbBlockBegin
  2
_D
 70
     0
 10
0.0
 20
0.0
 30
0.0
  3
_D
  1

  0
ARC
  5
10D
330
10A
100
AcDbEntity
  8
VERMASSUNG
100
AcDbCircle
 10
262.7039465694
 20
150.6644951038
 30
0.0
 40
16.56430260309617
100
AcDbArc
 50
90.0
 51
135.0
  0
SOLID
  5
10E
330
10A
100
AcDbEntity
  8
VERMASSUNG
100
AcDbTrace
 10
262.7039465694
 20
167.2287977069
 30
0.0
 11
259.6757173629
 21
167.4085972423
 31
0.0
 12
259.756236144
 22
166.5122062975
 32
0.0
 13
259.756236144
 23
166.5122062975
 33
0.0
  0
SOLID
  5
10F
330
10A
100
AcDbEntity
  8
VERMASSUNG
100
AcDbTrace
 10
250.9912158731
 20
162.3772258001
 30
0.0
 11
253.5822685488
 21
163.954865186
 31
0.0
 12
253.0053598093
 22
164.6456446777
 32
0.0
 13
253.0053598093
 23
164.6456446777
 33
0.0
  0
LINE
  5
110
330
10A
100
AcDbEntity
  8
VERMASSUNG
100
AcDbLine
 10
262.7039465694
 20
159.313380375
 30
0.0
 11
262.7039465694
 21
168.2287977069
 31
0.0
  0
LINE
  5
111
330
10A
100
AcDbEntity
  8
VERMASSUNG
100
AcDbLine
 10
254.1722185858
 20
159.1962230875
 30
0.0
 11
250.284109092
 21
163.0843325813
 31
0.0
  0
MTEXT
  5
112
330
10A
100
AcDbEntity
  8
VERMASSUNG
100
AcDbMText
 10
253.4383054514
 20
167.5461666899
 30
0.0
 40
2.0
 41
0.0
 71
     1
 72
     1
  1
45°
  7
SLDTEXTSTYLE0
 11
0.9238795325112844
 21
0.3826834323650955
 31
0.0
 73
     1
 44
1.0
  0
ENDBLK
  5
10C
330
10A
100
AcDbEntity
  8
0
100
AcDbBlockEnd
  0
BLOCK
  5
116
330
115
100
AcDbEntity
  8
0
100
AcDbBlockBegin
  2
_D_1
 70
     0
 10
0.0
 20
0.0
 30
0.0
  3
_D_1
  1

  0
SOLID
  5
118
330
115
100
AcDbEntity
  8
VERMASSUNG
100
AcDbTrace
 10
272.8696319943
 20
159.313380375
 30
0.0
 11
272.4196319943
 21
156.313380375
 31
0.0
 12
273.3196319943
 22
156.313380375
 32
0.0
 13
273.3196319943
 23
156.313380375
 33
0.0
  0
SOLID
  5
119
330
115
100
AcDbEntity
  8
VERMASSUNG
100
AcDbTrace
 10
272.8696319943
 20
114.313380375
 30
0.0
 11
273.3196319943
 21
117.313380375
 31
0.0
 12
272.4196319943
 22
117.313380375
 32
0.0
 13
272.4196319943
 23
117.313380375
 33
0.0
  0
LINE
  5
11A
330
115
100
AcDbEntity
  8
VERMASSUNG
100
AcDbLine
 10
262.7039465694
 20
159.313380375
 30
0.0
 11
273.8696319943
 21
159.313380375
 31
0.0
  0
LINE
  5
11B
330
115
100
AcDbEntity
  8
VERMASSUNG
100
AcDbLine
 10
267.4627128097
 20
114.313380375
 30
0.0
 11
273.8696319943
 21
114.313380375
 31
0.0
  0
LINE
  5
11C
330
115
100
AcDbEntity
  8
VERMASSUNG
100
AcDbLine
 10
272.8696319943
 20
159.313380375
 30
0.0
 11
272.8696319943
 21
114.313380375
 31
0.0
  0
MTEXT
  5
11D
330
115
100
AcDbEntity
  8
VERMASSUNG
100
AcDbMText
 10
270.2914963984
 20
133.0633799932
 30
0.0
 40
2.0
 41
0.0
 71
     1
 72
     1
  1
45
  7
SLDTEXTSTYLE0
 11
-7.044195017643634E-15
 21
1.0
 31
0.0
 73
     1
 44
1.0
  0
MTEXT
  5
11E
330
115
100
AcDbEntity
  8
VERMASSUNG
100
AcDbMText
 10
270.2914963984
 20
137.2508800193
 30
0.0
 40
2.0
 41
0.0
 71
     1
 72
     1
  1

  7
SLDTEXTSTYLE0
 11
-7.044195017643634E-15
 21
1.0
 31
0.0
 73
     1
 44
1.0
  0
MTEXT
  5
11F
330
115
100
AcDbEntity
  8
VERMASSUNG
100
AcDbMText
 10
270.786030232
 20
137.2633798434
 30
0.0
 40
1.5
 41
0.0
 71
     1
 72
     1
  1
±0.1
  7
SLDTEXTSTYLE0
 11
-7.044195017643634E-15
 21
1.0
 31
0.0
 73
     1
 44
1.0
  0
ENDBLK
  5
117
330
115
100
AcDbEntity
  8
0
100
AcDbBlockEnd
  0
BLOCK
  5
122
330
121
100
AcDbEntity
  8
0
100
AcDbBlockBegin
  2
_D_2
 70
     0
 10
0.0
 20
0.0
 30
0.0
  3
_D_2
  1

  0
SOLID
  5
124
330
121
100
AcDbEntity
  8
VERMASSUNG
100
AcDbTrace
 10
262.7039465694
 20
174.7270207205
 30
0.0
 11
259.7039465694
 21
175.1770207205
 31
0.0
 12
259.7039465694
 22
174.2770207205
 32
0.0
 13
259.7039465694
 23
174.2770207205
 33
0.0
  0
SOLID
  5
125
330
121
100
AcDbEntity
  8
VERMASSUNG
100
AcDbTrace
 10
197.7039465694
 20
174.7270207205
 30
0.0
 11
200.7039465694
 21
174.2770207205
 31
0.0
 12
200.7039465694
 22
175.1770207205
 32
0.0
 13
200.7039465694
 23
175.1770207205
 33
0.0
  0
LINE
  5
126
330
121
100
AcDbEntity
  8
VERMASSUNG
100
AcDbLine
 10
262.7039465694
 20
159.313380375
 30
0.0
 11
262.7039465694
 21
175.7270207205
 31
0.0
  0
LINE
  5
127
330
121
100
AcDbEntity
  8
VERMASSUNG
100
AcDbLine
 10
197.7039465694
 20
145.313380375
 30
0.0
 11
197.7039465694
 21
175.7270207205
 31
0.0
  0
LINE
  5
128
330
121
100
AcDbEntity
  8
VERMASSUNG
100
AcDbLine
 10
262.7039465694
 20
174.7270207205
 30
0.0
 11
197.7039465694
 21
174.7270207205
 31
0.0
  0
MTEXT
  5
129
330
121
100
AcDbEntity
  8
VERMASSUNG
100
AcDbMText
 10
226.5539464834
 20
177.3051563165
 30
0.0
 40
2.0
 41
0.0
 71
     1
 72
     1
  1
65
  7
SLDTEXTSTYLE0
 73
     1
 44
1.0
  0
MTEXT
  5
12A
330
121
100
AcDbEntity
  8
VERMASSUNG
100
AcDbMText
 10
230.5414463835
 20
177.3051563165
 30
0.0
 40
2.0
 41
0.0
 71
     1
 72
     1
  1

  7
SLDTEXTSTYLE0
 73
     1
 44
1.0
  0
MTEXT
  5
12B
330
121
100
AcDbEntity
  8
VERMASSUNG
100
AcDbMText
 10
230.5539462077
 20
176.8106224828
 30
0.0
 40
1.5
 41
0.0
 71
     1
 72
     1
  1
±0.1
  7
SLDTEXTSTYLE0
 73
     1
 44
1.0
  0
ENDBLK
  5
123
330
121
100
AcDbEntity
  8
0
100
AcDbBlockEnd
  0
BLOCK
  5
12F
330
12E
100
AcDbEntity
  8
0
100
AcDbBlockBegin
  2
_D_3
 70
     0
 10
0.0
 20
0.0
 30
0.0
  3
_D_3
  1

  0
SOLID
  5
131
330
12E
100
AcDbEntity
  8
VERMASSUNG
100
AcDbTrace
 10
262.7039465694
 20
183.4550705021
 30
0.0
 11
259.7039465694
 21
183.9050705021
 31
0.0
 12
259.7039465694
 22
183.0050705021
 32
0.0
 13
259.7039465694
 23
183.0050705021
 33
0.0
  0
SOLID
  5
132
330
12E
100
AcDbEntity
  8
VERMASSUNG
100
AcDbTrace
 10
159.7039465694
 20
183.4550705021
 30
0.0
 11
162.7039465694
 21
183.0050705021
 31
0.0
 12
162.7039465694
 22
183.9050705021
 32
0.0
 13
162.7039465694
 23
183.9050705021
 33
0.0
  0
LINE
  5
133
330
12E
100
AcDbEntity
  8
VERMASSUNG
100
AcDbLine
 10
262.7039465694
 20
159.313380375
 30
0.0
 11
262.7039465694
 21
184.4550705021
 31
0.0
  0
LINE
  5
134
330
12E
100
AcDbEntity
  8
VERMASSUNG
100
AcDbLine
 10
159.7039465694
 20
134.6057183675
 30
0.0
 11
159.7039465694
 21
184.4550705021
 31
0.0
  0
LINE
  5
135
330
12E
100
AcDbEntity
  8
VERMASSUNG
100
AcDbLine
 10
262.7039465694
 20
183.4550705021
 30
0.0
 11
159.7039465694
 21
183.4550705021
 31
0.0
  0
MTEXT
  5
136
330
12E
100
AcDbEntity
  8
VERMASSUNG
100
AcDbMText
 10
209.3039465374
 20
186.0332060981
 30
0.0
 40
2.0
 41
0.0
 71
     1
 72
     1
  1
103
  7
SLDTEXTSTYLE0
 73
     1
 44
1.0
  0
ENDBLK
  5
130
330
12E
100
AcDbEntity
  8
0
100
AcDbBlockEnd
  0
BLOCK
  5
139
330
138
100
AcDbEntity
  8
0
100
AcDbBlockBegin
  2
_D_4
 70
     0
 10
0.0
 20
0.0
 30
0.0
  3
_D_4
  1

  0
SOLID
  5
13B
330
138
100
AcDbEntity
  8
VERMASSUNG
100
AcDbTrace
 10
149.7039465694
 20
145.813380375
 30
0.0
 11
149.2539465694
 21
142.813380375
 31
0.0
 12
150.1539465694
 22
142.813380375
 32
0.0
 13
150.1539465694
 23
142.813380375
 33
0.0
  0
SOLID
  5
13C
330
138
100
AcDbEntity
  8
VERMASSUNG
100
AcDbTrace
 10
149.7039465694
 20
82.813380375
 30
0.0
 11
150.1539465694
 21
85.813380375
 31
0.0
 12
149.2539465694
 22
85.813380375
 32
0.0
 13
149.2539465694
 23
85.813380375
 33
0.0
  0
LINE
  5
13D
330
138
100
AcDbEntity
  8
VERMASSUNG
100
AcDbLine
 10
198.2039465694
 20
145.813380375
 30
0.0
 11
148.7039465694
 21
145.813380375
 31
0.0
  0
LINE
  5
13E
330
138
100
AcDbEntity
  8
VERMASSUNG
100
AcDbLine
 10
198.2039465694
 20
82.813380375
 30
0.0
 11
148.7039465694
 21
82.813380375
 31
0.0
  0
LINE
  5
13F
330
138
100
AcDbEntity
  8
VERMASSUNG
100
AcDbLine
 10
149.7039465694
 20
145.813380375
 30
0.0
 11
149.7039465694
 21
82.813380375
 31
0.0
  0
MTEXT
  5
140
330
138
100
AcDbEntity
  8
VERMASSUNG
100
AcDbMText
 10
146.9258113132
 20
108.8083810652
 30
0.0
 40
2.0
 41
0.0
 71
     1
 72
     1
  1
PSC
  7
SLDTEXTSTYLE0
 11
-7.044195017643634E-15
 21
1.0
 31
0.0
 73
     1
 44
1.0
  0
MTEXT
  5
141
330
138
100
AcDbEntity
  8
VERMASSUNG
100
AcDbMText
 10
147.1258112645
 20
113.4083807017
 30
0.0
 40
2.0
 41
0.0
 71
     1
 72
     1
  1
%%c
  7
SLDTEXTSTYLE0
 11
-7.044195017643634E-15
 21
1.0
 31
0.0
 73
     1
 44
1.0
  0
MTEXT
  5
142
330
138
100
AcDbEntity
  8
VERMASSUNG
100
AcDbMText
 10
146.9258113132
 20
117.018380716
 30
0.0
 40
2.0
 41
0.0
 71
     1
 72
     1
  1
63
  7
SLDTEXTSTYLE0
 11
-7.044195017643634E-15
 21
1.0
 31
0.0
 73
     1
 44
1.0
  0
ENDBLK
  5
13A
330
138
100
AcDbEntity
  8
0
100
AcDbBlockEnd
  0
BLOCK
  5
16E
330
16D
100
AcDbEntity
  8
0
100
AcDbBlockBegin
  2
SW_CENTERMARKSYMBOL_0
 70
     0
 10
0.0
 20
0.0
 30
0.0
  3
SW_CENTERMARKSYMBOL_0
  1

  0
LINE
  5
170
330
16D
100
AcDbEntity
  8
VERMASSUNG
 62
     0
100
AcDbLine
 10
0.0
 20
0.0
 30
0.0
 11
0.0
 21
2.5
 31
0.0
  0
LINE
  5
171
330
16D
100
AcDbEntity
  8
VERMASSUNG
 62
     0
100
AcDbLine
 10
0.0
 20
0.0
 30
0.0
 11
-2.5
 21
0.0
 31
0.0
  0
LINE
  5
172
330
16D
100
AcDbEntity
  8
VERMASSUNG
 62
     0
100
AcDbLine
 10
0.0
 20
0.0
 30
0.0
 11
0.0
 21
-2.5
 31
0.0
  0
LINE
  5
173
330
16D
100
AcDbEntity
  8
VERMASSUNG
 62
     0
100
AcDbLine
 10
0.0
 20
0.0
 30
0.0
 11
2.5
 21
0.0
 31
0.0
  0
LINE
  5
174
330
16D
100
AcDbEntity
  8
VERMASSUNG
 62
     0
100
AcDbLine
 10
0.0
 20
5.0
 30
0.0
 11
0.0
 21
47.7326722137
 31
0.0
  0
LINE
  5
175
330
16D
100
AcDbEntity
  8
VERMASSUNG
 62
     0
100
AcDbLine
 10
-5.0
 20
0.0
 30
0.0
 11
-34.5
 21
0.0
 31
0.0
  0
LINE
  5
176
330
16D
100
AcDbEntity
  8
VERMASSUNG
 62
     0
100
AcDbLine
 10
0.0
 20
-5.0
 30
0.0
 11
0.0
 21
-34.5
 31
0.0
  0
LINE
  5
177
330
16D
100
AcDbEntity
  8
VERMASSUNG
 62
     0
100
AcDbLine
 10
5.0
 20
0.0
 30
0.0
 11
34.5
 21
0.0
 31
0.0
  0
ENDBLK
  5
16F
330
16D
100
AcDbEntity
  8
0
100
AcDbBlockEnd
  0
ENDSEC
  0
SECTION
  2
ENTITIES
  0
MTEXT
  5
78
330
1F
100
AcDbEntity
  8
KOPF_DÜNN
100
AcDbMText
 10
13.8892156294
 20
23.8442973028
 30
0.0
 40
3.0
 41
0.0
 71
     1
 72
     1
  1
PS6.KSB.RSA.065
  7
SLDTEXTSTYLE0
 73
     1
 44
1.0
  0
MTEXT
  5
79
330
1F
100
AcDbEntity
  8
VERMASSUNG
100
AcDbMText
 10
13.9329988022
 20
28.8834360957
 30
0.0
 40
3.0
 41
0.0
 71
     1
 72
     1
  1
Klemmhalter rechts_Turning tool right 90°/45°
  7
SLDTEXTSTYLE0
 73
     1
 44
1.0
  0
MTEXT
  5
7A
330
1F
100
AcDbEntity
  8
VERMASSUNG
100
AcDbMText
 10
98.8601118557
 20
13.8365368761
 30
0.0
 40
2.0
 41
0.0
 71
     1
 72
     1
  1
Datum: 12.02.2018
  7
SLDTEXTSTYLE0
 73
     1
 44
1.0
  0
MTEXT
  5
7C
330
1F
100
AcDbEntity
  8
VERMASSUNG
100
AcDbMText
 10
13.933048693
 20
18.0482802738
 30
0.0
 40
2.0
 41
0.0
 71
     1
 72
     1
  1
PSC Ø63 / SC .. 12 04 ..
  7
SLDTEXTSTYLE1
 73
     1
 44
1.0
  0
MTEXT
  5
7D
330
1F
100
AcDbEntity
  8
VERMASSUNG
100
AcDbMText
 10
13.9808475933
 20
13.9090974274
 30
0.0
 40
2.0
 41
0.0
 71
     1
 72
     1
  1
Gewicht: 1213g
  7
SLDTEXTSTYLE0
 73
     1
 44
1.0
  0
ARC
  5
7E
330
1F
100
AcDbEntity
  8
0
  6
Continuous
 62
     7
370
    25
100
AcDbCircle
 10
218.7039465694
 20
127.963380375
 30
0.0
 40
2.499999999999996
100
AcDbArc
 50
115.9698772739
 51
158.6286669097
  0
ARC
  5
7F
330
1F
100
AcDbEntity
  8
0
  6
Continuous
 62
     7
370
    25
100
AcDbCircle
 10
218.7039465694
 20
127.963380375
 30
0.0
 40
2.50000000000001
100
AcDbArc
 50
21.3713330903
 51
115.9698772739
  0
LINE
  5
80
330
1F
100
AcDbEntity
  8
0
  6
Continuous
 62
     7
370
    25
100
AcDbLine
 10
198.2039465694
 20
82.813380375
 30
0.0
 11
234.9366195814
 21
82.813380375
 31
0.0
  0
LINE
  5
81
330
1F
100
AcDbEntity
  8
0
  6
Continuous
 62
     7
370
    25
100
AcDbLine
 10
234.9366195814
 20
145.813380375
 30
0.0
 11
198.2039465694
 21
145.813380375
 31
0.0
  0
ARC
  5
82
330
1F
100
AcDbEntity
  8
0
  6
Continuous
 62
     7
370
    25
100
AcDbCircle
 10
198.2039465694
 20
83.313380375
 30
0.0
 40
0.5
100
AcDbArc
 50
180.0
 51
270.0
  0
ARC
  5
83
330
1F
100
AcDbEntity
  8
0
  6
Continuous
 62
     7
370
    25
100
AcDbCircle
 10
198.2039465694
 20
145.313380375
 30
0.0
 40
0.5
100
AcDbArc
 50
90.0
 51
180.0
  0
LWPOLYLINE
  5
84
330
1F
100
AcDbEntity
  8
0
  6
Continuous
 62
     7
370
    25
100
AcDbPolyline
 90
        3
 70
   128
 43
0.0
 10
197.5039465694
 20
91.7735600961
 10
197.6294015129
 20
91.7052579812
 10
197.7039465694
 20
91.6525202231
  0
LWPOLYLINE
  5
85
330
1F
100
AcDbEntity
  8
0
  6
Continuous
 62
     7
370
    25
100
AcDbPolyline
 90
        3
 70
   128
 43
0.0
 10
197.7039465694
 20
136.974240527
 10
197.6294015129
 20
136.9215027688
 10
197.5039465694
 20
136.8532006539
  0
ARC
  5
86
330
1F
100
AcDbEntity
  8
0
  6
Continuous
 62
     7
370
    25
100
AcDbCircle
 10
234.9366195814
 20
81.813380375
 30
0.0
 40
1.000000000000004
100
AcDbArc
 50
59.0494945538
 51
67.5244230154
  0
LWPOLYLINE
  5
87
330
1F
100
AcDbEntity
  8
0
  6
Continuous
 62
     7
370
    25
100
AcDbPolyline
 90
        3
 70
   128
 43
0.0
 10
235.4410905276
 20
145.9499517072
 10
235.3829612297
 20
145.9185177414
 10
235.3608123692
 20
145.907808468
  0
LWPOLYLINE
  5
88
330
1F
100
AcDbEntity
  8
0
  6
Continuous
 62
     7
370
    25
100
AcDbPolyline
 90
       15
 70
   128
 43
0.0
 10
215.7039465694
 20
129.593380375
 10
215.7426765014
 20
130.0095049816
 10
215.9238428792
 20
130.569734616
 10
216.2444152648
 20
131.0810057718
 10
216.68831882
 20
131.5176811784
 10
217.2332943672
 20
131.8578641076
 10
217.8520145567
 20
132.0844963667
 10
218.5134541746
 20
132.1862136681
 10
219.1844458767
 20
132.1579154814
 10
219.8313433371
 20
132.0010207959
 10
220.421708416
 20
131.7233969663
 10
220.9259377431
 20
131.3389652106
 10
221.3187471546
 20
130.8670025423
 10
221.5804395462
 20
130.3311751404
 10
221.6967342388
 20
129.773426132
  0
LWPOLYLINE
  5
89
330
1F
100
AcDbEntity
  8
0
  6
Continuous
 62
     7
370
    25
100
AcDbPolyline
 90
       19
 70
   128
 43
0.0
 10
216.0405425082
 20
128.7609341965
 10
215.9550346559
 20
128.9797778086
 10
215.847093853
 20
129.5472148995
 10
215.8931667196
 20
130.1209145014
 10
216.0907694553
 20
130.66994832
 10
216.4292492457
 20
131.1647178002
 10
216.8903585576
 20
131.5785497912
 10
217.4492388687
 20
131.8891345032
 10
218.0757607966
 20
132.0797282341
 10
218.7361483822
 20
132.1400560265
 10
219.3947999597
 20
132.0668655934
 10
220.0162074521
 20
131.86410265
 10
220.5668706207
 20
131.5426981992
 10
221.0171030714
 20
131.1199792381
 10
221.3426326564
 20
130.6187346552
 10
221.5259099915
 20
130.0659866758
 10
221.557054548
 20
129.4915340865
 10
221.4343873149
 20
128.9263457751
 10
221.4329693524
 20
128.9224174964
  0
LWPOLYLINE
  5
8A
330
1F
100
AcDbEntity
  8
0
  6
Continuous
 62
     7
370
    25
100
AcDbPolyline
 90
       27
 70
   128
 43
0.0
 10
216.5249460818
 20
128.602028569
 10
216.2949721185
 20
129.0844748808
 10
216.2049989941
 20
129.6005650757
 10
216.2602556194
 20
130.1203058675
 10
216.4575306803
 20
130.6134918105
 10
216.7853592673
 20
131.0514607304
 10
217.2246891745
 20
131.4087594655
 10
217.7499881446
 20
131.6646231121
 10
218.3307277108
 20
131.804181805
 10
218.9331574006
 20
131.8193249003
 10
219.5222661899
 20
131.7091723363
 10
220.0638172174
 20
131.4801257797
 10
220.5263375058
 20
131.1454965838
 10
220.882947057
 20
130.7247321811
 10
221.1129210203
 20
130.2422858692
 10
221.2028941447
 20
129.7261956743
 10
221.1476375194
 20
129.2064548825
 10
220.9503624585
 20
128.7132689395
 10
220.6225338715
 20
128.2753000196
 10
220.1832039644
 20
127.9180012845
 10
219.6579049942
 20
127.6621376379
 10
219.077165428
 20
127.522578945
 10
218.4747357383
 20
127.5074358497
 10
217.8856269489
 20
127.6175884137
 10
217.3440759214
 20
127.8466349703
 10
216.881555633
 20
128.1812641663
 10
216.5249460818
 20
128.602028569
  0
CIRCLE
  5
8B
330
1F
100
AcDbEntity
  8
0
  6
Continuous
 62
     7
370
    25
100
AcDbCircle
 10
253.7868356428
 20
150.4988096789
 30
0.0
 40
3.500000000000019
  0
CIRCLE
  5
8C
330
1F
100
AcDbEntity
  8
0
  6
Continuous
 62
     7
370
    25
100
AcDbCircle
 10
253.7868356428
 20
150.4988096789
 30
0.0
 40
2.633974596215603
  0
CIRCLE
  5
8D
330
1F
100
AcDbEntity
  8
0
  6
Continuous
 62
     7
370
    25
100
AcDbCircle
 10
253.7868356428
 20
150.4988096789
 30
0.0
 40
2.000000000000016
  0
SPLINE
  5
8E
330
1F
100
AcDbEntity
  8
0
  6
Continuous
 62
     7
370
    25
100
AcDbSpline
210
0.0
220
0.0
230
1.0
 70
     8
 71
     3
 72
    23
 73
    19
 74
     0
 42
0.000000001
 43
0.00000001
 40
0.0
 40
0.0
 40
0.0
 40
0.0
 40
0.0622380365740014
 40
0.1262427985727492
 40
0.1888841417535286
 40
0.2533713644383047
 40
0.3154877530922754
 40
0.3794398619490937
 40
0.4409678503652805
 40
0.5042994652699236
 40
0.5655044719035532
 40
0.6284849097755786
 40
0.6896988076421181
 40
0.7526700378670795
 40
0.8142179657123535
 40
0.8775186807038629
 40
0.9379502666014335
 40
1.0
 40
1.0
 40
1.0
 40
1.0
 10
254.3531544996243
 20
148.8851401983851
 30
0.0
 10
254.3694190568839
 20
148.8706676527044
 30
0.0
 10
254.402409866669
 20
148.8413117351695
 30
0.0
 10
254.4603501521906
 20
148.808514404107
 30
0.0
 10
254.5233628243906
 20
148.7849818956947
 30
0.0
 10
254.5890950594915
 20
148.7727169910761
 30
0.0
 10
254.6564778783227
 20
148.7716800029455
 30
0.0
 10
254.7221766192192
 20
148.7818855735833
 30
0.0
 10
254.7856679898547
 20
148.803127174502
 30
0.0
 10
254.8439084861369
 20
148.8342615634597
 30
0.0
 10
254.896517049497
 20
148.8749742227728
 30
0.0
 10
254.9411000451409
 20
148.9233102812694
 30
0.0
 10
254.9773182373309
 20
148.9788272134632
 30
0.0
 10
255.0035699274797
 20
149.0390447062752
 30
0.0
 10
255.0196452825924
 20
149.1033785984455
 30
0.0
 10
255.0245295460412
 20
149.1684053578272
 30
0.0
 10
255.0193602580668
 20
149.2336289065476
 30
0.0
 10
255.0072795569465
 20
149.2747352665648
 30
0.0
 10
255.0011594050075
 20
149.2955599824864
 30
0.0
  0
SPLINE
  5
8F
330
1F
100
AcDbEntity
  8
0
  6
Continuous
 62
     7
370
    25
100
AcDbSpline
210
0.0
220
0.0
230
1.0
 70
     8
 71
     3
 72
    12
 73
     8
 74
     0
 42
0.000000001
 43
0.00000001
 40
0.0
 40
0.0
 40
0.0
 40
0.0
 40
0.2058748011360345
 40
0.4120995812662985
 40
0.6141693366125179
 40
0.8132901286728367
 40
1.0
 40
1.0
 40
1.0
 40
1.0
 10
255.0011594050075
 20
149.2955599824864
 30
0.0
 10
254.9830636437696
 20
149.370538651099
 30
0.0
 10
254.9468413592178
 20
149.5206234490861
 30
0.0
 10
254.9902586912485
 20
149.7534974476817
 30
0.0
 10
255.1018469975348
 20
149.9556256058412
 30
0.0
 10
255.266980207504
 20
150.1099427972744
 30
0.0
 10
255.4020101668764
 20
150.1607643989853
 30
0.0
 10
255.4673534086974
 20
150.1853578168147
 30
0.0
  0
SPLINE
  5
90
330
1F
100
AcDbEntity
  8
0
  6
Continuous
 62
     7
370
    25
100
AcDbSpline
210
0.0
220
0.0
230
1.0
 70
     8
 71
     3
 72
    15
 73
    11
 74
     0
 42
0.000000001
 43
0.00000001
 40
0.0
 40
0.0
 40
0.0
 40
0.0
 40
0.1268765508970343
 40
0.2539936290345365
 40
0.3800496379883683
 40
0.5049006370991401
 40
0.6290821973265793
 40
0.7532679407718377
 40
0.8781205851189356
 40
1.0
 40
1.0
 40
1.0
 40
1.0
 10
255.4673534086974
 20
150.1853578168147
 30
0.0
 10
255.5089079699506
 20
150.2014756755279
 30
0.0
 10
255.5920958698504
 20
150.2337419485145
 30
0.0
 10
255.6878429207158
 20
150.3315031107432
 30
0.0
 10
255.7470768699208
 20
150.4526235855166
 30
0.0
 10
255.7623116985849
 20
150.5864120133753
 30
0.0
 10
255.7329389407372
 20
150.7170872782139
 30
0.0
 10
255.6623845072036
 20
150.8298689199972
 30
0.0
 10
255.560118839568
 20
150.9154746912323
 30
0.0
 10
255.4769869560717
 20
150.9397600593238
 30
0.0
 10
255.4359219021416
 20
150.9517564187042
 30
0.0
  0
SPLINE
  5
91
330
1F
100
AcDbEntity
  8
0
  6
Continuous
 62
     7
370
    25
100
AcDbSpline
210
0.0
220
0.0
230
1.0
 70
     8
 71
     3
 72
    12
 73
     8
 74
     0
 42
0.000000001
 43
0.00000001
 40
0.0
 40
0.0
 40
0.0
 40
0.0
 40
0.205794988208803
 40
0.4120010155283693
 40
0.6140549927930612
 40
0.8131810826684445
 40
1.0
 40
1.0
 40
1.0
 40
1.0
 10
255.4359219021416
 20
150.9517564187042
 30
0.0
 10
255.3619673370074
 20
150.9735636870318
 30
0.0
 10
255.2139104955681
 20
151.0172217798507
 30
0.0
 10
255.0339537748916
 20
151.171208845608
 30
0.0
 10
254.9146756342399
 20
151.3688814312016
 30
0.0
 10
254.8635529414055
 20
151.5890732618195
 30
0.0
 10
254.8870550455281
 20
151.7314654313275
 30
0.0
 10
254.8984313752258
 20
151.8003911861558
 30
0.0
  0
SPLINE
  5
92
330
1F
100
AcDbEntity
  8
0
  6
Continuous
 62
     7
370
    25
100
AcDbSpline
210
0.0
220
0.0
230
1.0
 70
     8
 71
     3
 72
    15
 73
    11
 74
     0
 42
0.000000001
 43
0.00000001
 40
0.0
 40
0.0
 40
0.0
 40
0.0
 40
0.1268036956060744
 40
0.2539263442698713
 40
0.3799872671766462
 40
0.504841009795731
 40
0.6290227167746278
 40
0.7532063308915166
 40
0.878055336159163
 40
1.0
 40
1.0
 40
1.0
 40
1.0
 10
254.8984313752258
 20
151.8003911861558
 30
0.0
 10
254.9052485209874
 20
151.8444105928864
 30
0.0
 10
254.9188999598775
 20
151.9325601296533
 30
0.0
 10
254.8821429849988
 20
152.064343296594
 30
0.0
 10
254.806885310206
 20
152.176218841066
 30
0.0
 10
254.6986507068087
 20
152.2563277478861
 30
0.0
 10
254.5708019767356
 20
152.2962504055697
 30
0.0
 10
254.4378528450228
 20
152.2915622376352
 30
0.0
 10
254.3125528210655
 20
152.2458148478839
 30
0.0
 10
254.2499352819275
 20
152.1859501165927
 30
0.0
 10
254.2189949632868
 20
152.1563700039439
 30
0.0
  0
SPLINE
  5
93
330
1F
100
AcDbEntity
  8
0
  6
Continuous
 62
     7
370
    25
100
AcDbSpline
210
0.0
220
0.0
230
1.0
 70
     8
 71
     3
 72
    24
 73
    20
 74
     0
 42
0.000000001
 43
0.00000001
 40
0.0
 40
0.0
 40
0.0
 40
0.0
 40
0.050585902657889
 40
0.1015124920922311
 40
0.1535230989434775
 40
0.205913356021778
 40
0.2565457747772003
 40
0.3075386833225172
 40
0.3596844681998252
 40
0.4122354523956943
 40
0.4618527364634101
 40
0.5628242007286091
 40
0.614303572947525
 40
0.6632407918098494
 40
0.7627364360950606
 40
0.8133998437451544
 40
0.8593962826477259
 40
0.9526566204713394
 40
1.0
 40
1.0
 40
1.0
 40
1.0
 10
254.2189949632868
 20
152.1563700039439
 30
0.0
 10
254.2063217009497
 20
152.1424185518657
 30
0.0
 10
254.1808898241782
 20
152.1144216872385
 30
0.0
 10
254.1381109956916
 20
152.0762020472392
 30
0.0
 10
254.0919226740037
 20
152.0409893568029
 30
0.0
 10
254.0428545472536
 20
152.0098916100485
 30
0.0
 10
253.9916239223091
 20
151.9831348054478
 30
0.0
 10
253.9383432740306
 20
151.9607185963214
 30
0.0
 10
253.882594835039
 20
151.9426183289695
 30
0.0
 10
253.8259282445138
 20
151.9294602515834
 30
0.0
 10
253.7501262548724
 20
151.9184290276626
 30
0.0
 10
253.6735418430498
 20
151.9168318456129
 30
0.0
 10
253.5980307986655
 20
151.9247411260119
 30
0.0
 10
253.5240483623575
 20
151.9386947591824
 30
0.0
 10
253.4524309918149
 20
151.9614980896735
 30
0.0
 10
253.3855877203898
 20
151.9921933034613
 30
0.0
 10
253.3235773963646
 20
152.0269026947408
 30
0.0
 10
253.2664414674642
 20
152.0673845596459
 30
0.0
 10
253.2281902059024
 20
152.1031606059359
 30
0.0
 10
253.2153104326811
 20
152.1152069370674
 30
0.0
  0
SPLINE
  5
94
330
1F
100
AcDbEntity
  8
0
  6
Continuous
 62
     7
370
    25
100
AcDbSpline
210
0.0
220
0.0
230
1.0
 70
     8
 71
     3
 72
    15
 73
    11
 74
     0
 42
0.000000001
 43
0.00000001
 40
0.0
 40
0.0
 40
0.0
 40
0.0
 40
0.1262564375372483
 40
0.2533820972841718
 40
0.379445481130773
 40
0.5043002379033763
 40
0.6284814530466066
 40
0.7526634909000629
 40
0.877510462112179
 40
1.0
 40
1.0
 40
1.0
 40
1.0
 10
253.2153104326811
 20
152.1152069370674
 30
0.0
 10
253.1807611095009
 20
152.1430117081771
 30
0.0
 10
253.1114246056528
 20
152.198812674494
 30
0.0
 10
252.9791638011973
 20
152.2330200514491
 30
0.0
 10
252.8446311758999
 20
152.2239788422974
 30
0.0
 10
252.7210586005776
 20
152.1704794455643
 30
0.0
 10
252.6224273794903
 20
152.0798637344598
 30
0.0
 10
252.5598431763564
 20
151.9624749844341
 30
0.0
 10
252.5365809775576
 20
151.8309261645789
 30
0.0
 10
252.5571292946335
 20
151.7465654683874
 30
0.0
 10
252.5673055272979
 20
151.704787152966
 30
0.0
  0
SPLINE
  5
95
330
1F
100
AcDbEntity
  8
0
  6
Continuous
 62
     7
370
    25
100
AcDbSpline
210
0.0
220
0.0
230
1.0
 70
     8
 71
     3
 72
    12
 73
     8
 74
     0
 42
0.000000001
 43
0.00000001
 40
0.0
 40
0.0
 40
0.0
 40
0.0
 40
0.2058713741444203
 40
0.4120924153877421
 40
0.6141683533432494
 40
0.8133068872803249
 40
1.0
 40
1.0
 40
1.0
 40
1.0
 10
252.5673055272979
 20
151.704787152966
 30
0.0
 10
252.585401158115
 20
151.6298092768856
 30
0.0
 10
252.6216231547009
 20
151.4797261767798
 30
0.0
 10
252.5782072077904
 20
151.2468528422959
 30
0.0
 10
252.4666180371262
 20
151.0447194909842
 30
0.0
 10
252.3014805895965
 20
150.8904012759891
 30
0.0
 10
252.1664493522511
 20
150.8395802080685
 30
0.0
 10
252.1011115236079
 20
150.8149893186377
 30
0.0
  0
SPLINE
  5
96
330
1F
100
AcDbEntity
  8
0
  6
Continuous
 62
     7
370
    25
100
AcDbSpline
210
0.0
220
0.0
230
1.0
 70
     8
 71
     3
 72
    15
 73
    11
 74
     0
 42
0.000000001
 43
0.00000001
 40
0.0
 40
0.0
 40
0.0
 40
0.0
 40
0.1268702503424891
 40
0.2539810595565872
 40
0.3800301963394168
 40
0.5048749967544881
 40
0.6290527571813149
 40
0.753238460799626
 40
0.878095394214191
 40
1.0
 40
1.0
 40
1.0
 40
1.0
 10
252.1011115236079
 20
150.8149893186377
 30
0.0
 10
252.0595582189191
 20
150.7988721069676
 30
0.0
 10
251.9763728202584
 20
150.7666071237582
 30
0.0
 10
251.8806271235759
 20
150.6688504146942
 30
0.0
 10
251.8213921132038
 20
150.5477354431527
 30
0.0
 10
251.8061528478953
 20
150.4139524037403
 30
0.0
 10
251.8355182806762
 20
150.2832796493082
 30
0.0
 10
251.906065153252
 20
150.1704957101897
 30
0.0
 10
252.0083311598246
 20
150.0848790227707
 30
0.0
 10
252.0914706417887
 20
150.0605899515585
 30
0.0
 10
252.1325430301638
 20
150.0485907167483
 30
0.0
  0
SPLINE
  5
97
330
1F
100
AcDbEntity
  8
0
  6
Continuous
 62
     7
370
    25
100
AcDbSpline
210
0.0
220
0.0
230
1.0
 70
     8
 71
     3
 72
    12
 73
     8
 74
     0
 42
0.000000001
 43
0.00000001
 40
0.0
 40
0.0
 40
0.0
 40
0.0
 40
0.2058321750920567
 40
0.4120750343575929
 40
0.6141697879283392
 40
0.8133029339856247
 40
1.0
 40
1.0
 40
1.0
 40
1.0
 10
252.1325430301638
 20
150.0485907167483
 30
0.0
 10
252.2065078161296
 20
150.0267792354844
 30
0.0
 10
252.3545849654115
 20
149.9831127538608
 30
0.0
 10
252.5345567612344
 20
149.829091336982
 30
0.0
 10
252.6538292152642
 20
149.6313761050399
 30
0.0
 10
252.7049096634619
 20
149.4111920318302
 30
0.0
 10
252.6814064068716
 20
149.2688385307121
 30
0.0
 10
252.6700335570794
 20
149.1999559492966
 30
0.0
  0
SPLINE
  5
98
330
1F
100
AcDbEntity
  8
0
  6
Continuous
 62
     7
370
    25
100
AcDbSpline
210
0.0
220
0.0
230
1.0
 70
     8
 71
     3
 72
    23
 73
    19
 74
     0
 42
0.000000001
 43
0.00000001
 40
0.0
 40
0.0
 40
0.0
 40
0.0
 40
0.0624988066047301
 40
0.1267875659925303
 40
0.1894243117292781
 40
0.2539068068158764
 40
0.3160185992639002
 40
0.3799659197983363
 40
0.4414903780363103
 40
0.5048182513710479
 40
0.5660216610165133
 40
0.6290003214445364
 40
0.6902150064540908
 40
0.7531869152440266
 40
0.814737973880198
 40
0.8780418128575348
 40
0.9382223043076456
 40
1.0
 40
1.0
 40
1.0
 40
1.0
 10
252.6700335570794
 20
149.1999559492966
 30
0.0
 10
252.6656179835037
 20
149.1785433093195
 30
0.0
 10
252.6566603752462
 20
149.1351047758235
 30
0.0
 10
252.6573036980774
 20
149.0683323395002
 30
0.0
 10
252.668543191606
 20
149.0019151396226
 30
0.0
 10
252.6908780534819
 20
148.9388919603845
 30
0.0
 10
252.7237546235952
 20
148.8800685696395
 30
0.0
 10
252.7655143966808
 20
148.8283369607251
 30
0.0
 10
252.8157164399538
 20
148.7840463943849
 30
0.0
 10
252.8718468133375
 20
148.7492568192382
 30
0.0
 10
252.9334422678279
 20
148.7241406351015
 30
0.0
 10
252.9976126569572
 20
148.7097891125636
 30
0.0
 10
253.063804518401
 20
148.7062744725492
 30
0.0
 10
253.1290699287873
 20
148.7137399065914
 30
0.0
 10
253.1927971464774
 20
148.7320745142007
 30
0.0
 10
253.2514355079558
 20
148.760402079985
 30
0.0
 10
253.3051396226692
 20
148.797442920743
 30
0.0
 10
253.3345647332831
 20
148.8283308882837
 30
0.0
 10
253.3494699690185
 20
148.8439771315085
 30
0.0
  0
SPLINE
  5
99
330
1F
100
AcDbEntity
  8
0
  6
Continuous
 62
     7
370
    25
100
AcDbSpline
210
0.0
220
0.0
230
1.0
 70
     8
 71
     3
 72
    24
 73
    20
 74
     0
 42
0.000000001
 43
0.00000001
 40
0.0
 40
0.0
 40
0.0
 40
0.0
 40
0.0505958409811773
 40
0.1015324587511809
 40
0.1535533386339048
 40
0.2059539368125262
 40
0.2565962902639907
 40
0.3075991973741943
 40
0.3597552451143468
 40
0.4123166206904614
 40
0.4619421123318713
 40
0.5629309443458586
 40
0.6144196637619395
 40
0.6633540577644409
 40
0.7628444137677005
 40
0.8135054010188542
 40
0.8594763501603109
 40
0.9526839831007509
 40
1.0
 40
1.0
 40
1.0
 40
1.0
 10
253.3494699690185
 20
148.8439771315085
 30
0.0
 10
253.3621452949516
 20
148.8579307475729
 30
0.0
 10
253.3875813185951
 20
148.8859319611118
 30
0.0
 10
253.4303674149204
 20
148.9241565409428
 30
0.0
 10
253.476563706543
 20
148.9593729963741
 30
0.0
 10
253.5256404122966
 20
148.990473127258
 30
0.0
 10
253.5768801223075
 20
149.0172309880672
 30
0.0
 10
253.6301704341707
 20
149.0396469414748
 30
0.0
 10
253.6859293314779
 20
149.057745552949
 30
0.0
 10
253.7426063901964
 20
149.0709003145487
 30
0.0
 10
253.8184220877392
 20
149.0819250319485
 30
0.0
 10
253.8950207175527
 20
149.0835125910887
 30
0.0
 10
253.9705414363682
 20
149.0755904777812
 30
0.0
 10
254.0445245602512
 20
149.0616242606039
 30
0.0
 10
254.1161376035786
 20
149.0388096567758
 30
0.0
 10
254.1829676077464
 20
149.0081075857991
 30
0.0
 10
254.244949409873
 20
148.9734027539736
 30
0.0
 10
254.3020515901399
 20
148.9329374766052
 30
0.0
 10
254.3402818930511
 20
148.897180130436
 30
0.0
 10
254.3531544996243
 20
148.8851401983851
 30
0.0
  0
LINE
  5
9A
330
1F
100
AcDbEntity
  8
0
  6
Continuous
 62
     7
370
    25
100
AcDbLine
 10
253.6065331608
 20
159.1962230875
 30
0.0
 11
245.1919624647
 21
150.7816523914
 31
0.0
  0
ARC
  5
9B
330
1F
100
AcDbEntity
  8
0
  6
Continuous
 62
     7
370
    25
100
AcDbCircle
 10
253.8893758733
 20
158.913380375
 30
0.0
 40
0.4000000000000193
100
AcDbArc
 50
45.0
 51
135.0
  0
LINE
  5
9C
330
1F
100
AcDbEntity
  8
0
  6
Continuous
 62
     7
370
    25
100
AcDbLine
 10
262.5867892819
 20
150.7816523914
 30
0.0
 11
254.1722185858
 21
159.1962230875
 31
0.0
  0
ARC
  5
9D
330
1F
100
AcDbEntity
  8
0
  6
Continuous
 62
     7
370
    25
100
AcDbCircle
 10
262.3039465694
 20
150.4988096789
 30
0.0
 40
0.4000000000000193
100
AcDbArc
 50
315.0
 51
45.0
  0
LINE
  5
9E
330
1F
100
AcDbEntity
  8
0
  6
Continuous
 62
     7
370
    25
100
AcDbLine
 10
254.1722185858
 20
141.8013962703
 30
0.0
 11
262.5867892819
 21
150.2159669664
 31
0.0
  0
ARC
  5
9F
330
1F
100
AcDbEntity
  8
0
  6
Continuous
 62
     7
370
    25
100
AcDbCircle
 10
253.8893758733
 20
142.0842389828
 30
0.0
 40
0.3999999999999791
100
AcDbArc
 50
225.0
 51
315.0
  0
LINE
  5
A0
330
1F
100
AcDbEntity
  8
0
  6
Continuous
 62
     7
370
    25
100
AcDbLine
 10
245.1919624647
 20
150.2159669664
 30
0.0
 11
253.6065331608
 21
141.8013962703
 31
0.0
  0
ARC
  5
A1
330
1F
100
AcDbEntity
  8
0
  6
Continuous
 62
     7
370
    25
100
AcDbCircle
 10
245.4748051772
 20
150.4988096789
 30
0.0
 40
0.4000000000000193
100
AcDbArc
 50
135.0
 51
225.0
  0
ARC
  5
A2
330
1F
100
AcDbEntity
  8
0
  6
Continuous
 62
     7
370
    25
100
AcDbCircle
 10
262.3039465694
 20
150.4988096789
 30
0.0
 40
0.3800000000000224
100
AcDbArc
 50
315.0
 51
45.0
  0
LINE
  5
A3
330
1F
100
AcDbEntity
  8
0
  6
Continuous
 62
     7
370
    25
100
AcDbLine
 10
262.5726471462
 20
150.7675102558
 30
0.0
 11
254.1580764501
 21
159.1820809519
 31
0.0
  0
ARC
  5
A4
330
1F
100
AcDbEntity
  8
0
  6
Continuous
 62
     7
370
    25
100
AcDbCircle
 10
253.8893758733
 20
158.913380375
 30
0.0
 40
0.3800000000000023
100
AcDbArc
 50
45.0
 51
135.0
  0
LINE
  5
A5
330
1F
100
AcDbEntity
  8
0
  6
Continuous
 62
     7
370
    25
100
AcDbLine
 10
253.6206752964
 20
159.1820809519
 30
0.0
 11
245.2061046003
 21
150.7675102558
 31
0.0
  0
ARC
  5
A6
330
1F
100
AcDbEntity
  8
0
  6
Continuous
 62
     7
370
    25
100
AcDbCircle
 10
245.4748051772
 20
150.4988096789
 30
0.0
 40
0.3800000000000023
100
AcDbArc
 50
135.0
 51
225.0
  0
LINE
  5
A7
330
1F
100
AcDbEntity
  8
0
  6
Continuous
 62
     7
370
    25
100
AcDbLine
 10
245.2061046003
 20
150.230109102
 30
0.0
 11
253.6206752964
 21
141.8155384059
 31
0.0
  0
ARC
  5
A8
330
1F
100
AcDbEntity
  8
0
  6
Continuous
 62
     7
370
    25
100
AcDbCircle
 10
253.8893758733
 20
142.0842389828
 30
0.0
 40
0.379999999999962
100
AcDbArc
 50
225.0
 51
315.0
  0
LINE
  5
A9
330
1F
100
AcDbEntity
  8
0
  6
Continuous
 62
     7
370
    25
100
AcDbLine
 10
254.1580764499
 20
141.8155384061
 30
0.0
 11
262.5726471462
 21
150.230109102
 31
0.0
  0
LINE
  5
AA
330
1F
100
AcDbEntity
  8
0
  6
Continuous
 62
     7
370
    25
100
AcDbLine
 10
262.3039465694
 20
150.4988096789
 30
0.0
 11
262.5726471462
 21
150.7675102558
 31
0.0
  0
LINE
  5
AB
330
1F
100
AcDbEntity
  8
0
  6
Continuous
 62
     7
370
    25
100
AcDbLine
 10
262.3039465694
 20
150.4988096789
 30
0.0
 11
262.5726471462
 21
150.230109102
 31
0.0
  0
LINE
  5
AC
330
1F
100
AcDbEntity
  8
0
  6
Continuous
 62
     7
370
    25
100
AcDbLine
 10
253.8893758733
 20
157.893948038
 30
0.0
 11
253.8893758733
 21
158.913380375
 31
0.0
  0
LINE
  5
AD
330
1F
100
AcDbEntity
  8
0
  6
Continuous
 62
     7
370
    25
100
AcDbLine
 10
253.8893758733
 20
158.913380375
 30
0.0
 11
254.1580764501
 21
159.1820809519
 31
0.0
  0
LINE
  5
AE
330
1F
100
AcDbEntity
  8
0
  6
Continuous
 62
     7
370
    25
100
AcDbLine
 10
261.2845142323
 20
150.4988096789
 30
0.0
 11
262.3039465694
 21
150.4988096789
 31
0.0
  0
LINE
  5
AF
330
1F
100
AcDbEntity
  8
0
  6
Continuous
 62
     7
370
    25
100
AcDbLine
 10
253.8893758733
 20
142.0842389828
 30
0.0
 11
254.1580764499
 21
141.8155384061
 31
0.0
  0
LINE
  5
B0
330
1F
100
AcDbEntity
  8
0
  6
Continuous
 62
     7
370
    25
100
AcDbLine
 10
253.8893758733
 20
143.1036713199
 30
0.0
 11
253.8893758733
 21
142.0842389828
 31
0.0
  0
ARC
  5
B1
330
1F
100
AcDbEntity
  8
0
  6
Continuous
 62
     7
370
    25
100
AcDbCircle
 10
258.598707036
 20
150.4988096789
 30
0.0
 40
1.000000000000008
100
AcDbArc
 50
315.0
 51
45.0
  0
LINE
  5
B2
330
1F
100
AcDbEntity
  8
0
  6
Continuous
 62
     7
370
    25
100
AcDbLine
 10
253.1822690921
 20
155.9152476228
 30
0.0
 11
248.4729379294
 21
151.2059164601
 31
0.0
  0
ARC
  5
B3
330
1F
100
AcDbEntity
  8
0
  6
Continuous
 62
     7
370
    25
100
AcDbCircle
 10
253.8893758733
 20
155.2081408416
 30
0.0
 40
1.000000000000008
100
AcDbArc
 50
45.0
 51
135.0
  0
LINE
  5
B4
330
1F
100
AcDbEntity
  8
0
  6
Continuous
 62
     7
370
    25
100
AcDbLine
 10
259.3058138172
 20
151.2059164601
 30
0.0
 11
254.5964826545
 21
155.9152476228
 31
0.0
  0
LINE
  5
B5
330
1F
100
AcDbEntity
  8
0
  6
Continuous
 62
     7
370
    25
100
AcDbLine
 10
254.5964826545
 20
145.082371735
 30
0.0
 11
259.3058138172
 21
149.7917028977
 31
0.0
  0
ARC
  5
B6
330
1F
100
AcDbEntity
  8
0
  6
Continuous
 62
     7
370
    25
100
AcDbCircle
 10
253.8893758733
 20
145.7894785162
 30
0.0
 40
1.000000000295356
100
AcDbArc
 50
225.0
 51
315.0
  0
LINE
  5
B7
330
1F
100
AcDbEntity
  8
0
  6
Continuous
 62
     7
370
    25
100
AcDbLine
 10
248.4729379294
 20
149.7917028977
 30
0.0
 11
253.1822690919
 21
145.0823717348
 31
0.0
  0
ARC
  5
B8
330
1F
100
AcDbEntity
  8
0
  6
Continuous
 62
     7
370
    25
100
AcDbCircle
 10
249.1800447106
 20
150.4988096789
 30
0.0
 40
0.999999999999988
100
AcDbArc
 50
135.0
 51
225.0
  0
CIRCLE
  5
B9
330
1F
100
AcDbEntity
  8
0
  6
Continuous
 62
     7
370
    25
100
AcDbCircle
 10
253.8893758733
 20
150.4988096789
 30
0.0
 40
3.800000000000002
  0
LINE
  5
BA
330
1F
100
AcDbEntity
  8
0
  6
Continuous
 62
     7
370
    25
100
AcDbLine
 10
253.8893758733
 20
142.0842389828
 30
0.0
 11
253.6206752964
 21
141.8155384059
 31
0.0
  0
LINE
  5
BB
330
1F
100
AcDbEntity
  8
0
  6
Continuous
 62
     7
370
    25
100
AcDbLine
 10
245.4748051772
 20
150.4988096789
 30
0.0
 11
245.2061046003
 21
150.230109102
 31
0.0
  0
LINE
  5
BC
330
1F
100
AcDbEntity
  8
0
  6
Continuous
 62
     7
370
    25
100
AcDbLine
 10
246.4942375142
 20
150.4988096789
 30
0.0
 11
245.4748051772
 21
150.4988096789
 31
0.0
  0
LINE
  5
BD
330
1F
100
AcDbEntity
  8
0
  6
Continuous
 62
     7
370
    25
100
AcDbLine
 10
245.4748051772
 20
150.4988096789
 30
0.0
 11
245.2061046003
 21
150.7675102558
 31
0.0
  0
LINE
  5
BE
330
1F
100
AcDbEntity
  8
0
  6
Continuous
 62
     7
370
    25
100
AcDbLine
 10
253.8893758733
 20
158.913380375
 30
0.0
 11
253.6206752964
 21
159.1820809519
 31
0.0
  0
SPLINE
  5
BF
330
1F
100
AcDbEntity
  8
0
  6
Continuous
 62
     7
370
    25
100
AcDbSpline
210
0.0
220
0.0
230
1.0
 70
    24
 71
     3
 72
    11
 73
     7
 74
     0
 42
0.000000001
 43
0.00000001
 40
0.0
 40
0.0
 40
0.0
 40
0.0
 40
0.3429685074212458
 40
0.6848841677076363
 40
0.992161981019754
 40
1.0
 40
1.0
 40
1.0
 40
1.0
 10
261.284514232327
 20
150.4988096788997
 30
0.0
 10
261.2050182939968
 20
150.4988096788997
 30
0.0
 10
261.0462704545268
 20
150.4988096788997
 30
0.0
 10
260.8052621730489
 20
150.4988096788996
 30
0.0
 10
260.6587905329278
 20
150.4988096788998
 30
0.0
 10
260.5934773508782
 20
150.4988096788997
 30
0.0
 10
260.591852786486
 20
150.4988096788997
 30
0.0
  0
SPLINE
  5
C0
330
1F
100
AcDbEntity
  8
0
  6
Continuous
 62
     7
370
    25
100
AcDbSpline
210
0.0
220
0.0
230
1.0
 70
    24
 71
     3
 72
    11
 73
     7
 74
     0
 42
0.000000001
 43
0.00000001
 40
0.0
 40
0.0
 40
0.0
 40
0.0
 40
0.3429685074212284
 40
0.6848841677076404
 40
0.9921619810197978
 40
1.0
 40
1.0
 40
1.0
 40
1.0
 10
253.889375873276
 20
157.8939480379508
 30
0.0
 10
253.889375873276
 20
157.8144520996206
 30
0.0
 10
253.8893758732759
 20
157.6557042601504
 30
0.0
 10
253.8893758732759
 20
157.4146959786727
 30
0.0
 10
253.8893758732762
 20
157.2682243385513
 30
0.0
 10
253.889375873276
 20
157.2029111565019
 30
0.0
 10
253.889375873276
 20
157.2012865921097
 30
0.0
  0
SPLINE
  5
C1
330
1F
100
AcDbEntity
  8
0
  6
Continuous
 62
     7
370
    25
100
AcDbSpline
210
0.0
220
0.0
230
1.0
 70
    24
 71
     3
 72
    11
 73
     7
 74
     0
 42
0.000000001
 43
0.00000001
 40
0.0
 40
0.0
 40
0.0
 40
0.0
 40
0.0078380189801601
 40
0.3151158322923462
 40
0.6570314925787601
 40
1.0
 40
1.0
 40
1.0
 40
1.0
 10
253.889375873276
 20
143.7963327656896
 30
0.0
 10
253.889375873276
 20
143.7947082012974
 30
0.0
 10
253.8893758732759
 20
143.7293950192482
 30
0.0
 10
253.889375873276
 20
143.5829233791266
 30
0.0
 10
253.8893758732759
 20
143.3419150976489
 30
0.0
 10
253.8893758732759
 20
143.1831672581788
 30
0.0
 10
253.889375873276
 20
143.1036713198486
 30
0.0
  0
SPLINE
  5
C2
330
1F
100
AcDbEntity
  8
0
  6
Continuous
 62
     7
370
    25
100
AcDbSpline
210
0.0
220
0.0
230
1.0
 70
    24
 71
     3
 72
    11
 73
     7
 74
     0
 42
0.000000001
 43
0.00000001
 40
0.0
 40
0.0
 40
0.0
 40
0.0
 40
0.0078380189801646
 40
0.3151158322985236
 40
0.6570314925818836
 40
1.0
 40
1.0
 40
1.0
 40
1.0
 10
247.1868989600659
 20
150.4988096788997
 30
0.0
 10
247.1852743956737
 20
150.4988096788997
 30
0.0
 10
247.1199612136223
 20
150.4988096788992
 30
0.0
 10
246.9734895734993
 20
150.4988096788999
 30
0.0
 10
246.7324812920195
 20
150.4988096788996
 30
0.0
 10
246.5737334525501
 20
150.4988096788997
 30
0.0
 10
246.4942375142202
 20
150.4988096788997
 30
0.0
  0
ELLIPSE
  5
C3
330
1F
100
AcDbEntity
  8
0
  6
Continuous
 62
     7
370
    25
100
AcDbEllipse
 10
232.6235618117
 20
114.313380375
 30
0.0
 11
0.0
 21
31.5
 31
0.0
210
0.0
220
0.0
230
1.0
 40
0.2679491924
 41
0.1320368298873419
 42
3.009555823702452
  0
ELLIPSE
  5
C4
330
1F
100
AcDbEntity
  8
0
  6
Continuous
 62
     7
370
    25
100
AcDbEllipse
 10
229.3505860655
 20
131.8782393347
 30
0.0
 11
0.3267812967788757
 21
3.437685688267663
 31
0.0
210
0.0
220
0.0
230
1.0
 40
0.2095444568
 41
0.0
 42
6.283185307179586
  0
SPLINE
  5
C5
330
1F
100
AcDbEntity
  8
0
  6
Continuous
 62
     7
370
    25
100
AcDbSpline
210
0.0
220
0.0
230
1.0
 70
    11
 71
     3
 72
    68
 73
    64
 74
     0
 42
0.000000001
 43
0.00000001
 40
0.0
 40
0.0
 40
0.0
 40
0.0
 40
0.03125
 40
0.03125
 40
0.0625
 40
0.0625
 40
0.09375
 40
0.09375
 40
0.125
 40
0.125
 40
0.15625
 40
0.15625
 40
0.1875
 40
0.1875
 40
0.21875
 40
0.21875
 40
0.25
 40
0.25
 40
0.28125
 40
0.28125
 40
0.3125
 40
0.3125
 40
0.34375
 40
0.34375
 40
0.375
 40
0.375
 40
0.40625
 40
0.40625
 40
0.4375
 40
0.4375
 40
0.46875
 40
0.46875
 40
0.5
 40
0.5
 40
0.53125
 40
0.53125
 40
0.5625
 40
0.5625
 40
0.59375
 40
0.59375
 40
0.625
 40
0.625
 40
0.65625
 40
0.65625
 40
0.6875
 40
0.6875
 40
0.71875
 40
0.71875
 40
0.75
 40
0.75
 40
0.78125
 40
0.78125
 40
0.8125
 40
0.8125
 40
0.84375
 40
0.84375
 40
0.875
 40
0.875
 40
0.90625
 40
0.90625
 40
0.9375
 40
0.9375
 40
1.0
 40
1.0
 40
1.0
 40
1.0
 10
215.7039465694135
 20
130.0633803750219
 30
0.0
 10
215.7039465694135
 20
129.8916347839587
 30
0.0
 10
215.7234172425138
 20
129.7218429182239
 30
0.0
 10
215.7996862686341
 20
129.3861041952908
 30
0.0
 10
215.8574183756485
 20
129.2183868506299
 30
0.0
 10
216.0080372866269
 20
128.8971728431179
 30
0.0
 10
216.1001907509372
 20
128.7440562470547
 30
0.0
 10
216.317891259197
 20
128.4530793699761
 30
0.0
 10
216.4445316603324
 20
128.3147373621174
 30
0.0
 10
216.7211503665214
 20
128.0658925513337
 30
0.0
 10
216.8721052835289
 20
127.953737761657
 30
0.0
 10
217.1999933117574
 20
127.7550986848349
 30
0.0
 10
217.3744422809712
 20
127.670463293121
 30
0.0
 10
217.7353738837195
 20
127.5342509570364
 30
0.0
 10
217.9245256217288
 20
127.4816527960591
 30
0.0
 10
218.3118203069866
 20
127.4112597454155
 30
0.0
 10
218.5065418515358
 20
127.3938108308802
 30
0.0
 10
218.8980800890506
 20
127.3936157519239
 30
0.0
 10
219.0969464856279
 20
127.4114404604097
 30
0.0
 10
219.481786696854
 20
127.4813435897173
 30
0.0
 10
219.6688459482005
 20
127.5330370102065
 30
0.0
 10
220.0321906653557
 20
127.6698177061847
 30
0.0
 10
220.2077338883758
 20
127.7551351867694
 30
0.0
 10
220.532715314615
 20
127.951740703412
 30
0.0
 10
220.6842282131674
 20
128.0637147936243
 30
0.0
 10
220.9644323112777
 20
128.3156167842299
 30
0.0
 10
221.0885364112542
 20
128.4514294773972
 30
0.0
 10
221.3058447300137
 20
128.7412691643181
 30
0.0
 10
221.3998427308981
 20
128.8971445657638
 30
0.0
 10
221.5504894019701
 20
129.2184183642269
 30
0.0
 10
221.6072914320893
 20
129.3829843850486
 30
0.0
 10
221.6841754347322
 20
129.7196246136326
 30
0.0
 10
221.7038746570373
 20
129.8928303457241
 30
0.0
 10
221.7040180795085
 20
130.2320276161003
 30
0.0
 10
221.6850992205121
 20
130.3997399712281
 30
0.0
 10
221.6084072187743
 20
130.7314109025029
 30
0.0
 10
221.5508690511211
 20
130.892837996906
 30
0.0
 10
221.4015045627699
 20
131.1990116305353
 30
0.0
 10
221.3085921772348
 20
131.3460988330574
 30
0.0
 10
221.089492049383
 20
131.6216381719119
 30
0.0
 10
220.9654586902169
 20
131.747836753197
 30
0.0
 10
220.689155345027
 20
131.9782496705054
 30
0.0
 10
220.5350070035294
 20
132.083288829067
 30
0.0
 10
220.2091427649008
 20
132.2634299764724
 30
0.0
 10
220.0369816949097
 20
132.3394044356973
 30
0.0
 10
219.674028218263
 20
132.4634092636634
 30
0.0
 10
219.4833865350439
 20
132.5109032010861
 30
0.0
 10
219.0998770297374
 20
132.573657919797
 30
0.0
 10
218.9049839778455
 20
132.5897087114516
 30
0.0
 10
218.5086624653458
 20
132.5900196449761
 30
0.0
 10
218.3132996259368
 20
132.5742271368033
 30
0.0
 10
217.9296985488283
 20
132.5120401547977
 30
0.0
 10
217.7392062567925
 20
132.4649090719288
 30
0.0
 10
217.3756402333916
 20
132.341336250328
 30
0.0
 10
217.203280880696
 20
132.2655809096782
 30
0.0
 10
216.8771601320277
 20
132.0859956928566
 30
0.0
 10
216.722735648827
 20
131.9811661518318
 30
0.0
 10
216.445866118952
 20
131.7511047872543
 30
0.0
 10
216.3216163729807
 20
131.6251233729012
 30
0.0
 10
216.1021175050249
 20
131.3501840754427
 30
0.0
 10
216.0087197353189
 20
131.2030013313785
 30
0.0
 10
215.7837585006186
 20
130.7442011059461
 30
0.0
 10
215.7039465694135
 20
130.4068715571484
 30
0.0
 10
215.7039465694135
 20
130.0633803750219
 30
0.0
  0
SPLINE
  5
C6
330
1F
100
AcDbEntity
  8
0
  6
Continuous
 62
     7
370
    25
100
AcDbSpline
210
0.0
220
0.0
230
1.0
 70
     8
 71
     3
 72
    14
 73
    10
 74
     0
 42
0.000000001
 43
0.00000001
 40
0.0
 40
0.0
 40
0.0
 40
0.0
 40
0.25
 40
0.25
 40
0.5
 40
0.5
 40
0.75
 40
0.75
 40
1.0
 40
1.0
 40
1.0
 40
1.0
 10
231.5123535395528
 20
83.08756285244742
 30
0.0
 10
231.6294146810432
 20
83.0295412795204
 30
0.0
 10
231.7933692940512
 20
82.98349470807203
 30
0.0
 10
232.2127632769542
 20
82.91020322505122
 30
0.0
 10
232.4717746087175
 20
82.8829735177513
 30
0.0
 10
233.0593974782027
 20
82.84443869169432
 30
0.0
 10
233.3904961700727
 20
82.83259361319911
 30
0.0
 10
234.1247991572737
 20
82.81782025421904
 30
0.0
 10
234.5177665321051
 20
82.81502241153281
 30
0.0
 10
234.9366195814345
 20
82.81394419044871
 30
0.0
  0
SPLINE
  5
C7
330
1F
100
AcDbEntity
  8
0
  6
Continuous
 62
     7
370
    25
100
AcDbSpline
210
0.0
220
0.0
230
1.0
 70
     8
 71
     3
 72
    14
 73
    10
 74
     0
 42
0.000000001
 43
0.00000001
 40
0.0
 40
0.0
 40
0.0
 40
0.0
 40
0.25
 40
0.25
 40
0.5
 40
0.5
 40
0.75
 40
0.75
 40
1.0
 40
1.0
 40
1.0
 40
1.0
 10
234.9366195814345
 20
145.8128165595955
 30
0.0
 10
234.5177579546063
 20
145.8117383164311
 30
0.0
 10
234.1271893322889
 20
145.8089296818841
 30
0.0
 10
233.4005860872444
 20
145.7944280322263
 30
0.0
 10
233.0623905495778
 20
145.7824560165338
 30
0.0
 10
232.474295376254
 20
145.7440142758568
 30
0.0
 10
232.2196279229637
 20
145.7175416773765
 30
0.0
 10
231.7940831810417
 20
145.6436024722309
 30
0.0
 10
231.6294219733378
 20
145.5972230849633
 30
0.0
 10
231.5123535395528
 20
145.5391978975969
 30
0.0
  0
SPLINE
  5
C8
330
1F
100
AcDbEntity
  8
0
  6
Continuous
 62
     7
370
    25
100
AcDbSpline
210
0.0
220
0.0
230
1.0
 70
     8
 71
     3
 72
    12
 73
     8
 74
     0
 42
0.000000001
 43
0.00000001
 40
0.0
 40
0.0
 40
0.0
 40
0.0
 40
0.2500000000000004
 40
0.2500000000000004
 40
0.5000000000000009
 40
0.5000000000000009
 40
1.0
 40
1.0
 40
1.0
 40
1.0
 10
208.2317033829799
 20
84.244888416149
 30
0.0
 10
208.1686464280821
 20
84.244888416149
 30
0.0
 10
208.1095162783366
 20
84.25278874722855
 30
0.0
 10
208.0110687278033
 20
84.2760994952336
 30
0.0
 10
207.9720364896152
 20
84.29080462151724
 30
0.0
 10
207.8721466051582
 20
84.33873814970387
 30
0.0
 10
207.8298476315489
 20
84.37480812246862
 30
0.0
 10
207.7986906810877
 20
84.41263791490486
 30
0.0
  0
LINE
  5
C9
330
1F
100
AcDbEntity
  8
0
  6
Continuous
 62
     7
370
    25
100
AcDbLine
 10
211.1761897558
 20
84.2448884161
 30
0.0
 11
208.231703383
 21
84.2448884161
 31
0.0
  0
SPLINE
  5
CA
330
1F
100
AcDbEntity
  8
0
  6
Continuous
 62
     7
370
    25
100
AcDbSpline
210
0.0
220
0.0
230
1.0
 70
     8
 71
     3
 72
    12
 73
     8
 74
     0
 42
0.000000001
 43
0.00000001
 40
0.0
 40
0.0
 40
0.0
 40
0.0
 40
0.4999999999999991
 40
0.4999999999999991
 40
0.7499999999999996
 40
0.7499999999999996
 40
1.0
 40
1.0
 40
1.0
 40
1.0
 10
211.6092024577393
 20
84.41263791490486
 30
0.0
 10
211.5780572597772
 20
84.37482239198467
 30
0.0
 10
211.5357829934428
 20
84.33875553390105
 30
0.0
 10
211.4358374596174
 20
84.29079546888978
 30
0.0
 10
211.3961071549134
 20
84.27593449499213
 30
0.0
 10
211.2992191049072
 20
84.25298334886098
 30
0.0
 10
211.2391538631606
 20
84.24488841614894
 30
0.0
 10
211.1761897558471
 20
84.24488841614894
 30
0.0
  0
ELLIPSE
  5
CB
330
1F
100
AcDbEntity
  8
0
  6
Continuous
 62
     7
370
    25
100
AcDbEllipse
 10
195.3567923801
 20
114.313380375
 30
0.0
 11
-14.75368316065618
 21
31.09325491558116
 31
0.0
210
0.0
220
0.0
230
1.0
 40
0.3419987131
 41
3.300734856217124
 42
4.231496223360773
  0
SPLINE
  5
CC
330
1F
100
AcDbEntity
  8
0
  6
Continuous
 62
     7
370
    25
100
AcDbSpline
210
0.0
220
0.0
230
1.0
 70
     8
 71
     3
 72
    12
 73
     8
 74
     0
 42
0.000000001
 43
0.00000001
 40
0.0
 40
0.0
 40
0.0
 40
0.0
 40
0.2499999999999996
 40
0.2499999999999996
 40
0.4999999999999991
 40
0.4999999999999991
 40
1.0
 40
1.0
 40
1.0
 40
1.0
 10
211.1761897558471
 20
104.9253139436859
 30
0.0
 10
211.2392467107449
 20
104.9253139436859
 30
0.0
 10
211.2983768604905
 20
104.8999675903052
 30
0.0
 10
211.3968244110237
 20
104.8258482081657
 30
0.0
 10
211.4358566492118
 20
104.7793516934677
 30
0.0
 10
211.5357465336688
 20
104.6292771864591
 30
0.0
 10
211.5780455072781
 20
104.5181594773442
 30
0.0
 10
211.6092024577393
 20
104.4040110543367
 30
0.0
  0
LINE
  5
CD
330
1F
100
AcDbEntity
  8
0
  6
Continuous
 62
     7
370
    25
100
AcDbLine
 10
208.231703383
 20
104.9253139437
 30
0.0
 11
211.1761897558
 21
104.9253139437
 31
0.0
  0
SPLINE
  5
CE
330
1F
100
AcDbEntity
  8
0
  6
Continuous
 62
     7
370
    25
100
AcDbSpline
210
0.0
220
0.0
230
1.0
 70
     8
 71
     3
 72
    12
 73
     8
 74
     0
 42
0.000000001
 43
0.00000001
 40
0.0
 40
0.0
 40
0.0
 40
0.0
 40
0.4999999999999982
 40
0.4999999999999982
 40
0.7499999999999991
 40
0.7499999999999991
 40
1.0
 40
1.0
 40
1.0
 40
1.0
 10
207.7986906810877
 20
104.4040110543367
 30
0.0
 10
207.8298358790498
 20
104.518116420202
 30
0.0
 10
207.8721101453843
 20
104.6292227474208
 30
0.0
 10
207.9720556792096
 20
104.7793803548511
 30
0.0
 10
208.0117859839136
 20
104.8263730464685
 30
0.0
 10
208.1086740339198
 20
104.899348631007
 30
0.0
 10
208.1687392756664
 20
104.925313943686
 30
0.0
 10
208.2317033829799
 20
104.925313943686
 30
0.0
  0
ELLIPSE
  5
CF
330
1F
100
AcDbEntity
  8
0
  6
Continuous
 62
     7
370
    25
100
AcDbEllipse
 10
224.0511007588
 20
114.313380375
 30
0.0
 11
14.75368316065621
 21
31.09325491558119
 31
0.0
210
0.0
220
0.0
230
1.0
 40
0.3419987131
 41
2.051689083818824
 42
2.982450450962504
  0
SPLINE
  5
D0
330
1F
100
AcDbEntity
  8
0
  6
Continuous
 62
     7
370
    25
100
AcDbSpline
210
0.0
220
0.0
230
1.0
 70
     8
 71
     3
 72
    12
 73
     8
 74
     0
 42
0.000000001
 43
0.00000001
 40
0.0
 40
0.0
 40
0.0
 40
0.0
 40
0.2500000000000001
 40
0.2500000000000001
 40
0.5000000000000001
 40
0.5000000000000001
 40
1.0
 40
1.0
 40
1.0
 40
1.0
 10
208.2317033829799
 20
123.701446806358
 30
0.0
 10
208.1686233444866
 20
123.701446806358
 30
0.0
 10
208.1094747223052
 20
123.7268111255729
 30
0.0
 10
208.0110021722361
 20
123.8009759859458
 30
0.0
 10
207.9719655602514
 20
123.8474963265
 30
0.0
 10
207.8720690934723
 20
123.9976386693452
 30
0.0
 10
207.8296482124057
 20
124.1093318763174
 30
0.0
 10
207.7986906810877
 20
124.2227496957072
 30
0.0
  0
LINE
  5
D1
330
1F
100
AcDbEntity
  8
0
  6
Continuous
 62
     7
370
    25
100
AcDbLine
 10
211.1761897558
 20
123.7014468064
 30
0.0
 11
208.231703383
 21
123.7014468064
 31
0.0
  0
SPLINE
  5
D2
330
1F
100
AcDbEntity
  8
0
  6
Continuous
 62
     7
370
    25
100
AcDbSpline
210
0.0
220
0.0
230
1.0
 70
     8
 71
     3
 72
    12
 73
     8
 74
     0
 42
0.000000001
 43
0.00000001
 40
0.0
 40
0.0
 40
0.0
 40
0.0
 40
0.4999999999999991
 40
0.4999999999999991
 40
0.7499999999999996
 40
0.7499999999999996
 40
1.0
 40
1.0
 40
1.0
 40
1.0
 10
211.6092024577393
 20
124.2227496957071
 30
0.0
 10
211.5784802158202
 20
124.1101938962979
 30
0.0
 10
211.535643001285
 20
123.9974360365584
 30
0.0
 10
211.4362159770852
 20
123.847895150762
 30
0.0
 10
211.3964637822686
 20
123.8006024190551
 30
0.0
 10
211.2984223254103
 20
123.7268661257337
 30
0.0
 10
211.2388662698229
 20
123.701446806358
 30
0.0
 10
211.1761897558471
 20
123.701446806358
 30
0.0
  0
ELLIPSE
  5
D3
330
1F
100
AcDbEntity
  8
0
  6
Continuous
 62
     7
370
    25
100
AcDbEllipse
 10
195.3567923801
 20
114.313380375
 30
0.0
 11
14.75368316065601
 21
31.09325491558116
 31
0.0
210
0.0
220
0.0
230
1.0
 40
0.3419987131
 41
5.193281737408618
 42
6.124043104552322
  0
SPLINE
  5
D4
330
1F
100
AcDbEntity
  8
0
  6
Continuous
 62
     7
370
    25
100
AcDbSpline
210
0.0
220
0.0
230
1.0
 70
     8
 71
     3
 72
    12
 73
     8
 74
     0
 42
0.000000001
 43
0.00000001
 40
0.0
 40
0.0
 40
0.0
 40
0.0
 40
0.2499999999999982
 40
0.2499999999999982
 40
0.4999999999999964
 40
0.4999999999999964
 40
1.0
 40
1.0
 40
1.0
 40
1.0
 10
211.1761897558471
 20
144.3818723338952
 30
0.0
 10
211.2392697943404
 20
144.3818723338952
 30
0.0
 10
211.2984184165219
 20
144.3739664076827
 30
0.0
 10
211.3968909665909
 20
144.3506412462465
 30
0.0
 10
211.4359275785756
 20
144.3359284564148
 30
0.0
 10
211.5358240453547
 20
144.2879726556839
 30
0.0
 10
211.5782449264213
 20
144.2517104991038
 30
0.0
 10
211.6092024577393
 20
144.2141228351393
 30
0.0
  0
LINE
  5
D5
330
1F
100
AcDbEntity
  8
0
  6
Continuous
 62
     7
370
    25
100
AcDbLine
 10
208.231703383
 20
144.3818723339
 30
0.0
 11
211.1761897558
 21
144.3818723339
 31
0.0
  0
SPLINE
  5
D6
330
1F
100
AcDbEntity
  8
0
  6
Continuous
 62
     7
370
    25
100
AcDbSpline
210
0.0
220
0.0
230
1.0
 70
     8
 71
     3
 72
    12
 73
     8
 74
     0
 42
0.000000001
 43
0.00000001
 40
0.0
 40
0.0
 40
0.0
 40
0.0
 40
0.4999999999999953
 40
0.4999999999999953
 40
0.7499999999999977
 40
0.7499999999999977
 40
1.0
 40
1.0
 40
1.0
 40
1.0
 10
207.7986906810877
 20
144.2141228351393
 30
0.0
 10
207.8294129230068
 20
144.2514248180923
 30
0.0
 10
207.872250137542
 20
144.2880366501387
 30
0.0
 10
207.9716771617418
 20
144.3358014334239
 30
0.0
 10
208.0114293565584
 20
144.3507589489063
 30
0.0
 10
208.1094708134166
 20
144.3739488946754
 30
0.0
 10
208.1690268690041
 20
144.3818723338952
 30
0.0
 10
208.2317033829799
 20
144.3818723338952
 30
0.0
  0
ELLIPSE
  5
D7
330
1F
100
AcDbEntity
  8
0
  6
Continuous
 62
     7
370
    25
100
AcDbEllipse
 10
224.0511007588
 20
114.313380375
 30
0.0
 11
-14.75368316065604
 21
31.09325491558116
 31
0.0
210
0.0
220
0.0
230
1.0
 40
0.3419987131
 41
0.1591422026273041
 42
1.089903569770979
  0
LINE
  5
D8
330
1F
100
AcDbEntity
  8
0
  6
Continuous
 62
     7
370
    25
100
AcDbLine
 10
197.7039465694
 20
83.313380375
 30
0.0
 11
197.7039465694
 21
145.3133803731
 31
0.0
  0
SPLINE
  5
D9
330
1F
100
AcDbEntity
  8
0
  6
Continuous
 62
     7
370
    25
100
AcDbSpline
210
0.0
220
0.0
230
1.0
 70
     8
 71
     3
 72
    12
 73
     8
 74
     0
 42
0.000000001
 43
0.00000001
 40
0.0
 40
0.0
 40
0.0
 40
0.0
 40
0.5000000000000002
 40
0.5000000000000002
 40
0.7500000000000001
 40
0.7500000000000001
 40
1.0
 40
1.0
 40
1.0
 40
1.0
 10
196.887434282957
 20
92.45858667254628
 30
0.0
 10
196.9438707838642
 20
92.45716879120452
 30
0.0
 10
197.012955414553
 20
92.45560445495622
 30
0.0
 10
197.1317576862709
 20
92.45266026298178
 30
0.0
 10
197.171942961741
 20
92.4516220598844
 30
0.0
 10
197.2453240091448
 20
92.44968816466977
 30
0.0
 10
197.2787335728874
 20
92.44879327738096
 30
0.0
 10
197.3089696805439
 20
92.44800948710862
 30
0.0
  0
SPLINE
  5
DA
330
1F
100
AcDbEntity
  8
0
  6
Continuous
 62
     7
370
    25
100
AcDbSpline
210
0.0
220
0.0
230
1.0
 70
     8
 71
     3
 72
    16
 73
    12
 74
     0
 42
0.000000001
 43
0.00000001
 40
0.0
 40
0.0
 40
0.0
 40
0.0
 40
0.0624999999999982
 40
0.0624999999999982
 40
0.1249999999999964
 40
0.1249999999999964
 40
0.2499999999999947
 40
0.2499999999999947
 40
0.4999999999999964
 40
0.4999999999999964
 40
1.0
 40
1.0
 40
1.0
 40
1.0
 10
197.3089696805067
 20
92.44800948713286
 30
0.0
 10
197.3205500880946
 20
92.4477092960215
 30
0.0
 10
197.3338596148559
 20
92.44638154776251
 30
0.0
 10
197.363161044942
 20
92.4396828729875
 30
0.0
 10
197.3779751448263
 20
92.43432468988183
 30
0.0
 10
197.4138035465292
 20
92.41727904071446
 30
0.0
 10
197.4279231708922
 20
92.40581650293873
 30
0.0
 10
197.4624273149807
 20
92.3742531775665
 30
0.0
 10
197.4735318656853
 20
92.35635587852123
 30
0.0
 10
197.4997080429015
 20
92.30619446090698
 30
0.0
 10
197.5039465694135
 20
92.2784500487104
 30
0.0
 10
197.5039465694135
 20
92.25378588678085
 30
0.0
  0
LINE
  5
DB
330
1F
100
AcDbEntity
  8
0
  6
Continuous
 62
     7
370
    25
100
AcDbLine
 10
197.5039465694
 20
107.2914930493
 30
0.0
 11
197.5039465694
 21
91.7735600961
 31
0.0
  0
SPLINE
  5
DC
330
1F
100
AcDbEntity
  8
0
  6
Continuous
 62
     7
370
    25
100
AcDbSpline
210
0.0
220
0.0
230
1.0
 70
     8
 71
     3
 72
    16
 73
    12
 74
     0
 42
0.000000001
 43
0.00000001
 40
0.0
 40
0.0
 40
0.0
 40
0.0
 40
0.5000000000000024
 40
0.5000000000000024
 40
0.7500000000000002
 40
0.7500000000000002
 40
0.875
 40
0.875
 40
0.9375
 40
0.9375
 40
1.0
 40
1.0
 40
1.0
 40
1.0
 10
197.5039465694135
 20
107.2914930492721
 30
0.0
 10
197.5039465694135
 20
107.4051855933999
 30
0.0
 10
197.4998002943356
 20
107.5195057547494
 30
0.0
 10
197.473834698942
 20
107.6925540452465
 30
0.0
 10
197.4623737935646
 20
107.7517295524082
 30
0.0
 10
197.4280620557902
 20
107.8348526718764
 30
0.0
 10
197.4140373198607
 20
107.8629739879771
 30
0.0
 10
197.3780143568268
 20
107.8915898019545
 30
0.0
 10
197.3632598477372
 20
107.8973828498563
 30
0.0
 10
197.3339076865903
 20
107.8957894239193
 30
0.0
 10
197.3205678120862
 20
107.8892930205955
 30
0.0
 10
197.3089696805378
 20
107.8807772743924
 30
0.0
  0
SPLINE
  5
DD
330
1F
100
AcDbEntity
  8
0
  6
Continuous
 62
     7
370
    25
100
AcDbSpline
210
0.0
220
0.0
230
1.0
 70
     8
 71
     3
 72
    12
 73
     8
 74
     0
 42
0.000000001
 43
0.00000001
 40
0.0
 40
0.0
 40
0.0
 40
0.0
 40
0.2500000000000002
 40
0.2500000000000002
 40
0.5000000000000003
 40
0.5000000000000003
 40
1.0
 40
1.0
 40
1.0
 40
1.0
 10
197.3089696805449
 20
107.8807772743832
 30
0.0
 10
197.2787712391043
 20
107.8586045423381
 30
0.0
 10
197.2454038837683
 20
107.8395248864609
 30
0.0
 10
197.1722486079384
 20
107.8143518420182
 30
0.0
 10
197.1319959089145
 20
107.8087953056014
 30
0.0
 10
197.0142671656396
 20
107.8197071165882
 30
0.0
 10
196.9438087175807
 20
107.861642871999
 30
0.0
 10
196.8874342829624
 20
107.9108546543805
 30
0.0
  0
SPLINE
  5
DE
330
1F
100
AcDbEntity
  8
0
  6
Continuous
 62
     7
370
    25
100
AcDbSpline
210
0.0
220
0.0
230
1.0
 70
     8
 71
     3
 72
    12
 73
     8
 74
     0
 42
0.000000001
 43
0.00000001
 40
0.0
 40
0.0
 40
0.0
 40
0.0
 40
0.4999999999999986
 40
0.4999999999999986
 40
0.7499999999999992
 40
0.7499999999999992
 40
1.0
 40
1.0
 40
1.0
 40
1.0
 10
196.3826262258538
 20
109.1272060462611
 30
0.0
 10
196.4263765777383
 20
108.9067590612866
 30
0.0
 10
196.4792667288628
 20
108.691214071481
 30
0.0
 10
196.5908782720045
 20
108.3787999949091
 30
0.0
 10
196.633437615908
 20
108.2767205192931
 30
0.0
 10
196.7384148512454
 20
108.0822805066514
 30
0.0
 10
196.79998209434
 20
107.9871956075877
 30
0.0
 10
196.8874342829624
 20
107.9108546543806
 30
0.0
  0
SPLINE
  5
DF
330
1F
100
AcDbEntity
  8
0
  6
Continuous
 62
     7
370
    25
100
AcDbSpline
210
0.0
220
0.0
230
1.0
 70
     8
 71
     3
 72
    12
 73
     8
 74
     0
 42
0.000000001
 43
0.00000001
 40
0.0
 40
0.0
 40
0.0
 40
0.0
 40
0.2499999999999988
 40
0.2499999999999988
 40
0.4999999999999977
 40
0.4999999999999977
 40
1.0
 40
1.0
 40
1.0
 40
1.0
 10
196.8874342829623
 20
120.7159060956637
 30
0.0
 10
196.7989408753944
 20
120.6386562155554
 30
0.0
 10
196.7388828346285
 20
120.5453368916662
 30
0.0
 10
196.633034561646
 20
120.3493038386967
 30
0.0
 10
196.5905010403685
 20
120.246977480485
 30
0.0
 10
196.4793497335448
 20
119.9356330747091
 30
0.0
 10
196.426418876497
 20
119.7202148215311
 30
0.0
 10
196.3826262258538
 20
119.4995547037832
 30
0.0
  0
SPLINE
  5
E0
330
1F
100
AcDbEntity
  8
0
  6
Continuous
 62
     7
370
    25
100
AcDbSpline
210
0.0
220
0.0
230
1.0
 70
     8
 71
     3
 72
    12
 73
     8
 74
     0
 42
0.000000001
 43
0.00000001
 40
0.0
 40
0.0
 40
0.0
 40
0.0
 40
0.5000000000000001
 40
0.5000000000000001
 40
0.75
 40
0.75
 40
1.0
 40
1.0
 40
1.0
 40
1.0
 10
196.8874342829623
 20
120.7159060956637
 30
0.0
 10
196.9437428312579
 20
120.7650603629075
 30
0.0
 10
197.014017491976
 20
120.8070176815113
 30
0.0
 10
197.1320554062996
 20
120.8179773590437
 30
0.0
 10
197.1722316471536
 20
120.8124686007964
 30
0.0
 10
197.2461887418315
 20
120.7869113720074
 30
0.0
 10
197.2788051295429
 20
120.7681313241681
 30
0.0
 10
197.3089696805387
 20
120.7459834756514
 30
0.0
  0
SPLINE
  5
E1
330
1F
100
AcDbEntity
  8
0
  6
Continuous
 62
     7
370
    25
100
AcDbSpline
210
0.0
220
0.0
230
1.0
 70
     8
 71
     3
 72
    16
 73
    12
 74
     0
 42
0.000000001
 43
0.00000001
 40
0.0
 40
0.0
 40
0.0
 40
0.0
 40
0.0625
 40
0.0625
 40
0.125
 40
0.125
 40
0.25
 40
0.25
 40
0.5
 40
0.5
 40
1.0
 40
1.0
 40
1.0
 40
1.0
 10
197.3089696805069
 20
120.7459834755968
 30
0.0
 10
197.3205825803463
 20
120.7374568860016
 30
0.0
 10
197.3339337647787
 20
120.7309566244688
 30
0.0
 10
197.3633336043979
 20
120.7293872273513
 30
0.0
 10
197.3781743289532
 20
120.7352706179819
 30
0.0
 10
197.4140075369218
 20
120.7638182540324
 30
0.0
 10
197.4281207447434
 20
120.7919852733382
 30
0.0
 10
197.4626121159623
 20
120.8757395317602
 30
0.0
 10
197.4736961870726
 20
120.9334529453816
 30
0.0
 10
197.4998190048686
 20
121.1070434820274
 30
0.0
 10
197.5039465694135
 20
121.2220715346694
 30
0.0
 10
197.5039465694135
 20
121.3352677007722
 30
0.0
  0
LINE
  5
E2
330
1F
100
AcDbEntity
  8
0
  6
Continuous
 62
     7
370
    25
100
AcDbLine
 10
197.5039465694
 20
136.8532006539
 30
0.0
 11
197.5039465694
 21
121.3352677008
 31
0.0
  0
SPLINE
  5
E3
330
1F
100
AcDbEntity
  8
0
  6
Continuous
 62
     7
370
    25
100
AcDbSpline
210
0.0
220
0.0
230
1.0
 70
     8
 71
     3
 72
    16
 73
    12
 74
     0
 42
0.000000001
 43
0.00000001
 40
0.0
 40
0.0
 40
0.0
 40
0.0
 40
0.5000000000000023
 40
0.5000000000000023
 40
0.7500000000000038
 40
0.7500000000000038
 40
0.8750000000000046
 40
0.8750000000000046
 40
0.9375000000000022
 40
0.9375000000000022
 40
1.0
 40
1.0
 40
1.0
 40
1.0
 10
197.5039465694135
 20
136.3729748632634
 30
0.0
 10
197.5039465694135
 20
136.3483037072205
 30
0.0
 10
197.4997808709535
 20
136.3207218758292
 30
0.0
 10
197.4735225426286
 20
136.2703790050059
 30
0.0
 10
197.462018760891
 20
136.252089506944
 30
0.0
 10
197.4278880015445
 20
136.220934475907
 30
0.0
 10
197.4134661148738
 20
136.2092951006952
 30
0.0
 10
197.3778991464359
 20
136.1924130747642
 30
0.0
 10
197.3629473781413
 20
136.1870239709565
 30
0.0
 10
197.3339435597815
 20
136.180403475012
 30
0.0
 10
197.3205282057723
 20
136.1790508868056
 30
0.0
 10
197.3089696805357
 20
136.178751262934
 30
0.0
  0
SPLINE
  5
E4
330
1F
100
AcDbEntity
  8
0
  6
Continuous
 62
     7
370
    25
100
AcDbSpline
210
0.0
220
0.0
230
1.0
 70
     8
 71
     3
 72
    12
 73
     8
 74
     0
 42
0.000000001
 43
0.00000001
 40
0.0
 40
0.0
 40
0.0
 40
0.0
 40
0.2499999999999999
 40
0.2499999999999999
 40
0.4999999999999998
 40
0.4999999999999998
 40
1.0
 40
1.0
 40
1.0
 40
1.0
 10
197.3089696805449
 20
136.1787512629357
 30
0.0
 10
197.2787819039953
 20
136.1779687255181
 30
0.0
 10
197.2454280999036
 20
136.1770753936996
 30
0.0
 10
197.1723018967076
 20
136.175148084896
 30
0.0
 10
197.1320666936835
 20
136.1741085536834
 30
0.0
 10
197.0143750635504
 20
136.1711906703361
 30
0.0
 10
196.9439943903903
 20
136.1695950642659
 30
0.0
 10
196.8874342829597
 20
136.168174077498
 30
0.0
  0
SPLINE
  5
E5
330
1F
100
AcDbEntity
  8
0
  6
Continuous
 62
     7
370
    25
100
AcDbSpline
210
0.0
220
0.0
230
1.0
 70
     8
 71
     3
 72
    16
 73
    12
 74
     0
 42
0.000000001
 43
0.00000001
 40
0.0
 40
0.0
 40
0.0
 40
0.0
 40
0.2500000000000001
 40
0.2500000000000001
 40
0.3750000000000001
 40
0.3750000000000001
 40
0.5
 40
0.5
 40
0.75
 40
0.75
 40
1.0
 40
1.0
 40
1.0
 40
1.0
 10
196.3826262258539
 20
119.4995547037832
 30
0.0
 10
196.2213937483694
 20
118.6871449285364
 30
0.0
 10
196.1009139087298
 20
117.8470666341516
 30
0.0
 10
195.9785333914164
 20
116.5457715847889
 30
0.0
 10
195.947555731019
 20
116.1050905492041
 30
0.0
 10
195.905941993391
 20
115.2092509082729
 30
0.0
 10
195.8957060804582
 20
114.7625927770705
 30
0.0
 10
195.8955176834021
 20
113.4272828199306
 30
0.0
 10
195.9356623860398
 20
112.5427874466231
 30
0.0
 10
196.0998161409793
 20
110.7855375585971
 30
0.0
 10
196.2213677913888
 20
109.939746612184
 30
0.0
 10
196.3826262258538
 20
109.1272060462611
 30
0.0
  0
LINE
  5
E6
330
1F
100
AcDbEntity
  8
0
  6
Continuous
 62
     7
370
    25
100
AcDbLine
 10
195.5039465694
 20
120.7985586367
 30
0.0
 11
195.5039465694
 21
107.8282021133
 31
0.0
  0
LINE
  5
E7
330
1F
100
AcDbEntity
  8
0
  6
Continuous
 62
     7
370
    25
100
AcDbLine
 10
161.2039465694
 20
120.3676909426
 30
0.0
 11
161.2039465694
 21
108.2590698075
 31
0.0
  0
LINE
  5
E8
330
1F
100
AcDbEntity
  8
0
  6
Continuous
 62
     7
370
    25
100
AcDbLine
 10
159.7039465694
 20
119.9346782407
 30
0.0
 11
159.7039465694
 21
108.6920825094
 31
0.0
  0
LINE
  5
E9
330
1F
100
AcDbEntity
  8
0
  6
Continuous
 62
     7
370
    25
100
AcDbLine
 10
161.2039465694
 20
120.3676909426
 30
0.0
 11
161.2039465694
 21
135.4717437713
 31
0.0
  0
LINE
  5
EA
330
1F
100
AcDbEntity
  8
0
  6
Continuous
 62
     7
370
    25
100
AcDbLine
 10
161.2039465694
 20
135.4717437713
 30
0.0
 11
195.5039465694
 21
136.3334791596
 31
0.0
  0
LINE
  5
EB
330
1F
100
AcDbEntity
  8
0
  6
Continuous
 62
     7
370
    25
100
AcDbLine
 10
195.5039465694
 20
120.7985586367
 30
0.0
 11
195.5039465694
 21
136.3334791596
 31
0.0
  0
ARC
  5
EC
330
1F
100
AcDbEntity
  8
0
  6
Continuous
 62
     7
370
    25
100
AcDbCircle
 10
195.7038834803
 20
136.3385022707
 30
0.0
 40
0.2000000000000066
100
AcDbArc
 50
181.4391666667
 51
271.4391666667
  0
LINE
  5
ED
330
1F
100
AcDbEntity
  8
0
  6
Continuous
 62
     7
370
    25
100
AcDbLine
 10
161.2039465694
 20
93.1550169787
 30
0.0
 11
161.2039465694
 21
108.2590698075
 31
0.0
  0
LINE
  5
EE
330
1F
100
AcDbEntity
  8
0
  6
Continuous
 62
     7
370
    25
100
AcDbLine
 10
195.5039465694
 20
92.2932815905
 30
0.0
 11
195.5039465694
 21
107.8282021133
 31
0.0
  0
LINE
  5
EF
330
1F
100
AcDbEntity
  8
0
  6
Continuous
 62
     7
370
    25
100
AcDbLine
 10
161.2039465694
 20
93.1550169787
 30
0.0
 11
195.5039465694
 21
92.2932815905
 31
0.0
  0
ARC
  5
F0
330
1F
100
AcDbEntity
  8
0
  6
Continuous
 62
     7
370
    25
100
AcDbCircle
 10
195.7038834803
 20
92.2882584793
 30
0.0
 40
0.2000000000000059
100
AcDbArc
 50
88.5608333333
 51
178.5608333333
  0
LINE
  5
F1
330
1F
100
AcDbEntity
  8
0
  6
Continuous
 62
     7
370
    25
100
AcDbLine
 10
195.7089065915
 20
136.1385653598
 30
0.0
 11
196.887434283
 21
136.1681740775
 31
0.0
  0
LINE
  5
F2
330
1F
100
AcDbEntity
  8
0
  6
Continuous
 62
     7
370
    25
100
AcDbLine
 10
195.7089065915
 20
92.4881953903
 30
0.0
 11
196.887434283
 21
92.4585866725
 31
0.0
  0
LINE
  5
F3
330
1F
100
AcDbEntity
  8
0
  6
Continuous
 62
     7
370
    25
100
AcDbLine
 10
159.7039465694
 20
134.6057183675
 30
0.0
 11
161.2039465694
 21
135.4717437713
 31
0.0
  0
LINE
  5
F4
330
1F
100
AcDbEntity
  8
0
  6
Continuous
 62
     7
370
    25
100
AcDbLine
 10
159.7039465694
 20
119.9346782407
 30
0.0
 11
159.7039465694
 21
134.6057183675
 31
0.0
  0
LINE
  5
F5
330
1F
100
AcDbEntity
  8
0
  6
Continuous
 62
     7
370
    25
100
AcDbLine
 10
159.7039465694
 20
94.0210423825
 30
0.0
 11
161.2039465694
 21
93.1550169787
 31
0.0
  0
LINE
  5
F6
330
1F
100
AcDbEntity
  8
0
  6
Continuous
 62
     7
370
    25
100
AcDbLine
 10
159.7039465694
 20
94.0210423825
 30
0.0
 11
159.7039465694
 21
108.6920825094
 31
0.0
  0
SPLINE
  5
F7
330
1F
100
AcDbEntity
  8
0
  6
Continuous
 62
     7
370
    25
100
AcDbSpline
210
0.0
220
0.0
230
1.0
 70
     8
 71
     3
 72
    14
 73
    10
 74
     0
 42
0.000000001
 43
0.00000001
 40
0.0
 40
0.0
 40
0.0
 40
0.0
 40
0.25
 40
0.25
 40
0.5
 40
0.5
 40
0.75
 40
0.75
 40
1.0
 40
1.0
 40
1.0
 40
1.0
 10
234.9366195814345
 20
82.81394419044872
 30
0.0
 10
235.0209871143827
 20
82.81372700961889
 30
0.0
 10
235.1045514871777
 20
82.80307317364496
 30
0.0
 10
235.269783899762
 20
82.76013754789966
 30
0.0
 10
235.3516107518176
 20
82.72735332577716
 30
0.0
 10
235.5031338281109
 20
82.64200540091008
 30
0.0
 10
235.5750955694526
 20
82.58819964300724
 30
0.0
 10
235.7021415257363
 20
82.46304234121332
 30
0.0
 10
235.757048863953
 20
82.39249833368741
 30
0.0
 10
235.802644985219
 20
82.31356300861233
 30
0.0
  0
SPLINE
  5
F8
330
1F
100
AcDbEntity
  8
0
  6
Continuous
 62
     7
370
    25
100
AcDbSpline
210
0.0
220
0.0
230
1.0
 70
     8
 71
     3
 72
    10
 73
     6
 74
     0
 42
0.000000001
 43
0.00000001
 40
0.0
 40
0.0
 40
0.0
 40
0.0
 40
0.5
 40
0.5
 40
1.0
 40
1.0
 40
1.0
 40
1.0
 10
235.9025454077236
 20
146.5542866287479
 30
0.0
 10
235.8436386285939
 20
146.3345002495101
 30
0.0
 10
235.710699365253
 20
146.1428476615727
 30
0.0
 10
235.356553823973
 20
145.879409433583
 30
0.0
 10
235.1457194167812
 20
145.8133548291665
 30
0.0
 10
234.9366195814345
 20
145.8128165595956
 30
0.0
  0
SPLINE
  5
F9
330
1F
100
AcDbEntity
  8
0
  6
Continuous
 62
     7
370
    25
100
AcDbSpline
210
0.0
220
0.0
230
1.0
 70
     8
 71
     3
 72
     8
 73
     4
 74
     0
 42
0.000000001
 43
0.00000001
 40
0.0
 40
0.0
 40
0.0
 40
0.0
 40
1.0
 40
1.0
 40
1.0
 40
1.0
 10
237.3079084972873
 20
151.7982473180226
 30
0.0
 10
236.8391011891987
 20
150.0485785933525
 30
0.0
 10
236.3705792774596
 20
148.3005622036442
 30
0.0
 10
235.9025454077236
 20
146.5542866287479
 30
0.0
  0
SPLINE
  5
FA
330
1F
100
AcDbEntity
  8
0
  6
Continuous
 62
     7
370
    25
100
AcDbSpline
210
0.0
220
0.0
230
1.0
 70
     8
 71
     3
 72
     8
 73
     4
 74
     0
 42
0.000000001
 43
0.00000001
 40
0.0
 40
0.0
 40
0.0
 40
0.0
 40
1.0
 40
1.0
 40
1.0
 40
1.0
 10
237.3079084972873
 20
82.31478665592253
 30
0.0
 10
236.7952626257038
 20
82.31478665592253
 30
0.0
 10
236.2936240836026
 20
82.31399291375865
 30
0.0
 10
235.802644985219
 20
82.3135630086123
 30
0.0
  0
ARC
  5
FB
330
1F
100
AcDbEntity
  8
0
  6
Continuous
 62
     7
370
    25
100
AcDbCircle
 10
246.7157678309
 20
150.4988096789
 30
0.0
 40
2.100000000000005
100
AcDbArc
 50
82.4688525021
 51
277.5311474978
  0
LINE
  5
FC
330
1F
100
AcDbEntity
  8
0
  6
Continuous
 62
     7
370
    25
100
AcDbLine
 10
253.751136543
 20
141.7088859655
 30
0.0
 11
253.8893758733
 21
141.5706466352
 31
0.0
  0
LINE
  5
FD
330
1F
100
AcDbEntity
  8
0
  6
Continuous
 62
     7
370
    25
100
AcDbLine
 10
253.8893758733
 20
141.5706466352
 30
0.0
 11
253.9755452801
 21
141.6568160421
 31
0.0
  0
ELLIPSE
  5
FE
330
1F
100
AcDbEntity
  8
0
  6
Continuous
 62
     7
370
    25
100
AcDbEllipse
 10
261.5789815479
 20
136.7217125872
 30
0.0
 11
-6.411753267246552
 21
6.411753267245927
 31
-4.598404990119321E-14
210
-7.172053334876786E-15
220
-2.162437498405687E-19
230
1.0
 40
0.9925461516
 41
0.2112108803593524
 42
0.5198579269444238
  0
LINE
  5
FF
330
1F
100
AcDbEntity
  8
0
  6
Continuous
 62
     7
370
    25
100
AcDbLine
 10
252.8529453509
 20
139.1250664526
 30
0.0
 11
237.599671675
 21
82.3147866559
 31
0.0
  0
LINE
  5
100
330
1F
100
AcDbEntity
  8
0
  6
Continuous
 62
     7
370
    25
100
AcDbLine
 10
239.1226618289
 20
158.5711826619
 30
0.0
 11
237.3079084973
 21
151.798247318
 31
0.0
  0
LINE
  5
101
330
1F
100
AcDbEntity
  8
0
  6
Continuous
 62
     7
370
    25
100
AcDbLine
 10
237.599671675
 20
82.3147866559
 30
0.0
 11
237.3079084973
 21
82.3147866559
 31
0.0
  0
SPLINE
  5
102
330
1F
100
AcDbEntity
  8
0
  6
Continuous
 62
     7
370
    25
100
AcDbSpline
210
0.0
220
0.0
230
1.0
 70
     8
 71
     3
 72
    10
 73
     6
 74
     0
 42
0.000000001
 43
0.00000001
 40
0.0
 40
0.0
 40
0.0
 40
0.0
 40
0.5
 40
0.5
 40
1.0
 40
1.0
 40
1.0
 40
1.0
 10
239.4435726579671
 20
159.0765450067512
 30
0.0
 10
239.3660201875717
 20
159.0110836098399
 30
0.0
 10
239.2989960466956
 20
158.934408915195
 30
0.0
 10
239.1897509218328
 20
158.7623429779834
 30
0.0
 10
239.1491306071091
 20
158.6699677563248
 30
0.0
 10
239.1226618289235
 20
158.5711826619311
 30
0.0
  0
LINE
  5
103
330
1F
100
AcDbEntity
  8
0
  6
Continuous
 62
     7
370
    25
100
AcDbLine
 10
253.4868550801
 20
159.0765450068
 30
0.0
 11
239.443572658
 21
159.0765450068
 31
0.0
  0
LINE
  5
104
330
1F
100
AcDbEntity
  8
0
  6
Continuous
 62
     7
370
    25
100
AcDbLine
 10
253.8893758733
 20
141.6842389828
 30
0.0
 11
253.8893758733
 21
141.5706466352
 31
0.0
  0
LINE
  5
105
330
1F
100
AcDbEntity
  8
0
  6
Continuous
 62
     7
370
    25
100
AcDbLine
 10
253.9755452801
 20
141.6568160421
 30
0.0
 11
253.9443294832
 21
141.688031839
 31
0.0
  0
LINE
  5
106
330
1F
100
AcDbEntity
  8
VERMASSUNG
100
AcDbLine
 10
262.7039465694
 20
114.313380375
 30
0.0
 11
262.7039465694
 21
159.313380375
 31
0.0
  0
LINE
  5
107
330
1F
100
AcDbEntity
  8
VERMASSUNG
100
AcDbLine
 10
262.7039465694
 20
159.313380375
 30
0.0
 11
224.11213533
 21
159.313380375
 31
0.0
  0
DIMENSION
  5
108
330
1F
100
AcDbEntity
  8
VERMASSUNG
100
AcDbDimension
  2
_D
 10
262.5867892819
 20
150.7816523914
 30
0.0
 11
256.3650623945
 21
165.9679152492
 31
0.0
 70
   162
  1
<>
 71
     1
 42
-1.0
  3
SLDDIMSTYLE0
100
AcDb2LineAngularDimension
 13
262.7039465694
 23
159.313380375
 33
0.0
 14
262.7039465694
 24
114.313380375
 34
0.0
 15
254.1722185858
 25
159.1962230875
 35
0.0
 16
256.3650623945
 26
165.9679152492
 36
0.0
  0
DIMENSION
  5
113
330
1F
100
AcDbEntity
  8
VERMASSUNG
100
AcDbDimension
  2
_D_1
 10
272.8696319943
 20
114.313380375
 30
0.0
 11
272.8696319943
 21
136.813380375
 31
0.0
 70
   160
  1
<>
 71
     2
 42
-1.0
  3
SLDDIMSTYLE1
100
AcDbAlignedDimension
 13
262.7039465694
 23
159.313380375
 33
0.0
 14
267.4627128097
 24
114.313380375
 34
0.0
 50
90.0
100
AcDbRotatedDimension
  0
DIMENSION
  5
120
330
1F
100
AcDbEntity
  8
VERMASSUNG
100
AcDbDimension
  2
_D_2
 10
197.7039465694
 20
174.7270207205
 30
0.0
 11
230.2039465694
 21
174.7270207205
 31
0.0
 70
   160
  1
<>
 71
     2
 42
-1.0
  3
SLDDIMSTYLE1
100
AcDbAlignedDimension
 13
262.7039465694
 23
159.313380375
 33
0.0
 14
197.7039465694
 24
145.313380375
 34
0.0
100
AcDbRotatedDimension
  0
DIMENSION
  5
12C
330
1F
100
AcDbEntity
  8
VERMASSUNG
100
AcDbDimension
  2
_D_3
 10
159.7039465694
 20
183.4550705021
 30
0.0
 11
211.2039465694
 21
183.4550705021
 31
0.0
 70
   160
  1
<>
 71
     2
 42
-1.0
  3
SLDDIMSTYLE2
100
AcDbAlignedDimension
 13
262.7039465694
 23
159.313380375
 33
0.0
 14
159.7039465694
 24
134.6057183675
 34
0.0
100
AcDbRotatedDimension
  0
DIMENSION
  5
137
330
1F
100
AcDbEntity
  8
VERMASSUNG
100
AcDbDimension
  2
_D_4
 10
149.7039465694
 20
82.813380375
 30
0.0
 11
149.7039465694
 21
114.313380375
 31
0.0
 70
   160
  1
PSC%%c<>
 71
     2
 42
-1.0
  3
SLDDIMSTYLE2
100
AcDbAlignedDimension
 13
198.2039465694
 23
145.813380375
 33
0.0
 14
198.2039465694
 24
82.813380375
 34
0.0
 50
90.0
100
AcDbRotatedDimension
  0
LINE
  5
143
330
1F
100
AcDbEntity
  8
VERMASSUNG
  6
CENTERX2
370
    18
100
AcDbLine
 10
267.4627128097
 20
114.313380375
 30
0.0
 11
155.6288110222
 21
114.313380375
 31
0.0
  0
LINE
  5
144
330
1F
100
AcDbEntity
  8
0
  6
Continuous
 62
     7
370
    25
100
AcDbLine
 10
76.2344988226
 20
158.913380375
 30
0.0
 11
72.9767602514
 21
159.313380375
 31
0.0
  0
LINE
  5
145
330
1F
100
AcDbEntity
  8
0
  6
Continuous
 62
     7
370
    25
100
AcDbLine
 10
72.9767602514
 20
141.6842389828
 30
0.0
 11
76.2344988226
 21
142.0842389828
 31
0.0
  0
LINE
  5
146
330
1F
100
AcDbEntity
  8
0
  6
Continuous
 62
     7
370
    25
100
AcDbLine
 10
76.2344988226
 20
150.4988096789
 30
0.0
 11
72.9767602514
 21
150.7816523914
 31
0.0
  0
LINE
  5
147
330
1F
100
AcDbEntity
  8
0
  6
Continuous
 62
     7
370
    25
100
AcDbLine
 10
76.2344988226
 20
150.4988096789
 30
0.0
 11
72.9767602514
 21
150.2159669664
 31
0.0
  0
LINE
  5
148
330
1F
100
AcDbEntity
  8
0
  6
Continuous
 62
     7
370
    25
100
AcDbLine
 10
72.9767602514
 20
150.2159669664
 30
0.0
 11
72.9767602514
 21
150.7816523914
 31
0.0
  0
LINE
  5
149
330
1F
100
AcDbEntity
  8
0
  6
Continuous
 62
     7
370
    25
100
AcDbLine
 10
77.7367602514
 20
150.4988096789
 30
0.0
 11
76.2344988226
 21
150.4988096789
 31
0.0
  0
LINE
  5
14A
330
1F
100
AcDbEntity
  8
0
  6
Continuous
 62
     7
370
    25
100
AcDbLine
 10
77.7367602514
 20
142.3450970523
 30
0.0
 11
77.7367602514
 21
150.4988096789
 31
0.0
  0
LINE
  5
14B
330
1F
100
AcDbEntity
  8
0
  6
Continuous
 62
     7
370
    25
100
AcDbLine
 10
77.7367602514
 20
142.3450970523
 30
0.0
 11
76.2344988226
 21
142.0842389828
 31
0.0
  0
LINE
  5
14C
330
1F
100
AcDbEntity
  8
0
  6
Continuous
 62
     7
370
    25
100
AcDbLine
 10
76.2344988226
 20
142.0842389828
 30
0.0
 11
72.9767602514
 21
141.8013962703
 31
0.0
  0
LINE
  5
14D
330
1F
100
AcDbEntity
  8
0
  6
Continuous
 62
     7
370
    25
100
AcDbLine
 10
72.9767602514
 20
141.8013962703
 30
0.0
 11
72.9767602514
 21
150.2159669664
 31
0.0
  0
LINE
  5
14E
330
1F
100
AcDbEntity
  8
0
  6
Continuous
 62
     7
370
    25
100
AcDbLine
 10
76.2344988226
 20
158.913380375
 30
0.0
 11
72.9767602514
 21
159.1962230875
 31
0.0
  0
LINE
  5
14F
330
1F
100
AcDbEntity
  8
0
  6
Continuous
 62
     7
370
    25
100
AcDbLine
 10
77.7367602514
 20
158.6525223055
 30
0.0
 11
76.2344988226
 21
158.913380375
 31
0.0
  0
LINE
  5
150
330
1F
100
AcDbEntity
  8
0
  6
Continuous
 62
     7
370
    25
100
AcDbLine
 10
77.7367602514
 20
150.4988096789
 30
0.0
 11
77.7367602514
 21
158.6525223055
 31
0.0
  0
LINE
  5
151
330
1F
100
AcDbEntity
  8
0
  6
Continuous
 62
     7
370
    25
100
AcDbLine
 10
72.9767602514
 20
150.7816523914
 30
0.0
 11
72.9767602514
 21
159.1962230875
 31
0.0
  0
LINE
  5
152
330
1F
100
AcDbEntity
  8
0
  6
Continuous
 62
     7
370
    25
100
AcDbLine
 10
72.9767602514
 20
159.1962230875
 30
0.0
 11
72.9767602514
 21
159.313380375
 31
0.0
  0
LINE
  5
153
330
1F
100
AcDbEntity
  8
0
  6
Continuous
 62
     7
370
    25
100
AcDbLine
 10
72.9767602514
 20
141.6842389828
 30
0.0
 11
72.9767602514
 21
141.8013962703
 31
0.0
  0
LINE
  5
154
330
1F
100
AcDbEntity
  8
0
  6
Continuous
 62
     7
370
    25
100
AcDbLine
 10
104.9767602514
 20
145.9519644141
 30
0.0
 11
104.9767602514
 21
145.8857167762
 31
0.0
  0
LINE
  5
155
330
1F
100
AcDbEntity
  8
0
  6
Continuous
 62
     7
370
    25
100
AcDbLine
 10
100.2015286837
 20
150.1437025032
 30
0.0
 11
77.7367602514
 21
150.1437025032
 31
0.0
  0
ARC
  5
156
330
1F
100
AcDbEntity
  8
0
  6
Continuous
 62
     7
370
    25
100
AcDbCircle
 10
72.9767602514
 20
114.313380375
 30
0.0
 40
45.00000000000001
100
AcDbArc
 50
44.6746095644
 51
52.7715284227
  0
LINE
  5
157
330
1F
100
AcDbEntity
  8
0
  6
Continuous
 62
     7
370
    25
100
AcDbLine
 10
77.7367602514
 20
150.856040954
 30
0.0
 11
99.2376429063
 21
150.856040954
 31
0.0
  0
ARC
  5
158
330
1F
100
AcDbEntity
  8
0
  6
Continuous
 62
     7
370
    25
100
AcDbCircle
 10
72.9767602514
 20
114.313380375
 30
0.0
 40
45.00000000000001
100
AcDbArc
 50
52.7715284227
 51
54.2976040366
  0
LINE
  5
159
330
1F
100
AcDbEntity
  8
0
  6
Continuous
 62
     7
370
    25
100
AcDbLine
 10
77.7367602514
 20
158.5289258651
 30
0.0
 11
85.2557934771
 21
157.6057046721
 31
0.0
  0
ARC
  5
15A
330
1F
100
AcDbEntity
  8
0
  6
Continuous
 62
     7
370
    25
100
AcDbCircle
 10
72.9767602514
 20
114.313380375
 30
0.0
 40
45.00000000000003
100
AcDbArc
 50
54.2976040366
 51
74.1650343465
  0
LINE
  5
15B
330
1F
100
AcDbEntity
  8
0
  6
Continuous
 62
     7
370
    25
100
AcDbLine
 10
73.2767602514
 20
141.6568160421
 30
0.0
 11
73.2767602514
 21
139.1250664526
 31
0.0
  0
LINE
  5
15C
330
1F
100
AcDbEntity
  8
0
  6
Continuous
 62
     7
370
    25
100
AcDbLine
 10
73.2767602514
 20
141.6568160421
 30
0.0
 11
74.2692461384
 21
141.7429854489
 31
0.0
  0
ELLIPSE
  5
15D
330
1F
100
AcDbEntity
  8
0
  6
Continuous
 62
     7
370
    25
100
AcDbEllipse
 10
89.6359682453
 20
138.1420484004
 30
0.0
 11
73.29103523601847
 21
12.82173379661265
 31
0.0
210
0.0
220
0.0
230
1.0
 40
0.0848949017
 41
1.753676103753379
 42
1.767156553109084
  0
LINE
  5
15E
330
1F
100
AcDbEntity
  8
0
  6
Continuous
 62
     7
370
    25
100
AcDbLine
 10
75.2367602516
 20
141.9285381283
 30
0.0
 11
77.7367602514
 21
142.1455926174
 31
0.0
  0
LINE
  5
15F
330
1F
100
AcDbEntity
  8
0
  6
Continuous
 62
     7
370
    25
100
AcDbLine
 10
104.9767602514
 20
145.8857167762
 30
0.0
 11
104.9767602514
 21
141.8773173743
 31
0.0
  0
LINE
  5
160
330
1F
100
AcDbEntity
  8
0
  6
Continuous
 62
     7
370
    25
100
AcDbLine
 10
77.7367602514
 20
142.3450970523
 30
0.0
 11
77.7367602514
 21
142.1455926174
 31
0.0
  0
LINE
  5
161
330
1F
100
AcDbEntity
  8
0
  6
Continuous
 62
     7
370
    25
100
AcDbLine
 10
75.2367602516
 20
141.9617320904
 30
0.0
 11
75.2367602516
 21
141.9285381283
 31
0.0
  0
LINE
  5
162
330
1F
100
AcDbEntity
  8
0
  6
Continuous
 62
     7
370
    25
100
AcDbLine
 10
73.2767602514
 20
141.7210743511
 30
0.0
 11
73.2767602514
 21
141.6568160421
 31
0.0
  0
LINE
  5
163
330
1F
100
AcDbEntity
  8
0
  6
Continuous
 62
     7
370
    25
100
AcDbLine
 10
104.9767602514
 20
141.8773173743
 30
0.0
 11
104.9767602514
 21
114.313380375
 31
0.0
  0
ARC
  5
164
330
1F
100
AcDbEntity
  8
0
  6
Continuous
 62
     7
370
    25
100
AcDbCircle
 10
72.9767602514
 20
114.313380375
 30
0.0
 40
32.00000000000001
100
AcDbArc
 50
270.5371558016
 51
0.0
  0
LINE
  5
165
330
1F
100
AcDbEntity
  8
0
  6
Continuous
 62
     7
370
    25
100
AcDbLine
 10
73.2767602514
 20
139.1250664526
 30
0.0
 11
73.2767602514
 21
82.3147866559
 31
0.0
  0
SPLINE
  5
166
330
1F
100
AcDbEntity
  8
0
  6
Continuous
 62
     7
370
    25
100
AcDbSpline
210
0.0
220
0.0
230
1.0
 70
     8
 71
     3
 72
    14
 73
    10
 74
     0
 42
0.000000001
 43
0.00000001
 40
0.0
 40
0.0
 40
0.0
 40
0.0
 40
0.25
 40
0.25
 40
0.5
 40
0.5
 40
0.75
 40
0.75
 40
1.0
 40
1.0
 40
1.0
 40
1.0
 10
72.78829260438418
 20
82.81394419044872
 30
0.0
 10
72.8245910025295
 20
82.81372700961889
 30
0.0
 10
72.85824910095829
 20
82.80307317364496
 30
0.0
 10
72.92068158472047
 20
82.76013754789966
 30
0.0
 10
72.94943723918465
 20
82.72735332577716
 30
0.0
 10
72.99944786039758
 20
82.64200540091008
 30
0.0
 10
73.02147374008875
 20
82.58819964300724
 30
0.0
 10
73.05827269565472
 20
82.46304234121332
 30
0.0
 10
73.07305674525722
 20
82.39249833368741
 30
0.0
 10
73.08487369379219
 20
82.31356300861233
 30
0.0
  0
SPLINE
  5
167
330
1F
100
AcDbEntity
  8
0
  6
Continuous
 62
     7
370
    25
100
AcDbSpline
210
0.0
220
0.0
230
1.0
 70
     8
 71
     3
 72
    14
 73
    10
 74
     0
 42
0.000000001
 43
0.00000001
 40
0.0
 40
0.0
 40
0.0
 40
0.0
 40
0.25
 40
0.25
 40
0.5
 40
0.5
 40
0.75
 40
0.75
 40
1.0
 40
1.0
 40
1.0
 40
1.0
 10
68.82967452205484
 20
83.08756285244742
 30
0.0
 10
69.26655264968896
 20
83.0295412795204
 30
0.0
 10
69.68327105828101
 20
82.98349470807203
 30
0.0
 10
70.47690588424894
 20
82.91020322505122
 30
0.0
 10
70.85643026471914
 20
82.8829735177513
 30
0.0
 10
71.53732154226297
 20
82.84443869169432
 30
0.0
 10
71.84417792320978
 20
82.83259361319911
 30
0.0
 10
72.38315217326947
 20
82.81782025421904
 30
0.0
 10
72.608084718511
 20
82.81502241153281
 30
0.0
 10
72.78829260438418
 20
82.81394419044871
 30
0.0
  0
SPLINE
  5
168
330
1F
100
AcDbEntity
  8
0
  6
Continuous
 62
     7
370
    25
100
AcDbSpline
210
0.0
220
0.0
230
1.0
 70
     8
 71
     3
 72
    14
 73
    10
 74
     0
 42
0.000000001
 43
0.00000001
 40
0.0
 40
0.0
 40
0.0
 40
0.0
 40
0.25
 40
0.25
 40
0.5
 40
0.5
 40
0.75
 40
0.75
 40
1.0
 40
1.0
 40
1.0
 40
1.0
 10
72.78829260438418
 20
145.8128165595955
 30
0.0
 10
72.60808102811664
 20
145.8117383164311
 30
0.0
 10
72.38418018379534
 20
145.8089296818841
 30
0.0
 10
71.85229785438736
 20
145.7944280322263
 30
0.0
 10
71.54030355216123
 20
145.7824560165338
 30
0.0
 10
70.85983272037275
 20
145.7440142758568
 30
0.0
 10
70.48857193842079
 20
145.7175416773765
 30
0.0
 10
69.68592274027202
 20
145.6436024722309
 30
0.0
 10
69.26657986490288
 20
145.5972230849633
 30
0.0
 10
68.82967452205484
 20
145.5391978975969
 30
0.0
  0
SPLINE
  5
169
330
1F
100
AcDbEntity
  8
0
  6
Continuous
 62
     7
370
    25
100
AcDbSpline
210
0.0
220
0.0
230
1.0
 70
     8
 71
     3
 72
     9
 73
     5
 74
     0
 42
0.000000001
 43
0.00000001
 40
0.0
 40
0.0
 40
0.0
 40
0.0
 40
0.3722028336220248
 40
1.0
 40
1.0
 40
1.0
 40
1.0
 10
72.97676025126813
 20
145.9633050574015
 30
0.0
 10
72.95799256331419
 20
145.9275907420134
 30
0.0
 10
72.90756928262255
 20
145.8316368368791
 30
0.0
 10
72.83429438037919
 20
145.8200750295039
 30
0.0
 10
72.78829260438418
 20
145.8128165595956
 30
0.0
  0
SPLINE
  5
16A
330
1F
100
AcDbEntity
  8
0
  6
Continuous
 62
     7
370
    25
100
AcDbSpline
210
0.0
220
0.0
230
1.0
 70
     8
 71
     3
 72
     8
 73
     4
 74
     0
 42
0.000000001
 43
0.00000001
 40
0.0
 40
0.0
 40
0.0
 40
0.0
 40
1.0
 40
1.0
 40
1.0
 40
1.0
 10
73.27676025143967
 20
82.31478665592253
 30
0.0
 10
73.27676025143967
 20
82.31478665592253
 30
0.0
 10
73.2121186123566
 20
82.31399291375865
 30
0.0
 10
73.08487369379219
 20
82.3135630086123
 30
0.0
  0
ELLIPSE
  5
16B
330
1F
100
AcDbEntity
  8
0
  6
Continuous
 62
     7
370
    25
100
AcDbEllipse
 10
60.7618484748
 20
131.8782393347
 30
0.0
 11
2.156649216541972
 21
3.149035452977188
 31
0.0
210
0.0
220
0.0
230
1.0
 40
0.6401414518
 41
0.0
 42
6.283185307179586
  0
ARC
  5
16C
330
1F
100
AcDbEntity
  8
0
  6
Continuous
 62
     7
370
    25
100
AcDbCircle
 10
72.9767602514
 20
114.313380375
 30
0.0
 40
31.50000000000001
100
AcDbArc
 50
97.5651530928
 51
262.4348469072
  0
INSERT
  5
178
330
1F
100
AcDbEntity
  8
VERMASSUNG
100
AcDbBlockReference
  2
SW_CENTERMARKSYMBOL_0
 10
72.9767602514
 20
114.313380375
 30
0.0
  0
LINE
  5
179
330
1F
100
AcDbEntity
  8
0
  6
Continuous
 62
     7
370
    25
100
AcDbLine
 10
255.6210867211
 20
37.3202691789
 30
0.0
 11
255.6210867211
 21
37.2386150977
 31
0.0
  0
LINE
  5
17A
330
1F
100
AcDbEntity
  8
0
  6
Continuous
 62
     7
370
    25
100
AcDbLine
 10
259.1210867211
 20
37.2386150977
 30
0.0
 11
259.1210867211
 21
37.3202691789
 31
0.0
  0
LINE
  5
17B
330
1F
100
AcDbEntity
  8
0
  6
Continuous
 62
     7
370
    25
100
AcDbLine
 10
258.0549750703
 20
37.3523904839
 30
0.0
 11
258.0549750703
 21
37.1177717514
 31
0.0
  0
LINE
  5
17C
330
1F
100
AcDbEntity
  8
0
  6
Continuous
 62
     7
370
    25
100
AcDbLine
 10
256.6863220632
 20
37.245863742
 30
0.0
 11
256.6863220632
 21
37.619342046
 31
0.0
  0
LINE
  5
17D
330
1F
100
AcDbEntity
  8
0
  6
Continuous
 62
     7
370
    25
100
AcDbLine
 10
260.3823401673
 20
34.4560065205
 30
0.0
 11
260.5815851849
 21
35.7760221674
 31
0.0
  0
LINE
  5
17E
330
1F
100
AcDbEntity
  8
0
  6
Continuous
 62
     7
370
    25
100
AcDbLine
 10
254.2330951497
 20
35.7760221674
 30
0.0
 11
254.2658922659
 21
35.558738408
 31
0.0
  0
LINE
  5
17F
330
1F
100
AcDbEntity
  8
0
  6
Continuous
 62
     7
370
    25
100
AcDbLine
 10
254.3116888234
 20
35.2553322139
 30
0.0
 11
254.4323401673
 21
34.4560065205
 31
0.0
  0
LINE
  5
180
330
1F
100
AcDbEntity
  8
0
  6
Continuous
 62
     7
370
    25
100
AcDbLine
 10
222.4750161267
 20
24.7123972671
 30
0.0
 11
228.9360809681
 21
20.9825039272
 31
0.0
  0
LINE
  5
181
330
1F
100
AcDbEntity
  8
0
  6
Continuous
 62
     7
370
    25
100
AcDbLine
 10
217.0517265903
 20
27.8431956755
 30
0.0
 11
219.7601650376
 21
26.279647441
 31
0.0
  0
LINE
  5
182
330
1F
100
AcDbEntity
  8
0
  6
Continuous
 62
     7
370
    25
100
AcDbLine
 10
235.5088850766
 20
53.560186606
 30
0.0
 11
232.8004466293
 21
55.1237348405
 31
0.0
  0
LINE
  5
183
330
1F
100
AcDbEntity
  8
0
  6
Continuous
 62
     7
370
    25
100
AcDbLine
 10
242.8593469425
 20
49.3168552927
 30
0.0
 11
238.2237361657
 21
51.9929364321
 31
0.0
  0
LINE
  5
184
330
1F
100
AcDbEntity
  8
0
  6
Continuous
 62
     7
370
    25
100
AcDbLine
 10
230.2198840555
 20
19.9527128648
 30
0.0
 11
230.8755297167
 21
19.5742166811
 31
0.0
  0
SPLINE
  5
185
330
1F
100
AcDbEntity
  8
0
  6
Continuous
 62
     7
370
    25
100
AcDbSpline
210
0.0
220
0.0
230
1.0
 70
     8
 71
     3
 72
    33
 73
    29
 74
     0
 42
0.000000001
 43
0.00000001
 40
0.0
 40
0.0
 40
0.0
 40
0.0
 40
0.0146142748858208
 40
0.0553227245051107
 40
0.0961378908298764
 40
0.1370279245149295
 40
0.1779630651867036
 40
0.2189200349213706
 40
0.2598814680431209
 40
0.3008366442365852
 40
0.3417814594831853
 40
0.3827144946248531
 40
0.4236360161375466
 40
0.464547300191043
 40
0.5054502013870302
 40
0.5463468912899911
 40
0.5872397083363051
 40
0.628131077413557
 40
0.6690234138188617
 40
0.7099184453849743
 40
0.7508186879284711
 40
0.7917266528686002
 40
0.8326448013293762
 40
0.8735754525956912
 40
0.9145206143806476
 40
0.9554816882014449
 40
0.9943002272506075
 40
1.0
 40
1.0
 40
1.0
 40
1.0
 10
229.3319128460378
 20
55.85562398249495
 30
0.0
 10
229.2327896027398
 20
55.85175689668273
 30
0.0
 10
228.8575559408667
 20
55.83711794095628
 30
0.0
 10
228.1788244064695
 20
55.71426452917063
 30
0.0
 10
227.3019535452049
 20
55.48820004827798
 30
0.0
 10
226.4076294776506
 20
55.16368121161657
 30
0.0
 10
225.5042249414505
 20
54.75093391177192
 30
0.0
 10
224.5972137051272
 20
54.2506760729237
 30
0.0
 10
223.692794096369
 20
53.66696659225899
 30
0.0
 10
222.796845473544
 20
53.0036613481069
 30
0.0
 10
221.9151711503051
 20
52.26528471345592
 30
0.0
 10
221.0534204192379
 20
51.45674329381039
 30
0.0
 10
220.2171073981115
 20
50.5833772202929
 30
0.0
 10
219.4115816955693
 20
49.65091386289851
 30
0.0
 10
218.6420019621036
 20
48.66544156469601
 30
0.0
 10
217.9133057585274
 20
47.63337384019298
 30
0.0
 10
217.2301794000834
 20
46.56141170792584
 30
0.0
 10
216.5970286637206
 20
45.45650296696756
 30
0.0
 10
216.0179539238812
 20
44.32580503521645
 30
0.0
 10
215.4967193044954
 20
43.17663266580857
 30
0.0
 10
215.036728028552
 20
42.01640870917416
 30
0.0
 10
214.6410046284488
 20
40.85261136586652
 30
0.0
 10
214.3121675975828
 20
39.69272372969496
 30
0.0
 10
214.0524710371493
 20
38.54422292657345
 30
0.0
 10
213.8635924704517
 20
37.41440119791356
 30
0.0
 10
213.7494268377351
 20
36.33021396445019
 30
0.0
 10
213.7172764837681
 20
35.58462707872558
 30
0.0
 10
213.7160841574784
 20
35.20491741531097
 30
0.0
 10
213.715931501445
 20
35.15630239140789
 30
0.0
  0
SPLINE
  5
186
330
1F
100
AcDbEntity
  8
0
  6
Continuous
 62
     7
370
    25
100
AcDbSpline
210
0.0
220
0.0
230
1.0
 70
     8
 71
     3
 72
    13
 73
     9
 74
     0
 42
0.000000001
 43
0.00000001
 40
0.0
 40
0.0
 40
0.0
 40
0.0
 40
0.1019254514321432
 40
0.2955034549039602
 40
0.489149360334156
 40
0.6827341155207853
 40
0.8761512999236707
 40
1.0
 40
1.0
 40
1.0
 40
1.0
 10
213.715931501445
 20
35.15630239140789
 30
0.0
 10
213.7179842740299
 20
34.97367320611976
 30
0.0
 10
213.7239356961964
 20
34.44419254686689
 30
0.0
 10
213.7903999520698
 20
33.60116007553836
 30
0.0
 10
213.9384766592057
 20
32.64823029231108
 30
0.0
 10
214.1634022955798
 20
31.75589328998977
 30
0.0
 10
214.415081014944
 20
31.01624922997786
 30
0.0
 10
214.6207821502748
 20
30.60562651625109
 30
0.0
 10
214.7010801572817
 20
30.44533481202215
 30
0.0
  0
LINE
  5
187
330
1F
100
AcDbEntity
  8
0
  6
Continuous
 62
     7
370
    25
100
AcDbLine
 10
205.5648264719
 20
39.8435581475
 30
0.0
 11
213.7227372194
 21
34.7933078829
 31
0.0
  0
LINE
  5
188
330
1F
100
AcDbEntity
  8
0
  6
Continuous
 62
     7
370
    25
100
AcDbLine
 10
224.0822299076
 20
53.9041216757
 30
0.0
 11
216.0610814679
 21
58.2112548809
 31
0.0
  0
LINE
  5
189
330
1F
100
AcDbEntity
  8
0
  6
Continuous
 62
     7
370
    25
100
AcDbLine
 10
213.3717119035
 20
58.8015114133
 30
0.0
 11
212.732161451
 21
58.7143003478
 31
0.0
  0
LINE
  5
18A
330
1F
100
AcDbEntity
  8
0
  6
Continuous
 62
     7
370
    25
100
AcDbLine
 10
204.4015754053
 20
41.579600201
 30
0.0
 11
204.6458796981
 21
40.9821506518
 31
0.0
  0
ARC
  5
18B
330
1F
100
AcDbEntity
  8
0
  6
Continuous
 62
     7
370
    25
100
AcDbCircle
 10
235.9165669491
 20
46.9092476594
 30
0.0
 40
5.001867810183338
100
AcDbArc
 50
55.8474745671
 51
83.1600118344
  0
ARC
  5
18C
330
1F
100
AcDbEntity
  8
0
  6
Continuous
 62
     7
370
    25
100
AcDbCircle
 10
236.2072146312
 20
47.6394756582
 30
0.0
 40
4.179406386479581
100
AcDbArc
 50
55.1447009931
 51
84.7226942359
  0
LWPOLYLINE
  5
18D
330
1F
100
AcDbEntity
  8
0
  6
Continuous
 62
     7
370
    25
100
AcDbPolyline
 90
        3
 70
   128
 43
0.0
 10
255.6639343456
 20
37.5424542878
 10
255.6224904994
 20
37.2798126631
 10
255.6972418606
 20
37.0254885363
  0
LWPOLYLINE
  5
18E
330
1F
100
AcDbEntity
  8
0
  6
Continuous
 62
     7
370
    25
100
AcDbPolyline
 90
       15
 70
   128
 43
0.0
 10
258.8866466167
 20
36.8151578684
 10
258.9204556373
 20
36.8505839933
 10
259.0782390967
 20
37.09808407
 10
259.1196829429
 20
37.3607256947
 10
259.0419628463
 20
37.6206102748
 10
258.850375303
 20
37.8600271055
 10
258.5579766875
 20
38.0626603255
 10
258.1846934823
 20
38.2147008157
 10
257.7559643208
 20
38.305787268
 10
257.3010063869
 20
38.3297122911
 10
256.850824312
 20
38.2848454344
 10
256.4360972605
 20
38.1742442999
 10
256.0850881956
 20
38.0054461721
 10
255.821717805
 20
37.7899543646
 10
255.6639343456
 20
37.5424542878
  0
LWPOLYLINE
  5
18F
330
1F
100
AcDbEntity
  8
0
  6
Continuous
 62
     7
370
    25
100
AcDbPolyline
 90
       22
 70
   128
 43
0.0
 10
256.08634501
 20
37.6916129341
 10
256.0580480901
 20
37.4655745531
 10
256.1464204147
 20
37.2447634605
 10
256.343609715
 20
37.048799691
 10
256.6320948563
 20
36.8950954855
 10
256.9862426678
 20
36.797308137
 10
257.3745855623
 20
36.7641264808
 10
257.7626175694
 20
36.7984988525
 10
258.1158603425
 20
36.897371116
 10
258.4029267109
 20
37.0519580369
 10
258.5983095681
 20
37.2485238889
 10
258.6846482897
 20
37.4696029333
 10
258.6542713015
 20
37.695551327
 10
258.5098777322
 20
37.9062925635
 10
258.264297584
 20
38.0831013592
 10
257.9393517309
 20
38.2102674766
 10
257.5639130379
 20
38.2764916483
 10
257.1713408804
 20
38.2758895658
 10
256.7965170175
 20
38.2085147269
 10
256.4727461941
 20
38.0803536817
 10
256.228796869
 20
37.9027941014
 10
256.08634501
 20
37.6916129341
  0
LWPOLYLINE
  5
190
330
1F
100
AcDbEntity
  8
0
  6
Continuous
 62
     7
370
    25
100
AcDbPolyline
 90
        3
 70
   128
 43
0.0
 10
255.6210867211
 20
37.2386150977
 10
255.6224904994
 20
37.1981585819
 10
255.6360996137
 20
37.1065691463
  0
LWPOLYLINE
  5
191
330
1F
100
AcDbEntity
  8
0
  6
Continuous
 62
     7
370
    25
100
AcDbPolyline
 90
        3
 70
   128
 43
0.0
 10
259.0486185423
 20
36.9509039199
 10
259.0782390967
 20
37.0164299888
 10
259.1210867211
 20
37.2386150977
  0
LWPOLYLINE
  5
192
330
1F
100
AcDbEntity
  8
0
  6
Continuous
 62
     7
370
    25
100
AcDbPolyline
 90
       19
 70
   128
 43
0.0
 10
256.395571078
 20
37.6513673013
 10
256.3791813602
 20
37.4511007643
 10
256.4824300679
 20
37.2596757255
 10
256.6928638832
 20
37.1001808696
 10
256.9851013822
 20
36.9918536301
 10
257.3238944097
 20
36.947759871
 10
257.6683795264
 20
36.9732179502
 10
257.9770067432
 20
37.0651572477
 10
258.2125510629
 20
37.2124885274
 10
258.3466023643
 20
37.3974414625
 10
258.3629920821
 20
37.5977079995
 10
258.2597433744
 20
37.7891330383
 10
258.0493095591
 20
37.9486278942
 10
257.7570720601
 20
38.0569551337
 10
257.4182790326
 20
38.1010488928
 10
257.0737939159
 20
38.0755908136
 10
256.7651666991
 20
37.9836515161
 10
256.5296223794
 20
37.8363202364
 10
256.395571078
 20
37.6513673013
  0
SPLINE
  5
193
330
1F
100
AcDbEntity
  8
0
  6
Continuous
 62
     7
370
    25
100
AcDbSpline
210
0.0
220
0.0
230
1.0
 70
     8
 71
     3
 72
    15
 73
    11
 74
     0
 42
0.000000001
 43
0.00000001
 40
0.0
 40
0.0
 40
0.0
 40
0.0
 40
0.1262470803730272
 40
0.2533633350513476
 40
0.379418551735742
 40
0.5042689738350885
 40
0.6284502821607729
 40
0.7526361292231285
 40
0.8774891912114836
 40
1.0
 40
1.0
 40
1.0
 40
1.0
 10
257.0007923570155
 20
37.05859900330983
 30
0.0
 10
257.0031766958679
 20
37.04859873824334
 30
0.0
 10
257.0079617890498
 20
37.02852935920378
 30
0.0
 10
257.0426258793855
 20
37.00054069330955
 30
0.0
 10
257.0933829004763
 20
36.97868546422039
 30
0.0
 10
257.1559838928544
 20
36.96557084163039
 30
0.0
 10
257.2228917678246
 20
36.96256560013232
 30
0.0
 10
257.2865234955949
 20
36.96989415412904
 30
0.0
 10
257.3412631715273
 20
36.98604202577047
 30
0.0
 10
257.3638269379845
 20
37.00210466935091
 30
0.0
 10
257.3750019946705
 20
37.01005994370097
 30
0.0
  0
SPLINE
  5
194
330
1F
100
AcDbEntity
  8
0
  6
Continuous
 62
     7
370
    25
100
AcDbSpline
210
0.0
220
0.0
230
1.0
 70
     8
 71
     3
 72
    12
 73
     8
 74
     0
 42
0.000000001
 43
0.00000001
 40
0.0
 40
0.0
 40
0.0
 40
0.0
 40
0.2058748011360345
 40
0.4120995812662985
 40
0.6141693366125179
 40
0.8132901286728367
 40
1.0
 40
1.0
 40
1.0
 40
1.0
 10
257.3750019946705
 20
37.01005994370097
 30
0.0
 10
257.3951131394396
 20
37.02436544871917
 30
0.0
 10
257.4353696171261
 20
37.05300077754657
 30
0.0
 10
257.5330533538606
 20
37.0841259433973
 30
0.0
 10
257.6439688735503
 20
37.10316465248525
 30
0.0
 10
257.7569116460925
 20
37.10892590737443
 30
0.0
 10
257.8226200956605
 20
37.10056454622675
 30
0.0
 10
257.8544175066186
 20
37.09651834458403
 30
0.0
  0
SPLINE
  5
195
330
1F
100
AcDbEntity
  8
0
  6
Continuous
 62
     7
370
    25
100
AcDbSpline
210
0.0
220
0.0
230
1.0
 70
     8
 71
     3
 72
    15
 73
    11
 74
     0
 42
0.000000001
 43
0.00000001
 40
0.0
 40
0.0
 40
0.0
 40
0.0
 40
0.1268765508970343
 40
0.2539936290345365
 40
0.3800496379883683
 40
0.5049006370991401
 40
0.6290821973265793
 40
0.7532679407718377
 40
0.8781205851189356
 40
1.0
 40
1.0
 40
1.0
 40
1.0
 10
257.8544175066186
 20
37.09651834458403
 30
0.0
 10
257.8748077862414
 20
37.09406822369601
 30
0.0
 10
257.9156270005236
 20
37.08916333708363
 30
0.0
 10
257.9840424853706
 20
37.09557208330602
 30
0.0
 10
258.0478074034767
 20
37.11196238318478
 30
0.0
 10
258.1004950810976
 20
37.13734964422679
 30
0.0
 10
258.1363109259198
 20
37.16865015454276
 30
0.0
 10
258.1512404985717
 20
37.20221567244263
 30
0.0
 10
258.1453503357125
 20
37.23461840394539
 30
0.0
 10
258.1245449506665
 20
37.25120913800437
 30
0.0
 10
258.1142676151483
 20
37.25940454222498
 30
0.0
  0
SPLINE
  5
196
330
1F
100
AcDbEntity
  8
0
  6
Continuous
 62
     7
370
    25
100
AcDbSpline
210
0.0
220
0.0
230
1.0
 70
     8
 71
     3
 72
    12
 73
     8
 74
     0
 42
0.000000001
 43
0.00000001
 40
0.0
 40
0.0
 40
0.0
 40
0.0
 40
0.205794988208803
 40
0.4120010155283693
 40
0.6140549927930612
 40
0.8131810826684445
 40
1.0
 40
1.0
 40
1.0
 40
1.0
 10
258.1142676151483
 20
37.25940454222498
 30
0.0
 10
258.0958307615521
 20
37.27426537057792
 30
0.0
 10
258.0589202300036
 20
37.30401670916153
 30
0.0
 10
258.0497385704545
 20
37.36465987832428
 30
0.0
 10
258.0774551922673
 20
37.42993592201681
 30
0.0
 10
258.1372301591753
 20
37.49330027339256
 30
0.0
 10
258.1958826420974
 20
37.52640066397856
 30
0.0
 10
258.2242737163534
 20
37.54242309986206
 30
0.0
  0
SPLINE
  5
197
330
1F
100
AcDbEntity
  8
0
  6
Continuous
 62
     7
370
    25
100
AcDbSpline
210
0.0
220
0.0
230
1.0
 70
     8
 71
     3
 72
    15
 73
    11
 74
     0
 42
0.000000001
 43
0.00000001
 40
0.0
 40
0.0
 40
0.0
 40
0.0
 40
0.1268036956060738
 40
0.25392634426987
 40
0.3799872671766443
 40
0.5048410097957285
 40
0.6290227167746247
 40
0.7532063308915128
 40
0.8780553361591587
 40
1.0
 40
1.0
 40
1.0
 40
1.0
 10
258.2242737163534
 20
37.54242309986206
 30
0.0
 10
258.242247151853
 20
37.5527580414295
 30
0.0
 10
258.2782392319622
 20
37.57345392034628
 30
0.0
 10
258.3118360643609
 20
37.61385886048924
 30
0.0
 10
258.3247824363423
 20
37.6558215766053
 30
0.0
 10
258.3148385009546
 20
37.6954620024598
 30
0.0
 10
258.2837519399398
 20
37.728346788453
 30
0.0
 10
258.2350898059775
 20
37.7506780128964
 30
0.0
 10
258.1746154129085
 20
37.76097688029876
 30
0.0
 10
258.1313113909106
 20
37.75620572365739
 30
0.0
 10
258.1099141872281
 20
37.75384821953313
 30
0.0
  0
SPLINE
  5
198
330
1F
100
AcDbEntity
  8
0
  6
Continuous
 62
     7
370
    25
100
AcDbSpline
210
0.0
220
0.0
230
1.0
 70
     8
 71
     3
 72
    12
 73
     8
 74
     0
 42
0.000000001
 43
0.00000001
 40
0.0
 40
0.0
 40
0.0
 40
0.0
 40
0.2058497400954008
 40
0.4120524486337304
 40
0.6141081262894771
 40
0.8132431903674305
 40
1.0
 40
1.0
 40
1.0
 40
1.0
 10
258.1099141872281
 20
37.75384821953313
 30
0.0
 10
258.0713642268786
 20
37.74972004432914
 30
0.0
 10
257.9941982049571
 20
37.74145661538139
 30
0.0
 10
257.8873535792498
 20
37.76344484006032
 30
0.0
 10
257.8041723351676
 20
37.81023863499877
 30
0.0
 10
257.7510012625881
 20
37.87579312195128
 30
0.0
 10
257.743927975235
 20
37.92607412858539
 30
0.0
 10
257.740504776485
 20
37.95040819992462
 30
0.0
  0
SPLINE
  5
199
330
1F
100
AcDbEntity
  8
0
  6
Continuous
 62
     7
370
    25
100
AcDbSpline
210
0.0
220
0.0
230
1.0
 70
     8
 71
     3
 72
    15
 73
    11
 74
     0
 42
0.000000001
 43
0.00000001
 40
0.0
 40
0.0
 40
0.0
 40
0.0
 40
0.1262564375372483
 40
0.2533820972841718
 40
0.379445481130773
 40
0.5043002379033763
 40
0.6284814530466066
 40
0.7526634909000629
 40
0.877510462112179
 40
1.0
 40
1.0
 40
1.0
 40
1.0
 10
257.740504776485
 20
37.95040819992462
 30
0.0
 10
257.7381202172325
 20
37.96586440453081
 30
0.0
 10
257.7333346820449
 20
37.99688322317929
 30
0.0
 10
257.6986675602928
 20
38.03686191709478
 30
0.0
 10
257.6479065443228
 20
38.06624842932088
 30
0.0
 10
257.5853021482236
 20
38.08175409103041
 30
0.0
 10
257.5183932536878
 20
38.08203593008407
 30
0.0
 10
257.4547632058831
 20
38.06700566343577
 30
0.0
 10
257.4000292453368
 20
38.03895922431346
 30
0.0
 10
257.3774681623387
 20
38.01219947137752
 30
0.0
 10
257.3662951388301
 20
37.99894712224782
 30
0.0
  0
SPLINE
  5
19A
330
1F
100
AcDbEntity
  8
0
  6
Continuous
 62
     7
370
    25
100
AcDbSpline
210
0.0
220
0.0
230
1.0
 70
     8
 71
     3
 72
    12
 73
     8
 74
     0
 42
0.000000001
 43
0.00000001
 40
0.0
 40
0.0
 40
0.0
 40
0.0
 40
0.2058713741444203
 40
0.4120924153877421
 40
0.6141683533432494
 40
0.8133068872803249
 40
1.0
 40
1.0
 40
1.0
 40
1.0
 10
257.3662951388301
 20
37.99894712224782
 30
0.0
 10
257.3461842281528
 20
37.97526253944062
 30
0.0
 10
257.3059282489466
 20
37.92785314618703
 30
0.0
 10
257.208245236725
 20
37.88165141341646
 30
0.0
 10
257.0973275753749
 20
37.86372946587279
 30
0.0
 10
256.9843829427451
 20
37.8738965603981
 30
0.0
 10
256.9186742300687
 20
37.8999043037663
 30
0.0
 10
256.8868796268819
 20
37.91248872136475
 30
0.0
  0
SPLINE
  5
19B
330
1F
100
AcDbEntity
  8
0
  6
Continuous
 62
     7
370
    25
100
AcDbSpline
210
0.0
220
0.0
230
1.0
 70
     8
 71
     3
 72
    15
 73
    11
 74
     0
 42
0.000000001
 43
0.00000001
 40
0.0
 40
0.0
 40
0.0
 40
0.0
 40
0.1268702503424891
 40
0.2539810595565872
 40
0.3800301963394168
 40
0.5048749967544881
 40
0.6290527571813149
 40
0.753238460799626
 40
0.878095394214191
 40
1.0
 40
1.0
 40
1.0
 40
1.0
 10
256.8868796268819
 20
37.91248872136475
 30
0.0
 10
256.8664900202861
 20
37.92042007260345
 30
0.0
 10
256.8256721463306
 20
37.9362978137278
 30
0.0
 10
256.757258714691
 20
37.94187630032107
 30
0.0
 10
256.6934953670919
 20
37.93299451199341
 30
0.0
 10
256.6408080259838
 20
37.90997649092704
 30
0.0
 10
256.6049904789222
 20
37.87593211947317
 30
0.0
 10
256.5900574208372
 20
37.83464510725862
 30
0.0
 10
256.595943844075
 20
37.79034079579284
 30
0.0
 10
256.6167506063342
 20
37.76307329379949
 30
0.0
 10
256.6270295183522
 20
37.74960266100949
 30
0.0
  0
SPLINE
  5
19C
330
1F
100
AcDbEntity
  8
0
  6
Continuous
 62
     7
370
    25
100
AcDbSpline
210
0.0
220
0.0
230
1.0
 70
     8
 71
     3
 72
    12
 73
     8
 74
     0
 42
0.000000001
 43
0.00000001
 40
0.0
 40
0.0
 40
0.0
 40
0.0
 40
0.2058321750920567
 40
0.4120750343575929
 40
0.6141697879283392
 40
0.8133029339856247
 40
1.0
 40
1.0
 40
1.0
 40
1.0
 10
256.6270295183522
 20
37.74960266100949
 30
0.0
 10
256.6454684960603
 20
37.72536224181833
 30
0.0
 10
256.682383241625
 20
37.67683303803097
 30
0.0
 10
256.6915580860879
 20
37.60110056413487
 30
0.0
 10
256.6638243759895
 20
37.53692984772229
 30
0.0
 10
256.6040372160048
 20
37.48950121676341
 30
0.0
 10
256.5453979969643
 20
37.47405732961224
 30
0.0
 10
256.5170234171472
 20
37.46658427973494
 30
0.0
  0
SPLINE
  5
19D
330
1F
100
AcDbEntity
  8
0
  6
Continuous
 62
     7
370
    25
100
AcDbSpline
210
0.0
220
0.0
230
1.0
 70
     8
 71
     3
 72
    15
 73
    11
 74
     0
 42
0.000000001
 43
0.00000001
 40
0.0
 40
0.0
 40
0.0
 40
0.0
 40
0.1267880291974116
 40
0.2538950064075491
 40
0.3799409022877117
 40
0.504784128969174
 40
0.6289621452108508
 40
0.7531495391280031
 40
0.878008927814801
 40
1.0
 40
1.0
 40
1.0
 40
1.0
 10
256.5170234171472
 20
37.46658427973494
 30
0.0
 10
256.4990513000038
 20
37.46172812875427
 30
0.0
 10
256.4630618550526
 20
37.45200361065774
 30
0.0
 10
256.4294652414665
 20
37.42358896374401
 30
0.0
 10
256.4165156364395
 20
37.38913986190003
 30
0.0
 10
256.4264528497368
 20
37.35187194840851
 30
0.0
 10
256.4575315270706
 20
37.31624385967491
 30
0.0
 10
256.5061879052442
 20
37.28618979407304
 30
0.0
 10
256.5666661681248
 20
37.26398570651585
 30
0.0
 10
256.6099784447534
 20
37.25807846217293
 30
0.0
 10
256.6313829462724
 20
37.25515916006385
 30
0.0
  0
SPLINE
  5
19E
330
1F
100
AcDbEntity
  8
0
  6
Continuous
 62
     7
370
    25
100
AcDbSpline
210
0.0
220
0.0
230
1.0
 70
     8
 71
     3
 72
    12
 73
     8
 74
     0
 42
0.000000001
 43
0.00000001
 40
0.0
 40
0.0
 40
0.0
 40
0.0
 40
0.205890359643256
 40
0.4121336430767492
 40
0.6142239121176237
 40
0.8133482777366943
 40
1.0
 40
1.0
 40
1.0
 40
1.0
 10
256.6313829462724
 20
37.25515916006385
 30
0.0
 10
256.6699387882957
 20
37.24990778063026
 30
0.0
 10
256.7471165622453
 20
37.23939602019188
 30
0.0
 10
256.8539730550389
 20
37.20232233929705
 30
0.0
 10
256.9371546722627
 20
37.15663418441815
 30
0.0
 10
256.99030439216
 20
37.10700746175331
 30
0.0
 10
256.9973725429034
 20
37.07438356510163
 30
0.0
 10
257.0007923570155
 20
37.05859900330983
 30
0.0
  0
ARC
  5
19F
330
1F
100
AcDbEntity
  8
0
  6
Continuous
 62
     7
370
    25
100
AcDbCircle
 10
256.7898719706
 20
36.9265383358
 30
0.0
 40
0.3271140530331026
100
AcDbArc
 50
72.7491306931
 51
104.214840509
  0
ARC
  5
1A0
330
1F
100
AcDbEntity
  8
0
  6
Continuous
 62
     7
370
    25
100
AcDbCircle
 10
257.0530044768
 20
37.6901868546
 30
0.0
 40
0.4808571704187743
100
AcDbArc
 50
249.7891144921
 51
310.656709742
  0
LWPOLYLINE
  5
1A1
330
1F
100
AcDbEntity
  8
0
  6
Continuous
 62
     7
370
    25
100
AcDbPolyline
 90
        9
 70
   128
 43
0.0
 10
257.3662951388
 20
37.3253957096
 10
257.4044202253
 20
37.356263129
 10
257.458001837
 20
37.3781814089
 10
257.5210858773
 20
37.3887149458
 10
257.5866623199
 20
37.3866932318
 10
257.6474441783
 20
37.3723409238
 10
257.6966772494
 20
37.3472528793
 10
257.7288906551
 20
37.3142169325
 10
257.7405047765
 20
37.2769041046
  0
ARC
  5
1A2
330
1F
100
AcDbEntity
  8
0
  6
Continuous
 62
     7
370
    25
100
AcDbCircle
 10
257.9757369853
 20
37.3360820469
 30
0.0
 40
0.2425617878842425
100
AcDbArc
 50
194.1210069275
 51
265.5336592258
  0
LINE
  5
1A3
330
1F
100
AcDbEntity
  8
0
  6
Continuous
 62
     7
370
    25
100
AcDbLine
 10
260.3823401673
 20
39.3363641988
 30
0.0
 11
254.4323401673
 21
39.3363641988
 31
0.0
  0
LWPOLYLINE
  5
1A4
330
1F
100
AcDbEntity
  8
0
  6
Continuous
 62
     7
370
    25
100
AcDbPolyline
 90
        9
 70
   128
 43
0.0
 10
260.5823401673
 20
39.2209066564
 10
260.5784972234
 20
39.2434313055
 10
260.5671160738
 20
39.265090345
 10
260.5486340898
 20
39.2850514301
 10
260.5237615236
 20
39.3025474675
 10
260.4934542139
 20
39.3169060944
 10
260.4588768538
 20
39.3275755167
 10
260.4213582317
 20
39.3341457145
 10
260.3823401673
 20
39.3363641988
  0
LINE
  5
1A5
330
1F
100
AcDbEntity
  8
0
  6
Continuous
 62
     7
370
    25
100
AcDbLine
 10
260.5823401673
 20
35.7860447694
 30
0.0
 11
260.5823401673
 21
39.2209066564
 31
0.0
  0
LWPOLYLINE
  5
1A6
330
1F
100
AcDbEntity
  8
0
  6
Continuous
 62
     7
370
    25
100
AcDbPolyline
 90
        9
 70
   128
 43
0.0
 10
260.3823401673
 20
35.670587227
 10
260.4213582317
 20
35.6728057113
 10
260.4588768538
 20
35.6793759091
 10
260.4934542139
 20
35.6900453314
 10
260.5237615236
 20
35.7044039583
 10
260.5486340898
 20
35.7218999957
 10
260.5671160738
 20
35.7418610808
 10
260.5784972234
 20
35.7635201203
 10
260.5823401673
 20
35.7860447694
  0
LINE
  5
1A7
330
1F
100
AcDbEntity
  8
0
  6
Continuous
 62
     7
370
    25
100
AcDbLine
 10
254.4323401673
 20
35.670587227
 30
0.0
 11
260.3823401673
 21
35.670587227
 31
0.0
  0
LWPOLYLINE
  5
1A8
330
1F
100
AcDbEntity
  8
0
  6
Continuous
 62
     7
370
    25
100
AcDbPolyline
 90
        9
 70
   128
 43
0.0
 10
254.2323401673
 20
35.7860447694
 10
254.2361831112
 20
35.7635201203
 10
254.2475642608
 20
35.7418610808
 10
254.2660462449
 20
35.7218999957
 10
254.2909188111
 20
35.7044039583
 10
254.3212261207
 20
35.6900453314
 10
254.3558034808
 20
35.6793759091
 10
254.3933221029
 20
35.6728057113
 10
254.4323401673
 20
35.670587227
  0
LINE
  5
1A9
330
1F
100
AcDbEntity
  8
0
  6
Continuous
 62
     7
370
    25
100
AcDbLine
 10
254.2323401673
 20
39.2209066564
 30
0.0
 11
254.2323401673
 21
35.7860447694
 31
0.0
  0
LWPOLYLINE
  5
1AA
330
1F
100
AcDbEntity
  8
0
  6
Continuous
 62
     7
370
    25
100
AcDbPolyline
 90
        9
 70
   128
 43
0.0
 10
254.4323401673
 20
39.3363641988
 10
254.3933221029
 20
39.3341457145
 10
254.3558034808
 20
39.3275755167
 10
254.3212261207
 20
39.3169060944
 10
254.2909188111
 20
39.3025474675
 10
254.2660462449
 20
39.2850514301
 10
254.2475642608
 20
39.265090345
 10
254.2361831112
 20
39.2434313055
 10
254.2323401673
 20
39.2209066564
  0
LWPOLYLINE
  5
1AB
330
1F
100
AcDbEntity
  8
0
  6
Continuous
 62
     7
370
    25
100
AcDbPolyline
 90
        9
 70
   128
 43
0.0
 10
260.3823401673
 20
35.6763601042
 10
260.4194073285
 20
35.6784676643
 10
260.4550500195
 20
35.6847093522
 10
260.4878985116
 20
35.6948453034
 10
260.5166904557
 20
35.7084859989
 10
260.5403193937
 20
35.7251072345
 10
260.5578772785
 20
35.7440702653
 10
260.5686893706
 20
35.7646463528
 10
260.5723401673
 20
35.7860447695
  0
LINE
  5
1AC
330
1F
100
AcDbEntity
  8
0
  6
Continuous
 62
     7
370
    25
100
AcDbLine
 10
260.5723401673
 20
35.7860447695
 30
0.0
 11
260.5723401673
 21
39.2209066564
 31
0.0
  0
LWPOLYLINE
  5
1AD
330
1F
100
AcDbEntity
  8
0
  6
Continuous
 62
     7
370
    25
100
AcDbPolyline
 90
        9
 70
   128
 43
0.0
 10
260.5723401673
 20
39.2209066564
 10
260.5686893706
 20
39.2423050731
 10
260.5578772785
 20
39.2628811606
 10
260.5403193937
 20
39.2818441915
 10
260.5166904557
 20
39.298465427
 10
260.4878985116
 20
39.3121061226
 10
260.4550500195
 20
39.3222420737
 10
260.4194073285
 20
39.3284837616
 10
260.3823401673
 20
39.3305913217
  0
LINE
  5
1AE
330
1F
100
AcDbEntity
  8
0
  6
Continuous
 62
     7
370
    25
100
AcDbLine
 10
260.3823401673
 20
39.3305913217
 30
0.0
 11
254.4323401673
 21
39.3305913217
 31
0.0
  0
LWPOLYLINE
  5
1AF
330
1F
100
AcDbEntity
  8
0
  6
Continuous
 62
     7
370
    25
100
AcDbPolyline
 90
        9
 70
   128
 43
0.0
 10
254.4323401673
 20
39.3305913217
 10
254.3952730061
 20
39.3284837616
 10
254.3596303152
 20
39.3222420737
 10
254.326781823
 20
39.3121061226
 10
254.2979898789
 20
39.298465427
 10
254.274360941
 20
39.2818441915
 10
254.2568030561
 20
39.2628811606
 10
254.245990964
 20
39.2423050731
 10
254.2423401673
 20
39.2209066564
  0
LINE
  5
1B0
330
1F
100
AcDbEntity
  8
0
  6
Continuous
 62
     7
370
    25
100
AcDbLine
 10
254.2423401673
 20
39.2209066564
 30
0.0
 11
254.2423401673
 21
35.7860447695
 31
0.0
  0
LWPOLYLINE
  5
1B1
330
1F
100
AcDbEntity
  8
0
  6
Continuous
 62
     7
370
    25
100
AcDbPolyline
 90
        9
 70
   128
 43
0.0
 10
254.2423401673
 20
35.7860447695
 10
254.245990964
 20
35.7646463528
 10
254.2568030561
 20
35.7440702653
 10
254.274360941
 20
35.7251072345
 10
254.2979898789
 20
35.7084859989
 10
254.326781823
 20
35.6948453034
 10
254.3596303152
 20
35.6847093522
 10
254.3952730061
 20
35.6784676643
 10
254.4323401673
 20
35.6763601042
  0
LINE
  5
1B2
330
1F
100
AcDbEntity
  8
0
  6
Continuous
 62
     7
370
    25
100
AcDbLine
 10
254.4323401673
 20
35.6763601042
 30
0.0
 11
260.3823401673
 21
35.6763601042
 31
0.0
  0
LINE
  5
1B3
330
1F
100
AcDbEntity
  8
0
  6
Continuous
 62
     7
370
    25
100
AcDbLine
 10
260.3823401673
 20
34.4560065205
 30
0.0
 11
260.3823401673
 21
35.670587227
 31
0.0
  0
LINE
  5
1B4
330
1F
100
AcDbEntity
  8
0
  6
Continuous
 62
     7
370
    25
100
AcDbLine
 10
260.2901129124
 20
33.8959192982
 30
0.0
 11
260.3823401673
 21
34.4560065205
 31
0.0
  0
LINE
  5
1B5
330
1F
100
AcDbEntity
  8
0
  6
Continuous
 62
     7
370
    25
100
AcDbLine
 10
254.5245674223
 20
33.8959192982
 30
0.0
 11
260.2901129124
 21
33.8959192982
 31
0.0
  0
LINE
  5
1B6
330
1F
100
AcDbEntity
  8
0
  6
Continuous
 62
     7
370
    25
100
AcDbLine
 10
254.5245674223
 20
33.8959192982
 30
0.0
 11
254.4323401673
 21
34.4560065205
 31
0.0
  0
LINE
  5
1B7
330
1F
100
AcDbEntity
  8
0
  6
Continuous
 62
     7
370
    25
100
AcDbLine
 10
254.4323401673
 20
34.4560065205
 30
0.0
 11
254.4323401673
 21
35.670587227
 31
0.0
  0
LINE
  5
1B8
330
1F
100
AcDbEntity
  8
0
  6
Continuous
 62
     7
370
    25
100
AcDbLine
 10
260.0219164081
 20
35.7346266724
 30
0.0
 11
260.3823401673
 21
35.6964730586
 31
0.0
  0
LINE
  5
1B9
330
1F
100
AcDbEntity
  8
0
  6
Continuous
 62
     7
370
    25
100
AcDbLine
 10
260.3823401673
 20
35.6964730586
 30
0.0
 11
260.3823401673
 21
35.6763601042
 31
0.0
  0
LINE
  5
1BA
330
1F
100
AcDbEntity
  8
0
  6
Continuous
 62
     7
370
    25
100
AcDbLine
 10
254.4323401673
 20
35.6964730586
 30
0.0
 11
254.4323401673
 21
35.6763601042
 31
0.0
  0
LINE
  5
1BB
330
1F
100
AcDbEntity
  8
0
  6
Continuous
 62
     7
370
    25
100
AcDbLine
 10
254.7927639266
 20
35.7346266724
 30
0.0
 11
254.4323401673
 21
35.6964730586
 31
0.0
  0
LINE
  5
1BC
330
1F
100
AcDbEntity
  8
0
  6
Continuous
 62
     7
370
    25
100
AcDbLine
 10
260.3823401673
 20
35.6964730586
 30
0.0
 11
260.5723401673
 21
35.7860447695
 31
0.0
  0
LINE
  5
1BD
330
1F
100
AcDbEntity
  8
0
  6
Continuous
 62
     7
370
    25
100
AcDbLine
 10
254.4323401673
 20
35.6964730586
 30
0.0
 11
254.2423401673
 21
35.7860447695
 31
0.0
  0
LINE
  5
1BE
330
1F
100
AcDbEntity
  8
0
  6
Continuous
 62
     7
370
    25
100
AcDbLine
 10
260.0219164081
 20
38.7533521446
 30
0.0
 11
260.3823401673
 21
39.1313349455
 31
0.0
  0
LINE
  5
1BF
330
1F
100
AcDbEntity
  8
0
  6
Continuous
 62
     7
370
    25
100
AcDbLine
 10
260.3823401673
 20
39.1313349455
 30
0.0
 11
260.5723401673
 21
39.2209066564
 31
0.0
  0
LINE
  5
1C0
330
1F
100
AcDbEntity
  8
0
  6
Continuous
 62
     7
370
    25
100
AcDbLine
 10
254.4323401673
 20
39.1313349455
 30
0.0
 11
254.2423401673
 21
39.2209066564
 31
0.0
  0
LINE
  5
1C1
330
1F
100
AcDbEntity
  8
0
  6
Continuous
 62
     7
370
    25
100
AcDbLine
 10
254.7927639266
 20
38.7533521446
 30
0.0
 11
254.4323401673
 21
39.1313349455
 31
0.0
  0
SPLINE
  5
1C2
330
1F
100
AcDbEntity
  8
0
  6
Continuous
 62
     7
370
    25
100
AcDbSpline
210
0.0
220
0.0
230
1.0
 70
     8
 71
     3
 72
    11
 73
     7
 74
     0
 42
0.000000001
 43
0.00000001
 40
0.0
 40
0.0
 40
0.0
 40
0.0
 40
0.3429685074212454
 40
0.6848841677076355
 40
0.9921619810197708
 40
1.0
 40
1.0
 40
1.0
 40
1.0
 10
260.0219164080671
 20
35.73462667237727
 30
0.0
 10
259.9938103495321
 20
35.74142711767742
 30
0.0
 10
259.9376845126381
 20
35.75500713222294
 30
0.0
 10
259.8524752175604
 20
35.81765431525832
 30
0.0
 10
259.8006896725701
 20
35.87202166759578
 30
0.0
 10
259.7775979756059
 20
35.90067450840047
 30
0.0
 10
259.7770236053568
 20
35.90138720350192
 30
0.0
  0
SPLINE
  5
1C3
330
1F
100
AcDbEntity
  8
0
  6
Continuous
 62
     7
370
    25
100
AcDbSpline
210
0.0
220
0.0
230
1.0
 70
     8
 71
     3
 72
    11
 73
     7
 74
     0
 42
0.000000001
 43
0.00000001
 40
0.0
 40
0.0
 40
0.0
 40
0.0
 40
0.0078380189801768
 40
0.3151158322923576
 40
0.6570314925787658
 40
1.0
 40
1.0
 40
1.0
 40
1.0
 10
255.0376567292797
 20
35.9013872035019
 30
0.0
 10
255.0370823590306
 20
35.90067450840045
 30
0.0
 10
255.0139906620665
 20
35.87202166759577
 30
0.0
 10
254.962205117076
 20
35.81765431525831
 30
0.0
 10
254.8769958219983
 20
35.75500713222293
 30
0.0
 10
254.8208699851043
 20
35.7414271176774
 30
0.0
 10
254.7927639265694
 20
35.73462667237725
 30
0.0
  0
LWPOLYLINE
  5
1C4
330
1F
100
AcDbEntity
  8
0
  6
Continuous
 62
     7
370
    25
100
AcDbPolyline
 90
        9
 70
   128
 43
0.0
 10
259.0723401673
 20
36.2536478163
 10
259.1698853283
 20
36.2591940271
 10
259.2636818835
 20
36.2756195216
 10
259.3501252838
 20
36.3022930773
 10
259.4258935579
 20
36.3381896444
 10
259.4880749735
 20
36.381929738
 10
259.5342799336
 20
36.4318324508
 10
259.5627328075
 20
36.4859800495
 10
259.5723401673
 20
36.5422916723
  0
LWPOLYLINE
  5
1C5
330
1F
100
AcDbEntity
  8
0
  6
Continuous
 62
     7
370
    25
100
AcDbPolyline
 90
        9
 70
   128
 43
0.0
 10
255.2423401672
 20
36.5422916723
 10
255.251947527
 20
36.4859800494
 10
255.2804004009
 20
36.4318324507
 10
255.326605361
 20
36.3819297379
 10
255.3887867766
 20
36.3381896443
 10
255.4645550507
 20
36.3022930772
 10
255.5509984511
 20
36.2756195215
 10
255.6447950063
 20
36.259194027
 10
255.7423401673
 20
36.2536478163
  0
LINE
  5
1C6
330
1F
100
AcDbEntity
  8
0
  6
Continuous
 62
     7
370
    25
100
AcDbLine
 10
255.7423401673
 20
36.2536478163
 30
0.0
 11
259.0723401673
 21
36.2536478163
 31
0.0
  0
LINE
  5
1C7
330
1F
100
AcDbEntity
  8
0
  6
Continuous
 62
     7
370
    25
100
AcDbLine
 10
259.0723401673
 20
38.7533036096
 30
0.0
 11
255.7423401673
 21
38.7533036096
 31
0.0
  0
LWPOLYLINE
  5
1C8
330
1F
100
AcDbEntity
  8
0
  6
Continuous
 62
     7
370
    25
100
AcDbPolyline
 90
        9
 70
   128
 43
0.0
 10
259.5723401673
 20
38.4646597536
 10
259.5627328075
 20
38.5209713764
 10
259.5342799336
 20
38.5751189752
 10
259.4880749735
 20
38.625021688
 10
259.4258935579
 20
38.6687617815
 10
259.3501252838
 20
38.7046583487
 10
259.2636818835
 20
38.7313319044
 10
259.1698853283
 20
38.7477573989
 10
259.0723401673
 20
38.7533036096
  0
LINE
  5
1C9
330
1F
100
AcDbEntity
  8
0
  6
Continuous
 62
     7
370
    25
100
AcDbLine
 10
259.5723401673
 20
36.5422916723
 30
0.0
 11
259.5723401673
 21
38.4646597536
 31
0.0
  0
LINE
  5
1CA
330
1F
100
AcDbEntity
  8
0
  6
Continuous
 62
     7
370
    25
100
AcDbLine
 10
255.2423401673
 20
38.4646597536
 30
0.0
 11
255.2423401672
 21
36.5422916723
 31
0.0
  0
LWPOLYLINE
  5
1CB
330
1F
100
AcDbEntity
  8
0
  6
Continuous
 62
     7
370
    25
100
AcDbPolyline
 90
        9
 70
   128
 43
0.0
 10
255.7423401673
 20
38.7533036096
 10
255.6447950063
 20
38.7477573989
 10
255.5509984511
 20
38.7313319044
 10
255.4645550508
 20
38.7046583487
 10
255.3887867767
 20
38.6687617815
 10
255.3266053612
 20
38.625021688
 10
255.2804004011
 20
38.5751189752
 10
255.2519475271
 20
38.5209713764
 10
255.2423401673
 20
38.4646597536
  0
LWPOLYLINE
  5
1CC
330
1F
100
AcDbEntity
  8
0
  6
Continuous
 62
     7
370
    25
100
AcDbPolyline
 90
       26
 70
   128
 43
0.0
 10
255.5073401673
 20
37.5034757129
 10
255.5670321612
 20
37.2307010425
 10
255.7423574752
 20
36.9750658079
 10
256.0222997752
 20
36.752632511
 10
256.3892692569
 20
36.5773774538
 10
256.820207878
 20
36.4603125562
 10
257.2880381802
 20
36.4087934363
 10
257.763364665
 20
36.4260572297
 10
258.2163208213
 20
36.5110191889
 10
258.6184457478
 20
36.6583408415
 10
258.9444724566
 20
36.8587654263
 10
259.1739154905
 20
37.0996995294
 10
259.2923580998
 20
37.3660043752
 10
259.2923580998
 20
37.6409470506
 10
259.1739154905
 20
37.9072518964
 10
258.9444724566
 20
38.1481859995
 10
258.6184457478
 20
38.3486105843
 10
258.2163208213
 20
38.4959322369
 10
257.763364665
 20
38.5808941961
 10
257.2880381802
 20
38.5981579895
 10
256.820207878
 20
38.5466388696
 10
256.3892692569
 20
38.429573972
 10
256.0222997752
 20
38.2543189148
 10
255.7423574752
 20
38.0318856179
 10
255.5670321612
 20
37.7762503833
 10
255.5073401673
 20
37.5034757129
  0
LWPOLYLINE
  5
1CD
330
1F
100
AcDbEntity
  8
0
  6
Continuous
 62
     7
370
    25
100
AcDbPolyline
 90
        3
 70
   128
 43
0.0
 10
259.2633126228
 20
37.2687202296
 10
259.1739154905
 20
37.4377409296
 10
259.0682595063
 20
37.5666192524
  0
LWPOLYLINE
  5
1CE
330
1F
100
AcDbEntity
  8
0
  6
Continuous
 62
     7
370
    25
100
AcDbPolyline
 90
        3
 70
   128
 43
0.0
 10
255.6298984618
 20
37.4215226214
 10
255.5670321612
 20
37.3067394165
 10
255.5513677119
 20
37.2687202296
  0
SPLINE
  5
1CF
330
1F
100
AcDbEntity
  8
0
  6
Continuous
 62
     7
370
    25
100
AcDbSpline
210
0.0
220
0.0
230
1.0
 70
     8
 71
     3
 72
    11
 73
     7
 74
     0
 42
0.000000001
 43
0.00000001
 40
0.0
 40
0.0
 40
0.0
 40
0.0
 40
0.3429685074212284
 40
0.6848841677076404
 40
0.9921619810197978
 40
1.0
 40
1.0
 40
1.0
 40
1.0
 10
260.0219164080672
 20
38.75335214456754
 30
0.0
 10
259.9938103495321
 20
38.72770202541282
 30
0.0
 10
259.937684512638
 20
38.67648052801947
 30
0.0
 10
259.8524752175605
 20
38.64074715304745
 30
0.0
 10
259.80068967257
 20
38.63532418781127
 30
0.0
 10
259.7775979756059
 20
38.63731592279898
 30
0.0
 10
259.7770236053568
 20
38.63736546412645
 30
0.0
  0
SPLINE
  5
1D0
330
1F
100
AcDbEntity
  8
0
  6
Continuous
 62
     7
370
    25
100
AcDbSpline
210
0.0
220
0.0
230
1.0
 70
     8
 71
     3
 72
    11
 73
     7
 74
     0
 42
0.000000001
 43
0.00000001
 40
0.0
 40
0.0
 40
0.0
 40
0.0
 40
0.0078380189801649
 40
0.3151158322985237
 40
0.6570314925818838
 40
1.0
 40
1.0
 40
1.0
 40
1.0
 10
255.0376567292797
 20
38.63736546412643
 30
0.0
 10
255.0370823590306
 20
38.63731592279897
 30
0.0
 10
255.013990662066
 20
38.63532418781119
 30
0.0
 10
254.9622051170746
 20
38.64074715304771
 30
0.0
 10
254.8769958219964
 20
38.67648052802071
 30
0.0
 10
254.8208699851026
 20
38.72770202541437
 30
0.0
 10
254.7927639265677
 20
38.75335214456924
 30
0.0
  0
LINE
  5
1D1
330
1F
100
AcDbEntity
  8
0
  6
Continuous
 62
     7
370
    25
100
AcDbLine
 10
254.4323401673
 20
39.1313349455
 30
0.0
 11
254.4323401673
 21
39.3305913217
 31
0.0
  0
LINE
  5
1D2
330
1F
100
AcDbEntity
  8
0
  6
Continuous
 62
     7
370
    25
100
AcDbLine
 10
260.3823401673
 20
39.1313349455
 30
0.0
 11
260.3823401673
 21
39.3305913217
 31
0.0
  0
SPLINE
  5
1D3
330
1F
100
AcDbEntity
  8
0
  6
Continuous
 62
     7
370
    25
100
AcDbSpline
210
0.0
220
0.0
230
1.0
 70
    11
 71
     3
 72
    68
 73
    64
 74
     0
 42
0.000000001
 43
0.00000001
 40
0.0
 40
0.0
 40
0.0
 40
0.0
 40
0.03125
 40
0.03125
 40
0.0625
 40
0.0625
 40
0.09375
 40
0.09375
 40
0.125
 40
0.125
 40
0.15625
 40
0.15625
 40
0.1875
 40
0.1875
 40
0.21875
 40
0.21875
 40
0.25
 40
0.25
 40
0.28125
 40
0.28125
 40
0.3125
 40
0.3125
 40
0.34375
 40
0.34375
 40
0.375
 40
0.375
 40
0.40625
 40
0.40625
 40
0.4375
 40
0.4375
 40
0.46875
 40
0.46875
 40
0.5
 40
0.5
 40
0.53125
 40
0.53125
 40
0.5625
 40
0.5625
 40
0.59375
 40
0.59375
 40
0.625
 40
0.625
 40
0.65625
 40
0.65625
 40
0.6875
 40
0.6875
 40
0.71875
 40
0.71875
 40
0.75
 40
0.75
 40
0.78125
 40
0.78125
 40
0.8125
 40
0.8125
 40
0.84375
 40
0.84375
 40
0.875
 40
0.875
 40
0.90625
 40
0.90625
 40
0.9375
 40
0.9375
 40
1.0
 40
1.0
 40
1.0
 40
1.0
 10
236.6817368470628
 20
52.26382181864873
 30
0.0
 10
236.621015611023
 20
52.26925121215944
 30
0.0
 10
236.567869043689
 20
52.26976266597644
 30
0.0
 10
236.4761326526246
 20
52.26145055083935
 30
0.0
 10
236.4372469989395
 20
52.25245270322807
 30
0.0
 10
236.3769325241415
 20
52.22561466469309
 30
0.0
 10
236.355378802209
 20
52.20794215662468
 30
0.0
 10
236.3294716935628
 20
52.1645676167398
 30
0.0
 10
236.3253345508304
 20
52.13862863583283
 30
0.0
 10
236.3351541057209
 20
52.0812358114831
 30
0.0
 10
236.3488720222942
 20
52.04959219831255
 30
0.0
 10
236.3945684272945
 20
51.98073872000421
 30
0.0
 10
236.4263223221409
 20
51.94405398420215
 30
0.0
 10
236.5057725808015
 20
51.86846225537155
 30
0.0
 10
236.5540515609588
 20
51.82899698104691
 30
0.0
 10
236.6660932083612
 20
51.74876447799703
 30
0.0
 10
236.728768547762
 20
51.70870381408186
 30
0.0
 10
236.8671292483558
 20
51.62878660480837
 30
0.0
 10
236.9437411232623
 20
51.58852163578087
 30
0.0
 10
237.1045171731577
 20
51.51115167164397
 30
0.0
 10
237.1889289897984
 20
51.47381841807476
 30
0.0
 10
237.3657500253336
 20
51.40159412443973
 30
0.0
 10
237.4579782115656
 20
51.36685141827531
 30
0.0
 10
237.6423870437107
 20
51.3024365434237
 30
0.0
 10
237.7355437619657
 20
51.27235394032763
 30
0.0
 10
237.9236716737865
 20
51.21611250986602
 30
0.0
 10
238.0155661372746
 20
51.19086933826964
 30
0.0
 10
238.1948700342155
 20
51.14547360257647
 30
0.0
 10
238.2832136228284
 20
51.12513658770033
 30
0.0
 10
238.4500627049229
 20
51.09048497360581
 30
0.0
 10
238.5283281299021
 20
51.07616521632526
 30
0.0
 10
238.6745310239448
 20
51.05321638061911
 30
0.0
 10
238.742733224634
 20
51.04461269786324
 30
0.0
 10
238.8627082771565
 20
51.03386682085642
 30
0.0
 10
238.9153147222119
 20
51.03156861316012
 30
0.0
 10
239.0054633872796
 20
51.03335823405382
 30
0.0
 10
239.0421936695771
 20
51.03749095387219
 30
0.0
 10
239.0976340745662
 20
51.05209632298988
 30
0.0
 10
239.1167877647967
 20
51.0626720691969
 30
0.0
 10
239.1367420392091
 20
51.09048719403927
 30
0.0
 10
239.1375075608307
 20
51.10743910289018
 30
0.0
 10
239.1212828444574
 20
51.14774874641375
 30
0.0
 10
239.1039201263212
 20
51.17142003891966
 30
0.0
 10
239.0523992333314
 20
51.22407389386989
 30
0.0
 10
239.0183921309654
 20
51.25309291375104
 30
0.0
 10
238.9339110260467
 20
51.31697272479715
 30
0.0
 10
238.8833006551646
 20
51.3518463131895
 30
0.0
 10
238.7698967128147
 20
51.42474962111319
 30
0.0
 10
238.7066664253265
 20
51.46312684241231
 30
0.0
 10
238.5666555424189
 20
51.54398989692034
 30
0.0
 10
238.4920008533395
 20
51.58524229727237
 30
0.0
 10
238.3343909735537
 20
51.66886048468225
 30
0.0
 10
238.2503784236719
 20
51.71174790871147
 30
0.0
 10
238.0781488333319
 20
51.79612167556177
 30
0.0
 10
237.9904270422436
 20
51.83740583311061
 30
0.0
 10
237.8116329835014
 20
51.9177907923621
 30
0.0
 10
237.7199728442115
 20
51.9570912996257
 30
0.0
 10
237.5407457076814
 20
52.02967692395914
 30
0.0
 10
237.4522756325166
 20
52.06339487585389
 30
0.0
 10
237.2774653426956
 20
52.12508477796385
 30
0.0
 10
237.1924072863415
 20
52.15255402200241
 30
0.0
 10
236.9506611037546
 20
52.22230604943363
 30
0.0
 10
236.8031793191425
 20
52.25296303162733
 30
0.0
 10
236.6817368470628
 20
52.26382181864873
 30
0.0
  0
ARC
  5
1D4
330
1F
100
AcDbEntity
  8
0
  6
Continuous
 62
     7
370
    25
100
AcDbCircle
 10
229.9494408997
 20
50.0416498262
 30
0.0
 40
5.827162410950272
100
AcDbArc
 50
60.7079518856
 51
95.1850286523
  0
ARC
  5
1D5
330
1F
100
AcDbEntity
  8
0
  6
Continuous
 62
     7
370
    25
100
AcDbCircle
 10
220.0860968935
 20
32.9052280006
 30
0.0
 40
5.901828055465533
100
AcDbArc
 50
205.4174131034
 51
239.0599611964
  0
ELLIPSE
  5
1D6
330
1F
100
AcDbEntity
  8
0
  6
Continuous
 62
     7
370
    25
100
AcDbEllipse
 10
237.0952582817
 20
34.4583519856
 30
0.0
 11
3.475918560926033
 21
15.7518319531232
 31
0.0
210
0.0
220
0.0
230
1.0
 40
0.6979108556
 41
5.412461905590185
 42
8.289980899405272
  0
SPLINE
  5
1D7
330
1F
100
AcDbEntity
  8
0
  6
Continuous
 62
     7
370
    25
100
AcDbSpline
210
0.0
220
0.0
230
1.0
 70
     8
 71
     3
 72
    14
 73
    10
 74
     0
 42
0.000000001
 43
0.00000001
 40
0.0
 40
0.0
 40
0.0
 40
0.0
 40
0.25
 40
0.25
 40
0.5
 40
0.5
 40
0.75
 40
0.75
 40
1.0
 40
1.0
 40
1.0
 40
1.0
 10
225.6623931702367
 20
30.00503154073977
 30
0.0
 10
225.6832668098815
 20
29.79093239315046
 30
0.0
 10
225.7249535977531
 20
29.57793693169007
 30
0.0
 10
225.8473193100792
 20
29.15336121638241
 30
0.0
 10
225.9292664892855
 20
28.93999026694567
 30
0.0
 10
226.1233984287738
 20
28.53420245317967
 30
0.0
 10
226.2362716262416
 20
28.33892655495805
 30
0.0
 10
226.4906637659314
 20
27.96599131774425
 30
0.0
 10
226.6286095269275
 20
27.79338153269905
 30
0.0
 10
226.7763152339582
 20
27.63409916208609
 30
0.0
  0
SPLINE
  5
1D8
330
1F
100
AcDbEntity
  8
0
  6
Continuous
 62
     7
370
    25
100
AcDbSpline
210
0.0
220
0.0
230
1.0
 70
     8
 71
     3
 72
    14
 73
    10
 74
     0
 42
0.000000001
 43
0.00000001
 40
0.0
 40
0.0
 40
0.0
 40
0.0
 40
0.25
 40
0.25
 40
0.5
 40
0.5
 40
0.75
 40
0.75
 40
1.0
 40
1.0
 40
1.0
 40
1.0
 10
249.049780163623
 20
40.49229677154982
 30
0.0
 10
248.9013089987418
 20
40.65114226080013
 30
0.0
 10
248.7622291357951
 20
40.82169694926616
 30
0.0
 10
248.5002089874878
 20
41.18419014353631
 30
0.0
 10
248.376406061722
 20
41.37815106635978
 30
0.0
 10
248.1548918114451
 20
41.76815254936235
 30
0.0
 10
248.0554937929101
 20
41.96630237215633
 30
0.0
 10
247.8788995498774
 20
42.36576368921076
 30
0.0
 10
247.8042854319724
 20
42.56111053458829
 30
0.0
 10
247.7423804885431
 20
42.75153690260259
 30
0.0
  0
SPLINE
  5
1D9
330
1F
100
AcDbEntity
  8
0
  6
Continuous
 62
     7
370
    25
100
AcDbSpline
210
0.0
220
0.0
230
1.0
 70
     8
 71
     3
 72
    12
 73
     8
 74
     0
 42
0.000000001
 43
0.00000001
 40
0.0
 40
0.0
 40
0.0
 40
0.0
 40
0.2500000000000004
 40
0.2500000000000004
 40
0.5000000000000009
 40
0.5000000000000009
 40
1.0
 40
1.0
 40
1.0
 40
1.0
 10
217.8406167492315
 20
37.13260926310392
 30
0.0
 10
217.8183227490269
 20
37.14547931547527
 30
0.0
 10
217.8002102729381
 20
37.16950853853043
 30
0.0
 10
217.7736454016459
 20
37.22462040441687
 30
0.0
 10
217.7650444687487
 20
37.25457146041323
 30
0.0
 10
217.7466751228265
 20
37.34601349861119
 30
0.0
 10
217.7444728384579
 20
37.40737483170265
 30
0.0
 10
217.746832044363
 20
37.46805858882909
 30
0.0
  0
LINE
  5
1DA
330
1F
100
AcDbEntity
  8
0
  6
Continuous
 62
     7
370
    25
100
AcDbLine
 10
218.8816498899
 20
36.5316336231
 30
0.0
 11
217.8406167492
 21
37.1326092631
 31
0.0
  0
SPLINE
  5
1DB
330
1F
100
AcDbEntity
  8
0
  6
Continuous
 62
     7
370
    25
100
AcDbSpline
210
0.0
220
0.0
230
1.0
 70
     8
 71
     3
 72
    12
 73
     8
 74
     0
 42
0.000000001
 43
0.00000001
 40
0.0
 40
0.0
 40
0.0
 40
0.0
 40
0.4999999999999991
 40
0.4999999999999991
 40
0.7499999999999996
 40
0.7499999999999996
 40
1.0
 40
1.0
 40
1.0
 40
1.0
 10
219.0940514028938
 20
36.69032540766551
 30
0.0
 10
219.0696701062081
 20
36.64237813677234
 30
0.0
 10
219.0419723360472
 20
36.59828365606825
 30
0.0
 10
218.9896798100908
 20
36.54758908833645
 30
0.0
 10
218.9703788784444
 20
36.53347924390497
 30
0.0
 10
218.9280093243241
 20
36.51877614440318
 30
0.0
 10
218.9039110635408
 20
36.51878252112272
 30
0.0
 10
218.8816498899144
 20
36.53163362311383
 30
0.0
  0
ELLIPSE
  5
1DC
330
1F
100
AcDbEntity
  8
0
  6
Continuous
 62
     7
370
    25
100
AcDbEllipse
 10
223.9194655926
 20
42.064575202
 30
0.0
 11
7.874888476696754
 21
13.63996451050156
 31
0.0
210
0.0
220
0.0
230
1.0
 40
0.1059897947
 41
1.105338485463662
 42
2.036099852607336
  0
SPLINE
  5
1DD
330
1F
100
AcDbEntity
  8
0
  6
Continuous
 62
     7
370
    25
100
AcDbSpline
210
0.0
220
0.0
230
1.0
 70
     8
 71
     3
 72
    12
 73
     8
 74
     0
 42
0.000000001
 43
0.00000001
 40
0.0
 40
0.0
 40
0.0
 40
0.0
 40
0.2499999999999996
 40
0.2499999999999996
 40
0.4999999999999991
 40
0.4999999999999991
 40
1.0
 40
1.0
 40
1.0
 40
1.0
 10
226.1932844540868
 20
49.19575613746942
 30
0.0
 10
226.2155784542913
 20
49.18288608509808
 30
0.0
 10
226.2275228300433
 20
49.16241878811846
 30
0.0
 10
226.2361241364658
 20
49.117680438651
 30
0.0
 10
226.2334851161974
 20
49.09422017886116
 30
0.0
 10
226.2157421727387
 20
49.0236320986353
 30
0.0
 10
226.1914110754643
 20
48.97759314014606
 30
0.0
 10
226.1620691589553
 20
48.93249123403356
 30
0.0
  0
LINE
  5
1DE
330
1F
100
AcDbEntity
  8
0
  6
Continuous
 62
     7
370
    25
100
AcDbLine
 10
225.1522513134
 20
49.7967317775
 30
0.0
 11
226.1932844541
 21
49.1957561375
 31
0.0
  0
SPLINE
  5
1DF
330
1F
100
AcDbEntity
  8
0
  6
Continuous
 62
     7
370
    25
100
AcDbSpline
210
0.0
220
0.0
230
1.0
 70
     8
 71
     3
 72
    12
 73
     8
 74
     0
 42
0.000000001
 43
0.00000001
 40
0.0
 40
0.0
 40
0.0
 40
0.0
 40
0.4999999999999982
 40
0.4999999999999982
 40
0.7499999999999991
 40
0.7499999999999991
 40
1.0
 40
1.0
 40
1.0
 40
1.0
 10
224.8148498004245
 20
49.71022441519715
 30
0.0
 10
224.8662036297513
 20
49.7425957125993
 30
0.0
 10
224.9204318586532
 20
49.77136950660505
 30
0.0
 10
225.0088566722422
 20
49.80119856786688
 30
0.0
 10
225.039517881634
 20
49.80874813160958
 30
0.0
 10
225.0995737455658
 20
49.813237822662
 30
0.0
 10
225.1299901397776
 20
49.80958287945061
 30
0.0
 10
225.152251313404
 20
49.7967317774595
 30
0.0
  0
ELLIPSE
  5
1E0
330
1F
100
AcDbEntity
  8
0
  6
Continuous
 62
     7
370
    25
100
AcDbEllipse
 10
234.0644356107
 20
36.2080086711
 30
0.0
 11
14.30238360604705
 21
-8.263902107297813
 31
0.0
210
0.0
220
0.0
230
1.0
 40
0.9534948969
 41
2.676532761479946
 42
3.607294128623639
  0
SPLINE
  5
1E1
330
1F
100
AcDbEntity
  8
0
  6
Continuous
 62
     7
370
    25
100
AcDbSpline
210
0.0
220
0.0
230
1.0
 70
     8
 71
     3
 72
    12
 73
     8
 74
     0
 42
0.000000001
 43
0.00000001
 40
0.0
 40
0.0
 40
0.0
 40
0.0
 40
0.2500000000000001
 40
0.2500000000000001
 40
0.5000000000000001
 40
0.5000000000000001
 40
1.0
 40
1.0
 40
1.0
 40
1.0
 10
231.7906167492314
 20
53.62897857189612
 30
0.0
 10
231.7683145877434
 20
53.64185333567614
 30
0.0
 10
231.7563700328807
 20
53.65587484269952
 30
0.0
 10
231.7477759667711
 20
53.68158751514349
 30
0.0
 10
231.7504218643812
 20
53.69304306598524
 30
0.0
 10
231.7681864642277
 20
53.72449755986545
 30
0.0
 10
231.7926779299259
 20
53.74114779238341
 30
0.0
 10
231.821832044363
 20
53.75526916342444
 30
0.0
  0
LINE
  5
1E2
330
1F
100
AcDbEntity
  8
0
  6
Continuous
 62
     7
370
    25
100
AcDbLine
 10
232.8316498899
 20
53.0280029319
 30
0.0
 11
231.7906167492
 21
53.6289785719
 31
0.0
  0
SPLINE
  5
1E3
330
1F
100
AcDbEntity
  8
0
  6
Continuous
 62
     7
370
    25
100
AcDbSpline
210
0.0
220
0.0
230
1.0
 70
     8
 71
     3
 72
    12
 73
     8
 74
     0
 42
0.000000001
 43
0.00000001
 40
0.0
 40
0.0
 40
0.0
 40
0.0
 40
0.4999999999999991
 40
0.4999999999999991
 40
0.7499999999999996
 40
0.7499999999999996
 40
1.0
 40
1.0
 40
1.0
 40
1.0
 10
233.1690514028937
 20
52.97753598226086
 30
0.0
 10
233.1183949655845
 20
52.97606288294502
 30
0.0
 10
233.0633837995151
 20
52.97673946499471
 30
0.0
 10
232.975360350787
 20
52.98601207167578
 30
0.0
 10
232.9445853218807
 20
52.99057974372251
 30
0.0
 10
232.8838527158762
 20
53.00500824546312
 30
0.0
 10
232.853809383941
 20
53.01521052829843
 30
0.0
 10
232.8316498899143
 20
53.02800293190609
 30
0.0
  0
ELLIPSE
  5
1E4
330
1F
100
AcDbEntity
  8
0
  6
Continuous
 62
     7
370
    25
100
AcDbEllipse
 10
223.9194655926
 20
42.064575202
 30
0.0
 11
15.90471575942232
 21
8.322204981098992
 31
0.0
210
0.0
220
0.0
230
1.0
 40
0.4445305117
 41
0.2747775750656695
 42
0.740076994575436
  0
ELLIPSE
  5
1E5
330
1F
100
AcDbEntity
  8
0
  6
Continuous
 62
     7
370
    25
100
AcDbEllipse
 10
234.0644356107
 20
36.2080086711
 30
0.0
 11
-0.7461041289971889
 21
17.9347738606024
 31
0.0
210
0.0
220
0.0
230
1.0
 40
0.4444802122
 41
5.846123912132794
 42
6.473758866427504
  0
ELLIPSE
  5
1E6
330
1F
100
AcDbEntity
  8
0
  6
Continuous
 62
     7
370
    25
100
AcDbEllipse
 10
223.9194655926
 20
42.064575202
 30
0.0
 11
-0.7461041289971606
 21
17.93477386060239
 31
0.0
210
0.0
220
0.0
230
1.0
 40
0.4444802122
 41
2.40140484569403
 42
2.866866793327965
  0
SPLINE
  5
1E7
330
1F
100
AcDbEntity
  8
0
  6
Continuous
 62
     7
370
    25
100
AcDbSpline
210
0.0
220
0.0
230
1.0
 70
     8
 71
     3
 72
    12
 73
     8
 74
     0
 42
0.000000001
 43
0.00000001
 40
0.0
 40
0.0
 40
0.0
 40
0.0
 40
0.2499999999999986
 40
0.2499999999999986
 40
0.4999999999999971
 40
0.4999999999999971
 40
1.0
 40
1.0
 40
1.0
 40
1.0
 10
218.8816498899144
 20
28.86589423723323
 30
0.0
 10
218.9039520514025
 20
28.85301947345322
 30
0.0
 10
218.9276594143418
 20
28.83220523438568
 30
0.0
 10
218.9707214082111
 20
28.78658818231899
 30
0.0
 10
218.9897246914656
 20
28.7626307625673
 30
0.0
 10
219.0419983619506
 20
28.69073089203087
 30
0.0
 10
219.0698170166928
 20
28.64387285292196
 30
0.0
 10
219.0940514028938
 20
28.59892093727731
 30
0.0
  0
LINE
  5
1E8
330
1F
100
AcDbEntity
  8
0
  6
Continuous
 62
     7
370
    25
100
AcDbLine
 10
217.8406167492
 20
29.4668698772
 30
0.0
 11
218.8816498899
 21
28.8658942372
 31
0.0
  0
SPLINE
  5
1E9
330
1F
100
AcDbEntity
  8
0
  6
Continuous
 62
     7
370
    25
100
AcDbSpline
210
0.0
220
0.0
230
1.0
 70
     8
 71
     3
 72
    12
 73
     8
 74
     0
 42
0.000000001
 43
0.00000001
 40
0.0
 40
0.0
 40
0.0
 40
0.0
 40
0.4999999999999991
 40
0.4999999999999991
 40
0.7499999999999996
 40
0.7499999999999996
 40
1.0
 40
1.0
 40
1.0
 40
1.0
 10
217.7468320443631
 20
29.37665411844089
 30
0.0
 10
217.7445057546113
 20
29.40872343811038
 30
0.0
 10
217.7467067596979
 20
29.43854342375307
 30
0.0
 10
217.7649721201389
 20
29.46955439549606
 30
0.0
 10
217.7737383630862
 20
29.47769625544727
 30
0.0
 10
217.8002023686228
 20
29.48305702672618
 30
0.0
 10
217.8184572552049
 20
29.47966228083092
 30
0.0
 10
217.8406167492315
 20
29.46686987722326
 30
0.0
  0
ELLIPSE
  5
1EA
330
1F
100
AcDbEntity
  8
0
  6
Continuous
 62
     7
370
    25
100
AcDbEllipse
 10
234.0644356107
 20
36.2080086711
 30
0.0
 11
15.90471575942229
 21
8.32220498109897
 31
0.0
210
0.0
220
0.0
230
1.0
 40
0.4445305117
 41
2.950908281021527
 42
3.578705763440483
  0
ELLIPSE
  5
1EB
330
1F
100
AcDbEntity
  8
0
  6
Continuous
 62
     7
370
    25
100
AcDbEllipse
 10
242.1482020498
 20
43.6983832969
 30
0.0
 11
1.266535586375568
 21
-0.5139090292978709
 31
0.0
210
0.0
220
0.0
230
1.0
 40
0.9135362508
 41
0.0
 42
6.283185307179586
  0
LWPOLYLINE
  5
1EC
330
1F
100
AcDbEntity
  8
0
  6
Continuous
 62
     7
370
    25
100
AcDbPolyline
 90
       11
 70
   128
 43
0.0
 10
255.4862671418
 20
39.3363641988
 10
255.4586883373
 20
39.3474904463
 10
255.1299414829
 20
39.432586106
 10
254.7707183211
 20
39.4485190021
 10
254.4233120491
 20
39.3934132724
 10
254.1286246009
 20
39.273756799
 10
253.921351051
 20
39.1036373563
 10
253.8258947846
 20
38.9030839844
 10
253.8534943606
 20
38.6957088671
 10
254.0009003384
 20
38.5059273477
 10
254.2323401673
 20
38.3640492207
  0
LINE
  5
1ED
330
1F
100
AcDbEntity
  8
0
  6
Continuous
 62
     7
370
    25
100
AcDbLine
 10
254.2507578515
 20
35.6590052256
 30
0.0
 11
254.2507578515
 21
35.558738408
 31
0.0
  0
LINE
  5
1EE
330
1F
100
AcDbEntity
  8
0
  6
Continuous
 62
     7
370
    25
100
AcDbLine
 10
254.2507578515
 20
35.558738408
 30
0.0
 11
254.3116888234
 21
35.558738408
 31
0.0
  0
ELLIPSE
  5
1EF
330
1F
100
AcDbEntity
  8
0
  6
Continuous
 62
     7
370
    25
100
AcDbEllipse
 10
255.2550869366
 20
32.999597023
 30
0.0
 11
4.499999999999972
 21
2.131628207280301E-14
 31
0.0
210
0.0
220
0.0
230
1.0
 40
0.581623042
 41
1.782007207154287
 42
2.090654253739368
  0
LINE
  5
1F0
330
1F
100
AcDbEntity
  8
0
  6
Continuous
 62
     7
370
    25
100
AcDbLine
 10
253.0196811606
 20
35.2711281046
 30
0.0
 11
227.5413674922
 21
26.7892588796
 31
0.0
  0
LINE
  5
1F1
330
1F
100
AcDbEntity
  8
0
  6
Continuous
 62
     7
370
    25
100
AcDbLine
 10
227.5413674922
 20
26.7892588796
 30
0.0
 11
227.4382136315
 21
26.8488083359
 31
0.0
  0
LINE
  5
1F2
330
1F
100
AcDbEntity
  8
0
  6
Continuous
 62
     7
370
    25
100
AcDbLine
 10
255.0405331873
 20
42.0424985701
 30
0.0
 11
252.0043267387
 21
41.0305235664
 31
0.0
  0
SPLINE
  5
1F3
330
1F
100
AcDbEntity
  8
0
  6
Continuous
 62
     7
370
    25
100
AcDbSpline
210
0.0
220
0.0
230
1.0
 70
     8
 71
     3
 72
    10
 73
     6
 74
     0
 42
0.000000001
 43
0.00000001
 40
0.0
 40
0.0
 40
0.0
 40
0.0
 40
0.5
 40
0.5
 40
1.0
 40
1.0
 40
1.0
 40
1.0
 10
255.3326648694762
 20
42.08014549849302
 30
0.0
 10
255.2821018317881
 20
42.08261331111128
 30
0.0
 10
255.2312966212653
 20
42.08064361351617
 30
0.0
 10
255.1318381414575
 20
42.06782175831795
 30
0.0
 10
255.0848171186358
 20
42.05725847685589
 30
0.0
 10
255.0405331873005
 20
42.04249857006355
 30
0.0
  0
LINE
  5
1F4
330
1F
100
AcDbEntity
  8
0
  6
Continuous
 62
     7
370
    25
100
AcDbLine
 10
260.0855484703
 20
39.3363641988
 30
0.0
 11
255.3326648695
 21
42.0801454985
 31
0.0
  0
LINE
  5
1F5
330
1F
100
AcDbEntity
  8
0
  6
Continuous
 62
     7
370
    25
100
AcDbLine
 10
253.0196811606
 20
23.4524362254
 30
0.0
 11
240.6577875857
 21
19.3370946043
 31
0.0
  0
ELLIPSE
  5
1F6
330
1F
100
AcDbEntity
  8
0
  6
Continuous
 62
     7
370
    25
100
AcDbEllipse
 10
241.9038003569
 20
31.6824397325
 30
0.0
 11
12.8283674287099
 21
10.5968425529603
 31
0.0
210
0.0
220
0.0
230
1.0
 40
0.6184342192
 41
2.592068427576661
 42
4.153489617037032
  0
LWPOLYLINE
  5
1F7
330
1F
100
AcDbEntity
  8
0
  6
Continuous
 62
     7
370
    25
100
AcDbPolyline
 90
       10
 70
   128
 43
0.0
 10
230.2198840555
 20
19.9527128648
 10
229.5660955816
 20
20.3975770249
 10
228.9650044321
 20
20.9514846076
 10
228.4340411036
 20
21.6028291761
 10
227.9772291944
 20
22.3466748928
 10
227.5980303891
 20
23.1773849535
 10
227.2993182262
 20
24.0886643029
 10
227.083356323
 20
25.073607338
 10
226.9517812219
 20
26.124750238
 10
226.9055899884
 20
27.2341275252
  0
SPLINE
  5
1F8
330
1F
100
AcDbEntity
  8
0
  6
Continuous
 62
     7
370
    25
100
AcDbSpline
210
0.0
220
0.0
230
1.0
 70
     8
 71
     3
 72
     8
 73
     4
 74
     0
 42
0.000000001
 43
0.00000001
 40
0.0
 40
0.0
 40
0.0
 40
0.0
 40
1.0
 40
1.0
 40
1.0
 40
1.0
 10
227.4382136314622
 20
26.84880833587228
 30
0.0
 10
227.2569659453903
 20
26.95344039788557
 30
0.0
 10
227.0793293077448
 20
27.08205510547308
 30
0.0
 10
226.9055899883787
 20
27.23412752518131
 30
0.0
  0
SPLINE
  5
1F9
330
1F
100
AcDbEntity
  8
0
  6
Continuous
 62
     7
370
    25
100
AcDbSpline
210
0.0
220
0.0
230
1.0
 70
     8
 71
     3
 72
    14
 73
    10
 74
     0
 42
0.000000001
 43
0.00000001
 40
0.0
 40
0.0
 40
0.0
 40
0.0
 40
0.25
 40
0.25
 40
0.5
 40
0.5
 40
0.75
 40
0.75
 40
1.0
 40
1.0
 40
1.0
 40
1.0
 10
226.7763152339582
 20
27.6340991620861
 30
0.0
 10
226.8060668762693
 20
27.60201568872408
 30
0.0
 10
226.8318446437723
 20
27.56904395573522
 30
0.0
 10
226.8750830874179
 20
27.50106710146697
 30
0.0
 10
226.8924222755144
 20
27.46593466607981
 30
0.0
 10
226.9158187246741
 20
27.39717095775502
 30
0.0
 10
226.9222378341785
 20
27.36250904126553
 30
0.0
 10
226.922905574377
 20
27.29600992030768
 30
0.0
 10
226.9173771769252
 20
27.26436915629916
 30
0.0
 10
226.9055899883788
 20
27.23412752518131
 30
0.0
  0
SPLINE
  5
1FA
330
1F
100
AcDbEntity
  8
0
  6
Continuous
 62
     7
370
    25
100
AcDbSpline
210
0.0
220
0.0
230
1.0
 70
     8
 71
     3
 72
    10
 73
     6
 74
     0
 42
0.000000001
 43
0.00000001
 40
0.0
 40
0.0
 40
0.0
 40
0.0
 40
0.5
 40
0.5
 40
1.0
 40
1.0
 40
1.0
 40
1.0
 10
249.6534357715413
 20
40.31520187795236
 30
0.0
 10
249.5549028604654
 20
40.28816035155423
 30
0.0
 10
249.440142310887
 20
40.28941496154581
 30
0.0
 10
249.2217934752863
 20
40.35268663458652
 30
0.0
 10
249.1238984264142
 20
40.41299954420693
 30
0.0
 10
249.049780163623
 20
40.49229677154982
 30
0.0
  0
SPLINE
  5
1FB
330
1F
100
AcDbEntity
  8
0
  6
Continuous
 62
     7
370
    25
100
AcDbSpline
210
0.0
220
0.0
230
1.0
 70
     8
 71
     3
 72
     8
 73
     4
 74
     0
 42
0.000000001
 43
0.00000001
 40
0.0
 40
0.0
 40
0.0
 40
0.0
 40
1.0
 40
1.0
 40
1.0
 40
1.0
 10
252.0043267387021
 20
41.03052356638535
 30
0.0
 10
251.2199770153703
 20
40.7690971537309
 30
0.0
 10
250.4363123835138
 20
40.53005576116726
 30
0.0
 10
249.6534357715413
 20
40.31520187795233
 30
0.0
  0
ARC
  5
1FC
330
1F
100
AcDbEntity
  8
0
  6
Continuous
 62
     7
370
    25
100
AcDbCircle
 10
227.5225340429
 20
41.5160793762
 30
0.0
 40
23.18312597171963
100
AcDbArc
 50
140.2279276209
 51
177.3607126388
  0
LINE
  5
1FD
330
1F
100
AcDbEntity
  8
0
  6
Continuous
 62
     7
370
    25
100
AcDbLine
 10
217.8406167492
 20
29.4668698772
 30
0.0
 11
218.8831644554
 21
28.8648242462
 31
0.0
  0
LINE
  5
1FE
330
1F
100
AcDbEntity
  8
0
  6
Continuous
 62
     7
370
    25
100
AcDbLine
 10
254.3116888234
 20
35.558738408
 30
0.0
 11
254.3116888234
 21
35.1887104934
 31
0.0
  0
ELLIPSE
  5
1FF
330
1F
100
AcDbEntity
  8
0
  6
Continuous
 62
     7
370
    25
100
AcDbEllipse
 10
255.2550869366
 20
26.9004033742
 30
0.0
 11
-4.480554646036808
 21
27.4530292068599
 31
0.0
210
0.0
220
0.0
230
1.0
 40
0.015221913
 41
5.003117319690045
 42
5.016597769045722
  0
LINE
  5
200
330
1F
100
AcDbEntity
  8
0
  6
Continuous
 62
     7
370
    25
100
AcDbLine
 10
254.3710867211
 20
34.8351567935
 30
0.0
 11
254.3710867211
 21
33.9030833015
 31
0.0
  0
ELLIPSE
  5
201
330
1F
100
AcDbEntity
  8
0
  6
Continuous
 62
     7
370
    25
100
AcDbEllipse
 10
255.2550869366
 20
31.3367779132
 30
0.0
 11
4.499999999999972
 21
2.842170943040401E-14
 31
0.0
210
0.0
220
0.0
230
1.0
 40
0.581623042
 41
1.734711576117107
 42
1.768526757798706
  0
ELLIPSE
  5
202
330
1F
100
AcDbEntity
  8
0
  6
Continuous
 62
     7
370
    25
100
AcDbEllipse
 10
255.2550869366
 20
21.1809051438
 30
0.0
 11
4.499999999999972
 21
0.0
 31
0.0
210
0.0
220
0.0
230
1.0
 40
0.581623042
 41
1.570796326794897
 42
2.09065425373937
  0
LINE
  5
203
330
1F
100
AcDbEntity
  8
0
  6
Continuous
 62
     7
370
    25
100
AcDbLine
 10
255.3019310906
 20
23.7982088329
 30
0.0
 11
255.2550869366
 21
23.7982088329
 31
0.0
  0
LINE
  5
204
330
1F
100
AcDbEntity
  8
0
  6
Continuous
 62
     7
370
    25
100
AcDbLine
 10
258.559099874
 20
25.578555538
 30
0.0
 11
259.9286858909
 21
33.8959192982
 31
0.0
  0
ELLIPSE
  5
205
330
1F
100
AcDbEntity
  8
0
  6
Continuous
 62
     7
370
    25
100
AcDbEllipse
 10
234.8946267439
 20
35.7287495312
 30
0.0
 11
31.92253334696721
 21
1.995287197261959
 31
0.0
210
0.0
220
0.0
230
1.0
 40
0.5218336767
 41
5.372898234972292
 42
5.514216128315969
  0
LINE
  5
206
330
1F
100
AcDbEntity
  8
0
  6
Continuous
 62
     7
370
    25
100
AcDbLine
 10
254.3710867211
 20
34.8618159523
 30
0.0
 11
254.3710867211
 21
34.8351567935
 31
0.0
  0
LWPOLYLINE
  5
207
330
1F
100
AcDbEntity
  8
0
  6
Continuous
 62
     7
370
    25
100
AcDbPolyline
 90
        9
 70
   128
 43
0.0
 10
213.9851331867
 20
58.818533841
 10
213.482895792
 20
58.8146055531
 10
212.9526268929
 20
58.7163475411
 10
212.4033995375
 20
58.5254410268
 10
211.8446111579
 20
58.2451524736
 10
211.2858227783
 20
57.8802776964
 10
210.7365954228
 20
57.4370598038
 10
210.2063265238
 20
56.9230823767
 10
209.704089129
 20
56.3471397116
  0
LINE
  5
208
330
1F
100
AcDbEntity
  8
0
  6
Continuous
 62
     7
370
    25
100
AcDbLine
 10
260.1565948389
 20
33.8959192982
 30
0.0
 11
258.8701246945
 21
26.0833102134
 31
0.0
  0
ELLIPSE
  5
209
330
1F
100
AcDbEntity
  8
0
  6
Continuous
 62
     7
370
    25
100
AcDbEllipse
 10
247.5625586183
 20
28.4157081226
 30
0.0
 11
13.74362755307342
 21
17.99796246659593
 31
0.0
210
0.0
220
0.0
230
1.0
 40
0.4710319141
 41
4.908786960222392
 42
4.93542200432082
  0
ARC
  5
20A
330
1F
100
AcDbEntity
  8
0
  6
Continuous
 62
     7
370
    25
100
AcDbCircle
 10
207.434931094
 20
42.296287892
 30
0.0
 40
3.084343446773611
100
AcDbArc
 50
174.6547638622
 51
232.6759834224
  0
ARC
  5
20B
330
1F
100
AcDbEntity
  8
0
  6
Continuous
 62
     7
370
    25
100
AcDbCircle
 10
213.5499107793
 20
53.4788564892
 30
0.0
 40
5.357384881182593
100
AcDbArc
 50
62.0480659028
 51
85.3402793033
  0
LWPOLYLINE
  5
20C
330
1F
100
AcDbEntity
  8
0
  6
Continuous
 62
     7
370
    25
100
AcDbPolyline
 90
       12
 70
   128
 43
0.0
 10
204.1398561717
 20
43.0665257406
 10
204.1868304105
 20
44.232367549
 10
204.327327721
 20
45.4418866151
 10
204.5600757378
 20
46.684129347
 10
204.8829666587
 20
47.9478458021
 10
205.2930763337
 20
49.2215915687
 10
205.7866907459
 20
50.4938314076
 10
206.3593396468
 20
51.753043718
 10
207.0058370394
 20
52.9878248782
 10
207.7203281431
 20
54.1869925188
 10
208.4963424158
 20
55.3396867918
 10
209.3268521521
 20
56.4354687196
  0
ARC
  5
20D
330
1F
100
AcDbEntity
  8
0
  6
Continuous
 62
     7
370
    25
100
AcDbCircle
 10
214.1062114966
 20
52.9772955857
 30
0.0
 40
5.899257340448382
100
AcDbArc
 50
103.4689958683
 51
144.1118487458
  0
ARC
  5
20E
330
1F
100
AcDbEntity
  8
0
  6
Continuous
 62
     7
370
    25
100
AcDbCircle
 10
208.0508938284
 20
42.9884260124
 30
0.0
 40
3.911817367876642
100
AcDbArc
 50
178.8560094402
 51
201.1091694604
  0
LINE
  5
20F
330
1F
100
AcDbEntity
  8
0
  6
Continuous
 62
     7
370
    18
100
AcDbLine
 10
258.1142676151
 20
37.1527977265
 30
0.0
 11
258.1142676151
 21
37.2594045422
 31
0.0
  0
LINE
  5
210
330
1F
100
AcDbEntity
  8
0
  6
Continuous
 62
     7
370
    18
100
AcDbLine
 10
256.5170234171
 20
37.2843324981
 30
0.0
 11
256.5170234171
 21
37.4665842797
 31
0.0
  0
LINE
  5
211
330
1F
100
AcDbEntity
  8
0
  6
Continuous
 62
     7
370
    18
100
AcDbLine
 10
258.1099141872
 20
37.4576656356
 30
0.0
 11
258.1099141872
 21
37.7538482195
 31
0.0
  0
LINE
  5
212
330
1F
100
AcDbEntity
  8
0
  6
Continuous
 62
     7
370
    18
100
AcDbLine
 10
256.8868796269
 20
37.2389373088
 30
0.0
 11
256.8868796269
 21
37.9124887214
 31
0.0
  0
LINE
  5
213
330
1F
100
AcDbEntity
  8
0
  6
Continuous
 62
     7
370
    18
100
AcDbLine
 10
257.7405047765
 20
37.2769041046
 30
0.0
 11
257.7405047765
 21
37.9504081999
 31
0.0
  0
LINE
  5
214
330
1F
100
AcDbEntity
  8
0
  6
Continuous
 62
     7
370
    18
100
AcDbLine
 10
257.3662951388
 20
37.3253957096
 30
0.0
 11
257.3662951388
 21
37.9989471222
 31
0.0
  0
SPLINE
  5
215
330
1F
100
AcDbEntity
  8
0
  6
Continuous
 62
     7
370
    18
100
AcDbSpline
210
0.0
220
0.0
230
1.0
 70
     8
 71
     3
 72
     9
 73
     5
 74
     0
 42
0.000000001
 43
0.00000001
 40
0.0
 40
0.0
 40
0.0
 40
0.0
 40
0.4193885311511422
 40
1.0
 40
1.0
 40
1.0
 40
1.0
 10
260.0219164080655
 20
35.73462667237744
 30
0.0
 10
259.8969395805581
 20
35.72888460411748
 30
0.0
 10
259.5989418571478
 20
35.71519307983041
 30
0.0
 10
259.2657785844473
 20
35.71239084919239
 30
0.0
 10
259.0723401673182
 20
35.71076384194559
 30
0.0
  0
SPLINE
  5
216
330
1F
100
AcDbEntity
  8
0
  6
Continuous
 62
     7
370
    18
100
AcDbSpline
210
0.0
220
0.0
230
1.0
 70
     8
 71
     3
 72
     9
 73
     5
 74
     0
 42
0.000000001
 43
0.00000001
 40
0.0
 40
0.0
 40
0.0
 40
0.0
 40
0.5806114688479984
 40
1.0
 40
1.0
 40
1.0
 40
1.0
 10
255.7423401673182
 20
35.71076384194558
 30
0.0
 10
255.5489017501894
 20
35.71239084919242
 30
0.0
 10
255.2157384774889
 20
35.71519307983053
 30
0.0
 10
254.9177407540764
 20
35.72888460411725
 30
0.0
 10
254.7927639265677
 20
35.73462667237708
 30
0.0
  0
LINE
  5
217
330
1F
100
AcDbEntity
  8
0
  6
Continuous
 62
     7
370
    18
100
AcDbLine
 10
259.0723401673
 20
35.7107638419
 30
0.0
 11
255.7423401673
 21
35.7107638419
 31
0.0
  0
SPLINE
  5
218
330
1F
100
AcDbEntity
  8
0
  6
Continuous
 62
     7
370
    18
100
AcDbSpline
210
0.0
220
0.0
230
1.0
 70
     8
 71
     3
 72
     9
 73
     5
 74
     0
 42
0.000000001
 43
0.00000001
 40
0.0
 40
0.0
 40
0.0
 40
0.0
 40
0.4193885311511457
 40
1.0
 40
1.0
 40
1.0
 40
1.0
 10
260.0219164080655
 20
38.75335214456584
 30
0.0
 10
260.0761597056804
 20
38.70677647866646
 30
0.0
 10
260.2054987161345
 20
38.5957203518536
 30
0.0
 10
260.2319704025725
 20
38.41586883706629
 30
0.0
 10
260.2473401673183
 20
38.31144498489093
 30
0.0
  0
SPLINE
  5
219
330
1F
100
AcDbEntity
  8
0
  6
Continuous
 62
     7
370
    18
100
AcDbSpline
210
0.0
220
0.0
230
1.0
 70
     8
 71
     3
 72
     9
 73
     5
 74
     0
 42
0.000000001
 43
0.00000001
 40
0.0
 40
0.0
 40
0.0
 40
0.0
 40
0.5806114688479951
 40
1.0
 40
1.0
 40
1.0
 40
1.0
 10
260.2473401673182
 20
36.38907690364609
 30
0.0
 10
260.231970402572
 20
36.27016151331354
 30
0.0
 10
260.205498716133
 20
36.06535090120404
 30
0.0
 10
260.0761597056823
 20
35.83234618010874
 30
0.0
 10
260.0219164080688
 20
35.73462667237709
 30
0.0
  0
LINE
  5
21A
330
1F
100
AcDbEntity
  8
0
  6
Continuous
 62
     7
370
    18
100
AcDbLine
 10
260.2473401673
 20
38.3114449849
 30
0.0
 11
260.2473401673
 21
36.3890769036
 31
0.0
  0
SPLINE
  5
21B
330
1F
100
AcDbEntity
  8
0
  6
Continuous
 62
     7
370
    18
100
AcDbSpline
210
0.0
220
0.0
230
1.0
 70
     8
 71
     3
 72
     9
 73
     5
 74
     0
 42
0.000000001
 43
0.00000001
 40
0.0
 40
0.0
 40
0.0
 40
0.0
 40
0.4193885311511363
 40
1.0
 40
1.0
 40
1.0
 40
1.0
 10
254.792763926571
 20
35.73462667237742
 30
0.0
 10
254.7385206289561
 20
35.83234618010898
 30
0.0
 10
254.609181618502
 20
36.06535090120459
 30
0.0
 10
254.5827099320639
 20
36.27016151331362
 30
0.0
 10
254.5673401673182
 20
36.38907690364607
 30
0.0
  0
SPLINE
  5
21C
330
1F
100
AcDbEntity
  8
0
  6
Continuous
 62
     7
370
    18
100
AcDbSpline
210
0.0
220
0.0
230
1.0
 70
     8
 71
     3
 72
     9
 73
     5
 74
     0
 42
0.000000001
 43
0.00000001
 40
0.0
 40
0.0
 40
0.0
 40
0.0
 40
0.5806114688480013
 40
1.0
 40
1.0
 40
1.0
 40
1.0
 10
254.5673401673182
 20
38.31144498489092
 30
0.0
 10
254.5827099320645
 20
38.41586883706587
 30
0.0
 10
254.6091816185035
 20
38.59572035185277
 30
0.0
 10
254.7385206289542
 20
38.70677647866854
 30
0.0
 10
254.7927639265677
 20
38.75335214456924
 30
0.0
  0
LINE
  5
21D
330
1F
100
AcDbEntity
  8
0
  6
Continuous
 62
     7
370
    18
100
AcDbLine
 10
254.5673401673
 20
36.3890769036
 30
0.0
 11
254.5673401673
 21
38.3114449849
 31
0.0
  0
LINE
  5
21E
330
1F
100
AcDbEntity
  8
0
  6
Continuous
 62
     7
370
    18
100
AcDbLine
 10
259.0723401673
 20
35.7107638419
 30
0.0
 11
259.0723401673
 21
35.9128145412
 31
0.0
  0
SPLINE
  5
21F
330
1F
100
AcDbEntity
  8
0
  6
Continuous
 62
     7
370
    18
100
AcDbSpline
210
0.0
220
0.0
230
1.0
 70
     8
 71
     3
 72
     9
 73
     5
 74
     0
 42
0.000000001
 43
0.00000001
 40
0.0
 40
0.0
 40
0.0
 40
0.0
 40
0.664509435848024
 40
1.0
 40
1.0
 40
1.0
 40
1.0
 10
259.0723401673182
 20
35.91281454117551
 30
0.0
 10
259.2338350385305
 20
35.91097503617579
 30
0.0
 10
259.4768637488845
 20
35.90820682115807
 30
0.0
 10
259.7016200029003
 20
35.9031003697617
 30
0.0
 10
259.7770236053568
 20
35.90138720350192
 30
0.0
  0
SPLINE
  5
220
330
1F
100
AcDbEntity
  8
0
  6
Continuous
 62
     7
370
    18
100
AcDbSpline
210
0.0
220
0.0
230
1.0
 70
     8
 71
     3
 72
     9
 73
     5
 74
     0
 42
0.000000001
 43
0.00000001
 40
0.0
 40
0.0
 40
0.0
 40
0.0
 40
0.3354905641519598
 40
1.0
 40
1.0
 40
1.0
 40
1.0
 10
255.0376567292797
 20
35.9013872035019
 30
0.0
 10
255.1130603317361
 20
35.90310036976168
 30
0.0
 10
255.3378165857519
 20
35.90820682115805
 30
0.0
 10
255.580845296106
 20
35.91097503617578
 30
0.0
 10
255.7423401673182
 20
35.91281454117551
 30
0.0
  0
SPLINE
  5
221
330
1F
100
AcDbEntity
  8
0
  6
Continuous
 62
     7
370
    18
100
AcDbSpline
210
0.0
220
0.0
230
1.0
 70
    24
 71
     3
 72
    10
 73
     6
 74
     0
 42
0.000000001
 43
0.00000001
 40
0.0
 40
0.0
 40
0.0
 40
0.0
 40
0.2765306019330128
 40
0.5626682704062455
 40
1.0
 40
1.0
 40
1.0
 40
1.0
 10
255.7423401673182
 20
35.71076384194558
 30
0.0
 10
255.7423401673182
 20
35.71675137332869
 30
0.0
 10
255.7423401673182
 20
35.72893445145382
 30
0.0
 10
255.7423401673182
 20
35.79194474702134
 30
0.0
 10
255.7423401673182
 20
35.8672768561462
 30
0.0
 10
255.7423401673182
 20
35.91281454117551
 30
0.0
  0
LINE
  5
222
330
1F
100
AcDbEntity
  8
0
  6
Continuous
 62
     7
370
    18
100
AcDbLine
 10
255.7423401673
 20
35.9128145412
 30
0.0
 11
259.0723401673
 21
35.9128145412
 31
0.0
  0
LINE
  5
223
330
1F
100
AcDbEntity
  8
0
  6
Continuous
 62
     7
370
    18
100
AcDbLine
 10
259.8973401673
 20
36.3890769036
 30
0.0
 11
259.5723401673
 21
36.5422916723
 31
0.0
  0
SPLINE
  5
224
330
1F
100
AcDbEntity
  8
0
  6
Continuous
 62
     7
370
    18
100
AcDbSpline
210
0.0
220
0.0
230
1.0
 70
     8
 71
     3
 72
     9
 73
     5
 74
     0
 42
0.000000001
 43
0.00000001
 40
0.0
 40
0.0
 40
0.0
 40
0.0
 40
0.3354905641519777
 40
1.0
 40
1.0
 40
1.0
 40
1.0
 10
259.7770236053568
 20
35.90138720350192
 30
0.0
 10
259.8010518893709
 20
35.96050117601065
 30
0.0
 10
259.8726732301226
 20
36.13670277100382
 30
0.0
 10
259.8874925736868
 20
36.28832349913366
 30
0.0
 10
259.8973401673182
 20
36.38907690364609
 30
0.0
  0
LINE
  5
225
330
1F
100
AcDbEntity
  8
0
  6
Continuous
 62
     7
370
    18
100
AcDbLine
 10
259.0723401673
 20
35.9128145412
 30
0.0
 11
259.0723401673
 21
36.2536478163
 31
0.0
  0
LINE
  5
226
330
1F
100
AcDbEntity
  8
0
  6
Continuous
 62
     7
370
    18
100
AcDbLine
 10
254.9173401673
 20
36.3890769036
 30
0.0
 11
255.2423401672
 21
36.5422916723
 31
0.0
  0
LINE
  5
227
330
1F
100
AcDbEntity
  8
0
  6
Continuous
 62
     7
370
    18
100
AcDbLine
 10
255.7423401673
 20
35.9128145412
 30
0.0
 11
255.7423401673
 21
36.2536478163
 31
0.0
  0
SPLINE
  5
228
330
1F
100
AcDbEntity
  8
0
  6
Continuous
 62
     7
370
    18
100
AcDbSpline
210
0.0
220
0.0
230
1.0
 70
     8
 71
     3
 72
     9
 73
     5
 74
     0
 42
0.000000001
 43
0.00000001
 40
0.0
 40
0.0
 40
0.0
 40
0.0
 40
0.6645094358480279
 40
0.9999999999999999
 40
0.9999999999999999
 40
0.9999999999999999
 40
0.9999999999999999
 10
254.9173401673183
 20
36.38907690364607
 30
0.0
 10
254.9271877609497
 20
36.28832349913364
 30
0.0
 10
254.9420071045138
 20
36.13670277100379
 30
0.0
 10
255.0136284452655
 20
35.96050117601063
 30
0.0
 10
255.0376567292797
 20
35.9013872035019
 30
0.0
  0
SPLINE
  5
229
330
1F
100
AcDbEntity
  8
0
  6
Continuous
 62
     7
370
    18
100
AcDbSpline
210
0.0
220
0.0
230
1.0
 70
     8
 71
     3
 72
    10
 73
     6
 74
     0
 42
0.000000001
 43
0.00000001
 40
0.0
 40
0.0
 40
0.0
 40
0.0
 40
0.276530601933024
 40
0.5626682704062582
 40
1.0
 40
1.0
 40
1.0
 40
1.0
 10
260.2473401673182
 20
36.38907690364609
 30
0.0
 10
260.2167922893937
 20
36.37742952047306
 30
0.0
 10
260.1546352568039
 20
36.35373010746446
 30
0.0
 10
260.0297492872975
 20
36.34464526742401
 30
0.0
 10
259.9472252924053
 20
36.37233728834537
 30
0.0
 10
259.8973401673182
 20
36.38907690364609
 30
0.0
  0
SPLINE
  5
22A
330
1F
100
AcDbEntity
  8
0
  6
Continuous
 62
     7
370
    18
100
AcDbSpline
210
0.0
220
0.0
230
1.0
 70
     8
 71
     3
 72
    10
 73
     6
 74
     0
 42
0.000000001
 43
0.00000001
 40
0.0
 40
0.0
 40
0.0
 40
0.0
 40
0.2765306019330213
 40
0.5626682704062526
 40
1.0
 40
1.0
 40
1.0
 40
1.0
 10
254.9173401673182
 20
36.38907690364608
 30
0.0
 10
254.8867922893936
 20
36.37742952047305
 30
0.0
 10
254.8246352568039
 20
36.35373010746444
 30
0.0
 10
254.6997492872975
 20
36.34464526742399
 30
0.0
 10
254.6172252924053
 20
36.37233728834535
 30
0.0
 10
254.5673401673182
 20
36.38907690364607
 30
0.0
  0
LINE
  5
22B
330
1F
100
AcDbEntity
  8
0
  6
Continuous
 62
     7
370
    18
100
AcDbLine
 10
259.8973401673
 20
38.3114449849
 30
0.0
 11
259.5723401673
 21
38.4646597536
 31
0.0
  0
LINE
  5
22C
330
1F
100
AcDbEntity
  8
0
  6
Continuous
 62
     7
370
    18
100
AcDbLine
 10
259.8973401673
 20
36.3890769036
 30
0.0
 11
259.8973401673
 21
38.3114449849
 31
0.0
  0
LINE
  5
22D
330
1F
100
AcDbEntity
  8
0
  6
Continuous
 62
     7
370
    18
100
AcDbLine
 10
254.9173401673
 20
38.3114449849
 30
0.0
 11
254.9173401673
 21
36.3890769036
 31
0.0
  0
LINE
  5
22E
330
1F
100
AcDbEntity
  8
0
  6
Continuous
 62
     7
370
    18
100
AcDbLine
 10
254.9173401673
 20
38.3114449849
 30
0.0
 11
255.2423401673
 21
38.4646597536
 31
0.0
  0
ARC
  5
22F
330
1F
100
AcDbEntity
  8
0
  6
Continuous
 62
     7
370
    18
100
AcDbCircle
 10
260.0723401673
 20
38.6906024728
 30
0.0
 40
0.4175947804105876
100
AcDbArc
 50
245.2243316833
 51
294.7756683167
  0
ARC
  5
230
330
1F
100
AcDbEntity
  8
0
  6
Continuous
 62
     7
370
    18
100
AcDbCircle
 10
254.7423401673
 20
38.6906024728
 30
0.0
 40
0.4175947804106576
100
AcDbArc
 50
245.2243316833
 51
294.7756683167
  0
LINE
  5
231
330
1F
100
AcDbEntity
  8
0
  6
Continuous
 62
     7
370
    18
100
AcDbLine
 10
259.2092564535
 20
37.1556160587
 30
0.0
 11
259.1208942825
 21
37.3352508713
 31
0.0
  0
LINE
  5
232
330
1F
100
AcDbEntity
  8
0
  6
Continuous
 62
     7
370
    18
100
AcDbLine
 10
255.6222873768
 20
37.2011987724
 30
0.0
 11
255.6054238812
 21
37.1556160587
 31
0.0
  0
LINE
  5
233
330
1F
100
AcDbEntity
  8
0
  6
Continuous
 62
     7
370
    18
100
AcDbLine
 10
259.0723401673
 20
38.7877073474
 30
0.0
 11
259.0723401673
 21
38.7533036096
 31
0.0
  0
SPLINE
  5
234
330
1F
100
AcDbEntity
  8
0
  6
Continuous
 62
     7
370
    18
100
AcDbSpline
210
0.0
220
0.0
230
1.0
 70
     8
 71
     3
 72
     9
 73
     5
 74
     0
 42
0.000000001
 43
0.00000001
 40
0.0
 40
0.0
 40
0.0
 40
0.0
 40
0.3354905641519711
 40
0.9999999999999999
 40
0.9999999999999999
 40
0.9999999999999999
 40
0.9999999999999999
 10
259.7770236053568
 20
38.63736546412645
 30
0.0
 10
259.7016200029004
 20
38.66682109659394
 30
0.0
 10
259.4768637488845
 20
38.75461978786848
 30
0.0
 10
259.2338350385305
 20
38.77449805276769
 30
0.0
 10
259.0723401673183
 20
38.7877073473615
 30
0.0
  0
SPLINE
  5
235
330
1F
100
AcDbEntity
  8
0
  6
Continuous
 62
     7
370
    18
100
AcDbSpline
210
0.0
220
0.0
230
1.0
 70
     8
 71
     3
 72
     9
 73
     5
 74
     0
 42
0.000000001
 43
0.00000001
 40
0.0
 40
0.0
 40
0.0
 40
0.0
 40
0.6645094358480367
 40
1.0
 40
1.0
 40
1.0
 40
1.0
 10
259.8973401673182
 20
38.31144498489093
 30
0.0
 10
259.8874925736868
 20
38.39714958980982
 30
0.0
 10
259.8726732301226
 20
38.52612383802273
 30
0.0
 10
259.8010518893709
 20
38.60942029034501
 30
0.0
 10
259.7770236053568
 20
38.63736546412645
 30
0.0
  0
SPLINE
  5
236
330
1F
100
AcDbEntity
  8
0
  6
Continuous
 62
     7
370
    18
100
AcDbSpline
210
0.0
220
0.0
230
1.0
 70
     8
 71
     3
 72
     9
 73
     5
 74
     0
 42
0.000000001
 43
0.00000001
 40
0.0
 40
0.0
 40
0.0
 40
0.0
 40
0.3354905641519789
 40
1.0
 40
1.0
 40
1.0
 40
1.0
 10
255.0376567292797
 20
38.63736546412643
 30
0.0
 10
255.0136284452656
 20
38.60942029034499
 30
0.0
 10
254.9420071045138
 20
38.52612383802271
 30
0.0
 10
254.9271877609497
 20
38.39714958980981
 30
0.0
 10
254.9173401673183
 20
38.31144498489092
 30
0.0
  0
SPLINE
  5
237
330
1F
100
AcDbEntity
  8
0
  6
Continuous
 62
     7
370
    18
100
AcDbSpline
210
0.0
220
0.0
230
1.0
 70
     8
 71
     3
 72
     9
 73
     5
 74
     0
 42
0.000000001
 43
0.00000001
 40
0.0
 40
0.0
 40
0.0
 40
0.0
 40
0.6645094358480386
 40
1.0
 40
1.0
 40
1.0
 40
1.0
 10
255.7423401673182
 20
38.78770734736148
 30
0.0
 10
255.580845296106
 20
38.77449805276767
 30
0.0
 10
255.337816585752
 20
38.75461978786846
 30
0.0
 10
255.1130603317361
 20
38.66682109659393
 30
0.0
 10
255.0376567292797
 20
38.63736546412643
 30
0.0
  0
LINE
  5
238
330
1F
100
AcDbEntity
  8
0
  6
Continuous
 62
     7
370
    18
100
AcDbLine
 10
255.7423401673
 20
38.7877073474
 30
0.0
 11
255.7423401673
 21
38.7533036096
 31
0.0
  0
LINE
  5
239
330
1F
100
AcDbEntity
  8
0
  6
Continuous
 62
     7
370
    18
100
AcDbLine
 10
259.0723401673
 20
38.7877073474
 30
0.0
 11
255.7423401673
 21
38.7877073474
 31
0.0
  0
LINE
  5
23A
330
1F
100
AcDbEntity
  8
0
  6
Continuous
 62
     7
370
    18
100
AcDbLine
 10
259.0723401673
 20
38.7877073474
 30
0.0
 11
259.0723401673
 21
38.9897580466
 31
0.0
  0
SPLINE
  5
23B
330
1F
100
AcDbEntity
  8
0
  6
Continuous
 62
     7
370
    18
100
AcDbSpline
210
0.0
220
0.0
230
1.0
 70
     8
 71
     3
 72
     9
 73
     5
 74
     0
 42
0.000000001
 43
0.00000001
 40
0.0
 40
0.0
 40
0.0
 40
0.0
 40
0.5806114688480019
 40
1.0
 40
1.0
 40
1.0
 40
1.0
 10
259.0723401673182
 20
38.98975804659145
 30
0.0
 10
259.2657785844471
 20
38.973639501187
 30
0.0
 10
259.5989418571476
 20
38.94587817322626
 30
0.0
 10
259.8969395805602
 20
38.81023805466003
 30
0.0
 10
260.0219164080688
 20
38.75335214456926
 30
0.0
  0
SPLINE
  5
23C
330
1F
100
AcDbEntity
  8
0
  6
Continuous
 62
     7
370
    18
100
AcDbSpline
210
0.0
220
0.0
230
1.0
 70
     8
 71
     3
 72
     9
 73
     5
 74
     0
 42
0.000000001
 43
0.00000001
 40
0.0
 40
0.0
 40
0.0
 40
0.0
 40
0.419388531151997
 40
1.0
 40
1.0
 40
1.0
 40
1.0
 10
254.7927639265677
 20
38.75335214456924
 30
0.0
 10
254.9177407540764
 20
38.81023805466002
 30
0.0
 10
255.2157384774889
 20
38.94587817322624
 30
0.0
 10
255.5489017501894
 20
38.97363950118698
 30
0.0
 10
255.7423401673182
 20
38.98975804659143
 30
0.0
  0
SPLINE
  5
23D
330
1F
100
AcDbEntity
  8
0
  6
Continuous
 62
     7
370
    18
100
AcDbSpline
210
0.0
220
0.0
230
1.0
 70
    24
 71
     3
 72
    10
 73
     6
 74
     0
 42
0.000000001
 43
0.00000001
 40
0.0
 40
0.0
 40
0.0
 40
0.0
 40
0.2765306019330138
 40
0.5626682704062516
 40
1.0
 40
1.0
 40
1.0
 40
1.0
 10
255.7423401673182
 20
38.78770734736148
 30
0.0
 10
255.7423401673182
 20
38.7936948787446
 30
0.0
 10
255.7423401673182
 20
38.80587795686974
 30
0.0
 10
255.7423401673182
 20
38.86888825243726
 30
0.0
 10
255.7423401673182
 20
38.94422036156212
 30
0.0
 10
255.7423401673182
 20
38.98975804659143
 30
0.0
  0
LINE
  5
23E
330
1F
100
AcDbEntity
  8
0
  6
Continuous
 62
     7
370
    18
100
AcDbLine
 10
255.7423401673
 20
38.9897580466
 30
0.0
 11
259.0723401673
 21
38.9897580466
 31
0.0
  0
LWPOLYLINE
  5
23F
330
1F
100
AcDbEntity
  8
0
  6
Continuous
 62
     7
370
    18
100
AcDbPolyline
 90
       25
 70
   128
 43
0.0
 10
213.7891548061
 20
35.0542513774
 10
213.8303817795
 20
36.1836030258
 10
213.9537574693
 20
37.3521929998
 10
214.1583684452
 20
38.5513694682
 10
214.4426998391
 20
39.772254148
 10
214.8046465608
 20
41.0058080362
 10
215.2415288835
 20
42.2428983313
 10
215.7501122832
 20
43.4743660497
 10
216.3266313865
 20
44.6910938351
 10
216.9668178476
 20
45.8840734608
 10
217.6659319498
 20
47.0444725231
 10
218.4187976971
 20
48.1636998331
 10
219.2198411348
 20
49.2334690236
 10
220.0631316175
 20
50.2458598976
 10
220.9424257177
 20
51.1933770675
 10
221.8512134492
 20
52.0690054475
 10
222.7827664659
 20
52.8662621915
 10
223.730187875
 20
53.5792446895
 10
224.6864633
 20
54.2026742685
 10
225.6445128121
 20
54.7319352741
 10
226.597243348
 20
55.1631092429
 10
227.537601224
 20
55.4930039138
 10
228.4586243596
 20
55.7191768619
 10
229.3534938215
 20
55.8399535819
 10
229.4228265202
 20
55.8449677615
  0
ARC
  5
240
330
1F
100
AcDbEntity
  8
0
  6
Continuous
 62
     7
370
    18
100
AcDbCircle
 10
224.3914347953
 20
34.801731645
 30
0.0
 40
10.60528675629934
100
AcDbArc
 50
178.6356161101
 51
204.68825633
  0
ARC
  5
241
330
1F
100
AcDbEntity
  8
0
  6
Continuous
 62
     7
370
    18
100
AcDbCircle
 10
237.6886301078
 20
27.3443754308
 30
0.0
 40
10.91616030235473
100
AcDbArc
 50
178.4791450416
 51
202.1945272987
  0
LINE
  5
242
330
1F
100
AcDbEntity
  8
0
  6
Continuous
 62
     7
370
    18
100
AcDbLine
 10
225.6623931702
 20
30.0050315407
 30
0.0
 11
247.7423804885
 21
42.7515369026
 31
0.0
  0
LINE
  5
243
330
1F
100
AcDbEntity
  8
0
  6
Continuous
 62
     7
370
    18
100
AcDbLine
 10
227.4382136315
 20
26.8488083359
 30
0.0
 11
252.0043267387
 21
41.0305235664
 31
0.0
  0
LINE
  5
244
330
1F
100
AcDbEntity
  8
0
  6
Continuous
 62
     7
370
    18
100
AcDbLine
 10
253.0196811606
 20
35.2711281046
 30
0.0
 11
253.0196811606
 21
23.4524362254
 31
0.0
  0
LINE
  5
245
330
1F
100
AcDbEntity
  8
0
  6
Continuous
 62
     7
370
    18
100
AcDbLine
 10
226.1932844541
 20
49.1957561375
 30
0.0
 11
224.8398084644
 21
46.8514669634
 31
0.0
  0
LINE
  5
246
330
1F
100
AcDbEntity
  8
0
  6
Continuous
 62
     7
370
    18
100
AcDbLine
 10
220.2352162355
 20
38.8760792982
 30
0.0
 11
218.8816498899
 21
36.5316336231
 31
0.0
  0
LINE
  5
247
330
1F
100
AcDbEntity
  8
0
  6
Continuous
 62
     7
370
    18
100
AcDbLine
 10
225.1522513134
 20
49.7967317775
 30
0.0
 11
217.8406167492
 21
37.1326092631
 31
0.0
  0
LINE
  5
248
330
1F
100
AcDbEntity
  8
0
  6
Continuous
 62
     7
370
    18
100
AcDbLine
 10
224.8148498004
 20
49.7102244152
 30
0.0
 11
217.7468320444
 21
37.4680585888
 31
0.0
  0
LINE
  5
249
330
1F
100
AcDbEntity
  8
0
  6
Continuous
 62
     7
370
    18
100
AcDbLine
 10
209.704089129
 20
56.3471397116
 30
0.0
 11
220.1147890705
 21
50.4491531006
 31
0.0
  0
LINE
  5
24A
330
1F
100
AcDbEntity
  8
0
  6
Continuous
 62
     7
370
    18
100
AcDbLine
 10
204.3640000397
 20
42.5836151575
 30
0.0
 11
213.8152960114
 21
36.8462796407
 31
0.0
  0
LINE
  5
24B
330
1F
100
AcDbEntity
  8
0
  6
Continuous
 62
     7
370
    18
100
AcDbLine
 10
255.2550869366
 20
33.8959192982
 30
0.0
 11
255.2550869366
 21
23.7982088329
 31
0.0
  0
LINE
  5
24C
330
1F
100
AcDbEntity
  8
0
  6
Continuous
 62
     7
370
    18
100
AcDbLine
 10
233.1686184598
 20
52.9775331687
 30
0.0
 11
231.8218320444
 21
53.7552691634
 31
0.0
  0
LINE
  5
24D
330
1F
100
AcDbEntity
  8
0
  6
Continuous
 62
     7
370
    18
100
AcDbLine
 10
217.7468320444
 20
29.3766541184
 30
0.0
 11
219.0942493339
 21
28.5985538094
 31
0.0
  0
LINE
  5
24E
330
1F
100
AcDbEntity
  8
0
  6
Continuous
 62
     7
370
    18
100
AcDbLine
 10
213.9851331867
 20
58.818533841
 30
0.0
 11
223.647183405
 21
53.6188916735
 31
0.0
  0
LINE
  5
24F
330
1F
100
AcDbEntity
  8
0
  6
Continuous
 62
     7
370
    18
100
AcDbLine
 10
209.3268521521
 20
56.4354687196
 30
0.0
 11
209.704089129
 21
56.3471397116
 31
0.0
  0
LINE
  5
250
330
1F
100
AcDbEntity
  8
0
  6
Continuous
 62
     7
370
    18
100
AcDbLine
 10
204.1398561717
 20
43.0665257406
 30
0.0
 11
204.3640000397
 21
42.5836151575
 31
0.0
  0
OLE2FRAME
  5
251
330
1F
100
AcDbEntity
  8
0
100
AcDbOle2Frame
 70
     2
  3
Paintbrush-Bild
 10
13.8511154363
 20
38.264191557
 30
0.0
 11
51.6290888628
 21
31.9806341108
 31
0.0
 71
     2
 72
     0
 73
     1
 90
    12928
310
80552BED0767C5B32B40DDAF6807D121434000000000000000006FFBDDFB85D0
310
4940DDAF6807D121434000000000000000006FFBDDFB85D04940416F4BD60AFB
310
3F4000000000000000002BED0767C5B32B40416F4BD60AFB3F40000000000000
310
0000000000000100000000010000010000000100000000000100000000320000
310
D0CF11E0A1B11AE1000000000000000000000000000000003E000300FEFF0900
310
0600000000000000000000000100000001000000000000000010000002000000
310
01000000FEFFFFFF0000000000000000FFFFFFFFFFFFFFFFFFFFFFFFFFFFFFFF
310
FFFFFFFFFFFFFFFFFFFFFFFFFFFFFFFFFFFFFFFFFFFFFFFFFFFFFFFFFFFFFFFF
310
FFFFFFFFFFFFFFFFFFFFFFFFFFFFFFFFFFFFFFFFFFFFFFFFFFFFFFFFFFFFFFFF
310
FFFFFFFFFFFFFFFFFFFFFFFFFFFFFFFFFFFFFFFFFFFFFFFFFFFFFFFFFFFFFFFF
310
FFFFFFFFFFFFFFFFFFFFFFFFFFFFFFFFFFFFFFFFFFFFFFFFFFFFFFFFFFFFFFFF
310
FFFFFFFFFFFFFFFFFFFFFFFFFFFFFFFFFFFFFFFFFFFFFFFFFFFFFFFFFFFFFFFF
310
FFFFFFFFFFFFFFFFFFFFFFFFFFFFFFFFFFFFFFFFFFFFFFFFFFFFFFFFFFFFFFFF
310
FFFFFFFFFFFFFFFFFFFFFFFFFFFFFFFFFFFFFFFFFFFFFFFFFFFFFFFFFFFFFFFF
310
FFFFFFFFFFFFFFFFFFFFFFFFFFFFFFFFFFFFFFFFFFFFFFFFFFFFFFFFFFFFFFFF
310
FFFFFFFFFFFFFFFFFFFFFFFFFFFFFFFFFFFFFFFFFFFFFFFFFFFFFFFFFFFFFFFF
310
FFFFFFFFFFFFFFFFFFFFFFFFFFFFFFFFFFFFFFFFFFFFFFFFFFFFFFFFFFFFFFFF
310
FFFFFFFFFFFFFFFFFFFFFFFFFFFFFFFFFFFFFFFFFFFFFFFFFFFFFFFFFFFFFFFF
310
FFFFFFFFFFFFFFFFFFFFFFFFFFFFFFFFFFFFFFFFFFFFFFFFFFFFFFFFFFFFFFFF
310
FFFFFFFFFFFFFFFFFFFFFFFFFFFFFFFFFFFFFFFFFFFFFFFFFFFFFFFFFFFFFFFF
310
FDFFFFFFFEFFFFFFFEFFFFFFFEFFFFFF05000000060000000700000008000000
310
090000000A0000000B0000000C0000000D0000000E0000000F00000010000000
310
11000000120000001300000014000000150000001600000017000000FEFFFFFF
310
FFFFFFFFFFFFFFFFFFFFFFFFFFFFFFFFFFFFFFFFFFFFFFFFFFFFFFFFFFFFFFFF
310
FFFFFFFFFFFFFFFFFFFFFFFFFFFFFFFFFFFFFFFFFFFFFFFFFFFFFFFFFFFFFFFF
310
FFFFFFFFFFFFFFFFFFFFFFFFFFFFFFFFFFFFFFFFFFFFFFFFFFFFFFFFFFFFFFFF
310
FFFFFFFFFFFFFFFFFFFFFFFFFFFFFFFFFFFFFFFFFFFFFFFFFFFFFFFFFFFFFFFF
310
FFFFFFFFFFFFFFFFFFFFFFFFFFFFFFFFFFFFFFFFFFFFFFFFFFFFFFFFFFFFFFFF
310
FFFFFFFFFFFFFFFFFFFFFFFFFFFFFFFFFFFFFFFFFFFFFFFFFFFFFFFFFFFFFFFF
310
FFFFFFFFFFFFFFFFFFFFFFFFFFFFFFFFFFFFFFFFFFFFFFFFFFFFFFFFFFFFFFFF
310
FFFFFFFFFFFFFFFFFFFFFFFFFFFFFFFFFFFFFFFFFFFFFFFFFFFFFFFFFFFFFFFF
310
FFFFFFFFFFFFFFFFFFFFFFFFFFFFFFFFFFFFFFFFFFFFFFFFFFFFFFFFFFFFFFFF
310
FFFFFFFFFFFFFFFFFFFFFFFFFFFFFFFFFFFFFFFFFFFFFFFFFFFFFFFFFFFFFFFF
310
FFFFFFFFFFFFFFFFFFFFFFFFFFFFFFFFFFFFFFFFFFFFFFFFFFFFFFFFFFFFFFFF
310
FFFFFFFFFFFFFFFFFFFFFFFFFFFFFFFFFFFFFFFFFFFFFFFFFFFFFFFFFFFFFFFF
310
FFFFFFFFFFFFFFFFFFFFFFFFFFFFFFFFFFFFFFFFFFFFFFFFFFFFFFFFFFFFFFFF
310
52006F006F007400200045006E00740072007900000000000000000000000000
310
0000000000000000000000000000000000000000000000000000000000000000
310
16000500FFFFFFFFFFFFFFFF020000000A00030000000000C000000000000046
310
000000000000000000000000702ED767E5A3D30103000000C000000000000000
310
01004F006C006500000000000000000000000000000000000000000000000000
310
0000000000000000000000000000000000000000000000000000000000000000
310
0A000200FFFFFFFFFFFFFFFFFFFFFFFF00000000000000000000000000000000
310
0000000000000000000000000000000000000000000000001400000000000000
310
010043006F006D0070004F0062006A0000000000000000000000000000000000
310
0000000000000000000000000000000000000000000000000000000000000000
310
120002010100000003000000FFFFFFFF00000000000000000000000000000000
310
0000000000000000000000000000000000000000010000004D00000000000000
310
01004F006C006500310030004E00610074006900760065000000000000000000
310
0000000000000000000000000000000000000000000000000000000000000000
310
1A000200FFFFFFFFFFFFFFFFFFFFFFFF00000000000000000000000000000000
310
0000000000000000000000000000000000000000040000002426000000000000
310
FEFFFFFF02000000FEFFFFFFFFFFFFFFFFFFFFFFFFFFFFFFFFFFFFFFFFFFFFFF
310
FFFFFFFFFFFFFFFFFFFFFFFFFFFFFFFFFFFFFFFFFFFFFFFFFFFFFFFFFFFFFFFF
310
FFFFFFFFFFFFFFFFFFFFFFFFFFFFFFFFFFFFFFFFFFFFFFFFFFFFFFFFFFFFFFFF
310
FFFFFFFFFFFFFFFFFFFFFFFFFFFFFFFFFFFFFFFFFFFFFFFFFFFFFFFFFFFFFFFF
310
FFFFFFFFFFFFFFFFFFFFFFFFFFFFFFFFFFFFFFFFFFFFFFFFFFFFFFFFFFFFFFFF
310
FFFFFFFFFFFFFFFFFFFFFFFFFFFFFFFFFFFFFFFFFFFFFFFFFFFFFFFFFFFFFFFF
310
FFFFFFFFFFFFFFFFFFFFFFFFFFFFFFFFFFFFFFFFFFFFFFFFFFFFFFFFFFFFFFFF
310
FFFFFFFFFFFFFFFFFFFFFFFFFFFFFFFFFFFFFFFFFFFFFFFFFFFFFFFFFFFFFFFF
310
FFFFFFFFFFFFFFFFFFFFFFFFFFFFFFFFFFFFFFFFFFFFFFFFFFFFFFFFFFFFFFFF
310
FFFFFFFFFFFFFFFFFFFFFFFFFFFFFFFFFFFFFFFFFFFFFFFFFFFFFFFFFFFFFFFF
310
FFFFFFFFFFFFFFFFFFFFFFFFFFFFFFFFFFFFFFFFFFFFFFFFFFFFFFFFFFFFFFFF
310
FFFFFFFFFFFFFFFFFFFFFFFFFFFFFFFFFFFFFFFFFFFFFFFFFFFFFFFFFFFFFFFF
310
FFFFFFFFFFFFFFFFFFFFFFFFFFFFFFFFFFFFFFFFFFFFFFFFFFFFFFFFFFFFFFFF
310
FFFFFFFFFFFFFFFFFFFFFFFFFFFFFFFFFFFFFFFFFFFFFFFFFFFFFFFFFFFFFFFF
310
FFFFFFFFFFFFFFFFFFFFFFFFFFFFFFFFFFFFFFFFFFFFFFFFFFFFFFFFFFFFFFFF
310
FFFFFFFFFFFFFFFFFFFFFFFFFFFFFFFFFFFFFFFFFFFFFFFFFFFFFFFFFFFFFFFF
310
0100000200000000000000000000000000000000000000000000000000000000
310
0000000000000000000000000000000000000000000000000000000000000000
310
0100FEFF030A0000FFFFFFFF0A00030000000000C00000000000004607000000
310
5042727573680007000000504272757368000700000050427275736800F439B2
310
7100000000000000000000000000000000000000000000000000000000000000
310
0000000000000000000000000000000000000000000000000000000000000000
310
0000000000000000000000000000000000000000000000000000000000000000
310
0000000000000000000000000000000000000000000000000000000000000000
310
0000000000000000000000000000000000000000000000000000000000000000
310
0000000000000000000000000000000000000000000000000000000000000000
310
0000000000000000000000000000000000000000000000000000000000000000
310
0000000000000000000000000000000000000000000000000000000000000000
310
0000000000000000000000000000000000000000000000000000000000000000
310
0000000000000000000000000000000000000000000000000000000000000000
310
0000000000000000000000000000000000000000000000000000000000000000
310
0000000000000000000000000000000000000000000000000000000000000000
310
20260000424D0E260000000000003E00000028000000B40200006E0000000100
310
01000000000000000000130B0000130B00000200000002000000000000FFFFFF
310
FFFFFFFFFFFFFFFFFFFFFFFFFFFFFFFFFFFFFFFFFFFFFFFFFFFFFFFFFFFFFFFF
310
FFFFFFFFFFFFFFFFFFFFFFFFFFFFFFFFFFFFFFFFFFFFFFFFFFFFFFFFFFFFFFFF
310
FFFFFFFFFFFFFFFFFFFFFFFFFFFFFFFFFFFFFFFFFFFFFFFFF000FFFFFFFFFFFF
310
FFFFFFFFFFFFFFFFFFFFFFFFFFFFFFFFFFFFFFFFFFFFFFFFFFFFFFFFFFFFFFFF
310
FFFFFFFFFFFFFFFFFFFFFFFFFFFFFFFFFFFFFFFFFFFFFFFFFFFFFFFFFFFFFFFF
310
FFFFFFFFFFFFFFFFFFFFFFFFFFFFFFFFF000FFFFFFFFFFFFFFFFFFFFFFFFFFFF
310
FFFFFFFFFFFFFFFFFFFFFFFFFFFFFFFFFFFFFFFFFFFFFFFFFFFFFFFFFFFFFFFF
310
FFFFFFFFFFFFFFFFFFFFFFFFFFFFFFFFFFFFFFFFFFFFFFFFFFFFFFFFFFFFFFFF
310
FFFFFFFFFFFFFFFFF000FFFFFFFFFFFFFFFFFFFFFFFFFFFFFFFFFFFFFFFFFFFF
310
FFFFFFFFFFFFFFFFFFFFFFFFFFFFFFFFFFFFFFFFFFFFFFFFFFFFFFFFFFFFFFFF
310
FFFFFFFFFFFFFFFFFFFFFFFFFFFFFFFFFFFFFFFFFFFFFFFFFFFFFFFFFFFFFFFF
310
F000FFFFFFFFFFFFFFFFFFFFFFFFFFFFFFFFFFFFFFFFFFFFFFFFFFFFFFFFFFFF
310
FFFFFFFFFFFFFFFFFFFFFFFFFFFFFFFFFFFFFFFFFFFFFFFFFFFFFFFFFFFFFFFF
310
FFFFFFFFFFFFFFFFFFFFFFFFFFFFFFFFFFFFFFFFFFFFFFFFF000FFFFFFFFFFFF
310
FFFFFFFFFFFFFFFFFFFFFFFFFFFFFFFFFFFFFFFFFFFFFFFFFFFFFFFFFFFFFFFF
310
FFFFFFFFFFFFFFFFFFFFFFFFFFFFFFFFFFFFFFFFFFFFFFFFFFFFFFFFFFFFFFFF
310
FFFFFFFFFFFFFFFFFFFFFFFFFFFFFFFFF000FFFFFFFFFFFFFFFFFFFFFFFFFFFF
310
FFFFFFFFFFFFFFFFFFFFFFFFFFFFFFFFFFFFFFFFFFFFFFFFFFFFFFFFFFFFFFFF
310
FFFFFFFFFFFFFFFFFFFFFFFFFFFFFFFFFFFFFFFFFFFFFFFFFFFFFFFFFFFFFFFF
310
FFFFFFFFFFFFFFFFF000FFFFFFFFFFFFFFFFFFFFFFFFFFFFFFFFFFFFFFFFFFFF
310
FFFFFFFFFFFFFFFFFFFFFFFFFFFFFFFFFFFFFFFFFFFFFFFFFFFFFFFFFFFFFFFF
310
FFFFFFFFFFFFFFFFFFFFFFFFFFFFFFFFFFFFFFFFFFFFFFFFFFFFFFFFFFFFFFFF
310
F000FFFFFFFFFFFFFFFFFFFFFFFFFFFFFFFFFFFFFFFFFFFFFFFFFFFFFFFFFFFF
310
FFFFFFFFFFFFFFFFFFFFFFFFFFFFFFFFFFFFFFFFFFFFFFFFFFFFFFFFFFFFFFFF
310
FFFFFFFFFFFFFFFFFFFFFFFFFFFFFFFFFFFFFFFFFFFFFFFFF000FFFFFFFFFFFF
310
FFFFFFFFFFFFFFFFFFFFFFFFFFFFFFFFFFFFFFFFFFFFFFFFFFFFFFFFFFFFFFFF
310
FFFFFFFFFFFFFFFFFFFFFFFFFFFFFFFFFFFFFFFFFFFFFFFFFFFFFFFFFFFFFFFF
310
FFFFFFFFFFFFFFFFFFFFFFFFFFFFFFFFF000FFFFFFFFFFFFFFFFFFFFFFFFFFFF
310
FFFFFFFFFFFFFFFFFFFFFFFFFFFFFFFFFFFFFFFFFFFFFFFFFFFFFFFFFFFFFFFF
310
FFFFFFFFFFFFFFFFFFFFFFFFFFFFFFFFFFFFFFFFFFFFFFFFFFFFFFFFFFFFFFFF
310
FFFFFFFFFFFFFFFFF000FFFFFFFFFFFFFFFFFFFFFFFFFFFFFFFFFFFFFFFFFFFF
310
FFFFFFFFFFFFFFFFFFFFFFFFFFFFFFFFFFFFFFFFFFFFFFFFFFFFFFFFFFFFFFFF
310
FFFFFFFFFFFFFFFFFFFFFFFFFFFFFFFFFFFFFFFFFFFFFFFFFFFFFFFFFFFFFFFF
310
F000FFFFFFFFFFFFFFFFFFFFFFFFFFFFFFFFFFFFFFFFFFFFFFFFFFFFFFFFFFFF
310
FFFFFFFFFFFFFFFFFFFFFFFFFFFFFFFFFFFFFFFFFFFFFFFFFFFFFFFFFFFFFFFF
310
FFFFFFFFFFFFFFFFFFFFFFFFFFFFFFFFFFFFFFFFFFFFFFFFF000FFFFFFFFFFFF
310
FFFFFFFFFFFFFFFFFFFFFFFFFFFFFFFFFFFFFFFFFFFFFFFFFFFFFFFFFFFFFFFF
310
FFFFFFFFFFFFFFFFFFFFFFFFFFFFFFFFFFFFFFFFFFFFFFFFFFFFFFFFFFFFFFFF
310
FFFFFFFFFFFFFFFFFFFFFFFFFFFFFFFFF000FFFFFFFFFFFFFFFFFFFFFFFFFFFF
310
FFFFFFFFFFFFFFFFFFFFFFFFFFFFFFFFFFFFFFFFFFFFFFFFFFFFFFFFFFFFFFFF
310
FFFFFFFFFFFFFFFFFFFFFFFFFFFFFFFFFFFFFFFFFFFFFFFFFFFFFFFFFFFFFFFF
310
FFFFFFFFFFFFFFFFF000FFFFFFFFFFFFFFFFFFFFFFFFFFFFFFFFFFFFFFFFFFFF
310
FFFFFFFFFFFFFFFFFFFFFFFFFFFFFFFFFFFFFFFFFFFFFFFFFFFFFFFFFFFFFFFF
310
FFFFFFFFFFFFFFFFFFFFFFFFFFFFFFFFFFFFFFFFFFFFFFFFFFFFFFFFFFFFFFFF
310
F000FFFFFFFFFFFFFFFFFFFFFFFFFFFFFFFFFFFFFFFFFFFFFFFFFFFFFFFFFFFF
310
FFFFFFFFFFFFFFFFFFFFFFFFFFFFFFFFFFFFFFFFFFFFFFFFFFFFFFFFFFFFFFFF
310
FFFFFFFFFFFFFFFFFFFFFFFFFFFFFFFFFFFFFFFFFFFFFFFFF000FFFFFFFFFFFF
310
FFFFFFFFFFFFFFFFFFFFFFFFFFFFFFFFFFFFFFFFFFFFFFFFFFFFFFFFFFFFFFFF
310
FFFFFFFFFFFFFFFFFFFFFFFFFFFFFFFFFFFFFFFFFFFFFFFFFFFFFFFFFFFFFFFF
310
FFFFFFFFFFFFFFFFFFFFFFFFFFFFFFFFF000FFFFFFFFFFFFFFFFFFFFFFFFFFFF
310
FFFFFFFFFFFFFFFFFFFFFFFFFFFFFFFFFFFFFFFFFFFFFFFFFFFFFFFFFFFFFFFF
310
FFFFFFFFFFFFFFFFFFFFFFFFFFFFFFFFFFFFFFFFFFFFFFFFFFFFFFFFFFFFFFFF
310
FFFFFFFFFFFFFFFFF000FFFFF80003FFFFFFFFFFFFFFFFFFFFFFFFFFFFFFFFFF
310
FFFFF00007FFFFFFFFFF00007FFFFFF800000000000000007FFFFFFFFFFFFFFF
310
FFFFFFFC001FFFFFFFFFFFFFFC001FFFFFFFFFFFFFFFFFFFFFFFFFFE0007FFFF
310
F000FFFF8000007FFFFFFFF8000FFFFFC0007FFFFF80007FFFFF0000007FFFFF
310
FFF8000007FFFFF800000000000000007FFFFFF0001FFFFFFFFFFFC00001FFFF
310
FFFFFFFFC00001FFFFFFFF000000000003FFFFE000007FFFF000FFFE0000000F
310
FFFFFFF0000FFFFF80007FFFFF80007FFFFC0000001FFFFFFFC0000001FFFFF8
310
00000000000000007FFFFFF0001FFFFFFFFFFE0000003FFFFFFFFFFE0000003F
310
FFFFFF000000000003FFFF0000000FFFF000FFF800000003FFFFFFF00007FFFF
310
80007FFFFF80007FFFF000000007FFFFFF000000003FFFF80000000000000000
310
7FFFFFF0001FFFFFFFFFF80000000FFFFFFFFFF80000000FFFFFFF0000000000
310
03FFFC00000003FFF000FFE000000000FFFFFFF00007FFFF80003FFFFF80007F
310
FFC000000001FFFFFC000000001FFFF800000000000000007FFFFFF0001FFFFF
310
FFFFE000000003FFFFFFFFE000000003FFFFFF000000000003FFF000000000FF
310
F000FF80000000007FFFFFF00007FFFF80003FFFFF80007FFF8000000000FFFF
310
F80000000007FFF800000000000000007FFFFFF0001FFFFFFFFFC000000001FF
310
FFFFFFC000000001FFFFFF000000000003FFC0000000007FF000FF0000000000
310
3FFFFFE00007FFFF00003FFFFF80007FFE00000000003FFFF00000000003FFF8
310
00000000000000007FFFFFF0001FFFFFFFFF8000000000FFFFFFFF8000000000
310
FFFFFF000000000003FF80000000003FF000FE00000000001FFFFFE00003FFFF
310
00003FFFFF80007FFC00000000001FFFE00000000001FFF8000001FFFE000000
310
7FFFFFF0001FFFFFFFFE00000000003FFFFFFE00000000003FFFFF0000000000
310
03FF00000000001FF000FC00000000000FFFFFE00003FFFF00001FFFFF80007F
310
F800000000001FFFC00000000000FFF8000001FFFE0000007FFFFFF0001FFFFF
310
FFFC00000000001FFFFFFC00000000001FFFFF000000000003FE00000000000F
310
F000F8000000000007FFFFE00003FFFF00001FFFFF80007FF800000000000FFF
310
800000000000FFF8000001FFFE0000007FFFFFF0001FFFFFFFF800000000000F
310
FFFFF800000000000FFFFF000000000003FC000000000007F000F80000000000
310
03FFFFC00003FFFE00001FFFFF80007FF0000000000007FF0000000000007FF8
310
000001FFFE0000007FFFFFF0001FFFFFFFF0000000000007FFFFF00000000000
310
07FFFF000000000003F8000000000003F000F0000000000003FFFFC00001FFFE
310
00001FFFFF80007FE0000000000007FE0000000000003FF8000001FFFE000000
310
7FFFFFF0001FFFFFFFF0000000000007FFFFF0000000000007FFFF0000000000
310
03F800001F800003F000E00001FFF00001FFFFC00001FFFE00000FFFFF80007F
310
E00001FFE00003FE00001FFF00003FF8000001FFFE0000007FFFFFF0001FFFFF
310
FFE000003E000003FFFFE000003E000003FFFF000000000003F00001FFF80001
310
F000E00007FFFC0001FFFFC00001FFFE00000FFFFF80007FC0000FFFFC0003FC
310
0000FFFFC0001FF8000001FFFE0000007FFFFFF0001FFFFFFFC00003FFE00001
310
FFFFC00003FFE00001FFFF0001FFFFFFFFF00007FFFE0001F000E0000FFFFF00
310
00FFFF800001FFFC00000FFFFF80007FC0001FFFFE0001FC0001FFFFE0001FF8
310
000001FFFE0000007FFFFFF0001FFFFFFF80000FFFF80000FFFF80000FFFF800
310
00FFFF0003FFFFFFFFE0000FFFFF8000F000C0003FFFFF8000FFFF800000FFFC
310
000007FFFF80007F80003FFFFF0001FC0003FFFFF0001FF8000001FFFE000000
310
7FFFFFF0001FFFFFFF80003FFFFE0000FFFF80003FFFFE0000FFFF0003FFFFFF
310
FFE0003FFFFF8000F000C0003FFFFF8000FFFF800000FFFC000007FFFF80007F
310
80007FFFFF8001F80007FFFFF8000FF8000001FFFE0000007FFFFFF0001FFFFF
310
FF00007FFFFF00007FFF00007FFFFF00007FFF0003FFFFFFFFE0003FFFFFC000
310
F000C0007FFFFFC000FFFF000000FFFC000007FFFF80007F8000FFFFFF8000F8
310
000FFFFFF8000FF8000001FFFE0000007FFFFFF0001FFFFFFF0000FFFFFF8000
310
7FFF0000FFFFFF80007FFF0003FFFFFFFFC0007FFFFFC00070008000FFFFFFC0
310
00FFFF000000FFF8000007FFFF80007F8000FFFFFF8000F8000FFFFFF8000FF8
310
000001FFFE0000007FFFFFF0001FFFFFFE0001FFFFFFC0003FFE0001FFFFFFC0
310
003FFF0003FFFFFFFFC0007FFFFFE00070008000FFFFFFC0007FFF0000007FF8
310
000003FFFF80007F0001FFFFFF8000F8000FFFFFF8000FF8000001FFFE000000
310
7FFFFFF0001FFFFFFE0001FFFFFFC0003FFE0001FFFFFFC0003FFF0003FFFFFF
310
FFC000FFFFFFE00070008000FFFFFFC0007FFF0000007FF8000003FFFF80007F
310
0001FFFFFF8000F8001FFFFFF8000FF8000001FFFE0000007FFFFFF0001FFFFF
310
FE0003FFFFFFE0003FFE0003FFFFFFE0003FFF0003FFFFFFFFC000FFFFFFE000
310
70008000FFFFFFC0007FFE0000007FF8000003FFFF80007F0001FFFFFF8000F0
310
001FFFFFF8000FF8000001FFFE0000007FFFFFF0001FFFFFFC0003FFFFFFE000
310
1FFC0003FFFFFFE0001FFF0003FFFFFFFFC000FFFFFFC00070008000FFFFFF80
310
007FFE0000007FF0000003FFFF80007F0001FFFFFF0000F0001FFFFFF8000FF8
310
000001FFFE0000007FFFFFF0001FFFFFFC0007FFFFFFF0001FFC0007FFFFFFF0
310
001FFF0003FFFFFFFFC000FFFFFFC00070008001FFFFFF0000FFFE0000003FF0
310
000001FFFF80007F0001FFFFFF0000F8001FFFFFF0000FF8000001FFFE000000
310
7FFFFFF0001FFFFFFC0007FFFFFFF0001FFC0007FFFFFFF0001FFF0003FFFFFF
310
FFC001FFFFFF80007000FFFFFFFFFE0000FFFE0008003FF0008001FFFF80007F
310
FFFFFFFFFC0000FFFFFFFFFFE0000FF8000001FFFE0000007FFFFFF0001FFFFF
310
F8000FFFFFFFF8000FF8000FFFFFFFF8000FFF0003FFFFFFFFFFFFFFFFFF0000
310
7000FFFFFFFFFC0000FFFC0008003FF0008001FFFF80007FFFFFFFFFF80001FF
310
FFFFFFFF80000FF8000001FFFE0000007FFFFFF0001FFFFFF8000FFFFFFFF800
310
0FF8000FFFFFFFF8000FFF0003FFFFFFFFFFFFFFFFFE0000F000FFFFFFFFE000
310
00FFFC000C003FE000C001FFFF80007FFFFFFFFFC00001FFFFFFFFFE00001FF8
310
000001FFFE0000007FFFFFF0001FFFFFF8000FFFFFFFF8000FF8000FFFFFFFF8
310
000FFF0003FFFFFFFFFFFFFFFFF00000F000FFFFFFFE000001FFFC000C001FE0
310
00C000FFFF80007FFFFFFFFE000001FFFFFFFFE000001FF80FFFFFFFFFFFFFC0
310
7FFFFFF0001FFFFFF8000FFFFFFFF8000FF8000FFFFFFFF8000FFF0003FFFFFF
310
FFFFFFFFFF800000F000FFFFFFC0000001FFFC001C001FE001C000FFFF80007F
310
FFFFFF80000003FFFFFFF80000001FF80FFFFFFFFFFFFFC07FFFFFF0001FFFFF
310
F8001FFFFFFFFC000FF8001FFFFFFFFC000FFF0003FFFFFFFFFFFFFFF0000001
310
F000FFFFF800000001FFF8001C001FE001C000FFFF80007FFFFFF800000003FF
310
FFFF800000003FF80FFFFFFFFFFFFFC07FFFFFF0001FFFFFF8001FFFFFFFFC00
310
0FF8001FFFFFFFFC000FFF0003FFFFFFFFFFFFFE00000001F000FFFFC0000000
310
03FFF8001E001FC001E000FFFF80007FFFFF8000000007FFFFFC000000003FF8
310
0FFFFFFFFFFFFFC07FFFFFF0001FFFFFF8001FFFFFFFFC000FF8001FFFFFFFFC
310
000FFF0003FFFFFFFFFFFFE000000003F000FFFE0000000007FFF8001E000FC0
310
01E0007FFF80007FFFFE0000000007FFFFE0000000007FF80FFFFFFFFFFFFFC0
310
7FFFFFF0001FFFFFF0001FFFFFFFFC0007F0001FFFFFFFFC0007FF0003FFFFFF
310
FFFFFF0000000003F000FFF80000000007FFF8001E000FC003E0007FFF80007F
310
FFF0000000000FFFFF8000000000FFF80FFFFFFFFFFFFFC07FFFFFF0001FFFFF
310
F0001FFFFFFFFC0007F0001FFFFFFFFC0007FF0003FFFFFFFFFFFC0000000007
310
F000FFE0000000000FFFF0003E000FC003E0007FFF80007FFFC0000000001FFF
310
FE0000000001FFF80FFFFFFFFFFFFFC07FFFFFF0001FFFFFF0001FFFFFFFFC00
310
07F0001FFFFFFFFC0007FF0003FFFFFFFFFFF0000000000FF000FFC000000000
310
1FFFF0003F000F8003F0003FFF80007FFF80000000003FFFF80000000003FFF8
310
0FFFFFFFFFFFFFC07FFFFFF0001FFFFFF0001FFFFFFFFC0007F0001FFFFFFFFC
310
0007FF0003FFFFFFFFFFE0000000001FF000FF00000000007FFFF0003F000780
310
03F0003FFF80007FFF00000000007FFFF00000000007FFF80FFFFFFFFFFFFFC0
310
7FFFFFF0001FFFFFF0001FFFFFFFFC0007F0001FFFFFFFFC0007FF0003FFFFFF
310
FFFF80000000007FF000FE0000000000FFFFE0003F00078007F0003FFF80007F
310
FE0000000001FFFFE0000000001FFFF80FFFFFFFFFFFFFC07FFFFFF0001FFFFF
310
F0001FFFFFFFFC0007F0001FFFFFFFFC0007FF0003FFFFFFFFFF0000000000FF
310
F000FC0000000003FFFFE0007F00078007F0003FFF80007FFC0000000007FFFF
310
C0000000007FFFF80FFFFFFFFFFFFFC07FFFFFF0001FFFFFF8001FFFFFFFFC00
310
0FF8001FFFFFFFFC000FFF0003FFFFFFFFFE0000000003FFF000FC000000000F
310
FFFFE0007F80070007F8001FFF80007FF8000000001FFFFF8000000001FFFFF8
310
0FFFFFFFFFFFFFC07FFFFFF0001FFFFFF8001FFFFFFFFC000FF8001FFFFFFFFC
310
000FFF0003FFFFFFFFFC000000000FFFF000F8000000007FFFFFE0007F800700
310
07F8001FFF80007FF000000000FFFFFF800000000FFFFFF80FFFFFFFFFFFFFC0
310
7FFFFFF0001FFFFFF8000FFFFFFFF8000FF8000FFFFFFFF8000FFF0003FFFFFF
310
FFFC000000007FFFF000F800000007FFFFFFC0007F8003000FF8001FFF80007F
310
F000000007FFFFFF000000007FFFFFF80FFFFFFFFFFFFFC07FFFFFF0001FFFFF
310
F8000FFFFFFFF8000FF8000FFFFFFFF8000FFF0003FFFFFFFFF80000000FFFFF
310
F000F0000000FFFFFFFFC000FF8003000FF8001FFF80007FE0000000FFFFFFFF
310
0000000FFFFFFFF8000001FFFE0000007FFFFFF0001FFFFFF8000FFFFFFFF800
310
0FF8000FFFFFFFF8000FFF0003FFFFFFFFF8000000FFFFFFF000F000000FFFFF
310
FFFFC000FFC002000FF8000FFF80007FE000001FFFFFFFFE000001FFFFFFFFF8
310
000001FFFE0000007FFFFFF0001FFFFFF8000FFFFFFFF8000FF8000FFFFFFFF8
310
000FFF0003FFFFFFFFF000001FFFFFFFF000E00000FFFFFFFFFFC000FFC00200
310
0FFC000FFF80007FE00001FFFFFFFFFE00001FFFFFFFFFF8000001FFFE000000
310
7FFFFFF0001FFFFFFC000FFFFFFFF8001FFC000FFFFFFFF8001FFF0003FFFFFF
310
FFF00001FFFFFFFFF000E00007FFFFFFFFFF8000FFC000001FFC000FFF80007F
310
C0000FFFFFFFFFFE0000FFFFFFFFFFF8000001FFFE0000007FFFFFF0001FFFFF
310
FC0007FFFFFFF0001FFC0007FFFFFFF0001FFF0003FFFFFFFFF00007FFFFFFFF
310
F000E0001FFFFFFFFFFF8000FFC000001FFC000FFF80007FC0003FFFFFFFFFFE
310
0001FFFFFFFFFFF8000001FFFE0000007FFFFFF0001FFFFFFC0007FFFFFFF000
310
1FFC0007FFFFFFF0001FFF0003FFFFFFFFF0001FFFFFFFFFF000E0003FFFFF00
310
03FF8001FFE000001FFC0007FF80007FC0007FFFFF0007FC0003FFFFF0003FF8
310
000001FFFE0000007FFFFFF0001FFFFFFC0003FFFFFFE0001FFC0003FFFFFFE0
310
001FFF0003FFFFFFFFF0003FFFFFFFFFF000E0003FFFFF0001FF8001FFE00000
310
1FFE0007FF80007FC0007FFFFE0003FC0007FFFFE0003FF8000001FFFE000000
310
7FFFFFF0001FFFFFFE0003FFFFFFE0003FFE0003FFFFFFE0003FFF0003FFFFFF
310
FFF0003FFFFF8001F000E0003FFFFF0001FF0001FFE000001FFE0007FF80007F
310
C0007FFFFE0003FC0007FFFFE0003FF8000001FFFE0000007FFFFFF0001FFFFF
310
FE0001FFFFFFC0003FFE0001FFFFFFC0003FFF0003FFFFFFFFF0003FFFFF0001
310
F000E0003FFFFF0003FF0001FFE000003FFE0007FF80007FC0007FFFFE0003FC
310
0007FFFFE0003FF8000001FFFE0000007FFFFFF0001FFFFFFF0001FFFFFFC000
310
7FFF0001FFFFFFC0007FFF0003FFFFFFFFF0003FFFFF0001F000E0003FFFFE00
310
03FF0003FFF000003FFE0003FF80007FC0007FFFFC0003FE0007FFFFE0003FF8
310
000001FFFE0000007FFFFFF0001FFFFFFF0000FFFFFF80007FFF0000FFFFFF80
310
007FFF0003FFFFFFFFF0003FFFFF0001F000E0003FFFFE0003FF0003FFF00000
310
3FFF0003FF80007FC0007FFFFC0007FE0007FFFFC0003FF8000001FFFE000000
310
7FFFFFF0001FFFFFFF80007FFFFF0000FFFF80007FFFFF0000FFFF0003FFFFFF
310
FFF0003FFFFF0003F000E0003FFFFC0003FE0003FFF000003FFF0003FF80007F
310
E0003FFFF80007FE0003FFFFC0007FF8000001FFFE0000007FFFFFF0001FFFFF
310
FF80003FFFFE0000FFFF80003FFFFE0000FFFF0003FFFFFFFFF0001FFFFE0003
310
F000F0001FFFF80003FE0003FFF000007FFF0001FF80007FE0003FFFF00007FE
310
0001FFFF80007FF8000001FFFE0000007FFFFFF0001FFFFFFFC0000FFFF80001
310
FFFFC0000FFFF80001FFFF0003FFFFFFFFF0001FFFFC0003F000F0000FFFF000
310
07FE0007FFF800007FFF0001FF80007FE0001FFFE00007FF0000FFFE00007FF8
310
000001FFFE0000007FFFFFF0001FFFFFFFC00003FFE00001FFFFC00003FFE000
310
01FFFF0003FFFFFFFFF8000FFFF80003F000F00003FFC00007FC0007FFF80000
310
7FFF8001FF80007FF00007FF80000FFF00007FF80000FFF8000001FFFE000000
310
7F80000000000001FFE000003E000003FFFFE000003E000003FFFF0003FFFFFF
310
FFF80003FFE00007F000F800000000000FFC0007FFF800007FFF8001FF80007F
310
F000000000000FFF000000000000FFF8000001FFFE0000007F80000000000001
310
FFF0000000000007FFFFF0000000000007FFFF0003FFFFFFFFFC00007E000007
310
F000F800000000000FFC0007FFF80000FFFF8000FF80007FF800000000001FFF
310
800000000001FFF8000001FFFE0000007F80000000000001FFF800000000000F
310
FFFFF800000000000FFFFF0003FFFFFFFFFC00000000000FF000FC0000000000
310
1FFC0007FFFC0000FFFF8000FF80007FF800000000003FFFC00000000001FFF8
310
000001FFFE0000007F80000000000001FFF800000000000FFFFFF80000000000
310
0FFFFF0003FFFFFFFFFE00000000001FF000FE00000000003FF8000FFFFC0000
310
FFFF8000FF80007FFC00000000003FFFC00000000003FFF8000001FFFE000000
310
7F80000000000001FFFC00000000001FFFFFFC00000000001FFFFF0003FFFFFF
310
FFFF00000000001FF000FF00000000003FF8000FFFFC0000FFFFC000FF80007F
310
FE00000000007FFFE00000000007FFF8000001FFFE0000007F80000000000001
310
FFFE00000000003FFFFFFE00000000003FFFFF0003FFFFFFFFFF80000000003F
310
F000FF80000000007FF8000FFFFC0001FFFFC0007F80007FFF0000000000FFFF
310
F0000000000FFFF800000000000000007F80000000000001FFFF8000000000FF
310
FFFFFF8000000000FFFFFF0003FFFFFFFFFFC0000000007FF000FFC000000000
310
FFF8000FFFFE0001FFFFC0007F80007FFF8000000001FFFFF8000000001FFFF8
310
00000000000000007F80000000000001FFFFC000000001FFFFFFFFC000000001
310
FFFFFF0003FFFFFFFFFFE000000000FFF000FFE000000003FFF0001FFFFE0001
310
FFFFC0007F80007FFFC000000007FFFFFE000000003FFFF80000000000000000
310
7F80000000000001FFFFE000000003FFFFFFFFE000000003FFFFFF0003FFFFFF
310
FFFFF000000003FFF000FFF80000000FFFF0001FFFFE0001FFFFE0007F80007F
310
FFF00000000FFFFFFF00000000FFFFF800000000000000007F80000000000001
310
FFFFF80000000FFFFFFFFFF80000000FFFFFFF0003FFFFFFFFFFFC0000000FFF
310
F000FFFE0000003FFFF0001FFFFE0003FFFFE0003F80007FFFFC0000003FFFFF
310
FFC0000003FFFFF800000000000000007F80000000000001FFFFFE0000003FFF
310
FFFFFFFE0000003FFFFFFF0003FFFFFFFFFFFF0000003FFFF000FFFF800000FF
310
FFF0001FFFFF0003FFFFE0003F80007FFFFF000001FFFFFFFFF800001FFFFFF8
310
00000000000000007F80000000000001FFFFFFC00001FFFFFFFFFFFFC00001FF
310
FFFFFF0003FFFFFFFFFFFFC00000FFFFF000FFFFF8000FFFFFFFFFFFFFFFFFFF
310
FFFFFFFFFFFFFFFFFFFFF0001FFFFFFFFFFF0000FFFFFFF80000000000000000
310
7FFFFFFFFFFFFFFFFFFFFFFC001FFFFFFFFFFFFFFC001FFFFFFFFFFFFFFFFFFF
310
FFFFFFFC001FFFFFF000FFFFFFFFFFFFFFFFFFFFFFFFFFFFFFFFFFFFFFFFFFFF
310
FFFFFFFFFFFFFFFFFFFFFFFFFFFFFFFFFFFFFFFFFFFFFFFFFFFFFFFFFFFFFFFF
310
FFFFFFFFFFFFFFFFFFFFFFFFFFFFFFFFFFFFFFFFFFFFFFFFFFFFFFFFFFFFFFFF
310
F000FFFFFFFFFFFFFFFFFFFFFFFFFFFFFFFFFFFFFFFFFFFFFFFFFFFFFFFFFFFF
310
FFFFFFFFFFFFFFFFFFFFFFFFFFFFFFFFFFFFFFFFFFFFFFFFFFFFFFFFFFFFFFFF
310
FFFFFFFFFFFFFFFFFFFFFFFFFFFFFFFFFFFFFFFFFFFFFFFFF000FFFFFFFFFFFF
310
FFFFFFFFFFFFFFFFFFFFFFFFFFFFFFFFFFFFFFFFFFFFFFFFFFFFFFFFFFFFFFFF
310
FFFFFFFFFFFFFFFFFFFFFFFFFFFFFFFFFFFFFFFFFFFFFFFFFFFFFFFFFFFFFFFF
310
FFFFFFFFFFFFFFFFFFFFFFFFFFFFFFFFF000FFFFFFFFFFFFFFFFFFFFFFFFFFFF
310
FFFFFFFFFFFFFFFFFFFFFFFFFFFFFFFFFFFFFFFFFFFFFFFFFFFFFFFFFFFFFFFF
310
FFFFFFFFFFFFFFFFFFFFFFFFFFFFFFFFFFFFFFFFFFFFFFFFFFFFFFFFFFFFFFFF
310
FFFFFFFFFFFFFFFFF000FFFFFFFFFFFFFFFFFFFFFFFFFFFFFFFFFFFFFFFFFFFF
310
FFFFFFFFFFFFFFFFFFFFFFFFFFFFFFFFFFFFFFFFFFFFFFFFFFFFFFFFFFFFFFFF
310
FFFFFFFFFFFFFFFFFFFFFFFFFFFFFFFFFFFFFFFFFFFFFFFFFFFFFFFFFFFFFFFF
310
F000FFFFFFFFFFFFFFFFFFFFFFFFFFFFFFFFFFFFFFFFFFFFFFFFFFFFFFFFFFFF
310
FFFFFFFFFFFFFFFFFFFFFFFFFFFFFFFFFFFFFFFFFFFFFFFFFFFFFFFFFFFFFFFF
310
FFFFFFFFFFFFFFFFFFFFFFFFFFFFFFFFFFFFFFFFFFFFFFFFF000FFFFFFFFFFFF
310
FFFFFFFFFFFFFFFFFFFFFFFFFFFFFFFFFFFFFFFFFFFFFFFFFFFFFFFFFFFFFFFF
310
FFFFFFFFFFFFFFFFFFFFFFFFFFFFFFFFFFFFFFFFFFFFFFFFFFFFFFFFFFFFFFFF
310
FFFFFFFFFFFFFFFFFFFFFFFFFFFFFFFFF000FFFFFFFFFFFFFFFFFFFFFFFFFFFF
310
FFFFFFFFFFFFFFFFFFFFFFFFFFFFFFFFFFFFFFFFFFFFFFFFFFFFFFFFFFFFFFFF
310
FFFFFFFFFFFFFFFFFFFFFFFFFFFFFFFFFFFFFFFFFFFFFFFFFFFFFFFFFFFFFFFF
310
FFFFFFFFFFFFFFFFF000FFFFFFFFFFFFFFFFFFFFFFFFFFFFFFFFFFFFFFFFFFFF
310
FFFFFFFFFFFFFFFFFFFFFFFFFFFFFFFFFFFFFFFFFFFFFFFFFFFFFFFFFFFFFFFF
310
FFFFFFFFFFFFFFFFFFFFFFFFFFFFFFFFFFFFFFFFFFFFFFFFFFFFFFFFFFFFFFFF
310
F000FFFFFFFFFFFFFFFFFFFFFFFFFFFFFFFFFFFFFFFFFFFFFFFFFFFFFFFFFFFF
310
FFFFFFFFFFFFFFFFFFFFFFFFFFFFFFFFFFFFFFFFFFFFFFFFFFFFFFFFFFFFFFFF
310
FFFFFFFFFFFFFFFFFFFFFFFFFFFFFFFFFFFFFFFFFFFFFFFFF000FFFFFFFFFFFF
310
FFFFFFFFFFFFFFFFFFFFFFFFFFFFFFFFFFFFFFFFFFFFFFFFFFFFFFFFFFFFFFFF
310
FFFFFFFFFFFFFFFFFFFFFFFFFFFFFFFFFFFFFFFFFFFFFFFFFFFFFFFFFFFFFFFF
310
FFFFFFFFFFFFFFFFFFFFFFFFFFFFFFFFF000FFFFFFFFFFFFFFFFFFFFFFFFFFFF
310
FFFFFFFFFFFFFFFFFFFFFFFFFFFFFFFFFFFFFFFFFFFFFFFFFFFFFFFFFFFFFFFF
310
FFFFFFFFFFFFFFFFFFFFFFFFFFFFFFFFFFFFFFFFFFFFFFFFFFFFFFFFFFFFFFFF
310
FFFFFFFFFFFFFFFFF000FFFFFFFFFFFFFFFFFFFFFFFFFFFFFFFFFFFFFFFFFFFF
310
FFFFFFFFFFFFFFFFFFFFFFFFFFFFFFFFFFFFFFFFFFFFFFFFFFFFFFFFFFFFFFFF
310
FFFFFFFFFFFFFFFFFFFFFFFFFFFFFFFFFFFFFFFFFFFFFFFFFFFFFFFFFFFFFFFF
310
F000FFFFFFFFFFFFFFFFFFFFFFFFFFFFFFFFFFFFFFFFFFFFFFFFFFFFFFFFFFFF
310
FFFFFFFFFFFFFFFFFFFFFFFFFFFFFFFFFFFFFFFFFFFFFFFFFFFFFFFFFFFFFFFF
310
FFFFFFFFFFFFFFFFFFFFFFFFFFFFFFFFFFFFFFFFFFFFFFFFF000FFFFFFFFFFFF
310
FFFFFFFFFFFFFFFFFFFFFFFFFFFFFFFFFFFFFFFFFFFFFFFFFFFFFFFFFFFFFFFF
310
FFFFFFFFFFFFFFFFFFFFFFFFFFFFFFFFFFFFFFFFFFFFFFFFFFFFFFFFFFFFFFFF
310
FFFFFFFFFFFFFFFFFFFFFFFFFFFFFFFFF000FFFFFFFFFFFFFFFFFFFFFFFFFFFF
310
FFFFFFFFFFFFFFFFFFFFFFFFFFFFFFFFFFFFFFFFFFFFFFFFFFFFFFFFFFFFFFFF
310
FFFFFFFFFFFFFFFFFFFFFFFFFFFFFFFFFFFFFFFFFFFFFFFFFFFFFFFFFFFFFFFF
310
FFFFFFFFFFFFFFFFF000FFFFFFFFFFFFFFFFFFFFFFFFFFFFFFFFFFFFFFFFFFFF
310
FFFFFFFFFFFFFFFFFFFFFFFFFFFFFFFFFFFFFFFFFFFFFFFFFFFFFFFFFFFFFFFF
310
FFFFFFFFFFFFFFFFFFFFFFFFFFFFFFFFFFFFFFFFFFFFFFFFFFFFFFFFFFFFFFFF
310
F000FFFFFFFFFFFFFFFFFFFFFFFFFFFFFFFFFFFFFFFFFFFFFFFFFFFFFFFFFFFF
310
FFFFFFFFFFFFFFFFFFFFFFFFFFFFFFFFFFFFFFFFFFFFFFFFFFFFFFFFFFFFFFFF
310
FFFFFFFFFFFFFFFFFFFFFFFFFFFFFFFFFFFFFFFFFFFFFFFFF000FFFFFFFFFFFF
310
FFFFFFFFFFFFFFFFFFFFFFFFFFFFFFFFFFFFFFFFFFFFFFFFFFFFFFFFFFFFFFFF
310
FFFFFFFFFFFFFFFFFFFFFFFFFFFFFFFFFFFFFFFFFFFFFFFFFFFFFFFFFFFFFFFF
310
FFFFFFFFFFFFFFFFFFFFFFFFFFFFFFFFF000FFFFFFFFFFFFFFFFFFFFFFFFFFFF
310
FFFFFFFFFFFFFFFFFFFFFFFFFFFFFFFFFFFFFFFFFFFFFFFFFFFFFFFFFFFFFFFF
310
FFFFFFFFFFFFFFFFFFFFFFFFFFFFFFFFFFFFFFFFFFFFFFFFFFFFFFFFFFFFFFFF
310
FFFFFFFFFFFFFFFFF000FFFFFFFFFFFFFFFFFFFFFFFFFFFFFFFFFFFFFFFFFFFF
310
FFFFFFFFFFFFFFFFFFFFFFFFFFFFFFFFFFFFFFFFFFFFFFFFFFFFFFFFFFFFFFFF
310
FFFFFFFFFFFFFFFFFFFFFFFFFFFFFFFFFFFFFFFFFFFFFFFFFFFFFFFFFFFFFFFF
310
F000FFFFFFFFFFFFFFFFFFFFFFFFFFFFFFFFFFFFFFFFFFFFFFFFFFFFFFFFFFFF
310
FFFFFFFFFFFFFFFFFFFFFFFFFFFFFFFFFFFFFFFFFFFFFFFFFFFFFFFFFFFFFFFF
310
FFFFFFFFFFFFFFFFFFFFFFFFFFFFFFFFFFFFFFFFFFFFFFFFF000FFFFFFFFFFFF
310
FFFFFFFFFFFFFFFFFFFFFFFFFFFFFFFFFFFFFFFFFFFFFFFFFFFFFFFFFFFFFFFF
310
FFFFFFFFFFFFFFFFFFFFFFFFFFFFFFFFFFFFFFFFFFFFFFFFFFFFFFFFFFFFFFFF
310
FFFFFFFFFFFFFFFFFFFFFFFFFFFFFFFFF0000000000000000000000000000000
310
0000000000000000000000000000000000000000000000000000000000000000
310
0000000000000000000000000000000000000000000000000000000000000000
310
0000000000000000000000000000000000000000000000000000000000000000
310
0000000000000000000000000000000000000000000000000000000000000000
310
0000000000000000000000000000000000000000000000000000000000000000
310
0000000000000000000000000000000000000000000000000000000000000000
310
0000000000000000000000000000000000000000000000000000000000000000
310
0000000000000000000000000000000000000000000000000000000000000000
310
0000000000000000000000000000000000000000000000000000000000000000
310
0000000000000000000000000000000000000000000000000000000000000000
310
0000000000000000000000000000000000000000000000000000000000000000
310
0000000000000000000000000000000000000000000000000000000000000000
310
0000000000000000000000000000000000000000000000000000000000000000
310
0000000000000000000000000000000000000000000000000000000000000000
310
0000000000000000000000000000000000000000000000000000000000000000
  1
OLE
  0
ENDSEC
  0
SECTION
  2
OBJECTS
  0
DICTIONARY
  5
C
330
0
100
AcDbDictionary
281
     1
  3
ACAD_GROUP
350
D
  3
ACAD_LAYOUT
350
1A
  3
ACAD_MLINESTYLE
350
17
  3
ACAD_PLOTSETTINGS
350
19
  3
ACAD_PLOTSTYLENAME
350
E
  3
ACAD_SCALELIST
350
47
  0
DICTIONARY
  5
D
102
{ACAD_REACTORS
330
C
102
}
330
C
100
AcDbDictionary
281
     1
  0
DICTIONARY
  5
1A
102
{ACAD_REACTORS
330
C
102
}
330
C
100
AcDbDictionary
281
     1
  3
Layout1
350
1E
  3
Layout2
350
26
  3
Model
350
22
  0
DICTIONARY
  5
17
102
{ACAD_REACTORS
330
C
102
}
330
C
100
AcDbDictionary
281
     1
  3
Standard
350
18
  0
DICTIONARY
  5
19
102
{ACAD_REACTORS
330
C
102
}
330
C
100
AcDbDictionary
281
     1
  0
ACDBDICTIONARYWDFLT
  5
E
102
{ACAD_REACTORS
330
C
102
}
330
C
100
AcDbDictionary
281
     1
  3
Normal
350
F
100
AcDbDictionaryWithDefault
340
F
  0
DICTIONARY
  5
47
102
{ACAD_REACTORS
330
C
102
}
330
C
100
AcDbDictionary
281
     1
  3
A0
350
48
  3
A1
350
49
  3
A2
350
4A
  3
A3
350
4B
  3
A4
350
4C
  3
A5
350
4D
  3
A6
350
4E
  3
A7
350
4F
  3
A8
350
50
  3
A9
350
51
  3
B0
350
52
  3
B1
350
53
  3
B2
350
54
  3
B3
350
55
  3
B4
350
56
  3
B5
350
57
  3
B6
350
58
  3
B7
350
59
  3
B8
350
5A
  3
B9
350
5B
  3
C0
350
5C
  3
C1
350
5D
  3
C2
350
5E
  3
C3
350
5F
  3
C4
350
60
  3
C5
350
61
  3
C6
350
62
  3
C7
350
63
  3
C8
350
64
  3
C9
350
65
  3
D0
350
66
  3
D1
350
67
  3
D2
350
68
  0
LAYOUT
  5
1E
102
{ACAD_REACTORS
330
1A
102
}
330
1A
100
AcDbPlotSettings
  1

  2
none_device
  4

  6

 40
0.0
 41
0.0
 42
0.0
 43
0.0
 44
0.0
 45
0.0
 46
0.0
 47
0.0
 48
0.0
 49
0.0
140
0.0
141
0.0
142
1.0
143
1.0
 70
   688
 72
     1
 73
     0
 74
     5
  7

 75
    16
147
1.0
148
0.0
149
0.0
100
AcDbLayout
  1
Layout1
 70
     1
 71
     1
 10
0.0
 20
0.0
 11
420.0
 21
297.0
 12
0.0
 22
0.0
 32
0.0
 14
1.0000000000E+20
 24
1.0000000000E+20
 34
1.0000000000E+20
 15
-1.0000000000E+20
 25
-1.0000000000E+20
 35
-1.0000000000E+20
146
0.0
 13
0.0
 23
0.0
 33
0.0
 16
1.0
 26
0.0
 36
0.0
 17
0.0
 27
1.0
 37
0.0
 76
     0
330
1B
  0
LAYOUT
  5
26
102
{ACAD_REACTORS
330
1A
102
}
330
1A
100
AcDbPlotSettings
  1

  2
none_device
  4

  6

 40
0.0
 41
0.0
 42
0.0
 43
0.0
 44
0.0
 45
0.0
 46
0.0
 47
0.0
 48
0.0
 49
0.0
140
0.0
141
0.0
142
1.0
143
1.0
 70
   688
 72
     1
 73
     0
 74
     5
  7

 75
    16
147
1.0
148
0.0
149
0.0
100
AcDbLayout
  1
Layout2
 70
     1
 71
     2
 10
0.0
 20
0.0
 11
0.0
 21
0.0
 12
0.0
 22
0.0
 32
0.0
 14
0.0
 24
0.0
 34
0.0
 15
0.0
 25
0.0
 35
0.0
146
0.0
 13
0.0
 23
0.0
 33
0.0
 16
1.0
 26
0.0
 36
0.0
 17
0.0
 27
1.0
 37
0.0
 76
     0
330
23
  0
LAYOUT
  5
22
102
{ACAD_REACTORS
330
1A
102
}
330
1A
100
AcDbPlotSettings
  1

  2
none_device
  4
Letter_(8.50_x_11.00_Inches)
  6

 40
6.35
 41
6.35
 42
6.35000508
 43
6.35000508
 44
215.9
 45
279.4
 46
0.0
 47
0.0
 48
0.0
 49
0.0
140
0.0
141
0.0
142
1.0
143
1.0
 70
  1712
 72
     1
 73
     0
 74
     0
  7

 75
     0
147
1.0
148
0.0
149
0.0
100
AcDbLayout
  1
Model
 70
     1
 71
     0
 10
0.0
 20
0.0
 11
297.0
 21
210.0
 12
0.0
 22
0.0
 32
0.0
 14
0.0
 24
0.0
 34
0.0
 15
297.0
 25
210.0
 35
0.0
146
0.0
 13
0.0
 23
0.0
 33
0.0
 16
1.0
 26
0.0
 36
0.0
 17
0.0
 27
1.0
 37
0.0
 76
     0
330
1F
331
29
  0
MLINESTYLE
  5
18
102
{ACAD_REACTORS
330
17
102
}
330
17
100
AcDbMlineStyle
  2
Standard
 70
     0
  3

 62
   256
 51
90.0
 52
90.0
 71
     2
 49
0.5
 62
   256
  6
BYLAYER
 49
-0.5
 62
   256
  6
BYLAYER
  0
ACDBPLACEHOLDER
  5
F
102
{ACAD_REACTORS
330
E
102
}
330
E
  0
SCALE
  5
48
102
{ACAD_REACTORS
330
47
102
}
330
47
100
AcDbScale
 70
     0
300
1:1
140
1.0
141
1.0
290
     1
  0
SCALE
  5
49
102
{ACAD_REACTORS
330
47
102
}
330
47
100
AcDbScale
 70
     0
300
1:2
140
1.0
141
2.0
290
     0
  0
SCALE
  5
4A
102
{ACAD_REACTORS
330
47
102
}
330
47
100
AcDbScale
 70
     0
300
1:4
140
1.0
141
4.0
290
     0
  0
SCALE
  5
4B
102
{ACAD_REACTORS
330
47
102
}
330
47
100
AcDbScale
 70
     0
300
1:5
140
1.0
141
5.0
290
     0
  0
SCALE
  5
4C
102
{ACAD_REACTORS
330
47
102
}
330
47
100
AcDbScale
 70
     0
300
1:8
140
1.0
141
8.0
290
     0
  0
SCALE
  5
4D
102
{ACAD_REACTORS
330
47
102
}
330
47
100
AcDbScale
 70
     0
300
1:10
140
1.0
141
10.0
290
     0
  0
SCALE
  5
4E
102
{ACAD_REACTORS
330
47
102
}
330
47
100
AcDbScale
 70
     0
300
1:16
140
1.0
141
16.0
290
     0
  0
SCALE
  5
4F
102
{ACAD_REACTORS
330
47
102
}
330
47
100
AcDbScale
 70
     0
300
1:20
140
1.0
141
20.0
290
     0
  0
SCALE
  5
50
102
{ACAD_REACTORS
330
47
102
}
330
47
100
AcDbScale
 70
     0
300
1:30
140
1.0
141
30.0
290
     0
  0
SCALE
  5
51
102
{ACAD_REACTORS
330
47
102
}
330
47
100
AcDbScale
 70
     0
300
1:40
140
1.0
141
40.0
290
     0
  0
SCALE
  5
52
102
{ACAD_REACTORS
330
47
102
}
330
47
100
AcDbScale
 70
     0
300
1:50
140
1.0
141
50.0
290
     0
  0
SCALE
  5
53
102
{ACAD_REACTORS
330
47
102
}
330
47
100
AcDbScale
 70
     0
300
1:100
140
1.0
141
100.0
290
     0
  0
SCALE
  5
54
102
{ACAD_REACTORS
330
47
102
}
330
47
100
AcDbScale
 70
     0
300
2:1
140
2.0
141
1.0
290
     0
  0
SCALE
  5
55
102
{ACAD_REACTORS
330
47
102
}
330
47
100
AcDbScale
 70
     0
300
4:1
140
4.0
141
1.0
290
     0
  0
SCALE
  5
56
102
{ACAD_REACTORS
330
47
102
}
330
47
100
AcDbScale
 70
     0
300
8:1
140
8.0
141
1.0
290
     0
  0
SCALE
  5
57
102
{ACAD_REACTORS
330
47
102
}
330
47
100
AcDbScale
 70
     0
300
10:1
140
10.0
141
1.0
290
     0
  0
SCALE
  5
58
102
{ACAD_REACTORS
330
47
102
}
330
47
100
AcDbScale
 70
     0
300
100:1
140
100.0
141
1.0
290
     0
  0
SCALE
  5
59
102
{ACAD_REACTORS
330
47
102
}
330
47
100
AcDbScale
 70
     0
300
1/128" = 1'-0"
140
0.0078125
141
12.0
290
     0
  0
SCALE
  5
5A
102
{ACAD_REACTORS
330
47
102
}
330
47
100
AcDbScale
 70
     0
300
1/64" = 1'-0"
140
0.015625
141
12.0
290
     0
  0
SCALE
  5
5B
102
{ACAD_REACTORS
330
47
102
}
330
47
100
AcDbScale
 70
     0
300
1/32" = 1'-0"
140
0.03125
141
12.0
290
     0
  0
SCALE
  5
5C
102
{ACAD_REACTORS
330
47
102
}
330
47
100
AcDbScale
 70
     0
300
1/16" = 1'-0"
140
0.0625
141
12.0
290
     0
  0
SCALE
  5
5D
102
{ACAD_REACTORS
330
47
102
}
330
47
100
AcDbScale
 70
     0
300
3/32" = 1'-0"
140
0.09375
141
12.0
290
     0
  0
SCALE
  5
5E
102
{ACAD_REACTORS
330
47
102
}
330
47
100
AcDbScale
 70
     0
300
1/8" = 1'-0"
140
0.125
141
12.0
290
     0
  0
SCALE
  5
5F
102
{ACAD_REACTORS
330
47
102
}
330
47
100
AcDbScale
 70
     0
300
3/16" = 1'-0"
140
0.1875
141
12.0
290
     0
  0
SCALE
  5
60
102
{ACAD_REACTORS
330
47
102
}
330
47
100
AcDbScale
 70
     0
300
1/4" = 1'-0"
140
0.25
141
12.0
290
     0
  0
SCALE
  5
61
102
{ACAD_REACTORS
330
47
102
}
330
47
100
AcDbScale
 70
     0
300
3/8" = 1'-0"
140
0.375
141
12.0
290
     0
  0
SCALE
  5
62
102
{ACAD_REACTORS
330
47
102
}
330
47
100
AcDbScale
 70
     0
300
1/2" = 1'-0"
140
0.5
141
12.0
290
     0
  0
SCALE
  5
63
102
{ACAD_REACTORS
330
47
102
}
330
47
100
AcDbScale
 70
     0
300
3/4" = 1'-0"
140
0.75
141
12.0
290
     0
  0
SCALE
  5
64
102
{ACAD_REACTORS
330
47
102
}
330
47
100
AcDbScale
 70
     0
300
1" = 1'-0"
140
1.0
141
12.0
290
     0
  0
SCALE
  5
65
102
{ACAD_REACTORS
330
47
102
}
330
47
100
AcDbScale
 70
     0
300
1-1/2" = 1'-0"
140
1.5
141
12.0
290
     0
  0
SCALE
  5
66
102
{ACAD_REACTORS
330
47
102
}
330
47
100
AcDbScale
 70
     0
300
3" = 1'-0"
140
3.0
141
12.0
290
     0
  0
SCALE
  5
67
102
{ACAD_REACTORS
330
47
102
}
330
47
100
AcDbScale
 70
     0
300
6" = 1'-0"
140
6.0
141
12.0
290
     0
  0
SCALE
  5
68
102
{ACAD_REACTORS
330
47
102
}
330
47
100
AcDbScale
 70
     0
300
1'-0" = 1'-0"
140
12.0
141
12.0
290
     0
  0
ENDSEC
  0
EOF
