  0
SECTION
  2
HEADER
  9
$ACADVER
  1
AC1015
  9
$ACADMAINTVER
 70
     6
  9
$DWGCODEPAGE
  3
ANSI_1252
  9
$INSBASE
 10
0.0
 20
0.0
 30
0.0
  9
$EXTMIN
 10
0.0
 20
0.0
 30
0.0
  9
$EXTMAX
 10
297.0
 20
210.0
 30
0.0
  9
$LIMMIN
 10
0.0
 20
0.0
  9
$LIMMAX
 10
297.0
 20
210.0
  9
$ORTHOMODE
 70
     0
  9
$REGENMODE
 70
     1
  9
$FILLMODE
 70
     1
  9
$QTEXTMODE
 70
     0
  9
$MIRRTEXT
 70
     1
  9
$LTSCALE
 40
1.0
  9
$ATTMODE
 70
     1
  9
$TEXTSIZE
 40
2.0
  9
$TRACEWID
 40
1.0
  9
$TEXTSTYLE
  7
Standard
  9
$CLAYER
  8
0
  9
$CELTYPE
  6
ByLayer
  9
$CECOLOR
 62
   256
  9
$CELTSCALE
 40
1.0
  9
$DISPSILH
 70
     0
  9
$DIMSCALE
 40
1.0
  9
$DIMASZ
 40
3.0
  9
$DIMEXO
 40
0.0
  9
$DIMDLI
 40
3.75
  9
$DIMRND
 40
0.0
  9
$DIMDLE
 40
0.0
  9
$DIMEXE
 40
1.0
  9
$DIMTP
 40
0.0
  9
$DIMTM
 40
0.0
  9
$DIMTXT
 40
2.0
  9
$DIMCEN
 40
2.5
  9
$DIMTSZ
 40
0.0
  9
$DIMTOL
 70
     0
  9
$DIMLIM
 70
     0
  9
$DIMTIH
 70
     1
  9
$DIMTOH
 70
     1
  9
$DIMSE1
 70
     0
  9
$DIMSE2
 70
     0
  9
$DIMTAD
 70
     1
  9
$DIMZIN
 70
     0
  9
$DIMBLK
  1

  9
$DIMASO
 70
     1
  9
$DIMSHO
 70
     1
  9
$DIMPOST
  1

  9
$DIMAPOST
  1

  9
$DIMALT
 70
     0
  9
$DIMALTD
 70
     3
  9
$DIMALTF
 40
0.0393700787
  9
$DIMLFAC
 40
1.0
  9
$DIMTOFL
 70
     1
  9
$DIMTVP
 40
0.0
  9
$DIMTIX
 70
     0
  9
$DIMSOXD
 70
     0
  9
$DIMSAH
 70
     0
  9
$DIMBLK1
  1

  9
$DIMBLK2
  1

  9
$DIMSTYLE
  2
ISO-25
  9
$DIMCLRD
 70
     0
  9
$DIMCLRE
 70
     0
  9
$DIMCLRT
 70
     0
  9
$DIMTFAC
 40
1.0
  9
$DIMGAP
 40
1.524
  9
$DIMJUST
 70
     0
  9
$DIMSD1
 70
     0
  9
$DIMSD2
 70
     0
  9
$DIMTOLJ
 70
     0
  9
$DIMTZIN
 70
     0
  9
$DIMALTZ
 70
     0
  9
$DIMALTTZ
 70
     0
  9
$DIMUPT
 70
     0
  9
$DIMDEC
 70
     2
  9
$DIMTDEC
 70
     3
  9
$DIMALTU
 70
     2
  9
$DIMALTTD
 70
     3
  9
$DIMTXSTY
  7
Standard
  9
$DIMAUNIT
 70
     0
  9
$DIMADEC
 70
     2
  9
$DIMALTRND
 40
0.0
  9
$DIMAZIN
 70
     0
  9
$DIMDSEP
 70
    44
  9
$DIMATFIT
 70
     3
  9
$DIMFRAC
 70
     0
  9
$DIMLDRBLK
  1

  9
$DIMLUNIT
 70
     2
  9
$DIMLWD
 70
    -2
  9
$DIMLWE
 70
    -2
  9
$DIMTMOVE
 70
     0
  9
$LUNITS
 70
     2
  9
$LUPREC
 70
     2
  9
$SKETCHINC
 40
1.0
  9
$FILLETRAD
 40
10.0
  9
$AUNITS
 70
     0
  9
$AUPREC
 70
     2
  9
$MENU
  1
.
  9
$ELEVATION
 40
0.0
  9
$PELEVATION
 40
0.0
  9
$THICKNESS
 40
0.0
  9
$LIMCHECK
 70
     0
  9
$CHAMFERA
 40
10.0
  9
$CHAMFERB
 40
10.0
  9
$CHAMFERC
 40
20.0
  9
$CHAMFERD
 40
0.0
  9
$SKPOLY
 70
     0
  9
$TDCREATE
 40
2456070.658713519
  9
$TDUCREATE
 40
2456070.575380185
  9
$TDUPDATE
 40
2456070.65871515
  9
$TDUUPDATE
 40
2456070.575381817
  9
$TDINDWG
 40
0.0000000116
  9
$TDUSRTIMER
 40
0.0000000116
  9
$USRTIMER
 70
     1
  9
$ANGBASE
 50
0.0
  9
$ANGDIR
 70
     0
  9
$PDMODE
 70
     0
  9
$PDSIZE
 40
-1.0
  9
$PLINEWID
 40
0.0
  9
$SPLFRAME
 70
     0
  9
$SPLINETYPE
 70
     6
  9
$SPLINESEGS
 70
     8
  9
$HANDSEED
  5
1FE
  9
$SURFTAB1
 70
     6
  9
$SURFTAB2
 70
     6
  9
$SURFTYPE
 70
     6
  9
$SURFU
 70
     6
  9
$SURFV
 70
     6
  9
$UCSBASE
  2

  9
$UCSNAME
  2

  9
$UCSORG
 10
0.0
 20
0.0
 30
0.0
  9
$UCSXDIR
 10
1.0
 20
0.0
 30
0.0
  9
$UCSYDIR
 10
0.0
 20
1.0
 30
0.0
  9
$UCSORTHOREF
  2

  9
$UCSORTHOVIEW
 70
     0
  9
$UCSORGTOP
 10
0.0
 20
0.0
 30
0.0
  9
$UCSORGBOTTOM
 10
0.0
 20
0.0
 30
0.0
  9
$UCSORGLEFT
 10
0.0
 20
0.0
 30
0.0
  9
$UCSORGRIGHT
 10
0.0
 20
0.0
 30
0.0
  9
$UCSORGFRONT
 10
0.0
 20
0.0
 30
0.0
  9
$UCSORGBACK
 10
0.0
 20
0.0
 30
0.0
  9
$PUCSBASE
  2

  9
$PUCSNAME
  2

  9
$PUCSORG
 10
0.0
 20
0.0
 30
0.0
  9
$PUCSXDIR
 10
1.0
 20
0.0
 30
0.0
  9
$PUCSYDIR
 10
0.0
 20
1.0
 30
0.0
  9
$PUCSORTHOREF
  2

  9
$PUCSORTHOVIEW
 70
     0
  9
$PUCSORGTOP
 10
0.0
 20
0.0
 30
0.0
  9
$PUCSORGBOTTOM
 10
0.0
 20
0.0
 30
0.0
  9
$PUCSORGLEFT
 10
0.0
 20
0.0
 30
0.0
  9
$PUCSORGRIGHT
 10
0.0
 20
0.0
 30
0.0
  9
$PUCSORGFRONT
 10
0.0
 20
0.0
 30
0.0
  9
$PUCSORGBACK
 10
0.0
 20
0.0
 30
0.0
  9
$USERI1
 70
     0
  9
$USERI2
 70
     0
  9
$USERI3
 70
     0
  9
$USERI4
 70
     0
  9
$USERI5
 70
     0
  9
$USERR1
 40
0.0
  9
$USERR2
 40
0.0
  9
$USERR3
 40
0.0
  9
$USERR4
 40
0.0
  9
$USERR5
 40
0.0
  9
$WORLDVIEW
 70
     1
  9
$SHADEDGE
 70
     3
  9
$SHADEDIF
 70
    70
  9
$TILEMODE
 70
     1
  9
$MAXACTVP
 70
    64
  9
$PINSBASE
 10
0.0
 20
0.0
 30
0.0
  9
$PLIMCHECK
 70
     0
  9
$PEXTMIN
 10
1.0000000000E+20
 20
1.0000000000E+20
 30
1.0000000000E+20
  9
$PEXTMAX
 10
-1.0000000000E+20
 20
-1.0000000000E+20
 30
-1.0000000000E+20
  9
$PLIMMIN
 10
0.0
 20
0.0
  9
$PLIMMAX
 10
420.0
 20
297.0
  9
$UNITMODE
 70
     0
  9
$VISRETAIN
 70
     1
  9
$PLINEGEN
 70
     0
  9
$PSLTSCALE
 70
     1
  9
$TREEDEPTH
 70
  3020
  9
$CMLSTYLE
  2
Standard
  9
$CMLJUST
 70
     0
  9
$CMLSCALE
 40
20.0
  9
$PROXYGRAPHICS
 70
     1
  9
$MEASUREMENT
 70
     1
  9
$CELWEIGHT
370
    -1
  9
$ENDCAPS
280
     0
  9
$JOINSTYLE
280
     0
  9
$LWDISPLAY
290
     1
  9
$INSUNITS
 70
     4
  9
$HYPERLINKBASE
  1

  9
$STYLESHEET
  1

  9
$XEDIT
290
     1
  9
$CEPSNTYPE
380
     0
  9
$PSTYLEMODE
290
     1
  9
$FINGERPRINTGUID
  2
{FE7ECED5-683A-4C70-8095-01DCDE437361}
  9
$VERSIONGUID
  2
{FAEB1C32-E019-11D5-929B-00C0DF256EC4}
  9
$EXTNAMES
290
     1
  9
$PSVPSCALE
 40
0.0
  9
$OLESTARTUP
290
     0
  0
ENDSEC
  0
SECTION
  2
CLASSES
  0
CLASS
  1
ACDBDICTIONARYWDFLT
  2
AcDbDictionaryWithDefault
  3
ObjectDBX Classes
 90
        0
280
     0
281
     0
  0
CLASS
  1
VISUALSTYLE
  2
AcDbVisualStyle
  3
ObjectDBX Classes
 90
     4095
280
     0
281
     0
  0
CLASS
  1
MATERIAL
  2
AcDbMaterial
  3
ObjectDBX Classes
 90
     1153
280
     0
281
     0
  0
CLASS
  1
ACDBPLACEHOLDER
  2
AcDbPlaceHolder
  3
ObjectDBX Classes
 90
        0
280
     0
281
     0
  0
CLASS
  1
LAYOUT
  2
AcDbLayout
  3
ObjectDBX Classes
 90
        0
280
     0
281
     0
  0
ENDSEC
  0
SECTION
  2
TABLES
  0
TABLE
  2
VPORT
  5
8
330
0
100
AcDbSymbolTable
 70
     1
  0
VPORT
  5
29
330
8
100
AcDbSymbolTableRecord
100
AcDbViewportTableRecord
  2
*Active
 70
     0
 10
0.0
 20
0.0
 11
1.0
 21
1.0
 12
148.5
 22
105.0
 13
0.0
 23
0.0
 14
10.0
 24
10.0
 15
10.0
 25
10.0
 16
0.0
 26
0.0
 36
1.0
 17
0.0
 27
0.0
 37
0.0
 40
210.0
 41
1.4142857143
 42
50.0
 43
0.0
 44
0.0
 50
0.0
 51
0.0
 71
     0
 72
  2000
 73
     1
 74
     3
 75
     0
 76
     0
 77
     0
 78
     0
281
     0
 65
     1
110
0.0
120
0.0
130
0.0
111
1.0
121
0.0
131
0.0
112
0.0
122
1.0
132
0.0
 79
     0
146
0.0
  0
ENDTAB
  0
TABLE
  2
LTYPE
  5
5
330
0
100
AcDbSymbolTable
 70
     6
  0
LTYPE
  5
14
330
5
100
AcDbSymbolTableRecord
100
AcDbLinetypeTableRecord
  2
ByBlock
 70
     0
  3

 72
    65
 73
     0
 40
0.0
  0
LTYPE
  5
15
330
5
100
AcDbSymbolTableRecord
100
AcDbLinetypeTableRecord
  2
ByLayer
 70
     0
  3

 72
    65
 73
     0
 40
0.0
  0
LTYPE
  5
16
330
5
100
AcDbSymbolTableRecord
100
AcDbLinetypeTableRecord
  2
Continuous
 70
     0
  3
Solid line
 72
    65
 73
     0
 40
0.0
  0
LTYPE
  5
3F
330
5
100
AcDbSymbolTableRecord
100
AcDbLinetypeTableRecord
  2
HIDDEN
 70
     0
  3
Hidden __ __ __ __ __ __ __ __ __ __ __ __ __ __
 72
    65
 73
     2
 40
1.905
 49
1.27
 74
     0
 49
-0.635
 74
     0
  0
LTYPE
  5
40
330
5
100
AcDbSymbolTableRecord
100
AcDbLinetypeTableRecord
  2
PHANTOM
 70
     0
  3
Phantom ______  __  __  ______  __  __  ______
 72
    65
 73
     6
 40
12.7
 49
6.35
 74
     0
 49
-1.27
 74
     0
 49
1.27
 74
     0
 49
-1.27
 74
     0
 49
1.27
 74
     0
 49
-1.27
 74
     0
  0
LTYPE
  5
41
330
5
100
AcDbSymbolTableRecord
100
AcDbLinetypeTableRecord
  2
CENTER
 70
     0
  3
Center ____ _ ____ _ ____ _ ____ _ ____ _ ____
 72
    65
 73
     4
 40
10.16
 49
6.35
 74
     0
 49
-1.27
 74
     0
 49
1.27
 74
     0
 49
-1.27
 74
     0
  0
LTYPE
  5
42
330
5
100
AcDbSymbolTableRecord
100
AcDbLinetypeTableRecord
  2
CENTERX2
 70
     0
  3
Center (2x) ________  __  ________  __  _____
 72
    65
 73
     4
 40
20.32
 49
12.7
 74
     0
 49
-2.54
 74
     0
 49
2.54
 74
     0
 49
-2.54
 74
     0
  0
LTYPE
  5
43
330
5
100
AcDbSymbolTableRecord
100
AcDbLinetypeTableRecord
  2
DOT2
 70
     0
  3
Dot (.5x) ........................................
 72
    65
 73
     2
 40
0.635
 49
0.0
 74
     0
 49
-0.635
 74
     0
  0
ENDTAB
  0
TABLE
  2
LAYER
  5
2
330
0
100
AcDbSymbolTable
 70
     5
  0
LAYER
  5
10
330
2
100
AcDbSymbolTableRecord
100
AcDbLayerTableRecord
  2
0
 70
     0
 62
     7
  6
Continuous
370
    -3
390
F
  0
LAYER
  5
44
330
2
100
AcDbSymbolTableRecord
100
AcDbLayerTableRecord
  2
FORMAT
 70
     0
 62
     7
  6
Continuous
370
    -3
390
F
  0
LAYER
  5
45
330
2
100
AcDbSymbolTableRecord
100
AcDbLayerTableRecord
  2
VERMASSUNG
 70
     0
 62
     7
  6
Continuous
370
    -3
390
F
  0
LAYER
  5
46
330
2
100
AcDbSymbolTableRecord
100
AcDbLayerTableRecord
  2
KOPF_DÜNN
 70
     0
 62
     7
  6
Continuous
370
    -3
390
F
  0
LAYER
  5
47
330
2
100
AcDbSymbolTableRecord
100
AcDbLayerTableRecord
  2
KOPF_DICK
 70
     0
 62
     7
  6
Continuous
370
    15
390
F
  0
ENDTAB
  0
TABLE
  2
STYLE
  5
3
330
0
100
AcDbSymbolTable
 70
     2
  0
STYLE
  5
11
330
3
100
AcDbSymbolTableRecord
100
AcDbTextStyleTableRecord
  2
Standard
 70
     0
 40
0.0
 41
1.0
 50
0.0
 71
     0
 42
2.0
  3
txt
  4

  0
STYLE
  5
48
330
3
100
AcDbSymbolTableRecord
100
AcDbTextStyleTableRecord
  2
SLDTEXTSTYLE0
 70
     0
 40
0.0
 41
0.7
 50
0.0
 71
     0
 42
0.2
  3
TXT
  4

  0
ENDTAB
  0
TABLE
  2
VIEW
  5
6
330
0
100
AcDbSymbolTable
 70
     0
  0
ENDTAB
  0
TABLE
  2
UCS
  5
7
330
0
100
AcDbSymbolTable
 70
     0
  0
ENDTAB
  0
TABLE
  2
APPID
  5
9
330
0
100
AcDbSymbolTable
 70
     1
  0
APPID
  5
12
330
9
100
AcDbSymbolTableRecord
100
AcDbRegAppTableRecord
  2
ACAD
 70
     0
  0
ENDTAB
  0
TABLE
  2
DIMSTYLE
  5
A
330
0
100
AcDbSymbolTable
 70
     5
100
AcDbDimStyleTable
  0
DIMSTYLE
105
27
330
A
100
AcDbSymbolTableRecord
100
AcDbDimStyleTableRecord
  2
ISO-25
 70
     0
 41
2.5
 42
0.625
 43
3.75
 44
1.25
 73
     0
 74
     0
 77
     1
 78
     8
140
2.5
141
2.5
143
0.0393700787
147
0.625
171
     3
172
     1
178
     0
271
     2
272
     2
274
     3
278
    44
283
     0
284
     8
340
11
  0
DIMSTYLE
105
184
102
{ACAD_REACTORS
330
183
102
}
330
A
100
AcDbSymbolTableRecord
100
AcDbDimStyleTableRecord
  2
SLDDIMSTYLE0
 70
     0
 41
3.0
 44
0.0
 73
     0
 74
     0
 77
     1
 78
    12
 79
     3
140
2.0
147
0.5
173
     1
178
     0
179
     2
272
     3
276
     2
284
    12
340
48
  0
DIMSTYLE
105
18D
102
{ACAD_REACTORS
330
18C
330
1A4
102
}
330
A
100
AcDbSymbolTableRecord
100
AcDbDimStyleTableRecord
  2
SLDDIMSTYLE1
 70
     0
 41
3.0
 44
0.0
 45
0.000000001
 47
0.1
 48
0.1
 71
     1
 73
     0
 74
     0
 77
     1
 78
    12
 79
     3
140
2.0
147
0.5
173
     1
178
     0
271
     2
272
     1
276
     2
284
     8
340
48
  0
DIMSTYLE
105
19A
102
{ACAD_REACTORS
330
199
330
1B0
102
}
330
A
100
AcDbSymbolTableRecord
100
AcDbDimStyleTableRecord
  2
SLDDIMSTYLE2
 70
     0
 41
3.0
 44
0.0
 45
0.000000001
 73
     0
 74
     0
 77
     1
 78
    12
 79
     3
140
2.0
147
0.5
173
     1
178
     0
271
     2
272
     3
276
     2
284
    12
340
48
  0
DIMSTYLE
105
1E3
102
{ACAD_REACTORS
330
1E2
102
}
330
A
100
AcDbSymbolTableRecord
100
AcDbDimStyleTableRecord
  2
SLDDIMSTYLE3
 70
     0
 41
3.0
 44
0.0
 45
0.000000001
 73
     0
 74
     0
 77
     1
 78
    12
 79
     3
140
2.0
147
0.5
172
     1
173
     1
178
     0
271
     2
272
     3
276
     2
284
    12
289
     0
340
48
  0
ENDTAB
  0
TABLE
  2
BLOCK_RECORD
  5
1
330
0
100
AcDbSymbolTable
 70
     8
  0
BLOCK_RECORD
  5
1F
330
1
100
AcDbSymbolTableRecord
100
AcDbBlockTableRecord
  2
*Model_Space
340
22
  0
BLOCK_RECORD
  5
1B
330
1
100
AcDbSymbolTableRecord
100
AcDbBlockTableRecord
  2
*Paper_Space
340
1E
  0
BLOCK_RECORD
  5
23
330
1
100
AcDbSymbolTableRecord
100
AcDbBlockTableRecord
  2
*Paper_Space0
340
26
  0
BLOCK_RECORD
  5
185
330
1
100
AcDbSymbolTableRecord
100
AcDbBlockTableRecord
  2
_D
340
0
  0
BLOCK_RECORD
  5
18E
330
1
100
AcDbSymbolTableRecord
100
AcDbBlockTableRecord
  2
_D_1
340
0
  0
BLOCK_RECORD
  5
19B
330
1
100
AcDbSymbolTableRecord
100
AcDbBlockTableRecord
  2
_D_2
340
0
  0
BLOCK_RECORD
  5
1A5
330
1
100
AcDbSymbolTableRecord
100
AcDbBlockTableRecord
  2
_D_3
340
0
  0
BLOCK_RECORD
  5
1B1
330
1
100
AcDbSymbolTableRecord
100
AcDbBlockTableRecord
  2
_D_4
340
0
  0
BLOCK_RECORD
  5
1E4
330
1
100
AcDbSymbolTableRecord
100
AcDbBlockTableRecord
  2
_D_5
340
0
  0
BLOCK_RECORD
  5
1F1
330
1
100
AcDbSymbolTableRecord
100
AcDbBlockTableRecord
  2
SW_CENTERMARKSYMBOL_0
340
0
102
{BLKREFS
331
1FC
102
}
  0
ENDTAB
  0
ENDSEC
  0
SECTION
  2
BLOCKS
  0
BLOCK
  5
20
330
1F
100
AcDbEntity
  8
0
100
AcDbBlockBegin
  2
*Model_Space
 70
     0
 10
0.0
 20
0.0
 30
0.0
  3
*Model_Space
  1

  0
ENDBLK
  5
21
330
1F
100
AcDbEntity
  8
0
100
AcDbBlockEnd
  0
BLOCK
  5
1C
330
1B
100
AcDbEntity
 67
     1
  8
0
100
AcDbBlockBegin
  2
*Paper_Space
 70
     0
 10
0.0
 20
0.0
 30
0.0
  3
*Paper_Space
  1

  0
ENDBLK
  5
1D
330
1B
100
AcDbEntity
 67
     1
  8
0
100
AcDbBlockEnd
  0
BLOCK
  5
24
330
23
100
AcDbEntity
  8
0
100
AcDbBlockBegin
  2
*Paper_Space0
 70
     0
 10
0.0
 20
0.0
 30
0.0
  3
*Paper_Space0
  1

  0
ENDBLK
  5
25
330
23
100
AcDbEntity
  8
0
100
AcDbBlockEnd
  0
BLOCK
  5
186
330
185
100
AcDbEntity
  8
0
100
AcDbBlockBegin
  2
_D
 70
     0
 10
0.0
 20
0.0
 30
0.0
  3
_D
  1

  0
ARC
  5
188
330
185
100
AcDbEntity
  8
VERMASSUNG
100
AcDbCircle
 10
256.7884942834
 20
160.6949134965
 30
0.0
 40
9.612602551651833
100
AcDbArc
 50
90.0
 51
183.0
  0
SOLID
  5
189
330
185
100
AcDbEntity
  8
VERMASSUNG
100
AcDbTrace
 10
256.7884942834
 20
170.3075160482
 30
0.0
 11
253.7549405107
 21
170.3003391342
 31
0.0
 12
253.8905522407
 22
169.4106147619
 32
0.0
 13
253.8905522407
 23
169.4106147619
 33
0.0
  0
SOLID
  5
18A
330
185
100
AcDbEntity
  8
VERMASSUNG
100
AcDbTrace
 10
247.1890654694
 20
160.19182875
 30
0.0
 11
247.9330710157
 21
163.1327394503
 31
0.0
 12
247.0374686101
 22
163.2216007533
 32
0.0
 13
247.0374686101
 23
163.2216007533
 33
0.0
  0
MTEXT
  5
18B
330
185
100
AcDbEntity
  8
VERMASSUNG
100
AcDbMText
 10
245.9494170319
 20
166.9828779032
 30
0.1
 40
2.0
 41
0.0
 71
     1
 72
     1
  1
93°
  7
SLDTEXTSTYLE0
 11
0.6883545756937481
 21
0.7253743710122932
 31
0.0
 73
     1
 44
1.0
  0
ENDBLK
  5
187
330
185
100
AcDbEntity
  8
0
100
AcDbBlockEnd
  0
BLOCK
  5
18F
330
18E
100
AcDbEntity
  8
0
100
AcDbBlockBegin
  2
_D_1
 70
     0
 10
0.0
 20
0.0
 30
0.0
  3
_D_1
  1

  0
SOLID
  5
191
330
18E
100
AcDbEntity
  8
VERMASSUNG
100
AcDbTrace
 10
191.7884942834
 20
175.5265007631
 30
0.0
 11
194.7884942834
 21
175.0765007631
 31
0.0
 12
194.7884942834
 22
175.9765007631
 32
0.0
 13
194.7884942834
 23
175.9765007631
 33
0.0
  0
SOLID
  5
192
330
18E
100
AcDbEntity
  8
VERMASSUNG
100
AcDbTrace
 10
256.7884942834
 20
175.5265007631
 30
0.0
 11
253.7884942834
 21
175.9765007631
 31
0.0
 12
253.7884942834
 22
175.0765007631
 32
0.0
 13
253.7884942834
 23
175.0765007631
 33
0.0
  0
LINE
  5
193
330
18E
100
AcDbEntity
  8
VERMASSUNG
100
AcDbLine
 10
191.7884942834
 20
146.6734014464
 30
0.0
 11
191.7884942834
 21
176.5265007631
 31
0.0
  0
LINE
  5
194
330
18E
100
AcDbEntity
  8
VERMASSUNG
100
AcDbLine
 10
256.7884942834
 20
160.6734014464
 30
0.0
 11
256.7884942834
 21
176.5265007631
 31
0.0
  0
LINE
  5
195
330
18E
100
AcDbEntity
  8
VERMASSUNG
100
AcDbLine
 10
191.7884942834
 20
175.5265007631
 30
0.0
 11
256.7884942834
 21
175.5265007631
 31
0.0
  0
MTEXT
  5
196
330
18E
100
AcDbEntity
  8
VERMASSUNG
100
AcDbMText
 10
219.7384940964
 20
178.1046361263
 30
0.1
 40
2.0
 41
0.0
 71
     1
 72
     1
  1
65
  7
SLDTEXTSTYLE0
 73
     1
 44
1.0
  0
MTEXT
  5
197
330
18E
100
AcDbEntity
  8
VERMASSUNG
100
AcDbMText
 10
225.5259941984
 20
178.1046361263
 30
0.1
 40
2.0
 41
0.0
 71
     1
 72
     1
  1

  7
SLDTEXTSTYLE0
 73
     1
 44
1.0
  0
MTEXT
  5
198
330
18E
100
AcDbEntity
  8
VERMASSUNG
100
AcDbMText
 10
225.5384944883
 20
177.6101022635
 30
0.1
 40
1.5
 41
0.0
 71
     1
 72
     1
  1
±0.1
  7
SLDTEXTSTYLE0
 73
     1
 44
1.0
  0
ENDBLK
  5
190
330
18E
100
AcDbEntity
  8
0
100
AcDbBlockEnd
  0
BLOCK
  5
19C
330
19B
100
AcDbEntity
  8
0
100
AcDbBlockBegin
  2
_D_2
 70
     0
 10
0.0
 20
0.0
 30
0.0
  3
_D_2
  1

  0
SOLID
  5
19E
330
19B
100
AcDbEntity
  8
VERMASSUNG
100
AcDbTrace
 10
256.7884942834
 20
183.1829351271
 30
0.0
 11
253.7884942834
 21
183.6329351271
 31
0.0
 12
253.7884942834
 22
182.7329351271
 32
0.0
 13
253.7884942834
 23
182.7329351271
 33
0.0
  0
SOLID
  5
19F
330
19B
100
AcDbEntity
  8
VERMASSUNG
100
AcDbTrace
 10
153.7884942834
 20
183.1829351271
 30
0.0
 11
156.7884942834
 21
182.7329351271
 31
0.0
 12
156.7884942834
 22
183.6329351271
 32
0.0
 13
156.7884942834
 23
183.6329351271
 33
0.0
  0
LINE
  5
1A0
330
19B
100
AcDbEntity
  8
VERMASSUNG
100
AcDbLine
 10
256.7884942834
 20
160.6734014464
 30
0.0
 11
256.7884942834
 21
184.1829351271
 31
0.0
  0
LINE
  5
1A1
330
19B
100
AcDbEntity
  8
VERMASSUNG
100
AcDbLine
 10
153.7884942834
 20
135.9657394389
 30
0.0
 11
153.7884942834
 21
184.1829351271
 31
0.0
  0
LINE
  5
1A2
330
19B
100
AcDbEntity
  8
VERMASSUNG
100
AcDbLine
 10
256.7884942834
 20
183.1829351271
 30
0.0
 11
153.7884942834
 21
183.1829351271
 31
0.0
  0
MTEXT
  5
1A3
330
19B
100
AcDbEntity
  8
VERMASSUNG
100
AcDbMText
 10
202.4884941504
 20
185.7610704903
 30
0.1
 40
2.0
 41
0.0
 71
     1
 72
     1
  1
103
  7
SLDTEXTSTYLE0
 73
     1
 44
1.0
  0
ENDBLK
  5
19D
330
19B
100
AcDbEntity
  8
0
100
AcDbBlockEnd
  0
BLOCK
  5
1A6
330
1A5
100
AcDbEntity
  8
0
100
AcDbBlockBegin
  2
_D_3
 70
     0
 10
0.0
 20
0.0
 30
0.0
  3
_D_3
  1

  0
SOLID
  5
1A8
330
1A5
100
AcDbEntity
  8
VERMASSUNG
100
AcDbTrace
 10
267.0008574364
 20
160.6734014464
 30
0.0
 11
266.5508574364
 21
157.6734014464
 31
0.0
 12
267.4508574364
 22
157.6734014464
 32
0.0
 13
267.4508574364
 23
157.6734014464
 33
0.0
  0
SOLID
  5
1A9
330
1A5
100
AcDbEntity
  8
VERMASSUNG
100
AcDbTrace
 10
267.0008574364
 20
115.6734014464
 30
0.0
 11
267.4508574364
 21
118.6734014464
 31
0.0
 12
266.5508574364
 22
118.6734014464
 32
0.0
 13
266.5508574364
 23
118.6734014464
 33
0.0
  0
LINE
  5
1AA
330
1A5
100
AcDbEntity
  8
VERMASSUNG
100
AcDbLine
 10
256.7884942834
 20
160.6734014464
 30
0.0
 11
268.0008574364
 21
160.6734014464
 31
0.0
  0
LINE
  5
1AB
330
1A5
100
AcDbEntity
  8
VERMASSUNG
100
AcDbLine
 10
256.7884942834
 20
115.6734014464
 30
0.0
 11
268.0008574364
 21
115.6734014464
 31
0.0
  0
LINE
  5
1AC
330
1A5
100
AcDbEntity
  8
VERMASSUNG
100
AcDbLine
 10
267.0008574364
 20
160.6734014464
 30
0.0
 11
267.0008574364
 21
115.6734014464
 31
0.0
  0
MTEXT
  5
1AD
330
1A5
100
AcDbEntity
  8
VERMASSUNG
100
AcDbMText
 10
264.4227220732
 20
133.5234014293
 30
0.1
 40
2.0
 41
0.0
 71
     1
 72
     1
  1
45
  7
SLDTEXTSTYLE0
 11
-7.044195017643634E-15
 21
1.0
 31
0.0
 73
     1
 44
1.0
  0
MTEXT
  5
1AE
330
1A5
100
AcDbEntity
  8
VERMASSUNG
100
AcDbMText
 10
264.4227220732
 20
139.5109016572
 30
0.1
 40
2.0
 41
0.0
 71
     1
 72
     1
  1

  7
SLDTEXTSTYLE0
 11
-7.044195017643634E-15
 21
1.0
 31
0.0
 73
     1
 44
1.0
  0
MTEXT
  5
1AF
330
1A5
100
AcDbEntity
  8
VERMASSUNG
100
AcDbMText
 10
264.917255936
 20
139.5234014814
 30
0.1
 40
1.5
 41
0.0
 71
     1
 72
     1
  1
±0.1
  7
SLDTEXTSTYLE0
 11
-7.044195017643634E-15
 21
1.0
 31
0.0
 73
     1
 44
1.0
  0
ENDBLK
  5
1A7
330
1A5
100
AcDbEntity
  8
0
100
AcDbBlockEnd
  0
BLOCK
  5
1B2
330
1B1
100
AcDbEntity
  8
0
100
AcDbBlockBegin
  2
_D_4
 70
     0
 10
0.0
 20
0.0
 30
0.0
  3
_D_4
  1

  0
SOLID
  5
1B4
330
1B1
100
AcDbEntity
  8
VERMASSUNG
100
AcDbTrace
 10
143.7884942834
 20
147.1734014464
 30
0.0
 11
143.3384942834
 21
144.1734014464
 31
0.0
 12
144.2384942834
 22
144.1734014464
 32
0.0
 13
144.2384942834
 23
144.1734014464
 33
0.0
  0
SOLID
  5
1B5
330
1B1
100
AcDbEntity
  8
VERMASSUNG
100
AcDbTrace
 10
143.7884942834
 20
84.1734014464
 30
0.0
 11
144.2384942834
 21
87.1734014464
 31
0.0
 12
143.3384942834
 22
87.1734014464
 32
0.0
 13
143.3384942834
 23
87.1734014464
 33
0.0
  0
LINE
  5
1B6
330
1B1
100
AcDbEntity
  8
VERMASSUNG
100
AcDbLine
 10
192.2884942834
 20
147.1734014464
 30
0.0
 11
142.7884942834
 21
147.1734014464
 31
0.0
  0
LINE
  5
1B7
330
1B1
100
AcDbEntity
  8
VERMASSUNG
100
AcDbLine
 10
192.2884942834
 20
84.1734014464
 30
0.0
 11
142.7884942834
 21
84.1734014464
 31
0.0
  0
LINE
  5
1B8
330
1B1
100
AcDbEntity
  8
VERMASSUNG
100
AcDbLine
 10
143.7884942834
 20
147.1734014464
 30
0.0
 11
143.7884942834
 21
84.1734014464
 31
0.0
  0
MTEXT
  5
1B9
330
1B1
100
AcDbEntity
  8
VERMASSUNG
100
AcDbMText
 10
141.0103587943
 20
109.2684013372
 30
0.635711208
 40
2.0
 41
0.0
 71
     1
 72
     1
  1
PSC
  7
SLDTEXTSTYLE0
 11
-7.044195017643634E-15
 21
1.0
 31
0.0
 73
     1
 44
1.0
  0
MTEXT
  5
1BA
330
1B1
100
AcDbEntity
  8
VERMASSUNG
100
AcDbMText
 10
141.2103588038
 20
113.8684014392
 30
0.635711208
 40
2.0
 41
0.0
 71
     1
 72
     1
  1
%%c
  7
SLDTEXTSTYLE0
 11
-7.044195017643634E-15
 21
1.0
 31
0.0
 73
     1
 44
1.0
  0
MTEXT
  5
1BB
330
1B1
100
AcDbEntity
  8
VERMASSUNG
100
AcDbMText
 10
141.0103587943
 20
117.4784019192
 30
0.635711208
 40
2.0
 41
0.0
 71
     1
 72
     1
  1
63
  7
SLDTEXTSTYLE0
 11
-7.044195017643634E-15
 21
1.0
 31
0.0
 73
     1
 44
1.0
  0
ENDBLK
  5
1B3
330
1B1
100
AcDbEntity
  8
0
100
AcDbBlockEnd
  0
BLOCK
  5
1E5
330
1E4
100
AcDbEntity
  8
0
100
AcDbBlockBegin
  2
_D_5
 70
     0
 10
0.0
 20
0.0
 30
0.0
  3
_D_5
  1

  0
SOLID
  5
1E7
330
1E4
100
AcDbEntity
  8
VERMASSUNG
100
AcDbTrace
 10
94.0314930732
 20
88.4085264851
 30
0.0
 11
95.447489858
 21
85.7257195398
 31
0.0
 12
96.1723037732
 22
86.2592406625
 32
0.0
 13
96.1723037732
 23
86.2592406625
 33
0.0
  0
SOLID
  5
1E8
330
1E4
100
AcDbEntity
  8
VERMASSUNG
100
AcDbTrace
 10
46.6073932766
 20
152.8364300555
 30
0.0
 11
45.1913964918
 21
155.5192370008
 31
0.0
 12
44.4665825767
 22
154.9857158781
 32
0.0
 13
44.4665825767
 23
154.9857158781
 33
0.0
  0
LINE
  5
1E9
330
1E4
100
AcDbEntity
  8
VERMASSUNG
100
AcDbLine
 10
94.0314930732
 20
88.4085264851
 30
0.0
 11
94.8368418678
 21
89.0013277325
 31
0.0
  0
LINE
  5
1EA
330
1E4
100
AcDbEntity
  8
VERMASSUNG
100
AcDbLine
 10
46.6073932766
 20
152.8364300555
 30
0.0
 11
47.4127420713
 21
153.429231303
 31
0.0
  0
LINE
  5
1EB
330
1E4
100
AcDbEntity
  8
VERMASSUNG
100
AcDbLine
 10
94.0314930732
 20
88.4085264851
 30
0.0
 11
97.5883005579
 21
83.5764337173
 31
0.0
  0
LINE
  5
1EC
330
1E4
100
AcDbEntity
  8
VERMASSUNG
100
AcDbLine
 10
94.0314930732
 20
88.4085264851
 30
0.0
 11
46.6073932766
 21
152.8364300555
 31
0.0
  0
LINE
  5
1ED
330
1E4
100
AcDbEntity
  8
VERMASSUNG
100
AcDbLine
 10
46.6073932766
 20
152.8364300555
 30
0.0
 11
36.257176477
 21
166.8976936907
 31
0.0
  0
MTEXT
  5
1EE
330
1E4
100
AcDbEntity
  8
VERMASSUNG
100
AcDbMText
 10
38.3334747778
 20
168.4260156191
 30
0.1
 40
2.0
 41
0.0
 71
     1
 72
     1
  1
%%c
  7
SLDTEXTSTYLE0
 11
0.5928012474570963
 21
-0.8053487946308173
 31
0.0
 73
     1
 44
1.0
  0
MTEXT
  5
1EF
330
1E4
100
AcDbEntity
  8
VERMASSUNG
100
AcDbMText
 10
40.6345570562
 20
165.6372667141
 30
0.1
 40
2.0
 41
0.0
 71
     1
 72
     1
  1
80
  7
SLDTEXTSTYLE0
 11
0.5928012474570963
 21
-0.8053487946308173
 31
0.0
 73
     1
 44
1.0
  0
MTEXT
  5
1F0
330
1E4
100
AcDbEntity
  8
VERMASSUNG
100
AcDbMText
 10
44.0653946124
 20
160.9763101079
 30
0.1
 40
2.0
 41
0.0
 71
     1
 72
     1
  1
min.
  7
SLDTEXTSTYLE0
 11
0.5928012474570963
 21
-0.8053487946308173
 31
0.0
 73
     1
 44
1.0
  0
ENDBLK
  5
1E6
330
1E4
100
AcDbEntity
  8
0
100
AcDbBlockEnd
  0
BLOCK
  5
1F2
330
1F1
100
AcDbEntity
  8
0
100
AcDbBlockBegin
  2
SW_CENTERMARKSYMBOL_0
 70
     0
 10
0.0
 20
0.0
 30
0.0
  3
SW_CENTERMARKSYMBOL_0
  1

  0
LINE
  5
1F4
330
1F1
100
AcDbEntity
  8
VERMASSUNG
 62
     0
100
AcDbLine
 10
0.0
 20
0.0
 30
0.0
 11
0.0
 21
2.5
 31
0.0
  0
LINE
  5
1F5
330
1F1
100
AcDbEntity
  8
VERMASSUNG
 62
     0
100
AcDbLine
 10
0.0
 20
0.0
 30
0.0
 11
-2.5
 21
0.0
 31
0.0
  0
LINE
  5
1F6
330
1F1
100
AcDbEntity
  8
VERMASSUNG
 62
     0
100
AcDbLine
 10
0.0
 20
0.0
 30
0.0
 11
0.0
 21
-2.5
 31
0.0
  0
LINE
  5
1F7
330
1F1
100
AcDbEntity
  8
VERMASSUNG
 62
     0
100
AcDbLine
 10
0.0
 20
0.0
 30
0.0
 11
2.5
 21
0.0
 31
0.0
  0
LINE
  5
1F8
330
1F1
100
AcDbEntity
  8
VERMASSUNG
 62
     0
100
AcDbLine
 10
0.0
 20
5.0
 30
0.0
 11
0.0
 21
34.0
 31
0.0
  0
LINE
  5
1F9
330
1F1
100
AcDbEntity
  8
VERMASSUNG
 62
     0
100
AcDbLine
 10
-5.0
 20
0.0
 30
0.0
 11
-34.0
 21
0.0
 31
0.0
  0
LINE
  5
1FA
330
1F1
100
AcDbEntity
  8
VERMASSUNG
 62
     0
100
AcDbLine
 10
0.0
 20
-5.0
 30
0.0
 11
0.0
 21
-34.0
 31
0.0
  0
LINE
  5
1FB
330
1F1
100
AcDbEntity
  8
VERMASSUNG
 62
     0
100
AcDbLine
 10
5.0
 20
0.0
 30
0.0
 11
34.0
 21
0.0
 31
0.0
  0
ENDBLK
  5
1F3
330
1F1
100
AcDbEntity
  8
0
100
AcDbBlockEnd
  0
ENDSEC
  0
SECTION
  2
ENTITIES
  0
MTEXT
  5
49
330
1F
100
AcDbEntity
  8
KOPF_DÜNN
100
AcDbMText
 10
13.8892156294
 20
23.8442973028
 30
0.0
 40
3.0
 41
0.0
 71
     1
 72
     1
  1
PS6.KDB.RJA.065
  7
SLDTEXTSTYLE0
 73
     1
 44
1.0
  0
MTEXT
  5
4A
330
1F
100
AcDbEntity
  8
VERMASSUNG
100
AcDbMText
 10
13.9329988022
 20
28.8834360957
 30
0.0
 40
3.0
 41
0.0
 71
     1
 72
     1
  1
Klemmhalter rechts_Turning tool right 55°/93°
  7
SLDTEXTSTYLE0
 73
     1
 44
1.0
  0
MTEXT
  5
4B
330
1F
100
AcDbEntity
  8
VERMASSUNG
100
AcDbMText
 10
98.8601118557
 20
13.8365368179
 30
0.0
 40
2.0
 41
0.0
 71
     1
 72
     1
  1
Datum: 22.05.2012
  7
SLDTEXTSTYLE0
 73
     1
 44
1.0
  0
MTEXT
  5
4C
330
1F
100
AcDbEntity
  8
VERMASSUNG
100
AcDbMText
 10
13.933048693
 20
18.0482802738
 30
0.0
 40
2.0
 41
0.0
 71
     1
 72
     1
  1
PSC ø63 / DC..11 T3 ..
  7
SLDTEXTSTYLE0
 73
     1
 44
1.0
  0
MTEXT
  5
4D
330
1F
100
AcDbEntity
  8
VERMASSUNG
100
AcDbMText
 10
13.9808475933
 20
13.9090973692
 30
0.0
 40
2.0
 41
0.0
 71
     1
 72
     1
  1
Gewicht: 1247g
  7
SLDTEXTSTYLE0
 73
     1
 44
1.0
  0
LINE
  5
4E
330
1F
100
AcDbEntity
  8
0
  6
Continuous
 62
     7
370
    15
100
AcDbLine
 10
229.0211689417
 20
147.173401953
 30
0.0
 11
192.2884943071
 21
147.173401953
 31
0.0
  0
LINE
  5
4F
330
1F
100
AcDbEntity
  8
0
  6
Continuous
 62
     7
370
    15
100
AcDbLine
 10
192.2884943071
 20
84.1734009397
 30
0.0
 11
226.1007238869
 21
84.1734009397
 31
0.0
  0
ARC
  5
50
330
1F
100
AcDbEntity
  8
0
  6
Continuous
 62
     7
370
    15
100
AcDbCircle
 10
192.2884942834
 20
84.6734014464
 30
0.0
 40
0.5
100
AcDbArc
 50
180.0
 51
270.0
  0
ARC
  5
51
330
1F
100
AcDbEntity
  8
0
  6
Continuous
 62
     7
370
    15
100
AcDbCircle
 10
192.2884942834
 20
146.6734014464
 30
0.0
 40
0.5
100
AcDbArc
 50
90.0
 51
180.0
  0
LWPOLYLINE
  5
52
330
1F
100
AcDbEntity
  8
0
  6
Continuous
 62
     7
370
    15
100
AcDbPolyline
 90
        3
 70
   128
 43
0.0
 10
191.5884942884
 20
93.1335809243
 10
191.7139492236
 20
93.0652795893
 10
191.7884942834
 20
93.0125406546
  0
LWPOLYLINE
  5
53
330
1F
100
AcDbEntity
  8
0
  6
Continuous
 62
     7
370
    15
100
AcDbPolyline
 90
        3
 70
   128
 43
0.0
 10
191.7884942834
 20
138.3342622382
 10
191.7139492236
 20
138.2815233034
 10
191.5884942884
 20
138.2132219685
  0
LWPOLYLINE
  5
54
330
1F
100
AcDbEntity
  8
0
  6
Continuous
 62
     7
370
    15
100
AcDbPolyline
 90
        3
 70
   128
 43
0.0
 10
229.5329195206
 20
147.3142700804
 10
229.4741158132
 20
147.2818637801
 10
229.4604104702
 20
147.275035323
  0
ARC
  5
55
330
1F
100
AcDbEntity
  8
0
  6
Continuous
 62
     7
370
    15
100
AcDbCircle
 10
212.7884942834
 20
129.3234014464
 30
0.0
 40
2.5
100
AcDbArc
 50
21.3713330904
 51
158.6286669096
  0
ELLIPSE
  5
56
330
1F
100
AcDbEntity
  8
0
  6
Continuous
 62
     7
370
    15
100
AcDbEllipse
 10
226.7081095256
 20
115.6734014464
 30
0.0
 11
0.0
 21
31.5
 31
0.0
210
0.0
220
0.0
230
1.0
 40
0.2679491924
 41
0.1320368298873493
 42
3.009555823702445
  0
ELLIPSE
  5
57
330
1F
100
AcDbEntity
  8
0
  6
Continuous
 62
     7
370
    15
100
AcDbEllipse
 10
223.4351337795
 20
133.2382604061
 30
0.0
 11
0.3267812967788757
 21
3.437685688267635
 31
0.0
210
0.0
220
0.0
230
1.0
 40
0.2095444568
 41
0.0
 42
6.283185307179586
  0
SPLINE
  5
58
330
1F
100
AcDbEntity
  8
0
  6
Continuous
 62
     7
370
    15
100
AcDbSpline
210
0.0
220
0.0
230
1.0
 70
     8
 71
     3
 72
    68
 73
    64
 74
     0
 42
0.00000001
 43
0.00000001
 12
1.0
 22
0.0
 32
0.0
 13
1.0
 23
0.0
 33
0.0
 40
-0.0625000000000001
 40
-0.0625000000000001
 40
0.0
 40
0.0
 40
0.03125
 40
0.03125
 40
0.0624999999999999
 40
0.0624999999999999
 40
0.0937499999999999
 40
0.0937499999999999
 40
0.1249999999999998
 40
0.1249999999999998
 40
0.1562499999999998
 40
0.1562499999999998
 40
0.1874999999999997
 40
0.1874999999999997
 40
0.2187499999999997
 40
0.2187499999999997
 40
0.2499999999999996
 40
0.2499999999999996
 40
0.2812499999999996
 40
0.2812499999999996
 40
0.3124999999999995
 40
0.3124999999999995
 40
0.3437499999999994
 40
0.3437499999999994
 40
0.3749999999999994
 40
0.3749999999999994
 40
0.4062499999999994
 40
0.4062499999999994
 40
0.4374999999999993
 40
0.4374999999999993
 40
0.4687499999999993
 40
0.4687499999999993
 40
0.4999999999999992
 40
0.4999999999999992
 40
0.5312499999999992
 40
0.5312499999999992
 40
0.5624999999999991
 40
0.5624999999999991
 40
0.5937499999999991
 40
0.5937499999999991
 40
0.624999999999999
 40
0.624999999999999
 40
0.656249999999999
 40
0.656249999999999
 40
0.6874999999999989
 40
0.6874999999999989
 40
0.7187499999999989
 40
0.7187499999999989
 40
0.7499999999999989
 40
0.7499999999999989
 40
0.781249999999999
 40
0.781249999999999
 40
0.8124999999999992
 40
0.8124999999999992
 40
0.8437499999999993
 40
0.8437499999999993
 40
0.8749999999999996
 40
0.8749999999999996
 40
0.9062499999999997
 40
0.9062499999999997
 40
0.9374999999999999
 40
0.9374999999999999
 40
1.0
 40
1.0
 40
1.03125
 40
1.03125
 10
212.3918646630067
 20
133.9498863780175
 30
0.0
 10
212.9868090935614
 20
133.9498863780174
 30
0.0
 10
213.181787339811
 20
133.9339643244203
 30
0.0
 10
213.5653505649566
 20
133.8714913029721
 30
0.0
 10
213.7559313404189
 20
133.8241738298418
 30
0.0
 10
214.1191806272057
 20
133.7003858372662
 30
0.0
 10
214.2914473662016
 20
133.6245182966466
 30
0.0
 10
214.6174690829096
 20
133.444633348756
 30
0.0
 10
214.7717444496862
 20
133.3396998997434
 30
0.0
 10
215.0483073709372
 20
133.1094761384949
 30
0.0
 10
215.1724502612526
 20
132.9833853586987
 30
0.0
 10
215.3917650336236
 20
132.708118088981
 30
0.0
 10
215.4848954890269
 20
132.5610122499138
 30
0.0
 10
215.6345498195531
 20
132.2550225874394
 30
0.0
 10
215.6921967895449
 20
132.0938756939557
 30
0.0
 10
215.7693033513673
 20
131.762070098527
 30
0.0
 10
215.7883871327107
 20
131.5943536726949
 30
0.0
 10
215.7886005427881
 20
131.2552813653591
 30
0.0
 10
215.7691052522886
 20
131.0821210410165
 30
0.0
 10
215.6925353778116
 20
130.7452628366694
 30
0.0
 10
215.6358821366024
 20
130.5806445508841
 30
0.0
 10
215.4856061857931
 20
130.2593608492886
 30
0.0
 10
215.3917225233806
 20
130.1033334436255
 30
0.0
 10
215.1746573232842
 20
129.8132832243539
 30
0.0
 10
215.0507260670095
 20
129.6774268241647
 30
0.0
 10
214.7707692218572
 20
129.425311448291
 30
0.0
 10
214.6193100709553
 20
129.3131841377483
 30
0.0
 10
214.2945770620077
 20
129.1163634416272
 30
0.0
 10
214.1192126231913
 20
129.0309440182848
 30
0.0
 10
213.7558956042915
 20
128.8938284843165
 30
0.0
 10
213.5689041513009
 20
128.8420000412765
 30
0.0
 10
213.1843326529442
 20
128.771810860852
 30
0.0
 10
212.9854247998248
 20
128.7537996884326
 30
0.0
 10
212.5937614001282
 20
128.7536685899873
 30
0.0
 10
212.3990536637414
 20
128.7709667687365
 30
0.0
 10
212.0119366000864
 20
128.8409818472308
 30
0.0
 10
211.8224655973595
 20
128.8934816090588
 30
0.0
 10
211.4613330993419
 20
129.0294327157369
 30
0.0
 10
211.2869138499816
 20
129.1138721003385
 30
0.0
 10
210.9587158121776
 20
129.3123218669464
 30
0.0
 10
210.8076375747271
 20
129.4243808530738
 30
0.0
 10
210.5308014816995
 20
129.6730000311537
 30
0.0
 10
210.404037665187
 20
129.8112332091341
 30
0.0
 10
210.1860331270301
 20
130.1020808714098
 30
0.0
 10
210.0937519475
 20
130.255109671856
 30
0.0
 10
209.9428722603346
 20
130.5760765021128
 30
0.0
 10
209.8849258258646
 20
130.7438557335492
 30
0.0
 10
209.8083136434499
 20
131.0795635661683
 30
0.0
 10
209.7886856234345
 20
131.2492893225961
 30
0.0
 10
209.7883057001894
 20
131.5925322911705
 30
0.0
 10
209.807618040694
 20
131.7607928528795
 30
0.0
 10
209.8835386573708
 20
132.0894544486041
 30
0.0
 10
209.9410444263369
 20
132.2517665783523
 30
0.0
 10
210.091404572926
 20
132.5600040571728
 30
0.0
 10
210.1834238608174
 20
132.7053472656929
 30
0.0
 10
210.4007678758074
 20
132.9791520727217
 30
0.0
 10
210.527287295939
 20
133.1081533099466
 30
0.0
 10
210.8037209153988
 20
133.3385926930914
 30
0.0
 10
210.9545505054751
 20
133.4415505652861
 30
0.0
 10
211.2820620977153
 20
133.6229311055738
 30
0.0
 10
211.4566106308034
 20
133.699823743655
 30
0.0
 10
211.997815499175
 20
133.8847145363905
 30
0.0
 10
212.3918646630067
 20
133.9498863780175
 30
0.0
 10
212.9868090935614
 20
133.9498863780174
 30
0.0
  0
SPLINE
  5
59
330
1F
100
AcDbEntity
  8
0
  6
Continuous
 62
     7
370
    15
100
AcDbSpline
210
0.0
220
0.0
230
1.0
 70
     8
 71
     3
 72
    14
 73
    10
 74
     0
 42
0.00000001
 43
0.00000001
 12
1.0
 22
0.0
 32
0.0
 13
1.0
 23
0.0
 33
0.0
 40
0.0
 40
0.0
 40
0.0
 40
0.0
 40
0.25
 40
0.25
 40
0.5
 40
0.5
 40
0.75
 40
0.75
 40
1.0
 40
1.0
 40
1.0
 40
1.0
 10
225.5969012535158
 20
146.8992189689638
 30
0.0
 10
225.7139623950062
 20
146.9572405418908
 30
0.0
 10
225.8779170080142
 20
147.0032871133392
 30
0.0
 10
226.2973109909172
 20
147.07657859636
 30
0.0
 10
226.5563223226805
 20
147.1038083036599
 30
0.0
 10
227.1439451921657
 20
147.1423431297169
 30
0.0
 10
227.4750438840357
 20
147.1541882082121
 30
0.0
 10
228.2093468712367
 20
147.1689615671922
 30
0.0
 10
228.6023142460681
 20
147.1717594098784
 30
0.0
 10
229.0211672953975
 20
147.1728376309625
 30
0.0
  0
SPLINE
  5
5A
330
1F
100
AcDbEntity
  8
0
  6
Continuous
 62
     7
370
    15
100
AcDbSpline
210
0.0
220
0.0
230
1.0
 70
     8
 71
     3
 72
    10
 73
     6
 74
     0
 42
0.00000001
 43
0.00000001
 12
1.0
 22
0.0
 32
0.0
 13
1.0
 23
0.0
 33
0.0
 40
0.0
 40
0.0
 40
0.0
 40
0.0
 40
0.5
 40
0.5
 40
1.0
 40
1.0
 40
1.0
 40
1.0
 10
226.4437272745317
 20
84.25802079705733
 30
0.0
 10
226.2528063618084
 20
84.27847482727547
 30
0.0
 10
226.0833761097066
 20
84.30419001444662
 30
0.0
 10
225.7997892734138
 20
84.36698825327466
 30
0.0
 10
225.6848439054126
 20
84.40399498451771
 30
0.0
 10
225.5969012535158
 20
84.44758392381439
 30
0.0
  0
ELLIPSE
  5
5B
330
1F
100
AcDbEntity
  8
0
  6
Continuous
 62
     7
370
    15
100
AcDbEllipse
 10
248.3229025881
 20
115.6734014464
 30
0.0
 11
22.40942561795884
 21
31.44673815029741
 31
0.0
210
0.0
220
0.0
230
1.0
 40
0.0817078932
 41
3.199753277442024
 42
3.273068107890565
  0
SPLINE
  5
5C
330
1F
100
AcDbEntity
  8
0
  6
Continuous
 62
     7
370
    15
100
AcDbSpline
210
0.0
220
0.0
230
1.0
 70
     8
 71
     3
 72
    12
 73
     8
 74
     0
 42
0.00000001
 43
0.00000001
 12
1.0
 22
0.0
 32
0.0
 13
1.0
 23
0.0
 33
0.0
 40
0.0
 40
0.0
 40
0.0
 40
0.0
 40
0.5
 40
0.5
 40
0.75
 40
0.75
 40
1.0
 40
1.0
 40
1.0
 40
1.0
 10
201.8832383950507
 20
85.77265898627182
 30
0.0
 10
201.9143835930128
 20
85.73484346335164
 30
0.0
 10
201.9566578593472
 20
85.69877660526802
 30
0.0
 10
202.0566033931726
 20
85.65081654025674
 30
0.0
 10
202.0963336978766
 20
85.63595556635909
 30
0.0
 10
202.1932217478828
 20
85.61300442022795
 30
0.0
 10
202.2532869896294
 20
85.60490948751593
 30
0.0
 10
202.3162510969429
 20
85.60490948751591
 30
0.0
  0
LINE
  5
5D
330
1F
100
AcDbEntity
  8
0
  6
Continuous
 62
     7
370
    15
100
AcDbLine
 10
202.3162512798
 20
85.6049089295
 30
0.0
 11
205.2607374955
 21
85.6049089295
 31
0.0
  0
SPLINE
  5
5E
330
1F
100
AcDbEntity
  8
0
  6
Continuous
 62
     7
370
    15
100
AcDbSpline
210
0.0
220
0.0
230
1.0
 70
     8
 71
     3
 72
    12
 73
     8
 74
     0
 42
0.00000001
 43
0.00000001
 12
1.0
 22
0.0
 32
0.0
 13
1.0
 23
0.0
 33
0.0
 40
0.0
 40
0.0
 40
0.0
 40
0.0
 40
0.2499999999999991
 40
0.2499999999999991
 40
0.4999999999999982
 40
0.4999999999999982
 40
1.0
 40
1.0
 40
1.0
 40
1.0
 10
205.26073746981
 20
85.60490948751595
 30
0.0
 10
205.3237944247079
 20
85.60490948751595
 30
0.0
 10
205.3829245744534
 20
85.61280981859552
 30
0.0
 10
205.4813721249867
 20
85.63612056660055
 30
0.0
 10
205.5204043631748
 20
85.6508256928842
 30
0.0
 10
205.6202942476318
 20
85.69875922107084
 30
0.0
 10
205.6625932212411
 20
85.73482919383561
 30
0.0
 10
205.6937501717023
 20
85.77265898627182
 30
0.0
  0
ELLIPSE
  5
5F
330
1F
100
AcDbEntity
  8
0
  6
Continuous
 62
     7
370
    15
100
AcDbEllipse
 10
189.441340094
 20
115.6734014464
 30
0.0
 11
-14.75368316065615
 21
31.09325491558116
 31
0.0
210
0.0
220
0.0
230
1.0
 40
0.3419987131
 41
3.300734856217128
 42
4.231496223360774
  0
SPLINE
  5
60
330
1F
100
AcDbEntity
  8
0
  6
Continuous
 62
     7
370
    15
100
AcDbSpline
210
0.0
220
0.0
230
1.0
 70
     8
 71
     3
 72
    12
 73
     8
 74
     0
 42
0.00000001
 43
0.00000001
 12
1.0
 22
0.0
 32
0.0
 13
1.0
 23
0.0
 33
0.0
 40
0.0
 40
0.0
 40
0.0
 40
0.0
 40
0.5000000000000019
 40
0.5000000000000019
 40
0.7500000000000009
 40
0.7500000000000009
 40
1.0
 40
1.0
 40
1.0
 40
1.0
 10
205.6937501717023
 20
105.7640321257037
 30
0.0
 10
205.6626049737402
 20
105.878137491569
 30
0.0
 10
205.6203307074057
 20
105.9892438187878
 30
0.0
 10
205.5203851735804
 20
106.1394014262181
 30
0.0
 10
205.4806548688764
 20
106.1863941178354
 30
0.0
 10
205.3837668188702
 20
106.2593697023739
 30
0.0
 10
205.3237015771236
 20
106.2853350150529
 30
0.0
 10
205.2607374698101
 20
106.2853350150529
 30
0.0
  0
LINE
  5
61
330
1F
100
AcDbEntity
  8
0
  6
Continuous
 62
     7
370
    15
100
AcDbLine
 10
205.2607374955
 20
106.2853346181
 30
0.0
 11
202.3162512798
 21
106.2853346181
 31
0.0
  0
SPLINE
  5
62
330
1F
100
AcDbEntity
  8
0
  6
Continuous
 62
     7
370
    15
100
AcDbSpline
210
0.0
220
0.0
230
1.0
 70
     8
 71
     3
 72
    12
 73
     8
 74
     0
 42
0.00000001
 43
0.00000001
 12
1.0
 22
0.0
 32
0.0
 13
1.0
 23
0.0
 33
0.0
 40
0.0
 40
0.0
 40
0.0
 40
0.0
 40
0.2499999999999991
 40
0.2499999999999991
 40
0.4999999999999982
 40
0.4999999999999982
 40
1.0
 40
1.0
 40
1.0
 40
1.0
 10
202.3162510969429
 20
106.2853350150528
 30
0.0
 10
202.2531941420451
 20
106.2853350150528
 30
0.0
 10
202.1940639922996
 20
106.2599886616721
 30
0.0
 10
202.0956164417663
 20
106.1858692795326
 30
0.0
 10
202.0565842035782
 20
106.1393727648346
 30
0.0
 10
201.9566943191212
 20
105.989298257826
 30
0.0
 10
201.9143953455119
 20
105.8781805487112
 30
0.0
 10
201.8832383950507
 20
105.7640321257037
 30
0.0
  0
ELLIPSE
  5
63
330
1F
100
AcDbEntity
  8
0
  6
Continuous
 62
     7
370
    15
100
AcDbEllipse
 10
218.1356484727
 20
115.6734014464
 30
0.0
 11
14.75368316065618
 21
31.09325491558116
 31
0.0
210
0.0
220
0.0
230
1.0
 40
0.3419987131
 41
2.051689083818827
 42
2.982450450962502
  0
SPLINE
  5
64
330
1F
100
AcDbEntity
  8
0
  6
Continuous
 62
     7
370
    15
100
AcDbSpline
210
0.0
220
0.0
230
1.0
 70
     8
 71
     3
 72
    12
 73
     8
 74
     0
 42
0.00000001
 43
0.00000001
 12
1.0
 22
0.0
 32
0.0
 13
1.0
 23
0.0
 33
0.0
 40
0.0
 40
0.0
 40
0.0
 40
0.0
 40
0.5000000000000009
 40
0.5000000000000009
 40
0.7500000000000004
 40
0.7500000000000004
 40
1.0
 40
1.0
 40
1.0
 40
1.0
 10
201.8832383950507
 20
125.5827707670741
 30
0.0
 10
201.9139606369698
 20
125.4702149676649
 30
0.0
 10
201.956797851505
 20
125.3574571079253
 30
0.0
 10
202.0562248757048
 20
125.207916222129
 30
0.0
 10
202.0959770705214
 20
125.1606234904221
 30
0.0
 10
202.1940185273796
 20
125.0868871971007
 30
0.0
 10
202.2535745829671
 20
125.061467877725
 30
0.0
 10
202.3162510969429
 20
125.061467877725
 30
0.0
  0
LINE
  5
65
330
1F
100
AcDbEntity
  8
0
  6
Continuous
 62
     7
370
    15
100
AcDbLine
 10
202.3162512798
 20
125.0614682746
 30
0.0
 11
205.2607374955
 21
125.0614682746
 31
0.0
  0
SPLINE
  5
66
330
1F
100
AcDbEntity
  8
0
  6
Continuous
 62
     7
370
    15
100
AcDbSpline
210
0.0
220
0.0
230
1.0
 70
     8
 71
     3
 72
    12
 73
     8
 74
     0
 42
0.00000001
 43
0.00000001
 12
1.0
 22
0.0
 32
0.0
 13
1.0
 23
0.0
 33
0.0
 40
0.0
 40
0.0
 40
0.0
 40
0.0
 40
0.2499999999999991
 40
0.2499999999999991
 40
0.4999999999999981
 40
0.4999999999999981
 40
1.0
 40
1.0
 40
1.0
 40
1.0
 10
205.26073746981
 20
125.061467877725
 30
0.0
 10
205.3238175083034
 20
125.061467877725
 30
0.0
 10
205.3829661304848
 20
125.0868321969399
 30
0.0
 10
205.4814386805539
 20
125.1609970573128
 30
0.0
 10
205.5204752925386
 20
125.207517397867
 30
0.0
 10
205.6203717593177
 20
125.3576597407122
 30
0.0
 10
205.6627926403843
 20
125.4693529476843
 30
0.0
 10
205.6937501717023
 20
125.5827707670741
 30
0.0
  0
ELLIPSE
  5
67
330
1F
100
AcDbEntity
  8
0
  6
Continuous
 62
     7
370
    15
100
AcDbEllipse
 10
189.441340094
 20
115.6734014464
 30
0.0
 11
14.75368316065604
 21
31.09325491558116
 31
0.0
210
0.0
220
0.0
230
1.0
 40
0.3419987131
 41
5.193281737408619
 42
6.124043104552322
  0
SPLINE
  5
68
330
1F
100
AcDbEntity
  8
0
  6
Continuous
 62
     7
370
    15
100
AcDbSpline
210
0.0
220
0.0
230
1.0
 70
     8
 71
     3
 72
    12
 73
     8
 74
     0
 42
0.00000001
 43
0.00000001
 12
1.0
 22
0.0
 32
0.0
 13
1.0
 23
0.0
 33
0.0
 40
0.0
 40
0.0
 40
0.0
 40
0.0
 40
0.4999999999999991
 40
0.4999999999999991
 40
0.7499999999999996
 40
0.7499999999999996
 40
1.0
 40
1.0
 40
1.0
 40
1.0
 10
205.6937501717023
 20
145.5741439065062
 30
0.0
 10
205.6630279297832
 20
145.6114458894593
 30
0.0
 10
205.620190715248
 20
145.6480577215057
 30
0.0
 10
205.5207636910482
 20
145.6958225047909
 30
0.0
 10
205.4810114962316
 20
145.7107800202733
 30
0.0
 10
205.3829700393733
 20
145.7339699660424
 30
0.0
 10
205.3234139837859
 20
145.7418934052621
 30
0.0
 10
205.26073746981
 20
145.7418934052621
 30
0.0
  0
LINE
  5
69
330
1F
100
AcDbEntity
  8
0
  6
Continuous
 62
     7
370
    15
100
AcDbLine
 10
205.2607374955
 20
145.7418939633
 30
0.0
 11
202.3162512798
 21
145.7418939633
 31
0.0
  0
SPLINE
  5
6A
330
1F
100
AcDbEntity
  8
0
  6
Continuous
 62
     7
370
    15
100
AcDbSpline
210
0.0
220
0.0
230
1.0
 70
     8
 71
     3
 72
    12
 73
     8
 74
     0
 42
0.00000001
 43
0.00000001
 12
1.0
 22
0.0
 32
0.0
 13
1.0
 23
0.0
 33
0.0
 40
0.0
 40
0.0
 40
0.0
 40
0.0
 40
0.2500000000000023
 40
0.2500000000000023
 40
0.5000000000000046
 40
0.5000000000000046
 40
1.0
 40
1.0
 40
1.0
 40
1.0
 10
202.3162510969429
 20
145.7418934052621
 30
0.0
 10
202.2531710584496
 20
145.7418934052621
 30
0.0
 10
202.1940224362682
 20
145.7339874790497
 30
0.0
 10
202.0955498861991
 20
145.7106623176134
 30
0.0
 10
202.0565132742144
 20
145.6959495277817
 30
0.0
 10
201.9566168074353
 20
145.6479937270508
 30
0.0
 10
201.9141959263687
 20
145.6117315704707
 30
0.0
 10
201.8832383950507
 20
145.5741439065062
 30
0.0
  0
ELLIPSE
  5
6B
330
1F
100
AcDbEntity
  8
0
  6
Continuous
 62
     7
370
    15
100
AcDbEllipse
 10
218.1356484727
 20
115.6734014464
 30
0.0
 11
-14.75368316065607
 21
31.09325491558116
 31
0.0
210
0.0
220
0.0
230
1.0
 40
0.3419987131
 41
0.1591422026273039
 42
1.089903569770981
  0
LINE
  5
6C
330
1F
100
AcDbEntity
  8
0
  6
Continuous
 62
     7
370
    15
100
AcDbLine
 10
191.7884942834
 20
84.673401953
 30
0.0
 11
191.7884942834
 21
146.6734009397
 31
0.0
  0
SPLINE
  5
6D
330
1F
100
AcDbEntity
  8
0
  6
Continuous
 62
     7
370
    15
100
AcDbSpline
210
0.0
220
0.0
230
1.0
 70
     8
 71
     3
 72
    12
 73
     8
 74
     0
 42
0.00000001
 43
0.00000001
 12
1.0
 22
0.0
 32
0.0
 13
1.0
 23
0.0
 33
0.0
 40
0.0
 40
0.0
 40
0.0
 40
0.0
 40
0.4999999999999999
 40
0.4999999999999999
 40
0.7499999999999999
 40
0.7499999999999999
 40
1.0
 40
1.0
 40
1.0
 40
1.0
 10
190.97198199692
 20
93.81860774391323
 30
0.0
 10
191.0284184978271
 20
93.81718986257148
 30
0.0
 10
191.0975031285159
 20
93.81562552632316
 30
0.0
 10
191.2163054002338
 20
93.81268133434872
 30
0.0
 10
191.2564906757039
 20
93.81164313125134
 30
0.0
 10
191.3298717231077
 20
93.80970923603671
 30
0.0
 10
191.3632812868504
 20
93.8088143487479
 30
0.0
 10
191.3935173945069
 20
93.80803055847556
 30
0.0
  0
SPLINE
  5
6E
330
1F
100
AcDbEntity
  8
0
  6
Continuous
 62
     7
370
    15
100
AcDbSpline
210
0.0
220
0.0
230
1.0
 70
     8
 71
     3
 72
    16
 73
    12
 74
     0
 42
0.00000001
 43
0.00000001
 12
1.0
 22
0.0
 32
0.0
 13
1.0
 23
0.0
 33
0.0
 40
0.0
 40
0.0
 40
0.0
 40
0.0
 40
0.0624999999999989
 40
0.0624999999999989
 40
0.1249999999999977
 40
0.1249999999999977
 40
0.2499999999999988
 40
0.2499999999999988
 40
0.4999999999999992
 40
0.4999999999999992
 40
1.0
 40
1.0
 40
1.0
 40
1.0
 10
191.3935173944696
 20
93.80803055849982
 30
0.0
 10
191.4050978020576
 20
93.80773036738847
 30
0.0
 10
191.4184073288189
 20
93.80640261912947
 30
0.0
 10
191.447708758905
 20
93.79970394435446
 30
0.0
 10
191.4625228587893
 20
93.79434576124878
 30
0.0
 10
191.4983512604921
 20
93.77730011208143
 30
0.0
 10
191.5124708848552
 20
93.76583757430569
 30
0.0
 10
191.5469750289436
 20
93.73427424893345
 30
0.0
 10
191.5580795796483
 20
93.71637694988819
 30
0.0
 10
191.5842557568645
 20
93.66621553227394
 30
0.0
 10
191.5884942833765
 20
93.63847112007737
 30
0.0
 10
191.5884942833765
 20
93.6138069581478
 30
0.0
  0
LINE
  5
6F
330
1F
100
AcDbEntity
  8
0
  6
Continuous
 62
     7
370
    15
100
AcDbLine
 10
191.5884942884
 20
108.6515142185
 30
0.0
 11
191.5884942884
 21
93.1335809243
 31
0.0
  0
SPLINE
  5
70
330
1F
100
AcDbEntity
  8
0
  6
Continuous
 62
     7
370
    15
100
AcDbSpline
210
0.0
220
0.0
230
1.0
 70
     8
 71
     3
 72
    16
 73
    12
 74
     0
 42
0.00000001
 43
0.00000001
 12
1.0
 22
0.0
 32
0.0
 13
1.0
 23
0.0
 33
0.0
 40
0.0
 40
0.0
 40
0.0
 40
0.0
 40
0.5000000000000018
 40
0.5000000000000018
 40
0.750000000000001
 40
0.750000000000001
 40
0.8750000000000006
 40
0.8750000000000006
 40
0.9375000000000003
 40
0.9375000000000003
 40
1.0
 40
1.0
 40
1.0
 40
1.0
 10
191.5884942833765
 20
108.651514120639
 30
0.0
 10
191.5884942833765
 20
108.7652066647669
 30
0.0
 10
191.5843480082985
 20
108.8795268261164
 30
0.0
 10
191.558382412905
 20
109.0525751166135
 30
0.0
 10
191.5469215075276
 20
109.1117506237752
 30
0.0
 10
191.5126097697532
 20
109.1948737432433
 30
0.0
 10
191.4985850338237
 20
109.222995059344
 30
0.0
 10
191.4625620707898
 20
109.2516108733215
 30
0.0
 10
191.4478075617002
 20
109.2574039212232
 30
0.0
 10
191.4184554005533
 20
109.2558104952862
 30
0.0
 10
191.4051155260492
 20
109.2493140919624
 30
0.0
 10
191.3935173945008
 20
109.2407983457593
 30
0.0
  0
SPLINE
  5
71
330
1F
100
AcDbEntity
  8
0
  6
Continuous
 62
     7
370
    15
100
AcDbSpline
210
0.0
220
0.0
230
1.0
 70
     8
 71
     3
 72
    12
 73
     8
 74
     0
 42
0.00000001
 43
0.00000001
 12
1.0
 22
0.0
 32
0.0
 13
1.0
 23
0.0
 33
0.0
 40
0.0
 40
0.0
 40
0.0
 40
0.0
 40
0.25
 40
0.25
 40
0.5
 40
0.5
 40
1.0
 40
1.0
 40
1.0
 40
1.0
 10
191.3935173945079
 20
109.2407983457501
 30
0.0
 10
191.3633189530673
 20
109.218625613705
 30
0.0
 10
191.3299515977313
 20
109.1995459578278
 30
0.0
 10
191.2567963219014
 20
109.1743729133851
 30
0.0
 10
191.2165436228774
 20
109.1688163769683
 30
0.0
 10
191.0988148796026
 20
109.1797281879551
 30
0.0
 10
191.0283564315436
 20
109.2216639433659
 30
0.0
 10
190.9719819969254
 20
109.2708757257475
 30
0.0
  0
SPLINE
  5
72
330
1F
100
AcDbEntity
  8
0
  6
Continuous
 62
     7
370
    15
100
AcDbSpline
210
0.0
220
0.0
230
1.0
 70
     8
 71
     3
 72
    12
 73
     8
 74
     0
 42
0.00000001
 43
0.00000001
 12
1.0
 22
0.0
 32
0.0
 13
1.0
 23
0.0
 33
0.0
 40
0.0
 40
0.0
 40
0.0
 40
0.0
 40
0.4999999999999984
 40
0.4999999999999984
 40
0.7499999999999992
 40
0.7499999999999992
 40
1.0
 40
1.0
 40
1.0
 40
1.0
 10
190.4671739398168
 20
110.487227117628
 30
0.0
 10
190.5109242917013
 20
110.2667801326535
 30
0.0
 10
190.5638144428258
 20
110.0512351428479
 30
0.0
 10
190.6754259859675
 20
109.738821066276
 30
0.0
 10
190.717985329871
 20
109.6367415906601
 30
0.0
 10
190.8229625652084
 20
109.4423015780183
 30
0.0
 10
190.884529808303
 20
109.3472166789547
 30
0.0
 10
190.9719819969254
 20
109.2708757257475
 30
0.0
  0
SPLINE
  5
73
330
1F
100
AcDbEntity
  8
0
  6
Continuous
 62
     7
370
    15
100
AcDbSpline
210
0.0
220
0.0
230
1.0
 70
     8
 71
     3
 72
    12
 73
     8
 74
     0
 42
0.00000001
 43
0.00000001
 12
1.0
 22
0.0
 32
0.0
 13
1.0
 23
0.0
 33
0.0
 40
0.0
 40
0.0
 40
0.0
 40
0.0
 40
0.2499999999999996
 40
0.2499999999999996
 40
0.4999999999999992
 40
0.4999999999999992
 40
1.0
 40
1.0
 40
1.0
 40
1.0
 10
190.9719819969253
 20
122.0759271670307
 30
0.0
 10
190.8834885893574
 20
121.9986772869224
 30
0.0
 10
190.8234305485915
 20
121.9053579630331
 30
0.0
 10
190.7175822756089
 20
121.7093249100637
 30
0.0
 10
190.6750487543315
 20
121.6069985518519
 30
0.0
 10
190.5638974475078
 20
121.2956541460761
 30
0.0
 10
190.51096659046
 20
121.080235892898
 30
0.0
 10
190.4671739398168
 20
120.8595757751502
 30
0.0
  0
SPLINE
  5
74
330
1F
100
AcDbEntity
  8
0
  6
Continuous
 62
     7
370
    15
100
AcDbSpline
210
0.0
220
0.0
230
1.0
 70
     8
 71
     3
 72
    12
 73
     8
 74
     0
 42
0.00000001
 43
0.00000001
 12
1.0
 22
0.0
 32
0.0
 13
1.0
 23
0.0
 33
0.0
 40
0.0
 40
0.0
 40
0.0
 40
0.0
 40
0.5000000000000001
 40
0.5000000000000001
 40
0.7499999999999999
 40
0.7499999999999999
 40
1.0
 40
1.0
 40
1.0
 40
1.0
 10
190.9719819969253
 20
122.0759271670307
 30
0.0
 10
191.0282905452209
 20
122.1250814342745
 30
0.0
 10
191.098565205939
 20
122.1670387528783
 30
0.0
 10
191.2166031202626
 20
122.1779984304107
 30
0.0
 10
191.2567793611165
 20
122.1724896721634
 30
0.0
 10
191.3307364557945
 20
122.1469324433744
 30
0.0
 10
191.3633528435059
 20
122.1281523955351
 30
0.0
 10
191.3935173945016
 20
122.1060045470184
 30
0.0
  0
SPLINE
  5
75
330
1F
100
AcDbEntity
  8
0
  6
Continuous
 62
     7
370
    15
100
AcDbSpline
210
0.0
220
0.0
230
1.0
 70
     8
 71
     3
 72
    16
 73
    12
 74
     0
 42
0.00000001
 43
0.00000001
 12
1.0
 22
0.0
 32
0.0
 13
1.0
 23
0.0
 33
0.0
 40
0.0
 40
0.0
 40
0.0
 40
0.0
 40
0.0625000000000005
 40
0.0625000000000005
 40
0.125000000000001
 40
0.125000000000001
 40
0.2500000000000009
 40
0.2500000000000009
 40
0.5000000000000006
 40
0.5000000000000006
 40
1.0
 40
1.0
 40
1.0
 40
1.0
 10
191.3935173944699
 20
122.1060045469639
 30
0.0
 10
191.4051302943093
 20
122.0974779573686
 30
0.0
 10
191.4184814787417
 20
122.0909776958358
 30
0.0
 10
191.4478813183609
 20
122.0894082987183
 30
0.0
 10
191.4627220429161
 20
122.0952916893489
 30
0.0
 10
191.4985552508848
 20
122.1238393253994
 30
0.0
 10
191.5126684587063
 20
122.1520063447052
 30
0.0
 10
191.5471598299252
 20
122.2357606031271
 30
0.0
 10
191.5582439010356
 20
122.2934740167486
 30
0.0
 10
191.5843667188316
 20
122.4670645533944
 30
0.0
 10
191.5884942833765
 20
122.5820926060364
 30
0.0
 10
191.5884942833765
 20
122.6952887721392
 30
0.0
  0
LINE
  5
76
330
1F
100
AcDbEntity
  8
0
  6
Continuous
 62
     7
370
    15
100
AcDbLine
 10
191.5884942884
 20
138.2132219685
 30
0.0
 11
191.5884942884
 21
122.6952886743
 31
0.0
  0
SPLINE
  5
77
330
1F
100
AcDbEntity
  8
0
  6
Continuous
 62
     7
370
    15
100
AcDbSpline
210
0.0
220
0.0
230
1.0
 70
     8
 71
     3
 72
    16
 73
    12
 74
     0
 42
0.00000001
 43
0.00000001
 12
1.0
 22
0.0
 32
0.0
 13
1.0
 23
0.0
 33
0.0
 40
0.0
 40
0.0
 40
0.0
 40
0.0
 40
0.4999999999999977
 40
0.4999999999999977
 40
0.7499999999999962
 40
0.7499999999999962
 40
0.8749999999999954
 40
0.8749999999999954
 40
0.9374999999999978
 40
0.9374999999999978
 40
1.0
 40
1.0
 40
1.0
 40
1.0
 10
191.5884942833765
 20
137.7329959346304
 30
0.0
 10
191.5884942833765
 20
137.7083247785874
 30
0.0
 10
191.5843285849165
 20
137.6807429471962
 30
0.0
 10
191.5580702565916
 20
137.6304000763729
 30
0.0
 10
191.546566474854
 20
137.612110578311
 30
0.0
 10
191.5124357155075
 20
137.580955547274
 30
0.0
 10
191.4980138288367
 20
137.5693161720622
 30
0.0
 10
191.4624468603989
 20
137.5524341461311
 30
0.0
 10
191.4474950921042
 20
137.5470450423235
 30
0.0
 10
191.4184912737445
 20
137.540424546379
 30
0.0
 10
191.4050759197353
 20
137.5390719581725
 30
0.0
 10
191.3935173944987
 20
137.5387723343009
 30
0.0
  0
SPLINE
  5
78
330
1F
100
AcDbEntity
  8
0
  6
Continuous
 62
     7
370
    15
100
AcDbSpline
210
0.0
220
0.0
230
1.0
 70
     8
 71
     3
 72
    12
 73
     8
 74
     0
 42
0.00000001
 43
0.00000001
 12
1.0
 22
0.0
 32
0.0
 13
1.0
 23
0.0
 33
0.0
 40
0.0
 40
0.0
 40
0.0
 40
0.0
 40
0.2499999999999999
 40
0.2499999999999999
 40
0.5000000000000001
 40
0.5000000000000001
 40
1.0
 40
1.0
 40
1.0
 40
1.0
 10
191.3935173945079
 20
137.5387723343027
 30
0.0
 10
191.3633296179583
 20
137.5379897968851
 30
0.0
 10
191.3299758138666
 20
137.5370964650666
 30
0.0
 10
191.2568496106706
 20
137.535169156263
 30
0.0
 10
191.2166144076464
 20
137.5341296250503
 30
0.0
 10
191.0989227775134
 20
137.5312117417031
 30
0.0
 10
191.0285421043533
 20
137.5296161356329
 30
0.0
 10
190.9719819969227
 20
137.528195148865
 30
0.0
  0
SPLINE
  5
79
330
1F
100
AcDbEntity
  8
0
  6
Continuous
 62
     7
370
    15
100
AcDbSpline
210
0.0
220
0.0
230
1.0
 70
     8
 71
     3
 72
    16
 73
    12
 74
     0
 42
0.00000001
 43
0.00000001
 12
1.0
 22
0.0
 32
0.0
 13
1.0
 23
0.0
 33
0.0
 40
0.0
 40
0.0
 40
0.0
 40
0.0
 40
0.2500000000000001
 40
0.2500000000000001
 40
0.375
 40
0.375
 40
0.5
 40
0.5
 40
0.7499999999999999
 40
0.7499999999999999
 40
1.0
 40
1.0
 40
1.0
 40
1.0
 10
190.4671739398168
 20
120.8595757751502
 30
0.0
 10
190.3059414623324
 20
120.0471659999033
 30
0.0
 10
190.1854616226928
 20
119.2070877055186
 30
0.0
 10
190.0630811053794
 20
117.9057926561558
 30
0.0
 10
190.032103444982
 20
117.4651116205711
 30
0.0
 10
189.990489707354
 20
116.5692719796399
 30
0.0
 10
189.9802537944212
 20
116.1226138484374
 30
0.0
 10
189.9800653973651
 20
114.7873038912976
 30
0.0
 10
190.0202101000027
 20
113.90280851799
 30
0.0
 10
190.1843638549423
 20
112.145558629964
 30
0.0
 10
190.3059155053518
 20
111.2997676835509
 30
0.0
 10
190.4671739398169
 20
110.487227117628
 30
0.0
  0
LINE
  5
7A
330
1F
100
AcDbEntity
  8
0
  6
Continuous
 62
     7
370
    15
100
AcDbLine
 10
189.5884942953
 20
122.1585795817
 30
0.0
 11
189.5884942953
 21
109.1882233111
 31
0.0
  0
LINE
  5
7B
330
1F
100
AcDbEntity
  8
0
  6
Continuous
 62
     7
370
    15
100
AcDbLine
 10
155.2884948198
 20
121.7277120401
 30
0.0
 11
155.2884948198
 21
109.6190908526
 31
0.0
  0
LINE
  5
7C
330
1F
100
AcDbEntity
  8
0
  6
Continuous
 62
     7
370
    15
100
AcDbLine
 10
153.7884955053
 20
121.294699197
 30
0.0
 11
153.7884955053
 21
110.0521036958
 31
0.0
  0
LINE
  5
7D
330
1F
100
AcDbEntity
  8
0
  6
Continuous
 62
     7
370
    15
100
AcDbLine
 10
189.5884942953
 20
93.6533017618
 30
0.0
 11
189.5884942953
 21
109.1882233111
 31
0.0
  0
ARC
  5
7E
330
1F
100
AcDbEntity
  8
0
  6
Continuous
 62
     7
370
    15
100
AcDbCircle
 10
189.7884311943
 20
93.6482795507
 30
0.0
 40
0.2000000000000059
100
AcDbArc
 50
88.5608333333
 51
178.5608333333
  0
LINE
  5
7F
330
1F
100
AcDbEntity
  8
0
  6
Continuous
 62
     7
370
    15
100
AcDbLine
 10
155.2884948198
 20
94.5150377763
 30
0.0
 11
155.2884948198
 21
109.6190908526
 31
0.0
  0
LINE
  5
80
330
1F
100
AcDbEntity
  8
0
  6
Continuous
 62
     7
370
    15
100
AcDbLine
 10
155.2884948198
 20
94.5150377763
 30
0.0
 11
189.5884942953
 21
93.6533017618
 31
0.0
  0
LINE
  5
81
330
1F
100
AcDbEntity
  8
0
  6
Continuous
 62
     7
370
    15
100
AcDbLine
 10
189.5884942953
 20
122.1585795817
 30
0.0
 11
189.5884942953
 21
137.693501131
 31
0.0
  0
ARC
  5
82
330
1F
100
AcDbEntity
  8
0
  6
Continuous
 62
     7
370
    15
100
AcDbCircle
 10
189.7884311943
 20
137.6985233421
 30
0.0
 40
0.2000000000000066
100
AcDbArc
 50
181.4391666667
 51
271.4391666667
  0
LINE
  5
83
330
1F
100
AcDbEntity
  8
0
  6
Continuous
 62
     7
370
    15
100
AcDbLine
 10
155.2884948198
 20
121.7277120401
 30
0.0
 11
155.2884948198
 21
136.8317651165
 31
0.0
  0
LINE
  5
84
330
1F
100
AcDbEntity
  8
0
  6
Continuous
 62
     7
370
    15
100
AcDbLine
 10
155.2884948198
 20
136.8317651165
 30
0.0
 11
189.5884942953
 21
137.693501131
 31
0.0
  0
LINE
  5
85
330
1F
100
AcDbEntity
  8
0
  6
Continuous
 62
     7
370
    15
100
AcDbLine
 10
189.7934544124
 20
137.498586492
 30
0.0
 11
190.9719820125
 21
137.5281950993
 31
0.0
  0
LINE
  5
86
330
1F
100
AcDbEntity
  8
0
  6
Continuous
 62
     7
370
    15
100
AcDbLine
 10
189.7934544124
 20
93.8482164008
 30
0.0
 11
190.9719820125
 21
93.8186077935
 31
0.0
  0
LINE
  5
87
330
1F
100
AcDbEntity
  8
0
  6
Continuous
 62
     7
370
    15
100
AcDbLine
 10
153.7884955053
 20
135.9657394302
 30
0.0
 11
155.2884948198
 21
136.8317651165
 31
0.0
  0
LINE
  5
88
330
1F
100
AcDbEntity
  8
0
  6
Continuous
 62
     7
370
    15
100
AcDbLine
 10
153.7884955053
 20
121.294699197
 30
0.0
 11
153.7884955053
 21
135.9657394302
 31
0.0
  0
LINE
  5
89
330
1F
100
AcDbEntity
  8
0
  6
Continuous
 62
     7
370
    15
100
AcDbLine
 10
153.7884955053
 20
95.3810634625
 30
0.0
 11
155.2884948198
 21
94.5150377763
 31
0.0
  0
LINE
  5
8A
330
1F
100
AcDbEntity
  8
0
  6
Continuous
 62
     7
370
    15
100
AcDbLine
 10
153.7884955053
 20
95.3810634625
 30
0.0
 11
153.7884955053
 21
110.0521036958
 31
0.0
  0
SPLINE
  5
8B
330
1F
100
AcDbEntity
  8
0
  6
Continuous
 62
     7
370
    15
100
AcDbSpline
210
0.0
220
0.0
230
1.0
 70
     8
 71
     3
 72
    12
 73
     8
 74
     0
 42
0.00000001
 43
0.00000001
 12
1.0
 22
0.0
 32
0.0
 13
1.0
 23
0.0
 33
0.0
 40
0.0
 40
0.0
 40
0.0
 40
0.0
 40
0.2500000000000052
 40
0.2500000000000052
 40
0.5000000000000104
 40
0.5000000000000104
 40
1.0
 40
1.0
 40
1.0
 40
1.0
 10
229.0211672953975
 20
147.1728376309625
 30
0.0
 10
229.1257419844544
 20
147.1731068295151
 30
0.0
 10
229.2291039364936
 20
147.1892720355594
 30
0.0
 10
229.4327091999168
 20
147.2557527011921
 30
0.0
 10
229.5294354378804
 20
147.3052759219799
 30
0.0
 10
229.7932528386741
 20
147.5011141657399
 30
0.0
 10
229.9281582112245
 20
147.6944163603991
 30
0.0
 10
229.9870931216866
 20
147.9143077001148
 30
0.0
  0
SPLINE
  5
8C
330
1F
100
AcDbEntity
  8
0
  6
Continuous
 62
     7
370
    15
100
AcDbSpline
210
0.0
220
0.0
230
1.0
 70
     8
 71
     3
 72
     8
 73
     4
 74
     0
 42
0.00000001
 43
0.00000001
 12
1.0
 22
0.0
 32
0.0
 13
1.0
 23
0.0
 33
0.0
 40
0.0
 40
0.0
 40
0.0
 40
0.0
 40
1.0
 40
1.0
 40
1.0
 40
1.0
 10
229.9870931216866
 20
147.9143077001148
 30
0.0
 10
230.4551269914226
 20
149.6605832750111
 30
0.0
 10
230.9236489031616
 20
151.4085996647194
 30
0.0
 10
231.3924562112503
 20
153.1582683893894
 30
0.0
  0
ELLIPSE
  5
8D
330
1F
100
AcDbEntity
  8
0
  6
Continuous
 62
     7
370
    15
100
AcDbEllipse
 10
231.3924562113
 20
90.6823756442
 30
0.0
 11
5.97980410235877
 21
8.561999034030862
 31
0.0
210
0.0
220
0.0
230
1.0
 40
0.05744884
 41
1.488724736779497
 42
2.458552182348935
  0
LINE
  5
8E
330
1F
100
AcDbEntity
  8
0
  6
Continuous
 62
     7
370
    15
100
AcDbLine
 10
241.3469587211
 20
153.4215184463
 30
0.0
 11
239.0356023554
 21
153.3003869069
 31
0.0
  0
ARC
  5
8F
330
1F
100
AcDbEntity
  8
0
  6
Continuous
 62
     7
370
    15
100
AcDbCircle
 10
239.1149674902
 20
151.7860211096
 30
0.0
 40
1.516442497159244
100
AcDbArc
 50
93.0
 51
273.0
  0
LINE
  5
90
330
1F
100
AcDbEntity
  8
0
  6
Continuous
 62
     7
370
    15
100
AcDbLine
 10
239.1943332497
 20
150.2716551137
 30
0.0
 11
239.957928354
 21
150.3116759074
 31
0.0
  0
ELLIPSE
  5
91
330
1F
100
AcDbEntity
  8
0
  6
Continuous
 62
     7
370
    15
100
AcDbEllipse
 10
274.8868357734
 20
140.4208890714
 30
0.0
 11
26.19525546193017
 21
0.0
 31
1.896538481815923E-13
210
-7.240007582946392E-15
220
0.0
230
1.0
 40
0.9925461516
 41
2.727363149086792
 42
3.141592653589793
  0
LINE
  5
92
330
1F
100
AcDbEntity
  8
0
  6
Continuous
 62
     7
370
    15
100
AcDbLine
 10
248.6915808861
 20
140.420888604
 30
0.0
 11
248.6915808861
 21
116.2482174065
 31
0.0
  0
LINE
  5
93
330
1F
100
AcDbEntity
  8
0
  6
Continuous
 62
     7
370
    15
100
AcDbLine
 10
245.2765215878
 20
159.7101325703
 30
0.0
 11
232.9752367679
 21
159.0654487324
 31
0.0
  0
LINE
  5
94
330
1F
100
AcDbEntity
  8
0
  6
Continuous
 62
     7
370
    15
100
AcDbLine
 10
231.3924577777
 20
153.158267082
 30
0.0
 11
232.9752367679
 21
159.0654487324
 31
0.0
  0
LINE
  5
95
330
1F
100
AcDbEntity
  8
0
  6
Continuous
 62
     7
370
    15
100
AcDbLine
 10
248.6915808861
 20
116.2482174065
 30
0.0
 11
231.3924577777
 21
91.7266598505
 31
0.0
  0
LINE
  5
96
330
1F
100
AcDbEntity
  8
0
  6
Continuous
 62
     7
370
    15
100
AcDbLine
 10
239.1803857629
 20
150.5377339733
 30
0.0
 11
239.7230301742
 21
150.5661728394
 31
0.0
  0
LINE
  5
97
330
1F
100
AcDbEntity
  8
0
  6
Continuous
 62
     7
370
    15
100
AcDbLine
 10
239.049546117
 20
153.0343080473
 30
0.0
 11
241.1745932643
 21
153.1456756008
 31
0.0
  0
ARC
  5
98
330
1F
100
AcDbEntity
  8
0
  6
Continuous
 62
     7
370
    15
100
AcDbCircle
 10
239.1149674902
 20
151.7860211096
 30
0.0
 40
1.250000000000039
100
AcDbArc
 50
93.0
 51
273.0
  0
LWPOLYLINE
  5
99
330
1F
100
AcDbEntity
  8
0
  6
Continuous
 62
     7
370
    15
100
AcDbPolyline
 90
        3
 70
   128
 43
0.0
 10
215.6081643645
 20
131.8405857844
 10
215.7654274945
 20
131.2749675078
 10
215.788494492
 20
130.9534013805
  0
ARC
  5
9A
330
1F
100
AcDbEntity
  8
0
  6
Continuous
 62
     7
370
    15
100
AcDbCircle
 10
212.8133083167
 20
130.4946597539
 30
0.0
 40
3.102053708033263
100
AcDbArc
 50
25.7141907697
 51
165.3382873276
  0
ARC
  5
9B
330
1F
100
AcDbEntity
  8
0
  6
Continuous
 62
     7
370
    15
100
AcDbCircle
 10
213.4804399427
 20
131.0235552946
 30
0.0
 40
2.167870636761777
100
AcDbArc
 50
338.0127442702
 51
22.9590917065
  0
LWPOLYLINE
  5
9C
330
1F
100
AcDbEntity
  8
0
  6
Continuous
 62
     7
370
    15
100
AcDbPolyline
 90
       15
 70
   128
 43
0.0
 10
210.0105580632
 20
130.4343334002
 10
210.005204821
 20
130.453595945
 10
209.9284955059
 20
131.024831028
 10
210.0059666429
 20
131.5959888113
 10
210.2334459071
 20
132.1362788392
 10
210.5986696426
 20
132.6165730668
 10
211.0819459651
 20
133.0109807265
 10
211.6572220568
 20
133.2982341362
 10
212.2934867386
 20
133.4628528518
 10
212.9564375375
 20
133.4959595067
 10
213.6103340183
 20
133.3957715494
 10
214.2199237589
 20
133.1676869256
 10
214.7523459737
 20
132.8240028185
 10
215.1788954381
 20
132.3832488221
 10
215.4765796606
 20
131.869184838
  0
LWPOLYLINE
  5
9D
330
1F
100
AcDbEntity
  8
0
  6
Continuous
 62
     7
370
    15
100
AcDbPolyline
 90
       26
 70
   128
 43
0.0
 10
215.1382189934
 20
131.7627216292
 10
215.2767029349
 20
131.2334305209
 10
215.2588438932
 20
130.6909425718
 10
215.0857631807
 20
130.1693432567
 10
214.7683367823
 20
129.701408611
 10
214.3265099023
 20
129.3165386257
 10
213.788043404
 20
129.0389178855
 10
213.1867722366
 20
128.8859891308
 10
212.5604764317
 20
128.867361748
 10
211.9485062305
 20
128.9842064095
 10
211.3893159423
 20
129.2291814995
 10
210.9180406426
 20
129.5868941185
 10
210.5642945264
 20
130.0348667962
 10
210.3503008131
 20
130.5449540329
 10
210.2895096634
 20
131.0851024998
 10
210.3857376371
 20
131.621374802
 10
210.6329404507
 20
132.1200738264
 10
211.0155855064
 20
132.549866156
 10
211.5096279178
 20
132.8837434364
 10
212.084024841
 20
133.1007304204
 10
212.7026875262
 20
133.1871888203
 10
213.326742569
 20
133.1376908881
 10
213.9169757013
 20
132.9553416533
 10
214.4363035206
 20
132.6516038341
 10
214.8520924841
 20
132.2455602301
 10
215.1382189934
 20
131.7627216292
  0
LINE
  5
9E
330
1F
100
AcDbEntity
  8
0
  6
Continuous
 62
     7
370
    15
100
AcDbLine
 10
256.3686069791
 20
160.6528806103
 30
0.0
 11
245.7319457774
 21
160.0954356206
 31
0.0
  0
LINE
  5
9F
330
1F
100
AcDbEntity
  8
0
  6
Continuous
 62
     7
370
    15
100
AcDbLine
 10
254.6588104908
 20
159.2545407427
 30
0.0
 11
256.3884925787
 21
160.2734001887
 31
0.0
  0
LINE
  5
A0
330
1F
100
AcDbEntity
  8
0
  6
Continuous
 62
     7
370
    15
100
AcDbLine
 10
245.8779883329
 20
159.5017882598
 30
0.0
 11
245.751831377
 21
159.7159589243
 31
0.0
  0
SPLINE
  5
A1
330
1F
100
AcDbEntity
  8
0
  6
Continuous
 62
     7
370
    15
100
AcDbSpline
210
0.0
220
0.0
230
1.0
 70
     8
 71
     3
 72
    11
 73
     7
 74
     0
 42
0.00000001
 43
0.00000001
 12
1.0
 22
0.0
 32
0.0
 13
1.0
 23
0.0
 33
0.0
 40
0.0
 40
0.0
 40
0.0
 40
0.0
 40
0.3277697213904372
 40
0.6551515359092607
 40
0.99078552008265
 40
1.0
 40
1.0
 40
1.0
 40
1.0
 10
245.8779883329256
 20
159.5017882597913
 30
0.0
 10
245.9157121826099
 20
159.4377422589812
 30
0.0
 10
245.9911152367916
 20
159.3097260541237
 30
0.0
 10
246.1154728257221
 20
159.0986528620221
 30
0.0
 10
246.1938485805798
 20
158.965496232517
 30
0.0
 10
246.2304836014381
 20
158.9033710558859
 30
0.0
 10
246.2314625028951
 20
158.9017110479344
 30
0.0
  0
LINE
  5
A2
330
1F
100
AcDbEntity
  8
0
  6
Continuous
 62
     7
370
    15
100
AcDbLine
 10
240.1274141614
 20
150.3037000609
 30
0.0
 11
250.7640753631
 21
150.8611413253
 31
0.0
  0
LINE
  5
A3
330
1F
100
AcDbEntity
  8
0
  6
Continuous
 62
     7
370
    15
100
AcDbLine
 10
241.8372106497
 20
151.7020399285
 30
0.0
 11
240.1075248365
 21
150.6831767571
 31
0.0
  0
LINE
  5
A4
330
1F
100
AcDbEntity
  8
0
  6
Continuous
 62
     7
370
    15
100
AcDbLine
 10
250.6180328075
 20
151.4547924114
 30
0.0
 11
250.7441860382
 21
151.2406217468
 31
0.0
  0
SPLINE
  5
A5
330
1F
100
AcDbEntity
  8
0
  6
Continuous
 62
     7
370
    15
100
AcDbSpline
210
0.0
220
0.0
230
1.0
 70
     8
 71
     3
 72
    11
 73
     7
 74
     0
 42
0.00000001
 43
0.00000001
 12
1.0
 22
0.0
 32
0.0
 13
1.0
 23
0.0
 33
0.0
 40
0.0
 40
0.0
 40
0.0
 40
0.0
 40
0.009212208089885
 40
0.3448485825611885
 40
0.6722303378798598
 40
1.0
 40
1.0
 40
1.0
 40
1.0
 10
250.2645586375578
 20
152.0548696232308
 30
0.0
 10
250.2655362817746
 20
152.0532096080045
 30
0.0
 10
250.3021332864377
 20
151.9910688169743
 30
0.0
 10
250.3805651831109
 20
151.8579354466527
 30
0.0
 10
250.5049016484211
 20
151.6468528542598
 30
0.0
 10
250.5803075388698
 20
151.5188378243583
 30
0.0
 10
250.6180328075274
 20
151.454792411374
 30
0.0
  0
LINE
  5
A6
330
1F
100
AcDbEntity
  8
0
  6
Continuous
 62
     7
370
    15
100
AcDbLine
 10
256.3762363736
 20
160.673306377
 30
0.0
 11
245.7293455247
 21
160.1153286708
 31
0.0
  0
LINE
  5
A7
330
1F
100
AcDbEntity
  8
0
  6
Continuous
 62
     7
370
    15
100
AcDbLine
 10
251.082580233
 20
151.0273339761
 30
0.0
 11
256.7323219721
 21
160.0688035202
 31
0.0
  0
LINE
  5
A8
330
1F
100
AcDbEntity
  8
0
  6
Continuous
 62
     7
370
    15
100
AcDbLine
 10
240.1197810416
 20
150.2832705689
 30
0.0
 11
250.7666756157
 21
150.8412520004
 31
0.0
  0
LINE
  5
A9
330
1F
100
AcDbEntity
  8
0
  6
Continuous
 62
     7
370
    15
100
AcDbLine
 10
245.4134371821
 20
159.9292466951
 30
0.0
 11
239.7637028937
 21
150.8877771509
 31
0.0
  0
ARC
  5
AA
330
1F
100
AcDbEntity
  8
0
  6
Continuous
 62
     7
370
    15
100
AcDbCircle
 10
256.3884942834
 20
160.2734014464
 30
0.0
 40
0.3800000000000128
100
AcDbArc
 50
328.0
 51
93.0
  0
ARC
  5
AB
330
1F
100
AcDbEntity
  8
0
  6
Continuous
 62
     7
370
    15
100
AcDbCircle
 10
245.7518331757
 20
159.7159576588
 30
0.0
 40
0.3800000000000279
100
AcDbArc
 50
93.0
 51
148.0
  0
LINE
  5
AC
330
1F
100
AcDbEntity
  8
0
  6
Continuous
 62
     7
370
    15
100
AcDbLine
 10
245.4295751397
 20
159.9173257661
 30
0.0
 11
239.7852685992
 21
150.8845473242
 31
0.0
  0
ARC
  5
AD
330
1F
100
AcDbEntity
  8
0
  6
Continuous
 62
     7
370
    15
100
AcDbCircle
 10
240.1075262212
 20
150.6831783468
 30
0.0
 40
0.3800000000000038
100
AcDbArc
 50
148.0
 51
273.0
  0
ARC
  5
AE
330
1F
100
AcDbEntity
  8
0
  6
Continuous
 62
     7
370
    15
100
AcDbCircle
 10
250.7441873288
 20
151.2406221345
 30
0.0
 40
0.3800000000000324
100
AcDbArc
 50
273.0
 51
328.0
  0
LINE
  5
AF
330
1F
100
AcDbEntity
  8
0
  6
Continuous
 62
     7
370
    15
100
AcDbLine
 10
251.0664460008
 20
151.0392511797
 30
0.0
 11
256.7107525412
 21
160.0720333469
 31
0.0
  0
SPLINE
  5
B0
330
1F
100
AcDbEntity
  8
0
  6
Continuous
 62
     7
370
    15
100
AcDbSpline
210
0.0
220
0.0
230
1.0
 70
     8
 71
     3
 72
    10
 73
     6
 74
     0
 42
0.00000001
 43
0.00000001
 12
1.0
 22
0.0
 32
0.0
 13
1.0
 23
0.0
 33
0.0
 40
0.0
 40
0.0
 40
0.0
 40
0.0
 40
0.351809127158774
 40
0.7034303568563345
 40
1.0
 40
1.0
 40
1.0
 40
1.0
 10
245.7293455247267
 20
160.1153286707868
 30
0.0
 10
245.6850579171389
 20
160.1085301029147
 30
0.0
 10
245.596506355497
 20
160.0949365982125
 30
0.0
 10
245.4854435588091
 20
160.0251993957085
 30
0.0
 10
245.4360406938903
 20
159.9593671940932
 30
0.0
 10
245.4134371821268
 20
159.9292466950883
 30
0.0
  0
SPLINE
  5
B1
330
1F
100
AcDbEntity
  8
0
  6
Continuous
 62
     7
370
    15
100
AcDbSpline
210
0.0
220
0.0
230
1.0
 70
     8
 71
     3
 72
    10
 73
     6
 74
     0
 42
0.00000001
 43
0.00000001
 12
1.0
 22
0.0
 32
0.0
 13
1.0
 23
0.0
 33
0.0
 40
0.0
 40
0.0
 40
0.0
 40
0.0
 40
0.3518080195657378
 40
0.7034219707727345
 40
1.0
 40
1.0
 40
1.0
 40
1.0
 10
250.7666756157263
 20
150.8412520003785
 30
0.0
 10
250.8109633760208
 20
150.848048845263
 30
0.0
 10
250.8995144660894
 20
150.8616387856786
 30
0.0
 10
251.0105755728856
 20
150.9313790728166
 30
0.0
 10
251.0599768481018
 20
150.9972122365926
 30
0.0
 10
251.0825802330359
 20
151.027333976077
 30
0.0
  0
SPLINE
  5
B2
330
1F
100
AcDbEntity
  8
0
  6
Continuous
 62
     7
370
    15
100
AcDbSpline
210
0.0
220
0.0
230
1.0
 70
     8
 71
     3
 72
    14
 73
    10
 74
     0
 42
0.00000001
 43
0.00000001
 12
1.0
 22
0.0
 32
0.0
 13
1.0
 23
0.0
 33
0.0
 40
0.0
 40
0.0
 40
0.0
 40
0.0
 40
0.1588537608413129
 40
0.3173360246582355
 40
0.4720168674967593
 40
0.6236447495296431
 40
0.7746643077340238
 40
0.9277441127864533
 40
1.0
 40
1.0
 40
1.0
 40
1.0
 10
239.7637028936727
 20
150.887777150916
 30
0.0
 10
239.7431826116048
 20
150.8465027159308
 30
0.0
 10
239.7021900364098
 20
150.7640503707749
 30
0.0
 10
239.6975840453951
 20
150.6244156510381
 30
0.0
 10
239.7368650656932
 20
150.4945055790616
 30
0.0
 10
239.8170644539473
 20
150.3868366721082
 30
0.0
 10
239.9275159332141
 20
150.3126118875394
 30
0.0
 10
240.0341310361642
 20
150.2827147093518
 30
0.0
 10
240.0989850326798
 20
150.2831356049801
 30
0.0
 10
240.1197810415609
 20
150.2832705688943
 30
0.0
  0
SPLINE
  5
B3
330
1F
100
AcDbEntity
  8
0
  6
Continuous
 62
     7
370
    15
100
AcDbSpline
210
0.0
220
0.0
230
1.0
 70
     8
 71
     3
 72
    14
 73
    10
 74
     0
 42
0.00000001
 43
0.00000001
 12
1.0
 22
0.0
 32
0.0
 13
1.0
 23
0.0
 33
0.0
 40
0.0
 40
0.0
 40
0.0
 40
0.0
 40
0.1588466490501501
 40
0.3173292880511836
 40
0.4720156931684416
 40
0.6236411575045351
 40
0.7746608764108242
 40
0.9277397165459511
 40
0.9999999999999999
 40
0.9999999999999999
 40
0.9999999999999999
 40
0.9999999999999999
 10
256.7323219720705
 20
160.0688035202493
 30
0.0
 10
256.7528385994089
 20
160.1100769526251
 30
0.0
 10
256.7938248385612
 20
160.1925292359408
 30
0.0
 10
256.7984396947524
 20
160.3321630216652
 30
0.0
 10
256.7591513081093
 20
160.4620723044575
 30
0.0
 10
256.678957263939
 20
160.5697448183095
 30
0.0
 10
256.5685054986519
 20
160.6439697933739
 30
0.0
 10
256.4618884530021
 20
160.6738620265581
 30
0.0
 10
256.3970336043402
 20
160.6734412945746
 30
0.0
 10
256.3762363736017
 20
160.6733063769807
 30
0.0
  0
ARC
  5
B4
330
1F
100
AcDbEntity
  8
0
  6
Continuous
 62
     7
370
    15
100
AcDbCircle
 10
252.2459442435
 20
157.8332529901
 30
0.0
 40
1.000000000295328
100
AcDbArc
 50
328.0
 51
93.0
  0
LINE
  5
B5
330
1F
100
AcDbEntity
  8
0
  6
Continuous
 62
     7
370
    15
100
AcDbLine
 10
244.3024140541
 20
152.1246964646
 30
0.0
 11
249.5262619798
 21
152.3984680486
 31
0.0
  0
ARC
  5
B6
330
1F
100
AcDbEntity
  8
0
  6
Continuous
 62
     7
370
    15
100
AcDbCircle
 10
244.2500762611
 20
153.1233268031
 30
0.0
 40
0.9999999999999944
100
AcDbArc
 50
148.0
 51
273.0
  0
LINE
  5
B7
330
1F
100
AcDbEntity
  8
0
  6
Continuous
 62
     7
370
    15
100
AcDbLine
 10
246.1740446035
 20
158.0894003225
 30
0.0
 11
243.4020300154
 21
153.653246404
 31
0.0
  0
ARC
  5
B8
330
1F
100
AcDbEntity
  8
0
  6
Continuous
 62
     7
370
    15
100
AcDbCircle
 10
247.0220940605
 20
157.5594826027
 30
0.0
 40
0.9999999999999959
100
AcDbArc
 50
93.0
 51
148.0
  0
LINE
  5
B9
330
1F
100
AcDbEntity
  8
0
  6
Continuous
 62
     7
370
    15
100
AcDbLine
 10
252.1936070864
 20
158.8318842066
 30
0.0
 11
246.9697591607
 21
158.5581126225
 31
0.0
  0
LINE
  5
BA
330
1F
100
AcDbEntity
  8
0
  6
Continuous
 62
     7
370
    15
100
AcDbLine
 10
250.3219728116
 20
152.8671766234
 30
0.0
 11
253.093991125
 21
157.3033342672
 31
0.0
  0
ARC
  5
BB
330
1F
100
AcDbEntity
  8
0
  6
Continuous
 62
     7
370
    15
100
AcDbCircle
 10
249.473926444
 20
153.3970971905
 30
0.0
 40
1.0
100
AcDbArc
 50
273.0
 51
328.0
  0
CIRCLE
  5
BC
330
1F
100
AcDbEntity
  8
0
  6
Continuous
 62
     7
370
    15
100
AcDbCircle
 10
248.2480102523
 20
155.4782898966
 30
0.0
 40
3.050000000000004
  0
SPLINE
  5
BD
330
1F
100
AcDbEntity
  8
0
  6
Continuous
 62
     7
370
    15
100
AcDbSpline
210
0.0
220
0.0
230
1.0
 70
     8
 71
     3
 72
    11
 73
     7
 74
     0
 42
0.00000001
 43
0.00000001
 12
1.0
 22
0.0
 32
0.0
 13
1.0
 23
0.0
 33
0.0
 40
0.0
 40
0.0
 40
0.0
 40
0.0
 40
0.0073007384512893
 40
0.1268479275969566
 40
0.5874275093692116
 40
1.0
 40
1.0
 40
1.0
 40
1.0
 10
254.0663962010725
 20
158.9055816245545
 30
0.0
 10
254.0676895725516
 20
158.9063424739769
 30
0.0
 10
254.0901614762955
 20
158.9195619822611
 30
0.0
 10
254.1965179164297
 20
158.9822554191338
 30
0.0
 10
254.3961247478742
 20
159.0997952292414
 30
0.0
 10
254.5745180114146
 20
159.2048848959094
 30
0.0
 10
254.6588104907854
 20
159.2545407426824
 30
0.0
  0
SPLINE
  5
BE
330
1F
100
AcDbEntity
  8
0
  6
Continuous
 62
     7
370
    15
100
AcDbSpline
210
0.0
220
0.0
230
1.0
 70
     8
 71
     3
 72
    11
 73
     7
 74
     0
 42
0.00000001
 43
0.00000001
 12
1.0
 22
0.0
 32
0.0
 13
1.0
 23
0.0
 33
0.0
 40
0.0
 40
0.0
 40
0.0
 40
0.0
 40
0.4125715963634354
 40
0.8731531403094375
 40
0.9927008387533137
 40
1.0
 40
1.0
 40
1.0
 40
1.0
 10
241.8372106496675
 20
151.7020399284829
 30
0.0
 10
241.9215060936457
 20
151.7516901296259
 30
0.0
 10
242.0999062362442
 20
151.8567682043821
 30
0.0
 10
242.2994756502139
 20
151.9743621421572
 30
0.0
 10
242.405874624607
 20
152.0369923312226
 30
0.0
 10
242.4283291132549
 20
152.0502369123824
 30
0.0
 10
242.4296212140901
 20
152.0509990466107
 30
0.0
  0
ARC
  5
BF
330
1F
100
AcDbEntity
  8
0
  6
Continuous
 62
     7
370
    15
100
AcDbCircle
 10
248.1375009478
 20
155.4131949415
 30
0.0
 40
1.675000000000013
100
AcDbArc
 50
149.07804828
 51
207.6779814073
  0
ARC
  5
C0
330
1F
100
AcDbEntity
  8
0
  6
Continuous
 62
     7
370
    15
100
AcDbCircle
 10
248.1375009478
 20
155.4131949415
 30
0.0
 40
1.674999999999986
100
AcDbArc
 50
207.6779814073
 51
267.784823142
  0
ARC
  5
C1
330
1F
100
AcDbEntity
  8
0
  6
Continuous
 62
     7
370
    15
100
AcDbCircle
 10
248.1375009478
 20
155.4131949415
 30
0.0
 40
1.675
100
AcDbArc
 50
267.784823142
 51
326.3847562692
  0
LINE
  5
C2
330
1F
100
AcDbEntity
  8
0
  6
Continuous
 62
     7
370
    15
100
AcDbLine
 10
249.5776262824
 20
154.557817669
 30
0.0
 11
249.5323975329
 21
154.4858934892
 31
0.0
  0
ARC
  5
C3
330
1F
100
AcDbEntity
  8
0
  6
Continuous
 62
     7
370
    15
100
AcDbCircle
 10
248.1375009478
 20
155.4131949415
 30
0.0
 40
1.675000000000037
100
AcDbArc
 50
329.2913870411
 51
25.7351052074
  0
LINE
  5
C4
330
1F
100
AcDbEntity
  8
0
  6
Continuous
 62
     7
370
    15
100
AcDbLine
 10
249.5905120615
 20
156.2464954865
 30
0.0
 11
249.6463578884
 21
156.1404998017
 31
0.0
  0
ARC
  5
C5
330
1F
100
AcDbEntity
  8
0
  6
Continuous
 62
     7
370
    15
100
AcDbCircle
 10
248.1375009478
 20
155.4131949415
 30
0.0
 40
1.675000000000037
100
AcDbArc
 50
29.8341971076
 51
85.6286074416
  0
LINE
  5
C6
330
1F
100
AcDbEntity
  8
0
  6
Continuous
 62
     7
370
    15
100
AcDbLine
 10
248.1454607789
 20
157.0881764007
 30
0.0
 11
248.2651729826
 21
157.0833223474
 31
0.0
  0
ARC
  5
C7
330
1F
100
AcDbEntity
  8
0
  6
Continuous
 62
     7
370
    15
100
AcDbCircle
 10
248.1375009478
 20
155.4131949415
 30
0.0
 40
1.675000000000036
100
AcDbArc
 50
89.7276993419
 51
146.1714175082
  0
LINE
  5
C8
330
1F
100
AcDbEntity
  8
0
  6
Continuous
 62
     7
370
    15
100
AcDbLine
 10
246.700573409
 20
156.2739285243
 30
0.0
 11
246.7460666541
 21
156.345685066
 31
0.0
  0
CIRCLE
  5
C9
330
1F
100
AcDbEntity
  8
0
  6
Continuous
 62
     7
370
    15
100
AcDbCircle
 10
248.1375009478
 20
155.4131949415
 30
0.0
 40
1.8
  0
SPLINE
  5
CA
330
1F
100
AcDbEntity
  8
0
  6
Continuous
 62
     7
370
    15
100
AcDbSpline
210
0.0
220
0.0
230
1.0
 70
     8
 71
     3
 72
    11
 73
     7
 74
     0
 42
0.00000001
 43
0.00000001
 12
1.0
 22
0.0
 32
0.0
 13
1.0
 23
0.0
 33
0.0
 40
0.0
 40
0.0
 40
0.0
 40
0.0
 40
0.2669021554477985
 40
0.5546103866511338
 40
0.8439028311956442
 40
1.0
 40
1.0
 40
1.0
 40
1.0
 10
249.5905120615347
 20
156.2464954865445
 30
0.0
 10
249.5666090714465
 20
156.2718878083415
 30
0.0
 10
249.5169397589124
 20
156.3246518835739
 30
0.0
 10
249.4144445296225
 20
156.3690912520884
 30
0.0
 10
249.3187654120582
 20
156.3795087525044
 30
0.0
 10
249.2626834047068
 20
156.3681727315269
 30
0.0
 10
249.243028158365
 20
156.3641997588147
 30
0.0
  0
SPLINE
  5
CB
330
1F
100
AcDbEntity
  8
0
  6
Continuous
 62
     7
370
    15
100
AcDbSpline
210
0.0
220
0.0
230
1.0
 70
     8
 71
     3
 72
    12
 73
     8
 74
     0
 42
0.00000001
 43
0.00000001
 12
1.0
 22
0.0
 32
0.0
 13
1.0
 23
0.0
 33
0.0
 40
0.0
 40
0.0
 40
0.0
 40
0.0
 40
0.2058408582757373
 40
0.4120606322867449
 40
0.6141397323445797
 40
0.8132766492336397
 40
1.0
 40
1.0
 40
1.0
 40
1.0
 10
249.243028158365
 20
156.3641997588147
 30
0.0
 10
249.1782562021786
 20
156.3539965619574
 30
0.0
 10
249.0485930563668
 20
156.3335713860054
 30
0.0
 10
248.854212909856
 20
156.3862923811068
 30
0.0
 10
248.6905371921601
 20
156.4946892985709
 30
0.0
 10
248.5710427322245
 20
156.6452074112757
 30
0.0
 10
248.5372087046366
 20
156.7631321571327
 30
0.0
 10
248.5208359305246
 20
156.8201976430882
 30
0.0
  0
SPLINE
  5
CC
330
1F
100
AcDbEntity
  8
0
  6
Continuous
 62
     7
370
    15
100
AcDbSpline
210
0.0
220
0.0
230
1.0
 70
     8
 71
     3
 72
    11
 73
     7
 74
     0
 42
0.00000001
 43
0.00000001
 12
1.0
 22
0.0
 32
0.0
 13
1.0
 23
0.0
 33
0.0
 40
0.0
 40
0.0
 40
0.0
 40
0.0
 40
0.2929006789703514
 40
0.5864350895252031
 40
0.8775214670677252
 40
1.0
 40
1.0
 40
1.0
 40
1.0
 10
248.5208359305246
 20
156.8201976430882
 30
0.0
 10
248.5100280261587
 20
156.8565311186296
 30
0.0
 10
248.488388833014
 20
156.9292766822684
 30
0.0
 10
248.4120694427112
 20
157.0167550777365
 30
0.0
 10
248.3323224474239
 20
157.065216102875
 30
0.0
 10
248.280515709114
 20
157.0791853203115
 30
0.0
 10
248.2651729826315
 20
157.0833223474492
 30
0.0
  0
SPLINE
  5
CD
330
1F
100
AcDbEntity
  8
0
  6
Continuous
 62
     7
370
    15
100
AcDbSpline
210
0.0
220
0.0
230
1.0
 70
     8
 71
     3
 72
    12
 73
     8
 74
     0
 42
0.00000001
 43
0.00000001
 12
1.0
 22
0.0
 32
0.0
 13
1.0
 23
0.0
 33
0.0
 40
0.0
 40
0.0
 40
0.0
 40
0.0
 40
0.2057912862126309
 40
0.4120350766768615
 40
0.6141303051851021
 40
0.8132632104373598
 40
1.0
 40
1.0
 40
1.0
 40
1.0
 10
247.8691671733244
 20
156.8460139048566
 30
0.0
 10
247.8456250492843
 20
156.7848342338946
 30
0.0
 10
247.7984890355954
 20
156.6623403670268
 30
0.0
 10
247.6556617724351
 20
156.5203517684132
 30
0.0
 10
247.4799372898555
 20
156.4327955064931
 30
0.0
 10
247.2898256412925
 20
156.404557419876
 30
0.0
 10
247.1707765313809
 20
156.4342193435738
 30
0.0
 10
247.1131642107351
 20
156.4485738587846
 30
0.0
  0
SPLINE
  5
CE
330
1F
100
AcDbEntity
  8
0
  6
Continuous
 62
     7
370
    15
100
AcDbSpline
210
0.0
220
0.0
230
1.0
 70
     8
 71
     3
 72
    11
 73
     7
 74
     0
 42
0.00000001
 43
0.00000001
 12
1.0
 22
0.0
 32
0.0
 13
1.0
 23
0.0
 33
0.0
 40
0.0
 40
0.0
 40
0.0
 40
0.0
 40
0.2802357436194274
 40
0.5612882420087532
 40
0.8399950523500761
 40
0.9999999999999999
 40
0.9999999999999999
 40
0.9999999999999999
 40
0.9999999999999999
 10
247.1131642107351
 20
156.4485738587846
 30
0.0
 10
247.0763193155223
 20
156.4573790342544
 30
0.0
 10
247.0025221396379
 20
156.4750150481198
 30
0.0
 10
246.8886911454443
 20
156.4526547745037
 30
0.0
 10
246.8014679491961
 20
156.40515115258
 30
0.0
 10
246.760872456673
 20
156.3615771698854
 30
0.0
 10
246.7460666541441
 20
156.3456850660314
 30
0.0
  0
SPLINE
  5
CF
330
1F
100
AcDbEntity
  8
0
  6
Continuous
 62
     7
370
    15
100
AcDbSpline
210
0.0
220
0.0
230
1.0
 70
     8
 71
     3
 72
    11
 73
     7
 74
     0
 42
0.00000001
 43
0.00000001
 12
1.0
 22
0.0
 32
0.0
 13
1.0
 23
0.0
 33
0.0
 40
0.0
 40
0.0
 40
0.0
 40
0.0
 40
0.265764781263754
 40
0.5530019888366003
 40
0.8418194709715383
 40
1.0
 40
1.0
 40
1.0
 40
1.0
 10
248.1454607788904
 20
157.0881764007081
 30
0.0
 10
248.1115937793312
 20
157.0802639148272
 30
0.0
 10
248.0411235009778
 20
157.0637996549356
 30
0.0
 10
247.9512890728427
 20
156.9975599809432
 30
0.0
 10
247.8940249167535
 20
156.9198150462586
 30
0.0
 10
247.8756644476739
 20
156.8653039206364
 30
0.0
 10
247.8691671733244
 20
156.8460139048566
 30
0.0
  0
SPLINE
  5
D0
330
1F
100
AcDbEntity
  8
0
  6
Continuous
 62
     7
370
    15
100
AcDbSpline
210
0.0
220
0.0
230
1.0
 70
     8
 71
     3
 72
    11
 73
     7
 74
     0
 42
0.00000001
 43
0.00000001
 12
1.0
 22
0.0
 32
0.0
 13
1.0
 23
0.0
 33
0.0
 40
0.0
 40
0.0
 40
0.0
 40
0.0
 40
0.2431113979186998
 40
0.5182860523518742
 40
0.7947840428568298
 40
1.0
 40
1.0
 40
1.0
 40
1.0
 10
249.5776262823923
 20
154.5578176689614
 30
0.0
 10
249.588933869804
 20
154.5889887132432
 30
0.0
 10
249.6130403695048
 20
154.6554418603469
 30
0.0
 10
249.6078142952654
 20
154.7651816069734
 30
0.0
 10
249.572539672825
 20
154.863058083902
 30
0.0
 10
249.5305754593358
 20
154.9124521153909
 30
0.0
 10
249.5126981977804
 20
154.9334945691098
 30
0.0
  0
SPLINE
  5
D1
330
1F
100
AcDbEntity
  8
0
  6
Continuous
 62
     7
370
    15
100
AcDbSpline
210
0.0
220
0.0
230
1.0
 70
     8
 71
     3
 72
    12
 73
     8
 74
     0
 42
0.00000001
 43
0.00000001
 12
1.0
 22
0.0
 32
0.0
 13
1.0
 23
0.0
 33
0.0
 40
0.0
 40
0.0
 40
0.0
 40
0.0
 40
0.2058197980563913
 40
0.4120243170630082
 40
0.6140790967967011
 40
0.8132119811722225
 40
1.0
 40
1.0
 40
1.0
 40
1.0
 10
249.5126981977804
 20
154.9334945691098
 30
0.0
 10
249.4714773142925
 20
154.98448163122
 30
0.0
 10
249.3889584967237
 20
155.0865510610968
 30
0.0
 10
249.3374278690665
 20
155.2812348197092
 30
0.0
 10
249.3494458596391
 20
155.4771667361005
 30
0.0
 10
249.4200389308864
 20
155.6559246862313
 30
0.0
 10
249.5052584511649
 20
155.7442020187363
 30
0.0
 10
249.5465052072389
 20
155.7869287741651
 30
0.0
  0
SPLINE
  5
D2
330
1F
100
AcDbEntity
  8
0
  6
Continuous
 62
     7
370
    15
100
AcDbSpline
210
0.0
220
0.0
230
1.0
 70
     8
 71
     3
 72
    11
 73
     7
 74
     0
 42
0.00000001
 43
0.00000001
 12
1.0
 22
0.0
 32
0.0
 13
1.0
 23
0.0
 33
0.0
 40
0.0
 40
0.0
 40
0.0
 40
0.0
 40
0.2908643238482825
 40
0.5839546126784474
 40
0.8745998306431163
 40
1.0
 40
1.0
 40
1.0
 40
1.0
 10
249.5465052072389
 20
155.7869287741651
 30
0.0
 10
249.5724371060354
 20
155.8142934738283
 30
0.0
 10
249.6244993586945
 20
155.869232293349
 30
0.0
 10
249.6622386106282
 20
155.9787949463085
 30
0.0
 10
249.6645235365514
 20
156.0725141549914
 30
0.0
 10
249.6505650987577
 20
156.1247541528286
 30
0.0
 10
249.6463578883989
 20
156.1404998016824
 30
0.0
  0
SPLINE
  5
D3
330
1F
100
AcDbEntity
  8
0
  6
Continuous
 62
     7
370
    15
100
AcDbSpline
210
0.0
220
0.0
230
1.0
 70
     8
 71
     3
 72
    12
 73
     8
 74
     0
 42
0.00000001
 43
0.00000001
 12
1.0
 22
0.0
 32
0.0
 13
1.0
 23
0.0
 33
0.0
 40
0.0
 40
0.0
 40
0.0
 40
0.0
 40
0.2058591833302597
 40
0.4121011875278107
 40
0.6141916588572517
 40
0.8133176486000733
 40
1.0
 40
1.0
 40
1.0
 40
1.0
 10
246.7649725024088
 20
155.8971191359033
 30
0.0
 10
246.80619788514
 20
155.8461237135666
 30
0.0
 10
246.8887253143516
 20
155.7440380365353
 30
0.0
 10
246.9402554252558
 20
155.5493251557508
 30
0.0
 10
246.928207400375
 20
155.3533694915388
 30
0.0
 10
246.8575896609145
 20
155.1746400589183
 30
0.0
 10
246.7723908984578
 20
155.0863878281257
 30
0.0
 10
246.7311654929502
 20
155.043684930848
 30
0.0
  0
SPLINE
  5
D4
330
1F
100
AcDbEntity
  8
0
  6
Continuous
 62
     7
370
    15
100
AcDbSpline
210
0.0
220
0.0
230
1.0
 70
     8
 71
     3
 72
    11
 73
     7
 74
     0
 42
0.00000001
 43
0.00000001
 12
1.0
 22
0.0
 32
0.0
 13
1.0
 23
0.0
 33
0.0
 40
0.0
 40
0.0
 40
0.0
 40
0.0
 40
0.2524792049910361
 40
0.5068934361438541
 40
0.7591820137885329
 40
0.9999999999999999
 40
0.9999999999999999
 40
0.9999999999999999
 40
0.9999999999999999
 10
246.7311654929502
 20
155.043684930848
 30
0.0
 10
246.7052214908607
 20
155.0163150043754
 30
0.0
 10
246.6531346492258
 20
154.9613653855456
 30
0.0
 10
246.6155783069357
 20
154.8519261590857
 30
0.0
 10
246.6121472331392
 20
154.7376739342054
 30
0.0
 10
246.640379635925
 20
154.6687936801055
 30
0.0
 10
246.6541674677713
 20
154.6351546955575
 30
0.0
  0
SPLINE
  5
D5
330
1F
100
AcDbEntity
  8
0
  6
Continuous
 62
     7
370
    15
100
AcDbSpline
210
0.0
220
0.0
230
1.0
 70
     8
 71
     3
 72
    11
 73
     7
 74
     0
 42
0.00000001
 43
0.00000001
 12
1.0
 22
0.0
 32
0.0
 13
1.0
 23
0.0
 33
0.0
 40
0.0
 40
0.0
 40
0.0
 40
0.0
 40
0.2423632189279589
 40
0.5166895703964649
 40
0.7923329775028477
 40
0.9999999999999999
 40
0.9999999999999999
 40
0.9999999999999999
 40
0.9999999999999999
 10
246.7005734090193
 20
156.2739285243024
 30
0.0
 10
246.6891492946819
 20
156.2427996396916
 30
0.0
 10
246.6647944410236
 20
156.1764365583311
 30
0.0
 10
246.6696092929072
 20
156.06668084821
 30
0.0
 10
246.7046582841055
 20
155.9682627177473
 30
0.0
 10
246.7468456097132
 20
155.9185006958462
 30
0.0
 10
246.7649725024088
 20
155.8971191359033
 30
0.0
  0
SPLINE
  5
D6
330
1F
100
AcDbEntity
  8
0
  6
Continuous
 62
     7
370
    15
100
AcDbSpline
210
0.0
220
0.0
230
1.0
 70
     8
 71
     3
 72
    12
 73
     8
 74
     0
 42
0.00000001
 43
0.00000001
 12
1.0
 22
0.0
 32
0.0
 13
1.0
 23
0.0
 33
0.0
 40
0.0
 40
0.0
 40
0.0
 40
0.0
 40
0.0091729733779309
 40
0.2576774268863772
 40
0.5061882206794474
 40
0.7560359921183831
 40
1.0
 40
1.0
 40
1.0
 40
1.0
 10
248.0727580134256
 20
153.7394458961953
 30
0.0
 10
248.0741286858051
 20
153.7393982832503
 30
0.0
 10
248.1126321587034
 20
153.7380607909605
 30
0.0
 10
248.1893596650836
 20
153.748963517642
 30
0.0
 10
248.2896533337413
 20
153.800993857891
 30
0.0
 10
248.369248984578
 20
153.8818148832625
 30
0.0
 10
248.3955230311234
 20
153.9506138912693
 30
0.0
 10
248.4085035268648
 20
153.9846035254468
 30
0.0
  0
SPLINE
  5
D7
330
1F
100
AcDbEntity
  8
0
  6
Continuous
 62
     7
370
    15
100
AcDbSpline
210
0.0
220
0.0
230
1.0
 70
     8
 71
     3
 72
    12
 73
     8
 74
     0
 42
0.00000001
 43
0.00000001
 12
1.0
 22
0.0
 32
0.0
 13
1.0
 23
0.0
 33
0.0
 40
0.0
 40
0.0
 40
0.0
 40
0.0
 40
0.2057506237569336
 40
0.4119596121954802
 40
0.6140139858851724
 40
0.8131409345928866
 40
1.0
 40
1.0
 40
1.0
 40
1.0
 10
248.4085035268648
 20
153.9846035254468
 30
0.0
 10
248.4320401148766
 20
154.0457739394945
 30
0.0
 10
248.4791657249609
 20
154.1682510410886
 30
0.0
 10
248.6219666246191
 20
154.3102227111875
 30
0.0
 10
248.7976511885035
 20
154.3977936901595
 30
0.0
 10
248.9877729535496
 20
154.4260640410646
 30
0.0
 10
249.1068544253345
 20
154.3964003080644
 30
0.0
 10
249.1645027641638
 20
154.3820398462285
 30
0.0
  0
SPLINE
  5
D8
330
1F
100
AcDbEntity
  8
0
  6
Continuous
 62
     7
370
    15
100
AcDbSpline
210
0.0
220
0.0
230
1.0
 70
     8
 71
     3
 72
    11
 73
     7
 74
     0
 42
0.00000001
 43
0.00000001
 12
1.0
 22
0.0
 32
0.0
 13
1.0
 23
0.0
 33
0.0
 40
0.0
 40
0.0
 40
0.0
 40
0.0
 40
0.2794078581949285
 40
0.559623972322682
 40
0.8374996012073647
 40
1.0
 40
1.0
 40
1.0
 40
1.0
 10
249.1645027641638
 20
154.3820398462285
 30
0.0
 10
249.2013517232055
 20
154.3732358740039
 30
0.0
 10
249.2751562359637
 20
154.3556024619002
 30
0.0
 10
249.3889913879473
 20
154.3779661346073
 30
0.0
 10
249.476593084519
 20
154.4256700547913
 30
0.0
 10
249.5173559012694
 20
154.4696607561024
 30
0.0
 10
249.5323975328787
 20
154.485893489169
 30
0.0
  0
SPLINE
  5
D9
330
1F
100
AcDbEntity
  8
0
  6
Continuous
 62
     7
370
    15
100
AcDbSpline
210
0.0
220
0.0
230
1.0
 70
     8
 71
     3
 72
    12
 73
     8
 74
     0
 42
0.00000001
 43
0.00000001
 12
1.0
 22
0.0
 32
0.0
 13
1.0
 23
0.0
 33
0.0
 40
0.0
 40
0.0
 40
0.0
 40
0.0
 40
0.2058423320608975
 40
0.4120702920145985
 40
0.6141391227224314
 40
0.8132618964890393
 40
1.0
 40
1.0
 40
1.0
 40
1.0
 10
247.0346425418241
 20
154.4664139461984
 30
0.0
 10
247.099414398652
 20
154.4766187874626
 30
0.0
 10
247.2290794568068
 20
154.4970475878829
 30
0.0
 10
247.4234595208971
 20
154.4443233600758
 30
0.0
 10
247.5871326791298
 20
154.3359283363002
 30
0.0
 10
247.7066240503152
 20
154.1854127063035
 30
0.0
 10
247.7404598636277
 20
154.0674891270756
 30
0.0
 10
247.7568347696646
 20
154.0104197872151
 30
0.0
  0
SPLINE
  5
DA
330
1F
100
AcDbEntity
  8
0
  6
Continuous
 62
     7
370
    15
100
AcDbSpline
210
0.0
220
0.0
230
1.0
 70
     8
 71
     3
 72
    11
 73
     7
 74
     0
 42
0.00000001
 43
0.00000001
 12
1.0
 22
0.0
 32
0.0
 13
1.0
 23
0.0
 33
0.0
 40
0.0
 40
0.0
 40
0.0
 40
0.0
 40
0.2535108615998873
 40
0.5075663828931967
 40
0.7595031620788365
 40
1.0
 40
1.0
 40
1.0
 40
1.0
 10
247.7568347696646
 20
154.0104197872151
 30
0.0
 10
247.7676453925093
 20
153.9740707832724
 30
0.0
 10
247.789289864464
 20
153.9012946807554
 30
0.0
 10
247.8655897272709
 20
153.8140275658563
 30
0.0
 10
247.9629317659096
 20
153.7541110467373
 30
0.0
 10
248.0367206717281
 20
153.7442579794002
 30
0.0
 10
248.0727580134256
 20
153.7394458961953
 30
0.0
  0
SPLINE
  5
DB
330
1F
100
AcDbEntity
  8
0
  6
Continuous
 62
     7
370
    15
100
AcDbSpline
210
0.0
220
0.0
230
1.0
 70
     8
 71
     3
 72
    12
 73
     8
 74
     0
 42
0.00000001
 43
0.00000001
 12
1.0
 22
0.0
 32
0.0
 13
1.0
 23
0.0
 33
0.0
 40
0.0
 40
0.0
 40
0.0
 40
0.0
 40
0.0091709730704966
 40
0.2573271388141947
 40
0.5054939741386133
 40
0.7549899826562966
 40
1.0
 40
1.0
 40
1.0
 40
1.0
 10
246.6541674677713
 20
154.6351546955575
 30
0.0
 10
246.6548105494158
 20
154.6339414902956
 30
0.0
 10
246.6728546935136
 20
154.59990032188
 30
0.0
 10
246.7205278967972
 20
154.5388022960369
 30
0.0
 10
246.8156276209014
 20
154.4777908798279
 30
0.0
 10
246.9255703611688
 20
154.4490031678972
 30
0.0
 10
246.9985056964918
 20
154.4606455587066
 30
0.0
 10
247.0346425418241
 20
154.4664139461984
 30
0.0
  0
CIRCLE
  5
DC
330
1F
100
AcDbEntity
  8
0
  6
Continuous
 62
     7
370
    15
100
AcDbCircle
 10
248.1375009478
 20
155.4131949415
 30
0.0
 40
2.625000000000019
  0
ELLIPSE
  5
DD
330
1F
100
AcDbEntity
  8
0
  6
HIDDEN
 62
     7
370
     0
100
AcDbEllipse
 10
248.3229025881
 20
115.6734014464
 30
0.0
 11
22.40942561795884
 21
31.44673815029741
 31
0.0
210
0.0
220
0.0
230
1.0
 40
0.0817078932
 41
2.483567902784471
 42
3.199753277442024
  0
SPLINE
  5
DE
330
1F
100
AcDbEntity
  8
0
  6
HIDDEN
 62
     7
370
     0
100
AcDbSpline
210
0.0
220
0.0
230
1.0
 70
     8
 71
     3
 72
    12
 73
     8
 74
     0
 42
0.00000001
 43
0.00000001
 12
1.0
 22
0.0
 32
0.0
 13
1.0
 23
0.0
 33
0.0
 40
0.0
 40
0.0
 40
0.0
 40
0.0
 40
0.4999999999999953
 40
0.4999999999999953
 40
0.7499999999999977
 40
0.7499999999999977
 40
1.0
 40
1.0
 40
1.0
 40
1.0
 10
201.8832383950507
 20
145.5741439065064
 30
0.0
 10
201.9139606369698
 20
145.6114458894595
 30
0.0
 10
201.9567978515049
 20
145.6480577215059
 30
0.0
 10
202.0562248757047
 20
145.6958225047911
 30
0.0
 10
202.0959770705214
 20
145.7107800202735
 30
0.0
 10
202.1940185273797
 20
145.7339699660426
 30
0.0
 10
202.2535745829671
 20
145.7418934052623
 30
0.0
 10
202.3162510969429
 20
145.7418934052623
 30
0.0
  0
LINE
  5
DF
330
1F
100
AcDbEntity
  8
0
  6
HIDDEN
 62
     7
370
     0
100
AcDbLine
 10
202.3162512798
 20
145.7418939633
 30
0.0
 11
205.2607374955
 21
145.7418939633
 31
0.0
  0
SPLINE
  5
E0
330
1F
100
AcDbEntity
  8
0
  6
HIDDEN
 62
     7
370
     0
100
AcDbSpline
210
0.0
220
0.0
230
1.0
 70
     8
 71
     3
 72
    12
 73
     8
 74
     0
 42
0.00000001
 43
0.00000001
 12
1.0
 22
0.0
 32
0.0
 13
1.0
 23
0.0
 33
0.0
 40
0.0
 40
0.0
 40
0.0
 40
0.0
 40
0.2499999999999991
 40
0.2499999999999991
 40
0.4999999999999981
 40
0.4999999999999981
 40
1.0
 40
1.0
 40
1.0
 40
1.0
 10
205.26073746981
 20
145.7418934052623
 30
0.0
 10
205.3238175083034
 20
145.7418934052623
 30
0.0
 10
205.3829661304848
 20
145.7339874790499
 30
0.0
 10
205.4814386805539
 20
145.7106623176136
 30
0.0
 10
205.5204752925386
 20
145.6959495277819
 30
0.0
 10
205.6203717593177
 20
145.647993727051
 30
0.0
 10
205.6627926403843
 20
145.6117315704709
 30
0.0
 10
205.6937501717023
 20
145.5741439065064
 30
0.0
  0
ELLIPSE
  5
E1
330
1F
100
AcDbEntity
  8
0
  6
HIDDEN
 62
     7
370
     0
100
AcDbEllipse
 10
189.441340094
 20
115.6734014464
 30
0.0
 11
14.75368316065624
 21
31.09325491558116
 31
0.0
210
0.0
220
0.0
230
1.0
 40
0.3419987131
 41
5.193281737408637
 42
6.12404310455234
  0
SPLINE
  5
E2
330
1F
100
AcDbEntity
  8
0
  6
HIDDEN
 62
     7
370
     0
100
AcDbSpline
210
0.0
220
0.0
230
1.0
 70
     8
 71
     3
 72
    12
 73
     8
 74
     0
 42
0.00000001
 43
0.00000001
 12
1.0
 22
0.0
 32
0.0
 13
1.0
 23
0.0
 33
0.0
 40
0.0
 40
0.0
 40
0.0
 40
0.0
 40
0.5
 40
0.5
 40
0.75
 40
0.75
 40
1.0
 40
1.0
 40
1.0
 40
1.0
 10
205.6937501717023
 20
125.5827707670747
 30
0.0
 10
205.6630279297832
 20
125.4702149676655
 30
0.0
 10
205.620190715248
 20
125.357457107926
 30
0.0
 10
205.5207636910482
 20
125.2079162221296
 30
0.0
 10
205.4810114962316
 20
125.1606234904227
 30
0.0
 10
205.3829700393733
 20
125.0868871971013
 30
0.0
 10
205.3234139837859
 20
125.0614678777256
 30
0.0
 10
205.26073746981
 20
125.0614678777256
 30
0.0
  0
LINE
  5
E3
330
1F
100
AcDbEntity
  8
0
  6
HIDDEN
 62
     7
370
     0
100
AcDbLine
 10
205.2607374955
 20
125.0614682746
 30
0.0
 11
202.3162512798
 21
125.0614682746
 31
0.0
  0
SPLINE
  5
E4
330
1F
100
AcDbEntity
  8
0
  6
HIDDEN
 62
     7
370
     0
100
AcDbSpline
210
0.0
220
0.0
230
1.0
 70
     8
 71
     3
 72
    12
 73
     8
 74
     0
 42
0.00000001
 43
0.00000001
 12
1.0
 22
0.0
 32
0.0
 13
1.0
 23
0.0
 33
0.0
 40
0.0
 40
0.0
 40
0.0
 40
0.0
 40
0.2500000000000005
 40
0.2500000000000005
 40
0.500000000000001
 40
0.500000000000001
 40
1.0
 40
1.0
 40
1.0
 40
1.0
 10
202.3162510969429
 20
125.0614678777256
 30
0.0
 10
202.2531710584496
 20
125.0614678777256
 30
0.0
 10
202.1940224362682
 20
125.0868321969405
 30
0.0
 10
202.0955498861991
 20
125.1609970573134
 30
0.0
 10
202.0565132742144
 20
125.2075173978676
 30
0.0
 10
201.9566168074353
 20
125.3576597407128
 30
0.0
 10
201.9141959263687
 20
125.469352947685
 30
0.0
 10
201.8832383950507
 20
125.5827707670747
 30
0.0
  0
ELLIPSE
  5
E5
330
1F
100
AcDbEntity
  8
0
  6
HIDDEN
 62
     7
370
     0
100
AcDbEllipse
 10
218.1356484727
 20
115.6734014464
 30
0.0
 11
-14.75368316065624
 21
31.09325491558116
 31
0.0
210
0.0
220
0.0
230
1.0
 40
0.3419987131
 41
0.1591422026272857
 42
1.089903569770961
  0
SPLINE
  5
E6
330
1F
100
AcDbEntity
  8
0
  6
HIDDEN
 62
     7
370
     0
100
AcDbSpline
210
0.0
220
0.0
230
1.0
 70
     8
 71
     3
 72
    12
 73
     8
 74
     0
 42
0.00000001
 43
0.00000001
 12
1.0
 22
0.0
 32
0.0
 13
1.0
 23
0.0
 33
0.0
 40
0.0
 40
0.0
 40
0.0
 40
0.0
 40
0.5000000000000001
 40
0.5000000000000001
 40
0.75
 40
0.75
 40
1.0
 40
1.0
 40
1.0
 40
1.0
 10
201.8832383950507
 20
105.7640321257039
 30
0.0
 10
201.9139606369698
 20
105.8765879251131
 30
0.0
 10
201.956797851505
 20
105.9893457848527
 30
0.0
 10
202.0562248757048
 20
106.138886670649
 30
0.0
 10
202.0959770705214
 20
106.1861794023559
 30
0.0
 10
202.1940185273797
 20
106.2599156956773
 30
0.0
 10
202.2535745829671
 20
106.285335015053
 30
0.0
 10
202.3162510969429
 20
106.285335015053
 30
0.0
  0
LINE
  5
E7
330
1F
100
AcDbEntity
  8
0
  6
HIDDEN
 62
     7
370
     0
100
AcDbLine
 10
202.3162512798
 20
106.2853346181
 30
0.0
 11
205.2607374955
 21
106.2853346181
 31
0.0
  0
SPLINE
  5
E8
330
1F
100
AcDbEntity
  8
0
  6
HIDDEN
 62
     7
370
     0
100
AcDbSpline
210
0.0
220
0.0
230
1.0
 70
     8
 71
     3
 72
    12
 73
     8
 74
     0
 42
0.00000001
 43
0.00000001
 12
1.0
 22
0.0
 32
0.0
 13
1.0
 23
0.0
 33
0.0
 40
0.0
 40
0.0
 40
0.0
 40
0.0
 40
0.2500000000000009
 40
0.2500000000000009
 40
0.5000000000000018
 40
0.5000000000000018
 40
1.0
 40
1.0
 40
1.0
 40
1.0
 10
205.26073746981
 20
106.285335015053
 30
0.0
 10
205.3238175083034
 20
106.285335015053
 30
0.0
 10
205.3829661304848
 20
106.2599706958381
 30
0.0
 10
205.4814386805539
 20
106.1858058354652
 30
0.0
 10
205.5204752925386
 20
106.1392854949111
 30
0.0
 10
205.6203717593177
 20
105.9891431520658
 30
0.0
 10
205.6627926403843
 20
105.8774499450937
 30
0.0
 10
205.6937501717023
 20
105.7640321257039
 30
0.0
  0
ELLIPSE
  5
E9
330
1F
100
AcDbEntity
  8
0
  6
HIDDEN
 62
     7
370
     0
100
AcDbEllipse
 10
189.441340094
 20
115.6734014464
 30
0.0
 11
-14.7536831606561
 21
31.09325491558116
 31
0.0
210
0.0
220
0.0
230
1.0
 40
0.3419987131
 41
3.300734856217131
 42
4.23149622336078
  0
SPLINE
  5
EA
330
1F
100
AcDbEntity
  8
0
  6
HIDDEN
 62
     7
370
     0
100
AcDbSpline
210
0.0
220
0.0
230
1.0
 70
     8
 71
     3
 72
    12
 73
     8
 74
     0
 42
0.00000001
 43
0.00000001
 12
1.0
 22
0.0
 32
0.0
 13
1.0
 23
0.0
 33
0.0
 40
0.0
 40
0.0
 40
0.0
 40
0.0
 40
0.4999999999999981
 40
0.4999999999999981
 40
0.749999999999999
 40
0.749999999999999
 40
1.0
 40
1.0
 40
1.0
 40
1.0
 10
205.6937501717023
 20
85.77265898627189
 30
0.0
 10
205.6630279297832
 20
85.73535700331884
 30
0.0
 10
205.620190715248
 20
85.69874517127246
 30
0.0
 10
205.5207636910482
 20
85.65098038798726
 30
0.0
 10
205.4810114962316
 20
85.63602287250488
 30
0.0
 10
205.3829700393733
 20
85.61283292673573
 30
0.0
 10
205.3234139837859
 20
85.60490948751603
 30
0.0
 10
205.26073746981
 20
85.60490948751603
 30
0.0
  0
LINE
  5
EB
330
1F
100
AcDbEntity
  8
0
  6
HIDDEN
 62
     7
370
     0
100
AcDbLine
 10
205.2607374955
 20
85.6049089295
 30
0.0
 11
202.3162512798
 21
85.6049089295
 31
0.0
  0
SPLINE
  5
EC
330
1F
100
AcDbEntity
  8
0
  6
HIDDEN
 62
     7
370
     0
100
AcDbSpline
210
0.0
220
0.0
230
1.0
 70
     8
 71
     3
 72
    12
 73
     8
 74
     0
 42
0.00000001
 43
0.00000001
 12
1.0
 22
0.0
 32
0.0
 13
1.0
 23
0.0
 33
0.0
 40
0.0
 40
0.0
 40
0.0
 40
0.0
 40
0.2500000000000004
 40
0.2500000000000004
 40
0.5000000000000009
 40
0.5000000000000009
 40
1.0
 40
1.0
 40
1.0
 40
1.0
 10
202.3162510969429
 20
85.60490948751604
 30
0.0
 10
202.2531710584496
 20
85.60490948751603
 30
0.0
 10
202.1940224362682
 20
85.61281541372846
 30
0.0
 10
202.0955498861991
 20
85.6361405751647
 30
0.0
 10
202.0565132742144
 20
85.6508533649964
 30
0.0
 10
201.9566168074353
 20
85.69880916572734
 30
0.0
 10
201.9141959263687
 20
85.73507132230739
 30
0.0
 10
201.8832383950507
 20
85.77265898627188
 30
0.0
  0
ELLIPSE
  5
ED
330
1F
100
AcDbEntity
  8
0
  6
HIDDEN
 62
     7
370
     0
100
AcDbEllipse
 10
218.1356484727
 20
115.6734014464
 30
0.0
 11
14.75368316065612
 21
31.09325491558116
 31
0.0
210
0.0
220
0.0
230
1.0
 40
0.3419987131
 41
2.05168908381882
 42
2.982450450962498
  0
SPLINE
  5
EE
330
1F
100
AcDbEntity
  8
0
  6
HIDDEN
 62
     7
370
     0
100
AcDbSpline
210
0.0
220
0.0
230
1.0
 70
     8
 71
     3
 72
    60
 73
    56
 74
     0
 42
0.00000001
 43
0.00000001
 12
1.0
 22
0.0
 32
0.0
 13
1.0
 23
0.0
 33
0.0
 40
-0.0625000000000001
 40
-0.0625000000000001
 40
0.0
 40
0.0
 40
0.0312500000000002
 40
0.0312500000000002
 40
0.0625000000000005
 40
0.0625000000000005
 40
0.0937500000000007
 40
0.0937500000000007
 40
0.125000000000001
 40
0.125000000000001
 40
0.1875000000000012
 40
0.1875000000000012
 40
0.2500000000000013
 40
0.2500000000000013
 40
0.2812500000000012
 40
0.2812500000000012
 40
0.3125000000000011
 40
0.3125000000000011
 40
0.3437500000000009
 40
0.3437500000000009
 40
0.3750000000000008
 40
0.3750000000000008
 40
0.4062500000000006
 40
0.4062500000000006
 40
0.4375000000000005
 40
0.4375000000000005
 40
0.4687500000000003
 40
0.4687500000000003
 40
0.5000000000000002
 40
0.5000000000000002
 40
0.5624999999999999
 40
0.5624999999999999
 40
0.6249999999999997
 40
0.6249999999999997
 40
0.6562499999999997
 40
0.6562499999999997
 40
0.6874999999999997
 40
0.6874999999999997
 40
0.7187499999999998
 40
0.7187499999999998
 40
0.7499999999999998
 40
0.7499999999999998
 40
0.7812499999999998
 40
0.7812499999999998
 40
0.8124999999999998
 40
0.8124999999999998
 40
0.8437499999999999
 40
0.8437499999999999
 40
0.8749999999999999
 40
0.8749999999999999
 40
0.9062499999999999
 40
0.9062499999999999
 40
0.9374999999999999
 40
0.9374999999999999
 40
1.0
 40
1.0
 40
1.03125
 40
1.03125
 10
205.7884942833765
 20
115.4090709213024
 30
0.0
 10
205.7884942833765
 20
115.8055667089325
 30
0.0
 10
205.7755224248877
 20
115.9355167699366
 30
0.0
 10
205.7247022551953
 20
116.1911697032967
 30
0.0
 10
205.6862349317284
 20
116.318199209846
 30
0.0
 10
205.5858366956562
 20
116.5603873409705
 30
0.0
 10
205.5244036646831
 20
116.6752488335234
 30
0.0
 10
205.3792688331382
 20
116.8926290293475
 30
0.0
 10
205.2948137157303
 20
116.9955265965461
 30
0.0
 10
205.018094265372
 20
117.2721936355539
 30
0.0
 10
204.7950173734539
 20
117.4211917260339
 30
0.0
 10
204.3137340112336
 20
117.6207028664986
 30
0.0
 10
204.0505035922426
 20
117.6732609694953
 30
0.0
 10
203.6591013905547
 20
117.6734712518734
 30
0.0
 10
203.5265783624458
 20
117.6604854811463
 30
0.0
 10
203.2700479092047
 20
117.6094583329324
 30
0.0
 10
203.1453610749082
 20
117.571703133782
 30
0.0
 10
202.9031818126726
 20
117.4715648008733
 30
0.0
 10
202.7860882805226
 20
117.4089591334618
 30
0.0
 10
202.5693732771671
 20
117.2642258401968
 30
0.0
 10
202.4683544503044
 20
117.1815984929172
 30
0.0
 10
202.2815695628522
 20
116.9949934396657
 30
0.0
 10
202.1987126816561
 20
116.8938783757895
 30
0.0
 10
202.0538284165822
 20
116.6773455717996
 30
0.0
 10
201.9911909087613
 20
116.5604753641985
 30
0.0
 10
201.8907420853615
 20
116.3181774935484
 30
0.0
 10
201.8528909843443
 20
116.1935134950874
 30
0.0
 10
201.8016694190879
 20
115.9372264510235
 30
0.0
 10
201.7885412924707
 20
115.8046544552779
 30
0.0
 10
201.7884006521305
 20
115.413050262504
 30
0.0
 10
201.8407254015023
 20
115.14988493118
 30
0.0
 10
202.0398364635596
 20
114.6683795620069
 30
0.0
 10
202.1886988000169
 20
114.4451280225228
 30
0.0
 10
202.4650197593423
 20
114.1682717236339
 30
0.0
 10
202.5677834077159
 20
114.0837582767902
 30
0.0
 10
202.7851669650954
 20
113.9383410033499
 30
0.0
 10
202.8999657330518
 20
113.8768298042916
 30
0.0
 10
203.1418424564758
 20
113.7762999560367
 30
0.0
 10
203.2689960644761
 20
113.7376549328187
 30
0.0
 10
203.5246620739086
 20
113.6865986052677
 30
0.0
 10
203.6545281116647
 20
113.6735337467221
 30
0.0
 10
203.9184806383963
 20
113.6732711259242
 30
0.0
 10
204.0488849618204
 20
113.6861481261682
 30
0.0
 10
204.3045357251997
 20
113.736734129974
 30
0.0
 10
204.4314012743141
 20
113.7750104945958
 30
0.0
 10
204.6739217322599
 20
113.8752813620759
 30
0.0
 10
204.7888483709203
 20
113.9366373862168
 30
0.0
 10
205.0062198397523
 20
114.0814836813896
 30
0.0
 10
205.1092336524145
 20
114.1658611958842
 30
0.0
 10
205.2939341979965
 20
114.3502685160725
 30
0.0
 10
205.3767639322531
 20
114.4508415793419
 30
0.0
 10
205.5230163708506
 20
114.6690677199209
 30
0.0
 10
205.585384851643
 20
114.7856228298422
 30
0.0
 10
205.7353410032097
 20
115.1464724238759
 30
0.0
 10
205.7884942833765
 20
115.4090709213024
 30
0.0
 10
205.7884942833765
 20
115.8055667089325
 30
0.0
  0
LINE
  5
EF
330
1F
100
AcDbEntity
  8
0
  6
HIDDEN
 62
     7
370
     0
100
AcDbLine
 10
191.7884942834
 20
146.6734009397
 30
0.0
 11
191.7884942834
 21
84.673401953
 31
0.0
  0
LWPOLYLINE
  5
F0
330
1F
100
AcDbEntity
  8
0
  6
HIDDEN
 62
     7
370
     0
100
AcDbPolyline
 90
       29
 70
   128
 43
0.0
 10
212.7884940003
 20
130.5214772535
 10
213.4560567085
 20
130.45633869
 10
214.0901458208
 20
130.2641872851
 10
214.6589641218
 20
129.9546594334
 10
215.1339889262
 20
129.5432756258
 10
215.491400728
 20
129.0506646571
 10
215.7132771556
 20
128.5015279961
 10
215.788494492
 20
127.923401126
 10
215.7132771556
 20
127.3452751872
 10
215.491400728
 20
126.7961385262
 10
215.1339889262
 20
126.3035275576
 10
214.6589641218
 20
125.8921437499
 10
214.0901458208
 20
125.5826158983
 10
213.4560567085
 20
125.3904644934
 10
212.7884940003
 20
125.3253249985
 10
212.120931292
 20
125.3904644934
 10
211.4868421797
 20
125.5826158983
 10
210.9180257414
 20
125.8921437499
 10
210.4429990743
 20
126.3035275576
 10
210.0855872725
 20
126.7961385262
 10
209.8637108449
 20
127.3452751872
 10
209.7884935085
 20
127.923401126
 10
209.8637108449
 20
128.5015279961
 10
210.0855872725
 20
129.0506646571
 10
210.4429990743
 20
129.5432756258
 10
210.9180257414
 20
129.9546594334
 10
211.4868421797
 20
130.2641872851
 10
212.120931292
 20
130.45633869
 10
212.7884940003
 20
130.5214772535
  0
LINE
  5
F1
330
1F
100
AcDbEntity
  8
0
  6
HIDDEN
 62
     7
370
     0
100
AcDbLine
 10
191.7884942834
 20
91.4234007311
 30
0.0
 11
191.7884942834
 21
139.9234021616
 31
0.0
  0
SPLINE
  5
F2
330
1F
100
AcDbEntity
  8
0
  6
HIDDEN
 62
     7
370
     0
100
AcDbSpline
210
0.0
220
0.0
230
1.0
 70
     8
 71
     3
 72
    12
 73
     8
 74
     0
 42
0.00000001
 43
0.00000001
 12
1.0
 22
0.0
 32
0.0
 13
1.0
 23
0.0
 33
0.0
 40
0.0
 40
0.0
 40
0.0
 40
0.0
 40
0.4999999999999996
 40
0.4999999999999996
 40
0.7499999999999998
 40
0.7499999999999998
 40
1.0
 40
1.0
 40
1.0
 40
1.0
 10
190.9719819969295
 20
131.12566942822
 30
0.0
 10
191.0283881756097
 20
131.0778470545601
 30
0.0
 10
191.0985510770815
 20
131.0375762076216
 30
0.0
 10
191.2165617904707
 20
131.0295303391447
 30
0.0
 10
191.2567675740661
 20
131.0360929374835
 30
0.0
 10
191.3304882707992
 20
131.0634750319371
 30
0.0
 10
191.3633489925857
 20
131.0832365224675
 30
0.0
 10
191.393517394515
 20
131.1061692336555
 30
0.0
  0
SPLINE
  5
F3
330
1F
100
AcDbEntity
  8
0
  6
HIDDEN
 62
     7
370
     0
100
AcDbSpline
210
0.0
220
0.0
230
1.0
 70
     8
 71
     3
 72
    16
 73
    12
 74
     0
 42
0.00000001
 43
0.00000001
 12
1.0
 22
0.0
 32
0.0
 13
1.0
 23
0.0
 33
0.0
 40
0.0
 40
0.0
 40
0.0
 40
0.0
 40
0.0624999999999991
 40
0.0624999999999991
 40
0.1249999999999982
 40
0.1249999999999982
 40
0.2499999999999963
 40
0.2499999999999963
 40
0.4999999999999925
 40
0.4999999999999925
 40
1.0
 40
1.0
 40
1.0
 40
1.0
 10
191.3935173944698
 20
131.1061692337036
 30
0.0
 10
191.4051302943092
 20
131.114996856685
 30
0.0
 10
191.4184814787417
 20
131.1228312385669
 30
0.0
 10
191.4478813183608
 20
131.1311413646393
 30
0.0
 10
191.4627220429161
 20
131.1306455454043
 30
0.0
 10
191.4985552508847
 20
131.1191945744349
 30
0.0
 10
191.5126684587063
 20
131.1025140735763
 30
0.0
 10
191.5471598299252
 20
131.0503933878192
 30
0.0
 10
191.5582439010356
 20
131.0106038937942
 30
0.0
 10
191.5843667188316
 20
130.8872672616971
 30
0.0
 10
191.5884942833765
 20
130.7998458511985
 30
0.0
 10
191.5884942833765
 20
130.7111086088803
 30
0.0
  0
LINE
  5
F4
330
1F
100
AcDbEntity
  8
0
  6
HIDDEN
 62
     7
370
     0
100
AcDbLine
 10
191.5884942884
 20
100.6356943933
 30
0.0
 11
191.5884942884
 21
130.7111084995
 31
0.0
  0
SPLINE
  5
F5
330
1F
100
AcDbEntity
  8
0
  6
HIDDEN
 62
     7
370
     0
100
AcDbSpline
210
0.0
220
0.0
230
1.0
 70
     8
 71
     3
 72
    16
 73
    12
 74
     0
 42
0.00000001
 43
0.00000001
 12
1.0
 22
0.0
 32
0.0
 13
1.0
 23
0.0
 33
0.0
 40
0.0
 40
0.0
 40
0.0
 40
0.0
 40
0.500000000000001
 40
0.500000000000001
 40
0.7500000000000016
 40
0.7500000000000016
 40
0.8750000000000017
 40
0.8750000000000017
 40
0.9375000000000009
 40
0.9375000000000009
 40
1.0
 40
1.0
 40
1.0
 40
1.0
 10
191.5884942833765
 20
100.6356942838979
 30
0.0
 10
191.5884942833765
 20
100.5465679187092
 30
0.0
 10
191.5843480082985
 20
100.4597065510958
 30
0.0
 10
191.558382412905
 20
100.3367243046017
 30
0.0
 10
191.5469215075275
 20
100.2959530093705
 30
0.0
 10
191.5126097697532
 20
100.2442486893707
 30
0.0
 10
191.4985850338236
 20
100.2275783227803
 30
0.0
 10
191.4625620707898
 20
100.2161261023235
 30
0.0
 10
191.4478075617001
 20
100.2156730560485
 30
0.0
 10
191.4184554005533
 20
100.2239883772647
 30
0.0
 10
191.4051155260492
 20
100.231817262343
 30
0.0
 10
191.3935173945008
 20
100.2406336591056
 30
0.0
  0
SPLINE
  5
F6
330
1F
100
AcDbEntity
  8
0
  6
HIDDEN
 62
     7
370
     0
100
AcDbSpline
210
0.0
220
0.0
230
1.0
 70
     8
 71
     3
 72
    12
 73
     8
 74
     0
 42
0.00000001
 43
0.00000001
 12
1.0
 22
0.0
 32
0.0
 13
1.0
 23
0.0
 33
0.0
 40
0.0
 40
0.0
 40
0.0
 40
0.0
 40
0.2500000000000003
 40
0.2500000000000003
 40
0.5000000000000009
 40
0.5000000000000009
 40
1.0
 40
1.0
 40
1.0
 40
1.0
 10
191.3935173945079
 20
100.2406336591145
 30
0.0
 10
191.3633255527907
 20
100.2635841882123
 30
0.0
 10
191.3299665833761
 20
100.2835536622365
 30
0.0
 10
191.2568292987955
 20
100.310654795862
 30
0.0
 10
191.2165874261415
 20
100.3172555365074
 30
0.0
 10
191.098881649173
 20
100.3092866620007
 30
0.0
 10
191.0284711713936
 20
100.2690262038329
 30
0.0
 10
190.9719819969253
 20
100.2211334645547
 30
0.0
  0
SPLINE
  5
F7
330
1F
100
AcDbEntity
  8
0
  6
HIDDEN
 62
     7
370
     0
100
AcDbSpline
210
0.0
220
0.0
230
1.0
 70
     8
 71
     3
 72
    12
 73
     8
 74
     0
 42
0.00000001
 43
0.00000001
 12
1.0
 22
0.0
 32
0.0
 13
1.0
 23
0.0
 33
0.0
 40
0.0
 40
0.0
 40
0.0
 40
0.0
 40
0.2500000000000028
 40
0.2500000000000028
 40
0.5000000000000031
 40
0.5000000000000031
 40
1.0
 40
1.0
 40
1.0
 40
1.0
 10
190.971981996925
 20
100.2211334645549
 30
0.0
 10
190.8838280591872
 20
100.1463946567008
 30
0.0
 10
190.8234746345585
 20
100.0554141562184
 30
0.0
 10
190.7172126764917
 20
99.86650033346585
 30
0.0
 10
190.6749805099296
 20
99.76999587392527
 30
0.0
 10
190.5639098146124
 20
99.47922811975812
 30
0.0
 10
190.5109730381856
 20
99.28356130521438
 30
0.0
 10
190.4671739398168
 20
99.08949482014806
 30
0.0
  0
SPLINE
  5
F8
330
1F
100
AcDbEntity
  8
0
  6
HIDDEN
 62
     7
370
     0
100
AcDbSpline
210
0.0
220
0.0
230
1.0
 70
     8
 71
     3
 72
    12
 73
     8
 74
     0
 42
0.00000001
 43
0.00000001
 12
1.0
 22
0.0
 32
0.0
 13
1.0
 23
0.0
 33
0.0
 40
0.0
 40
0.0
 40
0.0
 40
0.0
 40
0.5000000000000002
 40
0.5000000000000002
 40
0.7500000000000001
 40
0.7500000000000001
 40
1.0
 40
1.0
 40
1.0
 40
1.0
 10
190.4671739398168
 20
93.90332049138699
 30
0.0
 10
190.5109204806534
 20
93.87672632074582
 30
0.0
 10
190.5638048358849
 20
93.85696609542009
 30
0.0
 10
190.6753719232211
 20
93.83651510519101
 30
0.0
 10
190.717955519764
 20
93.83125488053456
 30
0.0
 10
190.8228722468459
 20
93.82337208661193
 30
0.0
 10
190.8844058546907
 20
93.82080796143278
 30
0.0
 10
190.9719819969168
 20
93.81860774391312
 30
0.0
  0
LINE
  5
F9
330
1F
100
AcDbEntity
  8
0
  6
HIDDEN
 62
     7
370
     0
100
AcDbLine
 10
191.5884942884
 20
93.1335809243
 30
0.0
 11
191.5884942884
 21
93.613806234
 31
0.0
  0
LINE
  5
FA
330
1F
100
AcDbEntity
  8
0
  6
HIDDEN
 62
     7
370
     0
100
AcDbLine
 10
191.5884942884
 20
137.7329966587
 30
0.0
 11
191.5884942884
 21
138.2132219685
 31
0.0
  0
SPLINE
  5
FB
330
1F
100
AcDbEntity
  8
0
  6
HIDDEN
 62
     7
370
     0
100
AcDbSpline
210
0.0
220
0.0
230
1.0
 70
     8
 71
     3
 72
    12
 73
     8
 74
     0
 42
0.00000001
 43
0.00000001
 12
1.0
 22
0.0
 32
0.0
 13
1.0
 23
0.0
 33
0.0
 40
0.0
 40
0.0
 40
0.0
 40
0.0
 40
0.2500000000000003
 40
0.2500000000000003
 40
0.5000000000000008
 40
0.5000000000000008
 40
1.0
 40
1.0
 40
1.0
 40
1.0
 10
190.9719819969248
 20
137.528195148865
 30
0.0
 10
190.8832973370684
 20
137.525967081524
 30
0.0
 10
190.823378921345
 20
137.5234652974937
 30
0.0
 10
190.7177196940243
 20
137.5155338616576
 30
0.0
 10
190.6750784559093
 20
137.5102417067608
 30
0.0
 10
190.5638891138068
 20
137.4898367662737
 30
0.0
 10
190.5109624316858
 20
137.4701020746868
 30
0.0
 10
190.4671739398168
 20
137.4434824013912
 30
0.0
  0
SPLINE
  5
FC
330
1F
100
AcDbEntity
  8
0
  6
HIDDEN
 62
     7
370
     0
100
AcDbSpline
210
0.0
220
0.0
230
1.0
 70
     8
 71
     3
 72
    12
 73
     8
 74
     0
 42
0.00000001
 43
0.00000001
 12
1.0
 22
0.0
 32
0.0
 13
1.0
 23
0.0
 33
0.0
 40
0.0
 40
0.0
 40
0.0
 40
0.0
 40
0.499999999999998
 40
0.499999999999998
 40
0.749999999999999
 40
0.749999999999999
 40
1.0
 40
1.0
 40
1.0
 40
1.0
 10
190.4671739398153
 20
132.2573080726303
 30
0.0
 10
190.510935416114
 20
132.0634082846683
 30
0.0
 10
190.563841731767
 20
131.8675519207314
 30
0.0
 10
190.6755529294144
 20
131.5754097742324
 30
0.0
 10
190.7180723730008
 20
131.4786918375345
 30
0.0
 10
190.8231957155682
 20
131.29196740111
 30
0.0
 10
190.8847616792859
 20
131.1996166928404
 30
0.0
 10
190.9719819969286
 20
131.1256694282206
 30
0.0
  0
LWPOLYLINE
  5
FD
330
1F
100
AcDbEntity
  8
0
  6
HIDDEN
 62
     7
370
     0
100
AcDbPolyline
 90
       26
 70
   128
 43
0.0
 10
212.7884940003
 20
129.9382495296
 10
213.410218874
 20
129.8702303854
 10
213.9928784911
 20
129.6704458607
 10
214.499862561
 20
129.3514492524
 10
214.8993142639
 20
128.9332854164
 10
215.1661363189
 20
128.4422278938
 10
215.2835611944
 20
127.9091314015
 10
215.2442128156
 20
127.3674937499
 10
215.05056105
 20
126.8513473285
 10
214.7147782837
 20
126.3931226519
 10
214.2579571102
 20
126.0216134203
 10
213.7088064794
 20
125.7601613713
 10
213.1018281673
 20
125.6251950351
 10
212.4751616959
 20
125.6251950351
 10
211.8681833838
 20
125.7601613713
 10
211.3190308903
 20
126.0216134203
 10
210.8622115795
 20
126.3931226519
 10
210.5264269505
 20
126.8513473285
 10
210.3327770476
 20
127.3674937499
 10
210.2934268062
 20
127.9091314015
 10
210.4108535443
 20
128.4422278938
 10
210.6776737366
 20
128.9332854164
 10
211.0771273021
 20
129.3514492524
 10
211.5841095094
 20
129.6704458607
 10
212.1667691265
 20
129.8702303854
 10
212.7884940003
 20
129.9382495296
  0
SPLINE
  5
FE
330
1F
100
AcDbEntity
  8
0
  6
HIDDEN
 62
     7
370
     0
100
AcDbSpline
210
0.0
220
0.0
230
1.0
 70
     8
 71
     3
 72
    62
 73
    58
 74
     0
 42
0.00000001
 43
0.00000001
 12
1.0
 22
0.0
 32
0.0
 13
1.0
 23
0.0
 33
0.0
 40
-0.0312500000000004
 40
-0.0312500000000004
 40
0.0
 40
0.0
 40
0.0312499999999994
 40
0.0312499999999994
 40
0.0624999999999988
 40
0.0624999999999988
 40
0.0937499999999983
 40
0.0937499999999983
 40
0.1249999999999977
 40
0.1249999999999977
 40
0.1874999999999972
 40
0.1874999999999972
 40
0.2187499999999969
 40
0.2187499999999969
 40
0.2499999999999966
 40
0.2499999999999966
 40
0.2812499999999961
 40
0.2812499999999961
 40
0.3124999999999956
 40
0.3124999999999956
 40
0.3749999999999947
 40
0.3749999999999947
 40
0.4062499999999945
 40
0.4062499999999945
 40
0.4374999999999943
 40
0.4374999999999943
 40
0.4687499999999941
 40
0.4687499999999941
 40
0.4999999999999939
 40
0.4999999999999939
 40
0.5624999999999942
 40
0.5624999999999942
 40
0.5937499999999946
 40
0.5937499999999946
 40
0.624999999999995
 40
0.624999999999995
 40
0.6562499999999954
 40
0.6562499999999954
 40
0.6874999999999959
 40
0.6874999999999959
 40
0.7187499999999963
 40
0.7187499999999963
 40
0.7499999999999967
 40
0.7499999999999967
 40
0.7812499999999971
 40
0.7812499999999971
 40
0.8124999999999976
 40
0.8124999999999976
 40
0.8749999999999983
 40
0.8749999999999983
 40
0.9062499999999988
 40
0.9062499999999988
 40
0.9374999999999991
 40
0.9374999999999991
 40
0.9687499999999996
 40
0.9687499999999996
 40
1.0
 40
1.0
 40
1.031249999999999
 40
1.031249999999999
 10
212.9545381023128
 20
122.1613690722978
 30
0.0
 10
212.6224504644405
 20
122.1613690722978
 30
0.0
 10
212.4593537338634
 20
122.1495779316259
 30
0.0
 10
212.1387574289549
 20
122.1032092878902
 30
0.0
 10
211.9795552256485
 20
122.0680246251895
 30
0.0
 10
211.6772447239344
 20
121.9758127747517
 30
0.0
 10
211.53399314969
 20
121.9191253226282
 30
0.0
 10
211.2628823086228
 20
121.7835775333014
 30
0.0
 10
211.135200313494
 20
121.7043645794764
 30
0.0
 10
210.7912002252787
 20
121.4408452678765
 30
0.0
 10
210.6051985966944
 20
121.2233241882074
 30
0.0
 10
210.4177120835128
 20
120.8571416849154
 30
0.0
 10
210.3692401387607
 20
120.7264744862994
 30
0.0
 10
210.304678159347
 20
120.4554713457296
 30
0.0
 10
210.288599659127
 20
120.3167683507831
 30
0.0
 10
210.2883899302134
 20
120.0328037685651
 30
0.0
 10
210.3048214776242
 20
119.8862341596133
 30
0.0
 10
210.3689901677766
 20
119.5992189801921
 30
0.0
 10
210.416459130568
 20
119.4574711168217
 30
0.0
 10
210.6055826145223
 20
119.0384801142909
 30
0.0
 10
210.7897225068884
 20
118.7779682074748
 30
0.0
 10
211.1364580906924
 20
118.4430117958856
 30
0.0
 10
211.2617750468441
 20
118.3424595997595
 30
0.0
 10
211.531834549644
 20
118.164277540071
 30
0.0
 10
211.6782079255252
 20
118.0861870949966
 30
0.0
 10
211.9796258285788
 20
117.9610577340127
 30
0.0
 10
212.1354779900178
 20
117.9131299685757
 30
0.0
 10
212.4578210513341
 20
117.8479604248086
 30
0.0
 10
212.6237725184036
 20
117.8313138186175
 30
0.0
 10
213.1146938859548
 20
117.8310992318687
 30
0.0
 10
213.4451768730576
 20
117.8981232069809
 30
0.0
 10
213.8970863706561
 20
118.0853630857384
 30
0.0
 10
214.0433835880354
 20
118.1632313783842
 30
0.0
 10
214.3142671505917
 20
118.3417144672502
 30
0.0
 10
214.4396236727496
 20
118.4422671224009
 30
0.0
 10
214.6704013142388
 20
118.6649434656551
 30
0.0
 10
214.7751891943089
 20
118.7869929831308
 30
0.0
 10
214.955852818491
 20
119.0416517777534
 30
0.0
 10
215.0330413156863
 20
119.1754303143132
 30
0.0
 10
215.1599047199775
 20
119.4556924850745
 30
0.0
 10
215.2075660739099
 20
119.5978806363942
 30
0.0
 10
215.2717964409725
 20
119.8839883582458
 30
0.0
 10
215.2884296548515
 20
120.0297930004974
 30
0.0
 10
215.2885585298629
 20
120.3153171221508
 30
0.0
 10
215.2724775507341
 20
120.4540767038038
 30
0.0
 10
215.2085101382657
 20
120.7239602370126
 30
0.0
 10
215.1599460880221
 20
120.8556091503496
 30
0.0
 10
214.9722152459795
 20
121.2229398652551
 30
0.0
 10
214.7862694084839
 20
121.4403426187649
 30
0.0
 10
214.4424941863795
 20
121.7038905921274
 30
0.0
 10
214.315318882012
 20
121.7829005485686
 30
0.0
 10
214.0436764727373
 20
121.9188550297675
 30
0.0
 10
213.9005173017902
 20
121.9754976695499
 30
0.0
 10
213.5993903592524
 20
122.067506155672
 30
0.0
 10
213.4398741305608
 20
122.102921231892
 30
0.0
 10
213.1180082383291
 20
122.1495740360178
 30
0.0
 10
212.9545381023128
 20
122.1613690722978
 30
0.0
 10
212.6224504644405
 20
122.1613690722978
 30
0.0
  0
SPLINE
  5
FF
330
1F
100
AcDbEntity
  8
0
  6
HIDDEN
 62
     7
370
     0
100
AcDbSpline
210
0.0
220
0.0
230
1.0
 70
     8
 71
     3
 72
    10
 73
     6
 74
     0
 42
0.00000001
 43
0.00000001
 12
1.0
 22
0.0
 32
0.0
 13
1.0
 23
0.0
 33
0.0
 40
0.0
 40
0.0
 40
0.0
 40
0.0
 40
0.4999999999999998
 40
0.4999999999999998
 40
1.0
 40
1.0
 40
1.0
 40
1.0
 10
214.7972040006234
 20
122.9345096773271
 30
0.0
 10
214.7082380406735
 20
123.0363716181258
 30
0.0
 10
214.6329458586447
 20
123.1778584059813
 30
0.0
 10
214.5891015283017
 20
123.5755600807044
 30
0.0
 10
214.6235876769563
 20
123.821120616174
 30
0.0
 10
214.6833563004936
 20
124.0937381038215
 30
0.0
  0
SPLINE
  5
100
330
1F
100
AcDbEntity
  8
0
  6
HIDDEN
 62
     7
370
     0
100
AcDbSpline
210
0.0
220
0.0
230
1.0
 70
     8
 71
     3
 72
    66
 73
    62
 74
     0
 42
0.00000001
 43
0.00000001
 12
1.0
 22
0.0
 32
0.0
 13
1.0
 23
0.0
 33
0.0
 40
0.0
 40
0.0
 40
0.0
 40
0.0
 40
0.03125
 40
0.03125
 40
0.0625000000000001
 40
0.0625000000000001
 40
0.1250000000000001
 40
0.1250000000000001
 40
0.1875
 40
0.1875
 40
0.2187500000000001
 40
0.2187500000000001
 40
0.2500000000000002
 40
0.2500000000000002
 40
0.2812500000000002
 40
0.2812500000000002
 40
0.3125000000000003
 40
0.3125000000000003
 40
0.3437500000000003
 40
0.3437500000000003
 40
0.3750000000000003
 40
0.3750000000000003
 40
0.4062500000000004
 40
0.4062500000000004
 40
0.4375000000000004
 40
0.4375000000000004
 40
0.4687500000000005
 40
0.4687500000000005
 40
0.5000000000000006
 40
0.5000000000000006
 40
0.5156250000000006
 40
0.5156250000000006
 40
0.5312500000000006
 40
0.5312500000000006
 40
0.5625000000000006
 40
0.5625000000000006
 40
0.5937500000000004
 40
0.5937500000000004
 40
0.6250000000000004
 40
0.6250000000000004
 40
0.6562500000000003
 40
0.6562500000000003
 40
0.6875000000000003
 40
0.6875000000000003
 40
0.7187500000000002
 40
0.7187500000000002
 40
0.7500000000000001
 40
0.7500000000000001
 40
0.7812500000000001
 40
0.7812500000000001
 40
0.8125
 40
0.8125
 40
0.84375
 40
0.84375
 40
0.8749999999999999
 40
0.8749999999999999
 40
0.9374999999999999
 40
0.9374999999999999
 40
0.96875
 40
0.96875
 40
1.0
 40
1.0
 40
1.0
 40
1.0
 10
214.6833563004933
 20
124.0937381038217
 30
0.0
 10
214.784801125128
 20
124.2185090879232
 30
0.0
 10
214.8682901047633
 20
124.3531262688414
 30
0.0
 10
215.0118927385045
 20
124.635056559127
 30
0.0
 10
215.0720176461698
 20
124.7833921316266
 30
0.0
 10
215.2198024747641
 20
125.2388168796532
 30
0.0
 10
215.2751148965131
 20
125.5498684664849
 30
0.0
 10
215.2977835451573
 20
126.1879571472093
 30
0.0
 10
215.2627935480983
 20
126.5089658830558
 30
0.0
 10
215.1219426148246
 20
126.9570158098362
 30
0.0
 10
215.0613018356463
 20
127.0975742696979
 30
0.0
 10
214.9094005380244
 20
127.3583562413436
 30
0.0
 10
214.8192629185157
 20
127.4755826461357
 30
0.0
 10
214.6182256461029
 20
127.6738350742945
 30
0.0
 10
214.5048194735673
 20
127.7568022318515
 30
0.0
 10
214.269745208174
 20
127.8813701049898
 30
0.0
 10
214.1453830159504
 20
127.924830632343
 30
0.0
 10
213.8967549215458
 20
127.9757730064913
 30
0.0
 10
213.7727925592646
 20
127.9837845469393
 30
0.0
 10
213.5266648323293
 20
127.9712177758295
 30
0.0
 10
213.4046418760751
 20
127.9502902728828
 30
0.0
 10
213.1721764384903
 20
127.8860812434112
 30
0.0
 10
213.0604672395731
 20
127.8427421837862
 30
0.0
 10
212.8476371708475
 20
127.7372319077647
 30
0.0
 10
212.7459371798336
 20
127.6745409392995
 30
0.0
 10
212.5621814652016
 20
127.5359618582584
 30
0.0
 10
212.4794199897412
 20
127.4599327871977
 30
0.0
 10
212.3425728654838
 20
127.297744355491
 30
0.0
 10
212.2893892085136
 20
127.212053815358
 30
0.0
 10
212.2505458673654
 20
127.0865117312847
 30
0.0
 10
212.2445142611677
 20
127.0447594927311
 30
0.0
 10
212.2480448778603
 20
126.9659078496668
 30
0.0
 10
212.2573840471887
 20
126.9283602530004
 30
0.0
 10
212.3068342494288
 20
126.820358894536
 30
0.0
 10
212.3679828387374
 20
126.7561144931104
 30
0.0
 10
212.520810109541
 20
126.6352948056346
 30
0.0
 10
212.6137724297496
 20
126.5771830615606
 30
0.0
 10
212.8143491816203
 20
126.4594307336631
 30
0.0
 10
212.9228445395164
 20
126.3993634991903
 30
0.0
 10
213.1521058803176
 20
126.2701741560352
 30
0.0
 10
213.2739265903053
 20
126.2005179577339
 30
0.0
 10
213.5199325611777
 20
126.052144162875
 30
0.0
 10
213.6448854022721
 20
125.9731045289868
 30
0.0
 10
213.8973195531851
 20
125.8014309971625
 30
0.0
 10
214.026586882508
 20
125.7073842722539
 30
0.0
 10
214.2755973062434
 20
125.5092277637962
 30
0.0
 10
214.3956314909416
 20
125.4051859080434
 30
0.0
 10
214.6243147701945
 20
125.184368631955
 30
0.0
 10
214.7282857776404
 20
125.0720221901398
 30
0.0
 10
214.9134064753923
 20
124.8439168357064
 30
0.0
 10
214.9949118955186
 20
124.7271307479215
 30
0.0
 10
215.1263883724768
 20
124.5014102184943
 30
0.0
 10
215.1781910181693
 20
124.3897212505444
 30
0.0
 10
215.2521009821685
 20
124.1755619664771
 30
0.0
 10
215.2744907459302
 20
124.0733471999096
 30
0.0
 10
215.3021309284628
 20
123.7767474649583
 30
0.0
 10
215.2685201197007
 20
123.6014900059524
 30
0.0
 10
215.1476263266071
 20
123.3494268884315
 30
0.0
 10
215.0953575767534
 20
123.2677308811162
 30
0.0
 10
214.9667779641089
 20
123.1047788551073
 30
0.0
 10
214.8904362980251
 20
123.0231858691609
 30
0.0
 10
214.7972040006236
 20
122.9345096773274
 30
0.0
  0
LINE
  5
101
330
1F
100
AcDbEntity
  8
0
  6
HIDDEN
 62
     7
370
     0
100
AcDbLine
 10
191.5884942884
 20
93.613806234
 30
0.0
 11
191.5884942884
 21
108.6515142185
 31
0.0
  0
LINE
  5
102
330
1F
100
AcDbEntity
  8
0
  6
HIDDEN
 62
     7
370
     0
100
AcDbLine
 10
191.5884942884
 20
122.6952886743
 30
0.0
 11
191.5884942884
 21
137.7329966587
 31
0.0
  0
LWPOLYLINE
  5
103
330
1F
100
AcDbEntity
  8
0
  6
HIDDEN
 62
     7
370
     0
100
AcDbPolyline
 90
        9
 70
   128
 43
0.0
 10
214.68335546
 20
124.0937384379
 10
214.7992194388
 20
123.8584043992
 10
214.8879353647
 20
123.6422015888
 10
214.9478920494
 20
123.4490681042
 10
214.9779942576
 20
123.2825206195
 10
214.9776962344
 20
123.1455933837
 10
214.947001705
 20
123.0407795471
 10
214.8864694629
 20
122.9699883213
 10
214.7972040568
 20
122.9345095878
  0
CIRCLE
  5
104
330
1F
100
AcDbEntity
  8
0
  6
HIDDEN
 62
     7
370
     0
100
AcDbCircle
 10
176.2884942834
 20
115.6734014464
 30
0.0
 40
4.049999999999997
  0
LINE
  5
105
330
1F
100
AcDbEntity
  8
0
  6
HIDDEN
 62
     7
370
     0
100
AcDbLine
 10
155.3187218253
 20
130.9863525045
 30
0.0
 11
155.3187218253
 21
100.3604503882
 31
0.0
  0
LINE
  5
106
330
1F
100
AcDbEntity
  8
0
  6
HIDDEN
 62
     7
370
     0
100
AcDbLine
 10
153.7884955053
 20
99.4769717169
 30
0.0
 11
153.7884955053
 21
131.8698311759
 31
0.0
  0
LINE
  5
107
330
1F
100
AcDbEntity
  8
0
  6
HIDDEN
 62
     7
370
     0
100
AcDbLine
 10
161.8187219594
 20
130.0198119668
 30
0.0
 11
161.8187219594
 21
101.326990926
 31
0.0
  0
LINE
  5
108
330
1F
100
AcDbEntity
  8
0
  6
HIDDEN
 62
     7
370
     0
100
AcDbLine
 10
167.6187232826
 20
129.6734018785
 30
0.0
 11
167.6187232826
 21
101.6734010143
 31
0.0
  0
LINE
  5
109
330
1F
100
AcDbEntity
  8
0
  6
HIDDEN
 62
     7
370
     0
100
AcDbLine
 10
160.2187228147
 20
129.6734018785
 30
0.0
 11
160.2187228147
 21
101.6734010143
 31
0.0
  0
LINE
  5
10A
330
1F
100
AcDbEntity
  8
0
  6
HIDDEN
 62
     7
370
     0
100
AcDbLine
 10
161.2187229786
 20
129.6734018785
 30
0.0
 11
161.2187229786
 21
101.6734010143
 31
0.0
  0
SPLINE
  5
10B
330
1F
100
AcDbEntity
  8
0
  6
HIDDEN
 62
     7
370
     0
100
AcDbSpline
210
0.0
220
0.0
230
1.0
 70
     8
 71
     3
 72
    10
 73
     6
 74
     0
 42
0.00000001
 43
0.00000001
 12
1.0
 22
0.0
 32
0.0
 13
1.0
 23
0.0
 33
0.0
 40
0.0
 40
0.0
 40
0.0
 40
0.0
 40
0.5
 40
0.5
 40
1.0
 40
1.0
 40
1.0
 40
1.0
 10
180.2884942833765
 20
116.3078303234116
 30
0.0
 10
180.3216417014529
 20
116.0988397224036
 30
0.0
 10
180.3385005468146
 20
115.887277256382
 30
0.0
 10
180.3384880164669
 20
115.4592884904144
 30
0.0
 10
180.3215730587265
 20
115.2475303859987
 30
0.0
 10
180.2884942833765
 20
115.0389725693666
 30
0.0
  0
LINE
  5
10C
330
1F
100
AcDbEntity
  8
0
  6
HIDDEN
 62
     7
370
     0
100
AcDbLine
 10
180.788494343
 20
129.1734017966
 30
0.0
 11
180.788494343
 21
102.1734010962
 31
0.0
  0
SPLINE
  5
10D
330
1F
100
AcDbEntity
  8
0
  6
HIDDEN
 62
     7
370
     0
100
AcDbSpline
210
0.0
220
0.0
230
1.0
 70
     8
 71
     3
 72
    10
 73
     6
 74
     0
 42
0.00000001
 43
0.00000001
 12
1.0
 22
0.0
 32
0.0
 13
1.0
 23
0.0
 33
0.0
 40
0.0
 40
0.0
 40
0.0
 40
0.0
 40
0.5
 40
0.5
 40
1.0
 40
1.0
 40
1.0
 40
1.0
 10
180.2884942833765
 20
115.0389725693666
 30
0.0
 10
180.3216832458502
 20
115.2482251029491
 30
0.0
 10
180.3383840221049
 20
115.459041863848
 30
0.0
 10
180.3386034625495
 20
115.8835741450513
 30
0.0
 10
180.3217237471561
 20
116.0983224338239
 30
0.0
 10
180.2884942833765
 20
116.3078303234116
 30
0.0
  0
SPLINE
  5
10E
330
1F
100
AcDbEntity
  8
0
  6
HIDDEN
 62
     7
370
     0
100
AcDbSpline
210
0.0
220
0.0
230
1.0
 70
     8
 71
     3
 72
    68
 73
    64
 74
     0
 42
0.00000001
 43
0.00000001
 12
1.0
 22
0.0
 32
0.0
 13
1.0
 23
0.0
 33
0.0
 40
0.0
 40
0.0
 40
0.0
 40
0.0
 40
0.0312500000000002
 40
0.0312500000000002
 40
0.0625000000000004
 40
0.0625000000000004
 40
0.0937500000000007
 40
0.0937500000000007
 40
0.1250000000000009
 40
0.1250000000000009
 40
0.1562500000000011
 40
0.1562500000000011
 40
0.1875000000000013
 40
0.1875000000000013
 40
0.2187500000000016
 40
0.2187500000000016
 40
0.2500000000000018
 40
0.2500000000000018
 40
0.2812500000000016
 40
0.2812500000000016
 40
0.3125000000000013
 40
0.3125000000000013
 40
0.3437500000000011
 40
0.3437500000000011
 40
0.3750000000000009
 40
0.3750000000000009
 40
0.4062500000000007
 40
0.4062500000000007
 40
0.4375000000000004
 40
0.4375000000000004
 40
0.4687500000000002
 40
0.4687500000000002
 40
0.5
 40
0.5
 40
0.5624999999999996
 40
0.5624999999999996
 40
0.5937499999999993
 40
0.5937499999999993
 40
0.6249999999999991
 40
0.6249999999999991
 40
0.6562499999999989
 40
0.6562499999999989
 40
0.6874999999999987
 40
0.6874999999999987
 40
0.7187499999999984
 40
0.7187499999999984
 40
0.7499999999999982
 40
0.7499999999999982
 40
0.7812499999999984
 40
0.7812499999999984
 40
0.8124999999999987
 40
0.8124999999999987
 40
0.8437499999999989
 40
0.8437499999999989
 40
0.8749999999999991
 40
0.8749999999999991
 40
0.9062499999999993
 40
0.9062499999999993
 40
0.9374999999999996
 40
0.9374999999999996
 40
0.9687499999999998
 40
0.9687499999999998
 40
1.0
 40
1.0
 40
1.0
 40
1.0
 10
180.2884942833765
 20
115.0389725693666
 30
0.0
 10
180.2484793310268
 20
114.786682966551
 30
0.0
 10
180.1855375296155
 20
114.5426841161752
 30
0.0
 10
180.0161508675434
 20
114.0702657271127
 30
0.0
 10
179.908457304958
 20
113.8398523409527
 30
0.0
 10
179.6531725364201
 20
113.4051477451556
 30
0.0
 10
179.5071333059478
 20
113.2025057785043
 30
0.0
 10
179.1789118693886
 20
112.8255164877465
 30
0.0
 10
178.9946645816136
 20
112.6498585341691
 30
0.0
 10
178.6017044143053
 20
112.3396005652229
 30
0.0
 10
178.3924098173462
 20
112.203655357573
 30
0.0
 10
177.9475243904088
 20
111.9702652621671
 30
0.0
 10
177.7107267979098
 20
111.8730186557527
 30
0.0
 10
177.2299917289905
 20
111.7263471978814
 30
0.0
 10
176.9837486358077
 20
111.675454852939
 30
0.0
 10
176.4790318558283
 20
111.6199275027035
 30
0.0
 10
176.2228371548918
 20
111.6161026156335
 30
0.0
 10
175.7204584056917
 20
111.6555263982779
 30
0.0
 10
175.4712087065081
 20
111.6985538474892
 30
0.0
 10
174.9796809090294
 20
111.8322588169405
 30
0.0
 10
174.7443853078035
 20
111.9209286628457
 30
0.0
 10
174.2934714131414
 20
112.1399600266231
 30
0.0
 10
174.075859062678
 20
112.2719615923066
 30
0.0
 10
173.6726518931297
 20
112.5713188733095
 30
0.0
 10
173.4870404006953
 20
112.7379378007474
 30
0.0
 10
173.1470523302928
 20
113.1050492261749
 30
0.0
 10
172.9919793994699
 20
113.3073529717156
 30
0.0
 10
172.7256363228065
 20
113.7314336513096
 30
0.0
 10
172.6126522220897
 20
113.9545932567758
 30
0.0
 10
172.4277969651588
 20
114.42394849837
 30
0.0
 10
172.3566562036555
 20
114.6701590017055
 30
0.0
 10
172.2626957923673
 20
115.1646848280766
 30
0.0
 10
172.2386864624109
 20
115.4156158231687
 30
0.0
 10
172.2381133417383
 20
116.1798612027249
 30
0.0
 10
172.333512453057
 20
116.6820855047758
 30
0.0
 10
172.611376245258
 20
117.3896500110482
 30
0.0
 10
172.7245382013386
 20
117.613356274789
 30
0.0
 10
172.9906693833825
 20
118.0376261861096
 30
0.0
 10
173.1454971575822
 20
118.2398781481657
 30
0.0
 10
173.48567826337
 20
118.6075888895338
 30
0.0
 10
173.6711807203198
 20
118.7742057647832
 30
0.0
 10
174.0734745213791
 20
119.0732551435786
 30
0.0
 10
174.2914825696311
 20
119.205711851607
 30
0.0
 10
174.7420809367814
 20
119.4249182523117
 30
0.0
 10
174.9766299356621
 20
119.5134033823153
 30
0.0
 10
175.4650899292145
 20
119.646889612254
 30
0.0
 10
175.7173553249283
 20
119.6908313247477
 30
0.0
 10
176.2195359630886
 20
119.7306403212212
 30
0.0
 10
176.4720180804403
 20
119.7272961084077
 30
0.0
 10
176.9798831235098
 20
119.6721167884172
 30
0.0
 10
177.2274285966936
 20
119.6210708599478
 30
0.0
 10
177.7083961341643
 20
119.4746604717122
 30
0.0
 10
177.9443559992696
 20
119.3780142669386
 30
0.0
 10
178.3909264487912
 20
119.1441093226256
 30
0.0
 10
178.6005713113647
 20
119.007984308799
 30
0.0
 10
178.9935580181191
 20
118.6979300444699
 30
0.0
 10
179.1779539219341
 20
118.5222727968948
 30
0.0
 10
179.5065043397945
 20
118.1451328742304
 30
0.0
 10
179.6524464363177
 20
117.9426666689606
 30
0.0
 10
179.9073317915199
 20
117.5090903708272
 30
0.0
 10
180.0156431043281
 20
117.2777985272457
 30
0.0
 10
180.1854780817451
 20
116.8044388471125
 30
0.0
 10
180.2484734428822
 20
116.5601570502917
 30
0.0
 10
180.2884942833765
 20
116.3078303234116
 30
0.0
  0
SPLINE
  5
10F
330
1F
100
AcDbEntity
  8
0
  6
HIDDEN
 62
     7
370
     0
100
AcDbSpline
210
0.0
220
0.0
230
1.0
 70
     8
 71
     3
 72
    68
 73
    64
 74
     0
 42
0.00000001
 43
0.00000001
 12
1.0
 22
0.0
 32
0.0
 13
1.0
 23
0.0
 33
0.0
 40
0.0
 40
0.0
 40
0.0
 40
0.0
 40
0.0312500000000002
 40
0.0312500000000002
 40
0.0625000000000004
 40
0.0625000000000004
 40
0.0937500000000007
 40
0.0937500000000007
 40
0.1250000000000009
 40
0.1250000000000009
 40
0.1562500000000011
 40
0.1562500000000011
 40
0.1875000000000013
 40
0.1875000000000013
 40
0.2187500000000016
 40
0.2187500000000016
 40
0.2500000000000018
 40
0.2500000000000018
 40
0.2812500000000016
 40
0.2812500000000016
 40
0.3125000000000013
 40
0.3125000000000013
 40
0.3437500000000011
 40
0.3437500000000011
 40
0.3750000000000009
 40
0.3750000000000009
 40
0.4062500000000007
 40
0.4062500000000007
 40
0.4375000000000004
 40
0.4375000000000004
 40
0.4687500000000002
 40
0.4687500000000002
 40
0.5
 40
0.5
 40
0.5624999999999996
 40
0.5624999999999996
 40
0.5937499999999993
 40
0.5937499999999993
 40
0.6249999999999991
 40
0.6249999999999991
 40
0.6562499999999989
 40
0.6562499999999989
 40
0.6874999999999987
 40
0.6874999999999987
 40
0.7187499999999984
 40
0.7187499999999984
 40
0.7499999999999982
 40
0.7499999999999982
 40
0.7812499999999984
 40
0.7812499999999984
 40
0.8124999999999987
 40
0.8124999999999987
 40
0.8437499999999989
 40
0.8437499999999989
 40
0.8749999999999991
 40
0.8749999999999991
 40
0.9062499999999993
 40
0.9062499999999993
 40
0.9374999999999996
 40
0.9374999999999996
 40
0.9687499999999998
 40
0.9687499999999998
 40
1.0
 40
1.0
 40
1.0
 40
1.0
 10
180.2884942833765
 20
116.3078303234116
 30
0.0
 10
180.2484793310268
 20
116.5601199262272
 30
0.0
 10
180.1855375296155
 20
116.804118776603
 30
0.0
 10
180.0161508675434
 20
117.2765371656655
 30
0.0
 10
179.908457304958
 20
117.5069505518255
 30
0.0
 10
179.6531725364201
 20
117.9416551476226
 30
0.0
 10
179.5071333059478
 20
118.1442971142739
 30
0.0
 10
179.1789118693886
 20
118.5212864050317
 30
0.0
 10
178.9946645816136
 20
118.6969443586091
 30
0.0
 10
178.6017044143053
 20
119.0072023275553
 30
0.0
 10
178.3924098173462
 20
119.1431475352052
 30
0.0
 10
177.9475243904088
 20
119.3765376306111
 30
0.0
 10
177.7107267979098
 20
119.4737842370255
 30
0.0
 10
177.2299917289905
 20
119.6204556948968
 30
0.0
 10
176.9837486358077
 20
119.6713480398393
 30
0.0
 10
176.4790318558283
 20
119.7268753900748
 30
0.0
 10
176.2228371548918
 20
119.7307002771447
 30
0.0
 10
175.7204584056917
 20
119.6912764945003
 30
0.0
 10
175.4712087065081
 20
119.648249045289
 30
0.0
 10
174.9796809090294
 20
119.5145440758377
 30
0.0
 10
174.7443853078035
 20
119.4258742299325
 30
0.0
 10
174.2934714131414
 20
119.2068428661551
 30
0.0
 10
174.075859062678
 20
119.0748413004716
 30
0.0
 10
173.6726518931297
 20
118.7754840194687
 30
0.0
 10
173.4870404006953
 20
118.6088650920308
 30
0.0
 10
173.1470523302928
 20
118.2417536666033
 30
0.0
 10
172.9919793994699
 20
118.0394499210626
 30
0.0
 10
172.7256363228065
 20
117.6153692414686
 30
0.0
 10
172.6126522220897
 20
117.3922096360024
 30
0.0
 10
172.4277969651588
 20
116.9228543944082
 30
0.0
 10
172.3566562036555
 20
116.6766438910727
 30
0.0
 10
172.2626957923673
 20
116.1821180647016
 30
0.0
 10
172.2386864624109
 20
115.9311870696096
 30
0.0
 10
172.2381133417383
 20
115.1669416900533
 30
0.0
 10
172.333512453057
 20
114.6647173880024
 30
0.0
 10
172.611376245258
 20
113.95715288173
 30
0.0
 10
172.7245382013386
 20
113.7334466179892
 30
0.0
 10
172.9906693833825
 20
113.3091767066686
 30
0.0
 10
173.1454971575822
 20
113.1069247446126
 30
0.0
 10
173.48567826337
 20
112.7392140032444
 30
0.0
 10
173.6711807203198
 20
112.572597127995
 30
0.0
 10
174.0734745213791
 20
112.2735477491996
 30
0.0
 10
174.2914825696311
 20
112.1410910411712
 30
0.0
 10
174.7420809367814
 20
111.9218846404665
 30
0.0
 10
174.9766299356621
 20
111.8333995104629
 30
0.0
 10
175.4650899292145
 20
111.6999132805242
 30
0.0
 10
175.7173553249283
 20
111.6559715680305
 30
0.0
 10
176.2195359630886
 20
111.616162571557
 30
0.0
 10
176.4720180804403
 20
111.6195067843705
 30
0.0
 10
176.9798831235098
 20
111.674686104361
 30
0.0
 10
177.2274285966936
 20
111.7257320328304
 30
0.0
 10
177.7083961341643
 20
111.872142421066
 30
0.0
 10
177.9443559992696
 20
111.9687886258396
 30
0.0
 10
178.3909264487912
 20
112.2026935701526
 30
0.0
 10
178.6005713113647
 20
112.3388185839792
 30
0.0
 10
178.9935580181191
 20
112.6488728483083
 30
0.0
 10
179.1779539219341
 20
112.8245300958834
 30
0.0
 10
179.5065043397945
 20
113.2016700185478
 30
0.0
 10
179.6524464363177
 20
113.4041362238176
 30
0.0
 10
179.9073317915199
 20
113.837712521951
 30
0.0
 10
180.0156431043281
 20
114.0690043655325
 30
0.0
 10
180.1854780817451
 20
114.5423640456657
 30
0.0
 10
180.2484734428822
 20
114.7866458424865
 30
0.0
 10
180.2884942833765
 20
115.0389725693666
 30
0.0
  0
LINE
  5
110
330
1F
100
AcDbEntity
  8
0
  6
HIDDEN
 62
     7
370
     0
100
AcDbLine
 10
182.0384940822
 20
124.673401059
 30
0.0
 11
182.0384940822
 21
106.6734018338
 31
0.0
  0
LINE
  5
111
330
1F
100
AcDbEntity
  8
0
  6
HIDDEN
 62
     7
370
     0
100
AcDbLine
 10
180.788494343
 20
105.4234011633
 30
0.0
 11
180.788494343
 21
125.9234017295
 31
0.0
  0
LINE
  5
112
330
1F
100
AcDbEntity
  8
0
  6
HIDDEN
 62
     7
370
     0
100
AcDbLine
 10
218.7884949837
 20
106.6734018338
 30
0.0
 11
218.7884949837
 21
124.673401059
 31
0.0
  0
LINE
  5
113
330
1F
100
AcDbEntity
  8
0
  6
HIDDEN
 62
     7
370
     0
100
AcDbLine
 10
229.9400676731
 20
118.2741728214
 30
0.0
 11
229.9400676731
 21
93.6877867741
 31
0.0
  0
SPLINE
  5
114
330
1F
100
AcDbEntity
  8
0
  6
HIDDEN
 62
     7
370
     0
100
AcDbSpline
210
0.0
220
0.0
230
1.0
 70
     8
 71
     3
 72
     9
 73
     5
 74
     0
 42
0.00000001
 43
0.00000001
 12
1.0
 22
0.0
 32
0.0
 13
1.0
 23
0.0
 33
0.0
 40
0.0
 40
0.0
 40
0.0
 40
0.0
 40
0.5
 40
1.0
 40
1.0
 40
1.0
 40
1.0
 10
229.9870931216866
 20
119.6096114720919
 30
0.0
 10
229.9798119074967
 20
119.3870325513487
 30
0.0
 10
229.9640160748242
 20
118.9418876394784
 30
0.0
 10
229.9478094723431
 20
118.4967470336544
 30
0.0
 10
229.9400691334394
 20
118.2741729258556
 30
0.0
  0
SPLINE
  5
115
330
1F
100
AcDbEntity
  8
0
  6
HIDDEN
 62
     7
370
     0
100
AcDbSpline
210
0.0
220
0.0
230
1.0
 70
     8
 71
     3
 72
    12
 73
     8
 74
     0
 42
0.00000001
 43
0.00000001
 12
1.0
 22
0.0
 32
0.0
 13
1.0
 23
0.0
 33
0.0
 40
0.0
 40
0.0
 40
0.0
 40
0.0
 40
0.5
 40
0.5
 40
0.75
 40
0.75
 40
1.0
 40
1.0
 40
1.0
 40
1.0
 10
229.0211672953975
 20
91.91246134963127
 30
0.0
 10
229.2178516942394
 20
92.26095179321223
 30
0.0
 10
229.3920419605134
 20
92.58272392003846
 30
0.0
 10
229.6273380501332
 20
93.03451225525471
 30
0.0
 10
229.7007805411094
 20
93.17899985054294
 30
0.0
 10
229.8333653244082
 20
93.44974021721607
 30
0.0
 10
229.8929873300106
 20
93.5766841395923
 30
0.0
 10
229.9400691334383
 20
93.6877868474909
 30
0.0
  0
LINE
  5
116
330
1F
100
AcDbEntity
  8
0
  6
HIDDEN
 62
     7
370
     0
100
AcDbLine
 10
241.3918670956
 20
153.4238728297
 30
0.0
 11
241.3469587211
 21
153.4215184463
 31
0.0
  0
LINE
  5
117
330
1F
100
AcDbEntity
  8
0
  6
HIDDEN
 62
     7
370
     0
100
AcDbLine
 10
239.957928354
 20
150.3116759074
 30
0.0
 11
250.9069998507
 21
150.885493548
 31
0.0
  0
LINE
  5
118
330
1F
100
AcDbEntity
  8
0
  6
HIDDEN
 62
     7
370
     0
100
AcDbLine
 10
245.321426237
 20
159.7124832285
 30
0.0
 11
245.2765215878
 21
159.7101325703
 31
0.0
  0
LINE
  5
119
330
1F
100
AcDbEntity
  8
0
  6
HIDDEN
 62
     7
370
     0
100
AcDbLine
 10
245.321426237
 20
159.7124832285
 30
0.0
 11
241.3918670956
 21
153.4238728297
 31
0.0
  0
LINE
  5
11A
330
1F
100
AcDbEntity
  8
0
  6
HIDDEN
 62
     7
370
     0
100
AcDbLine
 10
239.7230301742
 20
150.5661728394
 30
0.0
 11
250.7569637839
 21
151.1444384766
 31
0.0
  0
ELLIPSE
  5
11B
330
1F
100
AcDbEntity
  8
0
  6
HIDDEN
 62
     7
370
     0
100
AcDbEllipse
 10
287.2385431458
 20
140.4208890714
 30
0.0
 11
38.05970883280617
 21
-21.75919211935656
 31
0.0
210
0.0
220
0.0
230
1.0
 40
0.373927429
 41
3.708037495345913
 42
3.71894340467076
  0
LINE
  5
11C
330
1F
100
AcDbEntity
  8
0
  6
HIDDEN
 62
     7
370
     0
100
AcDbLine
 10
248.6915808861
 20
116.2482174065
 30
0.0
 11
244.7993081753
 21
116.2482174065
 31
0.0
  0
LINE
  5
11D
330
1F
100
AcDbEntity
  8
0
  6
HIDDEN
 62
     7
370
     0
100
AcDbLine
 10
241.3918670956
 20
153.4238728297
 30
0.0
 11
241.5443208758
 21
153.1650545609
 31
0.0
  0
LINE
  5
11E
330
1F
100
AcDbEntity
  8
0
  6
HIDDEN
 62
     7
370
     0
100
AcDbLine
 10
241.1745932643
 20
153.1456756008
 30
0.0
 11
241.5443208758
 21
153.1650545609
 31
0.0
  0
LINE
  5
11F
330
1F
100
AcDbEntity
  8
0
  6
HIDDEN
 62
     7
370
     0
100
AcDbLine
 10
245.5623668377
 20
159.5952706945
 30
0.0
 11
241.5443208758
 21
153.1650545609
 31
0.0
  0
ELLIPSE
  5
120
330
1F
100
AcDbEntity
  8
0
  6
HIDDEN
 62
     7
370
     0
100
AcDbEllipse
 10
219.2640251634
 20
118.3131401426
 30
0.0
 11
26.23613238030592
 21
41.32889059954984
 31
0.0
210
0.0
220
0.0
230
1.0
 40
0.1000778042
 41
6.267348902683607
 42
6.321702355833935
  0
SPLINE
  5
121
330
1F
100
AcDbEntity
  8
0
  6
HIDDEN
 62
     7
370
     0
100
AcDbSpline
210
0.0
220
0.0
230
1.0
 70
     8
 71
     3
 72
    22
 73
    18
 74
     0
 42
0.00000001
 43
0.00000001
 12
1.0
 22
0.0
 32
0.0
 13
1.0
 23
0.0
 33
0.0
 40
0.0
 40
0.0
 40
0.0
 40
0.0
 40
0.2500000000000002
 40
0.2500000000000002
 40
0.3125000000000003
 40
0.3125000000000003
 40
0.3750000000000003
 40
0.3750000000000003
 40
0.5000000000000006
 40
0.5000000000000006
 40
0.6250000000000008
 40
0.6250000000000008
 40
0.6875000000000007
 40
0.6875000000000007
 40
0.7500000000000004
 40
0.7500000000000004
 40
1.0
 40
1.0
 40
1.0
 40
1.0
 10
232.9752365746784
 20
159.0654485441518
 30
0.0
 10
232.9532794881821
 20
158.9617221706733
 30
0.0
 10
232.9236930230186
 20
158.4914709803954
 30
0.0
 10
232.8771381658135
 20
157.4503983619088
 30
0.0
 10
232.8673104756318
 20
157.2184062400173
 30
0.0
 10
232.8468713065934
 20
156.7127920722161
 30
0.0
 10
232.8362544092867
 20
156.439132918561
 30
0.0
 10
232.803231546547
 20
155.5568977238968
 30
0.0
 10
232.77965724071
 20
154.8872678017286
 30
0.0
 10
232.7293993181763
 20
153.3868124600525
 30
0.0
 10
232.7027159636106
 20
152.5559978967961
 30
0.0
 10
232.6602708163785
 20
151.1851724879167
 30
0.0
 10
232.6457084657822
 20
150.7070288264698
 30
0.0
 10
232.6161525607199
 20
149.7215506138172
 30
0.0
 10
232.6011129781089
 20
149.2127486856114
 30
0.0
 10
232.5246248677635
 20
146.5898391620564
 30
0.0
 10
232.4593554642274
 20
144.2422782217525
 30
0.0
 10
232.3898367310722
 20
141.6373661945806
 30
0.0
  0
LINE
  5
122
330
1F
100
AcDbEntity
  8
0
  6
HIDDEN
 62
     7
370
     0
100
AcDbLine
 10
250.7569637839
 20
151.1444384766
 30
0.0
 11
250.5682778303
 21
151.1345478309
 31
0.0
  0
LWPOLYLINE
  5
123
330
1F
100
AcDbEntity
  8
0
  6
HIDDEN
 62
     7
370
     0
100
AcDbPolyline
 90
        3
 70
   128
 43
0.0
 10
245.5623668377
 20
159.5952706945
 10
245.5154579822
 20
159.5201986444
 10
245.4593998138
 20
159.4304862035
  0
LINE
  5
124
330
1F
100
AcDbEntity
  8
0
  6
HIDDEN
 62
     7
370
     0
100
AcDbLine
 10
255.539618129
 20
159.509361775
 30
0.0
 11
255.2838694994
 21
159.9458242369
 31
0.0
  0
LINE
  5
125
330
1F
100
AcDbEntity
  8
0
  6
HIDDEN
 62
     7
370
     0
100
AcDbLine
 10
252.1749098544
 20
154.1246967924
 30
0.0
 11
255.5396032278
 21
159.5093394232
 31
0.0
  0
CIRCLE
  5
126
330
1F
100
AcDbEntity
  8
0
  6
HIDDEN
 62
     7
370
     0
100
AcDbCircle
 10
248.1375009478
 20
155.4131949415
 30
0.0
 40
2.399999999999977
  0
LINE
  5
127
330
1F
100
AcDbEntity
  8
0
  6
HIDDEN
 62
     7
370
     0
100
AcDbLine
 10
241.5443208758
 20
153.1650545609
 30
0.0
 11
239.049546117
 21
153.0343080473
 31
0.0
  0
LINE
  5
128
330
1F
100
AcDbEntity
  8
0
  6
HIDDEN
 62
     7
370
     0
100
AcDbLine
 10
245.4593998138
 20
159.4304862035
 30
0.0
 11
241.5443208758
 21
153.1650545609
 31
0.0
  0
ARC
  5
129
330
1F
100
AcDbEntity
  8
0
  6
HIDDEN
 62
     7
370
     0
100
AcDbCircle
 10
239.1149674902
 20
151.7860211096
 30
0.0
 40
1.25000000000001
100
AcDbArc
 50
93.0
 51
273.0
  0
LINE
  5
12A
330
1F
100
AcDbEntity
  8
0
  6
HIDDEN
 62
     7
370
     0
100
AcDbLine
 10
239.1803857629
 20
150.5377339733
 30
0.0
 11
250.5682778303
 21
151.1345478309
 31
0.0
  0
LINE
  5
12B
330
1F
100
AcDbEntity
  8
0
  6
HIDDEN
 62
     7
370
     0
100
AcDbLine
 10
245.4593998138
 20
159.4304862035
 30
0.0
 11
255.2835789267
 21
159.945351125
 31
0.0
  0
ELLIPSE
  5
12C
330
1F
100
AcDbEntity
  8
0
  6
HIDDEN
 62
     7
370
     0
100
AcDbEllipse
 10
274.4362164349
 20
140.4208890714
 30
0.0
 11
26.19525546193006
 21
0.0
 31
1.896260926059767E-13
210
-7.238948017955505E-15
220
0.0
230
1.0
 40
0.9925461516
 41
2.586444043810498
 42
2.716874693603158
  0
SPLINE
  5
12D
330
1F
100
AcDbEntity
  8
0
  6
HIDDEN
 62
     7
370
     0
100
AcDbSpline
210
0.0
220
0.0
230
1.0
 70
     8
 71
     3
 72
    33
 73
    29
 74
     0
 42
0.00000001
 43
0.00000001
 12
1.0
 22
0.0
 32
0.0
 13
1.0
 23
0.0
 33
0.0
 40
0.0
 40
0.0
 40
0.0
 40
0.0
 40
0.035862849075164
 40
0.0719088352644404
 40
0.108141345292376
 40
0.144563713851751
 40
0.1811792237620982
 40
0.217991106170765
 40
0.2550025407942107
 40
0.2922166561972198
 40
0.3296365301077977
 40
0.3672651897655317
 40
0.4051056123011615
 40
0.4431607251453276
 40
0.4814334064643146
 40
0.5199264856208037
 40
0.5586427436576695
 40
0.5975849138028747
 40
0.6367556819936643
 40
0.6761576874182237
 40
0.7157935230731649
 40
0.7556657363351272
 40
0.7957768295449541
 40
0.8361292606029598
 40
0.8767254435738203
 40
0.9175677492997499
 40
0.9586585060206428
 40
1.0
 40
1.0
 40
1.0
 40
1.0
 10
255.283869783388
 20
159.9453587583912
 30
0.0
 10
255.2424513230459
 20
159.9174755241384
 30
0.0
 10
255.1594028949801
 20
159.8615666671951
 30
0.0
 10
255.0276481712479
 20
159.7660012710935
 30
0.0
 10
254.8902575808868
 20
159.6615511932257
 30
0.0
 10
254.7467328436934
 20
159.5473266335466
 30
0.0
 10
254.5972121760038
 20
159.4234985565887
 30
0.0
 10
254.4416617604485
 20
159.2899543431054
 30
0.0
 10
254.280094085825
 20
159.146660904145
 30
0.0
 10
254.1125089749804
 20
158.9935666854582
 30
0.0
 10
253.938909509369
 20
158.8306282088471
 30
0.0
 10
253.7592977236301
 20
158.6578029754261
 30
0.0
 10
253.5736757648718
 20
158.4750514554555
 30
0.0
 10
253.3820455756447
 20
158.2823366233011
 30
0.0
 10
253.1844089758715
 20
158.0796241556767
 30
0.0
 10
252.9807676366578
 20
157.8668824498776
 30
0.0
 10
252.7711230845931
 20
157.6440826928263
 30
0.0
 10
252.5554766930788
 20
157.4111989071975
 30
0.0
 10
252.3338296950554
 20
157.1682080371179
 30
0.0
 10
252.106183122663
 20
156.915089896073
 30
0.0
 10
251.8725380200791
 20
156.6518276289738
 30
0.0
 10
251.6328946283747
 20
156.3784062376522
 30
0.0
 10
251.3872554411886
 20
156.0948183966341
 30
0.0
 10
251.1356136843537
 20
155.8010428144401
 30
0.0
 10
250.8779966861658
 20
155.4971259810343
 30
0.0
 10
250.6143025330182
 20
155.1828745672745
 30
0.0
 10
250.3449152253078
 20
154.8590141307355
 30
0.0
 10
250.1611260262379
 20
154.6355720523385
 30
0.0
 10
250.0689519074642
 20
154.5235111870788
 30
0.0
  0
SPLINE
  5
12E
330
1F
100
AcDbEntity
  8
0
  6
HIDDEN
 62
     7
370
     0
100
AcDbSpline
210
0.0
220
0.0
230
1.0
 70
     8
 71
     3
 72
    27
 73
    23
 74
     0
 42
0.00000001
 43
0.00000001
 12
1.0
 22
0.0
 32
0.0
 13
1.0
 23
0.0
 33
0.0
 40
0.0
 40
0.0
 40
0.0
 40
0.0
 40
0.0399235601828907
 40
0.0796875122008292
 40
0.1193019511606184
 40
0.1587770868756282
 40
0.1981232376015102
 40
0.2373508233770185
 40
0.276470358985353
 40
0.3154924465545028
 40
0.3544277678181405
 40
0.3932870760615565
 40
0.4320811877799167
 40
0.4708209740787886
 40
0.5095173518492416
 40
0.5809610651466437
 40
0.6518226261415406
 40
0.7221749028967426
 40
0.7920923558233341
 40
0.8616508417466112
 40
0.9309273966929281
 40
1.0
 40
1.0
 40
1.0
 40
1.0
 10
250.3240046336045
 20
154.1246986167819
 30
0.0
 10
250.412997482372
 20
154.2322195794073
 30
0.0
 10
250.5906274003819
 20
154.4468316526245
 30
0.0
 10
250.8515701408794
 20
154.7585390739786
 30
0.0
 10
251.107765986528
 20
155.0618970211223
 30
0.0
 10
251.3588655840231
 20
155.356230658778
 30
0.0
 10
251.6049619277934
 20
155.6417196656689
 30
0.0
 10
251.8460301304068
 20
155.9183160020308
 30
0.0
 10
252.0820767305812
 20
156.1860323387756
 30
0.0
 10
252.3130998890392
 20
156.4448651602436
 30
0.0
 10
252.539099995793
 20
156.6948152727192
 30
0.0
 10
252.7600768761664
 20
156.9358823402613
 30
0.0
 10
252.976030404475
 20
157.1680663180344
 30
0.0
 10
253.1869608346428
 20
157.3913671671991
 30
0.0
 10
253.4510025464303
 20
157.6663233505995
 30
0.0
 10
253.7612449150827
 20
157.9812698914404
 30
0.0
 10
254.1085770479128
 20
158.3207793569129
 30
0.0
 10
254.4357211529004
 20
158.6266821461601
 30
0.0
 10
254.74280463118
 20
158.8991950553066
 30
0.0
 10
255.0293373416255
 20
159.1374919368017
 30
0.0
 10
255.2971295369116
 20
159.3446263700084
 30
0.0
 10
255.4588533104681
 20
159.454494068315
 30
0.0
 10
255.5395959922251
 20
159.509346935056
 30
0.0
  0
CIRCLE
  5
12F
330
1F
100
AcDbEntity
  8
0
  6
HIDDEN
 62
     7
370
     0
100
AcDbCircle
 10
248.1375009478
 20
155.4131949415
 30
0.0
 40
1.649999999999977
  0
LINE
  5
130
330
1F
100
AcDbEntity
  8
0
  6
HIDDEN
 62
     7
370
     0
100
AcDbLine
 10
189.5884942953
 20
137.693501131
 30
0.0
 11
189.5884942953
 21
131.2083220643
 31
0.0
  0
LINE
  5
131
330
1F
100
AcDbEntity
  8
0
  6
HIDDEN
 62
     7
370
     0
100
AcDbLine
 10
155.2884948198
 20
136.8317651165
 30
0.0
 11
155.2884948198
 21
130.7774540571
 31
0.0
  0
LINE
  5
132
330
1F
100
AcDbEntity
  8
0
  6
HIDDEN
 62
     7
370
     0
100
AcDbLine
 10
153.7884955053
 20
135.9657394302
 30
0.0
 11
153.7884955053
 21
130.344441214
 31
0.0
  0
SPLINE
  5
133
330
1F
100
AcDbEntity
  8
0
  6
HIDDEN
 62
     7
370
     0
100
AcDbSpline
210
0.0
220
0.0
230
1.0
 70
     8
 71
     3
 72
    16
 73
    12
 74
     0
 42
0.00000001
 43
0.00000001
 12
1.0
 22
0.0
 32
0.0
 13
1.0
 23
0.0
 33
0.0
 40
0.0
 40
0.0
 40
0.0
 40
0.0
 40
0.2500000000000001
 40
0.2500000000000001
 40
0.3750000000000004
 40
0.3750000000000004
 40
0.5000000000000007
 40
0.5000000000000007
 40
0.7500000000000003
 40
0.7500000000000003
 40
1.0
 40
1.0
 40
1.0
 40
1.0
 10
190.4671739398169
 20
137.4434824013912
 30
0.0
 10
190.3059414623324
 20
137.3454667883365
 30
0.0
 10
190.1854616226928
 20
137.1587307566604
 30
0.0
 10
190.0630811053794
 20
136.7456909491015
 30
0.0
 10
190.032103444982
 20
136.5856904498686
 30
0.0
 10
189.990489707354
 20
136.2188847987775
 30
0.0
 10
189.9802537944212
 20
136.0155476461535
 30
0.0
 10
189.9800653973651
 20
135.3482603795268
 30
0.0
 10
190.0202101000027
 20
134.8274459156387
 30
0.0
 10
190.1843638549423
 20
133.630086900161
 30
0.0
 10
190.3059155053518
 20
132.9718172458651
 30
0.0
 10
190.4671739398168
 20
132.2573080726301
 30
0.0
  0
LINE
  5
134
330
1F
100
AcDbEntity
  8
0
  6
HIDDEN
 62
     7
370
     0
100
AcDbLine
 10
155.2884948198
 20
100.5693488357
 30
0.0
 11
155.2884948198
 21
94.5150377763
 31
0.0
  0
LINE
  5
135
330
1F
100
AcDbEntity
  8
0
  6
HIDDEN
 62
     7
370
     0
100
AcDbLine
 10
153.7884955053
 20
101.0023616788
 30
0.0
 11
153.7884955053
 21
95.3810634625
 31
0.0
  0
LINE
  5
136
330
1F
100
AcDbEntity
  8
0
  6
HIDDEN
 62
     7
370
     0
100
AcDbLine
 10
189.5884942953
 20
100.1384808285
 30
0.0
 11
189.5884942953
 21
93.6533017618
 31
0.0
  0
SPLINE
  5
137
330
1F
100
AcDbEntity
  8
0
  6
HIDDEN
 62
     7
370
     0
100
AcDbSpline
210
0.0
220
0.0
230
1.0
 70
     8
 71
     3
 72
    16
 73
    12
 74
     0
 42
0.00000001
 43
0.00000001
 12
1.0
 22
0.0
 32
0.0
 13
1.0
 23
0.0
 33
0.0
 40
0.0
 40
0.0
 40
0.0
 40
0.0
 40
0.2499999999999993
 40
0.2499999999999993
 40
0.3749999999999992
 40
0.3749999999999992
 40
0.4999999999999992
 40
0.4999999999999992
 40
0.7499999999999996
 40
0.7499999999999996
 40
1.0
 40
1.0
 40
1.0
 40
1.0
 10
190.4671739398168
 20
99.08949482014806
 30
0.0
 10
190.3059414623324
 20
98.37510065795593
 30
0.0
 10
190.1854616226928
 20
97.72175839524726
 30
0.0
 10
190.0630811053794
 20
96.83350315344339
 30
0.0
 10
190.032103444982
 20
96.55282261709154
 30
0.0
 10
189.990489707354
 20
96.02378862725155
 30
0.0
 10
189.9802537944212
 20
95.7804676486731
 30
0.0
 10
189.9800653973651
 20
95.11244495815987
 30
0.0
 10
190.0202101000027
 20
94.74876404874041
 30
0.0
 10
190.1843638549423
 20
94.18887317619209
 30
0.0
 10
190.3059155053518
 20
94.00135188407494
 30
0.0
 10
190.4671739398168
 20
93.90332049138699
 30
0.0
  0
CIRCLE
  5
138
330
1F
100
AcDbEntity
  8
0
  6
HIDDEN
 62
     7
370
     0
100
AcDbCircle
 10
248.1375009478
 20
155.4131949415
 30
0.0
 40
1.649999999999977
  0
LINE
  5
139
330
1F
100
AcDbEntity
  8
0
  6
HIDDEN
 62
     7
370
     0
100
AcDbLine
 10
153.7884955053
 20
130.344441214
 30
0.0
 11
153.7884955053
 21
118.5753888519
 31
0.0
  0
LINE
  5
13A
330
1F
100
AcDbEntity
  8
0
  6
HIDDEN
 62
     7
370
     0
100
AcDbLine
 10
153.7884955053
 20
112.7714140409
 30
0.0
 11
153.7884955053
 21
101.0023616788
 31
0.0
  0
LINE
  5
13B
330
1F
100
AcDbEntity
  8
0
  6
HIDDEN
 62
     7
370
     0
100
AcDbLine
 10
155.2884948198
 20
111.7081903455
 30
0.0
 11
155.2884948198
 21
100.5693488357
 31
0.0
  0
LINE
  5
13C
330
1F
100
AcDbEntity
  8
0
  6
HIDDEN
 62
     7
370
     0
100
AcDbLine
 10
155.2884948198
 20
130.7774540571
 30
0.0
 11
155.2884948198
 21
119.6386125473
 31
0.0
  0
LINE
  5
13D
330
1F
100
AcDbEntity
  8
0
  6
HIDDEN
 62
     7
370
     0
100
AcDbLine
 10
191.5884942884
 20
130.7111084995
 30
0.0
 11
191.5884942884
 21
100.6356943933
 31
0.0
  0
LINE
  5
13E
330
1F
100
AcDbEntity
  8
0
  6
HIDDEN
 62
     7
370
     0
100
AcDbLine
 10
189.5884942953
 20
131.2083220643
 30
0.0
 11
189.5884942953
 21
100.1384808285
 31
0.0
  0
SPLINE
  5
13F
330
1F
100
AcDbEntity
  8
0
  6
HIDDEN
 62
     7
370
     0
100
AcDbSpline
210
0.0
220
0.0
230
1.0
 70
     8
 71
     3
 72
    24
 73
    20
 74
     0
 42
0.00000001
 43
0.00000001
 12
1.0
 22
0.0
 32
0.0
 13
1.0
 23
0.0
 33
0.0
 40
0.0
 40
0.0
 40
0.0
 40
0.0
 40
0.125
 40
0.125
 40
0.25
 40
0.25
 40
0.375
 40
0.375
 40
0.4375
 40
0.4375
 40
0.5
 40
0.5
 40
0.625
 40
0.625
 40
0.75
 40
0.75
 40
0.875
 40
0.875
 40
1.0
 40
1.0
 40
1.0
 40
1.0
 10
160.2384942833765
 20
111.5874403932899
 30
0.0
 10
160.4762979156516
 20
111.88644749562
 30
0.0
 10
160.7063835768629
 20
112.1907853469387
 30
0.0
 10
161.1411369754727
 20
112.8165188843347
 30
0.0
 10
161.3460697677589
 20
113.1377436116622
 30
0.0
 10
161.7111717182576
 20
113.809669382395
 30
0.0
 10
161.872972104049
 20
114.1649846142738
 30
0.0
 10
162.0448323086288
 20
114.7152158356263
 30
0.0
 10
162.0904175002889
 20
114.9016196206068
 30
0.0
 10
162.1528922398638
 20
115.281754122703
 30
0.0
 10
162.1695633856122
 20
115.4774239149889
 30
0.0
 10
162.1700844287887
 20
116.0559042936633
 30
0.0
 10
162.1056421279021
 20
116.4338161326321
 30
0.0
 10
161.8757930345287
 20
117.1757841577306
 30
0.0
 10
161.7172723568656
 20
117.5244996178915
 30
0.0
 10
161.3530380269654
 20
118.1975920156247
 30
0.0
 10
161.1463017869018
 20
118.5225445028663
 30
0.0
 10
160.7083638411615
 20
119.1534683133281
 30
0.0
 10
160.4770911138819
 20
119.4593580536687
 30
0.0
 10
160.2384942833766
 20
119.7593624994882
 30
0.0
  0
LINE
  5
140
330
1F
100
AcDbEntity
  8
0
  6
HIDDEN
 62
     7
370
     0
100
AcDbLine
 10
160.2384929304
 20
111.5874401828
 30
0.0
 11
160.2384929304
 21
119.75936271
 31
0.0
  0
SPLINE
  5
141
330
1F
100
AcDbEntity
  8
0
  6
HIDDEN
 62
     7
370
     0
100
AcDbSpline
210
0.0
220
0.0
230
1.0
 70
     8
 71
     3
 72
     8
 73
     4
 74
     0
 42
0.00000001
 43
0.00000001
 12
1.0
 22
0.0
 32
0.0
 13
1.0
 23
0.0
 33
0.0
 40
0.0000249638557296
 40
0.0000249638557296
 40
0.0000249638557296
 40
0.0000249638557296
 40
0.0049776420541172
 40
0.0049776420541172
 40
0.0049776420541172
 40
0.0049776420541172
 10
155.2884942833765
 20
111.7081905495526
 30
0.0
 10
156.938470517886
 20
111.6669113117843
 30
0.0
 10
158.5884718376311
 20
111.6266896305449
 30
0.0
 10
160.2384942833765
 20
111.5874403932899
 30
0.0
  0
SPLINE
  5
142
330
1F
100
AcDbEntity
  8
0
  6
HIDDEN
 62
     7
370
     0
100
AcDbSpline
210
0.0
220
0.0
230
1.0
 70
     8
 71
     3
 72
     8
 73
     4
 74
     0
 42
0.00000001
 43
0.00000001
 12
1.0
 22
0.0
 32
0.0
 13
1.0
 23
0.0
 33
0.0
 40
0.0000249631533153
 40
0.0000249631533153
 40
0.0000249631533153
 40
0.0000249631533153
 40
0.0049776413517029
 40
0.0049776413517029
 40
0.0049776413517029
 40
0.0049776413517029
 10
160.2384942833765
 20
119.7593624994884
 30
0.0
 10
158.5884718376311
 20
119.7201132622334
 30
0.0
 10
156.938470517886
 20
119.6798915809939
 30
0.0
 10
155.2884942833765
 20
119.6386123432256
 30
0.0
  0
SPLINE
  5
143
330
1F
100
AcDbEntity
  8
0
  6
HIDDEN
 62
     7
370
     0
100
AcDbSpline
210
0.0
220
0.0
230
1.0
 70
     8
 71
     3
 72
     8
 73
     4
 74
     0
 42
0.00000001
 43
0.00000001
 12
1.0
 22
0.0
 32
0.0
 13
1.0
 23
0.0
 33
0.0
 40
0.0
 40
0.0
 40
0.0
 40
0.0
 40
1.0
 40
1.0
 40
1.0
 40
1.0
 10
153.7884942833742
 20
112.7714141134087
 30
0.0
 10
154.255254894752
 20
112.3560508677857
 30
0.0
 10
154.7610024415321
 20
112.0114604384811
 30
0.0
 10
155.2884942833765
 20
111.7081905495526
 30
0.0
  0
SPLINE
  5
144
330
1F
100
AcDbEntity
  8
0
  6
HIDDEN
 62
     7
370
     0
100
AcDbSpline
210
0.0
220
0.0
230
1.0
 70
     8
 71
     3
 72
     8
 73
     4
 74
     0
 42
0.00000001
 43
0.00000001
 12
1.0
 22
0.0
 32
0.0
 13
1.0
 23
0.0
 33
0.0
 40
0.0
 40
0.0
 40
0.0
 40
0.0
 40
1.0
 40
1.0
 40
1.0
 40
1.0
 10
155.2884942833765
 20
119.6386123432256
 30
0.0
 10
154.761002441533
 20
119.3353424542976
 30
0.0
 10
154.2552548947537
 20
118.9907520249936
 30
0.0
 10
153.7884942833765
 20
118.5753887793715
 30
0.0
  0
LINE
  5
145
330
1F
100
AcDbEntity
  8
0
  6
HIDDEN
 62
     7
370
     0
100
AcDbLine
 10
153.7884955053
 20
112.7714140409
 30
0.0
 11
153.7884955053
 21
118.5753888519
 31
0.0
  0
LINE
  5
146
330
1F
100
AcDbEntity
  8
0
  6
HIDDEN
 62
     7
370
     0
100
AcDbLine
 10
250.0689510946
 20
154.5235114706
 30
0.0
 11
250.3240030949
 21
154.1246967924
 31
0.0
  0
SPLINE
  5
147
330
1F
100
AcDbEntity
  8
0
  6
HIDDEN
 62
     7
370
     0
100
AcDbSpline
210
0.0
220
0.0
230
1.0
 70
     8
 71
     3
 72
    32
 73
    28
 74
     0
 42
0.00000001
 43
0.00000001
 12
1.0
 22
0.0
 32
0.0
 13
1.0
 23
0.0
 33
0.0
 40
0.0
 40
0.0
 40
0.0
 40
0.0
 40
0.0372281403657555
 40
0.0736456284625949
 40
0.1092529063946226
 40
0.1440504472141633
 40
0.1780387578506456
 40
0.2112183823918778
 40
0.2435899057693737
 40
0.2751539579084831
 40
0.3059112184147695
 40
0.3358624218812213
 40
0.3650083639166068
 40
0.3933499080145579
 40
0.4208879934064366
 40
0.4476236440699057
 40
0.4735579791007241
 40
0.4986922246994437
 40
0.5596944065871386
 40
0.6193214278489066
 40
0.6775924216740236
 40
0.7345278885366735
 40
0.7901498058180161
 40
0.8444817451130106
 40
0.8975489971960674
 40
0.9493787044134058
 40
1.0
 40
1.0
 40
1.0
 40
1.0
 10
250.0689519074643
 20
154.5235111870788
 30
0.0
 10
249.9777180054584
 20
154.4110584153394
 30
0.0
 10
249.7972368429749
 20
154.1886015596991
 30
0.0
 10
249.5327367040933
 20
153.8474724332819
 30
0.0
 10
249.2765596611246
 20
153.506204978237
 30
0.0
 10
249.028895581347
 20
153.1645823439005
 30
0.0
 10
248.7896584251712
 20
152.8233618736423
 30
0.0
 10
248.5588347777372
 20
152.4830258723107
 30
0.0
 10
248.336393602962
 20
152.144105223037
 30
0.0
 10
248.1223095810774
 20
151.8070958996961
 30
0.0
 10
247.9165570415613
 20
151.4724808086627
 30
0.0
 10
247.7191115825493
 20
151.14072442288
 30
0.0
 10
247.529949384761
 20
150.8122745131392
 30
0.0
 10
247.3490482623703
 20
150.4875618966924
 30
0.0
 10
247.1763841717944
 20
150.1670013339807
 30
0.0
 10
247.0119435201955
 20
149.8509899346278
 30
0.0
 10
246.8556791678836
 20
149.5399141128193
 30
0.0
 10
246.6356935187439
 20
149.0854309843589
 30
0.0
 10
246.3606621291337
 20
148.4803170136114
 30
0.0
 10
246.0427051518278
 20
147.7139399420891
 30
0.0
 10
245.7522649914381
 20
146.9424480636191
 30
0.0
 10
245.4891953837041
 20
146.1673389265143
 30
0.0
 10
245.2534876676739
 20
145.3899953682444
 30
0.0
 10
245.0448842715565
 20
144.6118843418111
 30
0.0
 10
244.8639789453335
 20
143.8339257916059
 30
0.0
 10
244.7083286566302
 20
143.0587452020495
 30
0.0
 10
244.6261177220666
 20
142.535223809612
 30
0.0
 10
244.5854970945949
 20
142.2765505860497
 30
0.0
  0
SPLINE
  5
148
330
1F
100
AcDbEntity
  8
0
  6
HIDDEN
 62
     7
370
     0
100
AcDbSpline
210
0.0
220
0.0
230
1.0
 70
     8
 71
     3
 72
    31
 73
    27
 74
     0
 42
0.00000001
 43
0.00000001
 12
1.0
 22
0.0
 32
0.0
 13
1.0
 23
0.0
 33
0.0
 40
0.0
 40
0.0
 40
0.0
 40
0.0
 40
0.0280907232706806
 40
0.0563273655762219
 40
0.084715051758313
 40
0.1132588253024668
 40
0.1419636474203025
 40
0.1708343962991787
 40
0.1998758665132634
 40
0.2290927685897347
 40
0.258489728723434
 40
0.2880712886330871
 40
0.3178419055519186
 40
0.3478059523454396
 40
0.3779677177490288
 40
0.4083314067179616
 40
0.4389011408824917
 40
0.4696809591007388
 40
0.5006748181021606
 40
0.5708610935341548
 40
0.6413612706330415
 40
0.7122168405902252
 40
0.7834686741542217
 40
0.8551569647233417
 40
0.9273211768025796
 40
1.0
 40
1.0
 40
1.0
 40
1.0
 10
244.8361768064635
 20
141.7998879895991
 30
0.0
 10
244.8568057361396
 20
141.9453839202513
 30
0.0
 10
244.8981707537691
 20
142.2371315693499
 30
0.0
 10
244.9701663048043
 20
142.6700366803355
 30
0.0
 10
245.049491061083
 20
143.1007519196495
 30
0.0
 10
245.13676181328
 20
143.528752999442
 30
0.0
 10
245.2316775573738
 20
143.9540448412147
 30
0.0
 10
245.3341837552235
 20
144.3764935694347
 30
0.0
 10
245.4441579214127
 20
144.7960069535036
 30
0.0
 10
245.5614946837628
 20
145.2124856327011
 30
0.0
 10
245.6860828975706
 20
145.6258362760122
 30
0.0
 10
245.8178119339052
 20
146.0359680044555
 30
0.0
 10
245.9565700753018
 20
146.4427933214986
 30
0.0
 10
246.1022450594156
 20
146.8462278771453
 30
0.0
 10
246.2547239799448
 20
147.2461903402062
 30
0.0
 10
246.4138935853342
 20
147.642603013531
 30
0.0
 10
246.5796396163939
 20
148.0353893288156
 30
0.0
 10
246.7518496123027
 20
148.4244831842415
 30
0.0
 10
247.0052425098321
 20
148.9712949996328
 30
0.0
 10
247.3498106353985
 20
149.6633901191205
 30
0.0
 10
247.7970064078583
 20
150.4827428145491
 30
0.0
 10
248.266473649622
 20
151.2722002104494
 30
0.0
 10
248.7559670789828
 20
152.0319147830299
 30
0.0
 10
249.2635476204649
 20
152.7611255953338
 30
0.0
 10
249.7864581285405
 20
153.4630199348964
 30
0.0
 10
250.1443985578014
 20
153.9036172584687
 30
0.0
 10
250.3240046336045
 20
154.1246986167819
 30
0.0
  0
SPLINE
  5
149
330
1F
100
AcDbEntity
  8
0
  6
HIDDEN
 62
     7
370
     0
100
AcDbSpline
210
0.0
220
0.0
230
1.0
 70
     8
 71
     3
 72
    72
 73
    68
 74
     0
 42
0.00000001
 43
0.00000001
 12
1.0
 22
0.0
 32
0.0
 13
1.0
 23
0.0
 33
0.0
 40
-0.03125
 40
-0.03125
 40
0.0
 40
0.0
 40
0.03125
 40
0.03125
 40
0.0625
 40
0.0625
 40
0.09375
 40
0.09375
 40
0.125
 40
0.125
 40
0.15625
 40
0.15625
 40
0.1875
 40
0.1875
 40
0.21875
 40
0.21875
 40
0.25
 40
0.25
 40
0.28125
 40
0.28125
 40
0.3125
 40
0.3125
 40
0.34375
 40
0.34375
 40
0.3749999999999999
 40
0.3749999999999999
 40
0.390625
 40
0.390625
 40
0.40625
 40
0.40625
 40
0.4374999999999999
 40
0.4374999999999999
 40
0.4687499999999999
 40
0.4687499999999999
 40
0.4999999999999999
 40
0.4999999999999999
 40
0.5312499999999999
 40
0.5312499999999999
 40
0.5624999999999999
 40
0.5624999999999999
 40
0.5937499999999999
 40
0.5937499999999999
 40
0.6249999999999999
 40
0.6249999999999999
 40
0.6562499999999999
 40
0.6562499999999999
 40
0.6874999999999999
 40
0.6874999999999999
 40
0.7187499999999999
 40
0.7187499999999999
 40
0.7499999999999999
 40
0.7499999999999999
 40
0.78125
 40
0.78125
 40
0.8125
 40
0.8125
 40
0.84375
 40
0.84375
 40
0.875
 40
0.875
 40
0.90625
 40
0.90625
 40
0.9375
 40
0.9375
 40
0.96875
 40
0.96875
 40
1.0
 40
1.0
 40
1.03125
 40
1.03125
 10
172.9124406022017
 20
118.1142350962039
 30
0.0
 10
173.2868708220756
 20
118.5245908966891
 30
0.0
 10
173.4917234233412
 20
118.7082399793476
 30
0.0
 10
173.9345916201881
 20
119.0351948828429
 30
0.0
 10
174.1745470375064
 20
119.1789730910228
 30
0.0
 10
174.670158020281
 20
119.4164904464686
 30
0.0
 10
174.9274243114355
 20
119.5118100113664
 30
0.0
 10
175.4607780792726
 20
119.6558955440008
 30
0.0
 10
175.7350582191708
 20
119.7036315509704
 30
0.0
 10
176.2814867537504
 20
119.7492136915043
 30
0.0
 10
176.5560630722182
 20
119.747779931432
 30
0.0
 10
177.1080302464889
 20
119.6948666233412
 30
0.0
 10
177.3786472090606
 20
119.643896897137
 30
0.0
 10
177.9049323801398
 20
119.4952902701934
 30
0.0
 10
178.1625639435474
 20
119.3970048994363
 30
0.0
 10
178.6584901082209
 20
119.1527515402505
 30
0.0
 10
178.8914737860125
 20
119.0096714092284
 30
0.0
 10
179.3278070613375
 20
118.6818128587595
 30
0.0
 10
179.5330883151958
 20
118.4948192210593
 30
0.0
 10
179.901122613056
 20
118.0853886012363
 30
0.0
 10
180.0626376030412
 20
117.8652831602518
 30
0.0
 10
180.3397952861883
 20
117.3935330788138
 30
0.0
 10
180.456189465622
 20
117.1385165523726
 30
0.0
 10
180.6294635022687
 20
116.6172787289756
 30
0.0
 10
180.6879100567344
 20
116.3497946111947
 30
0.0
 10
180.7317747822103
 20
115.9378789518622
 30
0.0
 10
180.7389549988397
 20
115.7981716487867
 30
0.0
 10
180.7379869715442
 20
115.5220485933243
 30
0.0
 10
180.7299841821306
 20
115.3848720269935
 30
0.0
 10
180.6839114502182
 20
114.9759385857302
 30
0.0
 10
180.6229766177661
 20
114.704012336726
 30
0.0
 10
180.4448564613576
 20
114.1808318202709
 30
0.0
 10
180.3292885500152
 20
113.9321198199075
 30
0.0
 10
180.047441766076
 20
113.4592352949156
 30
0.0
 10
179.8805718206613
 20
113.2356260776834
 30
0.0
 10
179.5112462658625
 20
112.8309686894958
 30
0.0
 10
179.306461109565
 20
112.6465551013263
 30
0.0
 10
178.8618081620488
 20
112.3175290664319
 30
0.0
 10
178.626959032538
 20
112.1763609904437
 30
0.0
 10
178.133549270061
 20
111.9379514616632
 30
0.0
 10
177.8722623163564
 20
111.8401689052583
 30
0.0
 10
177.3415240358437
 20
111.6948408770682
 30
0.0
 10
177.0718843349464
 20
111.6465514868732
 30
0.0
 10
176.5241329952012
 20
111.5981362630866
 30
0.0
 10
176.2442289533426
 20
111.5985944487225
 30
0.0
 10
175.6971510455076
 20
111.6487463043247
 30
0.0
 10
175.4275459408202
 20
111.6979198713567
 30
0.0
 10
174.8963911841641
 20
111.8455943946637
 30
0.0
 10
174.6350963677205
 20
111.9447495590293
 30
0.0
 10
174.1427823895452
 20
112.1857623295061
 30
0.0
 10
173.9088255139665
 20
112.3282504541308
 30
0.0
 10
173.4666568934361
 20
112.6597378831157
 30
0.0
 10
173.2614633623244
 20
112.8471715111041
 30
0.0
 10
172.8957691459664
 20
113.2540752301545
 30
0.0
 10
172.7329985235781
 20
113.4752543048235
 30
0.0
 10
172.4520460928125
 20
113.9550016340388
 30
0.0
 10
172.338842240539
 20
114.2050136008491
 30
0.0
 10
172.1662335164
 20
114.7250888108695
 30
0.0
 10
172.1066272337237
 20
114.9988202754993
 30
0.0
 10
172.0487354636538
 20
115.5474379253977
 30
0.0
 10
172.0495250025138
 20
115.8217777892893
 30
0.0
 10
172.1107154781302
 20
116.3705197404283
 30
0.0
 10
172.1718442018642
 20
116.6435850542854
 30
0.0
 10
172.347923887494
 20
117.1637503030538
 30
0.0
 10
172.464254482484
 20
117.4160694366127
 30
0.0
 10
172.7474557122247
 20
117.8924737780197
 30
0.0
 10
172.9124406022017
 20
118.1142350962039
 30
0.0
 10
173.2868708220756
 20
118.5245908966891
 30
0.0
  0
CIRCLE
  5
14A
330
1F
100
AcDbEntity
  8
0
  6
HIDDEN
 62
     7
370
     0
100
AcDbCircle
 10
176.2884942834
 20
115.6734014464
 30
0.0
 40
4.049999999999997
  0
LINE
  5
14B
330
1F
100
AcDbEntity
  8
0
  6
HIDDEN
 62
     7
370
     0
100
AcDbLine
 10
229.9400676731
 20
93.6575709445
 30
0.0
 11
229.9400676731
 21
93.6877867741
 31
0.0
  0
LINE
  5
14C
330
1F
100
AcDbEntity
  8
0
  6
HIDDEN
 62
     7
370
     0
100
AcDbLine
 10
229.9400676731
 20
115.6734014464
 30
0.0
 11
229.9400676731
 21
93.6575709445
 31
0.0
  0
ELLIPSE
  5
14D
330
1F
100
AcDbEntity
  8
0
  6
HIDDEN
 62
     7
370
     0
100
AcDbEllipse
 10
248.3229025881
 20
115.6734014464
 30
0.0
 11
22.765130786498
 21
31.94589272411179
 31
0.0
210
0.0
220
0.0
230
1.0
 40
0.0817078932
 41
1.628956950646967
 42
2.3876791889923
  0
CIRCLE
  5
14E
330
1F
100
AcDbEntity
  8
0
  6
HIDDEN
 62
     7
370
     0
100
AcDbCircle
 10
203.7884942834
 20
115.6734014464
 30
0.0
 40
2.000000000000014
  0
LINE
  5
14F
330
1F
100
AcDbEntity
  8
0
  6
HIDDEN
 62
     7
370
     0
100
AcDbLine
 10
229.9400676731
 20
115.6734014464
 30
0.0
 11
229.9400676731
 21
118.2741728214
 31
0.0
  0
LINE
  5
150
330
1F
100
AcDbEntity
  8
0
  6
HIDDEN
 62
     7
370
     0
100
AcDbLine
 10
244.5857521836
 20
142.2769455773
 30
0.0
 11
244.8361326699
 21
141.7995496256
 31
0.0
  0
LINE
  5
151
330
1F
100
AcDbEntity
  8
0
  6
HIDDEN
 62
     7
370
     0
100
AcDbLine
 10
232.3898371999
 20
141.6373653871
 30
0.0
 11
244.5854988639
 21
142.2765134436
 31
0.0
  0
LINE
  5
152
330
1F
100
AcDbEntity
  8
0
  6
HIDDEN
 62
     7
370
     0
100
AcDbLine
 10
244.7993081753
 20
140.420888604
 30
0.0
 11
244.7993081753
 21
116.2482174065
 31
0.0
  0
ELLIPSE
  5
153
330
1F
100
AcDbEntity
  8
0
  6
HIDDEN
 62
     7
370
     0
100
AcDbEllipse
 10
270.9945651927
 20
140.4208890714
 30
0.0
 11
26.19525546193006
 21
5.684341886080801E-14
 31
0.0
210
5.930269202612291E-31
220
-2.732856676000383E-16
230
1.0
 40
0.9925461516
 41
3.088529342420905
 42
3.141592653589791
  0
SPLINE
  5
154
330
1F
100
AcDbEntity
  8
0
  6
HIDDEN
 62
     7
370
     0
100
AcDbSpline
210
0.0
220
0.0
230
1.0
 70
     8
 71
     3
 72
     8
 73
     4
 74
     0
 42
0.00000001
 43
0.00000001
 12
1.0
 22
0.0
 32
0.0
 13
1.0
 23
0.0
 33
0.0
 40
0.0
 40
0.0
 40
0.0
 40
0.0
 40
1.0
 40
1.0
 40
1.0
 40
1.0
 10
232.3898367310722
 20
141.6373661945807
 30
0.0
 10
231.1612781505523
 20
134.3602794917907
 30
0.0
 10
230.2300861439665
 20
127.0376479556213
 30
0.0
 10
229.9870931216866
 20
119.6096114720919
 30
0.0
  0
LINE
  5
155
330
1F
100
AcDbEntity
  8
0
  6
HIDDEN
 62
     7
370
     0
100
AcDbLine
 10
244.7993081753
 20
116.2482174065
 30
0.0
 11
244.3937954251
 21
115.6734014464
 31
0.0
  0
LINE
  5
156
330
1F
100
AcDbEntity
  8
0
  6
HIDDEN
 62
     7
370
     0
100
AcDbLine
 10
215.788494492
 20
127.923401126
 30
0.0
 11
215.788494492
 21
131.4216098351
 31
0.0
  0
LINE
  5
157
330
1F
100
AcDbEntity
  8
0
  6
HIDDEN
 62
     7
370
     0
100
AcDbLine
 10
209.7884935085
 20
131.4233197433
 30
0.0
 11
209.7884935085
 21
127.923401126
 31
0.0
  0
LINE
  5
158
330
1F
100
AcDbEntity
  8
0
  6
HIDDEN
 62
     7
370
     0
100
AcDbLine
 10
191.7884942834
 20
91.4234007311
 30
0.0
 11
191.8813875038
 21
91.51629457
 31
0.0
  0
LINE
  5
159
330
1F
100
AcDbEntity
  8
0
  6
HIDDEN
 62
     7
370
     0
100
AcDbLine
 10
191.8813875038
 20
139.8305083228
 30
0.0
 11
191.7884942834
 21
139.9234021616
 31
0.0
  0
ARC
  5
15A
330
1F
100
AcDbEntity
  8
0
  6
HIDDEN
 62
     7
370
     0
100
AcDbCircle
 10
191.174280721
 20
92.2234014464
 30
0.0
 40
1.000000000000028
100
AcDbArc
 50
315.0
 51
0.0
  0
ARC
  5
15B
330
1F
100
AcDbEntity
  8
0
  6
HIDDEN
 62
     7
370
     0
100
AcDbCircle
 10
191.174280721
 20
92.2234014464
 30
0.0
 40
1.000000000000028
100
AcDbArc
 50
0.0
 51
52.1052014664
  0
ARC
  5
15C
330
1F
100
AcDbEntity
  8
0
  6
HIDDEN
 62
     7
370
     0
100
AcDbCircle
 10
191.174280721
 20
139.1234014464
 30
0.0
 40
1.000000000000034
100
AcDbArc
 50
351.8087250651
 51
45.0
  0
ARC
  5
15D
330
1F
100
AcDbEntity
  8
0
  6
HIDDEN
 62
     7
370
     0
100
AcDbCircle
 10
191.174280721
 20
139.1234014464
 30
0.0
 40
1.000000000000034
100
AcDbArc
 50
307.8947985336
 51
351.8087250651
  0
LINE
  5
15E
330
1F
100
AcDbEntity
  8
0
  6
HIDDEN
 62
     7
370
     0
100
AcDbLine
 10
192.1742807192
 20
92.2234012348
 30
0.0
 11
192.1742807192
 21
139.123401658
 31
0.0
  0
LINE
  5
15F
330
1F
100
AcDbEntity
  8
0
  6
HIDDEN
 62
     7
370
     0
100
AcDbLine
 10
192.1742807192
 20
92.2234012348
 30
0.0
 11
192.1742807192
 21
139.123401658
 31
0.0
  0
LINE
  5
160
330
1F
100
AcDbEntity
  8
0
  6
HIDDEN
 62
     7
370
     0
100
AcDbLine
 10
215.2884934787
 20
125.983204746
 30
0.0
 11
215.2884934787
 21
127.7731862453
 31
0.0
  0
LINE
  5
161
330
1F
100
AcDbEntity
  8
0
  6
HIDDEN
 62
     7
370
     0
100
AcDbLine
 10
215.2884934787
 20
120.1710757402
 30
0.0
 11
215.2884934787
 21
123.8750881118
 31
0.0
  0
LINE
  5
162
330
1F
100
AcDbEntity
  8
0
  6
HIDDEN
 62
     7
370
     0
100
AcDbLine
 10
210.2884945218
 20
127.7731862453
 30
0.0
 11
210.2884945218
 21
120.1694361468
 31
0.0
  0
LINE
  5
163
330
1F
100
AcDbEntity
  8
0
  6
HIDDEN
 62
     7
370
     0
100
AcDbLine
 10
223.6079384331
 20
136.6174957318
 30
0.0
 11
212.6071375553
 21
127.5686780525
 31
0.0
  0
LINE
  5
164
330
1F
100
AcDbEntity
  8
0
  6
HIDDEN
 62
     7
370
     0
100
AcDbLine
 10
214.8969859574
 20
122.9780265664
 30
0.0
 11
223.2623320762
 21
129.8590247122
 31
0.0
  0
LINE
  5
165
330
1F
100
AcDbEntity
  8
0
  6
HIDDEN
 62
     7
370
     0
100
AcDbLine
 10
153.7884955053
 20
99.4769717169
 30
0.0
 11
155.3187218253
 21
100.3604503882
 31
0.0
  0
LINE
  5
166
330
1F
100
AcDbEntity
  8
0
  6
HIDDEN
 62
     7
370
     0
100
AcDbLine
 10
155.3187218253
 20
130.9863525045
 30
0.0
 11
153.7884955053
 21
131.8698311759
 31
0.0
  0
ARC
  5
167
330
1F
100
AcDbEntity
  8
0
  6
HIDDEN
 62
     7
370
     0
100
AcDbCircle
 10
164.7902955983
 20
101.6734014464
 30
0.0
 40
2.000000000000016
100
AcDbArc
 50
270.0
 51
315.0
  0
ARC
  5
168
330
1F
100
AcDbEntity
  8
0
  6
HIDDEN
 62
     7
370
     0
100
AcDbCircle
 10
164.7902955983
 20
129.6734014464
 30
0.0
 40
2.000000000000016
100
AcDbArc
 50
45.0
 51
90.0
  0
LINE
  5
169
330
1F
100
AcDbEntity
  8
0
  6
HIDDEN
 62
     7
370
     0
100
AcDbLine
 10
163.7884934191
 20
99.6734006864
 30
0.0
 11
164.7902947609
 21
99.6734006864
 31
0.0
  0
LINE
  5
16A
330
1F
100
AcDbEntity
  8
0
  6
HIDDEN
 62
     7
370
     0
100
AcDbLine
 10
164.7902947609
 20
131.6734022063
 30
0.0
 11
163.7884934191
 21
131.6734022063
 31
0.0
  0
ARC
  5
16B
330
1F
100
AcDbEntity
  8
0
  6
HIDDEN
 62
     7
370
     0
100
AcDbCircle
 10
163.7884942834
 20
101.6734014464
 30
0.0
 40
2.000000000000006
100
AcDbArc
 50
189.9742217944
 51
270.0
  0
ARC
  5
16C
330
1F
100
AcDbEntity
  8
0
  6
HIDDEN
 62
     7
370
     0
100
AcDbCircle
 10
163.7884942834
 20
129.6734014464
 30
0.0
 40
2.000000000000004
100
AcDbArc
 50
90.0
 51
170.0257782056
  0
LINE
  5
16D
330
1F
100
AcDbEntity
  8
0
  6
HIDDEN
 62
     7
370
     0
100
AcDbLine
 10
166.2045099531
 20
100.2591876847
 30
0.0
 11
167.6187232826
 21
101.6734010143
 31
0.0
  0
LINE
  5
16E
330
1F
100
AcDbEntity
  8
0
  6
HIDDEN
 62
     7
370
     0
100
AcDbLine
 10
167.6187232826
 20
129.6734018785
 30
0.0
 11
166.2045099531
 21
131.0876152081
 31
0.0
  0
LINE
  5
16F
330
1F
100
AcDbEntity
  8
0
  6
HIDDEN
 62
     7
370
     0
100
AcDbLine
 10
155.3187218253
 20
100.3604503882
 30
0.0
 11
160.2187228147
 21
101.6734010143
 31
0.0
  0
LINE
  5
170
330
1F
100
AcDbEntity
  8
0
  6
HIDDEN
 62
     7
370
     0
100
AcDbLine
 10
160.2187228147
 20
129.6734018785
 30
0.0
 11
155.3187218253
 21
130.9863525045
 31
0.0
  0
LINE
  5
171
330
1F
100
AcDbEntity
  8
0
  6
HIDDEN
 62
     7
370
     0
100
AcDbLine
 10
161.8187219594
 20
130.0198119668
 30
0.0
 11
161.2187229786
 21
129.6734018785
 31
0.0
  0
LINE
  5
172
330
1F
100
AcDbEntity
  8
0
  6
HIDDEN
 62
     7
370
     0
100
AcDbLine
 10
161.2187229786
 20
101.6734010143
 30
0.0
 11
161.8187219594
 21
101.326990926
 31
0.0
  0
ARC
  5
173
330
1F
100
AcDbEntity
  8
0
  6
HIDDEN
 62
     7
370
     0
100
AcDbCircle
 10
180.2884942834
 20
102.1734014464
 30
0.0
 40
0.5
100
AcDbArc
 50
270.0
 51
0.0
  0
ARC
  5
174
330
1F
100
AcDbEntity
  8
0
  6
HIDDEN
 62
     7
370
     0
100
AcDbCircle
 10
180.2884942834
 20
129.1734014464
 30
0.0
 40
0.5
100
AcDbArc
 50
0.0
 51
90.0
  0
LINE
  5
175
330
1F
100
AcDbEntity
  8
0
  6
HIDDEN
 62
     7
370
     0
100
AcDbLine
 10
167.6187232826
 20
101.6734010143
 30
0.0
 11
180.288494261
 21
101.6734010143
 31
0.0
  0
LINE
  5
176
330
1F
100
AcDbEntity
  8
0
  6
HIDDEN
 62
     7
370
     0
100
AcDbLine
 10
180.288494261
 20
129.6734018785
 30
0.0
 11
167.6187232826
 21
129.6734018785
 31
0.0
  0
LINE
  5
177
330
1F
100
AcDbEntity
  8
0
  6
HIDDEN
 62
     7
370
     0
100
AcDbLine
 10
160.2187228147
 20
101.6734010143
 30
0.0
 11
161.2187229786
 21
101.6734010143
 31
0.0
  0
LINE
  5
178
330
1F
100
AcDbEntity
  8
0
  6
HIDDEN
 62
     7
370
     0
100
AcDbLine
 10
161.2187229786
 20
129.6734018785
 30
0.0
 11
160.2187228147
 21
129.6734018785
 31
0.0
  0
LINE
  5
179
330
1F
100
AcDbEntity
  8
0
  6
HIDDEN
 62
     7
370
     0
100
AcDbLine
 10
180.788494343
 20
105.4234011633
 30
0.0
 11
182.0384940822
 21
106.6734018338
 31
0.0
  0
LINE
  5
17A
330
1F
100
AcDbEntity
  8
0
  6
HIDDEN
 62
     7
370
     0
100
AcDbLine
 10
182.0384940822
 20
124.673401059
 30
0.0
 11
180.788494343
 21
125.9234017295
 31
0.0
  0
LINE
  5
17B
330
1F
100
AcDbEntity
  8
0
  6
HIDDEN
 62
     7
370
     0
100
AcDbLine
 10
218.7884949837
 20
124.673401059
 30
0.0
 11
182.0384940822
 21
124.673401059
 31
0.0
  0
LINE
  5
17C
330
1F
100
AcDbEntity
  8
0
  6
HIDDEN
 62
     7
370
     0
100
AcDbLine
 10
182.0384940822
 20
106.6734018338
 30
0.0
 11
218.7884949837
 21
106.6734018338
 31
0.0
  0
LINE
  5
17D
330
1F
100
AcDbEntity
  8
0
  6
HIDDEN
 62
     7
370
     0
100
AcDbLine
 10
218.7884949837
 20
106.6734018338
 30
0.0
 11
224.1962400023
 21
115.6734014464
 31
0.0
  0
LINE
  5
17E
330
1F
100
AcDbEntity
  8
0
  6
HIDDEN
 62
     7
370
     0
100
AcDbLine
 10
224.1962400023
 20
115.6734014464
 30
0.0
 11
218.7884949837
 21
124.673401059
 31
0.0
  0
ARC
  5
17F
330
1F
100
AcDbEntity
  8
0
  6
HIDDEN
 62
     7
370
     0
100
AcDbCircle
 10
229.0211672954
 20
148.1734014464
 30
0.0
 40
1.0
100
AcDbArc
 50
270.0
 51
296.0556324729
  0
LINE
  5
180
330
1F
100
AcDbEntity
  8
VERMASSUNG
  6
CENTERX2
100
AcDbLine
 10
150.6637865398
 20
115.6734014464
 30
0.0
 11
256.7884942834
 21
115.6734014464
 31
0.0
  0
LINE
  5
181
330
1F
100
AcDbEntity
  8
VERMASSUNG
  6
CENTERX2
100
AcDbLine
 10
256.7884942834
 20
160.6734014464
 30
0.0
 11
256.7884942834
 21
115.6734014464
 31
0.0
  0
LINE
  5
182
330
1F
100
AcDbEntity
  8
VERMASSUNG
  6
CENTERX2
100
AcDbLine
 10
256.7884942834
 20
160.6734014464
 30
0.0
 11
256.7884942834
 21
184.013232298
 31
0.0
  0
DIMENSION
  5
183
330
1F
100
AcDbEntity
  8
VERMASSUNG
100
AcDbDimension
  2
_D
 10
256.3762391644
 20
160.6733081212
 30
0.0
 11
249.8157587537
 21
167.3117924473
 31
0.0
 70
   162
  1
<>
 71
     1
 42
-1.0
  3
SLDDIMSTYLE0
100
AcDb2LineAngularDimension
 13
256.7884942834
 23
160.6734014464
 33
0.0
 14
256.7884942834
 24
184.013232298
 34
0.0
 15
245.72934389
 25
160.1153279836
 35
0.0
 16
249.8157587537
 26
167.3117924473
 36
0.0
  0
DIMENSION
  5
18C
330
1F
100
AcDbEntity
  8
VERMASSUNG
100
AcDbDimension
  2
_D_1
 10
256.7884942834
 20
175.5265007631
 30
0.0
 11
224.2884942834
 21
175.5265007631
 31
0.0
 70
   160
  1
<>
 71
     2
 42
-1.0
  3
SLDDIMSTYLE1
100
AcDbAlignedDimension
 13
191.7884942834
 23
146.6734014464
 33
0.0
 14
256.7884942834
 24
160.6734014464
 34
0.0
100
AcDbRotatedDimension
  0
DIMENSION
  5
199
330
1F
100
AcDbEntity
  8
VERMASSUNG
100
AcDbDimension
  2
_D_2
 10
153.7884942834
 20
183.1829351271
 30
0.0
 11
205.2884942834
 21
183.1829351271
 31
0.0
 70
   160
  1
<>
 71
     2
 42
-1.0
  3
SLDDIMSTYLE2
100
AcDbAlignedDimension
 13
256.7884942834
 23
160.6734014464
 33
0.0
 14
153.7884942834
 24
135.9657394389
 34
0.0
100
AcDbRotatedDimension
  0
DIMENSION
  5
1A4
330
1F
100
AcDbEntity
  8
VERMASSUNG
100
AcDbDimension
  2
_D_3
 10
267.0008574364
 20
115.6734014464
 30
0.0
 11
267.0008574364
 21
138.1734014464
 31
0.0
 70
   160
  1
<>
 71
     2
 42
-1.0
  3
SLDDIMSTYLE1
100
AcDbAlignedDimension
 13
256.7884942834
 23
160.6734014464
 33
0.0
 14
256.7884942834
 24
115.6734014464
 34
0.0
 50
90.0
100
AcDbRotatedDimension
  0
DIMENSION
  5
1B0
330
1F
100
AcDbEntity
  8
VERMASSUNG
100
AcDbDimension
  2
_D_4
 10
143.7884942834
 20
84.1734014464
 30
0.0
 11
143.7884942834
 21
115.6734014464
 31
0.0
 70
   160
  1
PSC%%c<>
 71
     2
 42
-1.0
  3
SLDDIMSTYLE2
100
AcDbAlignedDimension
 13
192.2884942834
 23
147.1734014464
 33
0.0
 14
192.2884942834
 24
84.1734014464
 34
0.0
 50
90.0
100
AcDbRotatedDimension
  0
LINE
  5
1BC
330
1F
100
AcDbEntity
  8
0
  6
Continuous
 62
     7
370
    15
100
AcDbLine
 10
89.4787676421
 20
154.5235114706
 30
0.0
 11
89.3638480243
 21
154.1246967924
 31
0.0
  0
SPLINE
  5
1BD
330
1F
100
AcDbEntity
  8
0
  6
Continuous
 62
     7
370
    15
100
AcDbSpline
210
0.0
220
0.0
230
1.0
 70
     8
 71
     3
 72
    27
 73
    23
 74
     0
 42
0.00000001
 43
0.00000001
 12
1.0
 22
0.0
 32
0.0
 13
1.0
 23
0.0
 33
0.0
 40
0.0
 40
0.0
 40
0.0
 40
0.0
 40
0.0399235601828907
 40
0.0796875122008292
 40
0.1193019511606184
 40
0.1587770868756282
 40
0.1981232376015102
 40
0.2373508233770185
 40
0.276470358985353
 40
0.3154924465545028
 40
0.3544277678181405
 40
0.3932870760615565
 40
0.4320811877799167
 40
0.4708209740787886
 40
0.5095173518492416
 40
0.5809610651466437
 40
0.6518226261415406
 40
0.7221749028967426
 40
0.7920923558233341
 40
0.8616508417466112
 40
0.9309273966929281
 40
1.0
 40
1.0
 40
1.0
 40
1.0
 10
89.36384834244609
 20
154.1246986167819
 30
0.0
 10
89.18625032544212
 20
154.2322195794073
 30
0.0
 10
88.83176430059827
 20
154.4468316526245
 30
0.0
 10
88.29288281872321
 20
154.7585390739786
 30
0.0
 10
87.75016994561975
 20
155.0618970211223
 30
0.0
 10
87.20303659600367
 20
155.356230658778
 30
0.0
 10
86.6516398034481
 20
155.6417196656689
 30
0.0
 10
86.09593777813883
 20
155.9183160020308
 30
0.0
 10
85.53594175069456
 20
156.1860323387756
 30
0.0
 10
84.97164880909915
 20
156.4448651602436
 30
0.0
 10
84.40305988026154
 20
156.6948152727192
 30
0.0
 10
83.83017467715126
 20
156.9358823402613
 30
0.0
 10
83.25299399521042
 20
157.1680663180344
 30
0.0
 10
82.67151556873303
 20
157.3913671671991
 30
0.0
 10
81.92036233754168
 20
157.6663233505995
 30
0.0
 10
80.99645197815394
 20
157.9812698914404
 30
0.0
 10
79.89547419903286
 20
158.3207793569129
 30
0.0
 10
78.7878852128978
 20
158.6266821461601
 30
0.0
 10
77.67375072930903
 20
158.8991950553066
 30
0.0
 10
76.55285823654224
 20
159.1374919368017
 30
0.0
 10
75.42600454066503
 20
159.3446263700084
 30
0.0
 10
74.66800357185046
 20
159.454494068315
 30
0.0
 10
74.28956180258858
 20
159.509346935056
 30
0.0
  0
SPLINE
  5
1BE
330
1F
100
AcDbEntity
  8
0
  6
Continuous
 62
     7
370
    15
100
AcDbSpline
210
0.0
220
0.0
230
1.0
 70
     8
 71
     3
 72
    33
 73
    29
 74
     0
 42
0.00000001
 43
0.00000001
 12
1.0
 22
0.0
 32
0.0
 13
1.0
 23
0.0
 33
0.0
 40
0.0
 40
0.0
 40
0.0
 40
0.0
 40
0.035862849075164
 40
0.0719088352644404
 40
0.108141345292376
 40
0.144563713851751
 40
0.1811792237620982
 40
0.217991106170765
 40
0.2550025407942107
 40
0.2922166561972198
 40
0.3296365301077977
 40
0.3672651897655317
 40
0.4051056123011615
 40
0.4431607251453276
 40
0.4814334064643146
 40
0.5199264856208037
 40
0.5586427436576695
 40
0.5975849138028747
 40
0.6367556819936643
 40
0.6761576874182237
 40
0.7157935230731649
 40
0.7556657363351272
 40
0.7957768295449541
 40
0.8361292606029598
 40
0.8767254435738203
 40
0.9175677492997499
 40
0.9586585060206428
 40
1.0
 40
1.0
 40
1.0
 40
1.0
 10
74.28950464796479
 20
159.9453587583912
 30
0.0
 10
74.48759570753033
 20
159.9174755241384
 30
0.0
 10
74.88478939785321
 20
159.8615666671951
 30
0.0
 10
75.47893984234835
 20
159.7660012710935
 30
0.0
 10
76.07360626129221
 20
159.6615511932257
 30
0.0
 10
76.66842399357904
 20
159.5473266335466
 30
0.0
 10
77.26330181684288
 20
159.4234985565887
 30
0.0
 10
77.85807208060102
 20
159.2899543431054
 30
0.0
 10
78.4525852201259
 20
159.146660904145
 30
0.0
 10
79.0466842645797
 20
158.9935666854582
 30
0.0
 10
79.64021175817805
 20
158.8306282088471
 30
0.0
 10
80.23300792821429
 20
158.6578029754261
 30
0.0
 10
80.82491121937697
 20
158.4750514554555
 30
0.0
 10
81.41575819060097
 20
158.2823366233011
 30
0.0
 10
82.00538358613821
 20
158.0796241556767
 30
0.0
 10
82.59362036086615
 20
157.8668824498776
 30
0.0
 10
83.18029972192487
 20
157.6440826928263
 30
0.0
 10
83.76525115999802
 20
157.4111989071975
 30
0.0
 10
84.34830251481938
 20
157.1682080371179
 30
0.0
 10
84.92927992222891
 20
156.915089896073
 30
0.0
 10
85.50800821359132
 20
156.6518276289738
 30
0.0
 10
86.08430961944248
 20
156.3784062376522
 30
0.0
 10
86.65800886585544
 20
156.0948183966341
 30
0.0
 10
87.22891420539241
 20
155.8010428144401
 30
0.0
 10
87.79688908111405
 20
155.4971259810343
 30
0.0
 10
88.36158247957538
 20
155.1828745672745
 30
0.0
 10
88.92344468977595
 20
154.8590141307355
 30
0.0
 10
89.29328456178679
 20
154.6355720523385
 30
0.0
 10
89.4787669756743
 20
154.5235111870788
 30
0.0
  0
LINE
  5
1BF
330
1F
100
AcDbEntity
  8
0
  6
Continuous
 62
     7
370
    15
100
AcDbLine
 10
70.6194431892
 20
150.885493548
 30
0.0
 11
70.6194431892
 21
140.420888604
 31
0.0
  0
ELLIPSE
  5
1C0
330
1F
100
AcDbEntity
  8
0
  6
Continuous
 62
     7
370
    15
100
AcDbEllipse
 10
-29.977140643
 20
140.4208890714
 30
0.0
 11
223.45189538839
 21
25.9647897264336
 31
0.0
210
0.0
220
0.0
230
1.0
 40
0.0060534818
 41
5.178667443820926
 42
5.189573353145796
  0
ELLIPSE
  5
1C1
330
1F
100
AcDbEntity
  8
0
  6
Continuous
 62
     7
370
    15
100
AcDbEllipse
 10
1933.6171298209
 20
140.4208890714
 30
0.0
 11
4046.11655841464
 21
-25.96383481333557
 31
0.0
210
0.0
220
0.0
230
1.0
 40
0.000338811
 41
4.234503375984498
 42
4.234920829825699
  0
SPLINE
  5
1C2
330
1F
100
AcDbEntity
  8
0
  6
Continuous
 62
     7
370
    15
100
AcDbSpline
210
0.0
220
0.0
230
1.0
 70
     8
 71
     3
 72
    31
 73
    27
 74
     0
 42
0.00000001
 43
0.00000001
 12
1.0
 22
0.0
 32
0.0
 13
1.0
 23
0.0
 33
0.0
 40
0.0
 40
0.0
 40
0.0
 40
0.0
 40
0.0280907232706806
 40
0.0563273655762219
 40
0.084715051758313
 40
0.1132588253024668
 40
0.1419636474203025
 40
0.1708343962991787
 40
0.1998758665132634
 40
0.2290927685897347
 40
0.258489728723434
 40
0.2880712886330871
 40
0.3178419055519186
 40
0.3478059523454396
 40
0.3779677177490288
 40
0.4083314067179616
 40
0.4389011408824917
 40
0.4696809591007388
 40
0.5006748181021606
 40
0.5708610935341548
 40
0.6413612706330415
 40
0.7122168405902252
 40
0.7834686741542217
 40
0.8551569647233417
 40
0.9273211768025796
 40
1.0
 40
1.0
 40
1.0
 40
1.0
 10
102.31947142268
 20
141.7998879895991
 30
0.0
 10
102.2207198113082
 20
141.9453839202513
 30
0.0
 10
102.022703617087
 20
142.2371315693499
 30
0.0
 10
101.7185045940195
 20
142.6700366803355
 30
0.0
 10
101.4081030103332
 20
143.1007519196495
 30
0.0
 10
101.0910172375714
 20
143.528752999442
 30
0.0
 10
100.7673609492079
 20
143.9540448412147
 30
0.0
 10
100.4370868258024
 20
144.3764935694347
 30
0.0
 10
100.1001908775656
 20
144.7960069535036
 30
0.0
 10
99.75665724848137
 20
145.2124856327011
 30
0.0
 10
99.40647314565308
 20
145.6258362760122
 30
0.0
 10
99.04962481775287
 20
146.0359680044555
 30
0.0
 10
98.68609864799778
 20
146.4427933214986
 30
0.0
 10
98.31588089483789
 20
146.8462278771453
 30
0.0
 10
97.93895768214625
 20
147.2461903402062
 30
0.0
 10
97.55531535881482
 20
147.642603013531
 30
0.0
 10
97.16493911045418
 20
148.0353893288156
 30
0.0
 10
96.76781825597234
 20
148.4244831842415
 30
0.0
 10
96.19463653158552
 20
148.9712949996328
 30
0.0
 10
95.43729829347981
 20
149.6633901191205
 30
0.0
 10
94.48499052539897
 20
150.4827428145491
 30
0.0
 10
93.50902915840265
 20
151.2722002104494
 30
0.0
 10
92.50927010222027
 20
152.0319147830299
 30
0.0
 10
91.48505481764423
 20
152.7611255953338
 30
0.0
 10
90.43761743594575
 20
153.4630199348964
 30
0.0
 10
89.72261814447319
 20
153.9036172584687
 30
0.0
 10
89.36384834244606
 20
154.1246986167819
 30
0.0
  0
LINE
  5
1C3
330
1F
100
AcDbEntity
  8
0
  6
Continuous
 62
     7
370
    15
100
AcDbLine
 10
102.3194446948
 20
141.799888627
 30
0.0
 11
102.3194446948
 21
140.420888604
 31
0.0
  0
LINE
  5
1C4
330
1F
100
AcDbEntity
  8
0
  6
Continuous
 62
     7
370
    15
100
AcDbLine
 10
74.2894431365
 20
151.1345478309
 30
0.0
 11
74.2894431365
 21
151.3287881923
 31
0.0
  0
LINE
  5
1C5
330
1F
100
AcDbEntity
  8
0
  6
Continuous
 62
     7
370
    15
100
AcDbLine
 10
102.3194446948
 20
142.2769455773
 30
0.0
 11
102.3194446948
 21
141.7995496256
 31
0.0
  0
SPLINE
  5
1C6
330
1F
100
AcDbEntity
  8
0
  6
Continuous
 62
     7
370
    15
100
AcDbSpline
210
0.0
220
0.0
230
1.0
 70
     8
 71
     3
 72
    32
 73
    28
 74
     0
 42
0.00000001
 43
0.00000001
 12
1.0
 22
0.0
 32
0.0
 13
1.0
 23
0.0
 33
0.0
 40
0.0
 40
0.0
 40
0.0
 40
0.0
 40
0.0372281403657555
 40
0.0736456284625949
 40
0.1092529063946226
 40
0.1440504472141633
 40
0.1780387578506456
 40
0.2112183823918778
 40
0.2435899057693737
 40
0.2751539579084831
 40
0.3059112184147695
 40
0.3358624218812213
 40
0.3650083639166068
 40
0.3933499080145579
 40
0.4208879934064366
 40
0.4476236440699057
 40
0.4735579791007241
 40
0.4986922246994437
 40
0.5596944065871386
 40
0.6193214278489066
 40
0.6775924216740236
 40
0.7345278885366735
 40
0.7901498058180161
 40
0.8444817451130106
 40
0.8975489971960674
 40
0.9493787044134058
 40
1.0
 40
1.0
 40
1.0
 40
1.0
 10
89.47876697567426
 20
154.5235111870788
 30
0.0
 10
89.66111846612014
 20
154.4110584153394
 30
0.0
 10
90.0218506967134
 20
154.1886015596991
 30
0.0
 10
90.55164192774456
 20
153.8474724332819
 30
0.0
 10
91.06578671746001
 20
153.506204978237
 30
0.0
 10
91.56411056348028
 20
153.1645823439005
 30
0.0
 10
92.04691539397614
 20
152.8233618736423
 30
0.0
 10
92.51439025338614
 20
152.4830258723107
 30
0.0
 10
92.9667626650658
 20
152.144105223037
 30
0.0
 10
93.40425830930818
 20
151.8070958996961
 30
0.0
 10
93.82711031409663
 20
151.4724808086627
 30
0.0
 10
94.23555578367218
 20
151.14072442288
 30
0.0
 10
94.62983559030239
 20
150.8122745131392
 30
0.0
 10
95.01019361914503
 20
150.4875618966924
 30
0.0
 10
95.37687527698654
 20
150.1670013339807
 30
0.0
 10
95.73012950252813
 20
149.8509899346278
 30
0.0
 10
96.07019822538354
 20
149.5399141128193
 30
0.0
 10
96.55643494928505
 20
149.0854309843589
 30
0.0
 10
97.1806861341177
 20
148.4803170136114
 30
0.0
 10
97.93170995219718
 20
147.7139399420891
 30
0.0
 10
98.65048585926704
 20
146.9424480636191
 30
0.0
 10
99.33752713752959
 20
146.1673389265143
 30
0.0
 10
99.99337601119873
 20
145.3899953682444
 30
0.0
 10
100.6187570956873
 20
144.6118843418111
 30
0.0
 10
101.2138961749864
 20
143.8339257916059
 30
0.0
 10
101.7809852755076
 20
143.0587452020495
 30
0.0
 10
102.1413572383229
 20
142.535223809612
 30
0.0
 10
102.3194179224697
 20
142.2765505860497
 30
0.0
  0
LINE
  5
1C7
330
1F
100
AcDbEntity
  8
0
  6
Continuous
 62
     7
370
    15
100
AcDbLine
 10
70.6194431892
 20
116.2482174065
 30
0.0
 11
102.3194446948
 21
116.2482174065
 31
0.0
  0
LINE
  5
1C8
330
1F
100
AcDbEntity
  8
0
  6
Continuous
 62
     7
370
    15
100
AcDbLine
 10
102.3194446948
 20
140.420888604
 30
0.0
 11
102.3194446948
 21
116.2482174065
 31
0.0
  0
LINE
  5
1C9
330
1F
100
AcDbEntity
  8
0
  6
Continuous
 62
     7
370
    15
100
AcDbLine
 10
70.6194431892
 20
140.420888604
 30
0.0
 11
70.6194431892
 21
116.2482174065
 31
0.0
  0
SPLINE
  5
1CA
330
1F
100
AcDbEntity
  8
0
  6
Continuous
 62
     7
370
    15
100
AcDbSpline
210
0.0
220
0.0
230
1.0
 70
     8
 71
     3
 72
    12
 73
     8
 74
     0
 42
0.00000001
 43
0.00000001
 12
1.0
 22
0.0
 32
0.0
 13
1.0
 23
0.0
 33
0.0
 40
0.0
 40
0.0
 40
0.0
 40
0.0
 40
0.5
 40
0.5
 40
0.75
 40
0.75
 40
1.0
 40
1.0
 40
1.0
 40
1.0
 10
90.99957193946344
 20
91.91246134963127
 30
0.0
 10
91.39997856403025
 20
92.26095179321223
 30
0.0
 10
91.83007352377389
 20
92.58272392003846
 30
0.0
 10
92.50951732343391
 20
93.03451225525471
 30
0.0
 10
92.7415382798387
 20
93.17899985054294
 30
0.0
 10
93.21727670258532
 20
93.44974021721607
 30
0.0
 10
93.46105826679027
 20
93.5766841395923
 30
0.0
 10
93.7159549447704
 20
93.6877868474909
 30
0.0
  0
ARC
  5
1CB
330
1F
100
AcDbEntity
  8
0
  6
Continuous
 62
     7
370
    15
100
AcDbCircle
 10
70.3194431749
 20
115.6734014464
 30
0.0
 40
31.5
100
AcDbArc
 50
265.7993696396
 51
311.0343993169
  0
ELLIPSE
  5
1CC
330
1F
100
AcDbEntity
  8
0
  6
Continuous
 62
     7
370
    15
100
AcDbEllipse
 10
64.6194431749
 20
90.6823756442
 30
0.0
 11
1.387840649234136
 21
8.515918281079138
 31
0.0
210
0.0
220
0.0
230
1.0
 40
0.6854557539
 41
3.975982205004631
 42
4.94580965057409
  0
LINE
  5
1CD
330
1F
100
AcDbEntity
  8
0
  6
Continuous
 62
     7
370
    15
100
AcDbLine
 10
102.3194446948
 20
116.2482174065
 30
0.0
 11
102.3194446948
 21
115.6734014464
 31
0.0
  0
ARC
  5
1CE
330
1F
100
AcDbEntity
  8
0
  6
Continuous
 62
     7
370
    15
100
AcDbCircle
 10
70.3194431749
 20
115.6734014464
 30
0.0
 40
32.00000000000003
100
AcDbArc
 50
316.5284179201
 51
0.0
  0
LINE
  5
1CF
330
1F
100
AcDbEntity
  8
0
  6
Continuous
 62
     7
370
    15
100
AcDbLine
 10
93.5423459646
 20
93.6575709445
 30
0.0
 11
93.7159556684
 21
93.6877867741
 31
0.0
  0
LINE
  5
1D0
330
1F
100
AcDbEntity
  8
0
  6
Continuous
 62
     7
370
    15
100
AcDbLine
 10
70.6194431892
 20
116.2482174065
 30
0.0
 11
70.6194431892
 21
91.7266598505
 31
0.0
  0
SPLINE
  5
1D1
330
1F
100
AcDbEntity
  8
0
  6
Continuous
 62
     7
370
    15
100
AcDbSpline
210
0.0
220
0.0
230
1.0
 70
     8
 71
     3
 72
    10
 73
     6
 74
     0
 42
0.00000001
 43
0.00000001
 12
1.0
 22
0.0
 32
0.0
 13
1.0
 23
0.0
 33
0.0
 40
0.0
 40
0.0
 40
0.0
 40
0.0
 40
0.5
 40
0.5
 40
1.0
 40
1.0
 40
1.0
 40
1.0
 10
68.01209433748522
 20
84.25802079705733
 30
0.0
 10
67.73360539177736
 20
84.27847482727547
 30
0.0
 10
67.43525140351505
 20
84.30419001444662
 30
0.0
 10
66.81880308800082
 20
84.36698825327466
 30
0.0
 10
66.5005638905619
 20
84.40399498451771
 30
0.0
 10
66.17235744553078
 20
84.44758392381439
 30
0.0
  0
SPLINE
  5
1D2
330
1F
100
AcDbEntity
  8
0
  6
Continuous
 62
     7
370
    15
100
AcDbSpline
210
0.0
220
0.0
230
1.0
 70
     8
 71
     3
 72
    14
 73
    10
 74
     0
 42
0.00000001
 43
0.00000001
 12
1.0
 22
0.0
 32
0.0
 13
1.0
 23
0.0
 33
0.0
 40
0.0
 40
0.0
 40
0.0
 40
0.0
 40
0.25
 40
0.25
 40
0.5
 40
0.5
 40
0.75
 40
0.75
 40
1.0
 40
1.0
 40
1.0
 40
1.0
 10
66.17235744553078
 20
146.8992189689638
 30
0.0
 10
66.6092355731649
 20
146.9572405418908
 30
0.0
 10
67.02595398175694
 20
147.0032871133392
 30
0.0
 10
67.81958880772486
 20
147.07657859636
 30
0.0
 10
68.19911318819506
 20
147.1038083036599
 30
0.0
 10
68.88000446573892
 20
147.1423431297169
 30
0.0
 10
69.18686084668572
 20
147.1541882082121
 30
0.0
 10
69.7258350967454
 20
147.1689615671922
 30
0.0
 10
69.95076764198693
 20
147.1717594098784
 30
0.0
 10
70.13097552786014
 20
147.1728376309625
 30
0.0
  0
SPLINE
  5
1D3
330
1F
100
AcDbEntity
  8
0
  6
Continuous
 62
     7
370
    15
100
AcDbSpline
210
0.0
220
0.0
230
1.0
 70
     8
 71
     3
 72
    12
 73
     8
 74
     0
 42
0.00000001
 43
0.00000001
 12
1.0
 22
0.0
 32
0.0
 13
1.0
 23
0.0
 33
0.0
 40
0.0
 40
0.0
 40
0.0
 40
0.0
 40
0.2500000000000052
 40
0.2500000000000052
 40
0.5000000000000104
 40
0.5000000000000104
 40
1.0
 40
1.0
 40
1.0
 40
1.0
 10
70.13097552786014
 20
147.1728376309625
 30
0.0
 10
70.17596787938047
 20
147.1731068295151
 30
0.0
 10
70.21691206570638
 20
147.1892720355594
 30
0.0
 10
70.29140427312802
 20
147.2557527011921
 30
0.0
 10
70.32361959870403
 20
147.3052759219799
 30
0.0
 10
70.40532676136831
 20
147.5011141657399
 30
0.0
 10
70.43833536387189
 20
147.6944163603991
 30
0.0
 10
70.452534515405
 20
147.9143077001148
 30
0.0
  0
LINE
  5
1D4
330
1F
100
AcDbEntity
  8
0
  6
Continuous
 62
     7
370
    15
100
AcDbLine
 10
70.4525345114
 20
147.914306314
 30
0.0
 11
70.5287938231
 21
150.3102342201
 31
0.0
  0
ARC
  5
1D5
330
1F
100
AcDbEntity
  8
0
  6
Continuous
 62
     7
370
    15
100
AcDbCircle
 10
70.3194431749
 20
115.6734014464
 30
0.0
 40
32.10551373655945
100
AcDbArc
 50
316.7807103848
 51
4.6464506928
  0
ELLIPSE
  5
1D6
330
1F
100
AcDbEntity
  8
0
  6
Continuous
 62
     7
370
    15
100
AcDbEllipse
 10
58.1045313983
 20
133.2382604061
 30
0.0
 11
2.15664921654195
 21
3.149035452977159
 31
0.0
210
0.0
220
0.0
230
1.0
 40
0.6401414518
 41
0.0
 42
6.283185307179586
  0
ARC
  5
1D7
330
1F
100
AcDbEntity
  8
0
  6
Continuous
 62
     7
370
    15
100
AcDbCircle
 10
70.3194431749
 20
115.6734014464
 30
0.0
 40
31.5
100
AcDbArc
 50
97.5651530928
 51
262.4348469072
  0
SPLINE
  5
1D8
330
1F
100
AcDbEntity
  8
0
  6
Continuous
 62
     7
370
    15
100
AcDbSpline
210
0.0
220
0.0
230
1.0
 70
    24
 71
     3
 72
    14
 73
    10
 74
     0
 42
0.00000001
 43
0.00000001
 12
1.0
 22
0.0
 32
0.0
 13
1.0
 23
0.0
 33
0.0
 40
0.0
 40
0.0
 40
0.0
 40
0.0
 40
0.1588466490501501
 40
0.3173292880511836
 40
0.4720156931684416
 40
0.6236411575045351
 40
0.7746608764108242
 40
0.9277397165459511
 40
0.9999999999999999
 40
0.9999999999999999
 40
0.9999999999999999
 40
0.9999999999999999
 10
70.31944317491495
 20
160.0688035202493
 30
0.0
 10
70.31944317491495
 20
160.1100769526251
 30
0.0
 10
70.31944317491494
 20
160.1925292359408
 30
0.0
 10
70.31944317491505
 20
160.3321630216652
 30
0.0
 10
70.31944317491461
 20
160.4620723044575
 30
0.0
 10
70.31944317491505
 20
160.5697448183095
 30
0.0
 10
70.31944317491494
 20
160.6439697933739
 30
0.0
 10
70.31944317491497
 20
160.6738620265581
 30
0.0
 10
70.31944317491497
 20
160.6734412945746
 30
0.0
 10
70.31944317491497
 20
160.6733063769807
 30
0.0
  0
SPLINE
  5
1D9
330
1F
100
AcDbEntity
  8
0
  6
Continuous
 62
     7
370
    15
100
AcDbSpline
210
0.0
220
0.0
230
1.0
 70
     8
 71
     3
 72
    10
 73
     6
 74
     0
 42
0.00000001
 43
0.00000001
 12
1.0
 22
0.0
 32
0.0
 13
1.0
 23
0.0
 33
0.0
 40
0.0
 40
0.0
 40
0.0
 40
0.0
 40
0.2789472040157244
 40
0.5613894116859227
 40
1.0
 40
1.0
 40
1.0
 40
1.0
 10
70.31944317491508
 20
160.6733063769807
 30
0.0
 10
70.68714556266916
 20
160.6254609478778
 30
0.0
 10
71.42715737911716
 20
160.5291706215749
 30
0.0
 10
72.76047634112385
 20
160.3662828261105
 30
0.0
 10
73.71115375120593
 20
160.2425575537132
 30
0.0
 10
74.28944313647045
 20
160.1672964704503
 30
0.0
  0
SPLINE
  5
1DA
330
1F
100
AcDbEntity
  8
0
  6
Continuous
 62
     7
370
    15
100
AcDbSpline
210
0.0
220
0.0
230
1.0
 70
    24
 71
     3
 72
    14
 73
    10
 74
     0
 42
0.00000001
 43
0.00000001
 12
1.0
 22
0.0
 32
0.0
 13
1.0
 23
0.0
 33
0.0
 40
0.0
 40
0.0
 40
0.0
 40
0.0
 40
0.1583369871849852
 40
0.3167997819955632
 40
0.4713808899236036
 40
0.6221208124106451
 40
0.7721279964241003
 40
0.9245945576482371
 40
1.0
 40
1.0
 40
1.0
 40
1.0
 10
74.28944313647044
 20
160.1672964704503
 30
0.0
 10
74.28944313647044
 20
160.1667994009147
 30
0.0
 10
74.28944313647045
 20
160.1658048668938
 30
0.0
 10
74.28944313647044
 20
160.1499747998614
 30
0.0
 10
74.28944313647045
 20
160.1256279293698
 30
0.0
 10
74.28944313647044
 20
160.0950374467226
 30
0.0
 10
74.28944313647045
 20
160.0619096564742
 30
0.0
 10
74.28944313647044
 20
160.0347104538796
 30
0.0
 10
74.28944313647044
 20
160.0203367275662
 30
0.0
 10
74.28944313647044
 20
160.0155802977552
 30
0.0
  0
LINE
  5
1DB
330
1F
100
AcDbEntity
  8
0
  6
Continuous
 62
     7
370
    15
100
AcDbLine
 10
74.2894431365
 20
151.3693901313
 30
0.0
 11
74.2894431365
 21
160.0155802978
 31
0.0
  0
LINE
  5
1DC
330
1F
100
AcDbEntity
  8
0
  6
Continuous
 62
     7
370
    15
100
AcDbLine
 10
70.3194431749
 20
151.0273339761
 30
0.0
 11
70.3194431749
 21
160.0688035202
 31
0.0
  0
SPLINE
  5
1DD
330
1F
100
AcDbEntity
  8
0
  6
Continuous
 62
     7
370
    15
100
AcDbSpline
210
0.0
220
0.0
230
1.0
 70
    24
 71
     3
 72
    10
 73
     6
 74
     0
 42
0.00000001
 43
0.00000001
 12
1.0
 22
0.0
 32
0.0
 13
1.0
 23
0.0
 33
0.0
 40
0.0
 40
0.0
 40
0.0
 40
0.0
 40
0.265718706660974
 40
0.6164827362969374
 40
1.0
 40
1.0
 40
1.0
 40
1.0
 10
74.28944313647044
 20
151.3693901312818
 30
0.0
 10
74.28944313647044
 20
151.3626122815332
 30
0.0
 10
74.28944313647044
 20
151.3468872789104
 30
0.0
 10
74.28944313647044
 20
151.3285760012884
 30
0.0
 10
74.28944313647044
 20
151.3248268819913
 30
0.0
 10
74.28944313647044
 20
151.3228687060346
 30
0.0
  0
SPLINE
  5
1DE
330
1F
100
AcDbEntity
  8
0
  6
Continuous
 62
     7
370
    15
100
AcDbSpline
210
0.0
220
0.0
230
1.0
 70
    24
 71
     3
 72
    10
 73
     6
 74
     0
 42
0.00000001
 43
0.00000001
 12
1.0
 22
0.0
 32
0.0
 13
1.0
 23
0.0
 33
0.0
 40
0.0
 40
0.0
 40
0.0
 40
0.0
 40
0.3518080195657378
 40
0.7034219707727345
 40
1.0
 40
1.0
 40
1.0
 40
1.0
 10
70.31944317491501
 20
150.8412520003785
 30
0.0
 10
70.31944317491501
 20
150.848048845263
 30
0.0
 10
70.31944317491501
 20
150.8616387856786
 30
0.0
 10
70.319443174915
 20
150.9313790728166
 30
0.0
 10
70.31944317491501
 20
150.9972122365926
 30
0.0
 10
70.31944317491501
 20
151.027333976077
 30
0.0
  0
LINE
  5
1DF
330
1F
100
AcDbEntity
  8
0
  6
Continuous
 62
     7
370
    15
100
AcDbLine
 10
70.3194431749
 20
150.2832705689
 30
0.0
 11
70.6194431892
 21
150.3219092799
 31
0.0
  0
LINE
  5
1E0
330
1F
100
AcDbEntity
  8
0
  6
Continuous
 62
     7
370
    15
100
AcDbLine
 10
70.3194431749
 20
150.2832705689
 30
0.0
 11
70.3194431749
 21
150.8412520004
 31
0.0
  0
CIRCLE
  5
1E1
330
1F
100
AcDbEntity
  8
VERMASSUNG
  6
CENTERX2
100
AcDbCircle
 10
70.3194431749
 20
120.6224782703
 30
0.0
 40
39.99999999999999
  0
DIMENSION
  5
1E2
330
1F
100
AcDbEntity
  8
VERMASSUNG
100
AcDbDimension
  2
_D_5
 10
46.6073932766
 20
152.8364300555
 30
0.0
 11
40.350468928
 21
161.3367604848
 31
0.0
 70
   160
  1
%%c<> min. 
 71
     2
 42
-1.0
  3
SLDDIMSTYLE3
100
AcDbAlignedDimension
 13
94.0314930732
 23
88.4085264851
 33
0.0
 14
46.6073932766
 24
152.8364300555
 34
0.0
 50
-53.643953768
100
AcDbRotatedDimension
  0
INSERT
  5
1FC
330
1F
100
AcDbEntity
  8
VERMASSUNG
100
AcDbBlockReference
  2
SW_CENTERMARKSYMBOL_0
 10
70.3194431749
 20
115.6734014464
 30
0.0
  0
OLE2FRAME
  5
1FD
330
1F
100
AcDbEntity
  8
0
100
AcDbOle2Frame
 70
     2
  3
Paintbrush-Bild
 10
13.8511154363
 20
38.264191557
 30
0.0
 11
51.6290888628
 21
31.9806341108
 31
0.0
 71
     2
 72
     0
 73
     1
 90
    12928
310
80552BED0767C5B32B40DDAF6807D121434000000000000000006FFBDDFB85D0
310
4940DDAF6807D121434000000000000000006FFBDDFB85D04940416F4BD60AFB
310
3F4000000000000000002BED0767C5B32B40416F4BD60AFB3F40000000000000
310
0000000000000100000000010000010000000100000000000100000000320000
310
D0CF11E0A1B11AE1000000000000000000000000000000003E000300FEFF0900
310
0600000000000000000000000100000001000000000000000010000002000000
310
01000000FEFFFFFF0000000000000000FFFFFFFFFFFFFFFFFFFFFFFFFFFFFFFF
310
FFFFFFFFFFFFFFFFFFFFFFFFFFFFFFFFFFFFFFFFFFFFFFFFFFFFFFFFFFFFFFFF
310
FFFFFFFFFFFFFFFFFFFFFFFFFFFFFFFFFFFFFFFFFFFFFFFFFFFFFFFFFFFFFFFF
310
FFFFFFFFFFFFFFFFFFFFFFFFFFFFFFFFFFFFFFFFFFFFFFFFFFFFFFFFFFFFFFFF
310
FFFFFFFFFFFFFFFFFFFFFFFFFFFFFFFFFFFFFFFFFFFFFFFFFFFFFFFFFFFFFFFF
310
FFFFFFFFFFFFFFFFFFFFFFFFFFFFFFFFFFFFFFFFFFFFFFFFFFFFFFFFFFFFFFFF
310
FFFFFFFFFFFFFFFFFFFFFFFFFFFFFFFFFFFFFFFFFFFFFFFFFFFFFFFFFFFFFFFF
310
FFFFFFFFFFFFFFFFFFFFFFFFFFFFFFFFFFFFFFFFFFFFFFFFFFFFFFFFFFFFFFFF
310
FFFFFFFFFFFFFFFFFFFFFFFFFFFFFFFFFFFFFFFFFFFFFFFFFFFFFFFFFFFFFFFF
310
FFFFFFFFFFFFFFFFFFFFFFFFFFFFFFFFFFFFFFFFFFFFFFFFFFFFFFFFFFFFFFFF
310
FFFFFFFFFFFFFFFFFFFFFFFFFFFFFFFFFFFFFFFFFFFFFFFFFFFFFFFFFFFFFFFF
310
FFFFFFFFFFFFFFFFFFFFFFFFFFFFFFFFFFFFFFFFFFFFFFFFFFFFFFFFFFFFFFFF
310
FFFFFFFFFFFFFFFFFFFFFFFFFFFFFFFFFFFFFFFFFFFFFFFFFFFFFFFFFFFFFFFF
310
FFFFFFFFFFFFFFFFFFFFFFFFFFFFFFFFFFFFFFFFFFFFFFFFFFFFFFFFFFFFFFFF
310
FDFFFFFFFEFFFFFFFEFFFFFFFEFFFFFF05000000060000000700000008000000
310
090000000A0000000B0000000C0000000D0000000E0000000F00000010000000
310
11000000120000001300000014000000150000001600000017000000FEFFFFFF
310
FFFFFFFFFFFFFFFFFFFFFFFFFFFFFFFFFFFFFFFFFFFFFFFFFFFFFFFFFFFFFFFF
310
FFFFFFFFFFFFFFFFFFFFFFFFFFFFFFFFFFFFFFFFFFFFFFFFFFFFFFFFFFFFFFFF
310
FFFFFFFFFFFFFFFFFFFFFFFFFFFFFFFFFFFFFFFFFFFFFFFFFFFFFFFFFFFFFFFF
310
FFFFFFFFFFFFFFFFFFFFFFFFFFFFFFFFFFFFFFFFFFFFFFFFFFFFFFFFFFFFFFFF
310
FFFFFFFFFFFFFFFFFFFFFFFFFFFFFFFFFFFFFFFFFFFFFFFFFFFFFFFFFFFFFFFF
310
FFFFFFFFFFFFFFFFFFFFFFFFFFFFFFFFFFFFFFFFFFFFFFFFFFFFFFFFFFFFFFFF
310
FFFFFFFFFFFFFFFFFFFFFFFFFFFFFFFFFFFFFFFFFFFFFFFFFFFFFFFFFFFFFFFF
310
FFFFFFFFFFFFFFFFFFFFFFFFFFFFFFFFFFFFFFFFFFFFFFFFFFFFFFFFFFFFFFFF
310
FFFFFFFFFFFFFFFFFFFFFFFFFFFFFFFFFFFFFFFFFFFFFFFFFFFFFFFFFFFFFFFF
310
FFFFFFFFFFFFFFFFFFFFFFFFFFFFFFFFFFFFFFFFFFFFFFFFFFFFFFFFFFFFFFFF
310
FFFFFFFFFFFFFFFFFFFFFFFFFFFFFFFFFFFFFFFFFFFFFFFFFFFFFFFFFFFFFFFF
310
FFFFFFFFFFFFFFFFFFFFFFFFFFFFFFFFFFFFFFFFFFFFFFFFFFFFFFFFFFFFFFFF
310
FFFFFFFFFFFFFFFFFFFFFFFFFFFFFFFFFFFFFFFFFFFFFFFFFFFFFFFFFFFFFFFF
310
52006F006F007400200045006E00740072007900000000000000000000000000
310
0000000000000000000000000000000000000000000000000000000000000000
310
16000500FFFFFFFFFFFFFFFF020000000A00030000000000C000000000000046
310
000000000000000000000000D020E4932138CD0103000000C000000000000000
310
01004F006C006500000000000000000000000000000000000000000000000000
310
0000000000000000000000000000000000000000000000000000000000000000
310
0A000200FFFFFFFFFFFFFFFFFFFFFFFF00000000000000000000000000000000
310
0000000000000000000000000000000000000000000000001400000000000000
310
010043006F006D0070004F0062006A0000000000000000000000000000000000
310
0000000000000000000000000000000000000000000000000000000000000000
310
120002010100000003000000FFFFFFFF00000000000000000000000000000000
310
0000000000000000000000000000000000000000010000004D00000000000000
310
01004F006C006500310030004E00610074006900760065000000000000000000
310
0000000000000000000000000000000000000000000000000000000000000000
310
1A000200FFFFFFFFFFFFFFFFFFFFFFFF00000000000000000000000000000000
310
0000000000000000000000000000000000000000040000002426000000000000
310
FEFFFFFF02000000FEFFFFFFFFFFFFFFFFFFFFFFFFFFFFFFFFFFFFFFFFFFFFFF
310
FFFFFFFFFFFFFFFFFFFFFFFFFFFFFFFFFFFFFFFFFFFFFFFFFFFFFFFFFFFFFFFF
310
FFFFFFFFFFFFFFFFFFFFFFFFFFFFFFFFFFFFFFFFFFFFFFFFFFFFFFFFFFFFFFFF
310
FFFFFFFFFFFFFFFFFFFFFFFFFFFFFFFFFFFFFFFFFFFFFFFFFFFFFFFFFFFFFFFF
310
FFFFFFFFFFFFFFFFFFFFFFFFFFFFFFFFFFFFFFFFFFFFFFFFFFFFFFFFFFFFFFFF
310
FFFFFFFFFFFFFFFFFFFFFFFFFFFFFFFFFFFFFFFFFFFFFFFFFFFFFFFFFFFFFFFF
310
FFFFFFFFFFFFFFFFFFFFFFFFFFFFFFFFFFFFFFFFFFFFFFFFFFFFFFFFFFFFFFFF
310
FFFFFFFFFFFFFFFFFFFFFFFFFFFFFFFFFFFFFFFFFFFFFFFFFFFFFFFFFFFFFFFF
310
FFFFFFFFFFFFFFFFFFFFFFFFFFFFFFFFFFFFFFFFFFFFFFFFFFFFFFFFFFFFFFFF
310
FFFFFFFFFFFFFFFFFFFFFFFFFFFFFFFFFFFFFFFFFFFFFFFFFFFFFFFFFFFFFFFF
310
FFFFFFFFFFFFFFFFFFFFFFFFFFFFFFFFFFFFFFFFFFFFFFFFFFFFFFFFFFFFFFFF
310
FFFFFFFFFFFFFFFFFFFFFFFFFFFFFFFFFFFFFFFFFFFFFFFFFFFFFFFFFFFFFFFF
310
FFFFFFFFFFFFFFFFFFFFFFFFFFFFFFFFFFFFFFFFFFFFFFFFFFFFFFFFFFFFFFFF
310
FFFFFFFFFFFFFFFFFFFFFFFFFFFFFFFFFFFFFFFFFFFFFFFFFFFFFFFFFFFFFFFF
310
FFFFFFFFFFFFFFFFFFFFFFFFFFFFFFFFFFFFFFFFFFFFFFFFFFFFFFFFFFFFFFFF
310
FFFFFFFFFFFFFFFFFFFFFFFFFFFFFFFFFFFFFFFFFFFFFFFFFFFFFFFFFFFFFFFF
310
0100000200000000000000000000000000000000000000000000000000000000
310
0000000000000000000000000000000000000000000000000000000000000000
310
0100FEFF030A0000FFFFFFFF0A00030000000000C00000000000004607000000
310
5042727573680007000000504272757368000700000050427275736800F439B2
310
7100000000000000000000000000000000000000000000000000000000000000
310
0000000000000000000000000000000000000000000000000000000000000000
310
0000000000000000000000000000000000000000000000000000000000000000
310
0000000000000000000000000000000000000000000000000000000000000000
310
0000000000000000000000000000000000000000000000000000000000000000
310
0000000000000000000000000000000000000000000000000000000000000000
310
0000000000000000000000000000000000000000000000000000000000000000
310
0000000000000000000000000000000000000000000000000000000000000000
310
0000000000000000000000000000000000000000000000000000000000000000
310
0000000000000000000000000000000000000000000000000000000000000000
310
0000000000000000000000000000000000000000000000000000000000000000
310
0000000000000000000000000000000000000000000000000000000000000000
310
20260000424D0E260000000000003E00000028000000B40200006E0000000100
310
01000000000000000000130B0000130B00000200000002000000000000FFFFFF
310
FFFFFFFFFFFFFFFFFFFFFFFFFFFFFFFFFFFFFFFFFFFFFFFFFFFFFFFFFFFFFFFF
310
FFFFFFFFFFFFFFFFFFFFFFFFFFFFFFFFFFFFFFFFFFFFFFFFFFFFFFFFFFFFFFFF
310
FFFFFFFFFFFFFFFFFFFFFFFFFFFFFFFFFFFFFFFFFFFFFFFFF000FFFFFFFFFFFF
310
FFFFFFFFFFFFFFFFFFFFFFFFFFFFFFFFFFFFFFFFFFFFFFFFFFFFFFFFFFFFFFFF
310
FFFFFFFFFFFFFFFFFFFFFFFFFFFFFFFFFFFFFFFFFFFFFFFFFFFFFFFFFFFFFFFF
310
FFFFFFFFFFFFFFFFFFFFFFFFFFFFFFFFF000FFFFFFFFFFFFFFFFFFFFFFFFFFFF
310
FFFFFFFFFFFFFFFFFFFFFFFFFFFFFFFFFFFFFFFFFFFFFFFFFFFFFFFFFFFFFFFF
310
FFFFFFFFFFFFFFFFFFFFFFFFFFFFFFFFFFFFFFFFFFFFFFFFFFFFFFFFFFFFFFFF
310
FFFFFFFFFFFFFFFFF000FFFFFFFFFFFFFFFFFFFFFFFFFFFFFFFFFFFFFFFFFFFF
310
FFFFFFFFFFFFFFFFFFFFFFFFFFFFFFFFFFFFFFFFFFFFFFFFFFFFFFFFFFFFFFFF
310
FFFFFFFFFFFFFFFFFFFFFFFFFFFFFFFFFFFFFFFFFFFFFFFFFFFFFFFFFFFFFFFF
310
F000FFFFFFFFFFFFFFFFFFFFFFFFFFFFFFFFFFFFFFFFFFFFFFFFFFFFFFFFFFFF
310
FFFFFFFFFFFFFFFFFFFFFFFFFFFFFFFFFFFFFFFFFFFFFFFFFFFFFFFFFFFFFFFF
310
FFFFFFFFFFFFFFFFFFFFFFFFFFFFFFFFFFFFFFFFFFFFFFFFF000FFFFFFFFFFFF
310
FFFFFFFFFFFFFFFFFFFFFFFFFFFFFFFFFFFFFFFFFFFFFFFFFFFFFFFFFFFFFFFF
310
FFFFFFFFFFFFFFFFFFFFFFFFFFFFFFFFFFFFFFFFFFFFFFFFFFFFFFFFFFFFFFFF
310
FFFFFFFFFFFFFFFFFFFFFFFFFFFFFFFFF000FFFFFFFFFFFFFFFFFFFFFFFFFFFF
310
FFFFFFFFFFFFFFFFFFFFFFFFFFFFFFFFFFFFFFFFFFFFFFFFFFFFFFFFFFFFFFFF
310
FFFFFFFFFFFFFFFFFFFFFFFFFFFFFFFFFFFFFFFFFFFFFFFFFFFFFFFFFFFFFFFF
310
FFFFFFFFFFFFFFFFF000FFFFFFFFFFFFFFFFFFFFFFFFFFFFFFFFFFFFFFFFFFFF
310
FFFFFFFFFFFFFFFFFFFFFFFFFFFFFFFFFFFFFFFFFFFFFFFFFFFFFFFFFFFFFFFF
310
FFFFFFFFFFFFFFFFFFFFFFFFFFFFFFFFFFFFFFFFFFFFFFFFFFFFFFFFFFFFFFFF
310
F000FFFFFFFFFFFFFFFFFFFFFFFFFFFFFFFFFFFFFFFFFFFFFFFFFFFFFFFFFFFF
310
FFFFFFFFFFFFFFFFFFFFFFFFFFFFFFFFFFFFFFFFFFFFFFFFFFFFFFFFFFFFFFFF
310
FFFFFFFFFFFFFFFFFFFFFFFFFFFFFFFFFFFFFFFFFFFFFFFFF000FFFFFFFFFFFF
310
FFFFFFFFFFFFFFFFFFFFFFFFFFFFFFFFFFFFFFFFFFFFFFFFFFFFFFFFFFFFFFFF
310
FFFFFFFFFFFFFFFFFFFFFFFFFFFFFFFFFFFFFFFFFFFFFFFFFFFFFFFFFFFFFFFF
310
FFFFFFFFFFFFFFFFFFFFFFFFFFFFFFFFF000FFFFFFFFFFFFFFFFFFFFFFFFFFFF
310
FFFFFFFFFFFFFFFFFFFFFFFFFFFFFFFFFFFFFFFFFFFFFFFFFFFFFFFFFFFFFFFF
310
FFFFFFFFFFFFFFFFFFFFFFFFFFFFFFFFFFFFFFFFFFFFFFFFFFFFFFFFFFFFFFFF
310
FFFFFFFFFFFFFFFFF000FFFFFFFFFFFFFFFFFFFFFFFFFFFFFFFFFFFFFFFFFFFF
310
FFFFFFFFFFFFFFFFFFFFFFFFFFFFFFFFFFFFFFFFFFFFFFFFFFFFFFFFFFFFFFFF
310
FFFFFFFFFFFFFFFFFFFFFFFFFFFFFFFFFFFFFFFFFFFFFFFFFFFFFFFFFFFFFFFF
310
F000FFFFFFFFFFFFFFFFFFFFFFFFFFFFFFFFFFFFFFFFFFFFFFFFFFFFFFFFFFFF
310
FFFFFFFFFFFFFFFFFFFFFFFFFFFFFFFFFFFFFFFFFFFFFFFFFFFFFFFFFFFFFFFF
310
FFFFFFFFFFFFFFFFFFFFFFFFFFFFFFFFFFFFFFFFFFFFFFFFF000FFFFFFFFFFFF
310
FFFFFFFFFFFFFFFFFFFFFFFFFFFFFFFFFFFFFFFFFFFFFFFFFFFFFFFFFFFFFFFF
310
FFFFFFFFFFFFFFFFFFFFFFFFFFFFFFFFFFFFFFFFFFFFFFFFFFFFFFFFFFFFFFFF
310
FFFFFFFFFFFFFFFFFFFFFFFFFFFFFFFFF000FFFFFFFFFFFFFFFFFFFFFFFFFFFF
310
FFFFFFFFFFFFFFFFFFFFFFFFFFFFFFFFFFFFFFFFFFFFFFFFFFFFFFFFFFFFFFFF
310
FFFFFFFFFFFFFFFFFFFFFFFFFFFFFFFFFFFFFFFFFFFFFFFFFFFFFFFFFFFFFFFF
310
FFFFFFFFFFFFFFFFF000FFFFFFFFFFFFFFFFFFFFFFFFFFFFFFFFFFFFFFFFFFFF
310
FFFFFFFFFFFFFFFFFFFFFFFFFFFFFFFFFFFFFFFFFFFFFFFFFFFFFFFFFFFFFFFF
310
FFFFFFFFFFFFFFFFFFFFFFFFFFFFFFFFFFFFFFFFFFFFFFFFFFFFFFFFFFFFFFFF
310
F000FFFFFFFFFFFFFFFFFFFFFFFFFFFFFFFFFFFFFFFFFFFFFFFFFFFFFFFFFFFF
310
FFFFFFFFFFFFFFFFFFFFFFFFFFFFFFFFFFFFFFFFFFFFFFFFFFFFFFFFFFFFFFFF
310
FFFFFFFFFFFFFFFFFFFFFFFFFFFFFFFFFFFFFFFFFFFFFFFFF000FFFFFFFFFFFF
310
FFFFFFFFFFFFFFFFFFFFFFFFFFFFFFFFFFFFFFFFFFFFFFFFFFFFFFFFFFFFFFFF
310
FFFFFFFFFFFFFFFFFFFFFFFFFFFFFFFFFFFFFFFFFFFFFFFFFFFFFFFFFFFFFFFF
310
FFFFFFFFFFFFFFFFFFFFFFFFFFFFFFFFF000FFFFFFFFFFFFFFFFFFFFFFFFFFFF
310
FFFFFFFFFFFFFFFFFFFFFFFFFFFFFFFFFFFFFFFFFFFFFFFFFFFFFFFFFFFFFFFF
310
FFFFFFFFFFFFFFFFFFFFFFFFFFFFFFFFFFFFFFFFFFFFFFFFFFFFFFFFFFFFFFFF
310
FFFFFFFFFFFFFFFFF000FFFFF80003FFFFFFFFFFFFFFFFFFFFFFFFFFFFFFFFFF
310
FFFFF00007FFFFFFFFFF00007FFFFFF800000000000000007FFFFFFFFFFFFFFF
310
FFFFFFFC001FFFFFFFFFFFFFFC001FFFFFFFFFFFFFFFFFFFFFFFFFFE0007FFFF
310
F000FFFF8000007FFFFFFFF8000FFFFFC0007FFFFF80007FFFFF0000007FFFFF
310
FFF8000007FFFFF800000000000000007FFFFFF0001FFFFFFFFFFFC00001FFFF
310
FFFFFFFFC00001FFFFFFFF000000000003FFFFE000007FFFF000FFFE0000000F
310
FFFFFFF0000FFFFF80007FFFFF80007FFFFC0000001FFFFFFFC0000001FFFFF8
310
00000000000000007FFFFFF0001FFFFFFFFFFE0000003FFFFFFFFFFE0000003F
310
FFFFFF000000000003FFFF0000000FFFF000FFF800000003FFFFFFF00007FFFF
310
80007FFFFF80007FFFF000000007FFFFFF000000003FFFF80000000000000000
310
7FFFFFF0001FFFFFFFFFF80000000FFFFFFFFFF80000000FFFFFFF0000000000
310
03FFFC00000003FFF000FFE000000000FFFFFFF00007FFFF80003FFFFF80007F
310
FFC000000001FFFFFC000000001FFFF800000000000000007FFFFFF0001FFFFF
310
FFFFE000000003FFFFFFFFE000000003FFFFFF000000000003FFF000000000FF
310
F000FF80000000007FFFFFF00007FFFF80003FFFFF80007FFF8000000000FFFF
310
F80000000007FFF800000000000000007FFFFFF0001FFFFFFFFFC000000001FF
310
FFFFFFC000000001FFFFFF000000000003FFC0000000007FF000FF0000000000
310
3FFFFFE00007FFFF00003FFFFF80007FFE00000000003FFFF00000000003FFF8
310
00000000000000007FFFFFF0001FFFFFFFFF8000000000FFFFFFFF8000000000
310
FFFFFF000000000003FF80000000003FF000FE00000000001FFFFFE00003FFFF
310
00003FFFFF80007FFC00000000001FFFE00000000001FFF8000001FFFE000000
310
7FFFFFF0001FFFFFFFFE00000000003FFFFFFE00000000003FFFFF0000000000
310
03FF00000000001FF000FC00000000000FFFFFE00003FFFF00001FFFFF80007F
310
F800000000001FFFC00000000000FFF8000001FFFE0000007FFFFFF0001FFFFF
310
FFFC00000000001FFFFFFC00000000001FFFFF000000000003FE00000000000F
310
F000F8000000000007FFFFE00003FFFF00001FFFFF80007FF800000000000FFF
310
800000000000FFF8000001FFFE0000007FFFFFF0001FFFFFFFF800000000000F
310
FFFFF800000000000FFFFF000000000003FC000000000007F000F80000000000
310
03FFFFC00003FFFE00001FFFFF80007FF0000000000007FF0000000000007FF8
310
000001FFFE0000007FFFFFF0001FFFFFFFF0000000000007FFFFF00000000000
310
07FFFF000000000003F8000000000003F000F0000000000003FFFFC00001FFFE
310
00001FFFFF80007FE0000000000007FE0000000000003FF8000001FFFE000000
310
7FFFFFF0001FFFFFFFF0000000000007FFFFF0000000000007FFFF0000000000
310
03F800001F800003F000E00001FFF00001FFFFC00001FFFE00000FFFFF80007F
310
E00001FFE00003FE00001FFF00003FF8000001FFFE0000007FFFFFF0001FFFFF
310
FFE000003E000003FFFFE000003E000003FFFF000000000003F00001FFF80001
310
F000E00007FFFC0001FFFFC00001FFFE00000FFFFF80007FC0000FFFFC0003FC
310
0000FFFFC0001FF8000001FFFE0000007FFFFFF0001FFFFFFFC00003FFE00001
310
FFFFC00003FFE00001FFFF0001FFFFFFFFF00007FFFE0001F000E0000FFFFF00
310
00FFFF800001FFFC00000FFFFF80007FC0001FFFFE0001FC0001FFFFE0001FF8
310
000001FFFE0000007FFFFFF0001FFFFFFF80000FFFF80000FFFF80000FFFF800
310
00FFFF0003FFFFFFFFE0000FFFFF8000F000C0003FFFFF8000FFFF800000FFFC
310
000007FFFF80007F80003FFFFF0001FC0003FFFFF0001FF8000001FFFE000000
310
7FFFFFF0001FFFFFFF80003FFFFE0000FFFF80003FFFFE0000FFFF0003FFFFFF
310
FFE0003FFFFF8000F000C0003FFFFF8000FFFF800000FFFC000007FFFF80007F
310
80007FFFFF8001F80007FFFFF8000FF8000001FFFE0000007FFFFFF0001FFFFF
310
FF00007FFFFF00007FFF00007FFFFF00007FFF0003FFFFFFFFE0003FFFFFC000
310
F000C0007FFFFFC000FFFF000000FFFC000007FFFF80007F8000FFFFFF8000F8
310
000FFFFFF8000FF8000001FFFE0000007FFFFFF0001FFFFFFF0000FFFFFF8000
310
7FFF0000FFFFFF80007FFF0003FFFFFFFFC0007FFFFFC00070008000FFFFFFC0
310
00FFFF000000FFF8000007FFFF80007F8000FFFFFF8000F8000FFFFFF8000FF8
310
000001FFFE0000007FFFFFF0001FFFFFFE0001FFFFFFC0003FFE0001FFFFFFC0
310
003FFF0003FFFFFFFFC0007FFFFFE00070008000FFFFFFC0007FFF0000007FF8
310
000003FFFF80007F0001FFFFFF8000F8000FFFFFF8000FF8000001FFFE000000
310
7FFFFFF0001FFFFFFE0001FFFFFFC0003FFE0001FFFFFFC0003FFF0003FFFFFF
310
FFC000FFFFFFE00070008000FFFFFFC0007FFF0000007FF8000003FFFF80007F
310
0001FFFFFF8000F8001FFFFFF8000FF8000001FFFE0000007FFFFFF0001FFFFF
310
FE0003FFFFFFE0003FFE0003FFFFFFE0003FFF0003FFFFFFFFC000FFFFFFE000
310
70008000FFFFFFC0007FFE0000007FF8000003FFFF80007F0001FFFFFF8000F0
310
001FFFFFF8000FF8000001FFFE0000007FFFFFF0001FFFFFFC0003FFFFFFE000
310
1FFC0003FFFFFFE0001FFF0003FFFFFFFFC000FFFFFFC00070008000FFFFFF80
310
007FFE0000007FF0000003FFFF80007F0001FFFFFF0000F0001FFFFFF8000FF8
310
000001FFFE0000007FFFFFF0001FFFFFFC0007FFFFFFF0001FFC0007FFFFFFF0
310
001FFF0003FFFFFFFFC000FFFFFFC00070008001FFFFFF0000FFFE0000003FF0
310
000001FFFF80007F0001FFFFFF0000F8001FFFFFF0000FF8000001FFFE000000
310
7FFFFFF0001FFFFFFC0007FFFFFFF0001FFC0007FFFFFFF0001FFF0003FFFFFF
310
FFC001FFFFFF80007000FFFFFFFFFE0000FFFE0008003FF0008001FFFF80007F
310
FFFFFFFFFC0000FFFFFFFFFFE0000FF8000001FFFE0000007FFFFFF0001FFFFF
310
F8000FFFFFFFF8000FF8000FFFFFFFF8000FFF0003FFFFFFFFFFFFFFFFFF0000
310
7000FFFFFFFFFC0000FFFC0008003FF0008001FFFF80007FFFFFFFFFF80001FF
310
FFFFFFFF80000FF8000001FFFE0000007FFFFFF0001FFFFFF8000FFFFFFFF800
310
0FF8000FFFFFFFF8000FFF0003FFFFFFFFFFFFFFFFFE0000F000FFFFFFFFE000
310
00FFFC000C003FE000C001FFFF80007FFFFFFFFFC00001FFFFFFFFFE00001FF8
310
000001FFFE0000007FFFFFF0001FFFFFF8000FFFFFFFF8000FF8000FFFFFFFF8
310
000FFF0003FFFFFFFFFFFFFFFFF00000F000FFFFFFFE000001FFFC000C001FE0
310
00C000FFFF80007FFFFFFFFE000001FFFFFFFFE000001FF80FFFFFFFFFFFFFC0
310
7FFFFFF0001FFFFFF8000FFFFFFFF8000FF8000FFFFFFFF8000FFF0003FFFFFF
310
FFFFFFFFFF800000F000FFFFFFC0000001FFFC001C001FE001C000FFFF80007F
310
FFFFFF80000003FFFFFFF80000001FF80FFFFFFFFFFFFFC07FFFFFF0001FFFFF
310
F8001FFFFFFFFC000FF8001FFFFFFFFC000FFF0003FFFFFFFFFFFFFFF0000001
310
F000FFFFF800000001FFF8001C001FE001C000FFFF80007FFFFFF800000003FF
310
FFFF800000003FF80FFFFFFFFFFFFFC07FFFFFF0001FFFFFF8001FFFFFFFFC00
310
0FF8001FFFFFFFFC000FFF0003FFFFFFFFFFFFFE00000001F000FFFFC0000000
310
03FFF8001E001FC001E000FFFF80007FFFFF8000000007FFFFFC000000003FF8
310
0FFFFFFFFFFFFFC07FFFFFF0001FFFFFF8001FFFFFFFFC000FF8001FFFFFFFFC
310
000FFF0003FFFFFFFFFFFFE000000003F000FFFE0000000007FFF8001E000FC0
310
01E0007FFF80007FFFFE0000000007FFFFE0000000007FF80FFFFFFFFFFFFFC0
310
7FFFFFF0001FFFFFF0001FFFFFFFFC0007F0001FFFFFFFFC0007FF0003FFFFFF
310
FFFFFF0000000003F000FFF80000000007FFF8001E000FC003E0007FFF80007F
310
FFF0000000000FFFFF8000000000FFF80FFFFFFFFFFFFFC07FFFFFF0001FFFFF
310
F0001FFFFFFFFC0007F0001FFFFFFFFC0007FF0003FFFFFFFFFFFC0000000007
310
F000FFE0000000000FFFF0003E000FC003E0007FFF80007FFFC0000000001FFF
310
FE0000000001FFF80FFFFFFFFFFFFFC07FFFFFF0001FFFFFF0001FFFFFFFFC00
310
07F0001FFFFFFFFC0007FF0003FFFFFFFFFFF0000000000FF000FFC000000000
310
1FFFF0003F000F8003F0003FFF80007FFF80000000003FFFF80000000003FFF8
310
0FFFFFFFFFFFFFC07FFFFFF0001FFFFFF0001FFFFFFFFC0007F0001FFFFFFFFC
310
0007FF0003FFFFFFFFFFE0000000001FF000FF00000000007FFFF0003F000780
310
03F0003FFF80007FFF00000000007FFFF00000000007FFF80FFFFFFFFFFFFFC0
310
7FFFFFF0001FFFFFF0001FFFFFFFFC0007F0001FFFFFFFFC0007FF0003FFFFFF
310
FFFF80000000007FF000FE0000000000FFFFE0003F00078007F0003FFF80007F
310
FE0000000001FFFFE0000000001FFFF80FFFFFFFFFFFFFC07FFFFFF0001FFFFF
310
F0001FFFFFFFFC0007F0001FFFFFFFFC0007FF0003FFFFFFFFFF0000000000FF
310
F000FC0000000003FFFFE0007F00078007F0003FFF80007FFC0000000007FFFF
310
C0000000007FFFF80FFFFFFFFFFFFFC07FFFFFF0001FFFFFF8001FFFFFFFFC00
310
0FF8001FFFFFFFFC000FFF0003FFFFFFFFFE0000000003FFF000FC000000000F
310
FFFFE0007F80070007F8001FFF80007FF8000000001FFFFF8000000001FFFFF8
310
0FFFFFFFFFFFFFC07FFFFFF0001FFFFFF8001FFFFFFFFC000FF8001FFFFFFFFC
310
000FFF0003FFFFFFFFFC000000000FFFF000F8000000007FFFFFE0007F800700
310
07F8001FFF80007FF000000000FFFFFF800000000FFFFFF80FFFFFFFFFFFFFC0
310
7FFFFFF0001FFFFFF8000FFFFFFFF8000FF8000FFFFFFFF8000FFF0003FFFFFF
310
FFFC000000007FFFF000F800000007FFFFFFC0007F8003000FF8001FFF80007F
310
F000000007FFFFFF000000007FFFFFF80FFFFFFFFFFFFFC07FFFFFF0001FFFFF
310
F8000FFFFFFFF8000FF8000FFFFFFFF8000FFF0003FFFFFFFFF80000000FFFFF
310
F000F0000000FFFFFFFFC000FF8003000FF8001FFF80007FE0000000FFFFFFFF
310
0000000FFFFFFFF8000001FFFE0000007FFFFFF0001FFFFFF8000FFFFFFFF800
310
0FF8000FFFFFFFF8000FFF0003FFFFFFFFF8000000FFFFFFF000F000000FFFFF
310
FFFFC000FFC002000FF8000FFF80007FE000001FFFFFFFFE000001FFFFFFFFF8
310
000001FFFE0000007FFFFFF0001FFFFFF8000FFFFFFFF8000FF8000FFFFFFFF8
310
000FFF0003FFFFFFFFF000001FFFFFFFF000E00000FFFFFFFFFFC000FFC00200
310
0FFC000FFF80007FE00001FFFFFFFFFE00001FFFFFFFFFF8000001FFFE000000
310
7FFFFFF0001FFFFFFC000FFFFFFFF8001FFC000FFFFFFFF8001FFF0003FFFFFF
310
FFF00001FFFFFFFFF000E00007FFFFFFFFFF8000FFC000001FFC000FFF80007F
310
C0000FFFFFFFFFFE0000FFFFFFFFFFF8000001FFFE0000007FFFFFF0001FFFFF
310
FC0007FFFFFFF0001FFC0007FFFFFFF0001FFF0003FFFFFFFFF00007FFFFFFFF
310
F000E0001FFFFFFFFFFF8000FFC000001FFC000FFF80007FC0003FFFFFFFFFFE
310
0001FFFFFFFFFFF8000001FFFE0000007FFFFFF0001FFFFFFC0007FFFFFFF000
310
1FFC0007FFFFFFF0001FFF0003FFFFFFFFF0001FFFFFFFFFF000E0003FFFFF00
310
03FF8001FFE000001FFC0007FF80007FC0007FFFFF0007FC0003FFFFF0003FF8
310
000001FFFE0000007FFFFFF0001FFFFFFC0003FFFFFFE0001FFC0003FFFFFFE0
310
001FFF0003FFFFFFFFF0003FFFFFFFFFF000E0003FFFFF0001FF8001FFE00000
310
1FFE0007FF80007FC0007FFFFE0003FC0007FFFFE0003FF8000001FFFE000000
310
7FFFFFF0001FFFFFFE0003FFFFFFE0003FFE0003FFFFFFE0003FFF0003FFFFFF
310
FFF0003FFFFF8001F000E0003FFFFF0001FF0001FFE000001FFE0007FF80007F
310
C0007FFFFE0003FC0007FFFFE0003FF8000001FFFE0000007FFFFFF0001FFFFF
310
FE0001FFFFFFC0003FFE0001FFFFFFC0003FFF0003FFFFFFFFF0003FFFFF0001
310
F000E0003FFFFF0003FF0001FFE000003FFE0007FF80007FC0007FFFFE0003FC
310
0007FFFFE0003FF8000001FFFE0000007FFFFFF0001FFFFFFF0001FFFFFFC000
310
7FFF0001FFFFFFC0007FFF0003FFFFFFFFF0003FFFFF0001F000E0003FFFFE00
310
03FF0003FFF000003FFE0003FF80007FC0007FFFFC0003FE0007FFFFE0003FF8
310
000001FFFE0000007FFFFFF0001FFFFFFF0000FFFFFF80007FFF0000FFFFFF80
310
007FFF0003FFFFFFFFF0003FFFFF0001F000E0003FFFFE0003FF0003FFF00000
310
3FFF0003FF80007FC0007FFFFC0007FE0007FFFFC0003FF8000001FFFE000000
310
7FFFFFF0001FFFFFFF80007FFFFF0000FFFF80007FFFFF0000FFFF0003FFFFFF
310
FFF0003FFFFF0003F000E0003FFFFC0003FE0003FFF000003FFF0003FF80007F
310
E0003FFFF80007FE0003FFFFC0007FF8000001FFFE0000007FFFFFF0001FFFFF
310
FF80003FFFFE0000FFFF80003FFFFE0000FFFF0003FFFFFFFFF0001FFFFE0003
310
F000F0001FFFF80003FE0003FFF000007FFF0001FF80007FE0003FFFF00007FE
310
0001FFFF80007FF8000001FFFE0000007FFFFFF0001FFFFFFFC0000FFFF80001
310
FFFFC0000FFFF80001FFFF0003FFFFFFFFF0001FFFFC0003F000F0000FFFF000
310
07FE0007FFF800007FFF0001FF80007FE0001FFFE00007FF0000FFFE00007FF8
310
000001FFFE0000007FFFFFF0001FFFFFFFC00003FFE00001FFFFC00003FFE000
310
01FFFF0003FFFFFFFFF8000FFFF80003F000F00003FFC00007FC0007FFF80000
310
7FFF8001FF80007FF00007FF80000FFF00007FF80000FFF8000001FFFE000000
310
7F80000000000001FFE000003E000003FFFFE000003E000003FFFF0003FFFFFF
310
FFF80003FFE00007F000F800000000000FFC0007FFF800007FFF8001FF80007F
310
F000000000000FFF000000000000FFF8000001FFFE0000007F80000000000001
310
FFF0000000000007FFFFF0000000000007FFFF0003FFFFFFFFFC00007E000007
310
F000F800000000000FFC0007FFF80000FFFF8000FF80007FF800000000001FFF
310
800000000001FFF8000001FFFE0000007F80000000000001FFF800000000000F
310
FFFFF800000000000FFFFF0003FFFFFFFFFC00000000000FF000FC0000000000
310
1FFC0007FFFC0000FFFF8000FF80007FF800000000003FFFC00000000001FFF8
310
000001FFFE0000007F80000000000001FFF800000000000FFFFFF80000000000
310
0FFFFF0003FFFFFFFFFE00000000001FF000FE00000000003FF8000FFFFC0000
310
FFFF8000FF80007FFC00000000003FFFC00000000003FFF8000001FFFE000000
310
7F80000000000001FFFC00000000001FFFFFFC00000000001FFFFF0003FFFFFF
310
FFFF00000000001FF000FF00000000003FF8000FFFFC0000FFFFC000FF80007F
310
FE00000000007FFFE00000000007FFF8000001FFFE0000007F80000000000001
310
FFFE00000000003FFFFFFE00000000003FFFFF0003FFFFFFFFFF80000000003F
310
F000FF80000000007FF8000FFFFC0001FFFFC0007F80007FFF0000000000FFFF
310
F0000000000FFFF800000000000000007F80000000000001FFFF8000000000FF
310
FFFFFF8000000000FFFFFF0003FFFFFFFFFFC0000000007FF000FFC000000000
310
FFF8000FFFFE0001FFFFC0007F80007FFF8000000001FFFFF8000000001FFFF8
310
00000000000000007F80000000000001FFFFC000000001FFFFFFFFC000000001
310
FFFFFF0003FFFFFFFFFFE000000000FFF000FFE000000003FFF0001FFFFE0001
310
FFFFC0007F80007FFFC000000007FFFFFE000000003FFFF80000000000000000
310
7F80000000000001FFFFE000000003FFFFFFFFE000000003FFFFFF0003FFFFFF
310
FFFFF000000003FFF000FFF80000000FFFF0001FFFFE0001FFFFE0007F80007F
310
FFF00000000FFFFFFF00000000FFFFF800000000000000007F80000000000001
310
FFFFF80000000FFFFFFFFFF80000000FFFFFFF0003FFFFFFFFFFFC0000000FFF
310
F000FFFE0000003FFFF0001FFFFE0003FFFFE0003F80007FFFFC0000003FFFFF
310
FFC0000003FFFFF800000000000000007F80000000000001FFFFFE0000003FFF
310
FFFFFFFE0000003FFFFFFF0003FFFFFFFFFFFF0000003FFFF000FFFF800000FF
310
FFF0001FFFFF0003FFFFE0003F80007FFFFF000001FFFFFFFFF800001FFFFFF8
310
00000000000000007F80000000000001FFFFFFC00001FFFFFFFFFFFFC00001FF
310
FFFFFF0003FFFFFFFFFFFFC00000FFFFF000FFFFF8000FFFFFFFFFFFFFFFFFFF
310
FFFFFFFFFFFFFFFFFFFFF0001FFFFFFFFFFF0000FFFFFFF80000000000000000
310
7FFFFFFFFFFFFFFFFFFFFFFC001FFFFFFFFFFFFFFC001FFFFFFFFFFFFFFFFFFF
310
FFFFFFFC001FFFFFF000FFFFFFFFFFFFFFFFFFFFFFFFFFFFFFFFFFFFFFFFFFFF
310
FFFFFFFFFFFFFFFFFFFFFFFFFFFFFFFFFFFFFFFFFFFFFFFFFFFFFFFFFFFFFFFF
310
FFFFFFFFFFFFFFFFFFFFFFFFFFFFFFFFFFFFFFFFFFFFFFFFFFFFFFFFFFFFFFFF
310
F000FFFFFFFFFFFFFFFFFFFFFFFFFFFFFFFFFFFFFFFFFFFFFFFFFFFFFFFFFFFF
310
FFFFFFFFFFFFFFFFFFFFFFFFFFFFFFFFFFFFFFFFFFFFFFFFFFFFFFFFFFFFFFFF
310
FFFFFFFFFFFFFFFFFFFFFFFFFFFFFFFFFFFFFFFFFFFFFFFFF000FFFFFFFFFFFF
310
FFFFFFFFFFFFFFFFFFFFFFFFFFFFFFFFFFFFFFFFFFFFFFFFFFFFFFFFFFFFFFFF
310
FFFFFFFFFFFFFFFFFFFFFFFFFFFFFFFFFFFFFFFFFFFFFFFFFFFFFFFFFFFFFFFF
310
FFFFFFFFFFFFFFFFFFFFFFFFFFFFFFFFF000FFFFFFFFFFFFFFFFFFFFFFFFFFFF
310
FFFFFFFFFFFFFFFFFFFFFFFFFFFFFFFFFFFFFFFFFFFFFFFFFFFFFFFFFFFFFFFF
310
FFFFFFFFFFFFFFFFFFFFFFFFFFFFFFFFFFFFFFFFFFFFFFFFFFFFFFFFFFFFFFFF
310
FFFFFFFFFFFFFFFFF000FFFFFFFFFFFFFFFFFFFFFFFFFFFFFFFFFFFFFFFFFFFF
310
FFFFFFFFFFFFFFFFFFFFFFFFFFFFFFFFFFFFFFFFFFFFFFFFFFFFFFFFFFFFFFFF
310
FFFFFFFFFFFFFFFFFFFFFFFFFFFFFFFFFFFFFFFFFFFFFFFFFFFFFFFFFFFFFFFF
310
F000FFFFFFFFFFFFFFFFFFFFFFFFFFFFFFFFFFFFFFFFFFFFFFFFFFFFFFFFFFFF
310
FFFFFFFFFFFFFFFFFFFFFFFFFFFFFFFFFFFFFFFFFFFFFFFFFFFFFFFFFFFFFFFF
310
FFFFFFFFFFFFFFFFFFFFFFFFFFFFFFFFFFFFFFFFFFFFFFFFF000FFFFFFFFFFFF
310
FFFFFFFFFFFFFFFFFFFFFFFFFFFFFFFFFFFFFFFFFFFFFFFFFFFFFFFFFFFFFFFF
310
FFFFFFFFFFFFFFFFFFFFFFFFFFFFFFFFFFFFFFFFFFFFFFFFFFFFFFFFFFFFFFFF
310
FFFFFFFFFFFFFFFFFFFFFFFFFFFFFFFFF000FFFFFFFFFFFFFFFFFFFFFFFFFFFF
310
FFFFFFFFFFFFFFFFFFFFFFFFFFFFFFFFFFFFFFFFFFFFFFFFFFFFFFFFFFFFFFFF
310
FFFFFFFFFFFFFFFFFFFFFFFFFFFFFFFFFFFFFFFFFFFFFFFFFFFFFFFFFFFFFFFF
310
FFFFFFFFFFFFFFFFF000FFFFFFFFFFFFFFFFFFFFFFFFFFFFFFFFFFFFFFFFFFFF
310
FFFFFFFFFFFFFFFFFFFFFFFFFFFFFFFFFFFFFFFFFFFFFFFFFFFFFFFFFFFFFFFF
310
FFFFFFFFFFFFFFFFFFFFFFFFFFFFFFFFFFFFFFFFFFFFFFFFFFFFFFFFFFFFFFFF
310
F000FFFFFFFFFFFFFFFFFFFFFFFFFFFFFFFFFFFFFFFFFFFFFFFFFFFFFFFFFFFF
310
FFFFFFFFFFFFFFFFFFFFFFFFFFFFFFFFFFFFFFFFFFFFFFFFFFFFFFFFFFFFFFFF
310
FFFFFFFFFFFFFFFFFFFFFFFFFFFFFFFFFFFFFFFFFFFFFFFFF000FFFFFFFFFFFF
310
FFFFFFFFFFFFFFFFFFFFFFFFFFFFFFFFFFFFFFFFFFFFFFFFFFFFFFFFFFFFFFFF
310
FFFFFFFFFFFFFFFFFFFFFFFFFFFFFFFFFFFFFFFFFFFFFFFFFFFFFFFFFFFFFFFF
310
FFFFFFFFFFFFFFFFFFFFFFFFFFFFFFFFF000FFFFFFFFFFFFFFFFFFFFFFFFFFFF
310
FFFFFFFFFFFFFFFFFFFFFFFFFFFFFFFFFFFFFFFFFFFFFFFFFFFFFFFFFFFFFFFF
310
FFFFFFFFFFFFFFFFFFFFFFFFFFFFFFFFFFFFFFFFFFFFFFFFFFFFFFFFFFFFFFFF
310
FFFFFFFFFFFFFFFFF000FFFFFFFFFFFFFFFFFFFFFFFFFFFFFFFFFFFFFFFFFFFF
310
FFFFFFFFFFFFFFFFFFFFFFFFFFFFFFFFFFFFFFFFFFFFFFFFFFFFFFFFFFFFFFFF
310
FFFFFFFFFFFFFFFFFFFFFFFFFFFFFFFFFFFFFFFFFFFFFFFFFFFFFFFFFFFFFFFF
310
F000FFFFFFFFFFFFFFFFFFFFFFFFFFFFFFFFFFFFFFFFFFFFFFFFFFFFFFFFFFFF
310
FFFFFFFFFFFFFFFFFFFFFFFFFFFFFFFFFFFFFFFFFFFFFFFFFFFFFFFFFFFFFFFF
310
FFFFFFFFFFFFFFFFFFFFFFFFFFFFFFFFFFFFFFFFFFFFFFFFF000FFFFFFFFFFFF
310
FFFFFFFFFFFFFFFFFFFFFFFFFFFFFFFFFFFFFFFFFFFFFFFFFFFFFFFFFFFFFFFF
310
FFFFFFFFFFFFFFFFFFFFFFFFFFFFFFFFFFFFFFFFFFFFFFFFFFFFFFFFFFFFFFFF
310
FFFFFFFFFFFFFFFFFFFFFFFFFFFFFFFFF000FFFFFFFFFFFFFFFFFFFFFFFFFFFF
310
FFFFFFFFFFFFFFFFFFFFFFFFFFFFFFFFFFFFFFFFFFFFFFFFFFFFFFFFFFFFFFFF
310
FFFFFFFFFFFFFFFFFFFFFFFFFFFFFFFFFFFFFFFFFFFFFFFFFFFFFFFFFFFFFFFF
310
FFFFFFFFFFFFFFFFF000FFFFFFFFFFFFFFFFFFFFFFFFFFFFFFFFFFFFFFFFFFFF
310
FFFFFFFFFFFFFFFFFFFFFFFFFFFFFFFFFFFFFFFFFFFFFFFFFFFFFFFFFFFFFFFF
310
FFFFFFFFFFFFFFFFFFFFFFFFFFFFFFFFFFFFFFFFFFFFFFFFFFFFFFFFFFFFFFFF
310
F000FFFFFFFFFFFFFFFFFFFFFFFFFFFFFFFFFFFFFFFFFFFFFFFFFFFFFFFFFFFF
310
FFFFFFFFFFFFFFFFFFFFFFFFFFFFFFFFFFFFFFFFFFFFFFFFFFFFFFFFFFFFFFFF
310
FFFFFFFFFFFFFFFFFFFFFFFFFFFFFFFFFFFFFFFFFFFFFFFFF000FFFFFFFFFFFF
310
FFFFFFFFFFFFFFFFFFFFFFFFFFFFFFFFFFFFFFFFFFFFFFFFFFFFFFFFFFFFFFFF
310
FFFFFFFFFFFFFFFFFFFFFFFFFFFFFFFFFFFFFFFFFFFFFFFFFFFFFFFFFFFFFFFF
310
FFFFFFFFFFFFFFFFFFFFFFFFFFFFFFFFF000FFFFFFFFFFFFFFFFFFFFFFFFFFFF
310
FFFFFFFFFFFFFFFFFFFFFFFFFFFFFFFFFFFFFFFFFFFFFFFFFFFFFFFFFFFFFFFF
310
FFFFFFFFFFFFFFFFFFFFFFFFFFFFFFFFFFFFFFFFFFFFFFFFFFFFFFFFFFFFFFFF
310
FFFFFFFFFFFFFFFFF000FFFFFFFFFFFFFFFFFFFFFFFFFFFFFFFFFFFFFFFFFFFF
310
FFFFFFFFFFFFFFFFFFFFFFFFFFFFFFFFFFFFFFFFFFFFFFFFFFFFFFFFFFFFFFFF
310
FFFFFFFFFFFFFFFFFFFFFFFFFFFFFFFFFFFFFFFFFFFFFFFFFFFFFFFFFFFFFFFF
310
F000FFFFFFFFFFFFFFFFFFFFFFFFFFFFFFFFFFFFFFFFFFFFFFFFFFFFFFFFFFFF
310
FFFFFFFFFFFFFFFFFFFFFFFFFFFFFFFFFFFFFFFFFFFFFFFFFFFFFFFFFFFFFFFF
310
FFFFFFFFFFFFFFFFFFFFFFFFFFFFFFFFFFFFFFFFFFFFFFFFF000FFFFFFFFFFFF
310
FFFFFFFFFFFFFFFFFFFFFFFFFFFFFFFFFFFFFFFFFFFFFFFFFFFFFFFFFFFFFFFF
310
FFFFFFFFFFFFFFFFFFFFFFFFFFFFFFFFFFFFFFFFFFFFFFFFFFFFFFFFFFFFFFFF
310
FFFFFFFFFFFFFFFFFFFFFFFFFFFFFFFFF0000000000000000000000000000000
310
0000000000000000000000000000000000000000000000000000000000000000
310
0000000000000000000000000000000000000000000000000000000000000000
310
0000000000000000000000000000000000000000000000000000000000000000
310
0000000000000000000000000000000000000000000000000000000000000000
310
0000000000000000000000000000000000000000000000000000000000000000
310
0000000000000000000000000000000000000000000000000000000000000000
310
0000000000000000000000000000000000000000000000000000000000000000
310
0000000000000000000000000000000000000000000000000000000000000000
310
0000000000000000000000000000000000000000000000000000000000000000
310
0000000000000000000000000000000000000000000000000000000000000000
310
0000000000000000000000000000000000000000000000000000000000000000
310
0000000000000000000000000000000000000000000000000000000000000000
310
0000000000000000000000000000000000000000000000000000000000000000
310
0000000000000000000000000000000000000000000000000000000000000000
310
0000000000000000000000000000000000000000000000000000000000000000
  1
OLE
  0
ENDSEC
  0
SECTION
  2
OBJECTS
  0
DICTIONARY
  5
C
330
0
100
AcDbDictionary
281
     1
  3
ACAD_GROUP
350
D
  3
ACAD_LAYOUT
350
1A
  3
ACAD_MLINESTYLE
350
17
  3
ACAD_PLOTSETTINGS
350
19
  3
ACAD_PLOTSTYLENAME
350
E
  0
DICTIONARY
  5
D
102
{ACAD_REACTORS
330
C
102
}
330
C
100
AcDbDictionary
281
     1
  0
DICTIONARY
  5
1A
102
{ACAD_REACTORS
330
C
102
}
330
C
100
AcDbDictionary
281
     1
  3
Layout1
350
1E
  3
Layout2
350
26
  3
Model
350
22
  0
DICTIONARY
  5
17
102
{ACAD_REACTORS
330
C
102
}
330
C
100
AcDbDictionary
281
     1
  3
Standard
350
18
  0
DICTIONARY
  5
19
102
{ACAD_REACTORS
330
C
102
}
330
C
100
AcDbDictionary
281
     1
  0
ACDBDICTIONARYWDFLT
  5
E
102
{ACAD_REACTORS
330
C
102
}
330
C
100
AcDbDictionary
281
     1
  3
Normal
350
F
100
AcDbDictionaryWithDefault
340
F
  0
LAYOUT
  5
1E
102
{ACAD_REACTORS
330
1A
102
}
330
1A
100
AcDbPlotSettings
  1

  2
none_device
  4

  6

 40
0.0
 41
0.0
 42
0.0
 43
0.0
 44
0.0
 45
0.0
 46
0.0
 47
0.0
 48
0.0
 49
0.0
140
0.0
141
0.0
142
1.0
143
1.0
 70
   688
 72
     0
 73
     0
 74
     5
  7

 75
    16
147
1.0
148
0.0
149
0.0
100
AcDbLayout
  1
Layout1
 70
     1
 71
     1
 10
0.0
 20
0.0
 11
420.0
 21
297.0
 12
0.0
 22
0.0
 32
0.0
 14
1.0000000000E+20
 24
1.0000000000E+20
 34
1.0000000000E+20
 15
-1.0000000000E+20
 25
-1.0000000000E+20
 35
-1.0000000000E+20
146
0.0
 13
0.0
 23
0.0
 33
0.0
 16
1.0
 26
0.0
 36
0.0
 17
0.0
 27
1.0
 37
0.0
 76
     0
330
1B
  0
LAYOUT
  5
26
102
{ACAD_REACTORS
330
1A
102
}
330
1A
100
AcDbPlotSettings
  1

  2
none_device
  4

  6

 40
0.0
 41
0.0
 42
0.0
 43
0.0
 44
0.0
 45
0.0
 46
0.0
 47
0.0
 48
0.0
 49
0.0
140
0.0
141
0.0
142
1.0
143
1.0
 70
   688
 72
     0
 73
     0
 74
     5
  7

 75
    16
147
1.0
148
0.0
149
0.0
100
AcDbLayout
  1
Layout2
 70
     1
 71
     2
 10
0.0
 20
0.0
 11
0.0
 21
0.0
 12
0.0
 22
0.0
 32
0.0
 14
0.0
 24
0.0
 34
0.0
 15
0.0
 25
0.0
 35
0.0
146
0.0
 13
0.0
 23
0.0
 33
0.0
 16
1.0
 26
0.0
 36
0.0
 17
0.0
 27
1.0
 37
0.0
 76
     0
330
23
  0
LAYOUT
  5
22
102
{ACAD_REACTORS
330
1A
102
}
330
1A
100
AcDbPlotSettings
  1

  2
none_device
  4

  6

 40
0.0
 41
0.0
 42
0.0
 43
0.0
 44
0.0
 45
0.0
 46
0.0
 47
0.0
 48
0.0
 49
0.0
140
0.0
141
0.0
142
1.0
143
1.0
 70
  1712
 72
     0
 73
     0
 74
     0
  7

 75
     0
147
1.0
148
0.0
149
0.0
100
AcDbLayout
  1
Model
 70
     1
 71
     0
 10
0.0
 20
0.0
 11
297.0
 21
210.0
 12
0.0
 22
0.0
 32
0.0
 14
0.0
 24
0.0
 34
0.0
 15
297.0
 25
210.0
 35
0.0
146
0.0
 13
0.0
 23
0.0
 33
0.0
 16
1.0
 26
0.0
 36
0.0
 17
0.0
 27
1.0
 37
0.0
 76
     0
330
1F
331
29
  0
MLINESTYLE
  5
18
102
{ACAD_REACTORS
330
17
102
}
330
17
100
AcDbMlineStyle
  2
Standard
 70
     0
  3

 62
   256
 51
90.0
 52
90.0
 71
     2
 49
0.5
 62
   256
  6
BYLAYER
 49
-0.5
 62
   256
  6
BYLAYER
  0
ACDBPLACEHOLDER
  5
F
102
{ACAD_REACTORS
330
E
102
}
330
E
  0
ENDSEC
  0
EOF
