  0
SECTION
  2
HEADER
  9
$ACADVER
  1
AC1015
  9
$ACADMAINTVER
 70
     6
  9
$DWGCODEPAGE
  3
ANSI_1252
  9
$INSBASE
 10
0.0
 20
0.0
 30
0.0
  9
$EXTMIN
 10
0.0
 20
0.0
 30
0.0
  9
$EXTMAX
 10
297.0
 20
210.0
 30
0.0
  9
$LIMMIN
 10
0.0
 20
0.0
  9
$LIMMAX
 10
297.0
 20
210.0
  9
$ORTHOMODE
 70
     0
  9
$REGENMODE
 70
     1
  9
$FILLMODE
 70
     1
  9
$QTEXTMODE
 70
     0
  9
$MIRRTEXT
 70
     1
  9
$LTSCALE
 40
1.0
  9
$ATTMODE
 70
     1
  9
$TEXTSIZE
 40
2.0
  9
$TRACEWID
 40
1.0
  9
$TEXTSTYLE
  7
Standard
  9
$CLAYER
  8
0
  9
$CELTYPE
  6
ByLayer
  9
$CECOLOR
 62
   256
  9
$CELTSCALE
 40
1.0
  9
$DISPSILH
 70
     0
  9
$DIMSCALE
 40
1.0
  9
$DIMASZ
 40
3.0
  9
$DIMEXO
 40
0.0
  9
$DIMDLI
 40
3.75
  9
$DIMRND
 40
0.0
  9
$DIMDLE
 40
0.0
  9
$DIMEXE
 40
1.0
  9
$DIMTP
 40
0.0
  9
$DIMTM
 40
0.0
  9
$DIMTXT
 40
2.0
  9
$DIMCEN
 40
2.5
  9
$DIMTSZ
 40
0.0
  9
$DIMTOL
 70
     0
  9
$DIMLIM
 70
     0
  9
$DIMTIH
 70
     1
  9
$DIMTOH
 70
     1
  9
$DIMSE1
 70
     0
  9
$DIMSE2
 70
     0
  9
$DIMTAD
 70
     1
  9
$DIMZIN
 70
     0
  9
$DIMBLK
  1

  9
$DIMASO
 70
     1
  9
$DIMSHO
 70
     1
  9
$DIMPOST
  1

  9
$DIMAPOST
  1

  9
$DIMALT
 70
     0
  9
$DIMALTD
 70
     3
  9
$DIMALTF
 40
0.0393700787
  9
$DIMLFAC
 40
1.0
  9
$DIMTOFL
 70
     1
  9
$DIMTVP
 40
0.0
  9
$DIMTIX
 70
     0
  9
$DIMSOXD
 70
     0
  9
$DIMSAH
 70
     0
  9
$DIMBLK1
  1

  9
$DIMBLK2
  1

  9
$DIMSTYLE
  2
ISO-25
  9
$DIMCLRD
 70
     0
  9
$DIMCLRE
 70
     0
  9
$DIMCLRT
 70
     0
  9
$DIMTFAC
 40
1.0
  9
$DIMGAP
 40
1.524
  9
$DIMJUST
 70
     0
  9
$DIMSD1
 70
     0
  9
$DIMSD2
 70
     0
  9
$DIMTOLJ
 70
     0
  9
$DIMTZIN
 70
     0
  9
$DIMALTZ
 70
     0
  9
$DIMALTTZ
 70
     0
  9
$DIMUPT
 70
     0
  9
$DIMDEC
 70
     2
  9
$DIMTDEC
 70
     3
  9
$DIMALTU
 70
     2
  9
$DIMALTTD
 70
     3
  9
$DIMTXSTY
  7
Standard
  9
$DIMAUNIT
 70
     0
  9
$DIMADEC
 70
     2
  9
$DIMALTRND
 40
0.0
  9
$DIMAZIN
 70
     0
  9
$DIMDSEP
 70
    44
  9
$DIMATFIT
 70
     3
  9
$DIMFRAC
 70
     0
  9
$DIMLDRBLK
  1

  9
$DIMLUNIT
 70
     2
  9
$DIMLWD
 70
    -2
  9
$DIMLWE
 70
    -2
  9
$DIMTMOVE
 70
     0
  9
$LUNITS
 70
     2
  9
$LUPREC
 70
     2
  9
$SKETCHINC
 40
1.0
  9
$FILLETRAD
 40
10.0
  9
$AUNITS
 70
     0
  9
$AUPREC
 70
     2
  9
$MENU
  1
.
  9
$ELEVATION
 40
0.0
  9
$PELEVATION
 40
0.0
  9
$THICKNESS
 40
0.0
  9
$LIMCHECK
 70
     0
  9
$CHAMFERA
 40
10.0
  9
$CHAMFERB
 40
10.0
  9
$CHAMFERC
 40
20.0
  9
$CHAMFERD
 40
0.0
  9
$SKPOLY
 70
     0
  9
$TDCREATE
 40
2456071.493602546
  9
$TDUCREATE
 40
2456071.410269213
  9
$TDUPDATE
 40
2456071.493604167
  9
$TDUUPDATE
 40
2456071.410270833
  9
$TDINDWG
 40
0.0000000116
  9
$TDUSRTIMER
 40
0.0000000116
  9
$USRTIMER
 70
     1
  9
$ANGBASE
 50
0.0
  9
$ANGDIR
 70
     0
  9
$PDMODE
 70
     0
  9
$PDSIZE
 40
-1.0
  9
$PLINEWID
 40
0.0
  9
$SPLFRAME
 70
     0
  9
$SPLINETYPE
 70
     6
  9
$SPLINESEGS
 70
     8
  9
$HANDSEED
  5
1F4
  9
$SURFTAB1
 70
     6
  9
$SURFTAB2
 70
     6
  9
$SURFTYPE
 70
     6
  9
$SURFU
 70
     6
  9
$SURFV
 70
     6
  9
$UCSBASE
  2

  9
$UCSNAME
  2

  9
$UCSORG
 10
0.0
 20
0.0
 30
0.0
  9
$UCSXDIR
 10
1.0
 20
0.0
 30
0.0
  9
$UCSYDIR
 10
0.0
 20
1.0
 30
0.0
  9
$UCSORTHOREF
  2

  9
$UCSORTHOVIEW
 70
     0
  9
$UCSORGTOP
 10
0.0
 20
0.0
 30
0.0
  9
$UCSORGBOTTOM
 10
0.0
 20
0.0
 30
0.0
  9
$UCSORGLEFT
 10
0.0
 20
0.0
 30
0.0
  9
$UCSORGRIGHT
 10
0.0
 20
0.0
 30
0.0
  9
$UCSORGFRONT
 10
0.0
 20
0.0
 30
0.0
  9
$UCSORGBACK
 10
0.0
 20
0.0
 30
0.0
  9
$PUCSBASE
  2

  9
$PUCSNAME
  2

  9
$PUCSORG
 10
0.0
 20
0.0
 30
0.0
  9
$PUCSXDIR
 10
1.0
 20
0.0
 30
0.0
  9
$PUCSYDIR
 10
0.0
 20
1.0
 30
0.0
  9
$PUCSORTHOREF
  2

  9
$PUCSORTHOVIEW
 70
     0
  9
$PUCSORGTOP
 10
0.0
 20
0.0
 30
0.0
  9
$PUCSORGBOTTOM
 10
0.0
 20
0.0
 30
0.0
  9
$PUCSORGLEFT
 10
0.0
 20
0.0
 30
0.0
  9
$PUCSORGRIGHT
 10
0.0
 20
0.0
 30
0.0
  9
$PUCSORGFRONT
 10
0.0
 20
0.0
 30
0.0
  9
$PUCSORGBACK
 10
0.0
 20
0.0
 30
0.0
  9
$USERI1
 70
     0
  9
$USERI2
 70
     0
  9
$USERI3
 70
     0
  9
$USERI4
 70
     0
  9
$USERI5
 70
     0
  9
$USERR1
 40
0.0
  9
$USERR2
 40
0.0
  9
$USERR3
 40
0.0
  9
$USERR4
 40
0.0
  9
$USERR5
 40
0.0
  9
$WORLDVIEW
 70
     1
  9
$SHADEDGE
 70
     3
  9
$SHADEDIF
 70
    70
  9
$TILEMODE
 70
     1
  9
$MAXACTVP
 70
    64
  9
$PINSBASE
 10
0.0
 20
0.0
 30
0.0
  9
$PLIMCHECK
 70
     0
  9
$PEXTMIN
 10
1.0000000000E+20
 20
1.0000000000E+20
 30
1.0000000000E+20
  9
$PEXTMAX
 10
-1.0000000000E+20
 20
-1.0000000000E+20
 30
-1.0000000000E+20
  9
$PLIMMIN
 10
0.0
 20
0.0
  9
$PLIMMAX
 10
420.0
 20
297.0
  9
$UNITMODE
 70
     0
  9
$VISRETAIN
 70
     1
  9
$PLINEGEN
 70
     0
  9
$PSLTSCALE
 70
     1
  9
$TREEDEPTH
 70
  3020
  9
$CMLSTYLE
  2
Standard
  9
$CMLJUST
 70
     0
  9
$CMLSCALE
 40
20.0
  9
$PROXYGRAPHICS
 70
     1
  9
$MEASUREMENT
 70
     1
  9
$CELWEIGHT
370
    -1
  9
$ENDCAPS
280
     0
  9
$JOINSTYLE
280
     0
  9
$LWDISPLAY
290
     1
  9
$INSUNITS
 70
     4
  9
$HYPERLINKBASE
  1

  9
$STYLESHEET
  1

  9
$XEDIT
290
     1
  9
$CEPSNTYPE
380
     0
  9
$PSTYLEMODE
290
     1
  9
$FINGERPRINTGUID
  2
{E3FFE089-97D4-4A69-8DF9-BFA4C46E6B49}
  9
$VERSIONGUID
  2
{FAEB1C32-E019-11D5-929B-00C0DF256EC4}
  9
$EXTNAMES
290
     1
  9
$PSVPSCALE
 40
0.0
  9
$OLESTARTUP
290
     0
  0
ENDSEC
  0
SECTION
  2
CLASSES
  0
CLASS
  1
ACDBDICTIONARYWDFLT
  2
AcDbDictionaryWithDefault
  3
ObjectDBX Classes
 90
        0
280
     0
281
     0
  0
CLASS
  1
VISUALSTYLE
  2
AcDbVisualStyle
  3
ObjectDBX Classes
 90
     4095
280
     0
281
     0
  0
CLASS
  1
MATERIAL
  2
AcDbMaterial
  3
ObjectDBX Classes
 90
     1153
280
     0
281
     0
  0
CLASS
  1
ACDBPLACEHOLDER
  2
AcDbPlaceHolder
  3
ObjectDBX Classes
 90
        0
280
     0
281
     0
  0
CLASS
  1
LAYOUT
  2
AcDbLayout
  3
ObjectDBX Classes
 90
        0
280
     0
281
     0
  0
ENDSEC
  0
SECTION
  2
TABLES
  0
TABLE
  2
VPORT
  5
8
330
0
100
AcDbSymbolTable
 70
     1
  0
VPORT
  5
29
330
8
100
AcDbSymbolTableRecord
100
AcDbViewportTableRecord
  2
*Active
 70
     0
 10
0.0
 20
0.0
 11
1.0
 21
1.0
 12
148.5
 22
105.0
 13
0.0
 23
0.0
 14
10.0
 24
10.0
 15
10.0
 25
10.0
 16
0.0
 26
0.0
 36
1.0
 17
0.0
 27
0.0
 37
0.0
 40
210.0
 41
1.4142857143
 42
50.0
 43
0.0
 44
0.0
 50
0.0
 51
0.0
 71
     0
 72
  2000
 73
     1
 74
     3
 75
     0
 76
     0
 77
     0
 78
     0
281
     0
 65
     1
110
0.0
120
0.0
130
0.0
111
1.0
121
0.0
131
0.0
112
0.0
122
1.0
132
0.0
 79
     0
146
0.0
  0
ENDTAB
  0
TABLE
  2
LTYPE
  5
5
330
0
100
AcDbSymbolTable
 70
     6
  0
LTYPE
  5
14
330
5
100
AcDbSymbolTableRecord
100
AcDbLinetypeTableRecord
  2
ByBlock
 70
     0
  3

 72
    65
 73
     0
 40
0.0
  0
LTYPE
  5
15
330
5
100
AcDbSymbolTableRecord
100
AcDbLinetypeTableRecord
  2
ByLayer
 70
     0
  3

 72
    65
 73
     0
 40
0.0
  0
LTYPE
  5
16
330
5
100
AcDbSymbolTableRecord
100
AcDbLinetypeTableRecord
  2
Continuous
 70
     0
  3
Solid line
 72
    65
 73
     0
 40
0.0
  0
LTYPE
  5
3F
330
5
100
AcDbSymbolTableRecord
100
AcDbLinetypeTableRecord
  2
HIDDEN
 70
     0
  3
Hidden __ __ __ __ __ __ __ __ __ __ __ __ __ __
 72
    65
 73
     2
 40
1.905
 49
1.27
 74
     0
 49
-0.635
 74
     0
  0
LTYPE
  5
40
330
5
100
AcDbSymbolTableRecord
100
AcDbLinetypeTableRecord
  2
PHANTOM
 70
     0
  3
Phantom ______  __  __  ______  __  __  ______
 72
    65
 73
     6
 40
12.7
 49
6.35
 74
     0
 49
-1.27
 74
     0
 49
1.27
 74
     0
 49
-1.27
 74
     0
 49
1.27
 74
     0
 49
-1.27
 74
     0
  0
LTYPE
  5
41
330
5
100
AcDbSymbolTableRecord
100
AcDbLinetypeTableRecord
  2
CENTER
 70
     0
  3
Center ____ _ ____ _ ____ _ ____ _ ____ _ ____
 72
    65
 73
     4
 40
10.16
 49
6.35
 74
     0
 49
-1.27
 74
     0
 49
1.27
 74
     0
 49
-1.27
 74
     0
  0
LTYPE
  5
42
330
5
100
AcDbSymbolTableRecord
100
AcDbLinetypeTableRecord
  2
CENTERX2
 70
     0
  3
Center (2x) ________  __  ________  __  _____
 72
    65
 73
     4
 40
20.32
 49
12.7
 74
     0
 49
-2.54
 74
     0
 49
2.54
 74
     0
 49
-2.54
 74
     0
  0
LTYPE
  5
43
330
5
100
AcDbSymbolTableRecord
100
AcDbLinetypeTableRecord
  2
DOT2
 70
     0
  3
Dot (.5x) ........................................
 72
    65
 73
     2
 40
0.635
 49
0.0
 74
     0
 49
-0.635
 74
     0
  0
ENDTAB
  0
TABLE
  2
LAYER
  5
2
330
0
100
AcDbSymbolTable
 70
     5
  0
LAYER
  5
10
330
2
100
AcDbSymbolTableRecord
100
AcDbLayerTableRecord
  2
0
 70
     0
 62
     7
  6
Continuous
370
    -3
390
F
  0
LAYER
  5
44
330
2
100
AcDbSymbolTableRecord
100
AcDbLayerTableRecord
  2
FORMAT
 70
     0
 62
     7
  6
Continuous
370
    -3
390
F
  0
LAYER
  5
45
330
2
100
AcDbSymbolTableRecord
100
AcDbLayerTableRecord
  2
VERMASSUNG
 70
     0
 62
     7
  6
Continuous
370
    -3
390
F
  0
LAYER
  5
46
330
2
100
AcDbSymbolTableRecord
100
AcDbLayerTableRecord
  2
KOPF_DÜNN
 70
     0
 62
     7
  6
Continuous
370
    -3
390
F
  0
LAYER
  5
47
330
2
100
AcDbSymbolTableRecord
100
AcDbLayerTableRecord
  2
KOPF_DICK
 70
     0
 62
     7
  6
Continuous
370
    15
390
F
  0
ENDTAB
  0
TABLE
  2
STYLE
  5
3
330
0
100
AcDbSymbolTable
 70
     2
  0
STYLE
  5
11
330
3
100
AcDbSymbolTableRecord
100
AcDbTextStyleTableRecord
  2
Standard
 70
     0
 40
0.0
 41
1.0
 50
0.0
 71
     0
 42
2.0
  3
txt
  4

  0
STYLE
  5
48
330
3
100
AcDbSymbolTableRecord
100
AcDbTextStyleTableRecord
  2
SLDTEXTSTYLE0
 70
     0
 40
0.0
 41
0.7
 50
0.0
 71
     0
 42
0.2
  3
TXT
  4

  0
ENDTAB
  0
TABLE
  2
VIEW
  5
6
330
0
100
AcDbSymbolTable
 70
     0
  0
ENDTAB
  0
TABLE
  2
UCS
  5
7
330
0
100
AcDbSymbolTable
 70
     0
  0
ENDTAB
  0
TABLE
  2
APPID
  5
9
330
0
100
AcDbSymbolTable
 70
     1
  0
APPID
  5
12
330
9
100
AcDbSymbolTableRecord
100
AcDbRegAppTableRecord
  2
ACAD
 70
     0
  0
ENDTAB
  0
TABLE
  2
DIMSTYLE
  5
A
330
0
100
AcDbSymbolTable
 70
     5
100
AcDbDimStyleTable
  0
DIMSTYLE
105
27
330
A
100
AcDbSymbolTableRecord
100
AcDbDimStyleTableRecord
  2
ISO-25
 70
     0
 41
2.5
 42
0.625
 43
3.75
 44
1.25
 73
     0
 74
     0
 77
     1
 78
     8
140
2.5
141
2.5
143
0.0393700787
147
0.625
171
     3
172
     1
178
     0
271
     2
272
     2
274
     3
278
    44
283
     0
284
     8
340
11
  0
DIMSTYLE
105
183
102
{ACAD_REACTORS
330
182
102
}
330
A
100
AcDbSymbolTableRecord
100
AcDbDimStyleTableRecord
  2
SLDDIMSTYLE0
 70
     0
 41
3.0
 44
0.0
 73
     0
 74
     0
 77
     1
 78
    12
 79
     3
140
2.0
147
0.5
173
     1
178
     0
179
     2
272
     3
276
     2
284
    12
340
48
  0
DIMSTYLE
105
18D
102
{ACAD_REACTORS
330
18C
330
199
102
}
330
A
100
AcDbSymbolTableRecord
100
AcDbDimStyleTableRecord
  2
SLDDIMSTYLE1
 70
     0
 41
3.0
 44
0.0
 45
0.000000001
 47
0.1
 48
0.1
 71
     1
 73
     0
 74
     0
 77
     1
 78
    12
 79
     3
140
2.0
147
0.5
173
     1
178
     0
271
     2
272
     1
276
     2
284
     8
340
48
  0
DIMSTYLE
105
1A6
102
{ACAD_REACTORS
330
1A5
330
1B0
102
}
330
A
100
AcDbSymbolTableRecord
100
AcDbDimStyleTableRecord
  2
SLDDIMSTYLE2
 70
     0
 41
3.0
 44
0.0
 45
0.000000001
 73
     0
 74
     0
 77
     1
 78
    12
 79
     3
140
2.0
147
0.5
173
     1
178
     0
271
     2
272
     3
276
     2
284
    12
340
48
  0
DIMSTYLE
105
1D9
102
{ACAD_REACTORS
330
1D8
102
}
330
A
100
AcDbSymbolTableRecord
100
AcDbDimStyleTableRecord
  2
SLDDIMSTYLE3
 70
     0
 41
3.0
 44
0.0
 45
0.000000001
 73
     0
 74
     0
 77
     1
 78
    12
 79
     3
140
2.0
147
0.5
172
     1
173
     1
178
     0
271
     2
272
     3
276
     2
284
    12
289
     0
340
48
  0
ENDTAB
  0
TABLE
  2
BLOCK_RECORD
  5
1
330
0
100
AcDbSymbolTable
 70
     8
  0
BLOCK_RECORD
  5
1F
330
1
100
AcDbSymbolTableRecord
100
AcDbBlockTableRecord
  2
*Model_Space
340
22
  0
BLOCK_RECORD
  5
1B
330
1
100
AcDbSymbolTableRecord
100
AcDbBlockTableRecord
  2
*Paper_Space
340
1E
  0
BLOCK_RECORD
  5
23
330
1
100
AcDbSymbolTableRecord
100
AcDbBlockTableRecord
  2
*Paper_Space0
340
26
  0
BLOCK_RECORD
  5
184
330
1
100
AcDbSymbolTableRecord
100
AcDbBlockTableRecord
  2
_D
340
0
  0
BLOCK_RECORD
  5
18E
330
1
100
AcDbSymbolTableRecord
100
AcDbBlockTableRecord
  2
_D_1
340
0
  0
BLOCK_RECORD
  5
19A
330
1
100
AcDbSymbolTableRecord
100
AcDbBlockTableRecord
  2
_D_2
340
0
  0
BLOCK_RECORD
  5
1A7
330
1
100
AcDbSymbolTableRecord
100
AcDbBlockTableRecord
  2
_D_3
340
0
  0
BLOCK_RECORD
  5
1B1
330
1
100
AcDbSymbolTableRecord
100
AcDbBlockTableRecord
  2
_D_4
340
0
  0
BLOCK_RECORD
  5
1DA
330
1
100
AcDbSymbolTableRecord
100
AcDbBlockTableRecord
  2
_D_5
340
0
  0
BLOCK_RECORD
  5
1E7
330
1
100
AcDbSymbolTableRecord
100
AcDbBlockTableRecord
  2
SW_CENTERMARKSYMBOL_0
340
0
102
{BLKREFS
331
1F2
102
}
  0
ENDTAB
  0
ENDSEC
  0
SECTION
  2
BLOCKS
  0
BLOCK
  5
20
330
1F
100
AcDbEntity
  8
0
100
AcDbBlockBegin
  2
*Model_Space
 70
     0
 10
0.0
 20
0.0
 30
0.0
  3
*Model_Space
  1

  0
ENDBLK
  5
21
330
1F
100
AcDbEntity
  8
0
100
AcDbBlockEnd
  0
BLOCK
  5
1C
330
1B
100
AcDbEntity
 67
     1
  8
0
100
AcDbBlockBegin
  2
*Paper_Space
 70
     0
 10
0.0
 20
0.0
 30
0.0
  3
*Paper_Space
  1

  0
ENDBLK
  5
1D
330
1B
100
AcDbEntity
 67
     1
  8
0
100
AcDbBlockEnd
  0
BLOCK
  5
24
330
23
100
AcDbEntity
  8
0
100
AcDbBlockBegin
  2
*Paper_Space0
 70
     0
 10
0.0
 20
0.0
 30
0.0
  3
*Paper_Space0
  1

  0
ENDBLK
  5
25
330
23
100
AcDbEntity
  8
0
100
AcDbBlockEnd
  0
BLOCK
  5
185
330
184
100
AcDbEntity
  8
0
100
AcDbBlockBegin
  2
_D
 70
     0
 10
0.0
 20
0.0
 30
0.0
  3
_D
  1

  0
ARC
  5
187
330
184
100
AcDbEntity
  8
VERMASSUNG
100
AcDbCircle
 10
256.9153085695
 20
160.0735140085
 30
0.0
 40
12.49577977011484
100
AcDbArc
 50
252.5
 51
0.0
  0
SOLID
  5
188
330
184
100
AcDbEntity
  8
VERMASSUNG
100
AcDbTrace
 10
253.1577551233
 20
148.156077029
 30
0.0
 11
256.0211715879
 21
147.154405351
 31
0.0
 12
256.1890422603
 22
148.0386108912
 32
0.0
 13
256.1890422603
 23
148.0386108912
 33
0.0
  0
SOLID
  5
189
330
184
100
AcDbEntity
  8
VERMASSUNG
100
AcDbTrace
 10
269.4110883397
 20
160.0735140085
 30
0.0
 11
268.6115921644
 21
157.1472013346
 31
0.0
 12
269.5053536608
 22
157.0414167065
 32
0.0
 13
269.5053536608
 23
157.0414167065
 33
0.0
  0
LINE
  5
18A
330
184
100
AcDbEntity
  8
VERMASSUNG
100
AcDbLine
 10
253.5479008352
 20
149.393461141
 30
0.0
 11
252.8570493238
 21
147.2023600782
 31
0.0
  0
MTEXT
  5
18B
330
184
100
AcDbEntity
  8
VERMASSUNG
100
AcDbMText
 10
259.2313511569
 20
149.4737207508
 30
0.1
 40
2.0
 41
0.0
 71
     1
 72
     1
  1
107.5°
  7
SLDTEXTSTYLE0
 11
0.8064446042674841
 21
0.5913096483635802
 31
0.0
 73
     1
 44
1.0
  0
ENDBLK
  5
186
330
184
100
AcDbEntity
  8
0
100
AcDbBlockEnd
  0
BLOCK
  5
18F
330
18E
100
AcDbEntity
  8
0
100
AcDbBlockBegin
  2
_D_1
 70
     0
 10
0.0
 20
0.0
 30
0.0
  3
_D_1
  1

  0
SOLID
  5
191
330
18E
100
AcDbEntity
  8
VERMASSUNG
100
AcDbTrace
 10
272.9174192578
 20
160.0735140085
 30
0.0
 11
272.4674192578
 21
157.0735140085
 31
0.0
 12
273.3674192578
 22
157.0735140085
 32
0.0
 13
273.3674192578
 23
157.0735140085
 33
0.0
  0
SOLID
  5
192
330
18E
100
AcDbEntity
  8
VERMASSUNG
100
AcDbTrace
 10
272.9174192578
 20
115.0735140085
 30
0.0
 11
273.3674192578
 21
118.0735140085
 31
0.0
 12
272.4674192578
 22
118.0735140085
 32
0.0
 13
272.4674192578
 23
118.0735140085
 33
0.0
  0
LINE
  5
193
330
18E
100
AcDbEntity
  8
VERMASSUNG
100
AcDbLine
 10
256.7697774039
 20
160.0735140085
 30
0.0
 11
273.9174192578
 21
160.0735140085
 31
0.0
  0
LINE
  5
194
330
18E
100
AcDbEntity
  8
VERMASSUNG
100
AcDbLine
 10
256.7697774039
 20
115.0735140085
 30
0.0
 11
273.9174192578
 21
115.0735140085
 31
0.0
  0
LINE
  5
195
330
18E
100
AcDbEntity
  8
VERMASSUNG
100
AcDbLine
 10
272.9174192578
 20
160.0735140085
 30
0.0
 11
272.9174192578
 21
115.0735140085
 31
0.0
  0
MTEXT
  5
196
330
18E
100
AcDbEntity
  8
VERMASSUNG
100
AcDbMText
 10
270.3392838947
 20
132.9235139914
 30
0.1
 40
2.0
 41
0.0
 71
     1
 72
     1
  1
45
  7
SLDTEXTSTYLE0
 11
-7.044195017643634E-15
 21
1.0
 31
0.0
 73
     1
 44
1.0
  0
MTEXT
  5
197
330
18E
100
AcDbEntity
  8
VERMASSUNG
100
AcDbMText
 10
270.3392838947
 20
138.9110142194
 30
0.1
 40
2.0
 41
0.0
 71
     1
 72
     1
  1

  7
SLDTEXTSTYLE0
 11
-7.044195017643634E-15
 21
1.0
 31
0.0
 73
     1
 44
1.0
  0
MTEXT
  5
198
330
18E
100
AcDbEntity
  8
VERMASSUNG
100
AcDbMText
 10
270.8338177575
 20
138.9235140436
 30
0.1
 40
1.5
 41
0.0
 71
     1
 72
     1
  1
±0.1
  7
SLDTEXTSTYLE0
 11
-7.044195017643634E-15
 21
1.0
 31
0.0
 73
     1
 44
1.0
  0
ENDBLK
  5
190
330
18E
100
AcDbEntity
  8
0
100
AcDbBlockEnd
  0
BLOCK
  5
19B
330
19A
100
AcDbEntity
  8
0
100
AcDbBlockBegin
  2
_D_2
 70
     0
 10
0.0
 20
0.0
 30
0.0
  3
_D_2
  1

  0
SOLID
  5
19D
330
19A
100
AcDbEntity
  8
VERMASSUNG
100
AcDbTrace
 10
256.7697774039
 20
170.0108367618
 30
0.0
 11
253.7697774039
 21
170.4608367618
 31
0.0
 12
253.7697774039
 22
169.5608367618
 32
0.0
 13
253.7697774039
 23
169.5608367618
 33
0.0
  0
SOLID
  5
19E
330
19A
100
AcDbEntity
  8
VERMASSUNG
100
AcDbTrace
 10
191.7697774039
 20
170.0108367618
 30
0.0
 11
194.7697774039
 21
169.5608367618
 31
0.0
 12
194.7697774039
 22
170.4608367618
 32
0.0
 13
194.7697774039
 23
170.4608367618
 33
0.0
  0
LINE
  5
19F
330
19A
100
AcDbEntity
  8
VERMASSUNG
100
AcDbLine
 10
256.7697774039
 20
160.0735140085
 30
0.0
 11
256.7697774039
 21
171.0108367618
 31
0.0
  0
LINE
  5
1A0
330
19A
100
AcDbEntity
  8
VERMASSUNG
100
AcDbLine
 10
191.7697774039
 20
146.0735140085
 30
0.0
 11
191.7697774039
 21
171.0108367618
 31
0.0
  0
LINE
  5
1A1
330
19A
100
AcDbEntity
  8
VERMASSUNG
100
AcDbLine
 10
256.7697774039
 20
170.0108367618
 30
0.0
 11
191.7697774039
 21
170.0108367618
 31
0.0
  0
MTEXT
  5
1A2
330
19A
100
AcDbEntity
  8
VERMASSUNG
100
AcDbMText
 10
219.7197772169
 20
172.5889721249
 30
0.1
 40
2.0
 41
0.0
 71
     1
 72
     1
  1
65
  7
SLDTEXTSTYLE0
 73
     1
 44
1.0
  0
MTEXT
  5
1A3
330
19A
100
AcDbEntity
  8
VERMASSUNG
100
AcDbMText
 10
225.507277319
 20
172.5889721249
 30
0.1
 40
2.0
 41
0.0
 71
     1
 72
     1
  1

  7
SLDTEXTSTYLE0
 73
     1
 44
1.0
  0
MTEXT
  5
1A4
330
19A
100
AcDbEntity
  8
VERMASSUNG
100
AcDbMText
 10
225.5197776088
 20
172.0944382621
 30
0.1
 40
1.5
 41
0.0
 71
     1
 72
     1
  1
±0.1
  7
SLDTEXTSTYLE0
 73
     1
 44
1.0
  0
ENDBLK
  5
19C
330
19A
100
AcDbEntity
  8
0
100
AcDbBlockEnd
  0
BLOCK
  5
1A8
330
1A7
100
AcDbEntity
  8
0
100
AcDbBlockBegin
  2
_D_3
 70
     0
 10
0.0
 20
0.0
 30
0.0
  3
_D_3
  1

  0
SOLID
  5
1AA
330
1A7
100
AcDbEntity
  8
VERMASSUNG
100
AcDbTrace
 10
153.7697774039
 20
178.8801004304
 30
0.0
 11
156.7697774039
 21
178.4301004304
 31
0.0
 12
156.7697774039
 22
179.3301004304
 32
0.0
 13
156.7697774039
 23
179.3301004304
 33
0.0
  0
SOLID
  5
1AB
330
1A7
100
AcDbEntity
  8
VERMASSUNG
100
AcDbTrace
 10
256.7697774039
 20
178.8801004304
 30
0.0
 11
253.7697774039
 21
179.3301004304
 31
0.0
 12
253.7697774039
 22
178.4301004304
 32
0.0
 13
253.7697774039
 23
178.4301004304
 33
0.0
  0
LINE
  5
1AC
330
1A7
100
AcDbEntity
  8
VERMASSUNG
100
AcDbLine
 10
153.7697774039
 20
135.365852001
 30
0.0
 11
153.7697774039
 21
179.8801004304
 31
0.0
  0
LINE
  5
1AD
330
1A7
100
AcDbEntity
  8
VERMASSUNG
100
AcDbLine
 10
256.7697774039
 20
160.0735140085
 30
0.0
 11
256.7697774039
 21
179.8801004304
 31
0.0
  0
LINE
  5
1AE
330
1A7
100
AcDbEntity
  8
VERMASSUNG
100
AcDbLine
 10
153.7697774039
 20
178.8801004304
 30
0.0
 11
256.7697774039
 21
178.8801004304
 31
0.0
  0
MTEXT
  5
1AF
330
1A7
100
AcDbEntity
  8
VERMASSUNG
100
AcDbMText
 10
202.4697772709
 20
181.4582357935
 30
0.1
 40
2.0
 41
0.0
 71
     1
 72
     1
  1
103
  7
SLDTEXTSTYLE0
 73
     1
 44
1.0
  0
ENDBLK
  5
1A9
330
1A7
100
AcDbEntity
  8
0
100
AcDbBlockEnd
  0
BLOCK
  5
1B2
330
1B1
100
AcDbEntity
  8
0
100
AcDbBlockBegin
  2
_D_4
 70
     0
 10
0.0
 20
0.0
 30
0.0
  3
_D_4
  1

  0
SOLID
  5
1B4
330
1B1
100
AcDbEntity
  8
VERMASSUNG
100
AcDbTrace
 10
145.2324914723
 20
146.5735140085
 30
0.0
 11
144.7824914723
 21
143.5735140085
 31
0.0
 12
145.6824914723
 22
143.5735140085
 32
0.0
 13
145.6824914723
 23
143.5735140085
 33
0.0
  0
SOLID
  5
1B5
330
1B1
100
AcDbEntity
  8
VERMASSUNG
100
AcDbTrace
 10
145.2324914723
 20
83.5735140085
 30
0.0
 11
145.6824914723
 21
86.5735140085
 31
0.0
 12
144.7824914723
 22
86.5735140085
 32
0.0
 13
144.7824914723
 23
86.5735140085
 33
0.0
  0
LINE
  5
1B6
330
1B1
100
AcDbEntity
  8
VERMASSUNG
100
AcDbLine
 10
192.2697774039
 20
146.5735140085
 30
0.0
 11
144.2324914723
 21
146.5735140085
 31
0.0
  0
LINE
  5
1B7
330
1B1
100
AcDbEntity
  8
VERMASSUNG
100
AcDbLine
 10
192.2697774039
 20
83.5735140085
 30
0.0
 11
144.2324914723
 21
83.5735140085
 31
0.0
  0
LINE
  5
1B8
330
1B1
100
AcDbEntity
  8
VERMASSUNG
100
AcDbLine
 10
145.2324914723
 20
146.5735140085
 30
0.0
 11
145.2324914723
 21
83.5735140085
 31
0.0
  0
MTEXT
  5
1B9
330
1B1
100
AcDbEntity
  8
VERMASSUNG
100
AcDbMText
 10
142.4543559832
 20
108.6685138993
 30
1.5146565033
 40
2.0
 41
0.0
 71
     1
 72
     1
  1
PSC
  7
SLDTEXTSTYLE0
 11
-7.044195017643634E-15
 21
1.0
 31
0.0
 73
     1
 44
1.0
  0
MTEXT
  5
1BA
330
1B1
100
AcDbEntity
  8
VERMASSUNG
100
AcDbMText
 10
142.6543559927
 20
113.2685140014
 30
1.5146565033
 40
2.0
 41
0.0
 71
     1
 72
     1
  1
%%c
  7
SLDTEXTSTYLE0
 11
-7.044195017643634E-15
 21
1.0
 31
0.0
 73
     1
 44
1.0
  0
MTEXT
  5
1BB
330
1B1
100
AcDbEntity
  8
VERMASSUNG
100
AcDbMText
 10
142.4543559832
 20
116.8785144814
 30
1.5146565033
 40
2.0
 41
0.0
 71
     1
 72
     1
  1
63
  7
SLDTEXTSTYLE0
 11
-7.044195017643634E-15
 21
1.0
 31
0.0
 73
     1
 44
1.0
  0
ENDBLK
  5
1B3
330
1B1
100
AcDbEntity
  8
0
100
AcDbBlockEnd
  0
BLOCK
  5
1DB
330
1DA
100
AcDbEntity
  8
0
100
AcDbBlockBegin
  2
_D_5
 70
     0
 10
0.0
 20
0.0
 30
0.0
  3
_D_5
  1

  0
SOLID
  5
1DD
330
1DA
100
AcDbEntity
  8
VERMASSUNG
100
AcDbTrace
 10
107.0592438738
 20
91.6194751378
 30
0.0
 11
108.8623661658
 21
89.1799567427
 31
0.0
 12
109.4987622689
 22
89.8163528458
 32
0.0
 13
109.4987622689
 23
89.8163528458
 33
0.0
  0
SOLID
  5
1DE
330
1DA
100
AcDbEntity
  8
VERMASSUNG
100
AcDbTrace
 10
50.4907013789
 20
148.1880176327
 30
0.0
 11
48.6875790869
 21
150.6275360278
 31
0.0
 12
48.0511829838
 22
149.9911399248
 32
0.0
 13
48.0511829838
 23
149.9911399248
 33
0.0
  0
LINE
  5
1DF
330
1DA
100
AcDbEntity
  8
VERMASSUNG
100
AcDbLine
 10
107.0592438738
 20
91.6194751378
 30
0.0
 11
106.3521370926
 21
90.9123683566
 31
0.0
  0
LINE
  5
1E0
330
1DA
100
AcDbEntity
  8
VERMASSUNG
100
AcDbLine
 10
50.4907013789
 20
148.1880176327
 30
0.0
 11
49.7835945977
 21
147.4809108515
 31
0.0
  0
LINE
  5
1E1
330
1DA
100
AcDbEntity
  8
VERMASSUNG
100
AcDbLine
 10
107.0592438738
 20
91.6194751378
 30
0.0
 11
111.3018845609
 21
87.3768344507
 31
0.0
  0
LINE
  5
1E2
330
1DA
100
AcDbEntity
  8
VERMASSUNG
100
AcDbLine
 10
107.0592438738
 20
91.6194751378
 30
0.0
 11
50.4907013789
 21
148.1880176327
 31
0.0
  0
LINE
  5
1E3
330
1DA
100
AcDbEntity
  8
VERMASSUNG
100
AcDbLine
 10
50.4907013789
 20
148.1880176327
 30
0.0
 11
38.5239744496
 21
160.1547445621
 31
0.0
  0
MTEXT
  5
1E4
330
1DA
100
AcDbEntity
  8
VERMASSUNG
100
AcDbMText
 10
40.34699153
 20
161.9777616425
 30
0.1
 40
2.0
 41
0.0
 71
     1
 72
     1
  1
%%c
  7
SLDTEXTSTYLE0
 11
0.707106781186546
 21
-0.7071067811865491
 31
0.0
 73
     1
 44
1.0
  0
MTEXT
  5
1E5
330
1DA
100
AcDbEntity
  8
VERMASSUNG
100
AcDbMText
 10
43.0410683831
 20
159.5665275152
 30
0.1
 40
2.0
 41
0.0
 71
     1
 72
     1
  1
80
  7
SLDTEXTSTYLE0
 11
0.707106781186546
 21
-0.7071067811865491
 31
0.0
 73
     1
 44
1.0
  0
MTEXT
  5
1E6
330
1DA
100
AcDbEntity
  8
VERMASSUNG
100
AcDbMText
 10
47.1334492807
 20
155.4741466177
 30
0.1
 40
2.0
 41
0.0
 71
     1
 72
     1
  1
min.
  7
SLDTEXTSTYLE0
 11
0.707106781186546
 21
-0.7071067811865491
 31
0.0
 73
     1
 44
1.0
  0
ENDBLK
  5
1DC
330
1DA
100
AcDbEntity
  8
0
100
AcDbBlockEnd
  0
BLOCK
  5
1E8
330
1E7
100
AcDbEntity
  8
0
100
AcDbBlockBegin
  2
SW_CENTERMARKSYMBOL_0
 70
     0
 10
0.0
 20
0.0
 30
0.0
  3
SW_CENTERMARKSYMBOL_0
  1

  0
LINE
  5
1EA
330
1E7
100
AcDbEntity
  8
VERMASSUNG
 62
     0
100
AcDbLine
 10
0.0
 20
0.0
 30
0.0
 11
0.0
 21
2.5
 31
0.0
  0
LINE
  5
1EB
330
1E7
100
AcDbEntity
  8
VERMASSUNG
 62
     0
100
AcDbLine
 10
0.0
 20
0.0
 30
0.0
 11
-2.5
 21
0.0
 31
0.0
  0
LINE
  5
1EC
330
1E7
100
AcDbEntity
  8
VERMASSUNG
 62
     0
100
AcDbLine
 10
0.0
 20
0.0
 30
0.0
 11
0.0
 21
-2.5
 31
0.0
  0
LINE
  5
1ED
330
1E7
100
AcDbEntity
  8
VERMASSUNG
 62
     0
100
AcDbLine
 10
0.0
 20
0.0
 30
0.0
 11
2.5
 21
0.0
 31
0.0
  0
LINE
  5
1EE
330
1E7
100
AcDbEntity
  8
VERMASSUNG
 62
     0
100
AcDbLine
 10
0.0
 20
5.0
 30
0.0
 11
0.0
 21
34.0
 31
0.0
  0
LINE
  5
1EF
330
1E7
100
AcDbEntity
  8
VERMASSUNG
 62
     0
100
AcDbLine
 10
-5.0
 20
0.0
 30
0.0
 11
-34.0
 21
0.0
 31
0.0
  0
LINE
  5
1F0
330
1E7
100
AcDbEntity
  8
VERMASSUNG
 62
     0
100
AcDbLine
 10
0.0
 20
-5.0
 30
0.0
 11
0.0
 21
-34.0
 31
0.0
  0
LINE
  5
1F1
330
1E7
100
AcDbEntity
  8
VERMASSUNG
 62
     0
100
AcDbLine
 10
5.0
 20
0.0
 30
0.0
 11
34.0
 21
0.0
 31
0.0
  0
ENDBLK
  5
1E9
330
1E7
100
AcDbEntity
  8
0
100
AcDbBlockEnd
  0
ENDSEC
  0
SECTION
  2
ENTITIES
  0
MTEXT
  5
49
330
1F
100
AcDbEntity
  8
KOPF_DÜNN
100
AcDbMText
 10
13.8892156294
 20
23.8442973028
 30
0.0
 40
3.0
 41
0.0
 71
     1
 72
     1
  1
PS6.KDB.RHA.065
  7
SLDTEXTSTYLE0
 73
     1
 44
1.0
  0
MTEXT
  5
4A
330
1F
100
AcDbEntity
  8
VERMASSUNG
100
AcDbMText
 10
13.9329988022
 20
28.8834360957
 30
0.0
 40
3.0
 41
0.0
 71
     1
 72
     1
  1
Klemmhalter rechts_Turning tool right 107.5° /55°
  7
SLDTEXTSTYLE0
 73
     1
 44
1.0
  0
MTEXT
  5
4B
330
1F
100
AcDbEntity
  8
VERMASSUNG
100
AcDbMText
 10
98.8601118557
 20
13.8365368179
 30
0.0
 40
2.0
 41
0.0
 71
     1
 72
     1
  1
Datum: 23.05.2012
  7
SLDTEXTSTYLE0
 73
     1
 44
1.0
  0
MTEXT
  5
4C
330
1F
100
AcDbEntity
  8
VERMASSUNG
100
AcDbMText
 10
13.933048693
 20
18.0482802738
 30
0.0
 40
2.0
 41
0.0
 71
     1
 72
     1
  1
PSC ø63 / DC..11 T3..
  7
SLDTEXTSTYLE0
 73
     1
 44
1.0
  0
MTEXT
  5
4D
330
1F
100
AcDbEntity
  8
VERMASSUNG
100
AcDbMText
 10
13.9808475933
 20
13.9090973692
 30
0.0
 40
2.0
 41
0.0
 71
     1
 72
     1
  1
Gewicht: 1221g
  7
SLDTEXTSTYLE0
 73
     1
 44
1.0
  0
LINE
  5
4E
330
1F
100
AcDbEntity
  8
0
  6
Continuous
 62
     7
370
    15
100
AcDbLine
 10
229.002450416
 20
146.5735140085
 30
0.0
 11
192.2697774039
 21
146.5735140085
 31
0.0
  0
LINE
  5
4F
330
1F
100
AcDbEntity
  8
0
  6
Continuous
 62
     7
370
    15
100
AcDbLine
 10
192.2697774039
 20
83.5735140085
 30
0.0
 11
229.002450416
 21
83.5735140085
 31
0.0
  0
ARC
  5
50
330
1F
100
AcDbEntity
  8
0
  6
Continuous
 62
     7
370
    15
100
AcDbCircle
 10
192.2697774039
 20
84.0735140085
 30
0.0
 40
0.5
100
AcDbArc
 50
180.0
 51
270.0
  0
ARC
  5
51
330
1F
100
AcDbEntity
  8
0
  6
Continuous
 62
     7
370
    15
100
AcDbCircle
 10
192.2697774039
 20
146.0735140085
 30
0.0
 40
0.5
100
AcDbArc
 50
90.0
 51
180.0
  0
LWPOLYLINE
  5
52
330
1F
100
AcDbEntity
  8
0
  6
Continuous
 62
     7
370
    15
100
AcDbPolyline
 90
        3
 70
   128
 43
0.0
 10
191.5697774039
 20
92.5336937297
 10
191.6952323474
 20
92.4653916147
 10
191.7697774039
 20
92.4126538566
  0
LWPOLYLINE
  5
53
330
1F
100
AcDbEntity
  8
0
  6
Continuous
 62
     7
370
    15
100
AcDbPolyline
 90
        3
 70
   128
 43
0.0
 10
191.7697774039
 20
137.7343741605
 10
191.6952323474
 20
137.6816364024
 10
191.5697774039
 20
137.6133342874
  0
LWPOLYLINE
  5
54
330
1F
100
AcDbEntity
  8
0
  6
Continuous
 62
     7
370
    15
100
AcDbPolyline
 90
        3
 70
   128
 43
0.0
 10
229.5142033371
 20
146.7143813368
 10
229.4553999169
 20
146.6819778345
 10
229.4416940579
 20
146.675146031
  0
ARC
  5
55
330
1F
100
AcDbEntity
  8
0
  6
Continuous
 62
     7
370
    15
100
AcDbCircle
 10
212.7697774039
 20
128.7176364211
 30
0.0
 40
2.499999999999994
100
AcDbArc
 50
92.0840550407
 51
158.6286669097
  0
ARC
  5
56
330
1F
100
AcDbEntity
  8
0
  6
Continuous
 62
     7
370
    15
100
AcDbCircle
 10
212.7697774039
 20
128.7176364211
 30
0.0
 40
2.499999999999994
100
AcDbArc
 50
21.3713330903
 51
92.0840550407
  0
SPLINE
  5
57
330
1F
100
AcDbEntity
  8
0
  6
Continuous
 62
     7
370
    15
100
AcDbSpline
210
0.0
220
0.0
230
1.0
 70
     8
 71
     3
 72
    68
 73
    64
 74
     0
 42
0.00000001
 43
0.00000001
 12
1.0
 22
0.0
 32
0.0
 13
1.0
 23
0.0
 33
0.0
 40
-0.062500000000001
 40
-0.062500000000001
 40
0.0
 40
0.0
 40
0.0312499999999999
 40
0.0312499999999999
 40
0.0624999999999998
 40
0.0624999999999998
 40
0.0937499999999998
 40
0.0937499999999998
 40
0.1249999999999997
 40
0.1249999999999997
 40
0.1562499999999996
 40
0.1562499999999996
 40
0.1874999999999996
 40
0.1874999999999996
 40
0.2187499999999995
 40
0.2187499999999995
 40
0.2499999999999994
 40
0.2499999999999994
 40
0.2812499999999993
 40
0.2812499999999993
 40
0.3124999999999992
 40
0.3124999999999992
 40
0.3437499999999992
 40
0.3437499999999992
 40
0.3749999999999991
 40
0.3749999999999991
 40
0.406249999999999
 40
0.406249999999999
 40
0.4374999999999989
 40
0.4374999999999989
 40
0.4687499999999988
 40
0.4687499999999988
 40
0.4999999999999988
 40
0.4999999999999988
 40
0.5312499999999987
 40
0.5312499999999987
 40
0.5624999999999987
 40
0.5624999999999987
 40
0.5937499999999986
 40
0.5937499999999986
 40
0.6249999999999984
 40
0.6249999999999984
 40
0.6562499999999984
 40
0.6562499999999984
 40
0.6874999999999983
 40
0.6874999999999983
 40
0.7187499999999982
 40
0.7187499999999982
 40
0.7499999999999982
 40
0.7499999999999982
 40
0.7812499999999983
 40
0.7812499999999983
 40
0.8124999999999984
 40
0.8124999999999984
 40
0.8437499999999986
 40
0.8437499999999986
 40
0.8749999999999988
 40
0.8749999999999988
 40
0.9062499999999989
 40
0.9062499999999989
 40
0.937499999999999
 40
0.937499999999999
 40
1.0
 40
1.0
 40
1.03125
 40
1.03125
 10
212.373147783567
 20
133.3499989401689
 30
0.0
 10
212.9680922141217
 20
133.3499989401689
 30
0.0
 10
213.1630704603714
 20
133.3340768865718
 30
0.0
 10
213.546633685517
 20
133.2716038651236
 30
0.0
 10
213.7372144609792
 20
133.2242863919933
 30
0.0
 10
214.100463747766
 20
133.1004983994176
 30
0.0
 10
214.2727304867619
 20
133.0246308587981
 30
0.0
 10
214.5987522034699
 20
132.8447459109075
 30
0.0
 10
214.7530275702465
 20
132.7398124618949
 30
0.0
 10
215.0295904914976
 20
132.5095887006464
 30
0.0
 10
215.153733381813
 20
132.3834979208502
 30
0.0
 10
215.3730481541839
 20
132.1082306511325
 30
0.0
 10
215.4661786095872
 20
131.9611248120653
 30
0.0
 10
215.6158329401134
 20
131.6551351495908
 30
0.0
 10
215.6734799101052
 20
131.4939882561071
 30
0.0
 10
215.7505864719276
 20
131.1621826606784
 30
0.0
 10
215.769670253271
 20
130.9944662348463
 30
0.0
 10
215.7698836633484
 20
130.6553939275106
 30
0.0
 10
215.750388372849
 20
130.482233603168
 30
0.0
 10
215.6738184983719
 20
130.1453753988208
 30
0.0
 10
215.6171652571627
 20
129.9807571130356
 30
0.0
 10
215.4668893063534
 20
129.65947341144
 30
0.0
 10
215.3730056439409
 20
129.503446005777
 30
0.0
 10
215.1559404438445
 20
129.2133957865054
 30
0.0
 10
215.0320091875698
 20
129.0775393863162
 30
0.0
 10
214.7520523424175
 20
128.8254240104425
 30
0.0
 10
214.6005931915157
 20
128.7132966998998
 30
0.0
 10
214.275860182568
 20
128.5164760037787
 30
0.0
 10
214.1004957437516
 20
128.4310565804362
 30
0.0
 10
213.7371787248518
 20
128.2939410464679
 30
0.0
 10
213.5501872718613
 20
128.242112603428
 30
0.0
 10
213.1656157735045
 20
128.1719234230035
 30
0.0
 10
212.9667079203851
 20
128.153912250584
 30
0.0
 10
212.5750445206886
 20
128.1537811521388
 30
0.0
 10
212.3803367843017
 20
128.171079330888
 30
0.0
 10
211.9932197206467
 20
128.2410944093823
 30
0.0
 10
211.8037487179198
 20
128.2935941712103
 30
0.0
 10
211.4426162199022
 20
128.4295452778884
 30
0.0
 10
211.2681969705419
 20
128.51398466249
 30
0.0
 10
210.939998932738
 20
128.7124344290979
 30
0.0
 10
210.7889206952874
 20
128.8244934152252
 30
0.0
 10
210.5120846022598
 20
129.0731125933052
 30
0.0
 10
210.3853207857474
 20
129.2113457712856
 30
0.0
 10
210.1673162475904
 20
129.5021934335613
 30
0.0
 10
210.0750350680603
 20
129.6552222340074
 30
0.0
 10
209.924155380895
 20
129.9761890642642
 30
0.0
 10
209.8662089464249
 20
130.1439682957006
 30
0.0
 10
209.7895967640102
 20
130.4796761283198
 30
0.0
 10
209.7699687439948
 20
130.6494018847476
 30
0.0
 10
209.7695888207497
 20
130.992644853322
 30
0.0
 10
209.7889011612543
 20
131.1609054150309
 30
0.0
 10
209.8648217779311
 20
131.4895670107556
 30
0.0
 10
209.9223275468972
 20
131.6518791405038
 30
0.0
 10
210.0726876934863
 20
131.9601166193243
 30
0.0
 10
210.1647069813777
 20
132.1054598278443
 30
0.0
 10
210.3820509963678
 20
132.3792646348732
 30
0.0
 10
210.5085704164993
 20
132.5082658720981
 30
0.0
 10
210.7850040359591
 20
132.7387052552429
 30
0.0
 10
210.9358336260354
 20
132.8416631274376
 30
0.0
 10
211.2633452182756
 20
133.0230436677252
 30
0.0
 10
211.4378937513637
 20
133.0999363058065
 30
0.0
 10
211.9790986197353
 20
133.2848270985419
 30
0.0
 10
212.373147783567
 20
133.3499989401689
 30
0.0
 10
212.9680922141217
 20
133.3499989401689
 30
0.0
  0
SPLINE
  5
58
330
1F
100
AcDbEntity
  8
0
  6
Continuous
 62
     7
370
    15
100
AcDbSpline
210
0.0
220
0.0
230
1.0
 70
     8
 71
     3
 72
    14
 73
    10
 74
     0
 42
0.00000001
 43
0.00000001
 12
1.0
 22
0.0
 32
0.0
 13
1.0
 23
0.0
 33
0.0
 40
0.0
 40
0.0
 40
0.0
 40
0.0
 40
0.25
 40
0.25
 40
0.5
 40
0.5
 40
0.75
 40
0.75
 40
1.0
 40
1.0
 40
1.0
 40
1.0
 10
225.5781843740762
 20
146.2993315311153
 30
0.0
 10
225.6952455155665
 20
146.3573531040423
 30
0.0
 10
225.8592001285745
 20
146.4033996754907
 30
0.0
 10
226.2785941114775
 20
146.4766911585115
 30
0.0
 10
226.5376054432408
 20
146.5039208658114
 30
0.0
 10
227.125228312726
 20
146.5424556918684
 30
0.0
 10
227.456327004596
 20
146.5543007703636
 30
0.0
 10
228.190629991797
 20
146.5690741293437
 30
0.0
 10
228.5835973666284
 20
146.5718719720299
 30
0.0
 10
229.0024504159578
 20
146.572950193114
 30
0.0
  0
ELLIPSE
  5
59
330
1F
100
AcDbEntity
  8
0
  6
Continuous
 62
     7
370
    15
100
AcDbEllipse
 10
226.6893926462
 20
115.0735140085
 30
0.0
 11
0.0
 21
31.5
 31
0.0
210
0.0
220
0.0
230
1.0
 40
0.2679491924
 41
0.132036829887346
 42
3.009555823702448
  0
SPLINE
  5
5A
330
1F
100
AcDbEntity
  8
0
  6
Continuous
 62
     7
370
    15
100
AcDbSpline
210
0.0
220
0.0
230
1.0
 70
     8
 71
     3
 72
    14
 73
    10
 74
     0
 42
0.00000001
 43
0.00000001
 12
1.0
 22
0.0
 32
0.0
 13
1.0
 23
0.0
 33
0.0
 40
0.0
 40
0.0
 40
0.0
 40
0.0
 40
0.25
 40
0.25
 40
0.5
 40
0.5
 40
0.75
 40
0.75
 40
1.0
 40
1.0
 40
1.0
 40
1.0
 10
229.0024504159578
 20
83.57407782396714
 30
0.0
 10
228.5835887891296
 20
83.57515606713163
 30
0.0
 10
228.1930201668122
 20
83.57796470167857
 30
0.0
 10
227.4664169217677
 20
83.5924663513364
 30
0.0
 10
227.1282213841011
 20
83.60443836702888
 30
0.0
 10
226.5401262107773
 20
83.64288010770593
 30
0.0
 10
226.285458757487
 20
83.66935270618617
 30
0.0
 10
225.859914015565
 20
83.7432919113318
 30
0.0
 10
225.6952528078611
 20
83.78967129859943
 30
0.0
 10
225.5781843740762
 20
83.84769648596586
 30
0.0
  0
SPLINE
  5
5B
330
1F
100
AcDbEntity
  8
0
  6
Continuous
 62
     7
370
    15
100
AcDbSpline
210
0.0
220
0.0
230
1.0
 70
     8
 71
     3
 72
    12
 73
     8
 74
     0
 42
0.00000001
 43
0.00000001
 12
1.0
 22
0.0
 32
0.0
 13
1.0
 23
0.0
 33
0.0
 40
0.0
 40
0.0
 40
0.0
 40
0.0
 40
0.5
 40
0.5
 40
0.75
 40
0.75
 40
1.0
 40
1.0
 40
1.0
 40
1.0
 10
201.864521515611
 20
85.17277154842328
 30
0.0
 10
201.8956667135731
 20
85.13495602550312
 30
0.0
 10
201.9379409799076
 20
85.09888916741947
 30
0.0
 10
202.0378865137329
 20
85.05092910240822
 30
0.0
 10
202.0776168184369
 20
85.03606812851055
 30
0.0
 10
202.1745048684431
 20
85.01311698237943
 30
0.0
 10
202.2345701101897
 20
85.00502204966737
 30
0.0
 10
202.2975342175032
 20
85.00502204966737
 30
0.0
  0
LINE
  5
5C
330
1F
100
AcDbEntity
  8
0
  6
Continuous
 62
     7
370
    15
100
AcDbLine
 10
202.2975342175
 20
85.0050220497
 30
0.0
 11
205.2420205904
 21
85.0050220497
 31
0.0
  0
SPLINE
  5
5D
330
1F
100
AcDbEntity
  8
0
  6
Continuous
 62
     7
370
    15
100
AcDbSpline
210
0.0
220
0.0
230
1.0
 70
     8
 71
     3
 72
    12
 73
     8
 74
     0
 42
0.00000001
 43
0.00000001
 12
1.0
 22
0.0
 32
0.0
 13
1.0
 23
0.0
 33
0.0
 40
0.0
 40
0.0
 40
0.0
 40
0.0
 40
0.2500000000000001
 40
0.2500000000000001
 40
0.5000000000000001
 40
0.5000000000000001
 40
1.0
 40
1.0
 40
1.0
 40
1.0
 10
205.2420205903704
 20
85.00502204966742
 30
0.0
 10
205.3050775452682
 20
85.00502204966742
 30
0.0
 10
205.3642076950138
 20
85.01292238074699
 30
0.0
 10
205.462655245547
 20
85.03623312875202
 30
0.0
 10
205.5016874837351
 20
85.05093825503565
 30
0.0
 10
205.6015773681921
 20
85.0988717832223
 30
0.0
 10
205.6438763418014
 20
85.13494175598706
 30
0.0
 10
205.6750332922627
 20
85.17277154842328
 30
0.0
  0
ELLIPSE
  5
5E
330
1F
100
AcDbEntity
  8
0
  6
Continuous
 62
     7
370
    15
100
AcDbEllipse
 10
189.4226232146
 20
115.0735140085
 30
0.0
 11
-14.75368316065618
 21
31.09325491558116
 31
0.0
210
0.0
220
0.0
230
1.0
 40
0.3419987131
 41
3.300734856217121
 42
4.231496223360772
  0
SPLINE
  5
5F
330
1F
100
AcDbEntity
  8
0
  6
Continuous
 62
     7
370
    15
100
AcDbSpline
210
0.0
220
0.0
230
1.0
 70
     8
 71
     3
 72
    12
 73
     8
 74
     0
 42
0.00000001
 43
0.00000001
 12
1.0
 22
0.0
 32
0.0
 13
1.0
 23
0.0
 33
0.0
 40
0.0
 40
0.0
 40
0.0
 40
0.0
 40
0.4999999999999953
 40
0.4999999999999953
 40
0.7499999999999977
 40
0.7499999999999977
 40
1.0
 40
1.0
 40
1.0
 40
1.0
 10
205.6750332922626
 20
105.1641446878551
 30
0.0
 10
205.6438880943005
 20
105.2782500537205
 30
0.0
 10
205.601613827966
 20
105.3893563809392
 30
0.0
 10
205.5016682941408
 20
105.5395139883695
 30
0.0
 10
205.4619379894367
 20
105.5865066799869
 30
0.0
 10
205.3650499394305
 20
105.6594822645254
 30
0.0
 10
205.3049846976839
 20
105.6854475772044
 30
0.0
 10
205.2420205903704
 20
105.6854475772044
 30
0.0
  0
LINE
  5
60
330
1F
100
AcDbEntity
  8
0
  6
Continuous
 62
     7
370
    15
100
AcDbLine
 10
205.2420205904
 20
105.6854475772
 30
0.0
 11
202.2975342175
 21
105.6854475772
 31
0.0
  0
SPLINE
  5
61
330
1F
100
AcDbEntity
  8
0
  6
Continuous
 62
     7
370
    15
100
AcDbSpline
210
0.0
220
0.0
230
1.0
 70
     8
 71
     3
 72
    12
 73
     8
 74
     0
 42
0.00000001
 43
0.00000001
 12
1.0
 22
0.0
 32
0.0
 13
1.0
 23
0.0
 33
0.0
 40
0.0
 40
0.0
 40
0.0
 40
0.0
 40
0.2499999999999977
 40
0.2499999999999977
 40
0.4999999999999953
 40
0.4999999999999953
 40
1.0
 40
1.0
 40
1.0
 40
1.0
 10
202.2975342175032
 20
105.6854475772043
 30
0.0
 10
202.2344772626054
 20
105.6854475772043
 30
0.0
 10
202.1753471128599
 20
105.6601012238236
 30
0.0
 10
202.0768995623266
 20
105.5859818416841
 30
0.0
 10
202.0378673241385
 20
105.5394853269861
 30
0.0
 10
201.9379774396815
 20
105.3894108199775
 30
0.0
 10
201.8956784660722
 20
105.2782931108626
 30
0.0
 10
201.864521515611
 20
105.1641446878552
 30
0.0
  0
ELLIPSE
  5
62
330
1F
100
AcDbEntity
  8
0
  6
Continuous
 62
     7
370
    15
100
AcDbEllipse
 10
218.1169315933
 20
115.0735140085
 30
0.0
 11
14.75368316065618
 21
31.09325491558116
 31
0.0
210
0.0
220
0.0
230
1.0
 40
0.3419987131
 41
2.051689083818827
 42
2.982450450962502
  0
SPLINE
  5
63
330
1F
100
AcDbEntity
  8
0
  6
Continuous
 62
     7
370
    15
100
AcDbSpline
210
0.0
220
0.0
230
1.0
 70
     8
 71
     3
 72
    12
 73
     8
 74
     0
 42
0.00000001
 43
0.00000001
 12
1.0
 22
0.0
 32
0.0
 13
1.0
 23
0.0
 33
0.0
 40
0.0
 40
0.0
 40
0.0
 40
0.0
 40
0.5
 40
0.5
 40
0.75
 40
0.75
 40
1.0
 40
1.0
 40
1.0
 40
1.0
 10
201.864521515611
 20
124.9828833292256
 30
0.0
 10
201.8952437575301
 20
124.8703275298164
 30
0.0
 10
201.9380809720653
 20
124.7575696700768
 30
0.0
 10
202.0375079962651
 20
124.6080287842804
 30
0.0
 10
202.0772601910817
 20
124.5607360525736
 30
0.0
 10
202.1753016479399
 20
124.4869997592521
 30
0.0
 10
202.2348577035274
 20
124.4615804398764
 30
0.0
 10
202.2975342175032
 20
124.4615804398764
 30
0.0
  0
LINE
  5
64
330
1F
100
AcDbEntity
  8
0
  6
Continuous
 62
     7
370
    15
100
AcDbLine
 10
202.2975342175
 20
124.4615804399
 30
0.0
 11
205.2420205904
 21
124.4615804399
 31
0.0
  0
SPLINE
  5
65
330
1F
100
AcDbEntity
  8
0
  6
Continuous
 62
     7
370
    15
100
AcDbSpline
210
0.0
220
0.0
230
1.0
 70
     8
 71
     3
 72
    12
 73
     8
 74
     0
 42
0.00000001
 43
0.00000001
 12
1.0
 22
0.0
 32
0.0
 13
1.0
 23
0.0
 33
0.0
 40
0.0
 40
0.0
 40
0.0
 40
0.0
 40
0.2500000000000009
 40
0.2500000000000009
 40
0.5000000000000019
 40
0.5000000000000019
 40
1.0
 40
1.0
 40
1.0
 40
1.0
 10
205.2420205903704
 20
124.4615804398764
 30
0.0
 10
205.3051006288637
 20
124.4615804398764
 30
0.0
 10
205.3642492510452
 20
124.4869447590914
 30
0.0
 10
205.4627218011142
 20
124.5611096194643
 30
0.0
 10
205.5017584130989
 20
124.6076299600184
 30
0.0
 10
205.601654879878
 20
124.7577723028637
 30
0.0
 10
205.6440757609446
 20
124.8694655098358
 30
0.0
 10
205.6750332922626
 20
124.9828833292256
 30
0.0
  0
ELLIPSE
  5
66
330
1F
100
AcDbEntity
  8
0
  6
Continuous
 62
     7
370
    15
100
AcDbEllipse
 10
189.4226232146
 20
115.0735140085
 30
0.0
 11
14.75368316065601
 21
31.09325491558116
 31
0.0
210
0.0
220
0.0
230
1.0
 40
0.3419987131
 41
5.193281737408619
 42
6.124043104552322
  0
SPLINE
  5
67
330
1F
100
AcDbEntity
  8
0
  6
Continuous
 62
     7
370
    15
100
AcDbSpline
210
0.0
220
0.0
230
1.0
 70
     8
 71
     3
 72
    12
 73
     8
 74
     0
 42
0.00000001
 43
0.00000001
 12
1.0
 22
0.0
 32
0.0
 13
1.0
 23
0.0
 33
0.0
 40
0.0
 40
0.0
 40
0.0
 40
0.0
 40
0.4999999999999981
 40
0.4999999999999981
 40
0.749999999999999
 40
0.749999999999999
 40
1.0
 40
1.0
 40
1.0
 40
1.0
 10
205.6750332922626
 20
144.9742564686577
 30
0.0
 10
205.6443110503435
 20
145.0115584516108
 30
0.0
 10
205.6014738358083
 20
145.0481702836572
 30
0.0
 10
205.5020468116085
 20
145.0959350669424
 30
0.0
 10
205.4622946167919
 20
145.1108925824247
 30
0.0
 10
205.3642531599336
 20
145.1340825281939
 30
0.0
 10
205.3046971043462
 20
145.1420059674136
 30
0.0
 10
205.2420205903704
 20
145.1420059674136
 30
0.0
  0
LINE
  5
68
330
1F
100
AcDbEntity
  8
0
  6
Continuous
 62
     7
370
    15
100
AcDbLine
 10
205.2420205904
 20
145.1420059674
 30
0.0
 11
202.2975342175
 21
145.1420059674
 31
0.0
  0
SPLINE
  5
69
330
1F
100
AcDbEntity
  8
0
  6
Continuous
 62
     7
370
    15
100
AcDbSpline
210
0.0
220
0.0
230
1.0
 70
     8
 71
     3
 72
    12
 73
     8
 74
     0
 42
0.00000001
 43
0.00000001
 12
1.0
 22
0.0
 32
0.0
 13
1.0
 23
0.0
 33
0.0
 40
0.0
 40
0.0
 40
0.0
 40
0.0
 40
0.2500000000000009
 40
0.2500000000000009
 40
0.5000000000000018
 40
0.5000000000000018
 40
1.0
 40
1.0
 40
1.0
 40
1.0
 10
202.2975342175032
 20
145.1420059674136
 30
0.0
 10
202.2344541790099
 20
145.1420059674136
 30
0.0
 10
202.1753055568285
 20
145.1341000412012
 30
0.0
 10
202.0768330067594
 20
145.1107748797649
 30
0.0
 10
202.0377963947747
 20
145.0960620899332
 30
0.0
 10
201.9378999279957
 20
145.0481062892023
 30
0.0
 10
201.895479046929
 20
145.0118441326222
 30
0.0
 10
201.864521515611
 20
144.9742564686577
 30
0.0
  0
ELLIPSE
  5
6A
330
1F
100
AcDbEntity
  8
0
  6
Continuous
 62
     7
370
    15
100
AcDbEllipse
 10
218.1169315933
 20
115.0735140085
 30
0.0
 11
-14.75368316065604
 21
31.09325491558116
 31
0.0
210
0.0
220
0.0
230
1.0
 40
0.3419987131
 41
0.1591422026273045
 42
1.089903569770978
  0
LINE
  5
6B
330
1F
100
AcDbEntity
  8
0
  6
Continuous
 62
     7
370
    15
100
AcDbLine
 10
191.7697774039
 20
84.0735140085
 30
0.0
 11
191.7697774039
 21
146.0735140037
 31
0.0
  0
ELLIPSE
  5
6C
330
1F
100
AcDbEntity
  8
0
  6
Continuous
 62
     7
370
    15
100
AcDbEllipse
 10
223.4164169
 20
132.6383729683
 30
0.0
 11
0.3267812967788757
 21
3.437685688267692
 31
0.0
210
0.0
220
0.0
230
1.0
 40
0.2095444568
 41
0.0
 42
6.283185307179586
  0
SPLINE
  5
6D
330
1F
100
AcDbEntity
  8
0
  6
Continuous
 62
     7
370
    15
100
AcDbSpline
210
0.0
220
0.0
230
1.0
 70
     8
 71
     3
 72
    12
 73
     8
 74
     0
 42
0.00000001
 43
0.00000001
 12
1.0
 22
0.0
 32
0.0
 13
1.0
 23
0.0
 33
0.0
 40
0.0
 40
0.0
 40
0.0
 40
0.0
 40
0.4999999999999997
 40
0.4999999999999997
 40
0.7499999999999998
 40
0.7499999999999998
 40
1.0
 40
1.0
 40
1.0
 40
1.0
 10
190.9532651174803
 20
93.2187203060647
 30
0.0
 10
191.0097016183875
 20
93.21730242472296
 30
0.0
 10
191.0787862490762
 20
93.21573808847464
 30
0.0
 10
191.1975885207942
 20
93.2127938965002
 30
0.0
 10
191.2377737962642
 20
93.21175569340282
 30
0.0
 10
191.311154843668
 20
93.20982179818819
 30
0.0
 10
191.3445644074107
 20
93.20892691089936
 30
0.0
 10
191.3748005150672
 20
93.20814312062703
 30
0.0
  0
SPLINE
  5
6E
330
1F
100
AcDbEntity
  8
0
  6
Continuous
 62
     7
370
    15
100
AcDbSpline
210
0.0
220
0.0
230
1.0
 70
     8
 71
     3
 72
    16
 73
    12
 74
     0
 42
0.00000001
 43
0.00000001
 12
1.0
 22
0.0
 32
0.0
 13
1.0
 23
0.0
 33
0.0
 40
0.0
 40
0.0
 40
0.0
 40
0.0
 40
0.0625000000000018
 40
0.0625000000000018
 40
0.1250000000000036
 40
0.1250000000000036
 40
0.2500000000000071
 40
0.2500000000000071
 40
0.5000000000000059
 40
0.5000000000000059
 40
1.0
 40
1.0
 40
1.0
 40
1.0
 10
191.37480051503
 20
93.20814312065129
 30
0.0
 10
191.3863809226179
 20
93.20784292953994
 30
0.0
 10
191.3996904493792
 20
93.20651518128093
 30
0.0
 10
191.4289918794653
 20
93.19981650650594
 30
0.0
 10
191.4438059793496
 20
93.19445832340024
 30
0.0
 10
191.4796343810524
 20
93.1774126742329
 30
0.0
 10
191.4937540054155
 20
93.16595013645716
 30
0.0
 10
191.528258149504
 20
93.13438681108491
 30
0.0
 10
191.5393627002086
 20
93.11648951203965
 30
0.0
 10
191.5655388774248
 20
93.0663280944254
 30
0.0
 10
191.5697774039368
 20
93.03858368222882
 30
0.0
 10
191.5697774039368
 20
93.01391952029928
 30
0.0
  0
LINE
  5
6F
330
1F
100
AcDbEntity
  8
0
  6
Continuous
 62
     7
370
    15
100
AcDbLine
 10
191.5697774039
 20
108.0516266828
 30
0.0
 11
191.5697774039
 21
92.5336937297
 31
0.0
  0
SPLINE
  5
70
330
1F
100
AcDbEntity
  8
0
  6
Continuous
 62
     7
370
    15
100
AcDbSpline
210
0.0
220
0.0
230
1.0
 70
     8
 71
     3
 72
    16
 73
    12
 74
     0
 42
0.00000001
 43
0.00000001
 12
1.0
 22
0.0
 32
0.0
 13
1.0
 23
0.0
 33
0.0
 40
0.0
 40
0.0
 40
0.0
 40
0.0
 40
0.5000000000000016
 40
0.5000000000000016
 40
0.7500000000000007
 40
0.7500000000000007
 40
0.8750000000000019
 40
0.8750000000000019
 40
0.9375000000000009
 40
0.9375000000000009
 40
1.0
 40
1.0
 40
1.0
 40
1.0
 10
191.5697774039368
 20
108.0516266827904
 30
0.0
 10
191.5697774039368
 20
108.1653192269183
 30
0.0
 10
191.5656311288589
 20
108.2796393882678
 30
0.0
 10
191.5396655334654
 20
108.452687678765
 30
0.0
 10
191.5282046280879
 20
108.5118631859267
 30
0.0
 10
191.4938928903135
 20
108.5949863053948
 30
0.0
 10
191.479868154384
 20
108.6231076214955
 30
0.0
 10
191.4438451913501
 20
108.6517234354729
 30
0.0
 10
191.4290906822605
 20
108.6575164833747
 30
0.0
 10
191.3997385211136
 20
108.6559230574377
 30
0.0
 10
191.3863986466095
 20
108.6494266541138
 30
0.0
 10
191.3748005150611
 20
108.6409109079107
 30
0.0
  0
SPLINE
  5
71
330
1F
100
AcDbEntity
  8
0
  6
Continuous
 62
     7
370
    15
100
AcDbSpline
210
0.0
220
0.0
230
1.0
 70
     8
 71
     3
 72
    12
 73
     8
 74
     0
 42
0.00000001
 43
0.00000001
 12
1.0
 22
0.0
 32
0.0
 13
1.0
 23
0.0
 33
0.0
 40
0.0
 40
0.0
 40
0.0
 40
0.0
 40
0.2500000000000003
 40
0.2500000000000003
 40
0.5000000000000007
 40
0.5000000000000007
 40
1.0
 40
1.0
 40
1.0
 40
1.0
 10
191.3748005150682
 20
108.6409109079015
 30
0.0
 10
191.3446020736276
 20
108.6187381758565
 30
0.0
 10
191.3112347182916
 20
108.5996585199793
 30
0.0
 10
191.2380794424617
 20
108.5744854755365
 30
0.0
 10
191.1978267434377
 20
108.5689289391198
 30
0.0
 10
191.0800980001629
 20
108.5798407501065
 30
0.0
 10
191.0096395521039
 20
108.6217765055174
 30
0.0
 10
190.9532651174857
 20
108.6709882878989
 30
0.0
  0
SPLINE
  5
72
330
1F
100
AcDbEntity
  8
0
  6
Continuous
 62
     7
370
    15
100
AcDbSpline
210
0.0
220
0.0
230
1.0
 70
     8
 71
     3
 72
    12
 73
     8
 74
     0
 42
0.00000001
 43
0.00000001
 12
1.0
 22
0.0
 32
0.0
 13
1.0
 23
0.0
 33
0.0
 40
0.0
 40
0.0
 40
0.0
 40
0.0
 40
0.4999999999999978
 40
0.4999999999999978
 40
0.749999999999999
 40
0.749999999999999
 40
1.0
 40
1.0
 40
1.0
 40
1.0
 10
190.4484570603771
 20
109.8873396797795
 30
0.0
 10
190.4922074122616
 20
109.666892694805
 30
0.0
 10
190.5450975633861
 20
109.4513477049994
 30
0.0
 10
190.6567091065278
 20
109.1389336284275
 30
0.0
 10
190.6992684504313
 20
109.0368541528116
 30
0.0
 10
190.8042456857687
 20
108.8424141401698
 30
0.0
 10
190.8658129288633
 20
108.7473292411061
 30
0.0
 10
190.9532651174857
 20
108.670988287899
 30
0.0
  0
SPLINE
  5
73
330
1F
100
AcDbEntity
  8
0
  6
Continuous
 62
     7
370
    15
100
AcDbSpline
210
0.0
220
0.0
230
1.0
 70
     8
 71
     3
 72
    12
 73
     8
 74
     0
 42
0.00000001
 43
0.00000001
 12
1.0
 22
0.0
 32
0.0
 13
1.0
 23
0.0
 33
0.0
 40
0.0
 40
0.0
 40
0.0
 40
0.0
 40
0.2500000000000005
 40
0.2500000000000005
 40
0.5000000000000009
 40
0.5000000000000009
 40
1.0
 40
1.0
 40
1.0
 40
1.0
 10
190.9532651174856
 20
121.4760397291821
 30
0.0
 10
190.8647717099177
 20
121.3987898490738
 30
0.0
 10
190.8047136691518
 20
121.3054705251846
 30
0.0
 10
190.6988653961693
 20
121.1094374722151
 30
0.0
 10
190.6563318748918
 20
121.0071111140034
 30
0.0
 10
190.5451805680681
 20
120.6957667082275
 30
0.0
 10
190.4922497110203
 20
120.4803484550495
 30
0.0
 10
190.4484570603771
 20
120.2596883373016
 30
0.0
  0
SPLINE
  5
74
330
1F
100
AcDbEntity
  8
0
  6
Continuous
 62
     7
370
    15
100
AcDbSpline
210
0.0
220
0.0
230
1.0
 70
     8
 71
     3
 72
    12
 73
     8
 74
     0
 42
0.00000001
 43
0.00000001
 12
1.0
 22
0.0
 32
0.0
 13
1.0
 23
0.0
 33
0.0
 40
0.0
 40
0.0
 40
0.0
 40
0.0
 40
0.5000000000000003
 40
0.5000000000000003
 40
0.7500000000000001
 40
0.7500000000000001
 40
1.0
 40
1.0
 40
1.0
 40
1.0
 10
190.9532651174856
 20
121.4760397291821
 30
0.0
 10
191.0095736657812
 20
121.525193996426
 30
0.0
 10
191.0798483264993
 20
121.5671513150297
 30
0.0
 10
191.1978862408229
 20
121.5781109925622
 30
0.0
 10
191.2380624816768
 20
121.5726022343148
 30
0.0
 10
191.3120195763548
 20
121.5470450055258
 30
0.0
 10
191.3446359640662
 20
121.5282649576865
 30
0.0
 10
191.374800515062
 20
121.5061171091698
 30
0.0
  0
SPLINE
  5
75
330
1F
100
AcDbEntity
  8
0
  6
Continuous
 62
     7
370
    15
100
AcDbSpline
210
0.0
220
0.0
230
1.0
 70
     8
 71
     3
 72
    16
 73
    12
 74
     0
 42
0.00000001
 43
0.00000001
 12
1.0
 22
0.0
 32
0.0
 13
1.0
 23
0.0
 33
0.0
 40
0.0
 40
0.0
 40
0.0
 40
0.0
 40
0.0624999999999983
 40
0.0624999999999983
 40
0.1249999999999967
 40
0.1249999999999967
 40
0.2499999999999967
 40
0.2499999999999967
 40
0.5000000000000001
 40
0.5000000000000001
 40
1.0
 40
1.0
 40
1.0
 40
1.0
 10
191.3748005150302
 20
121.5061171091153
 30
0.0
 10
191.3864134148696
 20
121.4975905195201
 30
0.0
 10
191.399764599302
 20
121.4910902579873
 30
0.0
 10
191.4291644389212
 20
121.4895208608698
 30
0.0
 10
191.4440051634765
 20
121.4954042515003
 30
0.0
 10
191.4798383714451
 20
121.5239518875509
 30
0.0
 10
191.4939515792666
 20
121.5521189068567
 30
0.0
 10
191.5284429504856
 20
121.6358731652786
 30
0.0
 10
191.5395270215959
 20
121.6935865789
 30
0.0
 10
191.5656498393919
 20
121.8671771155459
 30
0.0
 10
191.5697774039368
 20
121.9822051681878
 30
0.0
 10
191.5697774039368
 20
122.0954013342907
 30
0.0
  0
LINE
  5
76
330
1F
100
AcDbEntity
  8
0
  6
Continuous
 62
     7
370
    15
100
AcDbLine
 10
191.5697774039
 20
137.6133342874
 30
0.0
 11
191.5697774039
 21
122.0954013343
 31
0.0
  0
SPLINE
  5
77
330
1F
100
AcDbEntity
  8
0
  6
Continuous
 62
     7
370
    15
100
AcDbSpline
210
0.0
220
0.0
230
1.0
 70
     8
 71
     3
 72
    16
 73
    12
 74
     0
 42
0.00000001
 43
0.00000001
 12
1.0
 22
0.0
 32
0.0
 13
1.0
 23
0.0
 33
0.0
 40
0.0
 40
0.0
 40
0.0
 40
0.0
 40
0.4999999999999999
 40
0.4999999999999999
 40
0.7500000000000018
 40
0.7500000000000018
 40
0.8750000000000028
 40
0.8750000000000028
 40
0.9375000000000014
 40
0.9375000000000014
 40
1.0
 40
1.0
 40
1.0
 40
1.0
 10
191.5697774039368
 20
137.1331084967818
 30
0.0
 10
191.5697774039368
 20
137.1084373407389
 30
0.0
 10
191.5656117054768
 20
137.0808555093477
 30
0.0
 10
191.5393533771519
 20
137.0305126385243
 30
0.0
 10
191.5278495954143
 20
137.0122231404624
 30
0.0
 10
191.4937188360678
 20
136.9810681094254
 30
0.0
 10
191.4792969493971
 20
136.9694287342137
 30
0.0
 10
191.4437299809592
 20
136.9525467082826
 30
0.0
 10
191.4287782126646
 20
136.9471576044749
 30
0.0
 10
191.3997743943048
 20
136.9405371085304
 30
0.0
 10
191.3863590402956
 20
136.939184520324
 30
0.0
 10
191.374800515059
 20
136.9388848964524
 30
0.0
  0
SPLINE
  5
78
330
1F
100
AcDbEntity
  8
0
  6
Continuous
 62
     7
370
    15
100
AcDbSpline
210
0.0
220
0.0
230
1.0
 70
     8
 71
     3
 72
    12
 73
     8
 74
     0
 42
0.00000001
 43
0.00000001
 12
1.0
 22
0.0
 32
0.0
 13
1.0
 23
0.0
 33
0.0
 40
0.0
 40
0.0
 40
0.0
 40
0.0
 40
0.2499999999999999
 40
0.2499999999999999
 40
0.5000000000000001
 40
0.5000000000000001
 40
1.0
 40
1.0
 40
1.0
 40
1.0
 10
191.3748005150682
 20
136.9388848964541
 30
0.0
 10
191.3446127385186
 20
136.9381023590365
 30
0.0
 10
191.3112589344269
 20
136.937209027218
 30
0.0
 10
191.2381327312309
 20
136.9352817184144
 30
0.0
 10
191.1978975282068
 20
136.9342421872018
 30
0.0
 10
191.0802058980737
 20
136.9313243038545
 30
0.0
 10
191.0098252249136
 20
136.9297286977843
 30
0.0
 10
190.953265117483
 20
136.9283077110164
 30
0.0
  0
SPLINE
  5
79
330
1F
100
AcDbEntity
  8
0
  6
Continuous
 62
     7
370
    15
100
AcDbSpline
210
0.0
220
0.0
230
1.0
 70
     8
 71
     3
 72
    16
 73
    12
 74
     0
 42
0.00000001
 43
0.00000001
 12
1.0
 22
0.0
 32
0.0
 13
1.0
 23
0.0
 33
0.0
 40
0.0
 40
0.0
 40
0.0
 40
0.0
 40
0.25
 40
0.25
 40
0.375
 40
0.375
 40
0.5
 40
0.5
 40
0.75
 40
0.75
 40
1.0
 40
1.0
 40
1.0
 40
1.0
 10
190.4484570603772
 20
120.2596883373016
 30
0.0
 10
190.2872245828927
 20
119.4472785620548
 30
0.0
 10
190.1667447432531
 20
118.6072002676701
 30
0.0
 10
190.0443642259398
 20
117.3059052183073
 30
0.0
 10
190.0133865655423
 20
116.8652241827225
 30
0.0
 10
189.9717728279144
 20
115.9693845417914
 30
0.0
 10
189.9615369149815
 20
115.5227264105889
 30
0.0
 10
189.9613485179254
 20
114.187416453449
 30
0.0
 10
190.001493220563
 20
113.3029210801415
 30
0.0
 10
190.1656469755026
 20
111.5456711921155
 30
0.0
 10
190.2871986259121
 20
110.6998802457024
 30
0.0
 10
190.4484570603772
 20
109.8873396797795
 30
0.0
  0
LINE
  5
7A
330
1F
100
AcDbEntity
  8
0
  6
Continuous
 62
     7
370
    15
100
AcDbLine
 10
189.5697774039
 20
121.5586922702
 30
0.0
 11
189.5697774039
 21
108.5883357469
 31
0.0
  0
LINE
  5
7B
330
1F
100
AcDbEntity
  8
0
  6
Continuous
 62
     7
370
    15
100
AcDbLine
 10
155.2697774039
 20
121.1278245761
 30
0.0
 11
155.2697774039
 21
109.019203441
 31
0.0
  0
LINE
  5
7C
330
1F
100
AcDbEntity
  8
0
  6
Continuous
 62
     7
370
    15
100
AcDbLine
 10
153.7697774039
 20
120.6948118742
 30
0.0
 11
153.7697774039
 21
109.4522161429
 31
0.0
  0
LINE
  5
7D
330
1F
100
AcDbEntity
  8
0
  6
Continuous
 62
     7
370
    15
100
AcDbLine
 10
155.2697774039
 20
93.9151506123
 30
0.0
 11
155.2697774039
 21
109.019203441
 31
0.0
  0
LINE
  5
7E
330
1F
100
AcDbEntity
  8
0
  6
Continuous
 62
     7
370
    15
100
AcDbLine
 10
189.5697774039
 20
93.053415224
 30
0.0
 11
189.5697774039
 21
108.5883357469
 31
0.0
  0
LINE
  5
7F
330
1F
100
AcDbEntity
  8
0
  6
Continuous
 62
     7
370
    15
100
AcDbLine
 10
155.2697774039
 20
93.9151506123
 30
0.0
 11
189.5697774039
 21
93.053415224
 31
0.0
  0
ARC
  5
80
330
1F
100
AcDbEntity
  8
0
  6
Continuous
 62
     7
370
    15
100
AcDbCircle
 10
189.7697143149
 20
93.0483921128
 30
0.0
 40
0.2000000000000059
100
AcDbArc
 50
88.5608333333
 51
178.5608333333
  0
LINE
  5
81
330
1F
100
AcDbEntity
  8
0
  6
Continuous
 62
     7
370
    15
100
AcDbLine
 10
155.2697774039
 20
121.1278245761
 30
0.0
 11
155.2697774039
 21
136.2318774048
 31
0.0
  0
LINE
  5
82
330
1F
100
AcDbEntity
  8
0
  6
Continuous
 62
     7
370
    15
100
AcDbLine
 10
155.2697774039
 20
136.2318774048
 30
0.0
 11
189.5697774039
 21
137.0936127931
 31
0.0
  0
LINE
  5
83
330
1F
100
AcDbEntity
  8
0
  6
Continuous
 62
     7
370
    15
100
AcDbLine
 10
189.5697774039
 20
121.5586922702
 30
0.0
 11
189.5697774039
 21
137.0936127931
 31
0.0
  0
ARC
  5
84
330
1F
100
AcDbEntity
  8
0
  6
Continuous
 62
     7
370
    15
100
AcDbCircle
 10
189.7697143149
 20
137.0986359042
 30
0.0
 40
0.1999999999999775
100
AcDbArc
 50
181.4391666667
 51
271.4391666667
  0
LINE
  5
85
330
1F
100
AcDbEntity
  8
0
  6
Continuous
 62
     7
370
    15
100
AcDbLine
 10
189.774737426
 20
136.8986989933
 30
0.0
 11
190.9532651175
 21
136.928307711
 31
0.0
  0
LINE
  5
86
330
1F
100
AcDbEntity
  8
0
  6
Continuous
 62
     7
370
    15
100
AcDbLine
 10
189.774737426
 20
93.2483290238
 30
0.0
 11
190.9532651175
 21
93.2187203061
 31
0.0
  0
LINE
  5
87
330
1F
100
AcDbEntity
  8
0
  6
Continuous
 62
     7
370
    15
100
AcDbLine
 10
153.7697774039
 20
135.365852001
 30
0.0
 11
155.2697774039
 21
136.2318774048
 31
0.0
  0
LINE
  5
88
330
1F
100
AcDbEntity
  8
0
  6
Continuous
 62
     7
370
    15
100
AcDbLine
 10
153.7697774039
 20
120.6948118742
 30
0.0
 11
153.7697774039
 21
135.365852001
 31
0.0
  0
LINE
  5
89
330
1F
100
AcDbEntity
  8
0
  6
Continuous
 62
     7
370
    15
100
AcDbLine
 10
153.7697774039
 20
94.781176016
 30
0.0
 11
155.2697774039
 21
93.9151506123
 31
0.0
  0
LINE
  5
8A
330
1F
100
AcDbEntity
  8
0
  6
Continuous
 62
     7
370
    15
100
AcDbLine
 10
153.7697774039
 20
94.781176016
 30
0.0
 11
153.7697774039
 21
109.4522161429
 31
0.0
  0
SPLINE
  5
8B
330
1F
100
AcDbEntity
  8
0
  6
Continuous
 62
     7
370
    15
100
AcDbSpline
210
0.0
220
0.0
230
1.0
 70
     8
 71
     3
 72
     8
 73
     4
 74
     0
 42
0.00000001
 43
0.00000001
 12
1.0
 22
0.0
 32
0.0
 13
1.0
 23
0.0
 33
0.0
 40
0.0
 40
0.0
 40
0.0
 40
0.0
 40
1.0
 40
1.0
 40
1.0
 40
1.0
 10
231.3737393318106
 20
83.07492028944095
 30
0.0
 10
230.861093460227
 20
83.07492028944095
 30
0.0
 10
230.3594549181257
 20
83.07412654727709
 30
0.0
 10
229.8684758197419
 20
83.07369664213074
 30
0.0
  0
SPLINE
  5
8C
330
1F
100
AcDbEntity
  8
0
  6
Continuous
 62
     7
370
    15
100
AcDbSpline
210
0.0
220
0.0
230
1.0
 70
     8
 71
     3
 72
    12
 73
     8
 74
     0
 42
0.00000001
 43
0.00000001
 12
1.0
 22
0.0
 32
0.0
 13
1.0
 23
0.0
 33
0.0
 40
0.0
 40
0.0
 40
0.0
 40
0.0
 40
0.5000000000000046
 40
0.5000000000000046
 40
0.7500000000000022
 40
0.7500000000000022
 40
1.0
 40
1.0
 40
1.0
 40
1.0
 10
229.8684758197422
 20
83.07369664213094
 30
0.0
 10
229.7782150860848
 20
83.22995467801061
 30
0.0
 10
229.6446812003954
 20
83.35956292716537
 30
0.0
 10
229.4169884192964
 20
83.48770584555714
 30
0.0
 10
229.335460668402
 20
83.52032678379277
 30
0.0
 10
229.170192529931
 20
83.56324052373891
 30
0.0
 10
229.086684933922
 20
83.5738609855475
 30
0.0
 10
229.0024504159578
 20
83.57407782396714
 30
0.0
  0
SPLINE
  5
8D
330
1F
100
AcDbEntity
  8
0
  6
Continuous
 62
     7
370
    15
100
AcDbSpline
210
0.0
220
0.0
230
1.0
 70
     8
 71
     3
 72
    12
 73
     8
 74
     0
 42
0.00000001
 43
0.00000001
 12
1.0
 22
0.0
 32
0.0
 13
1.0
 23
0.0
 33
0.0
 40
0.0
 40
0.0
 40
0.0
 40
0.0
 40
0.2500000000000052
 40
0.2500000000000052
 40
0.5000000000000104
 40
0.5000000000000104
 40
1.0
 40
1.0
 40
1.0
 40
1.0
 10
229.0024504159578
 20
146.572950193114
 30
0.0
 10
229.1070251050147
 20
146.5732193916665
 30
0.0
 10
229.2103870570539
 20
146.5893845977108
 30
0.0
 10
229.4139923204771
 20
146.6558652633435
 30
0.0
 10
229.5107185584407
 20
146.7053884841313
 30
0.0
 10
229.7745359592344
 20
146.9012267278913
 30
0.0
 10
229.9094413317849
 20
147.0945289225506
 30
0.0
 10
229.9683762422469
 20
147.3144202622663
 30
0.0
  0
SPLINE
  5
8E
330
1F
100
AcDbEntity
  8
0
  6
Continuous
 62
     7
370
    15
100
AcDbSpline
210
0.0
220
0.0
230
1.0
 70
     8
 71
     3
 72
     8
 73
     4
 74
     0
 42
0.00000001
 43
0.00000001
 12
1.0
 22
0.0
 32
0.0
 13
1.0
 23
0.0
 33
0.0
 40
0.0
 40
0.0
 40
0.0
 40
0.0
 40
1.0
 40
1.0
 40
1.0
 40
1.0
 10
229.9683762422469
 20
147.3144202622663
 30
0.0
 10
230.3209186915903
 20
148.6297871795147
 30
0.0
 10
230.6737498265365
 20
149.946144999265
 30
0.0
 10
231.0267525749063
 20
151.2634476380719
 30
0.0
  0
SPLINE
  5
8F
330
1F
100
AcDbEntity
  8
0
  6
Continuous
 62
     7
370
    15
100
AcDbSpline
210
0.0
220
0.0
230
1.0
 70
     8
 71
     3
 72
     8
 73
     4
 74
     0
 42
0.00000001
 43
0.00000001
 12
1.0
 22
0.0
 32
0.0
 13
1.0
 23
0.0
 33
0.0
 40
0.0
 40
0.0
 40
0.0
 40
0.0
 40
1.0
 40
1.0
 40
1.0
 40
1.0
 10
231.3737393318106
 20
151.6258452145769
 30
0.0
 10
231.2580443607903
 20
151.5049846006737
 30
0.0
 10
231.1423817444725
 20
151.3841856546574
 30
0.0
 10
231.0267525749062
 20
151.2634476380719
 30
0.0
  0
LINE
  5
90
330
1F
100
AcDbEntity
  8
0
  6
Continuous
 62
     7
370
    15
100
AcDbLine
 10
243.522925646
 20
149.2737801477
 30
0.0
 11
241.3155204678
 21
148.5777879684
 31
0.0
  0
ARC
  5
91
330
1F
100
AcDbEntity
  8
0
  6
Continuous
 62
     7
370
    15
100
AcDbCircle
 10
241.7715235213
 20
147.131531054
 30
0.0
 40
1.516442497159296
100
AcDbArc
 50
107.5
 51
287.5
  0
LINE
  5
92
330
1F
100
AcDbEntity
  8
0
  6
Continuous
 62
     7
370
    15
100
AcDbLine
 10
242.2275265748
 20
145.6852741396
 30
0.0
 11
242.9567819385
 21
145.9152074726
 31
0.0
  0
LINE
  5
93
330
1F
100
AcDbEntity
  8
0
  6
Continuous
 62
     7
370
    15
100
AcDbLine
 10
253.329251968
 20
149.1550428505
 30
0.0
 11
232.4942693555
 21
83.0749202894
 31
0.0
  0
LWPOLYLINE
  5
94
330
1F
100
AcDbEntity
  8
0
  6
Continuous
 62
     7
370
    15
100
AcDbPolyline
 90
        3
 70
   128
 43
0.0
 10
245.7537614146
 20
156.3490872763
 10
240.9090778132
 20
154.8215225207
 10
231.6330205728
 20
151.8967029876
  0
LINE
  5
95
330
1F
100
AcDbEntity
  8
0
  6
Continuous
 62
     7
370
    15
100
AcDbLine
 10
231.6330205728
 20
151.8967029876
 30
0.0
 11
231.3737393318
 21
151.6258452146
 31
0.0
  0
LINE
  5
96
330
1F
100
AcDbEntity
  8
0
  6
Continuous
 62
     7
370
    15
100
AcDbLine
 10
232.4942693555
 20
83.0749202894
 30
0.0
 11
231.3737393318
 21
83.0749202894
 31
0.0
  0
LINE
  5
97
330
1F
100
AcDbEntity
  8
0
  6
Continuous
 62
     7
370
    15
100
AcDbLine
 10
242.1474057706
 20
145.9393848656
 30
0.0
 11
242.6656440154
 21
146.1027847565
 31
0.0
  0
LINE
  5
98
330
1F
100
AcDbEntity
  8
0
  6
Continuous
 62
     7
370
    15
100
AcDbLine
 10
241.3956412719
 20
148.3236772425
 30
0.0
 11
243.4251162043
 21
148.9635682307
 31
0.0
  0
ARC
  5
99
330
1F
100
AcDbEntity
  8
0
  6
Continuous
 62
     7
370
    15
100
AcDbCircle
 10
241.7715235213
 20
147.131531054
 30
0.0
 40
1.250000000000004
100
AcDbArc
 50
107.5
 51
287.5
  0
LWPOLYLINE
  5
9A
330
1F
100
AcDbEntity
  8
0
  6
Continuous
 62
     7
370
    15
100
AcDbPolyline
 90
       16
 70
   128
 43
0.0
 10
209.7697774039
 20
130.3476364211
 10
209.8195465613
 20
130.8189149814
 10
210.0146076977
 20
131.3756344354
 10
210.3478245477
 20
131.8808057763
 10
210.8024882272
 20
132.3090976038
 10
211.3558000006
 20
132.6390335772
 10
211.9800145053
 20
132.8540693292
 10
212.6438310195
 20
132.9434220692
 10
213.3139630113
 20
132.9026112778
 10
213.9568072645
 20
132.7336833784
 10
214.5401288838
 20
132.4451091213
 10
215.0346776876
 20
132.0513588248
 10
215.4156549338
 20
131.5721767728
 10
215.6639568324
 20
131.0315911543
 10
215.7671324894
 20
130.4567091895
 10
215.7697774039
 20
130.3476364211
  0
LWPOLYLINE
  5
9B
330
1F
100
AcDbEntity
  8
0
  6
Continuous
 62
     7
370
    15
100
AcDbPolyline
 90
       18
 70
   128
 43
0.0
 10
210.0527540876
 20
129.6443071098
 10
209.9765601518
 20
129.8855151596
 10
209.9101519057
 20
130.4577176793
 10
209.9979068103
 20
131.027759408
 10
210.2350939761
 20
131.5649092485
 10
210.6089265816
 20
132.0402093139
 10
211.0992512142
 20
132.4280360548
 10
211.6796343461
 20
132.7074816309
 10
212.3187873725
 20
132.8634810592
 10
212.9822533881
 20
132.8876243699
 10
213.6342647685
 20
132.7786099909
 10
214.2396714113
 20
132.5423149157
 10
214.7658356876
 20
132.1914778729
 10
215.1843919453
 20
131.7450125782
 10
215.472775708
 20
131.2269880914
 10
215.6154401325
 20
130.6653312465
 10
215.6046941427
 20
130.0903211095
 10
215.4673957268
 20
129.5949326238
  0
LWPOLYLINE
  5
9C
330
1F
100
AcDbEntity
  8
0
  6
Continuous
 62
     7
370
    15
100
AcDbPolyline
 90
       26
 70
   128
 43
0.0
 10
212.8747327243
 20
128.2544817143
 10
212.2502587783
 20
128.2998367851
 10
211.6584280981
 20
128.4782609958
 10
211.1364275821
 20
128.7785432969
 10
210.7170564425
 20
129.1818158472
 10
210.4266653102
 20
129.6627395492
 10
210.2835005281
 20
130.191096198
 10
210.2965576661
 20
130.7336872022
 10
210.465016296
 20
131.2564195734
 10
210.7782915427
 20
131.7264481143
 10
211.2166991702
 20
132.1142392031
 10
211.7526924149
 20
132.3954264994
 10
212.3525928501
 20
132.5523419713
 10
212.9787065251
 20
132.5751260425
 10
213.591692415
 20
132.4623471062
 10
214.153034362
 20
132.2210914776
 10
214.6274611871
 20
131.8665181352
 10
214.9851629079
 20
131.420906226
 10
215.20366381
 20
130.9122551852
 10
215.2692346779
 20
130.3725254284
 10
215.177755453
 20
129.8356301612
 10
214.9349741113
 20
129.3353044877
 10
214.5561454974
 20
128.9029857102
 10
214.0650728064
 20
128.5658380073
 10
213.4926119416
 20
128.3450456092
 10
212.8747327243
 20
128.2544817143
  0
ARC
  5
9D
330
1F
100
AcDbEntity
  8
0
  6
Continuous
 62
     7
370
    15
100
AcDbCircle
 10
249.5984961997
 20
152.9022328043
 30
0.0
 40
1.675000000000038
100
AcDbArc
 50
321.8568829838
 51
20.456816111
  0
ARC
  5
9E
330
1F
100
AcDbEntity
  8
0
  6
Continuous
 62
     7
370
    15
100
AcDbCircle
 10
249.5984961997
 20
152.9022328043
 30
0.0
 40
1.675000000000038
100
AcDbArc
 50
20.456816111
 51
80.5636578458
  0
ARC
  5
9F
330
1F
100
AcDbEntity
  8
0
  6
Continuous
 62
     7
370
    15
100
AcDbCircle
 10
249.5984961997
 20
152.9022328043
 30
0.0
 40
1.674999999999983
100
AcDbArc
 50
80.5636578458
 51
139.163590973
  0
LINE
  5
A0
330
1F
100
AcDbEntity
  8
0
  6
Continuous
 62
     7
370
    15
100
AcDbLine
 10
248.2773152993
 20
153.931847309
 30
0.0
 11
248.3312252326
 21
153.9975178338
 31
0.0
  0
ARC
  5
A1
330
1F
100
AcDbEntity
  8
0
  6
Continuous
 62
     7
370
    15
100
AcDbCircle
 10
249.5984961997
 20
152.9022328043
 30
0.0
 40
1.674999999999994
100
AcDbArc
 50
142.0702217449
 51
198.5139399112
  0
LINE
  5
A2
330
1F
100
AcDbEntity
  8
0
  6
Continuous
 62
     7
370
    15
100
AcDbLine
 10
248.0522655331
 20
152.2581864351
 30
0.0
 11
248.0101834332
 21
152.3703610568
 31
0.0
  0
ARC
  5
A3
330
1F
100
AcDbEntity
  8
0
  6
Continuous
 62
     7
370
    15
100
AcDbCircle
 10
249.5984961997
 20
152.9022328043
 30
0.0
 40
1.675000000000027
100
AcDbArc
 50
202.6130318114
 51
258.4074421454
  0
LINE
  5
A4
330
1F
100
AcDbEntity
  8
0
  6
Continuous
 62
     7
370
    15
100
AcDbLine
 10
249.380054213
 20
151.2415377395
 30
0.0
 11
249.2619038066
 21
151.2614005274
 31
0.0
  0
ARC
  5
A5
330
1F
100
AcDbEntity
  8
0
  6
Continuous
 62
     7
370
    15
100
AcDbCircle
 10
249.5984961997
 20
152.9022328043
 30
0.0
 40
1.675000000000005
100
AcDbArc
 50
262.5065340457
 51
318.950252212
  0
LINE
  5
A6
330
1F
100
AcDbEntity
  8
0
  6
Continuous
 62
     7
370
    15
100
AcDbLine
 10
250.9158342181
 20
151.8677060791
 30
0.0
 11
250.8616801373
 21
151.8022367408
 31
0.0
  0
CIRCLE
  5
A7
330
1F
100
AcDbEntity
  8
0
  6
Continuous
 62
     7
370
    15
100
AcDbCircle
 10
249.5984961997
 20
152.9022328043
 30
0.0
 40
1.80000000000001
  0
SPLINE
  5
A8
330
1F
100
AcDbEntity
  8
0
  6
Continuous
 62
     7
370
    15
100
AcDbSpline
210
0.0
220
0.0
230
1.0
 70
     8
 71
     3
 72
    11
 73
     7
 74
     0
 42
0.00000001
 43
0.00000001
 12
1.0
 22
0.0
 32
0.0
 13
1.0
 23
0.0
 33
0.0
 40
0.0
 40
0.0
 40
0.0
 40
0.0
 40
0.2669010467949929
 40
0.5546143410791743
 40
0.8439070439785389
 40
0.9999999999999999
 40
0.9999999999999999
 40
0.9999999999999999
 40
0.9999999999999999
 10
248.0522655331169
 20
152.2581864351023
 30
0.0
 10
248.072786825895
 20
152.2299908735907
 30
0.0
 10
248.1154296083376
 20
152.1714011342214
 30
0.0
 10
248.2115255949849
 20
152.1144283122517
 30
0.0
 10
248.3051370363113
 20
152.0920678657813
 30
0.0
 10
248.3621986558321
 20
152.0962642010235
 30
0.0
 10
248.3821968679163
 20
152.0977348778612
 30
0.0
  0
SPLINE
  5
A9
330
1F
100
AcDbEntity
  8
0
  6
Continuous
 62
     7
370
    15
100
AcDbSpline
210
0.0
220
0.0
230
1.0
 70
     8
 71
     3
 72
    12
 73
     8
 74
     0
 42
0.00000001
 43
0.00000001
 12
1.0
 22
0.0
 32
0.0
 13
1.0
 23
0.0
 33
0.0
 40
0.0
 40
0.0
 40
0.0
 40
0.0
 40
0.2058401281338032
 40
0.4120619935509724
 40
0.6141387330969242
 40
0.8132772113524357
 40
1.0
 40
1.0
 40
1.0
 40
1.0
 10
248.3821968679163
 20
152.0977348778612
 30
0.0
 10
248.4477373780943
 20
152.0997157903577
 30
0.0
 10
248.5789399454806
 20
152.103681289018
 30
0.0
 10
248.7651516682848
 20
152.0269454589225
 30
0.0
 10
248.9139032222659
 20
151.8988333758046
 30
0.0
 10
249.0135308875482
 20
151.7344895587967
 30
0.0
 10
249.0322723431353
 20
151.613246590468
 30
0.0
 10
249.0413415531097
 20
151.5545756973464
 30
0.0
  0
SPLINE
  5
AA
330
1F
100
AcDbEntity
  8
0
  6
Continuous
 62
     7
370
    15
100
AcDbSpline
210
0.0
220
0.0
230
1.0
 70
     8
 71
     3
 72
    11
 73
     7
 74
     0
 42
0.00000001
 43
0.00000001
 12
1.0
 22
0.0
 32
0.0
 13
1.0
 23
0.0
 33
0.0
 40
0.0
 40
0.0
 40
0.0
 40
0.0
 40
0.292899322061908
 40
0.5864344719078767
 40
0.8775178868032102
 40
1.0
 40
1.0
 40
1.0
 40
1.0
 10
249.0413415531097
 20
151.5545756973464
 30
0.0
 10
249.0474976469686
 20
151.5171720930988
 30
0.0
 10
249.0598231983756
 20
151.4422836886123
 30
0.0
 10
249.1245381633626
 20
151.3459046572605
 30
0.0
 10
249.1975602622697
 20
151.2878001383909
 30
0.0
 10
249.2472018795862
 20
151.2674326034755
 30
0.0
 10
249.2619038065565
 20
151.2614005274256
 30
0.0
  0
SPLINE
  5
AB
330
1F
100
AcDbEntity
  8
0
  6
Continuous
 62
     7
370
    15
100
AcDbSpline
210
0.0
220
0.0
230
1.0
 70
     8
 71
     3
 72
    12
 73
     8
 74
     0
 42
0.00000001
 43
0.00000001
 12
1.0
 22
0.0
 32
0.0
 13
1.0
 23
0.0
 33
0.0
 40
0.0
 40
0.0
 40
0.0
 40
0.0
 40
0.2057904614204112
 40
0.4120344203360268
 40
0.6141302471427866
 40
0.8132633242113001
 40
0.9999999999999999
 40
0.9999999999999999
 40
0.9999999999999999
 40
0.9999999999999999
 10
249.6845976193309
 20
151.4470496937361
 30
0.0
 10
249.7156425730324
 20
151.5047849935597
 30
0.0
 10
249.7778008937558
 20
151.620382823661
 30
0.0
 10
249.9373459662163
 20
151.7432868604522
 30
0.0
 10
250.1226795911104
 20
151.8080669243691
 30
0.0
 10
250.3148334999866
 20
151.8121810695272
 30
0.0
 10
250.4292090449699
 20
151.7677890764692
 30
0.0
 10
250.4845596105521
 20
151.7463061456256
 30
0.0
  0
SPLINE
  5
AC
330
1F
100
AcDbEntity
  8
0
  6
Continuous
 62
     7
370
    15
100
AcDbSpline
210
0.0
220
0.0
230
1.0
 70
     8
 71
     3
 72
    11
 73
     7
 74
     0
 42
0.00000001
 43
0.00000001
 12
1.0
 22
0.0
 32
0.0
 13
1.0
 23
0.0
 33
0.0
 40
0.0
 40
0.0
 40
0.0
 40
0.0
 40
0.2802371411012995
 40
0.561286987592452
 40
0.839990605782527
 40
1.0
 40
1.0
 40
1.0
 40
1.0
 10
250.4845596105521
 20
151.7463061456256
 30
0.0
 10
250.5200060475278
 20
151.7329401125755
 30
0.0
 10
250.5910017183827
 20
151.7061692841361
 30
0.0
 10
250.7067403839937
 20
151.7140405016582
 30
0.0
 10
250.7992437155085
 20
151.7502038882034
 30
0.0
 10
250.8449939169105
 20
151.7883308886954
 30
0.0
 10
250.8616801372975
 20
151.8022367407661
 30
0.0
  0
SPLINE
  5
AD
330
1F
100
AcDbEntity
  8
0
  6
Continuous
 62
     7
370
    15
100
AcDbSpline
210
0.0
220
0.0
230
1.0
 70
     8
 71
     3
 72
    11
 73
     7
 74
     0
 42
0.00000001
 43
0.00000001
 12
1.0
 22
0.0
 32
0.0
 13
1.0
 23
0.0
 33
0.0
 40
0.0
 40
0.0
 40
0.0
 40
0.0
 40
0.2657596322625475
 40
0.5530029385954172
 40
0.8418208483438386
 40
1.0
 40
1.0
 40
1.0
 40
1.0
 10
249.3800542129977
 20
151.2415377394546
 30
0.0
 10
249.4146467603771
 20
151.2451295729865
 30
0.0
 10
249.4866282731127
 20
151.2526035993509
 30
0.0
 10
249.5840765667986
 20
151.3070280312838
 30
0.0
 10
249.6506581404043
 20
151.3769596938993
 30
0.0
 10
249.6757266196643
 20
151.428729778851
 30
0.0
 10
249.6845976193309
 20
151.4470496937361
 30
0.0
  0
SPLINE
  5
AE
330
1F
100
AcDbEntity
  8
0
  6
Continuous
 62
     7
370
    15
100
AcDbSpline
210
0.0
220
0.0
230
1.0
 70
     8
 71
     3
 72
    11
 73
     7
 74
     0
 42
0.00000001
 43
0.00000001
 12
1.0
 22
0.0
 32
0.0
 13
1.0
 23
0.0
 33
0.0
 40
0.0
 40
0.0
 40
0.0
 40
0.0
 40
0.2431090893442884
 40
0.5182793655622233
 40
0.7947794085751928
 40
1.0
 40
1.0
 40
1.0
 40
1.0
 10
248.2773152992514
 20
153.931847309002
 30
0.0
 10
248.2621792697352
 20
153.9023452245746
 30
0.0
 10
248.2299110736099
 20
153.8394503256588
 30
0.0
 10
248.2212973719996
 20
153.729924782754
 30
0.0
 10
248.2439920732272
 20
153.6283904529333
 30
0.0
 10
248.2794154668796
 20
153.5741127601428
 30
0.0
 10
248.2945063915275
 20
153.5509896065568
 30
0.0
  0
SPLINE
  5
AF
330
1F
100
AcDbEntity
  8
0
  6
Continuous
 62
     7
370
    15
100
AcDbSpline
210
0.0
220
0.0
230
1.0
 70
     8
 71
     3
 72
    12
 73
     8
 74
     0
 42
0.00000001
 43
0.00000001
 12
1.0
 22
0.0
 32
0.0
 13
1.0
 23
0.0
 33
0.0
 40
0.0
 40
0.0
 40
0.0
 40
0.0
 40
0.2058179564998827
 40
0.4120215045907347
 40
0.6140779969167731
 40
0.8132130006453837
 40
1.0
 40
1.0
 40
1.0
 40
1.0
 10
248.2945063915275
 20
153.5509896065568
 30
0.0
 10
248.3289896027161
 20
153.4952255933253
 30
0.0
 10
248.3980206279905
 20
153.383593095246
 30
0.0
 10
248.4246773111191
 20
153.1839775478411
 30
0.0
 10
248.3881197348524
 20
152.9911104787943
 30
0.0
 10
248.2956191984555
 20
152.822642482955
 30
0.0
 10
248.1999790858388
 20
152.7457770116276
 30
0.0
 10
248.1536890854996
 20
152.7085739741524
 30
0.0
  0
SPLINE
  5
B0
330
1F
100
AcDbEntity
  8
0
  6
Continuous
 62
     7
370
    15
100
AcDbSpline
210
0.0
220
0.0
230
1.0
 70
     8
 71
     3
 72
    11
 73
     7
 74
     0
 42
0.00000001
 43
0.00000001
 12
1.0
 22
0.0
 32
0.0
 13
1.0
 23
0.0
 33
0.0
 40
0.0
 40
0.0
 40
0.0
 40
0.0
 40
0.290864166607638
 40
0.5839560789891768
 40
0.8745988053617386
 40
1.0
 40
1.0
 40
1.0
 40
1.0
 10
248.1536890854996
 20
152.7085739741524
 30
0.0
 10
248.1245224413759
 20
152.6846867861093
 30
0.0
 10
248.0659657640841
 20
152.6367294566438
 30
0.0
 10
248.014760842992
 20
152.5327772848199
 30
0.0
 10
248.0007075463355
 20
152.4400905784494
 30
0.0
 10
248.007988773957
 20
152.3865107367379
 30
0.0
 10
248.010183433213
 20
152.3703610568127
 30
0.0
  0
SPLINE
  5
B1
330
1F
100
AcDbEntity
  8
0
  6
Continuous
 62
     7
370
    15
100
AcDbSpline
210
0.0
220
0.0
230
1.0
 70
     8
 71
     3
 72
    12
 73
     8
 74
     0
 42
0.00000001
 43
0.00000001
 12
1.0
 22
0.0
 32
0.0
 13
1.0
 23
0.0
 33
0.0
 40
0.0
 40
0.0
 40
0.0
 40
0.0
 40
0.2058585741214079
 40
0.4121026961456999
 40
0.6141937841967398
 40
0.8133180967416314
 40
1.0
 40
1.0
 40
1.0
 40
1.0
 10
250.8993078943567
 20
152.2496192383065
 30
0.0
 10
250.8648202823437
 20
152.3053923236559
 30
0.0
 10
250.7957804672433
 20
152.4170429505143
 30
0.0
 10
250.7691346622238
 20
152.6166897140174
 30
0.0
 10
250.8057207090567
 20
152.8095761482911
 30
0.0
 10
250.8982404530784
 20
152.9780133179237
 30
0.0
 10
250.9938581883916
 20
153.0548537314382
 30
0.0
 10
251.0401252003846
 20
153.0920348707108
 30
0.0
  0
SPLINE
  5
B2
330
1F
100
AcDbEntity
  8
0
  6
Continuous
 62
     7
370
    15
100
AcDbSpline
210
0.0
220
0.0
230
1.0
 70
     8
 71
     3
 72
    11
 73
     7
 74
     0
 42
0.00000001
 43
0.00000001
 12
1.0
 22
0.0
 32
0.0
 13
1.0
 23
0.0
 33
0.0
 40
0.0
 40
0.0
 40
0.0
 40
0.0
 40
0.2524782265335658
 40
0.5068902417933424
 40
0.7591786113117819
 40
1.0
 40
1.0
 40
1.0
 40
1.0
 10
251.0401252003846
 20
153.0920348707108
 30
0.0
 10
251.069302948653
 20
153.1159272612485
 30
0.0
 10
251.1278819242656
 20
153.1638950396304
 30
0.0
 10
251.1788997990548
 20
153.2677430874086
 30
0.0
 10
251.1966653273414
 20
153.3806586047782
 30
0.0
 10
251.1773143035621
 20
153.4525417352771
 30
0.0
 10
251.167863790078
 20
153.487647500316
 30
0.0
  0
SPLINE
  5
B3
330
1F
100
AcDbEntity
  8
0
  6
Continuous
 62
     7
370
    15
100
AcDbSpline
210
0.0
220
0.0
230
1.0
 70
     8
 71
     3
 72
    11
 73
     7
 74
     0
 42
0.00000001
 43
0.00000001
 12
1.0
 22
0.0
 32
0.0
 13
1.0
 23
0.0
 33
0.0
 40
0.0
 40
0.0
 40
0.0
 40
0.0
 40
0.2423611237746023
 40
0.5166847928458781
 40
0.7923341374632806
 40
1.0
 40
1.0
 40
1.0
 40
1.0
 10
250.915834218149
 20
151.8677060791035
 30
0.0
 10
250.9310801236151
 20
151.8971517720924
 30
0.0
 10
250.9635825620624
 20
151.9599264512375
 30
0.0
 10
250.9726017033748
 20
152.0694161387417
 30
0.0
 10
250.950202528182
 20
152.1714594565955
 30
0.0
 10
250.9146036506305
 20
152.2261292771532
 30
0.0
 10
250.8993078943567
 20
152.2496192383065
 30
0.0
  0
SPLINE
  5
B4
330
1F
100
AcDbEntity
  8
0
  6
Continuous
 62
     7
370
    15
100
AcDbSpline
210
0.0
220
0.0
230
1.0
 70
     8
 71
     3
 72
    12
 73
     8
 74
     0
 42
0.00000001
 43
0.00000001
 12
1.0
 22
0.0
 32
0.0
 13
1.0
 23
0.0
 33
0.0
 40
0.0
 40
0.0
 40
0.0
 40
0.0
 40
0.009173520518971
 40
0.257677521552491
 40
0.5061895192298951
 40
0.7560357430218332
 40
1.0
 40
1.0
 40
1.0
 40
1.0
 10
249.8731153013052
 20
154.5545673191843
 30
0.0
 10
249.8717613878435
 20
154.5547867544799
 30
0.0
 10
249.8337309430971
 20
154.5609505323861
 30
0.0
 10
249.7562422724073
 20
154.5597822764978
 30
0.0
 10
249.6502025540549
 20
154.52077363565
 30
0.0
 10
249.5610785459419
 20
154.4505991776625
 30
0.0
 10
249.526366135386
 20
154.3856479402379
 30
0.0
 10
249.5092166665533
 20
154.3535591511272
 30
0.0
  0
SPLINE
  5
B5
330
1F
100
AcDbEntity
  8
0
  6
Continuous
 62
     7
370
    15
100
AcDbSpline
210
0.0
220
0.0
230
1.0
 70
     8
 71
     3
 72
    12
 73
     8
 74
     0
 42
0.00000001
 43
0.00000001
 12
1.0
 22
0.0
 32
0.0
 13
1.0
 23
0.0
 33
0.0
 40
0.0
 40
0.0
 40
0.0
 40
0.0
 40
0.2057532787803786
 40
0.4119604088044554
 40
0.6140154573249109
 40
0.8131414684041054
 40
0.9999999999999999
 40
0.9999999999999999
 40
0.9999999999999999
 40
0.9999999999999999
 10
249.5092166665533
 20
154.3535591511272
 30
0.0
 10
249.4781770008086
 20
154.2958316214997
 30
0.0
 10
249.4160292019247
 20
154.1802492266744
 30
0.0
 10
249.2565153416115
 20
154.0573517455357
 30
0.0
 10
249.0712162142587
 20
153.9925595147501
 30
0.0
 10
248.8790484860709
 20
153.9884115658354
 30
0.0
 10
248.7646405629752
 20
154.0328093427047
 30
0.0
 10
248.7092546753321
 20
154.0543026992376
 30
0.0
  0
SPLINE
  5
B6
330
1F
100
AcDbEntity
  8
0
  6
Continuous
 62
     7
370
    15
100
AcDbSpline
210
0.0
220
0.0
230
1.0
 70
     8
 71
     3
 72
    11
 73
     7
 74
     0
 42
0.00000001
 43
0.00000001
 12
1.0
 22
0.0
 32
0.0
 13
1.0
 23
0.0
 33
0.0
 40
0.0
 40
0.0
 40
0.0
 40
0.0
 40
0.2794069064555633
 40
0.5596240257155725
 40
0.8375007392219711
 40
1.0
 40
1.0
 40
1.0
 40
1.0
 10
248.7092546753321
 20
154.0543026992376
 30
0.0
 10
248.673805061234
 20
154.0676696934397
 30
0.0
 10
248.602803037686
 20
154.0944424429109
 30
0.0
 10
248.4870596219004
 20
154.0865631799407
 30
0.0
 10
248.394155742972
 20
154.050250473034
 30
0.0
 10
248.3481875505074
 20
154.0117314129844
 30
0.0
 10
248.3312252325541
 20
153.9975178337943
 30
0.0
  0
SPLINE
  5
B7
330
1F
100
AcDbEntity
  8
0
  6
Continuous
 62
     7
370
    15
100
AcDbSpline
210
0.0
220
0.0
230
1.0
 70
     8
 71
     3
 72
    12
 73
     8
 74
     0
 42
0.00000001
 43
0.00000001
 12
1.0
 22
0.0
 32
0.0
 13
1.0
 23
0.0
 33
0.0
 40
0.0
 40
0.0
 40
0.0
 40
0.0
 40
0.009168177149192
 40
0.2573268097002798
 40
0.5054934687430046
 40
0.7549925359453211
 40
1.0
 40
1.0
 40
1.0
 40
1.0
 10
251.167863790078
 20
153.487647500316
 30
0.0
 10
251.1673788660449
 20
153.4889316826862
 30
0.0
 10
251.1537683137665
 20
153.5249753309517
 30
0.0
 10
251.1141348845831
 20
153.5915732646047
 30
0.0
 10
251.0274676057047
 20
153.6640613861991
 30
0.0
 10
250.9220121026849
 20
153.7064376277808
 30
0.0
 10
250.8481921439625
 20
153.7040546390322
 30
0.0
 10
250.8116174179679
 20
153.702873967002
 30
0.0
  0
SPLINE
  5
B8
330
1F
100
AcDbEntity
  8
0
  6
Continuous
 62
     7
370
    15
100
AcDbSpline
210
0.0
220
0.0
230
1.0
 70
     8
 71
     3
 72
    12
 73
     8
 74
     0
 42
0.00000001
 43
0.00000001
 12
1.0
 22
0.0
 32
0.0
 13
1.0
 23
0.0
 33
0.0
 40
0.0
 40
0.0
 40
0.0
 40
0.0
 40
0.2058435564095196
 40
0.4120691620553091
 40
0.6141397217726756
 40
0.8132604579561381
 40
1.0
 40
1.0
 40
1.0
 40
1.0
 10
250.8116174179679
 20
153.702873967002
 30
0.0
 10
250.7460762250179
 20
153.700893084246
 30
0.0
 10
250.6148721935187
 20
153.6969276421811
 30
0.0
 10
250.4286601586353
 20
153.7736647418027
 30
0.0
 10
250.2799127751753
 20
153.9017752017715
 30
0.0
 10
250.1802852244447
 20
154.0661153142521
 30
0.0
 10
250.1615431022957
 20
154.1873573103964
 30
0.0
 10
250.1524727327745
 20
154.2460331475168
 30
0.0
  0
SPLINE
  5
B9
330
1F
100
AcDbEntity
  8
0
  6
Continuous
 62
     7
370
    15
100
AcDbSpline
210
0.0
220
0.0
230
1.0
 70
     8
 71
     3
 72
    11
 73
     7
 74
     0
 42
0.00000001
 43
0.00000001
 12
1.0
 22
0.0
 32
0.0
 13
1.0
 23
0.0
 33
0.0
 40
0.0
 40
0.0
 40
0.0
 40
0.0
 40
0.2535086227483235
 40
0.5075674742604732
 40
0.7595056251924058
 40
0.9999999999999999
 40
0.9999999999999999
 40
0.9999999999999999
 40
0.9999999999999999
 10
250.1524727327745
 20
154.2460331475168
 30
0.0
 10
250.1463169584119
 20
154.283452372164
 30
0.0
 10
250.1339920488626
 20
154.3583720381581
 30
0.0
 10
250.0692640349791
 20
154.4545360530223
 30
0.0
 10
249.9802266771044
 20
154.5262144257429
 30
0.0
 10
249.9082616212702
 20
154.5452639202
 30
0.0
 10
249.8731153013052
 20
154.5545673191843
 30
0.0
  0
CIRCLE
  5
BA
330
1F
100
AcDbEntity
  8
0
  6
Continuous
 62
     7
370
    15
100
AcDbCircle
 10
249.5984961997
 20
152.9022328043
 30
0.0
 40
2.625
  0
LINE
  5
BB
330
1F
100
AcDbEntity
  8
0
  6
Continuous
 62
     7
370
    15
100
AcDbLine
 10
253.166882265
 20
149.5152284335
 30
0.0
 11
253.2811504688
 21
149.1528159925
 31
0.0
  0
LINE
  5
BC
330
1F
100
AcDbEntity
  8
0
  6
Continuous
 62
     7
370
    15
100
AcDbLine
 10
243.1228648938
 20
145.9499208533
 30
0.0
 11
253.2811504688
 21
149.1528159925
 31
0.0
  0
LINE
  5
BD
330
1F
100
AcDbEntity
  8
0
  6
Continuous
 62
     7
370
    15
100
AcDbLine
 10
243.00859669
 20
146.3123332946
 30
0.0
 11
243.1228648938
 21
145.9499208533
 31
0.0
  0
LINE
  5
BE
330
1F
100
AcDbEntity
  8
0
  6
Continuous
 62
     7
370
    15
100
AcDbLine
 10
244.4280838216
 20
147.7318204262
 30
0.0
 11
243.00859669
 21
146.3123332946
 31
0.0
  0
LINE
  5
BF
330
1F
100
AcDbEntity
  8
0
  6
Continuous
 62
     7
370
    15
100
AcDbLine
 10
252.9911216885
 20
149.6909890101
 30
0.0
 11
253.166882265
 21
149.5152284335
 31
0.0
  0
SPLINE
  5
C0
330
1F
100
AcDbEntity
  8
0
  6
Continuous
 62
     7
370
    15
100
AcDbSpline
210
0.0
220
0.0
230
1.0
 70
    24
 71
     3
 72
    11
 73
     7
 74
     0
 42
0.00000001
 43
0.00000001
 12
1.0
 22
0.0
 32
0.0
 13
1.0
 23
0.0
 33
0.0
 40
0.0
 40
0.0
 40
0.0
 40
0.0
 40
0.3277695037502186
 40
0.6551509568909795
 40
0.9907861901609899
 40
1.0
 40
1.0
 40
1.0
 40
1.0
 10
252.9911216884678
 20
149.690989010052
 30
0.0
 10
252.9385622882091
 20
149.7435484103107
 30
0.0
 10
252.8335057134543
 20
149.8486049850655
 30
0.0
 10
252.6602770938553
 20
150.0218336046644
 30
0.0
 10
252.5510199555821
 20
150.1310907429379
 30
0.0
 10
252.500022745893
 20
150.1820879526267
 30
0.0
 10
252.4986601827606
 20
150.1834505157592
 30
0.0
  0
LINE
  5
C1
330
1F
100
AcDbEntity
  8
0
  6
Continuous
 62
     7
370
    15
100
AcDbLine
 10
246.2114918289
 20
156.4706188696
 30
0.0
 11
246.0972236251
 21
156.8330313109
 31
0.0
  0
LINE
  5
C2
330
1F
100
AcDbEntity
  8
0
  6
Continuous
 62
     7
370
    15
100
AcDbLine
 10
256.2555092001
 20
160.0359264498
 30
0.0
 11
246.0972236251
 21
156.8330313109
 31
0.0
  0
LINE
  5
C3
330
1F
100
AcDbEntity
  8
0
  6
Continuous
 62
     7
370
    15
100
AcDbLine
 10
256.3697774039
 20
159.6735140085
 30
0.0
 11
256.2555092001
 21
160.0359264498
 31
0.0
  0
LINE
  5
C4
330
1F
100
AcDbEntity
  8
0
  6
Continuous
 62
     7
370
    15
100
AcDbLine
 10
254.9502902724
 20
158.254026877
 30
0.0
 11
256.3697774039
 21
159.6735140085
 31
0.0
  0
LINE
  5
C5
330
1F
100
AcDbEntity
  8
0
  6
Continuous
 62
     7
370
    15
100
AcDbLine
 10
246.3872524054
 20
156.2948582931
 30
0.0
 11
246.2114918289
 21
156.4706188696
 31
0.0
  0
SPLINE
  5
C6
330
1F
100
AcDbEntity
  8
0
  6
Continuous
 62
     7
370
    15
100
AcDbSpline
210
0.0
220
0.0
230
1.0
 70
    24
 71
     3
 72
    11
 73
     7
 74
     0
 42
0.00000001
 43
0.00000001
 12
1.0
 22
0.0
 32
0.0
 13
1.0
 23
0.0
 33
0.0
 40
0.0
 40
0.0
 40
0.0
 40
0.0
 40
0.0092138098390242
 40
0.3448490431109492
 40
0.6722304962507442
 40
1.0
 40
1.0
 40
1.0
 40
1.0
 10
246.8797139111556
 20
155.8023967873643
 30
0.0
 10
246.8783513480231
 20
155.8037593504967
 30
0.0
 10
246.8273541383334
 20
155.8547565601861
 30
0.0
 10
246.7180970000599
 20
155.9640136984601
 30
0.0
 10
246.5448683804603
 20
156.1372423180594
 30
0.0
 10
246.4398118057057
 20
156.2422988928141
 30
0.0
 10
246.3872524054471
 20
156.2948582930727
 30
0.0
  0
LINE
  5
C7
330
1F
100
AcDbEntity
  8
0
  6
Continuous
 62
     7
370
    15
100
AcDbLine
 10
243.1205900894
 20
145.9282330277
 30
0.0
 11
253.2886495575
 21
149.1342098633
 31
0.0
  0
LINE
  5
C8
330
1F
100
AcDbEntity
  8
0
  6
Continuous
 62
     7
370
    15
100
AcDbLine
 10
245.8304732587
 20
156.5923861621
 30
0.0
 11
242.6244964231
 21
146.424326694
 31
0.0
  0
LINE
  5
C9
330
1F
100
AcDbEntity
  8
0
  6
Continuous
 62
     7
370
    15
100
AcDbLine
 10
256.2577840045
 20
160.0576142754
 30
0.0
 11
246.0897245364
 21
156.8516374398
 31
0.0
  0
LINE
  5
CA
330
1F
100
AcDbEntity
  8
0
  6
Continuous
 62
     7
370
    15
100
AcDbLine
 10
253.5479008352
 20
149.393461141
 30
0.0
 11
256.7538776708
 21
159.5615206091
 31
0.0
  0
ARC
  5
CB
330
1F
100
AcDbEntity
  8
0
  6
Continuous
 62
     7
370
    15
100
AcDbCircle
 10
243.00859669
 20
146.3123332946
 30
0.0
 40
0.3800000000000462
100
AcDbArc
 50
162.5
 51
287.5
  0
ARC
  5
CC
330
1F
100
AcDbEntity
  8
0
  6
Continuous
 62
     7
370
    15
100
AcDbCircle
 10
253.166882265
 20
149.5152284335
 30
0.0
 40
0.3799999999999664
100
AcDbArc
 50
287.5
 51
342.5
  0
LINE
  5
CD
330
1F
100
AcDbEntity
  8
0
  6
Continuous
 62
     7
370
    15
100
AcDbLine
 10
253.5292947063
 20
149.4009602297
 30
0.0
 11
256.7321898452
 21
159.5592458047
 31
0.0
  0
ARC
  5
CE
330
1F
100
AcDbEntity
  8
0
  6
Continuous
 62
     7
370
    15
100
AcDbCircle
 10
256.3697774039
 20
159.6735140085
 30
0.0
 40
0.3800000000000563
100
AcDbArc
 50
342.5
 51
107.5
  0
ARC
  5
CF
330
1F
100
AcDbEntity
  8
0
  6
Continuous
 62
     7
370
    15
100
AcDbCircle
 10
246.2114918289
 20
156.4706188696
 30
0.0
 40
0.3800000000000121
100
AcDbArc
 50
107.5
 51
162.5
  0
LINE
  5
D0
330
1F
100
AcDbEntity
  8
0
  6
Continuous
 62
     7
370
    15
100
AcDbLine
 10
245.8490793876
 20
156.5848870735
 30
0.0
 11
242.6461842487
 21
146.4266014984
 31
0.0
  0
SPLINE
  5
D1
330
1F
100
AcDbEntity
  8
0
  6
Continuous
 62
     7
370
    15
100
AcDbSpline
210
0.0
220
0.0
230
1.0
 70
     8
 71
     3
 72
    10
 73
     6
 74
     0
 42
0.00000001
 43
0.00000001
 12
1.0
 22
0.0
 32
0.0
 13
1.0
 23
0.0
 33
0.0
 40
0.0
 40
0.0
 40
0.0
 40
0.0
 40
0.3518022785809609
 40
0.703424593503071
 40
1.0
 40
1.0
 40
1.0
 40
1.0
 10
246.0897245363935
 20
156.8516374398486
 30
0.0
 10
246.0485504788512
 20
156.8339678013384
 30
0.0
 10
245.9662234262626
 20
156.7986375631817
 30
0.0
 10
245.8761597365188
 20
156.7033133368835
 30
0.0
 10
245.8448147818779
 20
156.6272075080908
 30
0.0
 10
245.8304732586712
 20
156.5923861621262
 30
0.0
  0
SPLINE
  5
D2
330
1F
100
AcDbEntity
  8
0
  6
Continuous
 62
     7
370
    15
100
AcDbSpline
210
0.0
220
0.0
230
1.0
 70
     8
 71
     3
 72
    10
 73
     6
 74
     0
 42
0.00000001
 43
0.00000001
 12
1.0
 22
0.0
 32
0.0
 13
1.0
 23
0.0
 33
0.0
 40
0.0
 40
0.0
 40
0.0
 40
0.0
 40
0.3518022785808982
 40
0.7034245935031123
 40
1.0
 40
1.0
 40
1.0
 40
1.0
 10
253.2886495575225
 20
149.1342098632749
 30
0.0
 10
253.3298236150648
 20
149.1518795017851
 30
0.0
 10
253.4121506676534
 20
149.1872097399419
 30
0.0
 10
253.5022143573973
 20
149.2825339662399
 30
0.0
 10
253.5335593120381
 20
149.3586397950326
 30
0.0
 10
253.5479008352448
 20
149.3934611409972
 30
0.0
  0
SPLINE
  5
D3
330
1F
100
AcDbEntity
  8
0
  6
Continuous
 62
     7
370
    15
100
AcDbSpline
210
0.0
220
0.0
230
1.0
 70
     8
 71
     3
 72
    14
 73
    10
 74
     0
 42
0.00000001
 43
0.00000001
 12
1.0
 22
0.0
 32
0.0
 13
1.0
 23
0.0
 33
0.0
 40
0.0
 40
0.0
 40
0.0
 40
0.0
 40
0.1588501103508092
 40
0.3173321153184976
 40
0.4720153553660928
 40
0.6236441635915635
 40
0.7746618341644655
 40
0.92774177611082
 40
0.9999999999999999
 40
0.9999999999999999
 40
0.9999999999999999
 40
0.9999999999999999
 10
242.6244964231206
 20
146.4243266939973
 30
0.0
 10
242.6149651792395
 20
146.3792302641612
 30
0.0
 10
242.59592477835
 20
146.2891419070199
 30
0.0
 10
242.626422096638
 20
146.1528009902292
 30
0.0
 10
242.6969842030038
 20
146.0368666625918
 30
0.0
 10
242.8015835622521
 20
145.9527039780232
 30
0.0
 10
242.9271017593857
 20
145.9084989218613
 30
0.0
 10
243.0378061476896
 20
145.9062502368373
 30
0.0
 10
243.1004896419398
 20
145.9228954716233
 30
0.0
 10
243.1205900893935
 20
145.9282330277244
 30
0.0
  0
SPLINE
  5
D4
330
1F
100
AcDbEntity
  8
0
  6
Continuous
 62
     7
370
    15
100
AcDbSpline
210
0.0
220
0.0
230
1.0
 70
     8
 71
     3
 72
    14
 73
    10
 74
     0
 42
0.00000001
 43
0.00000001
 12
1.0
 22
0.0
 32
0.0
 13
1.0
 23
0.0
 33
0.0
 40
0.0
 40
0.0
 40
0.0
 40
0.0
 40
0.1588501103507794
 40
0.3173321153184944
 40
0.4720153553661364
 40
0.623644163591596
 40
0.774661834164458
 40
0.9277417761108164
 40
1.0
 40
1.0
 40
1.0
 40
1.0
 10
256.7538776707954
 20
159.5615206091261
 30
0.0
 10
256.7634089146766
 20
159.6066170389623
 30
0.0
 10
256.7824493155661
 20
159.6967053961035
 30
0.0
 10
256.751951997278
 20
159.8330463128943
 30
0.0
 10
256.6813898909122
 20
159.9489806405316
 30
0.0
 10
256.576790531664
 20
160.0331433251002
 30
0.0
 10
256.4512723345303
 20
160.0773483812622
 30
0.0
 10
256.3405679462265
 20
160.0795970662862
 30
0.0
 10
256.2778844519763
 20
160.0629518315001
 30
0.0
 10
256.2577840045225
 20
160.0576142753991
 30
0.0
  0
LINE
  5
D5
330
1F
100
AcDbEntity
  8
0
  6
Continuous
 62
     7
370
    15
100
AcDbLine
 10
256.3697774039
 20
159.6735140085
 30
0.0
 11
256.7321898452
 21
159.5592458047
 31
0.0
  0
LINE
  5
D6
330
1F
100
AcDbEntity
  8
0
  6
Continuous
 62
     7
370
    15
100
AcDbLine
 10
253.166882265
 20
149.5152284335
 30
0.0
 11
253.5292947063
 21
149.4009602297
 31
0.0
  0
ARC
  5
D7
330
1F
100
AcDbEntity
  8
0
  6
Continuous
 62
     7
370
    15
100
AcDbCircle
 10
252.970141738
 20
156.2738783426
 30
0.0
 40
1.000000000000084
100
AcDbArc
 50
342.5
 51
107.5
  0
LINE
  5
D8
330
1F
100
AcDbEntity
  8
0
  6
Continuous
 62
     7
370
    15
100
AcDbLine
 10
252.3508609042
 20
150.9842609455
 30
0.0
 11
253.9238586888
 21
155.9731725431
 31
0.0
  0
LINE
  5
D9
330
1F
100
AcDbEntity
  8
0
  6
Continuous
 62
     7
370
    15
100
AcDbLine
 10
252.6694359385
 20
157.2275952934
 30
0.0
 11
247.6805243409
 21
155.6545975088
 31
0.0
  0
ARC
  5
DA
330
1F
100
AcDbEntity
  8
0
  6
Continuous
 62
     7
370
    15
100
AcDbCircle
 10
251.3971439535
 20
151.284966745
 30
0.0
 40
1.000000000000011
100
AcDbArc
 50
287.5
 51
342.5
  0
LINE
  5
DB
330
1F
100
AcDbEntity
  8
0
  6
Continuous
 62
     7
370
    15
100
AcDbLine
 10
246.7089381554
 20
148.7582520097
 30
0.0
 11
251.697849753
 21
150.3312497943
 31
0.0
  0
ARC
  5
DC
330
1F
100
AcDbEntity
  8
0
  6
Continuous
 62
     7
370
    15
100
AcDbCircle
 10
246.4082323559
 20
149.7119689605
 30
0.0
 40
1.00000000029537
100
AcDbArc
 50
162.5
 51
287.5
  0
LINE
  5
DD
330
1F
100
AcDbEntity
  8
0
  6
Continuous
 62
     7
370
    15
100
AcDbLine
 10
247.0275131897
 20
155.0015863576
 30
0.0
 11
245.4545154049
 21
150.0126747601
 31
0.0
  0
ARC
  5
DE
330
1F
100
AcDbEntity
  8
0
  6
Continuous
 62
     7
370
    15
100
AcDbCircle
 10
247.9812301404
 20
154.7008805581
 30
0.0
 40
1.00000000000003
100
AcDbArc
 50
107.5
 51
162.5
  0
CIRCLE
  5
DF
330
1F
100
AcDbEntity
  8
0
  6
Continuous
 62
     7
370
    15
100
AcDbCircle
 10
249.689187047
 20
152.9929236516
 30
0.0
 40
3.050000000000033
  0
LINE
  5
E0
330
1F
100
AcDbEntity
  8
0
  6
Continuous
 62
     7
370
    15
100
AcDbLine
 10
243.00859669
 20
146.3123332946
 30
0.0
 11
242.6461842487
 21
146.4266014984
 31
0.0
  0
LINE
  5
E1
330
1F
100
AcDbEntity
  8
0
  6
Continuous
 62
     7
370
    15
100
AcDbLine
 10
246.2114918289
 20
156.4706188696
 30
0.0
 11
245.8490793876
 21
156.5848870735
 31
0.0
  0
SPLINE
  5
E2
330
1F
100
AcDbEntity
  8
0
  6
Continuous
 62
     7
370
    15
100
AcDbSpline
210
0.0
220
0.0
230
1.0
 70
    24
 71
     3
 72
    11
 73
     7
 74
     0
 42
0.00000001
 43
0.00000001
 12
1.0
 22
0.0
 32
0.0
 13
1.0
 23
0.0
 33
0.0
 40
0.0
 40
0.0
 40
0.0
 40
0.0
 40
0.4125701671612738
 40
0.8731537903910517
 40
0.9927012761303239
 40
1.0
 40
1.0
 40
1.0
 40
1.0
 10
254.9502902723536
 20
158.2540268769573
 30
0.0
 10
254.8811135908886
 20
158.1848501954922
 30
0.0
 10
254.734709690569
 20
158.0384462951726
 30
0.0
 10
254.5709168629733
 20
157.8746534675774
 30
0.0
 10
254.4836138950085
 20
157.7873504996119
 30
0.0
 10
254.4651802823618
 20
157.7689168869654
 30
0.0
 10
254.4641196133118
 20
157.7678562179155
 30
0.0
  0
SPLINE
  5
E3
330
1F
100
AcDbEntity
  8
0
  6
Continuous
 62
     7
370
    15
100
AcDbSpline
210
0.0
220
0.0
230
1.0
 70
    24
 71
     3
 72
    11
 73
     7
 74
     0
 42
0.00000001
 43
0.00000001
 12
1.0
 22
0.0
 32
0.0
 13
1.0
 23
0.0
 33
0.0
 40
0.0
 40
0.0
 40
0.0
 40
0.0
 40
0.0072987238691171
 40
0.1268462096079115
 40
0.587429832838285
 40
1.0
 40
1.0
 40
1.0
 40
1.0
 10
244.914254480604
 20
148.2179910852079
 30
0.0
 10
244.9131938115542
 20
148.216930416158
 30
0.0
 10
244.894760198907
 20
148.1984968035108
 30
0.0
 10
244.807457230944
 20
148.1111938355476
 30
0.0
 10
244.6436644033472
 20
147.9474010079506
 30
0.0
 10
244.4972605030274
 20
147.8009971076318
 30
0.0
 10
244.4280838215622
 20
147.7318204261671
 30
0.0
  0
SPLINE
  5
E4
330
1F
100
AcDbEntity
  8
0
  6
HIDDEN
 62
     7
370
     0
100
AcDbSpline
210
0.0
220
0.0
230
1.0
 70
     8
 71
     3
 72
    12
 73
     8
 74
     0
 42
0.00000001
 43
0.00000001
 12
1.0
 22
0.0
 32
0.0
 13
1.0
 23
0.0
 33
0.0
 40
0.0
 40
0.0
 40
0.0
 40
0.0
 40
0.4999999999999981
 40
0.4999999999999981
 40
0.749999999999999
 40
0.749999999999999
 40
1.0
 40
1.0
 40
1.0
 40
1.0
 10
201.864521515611
 20
144.9742564686579
 30
0.0
 10
201.8952437575301
 20
145.011558451611
 30
0.0
 10
201.9380809720653
 20
145.0481702836574
 30
0.0
 10
202.0375079962651
 20
145.0959350669425
 30
0.0
 10
202.0772601910817
 20
145.1108925824249
 30
0.0
 10
202.17530164794
 20
145.134082528194
 30
0.0
 10
202.2348577035274
 20
145.1420059674138
 30
0.0
 10
202.2975342175032
 20
145.1420059674138
 30
0.0
  0
LINE
  5
E5
330
1F
100
AcDbEntity
  8
0
  6
HIDDEN
 62
     7
370
     0
100
AcDbLine
 10
202.2975342175
 20
145.1420059674
 30
0.0
 11
205.2420205904
 21
145.1420059674
 31
0.0
  0
SPLINE
  5
E6
330
1F
100
AcDbEntity
  8
0
  6
HIDDEN
 62
     7
370
     0
100
AcDbSpline
210
0.0
220
0.0
230
1.0
 70
     8
 71
     3
 72
    12
 73
     8
 74
     0
 42
0.00000001
 43
0.00000001
 12
1.0
 22
0.0
 32
0.0
 13
1.0
 23
0.0
 33
0.0
 40
0.0
 40
0.0
 40
0.0
 40
0.0
 40
0.25
 40
0.25
 40
0.5
 40
0.5
 40
1.0
 40
1.0
 40
1.0
 40
1.0
 10
205.2420205903704
 20
145.1420059674138
 30
0.0
 10
205.3051006288637
 20
145.1420059674138
 30
0.0
 10
205.3642492510451
 20
145.1341000412013
 30
0.0
 10
205.4627218011142
 20
145.1107748797651
 30
0.0
 10
205.5017584130989
 20
145.0960620899334
 30
0.0
 10
205.601654879878
 20
145.0481062892025
 30
0.0
 10
205.6440757609446
 20
145.0118441326224
 30
0.0
 10
205.6750332922626
 20
144.9742564686579
 30
0.0
  0
ELLIPSE
  5
E7
330
1F
100
AcDbEntity
  8
0
  6
HIDDEN
 62
     7
370
     0
100
AcDbEllipse
 10
189.4226232146
 20
115.0735140085
 30
0.0
 11
14.75368316065624
 21
31.09325491558116
 31
0.0
210
0.0
220
0.0
230
1.0
 40
0.3419987131
 41
5.193281737408638
 42
6.124043104552343
  0
SPLINE
  5
E8
330
1F
100
AcDbEntity
  8
0
  6
HIDDEN
 62
     7
370
     0
100
AcDbSpline
210
0.0
220
0.0
230
1.0
 70
     8
 71
     3
 72
    12
 73
     8
 74
     0
 42
0.00000001
 43
0.00000001
 12
1.0
 22
0.0
 32
0.0
 13
1.0
 23
0.0
 33
0.0
 40
0.0
 40
0.0
 40
0.0
 40
0.0
 40
0.5000000000000029
 40
0.5000000000000029
 40
0.7500000000000014
 40
0.7500000000000014
 40
1.0
 40
1.0
 40
1.0
 40
1.0
 10
205.6750332922626
 20
124.9828833292262
 30
0.0
 10
205.6443110503435
 20
124.870327529817
 30
0.0
 10
205.6014738358083
 20
124.7575696700774
 30
0.0
 10
205.5020468116085
 20
124.6080287842811
 30
0.0
 10
205.4622946167919
 20
124.5607360525742
 30
0.0
 10
205.3642531599336
 20
124.4869997592528
 30
0.0
 10
205.3046971043462
 20
124.4615804398771
 30
0.0
 10
205.2420205903704
 20
124.4615804398771
 30
0.0
  0
LINE
  5
E9
330
1F
100
AcDbEntity
  8
0
  6
HIDDEN
 62
     7
370
     0
100
AcDbLine
 10
205.2420205904
 20
124.4615804399
 30
0.0
 11
202.2975342175
 21
124.4615804399
 31
0.0
  0
SPLINE
  5
EA
330
1F
100
AcDbEntity
  8
0
  6
HIDDEN
 62
     7
370
     0
100
AcDbSpline
210
0.0
220
0.0
230
1.0
 70
     8
 71
     3
 72
    12
 73
     8
 74
     0
 42
0.00000001
 43
0.00000001
 12
1.0
 22
0.0
 32
0.0
 13
1.0
 23
0.0
 33
0.0
 40
0.0
 40
0.0
 40
0.0
 40
0.0
 40
0.2499999999999995
 40
0.2499999999999995
 40
0.499999999999999
 40
0.499999999999999
 40
1.0
 40
1.0
 40
1.0
 40
1.0
 10
202.2975342175032
 20
124.4615804398771
 30
0.0
 10
202.2344541790099
 20
124.4615804398771
 30
0.0
 10
202.1753055568285
 20
124.486944759092
 30
0.0
 10
202.0768330067594
 20
124.5611096194649
 30
0.0
 10
202.0377963947747
 20
124.6076299600191
 30
0.0
 10
201.9378999279956
 20
124.7577723028643
 30
0.0
 10
201.895479046929
 20
124.8694655098365
 30
0.0
 10
201.864521515611
 20
124.9828833292262
 30
0.0
  0
ELLIPSE
  5
EB
330
1F
100
AcDbEntity
  8
0
  6
HIDDEN
 62
     7
370
     0
100
AcDbEllipse
 10
218.1169315933
 20
115.0735140085
 30
0.0
 11
-14.75368316065624
 21
31.09325491558116
 31
0.0
210
0.0
220
0.0
230
1.0
 40
0.3419987131
 41
0.1591422026272858
 42
1.08990356977096
  0
SPLINE
  5
EC
330
1F
100
AcDbEntity
  8
0
  6
HIDDEN
 62
     7
370
     0
100
AcDbSpline
210
0.0
220
0.0
230
1.0
 70
     8
 71
     3
 72
    12
 73
     8
 74
     0
 42
0.00000001
 43
0.00000001
 12
1.0
 22
0.0
 32
0.0
 13
1.0
 23
0.0
 33
0.0
 40
0.0
 40
0.0
 40
0.0
 40
0.0
 40
0.5000000000000047
 40
0.5000000000000047
 40
0.7500000000000023
 40
0.7500000000000023
 40
1.0
 40
1.0
 40
1.0
 40
1.0
 10
201.864521515611
 20
105.1641446878553
 30
0.0
 10
201.8952437575301
 20
105.2767004872645
 30
0.0
 10
201.9380809720653
 20
105.3894583470041
 30
0.0
 10
202.0375079962651
 20
105.5389992328005
 30
0.0
 10
202.0772601910817
 20
105.5862919645074
 30
0.0
 10
202.1753016479399
 20
105.6600282578288
 30
0.0
 10
202.2348577035274
 20
105.6854475772045
 30
0.0
 10
202.2975342175032
 20
105.6854475772045
 30
0.0
  0
LINE
  5
ED
330
1F
100
AcDbEntity
  8
0
  6
HIDDEN
 62
     7
370
     0
100
AcDbLine
 10
202.2975342175
 20
105.6854475772
 30
0.0
 11
205.2420205904
 21
105.6854475772
 31
0.0
  0
SPLINE
  5
EE
330
1F
100
AcDbEntity
  8
0
  6
HIDDEN
 62
     7
370
     0
100
AcDbSpline
210
0.0
220
0.0
230
1.0
 70
     8
 71
     3
 72
    12
 73
     8
 74
     0
 42
0.00000001
 43
0.00000001
 12
1.0
 22
0.0
 32
0.0
 13
1.0
 23
0.0
 33
0.0
 40
0.0
 40
0.0
 40
0.0
 40
0.0
 40
0.2499999999999986
 40
0.2499999999999986
 40
0.4999999999999972
 40
0.4999999999999972
 40
1.0
 40
1.0
 40
1.0
 40
1.0
 10
205.2420205903704
 20
105.6854475772045
 30
0.0
 10
205.3051006288637
 20
105.6854475772045
 30
0.0
 10
205.3642492510451
 20
105.6600832579896
 30
0.0
 10
205.4627218011142
 20
105.5859183976167
 30
0.0
 10
205.5017584130989
 20
105.5393980570625
 30
0.0
 10
205.601654879878
 20
105.3892557142173
 30
0.0
 10
205.6440757609446
 20
105.2775625072451
 30
0.0
 10
205.6750332922626
 20
105.1641446878554
 30
0.0
  0
ELLIPSE
  5
EF
330
1F
100
AcDbEntity
  8
0
  6
HIDDEN
 62
     7
370
     0
100
AcDbEllipse
 10
189.4226232146
 20
115.0735140085
 30
0.0
 11
-14.75368316065612
 21
31.09325491558116
 31
0.0
210
0.0
220
0.0
230
1.0
 40
0.3419987131
 41
3.300734856217126
 42
4.231496223360779
  0
SPLINE
  5
F0
330
1F
100
AcDbEntity
  8
0
  6
HIDDEN
 62
     7
370
     0
100
AcDbSpline
210
0.0
220
0.0
230
1.0
 70
     8
 71
     3
 72
    12
 73
     8
 74
     0
 42
0.00000001
 43
0.00000001
 12
1.0
 22
0.0
 32
0.0
 13
1.0
 23
0.0
 33
0.0
 40
0.0
 40
0.0
 40
0.0
 40
0.0
 40
0.5000000000000019
 40
0.5000000000000019
 40
0.7500000000000009
 40
0.7500000000000009
 40
1.0
 40
1.0
 40
1.0
 40
1.0
 10
205.6750332922626
 20
85.17277154842336
 30
0.0
 10
205.6443110503435
 20
85.13546956547032
 30
0.0
 10
205.6014738358083
 20
85.09885773342393
 30
0.0
 10
205.5020468116086
 20
85.05109295013871
 30
0.0
 10
205.4622946167919
 20
85.03613543465634
 30
0.0
 10
205.3642531599336
 20
85.0129454888872
 30
0.0
 10
205.3046971043462
 20
85.00502204966749
 30
0.0
 10
205.2420205903704
 20
85.0050220496675
 30
0.0
  0
LINE
  5
F1
330
1F
100
AcDbEntity
  8
0
  6
HIDDEN
 62
     7
370
     0
100
AcDbLine
 10
205.2420205904
 20
85.0050220497
 30
0.0
 11
202.2975342175
 21
85.0050220497
 31
0.0
  0
SPLINE
  5
F2
330
1F
100
AcDbEntity
  8
0
  6
HIDDEN
 62
     7
370
     0
100
AcDbSpline
210
0.0
220
0.0
230
1.0
 70
     8
 71
     3
 72
    12
 73
     8
 74
     0
 42
0.00000001
 43
0.00000001
 12
1.0
 22
0.0
 32
0.0
 13
1.0
 23
0.0
 33
0.0
 40
0.0
 40
0.0
 40
0.0
 40
0.0
 40
0.2500000000000014
 40
0.2500000000000014
 40
0.5000000000000029
 40
0.5000000000000029
 40
1.0
 40
1.0
 40
1.0
 40
1.0
 10
202.2975342175032
 20
85.00502204966749
 30
0.0
 10
202.2344541790099
 20
85.00502204966749
 30
0.0
 10
202.1753055568285
 20
85.01292797587992
 30
0.0
 10
202.0768330067594
 20
85.03625313731617
 30
0.0
 10
202.0377963947747
 20
85.05096592714787
 30
0.0
 10
201.9378999279956
 20
85.0989217278788
 30
0.0
 10
201.895479046929
 20
85.13518388445885
 30
0.0
 10
201.864521515611
 20
85.17277154842336
 30
0.0
  0
ELLIPSE
  5
F3
330
1F
100
AcDbEntity
  8
0
  6
HIDDEN
 62
     7
370
     0
100
AcDbEllipse
 10
218.1169315933
 20
115.0735140085
 30
0.0
 11
14.75368316065615
 21
31.09325491558116
 31
0.0
210
0.0
220
0.0
230
1.0
 40
0.3419987131
 41
2.051689083818823
 42
2.9824504509625
  0
SPLINE
  5
F4
330
1F
100
AcDbEntity
  8
0
  6
HIDDEN
 62
     7
370
     0
100
AcDbSpline
210
0.0
220
0.0
230
1.0
 70
     8
 71
     3
 72
    60
 73
    56
 74
     0
 42
0.00000001
 43
0.00000001
 12
1.0
 22
0.0
 32
0.0
 13
1.0
 23
0.0
 33
0.0
 40
-0.0625000000000002
 40
-0.0625000000000002
 40
0.0
 40
0.0
 40
0.0312499999999999
 40
0.0312499999999999
 40
0.0624999999999998
 40
0.0624999999999998
 40
0.0937499999999997
 40
0.0937499999999997
 40
0.1249999999999996
 40
0.1249999999999996
 40
0.1874999999999993
 40
0.1874999999999993
 40
0.2499999999999991
 40
0.2499999999999991
 40
0.2812499999999991
 40
0.2812499999999991
 40
0.3124999999999992
 40
0.3124999999999992
 40
0.3437499999999992
 40
0.3437499999999992
 40
0.3749999999999993
 40
0.3749999999999993
 40
0.4062499999999993
 40
0.4062499999999993
 40
0.4374999999999994
 40
0.4374999999999994
 40
0.4687499999999994
 40
0.4687499999999994
 40
0.4999999999999996
 40
0.4999999999999996
 40
0.5624999999999997
 40
0.5624999999999997
 40
0.6249999999999998
 40
0.6249999999999998
 40
0.6562499999999998
 40
0.6562499999999998
 40
0.6874999999999998
 40
0.6874999999999998
 40
0.7187499999999998
 40
0.7187499999999998
 40
0.7499999999999998
 40
0.7499999999999998
 40
0.7812499999999998
 40
0.7812499999999998
 40
0.8124999999999998
 40
0.8124999999999998
 40
0.8437499999999998
 40
0.8437499999999998
 40
0.8749999999999998
 40
0.8749999999999998
 40
0.9062499999999998
 40
0.9062499999999998
 40
0.9374999999999998
 40
0.9374999999999998
 40
1.0
 40
1.0
 40
1.03125
 40
1.03125
 10
205.7697774039368
 20
114.8091834834538
 30
0.0
 10
205.7697774039368
 20
115.2056792710839
 30
0.0
 10
205.756805545448
 20
115.335629332088
 30
0.0
 10
205.7059853757556
 20
115.5912822654482
 30
0.0
 10
205.6675180522887
 20
115.7183117719975
 30
0.0
 10
205.5671198162165
 20
115.960499903122
 30
0.0
 10
205.5056867852434
 20
116.0753613956748
 30
0.0
 10
205.3605519536985
 20
116.292741591499
 30
0.0
 10
205.2760968362906
 20
116.3956391586976
 30
0.0
 10
204.9993773859323
 20
116.6723061977054
 30
0.0
 10
204.7763004940142
 20
116.8213042881854
 30
0.0
 10
204.2950171317939
 20
117.0208154286501
 30
0.0
 10
204.0317867128029
 20
117.0733735316468
 30
0.0
 10
203.640384511115
 20
117.0735838140249
 30
0.0
 10
203.5078614830061
 20
117.0605980432977
 30
0.0
 10
203.2513310297651
 20
117.0095708950839
 30
0.0
 10
203.1266441954685
 20
116.9718156959335
 30
0.0
 10
202.8844649332329
 20
116.8716773630248
 30
0.0
 10
202.7673714010829
 20
116.8090716956132
 30
0.0
 10
202.5506563977274
 20
116.6643384023483
 30
0.0
 10
202.4496375708647
 20
116.5817110550687
 30
0.0
 10
202.2628526834125
 20
116.3951060018171
 30
0.0
 10
202.1799958022164
 20
116.293990937941
 30
0.0
 10
202.0351115371425
 20
116.0774581339511
 30
0.0
 10
201.9724740293216
 20
115.96058792635
 30
0.0
 10
201.8720252059219
 20
115.7182900556998
 30
0.0
 10
201.8341741049046
 20
115.5936260572389
 30
0.0
 10
201.7829525396482
 20
115.337339013175
 30
0.0
 10
201.769824413031
 20
115.2047670174294
 30
0.0
 10
201.7696837726908
 20
114.8131628246554
 30
0.0
 10
201.8220085220626
 20
114.5499974933315
 30
0.0
 10
202.0211195841199
 20
114.0684921241583
 30
0.0
 10
202.1699819205772
 20
113.8452405846742
 30
0.0
 10
202.4463028799026
 20
113.5683842857854
 30
0.0
 10
202.5490665282762
 20
113.4838708389417
 30
0.0
 10
202.7664500856557
 20
113.3384535655014
 30
0.0
 10
202.8812488536121
 20
113.276942366443
 30
0.0
 10
203.1231255770361
 20
113.1764125181882
 30
0.0
 10
203.2502791850364
 20
113.1377674949702
 30
0.0
 10
203.5059451944689
 20
113.0867111674192
 30
0.0
 10
203.635811232225
 20
113.0736463088736
 30
0.0
 10
203.8997637589566
 20
113.0733836880757
 30
0.0
 10
204.0301680823807
 20
113.0862606883197
 30
0.0
 10
204.28581884576
 20
113.1368466921255
 30
0.0
 10
204.4126843948744
 20
113.1751230567473
 30
0.0
 10
204.6552048528203
 20
113.2753939242273
 30
0.0
 10
204.7701314914806
 20
113.3367499483682
 30
0.0
 10
204.9875029603126
 20
113.481596243541
 30
0.0
 10
205.0905167729749
 20
113.5659737580357
 30
0.0
 10
205.2752173185568
 20
113.7503810782239
 30
0.0
 10
205.3580470528134
 20
113.8509541414934
 30
0.0
 10
205.5042994914109
 20
114.0691802820724
 30
0.0
 10
205.5666679722033
 20
114.1857353919936
 30
0.0
 10
205.71662412377
 20
114.5465849860274
 30
0.0
 10
205.7697774039368
 20
114.8091834834538
 30
0.0
 10
205.7697774039368
 20
115.2056792710839
 30
0.0
  0
LINE
  5
F5
330
1F
100
AcDbEntity
  8
0
  6
HIDDEN
 62
     7
370
     0
100
AcDbLine
 10
191.7697774039
 20
146.0735140037
 30
0.0
 11
191.7697774039
 21
84.0735140085
 31
0.0
  0
LWPOLYLINE
  5
F6
330
1F
100
AcDbEntity
  8
0
  6
HIDDEN
 62
     7
370
     0
100
AcDbPolyline
 90
       29
 70
   128
 43
0.0
 10
212.7697774039
 20
129.9215902199
 10
213.4373402058
 20
129.856451025
 10
214.0714286213
 20
129.6642997914
 10
214.6402468095
 20
129.3547717844
 10
215.1152718513
 20
128.9433880308
 10
215.4726840076
 20
128.4507770296
 10
215.6945611405
 20
127.9016403536
 10
215.7697774039
 20
127.3235140085
 10
215.6945611405
 20
126.7453876635
 10
215.4726840076
 20
126.1962509874
 10
215.1152718513
 20
125.7036399863
 10
214.6402468095
 20
125.2922562327
 10
214.0714286213
 20
124.9827282257
 10
213.4373402058
 20
124.7905769921
 10
212.7697774039
 20
124.7254377972
 10
212.1022146021
 20
124.7905769921
 10
211.4681261866
 20
124.9827282257
 10
210.8993079984
 20
125.2922562327
 10
210.4242829565
 20
125.7036399863
 10
210.0668708002
 20
126.1962509874
 10
209.8449936674
 20
126.7453876635
 10
209.7697774039
 20
127.3235140085
 10
209.8449936674
 20
127.9016403536
 10
210.0668708002
 20
128.4507770296
 10
210.4242829565
 20
128.9433880308
 10
210.8993079984
 20
129.3547717844
 10
211.4681261866
 20
129.6642997914
 10
212.1022146021
 20
129.856451025
 10
212.7697774039
 20
129.9215902199
  0
LINE
  5
F7
330
1F
100
AcDbEntity
  8
0
  6
HIDDEN
 62
     7
370
     0
100
AcDbLine
 10
191.7697774039
 20
90.8235140085
 30
0.0
 11
191.7697774039
 21
139.3235140085
 31
0.0
  0
SPLINE
  5
F8
330
1F
100
AcDbEntity
  8
0
  6
HIDDEN
 62
     7
370
     0
100
AcDbSpline
210
0.0
220
0.0
230
1.0
 70
     8
 71
     3
 72
    12
 73
     8
 74
     0
 42
0.00000001
 43
0.00000001
 12
1.0
 22
0.0
 32
0.0
 13
1.0
 23
0.0
 33
0.0
 40
0.0
 40
0.0
 40
0.0
 40
0.0
 40
0.4999999999999984
 40
0.4999999999999984
 40
0.7499999999999991
 40
0.7499999999999991
 40
1.0
 40
1.0
 40
1.0
 40
1.0
 10
190.9532651174898
 20
130.5257819903714
 30
0.0
 10
191.00967129617
 20
130.4779596167116
 30
0.0
 10
191.0798341976418
 20
130.437688769773
 30
0.0
 10
191.197844911031
 20
130.4296429012961
 30
0.0
 10
191.2380506946265
 20
130.436205499635
 30
0.0
 10
191.3117713913595
 20
130.4635875940886
 30
0.0
 10
191.344632113146
 20
130.4833490846189
 30
0.0
 10
191.3748005150753
 20
130.506281795807
 30
0.0
  0
SPLINE
  5
F9
330
1F
100
AcDbEntity
  8
0
  6
HIDDEN
 62
     7
370
     0
100
AcDbSpline
210
0.0
220
0.0
230
1.0
 70
     8
 71
     3
 72
    16
 73
    12
 74
     0
 42
0.00000001
 43
0.00000001
 12
1.0
 22
0.0
 32
0.0
 13
1.0
 23
0.0
 33
0.0
 40
0.0
 40
0.0
 40
0.0
 40
0.0
 40
0.0624999999999973
 40
0.0624999999999973
 40
0.1249999999999946
 40
0.1249999999999946
 40
0.2499999999999892
 40
0.2499999999999892
 40
0.4999999999999929
 40
0.4999999999999929
 40
1.0
 40
1.0
 40
1.0
 40
1.0
 10
191.3748005150301
 20
130.5062817958551
 30
0.0
 10
191.3864134148695
 20
130.5151094188365
 30
0.0
 10
191.399764599302
 20
130.5229438007184
 30
0.0
 10
191.4291644389211
 20
130.5312539267908
 30
0.0
 10
191.4440051634764
 20
130.5307581075558
 30
0.0
 10
191.4798383714451
 20
130.5193071365864
 30
0.0
 10
191.4939515792666
 20
130.5026266357278
 30
0.0
 10
191.5284429504856
 20
130.4505059499707
 30
0.0
 10
191.5395270215959
 20
130.4107164559457
 30
0.0
 10
191.5656498393919
 20
130.2873798238486
 30
0.0
 10
191.5697774039368
 20
130.19995841335
 30
0.0
 10
191.5697774039368
 20
130.1112211710317
 30
0.0
  0
LINE
  5
FA
330
1F
100
AcDbEntity
  8
0
  6
HIDDEN
 62
     7
370
     0
100
AcDbLine
 10
191.5697774039
 20
100.035806846
 30
0.0
 11
191.5697774039
 21
130.111221171
 31
0.0
  0
SPLINE
  5
FB
330
1F
100
AcDbEntity
  8
0
  6
HIDDEN
 62
     7
370
     0
100
AcDbSpline
210
0.0
220
0.0
230
1.0
 70
     8
 71
     3
 72
    16
 73
    12
 74
     0
 42
0.00000001
 43
0.00000001
 12
1.0
 22
0.0
 32
0.0
 13
1.0
 23
0.0
 33
0.0
 40
0.0
 40
0.0
 40
0.0
 40
0.0
 40
0.5000000000000044
 40
0.5000000000000044
 40
0.7500000000000016
 40
0.7500000000000016
 40
0.8750000000000001
 40
0.8750000000000001
 40
0.9375000000000001
 40
0.9375000000000001
 40
1.0
 40
1.0
 40
1.0
 40
1.0
 10
191.5697774039368
 20
100.0358068460494
 30
0.0
 10
191.5697774039368
 20
99.94668048086065
 30
0.0
 10
191.5656311288589
 20
99.85981911324723
 30
0.0
 10
191.5396655334653
 20
99.73683686675321
 30
0.0
 10
191.5282046280879
 20
99.69606557152193
 30
0.0
 10
191.4938928903135
 20
99.64436125152216
 30
0.0
 10
191.4798681543839
 20
99.62769088493174
 30
0.0
 10
191.4438451913501
 20
99.616238664475
 30
0.0
 10
191.4290906822604
 20
99.61578561820001
 30
0.0
 10
191.3997385211136
 20
99.62410093941615
 30
0.0
 10
191.3863986466095
 20
99.63192982449443
 30
0.0
 10
191.3748005150612
 20
99.64074622125707
 30
0.0
  0
SPLINE
  5
FC
330
1F
100
AcDbEntity
  8
0
  6
HIDDEN
 62
     7
370
     0
100
AcDbSpline
210
0.0
220
0.0
230
1.0
 70
     8
 71
     3
 72
    12
 73
     8
 74
     0
 42
0.00000001
 43
0.00000001
 12
1.0
 22
0.0
 32
0.0
 13
1.0
 23
0.0
 33
0.0
 40
0.0
 40
0.0
 40
0.0
 40
0.0
 40
0.2500000000000004
 40
0.2500000000000004
 40
0.5000000000000008
 40
0.5000000000000008
 40
1.0
 40
1.0
 40
1.0
 40
1.0
 10
191.3748005150682
 20
99.64074622126599
 30
0.0
 10
191.344608673351
 20
99.6636967503638
 30
0.0
 10
191.3112497039364
 20
99.68366622438799
 30
0.0
 10
191.2381124193558
 20
99.71076735801348
 30
0.0
 10
191.1978705467018
 20
99.71736809865891
 30
0.0
 10
191.0801647697333
 20
99.70939922415222
 30
0.0
 10
191.0097542919539
 20
99.66913876598434
 30
0.0
 10
190.9532651174856
 20
99.62124602670619
 30
0.0
  0
SPLINE
  5
FD
330
1F
100
AcDbEntity
  8
0
  6
HIDDEN
 62
     7
370
     0
100
AcDbSpline
210
0.0
220
0.0
230
1.0
 70
     8
 71
     3
 72
    12
 73
     8
 74
     0
 42
0.00000001
 43
0.00000001
 12
1.0
 22
0.0
 32
0.0
 13
1.0
 23
0.0
 33
0.0
 40
0.0
 40
0.0
 40
0.0
 40
0.0
 40
0.2500000000000009
 40
0.2500000000000009
 40
0.5000000000000019
 40
0.5000000000000019
 40
1.0
 40
1.0
 40
1.0
 40
1.0
 10
190.9532651174853
 20
99.62124602670639
 30
0.0
 10
190.8651111797475
 20
99.54650721885228
 30
0.0
 10
190.8047577551188
 20
99.45552671836991
 30
0.0
 10
190.6984957970519
 20
99.2666128956173
 30
0.0
 10
190.6562636304899
 20
99.17010843607673
 30
0.0
 10
190.5451929351727
 20
98.8793406819096
 30
0.0
 10
190.4922561587459
 20
98.68367386736584
 30
0.0
 10
190.4484570603771
 20
98.48960738229954
 30
0.0
  0
SPLINE
  5
FE
330
1F
100
AcDbEntity
  8
0
  6
HIDDEN
 62
     7
370
     0
100
AcDbSpline
210
0.0
220
0.0
230
1.0
 70
     8
 71
     3
 72
    12
 73
     8
 74
     0
 42
0.00000001
 43
0.00000001
 12
1.0
 22
0.0
 32
0.0
 13
1.0
 23
0.0
 33
0.0
 40
0.0
 40
0.0
 40
0.0
 40
0.0
 40
0.5000000000000002
 40
0.5000000000000002
 40
0.7500000000000001
 40
0.7500000000000001
 40
1.0
 40
1.0
 40
1.0
 40
1.0
 10
190.4484570603771
 20
93.30343305353846
 30
0.0
 10
190.4922036012137
 20
93.27683888289727
 30
0.0
 10
190.5450879564452
 20
93.25707865757154
 30
0.0
 10
190.6566550437814
 20
93.23662766734247
 30
0.0
 10
190.6992386403244
 20
93.23136744268604
 30
0.0
 10
190.8041553674062
 20
93.22348464876339
 30
0.0
 10
190.865688975251
 20
93.22092052358423
 30
0.0
 10
190.9532651174771
 20
93.21872030606458
 30
0.0
  0
LINE
  5
FF
330
1F
100
AcDbEntity
  8
0
  6
HIDDEN
 62
     7
370
     0
100
AcDbLine
 10
191.5697774039
 20
92.5336937297
 30
0.0
 11
191.5697774039
 21
93.0139195203
 31
0.0
  0
LINE
  5
100
330
1F
100
AcDbEntity
  8
0
  6
HIDDEN
 62
     7
370
     0
100
AcDbLine
 10
191.5697774039
 20
137.1331084968
 30
0.0
 11
191.5697774039
 21
137.6133342874
 31
0.0
  0
SPLINE
  5
101
330
1F
100
AcDbEntity
  8
0
  6
HIDDEN
 62
     7
370
     0
100
AcDbSpline
210
0.0
220
0.0
230
1.0
 70
     8
 71
     3
 72
    12
 73
     8
 74
     0
 42
0.00000001
 43
0.00000001
 12
1.0
 22
0.0
 32
0.0
 13
1.0
 23
0.0
 33
0.0
 40
0.0
 40
0.0
 40
0.0
 40
0.0
 40
0.2500000000000001
 40
0.2500000000000001
 40
0.5
 40
0.5
 40
1.0
 40
1.0
 40
1.0
 40
1.0
 10
190.9532651174851
 20
136.9283077110165
 30
0.0
 10
190.8645804576287
 20
136.9260796436755
 30
0.0
 10
190.8046620419053
 20
136.9235778596451
 30
0.0
 10
190.6990028145846
 20
136.9156464238091
 30
0.0
 10
190.6563615764696
 20
136.9103542689123
 30
0.0
 10
190.5451722343671
 20
136.8899493284252
 30
0.0
 10
190.4922455522461
 20
136.8702146368383
 30
0.0
 10
190.4484570603771
 20
136.8435949635427
 30
0.0
  0
SPLINE
  5
102
330
1F
100
AcDbEntity
  8
0
  6
HIDDEN
 62
     7
370
     0
100
AcDbSpline
210
0.0
220
0.0
230
1.0
 70
     8
 71
     3
 72
    12
 73
     8
 74
     0
 42
0.00000001
 43
0.00000001
 12
1.0
 22
0.0
 32
0.0
 13
1.0
 23
0.0
 33
0.0
 40
0.0
 40
0.0
 40
0.0
 40
0.0
 40
0.5000000000000019
 40
0.5000000000000019
 40
0.750000000000001
 40
0.750000000000001
 40
1.0
 40
1.0
 40
1.0
 40
1.0
 10
190.4484570603756
 20
131.6574206347818
 30
0.0
 10
190.4922185366743
 20
131.4635208468197
 30
0.0
 10
190.5451248523273
 20
131.2676644828829
 30
0.0
 10
190.6568360499747
 20
130.9755223363839
 30
0.0
 10
190.6993554935611
 20
130.878804399686
 30
0.0
 10
190.8044788361285
 20
130.6920799632615
 30
0.0
 10
190.8660447998462
 20
130.5997292549918
 30
0.0
 10
190.9532651174889
 20
130.5257819903721
 30
0.0
  0
LWPOLYLINE
  5
103
330
1F
100
AcDbEntity
  8
0
  6
HIDDEN
 62
     7
370
     0
100
AcDbPolyline
 90
       26
 70
   128
 43
0.0
 10
212.7697774039
 20
129.3383623632
 10
213.3915021218
 20
129.2703429118
 10
213.9741615892
 20
129.0705584698
 10
214.4811451688
 20
128.7515622286
 10
214.8805972177
 20
128.333397895
 10
215.1474186947
 20
127.8423402721
 10
215.264844225
 20
127.3092443164
 10
215.2254955308
 20
126.7676064072
 10
215.0318450351
 20
126.2514596465
 10
214.6960605109
 20
125.7932354335
 10
214.2392405347
 20
125.4217256807
 10
213.6900887856
 20
125.1602737122
 10
213.0831104878
 20
125.0253075168
 10
212.45644432
 20
125.0253075168
 10
211.8494660222
 20
125.1602737122
 10
211.3003142732
 20
125.4217256807
 10
210.843494297
 20
125.7932354335
 10
210.5077097728
 20
126.2514596465
 10
210.3140592771
 20
126.7676064072
 10
210.2747105829
 20
127.3092443164
 10
210.3921361132
 20
127.8423402721
 10
210.6589575902
 20
128.333397895
 10
211.0584096391
 20
128.7515622286
 10
211.5653932187
 20
129.0705584698
 10
212.148052686
 20
129.2703429118
 10
212.7697774039
 20
129.3383623632
  0
SPLINE
  5
104
330
1F
100
AcDbEntity
  8
0
  6
HIDDEN
 62
     7
370
     0
100
AcDbSpline
210
0.0
220
0.0
230
1.0
 70
     8
 71
     3
 72
    12
 73
     8
 74
     0
 42
0.00000001
 43
0.00000001
 12
1.0
 22
0.0
 32
0.0
 13
1.0
 23
0.0
 33
0.0
 40
0.0
 40
0.0
 40
0.0
 40
0.0
 40
0.4999999999999981
 40
0.4999999999999981
 40
0.749999999999999
 40
0.749999999999999
 40
1.0
 40
1.0
 40
1.0
 40
1.0
 10
214.6646394210538
 20
123.4938506659731
 30
0.0
 10
214.6052945000328
 20
123.2231657762124
 30
0.0
 10
214.5705908748442
 20
122.9794136332027
 30
0.0
 10
214.6026421754422
 20
122.6803335450275
 30
0.0
 10
214.6267192180725
 20
122.5937238564733
 30
0.0
 10
214.6924238093686
 20
122.4468409823951
 30
0.0
 10
214.7338286400347
 20
122.3857541506666
 30
0.0
 10
214.7784871211837
 20
122.3346222394781
 30
0.0
  0
SPLINE
  5
105
330
1F
100
AcDbEntity
  8
0
  6
HIDDEN
 62
     7
370
     0
100
AcDbSpline
210
0.0
220
0.0
230
1.0
 70
     8
 71
     3
 72
    62
 73
    58
 74
     0
 42
0.00000001
 43
0.00000001
 12
1.0
 22
0.0
 32
0.0
 13
1.0
 23
0.0
 33
0.0
 40
0.0
 40
0.0
 40
0.0
 40
0.0
 40
0.0312500000000005
 40
0.0312500000000005
 40
0.0625000000000011
 40
0.0625000000000011
 40
0.0937500000000016
 40
0.0937500000000016
 40
0.1250000000000021
 40
0.1250000000000021
 40
0.1562500000000026
 40
0.1562500000000026
 40
0.1875000000000032
 40
0.1875000000000032
 40
0.2187500000000037
 40
0.2187500000000037
 40
0.2500000000000042
 40
0.2500000000000042
 40
0.3125000000000046
 40
0.3125000000000046
 40
0.3437500000000047
 40
0.3437500000000047
 40
0.3750000000000048
 40
0.3750000000000048
 40
0.4375000000000047
 40
0.4375000000000047
 40
0.4687500000000048
 40
0.4687500000000048
 40
0.4843750000000049
 40
0.4843750000000049
 40
0.500000000000005
 40
0.500000000000005
 40
0.5312500000000048
 40
0.5312500000000048
 40
0.5625000000000044
 40
0.5625000000000044
 40
0.6250000000000037
 40
0.6250000000000037
 40
0.6562500000000034
 40
0.6562500000000034
 40
0.6875000000000031
 40
0.6875000000000031
 40
0.7187500000000029
 40
0.7187500000000029
 40
0.7500000000000027
 40
0.7500000000000027
 40
0.7812500000000024
 40
0.7812500000000024
 40
0.8125000000000021
 40
0.8125000000000021
 40
0.8750000000000014
 40
0.8750000000000014
 40
0.9375000000000007
 40
0.9375000000000007
 40
0.9687500000000003
 40
0.9687500000000003
 40
1.0
 40
1.0
 40
1.0
 40
1.0
 10
214.7784871211836
 20
122.3346222394782
 30
0.0
 10
214.8716122448864
 20
122.4231964950115
 30
0.0
 10
214.94784522785
 20
122.5046655020133
 30
0.0
 10
215.0762584218617
 20
122.6673115526279
 30
0.0
 10
215.128421391462
 20
122.7487087445542
 30
0.0
 10
215.2091665128908
 20
122.9166901574884
 30
0.0
 10
215.2373673142081
 20
123.0022125340077
 30
0.0
 10
215.2699265986201
 20
123.1813373365987
 30
0.0
 10
215.2741430032279
 20
123.2757883974795
 30
0.0
 10
215.255941781875
 20
123.4722114041578
 30
0.0
 10
215.2338268220664
 20
123.5738437752192
 30
0.0
 10
215.1606242643529
 20
123.7870374235859
 30
0.0
 10
215.1090069566486
 20
123.898819637571
 30
0.0
 10
214.9784283846243
 20
124.1238083910072
 30
0.0
 10
214.897635576033
 20
124.2400491204182
 30
0.0
 10
214.7126461748402
 20
124.4686819801644
 30
0.0
 10
214.6093010759047
 20
124.5805958305617
 30
0.0
 10
214.268221160167
 20
124.9108548965983
 30
0.0
 10
214.0104070020214
 20
125.1116742632921
 30
0.0
 10
213.6288291214738
 20
125.3715216111202
 30
0.0
 10
213.5012319257655
 20
125.4522676545274
 30
0.0
 10
213.2531232837437
 20
125.6018680080014
 30
0.0
 10
213.1335787379967
 20
125.6701770924288
 30
0.0
 10
212.7906940889482
 20
125.8634015626714
 30
0.0
 10
212.5782292693805
 20
125.9750768566693
 30
0.0
 10
212.3486405798102
 20
126.1567918700676
 30
0.0
 10
212.2876042999555
 20
126.2211561187804
 30
0.0
 10
212.2384486490377
 20
126.3291711874188
 30
0.0
 10
212.2290126158183
 20
126.3677443137042
 30
0.0
 10
212.2259552794823
 20
126.4469255276687
 30
0.0
 10
212.2320642146124
 20
126.4877063809119
 30
0.0
 10
212.2710916486873
 20
126.6128667779982
 30
0.0
 10
212.3246075424895
 20
126.6988396778734
 30
0.0
 10
212.4607934377001
 20
126.8600598017323
 30
0.0
 10
212.544837608412
 20
126.9372345012578
 30
0.0
 10
212.8200849531506
 20
127.1444354425718
 30
0.0
 10
213.0354342173109
 20
127.2536031667985
 30
0.0
 10
213.3869140686599
 20
127.350671516556
 30
0.0
 10
213.5069203800034
 20
127.3711386111674
 30
0.0
 10
213.7515672295879
 20
127.3839062953624
 30
0.0
 10
213.8777149893337
 20
127.3759056070776
 30
0.0
 10
214.1260117392637
 20
127.3251232482434
 30
0.0
 10
214.2478639167288
 20
127.2828811175314
 30
0.0
 10
214.4848799347982
 20
127.1578359823643
 30
0.0
 10
214.5958985381958
 20
127.0768458741918
 30
0.0
 10
214.7970873635941
 20
126.8797450664239
 30
0.0
 10
214.8885227510464
 20
126.761384138685
 30
0.0
 10
215.0398684178808
 20
126.5031197822478
 30
0.0
 10
215.1019946133126
 20
126.3601803102525
 30
0.0
 10
215.2431140578817
 20
125.9138379509542
 30
0.0
 10
215.2786293340347
 20
125.591048365722
 30
0.0
 10
215.2572205878625
 20
124.9581122624504
 30
0.0
 10
215.2009245316366
 20
124.6392491349467
 30
0.0
 10
215.0545962921964
 20
124.1870941173391
 30
0.0
 10
214.9953380050821
 20
124.039767146697
 30
0.0
 10
214.8498387453558
 20
123.753412801502
 30
0.0
 10
214.7654926054621
 20
123.6178939684646
 30
0.0
 10
214.6646394210538
 20
123.4938506659729
 30
0.0
  0
SPLINE
  5
106
330
1F
100
AcDbEntity
  8
0
  6
HIDDEN
 62
     7
370
     0
100
AcDbSpline
210
0.0
220
0.0
230
1.0
 70
     8
 71
     3
 72
    62
 73
    58
 74
     0
 42
0.00000001
 43
0.00000001
 12
1.0
 22
0.0
 32
0.0
 13
1.0
 23
0.0
 33
0.0
 40
-0.03125
 40
-0.03125
 40
0.0
 40
0.0
 40
0.0312500000000002
 40
0.0312500000000002
 40
0.0625000000000004
 40
0.0625000000000004
 40
0.0937500000000006
 40
0.0937500000000006
 40
0.1250000000000008
 40
0.1250000000000008
 40
0.1875000000000006
 40
0.1875000000000006
 40
0.2187500000000004
 40
0.2187500000000004
 40
0.2500000000000003
 40
0.2500000000000003
 40
0.2812500000000002
 40
0.2812500000000002
 40
0.3125
 40
0.3125
 40
0.3749999999999997
 40
0.3749999999999997
 40
0.4062499999999997
 40
0.4062499999999997
 40
0.4374999999999998
 40
0.4374999999999998
 40
0.4687499999999998
 40
0.4687499999999998
 40
0.4999999999999998
 40
0.4999999999999998
 40
0.5624999999999993
 40
0.5624999999999993
 40
0.5937499999999992
 40
0.5937499999999992
 40
0.6249999999999992
 40
0.6249999999999992
 40
0.6562499999999992
 40
0.6562499999999992
 40
0.6874999999999992
 40
0.6874999999999992
 40
0.7187499999999993
 40
0.7187499999999993
 40
0.7499999999999993
 40
0.7499999999999993
 40
0.7812499999999994
 40
0.7812499999999994
 40
0.8124999999999996
 40
0.8124999999999996
 40
0.8749999999999998
 40
0.8749999999999998
 40
0.9062499999999999
 40
0.9062499999999999
 40
0.9374999999999999
 40
0.9374999999999999
 40
0.96875
 40
0.96875
 40
1.0
 40
1.0
 40
1.03125
 40
1.03125
 10
212.9358212228731
 20
121.5614816344493
 30
0.0
 10
212.6037335850008
 20
121.5614816344493
 30
0.0
 10
212.4406368544237
 20
121.5496904937773
 30
0.0
 10
212.1200405495152
 20
121.5033218500416
 30
0.0
 10
211.9608383462088
 20
121.4681371873409
 30
0.0
 10
211.6585278444947
 20
121.3759253369032
 30
0.0
 10
211.5152762702503
 20
121.3192378847797
 30
0.0
 10
211.2441654291831
 20
121.1836900954528
 30
0.0
 10
211.1164834340543
 20
121.1044771416279
 30
0.0
 10
210.772483345839
 20
120.840957830028
 30
0.0
 10
210.5864817172547
 20
120.6234367503589
 30
0.0
 10
210.3989952040731
 20
120.2572542470669
 30
0.0
 10
210.350523259321
 20
120.1265870484509
 30
0.0
 10
210.2859612799073
 20
119.855583907881
 30
0.0
 10
210.2698827796874
 20
119.7168809129345
 30
0.0
 10
210.2696730507737
 20
119.4329163307166
 30
0.0
 10
210.2861045981846
 20
119.2863467217648
 30
0.0
 10
210.3502732883369
 20
118.9993315423436
 30
0.0
 10
210.3977422511284
 20
118.8575836789731
 30
0.0
 10
210.5868657350826
 20
118.4385926764424
 30
0.0
 10
210.7710056274487
 20
118.1780807696263
 30
0.0
 10
211.1177412112527
 20
117.8431243580371
 30
0.0
 10
211.2430581674044
 20
117.7425721619109
 30
0.0
 10
211.5131176702044
 20
117.5643901022224
 30
0.0
 10
211.6594910460855
 20
117.4862996571481
 30
0.0
 10
211.9609089491391
 20
117.3611702961642
 30
0.0
 10
212.1167611105781
 20
117.3132425307272
 30
0.0
 10
212.4391041718944
 20
117.2480729869601
 30
0.0
 10
212.6050556389639
 20
117.2314263807689
 30
0.0
 10
213.0959770065151
 20
117.2312117940202
 30
0.0
 10
213.4264599936179
 20
117.2982357691323
 30
0.0
 10
213.8783694912164
 20
117.4854756478899
 30
0.0
 10
214.0246667085957
 20
117.5633439405356
 30
0.0
 10
214.2955502711521
 20
117.7418270294016
 30
0.0
 10
214.4209067933099
 20
117.8423796845524
 30
0.0
 10
214.6516844347991
 20
118.0650560278065
 30
0.0
 10
214.7564723148692
 20
118.1871055452823
 30
0.0
 10
214.9371359390513
 20
118.4417643399049
 30
0.0
 10
215.0143244362466
 20
118.5755428764646
 30
0.0
 10
215.1411878405378
 20
118.855805047226
 30
0.0
 10
215.1888491944702
 20
118.9979931985456
 30
0.0
 10
215.2530795615328
 20
119.2841009203973
 30
0.0
 10
215.2697127754118
 20
119.4299055626488
 30
0.0
 10
215.2698416504233
 20
119.7154296843022
 30
0.0
 10
215.2537606712945
 20
119.8541892659553
 30
0.0
 10
215.189793258826
 20
120.1240727991641
 30
0.0
 10
215.1412292085824
 20
120.255721712501
 30
0.0
 10
214.9534983665398
 20
120.6230524274066
 30
0.0
 10
214.7675525290442
 20
120.8404551809164
 30
0.0
 10
214.4237773069398
 20
121.1040031542789
 30
0.0
 10
214.2966020025723
 20
121.1830131107201
 30
0.0
 10
214.0249595932976
 20
121.318967591919
 30
0.0
 10
213.8818004223505
 20
121.3756102317013
 30
0.0
 10
213.5806734798127
 20
121.4676187178235
 30
0.0
 10
213.4211572511211
 20
121.5030337940435
 30
0.0
 10
213.0992913588894
 20
121.5496865981692
 30
0.0
 10
212.9358212228731
 20
121.5614816344493
 30
0.0
 10
212.6037335850008
 20
121.5614816344493
 30
0.0
  0
LINE
  5
107
330
1F
100
AcDbEntity
  8
0
  6
HIDDEN
 62
     7
370
     0
100
AcDbLine
 10
191.5697774039
 20
93.0139195203
 30
0.0
 11
191.5697774039
 21
108.0516266828
 31
0.0
  0
LINE
  5
108
330
1F
100
AcDbEntity
  8
0
  6
HIDDEN
 62
     7
370
     0
100
AcDbLine
 10
191.5697774039
 20
122.0954013343
 30
0.0
 11
191.5697774039
 21
137.1331084968
 31
0.0
  0
LWPOLYLINE
  5
109
330
1F
100
AcDbEntity
  8
0
  6
HIDDEN
 62
     7
370
     0
100
AcDbPolyline
 90
        9
 70
   128
 43
0.0
 10
214.7784871212
 20
122.3346222395
 10
214.8677530439
 20
122.3701010364
 10
214.9282845382
 20
122.4408920074
 10
214.9589791084
 20
122.5457057948
 10
214.9592776962
 20
122.6826333635
 10
214.9291748633
 20
122.849180771
 10
214.8692188903
 20
123.0423145914
 10
214.7805017907
 20
123.2585171646
 10
214.6646394211
 20
123.493850666
  0
CIRCLE
  5
10A
330
1F
100
AcDbEntity
  8
0
  6
HIDDEN
 62
     7
370
     0
100
AcDbCircle
 10
176.2697774039
 20
115.0735140085
 30
0.0
 40
4.049999999999983
  0
LINE
  5
10B
330
1F
100
AcDbEntity
  8
0
  6
HIDDEN
 62
     7
370
     0
100
AcDbLine
 10
155.3000058436
 20
130.3864650515
 30
0.0
 11
155.3000058436
 21
99.7605629656
 31
0.0
  0
LINE
  5
10C
330
1F
100
AcDbEntity
  8
0
  6
HIDDEN
 62
     7
370
     0
100
AcDbLine
 10
153.7697774039
 20
98.8770851641
 30
0.0
 11
153.7697774039
 21
131.269942853
 31
0.0
  0
LINE
  5
10D
330
1F
100
AcDbEntity
  8
0
  6
HIDDEN
 62
     7
370
     0
100
AcDbLine
 10
161.8000058436
 20
129.4199241701
 30
0.0
 11
161.8000058436
 21
100.727103847
 31
0.0
  0
LINE
  5
10E
330
1F
100
AcDbEntity
  8
0
  6
HIDDEN
 62
     7
370
     0
100
AcDbLine
 10
167.6000058436
 20
129.0735140085
 30
0.0
 11
167.6000058436
 21
101.0735140085
 31
0.0
  0
LINE
  5
10F
330
1F
100
AcDbEntity
  8
0
  6
HIDDEN
 62
     7
370
     0
100
AcDbLine
 10
160.2000058436
 20
129.0735140085
 30
0.0
 11
160.2000058436
 21
101.0735140085
 31
0.0
  0
LINE
  5
110
330
1F
100
AcDbEntity
  8
0
  6
HIDDEN
 62
     7
370
     0
100
AcDbLine
 10
161.2000058436
 20
129.0735140085
 30
0.0
 11
161.2000058436
 21
101.0735140085
 31
0.0
  0
SPLINE
  5
111
330
1F
100
AcDbEntity
  8
0
  6
HIDDEN
 62
     7
370
     0
100
AcDbSpline
210
0.0
220
0.0
230
1.0
 70
     8
 71
     3
 72
    10
 73
     6
 74
     0
 42
0.00000001
 43
0.00000001
 12
1.0
 22
0.0
 32
0.0
 13
1.0
 23
0.0
 33
0.0
 40
0.0
 40
0.0
 40
0.0
 40
0.0
 40
0.5
 40
0.5
 40
1.0
 40
1.0
 40
1.0
 40
1.0
 10
180.2697774039368
 20
115.7079428855631
 30
0.0
 10
180.3029248220133
 20
115.4989522845551
 30
0.0
 10
180.3197836673749
 20
115.2873898185335
 30
0.0
 10
180.3197711370272
 20
114.8594010525658
 30
0.0
 10
180.3028561792868
 20
114.6476429481501
 30
0.0
 10
180.2697774039368
 20
114.4390851315181
 30
0.0
  0
LINE
  5
112
330
1F
100
AcDbEntity
  8
0
  6
HIDDEN
 62
     7
370
     0
100
AcDbLine
 10
180.7697774039
 20
128.5735140085
 30
0.0
 11
180.7697774039
 21
101.5735140085
 31
0.0
  0
SPLINE
  5
113
330
1F
100
AcDbEntity
  8
0
  6
HIDDEN
 62
     7
370
     0
100
AcDbSpline
210
0.0
220
0.0
230
1.0
 70
     8
 71
     3
 72
    10
 73
     6
 74
     0
 42
0.00000001
 43
0.00000001
 12
1.0
 22
0.0
 32
0.0
 13
1.0
 23
0.0
 33
0.0
 40
0.0
 40
0.0
 40
0.0
 40
0.0
 40
0.5
 40
0.5
 40
1.0
 40
1.0
 40
1.0
 40
1.0
 10
180.2697774039368
 20
114.4390851315181
 30
0.0
 10
180.3029663664105
 20
114.6483376651005
 30
0.0
 10
180.3196671426652
 20
114.8591544259995
 30
0.0
 10
180.3198865831098
 20
115.2836867072028
 30
0.0
 10
180.3030068677164
 20
115.4984349959754
 30
0.0
 10
180.2697774039368
 20
115.7079428855631
 30
0.0
  0
SPLINE
  5
114
330
1F
100
AcDbEntity
  8
0
  6
HIDDEN
 62
     7
370
     0
100
AcDbSpline
210
0.0
220
0.0
230
1.0
 70
     8
 71
     3
 72
    68
 73
    64
 74
     0
 42
0.00000001
 43
0.00000001
 12
1.0
 22
0.0
 32
0.0
 13
1.0
 23
0.0
 33
0.0
 40
0.0
 40
0.0
 40
0.0
 40
0.0
 40
0.03125
 40
0.03125
 40
0.0625
 40
0.0625
 40
0.09375
 40
0.09375
 40
0.125
 40
0.125
 40
0.15625
 40
0.15625
 40
0.1875
 40
0.1875
 40
0.21875
 40
0.21875
 40
0.25
 40
0.25
 40
0.28125
 40
0.28125
 40
0.3124999999999999
 40
0.3124999999999999
 40
0.3437499999999999
 40
0.3437499999999999
 40
0.3749999999999999
 40
0.3749999999999999
 40
0.4062499999999999
 40
0.4062499999999999
 40
0.4374999999999999
 40
0.4374999999999999
 40
0.46875
 40
0.46875
 40
0.5
 40
0.5
 40
0.5625000000000001
 40
0.5625000000000001
 40
0.5937500000000001
 40
0.5937500000000001
 40
0.625
 40
0.625
 40
0.65625
 40
0.65625
 40
0.6875
 40
0.6875
 40
0.71875
 40
0.71875
 40
0.75
 40
0.75
 40
0.78125
 40
0.78125
 40
0.8125
 40
0.8125
 40
0.84375
 40
0.84375
 40
0.8749999999999999
 40
0.8749999999999999
 40
0.9062499999999999
 40
0.9062499999999999
 40
0.9374999999999999
 40
0.9374999999999999
 40
0.96875
 40
0.96875
 40
1.0
 40
1.0
 40
1.0
 40
1.0
 10
180.2697774039368
 20
114.4390851315181
 30
0.0
 10
180.2297624515871
 20
114.1867955287025
 30
0.0
 10
180.1668206501758
 20
113.9427966783267
 30
0.0
 10
179.9974339881038
 20
113.4703782892641
 30
0.0
 10
179.8897404255183
 20
113.2399649031042
 30
0.0
 10
179.6344556569804
 20
112.8052603073071
 30
0.0
 10
179.4884164265081
 20
112.6026183406558
 30
0.0
 10
179.1601949899489
 20
112.225629049898
 30
0.0
 10
178.9759477021739
 20
112.0499710963206
 30
0.0
 10
178.5829875348656
 20
111.7397131273744
 30
0.0
 10
178.3736929379065
 20
111.6037679197244
 30
0.0
 10
177.9288075109691
 20
111.3703778243186
 30
0.0
 10
177.6920099184701
 20
111.2731312179042
 30
0.0
 10
177.2112748495508
 20
111.1264597600328
 30
0.0
 10
176.965031756368
 20
111.0755674150904
 30
0.0
 10
176.4603149763886
 20
111.0200400648549
 30
0.0
 10
176.2041202754521
 20
111.016215177785
 30
0.0
 10
175.701741526252
 20
111.0556389604294
 30
0.0
 10
175.4524918270684
 20
111.0986664096406
 30
0.0
 10
174.9609640295897
 20
111.2323713790919
 30
0.0
 10
174.7256684283638
 20
111.3210412249971
 30
0.0
 10
174.2747545337017
 20
111.5400725887745
 30
0.0
 10
174.0571421832383
 20
111.6720741544581
 30
0.0
 10
173.65393501369
 20
111.971431435461
 30
0.0
 10
173.4683235212556
 20
112.1380503628989
 30
0.0
 10
173.1283354508531
 20
112.5051617883263
 30
0.0
 10
172.9732625200302
 20
112.707465533867
 30
0.0
 10
172.7069194433668
 20
113.131546213461
 30
0.0
 10
172.59393534265
 20
113.3547058189273
 30
0.0
 10
172.4090800857192
 20
113.8240610605214
 30
0.0
 10
172.3379393242158
 20
114.0702715638569
 30
0.0
 10
172.2439789129276
 20
114.5647973902281
 30
0.0
 10
172.2199695829712
 20
114.8157283853201
 30
0.0
 10
172.2193964622986
 20
115.5799737648763
 30
0.0
 10
172.3147955736173
 20
116.0821980669273
 30
0.0
 10
172.5926593658183
 20
116.7897625731997
 30
0.0
 10
172.7058213218989
 20
117.0134688369405
 30
0.0
 10
172.9719525039428
 20
117.4377387482611
 30
0.0
 10
173.1267802781425
 20
117.6399907103171
 30
0.0
 10
173.4669613839303
 20
118.0077014516853
 30
0.0
 10
173.6524638408801
 20
118.1743183269346
 30
0.0
 10
174.0547576419394
 20
118.4733677057301
 30
0.0
 10
174.2727656901914
 20
118.6058244137585
 30
0.0
 10
174.7233640573417
 20
118.8250308144631
 30
0.0
 10
174.9579130562225
 20
118.9135159444668
 30
0.0
 10
175.4463730497748
 20
119.0470021744054
 30
0.0
 10
175.6986384454887
 20
119.0909438868992
 30
0.0
 10
176.2008190836489
 20
119.1307528833727
 30
0.0
 10
176.4533012010006
 20
119.1274086705592
 30
0.0
 10
176.9611662440701
 20
119.0722293505686
 30
0.0
 10
177.2087117172539
 20
119.0211834220992
 30
0.0
 10
177.6896792547246
 20
118.8747730338637
 30
0.0
 10
177.9256391198299
 20
118.77812682909
 30
0.0
 10
178.3722095693515
 20
118.544221884777
 30
0.0
 10
178.581854431925
 20
118.4080968709505
 30
0.0
 10
178.9748411386795
 20
118.0980426066214
 30
0.0
 10
179.1592370424945
 20
117.9223853590463
 30
0.0
 10
179.4877874603548
 20
117.5452454363819
 30
0.0
 10
179.633729556878
 20
117.342779231112
 30
0.0
 10
179.8886149120802
 20
116.9092029329787
 30
0.0
 10
179.9969262248885
 20
116.6779110893971
 30
0.0
 10
180.1667612023054
 20
116.2045514092639
 30
0.0
 10
180.2297565634425
 20
115.9602696124431
 30
0.0
 10
180.2697774039368
 20
115.7079428855631
 30
0.0
  0
SPLINE
  5
115
330
1F
100
AcDbEntity
  8
0
  6
HIDDEN
 62
     7
370
     0
100
AcDbSpline
210
0.0
220
0.0
230
1.0
 70
     8
 71
     3
 72
    68
 73
    64
 74
     0
 42
0.00000001
 43
0.00000001
 12
1.0
 22
0.0
 32
0.0
 13
1.0
 23
0.0
 33
0.0
 40
0.0
 40
0.0
 40
0.0
 40
0.0
 40
0.0312499999999999
 40
0.0312499999999999
 40
0.0624999999999998
 40
0.0624999999999998
 40
0.0937499999999997
 40
0.0937499999999997
 40
0.1249999999999996
 40
0.1249999999999996
 40
0.1562499999999995
 40
0.1562499999999995
 40
0.1874999999999994
 40
0.1874999999999994
 40
0.2187499999999993
 40
0.2187499999999993
 40
0.2499999999999992
 40
0.2499999999999992
 40
0.2812499999999991
 40
0.2812499999999991
 40
0.312499999999999
 40
0.312499999999999
 40
0.3437499999999989
 40
0.3437499999999989
 40
0.3749999999999987
 40
0.3749999999999987
 40
0.4062499999999986
 40
0.4062499999999986
 40
0.4374999999999985
 40
0.4374999999999985
 40
0.4687499999999984
 40
0.4687499999999984
 40
0.4999999999999983
 40
0.4999999999999983
 40
0.5624999999999981
 40
0.5624999999999981
 40
0.593749999999998
 40
0.593749999999998
 40
0.6249999999999979
 40
0.6249999999999979
 40
0.6562499999999978
 40
0.6562499999999978
 40
0.6874999999999977
 40
0.6874999999999977
 40
0.7187499999999976
 40
0.7187499999999976
 40
0.7499999999999973
 40
0.7499999999999973
 40
0.7812499999999977
 40
0.7812499999999977
 40
0.812499999999998
 40
0.812499999999998
 40
0.8437499999999983
 40
0.8437499999999983
 40
0.8749999999999987
 40
0.8749999999999987
 40
0.906249999999999
 40
0.906249999999999
 40
0.9374999999999993
 40
0.9374999999999993
 40
0.9687499999999997
 40
0.9687499999999997
 40
1.0
 40
1.0
 40
1.0
 40
1.0
 10
180.2697774039368
 20
115.7079428855631
 30
0.0
 10
180.2297624515871
 20
115.9602324883787
 30
0.0
 10
180.1668206501758
 20
116.2042313387545
 30
0.0
 10
179.9974339881038
 20
116.676649727817
 30
0.0
 10
179.8897404255183
 20
116.9070631139769
 30
0.0
 10
179.6344556569804
 20
117.341767709774
 30
0.0
 10
179.4884164265081
 20
117.5444096764253
 30
0.0
 10
179.1601949899489
 20
117.9213989671832
 30
0.0
 10
178.9759477021739
 20
118.0970569207605
 30
0.0
 10
178.5829875348656
 20
118.4073148897068
 30
0.0
 10
178.3736929379065
 20
118.5432600973567
 30
0.0
 10
177.9288075109691
 20
118.7766501927625
 30
0.0
 10
177.6920099184701
 20
118.8738967991769
 30
0.0
 10
177.2112748495508
 20
119.0205682570483
 30
0.0
 10
176.965031756368
 20
119.0714606019907
 30
0.0
 10
176.4603149763886
 20
119.1269879522262
 30
0.0
 10
176.2041202754521
 20
119.1308128392962
 30
0.0
 10
175.701741526252
 20
119.0913890566517
 30
0.0
 10
175.4524918270684
 20
119.0483616074405
 30
0.0
 10
174.9609640295897
 20
118.9146566379892
 30
0.0
 10
174.7256684283638
 20
118.825986792084
 30
0.0
 10
174.2747545337017
 20
118.6069554283066
 30
0.0
 10
174.0571421832383
 20
118.474953862623
 30
0.0
 10
173.65393501369
 20
118.1755965816202
 30
0.0
 10
173.4683235212556
 20
118.0089776541823
 30
0.0
 10
173.1283354508531
 20
117.6418662287548
 30
0.0
 10
172.9732625200302
 20
117.4395624832141
 30
0.0
 10
172.7069194433668
 20
117.0154818036201
 30
0.0
 10
172.59393534265
 20
116.7923221981539
 30
0.0
 10
172.4090800857192
 20
116.3229669565597
 30
0.0
 10
172.3379393242158
 20
116.0767564532242
 30
0.0
 10
172.2439789129276
 20
115.582230626853
 30
0.0
 10
172.2199695829712
 20
115.331299631761
 30
0.0
 10
172.2193964622986
 20
114.5670542522048
 30
0.0
 10
172.3147955736173
 20
114.0648299501539
 30
0.0
 10
172.5926593658183
 20
113.3572654438815
 30
0.0
 10
172.7058213218989
 20
113.1335591801407
 30
0.0
 10
172.9719525039428
 20
112.7092892688201
 30
0.0
 10
173.1267802781425
 20
112.507037306764
 30
0.0
 10
173.4669613839303
 20
112.1393265653958
 30
0.0
 10
173.6524638408801
 20
111.9727096901465
 30
0.0
 10
174.0547576419394
 20
111.6736603113511
 30
0.0
 10
174.2727656901914
 20
111.5412036033227
 30
0.0
 10
174.7233640573417
 20
111.321997202618
 30
0.0
 10
174.9579130562225
 20
111.2335120726143
 30
0.0
 10
175.4463730497748
 20
111.1000258426757
 30
0.0
 10
175.6986384454887
 20
111.0560841301819
 30
0.0
 10
176.2008190836489
 20
111.0162751337085
 30
0.0
 10
176.4533012010006
 20
111.019619346522
 30
0.0
 10
176.9611662440701
 20
111.0747986665125
 30
0.0
 10
177.2087117172539
 20
111.1258445949819
 30
0.0
 10
177.6896792547246
 20
111.2722549832175
 30
0.0
 10
177.9256391198299
 20
111.3689011879911
 30
0.0
 10
178.3722095693515
 20
111.6028061323041
 30
0.0
 10
178.581854431925
 20
111.7389311461306
 30
0.0
 10
178.9748411386795
 20
112.0489854104597
 30
0.0
 10
179.1592370424945
 20
112.2246426580349
 30
0.0
 10
179.4877874603548
 20
112.6017825806993
 30
0.0
 10
179.633729556878
 20
112.8042487859691
 30
0.0
 10
179.8886149120802
 20
113.2378250841025
 30
0.0
 10
179.9969262248885
 20
113.469116927684
 30
0.0
 10
180.1667612023054
 20
113.9424766078172
 30
0.0
 10
180.2297565634425
 20
114.186758404638
 30
0.0
 10
180.2697774039368
 20
114.4390851315181
 30
0.0
  0
LINE
  5
116
330
1F
100
AcDbEntity
  8
0
  6
HIDDEN
 62
     7
370
     0
100
AcDbLine
 10
182.0197774039
 20
124.0735140085
 30
0.0
 11
182.0197774039
 21
106.0735140085
 31
0.0
  0
LINE
  5
117
330
1F
100
AcDbEntity
  8
0
  6
HIDDEN
 62
     7
370
     0
100
AcDbLine
 10
180.7697774039
 20
104.8235140085
 30
0.0
 11
180.7697774039
 21
125.3235140085
 31
0.0
  0
LINE
  5
118
330
1F
100
AcDbEntity
  8
0
  6
HIDDEN
 62
     7
370
     0
100
AcDbLine
 10
218.7697774039
 20
106.0735140085
 30
0.0
 11
218.7697774039
 21
124.0735140085
 31
0.0
  0
SPLINE
  5
119
330
1F
100
AcDbEntity
  8
0
  6
HIDDEN
 62
     7
370
     0
100
AcDbSpline
210
0.0
220
0.0
230
1.0
 70
     8
 71
     3
 72
    10
 73
     6
 74
     0
 42
0.00000001
 43
0.00000001
 12
1.0
 22
0.0
 32
0.0
 13
1.0
 23
0.0
 33
0.0
 40
0.0
 40
0.0
 40
0.0
 40
0.0
 40
0.5
 40
0.5
 40
1.0
 40
1.0
 40
1.0
 40
1.0
 10
229.9683762422469
 20
119.0097240342434
 30
0.0
 10
229.9470105956643
 20
118.3565990974833
 30
0.0
 10
229.9204434210159
 20
117.6993782180721
 30
0.0
 10
229.8809902329236
 20
116.3865746430959
 30
0.0
 10
229.8684758197423
 20
115.7299836270583
 30
0.0
 10
229.8684758197423
 20
115.0735140085405
 30
0.0
  0
LINE
  5
11A
330
1F
100
AcDbEntity
  8
0
  6
HIDDEN
 62
     7
370
     0
100
AcDbLine
 10
229.8684758197
 20
83.0736966421
 30
0.0
 11
229.8684758197
 21
115.0735140085
 31
0.0
  0
LINE
  5
11B
330
1F
100
AcDbEntity
  8
0
  6
HIDDEN
 62
     7
370
     0
100
AcDbLine
 10
231.0267525749
 20
151.2634476381
 30
0.0
 11
231.0267525749
 21
131.9789974951
 31
0.0
  0
LINE
  5
11C
330
1F
100
AcDbEntity
  8
0
  6
HIDDEN
 62
     7
370
     0
100
AcDbLine
 10
231.6330205728
 20
133.2954032242
 30
0.0
 11
231.6330205728
 21
151.8967029876
 31
0.0
  0
LINE
  5
11D
330
1F
100
AcDbEntity
  8
0
  6
HIDDEN
 62
     7
370
     0
100
AcDbLine
 10
245.7966479846
 20
156.3626097307
 30
0.0
 11
243.5658120862
 21
149.2873021903
 31
0.0
  0
LINE
  5
11E
330
1F
100
AcDbEntity
  8
0
  6
HIDDEN
 62
     7
370
     0
100
AcDbLine
 10
243.5658120862
 20
149.2873021903
 30
0.0
 11
243.522925646
 21
149.2737801477
 31
0.0
  0
LINE
  5
11F
330
1F
100
AcDbEntity
  8
0
  6
HIDDEN
 62
     7
370
     0
100
AcDbLine
 10
242.9567819385
 20
145.9152074726
 30
0.0
 11
253.3399622935
 21
149.1890116633
 31
0.0
  0
LINE
  5
120
330
1F
100
AcDbEntity
  8
0
  6
HIDDEN
 62
     7
370
     0
100
AcDbLine
 10
253.3399622935
 20
149.1890116633
 30
0.0
 11
253.329251968
 21
149.1550428505
 31
0.0
  0
LINE
  5
121
330
1F
100
AcDbEntity
  8
0
  6
HIDDEN
 62
     7
370
     0
100
AcDbLine
 10
245.7966479846
 20
156.3626097307
 30
0.0
 11
245.7537614146
 21
156.3490872763
 31
0.0
  0
LINE
  5
122
330
1F
100
AcDbEntity
  8
0
  6
HIDDEN
 62
     7
370
     0
100
AcDbLine
 10
242.6656440154
 20
146.1027847565
 30
0.0
 11
253.1275598183
 21
149.4014141385
 31
0.0
  0
LINE
  5
123
330
1F
100
AcDbEntity
  8
0
  6
HIDDEN
 62
     7
370
     0
100
AcDbLine
 10
253.3399622935
 20
149.1890116633
 30
0.0
 11
253.1275598183
 21
149.4014141385
 31
0.0
  0
ELLIPSE
  5
124
330
1F
100
AcDbEntity
  8
0
  6
HIDDEN
 62
     7
370
     0
100
AcDbEllipse
 10
242.6220101575
 20
115.0735140085
 30
0.0
 11
10.2366138186982
 21
31.97760188319182
 31
0.0
210
0.0
220
0.0
230
1.0
 40
0.1169400867
 41
1.608213510505991
 42
3.169634699966452
  0
LINE
  5
125
330
1F
100
AcDbEntity
  8
0
  6
HIDDEN
 62
     7
370
     0
100
AcDbLine
 10
246.0814094751
 20
156.3797007321
 30
0.0
 11
243.7782145614
 21
149.0748997151
 31
0.0
  0
LINE
  5
126
330
1F
100
AcDbEntity
  8
0
  6
HIDDEN
 62
     7
370
     0
100
AcDbLine
 10
243.5658120862
 20
149.2873021903
 30
0.0
 11
243.7782145614
 21
149.0748997151
 31
0.0
  0
ELLIPSE
  5
127
330
1F
100
AcDbEntity
  8
0
  6
HIDDEN
 62
     7
370
     0
100
AcDbEllipse
 10
234.114944165
 20
118.8121468456
 30
0.0
 11
12.03864606322585
 21
37.54981432469154
 31
0.0
210
0.0
220
0.0
230
1.0
 40
0.1164219565
 41
0.016152666192096
 42
0.0741505633336833
  0
LINE
  5
128
330
1F
100
AcDbEntity
  8
0
  6
HIDDEN
 62
     7
370
     0
100
AcDbLine
 10
243.4251162043
 20
148.9635682307
 30
0.0
 11
243.7782145614
 21
149.0748997151
 31
0.0
  0
LINE
  5
129
330
1F
100
AcDbEntity
  8
0
  6
HIDDEN
 62
     7
370
     0
100
AcDbLine
 10
253.1275598183
 20
149.4014141385
 30
0.0
 11
252.9131276176
 21
149.3338039253
 31
0.0
  0
LINE
  5
12A
330
1F
100
AcDbEntity
  8
0
  6
HIDDEN
 62
     7
370
     0
100
AcDbLine
 10
246.0814094751
 20
156.3797007321
 30
0.0
 11
246.0403921693
 21
156.2496104583
 31
0.0
  0
SPLINE
  5
12B
330
1F
100
AcDbEntity
  8
0
  6
HIDDEN
 62
     7
370
     0
100
AcDbSpline
210
0.0
220
0.0
230
1.0
 70
     8
 71
     3
 72
    31
 73
    27
 74
     0
 42
0.00000001
 43
0.00000001
 12
1.0
 22
0.0
 32
0.0
 13
1.0
 23
0.0
 33
0.0
 40
0.0
 40
0.0
 40
0.0
 40
0.0
 40
0.0195826764757518
 40
0.0391401691997408
 40
0.058677209849113
 40
0.0781985449728429
 40
0.0977089325825788
 40
0.1172131387018405
 40
0.1367159338859834
 40
0.1562220897255628
 40
0.1757363753459159
 40
0.1952635539157674
 40
0.214808379177622
 40
0.2343755920124996
 40
0.2539699170512897
 40
0.3803481305586785
 40
0.505638375435372
 40
0.6301507960543732
 40
0.7543491062639548
 40
0.7898187025500518
 40
0.8251070901796012
 40
0.8602473075306336
 40
0.895272812275778
 40
0.9302173915838241
 40
0.9651150676750814
 40
1.0
 40
1.0
 40
1.0
 40
1.0
 10
246.6525930977434
 20
140.9231691609778
 30
0.0
 10
246.7262216180495
 20
141.107341764828
 30
0.0
 10
246.8733839707686
 20
141.4754501225176
 30
0.0
 10
247.0931658900276
 20
142.0199406233439
 30
0.0
 10
247.3120360692828
 20
142.558291962293
 30
0.0
 10
247.529938391359
 20
143.0899871355356
 30
0.0
 10
247.7468878202011
 20
143.6151643404396
 30
0.0
 10
247.9628803015773
 20
144.1337864619856
 30
0.0
 10
248.1779168667645
 20
144.6458633072607
 30
0.0
 10
248.3919972074868
 20
145.1513921629411
 30
0.0
 10
248.6051212950917
 20
145.6503735318382
 30
0.0
 10
248.8172893267476
 20
146.1428075995236
 30
0.0
 10
249.0285003213581
 20
146.628692634273
 30
0.0
 10
249.2387577986133
 20
147.1080349374159
 30
0.0
 10
249.8280975927001
 20
148.4393200263275
 30
0.0
 10
250.7722728157183
 20
150.4966198319526
 30
0.0
 10
252.0117901232619
 20
153.0045827146441
 30
0.0
 10
253.161521994969
 20
155.1277572450826
 30
0.0
 10
253.9613956985708
 20
156.4357382927381
 30
0.0
 10
254.4735609953563
 20
157.1927855255968
 30
0.0
 10
254.7427074386551
 20
157.5695864905724
 30
0.0
 10
255.0013116162681
 20
157.9097182235801
 30
0.0
 10
255.2494530957223
 20
158.213439995003
 30
0.0
 10
255.4868675292618
 20
158.4798465010889
 30
0.0
 10
255.7145251975597
 20
158.7122823090955
 30
0.0
 10
255.8573594337477
 20
158.8362609484326
 30
0.0
 10
255.9287635095797
 20
158.8982389475526
 30
0.0
  0
SPLINE
  5
12C
330
1F
100
AcDbEntity
  8
0
  6
HIDDEN
 62
     7
370
     0
100
AcDbSpline
210
0.0
220
0.0
230
1.0
 70
     8
 71
     3
 72
    49
 73
    45
 74
     0
 42
0.00000001
 43
0.00000001
 12
1.0
 22
0.0
 32
0.0
 13
1.0
 23
0.0
 33
0.0
 40
0.0
 40
0.0
 40
0.0
 40
0.0
 40
0.0174030642245529
 40
0.0349378465161198
 40
0.0526040997121375
 40
0.0704015607025478
 40
0.0883299507110232
 40
0.1063889755670185
 40
0.1245783259690115
 40
0.1428976777393067
 40
0.1613466920707413
 40
0.1799250157656621
 40
0.1986322814674317
 40
0.2174681078848463
 40
0.23643210000973
 40
0.2555238493279812
 40
0.2747429340243894
 40
0.2940889191814519
 40
0.3135613569724551
 40
0.3331597868490973
 40
0.3528837357238432
 40
0.3727327181472828
 40
0.3927062364806764
 40
0.4128037810639393
 40
0.433024830379225
 40
0.4533688512103483
 40
0.4738352987981991
 40
0.4944236169923529
 40
0.5191577862848579
 40
0.5448339962454726
 40
0.5714473565257296
 40
0.598992704052051
 40
0.6274646087910712
 40
0.6568573786388684
 40
0.6871650636066803
 40
0.718381459438455
 40
0.7505001107674669
 40
0.7835143138974817
 40
0.8174171192772975
 40
0.8522013337243849
 40
0.8878595224431343
 40
0.9243840108751408
 40
0.9617668864125004
 40
1.0
 40
1.0
 40
1.0
 40
1.0
 10
255.5595053799399
 20
159.2639376526532
 30
0.0
 10
255.5244687283655
 20
159.2340394319941
 30
0.0
 10
255.454130244329
 20
159.1740167008811
 30
0.0
 10
255.344798603703
 20
159.0721117399337
 30
0.0
 10
255.2321730990425
 20
158.9609323517639
 30
0.0
 10
255.1160021756321
 20
158.8394975655391
 30
0.0
 10
254.9963539911842
 20
158.7078915265475
 30
0.0
 10
254.8732100771052
 20
158.5659136290081
 30
0.0
 10
254.7465754337811
 20
158.4134444752839
 30
0.0
 10
254.6164487039875
 20
158.2503469545187
 30
0.0
 10
254.4828302525586
 20
158.0764932649252
 30
0.0
 10
254.3457199779356
 20
157.8917578228599
 30
0.0
 10
254.2051179048724
 20
157.6960194140918
 30
0.0
 10
254.0610240239347
 20
157.4891608443996
 30
0.0
 10
253.9134383349602
 20
157.271069269536
 30
0.0
 10
253.7623608353069
 20
157.0416363432691
 30
0.0
 10
253.6077915229928
 20
156.8007584165187
 30
0.0
 10
253.4497303960192
 20
156.5483367243608
 30
0.0
 10
253.2881774519141
 20
156.2842775776647
 30
0.0
 10
253.1231326902774
 20
156.008492555219
 30
0.0
 10
252.9545961029764
 20
155.7208986950168
 30
0.0
 10
252.7825677111562
 20
155.4214186932834
 30
0.0
 10
252.6070474257913
 20
155.1099810768912
 30
0.0
 10
252.4280355730185
 20
154.7865204780349
 30
0.0
 10
252.2455309153203
 20
154.4509775247257
 30
0.0
 10
252.0595381046085
 20
154.1033001784089
 30
0.0
 10
251.8700396133602
 20
153.7434396206258
 30
0.0
 10
251.6645296434534
 20
153.3471225091519
 30
0.0
 10
251.4395456785556
 20
152.9067662922796
 30
0.0
 10
251.1917022184585
 20
152.4140406006898
 30
0.0
 10
250.9312158106128
 20
151.8875399686487
 30
0.0
 10
250.6580635182644
 20
151.3260179969343
 30
0.0
 10
250.3722512761184
 20
150.728253486423
 30
0.0
 10
250.0737769389302
 20
150.0930543541357
 30
0.0
 10
249.7626407068267
 20
149.4192677825883
 30
0.0
 10
249.4388421486999
 20
148.7057889190189
 30
0.0
 10
249.102381150939
 20
147.9515715587396
 30
0.0
 10
248.7532571787424
 20
147.1556348489958
 30
0.0
 10
248.3914712897247
 20
146.3170870466631
 30
0.0
 10
248.0170185306311
 20
145.4350851120853
 30
0.0
 10
247.6299173385281
 20
144.5090449573673
 30
0.0
 10
247.2300956847129
 20
143.5378824290046
 30
0.0
 10
246.8178314534579
 20
142.523005838777
 30
0.0
 10
246.5371135128859
 20
141.8200620660182
 30
0.0
 10
246.3951763243077
 20
141.4646381745825
 30
0.0
  0
CIRCLE
  5
12D
330
1F
100
AcDbEntity
  8
0
  6
HIDDEN
 62
     7
370
     0
100
AcDbCircle
 10
249.5984961997
 20
152.9022328043
 30
0.0
 40
2.400000000000006
  0
LINE
  5
12E
330
1F
100
AcDbEntity
  8
0
  6
HIDDEN
 62
     7
370
     0
100
AcDbLine
 10
255.9287868128
 20
158.8982624507
 30
0.0
 11
255.5593294273
 21
159.2645902503
 31
0.0
  0
LINE
  5
12F
330
1F
100
AcDbEntity
  8
0
  6
HIDDEN
 62
     7
370
     0
100
AcDbLine
 10
243.7782145614
 20
149.0748997151
 30
0.0
 11
241.3956412719
 21
148.3236772425
 31
0.0
  0
ARC
  5
130
330
1F
100
AcDbEntity
  8
0
  6
HIDDEN
 62
     7
370
     0
100
AcDbCircle
 10
241.7715235213
 20
147.131531054
 30
0.0
 40
1.250000000000004
100
AcDbArc
 50
107.5
 51
287.5
  0
LINE
  5
131
330
1F
100
AcDbEntity
  8
0
  6
HIDDEN
 62
     7
370
     0
100
AcDbLine
 10
246.0403921693
 20
156.2496104583
 30
0.0
 11
243.7782145614
 21
149.0748997151
 31
0.0
  0
LINE
  5
132
330
1F
100
AcDbEntity
  8
0
  6
HIDDEN
 62
     7
370
     0
100
AcDbLine
 10
242.1474057706
 20
145.9393848656
 30
0.0
 11
252.9131276176
 21
149.3338039253
 31
0.0
  0
LINE
  5
133
330
1F
100
AcDbEntity
  8
0
  6
HIDDEN
 62
     7
370
     0
100
AcDbLine
 10
255.9287806886
 20
158.898233531
 30
0.0
 11
252.9131276176
 21
149.3338039253
 31
0.0
  0
LINE
  5
134
330
1F
100
AcDbEntity
  8
0
  6
HIDDEN
 62
     7
370
     0
100
AcDbLine
 10
255.559089011
 20
159.2638139446
 30
0.0
 11
246.0403921693
 21
156.2496104583
 31
0.0
  0
CIRCLE
  5
135
330
1F
100
AcDbEntity
  8
0
  6
HIDDEN
 62
     7
370
     0
100
AcDbCircle
 10
249.5984961997
 20
152.9022328043
 30
0.0
 40
1.649999999999977
  0
LINE
  5
136
330
1F
100
AcDbEntity
  8
0
  6
HIDDEN
 62
     7
370
     0
100
AcDbLine
 10
155.2697774039
 20
99.9694611798
 30
0.0
 11
155.2697774039
 21
93.9151506123
 31
0.0
  0
LINE
  5
137
330
1F
100
AcDbEntity
  8
0
  6
HIDDEN
 62
     7
370
     0
100
AcDbLine
 10
189.5697774039
 20
99.5385934857
 30
0.0
 11
189.5697774039
 21
93.053415224
 31
0.0
  0
SPLINE
  5
138
330
1F
100
AcDbEntity
  8
0
  6
HIDDEN
 62
     7
370
     0
100
AcDbSpline
210
0.0
220
0.0
230
1.0
 70
     8
 71
     3
 72
    16
 73
    12
 74
     0
 42
0.00000001
 43
0.00000001
 12
1.0
 22
0.0
 32
0.0
 13
1.0
 23
0.0
 33
0.0
 40
0.0
 40
0.0
 40
0.0
 40
0.0
 40
0.2500000000000004
 40
0.2500000000000004
 40
0.3750000000000003
 40
0.3750000000000003
 40
0.5000000000000003
 40
0.5000000000000003
 40
0.7500000000000001
 40
0.7500000000000001
 40
1.0
 40
1.0
 40
1.0
 40
1.0
 10
190.4484570603772
 20
136.8435949635427
 30
0.0
 10
190.2872245828927
 20
136.745579350488
 30
0.0
 10
190.1667447432531
 20
136.5588433188119
 30
0.0
 10
190.0443642259398
 20
136.145803511253
 30
0.0
 10
190.0133865655423
 20
135.9858030120201
 30
0.0
 10
189.9717728279144
 20
135.6189973609289
 30
0.0
 10
189.9615369149815
 20
135.4156602083049
 30
0.0
 10
189.9613485179254
 20
134.7483729416782
 30
0.0
 10
190.001493220563
 20
134.2275584777902
 30
0.0
 10
190.1656469755026
 20
133.0301994623125
 30
0.0
 10
190.2871986259121
 20
132.3719298080165
 30
0.0
 10
190.4484570603772
 20
131.6574206347816
 30
0.0
  0
LINE
  5
139
330
1F
100
AcDbEntity
  8
0
  6
HIDDEN
 62
     7
370
     0
100
AcDbLine
 10
153.7697774039
 20
100.4024738817
 30
0.0
 11
153.7697774039
 21
94.781176016
 31
0.0
  0
LINE
  5
13A
330
1F
100
AcDbEntity
  8
0
  6
HIDDEN
 62
     7
370
     0
100
AcDbLine
 10
155.2697774039
 20
136.2318774048
 30
0.0
 11
155.2697774039
 21
130.1775668373
 31
0.0
  0
LINE
  5
13B
330
1F
100
AcDbEntity
  8
0
  6
HIDDEN
 62
     7
370
     0
100
AcDbLine
 10
153.7697774039
 20
135.365852001
 30
0.0
 11
153.7697774039
 21
129.7445541354
 31
0.0
  0
LINE
  5
13C
330
1F
100
AcDbEntity
  8
0
  6
HIDDEN
 62
     7
370
     0
100
AcDbLine
 10
189.5697774039
 20
137.0936127931
 30
0.0
 11
189.5697774039
 21
130.6084345314
 31
0.0
  0
SPLINE
  5
13D
330
1F
100
AcDbEntity
  8
0
  6
HIDDEN
 62
     7
370
     0
100
AcDbSpline
210
0.0
220
0.0
230
1.0
 70
     8
 71
     3
 72
    16
 73
    12
 74
     0
 42
0.00000001
 43
0.00000001
 12
1.0
 22
0.0
 32
0.0
 13
1.0
 23
0.0
 33
0.0
 40
0.0
 40
0.0
 40
0.0
 40
0.0
 40
0.2499999999999993
 40
0.2499999999999993
 40
0.3749999999999992
 40
0.3749999999999992
 40
0.4999999999999992
 40
0.4999999999999992
 40
0.7499999999999996
 40
0.7499999999999996
 40
1.0
 40
1.0
 40
1.0
 40
1.0
 10
190.4484570603772
 20
98.48960738229954
 30
0.0
 10
190.2872245828927
 20
97.7752132201074
 30
0.0
 10
190.1667447432531
 20
97.12187095739873
 30
0.0
 10
190.0443642259398
 20
96.23361571559484
 30
0.0
 10
190.0133865655423
 20
95.95293517924301
 30
0.0
 10
189.9717728279143
 20
95.42390118940301
 30
0.0
 10
189.9615369149815
 20
95.18058021082456
 30
0.0
 10
189.9613485179254
 20
94.51255752031133
 30
0.0
 10
190.001493220563
 20
94.14887661089188
 30
0.0
 10
190.1656469755026
 20
93.58898573834355
 30
0.0
 10
190.2871986259121
 20
93.40146444622641
 30
0.0
 10
190.4484570603772
 20
93.30343305353846
 30
0.0
  0
CIRCLE
  5
13E
330
1F
100
AcDbEntity
  8
0
  6
HIDDEN
 62
     7
370
     0
100
AcDbCircle
 10
249.5984961997
 20
152.9022328043
 30
0.0
 40
1.650000000000006
  0
LINE
  5
13F
330
1F
100
AcDbEntity
  8
0
  6
HIDDEN
 62
     7
370
     0
100
AcDbLine
 10
153.7697774039
 20
129.7445541354
 30
0.0
 11
153.7697774039
 21
117.9755013415
 31
0.0
  0
LINE
  5
140
330
1F
100
AcDbEntity
  8
0
  6
HIDDEN
 62
     7
370
     0
100
AcDbLine
 10
153.7697774039
 20
112.1715266756
 30
0.0
 11
153.7697774039
 21
100.4024738817
 31
0.0
  0
LINE
  5
141
330
1F
100
AcDbEntity
  8
0
  6
HIDDEN
 62
     7
370
     0
100
AcDbLine
 10
155.2697774039
 20
111.1083031117
 30
0.0
 11
155.2697774039
 21
99.9694611798
 31
0.0
  0
LINE
  5
142
330
1F
100
AcDbEntity
  8
0
  6
HIDDEN
 62
     7
370
     0
100
AcDbLine
 10
155.2697774039
 20
130.1775668373
 30
0.0
 11
155.2697774039
 21
119.0387249054
 31
0.0
  0
LINE
  5
143
330
1F
100
AcDbEntity
  8
0
  6
HIDDEN
 62
     7
370
     0
100
AcDbLine
 10
191.5697774039
 20
130.111221171
 30
0.0
 11
191.5697774039
 21
100.035806846
 31
0.0
  0
LINE
  5
144
330
1F
100
AcDbEntity
  8
0
  6
HIDDEN
 62
     7
370
     0
100
AcDbLine
 10
189.5697774039
 20
130.6084345314
 30
0.0
 11
189.5697774039
 21
99.5385934857
 31
0.0
  0
SPLINE
  5
145
330
1F
100
AcDbEntity
  8
0
  6
HIDDEN
 62
     7
370
     0
100
AcDbSpline
210
0.0
220
0.0
230
1.0
 70
     8
 71
     3
 72
    24
 73
    20
 74
     0
 42
0.00000001
 43
0.00000001
 12
1.0
 22
0.0
 32
0.0
 13
1.0
 23
0.0
 33
0.0
 40
0.0
 40
0.0
 40
0.0
 40
0.0
 40
0.125
 40
0.125
 40
0.25
 40
0.25
 40
0.375
 40
0.375
 40
0.4375
 40
0.4375
 40
0.5
 40
0.5
 40
0.625
 40
0.625
 40
0.75
 40
0.75
 40
0.875
 40
0.875
 40
1.0
 40
1.0
 40
1.0
 40
1.0
 10
160.2197774039368
 20
110.9875529554413
 30
0.0
 10
160.4575810362119
 20
111.2865600577715
 30
0.0
 10
160.6876666974232
 20
111.5908979090902
 30
0.0
 10
161.122420096033
 20
112.2166314464862
 30
0.0
 10
161.3273528883192
 20
112.5378561738137
 30
0.0
 10
161.6924548388179
 20
113.2097819445464
 30
0.0
 10
161.8542552246094
 20
113.5650971764253
 30
0.0
 10
162.0261154291891
 20
114.1153283977777
 30
0.0
 10
162.0717006208492
 20
114.3017321827582
 30
0.0
 10
162.1341753604241
 20
114.6818666848545
 30
0.0
 10
162.1508465061726
 20
114.8775364771404
 30
0.0
 10
162.1513675493491
 20
115.4560168558148
 30
0.0
 10
162.0869252484624
 20
115.8339286947836
 30
0.0
 10
161.857076155089
 20
116.575896719882
 30
0.0
 10
161.6985554774259
 20
116.924612180043
 30
0.0
 10
161.3343211475257
 20
117.5977045777761
 30
0.0
 10
161.1275849074622
 20
117.9226570650178
 30
0.0
 10
160.6896469617218
 20
118.5535808754796
 30
0.0
 10
160.4583742344422
 20
118.8594706158202
 30
0.0
 10
160.2197774039369
 20
119.1594750616397
 30
0.0
  0
LINE
  5
146
330
1F
100
AcDbEntity
  8
0
  6
HIDDEN
 62
     7
370
     0
100
AcDbLine
 10
160.2197774039
 20
110.9875529554
 30
0.0
 11
160.2197774039
 21
119.1594750616
 31
0.0
  0
SPLINE
  5
147
330
1F
100
AcDbEntity
  8
0
  6
HIDDEN
 62
     7
370
     0
100
AcDbSpline
210
0.0
220
0.0
230
1.0
 70
     8
 71
     3
 72
     8
 73
     4
 74
     0
 42
0.00000001
 43
0.00000001
 12
1.0
 22
0.0
 32
0.0
 13
1.0
 23
0.0
 33
0.0
 40
0.0000249638557296
 40
0.0000249638557296
 40
0.0000249638557296
 40
0.0000249638557296
 40
0.0049776420541172
 40
0.0049776420541172
 40
0.0049776420541172
 40
0.0049776420541172
 10
155.2697774039368
 20
111.108303111704
 30
0.0
 10
156.9197536384463
 20
111.0670238739358
 30
0.0
 10
158.5697549581914
 20
111.0268021926963
 30
0.0
 10
160.2197774039368
 20
110.9875529554413
 30
0.0
  0
SPLINE
  5
148
330
1F
100
AcDbEntity
  8
0
  6
HIDDEN
 62
     7
370
     0
100
AcDbSpline
210
0.0
220
0.0
230
1.0
 70
     8
 71
     3
 72
     8
 73
     4
 74
     0
 42
0.00000001
 43
0.00000001
 12
1.0
 22
0.0
 32
0.0
 13
1.0
 23
0.0
 33
0.0
 40
0.0000249631533153
 40
0.0000249631533153
 40
0.0000249631533153
 40
0.0000249631533153
 40
0.0049776413517029
 40
0.0049776413517029
 40
0.0049776413517029
 40
0.0049776413517029
 10
160.2197774039368
 20
119.1594750616398
 30
0.0
 10
158.5697549581914
 20
119.1202258243848
 30
0.0
 10
156.9197536384463
 20
119.0800041431453
 30
0.0
 10
155.2697774039368
 20
119.0387249053771
 30
0.0
  0
SPLINE
  5
149
330
1F
100
AcDbEntity
  8
0
  6
HIDDEN
 62
     7
370
     0
100
AcDbSpline
210
0.0
220
0.0
230
1.0
 70
     8
 71
     3
 72
     8
 73
     4
 74
     0
 42
0.00000001
 43
0.00000001
 12
1.0
 22
0.0
 32
0.0
 13
1.0
 23
0.0
 33
0.0
 40
0.0
 40
0.0
 40
0.0
 40
0.0
 40
1.0
 40
1.0
 40
1.0
 40
1.0
 10
153.7697774039345
 20
112.1715266755602
 30
0.0
 10
154.2365380153124
 20
111.7561634299372
 30
0.0
 10
154.7422855620924
 20
111.4115730006326
 30
0.0
 10
155.2697774039368
 20
111.108303111704
 30
0.0
  0
SPLINE
  5
14A
330
1F
100
AcDbEntity
  8
0
  6
HIDDEN
 62
     7
370
     0
100
AcDbSpline
210
0.0
220
0.0
230
1.0
 70
     8
 71
     3
 72
     8
 73
     4
 74
     0
 42
0.00000001
 43
0.00000001
 12
1.0
 22
0.0
 32
0.0
 13
1.0
 23
0.0
 33
0.0
 40
0.0
 40
0.0
 40
0.0
 40
0.0
 40
1.0
 40
1.0
 40
1.0
 40
1.0
 10
155.2697774039368
 20
119.0387249053771
 30
0.0
 10
154.7422855620933
 20
118.735455016449
 30
0.0
 10
154.236538015314
 20
118.3908645871451
 30
0.0
 10
153.7697774039368
 20
117.9755013415229
 30
0.0
  0
LINE
  5
14B
330
1F
100
AcDbEntity
  8
0
  6
HIDDEN
 62
     7
370
     0
100
AcDbLine
 10
153.7697774039
 20
112.1715266756
 30
0.0
 11
153.7697774039
 21
117.9755013415
 31
0.0
  0
SPLINE
  5
14C
330
1F
100
AcDbEntity
  8
0
  6
HIDDEN
 62
     7
370
     0
100
AcDbSpline
210
0.0
220
0.0
230
1.0
 70
     8
 71
     3
 72
    72
 73
    68
 74
     0
 42
0.00000001
 43
0.00000001
 12
1.0
 22
0.0
 32
0.0
 13
1.0
 23
0.0
 33
0.0
 40
-0.03125
 40
-0.03125
 40
0.0
 40
0.0
 40
0.0312499999999999
 40
0.0312499999999999
 40
0.0624999999999997
 40
0.0624999999999997
 40
0.0937499999999996
 40
0.0937499999999996
 40
0.1249999999999995
 40
0.1249999999999995
 40
0.1562499999999995
 40
0.1562499999999995
 40
0.1874999999999996
 40
0.1874999999999996
 40
0.2187499999999997
 40
0.2187499999999997
 40
0.2499999999999998
 40
0.2499999999999998
 40
0.2812499999999999
 40
0.2812499999999999
 40
0.3124999999999999
 40
0.3124999999999999
 40
0.3437500000000001
 40
0.3437500000000001
 40
0.3750000000000001
 40
0.3750000000000001
 40
0.3906250000000002
 40
0.3906250000000002
 40
0.4062500000000002
 40
0.4062500000000002
 40
0.4375000000000003
 40
0.4375000000000003
 40
0.4687500000000003
 40
0.4687500000000003
 40
0.5000000000000003
 40
0.5000000000000003
 40
0.5312500000000003
 40
0.5312500000000003
 40
0.5625000000000003
 40
0.5625000000000003
 40
0.5937500000000002
 40
0.5937500000000002
 40
0.6250000000000002
 40
0.6250000000000002
 40
0.6562500000000002
 40
0.6562500000000002
 40
0.6875000000000002
 40
0.6875000000000002
 40
0.7187500000000002
 40
0.7187500000000002
 40
0.7500000000000001
 40
0.7500000000000001
 40
0.7812500000000001
 40
0.7812500000000001
 40
0.8125000000000001
 40
0.8125000000000001
 40
0.8437500000000001
 40
0.8437500000000001
 40
0.8750000000000001
 40
0.8750000000000001
 40
0.9062500000000001
 40
0.9062500000000001
 40
0.9375
 40
0.9375
 40
0.96875
 40
0.96875
 40
1.0
 40
1.0
 40
1.03125
 40
1.03125
 10
172.893723722762
 20
117.5143476583554
 30
0.0
 10
173.2681539426359
 20
117.9247034588405
 30
0.0
 10
173.4730065439015
 20
118.108352541499
 30
0.0
 10
173.9158747407484
 20
118.4353074449944
 30
0.0
 10
174.1558301580668
 20
118.5790856531742
 30
0.0
 10
174.6514411408413
 20
118.8166030086201
 30
0.0
 10
174.9087074319958
 20
118.9119225735178
 30
0.0
 10
175.4420611998329
 20
119.0560081061523
 30
0.0
 10
175.7163413397311
 20
119.1037441131219
 30
0.0
 10
176.2627698743107
 20
119.1493262536557
 30
0.0
 10
176.5373461927785
 20
119.1478924935835
 30
0.0
 10
177.0893133670492
 20
119.0949791854926
 30
0.0
 10
177.3599303296209
 20
119.0440094592884
 30
0.0
 10
177.8862155007001
 20
118.8954028323449
 30
0.0
 10
178.1438470641077
 20
118.7971174615877
 30
0.0
 10
178.6397732287812
 20
118.552864102402
 30
0.0
 10
178.8727569065728
 20
118.4097839713798
 30
0.0
 10
179.3090901818978
 20
118.081925420911
 30
0.0
 10
179.5143714357561
 20
117.8949317832108
 30
0.0
 10
179.8824057336163
 20
117.4855011633878
 30
0.0
 10
180.0439207236015
 20
117.2653957224033
 30
0.0
 10
180.3210784067486
 20
116.7936456409653
 30
0.0
 10
180.4374725861823
 20
116.538629114524
 30
0.0
 10
180.610746622829
 20
116.0173912911271
 30
0.0
 10
180.6691931772947
 20
115.7499071733461
 30
0.0
 10
180.7130579027706
 20
115.3379915140137
 30
0.0
 10
180.7202381194
 20
115.1982842109382
 30
0.0
 10
180.7192700921045
 20
114.9221611554757
 30
0.0
 10
180.7112673026909
 20
114.784984589145
 30
0.0
 10
180.6651945707785
 20
114.3760511478817
 30
0.0
 10
180.6042597383264
 20
114.1041248988775
 30
0.0
 10
180.4261395819179
 20
113.5809443824224
 30
0.0
 10
180.3105716705756
 20
113.332232382059
 30
0.0
 10
180.0287248866363
 20
112.859347857067
 30
0.0
 10
179.8618549412216
 20
112.6357386398349
 30
0.0
 10
179.4925293864228
 20
112.2310812516473
 30
0.0
 10
179.2877442301253
 20
112.0466676634777
 30
0.0
 10
178.8430912826091
 20
111.7176416285834
 30
0.0
 10
178.6082421530983
 20
111.5764735525951
 30
0.0
 10
178.1148323906213
 20
111.3380640238146
 30
0.0
 10
177.8535454369167
 20
111.2402814674098
 30
0.0
 10
177.322807156404
 20
111.0949534392196
 30
0.0
 10
177.0531674555068
 20
111.0466640490247
 30
0.0
 10
176.5054161157615
 20
110.998248825238
 30
0.0
 10
176.2255120739029
 20
110.998707010874
 30
0.0
 10
175.6784341660679
 20
111.0488588664762
 30
0.0
 10
175.4088290613805
 20
111.0980324335082
 30
0.0
 10
174.8776743047244
 20
111.2457069568152
 30
0.0
 10
174.6163794882808
 20
111.3448621211808
 30
0.0
 10
174.1240655101055
 20
111.5858748916575
 30
0.0
 10
173.8901086345269
 20
111.7283630162822
 30
0.0
 10
173.4479400139964
 20
112.0598504452672
 30
0.0
 10
173.2427464828847
 20
112.2472840732556
 30
0.0
 10
172.8770522665267
 20
112.654187792306
 30
0.0
 10
172.7142816441384
 20
112.875366866975
 30
0.0
 10
172.4333292133728
 20
113.3551141961902
 30
0.0
 10
172.3201253610993
 20
113.6051261630005
 30
0.0
 10
172.1475166369604
 20
114.1252013730209
 30
0.0
 10
172.087910354284
 20
114.3989328376507
 30
0.0
 10
172.0300185842141
 20
114.9475504875492
 30
0.0
 10
172.0308081230741
 20
115.2218903514408
 30
0.0
 10
172.0919985986905
 20
115.7706323025797
 30
0.0
 10
172.1531273224246
 20
116.0436976164369
 30
0.0
 10
172.3292070080544
 20
116.5638628652053
 30
0.0
 10
172.4455376030443
 20
116.8161819987642
 30
0.0
 10
172.7287388327851
 20
117.2925863401712
 30
0.0
 10
172.893723722762
 20
117.5143476583554
 30
0.0
 10
173.2681539426359
 20
117.9247034588405
 30
0.0
  0
CIRCLE
  5
14D
330
1F
100
AcDbEntity
  8
0
  6
HIDDEN
 62
     7
370
     0
100
AcDbCircle
 10
176.2697774039
 20
115.0735140085
 30
0.0
 40
4.049999999999997
  0
CIRCLE
  5
14E
330
1F
100
AcDbEntity
  8
0
  6
HIDDEN
 62
     7
370
     0
100
AcDbCircle
 10
203.7697774039
 20
115.0735140085
 30
0.0
 40
2.000000000000014
  0
LINE
  5
14F
330
1F
100
AcDbEntity
  8
0
  6
HIDDEN
 62
     7
370
     0
100
AcDbLine
 10
246.395652296
 20
141.4653930782
 30
0.0
 11
246.6529028583
 21
140.9225076229
 31
0.0
  0
LINE
  5
150
330
1F
100
AcDbEntity
  8
0
  6
HIDDEN
 62
     7
370
     0
100
AcDbLine
 10
246.6525930969
 20
140.9231691612
 30
0.0
 11
238.5022281343
 21
115.0735140085
 31
0.0
  0
SPLINE
  5
151
330
1F
100
AcDbEntity
  8
0
  6
HIDDEN
 62
     7
370
     0
100
AcDbSpline
210
0.0
220
0.0
230
1.0
 70
     8
 71
     3
 72
    10
 73
     6
 74
     0
 42
0.00000001
 43
0.00000001
 12
1.0
 22
0.0
 32
0.0
 13
1.0
 23
0.0
 33
0.0
 40
0.0
 40
0.0
 40
0.0
 40
0.0
 40
0.5
 40
0.5
 40
1.0
 40
1.0
 40
1.0
 40
1.0
 10
231.6330205728316
 20
133.2954032241914
 30
0.0
 10
234.008632980056
 20
134.8091049104686
 30
0.0
 10
236.4406890427307
 20
136.2205699124633
 30
0.0
 10
241.3710922849979
 20
138.9234264744161
 30
0.0
 10
243.8701833263489
 20
140.2134706737339
 30
0.0
 10
246.3916273304992
 20
141.4630268362252
 30
0.0
  0
SPLINE
  5
152
330
1F
100
AcDbEntity
  8
0
  6
HIDDEN
 62
     7
370
     0
100
AcDbSpline
210
0.0
220
0.0
230
1.0
 70
     8
 71
     3
 72
     8
 73
     4
 74
     0
 42
0.00000001
 43
0.00000001
 12
1.0
 22
0.0
 32
0.0
 13
1.0
 23
0.0
 33
0.0
 40
0.0
 40
0.0
 40
0.0
 40
0.0
 40
1.0
 40
1.0
 40
1.0
 40
1.0
 10
231.0267525749062
 20
131.9789974950826
 30
0.0
 10
231.2239731812965
 20
132.4200416868204
 30
0.0
 10
231.4261942434568
 20
132.8587829287599
 30
0.0
 10
231.6330205728316
 20
133.2954032241914
 30
0.0
  0
SPLINE
  5
153
330
1F
100
AcDbEntity
  8
0
  6
HIDDEN
 62
     7
370
     0
100
AcDbSpline
210
0.0
220
0.0
230
1.0
 70
     8
 71
     3
 72
     8
 73
     4
 74
     0
 42
0.00000001
 43
0.00000001
 12
1.0
 22
0.0
 32
0.0
 13
1.0
 23
0.0
 33
0.0
 40
0.0
 40
0.0
 40
0.0
 40
0.0
 40
1.0
 40
1.0
 40
1.0
 40
1.0
 10
231.0267525749062
 20
131.9789974950826
 30
0.0
 10
230.4892004537527
 20
127.6842042895929
 30
0.0
 10
230.1108510879687
 20
123.3650274996574
 30
0.0
 10
229.9683762422469
 20
119.0097240342434
 30
0.0
  0
LINE
  5
154
330
1F
100
AcDbEntity
  8
0
  6
HIDDEN
 62
     7
370
     0
100
AcDbLine
 10
215.7697774039
 20
127.3235140085
 30
0.0
 11
215.7697774039
 21
130.8230513129
 31
0.0
  0
LINE
  5
155
330
1F
100
AcDbEntity
  8
0
  6
HIDDEN
 62
     7
370
     0
100
AcDbLine
 10
209.7697774039
 20
130.8234711001
 30
0.0
 11
209.7697774039
 21
127.3235140085
 31
0.0
  0
LINE
  5
156
330
1F
100
AcDbEntity
  8
0
  6
HIDDEN
 62
     7
370
     0
100
AcDbLine
 10
191.7697774039
 20
90.8235140085
 30
0.0
 11
191.8626706228
 21
90.9164072274
 31
0.0
  0
LINE
  5
157
330
1F
100
AcDbEntity
  8
0
  6
HIDDEN
 62
     7
370
     0
100
AcDbLine
 10
191.8626706228
 20
139.2306207897
 30
0.0
 11
191.7697774039
 21
139.3235140085
 31
0.0
  0
ARC
  5
158
330
1F
100
AcDbEntity
  8
0
  6
HIDDEN
 62
     7
370
     0
100
AcDbCircle
 10
191.1555638416
 20
91.6235140085
 30
0.0
 40
1.0
100
AcDbArc
 50
315.0
 51
0.0
  0
ARC
  5
159
330
1F
100
AcDbEntity
  8
0
  6
HIDDEN
 62
     7
370
     0
100
AcDbCircle
 10
191.1555638416
 20
91.6235140085
 30
0.0
 40
1.0
100
AcDbArc
 50
0.0
 51
52.1052014664
  0
ARC
  5
15A
330
1F
100
AcDbEntity
  8
0
  6
HIDDEN
 62
     7
370
     0
100
AcDbCircle
 10
191.1555638416
 20
138.5235140085
 30
0.0
 40
1.000000000000006
100
AcDbArc
 50
351.8087250651
 51
45.0
  0
ARC
  5
15B
330
1F
100
AcDbEntity
  8
0
  6
HIDDEN
 62
     7
370
     0
100
AcDbCircle
 10
191.1555638416
 20
138.5235140085
 30
0.0
 40
1.000000000000006
100
AcDbArc
 50
307.8947985336
 51
351.8087250651
  0
LINE
  5
15C
330
1F
100
AcDbEntity
  8
0
  6
HIDDEN
 62
     7
370
     0
100
AcDbLine
 10
192.1555638416
 20
91.6235140085
 30
0.0
 11
192.1555638416
 21
138.5235140085
 31
0.0
  0
LINE
  5
15D
330
1F
100
AcDbEntity
  8
0
  6
HIDDEN
 62
     7
370
     0
100
AcDbLine
 10
192.1555638416
 20
91.6235140085
 30
0.0
 11
192.1555638416
 21
138.5235140085
 31
0.0
  0
LINE
  5
15E
330
1F
100
AcDbEntity
  8
0
  6
HIDDEN
 62
     7
370
     0
100
AcDbLine
 10
215.2697774039
 20
125.3830977405
 30
0.0
 11
215.2697774039
 21
127.1732988538
 31
0.0
  0
LINE
  5
15F
330
1F
100
AcDbEntity
  8
0
  6
HIDDEN
 62
     7
370
     0
100
AcDbLine
 10
215.2697774039
 20
119.5725538435
 30
0.0
 11
215.2697774039
 21
123.2731543827
 31
0.0
  0
LINE
  5
160
330
1F
100
AcDbEntity
  8
0
  6
HIDDEN
 62
     7
370
     0
100
AcDbLine
 10
210.2697774039
 20
127.1732988538
 30
0.0
 11
210.2697774039
 21
119.5722892156
 31
0.0
  0
LINE
  5
161
330
1F
100
AcDbEntity
  8
0
  6
HIDDEN
 62
     7
370
     0
100
AcDbLine
 10
214.8782688153
 20
122.378139105
 30
0.0
 11
223.2436137597
 21
129.2591374492
 31
0.0
  0
LINE
  5
162
330
1F
100
AcDbEntity
  8
0
  6
HIDDEN
 62
     7
370
     0
100
AcDbLine
 10
223.5892200404
 20
136.0176084873
 30
0.0
 11
212.5786245059
 21
126.9607327523
 31
0.0
  0
LINE
  5
163
330
1F
100
AcDbEntity
  8
0
  6
HIDDEN
 62
     7
370
     0
100
AcDbLine
 10
153.7697774039
 20
98.8770851641
 30
0.0
 11
155.3000058436
 21
99.7605629656
 31
0.0
  0
LINE
  5
164
330
1F
100
AcDbEntity
  8
0
  6
HIDDEN
 62
     7
370
     0
100
AcDbLine
 10
155.3000058436
 20
130.3864650515
 30
0.0
 11
153.7697774039
 21
131.269942853
 31
0.0
  0
ARC
  5
165
330
1F
100
AcDbEntity
  8
0
  6
HIDDEN
 62
     7
370
     0
100
AcDbCircle
 10
164.7715787188
 20
101.0735140085
 30
0.0
 40
2.0
100
AcDbArc
 50
270.0
 51
315.0
  0
ARC
  5
166
330
1F
100
AcDbEntity
  8
0
  6
HIDDEN
 62
     7
370
     0
100
AcDbCircle
 10
164.7715787188
 20
129.0735140085
 30
0.0
 40
2.000000000000028
100
AcDbArc
 50
45.0
 51
90.0
  0
LINE
  5
167
330
1F
100
AcDbEntity
  8
0
  6
HIDDEN
 62
     7
370
     0
100
AcDbLine
 10
163.7697774039
 20
99.0735140085
 30
0.0
 11
164.7715787188
 21
99.0735140085
 31
0.0
  0
LINE
  5
168
330
1F
100
AcDbEntity
  8
0
  6
HIDDEN
 62
     7
370
     0
100
AcDbLine
 10
164.7715787188
 20
131.0735140085
 30
0.0
 11
163.7697774039
 21
131.0735140085
 31
0.0
  0
ARC
  5
169
330
1F
100
AcDbEntity
  8
0
  6
HIDDEN
 62
     7
370
     0
100
AcDbCircle
 10
163.7697774039
 20
101.0735140085
 30
0.0
 40
2.000000000000001
100
AcDbArc
 50
189.9742217944
 51
270.0
  0
ARC
  5
16A
330
1F
100
AcDbEntity
  8
0
  6
HIDDEN
 62
     7
370
     0
100
AcDbCircle
 10
163.7697774039
 20
129.0735140085
 30
0.0
 40
2.0
100
AcDbArc
 50
90.0
 51
170.0257782056
  0
LINE
  5
16B
330
1F
100
AcDbEntity
  8
0
  6
HIDDEN
 62
     7
370
     0
100
AcDbLine
 10
166.1857922812
 20
99.6593004462
 30
0.0
 11
167.6000058436
 21
101.0735140085
 31
0.0
  0
LINE
  5
16C
330
1F
100
AcDbEntity
  8
0
  6
HIDDEN
 62
     7
370
     0
100
AcDbLine
 10
167.6000058436
 20
129.0735140085
 30
0.0
 11
166.1857922812
 21
130.4877275709
 31
0.0
  0
LINE
  5
16D
330
1F
100
AcDbEntity
  8
0
  6
HIDDEN
 62
     7
370
     0
100
AcDbLine
 10
155.3000058436
 20
99.7605629656
 30
0.0
 11
160.2000058436
 21
101.0735140085
 31
0.0
  0
LINE
  5
16E
330
1F
100
AcDbEntity
  8
0
  6
HIDDEN
 62
     7
370
     0
100
AcDbLine
 10
160.2000058436
 20
129.0735140085
 30
0.0
 11
155.3000058436
 21
130.3864650515
 31
0.0
  0
LINE
  5
16F
330
1F
100
AcDbEntity
  8
0
  6
HIDDEN
 62
     7
370
     0
100
AcDbLine
 10
161.8000058436
 20
129.4199241701
 30
0.0
 11
161.2000058436
 21
129.0735140085
 31
0.0
  0
LINE
  5
170
330
1F
100
AcDbEntity
  8
0
  6
HIDDEN
 62
     7
370
     0
100
AcDbLine
 10
161.2000058436
 20
101.0735140085
 30
0.0
 11
161.8000058436
 21
100.727103847
 31
0.0
  0
ARC
  5
171
330
1F
100
AcDbEntity
  8
0
  6
HIDDEN
 62
     7
370
     0
100
AcDbCircle
 10
180.2697774039
 20
101.5735140085
 30
0.0
 40
0.5
100
AcDbArc
 50
270.0
 51
0.0
  0
ARC
  5
172
330
1F
100
AcDbEntity
  8
0
  6
HIDDEN
 62
     7
370
     0
100
AcDbCircle
 10
180.2697774039
 20
128.5735140085
 30
0.0
 40
0.5
100
AcDbArc
 50
0.0
 51
90.0
  0
LINE
  5
173
330
1F
100
AcDbEntity
  8
0
  6
HIDDEN
 62
     7
370
     0
100
AcDbLine
 10
167.6000058436
 20
101.0735140085
 30
0.0
 11
180.2697774039
 21
101.0735140085
 31
0.0
  0
LINE
  5
174
330
1F
100
AcDbEntity
  8
0
  6
HIDDEN
 62
     7
370
     0
100
AcDbLine
 10
180.2697774039
 20
129.0735140085
 30
0.0
 11
167.6000058436
 21
129.0735140085
 31
0.0
  0
LINE
  5
175
330
1F
100
AcDbEntity
  8
0
  6
HIDDEN
 62
     7
370
     0
100
AcDbLine
 10
160.2000058436
 20
101.0735140085
 30
0.0
 11
161.2000058436
 21
101.0735140085
 31
0.0
  0
LINE
  5
176
330
1F
100
AcDbEntity
  8
0
  6
HIDDEN
 62
     7
370
     0
100
AcDbLine
 10
161.2000058436
 20
129.0735140085
 30
0.0
 11
160.2000058436
 21
129.0735140085
 31
0.0
  0
LINE
  5
177
330
1F
100
AcDbEntity
  8
0
  6
HIDDEN
 62
     7
370
     0
100
AcDbLine
 10
180.7697774039
 20
104.8235140085
 30
0.0
 11
182.0197774039
 21
106.0735140085
 31
0.0
  0
LINE
  5
178
330
1F
100
AcDbEntity
  8
0
  6
HIDDEN
 62
     7
370
     0
100
AcDbLine
 10
182.0197774039
 20
124.0735140085
 30
0.0
 11
180.7697774039
 21
125.3235140085
 31
0.0
  0
LINE
  5
179
330
1F
100
AcDbEntity
  8
0
  6
HIDDEN
 62
     7
370
     0
100
AcDbLine
 10
218.7697774039
 20
124.0735140085
 30
0.0
 11
182.0197774039
 21
124.0735140085
 31
0.0
  0
LINE
  5
17A
330
1F
100
AcDbEntity
  8
0
  6
HIDDEN
 62
     7
370
     0
100
AcDbLine
 10
182.0197774039
 20
106.0735140085
 30
0.0
 11
218.7697774039
 21
106.0735140085
 31
0.0
  0
LINE
  5
17B
330
1F
100
AcDbEntity
  8
0
  6
HIDDEN
 62
     7
370
     0
100
AcDbLine
 10
218.7697774039
 20
106.0735140085
 30
0.0
 11
224.1775229752
 21
115.0735140085
 31
0.0
  0
LINE
  5
17C
330
1F
100
AcDbEntity
  8
0
  6
HIDDEN
 62
     7
370
     0
100
AcDbLine
 10
224.1775229752
 20
115.0735140085
 30
0.0
 11
218.7697774039
 21
124.0735140085
 31
0.0
  0
ARC
  5
17D
330
1F
100
AcDbEntity
  8
0
  6
HIDDEN
 62
     7
370
     0
100
AcDbCircle
 10
229.002450416
 20
147.5735140085
 30
0.0
 40
1.000000000000019
100
AcDbArc
 50
270.0
 51
296.0556324729
  0
ARC
  5
17E
330
1F
100
AcDbEntity
  8
0
  6
HIDDEN
 62
     7
370
     0
100
AcDbCircle
 10
229.002450416
 20
82.5735140085
 30
0.0
 40
1.0
100
AcDbArc
 50
59.5656043634
 51
90.0
  0
LINE
  5
17F
330
1F
100
AcDbEntity
  8
VERMASSUNG
  6
CENTERX2
100
AcDbLine
 10
149.4815362714
 20
115.0735140085
 30
0.0
 11
256.7697774039
 21
115.0735140085
 31
0.0
  0
LINE
  5
180
330
1F
100
AcDbEntity
  8
VERMASSUNG
  6
CENTERX2
100
AcDbLine
 10
256.7697774039
 20
160.0735140085
 30
0.0
 11
271.4408088468
 21
160.0735140085
 31
0.0
  0
LINE
  5
181
330
1F
100
AcDbEntity
  8
VERMASSUNG
  6
CENTERX2
100
AcDbLine
 10
256.7697774039
 20
160.0735140085
 30
0.0
 11
256.7697774039
 21
115.0735140085
 31
0.0
  0
DIMENSION
  5
182
330
1F
100
AcDbEntity
  8
VERMASSUNG
100
AcDbDimension
  2
_D
 10
271.4408088468
 20
160.0735140085
 30
0.0
 11
264.3041837114
 21
149.9963598368
 31
0.0
 70
   162
  1
<>
 71
     1
 42
-1.0
  3
SLDDIMSTYLE0
100
AcDb2LineAngularDimension
 13
253.5479008352
 23
149.393461141
 33
0.0
 14
256.7538776708
 24
159.5615206091
 34
0.0
 15
256.7697774039
 25
160.0735140085
 35
0.0
 16
264.3041837114
 26
149.9963598368
 36
0.0
  0
DIMENSION
  5
18C
330
1F
100
AcDbEntity
  8
VERMASSUNG
100
AcDbDimension
  2
_D_1
 10
272.9174192578
 20
115.0735140085
 30
0.0
 11
272.9174192578
 21
137.5735140085
 31
0.0
 70
   160
  1
<>
 71
     2
 42
-1.0
  3
SLDDIMSTYLE1
100
AcDbAlignedDimension
 13
256.7697774039
 23
160.0735140085
 33
0.0
 14
256.7697774039
 24
115.0735140085
 34
0.0
 50
90.0
100
AcDbRotatedDimension
  0
DIMENSION
  5
199
330
1F
100
AcDbEntity
  8
VERMASSUNG
100
AcDbDimension
  2
_D_2
 10
191.7697774039
 20
170.0108367618
 30
0.0
 11
224.2697774039
 21
170.0108367618
 31
0.0
 70
   160
  1
<>
 71
     2
 42
-1.0
  3
SLDDIMSTYLE1
100
AcDbAlignedDimension
 13
256.7697774039
 23
160.0735140085
 33
0.0
 14
191.7697774039
 24
146.0735140085
 34
0.0
100
AcDbRotatedDimension
  0
DIMENSION
  5
1A5
330
1F
100
AcDbEntity
  8
VERMASSUNG
100
AcDbDimension
  2
_D_3
 10
256.7697774039
 20
178.8801004304
 30
0.0
 11
205.2697774039
 21
178.8801004304
 31
0.0
 70
   160
  1
<>
 71
     2
 42
-1.0
  3
SLDDIMSTYLE2
100
AcDbAlignedDimension
 13
153.7697774039
 23
135.365852001
 33
0.0
 14
256.7697774039
 24
160.0735140085
 34
0.0
100
AcDbRotatedDimension
  0
DIMENSION
  5
1B0
330
1F
100
AcDbEntity
  8
VERMASSUNG
100
AcDbDimension
  2
_D_4
 10
145.2324914723
 20
83.5735140085
 30
0.0
 11
145.2324914723
 21
115.0735140085
 31
0.0
 70
   160
  1
PSC%%c<>
 71
     2
 42
-1.0
  3
SLDDIMSTYLE2
100
AcDbAlignedDimension
 13
192.2697774039
 23
146.5735140085
 33
0.0
 14
192.2697774039
 24
83.5735140085
 34
0.0
 50
90.0
100
AcDbRotatedDimension
  0
LINE
  5
1BC
330
1F
100
AcDbEntity
  8
0
  6
Continuous
 62
     7
370
    15
100
AcDbLine
 10
78.7747676059
 20
151.2415084287
 30
0.0
 11
78.7749726262
 21
151.2415084287
 31
0.0
  0
SPLINE
  5
1BD
330
1F
100
AcDbEntity
  8
0
  6
Continuous
 62
     7
370
    15
100
AcDbSpline
210
0.0
220
0.0
230
1.0
 70
     8
 71
     3
 72
    10
 73
     6
 74
     0
 42
0.00000001
 43
0.00000001
 12
1.0
 22
0.0
 32
0.0
 13
1.0
 23
0.0
 33
0.0
 40
0.0
 40
0.0
 40
0.0
 40
0.0
 40
0.3321546972350462
 40
0.667375527995887
 40
1.0
 40
1.0
 40
1.0
 40
1.0
 10
82.77587437669773
 20
159.4809888912043
 30
0.0
 10
82.33070885669169
 20
159.5563017489281
 30
0.0
 10
81.43626847565035
 20
159.70762268043
 30
0.0
 10
80.07190622758964
 20
159.8661412620578
 30
0.0
 10
79.17414125622243
 20
160.0116868277521
 30
0.0
 10
78.72700387523238
 20
160.0841766944041
 30
0.0
  0
LINE
  5
1BE
330
1F
100
AcDbEntity
  8
0
  6
Continuous
 62
     7
370
    15
100
AcDbLine
 10
78.7270038752
 20
145.9016706087
 30
0.0
 11
79.0749726263
 21
145.955396651
 31
0.0
  0
SPLINE
  5
1BF
330
1F
100
AcDbEntity
  8
0
  6
Continuous
 62
     7
370
    15
100
AcDbSpline
210
0.0
220
0.0
230
1.0
 70
     8
 71
     3
 72
    49
 73
    45
 74
     0
 42
0.00000001
 43
0.00000001
 12
1.0
 22
0.0
 32
0.0
 13
1.0
 23
0.0
 33
0.0
 40
0.0
 40
0.0
 40
0.0
 40
0.0
 40
0.0174030642245529
 40
0.0349378465161198
 40
0.0526040997121375
 40
0.0704015607025478
 40
0.0883299507110232
 40
0.1063889755670185
 40
0.1245783259690115
 40
0.1428976777393067
 40
0.1613466920707413
 40
0.1799250157656621
 40
0.1986322814674317
 40
0.2174681078848463
 40
0.23643210000973
 40
0.2555238493279812
 40
0.2747429340243894
 40
0.2940889191814519
 40
0.3135613569724551
 40
0.3331597868490973
 40
0.3528837357238432
 40
0.3727327181472828
 40
0.3927062364806764
 40
0.4128037810639393
 40
0.433024830379225
 40
0.4533688512103483
 40
0.4738352987981991
 40
0.4944236169923529
 40
0.5191577862848579
 40
0.5448339962454726
 40
0.5714473565257296
 40
0.598992704052051
 40
0.6274646087910712
 40
0.6568573786388684
 40
0.6871650636066803
 40
0.718381459438455
 40
0.7505001107674669
 40
0.7835143138974817
 40
0.8174171192772975
 40
0.8522013337243849
 40
0.8878595224431343
 40
0.9243840108751408
 40
0.9617668864125004
 40
1.0
 40
1.0
 40
1.0
 40
1.0
 10
82.74506280205352
 20
159.2639376526531
 30
0.0
 10
82.94545918264758
 20
159.2340394319941
 30
0.0
 10
83.34776867810429
 20
159.1740167008811
 30
0.0
 10
83.9510877404382
 20
159.0721117399337
 30
0.0
 10
84.55695716095613
 20
158.9609323517639
 30
0.0
 10
85.1650175479053
 20
158.8394975655391
 30
0.0
 10
85.77511345845434
 20
158.7078915265475
 30
0.0
 10
86.38702754342597
 20
158.565913629008
 30
0.0
 10
87.00055258688207
 20
158.4134444752839
 30
0.0
 10
87.61547200307422
 20
158.2503469545187
 30
0.0
 10
88.23156513950848
 20
158.0764932649252
 30
0.0
 10
88.848605866949
 20
157.8917578228598
 30
0.0
 10
89.4663629943286
 20
157.6960194140918
 30
0.0
 10
90.08460019625811
 20
157.4891608443996
 30
0.0
 10
90.70307607953126
 20
157.271069269536
 30
0.0
 10
91.32154421918744
 20
157.0416363432691
 30
0.0
 10
91.93975321015807
 20
156.8007584165186
 30
0.0
 10
92.55744672231519
 20
156.5483367243608
 30
0.0
 10
93.17436356199259
 20
156.2842775776647
 30
0.0
 10
93.79023774081847
 20
156.008492555219
 30
0.0
 10
94.40479854613773
 20
155.7208986950168
 30
0.0
 10
95.01777063605986
 20
155.4214186932834
 30
0.0
 10
95.62887407270485
 20
155.1099810768911
 30
0.0
 10
96.23782461989337
 20
154.7865204780348
 30
0.0
 10
96.84433307687885
 20
154.4509775247257
 30
0.0
 10
97.4481082755539
 20
154.1033001784088
 30
0.0
 10
98.04884631370548
 20
153.7434396206258
 30
0.0
 10
98.68519969996852
 20
153.3471225091519
 30
0.0
 10
99.36287297007
 20
152.9067662922795
 30
0.0
 10
100.0868098932126
 20
152.4140406006898
 30
0.0
 10
100.8249196332345
 20
151.8875399686487
 30
0.0
 10
101.5754965120569
 20
151.3260179969343
 30
0.0
 10
102.3367402758809
 20
150.728253486423
 30
0.0
 10
103.1067370893114
 20
150.0930543541356
 30
0.0
 10
103.8834623561212
 20
149.4192677825883
 30
0.0
 10
104.6647774876751
 20
148.7057889190189
 30
0.0
 10
105.4484305934478
 20
147.9515715587395
 30
0.0
 10
106.2320503932839
 20
147.1556348489958
 30
0.0
 10
107.0131674167533
 20
146.3170870466631
 30
0.0
 10
107.7891326275744
 20
145.4350851120853
 30
0.0
 10
108.5574369694665
 20
144.5090449573672
 30
0.0
 10
109.3144814043523
 20
143.5378824290046
 30
0.0
 10
110.0603456991653
 20
142.5230058387769
 30
0.0
 10
110.5350654231815
 20
141.8200620660181
 30
0.0
 10
110.7750941967331
 20
141.4646381745825
 30
0.0
  0
LINE
  5
1C0
330
1F
100
AcDbEntity
  8
0
  6
Continuous
 62
     7
370
    15
100
AcDbLine
 10
110.7749726263
 20
141.4653930782
 30
0.0
 11
110.7749726263
 21
140.9225076229
 31
0.0
  0
SPLINE
  5
1C1
330
1F
100
AcDbEntity
  8
0
  6
Continuous
 62
     7
370
    15
100
AcDbSpline
210
0.0
220
0.0
230
1.0
 70
     8
 71
     3
 72
    31
 73
    27
 74
     0
 42
0.00000001
 43
0.00000001
 12
1.0
 22
0.0
 32
0.0
 13
1.0
 23
0.0
 33
0.0
 40
0.0
 40
0.0
 40
0.0
 40
0.0
 40
0.0195826764757518
 40
0.0391401691997408
 40
0.058677209849113
 40
0.0781985449728429
 40
0.0977089325825788
 40
0.1172131387018405
 40
0.1367159338859834
 40
0.1562220897255628
 40
0.1757363753459159
 40
0.1952635539157674
 40
0.214808379177622
 40
0.2343755920124996
 40
0.2539699170512897
 40
0.3803481305586785
 40
0.505638375435372
 40
0.6301507960543732
 40
0.7543491062639548
 40
0.7898187025500518
 40
0.8251070901796012
 40
0.8602473075306336
 40
0.895272812275778
 40
0.9302173915838241
 40
0.9651150676750814
 40
1.0
 40
1.0
 40
1.0
 40
1.0
 10
110.7749726190251
 20
140.9231691609778
 30
0.0
 10
110.6541186804046
 20
141.107341764828
 30
0.0
 10
110.4125662239813
 20
141.4754501225176
 30
0.0
 10
110.0389175326933
 20
142.0199406233439
 30
0.0
 10
109.6573155639144
 20
142.558291962293
 30
0.0
 10
109.2669300328957
 20
143.0899871355356
 30
0.0
 10
108.8679831612404
 20
143.6151643404395
 30
0.0
 10
108.4604155431742
 20
144.1337864619856
 30
0.0
 10
108.0442431864226
 20
144.6458633072606
 30
0.0
 10
107.6194618404175
 20
145.1513921629411
 30
0.0
 10
107.1860729591257
 20
145.6503735318382
 30
0.0
 10
106.7440754655355
 20
146.1428075995235
 30
0.0
 10
106.293472739134
 20
146.628692634273
 30
0.0
 10
105.8342528733588
 20
147.1080349374159
 30
0.0
 10
104.5170009065609
 20
148.4393200263274
 30
0.0
 10
102.2216477308362
 20
150.4966198319525
 30
0.0
 10
98.73595148339152
 20
153.004582714644
 30
0.0
 10
95.00528797951596
 20
155.1277572450825
 30
0.0
 10
91.9956618490498
 20
156.435738292738
 30
0.0
 10
89.87151668134973
 20
157.1927855255968
 30
0.0
 10
88.70375349739331
 20
157.5695864905724
 30
0.0
 10
87.52807145763693
 20
157.9097182235801
 30
0.0
 10
86.34448749587432
 20
158.213439995003
 30
0.0
 10
85.15283777104536
 20
158.4798465010889
 30
0.0
 10
83.95377674365878
 20
158.7122823090955
 30
0.0
 10
83.14795608014197
 20
158.8362609484326
 30
0.0
 10
82.74511932825166
 20
158.8982389475526
 30
0.0
  0
ARC
  5
1C2
330
1F
100
AcDbEntity
  8
0
  6
Continuous
 62
     7
370
    15
100
AcDbCircle
 10
78.7749726263
 20
115.0735140085
 30
0.0
 40
32.00000000000001
100
AcDbArc
 50
270.5371558016
 51
0.0
  0
LINE
  5
1C3
330
1F
100
AcDbEntity
  8
0
  6
Continuous
 62
     7
370
    15
100
AcDbLine
 10
79.0749726263
 20
149.1890116633
 30
0.0
 11
79.0749726263
 21
83.0749202894
 31
0.0
  0
LINE
  5
1C4
330
1F
100
AcDbEntity
  8
0
  6
Continuous
 62
     7
370
    15
100
AcDbLine
 10
79.0749726263
 20
149.1890116633
 30
0.0
 11
81.2449726263
 21
149.4014141385
 31
0.0
  0
LINE
  5
1C5
330
1F
100
AcDbEntity
  8
0
  6
Continuous
 62
     7
370
    15
100
AcDbLine
 10
81.2449726263
 20
149.4014141385
 30
0.0
 11
82.7449726263
 21
149.3338039253
 31
0.0
  0
LINE
  5
1C6
330
1F
100
AcDbEntity
  8
0
  6
Continuous
 62
     7
370
    15
100
AcDbLine
 10
82.7449726263
 20
149.6334749572
 30
0.0
 11
82.7449726263
 21
149.5779582173
 31
0.0
  0
LINE
  5
1C7
330
1F
100
AcDbEntity
  8
0
  6
Continuous
 62
     7
370
    15
100
AcDbLine
 10
82.7449726263
 20
149.548236126
 30
0.0
 11
82.7449726263
 21
149.3338039253
 31
0.0
  0
LINE
  5
1C8
330
1F
100
AcDbEntity
  8
0
  6
Continuous
 62
     7
370
    15
100
AcDbLine
 10
110.7749726263
 20
140.9231691612
 30
0.0
 11
110.7749726263
 21
115.0735140085
 31
0.0
  0
SPLINE
  5
1C9
330
1F
100
AcDbEntity
  8
0
  6
Continuous
 62
     7
370
    15
100
AcDbSpline
210
0.0
220
0.0
230
1.0
 70
     8
 71
     3
 72
    12
 73
     8
 74
     0
 42
0.00000001
 43
0.00000001
 12
1.0
 22
0.0
 32
0.0
 13
1.0
 23
0.0
 33
0.0
 40
0.0
 40
0.0
 40
0.0
 40
0.0
 40
0.5000000000000046
 40
0.5000000000000046
 40
0.7500000000000022
 40
0.7500000000000022
 40
1.0
 40
1.0
 40
1.0
 40
1.0
 10
78.8830860686978
 20
83.07369664213091
 30
0.0
 10
78.85969358673347
 20
83.22995467801059
 30
0.0
 10
78.8226600525435
 20
83.35956292716534
 30
0.0
 10
78.74749535077277
 20
83.48770584555712
 30
0.0
 10
78.718838636052
 20
83.52032678379274
 30
0.0
 10
78.6563868680188
 20
83.56324052373888
 30
0.0
 10
78.62274614889355
 20
83.57386098554748
 30
0.0
 10
78.58650497928966
 20
83.57407782396712
 30
0.0
  0
SPLINE
  5
1CA
330
1F
100
AcDbEntity
  8
0
  6
Continuous
 62
     7
370
    15
100
AcDbSpline
210
0.0
220
0.0
230
1.0
 70
     8
 71
     3
 72
    14
 73
    10
 74
     0
 42
0.00000001
 43
0.00000001
 12
1.0
 22
0.0
 32
0.0
 13
1.0
 23
0.0
 33
0.0
 40
0.0
 40
0.0
 40
0.0
 40
0.0
 40
0.25
 40
0.25
 40
0.5
 40
0.5
 40
0.75
 40
0.75
 40
1.0
 40
1.0
 40
1.0
 40
1.0
 10
78.58650497928964
 20
83.57407782396712
 30
0.0
 10
78.40629340302209
 20
83.5751560671316
 30
0.0
 10
78.18239255870078
 20
83.57796470167854
 30
0.0
 10
77.6505102292928
 20
83.59246635133637
 30
0.0
 10
77.33851592706667
 20
83.60443836702885
 30
0.0
 10
76.65804509527818
 20
83.6428801077059
 30
0.0
 10
76.28678431332621
 20
83.66935270618615
 30
0.0
 10
75.48413511517745
 20
83.74329191133177
 30
0.0
 10
75.06479223980831
 20
83.7896712985994
 30
0.0
 10
74.62788689696028
 20
83.84769648596583
 30
0.0
  0
SPLINE
  5
1CB
330
1F
100
AcDbEntity
  8
0
  6
Continuous
 62
     7
370
    15
100
AcDbSpline
210
0.0
220
0.0
230
1.0
 70
     8
 71
     3
 72
    14
 73
    10
 74
     0
 42
0.00000001
 43
0.00000001
 12
1.0
 22
0.0
 32
0.0
 13
1.0
 23
0.0
 33
0.0
 40
0.0
 40
0.0
 40
0.0
 40
0.0
 40
0.25
 40
0.25
 40
0.5
 40
0.5
 40
0.75
 40
0.75
 40
1.0
 40
1.0
 40
1.0
 40
1.0
 10
74.62788689696028
 20
146.2993315311152
 30
0.0
 10
75.0647650245944
 20
146.3573531040423
 30
0.0
 10
75.48148343318643
 20
146.4033996754906
 30
0.0
 10
76.27511825915437
 20
146.4766911585115
 30
0.0
 10
76.65464263962456
 20
146.5039208658114
 30
0.0
 10
77.33553391716842
 20
146.5424556918684
 30
0.0
 10
77.64239029811522
 20
146.5543007703636
 30
0.0
 10
78.18136454817491
 20
146.5690741293436
 30
0.0
 10
78.40629709341644
 20
146.5718719720299
 30
0.0
 10
78.58650497928964
 20
146.5729501931139
 30
0.0
  0
SPLINE
  5
1CC
330
1F
100
AcDbEntity
  8
0
  6
Continuous
 62
     7
370
    15
100
AcDbSpline
210
0.0
220
0.0
230
1.0
 70
     8
 71
     3
 72
     9
 73
     5
 74
     0
 42
0.00000001
 43
0.00000001
 12
1.0
 22
0.0
 32
0.0
 13
1.0
 23
0.0
 33
0.0
 40
0.0
 40
0.0
 40
0.0
 40
0.0
 40
0.651864794252467
 40
1.0
 40
1.0
 40
1.0
 40
1.0
 10
78.58650497928964
 20
146.5729501931139
 30
0.0
 10
78.6348147640943
 20
146.5800692478329
 30
0.0
 10
78.70892489434002
 20
146.5909903081228
 30
0.0
 10
78.75791681423269
 20
146.6932893436586
 30
0.0
 10
78.77497262634449
 20
146.7289032394426
 30
0.0
  0
SPLINE
  5
1CD
330
1F
100
AcDbEntity
  8
0
  6
Continuous
 62
     7
370
    15
100
AcDbSpline
210
0.0
220
0.0
230
1.0
 70
     8
 71
     3
 72
     8
 73
     4
 74
     0
 42
0.00000001
 43
0.00000001
 12
1.0
 22
0.0
 32
0.0
 13
1.0
 23
0.0
 33
0.0
 40
0.0
 40
0.0
 40
0.0
 40
0.0
 40
1.0
 40
1.0
 40
1.0
 40
1.0
 10
79.07497262634512
 20
83.07492028944093
 30
0.0
 10
79.07497262634513
 20
83.07492028944093
 30
0.0
 10
79.01033098726202
 20
83.07412654727706
 30
0.0
 10
78.88308606869752
 20
83.07369664213071
 30
0.0
  0
ELLIPSE
  5
1CE
330
1F
100
AcDbEntity
  8
0
  6
Continuous
 62
     7
370
    15
100
AcDbEllipse
 10
66.5600608497
 20
132.6383729683
 30
0.0
 11
2.156649216541965
 21
3.149035452977245
 31
0.0
210
0.0
220
0.0
230
1.0
 40
0.6401414518
 41
0.0
 42
6.283185307179586
  0
ARC
  5
1CF
330
1F
100
AcDbEntity
  8
0
  6
Continuous
 62
     7
370
    15
100
AcDbCircle
 10
78.7749726263
 20
115.0735140085
 30
0.0
 40
31.5
100
AcDbArc
 50
97.5651530928
 51
262.4348469072
  0
SPLINE
  5
1D0
330
1F
100
AcDbEntity
  8
0
  6
Continuous
 62
     7
370
    15
100
AcDbSpline
210
0.0
220
0.0
230
1.0
 70
    24
 71
     3
 72
    13
 73
     9
 74
     0
 42
0.00000001
 43
0.00000001
 12
1.0
 22
0.0
 32
0.0
 13
1.0
 23
0.0
 33
0.0
 40
0.0
 40
0.0
 40
0.0
 40
0.0
 40
0.1940404522884613
 40
0.3876312521664715
 40
0.5765817401076454
 40
0.761801142618965
 40
0.9462740210878481
 40
1.0
 40
1.0
 40
1.0
 40
1.0
 10
78.77497262634446
 20
159.5615206091261
 30
0.0
 10
78.77497262634446
 20
159.6066304549161
 30
0.0
 10
78.77497262634445
 20
159.6967456128763
 30
0.0
 10
78.77497262634456
 20
159.8328874825413
 30
0.0
 10
78.77497262634411
 20
159.9495555577581
 30
0.0
 10
78.77497262634456
 20
160.0310459895092
 30
0.0
 10
78.77497262634446
 20
160.0722294174685
 30
0.0
 10
78.77497262634446
 20
160.0710140302758
 30
0.0
 10
78.77497262634446
 20
160.0707398985382
 30
0.0
  0
SPLINE
  5
1D1
330
1F
100
AcDbEntity
  8
0
  6
Continuous
 62
     7
370
    15
100
AcDbSpline
210
0.0
220
0.0
230
1.0
 70
    24
 71
     3
 72
    14
 73
    10
 74
     0
 42
0.00000001
 43
0.00000001
 12
1.0
 22
0.0
 32
0.0
 13
1.0
 23
0.0
 33
0.0
 40
0.0
 40
0.0
 40
0.0
 40
0.0
 40
0.1583203796597275
 40
0.3168008057738745
 40
0.4713744813487928
 40
0.622125906900418
 40
0.7721262731743582
 40
0.9245922366697206
 40
1.0
 40
1.0
 40
1.0
 40
1.0
 10
82.74497262634448
 20
159.4822542453666
 30
0.0
 10
82.7449726263442
 20
159.4846599578923
 30
0.0
 10
82.74497262634364
 20
159.4894738148843
 30
0.0
 10
82.74497262634469
 20
159.4819820524284
 30
0.0
 10
82.74497262634442
 20
159.4643676090641
 30
0.0
 10
82.74497262634449
 20
159.4382302887399
 30
0.0
 10
82.74497262634448
 20
159.4068810339145
 30
0.0
 10
82.74497262634449
 20
159.3789578420868
 30
0.0
 10
82.74497262634448
 20
159.363020852064
 30
0.0
 10
82.74497262634448
 20
159.3577469980372
 30
0.0
  0
LINE
  5
1D2
330
1F
100
AcDbEntity
  8
0
  6
Continuous
 62
     7
370
    15
100
AcDbLine
 10
82.7449726263
 20
149.634222824
 30
0.0
 11
82.7449726263
 21
159.357746998
 31
0.0
  0
LINE
  5
1D3
330
1F
100
AcDbEntity
  8
0
  6
Continuous
 62
     7
370
    15
100
AcDbLine
 10
78.7749726263
 20
149.393461141
 30
0.0
 11
78.7749726263
 21
159.5615206091
 31
0.0
  0
SPLINE
  5
1D4
330
1F
100
AcDbEntity
  8
0
  6
Continuous
 62
     7
370
    15
100
AcDbSpline
210
0.0
220
0.0
230
1.0
 70
    24
 71
     3
 72
    10
 73
     6
 74
     0
 42
0.00000001
 43
0.00000001
 12
1.0
 22
0.0
 32
0.0
 13
1.0
 23
0.0
 33
0.0
 40
0.0
 40
0.0
 40
0.0
 40
0.0
 40
0.265712295725142
 40
0.6165157621686775
 40
1.0
 40
1.0
 40
1.0
 40
1.0
 10
82.7449726263445
 20
149.6342228239855
 30
0.0
 10
82.74497262634436
 20
149.6264093454427
 30
0.0
 10
82.74497262634407
 20
149.6082802157169
 30
0.0
 10
82.74497262634465
 20
149.5837430668574
 30
0.0
 10
82.74497262634455
 20
149.5743263603193
 30
0.0
 10
82.74497262634449
 20
149.5694084534708
 30
0.0
  0
SPLINE
  5
1D5
330
1F
100
AcDbEntity
  8
0
  6
Continuous
 62
     7
370
    15
100
AcDbSpline
210
0.0
220
0.0
230
1.0
 70
    24
 71
     3
 72
    10
 73
     6
 74
     0
 42
0.00000001
 43
0.00000001
 12
1.0
 22
0.0
 32
0.0
 13
1.0
 23
0.0
 33
0.0
 40
0.0
 40
0.0
 40
0.0
 40
0.0
 40
0.3518022785808937
 40
0.7034245935031153
 40
1.0
 40
1.0
 40
1.0
 40
1.0
 10
78.77497262634449
 20
149.1342098632749
 30
0.0
 10
78.77497262634449
 20
149.1518795017851
 30
0.0
 10
78.77497262634449
 20
149.1872097399419
 30
0.0
 10
78.77497262634449
 20
149.2825339662399
 30
0.0
 10
78.77497262634449
 20
149.3586397950326
 30
0.0
 10
78.77497262634449
 20
149.3934611409972
 30
0.0
  0
LINE
  5
1D6
330
1F
100
AcDbEntity
  8
0
  6
Continuous
 62
     7
370
    15
100
AcDbLine
 10
78.7749726263
 20
145.9282330277
 30
0.0
 11
78.7749726263
 21
149.1342098633
 31
0.0
  0
CIRCLE
  5
1D7
330
1F
100
AcDbEntity
  8
VERMASSUNG
  6
CENTERX2
100
AcDbCircle
 10
78.7749726263
 20
119.9037463853
 30
0.0
 40
40.00000000000001
  0
DIMENSION
  5
1D8
330
1F
100
AcDbEntity
  8
VERMASSUNG
100
AcDbDimension
  2
_D_5
 10
50.4907013789
 20
148.1880176327
 30
0.0
 11
43.4065465796
 21
155.2721724321
 31
0.0
 70
   160
  1
%%c<> min. 
 71
     2
 42
-1.0
  3
SLDDIMSTYLE3
100
AcDbAlignedDimension
 13
107.0592438738
 23
91.6194751378
 33
0.0
 14
50.4907013789
 24
148.1880176327
 34
0.0
 50
-45.0
100
AcDbRotatedDimension
  0
INSERT
  5
1F2
330
1F
100
AcDbEntity
  8
VERMASSUNG
100
AcDbBlockReference
  2
SW_CENTERMARKSYMBOL_0
 10
78.7749726263
 20
115.0735140085
 30
0.0
  0
OLE2FRAME
  5
1F3
330
1F
100
AcDbEntity
  8
0
100
AcDbOle2Frame
 70
     2
  3
Paintbrush-Bild
 10
13.8511154363
 20
38.264191557
 30
0.0
 11
51.6290888628
 21
31.9806341108
 31
0.0
 71
     2
 72
     0
 73
     1
 90
    12928
310
80552BED0767C5B32B40DDAF6807D121434000000000000000006FFBDDFB85D0
310
4940DDAF6807D121434000000000000000006FFBDDFB85D04940416F4BD60AFB
310
3F4000000000000000002BED0767C5B32B40416F4BD60AFB3F40000000000000
310
0000000000000100000000010000010000000100000000000100000000320000
310
D0CF11E0A1B11AE1000000000000000000000000000000003E000300FEFF0900
310
0600000000000000000000000100000001000000000000000010000002000000
310
01000000FEFFFFFF0000000000000000FFFFFFFFFFFFFFFFFFFFFFFFFFFFFFFF
310
FFFFFFFFFFFFFFFFFFFFFFFFFFFFFFFFFFFFFFFFFFFFFFFFFFFFFFFFFFFFFFFF
310
FFFFFFFFFFFFFFFFFFFFFFFFFFFFFFFFFFFFFFFFFFFFFFFFFFFFFFFFFFFFFFFF
310
FFFFFFFFFFFFFFFFFFFFFFFFFFFFFFFFFFFFFFFFFFFFFFFFFFFFFFFFFFFFFFFF
310
FFFFFFFFFFFFFFFFFFFFFFFFFFFFFFFFFFFFFFFFFFFFFFFFFFFFFFFFFFFFFFFF
310
FFFFFFFFFFFFFFFFFFFFFFFFFFFFFFFFFFFFFFFFFFFFFFFFFFFFFFFFFFFFFFFF
310
FFFFFFFFFFFFFFFFFFFFFFFFFFFFFFFFFFFFFFFFFFFFFFFFFFFFFFFFFFFFFFFF
310
FFFFFFFFFFFFFFFFFFFFFFFFFFFFFFFFFFFFFFFFFFFFFFFFFFFFFFFFFFFFFFFF
310
FFFFFFFFFFFFFFFFFFFFFFFFFFFFFFFFFFFFFFFFFFFFFFFFFFFFFFFFFFFFFFFF
310
FFFFFFFFFFFFFFFFFFFFFFFFFFFFFFFFFFFFFFFFFFFFFFFFFFFFFFFFFFFFFFFF
310
FFFFFFFFFFFFFFFFFFFFFFFFFFFFFFFFFFFFFFFFFFFFFFFFFFFFFFFFFFFFFFFF
310
FFFFFFFFFFFFFFFFFFFFFFFFFFFFFFFFFFFFFFFFFFFFFFFFFFFFFFFFFFFFFFFF
310
FFFFFFFFFFFFFFFFFFFFFFFFFFFFFFFFFFFFFFFFFFFFFFFFFFFFFFFFFFFFFFFF
310
FFFFFFFFFFFFFFFFFFFFFFFFFFFFFFFFFFFFFFFFFFFFFFFFFFFFFFFFFFFFFFFF
310
FDFFFFFFFEFFFFFFFEFFFFFFFEFFFFFF05000000060000000700000008000000
310
090000000A0000000B0000000C0000000D0000000E0000000F00000010000000
310
11000000120000001300000014000000150000001600000017000000FEFFFFFF
310
FFFFFFFFFFFFFFFFFFFFFFFFFFFFFFFFFFFFFFFFFFFFFFFFFFFFFFFFFFFFFFFF
310
FFFFFFFFFFFFFFFFFFFFFFFFFFFFFFFFFFFFFFFFFFFFFFFFFFFFFFFFFFFFFFFF
310
FFFFFFFFFFFFFFFFFFFFFFFFFFFFFFFFFFFFFFFFFFFFFFFFFFFFFFFFFFFFFFFF
310
FFFFFFFFFFFFFFFFFFFFFFFFFFFFFFFFFFFFFFFFFFFFFFFFFFFFFFFFFFFFFFFF
310
FFFFFFFFFFFFFFFFFFFFFFFFFFFFFFFFFFFFFFFFFFFFFFFFFFFFFFFFFFFFFFFF
310
FFFFFFFFFFFFFFFFFFFFFFFFFFFFFFFFFFFFFFFFFFFFFFFFFFFFFFFFFFFFFFFF
310
FFFFFFFFFFFFFFFFFFFFFFFFFFFFFFFFFFFFFFFFFFFFFFFFFFFFFFFFFFFFFFFF
310
FFFFFFFFFFFFFFFFFFFFFFFFFFFFFFFFFFFFFFFFFFFFFFFFFFFFFFFFFFFFFFFF
310
FFFFFFFFFFFFFFFFFFFFFFFFFFFFFFFFFFFFFFFFFFFFFFFFFFFFFFFFFFFFFFFF
310
FFFFFFFFFFFFFFFFFFFFFFFFFFFFFFFFFFFFFFFFFFFFFFFFFFFFFFFFFFFFFFFF
310
FFFFFFFFFFFFFFFFFFFFFFFFFFFFFFFFFFFFFFFFFFFFFFFFFFFFFFFFFFFFFFFF
310
FFFFFFFFFFFFFFFFFFFFFFFFFFFFFFFFFFFFFFFFFFFFFFFFFFFFFFFFFFFFFFFF
310
FFFFFFFFFFFFFFFFFFFFFFFFFFFFFFFFFFFFFFFFFFFFFFFFFFFFFFFFFFFFFFFF
310
52006F006F007400200045006E00740072007900000000000000000000000000
310
0000000000000000000000000000000000000000000000000000000000000000
310
16000500FFFFFFFFFFFFFFFF020000000A00030000000000C000000000000046
310
00000000000000000000000080BE5987C938CD0103000000C000000000000000
310
01004F006C006500000000000000000000000000000000000000000000000000
310
0000000000000000000000000000000000000000000000000000000000000000
310
0A000200FFFFFFFFFFFFFFFFFFFFFFFF00000000000000000000000000000000
310
0000000000000000000000000000000000000000000000001400000000000000
310
010043006F006D0070004F0062006A0000000000000000000000000000000000
310
0000000000000000000000000000000000000000000000000000000000000000
310
120002010100000003000000FFFFFFFF00000000000000000000000000000000
310
0000000000000000000000000000000000000000010000004D00000000000000
310
01004F006C006500310030004E00610074006900760065000000000000000000
310
0000000000000000000000000000000000000000000000000000000000000000
310
1A000200FFFFFFFFFFFFFFFFFFFFFFFF00000000000000000000000000000000
310
0000000000000000000000000000000000000000040000002426000000000000
310
FEFFFFFF02000000FEFFFFFFFFFFFFFFFFFFFFFFFFFFFFFFFFFFFFFFFFFFFFFF
310
FFFFFFFFFFFFFFFFFFFFFFFFFFFFFFFFFFFFFFFFFFFFFFFFFFFFFFFFFFFFFFFF
310
FFFFFFFFFFFFFFFFFFFFFFFFFFFFFFFFFFFFFFFFFFFFFFFFFFFFFFFFFFFFFFFF
310
FFFFFFFFFFFFFFFFFFFFFFFFFFFFFFFFFFFFFFFFFFFFFFFFFFFFFFFFFFFFFFFF
310
FFFFFFFFFFFFFFFFFFFFFFFFFFFFFFFFFFFFFFFFFFFFFFFFFFFFFFFFFFFFFFFF
310
FFFFFFFFFFFFFFFFFFFFFFFFFFFFFFFFFFFFFFFFFFFFFFFFFFFFFFFFFFFFFFFF
310
FFFFFFFFFFFFFFFFFFFFFFFFFFFFFFFFFFFFFFFFFFFFFFFFFFFFFFFFFFFFFFFF
310
FFFFFFFFFFFFFFFFFFFFFFFFFFFFFFFFFFFFFFFFFFFFFFFFFFFFFFFFFFFFFFFF
310
FFFFFFFFFFFFFFFFFFFFFFFFFFFFFFFFFFFFFFFFFFFFFFFFFFFFFFFFFFFFFFFF
310
FFFFFFFFFFFFFFFFFFFFFFFFFFFFFFFFFFFFFFFFFFFFFFFFFFFFFFFFFFFFFFFF
310
FFFFFFFFFFFFFFFFFFFFFFFFFFFFFFFFFFFFFFFFFFFFFFFFFFFFFFFFFFFFFFFF
310
FFFFFFFFFFFFFFFFFFFFFFFFFFFFFFFFFFFFFFFFFFFFFFFFFFFFFFFFFFFFFFFF
310
FFFFFFFFFFFFFFFFFFFFFFFFFFFFFFFFFFFFFFFFFFFFFFFFFFFFFFFFFFFFFFFF
310
FFFFFFFFFFFFFFFFFFFFFFFFFFFFFFFFFFFFFFFFFFFFFFFFFFFFFFFFFFFFFFFF
310
FFFFFFFFFFFFFFFFFFFFFFFFFFFFFFFFFFFFFFFFFFFFFFFFFFFFFFFFFFFFFFFF
310
FFFFFFFFFFFFFFFFFFFFFFFFFFFFFFFFFFFFFFFFFFFFFFFFFFFFFFFFFFFFFFFF
310
0100000200000000000000000000000000000000000000000000000000000000
310
0000000000000000000000000000000000000000000000000000000000000000
310
0100FEFF030A0000FFFFFFFF0A00030000000000C00000000000004607000000
310
5042727573680007000000504272757368000700000050427275736800F439B2
310
7100000000000000000000000000000000000000000000000000000000000000
310
0000000000000000000000000000000000000000000000000000000000000000
310
0000000000000000000000000000000000000000000000000000000000000000
310
0000000000000000000000000000000000000000000000000000000000000000
310
0000000000000000000000000000000000000000000000000000000000000000
310
0000000000000000000000000000000000000000000000000000000000000000
310
0000000000000000000000000000000000000000000000000000000000000000
310
0000000000000000000000000000000000000000000000000000000000000000
310
0000000000000000000000000000000000000000000000000000000000000000
310
0000000000000000000000000000000000000000000000000000000000000000
310
0000000000000000000000000000000000000000000000000000000000000000
310
0000000000000000000000000000000000000000000000000000000000000000
310
20260000424D0E260000000000003E00000028000000B40200006E0000000100
310
01000000000000000000130B0000130B00000200000002000000000000FFFFFF
310
FFFFFFFFFFFFFFFFFFFFFFFFFFFFFFFFFFFFFFFFFFFFFFFFFFFFFFFFFFFFFFFF
310
FFFFFFFFFFFFFFFFFFFFFFFFFFFFFFFFFFFFFFFFFFFFFFFFFFFFFFFFFFFFFFFF
310
FFFFFFFFFFFFFFFFFFFFFFFFFFFFFFFFFFFFFFFFFFFFFFFFF000FFFFFFFFFFFF
310
FFFFFFFFFFFFFFFFFFFFFFFFFFFFFFFFFFFFFFFFFFFFFFFFFFFFFFFFFFFFFFFF
310
FFFFFFFFFFFFFFFFFFFFFFFFFFFFFFFFFFFFFFFFFFFFFFFFFFFFFFFFFFFFFFFF
310
FFFFFFFFFFFFFFFFFFFFFFFFFFFFFFFFF000FFFFFFFFFFFFFFFFFFFFFFFFFFFF
310
FFFFFFFFFFFFFFFFFFFFFFFFFFFFFFFFFFFFFFFFFFFFFFFFFFFFFFFFFFFFFFFF
310
FFFFFFFFFFFFFFFFFFFFFFFFFFFFFFFFFFFFFFFFFFFFFFFFFFFFFFFFFFFFFFFF
310
FFFFFFFFFFFFFFFFF000FFFFFFFFFFFFFFFFFFFFFFFFFFFFFFFFFFFFFFFFFFFF
310
FFFFFFFFFFFFFFFFFFFFFFFFFFFFFFFFFFFFFFFFFFFFFFFFFFFFFFFFFFFFFFFF
310
FFFFFFFFFFFFFFFFFFFFFFFFFFFFFFFFFFFFFFFFFFFFFFFFFFFFFFFFFFFFFFFF
310
F000FFFFFFFFFFFFFFFFFFFFFFFFFFFFFFFFFFFFFFFFFFFFFFFFFFFFFFFFFFFF
310
FFFFFFFFFFFFFFFFFFFFFFFFFFFFFFFFFFFFFFFFFFFFFFFFFFFFFFFFFFFFFFFF
310
FFFFFFFFFFFFFFFFFFFFFFFFFFFFFFFFFFFFFFFFFFFFFFFFF000FFFFFFFFFFFF
310
FFFFFFFFFFFFFFFFFFFFFFFFFFFFFFFFFFFFFFFFFFFFFFFFFFFFFFFFFFFFFFFF
310
FFFFFFFFFFFFFFFFFFFFFFFFFFFFFFFFFFFFFFFFFFFFFFFFFFFFFFFFFFFFFFFF
310
FFFFFFFFFFFFFFFFFFFFFFFFFFFFFFFFF000FFFFFFFFFFFFFFFFFFFFFFFFFFFF
310
FFFFFFFFFFFFFFFFFFFFFFFFFFFFFFFFFFFFFFFFFFFFFFFFFFFFFFFFFFFFFFFF
310
FFFFFFFFFFFFFFFFFFFFFFFFFFFFFFFFFFFFFFFFFFFFFFFFFFFFFFFFFFFFFFFF
310
FFFFFFFFFFFFFFFFF000FFFFFFFFFFFFFFFFFFFFFFFFFFFFFFFFFFFFFFFFFFFF
310
FFFFFFFFFFFFFFFFFFFFFFFFFFFFFFFFFFFFFFFFFFFFFFFFFFFFFFFFFFFFFFFF
310
FFFFFFFFFFFFFFFFFFFFFFFFFFFFFFFFFFFFFFFFFFFFFFFFFFFFFFFFFFFFFFFF
310
F000FFFFFFFFFFFFFFFFFFFFFFFFFFFFFFFFFFFFFFFFFFFFFFFFFFFFFFFFFFFF
310
FFFFFFFFFFFFFFFFFFFFFFFFFFFFFFFFFFFFFFFFFFFFFFFFFFFFFFFFFFFFFFFF
310
FFFFFFFFFFFFFFFFFFFFFFFFFFFFFFFFFFFFFFFFFFFFFFFFF000FFFFFFFFFFFF
310
FFFFFFFFFFFFFFFFFFFFFFFFFFFFFFFFFFFFFFFFFFFFFFFFFFFFFFFFFFFFFFFF
310
FFFFFFFFFFFFFFFFFFFFFFFFFFFFFFFFFFFFFFFFFFFFFFFFFFFFFFFFFFFFFFFF
310
FFFFFFFFFFFFFFFFFFFFFFFFFFFFFFFFF000FFFFFFFFFFFFFFFFFFFFFFFFFFFF
310
FFFFFFFFFFFFFFFFFFFFFFFFFFFFFFFFFFFFFFFFFFFFFFFFFFFFFFFFFFFFFFFF
310
FFFFFFFFFFFFFFFFFFFFFFFFFFFFFFFFFFFFFFFFFFFFFFFFFFFFFFFFFFFFFFFF
310
FFFFFFFFFFFFFFFFF000FFFFFFFFFFFFFFFFFFFFFFFFFFFFFFFFFFFFFFFFFFFF
310
FFFFFFFFFFFFFFFFFFFFFFFFFFFFFFFFFFFFFFFFFFFFFFFFFFFFFFFFFFFFFFFF
310
FFFFFFFFFFFFFFFFFFFFFFFFFFFFFFFFFFFFFFFFFFFFFFFFFFFFFFFFFFFFFFFF
310
F000FFFFFFFFFFFFFFFFFFFFFFFFFFFFFFFFFFFFFFFFFFFFFFFFFFFFFFFFFFFF
310
FFFFFFFFFFFFFFFFFFFFFFFFFFFFFFFFFFFFFFFFFFFFFFFFFFFFFFFFFFFFFFFF
310
FFFFFFFFFFFFFFFFFFFFFFFFFFFFFFFFFFFFFFFFFFFFFFFFF000FFFFFFFFFFFF
310
FFFFFFFFFFFFFFFFFFFFFFFFFFFFFFFFFFFFFFFFFFFFFFFFFFFFFFFFFFFFFFFF
310
FFFFFFFFFFFFFFFFFFFFFFFFFFFFFFFFFFFFFFFFFFFFFFFFFFFFFFFFFFFFFFFF
310
FFFFFFFFFFFFFFFFFFFFFFFFFFFFFFFFF000FFFFFFFFFFFFFFFFFFFFFFFFFFFF
310
FFFFFFFFFFFFFFFFFFFFFFFFFFFFFFFFFFFFFFFFFFFFFFFFFFFFFFFFFFFFFFFF
310
FFFFFFFFFFFFFFFFFFFFFFFFFFFFFFFFFFFFFFFFFFFFFFFFFFFFFFFFFFFFFFFF
310
FFFFFFFFFFFFFFFFF000FFFFFFFFFFFFFFFFFFFFFFFFFFFFFFFFFFFFFFFFFFFF
310
FFFFFFFFFFFFFFFFFFFFFFFFFFFFFFFFFFFFFFFFFFFFFFFFFFFFFFFFFFFFFFFF
310
FFFFFFFFFFFFFFFFFFFFFFFFFFFFFFFFFFFFFFFFFFFFFFFFFFFFFFFFFFFFFFFF
310
F000FFFFFFFFFFFFFFFFFFFFFFFFFFFFFFFFFFFFFFFFFFFFFFFFFFFFFFFFFFFF
310
FFFFFFFFFFFFFFFFFFFFFFFFFFFFFFFFFFFFFFFFFFFFFFFFFFFFFFFFFFFFFFFF
310
FFFFFFFFFFFFFFFFFFFFFFFFFFFFFFFFFFFFFFFFFFFFFFFFF000FFFFFFFFFFFF
310
FFFFFFFFFFFFFFFFFFFFFFFFFFFFFFFFFFFFFFFFFFFFFFFFFFFFFFFFFFFFFFFF
310
FFFFFFFFFFFFFFFFFFFFFFFFFFFFFFFFFFFFFFFFFFFFFFFFFFFFFFFFFFFFFFFF
310
FFFFFFFFFFFFFFFFFFFFFFFFFFFFFFFFF000FFFFFFFFFFFFFFFFFFFFFFFFFFFF
310
FFFFFFFFFFFFFFFFFFFFFFFFFFFFFFFFFFFFFFFFFFFFFFFFFFFFFFFFFFFFFFFF
310
FFFFFFFFFFFFFFFFFFFFFFFFFFFFFFFFFFFFFFFFFFFFFFFFFFFFFFFFFFFFFFFF
310
FFFFFFFFFFFFFFFFF000FFFFF80003FFFFFFFFFFFFFFFFFFFFFFFFFFFFFFFFFF
310
FFFFF00007FFFFFFFFFF00007FFFFFF800000000000000007FFFFFFFFFFFFFFF
310
FFFFFFFC001FFFFFFFFFFFFFFC001FFFFFFFFFFFFFFFFFFFFFFFFFFE0007FFFF
310
F000FFFF8000007FFFFFFFF8000FFFFFC0007FFFFF80007FFFFF0000007FFFFF
310
FFF8000007FFFFF800000000000000007FFFFFF0001FFFFFFFFFFFC00001FFFF
310
FFFFFFFFC00001FFFFFFFF000000000003FFFFE000007FFFF000FFFE0000000F
310
FFFFFFF0000FFFFF80007FFFFF80007FFFFC0000001FFFFFFFC0000001FFFFF8
310
00000000000000007FFFFFF0001FFFFFFFFFFE0000003FFFFFFFFFFE0000003F
310
FFFFFF000000000003FFFF0000000FFFF000FFF800000003FFFFFFF00007FFFF
310
80007FFFFF80007FFFF000000007FFFFFF000000003FFFF80000000000000000
310
7FFFFFF0001FFFFFFFFFF80000000FFFFFFFFFF80000000FFFFFFF0000000000
310
03FFFC00000003FFF000FFE000000000FFFFFFF00007FFFF80003FFFFF80007F
310
FFC000000001FFFFFC000000001FFFF800000000000000007FFFFFF0001FFFFF
310
FFFFE000000003FFFFFFFFE000000003FFFFFF000000000003FFF000000000FF
310
F000FF80000000007FFFFFF00007FFFF80003FFFFF80007FFF8000000000FFFF
310
F80000000007FFF800000000000000007FFFFFF0001FFFFFFFFFC000000001FF
310
FFFFFFC000000001FFFFFF000000000003FFC0000000007FF000FF0000000000
310
3FFFFFE00007FFFF00003FFFFF80007FFE00000000003FFFF00000000003FFF8
310
00000000000000007FFFFFF0001FFFFFFFFF8000000000FFFFFFFF8000000000
310
FFFFFF000000000003FF80000000003FF000FE00000000001FFFFFE00003FFFF
310
00003FFFFF80007FFC00000000001FFFE00000000001FFF8000001FFFE000000
310
7FFFFFF0001FFFFFFFFE00000000003FFFFFFE00000000003FFFFF0000000000
310
03FF00000000001FF000FC00000000000FFFFFE00003FFFF00001FFFFF80007F
310
F800000000001FFFC00000000000FFF8000001FFFE0000007FFFFFF0001FFFFF
310
FFFC00000000001FFFFFFC00000000001FFFFF000000000003FE00000000000F
310
F000F8000000000007FFFFE00003FFFF00001FFFFF80007FF800000000000FFF
310
800000000000FFF8000001FFFE0000007FFFFFF0001FFFFFFFF800000000000F
310
FFFFF800000000000FFFFF000000000003FC000000000007F000F80000000000
310
03FFFFC00003FFFE00001FFFFF80007FF0000000000007FF0000000000007FF8
310
000001FFFE0000007FFFFFF0001FFFFFFFF0000000000007FFFFF00000000000
310
07FFFF000000000003F8000000000003F000F0000000000003FFFFC00001FFFE
310
00001FFFFF80007FE0000000000007FE0000000000003FF8000001FFFE000000
310
7FFFFFF0001FFFFFFFF0000000000007FFFFF0000000000007FFFF0000000000
310
03F800001F800003F000E00001FFF00001FFFFC00001FFFE00000FFFFF80007F
310
E00001FFE00003FE00001FFF00003FF8000001FFFE0000007FFFFFF0001FFFFF
310
FFE000003E000003FFFFE000003E000003FFFF000000000003F00001FFF80001
310
F000E00007FFFC0001FFFFC00001FFFE00000FFFFF80007FC0000FFFFC0003FC
310
0000FFFFC0001FF8000001FFFE0000007FFFFFF0001FFFFFFFC00003FFE00001
310
FFFFC00003FFE00001FFFF0001FFFFFFFFF00007FFFE0001F000E0000FFFFF00
310
00FFFF800001FFFC00000FFFFF80007FC0001FFFFE0001FC0001FFFFE0001FF8
310
000001FFFE0000007FFFFFF0001FFFFFFF80000FFFF80000FFFF80000FFFF800
310
00FFFF0003FFFFFFFFE0000FFFFF8000F000C0003FFFFF8000FFFF800000FFFC
310
000007FFFF80007F80003FFFFF0001FC0003FFFFF0001FF8000001FFFE000000
310
7FFFFFF0001FFFFFFF80003FFFFE0000FFFF80003FFFFE0000FFFF0003FFFFFF
310
FFE0003FFFFF8000F000C0003FFFFF8000FFFF800000FFFC000007FFFF80007F
310
80007FFFFF8001F80007FFFFF8000FF8000001FFFE0000007FFFFFF0001FFFFF
310
FF00007FFFFF00007FFF00007FFFFF00007FFF0003FFFFFFFFE0003FFFFFC000
310
F000C0007FFFFFC000FFFF000000FFFC000007FFFF80007F8000FFFFFF8000F8
310
000FFFFFF8000FF8000001FFFE0000007FFFFFF0001FFFFFFF0000FFFFFF8000
310
7FFF0000FFFFFF80007FFF0003FFFFFFFFC0007FFFFFC00070008000FFFFFFC0
310
00FFFF000000FFF8000007FFFF80007F8000FFFFFF8000F8000FFFFFF8000FF8
310
000001FFFE0000007FFFFFF0001FFFFFFE0001FFFFFFC0003FFE0001FFFFFFC0
310
003FFF0003FFFFFFFFC0007FFFFFE00070008000FFFFFFC0007FFF0000007FF8
310
000003FFFF80007F0001FFFFFF8000F8000FFFFFF8000FF8000001FFFE000000
310
7FFFFFF0001FFFFFFE0001FFFFFFC0003FFE0001FFFFFFC0003FFF0003FFFFFF
310
FFC000FFFFFFE00070008000FFFFFFC0007FFF0000007FF8000003FFFF80007F
310
0001FFFFFF8000F8001FFFFFF8000FF8000001FFFE0000007FFFFFF0001FFFFF
310
FE0003FFFFFFE0003FFE0003FFFFFFE0003FFF0003FFFFFFFFC000FFFFFFE000
310
70008000FFFFFFC0007FFE0000007FF8000003FFFF80007F0001FFFFFF8000F0
310
001FFFFFF8000FF8000001FFFE0000007FFFFFF0001FFFFFFC0003FFFFFFE000
310
1FFC0003FFFFFFE0001FFF0003FFFFFFFFC000FFFFFFC00070008000FFFFFF80
310
007FFE0000007FF0000003FFFF80007F0001FFFFFF0000F0001FFFFFF8000FF8
310
000001FFFE0000007FFFFFF0001FFFFFFC0007FFFFFFF0001FFC0007FFFFFFF0
310
001FFF0003FFFFFFFFC000FFFFFFC00070008001FFFFFF0000FFFE0000003FF0
310
000001FFFF80007F0001FFFFFF0000F8001FFFFFF0000FF8000001FFFE000000
310
7FFFFFF0001FFFFFFC0007FFFFFFF0001FFC0007FFFFFFF0001FFF0003FFFFFF
310
FFC001FFFFFF80007000FFFFFFFFFE0000FFFE0008003FF0008001FFFF80007F
310
FFFFFFFFFC0000FFFFFFFFFFE0000FF8000001FFFE0000007FFFFFF0001FFFFF
310
F8000FFFFFFFF8000FF8000FFFFFFFF8000FFF0003FFFFFFFFFFFFFFFFFF0000
310
7000FFFFFFFFFC0000FFFC0008003FF0008001FFFF80007FFFFFFFFFF80001FF
310
FFFFFFFF80000FF8000001FFFE0000007FFFFFF0001FFFFFF8000FFFFFFFF800
310
0FF8000FFFFFFFF8000FFF0003FFFFFFFFFFFFFFFFFE0000F000FFFFFFFFE000
310
00FFFC000C003FE000C001FFFF80007FFFFFFFFFC00001FFFFFFFFFE00001FF8
310
000001FFFE0000007FFFFFF0001FFFFFF8000FFFFFFFF8000FF8000FFFFFFFF8
310
000FFF0003FFFFFFFFFFFFFFFFF00000F000FFFFFFFE000001FFFC000C001FE0
310
00C000FFFF80007FFFFFFFFE000001FFFFFFFFE000001FF80FFFFFFFFFFFFFC0
310
7FFFFFF0001FFFFFF8000FFFFFFFF8000FF8000FFFFFFFF8000FFF0003FFFFFF
310
FFFFFFFFFF800000F000FFFFFFC0000001FFFC001C001FE001C000FFFF80007F
310
FFFFFF80000003FFFFFFF80000001FF80FFFFFFFFFFFFFC07FFFFFF0001FFFFF
310
F8001FFFFFFFFC000FF8001FFFFFFFFC000FFF0003FFFFFFFFFFFFFFF0000001
310
F000FFFFF800000001FFF8001C001FE001C000FFFF80007FFFFFF800000003FF
310
FFFF800000003FF80FFFFFFFFFFFFFC07FFFFFF0001FFFFFF8001FFFFFFFFC00
310
0FF8001FFFFFFFFC000FFF0003FFFFFFFFFFFFFE00000001F000FFFFC0000000
310
03FFF8001E001FC001E000FFFF80007FFFFF8000000007FFFFFC000000003FF8
310
0FFFFFFFFFFFFFC07FFFFFF0001FFFFFF8001FFFFFFFFC000FF8001FFFFFFFFC
310
000FFF0003FFFFFFFFFFFFE000000003F000FFFE0000000007FFF8001E000FC0
310
01E0007FFF80007FFFFE0000000007FFFFE0000000007FF80FFFFFFFFFFFFFC0
310
7FFFFFF0001FFFFFF0001FFFFFFFFC0007F0001FFFFFFFFC0007FF0003FFFFFF
310
FFFFFF0000000003F000FFF80000000007FFF8001E000FC003E0007FFF80007F
310
FFF0000000000FFFFF8000000000FFF80FFFFFFFFFFFFFC07FFFFFF0001FFFFF
310
F0001FFFFFFFFC0007F0001FFFFFFFFC0007FF0003FFFFFFFFFFFC0000000007
310
F000FFE0000000000FFFF0003E000FC003E0007FFF80007FFFC0000000001FFF
310
FE0000000001FFF80FFFFFFFFFFFFFC07FFFFFF0001FFFFFF0001FFFFFFFFC00
310
07F0001FFFFFFFFC0007FF0003FFFFFFFFFFF0000000000FF000FFC000000000
310
1FFFF0003F000F8003F0003FFF80007FFF80000000003FFFF80000000003FFF8
310
0FFFFFFFFFFFFFC07FFFFFF0001FFFFFF0001FFFFFFFFC0007F0001FFFFFFFFC
310
0007FF0003FFFFFFFFFFE0000000001FF000FF00000000007FFFF0003F000780
310
03F0003FFF80007FFF00000000007FFFF00000000007FFF80FFFFFFFFFFFFFC0
310
7FFFFFF0001FFFFFF0001FFFFFFFFC0007F0001FFFFFFFFC0007FF0003FFFFFF
310
FFFF80000000007FF000FE0000000000FFFFE0003F00078007F0003FFF80007F
310
FE0000000001FFFFE0000000001FFFF80FFFFFFFFFFFFFC07FFFFFF0001FFFFF
310
F0001FFFFFFFFC0007F0001FFFFFFFFC0007FF0003FFFFFFFFFF0000000000FF
310
F000FC0000000003FFFFE0007F00078007F0003FFF80007FFC0000000007FFFF
310
C0000000007FFFF80FFFFFFFFFFFFFC07FFFFFF0001FFFFFF8001FFFFFFFFC00
310
0FF8001FFFFFFFFC000FFF0003FFFFFFFFFE0000000003FFF000FC000000000F
310
FFFFE0007F80070007F8001FFF80007FF8000000001FFFFF8000000001FFFFF8
310
0FFFFFFFFFFFFFC07FFFFFF0001FFFFFF8001FFFFFFFFC000FF8001FFFFFFFFC
310
000FFF0003FFFFFFFFFC000000000FFFF000F8000000007FFFFFE0007F800700
310
07F8001FFF80007FF000000000FFFFFF800000000FFFFFF80FFFFFFFFFFFFFC0
310
7FFFFFF0001FFFFFF8000FFFFFFFF8000FF8000FFFFFFFF8000FFF0003FFFFFF
310
FFFC000000007FFFF000F800000007FFFFFFC0007F8003000FF8001FFF80007F
310
F000000007FFFFFF000000007FFFFFF80FFFFFFFFFFFFFC07FFFFFF0001FFFFF
310
F8000FFFFFFFF8000FF8000FFFFFFFF8000FFF0003FFFFFFFFF80000000FFFFF
310
F000F0000000FFFFFFFFC000FF8003000FF8001FFF80007FE0000000FFFFFFFF
310
0000000FFFFFFFF8000001FFFE0000007FFFFFF0001FFFFFF8000FFFFFFFF800
310
0FF8000FFFFFFFF8000FFF0003FFFFFFFFF8000000FFFFFFF000F000000FFFFF
310
FFFFC000FFC002000FF8000FFF80007FE000001FFFFFFFFE000001FFFFFFFFF8
310
000001FFFE0000007FFFFFF0001FFFFFF8000FFFFFFFF8000FF8000FFFFFFFF8
310
000FFF0003FFFFFFFFF000001FFFFFFFF000E00000FFFFFFFFFFC000FFC00200
310
0FFC000FFF80007FE00001FFFFFFFFFE00001FFFFFFFFFF8000001FFFE000000
310
7FFFFFF0001FFFFFFC000FFFFFFFF8001FFC000FFFFFFFF8001FFF0003FFFFFF
310
FFF00001FFFFFFFFF000E00007FFFFFFFFFF8000FFC000001FFC000FFF80007F
310
C0000FFFFFFFFFFE0000FFFFFFFFFFF8000001FFFE0000007FFFFFF0001FFFFF
310
FC0007FFFFFFF0001FFC0007FFFFFFF0001FFF0003FFFFFFFFF00007FFFFFFFF
310
F000E0001FFFFFFFFFFF8000FFC000001FFC000FFF80007FC0003FFFFFFFFFFE
310
0001FFFFFFFFFFF8000001FFFE0000007FFFFFF0001FFFFFFC0007FFFFFFF000
310
1FFC0007FFFFFFF0001FFF0003FFFFFFFFF0001FFFFFFFFFF000E0003FFFFF00
310
03FF8001FFE000001FFC0007FF80007FC0007FFFFF0007FC0003FFFFF0003FF8
310
000001FFFE0000007FFFFFF0001FFFFFFC0003FFFFFFE0001FFC0003FFFFFFE0
310
001FFF0003FFFFFFFFF0003FFFFFFFFFF000E0003FFFFF0001FF8001FFE00000
310
1FFE0007FF80007FC0007FFFFE0003FC0007FFFFE0003FF8000001FFFE000000
310
7FFFFFF0001FFFFFFE0003FFFFFFE0003FFE0003FFFFFFE0003FFF0003FFFFFF
310
FFF0003FFFFF8001F000E0003FFFFF0001FF0001FFE000001FFE0007FF80007F
310
C0007FFFFE0003FC0007FFFFE0003FF8000001FFFE0000007FFFFFF0001FFFFF
310
FE0001FFFFFFC0003FFE0001FFFFFFC0003FFF0003FFFFFFFFF0003FFFFF0001
310
F000E0003FFFFF0003FF0001FFE000003FFE0007FF80007FC0007FFFFE0003FC
310
0007FFFFE0003FF8000001FFFE0000007FFFFFF0001FFFFFFF0001FFFFFFC000
310
7FFF0001FFFFFFC0007FFF0003FFFFFFFFF0003FFFFF0001F000E0003FFFFE00
310
03FF0003FFF000003FFE0003FF80007FC0007FFFFC0003FE0007FFFFE0003FF8
310
000001FFFE0000007FFFFFF0001FFFFFFF0000FFFFFF80007FFF0000FFFFFF80
310
007FFF0003FFFFFFFFF0003FFFFF0001F000E0003FFFFE0003FF0003FFF00000
310
3FFF0003FF80007FC0007FFFFC0007FE0007FFFFC0003FF8000001FFFE000000
310
7FFFFFF0001FFFFFFF80007FFFFF0000FFFF80007FFFFF0000FFFF0003FFFFFF
310
FFF0003FFFFF0003F000E0003FFFFC0003FE0003FFF000003FFF0003FF80007F
310
E0003FFFF80007FE0003FFFFC0007FF8000001FFFE0000007FFFFFF0001FFFFF
310
FF80003FFFFE0000FFFF80003FFFFE0000FFFF0003FFFFFFFFF0001FFFFE0003
310
F000F0001FFFF80003FE0003FFF000007FFF0001FF80007FE0003FFFF00007FE
310
0001FFFF80007FF8000001FFFE0000007FFFFFF0001FFFFFFFC0000FFFF80001
310
FFFFC0000FFFF80001FFFF0003FFFFFFFFF0001FFFFC0003F000F0000FFFF000
310
07FE0007FFF800007FFF0001FF80007FE0001FFFE00007FF0000FFFE00007FF8
310
000001FFFE0000007FFFFFF0001FFFFFFFC00003FFE00001FFFFC00003FFE000
310
01FFFF0003FFFFFFFFF8000FFFF80003F000F00003FFC00007FC0007FFF80000
310
7FFF8001FF80007FF00007FF80000FFF00007FF80000FFF8000001FFFE000000
310
7F80000000000001FFE000003E000003FFFFE000003E000003FFFF0003FFFFFF
310
FFF80003FFE00007F000F800000000000FFC0007FFF800007FFF8001FF80007F
310
F000000000000FFF000000000000FFF8000001FFFE0000007F80000000000001
310
FFF0000000000007FFFFF0000000000007FFFF0003FFFFFFFFFC00007E000007
310
F000F800000000000FFC0007FFF80000FFFF8000FF80007FF800000000001FFF
310
800000000001FFF8000001FFFE0000007F80000000000001FFF800000000000F
310
FFFFF800000000000FFFFF0003FFFFFFFFFC00000000000FF000FC0000000000
310
1FFC0007FFFC0000FFFF8000FF80007FF800000000003FFFC00000000001FFF8
310
000001FFFE0000007F80000000000001FFF800000000000FFFFFF80000000000
310
0FFFFF0003FFFFFFFFFE00000000001FF000FE00000000003FF8000FFFFC0000
310
FFFF8000FF80007FFC00000000003FFFC00000000003FFF8000001FFFE000000
310
7F80000000000001FFFC00000000001FFFFFFC00000000001FFFFF0003FFFFFF
310
FFFF00000000001FF000FF00000000003FF8000FFFFC0000FFFFC000FF80007F
310
FE00000000007FFFE00000000007FFF8000001FFFE0000007F80000000000001
310
FFFE00000000003FFFFFFE00000000003FFFFF0003FFFFFFFFFF80000000003F
310
F000FF80000000007FF8000FFFFC0001FFFFC0007F80007FFF0000000000FFFF
310
F0000000000FFFF800000000000000007F80000000000001FFFF8000000000FF
310
FFFFFF8000000000FFFFFF0003FFFFFFFFFFC0000000007FF000FFC000000000
310
FFF8000FFFFE0001FFFFC0007F80007FFF8000000001FFFFF8000000001FFFF8
310
00000000000000007F80000000000001FFFFC000000001FFFFFFFFC000000001
310
FFFFFF0003FFFFFFFFFFE000000000FFF000FFE000000003FFF0001FFFFE0001
310
FFFFC0007F80007FFFC000000007FFFFFE000000003FFFF80000000000000000
310
7F80000000000001FFFFE000000003FFFFFFFFE000000003FFFFFF0003FFFFFF
310
FFFFF000000003FFF000FFF80000000FFFF0001FFFFE0001FFFFE0007F80007F
310
FFF00000000FFFFFFF00000000FFFFF800000000000000007F80000000000001
310
FFFFF80000000FFFFFFFFFF80000000FFFFFFF0003FFFFFFFFFFFC0000000FFF
310
F000FFFE0000003FFFF0001FFFFE0003FFFFE0003F80007FFFFC0000003FFFFF
310
FFC0000003FFFFF800000000000000007F80000000000001FFFFFE0000003FFF
310
FFFFFFFE0000003FFFFFFF0003FFFFFFFFFFFF0000003FFFF000FFFF800000FF
310
FFF0001FFFFF0003FFFFE0003F80007FFFFF000001FFFFFFFFF800001FFFFFF8
310
00000000000000007F80000000000001FFFFFFC00001FFFFFFFFFFFFC00001FF
310
FFFFFF0003FFFFFFFFFFFFC00000FFFFF000FFFFF8000FFFFFFFFFFFFFFFFFFF
310
FFFFFFFFFFFFFFFFFFFFF0001FFFFFFFFFFF0000FFFFFFF80000000000000000
310
7FFFFFFFFFFFFFFFFFFFFFFC001FFFFFFFFFFFFFFC001FFFFFFFFFFFFFFFFFFF
310
FFFFFFFC001FFFFFF000FFFFFFFFFFFFFFFFFFFFFFFFFFFFFFFFFFFFFFFFFFFF
310
FFFFFFFFFFFFFFFFFFFFFFFFFFFFFFFFFFFFFFFFFFFFFFFFFFFFFFFFFFFFFFFF
310
FFFFFFFFFFFFFFFFFFFFFFFFFFFFFFFFFFFFFFFFFFFFFFFFFFFFFFFFFFFFFFFF
310
F000FFFFFFFFFFFFFFFFFFFFFFFFFFFFFFFFFFFFFFFFFFFFFFFFFFFFFFFFFFFF
310
FFFFFFFFFFFFFFFFFFFFFFFFFFFFFFFFFFFFFFFFFFFFFFFFFFFFFFFFFFFFFFFF
310
FFFFFFFFFFFFFFFFFFFFFFFFFFFFFFFFFFFFFFFFFFFFFFFFF000FFFFFFFFFFFF
310
FFFFFFFFFFFFFFFFFFFFFFFFFFFFFFFFFFFFFFFFFFFFFFFFFFFFFFFFFFFFFFFF
310
FFFFFFFFFFFFFFFFFFFFFFFFFFFFFFFFFFFFFFFFFFFFFFFFFFFFFFFFFFFFFFFF
310
FFFFFFFFFFFFFFFFFFFFFFFFFFFFFFFFF000FFFFFFFFFFFFFFFFFFFFFFFFFFFF
310
FFFFFFFFFFFFFFFFFFFFFFFFFFFFFFFFFFFFFFFFFFFFFFFFFFFFFFFFFFFFFFFF
310
FFFFFFFFFFFFFFFFFFFFFFFFFFFFFFFFFFFFFFFFFFFFFFFFFFFFFFFFFFFFFFFF
310
FFFFFFFFFFFFFFFFF000FFFFFFFFFFFFFFFFFFFFFFFFFFFFFFFFFFFFFFFFFFFF
310
FFFFFFFFFFFFFFFFFFFFFFFFFFFFFFFFFFFFFFFFFFFFFFFFFFFFFFFFFFFFFFFF
310
FFFFFFFFFFFFFFFFFFFFFFFFFFFFFFFFFFFFFFFFFFFFFFFFFFFFFFFFFFFFFFFF
310
F000FFFFFFFFFFFFFFFFFFFFFFFFFFFFFFFFFFFFFFFFFFFFFFFFFFFFFFFFFFFF
310
FFFFFFFFFFFFFFFFFFFFFFFFFFFFFFFFFFFFFFFFFFFFFFFFFFFFFFFFFFFFFFFF
310
FFFFFFFFFFFFFFFFFFFFFFFFFFFFFFFFFFFFFFFFFFFFFFFFF000FFFFFFFFFFFF
310
FFFFFFFFFFFFFFFFFFFFFFFFFFFFFFFFFFFFFFFFFFFFFFFFFFFFFFFFFFFFFFFF
310
FFFFFFFFFFFFFFFFFFFFFFFFFFFFFFFFFFFFFFFFFFFFFFFFFFFFFFFFFFFFFFFF
310
FFFFFFFFFFFFFFFFFFFFFFFFFFFFFFFFF000FFFFFFFFFFFFFFFFFFFFFFFFFFFF
310
FFFFFFFFFFFFFFFFFFFFFFFFFFFFFFFFFFFFFFFFFFFFFFFFFFFFFFFFFFFFFFFF
310
FFFFFFFFFFFFFFFFFFFFFFFFFFFFFFFFFFFFFFFFFFFFFFFFFFFFFFFFFFFFFFFF
310
FFFFFFFFFFFFFFFFF000FFFFFFFFFFFFFFFFFFFFFFFFFFFFFFFFFFFFFFFFFFFF
310
FFFFFFFFFFFFFFFFFFFFFFFFFFFFFFFFFFFFFFFFFFFFFFFFFFFFFFFFFFFFFFFF
310
FFFFFFFFFFFFFFFFFFFFFFFFFFFFFFFFFFFFFFFFFFFFFFFFFFFFFFFFFFFFFFFF
310
F000FFFFFFFFFFFFFFFFFFFFFFFFFFFFFFFFFFFFFFFFFFFFFFFFFFFFFFFFFFFF
310
FFFFFFFFFFFFFFFFFFFFFFFFFFFFFFFFFFFFFFFFFFFFFFFFFFFFFFFFFFFFFFFF
310
FFFFFFFFFFFFFFFFFFFFFFFFFFFFFFFFFFFFFFFFFFFFFFFFF000FFFFFFFFFFFF
310
FFFFFFFFFFFFFFFFFFFFFFFFFFFFFFFFFFFFFFFFFFFFFFFFFFFFFFFFFFFFFFFF
310
FFFFFFFFFFFFFFFFFFFFFFFFFFFFFFFFFFFFFFFFFFFFFFFFFFFFFFFFFFFFFFFF
310
FFFFFFFFFFFFFFFFFFFFFFFFFFFFFFFFF000FFFFFFFFFFFFFFFFFFFFFFFFFFFF
310
FFFFFFFFFFFFFFFFFFFFFFFFFFFFFFFFFFFFFFFFFFFFFFFFFFFFFFFFFFFFFFFF
310
FFFFFFFFFFFFFFFFFFFFFFFFFFFFFFFFFFFFFFFFFFFFFFFFFFFFFFFFFFFFFFFF
310
FFFFFFFFFFFFFFFFF000FFFFFFFFFFFFFFFFFFFFFFFFFFFFFFFFFFFFFFFFFFFF
310
FFFFFFFFFFFFFFFFFFFFFFFFFFFFFFFFFFFFFFFFFFFFFFFFFFFFFFFFFFFFFFFF
310
FFFFFFFFFFFFFFFFFFFFFFFFFFFFFFFFFFFFFFFFFFFFFFFFFFFFFFFFFFFFFFFF
310
F000FFFFFFFFFFFFFFFFFFFFFFFFFFFFFFFFFFFFFFFFFFFFFFFFFFFFFFFFFFFF
310
FFFFFFFFFFFFFFFFFFFFFFFFFFFFFFFFFFFFFFFFFFFFFFFFFFFFFFFFFFFFFFFF
310
FFFFFFFFFFFFFFFFFFFFFFFFFFFFFFFFFFFFFFFFFFFFFFFFF000FFFFFFFFFFFF
310
FFFFFFFFFFFFFFFFFFFFFFFFFFFFFFFFFFFFFFFFFFFFFFFFFFFFFFFFFFFFFFFF
310
FFFFFFFFFFFFFFFFFFFFFFFFFFFFFFFFFFFFFFFFFFFFFFFFFFFFFFFFFFFFFFFF
310
FFFFFFFFFFFFFFFFFFFFFFFFFFFFFFFFF000FFFFFFFFFFFFFFFFFFFFFFFFFFFF
310
FFFFFFFFFFFFFFFFFFFFFFFFFFFFFFFFFFFFFFFFFFFFFFFFFFFFFFFFFFFFFFFF
310
FFFFFFFFFFFFFFFFFFFFFFFFFFFFFFFFFFFFFFFFFFFFFFFFFFFFFFFFFFFFFFFF
310
FFFFFFFFFFFFFFFFF000FFFFFFFFFFFFFFFFFFFFFFFFFFFFFFFFFFFFFFFFFFFF
310
FFFFFFFFFFFFFFFFFFFFFFFFFFFFFFFFFFFFFFFFFFFFFFFFFFFFFFFFFFFFFFFF
310
FFFFFFFFFFFFFFFFFFFFFFFFFFFFFFFFFFFFFFFFFFFFFFFFFFFFFFFFFFFFFFFF
310
F000FFFFFFFFFFFFFFFFFFFFFFFFFFFFFFFFFFFFFFFFFFFFFFFFFFFFFFFFFFFF
310
FFFFFFFFFFFFFFFFFFFFFFFFFFFFFFFFFFFFFFFFFFFFFFFFFFFFFFFFFFFFFFFF
310
FFFFFFFFFFFFFFFFFFFFFFFFFFFFFFFFFFFFFFFFFFFFFFFFF000FFFFFFFFFFFF
310
FFFFFFFFFFFFFFFFFFFFFFFFFFFFFFFFFFFFFFFFFFFFFFFFFFFFFFFFFFFFFFFF
310
FFFFFFFFFFFFFFFFFFFFFFFFFFFFFFFFFFFFFFFFFFFFFFFFFFFFFFFFFFFFFFFF
310
FFFFFFFFFFFFFFFFFFFFFFFFFFFFFFFFF000FFFFFFFFFFFFFFFFFFFFFFFFFFFF
310
FFFFFFFFFFFFFFFFFFFFFFFFFFFFFFFFFFFFFFFFFFFFFFFFFFFFFFFFFFFFFFFF
310
FFFFFFFFFFFFFFFFFFFFFFFFFFFFFFFFFFFFFFFFFFFFFFFFFFFFFFFFFFFFFFFF
310
FFFFFFFFFFFFFFFFF000FFFFFFFFFFFFFFFFFFFFFFFFFFFFFFFFFFFFFFFFFFFF
310
FFFFFFFFFFFFFFFFFFFFFFFFFFFFFFFFFFFFFFFFFFFFFFFFFFFFFFFFFFFFFFFF
310
FFFFFFFFFFFFFFFFFFFFFFFFFFFFFFFFFFFFFFFFFFFFFFFFFFFFFFFFFFFFFFFF
310
F000FFFFFFFFFFFFFFFFFFFFFFFFFFFFFFFFFFFFFFFFFFFFFFFFFFFFFFFFFFFF
310
FFFFFFFFFFFFFFFFFFFFFFFFFFFFFFFFFFFFFFFFFFFFFFFFFFFFFFFFFFFFFFFF
310
FFFFFFFFFFFFFFFFFFFFFFFFFFFFFFFFFFFFFFFFFFFFFFFFF000FFFFFFFFFFFF
310
FFFFFFFFFFFFFFFFFFFFFFFFFFFFFFFFFFFFFFFFFFFFFFFFFFFFFFFFFFFFFFFF
310
FFFFFFFFFFFFFFFFFFFFFFFFFFFFFFFFFFFFFFFFFFFFFFFFFFFFFFFFFFFFFFFF
310
FFFFFFFFFFFFFFFFFFFFFFFFFFFFFFFFF0000000000000000000000000000000
310
0000000000000000000000000000000000000000000000000000000000000000
310
0000000000000000000000000000000000000000000000000000000000000000
310
0000000000000000000000000000000000000000000000000000000000000000
310
0000000000000000000000000000000000000000000000000000000000000000
310
0000000000000000000000000000000000000000000000000000000000000000
310
0000000000000000000000000000000000000000000000000000000000000000
310
0000000000000000000000000000000000000000000000000000000000000000
310
0000000000000000000000000000000000000000000000000000000000000000
310
0000000000000000000000000000000000000000000000000000000000000000
310
0000000000000000000000000000000000000000000000000000000000000000
310
0000000000000000000000000000000000000000000000000000000000000000
310
0000000000000000000000000000000000000000000000000000000000000000
310
0000000000000000000000000000000000000000000000000000000000000000
310
0000000000000000000000000000000000000000000000000000000000000000
310
0000000000000000000000000000000000000000000000000000000000000000
  1
OLE
  0
ENDSEC
  0
SECTION
  2
OBJECTS
  0
DICTIONARY
  5
C
330
0
100
AcDbDictionary
281
     1
  3
ACAD_GROUP
350
D
  3
ACAD_LAYOUT
350
1A
  3
ACAD_MLINESTYLE
350
17
  3
ACAD_PLOTSETTINGS
350
19
  3
ACAD_PLOTSTYLENAME
350
E
  0
DICTIONARY
  5
D
102
{ACAD_REACTORS
330
C
102
}
330
C
100
AcDbDictionary
281
     1
  0
DICTIONARY
  5
1A
102
{ACAD_REACTORS
330
C
102
}
330
C
100
AcDbDictionary
281
     1
  3
Layout1
350
1E
  3
Layout2
350
26
  3
Model
350
22
  0
DICTIONARY
  5
17
102
{ACAD_REACTORS
330
C
102
}
330
C
100
AcDbDictionary
281
     1
  3
Standard
350
18
  0
DICTIONARY
  5
19
102
{ACAD_REACTORS
330
C
102
}
330
C
100
AcDbDictionary
281
     1
  0
ACDBDICTIONARYWDFLT
  5
E
102
{ACAD_REACTORS
330
C
102
}
330
C
100
AcDbDictionary
281
     1
  3
Normal
350
F
100
AcDbDictionaryWithDefault
340
F
  0
LAYOUT
  5
1E
102
{ACAD_REACTORS
330
1A
102
}
330
1A
100
AcDbPlotSettings
  1

  2
none_device
  4

  6

 40
0.0
 41
0.0
 42
0.0
 43
0.0
 44
0.0
 45
0.0
 46
0.0
 47
0.0
 48
0.0
 49
0.0
140
0.0
141
0.0
142
1.0
143
1.0
 70
   688
 72
     0
 73
     0
 74
     5
  7

 75
    16
147
1.0
148
0.0
149
0.0
100
AcDbLayout
  1
Layout1
 70
     1
 71
     1
 10
0.0
 20
0.0
 11
420.0
 21
297.0
 12
0.0
 22
0.0
 32
0.0
 14
1.0000000000E+20
 24
1.0000000000E+20
 34
1.0000000000E+20
 15
-1.0000000000E+20
 25
-1.0000000000E+20
 35
-1.0000000000E+20
146
0.0
 13
0.0
 23
0.0
 33
0.0
 16
1.0
 26
0.0
 36
0.0
 17
0.0
 27
1.0
 37
0.0
 76
     0
330
1B
  0
LAYOUT
  5
26
102
{ACAD_REACTORS
330
1A
102
}
330
1A
100
AcDbPlotSettings
  1

  2
none_device
  4

  6

 40
0.0
 41
0.0
 42
0.0
 43
0.0
 44
0.0
 45
0.0
 46
0.0
 47
0.0
 48
0.0
 49
0.0
140
0.0
141
0.0
142
1.0
143
1.0
 70
   688
 72
     0
 73
     0
 74
     5
  7

 75
    16
147
1.0
148
0.0
149
0.0
100
AcDbLayout
  1
Layout2
 70
     1
 71
     2
 10
0.0
 20
0.0
 11
0.0
 21
0.0
 12
0.0
 22
0.0
 32
0.0
 14
0.0
 24
0.0
 34
0.0
 15
0.0
 25
0.0
 35
0.0
146
0.0
 13
0.0
 23
0.0
 33
0.0
 16
1.0
 26
0.0
 36
0.0
 17
0.0
 27
1.0
 37
0.0
 76
     0
330
23
  0
LAYOUT
  5
22
102
{ACAD_REACTORS
330
1A
102
}
330
1A
100
AcDbPlotSettings
  1

  2
none_device
  4

  6

 40
0.0
 41
0.0
 42
0.0
 43
0.0
 44
0.0
 45
0.0
 46
0.0
 47
0.0
 48
0.0
 49
0.0
140
0.0
141
0.0
142
1.0
143
1.0
 70
  1712
 72
     0
 73
     0
 74
     0
  7

 75
     0
147
1.0
148
0.0
149
0.0
100
AcDbLayout
  1
Model
 70
     1
 71
     0
 10
0.0
 20
0.0
 11
297.0
 21
210.0
 12
0.0
 22
0.0
 32
0.0
 14
0.0
 24
0.0
 34
0.0
 15
297.0
 25
210.0
 35
0.0
146
0.0
 13
0.0
 23
0.0
 33
0.0
 16
1.0
 26
0.0
 36
0.0
 17
0.0
 27
1.0
 37
0.0
 76
     0
330
1F
331
29
  0
MLINESTYLE
  5
18
102
{ACAD_REACTORS
330
17
102
}
330
17
100
AcDbMlineStyle
  2
Standard
 70
     0
  3

 62
   256
 51
90.0
 52
90.0
 71
     2
 49
0.5
 62
   256
  6
BYLAYER
 49
-0.5
 62
   256
  6
BYLAYER
  0
ACDBPLACEHOLDER
  5
F
102
{ACAD_REACTORS
330
E
102
}
330
E
  0
ENDSEC
  0
EOF
