  0
SECTION
  2
HEADER
  9
$ACADVER
  1
AC1015
  9
$ACADMAINTVER
 70
     6
  9
$DWGCODEPAGE
  3
ANSI_1252
  9
$INSBASE
 10
0.0
 20
0.0
 30
0.0
  9
$EXTMIN
 10
0.0
 20
0.0
 30
0.0
  9
$EXTMAX
 10
297.0
 20
210.0
 30
0.0
  9
$LIMMIN
 10
0.0
 20
0.0
  9
$LIMMAX
 10
297.0
 20
210.0
  9
$ORTHOMODE
 70
     0
  9
$REGENMODE
 70
     1
  9
$FILLMODE
 70
     1
  9
$QTEXTMODE
 70
     0
  9
$MIRRTEXT
 70
     1
  9
$LTSCALE
 40
1.0
  9
$ATTMODE
 70
     1
  9
$TEXTSIZE
 40
2.0
  9
$TRACEWID
 40
1.0
  9
$TEXTSTYLE
  7
Standard
  9
$CLAYER
  8
0
  9
$CELTYPE
  6
ByLayer
  9
$CECOLOR
 62
   256
  9
$CELTSCALE
 40
1.0
  9
$DISPSILH
 70
     0
  9
$DIMSCALE
 40
1.0
  9
$DIMASZ
 40
3.0
  9
$DIMEXO
 40
0.0
  9
$DIMDLI
 40
3.75
  9
$DIMRND
 40
0.0
  9
$DIMDLE
 40
0.0
  9
$DIMEXE
 40
1.0
  9
$DIMTP
 40
0.0
  9
$DIMTM
 40
0.0
  9
$DIMTXT
 40
2.0
  9
$DIMCEN
 40
2.5
  9
$DIMTSZ
 40
0.0
  9
$DIMTOL
 70
     0
  9
$DIMLIM
 70
     0
  9
$DIMTIH
 70
     1
  9
$DIMTOH
 70
     1
  9
$DIMSE1
 70
     0
  9
$DIMSE2
 70
     0
  9
$DIMTAD
 70
     1
  9
$DIMZIN
 70
     0
  9
$DIMBLK
  1

  9
$DIMASO
 70
     1
  9
$DIMSHO
 70
     1
  9
$DIMPOST
  1

  9
$DIMAPOST
  1

  9
$DIMALT
 70
     0
  9
$DIMALTD
 70
     3
  9
$DIMALTF
 40
0.0393700787
  9
$DIMLFAC
 40
1.0
  9
$DIMTOFL
 70
     1
  9
$DIMTVP
 40
0.0
  9
$DIMTIX
 70
     0
  9
$DIMSOXD
 70
     0
  9
$DIMSAH
 70
     0
  9
$DIMBLK1
  1

  9
$DIMBLK2
  1

  9
$DIMSTYLE
  2
ISO-25
  9
$DIMCLRD
 70
     0
  9
$DIMCLRE
 70
     0
  9
$DIMCLRT
 70
     0
  9
$DIMTFAC
 40
1.0
  9
$DIMGAP
 40
1.524
  9
$DIMJUST
 70
     0
  9
$DIMSD1
 70
     0
  9
$DIMSD2
 70
     0
  9
$DIMTOLJ
 70
     0
  9
$DIMTZIN
 70
     0
  9
$DIMALTZ
 70
     0
  9
$DIMALTTZ
 70
     0
  9
$DIMUPT
 70
     0
  9
$DIMDEC
 70
     2
  9
$DIMTDEC
 70
     3
  9
$DIMALTU
 70
     2
  9
$DIMALTTD
 70
     3
  9
$DIMTXSTY
  7
Standard
  9
$DIMAUNIT
 70
     0
  9
$DIMADEC
 70
     2
  9
$DIMALTRND
 40
0.0
  9
$DIMAZIN
 70
     0
  9
$DIMDSEP
 70
    44
  9
$DIMATFIT
 70
     3
  9
$DIMFRAC
 70
     0
  9
$DIMLDRBLK
  1

  9
$DIMLUNIT
 70
     2
  9
$DIMLWD
 70
    -2
  9
$DIMLWE
 70
    -2
  9
$DIMTMOVE
 70
     0
  9
$LUNITS
 70
     2
  9
$LUPREC
 70
     2
  9
$SKETCHINC
 40
1.0
  9
$FILLETRAD
 40
10.0
  9
$AUNITS
 70
     0
  9
$AUPREC
 70
     2
  9
$MENU
  1
.
  9
$ELEVATION
 40
0.0
  9
$PELEVATION
 40
0.0
  9
$THICKNESS
 40
0.0
  9
$LIMCHECK
 70
     0
  9
$CHAMFERA
 40
0.0
  9
$CHAMFERB
 40
0.0
  9
$CHAMFERC
 40
0.0
  9
$CHAMFERD
 40
0.0
  9
$SKPOLY
 70
     0
  9
$TDCREATE
 40
2458157.556076284
  9
$TDUCREATE
 40
2458157.514409618
  9
$TDUPDATE
 40
2458157.556078357
  9
$TDUUPDATE
 40
2458157.51441169
  9
$TDINDWG
 40
0.0000000116
  9
$TDUSRTIMER
 40
0.0000000116
  9
$USRTIMER
 70
     1
  9
$ANGBASE
 50
0.0
  9
$ANGDIR
 70
     0
  9
$PDMODE
 70
     0
  9
$PDSIZE
 40
-1.0
  9
$PLINEWID
 40
0.0
  9
$SPLFRAME
 70
     0
  9
$SPLINETYPE
 70
     6
  9
$SPLINESEGS
 70
     8
  9
$HANDSEED
  5
223
  9
$SURFTAB1
 70
     6
  9
$SURFTAB2
 70
     6
  9
$SURFTYPE
 70
     6
  9
$SURFU
 70
     6
  9
$SURFV
 70
     6
  9
$UCSBASE
  2

  9
$UCSNAME
  2

  9
$UCSORG
 10
0.0
 20
0.0
 30
0.0
  9
$UCSXDIR
 10
1.0
 20
0.0
 30
0.0
  9
$UCSYDIR
 10
0.0
 20
1.0
 30
0.0
  9
$UCSORTHOREF
  2

  9
$UCSORTHOVIEW
 70
     0
  9
$UCSORGTOP
 10
0.0
 20
0.0
 30
0.0
  9
$UCSORGBOTTOM
 10
0.0
 20
0.0
 30
0.0
  9
$UCSORGLEFT
 10
0.0
 20
0.0
 30
0.0
  9
$UCSORGRIGHT
 10
0.0
 20
0.0
 30
0.0
  9
$UCSORGFRONT
 10
0.0
 20
0.0
 30
0.0
  9
$UCSORGBACK
 10
0.0
 20
0.0
 30
0.0
  9
$PUCSBASE
  2

  9
$PUCSNAME
  2

  9
$PUCSORG
 10
0.0
 20
0.0
 30
0.0
  9
$PUCSXDIR
 10
1.0
 20
0.0
 30
0.0
  9
$PUCSYDIR
 10
0.0
 20
1.0
 30
0.0
  9
$PUCSORTHOREF
  2

  9
$PUCSORTHOVIEW
 70
     0
  9
$PUCSORGTOP
 10
0.0
 20
0.0
 30
0.0
  9
$PUCSORGBOTTOM
 10
0.0
 20
0.0
 30
0.0
  9
$PUCSORGLEFT
 10
0.0
 20
0.0
 30
0.0
  9
$PUCSORGRIGHT
 10
0.0
 20
0.0
 30
0.0
  9
$PUCSORGFRONT
 10
0.0
 20
0.0
 30
0.0
  9
$PUCSORGBACK
 10
0.0
 20
0.0
 30
0.0
  9
$USERI1
 70
     0
  9
$USERI2
 70
     0
  9
$USERI3
 70
     0
  9
$USERI4
 70
     0
  9
$USERI5
 70
     0
  9
$USERR1
 40
0.0
  9
$USERR2
 40
0.0
  9
$USERR3
 40
0.0
  9
$USERR4
 40
0.0
  9
$USERR5
 40
0.0
  9
$WORLDVIEW
 70
     1
  9
$SHADEDGE
 70
     3
  9
$SHADEDIF
 70
    70
  9
$TILEMODE
 70
     1
  9
$MAXACTVP
 70
    64
  9
$PINSBASE
 10
0.0
 20
0.0
 30
0.0
  9
$PLIMCHECK
 70
     0
  9
$PEXTMIN
 10
1.0000000000E+20
 20
1.0000000000E+20
 30
1.0000000000E+20
  9
$PEXTMAX
 10
-1.0000000000E+20
 20
-1.0000000000E+20
 30
-1.0000000000E+20
  9
$PLIMMIN
 10
0.0
 20
0.0
  9
$PLIMMAX
 10
420.0
 20
297.0
  9
$UNITMODE
 70
     0
  9
$VISRETAIN
 70
     1
  9
$PLINEGEN
 70
     0
  9
$PSLTSCALE
 70
     1
  9
$TREEDEPTH
 70
  3020
  9
$CMLSTYLE
  2
Standard
  9
$CMLJUST
 70
     0
  9
$CMLSCALE
 40
20.0
  9
$PROXYGRAPHICS
 70
     1
  9
$MEASUREMENT
 70
     1
  9
$CELWEIGHT
370
    -1
  9
$ENDCAPS
280
     0
  9
$JOINSTYLE
280
     0
  9
$LWDISPLAY
290
     1
  9
$INSUNITS
 70
     4
  9
$HYPERLINKBASE
  1

  9
$STYLESHEET
  1

  9
$XEDIT
290
     1
  9
$CEPSNTYPE
380
     0
  9
$PSTYLEMODE
290
     1
  9
$FINGERPRINTGUID
  2
{6754E22A-F829-4BA3-B784-FAF316A3744A}
  9
$VERSIONGUID
  2
{FAEB1C32-E019-11D5-929B-00C0DF256EC4}
  9
$EXTNAMES
290
     1
  9
$PSVPSCALE
 40
0.0
  9
$OLESTARTUP
290
     0
  0
ENDSEC
  0
SECTION
  2
CLASSES
  0
CLASS
  1
ACDBDICTIONARYWDFLT
  2
AcDbDictionaryWithDefault
  3
ObjectDBX Classes
 90
        0
280
     0
281
     0
  0
CLASS
  1
VISUALSTYLE
  2
AcDbVisualStyle
  3
ObjectDBX Classes
 90
     4095
280
     0
281
     0
  0
CLASS
  1
MATERIAL
  2
AcDbMaterial
  3
ObjectDBX Classes
 90
     1153
280
     0
281
     0
  0
CLASS
  1
SCALE
  2
AcDbScale
  3
ObjectDBX Classes
 90
     1153
280
     0
281
     0
  0
CLASS
  1
TABLESTYLE
  2
AcDbTableStyle
  3
ObjectDBX Classes
 90
     4095
280
     0
281
     0
  0
CLASS
  1
MLEADERSTYLE
  2
AcDbMLeaderStyle
  3
ACDB_MLEADERSTYLE_CLASS
 90
     4095
280
     0
281
     0
  0
CLASS
  1
SUN
  2
AcDbSun
  3
SCENEOE
 90
     1153
280
     0
281
     0
  0
CLASS
  1
ACDBPLACEHOLDER
  2
AcDbPlaceHolder
  3
ObjectDBX Classes
 90
        0
280
     0
281
     0
  0
CLASS
  1
LAYOUT
  2
AcDbLayout
  3
ObjectDBX Classes
 90
        0
280
     0
281
     0
  0
ENDSEC
  0
SECTION
  2
TABLES
  0
TABLE
  2
VPORT
  5
8
330
0
100
AcDbSymbolTable
 70
     1
  0
VPORT
  5
29
330
8
100
AcDbSymbolTableRecord
100
AcDbViewportTableRecord
  2
*Active
 70
     0
 10
0.0
 20
0.0
 11
1.0
 21
1.0
 12
148.5
 22
105.0
 13
0.0
 23
0.0
 14
10.0
 24
10.0
 15
10.0
 25
10.0
 16
0.0
 26
0.0
 36
1.0
 17
0.0
 27
0.0
 37
0.0
 40
210.0
 41
1.4142857143
 42
50.0
 43
0.0
 44
0.0
 50
0.0
 51
0.0
 71
     0
 72
  2000
 73
     1
 74
     3
 75
     0
 76
     0
 77
     0
 78
     0
281
     0
 65
     1
110
0.0
120
0.0
130
0.0
111
1.0
121
0.0
131
0.0
112
0.0
122
1.0
132
0.0
 79
     0
146
0.0
  0
ENDTAB
  0
TABLE
  2
LTYPE
  5
5
330
0
100
AcDbSymbolTable
 70
     6
  0
LTYPE
  5
14
330
5
100
AcDbSymbolTableRecord
100
AcDbLinetypeTableRecord
  2
ByBlock
 70
     0
  3

 72
    65
 73
     0
 40
0.0
  0
LTYPE
  5
15
330
5
100
AcDbSymbolTableRecord
100
AcDbLinetypeTableRecord
  2
ByLayer
 70
     0
  3

 72
    65
 73
     0
 40
0.0
  0
LTYPE
  5
16
330
5
100
AcDbSymbolTableRecord
100
AcDbLinetypeTableRecord
  2
Continuous
 70
     0
  3
Solid line
 72
    65
 73
     0
 40
0.0
  0
LTYPE
  5
6E
330
5
100
AcDbSymbolTableRecord
100
AcDbLinetypeTableRecord
  2
HIDDEN
 70
     0
  3
Hidden __ __ __ __ __ __ __ __ __ __ __ __ __ __
 72
    65
 73
     2
 40
1.905
 49
1.27
 74
     0
 49
-0.635
 74
     0
  0
LTYPE
  5
6F
330
5
100
AcDbSymbolTableRecord
100
AcDbLinetypeTableRecord
  2
PHANTOM
 70
     0
  3
Phantom ______  __  __  ______  __  __  ______
 72
    65
 73
     6
 40
12.7
 49
6.35
 74
     0
 49
-1.27
 74
     0
 49
1.27
 74
     0
 49
-1.27
 74
     0
 49
1.27
 74
     0
 49
-1.27
 74
     0
  0
LTYPE
  5
70
330
5
100
AcDbSymbolTableRecord
100
AcDbLinetypeTableRecord
  2
CENTER
 70
     0
  3
Center ____ _ ____ _ ____ _ ____ _ ____ _ ____
 72
    65
 73
     4
 40
10.16
 49
6.35
 74
     0
 49
-1.27
 74
     0
 49
1.27
 74
     0
 49
-1.27
 74
     0
  0
LTYPE
  5
71
330
5
100
AcDbSymbolTableRecord
100
AcDbLinetypeTableRecord
  2
CENTERX2
 70
     0
  3
Center (2x) ________  __  ________  __  _____
 72
    65
 73
     4
 40
20.32
 49
12.7
 74
     0
 49
-2.54
 74
     0
 49
2.54
 74
     0
 49
-2.54
 74
     0
  0
LTYPE
  5
72
330
5
100
AcDbSymbolTableRecord
100
AcDbLinetypeTableRecord
  2
DOT2
 70
     0
  3
Dot (.5x) ........................................
 72
    65
 73
     2
 40
0.635
 49
0.0
 74
     0
 49
-0.635
 74
     0
  0
ENDTAB
  0
TABLE
  2
LAYER
  5
2
330
0
100
AcDbSymbolTable
 70
     5
  0
LAYER
  5
10
330
2
100
AcDbSymbolTableRecord
100
AcDbLayerTableRecord
  2
0
 70
     0
 62
     7
  6
Continuous
370
    -3
390
F
  0
LAYER
  5
73
330
2
100
AcDbSymbolTableRecord
100
AcDbLayerTableRecord
  2
FORMAT
 70
     0
 62
     7
  6
Continuous
370
    -3
390
F
  0
LAYER
  5
74
330
2
100
AcDbSymbolTableRecord
100
AcDbLayerTableRecord
  2
VERMASSUNG
 70
     0
 62
     7
  6
Continuous
370
    -3
390
F
  0
LAYER
  5
75
330
2
100
AcDbSymbolTableRecord
100
AcDbLayerTableRecord
  2
KOPF_DÜNN
 70
     0
 62
     7
  6
Continuous
370
    -3
390
F
  0
LAYER
  5
76
330
2
100
AcDbSymbolTableRecord
100
AcDbLayerTableRecord
  2
KOPF_DICK
 70
     0
 62
     7
  6
Continuous
370
    25
390
F
  0
ENDTAB
  0
TABLE
  2
STYLE
  5
3
330
0
100
AcDbSymbolTable
 70
     2
  0
STYLE
  5
11
330
3
100
AcDbSymbolTableRecord
100
AcDbTextStyleTableRecord
  2
Standard
 70
     0
 40
0.0
 41
1.0
 50
0.0
 71
     0
 42
2.0
  3
txt
  4

  0
STYLE
  5
78
330
3
100
AcDbSymbolTableRecord
100
AcDbTextStyleTableRecord
  2
SLDTEXTSTYLE0
 70
     0
 40
0.0
 41
0.7
 50
0.0
 71
     0
 42
2.0
  3
TXT
  4

  0
ENDTAB
  0
TABLE
  2
VIEW
  5
6
330
0
100
AcDbSymbolTable
 70
     0
  0
ENDTAB
  0
TABLE
  2
UCS
  5
7
330
0
100
AcDbSymbolTable
 70
     0
  0
ENDTAB
  0
TABLE
  2
APPID
  5
9
330
0
100
AcDbSymbolTable
 70
     1
  0
APPID
  5
12
330
9
100
AcDbSymbolTableRecord
100
AcDbRegAppTableRecord
  2
ACAD
 70
     0
  0
ENDTAB
  0
TABLE
  2
DIMSTYLE
  5
A
330
0
100
AcDbSymbolTable
 70
     5
100
AcDbDimStyleTable
  0
DIMSTYLE
105
27
330
A
100
AcDbSymbolTableRecord
100
AcDbDimStyleTableRecord
  2
ISO-25
 70
     0
 41
2.5
 42
0.625
 43
3.75
 44
1.25
 73
     0
 74
     0
 77
     1
 78
     8
140
2.5
141
2.5
143
0.0393700787
147
0.625
171
     3
172
     1
178
     0
271
     2
272
     2
274
     3
278
    44
283
     0
284
     8
340
11
  0
DIMSTYLE
105
1A6
102
{ACAD_REACTORS
330
1A5
330
1D4
102
}
330
A
100
AcDbSymbolTableRecord
100
AcDbDimStyleTableRecord
  2
SLDDIMSTYLE0
 70
     0
 41
3.0
 44
0.0
 45
0.000000001
 73
     0
 74
     0
 77
     1
 78
    12
 79
     3
140
2.0
147
0.5
173
     1
178
     0
271
     2
272
     3
276
     2
284
    12
340
78
  0
DIMSTYLE
105
1B1
102
{ACAD_REACTORS
330
1B0
330
1BD
102
}
330
A
100
AcDbSymbolTableRecord
100
AcDbDimStyleTableRecord
  2
SLDDIMSTYLE1
 70
     0
 41
3.0
 44
0.0
 45
0.000000001
 47
0.1
 48
0.1
 71
     1
 73
     0
 74
     0
 77
     1
 78
    12
 79
     3
140
2.0
147
0.5
173
     1
178
     0
271
     2
272
     1
276
     2
284
     8
340
78
  0
DIMSTYLE
105
1CA
102
{ACAD_REACTORS
330
1C9
102
}
330
A
100
AcDbSymbolTableRecord
100
AcDbDimStyleTableRecord
  2
SLDDIMSTYLE2
 70
     0
 41
3.0
 44
0.0
 73
     0
 74
     0
 77
     1
 78
    12
 79
     3
140
2.0
147
0.5
173
     1
178
     0
179
     2
272
     3
276
     2
284
    12
340
78
  0
DIMSTYLE
105
208
102
{ACAD_REACTORS
330
207
102
}
330
A
100
AcDbSymbolTableRecord
100
AcDbDimStyleTableRecord
  2
SLDDIMSTYLE3
 70
     0
 41
3.0
 44
0.0
 45
0.000000001
 73
     0
 74
     0
 77
     1
 78
    12
 79
     3
140
2.0
147
0.5
172
     1
173
     1
178
     0
271
     2
272
     3
276
     2
284
     8
289
     0
340
78
  0
ENDTAB
  0
TABLE
  2
BLOCK_RECORD
  5
1
330
0
100
AcDbSymbolTable
 70
     8
  0
BLOCK_RECORD
  5
1F
330
1
100
AcDbSymbolTableRecord
100
AcDbBlockTableRecord
  2
*Model_Space
340
22
  0
BLOCK_RECORD
  5
1B
330
1
100
AcDbSymbolTableRecord
100
AcDbBlockTableRecord
  2
*Paper_Space
340
1E
  0
BLOCK_RECORD
  5
23
330
1
100
AcDbSymbolTableRecord
100
AcDbBlockTableRecord
  2
*Paper_Space0
340
26
  0
BLOCK_RECORD
  5
1A7
330
1
100
AcDbSymbolTableRecord
100
AcDbBlockTableRecord
  2
_D
340
0
  0
BLOCK_RECORD
  5
1B2
330
1
100
AcDbSymbolTableRecord
100
AcDbBlockTableRecord
  2
_D_1
340
0
  0
BLOCK_RECORD
  5
1BE
330
1
100
AcDbSymbolTableRecord
100
AcDbBlockTableRecord
  2
_D_2
340
0
  0
BLOCK_RECORD
  5
1CB
330
1
100
AcDbSymbolTableRecord
100
AcDbBlockTableRecord
  2
_D_3
340
0
  0
BLOCK_RECORD
  5
1D5
330
1
100
AcDbSymbolTableRecord
100
AcDbBlockTableRecord
  2
_D_4
340
0
  0
BLOCK_RECORD
  5
209
330
1
100
AcDbSymbolTableRecord
100
AcDbBlockTableRecord
  2
_D_5
340
0
  0
BLOCK_RECORD
  5
216
330
1
100
AcDbSymbolTableRecord
100
AcDbBlockTableRecord
  2
SW_CENTERMARKSYMBOL_0
340
0
102
{BLKREFS
331
221
102
}
  0
ENDTAB
  0
ENDSEC
  0
SECTION
  2
BLOCKS
  0
BLOCK
  5
20
330
1F
100
AcDbEntity
  8
0
100
AcDbBlockBegin
  2
*Model_Space
 70
     0
 10
0.0
 20
0.0
 30
0.0
  3
*Model_Space
  1

  0
ENDBLK
  5
21
330
1F
100
AcDbEntity
  8
0
100
AcDbBlockEnd
  0
BLOCK
  5
1C
330
1B
100
AcDbEntity
 67
     1
  8
0
100
AcDbBlockBegin
  2
*Paper_Space
 70
     0
 10
0.0
 20
0.0
 30
0.0
  3
*Paper_Space
  1

  0
ENDBLK
  5
1D
330
1B
100
AcDbEntity
 67
     1
  8
0
100
AcDbBlockEnd
  0
BLOCK
  5
24
330
23
100
AcDbEntity
  8
0
100
AcDbBlockBegin
  2
*Paper_Space0
 70
     0
 10
0.0
 20
0.0
 30
0.0
  3
*Paper_Space0
  1

  0
ENDBLK
  5
25
330
23
100
AcDbEntity
  8
0
100
AcDbBlockEnd
  0
BLOCK
  5
1A8
330
1A7
100
AcDbEntity
  8
0
100
AcDbBlockBegin
  2
_D
 70
     0
 10
0.0
 20
0.0
 30
0.0
  3
_D
  1

  0
SOLID
  5
1AA
330
1A7
100
AcDbEntity
  8
VERMASSUNG
100
AcDbTrace
 10
143.9497227917
 20
166.5979378653
 30
0.0
 11
146.9497227917
 21
166.1479378653
 31
0.0
 12
146.9497227917
 22
167.0479378653
 32
0.0
 13
146.9497227917
 23
167.0479378653
 33
0.0
  0
SOLID
  5
1AB
330
1A7
100
AcDbEntity
  8
VERMASSUNG
100
AcDbTrace
 10
246.9497227917
 20
166.5979378653
 30
0.0
 11
243.9497227917
 21
167.0479378653
 31
0.0
 12
243.9497227917
 22
166.1479378653
 32
0.0
 13
243.9497227917
 23
166.1479378653
 33
0.0
  0
LINE
  5
1AC
330
1A7
100
AcDbEntity
  8
VERMASSUNG
100
AcDbLine
 10
143.9497227917
 20
124.8197823427
 30
0.0
 11
143.9497227917
 21
167.5979378653
 31
0.0
  0
LINE
  5
1AD
330
1A7
100
AcDbEntity
  8
VERMASSUNG
100
AcDbLine
 10
246.9497227917
 20
149.5274443502
 30
0.0
 11
246.9497227917
 21
167.5979378653
 31
0.0
  0
LINE
  5
1AE
330
1A7
100
AcDbEntity
  8
VERMASSUNG
100
AcDbLine
 10
143.9497227917
 20
166.5979378653
 30
0.0
 11
246.9497227917
 21
166.5979378653
 31
0.0
  0
MTEXT
  5
1AF
330
1A7
100
AcDbEntity
  8
VERMASSUNG
100
AcDbMText
 10
193.5497227596
 20
169.1760734612
 30
0.0
 40
2.0
 41
0.0
 71
     1
 72
     1
  1
103
  7
SLDTEXTSTYLE0
 73
     1
 44
1.0
  0
ENDBLK
  5
1A9
330
1A7
100
AcDbEntity
  8
0
100
AcDbBlockEnd
  0
BLOCK
  5
1B3
330
1B2
100
AcDbEntity
  8
0
100
AcDbBlockBegin
  2
_D_1
 70
     0
 10
0.0
 20
0.0
 30
0.0
  3
_D_1
  1

  0
SOLID
  5
1B5
330
1B2
100
AcDbEntity
  8
VERMASSUNG
100
AcDbTrace
 10
181.9497227917
 20
158.8949436593
 30
0.0
 11
184.9497227917
 21
158.4449436593
 31
0.0
 12
184.9497227917
 22
159.3449436593
 32
0.0
 13
184.9497227917
 23
159.3449436593
 33
0.0
  0
SOLID
  5
1B6
330
1B2
100
AcDbEntity
  8
VERMASSUNG
100
AcDbTrace
 10
246.9497227917
 20
158.8949436593
 30
0.0
 11
243.9497227917
 21
159.3449436593
 31
0.0
 12
243.9497227917
 22
158.4449436593
 32
0.0
 13
243.9497227917
 23
158.4449436593
 33
0.0
  0
LINE
  5
1B7
330
1B2
100
AcDbEntity
  8
VERMASSUNG
100
AcDbLine
 10
181.9497227917
 20
135.5274443502
 30
0.0
 11
181.9497227917
 21
159.8949436593
 31
0.0
  0
LINE
  5
1B8
330
1B2
100
AcDbEntity
  8
VERMASSUNG
100
AcDbLine
 10
246.9497227917
 20
149.5274443502
 30
0.0
 11
246.9497227917
 21
159.8949436593
 31
0.0
  0
LINE
  5
1B9
330
1B2
100
AcDbEntity
  8
VERMASSUNG
100
AcDbLine
 10
181.9497227917
 20
158.8949436593
 30
0.0
 11
246.9497227917
 21
158.8949436593
 31
0.0
  0
MTEXT
  5
1BA
330
1B2
100
AcDbEntity
  8
VERMASSUNG
100
AcDbMText
 10
210.7997227056
 20
161.4730792552
 30
0.0
 40
2.0
 41
0.0
 71
     1
 72
     1
  1
65
  7
SLDTEXTSTYLE0
 73
     1
 44
1.0
  0
MTEXT
  5
1BB
330
1B2
100
AcDbEntity
  8
VERMASSUNG
100
AcDbMText
 10
214.7872226058
 20
161.4730792552
 30
0.0
 40
2.0
 41
0.0
 71
     1
 72
     1
  1

  7
SLDTEXTSTYLE0
 73
     1
 44
1.0
  0
MTEXT
  5
1BC
330
1B2
100
AcDbEntity
  8
VERMASSUNG
100
AcDbMText
 10
214.79972243
 20
160.9785454216
 30
0.0
 40
1.5
 41
0.0
 71
     1
 72
     1
  1
±0.1
  7
SLDTEXTSTYLE0
 73
     1
 44
1.0
  0
ENDBLK
  5
1B4
330
1B2
100
AcDbEntity
  8
0
100
AcDbBlockEnd
  0
BLOCK
  5
1BF
330
1BE
100
AcDbEntity
  8
0
100
AcDbBlockBegin
  2
_D_2
 70
     0
 10
0.0
 20
0.0
 30
0.0
  3
_D_2
  1

  0
SOLID
  5
1C1
330
1BE
100
AcDbEntity
  8
VERMASSUNG
100
AcDbTrace
 10
273.2909334191
 20
149.5274443502
 30
0.0
 11
272.8409334191
 21
146.5274443502
 31
0.0
 12
273.7409334191
 22
146.5274443502
 32
0.0
 13
273.7409334191
 23
146.5274443502
 33
0.0
  0
SOLID
  5
1C2
330
1BE
100
AcDbEntity
  8
VERMASSUNG
100
AcDbTrace
 10
273.2909334191
 20
104.5274443502
 30
0.0
 11
273.7409334191
 21
107.5274443502
 31
0.0
 12
272.8409334191
 22
107.5274443502
 32
0.0
 13
272.8409334191
 23
107.5274443502
 33
0.0
  0
LINE
  5
1C3
330
1BE
100
AcDbEntity
  8
VERMASSUNG
100
AcDbLine
 10
246.9497227917
 20
149.5274443502
 30
0.0
 11
274.2909334191
 21
149.5274443502
 31
0.0
  0
LINE
  5
1C4
330
1BE
100
AcDbEntity
  8
VERMASSUNG
100
AcDbLine
 10
246.9497227917
 20
104.5274443502
 30
0.0
 11
274.2909334191
 21
104.5274443502
 31
0.0
  0
LINE
  5
1C5
330
1BE
100
AcDbEntity
  8
VERMASSUNG
100
AcDbLine
 10
273.2909334191
 20
149.5274443502
 30
0.0
 11
273.2909334191
 21
104.5274443502
 31
0.0
  0
MTEXT
  5
1C6
330
1BE
100
AcDbEntity
  8
VERMASSUNG
100
AcDbMText
 10
270.7127978231
 20
123.2774439684
 30
0.0
 40
2.0
 41
0.0
 71
     1
 72
     1
  1
45
  7
SLDTEXTSTYLE0
 11
-7.044195017643634E-15
 21
1.0
 31
0.0
 73
     1
 44
1.0
  0
MTEXT
  5
1C7
330
1BE
100
AcDbEntity
  8
VERMASSUNG
100
AcDbMText
 10
270.7127978231
 20
127.4649439945
 30
0.0
 40
2.0
 41
0.0
 71
     1
 72
     1
  1

  7
SLDTEXTSTYLE0
 11
-7.044195017643634E-15
 21
1.0
 31
0.0
 73
     1
 44
1.0
  0
MTEXT
  5
1C8
330
1BE
100
AcDbEntity
  8
VERMASSUNG
100
AcDbMText
 10
271.2073316568
 20
127.4774438186
 30
0.0
 40
1.5
 41
0.0
 71
     1
 72
     1
  1
±0.1
  7
SLDTEXTSTYLE0
 11
-7.044195017643634E-15
 21
1.0
 31
0.0
 73
     1
 44
1.0
  0
ENDBLK
  5
1C0
330
1BE
100
AcDbEntity
  8
0
100
AcDbBlockEnd
  0
BLOCK
  5
1CC
330
1CB
100
AcDbEntity
  8
0
100
AcDbBlockBegin
  2
_D_3
 70
     0
 10
0.0
 20
0.0
 30
0.0
  3
_D_3
  1

  0
ARC
  5
1CE
330
1CB
100
AcDbEntity
  8
VERMASSUNG
100
AcDbCircle
 10
246.9862461921
 20
149.5274443502
 30
0.0
 40
18.53057503946072
100
AcDbArc
 50
265.0
 51
0.0
  0
SOLID
  5
1CF
330
1CB
100
AcDbEntity
  8
VERMASSUNG
100
AcDbTrace
 10
245.371200161
 20
131.0673837433
 30
0.0
 11
248.367969409
 21
130.5963486339
 31
0.0
 12
248.3742832639
 22
131.4963264865
 32
0.0
 13
248.3742832639
 23
131.4963264865
 33
0.0
  0
SOLID
  5
1D0
330
1CB
100
AcDbEntity
  8
VERMASSUNG
100
AcDbTrace
 10
265.5168212316
 20
149.5274443502
 30
0.0
 11
264.8277748067
 21
146.5731737085
 31
0.0
 12
265.7248782606
 22
146.5010252992
 32
0.0
 13
265.7248782606
 23
146.5010252992
 33
0.0
  0
LINE
  5
1D1
330
1CB
100
AcDbEntity
  8
VERMASSUNG
100
AcDbLine
 10
245.8950475702
 20
137.0549870291
 30
0.0
 11
245.2840444183
 21
130.0711890452
 31
0.0
  0
LINE
  5
1D2
330
1CB
100
AcDbEntity
  8
VERMASSUNG
100
AcDbLine
 10
263.057668605
 20
149.5274443502
 30
0.0
 11
266.5168212316
 21
149.5274443502
 31
0.0
  0
MTEXT
  5
1D3
330
1CB
100
AcDbEntity
  8
VERMASSUNG
100
AcDbMText
 10
256.2890034957
 20
136.4148919596
 30
0.0
 40
2.0
 41
0.0
 71
     1
 72
     1
  1
95°
  7
SLDTEXTSTYLE0
 11
0.7372773368101224
 21
0.675590207615662
 31
0.0
 73
     1
 44
1.0
  0
ENDBLK
  5
1CD
330
1CB
100
AcDbEntity
  8
0
100
AcDbBlockEnd
  0
BLOCK
  5
1D6
330
1D5
100
AcDbEntity
  8
0
100
AcDbBlockBegin
  2
_D_4
 70
     0
 10
0.0
 20
0.0
 30
0.0
  3
_D_4
  1

  0
SOLID
  5
1D8
330
1D5
100
AcDbEntity
  8
VERMASSUNG
100
AcDbTrace
 10
133.9497227917
 20
136.0274443502
 30
0.0
 11
133.4997227917
 21
133.0274443502
 31
0.0
 12
134.3997227917
 22
133.0274443502
 32
0.0
 13
134.3997227917
 23
133.0274443502
 33
0.0
  0
SOLID
  5
1D9
330
1D5
100
AcDbEntity
  8
VERMASSUNG
100
AcDbTrace
 10
133.9497227917
 20
73.0274443502
 30
0.0
 11
134.3997227917
 21
76.0274443502
 31
0.0
 12
133.4997227917
 22
76.0274443502
 32
0.0
 13
133.4997227917
 23
76.0274443502
 33
0.0
  0
LINE
  5
1DA
330
1D5
100
AcDbEntity
  8
VERMASSUNG
100
AcDbLine
 10
182.4497227917
 20
136.0274443502
 30
0.0
 11
132.9497227917
 21
136.0274443502
 31
0.0
  0
LINE
  5
1DB
330
1D5
100
AcDbEntity
  8
VERMASSUNG
100
AcDbLine
 10
182.4497227917
 20
73.0274443502
 30
0.0
 11
132.9497227917
 21
73.0274443502
 31
0.0
  0
LINE
  5
1DC
330
1D5
100
AcDbEntity
  8
VERMASSUNG
100
AcDbLine
 10
133.9497227917
 20
136.0274443502
 30
0.0
 11
133.9497227917
 21
73.0274443502
 31
0.0
  0
MTEXT
  5
1DD
330
1D5
100
AcDbEntity
  8
VERMASSUNG
100
AcDbMText
 10
131.1715875355
 20
99.0224450404
 30
0.0
 40
2.0
 41
0.0
 71
     1
 72
     1
  1
PSC
  7
SLDTEXTSTYLE0
 11
-7.044195017643634E-15
 21
1.0
 31
0.0
 73
     1
 44
1.0
  0
MTEXT
  5
1DE
330
1D5
100
AcDbEntity
  8
VERMASSUNG
100
AcDbMText
 10
131.3715874868
 20
103.6224446769
 30
0.0
 40
2.0
 41
0.0
 71
     1
 72
     1
  1
%%c
  7
SLDTEXTSTYLE0
 11
-7.044195017643634E-15
 21
1.0
 31
0.0
 73
     1
 44
1.0
  0
MTEXT
  5
1DF
330
1D5
100
AcDbEntity
  8
VERMASSUNG
100
AcDbMText
 10
131.1715875355
 20
107.2324446912
 30
0.0
 40
2.0
 41
0.0
 71
     1
 72
     1
  1
63
  7
SLDTEXTSTYLE0
 11
-7.044195017643634E-15
 21
1.0
 31
0.0
 73
     1
 44
1.0
  0
ENDBLK
  5
1D7
330
1D5
100
AcDbEntity
  8
0
100
AcDbBlockEnd
  0
BLOCK
  5
20A
330
209
100
AcDbEntity
  8
0
100
AcDbBlockBegin
  2
_D_5
 70
     0
 10
0.0
 20
0.0
 30
0.0
  3
_D_5
  1

  0
SOLID
  5
20C
330
209
100
AcDbEntity
  8
VERMASSUNG
100
AcDbTrace
 10
88.0667873345
 20
80.0623209936
 30
0.0
 11
89.7689277561
 21
77.5513016816
 31
0.0
 12
90.4307463132
 22
78.1612165916
 32
0.0
 13
90.4307463132
 23
78.1612165916
 33
0.0
  0
SOLID
  5
20D
330
209
100
AcDbEntity
  8
VERMASSUNG
100
AcDbTrace
 10
33.8521286655
 20
138.8906371807
 30
0.0
 11
32.149988244
 21
141.4016564927
 31
0.0
 12
31.4881696869
 22
140.7917415827
 32
0.0
 13
31.4881696869
 23
140.7917415827
 33
0.0
  0
LINE
  5
20E
330
209
100
AcDbEntity
  8
VERMASSUNG
100
AcDbLine
 10
88.0667873345
 20
80.0623209936
 30
0.0
 11
87.3314333822
 21
79.3846377602
 31
0.0
  0
LINE
  5
20F
330
209
100
AcDbEntity
  8
VERMASSUNG
100
AcDbLine
 10
33.8521286655
 20
138.8906371807
 30
0.0
 11
33.1167747132
 21
138.2129539473
 31
0.0
  0
LINE
  5
210
330
209
100
AcDbEntity
  8
VERMASSUNG
100
AcDbLine
 10
88.0667873345
 20
80.0623209936
 30
0.0
 11
92.1328867347
 21
75.6501972796
 31
0.0
  0
LINE
  5
211
330
209
100
AcDbEntity
  8
VERMASSUNG
100
AcDbLine
 10
88.0667873345
 20
80.0623209936
 30
0.0
 11
33.8521286655
 21
138.8906371807
 31
0.0
  0
LINE
  5
212
330
209
100
AcDbEntity
  8
VERMASSUNG
100
AcDbLine
 10
33.8521286655
 20
138.8906371807
 30
0.0
 11
23.7940015406
 21
149.8047090808
 31
0.0
  0
MTEXT
  5
213
330
209
100
AcDbEntity
  8
VERMASSUNG
100
AcDbMText
 10
25.6898435267
 20
151.5518681503
 30
0.0
 40
2.0
 41
0.0
 71
     1
 72
     1
  1
%%c
  7
SLDTEXTSTYLE0
 11
0.6776832333626028
 21
-0.7353539523380614
 31
0.0
 73
     1
 44
1.0
  0
MTEXT
  5
214
330
209
100
AcDbEntity
  8
VERMASSUNG
100
AcDbMText
 10
28.2833507635
 20
149.0327769855
 30
0.0
 40
2.0
 41
0.0
 71
     1
 72
     1
  1
80
  7
SLDTEXTSTYLE0
 11
0.6776832333626028
 21
-0.7353539523380614
 31
0.0
 73
     1
 44
1.0
  0
MTEXT
  5
215
330
209
100
AcDbEntity
  8
VERMASSUNG
100
AcDbMText
 10
30.9856125889
 20
146.100553174
 30
0.0
 40
2.0
 41
0.0
 71
     1
 72
     1
  1
min.
  7
SLDTEXTSTYLE0
 11
0.6776832333626028
 21
-0.7353539523380614
 31
0.0
 73
     1
 44
1.0
  0
ENDBLK
  5
20B
330
209
100
AcDbEntity
  8
0
100
AcDbBlockEnd
  0
BLOCK
  5
217
330
216
100
AcDbEntity
  8
0
100
AcDbBlockBegin
  2
SW_CENTERMARKSYMBOL_0
 70
     0
 10
0.0
 20
0.0
 30
0.0
  3
SW_CENTERMARKSYMBOL_0
  1

  0
LINE
  5
219
330
216
100
AcDbEntity
  8
VERMASSUNG
 62
     0
100
AcDbLine
 10
0.0
 20
0.0
 30
0.0
 11
0.0
 21
2.5
 31
0.0
  0
LINE
  5
21A
330
216
100
AcDbEntity
  8
VERMASSUNG
 62
     0
100
AcDbLine
 10
0.0
 20
0.0
 30
0.0
 11
-2.5
 21
0.0
 31
0.0
  0
LINE
  5
21B
330
216
100
AcDbEntity
  8
VERMASSUNG
 62
     0
100
AcDbLine
 10
0.0
 20
0.0
 30
0.0
 11
0.0
 21
-2.5
 31
0.0
  0
LINE
  5
21C
330
216
100
AcDbEntity
  8
VERMASSUNG
 62
     0
100
AcDbLine
 10
0.0
 20
0.0
 30
0.0
 11
2.5
 21
0.0
 31
0.0
  0
LINE
  5
21D
330
216
100
AcDbEntity
  8
VERMASSUNG
 62
     0
100
AcDbLine
 10
0.0
 20
5.0
 30
0.0
 11
0.0
 21
34.0
 31
0.0
  0
LINE
  5
21E
330
216
100
AcDbEntity
  8
VERMASSUNG
 62
     0
100
AcDbLine
 10
-5.0
 20
0.0
 30
0.0
 11
-34.0
 21
0.0
 31
0.0
  0
LINE
  5
21F
330
216
100
AcDbEntity
  8
VERMASSUNG
 62
     0
100
AcDbLine
 10
0.0
 20
-5.0
 30
0.0
 11
0.0
 21
-34.0
 31
0.0
  0
LINE
  5
220
330
216
100
AcDbEntity
  8
VERMASSUNG
 62
     0
100
AcDbLine
 10
5.0
 20
0.0
 30
0.0
 11
34.0
 21
0.0
 31
0.0
  0
ENDBLK
  5
218
330
216
100
AcDbEntity
  8
0
100
AcDbBlockEnd
  0
ENDSEC
  0
SECTION
  2
ENTITIES
  0
CIRCLE
  5
77
330
1F
100
AcDbEntity
  8
VERMASSUNG
  6
CENTERX2
100
AcDbCircle
 10
60.959458
 20
109.4764790871
 30
0.0
 40
40.00000000000001
  0
MTEXT
  5
79
330
1F
100
AcDbEntity
  8
KOPF_DÜNN
100
AcDbMText
 10
13.8892156294
 20
23.8442973028
 30
0.0
 40
3.0
 41
0.0
 71
     1
 72
     1
  1
PS6.KCC.RLA.065
  7
SLDTEXTSTYLE0
 73
     1
 44
1.0
  0
MTEXT
  5
7A
330
1F
100
AcDbEntity
  8
VERMASSUNG
100
AcDbMText
 10
13.9329988022
 20
28.8834360957
 30
0.0
 40
3.0
 41
0.0
 71
     1
 72
     1
  1
Klemmhalter rechts_Turning tool right 95° /80°
  7
SLDTEXTSTYLE0
 73
     1
 44
1.0
  0
MTEXT
  5
7B
330
1F
100
AcDbEntity
  8
VERMASSUNG
100
AcDbMText
 10
98.8601118557
 20
13.8365368761
 30
0.0
 40
2.0
 41
0.0
 71
     1
 72
     1
  1
Datum: 27.04.2012
  7
SLDTEXTSTYLE0
 73
     1
 44
1.0
  0
MTEXT
  5
7C
330
1F
100
AcDbEntity
  8
VERMASSUNG
100
AcDbMText
 10
13.933048693
 20
18.0482802738
 30
0.0
 40
2.0
 41
0.0
 71
     1
 72
     1
  1
PSC ø63 / CC..12 04..
  7
SLDTEXTSTYLE0
 73
     1
 44
1.0
  0
MTEXT
  5
7D
330
1F
100
AcDbEntity
  8
VERMASSUNG
100
AcDbMText
 10
13.9808475933
 20
13.9090974274
 30
0.0
 40
2.0
 41
0.0
 71
     1
 72
     1
  1
Gewicht: 1283g
  7
SLDTEXTSTYLE0
 73
     1
 44
1.0
  0
LINE
  5
7E
330
1F
100
AcDbEntity
  8
0
  6
Continuous
 62
     7
370
    25
100
AcDbLine
 10
219.18239745
 20
136.0274448569
 30
0.0
 11
182.4497228154
 21
136.0274448569
 31
0.0
  0
LINE
  5
7F
330
1F
100
AcDbEntity
  8
0
  6
Continuous
 62
     7
370
    25
100
AcDbLine
 10
182.4497228154
 20
73.0274438436
 30
0.0
 11
216.4906963954
 21
73.0274438436
 31
0.0
  0
ARC
  5
80
330
1F
100
AcDbEntity
  8
0
  6
Continuous
 62
     7
370
    25
100
AcDbCircle
 10
182.4497227917
 20
73.5274443502
 30
0.0
 40
0.5
100
AcDbArc
 50
180.0
 51
270.0
  0
ARC
  5
81
330
1F
100
AcDbEntity
  8
0
  6
Continuous
 62
     7
370
    25
100
AcDbCircle
 10
182.4497227917
 20
135.5274443502
 30
0.0
 40
0.5
100
AcDbArc
 50
90.0
 51
180.0
  0
LWPOLYLINE
  5
82
330
1F
100
AcDbEntity
  8
0
  6
Continuous
 62
     7
370
    25
100
AcDbPolyline
 90
        3
 70
   128
 43
0.0
 10
181.7497227967
 20
81.9876238282
 10
181.8751777319
 20
81.9193224932
 10
181.9497227917
 20
81.8665835584
  0
LWPOLYLINE
  5
83
330
1F
100
AcDbEntity
  8
0
  6
Continuous
 62
     7
370
    25
100
AcDbPolyline
 90
        3
 70
   128
 43
0.0
 10
181.9497227917
 20
127.188305142
 10
181.8751777319
 20
127.1355662073
 10
181.7497227967
 20
127.0672648723
  0
LWPOLYLINE
  5
84
330
1F
100
AcDbEntity
  8
0
  6
Continuous
 62
     7
370
    25
100
AcDbPolyline
 90
        3
 70
   128
 43
0.0
 10
219.6941480289
 20
136.1683129842
 10
219.6353443215
 20
136.1359066839
 10
219.6216389785
 20
136.1290782268
  0
ARC
  5
85
330
1F
100
AcDbEntity
  8
0
  6
Continuous
 62
     7
370
    25
100
AcDbCircle
 10
202.9497227917
 20
118.1774443502
 30
0.0
 40
2.500000000000001
100
AcDbArc
 50
21.3713330904
 51
158.6286669096
  0
SPLINE
  5
86
330
1F
100
AcDbEntity
  8
0
  6
Continuous
 62
     7
370
    25
100
AcDbSpline
210
0.0
220
0.0
230
1.0
 70
    11
 71
     3
 72
    68
 73
    64
 74
     0
 42
0.000000001
 43
0.00000001
 40
0.0
 40
0.0
 40
0.0
 40
0.0
 40
0.0312499999999998
 40
0.0312499999999998
 40
0.0624999999999996
 40
0.0624999999999996
 40
0.0937499999999993
 40
0.0937499999999993
 40
0.1249999999999991
 40
0.1249999999999991
 40
0.1562499999999989
 40
0.1562499999999989
 40
0.1874999999999987
 40
0.1874999999999987
 40
0.2187499999999984
 40
0.2187499999999984
 40
0.2499999999999982
 40
0.2499999999999982
 40
0.281249999999998
 40
0.281249999999998
 40
0.3124999999999978
 40
0.3124999999999978
 40
0.3437499999999976
 40
0.3437499999999976
 40
0.3749999999999973
 40
0.3749999999999973
 40
0.4062499999999971
 40
0.4062499999999971
 40
0.4374999999999969
 40
0.4374999999999969
 40
0.4687499999999967
 40
0.4687499999999967
 40
0.4999999999999964
 40
0.4999999999999964
 40
0.5312499999999967
 40
0.5312499999999967
 40
0.5624999999999969
 40
0.5624999999999969
 40
0.5937499999999971
 40
0.5937499999999971
 40
0.6249999999999973
 40
0.6249999999999973
 40
0.6562499999999976
 40
0.6562499999999976
 40
0.6874999999999978
 40
0.6874999999999978
 40
0.718749999999998
 40
0.718749999999998
 40
0.7499999999999982
 40
0.7499999999999982
 40
0.7812499999999984
 40
0.7812499999999984
 40
0.8124999999999987
 40
0.8124999999999987
 40
0.8437499999999989
 40
0.8437499999999989
 40
0.8749999999999991
 40
0.8749999999999991
 40
0.9062499999999993
 40
0.9062499999999993
 40
0.9374999999999996
 40
0.9374999999999996
 40
1.0
 40
1.0
 40
1.0
 40
1.0
 10
205.9497227916851
 20
120.2774443502277
 30
0.0
 10
205.9497227916851
 20
120.1056987591645
 30
0.0
 10
205.9302521185848
 20
119.9359068934296
 30
0.0
 10
205.8539830924645
 20
119.6001681704966
 30
0.0
 10
205.7962509854502
 20
119.4324508258356
 30
0.0
 10
205.6456320744717
 20
119.1112368183237
 30
0.0
 10
205.5534786101615
 20
118.9581202222605
 30
0.0
 10
205.3357781019017
 20
118.6671433451819
 30
0.0
 10
205.2091377007663
 20
118.5288013373232
 30
0.0
 10
204.9325189945772
 20
118.2799565265395
 30
0.0
 10
204.7815640775698
 20
118.1678017368628
 30
0.0
 10
204.4536760493413
 20
117.9691626600407
 30
0.0
 10
204.2792270801275
 20
117.8845272683267
 30
0.0
 10
203.9182954773792
 20
117.7483149322422
 30
0.0
 10
203.7291437393699
 20
117.6957167712648
 30
0.0
 10
203.3418490541121
 20
117.6253237206213
 30
0.0
 10
203.1471275095629
 20
117.607874806086
 30
0.0
 10
202.7555892720481
 20
117.6076797271296
 30
0.0
 10
202.5567228754708
 20
117.6255044356155
 30
0.0
 10
202.1718826642447
 20
117.6954075649231
 30
0.0
 10
201.9848234128982
 20
117.7471009854123
 30
0.0
 10
201.621478695743
 20
117.8838816813904
 30
0.0
 10
201.4459354727228
 20
117.9691991619752
 30
0.0
 10
201.1209540464837
 20
118.1658046786177
 30
0.0
 10
200.9694411479313
 20
118.2777787688301
 30
0.0
 10
200.6892370498209
 20
118.5296807594357
 30
0.0
 10
200.5651329498445
 20
118.6654934526029
 30
0.0
 10
200.347824631085
 20
118.9553331395239
 30
0.0
 10
200.2538266302005
 20
119.1112085409695
 30
0.0
 10
200.1031799591285
 20
119.4324823394327
 30
0.0
 10
200.0463779290093
 20
119.5970483602543
 30
0.0
 10
199.9694939263665
 20
119.9336885888384
 30
0.0
 10
199.9497947040614
 20
120.1068943209299
 30
0.0
 10
199.9496512815901
 20
120.4460915913061
 30
0.0
 10
199.9685701405866
 20
120.6138039464339
 30
0.0
 10
200.0452621423244
 20
120.9454748777086
 30
0.0
 10
200.1028003099776
 20
121.1069019721117
 30
0.0
 10
200.2521647983287
 20
121.413075605741
 30
0.0
 10
200.3450771838639
 20
121.5601628082631
 30
0.0
 10
200.5641773117156
 20
121.8357021471176
 30
0.0
 10
200.6882106708818
 20
121.9619007284027
 30
0.0
 10
200.9645140160716
 20
122.1923136457112
 30
0.0
 10
201.1186623575693
 20
122.2973528042728
 30
0.0
 10
201.4445265961979
 20
122.4774939516781
 30
0.0
 10
201.6166876661889
 20
122.5534684109031
 30
0.0
 10
201.9796411428356
 20
122.6774732388691
 30
0.0
 10
202.1702828260547
 20
122.7249671762918
 30
0.0
 10
202.5537923313612
 20
122.7877218950028
 30
0.0
 10
202.7486853832531
 20
122.8037726866574
 30
0.0
 10
203.1450068957529
 20
122.8040836201819
 30
0.0
 10
203.3403697351619
 20
122.7882911120091
 30
0.0
 10
203.7239708122704
 20
122.7261041300035
 30
0.0
 10
203.9144631043062
 20
122.6789730471345
 30
0.0
 10
204.278029127707
 20
122.5554002255338
 30
0.0
 10
204.4503884804027
 20
122.479644884884
 30
0.0
 10
204.776509229071
 20
122.3000596680623
 30
0.0
 10
204.9309337122717
 20
122.1952301270375
 30
0.0
 10
205.2078032421466
 20
121.9651687624601
 30
0.0
 10
205.3320529881179
 20
121.839187348107
 30
0.0
 10
205.5515518560737
 20
121.5642480506484
 30
0.0
 10
205.6449496257798
 20
121.4170653065842
 30
0.0
 10
205.8699108604801
 20
120.9582650811519
 30
0.0
 10
205.9497227916852
 20
120.6209355323542
 30
0.0
 10
205.9497227916851
 20
120.2774443502277
 30
0.0
  0
SPLINE
  5
87
330
1F
100
AcDbEntity
  8
0
  6
Continuous
 62
     7
370
    25
100
AcDbSpline
210
0.0
220
0.0
230
1.0
 70
     8
 71
     3
 72
    12
 73
     8
 74
     0
 42
0.000000001
 43
0.00000001
 40
0.0
 40
0.0
 40
0.0
 40
0.0
 40
0.5000000000000029
 40
0.5000000000000029
 40
0.7500000000000014
 40
0.7500000000000014
 40
1.0
 40
1.0
 40
1.0
 40
1.0
 10
192.0444669033594
 20
114.436813670913
 30
0.0
 10
192.0751891452785
 20
114.3242578715037
 30
0.0
 10
192.1180263598136
 20
114.2115000117642
 30
0.0
 10
192.2174533840134
 20
114.0619591259678
 30
0.0
 10
192.2572055788301
 20
114.0146663942609
 30
0.0
 10
192.3552470356883
 20
113.9409301009395
 30
0.0
 10
192.4148030912758
 20
113.9155107815638
 30
0.0
 10
192.4774796052516
 20
113.9155107815638
 30
0.0
  0
LINE
  5
88
330
1F
100
AcDbEntity
  8
0
  6
Continuous
 62
     7
370
    25
100
AcDbLine
 10
192.4774797881
 20
113.9155111785
 30
0.0
 11
195.4219660038
 21
113.9155111785
 31
0.0
  0
SPLINE
  5
89
330
1F
100
AcDbEntity
  8
0
  6
Continuous
 62
     7
370
    25
100
AcDbSpline
210
0.0
220
0.0
230
1.0
 70
     8
 71
     3
 72
    12
 73
     8
 74
     0
 42
0.000000001
 43
0.00000001
 40
0.0
 40
0.0
 40
0.0
 40
0.0
 40
0.2500000000000014
 40
0.2500000000000014
 40
0.5000000000000028
 40
0.5000000000000028
 40
1.0
 40
1.0
 40
1.0
 40
1.0
 10
195.4219659781187
 20
113.9155107815637
 30
0.0
 10
195.4850460166121
 20
113.9155107815637
 30
0.0
 10
195.5441946387935
 20
113.9408751007787
 30
0.0
 10
195.6426671888625
 20
114.0150399611516
 30
0.0
 10
195.6817038008473
 20
114.0615603017057
 30
0.0
 10
195.7816002676263
 20
114.211702644551
 30
0.0
 10
195.8240211486929
 20
114.3233958515231
 30
0.0
 10
195.8549786800109
 20
114.4368136709129
 30
0.0
  0
ELLIPSE
  5
8A
330
1F
100
AcDbEntity
  8
0
  6
Continuous
 62
     7
370
    25
100
AcDbEllipse
 10
179.6025686023
 20
104.5274443502
 30
0.0
 11
14.75368316065604
 21
31.09325491558117
 31
0.0
210
0.0
220
0.0
230
1.0
 40
0.3419987131
 41
5.193281737408617
 42
6.124043104552319
  0
SPLINE
  5
8B
330
1F
100
AcDbEntity
  8
0
  6
Continuous
 62
     7
370
    25
100
AcDbSpline
210
0.0
220
0.0
230
1.0
 70
     8
 71
     3
 72
    12
 73
     8
 74
     0
 42
0.000000001
 43
0.00000001
 40
0.0
 40
0.0
 40
0.0
 40
0.0
 40
0.5000000000000009
 40
0.5000000000000009
 40
0.7500000000000004
 40
0.7500000000000004
 40
1.0
 40
1.0
 40
1.0
 40
1.0
 10
195.8549786800109
 20
134.428186810345
 30
0.0
 10
195.8242564380918
 20
134.4654887932981
 30
0.0
 10
195.7814192235567
 20
134.5021006253445
 30
0.0
 10
195.6819921993569
 20
134.5498654086297
 30
0.0
 10
195.6422400045402
 20
134.564822924112
 30
0.0
 10
195.544198547682
 20
134.5880128698812
 30
0.0
 10
195.4846424920945
 20
134.5959363091009
 30
0.0
 10
195.4219659781187
 20
134.5959363091009
 30
0.0
  0
LINE
  5
8C
330
1F
100
AcDbEntity
  8
0
  6
Continuous
 62
     7
370
    25
100
AcDbLine
 10
195.4219660038
 20
134.5959368671
 30
0.0
 11
192.4774797881
 21
134.5959368671
 31
0.0
  0
SPLINE
  5
8D
330
1F
100
AcDbEntity
  8
0
  6
Continuous
 62
     7
370
    25
100
AcDbSpline
210
0.0
220
0.0
230
1.0
 70
     8
 71
     3
 72
    12
 73
     8
 74
     0
 42
0.000000001
 43
0.00000001
 40
0.0
 40
0.0
 40
0.0
 40
0.0
 40
0.2500000000000014
 40
0.2500000000000014
 40
0.5000000000000029
 40
0.5000000000000029
 40
1.0
 40
1.0
 40
1.0
 40
1.0
 10
192.4774796052516
 20
134.5959363091009
 30
0.0
 10
192.4143995667582
 20
134.5959363091009
 30
0.0
 10
192.3552509445768
 20
134.5880303828885
 30
0.0
 10
192.2567783945077
 20
134.5647052214522
 30
0.0
 10
192.217741782523
 20
134.5499924316205
 30
0.0
 10
192.117845315744
 20
134.5020366308896
 30
0.0
 10
192.0754244346773
 20
134.4657744743095
 30
0.0
 10
192.0444669033594
 20
134.428186810345
 30
0.0
  0
ELLIPSE
  5
8E
330
1F
100
AcDbEntity
  8
0
  6
Continuous
 62
     7
370
    25
100
AcDbEllipse
 10
208.296876981
 20
104.5274443502
 30
0.0
 11
-14.75368316065607
 21
31.09325491558117
 31
0.0
210
0.0
220
0.0
230
1.0
 40
0.3419987131
 41
0.1591422026273044
 42
1.089903569770978
  0
SPLINE
  5
8F
330
1F
100
AcDbEntity
  8
0
  6
Continuous
 62
     7
370
    25
100
AcDbSpline
210
0.0
220
0.0
230
1.0
 70
     8
 71
     3
 72
    12
 73
     8
 74
     0
 42
0.000000001
 43
0.00000001
 40
0.0
 40
0.0
 40
0.0
 40
0.0
 40
0.5000000000000028
 40
0.5000000000000028
 40
0.7500000000000013
 40
0.7500000000000013
 40
1.0
 40
1.0
 40
1.0
 40
1.0
 10
192.0444669033594
 20
74.62670189011061
 30
0.0
 10
192.0756121013215
 20
74.58888636719043
 30
0.0
 10
192.1178863676559
 20
74.55281950910681
 30
0.0
 10
192.2178319014812
 20
74.50485944409553
 30
0.0
 10
192.2575622061853
 20
74.48999847019789
 30
0.0
 10
192.3544502561915
 20
74.46704732406674
 30
0.0
 10
192.414515497938
 20
74.45895239135471
 30
0.0
 10
192.4774796052516
 20
74.45895239135471
 30
0.0
  0
LINE
  5
90
330
1F
100
AcDbEntity
  8
0
  6
Continuous
 62
     7
370
    25
100
AcDbLine
 10
192.4774797881
 20
74.4589518334
 30
0.0
 11
195.4219660038
 21
74.4589518334
 31
0.0
  0
SPLINE
  5
91
330
1F
100
AcDbEntity
  8
0
  6
Continuous
 62
     7
370
    25
100
AcDbSpline
210
0.0
220
0.0
230
1.0
 70
     8
 71
     3
 72
    12
 73
     8
 74
     0
 42
0.000000001
 43
0.00000001
 40
0.0
 40
0.0
 40
0.0
 40
0.0
 40
0.25
 40
0.25
 40
0.5
 40
0.5
 40
1.0
 40
1.0
 40
1.0
 40
1.0
 10
195.4219659781187
 20
74.45895239135473
 30
0.0
 10
195.4850229330165
 20
74.45895239135473
 30
0.0
 10
195.5441530827621
 20
74.46685272243431
 30
0.0
 10
195.6426006332954
 20
74.49016347043934
 30
0.0
 10
195.6816328714834
 20
74.50486859672299
 30
0.0
 10
195.7815227559404
 20
74.55280212490963
 30
0.0
 10
195.8238217295497
 20
74.58887209767438
 30
0.0
 10
195.854978680011
 20
74.6267018901106
 30
0.0
  0
ELLIPSE
  5
92
330
1F
100
AcDbEntity
  8
0
  6
Continuous
 62
     7
370
    25
100
AcDbEllipse
 10
179.6025686023
 20
104.5274443502
 30
0.0
 11
-14.75368316065615
 21
31.09325491558117
 31
0.0
210
0.0
220
0.0
230
1.0
 40
0.3419987131
 41
3.300734856217126
 42
4.231496223360775
  0
SPLINE
  5
93
330
1F
100
AcDbEntity
  8
0
  6
Continuous
 62
     7
370
    25
100
AcDbSpline
210
0.0
220
0.0
230
1.0
 70
     8
 71
     3
 72
    12
 73
     8
 74
     0
 42
0.000000001
 43
0.00000001
 40
0.0
 40
0.0
 40
0.0
 40
0.0
 40
0.4999999999999991
 40
0.4999999999999991
 40
0.7499999999999996
 40
0.7499999999999996
 40
1.0
 40
1.0
 40
1.0
 40
1.0
 10
195.8549786800109
 20
94.6180750295425
 30
0.0
 10
195.8238334820488
 20
94.7321803954078
 30
0.0
 10
195.7815592157144
 20
94.84328672262657
 30
0.0
 10
195.6816136818891
 20
94.99344433005686
 30
0.0
 10
195.641883377185
 20
95.04043702167422
 30
0.0
 10
195.5449953271788
 20
95.11341260621273
 30
0.0
 10
195.4849300854322
 20
95.13937791889173
 30
0.0
 10
195.4219659781187
 20
95.13937791889174
 30
0.0
  0
LINE
  5
94
330
1F
100
AcDbEntity
  8
0
  6
Continuous
 62
     7
370
    25
100
AcDbLine
 10
195.4219660038
 20
95.139377522
 30
0.0
 11
192.4774797881
 21
95.139377522
 31
0.0
  0
SPLINE
  5
95
330
1F
100
AcDbEntity
  8
0
  6
Continuous
 62
     7
370
    25
100
AcDbSpline
210
0.0
220
0.0
230
1.0
 70
     8
 71
     3
 72
    12
 73
     8
 74
     0
 42
0.000000001
 43
0.00000001
 40
0.0
 40
0.0
 40
0.0
 40
0.0
 40
0.2499999999999996
 40
0.2499999999999996
 40
0.4999999999999991
 40
0.4999999999999991
 40
1.0
 40
1.0
 40
1.0
 40
1.0
 10
192.4774796052516
 20
95.13937791889163
 30
0.0
 10
192.4144226503538
 20
95.13937791889163
 30
0.0
 10
192.3552925006082
 20
95.11403156551093
 30
0.0
 10
192.2568449500749
 20
95.03991218337143
 30
0.0
 10
192.2178127118868
 20
94.99341566867342
 30
0.0
 10
192.1179228274299
 20
94.84334116166484
 30
0.0
 10
192.0756238538205
 20
94.73222345255
 30
0.0
 10
192.0444669033593
 20
94.61807502954251
 30
0.0
  0
ELLIPSE
  5
96
330
1F
100
AcDbEntity
  8
0
  6
Continuous
 62
     7
370
    25
100
AcDbEllipse
 10
208.296876981
 20
104.5274443502
 30
0.0
 11
14.75368316065618
 21
31.0932549155812
 31
0.0
210
0.0
220
0.0
230
1.0
 40
0.3419987131
 41
2.051689083818825
 42
2.982450450962499
  0
SPLINE
  5
97
330
1F
100
AcDbEntity
  8
0
  6
Continuous
 62
     7
370
    25
100
AcDbSpline
210
0.0
220
0.0
230
1.0
 70
     8
 71
     3
 72
    14
 73
    10
 74
     0
 42
0.000000001
 43
0.00000001
 40
0.0
 40
0.0
 40
0.0
 40
0.0
 40
0.25
 40
0.25
 40
0.5
 40
0.5
 40
0.75
 40
0.75
 40
1.0
 40
1.0
 40
1.0
 40
1.0
 10
215.7581297618244
 20
135.7532618728026
 30
0.0
 10
215.8751909033148
 20
135.8112834457296
 30
0.0
 10
216.0391455163228
 20
135.857330017178
 30
0.0
 10
216.4585394992258
 20
135.9306215001988
 30
0.0
 10
216.7175508309892
 20
135.9578512074987
 30
0.0
 10
217.3051737004744
 20
135.9963860335558
 30
0.0
 10
217.6362723923444
 20
136.0082311120509
 30
0.0
 10
218.3705753795454
 20
136.023004471031
 30
0.0
 10
218.7635427543768
 20
136.0258023137172
 30
0.0
 10
219.1823958037062
 20
136.0268805348013
 30
0.0
  0
ELLIPSE
  5
98
330
1F
100
AcDbEntity
  8
0
  6
Continuous
 62
     7
370
    25
100
AcDbEllipse
 10
216.869338034
 20
104.5274443502
 30
0.0
 11
0.0
 21
31.50000000000001
 31
0.0
210
0.0
220
0.0
230
1.0
 40
0.2679491924
 41
0.1320368298873492
 42
3.009555823702444
  0
SPLINE
  5
99
330
1F
100
AcDbEntity
  8
0
  6
Continuous
 62
     7
370
    25
100
AcDbSpline
210
0.0
220
0.0
230
1.0
 70
     8
 71
     3
 72
    10
 73
     6
 74
     0
 42
0.000000001
 43
0.00000001
 40
0.0
 40
0.0
 40
0.0
 40
0.0
 40
0.5
 40
0.5
 40
1.0
 40
1.0
 40
1.0
 40
1.0
 10
216.8340595124729
 20
73.09069899114304
 30
0.0
 10
216.5859915763478
 20
73.11075666417253
 30
0.0
 10
216.3684655174305
 20
73.13733910150852
 30
0.0
 10
216.0058771726619
 20
73.20710356339077
 30
0.0
 10
215.8628976145415
 20
73.24969844621562
 30
0.0
 10
215.7581297618244
 20
73.30162682765318
 30
0.0
  0
ELLIPSE
  5
9A
330
1F
100
AcDbEntity
  8
0
  6
Continuous
 62
     7
370
    25
100
AcDbEllipse
 10
238.5472323332
 20
104.5274443502
 30
0.0
 11
22.3359914001191
 21
31.42058670065007
 31
0.0
210
0.0
220
0.0
230
1.0
 40
0.1000778042
 41
3.21261542631958
 42
3.275999277030567
  0
ELLIPSE
  5
9B
330
1F
100
AcDbEntity
  8
0
  6
Continuous
 62
     7
370
    25
100
AcDbEllipse
 10
213.5963622878
 20
122.0923033099
 30
0.0
 11
0.3267812967788757
 21
3.437685688267635
 31
0.0
210
0.0
220
0.0
230
1.0
 40
0.2095444568
 41
0.0
 42
6.283185307179586
  0
LINE
  5
9C
330
1F
100
AcDbEntity
  8
0
  6
Continuous
 62
     7
370
    25
100
AcDbLine
 10
181.9497227917
 20
73.5274448569
 30
0.0
 11
181.9497227917
 21
135.5274438436
 31
0.0
  0
SPLINE
  5
9D
330
1F
100
AcDbEntity
  8
0
  6
Continuous
 62
     7
370
    25
100
AcDbSpline
210
0.0
220
0.0
230
1.0
 70
     8
 71
     3
 72
    12
 73
     8
 74
     0
 42
0.000000001
 43
0.00000001
 40
0.0
 40
0.0
 40
0.0
 40
0.0
 40
0.4999999999999997
 40
0.4999999999999997
 40
0.7499999999999998
 40
0.7499999999999998
 40
1.0
 40
1.0
 40
1.0
 40
1.0
 10
181.1332105052286
 20
82.67265064775204
 30
0.0
 10
181.1896470061358
 20
82.67123276641028
 30
0.0
 10
181.2587316368246
 20
82.66966843016199
 30
0.0
 10
181.3775339085425
 20
82.66672423818754
 30
0.0
 10
181.4177191840126
 20
82.66568603509015
 30
0.0
 10
181.4911002314164
 20
82.66375213987553
 30
0.0
 10
181.524509795159
 20
82.6628572525867
 30
0.0
 10
181.5547459028155
 20
82.66207346231437
 30
0.0
  0
SPLINE
  5
9E
330
1F
100
AcDbEntity
  8
0
  6
Continuous
 62
     7
370
    25
100
AcDbSpline
210
0.0
220
0.0
230
1.0
 70
     8
 71
     3
 72
    16
 73
    12
 74
     0
 42
0.000000001
 43
0.00000001
 40
0.0
 40
0.0
 40
0.0
 40
0.0
 40
0.0625000000000012
 40
0.0625000000000012
 40
0.1250000000000023
 40
0.1250000000000023
 40
0.2500000000000046
 40
0.2500000000000046
 40
0.5000000000000042
 40
0.5000000000000042
 40
1.0
 40
1.0
 40
1.0
 40
1.0
 10
181.5547459027783
 20
82.66207346233861
 30
0.0
 10
181.5663263103662
 20
82.66177327122728
 30
0.0
 10
181.5796358371275
 20
82.66044552296827
 30
0.0
 10
181.6089372672136
 20
82.65374684819326
 30
0.0
 10
181.6237513670979
 20
82.64838866508758
 30
0.0
 10
181.6595797688008
 20
82.63134301592024
 30
0.0
 10
181.6736993931638
 20
82.61988047814451
 30
0.0
 10
181.7082035372523
 20
82.58831715277226
 30
0.0
 10
181.7193080879569
 20
82.57041985372699
 30
0.0
 10
181.7454842651731
 20
82.52025843611274
 30
0.0
 10
181.7497227916851
 20
82.49251402391616
 30
0.0
 10
181.7497227916851
 20
82.46784986198662
 30
0.0
  0
LINE
  5
9F
330
1F
100
AcDbEntity
  8
0
  6
Continuous
 62
     7
370
    25
100
AcDbLine
 10
181.7497227967
 20
97.5055571223
 30
0.0
 11
181.7497227967
 21
81.9876238282
 31
0.0
  0
SPLINE
  5
A0
330
1F
100
AcDbEntity
  8
0
  6
Continuous
 62
     7
370
    25
100
AcDbSpline
210
0.0
220
0.0
230
1.0
 70
     8
 71
     3
 72
    16
 73
    12
 74
     0
 42
0.000000001
 43
0.00000001
 40
0.0
 40
0.0
 40
0.0
 40
0.0
 40
0.5000000000000006
 40
0.5000000000000006
 40
0.7500000000000009
 40
0.7500000000000009
 40
0.875000000000001
 40
0.875000000000001
 40
0.9375000000000004
 40
0.9375000000000004
 40
1.0
 40
1.0
 40
1.0
 40
1.0
 10
181.7497227916851
 20
97.50555702447782
 30
0.0
 10
181.7497227916851
 20
97.61924956860571
 30
0.0
 10
181.7455765166072
 20
97.7335697299552
 30
0.0
 10
181.7196109212137
 20
97.90661802045231
 30
0.0
 10
181.7081500158363
 20
97.96579352761403
 30
0.0
 10
181.6738382780619
 20
98.04891664708218
 30
0.0
 10
181.6598135421323
 20
98.07703796318285
 30
0.0
 10
181.6237905790985
 20
98.10565377716028
 30
0.0
 10
181.6090360700088
 20
98.11144682506203
 30
0.0
 10
181.5796839088619
 20
98.109853399125
 30
0.0
 10
181.5663440343578
 20
98.1033569958012
 30
0.0
 10
181.5547459028095
 20
98.09484124959808
 30
0.0
  0
SPLINE
  5
A1
330
1F
100
AcDbEntity
  8
0
  6
Continuous
 62
     7
370
    25
100
AcDbSpline
210
0.0
220
0.0
230
1.0
 70
     8
 71
     3
 72
    12
 73
     8
 74
     0
 42
0.000000001
 43
0.00000001
 40
0.0
 40
0.0
 40
0.0
 40
0.0
 40
0.2499999999999998
 40
0.2499999999999998
 40
0.4999999999999997
 40
0.4999999999999997
 40
1.0
 40
1.0
 40
1.0
 40
1.0
 10
181.5547459028166
 20
98.09484124958892
 30
0.0
 10
181.5245474613759
 20
98.07266851754387
 30
0.0
 10
181.49118010604
 20
98.05358886166663
 30
0.0
 10
181.41802483021
 20
98.0284158172239
 30
0.0
 10
181.3777721311861
 20
98.02285928080711
 30
0.0
 10
181.2600433879113
 20
98.03377109179387
 30
0.0
 10
181.1895849398523
 20
98.07570684720471
 30
0.0
 10
181.133210505234
 20
98.12491862958626
 30
0.0
  0
SPLINE
  5
A2
330
1F
100
AcDbEntity
  8
0
  6
Continuous
 62
     7
370
    25
100
AcDbSpline
210
0.0
220
0.0
230
1.0
 70
     8
 71
     3
 72
    12
 73
     8
 74
     0
 42
0.000000001
 43
0.00000001
 40
0.0
 40
0.0
 40
0.0
 40
0.0
 40
0.4999999999999984
 40
0.4999999999999984
 40
0.7499999999999992
 40
0.7499999999999992
 40
1.0
 40
1.0
 40
1.0
 40
1.0
 10
180.6284024481255
 20
99.34127002146683
 30
0.0
 10
180.6721528000099
 20
99.1208230364923
 30
0.0
 10
180.7250429511344
 20
98.90527804668672
 30
0.0
 10
180.8366544942761
 20
98.59286397011479
 30
0.0
 10
180.8792138381797
 20
98.49078449449891
 30
0.0
 10
180.9841910735171
 20
98.29634448185715
 30
0.0
 10
181.0457583166117
 20
98.20125958279348
 30
0.0
 10
181.133210505234
 20
98.1249186295863
 30
0.0
  0
SPLINE
  5
A3
330
1F
100
AcDbEntity
  8
0
  6
Continuous
 62
     7
370
    25
100
AcDbSpline
210
0.0
220
0.0
230
1.0
 70
     8
 71
     3
 72
    12
 73
     8
 74
     0
 42
0.000000001
 43
0.00000001
 40
0.0
 40
0.0
 40
0.0
 40
0.0
 40
0.2500000000000004
 40
0.2500000000000004
 40
0.5000000000000008
 40
0.5000000000000008
 40
1.0
 40
1.0
 40
1.0
 40
1.0
 10
181.133210505234
 20
110.9299700708694
 30
0.0
 10
181.0447170976661
 20
110.8527201907611
 30
0.0
 10
180.9846590569002
 20
110.7594008668719
 30
0.0
 10
180.8788107839176
 20
110.5633678139025
 30
0.0
 10
180.8362772626401
 20
110.4610414556907
 30
0.0
 10
180.7251259558165
 20
110.1496970499148
 30
0.0
 10
180.6721950987687
 20
109.9342787967368
 30
0.0
 10
180.6284024481255
 20
109.713618678989
 30
0.0
  0
SPLINE
  5
A4
330
1F
100
AcDbEntity
  8
0
  6
Continuous
 62
     7
370
    25
100
AcDbSpline
210
0.0
220
0.0
230
1.0
 70
     8
 71
     3
 72
    12
 73
     8
 74
     0
 42
0.000000001
 43
0.00000001
 40
0.0
 40
0.0
 40
0.0
 40
0.0
 40
0.4999999999999996
 40
0.4999999999999996
 40
0.7499999999999997
 40
0.7499999999999997
 40
1.0
 40
1.0
 40
1.0
 40
1.0
 10
181.1332105052339
 20
110.9299700708695
 30
0.0
 10
181.1895190535295
 20
110.9791243381133
 30
0.0
 10
181.2597937142476
 20
111.021081656717
 30
0.0
 10
181.3778316285712
 20
111.0320413342495
 30
0.0
 10
181.4180078694252
 20
111.0265325760022
 30
0.0
 10
181.4919649641031
 20
111.0009753472132
 30
0.0
 10
181.5245813518145
 20
110.9821952993739
 30
0.0
 10
181.5547459028103
 20
110.9600474508571
 30
0.0
  0
SPLINE
  5
A5
330
1F
100
AcDbEntity
  8
0
  6
Continuous
 62
     7
370
    25
100
AcDbSpline
210
0.0
220
0.0
230
1.0
 70
     8
 71
     3
 72
    16
 73
    12
 74
     0
 42
0.000000001
 43
0.00000001
 40
0.0
 40
0.0
 40
0.0
 40
0.0
 40
0.0625000000000008
 40
0.0625000000000008
 40
0.1250000000000016
 40
0.1250000000000016
 40
0.2499999999999999
 40
0.2499999999999999
 40
0.5
 40
0.5
 40
1.0
 40
1.0
 40
1.0
 40
1.0
 10
181.5547459027786
 20
110.9600474508026
 30
0.0
 10
181.5663588026179
 20
110.9515208612074
 30
0.0
 10
181.5797099870504
 20
110.9450205996746
 30
0.0
 10
181.6091098266696
 20
110.9434512025571
 30
0.0
 10
181.6239505512248
 20
110.9493345931877
 30
0.0
 10
181.6597837591934
 20
110.9778822292382
 30
0.0
 10
181.673896967015
 20
111.006049248544
 30
0.0
 10
181.7083883382339
 20
111.0898035069659
 30
0.0
 10
181.7194724093443
 20
111.1475169205874
 30
0.0
 10
181.7455952271403
 20
111.3211074572332
 30
0.0
 10
181.7497227916851
 20
111.4361355098752
 30
0.0
 10
181.7497227916852
 20
111.549331675978
 30
0.0
  0
LINE
  5
A6
330
1F
100
AcDbEntity
  8
0
  6
Continuous
 62
     7
370
    25
100
AcDbLine
 10
181.7497227967
 20
127.0672648723
 30
0.0
 11
181.7497227967
 21
111.5493315781
 31
0.0
  0
SPLINE
  5
A7
330
1F
100
AcDbEntity
  8
0
  6
Continuous
 62
     7
370
    25
100
AcDbSpline
210
0.0
220
0.0
230
1.0
 70
     8
 71
     3
 72
    16
 73
    12
 74
     0
 42
0.000000001
 43
0.00000001
 40
0.0
 40
0.0
 40
0.0
 40
0.0
 40
0.5000000000000049
 40
0.5000000000000049
 40
0.7500000000000036
 40
0.7500000000000036
 40
0.8750000000000044
 40
0.8750000000000044
 40
0.9375000000000022
 40
0.9375000000000022
 40
1.0
 40
1.0
 40
1.0
 40
1.0
 10
181.7497227916851
 20
126.5870388384692
 30
0.0
 10
181.7497227916851
 20
126.5623676824262
 30
0.0
 10
181.7455570932252
 20
126.534785851035
 30
0.0
 10
181.7192987649002
 20
126.4844429802117
 30
0.0
 10
181.7077949831626
 20
126.4661534821498
 30
0.0
 10
181.6736642238161
 20
126.4349984511127
 30
0.0
 10
181.6592423371454
 20
126.423359075901
 30
0.0
 10
181.6236753687076
 20
126.4064770499699
 30
0.0
 10
181.6087236004129
 20
126.4010879461623
 30
0.0
 10
181.5797197820531
 20
126.3944674502178
 30
0.0
 10
181.5663044280439
 20
126.3931148620114
 30
0.0
 10
181.5547459028073
 20
126.3928152381397
 30
0.0
  0
SPLINE
  5
A8
330
1F
100
AcDbEntity
  8
0
  6
Continuous
 62
     7
370
    25
100
AcDbSpline
210
0.0
220
0.0
230
1.0
 70
     8
 71
     3
 72
    12
 73
     8
 74
     0
 42
0.000000001
 43
0.00000001
 40
0.0
 40
0.0
 40
0.0
 40
0.0
 40
0.2500000000000002
 40
0.2500000000000002
 40
0.5000000000000003
 40
0.5000000000000003
 40
1.0
 40
1.0
 40
1.0
 40
1.0
 10
181.5547459028166
 20
126.3928152381415
 30
0.0
 10
181.5245581262669
 20
126.3920327007239
 30
0.0
 10
181.4912043221752
 20
126.3911393689054
 30
0.0
 10
181.4180781189793
 20
126.3892120601018
 30
0.0
 10
181.3778429159551
 20
126.3881725288891
 30
0.0
 10
181.260151285822
 20
126.3852546455418
 30
0.0
 10
181.189770612662
 20
126.3836590394716
 30
0.0
 10
181.1332105052313
 20
126.3822380527038
 30
0.0
  0
SPLINE
  5
A9
330
1F
100
AcDbEntity
  8
0
  6
Continuous
 62
     7
370
    25
100
AcDbSpline
210
0.0
220
0.0
230
1.0
 70
     8
 71
     3
 72
    16
 73
    12
 74
     0
 42
0.000000001
 43
0.00000001
 40
0.0
 40
0.0
 40
0.0
 40
0.0
 40
0.2499999999999998
 40
0.2499999999999998
 40
0.3749999999999998
 40
0.3749999999999998
 40
0.4999999999999999
 40
0.4999999999999999
 40
0.7499999999999999
 40
0.7499999999999999
 40
1.0
 40
1.0
 40
1.0
 40
1.0
 10
180.6284024481255
 20
109.713618678989
 30
0.0
 10
180.467169970641
 20
108.9012089037421
 30
0.0
 10
180.3466901310014
 20
108.0611306093574
 30
0.0
 10
180.2243096136881
 20
106.7598355599946
 30
0.0
 10
180.1933319532906
 20
106.3191545244099
 30
0.0
 10
180.1517182156627
 20
105.4233148834787
 30
0.0
 10
180.1414823027299
 20
104.9766567522763
 30
0.0
 10
180.1412939056737
 20
103.6413467951364
 30
0.0
 10
180.1814386083114
 20
102.7568514218288
 30
0.0
 10
180.3455923632509
 20
100.9996015338028
 30
0.0
 10
180.4671440136605
 20
100.1538105873897
 30
0.0
 10
180.6284024481255
 20
99.34127002146683
 30
0.0
  0
LINE
  5
AA
330
1F
100
AcDbEntity
  8
0
  6
Continuous
 62
     7
370
    25
100
AcDbLine
 10
179.7497228036
 20
111.0126224856
 30
0.0
 11
179.7497228036
 21
98.0422662149
 31
0.0
  0
LINE
  5
AB
330
1F
100
AcDbEntity
  8
0
  6
Continuous
 62
     7
370
    25
100
AcDbLine
 10
145.4497233281
 20
110.581754944
 30
0.0
 11
145.4497233281
 21
98.4731337565
 31
0.0
  0
LINE
  5
AC
330
1F
100
AcDbEntity
  8
0
  6
Continuous
 62
     7
370
    25
100
AcDbLine
 10
143.9497240136
 20
110.1487421008
 30
0.0
 11
143.9497240136
 21
98.9061465996
 31
0.0
  0
LINE
  5
AD
330
1F
100
AcDbEntity
  8
0
  6
Continuous
 62
     7
370
    25
100
AcDbLine
 10
145.4497233281
 20
83.3690806801
 30
0.0
 11
145.4497233281
 21
98.4731337565
 31
0.0
  0
LINE
  5
AE
330
1F
100
AcDbEntity
  8
0
  6
Continuous
 62
     7
370
    25
100
AcDbLine
 10
179.7497228036
 20
82.5073446656
 30
0.0
 11
179.7497228036
 21
98.0422662149
 31
0.0
  0
LINE
  5
AF
330
1F
100
AcDbEntity
  8
0
  6
Continuous
 62
     7
370
    25
100
AcDbLine
 10
145.4497233281
 20
83.3690806801
 30
0.0
 11
179.7497228036
 21
82.5073446656
 31
0.0
  0
ARC
  5
B0
330
1F
100
AcDbEntity
  8
0
  6
Continuous
 62
     7
370
    25
100
AcDbCircle
 10
179.9496597026
 20
82.5023224545
 30
0.0
 40
0.2000000000000059
100
AcDbArc
 50
88.5608333333
 51
178.5608333333
  0
LINE
  5
B1
330
1F
100
AcDbEntity
  8
0
  6
Continuous
 62
     7
370
    25
100
AcDbLine
 10
179.7497228036
 20
111.0126224856
 30
0.0
 11
179.7497228036
 21
126.5475440348
 31
0.0
  0
ARC
  5
B2
330
1F
100
AcDbEntity
  8
0
  6
Continuous
 62
     7
370
    25
100
AcDbCircle
 10
179.9496597026
 20
126.5525662459
 30
0.0
 40
0.2000000000000063
100
AcDbArc
 50
181.4391666667
 51
271.4391666667
  0
LINE
  5
B3
330
1F
100
AcDbEntity
  8
0
  6
Continuous
 62
     7
370
    25
100
AcDbLine
 10
145.4497233281
 20
110.581754944
 30
0.0
 11
145.4497233281
 21
125.6858080203
 31
0.0
  0
LINE
  5
B4
330
1F
100
AcDbEntity
  8
0
  6
Continuous
 62
     7
370
    25
100
AcDbLine
 10
145.4497233281
 20
125.6858080203
 30
0.0
 11
179.7497228036
 21
126.5475440348
 31
0.0
  0
LINE
  5
B5
330
1F
100
AcDbEntity
  8
0
  6
Continuous
 62
     7
370
    25
100
AcDbLine
 10
179.9546829207
 20
126.3526293958
 30
0.0
 11
181.1332105209
 21
126.3822380031
 31
0.0
  0
LINE
  5
B6
330
1F
100
AcDbEntity
  8
0
  6
Continuous
 62
     7
370
    25
100
AcDbLine
 10
179.9546829207
 20
82.7022593046
 30
0.0
 11
181.1332105209
 21
82.6726506973
 31
0.0
  0
LINE
  5
B7
330
1F
100
AcDbEntity
  8
0
  6
Continuous
 62
     7
370
    25
100
AcDbLine
 10
143.9497240136
 20
84.2351063664
 30
0.0
 11
145.4497233281
 21
83.3690806801
 31
0.0
  0
LINE
  5
B8
330
1F
100
AcDbEntity
  8
0
  6
Continuous
 62
     7
370
    25
100
AcDbLine
 10
143.9497240136
 20
84.2351063664
 30
0.0
 11
143.9497240136
 21
98.9061465996
 31
0.0
  0
LINE
  5
B9
330
1F
100
AcDbEntity
  8
0
  6
Continuous
 62
     7
370
    25
100
AcDbLine
 10
143.9497240136
 20
124.8197823341
 30
0.0
 11
145.4497233281
 21
125.6858080203
 31
0.0
  0
LINE
  5
BA
330
1F
100
AcDbEntity
  8
0
  6
Continuous
 62
     7
370
    25
100
AcDbLine
 10
143.9497240136
 20
110.1487421008
 30
0.0
 11
143.9497240136
 21
124.8197823341
 31
0.0
  0
SPLINE
  5
BB
330
1F
100
AcDbEntity
  8
0
  6
Continuous
 62
     7
370
    25
100
AcDbSpline
210
0.0
220
0.0
230
1.0
 70
     8
 71
     3
 72
    12
 73
     8
 74
     0
 42
0.000000001
 43
0.00000001
 40
0.0
 40
0.0
 40
0.0
 40
0.0
 40
0.2499999999999992
 40
0.2499999999999992
 40
0.4999999999999984
 40
0.4999999999999984
 40
1.0
 40
1.0
 40
1.0
 40
1.0
 10
219.1823958037062
 20
136.0268805348013
 30
0.0
 10
219.2869704927631
 20
136.0271497333539
 30
0.0
 10
219.3903324448023
 20
136.0433149393981
 30
0.0
 10
219.5939377082255
 20
136.1097956050309
 30
0.0
 10
219.6906639461891
 20
136.1593188258187
 30
0.0
 10
219.9544813469828
 20
136.3551570695787
 30
0.0
 10
220.0893867195332
 20
136.5484592642379
 30
0.0
 10
220.1483216299953
 20
136.7683506039536
 30
0.0
  0
SPLINE
  5
BC
330
1F
100
AcDbEntity
  8
0
  6
Continuous
 62
     7
370
    25
100
AcDbSpline
210
0.0
220
0.0
230
1.0
 70
     8
 71
     3
 72
     8
 73
     4
 74
     0
 42
0.000000001
 43
0.00000001
 40
0.0
 40
0.0
 40
0.0
 40
0.0
 40
1.0
 40
1.0
 40
1.0
 40
1.0
 10
220.1483216299953
 20
136.7683506039536
 30
0.0
 10
220.6163554997313
 20
138.5146261788499
 30
0.0
 10
221.0848774114703
 20
140.2626425685582
 30
0.0
 10
221.5536847195589
 20
142.0123112932281
 30
0.0
  0
ELLIPSE
  5
BD
330
1F
100
AcDbEntity
  8
0
  6
Continuous
 62
     7
370
    25
100
AcDbEllipse
 10
221.5536847196
 20
79.0379536076
 30
0.0
 11
5.969584085074757
 21
8.65461389368653
 31
0.0
210
0.0
220
0.0
230
1.0
 40
0.0697175754
 41
1.470062936571587
 42
2.375352856374725
  0
ARC
  5
BE
330
1F
100
AcDbEntity
  8
0
  6
Continuous
 62
     7
370
    25
100
AcDbCircle
 10
234.2042596777
 20
136.7819812363
 30
0.0
 40
2.100000000000024
100
AcDbArc
 50
115.8700037428
 51
334.1299962572
  0
LINE
  5
BF
330
1F
100
AcDbEntity
  8
0
  6
Continuous
 62
     7
370
    25
100
AcDbLine
 10
234.0998679648
 20
147.9516185398
 30
0.0
 11
222.88210618
 21
146.9701908107
 31
0.0
  0
LINE
  5
C0
330
1F
100
AcDbEntity
  8
0
  6
Continuous
 62
     7
370
    25
100
AcDbLine
 10
245.5250650892
 20
136.6908147509
 30
0.0
 11
243.3121085415
 21
111.396613768
 31
0.0
  0
LINE
  5
C1
330
1F
100
AcDbEntity
  8
0
  6
Continuous
 62
     7
370
    25
100
AcDbLine
 10
221.553686286
 20
142.0123099859
 30
0.0
 11
222.88210618
 21
146.9701908107
 31
0.0
  0
LINE
  5
C2
330
1F
100
AcDbEntity
  8
0
  6
Continuous
 62
     7
370
    25
100
AcDbLine
 10
243.3121085415
 20
111.396613768
 30
0.0
 11
221.553686286
 21
80.3223631854
 31
0.0
  0
CIRCLE
  5
C3
330
1F
100
AcDbEntity
  8
0
  6
Continuous
 62
     7
370
    25
100
AcDbCircle
 10
239.8145803026
 20
142.3923018612
 30
0.0
 40
3.500000000000014
  0
CIRCLE
  5
C4
330
1F
100
AcDbEntity
  8
0
  6
Continuous
 62
     7
370
    25
100
AcDbCircle
 10
239.8145803026
 20
142.3923018612
 30
0.0
 40
2.633974596215583
  0
CIRCLE
  5
C5
330
1F
100
AcDbEntity
  8
0
  6
Continuous
 62
     7
370
    25
100
AcDbCircle
 10
239.8145803026
 20
142.3923018612
 30
0.0
 40
2.000000000000007
  0
SPLINE
  5
C6
330
1F
100
AcDbEntity
  8
0
  6
Continuous
 62
     7
370
    25
100
AcDbSpline
210
0.0
220
0.0
230
1.0
 70
     8
 71
     3
 72
    15
 73
    11
 74
     0
 42
0.000000001
 43
0.00000001
 40
0.0
 40
0.0
 40
0.0
 40
0.0
 40
0.1262482171171783
 40
0.2533635118462352
 40
0.3794174781033905
 40
0.5042691702750073
 40
0.6284497993899636
 40
0.7526352363968395
 40
0.8774872977442468
 40
1.0
 40
1.0
 40
1.0
 40
1.0
 10
241.206332320942
 20
141.3984864528032
 30
0.0
 10
241.2505868053257
 20
141.3956268420869
 30
0.0
 10
241.3393997155943
 20
141.3898879807379
 30
0.0
 10
241.467244374489
 20
141.4380233865517
 30
0.0
 10
241.5720677607025
 20
141.5228233899623
 30
0.0
 10
241.6423444427246
 20
141.6376820089082
 30
0.0
 10
241.6708707459031
 20
141.7685446674144
 30
0.0
 10
241.6545111428086
 20
141.9005653159689
 30
0.0
 10
241.5978375739875
 20
142.0215474592678
 30
0.0
 10
241.5324814571548
 20
142.0787229870035
 30
0.0
 10
241.500112439169
 20
142.107040392861
 30
0.0
  0
SPLINE
  5
C7
330
1F
100
AcDbEntity
  8
0
  6
Continuous
 62
     7
370
    25
100
AcDbSpline
210
0.0
220
0.0
230
1.0
 70
     8
 71
     3
 72
    12
 73
     8
 74
     0
 42
0.000000001
 43
0.00000001
 40
0.0
 40
0.0
 40
0.0
 40
0.0
 40
0.2058753938762993
 40
0.4120995167612403
 40
0.6141674716073048
 40
0.8132908152546233
 40
1.0
 40
1.0
 40
1.0
 40
1.0
 10
241.500112439169
 20
142.107040392861
 30
0.0
 10
241.4421653034785
 20
142.1579466843833
 30
0.0
 10
241.3261728763791
 20
142.2598454967741
 30
0.0
 10
241.2276757335154
 20
142.4752829124861
 30
0.0
 10
241.2026150085425
 20
142.7048033528808
 30
0.0
 10
241.2488655459249
 20
142.926036303195
 30
0.0
 10
241.3300524773126
 20
143.0453039839271
 30
0.0
 10
241.3693398485318
 20
143.1030191058965
 30
0.0
  0
SPLINE
  5
C8
330
1F
100
AcDbEntity
  8
0
  6
Continuous
 62
     7
370
    25
100
AcDbSpline
210
0.0
220
0.0
230
1.0
 70
     8
 71
     3
 72
    15
 73
    11
 74
     0
 42
0.000000001
 43
0.00000001
 40
0.0
 40
0.0
 40
0.0
 40
0.0
 40
0.1268759933741828
 40
0.2539931942496628
 40
0.3800510132556614
 40
0.5048993820689719
 40
0.6290824236621745
 40
0.7532659167035457
 40
0.878120478130982
 40
1.0
 40
1.0
 40
1.0
 40
1.0
 10
241.3693398485318
 20
143.1030191058965
 30
0.0
 10
241.3940484905375
 20
143.1401137548293
 30
0.0
 10
241.4435127488398
 20
143.2143735743699
 30
0.0
 10
241.4655650267405
 20
143.3494238791183
 30
0.0
 10
241.4443031771548
 20
143.4825659497392
 30
0.0
 10
241.3797739374743
 20
143.6007488710038
 30
0.0
 10
241.2805560198604
 20
143.6907173747205
 30
0.0
 10
241.1579522825654
 20
143.7423515706983
 30
0.0
 10
241.0250541139513
 20
143.7535114298929
 30
0.0
 10
240.9430899069267
 20
143.7255357959264
 30
0.0
 10
240.9026019523278
 20
143.711716639504
 30
0.0
  0
SPLINE
  5
C9
330
1F
100
AcDbEntity
  8
0
  6
Continuous
 62
     7
370
    25
100
AcDbSpline
210
0.0
220
0.0
230
1.0
 70
     8
 71
     3
 72
    12
 73
     8
 74
     0
 42
0.000000001
 43
0.00000001
 40
0.0
 40
0.0
 40
0.0
 40
0.0
 40
0.2057952647167609
 40
0.4120003769981043
 40
0.6140533677626215
 40
0.8131799669856242
 40
1.0
 40
1.0
 40
1.0
 40
1.0
 10
240.9026019523278
 20
143.711716639504
 30
0.0
 10
240.8295704083505
 20
143.6869936255968
 30
0.0
 10
240.6833618758423
 20
143.637498361144
 30
0.0
 10
240.4475753171027
 20
143.6598769836837
 30
0.0
 10
240.236275635953
 20
143.7529008779126
 30
0.0
 10
240.0677503549273
 20
143.9035572219331
 30
0.0
 10
240.0050322384095
 20
144.0335362385809
 30
0.0
 10
239.9746731171742
 20
144.0964534456583
 30
0.0
  0
SPLINE
  5
CA
330
1F
100
AcDbEntity
  8
0
  6
Continuous
 62
     7
370
    25
100
AcDbSpline
210
0.0
220
0.0
230
1.0
 70
     8
 71
     3
 72
    15
 73
    11
 74
     0
 42
0.000000001
 43
0.00000001
 40
0.0
 40
0.0
 40
0.0
 40
0.0
 40
0.1268056001426788
 40
0.2539271703352028
 40
0.3799862808962164
 40
0.5048407937278429
 40
0.6290227954930868
 40
0.7532086687215039
 40
0.8780569745583895
 40
1.0
 40
1.0
 40
1.0
 40
1.0
 10
239.9746731171742
 20
144.0964534456583
 30
0.0
 10
239.9549165305334
 20
144.1363773102874
 30
0.0
 10
239.9153541284348
 20
144.2163245205267
 30
0.0
 10
239.8094557382016
 20
144.3029446099361
 30
0.0
 10
239.6835304985181
 20
144.3511353507328
 30
0.0
 10
239.5489142241389
 20
144.3543634577888
 30
0.0
 10
239.4213798796358
 20
144.3134463963444
 30
0.0
 10
239.3153480121759
 20
144.2331035442808
 30
0.0
 10
239.239202554945
 20
144.1235840862517
 30
0.0
 10
239.2224409633221
 20
144.0385925420034
 30
0.0
 10
239.2141588280335
 20
143.996597039208
 30
0.0
  0
SPLINE
  5
CB
330
1F
100
AcDbEntity
  8
0
  6
Continuous
 62
     7
370
    25
100
AcDbSpline
210
0.0
220
0.0
230
1.0
 70
     8
 71
     3
 72
    12
 73
     8
 74
     0
 42
0.000000001
 43
0.00000001
 40
0.0
 40
0.0
 40
0.0
 40
0.0
 40
0.2058501994178726
 40
0.4120530477848891
 40
0.6141075937882916
 40
0.8132422861798958
 40
1.0
 40
1.0
 40
1.0
 40
1.0
 10
239.2141588280335
 20
143.996597039208
 30
0.0
 10
239.1990469841836
 20
143.9209677869459
 30
0.0
 10
239.1687974078723
 20
143.7695797193879
 30
0.0
 10
239.0314968107721
 20
143.5765635337794
 30
0.0
 10
238.8452706862501
 20
143.4401000514989
 30
0.0
 10
238.6305468011915
 20
143.3695109054616
 30
0.0
 10
238.48664299908
 20
143.3801878731521
 30
0.0
 10
238.4169988582268
 20
143.3853551323267
 30
0.0
  0
SPLINE
  5
CC
330
1F
100
AcDbEntity
  8
0
  6
Continuous
 62
     7
370
    25
100
AcDbSpline
210
0.0
220
0.0
230
1.0
 70
     8
 71
     3
 72
    15
 73
    11
 74
     0
 42
0.000000001
 43
0.00000001
 40
0.0
 40
0.0
 40
0.0
 40
0.0
 40
0.1262556316838258
 40
0.2533811320469186
 40
0.3794440069187014
 40
0.5043004035245277
 40
0.6284820318649662
 40
0.7526628959487522
 40
0.8775094306965063
 40
1.0
 40
1.0
 40
1.0
 40
1.0
 10
238.4169988582268
 20
143.3853551323267
 30
0.0
 10
238.3727433639176
 20
143.3882112076914
 30
0.0
 10
238.2839274663785
 20
143.3939430360422
 30
0.0
 10
238.1560742026213
 20
143.345814885144
 30
0.0
 10
238.0512536557628
 20
143.2609995493551
 30
0.0
 10
237.9809790253485
 20
143.1461351085055
 30
0.0
 10
237.9524608703846
 20
143.0152687665691
 30
0.0
 10
237.9688268732981
 20
142.8832499044478
 30
0.0
 10
238.025507133485
 20
142.7622809106445
 30
0.0
 10
238.0908581846134
 20
142.7051129172211
 30
0.0
 10
238.1232224652901
 20
142.6768011922689
 30
0.0
  0
SPLINE
  5
CD
330
1F
100
AcDbEntity
  8
0
  6
Continuous
 62
     7
370
    25
100
AcDbSpline
210
0.0
220
0.0
230
1.0
 70
     8
 71
     3
 72
    12
 73
     8
 74
     0
 42
0.000000001
 43
0.00000001
 40
0.0
 40
0.0
 40
0.0
 40
0.0
 40
0.2058719667221752
 40
0.4120934231985335
 40
0.6141663199962939
 40
0.8133066858707452
 40
1.0
 40
1.0
 40
1.0
 40
1.0
 10
238.1232224652901
 20
142.6768011922689
 30
0.0
 10
238.1811680222736
 20
142.6258945409905
 30
0.0
 10
238.2971575050413
 20
142.5239948189306
 30
0.0
 10
238.3956572911142
 20
142.3085594742056
 30
0.0
 10
238.4207155769261
 20
142.0790342941867
 30
0.0
 10
238.3744674163996
 20
141.8577978354054
 30
0.0
 10
238.2932794642924
 20
141.7385292402404
 30
0.0
 10
238.2539950559273
 20
141.680818753943
 30
0.0
  0
SPLINE
  5
CE
330
1F
100
AcDbEntity
  8
0
  6
Continuous
 62
     7
370
    25
100
AcDbSpline
210
0.0
220
0.0
230
1.0
 70
     8
 71
     3
 72
    15
 73
    11
 74
     0
 42
0.000000001
 43
0.00000001
 40
0.0
 40
0.0
 40
0.0
 40
0.0
 40
0.1268705253263895
 40
0.2539816148297669
 40
0.3800291300312084
 40
0.5048729906823964
 40
0.6290511902762322
 40
0.7532407978656592
 40
0.8780955447717801
 40
1.0
 40
1.0
 40
1.0
 40
1.0
 10
238.2539950559273
 20
141.680818753943
 30
0.0
 10
238.2292862850253
 20
141.6437254074825
 30
0.0
 10
238.1798218919521
 20
141.5694683804131
 30
0.0
 10
238.1577717366231
 20
141.4344229005264
 30
0.0
 10
238.1790250272328
 20
141.3012854714821
 30
0.0
 10
238.2435457220656
 20
141.1831033874174
 30
0.0
 10
238.3427606173643
 20
141.0931349733821
 30
0.0
 10
238.4653575707129
 20
141.0414896760869
 30
0.0
 10
238.5982633279919
 20
141.030321929033
 30
0.0
 10
238.6802339450711
 20
141.0582996251406
 30
0.0
 10
238.720729226841
 20
141.0721212203356
 30
0.0
  0
SPLINE
  5
CF
330
1F
100
AcDbEntity
  8
0
  6
Continuous
 62
     7
370
    25
100
AcDbSpline
210
0.0
220
0.0
230
1.0
 70
     8
 71
     3
 72
    12
 73
     8
 74
     0
 42
0.000000001
 43
0.00000001
 40
0.0
 40
0.0
 40
0.0
 40
0.0
 40
0.2058332546066335
 40
0.4120740569919119
 40
0.6141699051277784
 40
0.8133003374518543
 40
1.0
 40
1.0
 40
1.0
 40
1.0
 10
238.720729226841
 20
141.0721212203356
 30
0.0
 10
238.7937720665187
 20
141.0968471434441
 30
0.0
 10
238.9400023699636
 20
141.1463479467407
 30
0.0
 10
239.1758216045474
 20
141.1239485614316
 30
0.0
 10
239.3871438305673
 20
141.0308906582779
 30
0.0
 10
239.555624425242
 20
140.8802095531441
 30
0.0
 10
239.6183226758717
 20
140.7502639202831
 30
0.0
 10
239.6486617872849
 20
140.6873844141813
 30
0.0
  0
SPLINE
  5
D0
330
1F
100
AcDbEntity
  8
0
  6
Continuous
 62
     7
370
    25
100
AcDbSpline
210
0.0
220
0.0
230
1.0
 70
     8
 71
     3
 72
    15
 73
    11
 74
     0
 42
0.000000001
 43
0.00000001
 40
0.0
 40
0.0
 40
0.0
 40
0.0
 40
0.1267851502132503
 40
0.2538926349195736
 40
0.3799388779305967
 40
0.5047817123311945
 40
0.6289609459634273
 40
0.7531480949245111
 40
0.8780089870922689
 40
0.9999999999999999
 40
0.9999999999999999
 40
0.9999999999999999
 40
0.9999999999999999
 10
239.6486617872849
 20
140.6873844141813
 30
0.0
 10
239.6684151214417
 20
140.6474648816924
 30
0.0
 10
239.7079720099975
 20
140.5675243265776
 30
0.0
 10
239.8138571895691
 20
140.4809039645102
 30
0.0
 10
239.9397717187055
 20
140.432712771343
 30
0.0
 10
240.0743786876448
 20
140.4294668554668
 30
0.0
 10
240.2019110974558
 20
140.4703705199893
 30
0.0
 10
240.3079514948896
 20
140.5506995257743
 30
0.0
 10
240.3841221604912
 20
140.6602218003719
 30
0.0
 10
240.4008897506399
 20
140.7452305821681
 30
0.0
 10
240.4091760764256
 20
140.7872408206316
 30
0.0
  0
SPLINE
  5
D1
330
1F
100
AcDbEntity
  8
0
  6
Continuous
 62
     7
370
    25
100
AcDbSpline
210
0.0
220
0.0
230
1.0
 70
     8
 71
     3
 72
    12
 73
     8
 74
     0
 42
0.000000001
 43
0.00000001
 40
0.0
 40
0.0
 40
0.0
 40
0.0
 40
0.2058918704372778
 40
0.4121356524079727
 40
0.6142263712988025
 40
0.8133495505874677
 40
1.0
 40
1.0
 40
1.0
 40
1.0
 10
240.4091760764256
 20
140.7872408206316
 30
0.0
 10
240.4242896720218
 20
140.862882289918
 30
0.0
 10
240.4545426954561
 20
141.0142945153123
 30
0.0
 10
240.5918824550357
 20
141.2073268188393
 30
0.0
 10
240.7781476772032
 20
141.3437855245735
 30
0.0
 10
240.9928634738221
 20
141.4143284103039
 30
0.0
 10
241.1367264853842
 20
141.4036520434905
 30
0.0
 10
241.206332320942
 20
141.3984864528032
 30
0.0
  0
ARC
  5
D2
330
1F
100
AcDbEntity
  8
0
  6
Continuous
 62
     7
370
    25
100
AcDbCircle
 10
203.3351754004
 20
119.6923119244
 30
0.0
 40
2.623889585043738
100
AcDbArc
 50
6.3921027929
 51
70.9688119992
  0
ARC
  5
D3
330
1F
100
AcDbEntity
  8
0
  6
Continuous
 62
     7
370
    25
100
AcDbCircle
 10
202.9223468554
 20
119.4213311962
 30
0.0
 40
3.029754230191743
100
AcDbArc
 50
65.2500488623
 51
167.2078926449
  0
ARC
  5
D4
330
1F
100
AcDbEntity
  8
0
  6
Continuous
 62
     7
370
    25
100
AcDbCircle
 10
203.4375980648
 20
119.8762383396
 30
0.0
 40
2.360861177086836
100
AcDbArc
 50
342.4047691535
 51
72.8726020564
  0
LWPOLYLINE
  5
D5
330
1F
100
AcDbEntity
  8
0
  6
Continuous
 62
     7
370
    25
100
AcDbPolyline
 90
       11
 70
   128
 43
0.0
 10
200.1667723308
 20
119.3063992585
 10
200.1031946639
 20
119.6373223836
 10
200.1159798602
 20
120.2123023147
 10
200.2815336237
 20
120.7692276264
 10
200.5909301589
 20
121.2780780668
 10
201.027491341
 20
121.7114205981
 10
201.5676789234
 20
122.0458920623
 10
202.1823723117
 20
122.2634620542
 10
202.8384350488
 20
122.3524014975
 10
203.5004955033
 20
122.3079140807
 10
204.1328653941
 20
122.1324007536
  0
LWPOLYLINE
  5
D6
330
1F
100
AcDbEntity
  8
0
  6
Continuous
 62
     7
370
    25
100
AcDbPolyline
 90
       27
 70
   128
 43
0.0
 10
203.9839376012
 20
121.8485597099
 10
204.4985790054
 20
121.576939481
 10
204.9232080827
 20
121.2065487678
 10
205.2331429223
 20
120.7589160229
 10
205.4103754709
 20
120.2600549484
 10
205.4446034382
 20
119.7389585475
 10
205.3338375191
 20
119.225909705
 10
205.0845150153
 20
118.7507265757
 10
204.711127306
 20
118.3410228739
 10
204.2353723446
 20
118.0206115867
 10
203.6849010984
 20
117.8081126461
 10
203.0917026351
 20
117.7158753897
 10
202.4902545164
 20
117.74926051
 10
201.9155074159
 20
117.9063280622
 10
201.4008660118
 20
118.1779501538
 10
200.9762387971
 20
118.5483399356
 10
200.6663020948
 20
118.9959726806
 10
200.4890695462
 20
119.494833755
 10
200.454841579
 20
120.0159301559
 10
200.5656074981
 20
120.5289780671
 10
200.8149300019
 20
121.0041630591
 10
201.1883177111
 20
121.4138648982
 10
201.6640726725
 20
121.7342771168
 10
202.2145439187
 20
121.9467769886
 10
202.8077423821
 20
122.0390133138
 10
203.4091923634
 20
122.0056272621
 10
203.9839376012
 20
121.8485597099
  0
LINE
  5
D7
330
1F
100
AcDbEntity
  8
0
  6
Continuous
 62
     7
370
    25
100
AcDbLine
 10
233.493837739
 20
135.6382190759
 30
0.0
 11
245.5314353356
 21
136.6913698191
 31
0.0
  0
ARC
  5
D8
330
1F
100
AcDbEntity
  8
0
  6
Continuous
 62
     7
370
    25
100
AcDbCircle
 10
233.4589746669
 20
136.0366962255
 30
0.0
 40
0.4000000000000102
100
AcDbArc
 50
175.0
 51
275.0
  0
LINE
  5
D9
330
1F
100
AcDbEntity
  8
0
  6
Continuous
 62
     7
370
    25
100
AcDbLine
 10
234.1136515389
 20
148.1091536159
 30
0.0
 11
233.0604970703
 21
136.0715597446
 31
0.0
  0
ARC
  5
DA
330
1F
100
AcDbEntity
  8
0
  6
Continuous
 62
     7
370
    25
100
AcDbCircle
 10
234.5121277676
 20
148.0742912495
 30
0.0
 40
0.4000000000000102
100
AcDbArc
 50
95.0
 51
175.0
  0
LINE
  5
DB
330
1F
100
AcDbEntity
  8
0
  6
Continuous
 62
     7
370
    25
100
AcDbLine
 10
246.5148598204
 20
149.5259224946
 30
0.0
 11
234.477265949
 21
148.4727680261
 31
0.0
  0
ARC
  5
DC
330
1F
100
AcDbEntity
  8
0
  6
Continuous
 62
     7
370
    25
100
AcDbCircle
 10
246.5497227917
 20
149.1274443502
 30
0.0
 40
0.4000000000000385
100
AcDbArc
 50
355.0
 51
95.0
  0
LINE
  5
DD
330
1F
100
AcDbEntity
  8
0
  6
Continuous
 62
     7
370
    25
100
AcDbLine
 10
245.8950460205
 20
137.0549879546
 30
0.0
 11
246.9482004891
 21
149.092581826
 31
0.0
  0
ARC
  5
DE
330
1F
100
AcDbEntity
  8
0
  6
Continuous
 62
     7
370
    25
100
AcDbCircle
 10
245.496569691
 20
137.0898493262
 30
0.0
 40
0.4000000000000127
100
AcDbArc
 50
275.0
 51
355.0
  0
ARC
  5
DF
330
1F
100
AcDbEntity
  8
0
  6
Continuous
 62
     7
370
    25
100
AcDbCircle
 10
246.5497227917
 20
149.1274443502
 30
0.0
 40
0.3800000000000312
100
AcDbArc
 50
355.0
 51
95.0
  0
LINE
  5
E0
330
1F
100
AcDbEntity
  8
0
  6
Continuous
 62
     7
370
    25
100
AcDbLine
 10
246.5166032562
 20
149.5059996421
 30
0.0
 11
234.4790093849
 21
148.4528451736
 31
0.0
  0
ARC
  5
E1
330
1F
100
AcDbEntity
  8
0
  6
Continuous
 62
     7
370
    25
100
AcDbCircle
 10
234.5121277676
 20
148.0742912495
 30
0.0
 40
0.3799999999999979
100
AcDbArc
 50
95.0
 51
175.0
  0
LINE
  5
E2
330
1F
100
AcDbEntity
  8
0
  6
Continuous
 62
     7
370
    25
100
AcDbLine
 10
234.1335743914
 20
148.1074101801
 30
0.0
 11
233.0804199228
 21
136.0698163087
 31
0.0
  0
ARC
  5
E3
330
1F
100
AcDbEntity
  8
0
  6
Continuous
 62
     7
370
    25
100
AcDbCircle
 10
233.4589746669
 20
136.0366962255
 30
0.0
 40
0.3800000000000263
100
AcDbArc
 50
175.0
 51
275.0
  0
LINE
  5
E4
330
1F
100
AcDbEntity
  8
0
  6
Continuous
 62
     7
370
    25
100
AcDbLine
 10
233.4920943031
 20
135.6581419284
 30
0.0
 11
245.5296918998
 21
136.711296397
 31
0.0
  0
ARC
  5
E5
330
1F
100
AcDbEntity
  8
0
  6
Continuous
 62
     7
370
    25
100
AcDbCircle
 10
245.496569691
 20
137.0898493262
 30
0.0
 40
0.3800000000000004
100
AcDbArc
 50
275.0
 51
355.0
  0
LINE
  5
E6
330
1F
100
AcDbEntity
  8
0
  6
Continuous
 62
     7
370
    25
100
AcDbLine
 10
245.875123168
 20
137.0567313905
 30
0.0
 11
246.9282776365
 21
149.0943252618
 31
0.0
  0
LINE
  5
E7
330
1F
100
AcDbEntity
  8
0
  6
Continuous
 62
     7
370
    25
100
AcDbLine
 10
246.549721087
 20
149.1274430926
 30
0.0
 11
246.9282776365
 21
149.0943252618
 31
0.0
  0
LINE
  5
E8
330
1F
100
AcDbEntity
  8
0
  6
Continuous
 62
     7
370
    25
100
AcDbLine
 10
245.4965666185
 20
137.0898492212
 30
0.0
 11
245.875123168
 21
137.0567313905
 31
0.0
  0
LINE
  5
E9
330
1F
100
AcDbEntity
  8
0
  6
Continuous
 62
     7
370
    25
100
AcDbLine
 10
244.9228719125
 20
137.6635439272
 30
0.0
 11
245.4965666185
 21
137.0898492212
 31
0.0
  0
LINE
  5
EA
330
1F
100
AcDbEntity
  8
0
  6
Continuous
 62
     7
370
    25
100
AcDbLine
 10
245.6307217727
 20
148.2084437783
 30
0.0
 11
246.549721087
 21
149.1274430926
 31
0.0
  0
LINE
  5
EB
330
1F
100
AcDbEntity
  8
0
  6
Continuous
 62
     7
370
    25
100
AcDbLine
 10
246.549721087
 20
149.1274430926
 30
0.0
 11
246.5166032562
 21
149.5059996421
 31
0.0
  0
LINE
  5
EC
330
1F
100
AcDbEntity
  8
0
  6
Continuous
 62
     7
370
    25
100
AcDbLine
 10
234.5121272156
 20
148.0742923493
 30
0.0
 11
234.4790093849
 21
148.4528451736
 31
0.0
  0
LINE
  5
ED
330
1F
100
AcDbEntity
  8
0
  6
Continuous
 62
     7
370
    25
100
AcDbLine
 10
235.0858219216
 20
147.5005976434
 30
0.0
 11
234.5121272156
 21
148.0742923493
 31
0.0
  0
LINE
  5
EE
330
1F
100
AcDbEntity
  8
0
  6
Continuous
 62
     7
370
    25
100
AcDbLine
 10
245.4965666185
 20
137.0898492212
 30
0.0
 11
245.5296918998
 21
136.711296397
 31
0.0
  0
LINE
  5
EF
330
1F
100
AcDbEntity
  8
0
  6
Continuous
 62
     7
370
    25
100
AcDbLine
 10
233.4589764724
 20
136.0366947527
 30
0.0
 11
233.4920943031
 21
135.6581419284
 31
0.0
  0
LINE
  5
F0
330
1F
100
AcDbEntity
  8
0
  6
Continuous
 62
     7
370
    25
100
AcDbLine
 10
234.3779757867
 20
136.9556977923
 30
0.0
 11
233.4589764724
 21
136.0366947527
 31
0.0
  0
ARC
  5
F1
330
1F
100
AcDbEntity
  8
0
  6
Continuous
 62
     7
370
    25
100
AcDbCircle
 10
243.6675580785
 20
146.245279637
 30
0.0
 40
1.000000000295356
100
AcDbArc
 50
355.0
 51
95.0
  0
LINE
  5
F2
330
1F
100
AcDbEntity
  8
0
  6
Continuous
 62
     7
370
    25
100
AcDbLine
 10
244.0743401895
 20
139.4211172635
 30
0.0
 11
244.6637556205
 21
146.1581222291
 31
0.0
  0
ARC
  5
F3
330
1F
100
AcDbEntity
  8
0
  6
Continuous
 62
     7
370
    25
100
AcDbCircle
 10
243.0781463431
 20
139.508272674
 30
0.0
 40
1.000000000000012
100
AcDbArc
 50
275.0
 51
355.0
  0
LINE
  5
F4
330
1F
100
AcDbEntity
  8
0
  6
Continuous
 62
     7
370
    25
100
AcDbLine
 10
236.4282936106
 20
137.9226676698
 30
0.0
 11
243.1653023014
 21
138.5120793755
 31
0.0
  0
ARC
  5
F5
330
1F
100
AcDbEntity
  8
0
  6
Continuous
 62
     7
370
    25
100
AcDbCircle
 10
236.3411393801
 20
138.9188609387
 30
0.0
 40
1.00000000000001
100
AcDbArc
 50
175.0
 51
275.0
  0
LINE
  5
F6
330
1F
100
AcDbEntity
  8
0
  6
Continuous
 62
     7
370
    25
100
AcDbLine
 10
235.9343573699
 20
145.743024307
 30
0.0
 11
235.3449456642
 21
139.0060156162
 31
0.0
  0
ARC
  5
F7
330
1F
100
AcDbEntity
  8
0
  6
Continuous
 62
     7
370
    25
100
AcDbCircle
 10
236.9305511155
 20
145.6558679017
 30
0.0
 40
1.000000000000012
100
AcDbArc
 50
95.0
 51
175.0
  0
LINE
  5
F8
330
1F
100
AcDbEntity
  8
0
  6
Continuous
 62
     7
370
    25
100
AcDbLine
 10
243.5804039488
 20
147.2414739008
 30
0.0
 11
236.843395258
 21
146.652062195
 31
0.0
  0
CIRCLE
  5
F9
330
1F
100
AcDbEntity
  8
0
  6
Continuous
 62
     7
370
    25
100
AcDbCircle
 10
240.0043487293
 20
142.5820702879
 30
0.0
 40
3.799999999999994
  0
LINE
  5
FA
330
1F
100
AcDbEntity
  8
0
  6
Continuous
 62
     7
370
    25
100
AcDbLine
 10
233.4589764724
 20
136.0366947527
 30
0.0
 11
233.0804199228
 21
136.0698163087
 31
0.0
  0
LINE
  5
FB
330
1F
100
AcDbEntity
  8
0
  6
Continuous
 62
     7
370
    25
100
AcDbLine
 10
234.5121272156
 20
148.0742923493
 30
0.0
 11
234.1335743914
 21
148.1074101801
 31
0.0
  0
SPLINE
  5
FC
330
1F
100
AcDbEntity
  8
0
  6
Continuous
 62
     7
370
    25
100
AcDbSpline
210
0.0
220
0.0
230
1.0
 70
     8
 71
     3
 72
    11
 73
     7
 74
     0
 42
0.000000001
 43
0.00000001
 40
0.0
 40
0.0
 40
0.0
 40
0.0
 40
0.0081159195561598
 40
0.3263638873338464
 40
0.662771709267244
 40
0.9999999999999999
 40
0.9999999999999999
 40
0.9999999999999999
 40
0.9999999999999999
 10
244.432221377863
 20
138.1541981870981
 30
0.0
 10
244.4334138912903
 20
138.1530056745708
 30
0.0
 10
244.4813682007349
 20
138.1050514013168
 30
0.0
 10
244.5868431664925
 20
137.9995676426407
 30
0.0
 10
244.7583029685948
 20
137.8281253887237
 30
0.0
 10
244.867971073694
 20
137.7184489419126
 30
0.0
 10
244.9228719124928
 20
137.663543927178
 30
0.0
  0
SPLINE
  5
FD
330
1F
100
AcDbEntity
  8
0
  6
Continuous
 62
     7
370
    25
100
AcDbSpline
210
0.0
220
0.0
230
1.0
 70
     8
 71
     3
 72
    11
 73
     7
 74
     0
 42
0.000000001
 43
0.00000001
 40
0.0
 40
0.0
 40
0.0
 40
0.0
 40
0.0076290132672219
 40
0.3209867748663086
 40
0.6632186348042522
 40
1.0
 40
1.0
 40
1.0
 40
1.0
 10
245.1417923221722
 20
147.7195180530401
 30
0.0
 10
245.142909282887
 20
147.7206324958429
 30
0.0
 10
245.1899048254215
 20
147.767522098536
 30
0.0
 10
245.2938796521709
 20
147.871655344559
 30
0.0
 10
245.4633649254982
 20
148.0410676492924
 30
0.0
 10
245.575235488344
 20
148.1529511011476
 30
0.0
 10
245.6307217726841
 20
148.2084437782617
 30
0.0
  0
SPLINE
  5
FE
330
1F
100
AcDbEntity
  8
0
  6
Continuous
 62
     7
370
    25
100
AcDbSpline
210
0.0
220
0.0
230
1.0
 70
     8
 71
     3
 72
    11
 73
     7
 74
     0
 42
0.000000001
 43
0.00000001
 40
0.0
 40
0.0
 40
0.0
 40
0.0
 40
0.33723317197732
 40
0.6736314657592386
 40
0.9918841341606817
 40
1.0
 40
1.0
 40
1.0
 40
1.0
 10
235.0858219216004
 20
147.5005976433607
 30
0.0
 10
235.1407260376011
 20
147.445693373344
 30
0.0
 10
235.2503983451055
 20
147.336020758189
 30
0.0
 10
235.4218511114436
 20
147.1645702534767
 30
0.0
 10
235.5273283677351
 20
147.05908744853
 30
0.0
 10
235.5752836683184
 20
147.0111321707844
 30
0.0
 10
235.5764761815205
 20
147.0099396581503
 30
0.0
  0
SPLINE
  5
FF
330
1F
100
AcDbEntity
  8
0
  6
Continuous
 62
     7
370
    25
100
AcDbSpline
210
0.0
220
0.0
230
1.0
 70
     8
 71
     3
 72
    11
 73
     7
 74
     0
 42
0.000000001
 43
0.00000001
 40
0.0
 40
0.0
 40
0.0
 40
0.0
 40
0.3367826821423163
 40
0.6790085772590992
 40
0.9923709604522745
 40
1.0
 40
1.0
 40
1.0
 40
1.0
 10
234.3779757866993
 20
136.9556977922769
 30
0.0
 10
234.4334662838876
 20
137.0111862907896
 30
0.0
 10
234.5453441373079
 20
137.1230601145554
 30
0.0
 10
234.7147881402098
 20
137.29251171826
 30
0.0
 10
234.818842723624
 20
137.3965647229549
 30
0.0
 10
234.8657858102572
 20
137.4435078156898
 30
0.0
 10
234.866901511921
 20
137.4446235174986
 30
0.0
  0
SPLINE
  5
100
330
1F
100
AcDbEntity
  8
0
  6
HIDDEN
 62
     7
370
    18
100
AcDbSpline
210
0.0
220
0.0
230
1.0
 70
    11
 71
     3
 72
    60
 73
    56
 74
     0
 42
0.000000001
 43
0.00000001
 40
0.0
 40
0.0
 40
0.0
 40
0.0
 40
0.03125
 40
0.03125
 40
0.0625
 40
0.0625
 40
0.0937500000000001
 40
0.0937500000000001
 40
0.1250000000000001
 40
0.1250000000000001
 40
0.1875
 40
0.1875
 40
0.2499999999999998
 40
0.2499999999999998
 40
0.2812499999999997
 40
0.2812499999999997
 40
0.3124999999999996
 40
0.3124999999999996
 40
0.3437499999999996
 40
0.3437499999999996
 40
0.3749999999999994
 40
0.3749999999999994
 40
0.4062499999999993
 40
0.4062499999999993
 40
0.4374999999999992
 40
0.4374999999999992
 40
0.4687499999999992
 40
0.4687499999999992
 40
0.4999999999999991
 40
0.4999999999999991
 40
0.5624999999999989
 40
0.5624999999999989
 40
0.6249999999999988
 40
0.6249999999999988
 40
0.656249999999999
 40
0.656249999999999
 40
0.6874999999999991
 40
0.6874999999999991
 40
0.7187499999999992
 40
0.7187499999999992
 40
0.7499999999999993
 40
0.7499999999999993
 40
0.7812499999999994
 40
0.7812499999999994
 40
0.8124999999999996
 40
0.8124999999999996
 40
0.8437499999999997
 40
0.8437499999999997
 40
0.8749999999999998
 40
0.8749999999999998
 40
0.90625
 40
0.90625
 40
0.9375000000000001
 40
0.9375000000000001
 40
1.0
 40
1.0
 40
1.0
 40
1.0
 10
195.9497227916852
 20
104.5274443502279
 30
0.0
 10
195.9497227916852
 20
104.6596096127713
 30
0.0
 10
195.9367509331963
 20
104.7895596737754
 30
0.0
 10
195.8859307635039
 20
105.0452126071355
 30
0.0
 10
195.847463440037
 20
105.1722421136848
 30
0.0
 10
195.7470652039649
 20
105.4144302448093
 30
0.0
 10
195.6856321729917
 20
105.5292917373622
 30
0.0
 10
195.5404973414468
 20
105.7466719331863
 30
0.0
 10
195.456042224039
 20
105.8495695003849
 30
0.0
 10
195.1793227736806
 20
106.1262365393927
 30
0.0
 10
194.9562458817626
 20
106.2752346298727
 30
0.0
 10
194.4749625195423
 20
106.4747457703374
 30
0.0
 10
194.2117321005513
 20
106.5273038733341
 30
0.0
 10
193.8203298988633
 20
106.5275141557122
 30
0.0
 10
193.6878068707545
 20
106.5145283849851
 30
0.0
 10
193.4312764175134
 20
106.4635012367713
 30
0.0
 10
193.3065895832168
 20
106.4257460376209
 30
0.0
 10
193.0644103209813
 20
106.3256077047121
 30
0.0
 10
192.9473167888312
 20
106.2630020373006
 30
0.0
 10
192.7306017854758
 20
106.1182687440356
 30
0.0
 10
192.629582958613
 20
106.035641396756
 30
0.0
 10
192.4427980711609
 20
105.8490363435045
 30
0.0
 10
192.3599411899647
 20
105.7479212796283
 30
0.0
 10
192.2150569248909
 20
105.5313884756385
 30
0.0
 10
192.1524194170699
 20
105.4145182680373
 30
0.0
 10
192.0519705936701
 20
105.1722203973872
 30
0.0
 10
192.0141194926529
 20
105.0475563989262
 30
0.0
 10
191.9628979273966
 20
104.7912693548623
 30
0.0
 10
191.9497698007794
 20
104.6586973591167
 30
0.0
 10
191.9496291604391
 20
104.2670931663427
 30
0.0
 10
192.001953909811
 20
104.0039278350188
 30
0.0
 10
192.2010649718682
 20
103.5224224658457
 30
0.0
 10
192.3499273083255
 20
103.2991709263616
 30
0.0
 10
192.626248267651
 20
103.0223146274727
 30
0.0
 10
192.7290119160245
 20
102.937801180629
 30
0.0
 10
192.946395473404
 20
102.7923839071887
 30
0.0
 10
193.0611942413605
 20
102.7308727081304
 30
0.0
 10
193.3030709647845
 20
102.6303428598755
 30
0.0
 10
193.4302245727847
 20
102.5916978366575
 30
0.0
 10
193.6858905822173
 20
102.5406415091065
 30
0.0
 10
193.8157566199733
 20
102.5275766505609
 30
0.0
 10
194.079709146705
 20
102.527314029763
 30
0.0
 10
194.210113470129
 20
102.540191030007
 30
0.0
 10
194.4657642335083
 20
102.5907770338128
 30
0.0
 10
194.5926297826227
 20
102.6290533984346
 30
0.0
 10
194.8351502405686
 20
102.7293242659147
 30
0.0
 10
194.9500768792289
 20
102.7906802900556
 30
0.0
 10
195.1674483480609
 20
102.9355265852284
 30
0.0
 10
195.2704621607232
 20
103.019904099723
 30
0.0
 10
195.4551627063051
 20
103.2043114199113
 30
0.0
 10
195.5379924405617
 20
103.3048844831807
 30
0.0
 10
195.6842448791592
 20
103.5231106237597
 30
0.0
 10
195.7466133599516
 20
103.639665733681
 30
0.0
 10
195.8965695115184
 20
104.0005153277147
 30
0.0
 10
195.9497227916851
 20
104.2631138251412
 30
0.0
 10
195.9497227916851
 20
104.5274443502279
 30
0.0
  0
SPLINE
  5
101
330
1F
100
AcDbEntity
  8
0
  6
HIDDEN
 62
     7
370
    18
100
AcDbSpline
210
0.0
220
0.0
230
1.0
 70
     8
 71
     3
 72
    12
 73
     8
 74
     0
 42
0.000000001
 43
0.00000001
 40
0.0
 40
0.0
 40
0.0
 40
0.0
 40
0.4999999999999981
 40
0.4999999999999981
 40
0.749999999999999
 40
0.749999999999999
 40
1.0
 40
1.0
 40
1.0
 40
1.0
 10
192.0444669033594
 20
94.61807502954268
 30
0.0
 10
192.0751891452785
 20
94.73063082895186
 30
0.0
 10
192.1180263598136
 20
94.84338868869146
 30
0.0
 10
192.2174533840134
 20
94.99292957448782
 30
0.0
 10
192.2572055788301
 20
95.04022230619469
 30
0.0
 10
192.3552470356883
 20
95.11395859951612
 30
0.0
 10
192.4148030912758
 20
95.13937791889185
 30
0.0
 10
192.4774796052516
 20
95.13937791889185
 30
0.0
  0
LINE
  5
102
330
1F
100
AcDbEntity
  8
0
  6
HIDDEN
 62
     7
370
    18
100
AcDbLine
 10
192.4774797881
 20
95.139377522
 30
0.0
 11
195.4219660038
 21
95.139377522
 31
0.0
  0
SPLINE
  5
103
330
1F
100
AcDbEntity
  8
0
  6
HIDDEN
 62
     7
370
    18
100
AcDbSpline
210
0.0
220
0.0
230
1.0
 70
     8
 71
     3
 72
    12
 73
     8
 74
     0
 42
0.000000001
 43
0.00000001
 40
0.0
 40
0.0
 40
0.0
 40
0.0
 40
0.2499999999999991
 40
0.2499999999999991
 40
0.4999999999999981
 40
0.4999999999999981
 40
1.0
 40
1.0
 40
1.0
 40
1.0
 10
195.4219659781187
 20
95.13937791889185
 30
0.0
 10
195.4850460166121
 20
95.13937791889185
 30
0.0
 10
195.5441946387935
 20
95.11401359967692
 30
0.0
 10
195.6426671888626
 20
95.03984873930399
 30
0.0
 10
195.6817038008473
 20
94.99332839874985
 30
0.0
 10
195.7816002676263
 20
94.84318605590461
 30
0.0
 10
195.824021148693
 20
94.73149284893246
 30
0.0
 10
195.8549786800109
 20
94.6180750295427
 30
0.0
  0
ELLIPSE
  5
104
330
1F
100
AcDbEntity
  8
0
  6
HIDDEN
 62
     7
370
    18
100
AcDbEllipse
 10
179.6025686023
 20
104.5274443502
 30
0.0
 11
-14.75368316065609
 21
31.09325491558116
 31
0.0
210
0.0
220
0.0
230
1.0
 40
0.3419987131
 41
3.300734856217131
 42
4.23149622336078
  0
SPLINE
  5
105
330
1F
100
AcDbEntity
  8
0
  6
HIDDEN
 62
     7
370
    18
100
AcDbSpline
210
0.0
220
0.0
230
1.0
 70
     8
 71
     3
 72
    12
 73
     8
 74
     0
 42
0.000000001
 43
0.00000001
 40
0.0
 40
0.0
 40
0.0
 40
0.0
 40
0.5
 40
0.5
 40
0.75
 40
0.75
 40
1.0
 40
1.0
 40
1.0
 40
1.0
 10
195.8549786800109
 20
74.62670189011067
 30
0.0
 10
195.8242564380918
 20
74.58939990715764
 30
0.0
 10
195.7814192235567
 20
74.55278807511125
 30
0.0
 10
195.6819921993569
 20
74.50502329182603
 30
0.0
 10
195.6422400045402
 20
74.49006577634368
 30
0.0
 10
195.544198547682
 20
74.46687583057451
 30
0.0
 10
195.4846424920945
 20
74.45895239135481
 30
0.0
 10
195.4219659781187
 20
74.45895239135481
 30
0.0
  0
LINE
  5
106
330
1F
100
AcDbEntity
  8
0
  6
HIDDEN
 62
     7
370
    18
100
AcDbLine
 10
195.4219660038
 20
74.4589518334
 30
0.0
 11
192.4774797881
 21
74.4589518334
 31
0.0
  0
SPLINE
  5
107
330
1F
100
AcDbEntity
  8
0
  6
HIDDEN
 62
     7
370
    18
100
AcDbSpline
210
0.0
220
0.0
230
1.0
 70
     8
 71
     3
 72
    12
 73
     8
 74
     0
 42
0.000000001
 43
0.00000001
 40
0.0
 40
0.0
 40
0.0
 40
0.0
 40
0.2499999999999977
 40
0.2499999999999977
 40
0.4999999999999954
 40
0.4999999999999954
 40
1.0
 40
1.0
 40
1.0
 40
1.0
 10
192.4774796052516
 20
74.45895239135481
 30
0.0
 10
192.4143995667582
 20
74.45895239135481
 30
0.0
 10
192.3552509445768
 20
74.46685831756724
 30
0.0
 10
192.2567783945077
 20
74.49018347900349
 30
0.0
 10
192.217741782523
 20
74.50489626883521
 30
0.0
 10
192.117845315744
 20
74.55285206956611
 30
0.0
 10
192.0754244346773
 20
74.58911422614617
 30
0.0
 10
192.0444669033594
 20
74.62670189011068
 30
0.0
  0
ELLIPSE
  5
108
330
1F
100
AcDbEntity
  8
0
  6
HIDDEN
 62
     7
370
    18
100
AcDbEllipse
 10
208.296876981
 20
104.5274443502
 30
0.0
 11
14.75368316065612
 21
31.09325491558117
 31
0.0
210
0.0
220
0.0
230
1.0
 40
0.3419987131
 41
2.05168908381882
 42
2.982450450962495
  0
SPLINE
  5
109
330
1F
100
AcDbEntity
  8
0
  6
HIDDEN
 62
     7
370
    18
100
AcDbSpline
210
0.0
220
0.0
230
1.0
 70
     8
 71
     3
 72
    12
 73
     8
 74
     0
 42
0.000000001
 43
0.00000001
 40
0.0
 40
0.0
 40
0.0
 40
0.0
 40
0.5000000000000028
 40
0.5000000000000028
 40
0.7500000000000013
 40
0.7500000000000013
 40
1.0
 40
1.0
 40
1.0
 40
1.0
 10
192.0444669033594
 20
134.4281868103452
 30
0.0
 10
192.0751891452785
 20
134.4654887932983
 30
0.0
 10
192.1180263598136
 20
134.5021006253447
 30
0.0
 10
192.2174533840134
 20
134.5498654086299
 30
0.0
 10
192.2572055788301
 20
134.5648229241123
 30
0.0
 10
192.3552470356883
 20
134.5880128698814
 30
0.0
 10
192.4148030912758
 20
134.5959363091011
 30
0.0
 10
192.4774796052516
 20
134.5959363091011
 30
0.0
  0
LINE
  5
10A
330
1F
100
AcDbEntity
  8
0
  6
HIDDEN
 62
     7
370
    18
100
AcDbLine
 10
192.4774797881
 20
134.5959368671
 30
0.0
 11
195.4219660038
 21
134.5959368671
 31
0.0
  0
SPLINE
  5
10B
330
1F
100
AcDbEntity
  8
0
  6
HIDDEN
 62
     7
370
    18
100
AcDbSpline
210
0.0
220
0.0
230
1.0
 70
     8
 71
     3
 72
    12
 73
     8
 74
     0
 42
0.000000001
 43
0.00000001
 40
0.0
 40
0.0
 40
0.0
 40
0.0
 40
0.2499999999999986
 40
0.2499999999999986
 40
0.4999999999999971
 40
0.4999999999999971
 40
1.0
 40
1.0
 40
1.0
 40
1.0
 10
195.4219659781187
 20
134.5959363091011
 30
0.0
 10
195.4850460166121
 20
134.5959363091011
 30
0.0
 10
195.5441946387935
 20
134.5880303828887
 30
0.0
 10
195.6426671888626
 20
134.5647052214524
 30
0.0
 10
195.6817038008473
 20
134.5499924316208
 30
0.0
 10
195.7816002676263
 20
134.5020366308898
 30
0.0
 10
195.8240211486929
 20
134.4657744743098
 30
0.0
 10
195.8549786800109
 20
134.4281868103453
 30
0.0
  0
ELLIPSE
  5
10C
330
1F
100
AcDbEntity
  8
0
  6
HIDDEN
 62
     7
370
    18
100
AcDbEllipse
 10
179.6025686023
 20
104.5274443502
 30
0.0
 11
14.75368316065624
 21
31.0932549155812
 31
0.0
210
0.0
220
0.0
230
1.0
 40
0.3419987131
 41
5.193281737408636
 42
6.124043104552338
  0
SPLINE
  5
10D
330
1F
100
AcDbEntity
  8
0
  6
HIDDEN
 62
     7
370
    18
100
AcDbSpline
210
0.0
220
0.0
230
1.0
 70
     8
 71
     3
 72
    12
 73
     8
 74
     0
 42
0.000000001
 43
0.00000001
 40
0.0
 40
0.0
 40
0.0
 40
0.0
 40
0.4999999999999981
 40
0.4999999999999981
 40
0.749999999999999
 40
0.749999999999999
 40
1.0
 40
1.0
 40
1.0
 40
1.0
 10
195.8549786800109
 20
114.4368136709135
 30
0.0
 10
195.8242564380918
 20
114.3242578715043
 30
0.0
 10
195.7814192235567
 20
114.2115000117648
 30
0.0
 10
195.6819921993569
 20
114.0619591259684
 30
0.0
 10
195.6422400045402
 20
114.0146663942615
 30
0.0
 10
195.544198547682
 20
113.9409301009401
 30
0.0
 10
195.4846424920945
 20
113.9155107815644
 30
0.0
 10
195.4219659781187
 20
113.9155107815644
 30
0.0
  0
LINE
  5
10E
330
1F
100
AcDbEntity
  8
0
  6
HIDDEN
 62
     7
370
    18
100
AcDbLine
 10
195.4219660038
 20
113.9155111785
 30
0.0
 11
192.4774797881
 21
113.9155111785
 31
0.0
  0
SPLINE
  5
10F
330
1F
100
AcDbEntity
  8
0
  6
HIDDEN
 62
     7
370
    18
100
AcDbSpline
210
0.0
220
0.0
230
1.0
 70
     8
 71
     3
 72
    12
 73
     8
 74
     0
 42
0.000000001
 43
0.00000001
 40
0.0
 40
0.0
 40
0.0
 40
0.0
 40
0.25
 40
0.25
 40
0.5
 40
0.5
 40
1.0
 40
1.0
 40
1.0
 40
1.0
 10
192.4774796052516
 20
113.9155107815644
 30
0.0
 10
192.4143995667582
 20
113.9155107815644
 30
0.0
 10
192.3552509445768
 20
113.9408751007793
 30
0.0
 10
192.2567783945077
 20
114.0150399611522
 30
0.0
 10
192.217741782523
 20
114.0615603017064
 30
0.0
 10
192.117845315744
 20
114.2117026445516
 30
0.0
 10
192.0754244346773
 20
114.3233958515237
 30
0.0
 10
192.0444669033594
 20
114.4368136709135
 30
0.0
  0
ELLIPSE
  5
110
330
1F
100
AcDbEntity
  8
0
  6
HIDDEN
 62
     7
370
    18
100
AcDbEllipse
 10
208.296876981
 20
104.5274443502
 30
0.0
 11
-14.75368316065627
 21
31.09325491558117
 31
0.0
210
0.0
220
0.0
230
1.0
 40
0.3419987131
 41
0.1591422026272837
 42
1.089903569770961
  0
ELLIPSE
  5
111
330
1F
100
AcDbEntity
  8
0
  6
HIDDEN
 62
     7
370
    18
100
AcDbEllipse
 10
238.5472323332
 20
104.5274443502
 30
0.0
 11
22.3359914001191
 21
31.42058670065007
 31
0.0
210
0.0
220
0.0
230
1.0
 40
0.1000778042
 41
2.463296613170652
 42
3.21261542631958
  0
LINE
  5
112
330
1F
100
AcDbEntity
  8
0
  6
HIDDEN
 62
     7
370
    18
100
AcDbLine
 10
181.9497227917
 20
73.5274448569
 30
0.0
 11
181.9497227917
 21
135.5274438436
 31
0.0
  0
LWPOLYLINE
  5
113
330
1F
100
AcDbEntity
  8
0
  6
HIDDEN
 62
     7
370
    18
100
AcDbPolyline
 90
       29
 70
   128
 43
0.0
 10
202.9497225086
 20
119.3755201573
 10
203.6172852168
 20
119.3103815938
 10
204.2513743291
 20
119.1182301889
 10
204.8201926301
 20
118.8087023373
 10
205.2952174345
 20
118.3973185296
 10
205.6526292364
 20
117.9047075609
 10
205.8745056639
 20
117.3555708999
 10
205.9497230003
 20
116.7774440299
 10
205.8745056639
 20
116.1993180911
 10
205.6526292364
 20
115.6501814301
 10
205.2952174345
 20
115.1575704614
 10
204.8201926301
 20
114.7461866538
 10
204.2513743291
 20
114.4366588021
 10
203.6172852168
 20
114.2445073972
 10
202.9497225086
 20
114.1793679024
 10
202.2821598003
 20
114.2445073972
 10
201.648070688
 20
114.4366588021
 10
201.0792542497
 20
114.7461866538
 10
200.6042275826
 20
115.1575704614
 10
200.2468157808
 20
115.6501814301
 10
200.0249393532
 20
116.1993180911
 10
199.9497220168
 20
116.7774440299
 10
200.0249393532
 20
117.3555708999
 10
200.2468157808
 20
117.9047075609
 10
200.6042275826
 20
118.3973185296
 10
201.0792542497
 20
118.8087023373
 10
201.648070688
 20
119.1182301889
 10
202.2821598003
 20
119.3103815938
 10
202.9497225086
 20
119.3755201573
  0
LINE
  5
114
330
1F
100
AcDbEntity
  8
0
  6
HIDDEN
 62
     7
370
    18
100
AcDbLine
 10
181.9497227917
 20
80.277443635
 30
0.0
 11
181.9497227917
 21
128.7592079068
 31
0.0
  0
SPLINE
  5
115
330
1F
100
AcDbEntity
  8
0
  6
HIDDEN
 62
     7
370
    18
100
AcDbSpline
210
0.0
220
0.0
230
1.0
 70
     8
 71
     3
 72
    12
 73
     8
 74
     0
 42
0.000000001
 43
0.00000001
 40
0.0
 40
0.0
 40
0.0
 40
0.0
 40
0.4999999999999996
 40
0.4999999999999996
 40
0.7499999999999998
 40
0.7499999999999998
 40
1.0
 40
1.0
 40
1.0
 40
1.0
 10
181.1332105052381
 20
119.9797123320588
 30
0.0
 10
181.1896166839183
 20
119.9318899583989
 30
0.0
 10
181.2597795853901
 20
119.8916191114604
 30
0.0
 10
181.3777902987793
 20
119.8835732429834
 30
0.0
 10
181.4179960823748
 20
119.8901358413223
 30
0.0
 10
181.4917167791079
 20
119.9175179357759
 30
0.0
 10
181.5245775008943
 20
119.9372794263063
 30
0.0
 10
181.5547459028236
 20
119.9602121374943
 30
0.0
  0
SPLINE
  5
116
330
1F
100
AcDbEntity
  8
0
  6
HIDDEN
 62
     7
370
    18
100
AcDbSpline
210
0.0
220
0.0
230
1.0
 70
     8
 71
     3
 72
    16
 73
    12
 74
     0
 42
0.000000001
 43
0.00000001
 40
0.0
 40
0.0
 40
0.0
 40
0.0
 40
0.0625000000000025
 40
0.0625000000000025
 40
0.1250000000000049
 40
0.1250000000000049
 40
0.2500000000000079
 40
0.2500000000000079
 40
0.5000000000000036
 40
0.5000000000000036
 40
1.0
 40
1.0
 40
1.0
 40
1.0
 10
181.5547459027785
 20
119.9602121375424
 30
0.0
 10
181.5663588026179
 20
119.9690397605238
 30
0.0
 10
181.5797099870503
 20
119.9768741424057
 30
0.0
 10
181.6091098266695
 20
119.9851842684781
 30
0.0
 10
181.6239505512248
 20
119.9846884492431
 30
0.0
 10
181.6597837591934
 20
119.9732374782737
 30
0.0
 10
181.673896967015
 20
119.9565569774151
 30
0.0
 10
181.7083883382339
 20
119.904436291658
 30
0.0
 10
181.7194724093443
 20
119.8646467976331
 30
0.0
 10
181.7455952271403
 20
119.7413101655359
 30
0.0
 10
181.7497227916851
 20
119.6538887550373
 30
0.0
 10
181.7497227916852
 20
119.5651515127191
 30
0.0
  0
LINE
  5
117
330
1F
100
AcDbEntity
  8
0
  6
HIDDEN
 62
     7
370
    18
100
AcDbLine
 10
181.7497227967
 20
89.4897372971
 30
0.0
 11
181.7497227967
 21
119.5651514034
 31
0.0
  0
SPLINE
  5
118
330
1F
100
AcDbEntity
  8
0
  6
HIDDEN
 62
     7
370
    18
100
AcDbSpline
210
0.0
220
0.0
230
1.0
 70
     8
 71
     3
 72
    16
 73
    12
 74
     0
 42
0.000000001
 43
0.00000001
 40
0.0
 40
0.0
 40
0.0
 40
0.0
 40
0.5000000000000062
 40
0.5000000000000062
 40
0.7500000000000093
 40
0.7500000000000093
 40
0.8750000000000088
 40
0.8750000000000088
 40
0.9375000000000044
 40
0.9375000000000044
 40
1.0
 40
1.0
 40
1.0
 40
1.0
 10
181.7497227916851
 20
89.48973718773668
 30
0.0
 10
181.7497227916851
 20
89.40061082254793
 30
0.0
 10
181.7455765166072
 20
89.31374945493454
 30
0.0
 10
181.7196109212137
 20
89.1907672084405
 30
0.0
 10
181.7081500158362
 20
89.14999591320922
 30
0.0
 10
181.6738382780619
 20
89.09829159320948
 30
0.0
 10
181.6598135421322
 20
89.08162122661906
 30
0.0
 10
181.6237905790985
 20
89.07016900616233
 30
0.0
 10
181.6090360700088
 20
89.06971595988733
 30
0.0
 10
181.5796839088619
 20
89.07803128110348
 30
0.0
 10
181.5663440343579
 20
89.08586016618175
 30
0.0
 10
181.5547459028095
 20
89.09467656294439
 30
0.0
  0
SPLINE
  5
119
330
1F
100
AcDbEntity
  8
0
  6
HIDDEN
 62
     7
370
    18
100
AcDbSpline
210
0.0
220
0.0
230
1.0
 70
     8
 71
     3
 72
    12
 73
     8
 74
     0
 42
0.000000001
 43
0.00000001
 40
0.0
 40
0.0
 40
0.0
 40
0.0
 40
0.2500000000000001
 40
0.2500000000000001
 40
0.4999999999999998
 40
0.4999999999999998
 40
1.0
 40
1.0
 40
1.0
 40
1.0
 10
181.5547459028166
 20
89.09467656295331
 30
0.0
 10
181.5245540610994
 20
89.11762709205112
 30
0.0
 10
181.4911950916847
 20
89.13759656607532
 30
0.0
 10
181.4180578071042
 20
89.1646976997008
 30
0.0
 10
181.3778159344502
 20
89.17129844034623
 30
0.0
 10
181.2601101574817
 20
89.16332956583953
 30
0.0
 10
181.1896996797023
 20
89.12306910767168
 30
0.0
 10
181.133210505234
 20
89.07517636839353
 30
0.0
  0
SPLINE
  5
11A
330
1F
100
AcDbEntity
  8
0
  6
HIDDEN
 62
     7
370
    18
100
AcDbSpline
210
0.0
220
0.0
230
1.0
 70
     8
 71
     3
 72
    12
 73
     8
 74
     0
 42
0.000000001
 43
0.00000001
 40
0.0
 40
0.0
 40
0.0
 40
0.0
 40
0.2500000000000004
 40
0.2500000000000004
 40
0.500000000000001
 40
0.500000000000001
 40
1.0
 40
1.0
 40
1.0
 40
1.0
 10
181.1332105052336
 20
89.07517636839373
 30
0.0
 10
181.0450565674959
 20
89.00043756053962
 30
0.0
 10
180.9847031428671
 20
88.90945706005726
 30
0.0
 10
180.8784411848003
 20
88.72054323730467
 30
0.0
 10
180.8362090182382
 20
88.62403877776407
 30
0.0
 10
180.7251383229211
 20
88.33327102359692
 30
0.0
 10
180.6722015464943
 20
88.13760420905317
 30
0.0
 10
180.6284024481255
 20
87.94353772398686
 30
0.0
  0
SPLINE
  5
11B
330
1F
100
AcDbEntity
  8
0
  6
HIDDEN
 62
     7
370
    18
100
AcDbSpline
210
0.0
220
0.0
230
1.0
 70
     8
 71
     3
 72
    12
 73
     8
 74
     0
 42
0.000000001
 43
0.00000001
 40
0.0
 40
0.0
 40
0.0
 40
0.0
 40
0.500000000000001
 40
0.500000000000001
 40
0.7500000000000004
 40
0.7500000000000004
 40
1.0
 40
1.0
 40
1.0
 40
1.0
 10
180.6284024481255
 20
82.7573633952258
 30
0.0
 10
180.672148988962
 20
82.7307692245846
 30
0.0
 10
180.7250333441936
 20
82.71100899925888
 30
0.0
 10
180.8366004315297
 20
82.6905580090298
 30
0.0
 10
180.8791840280727
 20
82.68529778437336
 30
0.0
 10
180.9841007551545
 20
82.67741499045073
 30
0.0
 10
181.0456343629993
 20
82.67485086527157
 30
0.0
 10
181.1332105052254
 20
82.67265064775192
 30
0.0
  0
LINE
  5
11C
330
1F
100
AcDbEntity
  8
0
  6
HIDDEN
 62
     7
370
    18
100
AcDbLine
 10
181.7497227967
 20
81.9876238282
 30
0.0
 11
181.7497227967
 21
82.4678491379
 31
0.0
  0
LINE
  5
11D
330
1F
100
AcDbEntity
  8
0
  6
HIDDEN
 62
     7
370
    18
100
AcDbLine
 10
181.7497227967
 20
126.5870395626
 30
0.0
 11
181.7497227967
 21
127.0672648723
 31
0.0
  0
SPLINE
  5
11E
330
1F
100
AcDbEntity
  8
0
  6
HIDDEN
 62
     7
370
    18
100
AcDbSpline
210
0.0
220
0.0
230
1.0
 70
     8
 71
     3
 72
    12
 73
     8
 74
     0
 42
0.000000001
 43
0.00000001
 40
0.0
 40
0.0
 40
0.0
 40
0.0
 40
0.2499999999999996
 40
0.2499999999999996
 40
0.4999999999999991
 40
0.4999999999999991
 40
1.0
 40
1.0
 40
1.0
 40
1.0
 10
181.1332105052334
 20
126.3822380527038
 30
0.0
 10
181.0445258453771
 20
126.3800099853628
 30
0.0
 10
180.9846074296537
 20
126.3775082013325
 30
0.0
 10
180.8789482023329
 20
126.3695767654965
 30
0.0
 10
180.836306964218
 20
126.3642846105996
 30
0.0
 10
180.7251176221154
 20
126.3438796701125
 30
0.0
 10
180.6721909399945
 20
126.3241449785256
 30
0.0
 10
180.6284024481255
 20
126.29752530523
 30
0.0
  0
SPLINE
  5
11F
330
1F
100
AcDbEntity
  8
0
  6
HIDDEN
 62
     7
370
    18
100
AcDbSpline
210
0.0
220
0.0
230
1.0
 70
     8
 71
     3
 72
    12
 73
     8
 74
     0
 42
0.000000001
 43
0.00000001
 40
0.0
 40
0.0
 40
0.0
 40
0.0
 40
0.4999999999999967
 40
0.4999999999999967
 40
0.7499999999999997
 40
0.7499999999999997
 40
1.0
 40
1.0
 40
1.0
 40
1.0
 10
180.6284024481239
 20
121.1113509764691
 30
0.0
 10
180.6721639244226
 20
120.9174511885071
 30
0.0
 10
180.7250702400757
 20
120.7215948245702
 30
0.0
 10
180.8367814377231
 20
120.4294526780712
 30
0.0
 10
180.8793008813094
 20
120.3327347413733
 30
0.0
 10
180.9844242238768
 20
120.1460103049488
 30
0.0
 10
181.0459901875946
 20
120.0536595966791
 30
0.0
 10
181.1332105052373
 20
119.9797123320595
 30
0.0
  0
LWPOLYLINE
  5
120
330
1F
100
AcDbEntity
  8
0
  6
HIDDEN
 62
     7
370
    18
100
AcDbPolyline
 90
       27
 70
   128
 43
0.0
 10
202.9497225086
 20
118.7922924335
 10
203.5480115811
 20
118.7293797309
 10
204.1115306566
 20
118.5442979957
 10
204.6075288454
 20
118.2478021408
 10
205.007181714
 20
117.8571253593
 10
205.2872639398
 20
117.3949714328
 10
205.4314941416
 20
116.8881987731
 10
205.4314941416
 20
116.3662595252
 10
205.2872639398
 20
115.8594868655
 10
205.007181714
 20
115.397332939
 10
204.6075288454
 20
115.0066561575
 10
204.1115306566
 20
114.7101603026
 10
203.5480115811
 20
114.5250785674
 10
202.9497225086
 20
114.4621658648
 10
202.351433436
 20
114.5250785674
 10
201.7879143605
 20
114.7101603026
 10
201.2919161717
 20
115.0066561575
 10
200.8922633032
 20
115.397332939
 10
200.61218294
 20
115.8594868655
 10
200.4679508755
 20
116.3662595252
 10
200.4679508755
 20
116.8881987731
 10
200.61218294
 20
117.3949714328
 10
200.8922633032
 20
117.8571253593
 10
201.2919161717
 20
118.2478021408
 10
201.7879143605
 20
118.5442979957
 10
202.351433436
 20
118.7293797309
 10
202.9497225086
 20
118.7922924335
  0
SPLINE
  5
121
330
1F
100
AcDbEntity
  8
0
  6
HIDDEN
 62
     7
370
    18
100
AcDbSpline
210
0.0
220
0.0
230
1.0
 70
     8
 71
     3
 72
    62
 73
    58
 74
     0
 42
0.000000001
 43
0.00000001
 40
0.0
 40
0.0
 40
0.0
 40
0.0
 40
0.0312500000000003
 40
0.0312500000000003
 40
0.0625000000000005
 40
0.0625000000000005
 40
0.0937500000000008
 40
0.0937500000000008
 40
0.1250000000000011
 40
0.1250000000000011
 40
0.1562500000000014
 40
0.1562500000000014
 40
0.1875000000000016
 40
0.1875000000000016
 40
0.2187500000000019
 40
0.2187500000000019
 40
0.2500000000000022
 40
0.2500000000000022
 40
0.3125000000000032
 40
0.3125000000000032
 40
0.3437500000000034
 40
0.3437500000000034
 40
0.3750000000000037
 40
0.3750000000000037
 40
0.4375000000000037
 40
0.4375000000000037
 40
0.4687500000000037
 40
0.4687500000000037
 40
0.4843750000000036
 40
0.4843750000000036
 40
0.5000000000000033
 40
0.5000000000000033
 40
0.5312500000000034
 40
0.5312500000000034
 40
0.5625000000000037
 40
0.5625000000000037
 40
0.6250000000000036
 40
0.6250000000000036
 40
0.6562500000000032
 40
0.6562500000000032
 40
0.687500000000003
 40
0.687500000000003
 40
0.7187500000000027
 40
0.7187500000000027
 40
0.7500000000000023
 40
0.7500000000000023
 40
0.7812500000000021
 40
0.7812500000000021
 40
0.8125000000000018
 40
0.8125000000000018
 40
0.8750000000000011
 40
0.8750000000000011
 40
0.9375000000000004
 40
0.9375000000000004
 40
0.9687500000000003
 40
0.9687500000000003
 40
1.0
 40
1.0
 40
1.0
 40
1.0
 10
204.9584325089323
 20
111.788552581166
 30
0.0
 10
205.0515576326352
 20
111.8771268366993
 30
0.0
 10
205.1277906155983
 20
111.9585958437009
 30
0.0
 10
205.25620380961
 20
112.1212418943155
 30
0.0
 10
205.3083667792103
 20
112.2026390862418
 30
0.0
 10
205.3891119006391
 20
112.370620499176
 30
0.0
 10
205.4173127019563
 20
112.4561428756953
 30
0.0
 10
205.4498719863684
 20
112.6352676782863
 30
0.0
 10
205.4540883909761
 20
112.7297187391671
 30
0.0
 10
205.4358871696233
 20
112.9261417458454
 30
0.0
 10
205.4137722098145
 20
113.0277741169068
 30
0.0
 10
205.340569652101
 20
113.2409677652735
 30
0.0
 10
205.2889523443967
 20
113.3527499792586
 30
0.0
 10
205.1583737723724
 20
113.5777387326948
 30
0.0
 10
205.0775809637811
 20
113.6939794621058
 30
0.0
 10
204.8925915625882
 20
113.922612321852
 30
0.0
 10
204.7892464636527
 20
114.0345261722493
 30
0.0
 10
204.448166547915
 20
114.3647852382858
 30
0.0
 10
204.1903523897693
 20
114.5656046049796
 30
0.0
 10
203.8087745092216
 20
114.8254519528077
 30
0.0
 10
203.6811773135132
 20
114.9061979962149
 30
0.0
 10
203.4330686714914
 20
115.0557983496889
 30
0.0
 10
203.3135241257444
 20
115.1241074341162
 30
0.0
 10
202.9706394766959
 20
115.3173319043588
 30
0.0
 10
202.7581746571281
 20
115.4290071983566
 30
0.0
 10
202.5285859675577
 20
115.6107222117549
 30
0.0
 10
202.467549687703
 20
115.6750864604677
 30
0.0
 10
202.4183940367852
 20
115.7831015291061
 30
0.0
 10
202.4089580035658
 20
115.8216746553915
 30
0.0
 10
202.4059006672298
 20
115.900855869356
 30
0.0
 10
202.4120096023599
 20
115.9416367225992
 30
0.0
 10
202.451037036435
 20
116.0667971196856
 30
0.0
 10
202.5045529302371
 20
116.1527700195607
 30
0.0
 10
202.6407388254479
 20
116.3139901434197
 30
0.0
 10
202.7247829961598
 20
116.3911648429452
 30
0.0
 10
203.0000303408985
 20
116.5983657842592
 30
0.0
 10
203.2153796050589
 20
116.707533508486
 30
0.0
 10
203.566859456408
 20
116.8046018582435
 30
0.0
 10
203.6868657677515
 20
116.8250689528548
 30
0.0
 10
203.9315126173361
 20
116.8378366370499
 30
0.0
 10
204.057660377082
 20
116.8298359487651
 30
0.0
 10
204.3059571270119
 20
116.7790535899309
 30
0.0
 10
204.4278093044771
 20
116.7368114592188
 30
0.0
 10
204.6648253225466
 20
116.6117663240516
 30
0.0
 10
204.7758439259441
 20
116.5307762158791
 30
0.0
 10
204.9770327513424
 20
116.3336754081111
 30
0.0
 10
205.0684681387947
 20
116.2153144803722
 30
0.0
 10
205.2198138056292
 20
115.957050123935
 30
0.0
 10
205.2819400010609
 20
115.8141106519396
 30
0.0
 10
205.4230594456301
 20
115.3677682926413
 30
0.0
 10
205.458574721783
 20
115.044978707409
 30
0.0
 10
205.4371659756107
 20
114.4120426041373
 30
0.0
 10
205.3808699193848
 20
114.0931794766336
 30
0.0
 10
205.2345416799446
 20
113.641024459026
 30
0.0
 10
205.1752833928303
 20
113.4936974883839
 30
0.0
 10
205.029784133104
 20
113.2073431431888
 30
0.0
 10
204.9454379932102
 20
113.0718243101514
 30
0.0
 10
204.8445848088018
 20
112.9477810076597
 30
0.0
  0
SPLINE
  5
122
330
1F
100
AcDbEntity
  8
0
  6
HIDDEN
 62
     7
370
    18
100
AcDbSpline
210
0.0
220
0.0
230
1.0
 70
     8
 71
     3
 72
    12
 73
     8
 74
     0
 42
0.000000001
 43
0.00000001
 40
0.0
 40
0.0
 40
0.0
 40
0.0
 40
0.5
 40
0.5
 40
0.75
 40
0.75
 40
1.0
 40
1.0
 40
1.0
 40
1.0
 10
204.844584808802
 20
112.9477810076596
 30
0.0
 10
204.7852398877813
 20
112.6770961178992
 30
0.0
 10
204.7505362625928
 20
112.4333439748899
 30
0.0
 10
204.7825875631908
 20
112.134263886715
 30
0.0
 10
204.806664605821
 20
112.047654198161
 30
0.0
 10
204.8723691971171
 20
111.9007713240828
 30
0.0
 10
204.913774027783
 20
111.8396844923545
 30
0.0
 10
204.958432508932
 20
111.7885525811659
 30
0.0
  0
SPLINE
  5
123
330
1F
100
AcDbEntity
  8
0
  6
HIDDEN
 62
     7
370
    18
100
AcDbSpline
210
0.0
220
0.0
230
1.0
 70
    11
 71
     3
 72
    62
 73
    58
 74
     0
 42
0.000000001
 43
0.00000001
 40
0.0
 40
0.0
 40
0.0
 40
0.0
 40
0.0312499999999999
 40
0.0312499999999999
 40
0.0624999999999999
 40
0.0624999999999999
 40
0.0937499999999998
 40
0.0937499999999998
 40
0.1249999999999998
 40
0.1249999999999998
 40
0.1874999999999991
 40
0.1874999999999991
 40
0.2187499999999989
 40
0.2187499999999989
 40
0.2499999999999987
 40
0.2499999999999987
 40
0.2812499999999987
 40
0.2812499999999987
 40
0.3124999999999986
 40
0.3124999999999986
 40
0.3749999999999984
 40
0.3749999999999984
 40
0.4062499999999983
 40
0.4062499999999983
 40
0.4374999999999983
 40
0.4374999999999983
 40
0.4687499999999982
 40
0.4687499999999982
 40
0.4999999999999982
 40
0.4999999999999982
 40
0.5624999999999988
 40
0.5624999999999988
 40
0.5937499999999987
 40
0.5937499999999987
 40
0.6249999999999987
 40
0.6249999999999987
 40
0.6562499999999986
 40
0.6562499999999986
 40
0.6874999999999986
 40
0.6874999999999986
 40
0.7187499999999986
 40
0.7187499999999986
 40
0.7499999999999986
 40
0.7499999999999986
 40
0.7812499999999987
 40
0.7812499999999987
 40
0.8124999999999987
 40
0.8124999999999987
 40
0.8749999999999989
 40
0.8749999999999989
 40
0.9062499999999992
 40
0.9062499999999992
 40
0.9374999999999994
 40
0.9374999999999994
 40
0.9687499999999998
 40
0.9687499999999998
 40
1.0
 40
1.0
 40
1.0
 40
1.0
 10
202.9497227916851
 20
111.0154119761366
 30
0.0
 10
202.783678972749
 20
111.0154119761366
 30
0.0
 10
202.6205822421719
 20
111.0036208354647
 30
0.0
 10
202.2999859372634
 20
110.9572521917289
 30
0.0
 10
202.140783733957
 20
110.9220675290283
 30
0.0
 10
201.8384732322429
 20
110.8298556785905
 30
0.0
 10
201.6952216579985
 20
110.773168226467
 30
0.0
 10
201.4241108169313
 20
110.6376204371402
 30
0.0
 10
201.2964288218025
 20
110.5584074833152
 30
0.0
 10
200.9524287335873
 20
110.2948881717153
 30
0.0
 10
200.7664271050029
 20
110.0773670920462
 30
0.0
 10
200.5789405918213
 20
109.7111845887542
 30
0.0
 10
200.5304686470692
 20
109.5805173901382
 30
0.0
 10
200.4659066676555
 20
109.3095142495684
 30
0.0
 10
200.4498281674355
 20
109.1708112546219
 30
0.0
 10
200.4496184385219
 20
108.8868466724039
 30
0.0
 10
200.4660499859328
 20
108.7402770634521
 30
0.0
 10
200.5302186760851
 20
108.4532618840309
 30
0.0
 10
200.5776876388765
 20
108.3115140206605
 30
0.0
 10
200.7668111228308
 20
107.8925230181297
 30
0.0
 10
200.9509510151969
 20
107.6320111113136
 30
0.0
 10
201.2976865990009
 20
107.2970546997244
 30
0.0
 10
201.4230035551526
 20
107.1965025035983
 30
0.0
 10
201.6930630579525
 20
107.0183204439098
 30
0.0
 10
201.8394364338337
 20
106.9402299988354
 30
0.0
 10
202.1408543368873
 20
106.8151006378515
 30
0.0
 10
202.2967064983263
 20
106.7671728724145
 30
0.0
 10
202.6190495596426
 20
106.7020033286475
 30
0.0
 10
202.7850010267121
 20
106.6853567224563
 30
0.0
 10
203.2759223942633
 20
106.6851421357076
 30
0.0
 10
203.606405381366
 20
106.7521661108196
 30
0.0
 10
204.0583148789646
 20
106.9394059895772
 30
0.0
 10
204.2046120963439
 20
107.017274282223
 30
0.0
 10
204.4754956589003
 20
107.195757371089
 30
0.0
 10
204.6008521810581
 20
107.2963100262397
 30
0.0
 10
204.8316298225473
 20
107.5189863694938
 30
0.0
 10
204.9364177026174
 20
107.6410358869696
 30
0.0
 10
205.1170813267995
 20
107.8956946815922
 30
0.0
 10
205.1942698239948
 20
108.0294732181519
 30
0.0
 10
205.321133228286
 20
108.3097353889133
 30
0.0
 10
205.3687945822184
 20
108.451923540233
 30
0.0
 10
205.433024949281
 20
108.7380312620846
 30
0.0
 10
205.44965816316
 20
108.8838359043362
 30
0.0
 10
205.4497870381715
 20
109.1693600259896
 30
0.0
 10
205.4337060590426
 20
109.3081196076426
 30
0.0
 10
205.3697386465742
 20
109.5780031408515
 30
0.0
 10
205.3211745963306
 20
109.7096520541884
 30
0.0
 10
205.133443754288
 20
110.0769827690939
 30
0.0
 10
204.9474979167924
 20
110.2943855226037
 30
0.0
 10
204.603722694688
 20
110.5579334959662
 30
0.0
 10
204.4765473903204
 20
110.6369434524074
 30
0.0
 10
204.2049049810458
 20
110.7728979336063
 30
0.0
 10
204.0617458100987
 20
110.8295405733886
 30
0.0
 10
203.7606188675609
 20
110.9215490595108
 30
0.0
 10
203.6011026388693
 20
110.9569641357308
 30
0.0
 10
203.2792367466375
 20
111.0036169398566
 30
0.0
 10
203.1157666106213
 20
111.0154119761366
 30
0.0
 10
202.9497227916851
 20
111.0154119761366
 30
0.0
  0
LINE
  5
124
330
1F
100
AcDbEntity
  8
0
  6
HIDDEN
 62
     7
370
    18
100
AcDbLine
 10
181.7497227967
 20
82.4678491379
 30
0.0
 11
181.7497227967
 21
97.5055571223
 31
0.0
  0
LINE
  5
125
330
1F
100
AcDbEntity
  8
0
  6
HIDDEN
 62
     7
370
    18
100
AcDbLine
 10
181.7497227967
 20
111.5493315781
 30
0.0
 11
181.7497227967
 21
126.5870395626
 31
0.0
  0
LWPOLYLINE
  5
126
330
1F
100
AcDbEntity
  8
0
  6
HIDDEN
 62
     7
370
    18
100
AcDbPolyline
 90
        9
 70
   128
 43
0.0
 10
204.8445839683
 20
112.9477813418
 10
204.9604479472
 20
112.712447303
 10
205.049163873
 20
112.4962444926
 10
205.1091205577
 20
112.3031110081
 10
205.1392227659
 20
112.1365635234
 10
205.1389247427
 20
111.9996362875
 10
205.1082302133
 20
111.894822451
 10
205.0476979712
 20
111.8240312251
 10
204.9584325651
 20
111.7885524916
  0
CIRCLE
  5
127
330
1F
100
AcDbEntity
  8
0
  6
HIDDEN
 62
     7
370
    18
100
AcDbCircle
 10
166.4497227917
 20
104.5274443502
 30
0.0
 40
4.049999999999997
  0
LINE
  5
128
330
1F
100
AcDbEntity
  8
0
  6
HIDDEN
 62
     7
370
    18
100
AcDbLine
 10
145.4799503336
 20
119.8403954084
 30
0.0
 11
145.4799503336
 21
89.2144932921
 31
0.0
  0
LINE
  5
129
330
1F
100
AcDbEntity
  8
0
  6
HIDDEN
 62
     7
370
    18
100
AcDbLine
 10
143.9497240136
 20
88.3310146208
 30
0.0
 11
143.9497240136
 21
120.7238740797
 31
0.0
  0
LINE
  5
12A
330
1F
100
AcDbEntity
  8
0
  6
HIDDEN
 62
     7
370
    18
100
AcDbLine
 10
151.9799504677
 20
118.8738548706
 30
0.0
 11
151.9799504677
 21
90.1810338299
 31
0.0
  0
LINE
  5
12B
330
1F
100
AcDbEntity
  8
0
  6
HIDDEN
 62
     7
370
    18
100
AcDbLine
 10
157.7799517909
 20
118.5274447824
 30
0.0
 11
157.7799517909
 21
90.5274439181
 31
0.0
  0
LINE
  5
12C
330
1F
100
AcDbEntity
  8
0
  6
HIDDEN
 62
     7
370
    18
100
AcDbLine
 10
150.379951323
 20
118.5274447824
 30
0.0
 11
150.379951323
 21
90.5274439181
 31
0.0
  0
LINE
  5
12D
330
1F
100
AcDbEntity
  8
0
  6
HIDDEN
 62
     7
370
    18
100
AcDbLine
 10
151.379951487
 20
118.5274447824
 30
0.0
 11
151.379951487
 21
90.5274439181
 31
0.0
  0
SPLINE
  5
12E
330
1F
100
AcDbEntity
  8
0
  6
HIDDEN
 62
     7
370
    18
100
AcDbSpline
210
0.0
220
0.0
230
1.0
 70
     8
 71
     3
 72
    10
 73
     6
 74
     0
 42
0.000000001
 43
0.00000001
 40
0.0
 40
0.0
 40
0.0
 40
0.0
 40
0.5
 40
0.5
 40
1.0
 40
1.0
 40
1.0
 40
1.0
 10
170.4497227916851
 20
105.1618732272504
 30
0.0
 10
170.4828702097616
 20
104.9528826262424
 30
0.0
 10
170.4997290551232
 20
104.7413201602208
 30
0.0
 10
170.4997165247756
 20
104.3133313942532
 30
0.0
 10
170.4828015670352
 20
104.1015732898375
 30
0.0
 10
170.4497227916851
 20
103.8930154732054
 30
0.0
  0
LINE
  5
12F
330
1F
100
AcDbEntity
  8
0
  6
HIDDEN
 62
     7
370
    18
100
AcDbLine
 10
170.9497228513
 20
118.0274447004
 30
0.0
 11
170.9497228513
 21
91.0274440001
 31
0.0
  0
SPLINE
  5
130
330
1F
100
AcDbEntity
  8
0
  6
HIDDEN
 62
     7
370
    18
100
AcDbSpline
210
0.0
220
0.0
230
1.0
 70
     8
 71
     3
 72
    10
 73
     6
 74
     0
 42
0.000000001
 43
0.00000001
 40
0.0
 40
0.0
 40
0.0
 40
0.0
 40
0.5
 40
0.5
 40
1.0
 40
1.0
 40
1.0
 40
1.0
 10
170.4497227916851
 20
103.8930154732054
 30
0.0
 10
170.4829117541589
 20
104.1022680067879
 30
0.0
 10
170.4996125304135
 20
104.3130847676868
 30
0.0
 10
170.4998319708582
 20
104.7376170488901
 30
0.0
 10
170.4829522554648
 20
104.9523653376627
 30
0.0
 10
170.4497227916851
 20
105.1618732272504
 30
0.0
  0
SPLINE
  5
131
330
1F
100
AcDbEntity
  8
0
  6
HIDDEN
 62
     7
370
    18
100
AcDbSpline
210
0.0
220
0.0
230
1.0
 70
     8
 71
     3
 72
    68
 73
    64
 74
     0
 42
0.000000001
 43
0.00000001
 40
0.0
 40
0.0
 40
0.0
 40
0.0
 40
0.03125
 40
0.03125
 40
0.0625
 40
0.0625
 40
0.09375
 40
0.09375
 40
0.125
 40
0.125
 40
0.15625
 40
0.15625
 40
0.1875
 40
0.1875
 40
0.21875
 40
0.21875
 40
0.25
 40
0.25
 40
0.28125
 40
0.28125
 40
0.3125
 40
0.3125
 40
0.34375
 40
0.34375
 40
0.375
 40
0.375
 40
0.40625
 40
0.40625
 40
0.4375
 40
0.4375
 40
0.46875
 40
0.46875
 40
0.5
 40
0.5
 40
0.5625
 40
0.5625
 40
0.59375
 40
0.59375
 40
0.625
 40
0.625
 40
0.65625
 40
0.65625
 40
0.6875
 40
0.6875
 40
0.71875
 40
0.71875
 40
0.75
 40
0.75
 40
0.78125
 40
0.78125
 40
0.8125
 40
0.8125
 40
0.84375
 40
0.84375
 40
0.875
 40
0.875
 40
0.90625
 40
0.90625
 40
0.9375
 40
0.9375
 40
0.96875
 40
0.96875
 40
1.0
 40
1.0
 40
1.0
 40
1.0
 10
170.4497227916851
 20
103.8930154732054
 30
0.0
 10
170.4097078393355
 20
103.6407258703898
 30
0.0
 10
170.3467660379241
 20
103.396727020014
 30
0.0
 10
170.1773793758521
 20
102.9243086309515
 30
0.0
 10
170.0696858132666
 20
102.6938952447915
 30
0.0
 10
169.8144010447287
 20
102.2591906489945
 30
0.0
 10
169.6683618142565
 20
102.0565486823431
 30
0.0
 10
169.3401403776972
 20
101.6795593915853
 30
0.0
 10
169.1558930899223
 20
101.5039014380079
 30
0.0
 10
168.762932922614
 20
101.1936434690617
 30
0.0
 10
168.5536383256548
 20
101.0576982614118
 30
0.0
 10
168.1087528987175
 20
100.8243081660059
 30
0.0
 10
167.8719553062184
 20
100.7270615595915
 30
0.0
 10
167.3912202372992
 20
100.5803901017202
 30
0.0
 10
167.1449771441164
 20
100.5294977567777
 30
0.0
 10
166.6402603641369
 20
100.4739704065423
 30
0.0
 10
166.3840656632005
 20
100.4701455194723
 30
0.0
 10
165.8816869140003
 20
100.5095693021167
 30
0.0
 10
165.6324372148167
 20
100.552596751328
 30
0.0
 10
165.140909417338
 20
100.6863017207793
 30
0.0
 10
164.9056138161121
 20
100.7749715666845
 30
0.0
 10
164.45469992145
 20
100.9940029304619
 30
0.0
 10
164.2370875709867
 20
101.1260044961454
 30
0.0
 10
163.8338804014384
 20
101.4253617771483
 30
0.0
 10
163.6482689090039
 20
101.5919807045862
 30
0.0
 10
163.3082808386014
 20
101.9590921300137
 30
0.0
 10
163.1532079077785
 20
102.1613958755544
 30
0.0
 10
162.8868648311152
 20
102.5854765551484
 30
0.0
 10
162.7738807303984
 20
102.8086361606146
 30
0.0
 10
162.5890254734675
 20
103.2779914022088
 30
0.0
 10
162.5178847119641
 20
103.5242019055442
 30
0.0
 10
162.4239243006759
 20
104.0187277319154
 30
0.0
 10
162.3999149707195
 20
104.2696587270074
 30
0.0
 10
162.399341850047
 20
105.0339041065636
 30
0.0
 10
162.4947409613656
 20
105.5361284086146
 30
0.0
 10
162.7726047535667
 20
106.243692914887
 30
0.0
 10
162.8857667096473
 20
106.4673991786278
 30
0.0
 10
163.1518978916911
 20
106.8916690899484
 30
0.0
 10
163.3067256658908
 20
107.0939210520044
 30
0.0
 10
163.6469067716787
 20
107.4616317933726
 30
0.0
 10
163.8324092286284
 20
107.628248668622
 30
0.0
 10
164.2347030296877
 20
107.9272980474174
 30
0.0
 10
164.4527110779397
 20
108.0597547554458
 30
0.0
 10
164.90330944509
 20
108.2789611561505
 30
0.0
 10
165.1378584439708
 20
108.3674462861541
 30
0.0
 10
165.6263184375231
 20
108.5009325160928
 30
0.0
 10
165.878583833237
 20
108.5448742285865
 30
0.0
 10
166.3807644713973
 20
108.58468322506
 30
0.0
 10
166.633246588749
 20
108.5813390122465
 30
0.0
 10
167.1411116318184
 20
108.526159692256
 30
0.0
 10
167.3886571050023
 20
108.4751137637866
 30
0.0
 10
167.869624642473
 20
108.328703375551
 30
0.0
 10
168.1055845075782
 20
108.2320571707774
 30
0.0
 10
168.5521549570998
 20
107.9981522264643
 30
0.0
 10
168.7617998196733
 20
107.8620272126378
 30
0.0
 10
169.1547865264278
 20
107.5519729483087
 30
0.0
 10
169.3391824302428
 20
107.3763157007336
 30
0.0
 10
169.6677328481032
 20
106.9991757780692
 30
0.0
 10
169.8136749446263
 20
106.7967095727993
 30
0.0
 10
170.0685602998285
 20
106.363133274666
 30
0.0
 10
170.1768716126368
 20
106.1318414310845
 30
0.0
 10
170.3467065900538
 20
105.6584817509512
 30
0.0
 10
170.4097019511908
 20
105.4141999541304
 30
0.0
 10
170.4497227916851
 20
105.1618732272504
 30
0.0
  0
SPLINE
  5
132
330
1F
100
AcDbEntity
  8
0
  6
HIDDEN
 62
     7
370
    18
100
AcDbSpline
210
0.0
220
0.0
230
1.0
 70
     8
 71
     3
 72
    68
 73
    64
 74
     0
 42
0.000000001
 43
0.00000001
 40
0.0
 40
0.0
 40
0.0
 40
0.0
 40
0.03125
 40
0.03125
 40
0.0625
 40
0.0625
 40
0.09375
 40
0.09375
 40
0.125
 40
0.125
 40
0.1562499999999999
 40
0.1562499999999999
 40
0.1874999999999999
 40
0.1874999999999999
 40
0.2187499999999999
 40
0.2187499999999999
 40
0.2499999999999999
 40
0.2499999999999999
 40
0.2812499999999999
 40
0.2812499999999999
 40
0.3124999999999999
 40
0.3124999999999999
 40
0.3437499999999999
 40
0.3437499999999999
 40
0.3749999999999999
 40
0.3749999999999999
 40
0.40625
 40
0.40625
 40
0.4375
 40
0.4375
 40
0.46875
 40
0.46875
 40
0.5
 40
0.5
 40
0.5624999999999999
 40
0.5624999999999999
 40
0.5937499999999999
 40
0.5937499999999999
 40
0.6249999999999999
 40
0.6249999999999999
 40
0.6562499999999999
 40
0.6562499999999999
 40
0.6874999999999999
 40
0.6874999999999999
 40
0.7187499999999999
 40
0.7187499999999999
 40
0.7499999999999999
 40
0.7499999999999999
 40
0.78125
 40
0.78125
 40
0.8125
 40
0.8125
 40
0.84375
 40
0.84375
 40
0.875
 40
0.875
 40
0.90625
 40
0.90625
 40
0.9375
 40
0.9375
 40
0.96875
 40
0.96875
 40
1.0
 40
1.0
 40
1.0
 40
1.0
 10
170.4497227916851
 20
105.1618732272504
 30
0.0
 10
170.4097078393355
 20
105.414162830066
 30
0.0
 10
170.3467660379241
 20
105.6581616804418
 30
0.0
 10
170.1773793758521
 20
106.1305800695043
 30
0.0
 10
170.0696858132666
 20
106.3609934556643
 30
0.0
 10
169.8144010447287
 20
106.7956980514614
 30
0.0
 10
169.6683618142565
 20
106.9983400181127
 30
0.0
 10
169.3401403776973
 20
107.3753293088705
 30
0.0
 10
169.1558930899223
 20
107.5509872624479
 30
0.0
 10
168.762932922614
 20
107.8612452313941
 30
0.0
 10
168.5536383256548
 20
107.997190439044
 30
0.0
 10
168.1087528987174
 20
108.2305805344499
 30
0.0
 10
167.8719553062184
 20
108.3278271408643
 30
0.0
 10
167.3912202372992
 20
108.4744985987357
 30
0.0
 10
167.1449771441164
 20
108.525390943678
 30
0.0
 10
166.6402603641369
 20
108.5809182939135
 30
0.0
 10
166.3840656632004
 20
108.5847431809835
 30
0.0
 10
165.8816869140003
 20
108.5453193983391
 30
0.0
 10
165.6324372148167
 20
108.5022919491278
 30
0.0
 10
165.140909417338
 20
108.3685869796765
 30
0.0
 10
164.9056138161121
 20
108.2799171337713
 30
0.0
 10
164.45469992145
 20
108.0608857699939
 30
0.0
 10
164.2370875709867
 20
107.9288842043104
 30
0.0
 10
163.8338804014383
 20
107.6295269233075
 30
0.0
 10
163.6482689090039
 20
107.4629079958696
 30
0.0
 10
163.3082808386014
 20
107.0957965704421
 30
0.0
 10
163.1532079077785
 20
106.8934928249014
 30
0.0
 10
162.8868648311152
 20
106.4694121453074
 30
0.0
 10
162.7738807303984
 20
106.2462525398412
 30
0.0
 10
162.5890254734675
 20
105.776897298247
 30
0.0
 10
162.5178847119641
 20
105.5306867949115
 30
0.0
 10
162.4239243006759
 20
105.0361609685404
 30
0.0
 10
162.3999149707195
 20
104.7852299734484
 30
0.0
 10
162.399341850047
 20
104.0209845938921
 30
0.0
 10
162.4947409613656
 20
103.5187602918412
 30
0.0
 10
162.7726047535667
 20
102.8111957855688
 30
0.0
 10
162.8857667096472
 20
102.587489521828
 30
0.0
 10
163.1518978916911
 20
102.1632196105074
 30
0.0
 10
163.3067256658908
 20
101.9609676484513
 30
0.0
 10
163.6469067716787
 20
101.5932569070832
 30
0.0
 10
163.8324092286284
 20
101.4266400318338
 30
0.0
 10
164.2347030296877
 20
101.1275906530384
 30
0.0
 10
164.4527110779397
 20
100.99513394501
 30
0.0
 10
164.90330944509
 20
100.7759275443053
 30
0.0
 10
165.1378584439708
 20
100.6874424143017
 30
0.0
 10
165.6263184375231
 20
100.553956184363
 30
0.0
 10
165.878583833237
 20
100.5100144718693
 30
0.0
 10
166.3807644713973
 20
100.4702054753958
 30
0.0
 10
166.633246588749
 20
100.4735496882093
 30
0.0
 10
167.1411116318185
 20
100.5287290081998
 30
0.0
 10
167.3886571050023
 20
100.5797749366692
 30
0.0
 10
167.869624642473
 20
100.7261853249048
 30
0.0
 10
168.1055845075782
 20
100.8228315296784
 30
0.0
 10
168.5521549570998
 20
101.0567364739915
 30
0.0
 10
168.7617998196733
 20
101.192861487818
 30
0.0
 10
169.1547865264278
 20
101.5029157521471
 30
0.0
 10
169.3391824302428
 20
101.6785729997222
 30
0.0
 10
169.6677328481032
 20
102.0557129223866
 30
0.0
 10
169.8136749446263
 20
102.2581791276565
 30
0.0
 10
170.0685602998285
 20
102.6917554257898
 30
0.0
 10
170.1768716126368
 20
102.9230472693713
 30
0.0
 10
170.3467065900538
 20
103.3964069495046
 30
0.0
 10
170.4097019511908
 20
103.6406887463254
 30
0.0
 10
170.4497227916851
 20
103.8930154732054
 30
0.0
  0
LINE
  5
133
330
1F
100
AcDbEntity
  8
0
  6
HIDDEN
 62
     7
370
    18
100
AcDbLine
 10
172.1997225905
 20
113.5274439628
 30
0.0
 11
172.1997225905
 21
95.5274447377
 31
0.0
  0
LINE
  5
134
330
1F
100
AcDbEntity
  8
0
  6
HIDDEN
 62
     7
370
    18
100
AcDbLine
 10
170.9497228513
 20
94.2774440671
 30
0.0
 11
170.9497228513
 21
114.7774446333
 31
0.0
  0
LINE
  5
135
330
1F
100
AcDbEntity
  8
0
  6
HIDDEN
 62
     7
370
    18
100
AcDbLine
 10
208.949723492
 20
95.5274447377
 30
0.0
 11
208.949723492
 21
113.5274439628
 31
0.0
  0
LINE
  5
136
330
1F
100
AcDbEntity
  8
0
  6
HIDDEN
 62
     7
370
    18
100
AcDbLine
 10
220.1012961815
 20
107.1282157252
 30
0.0
 11
220.1012961815
 21
83.3493720318
 31
0.0
  0
SPLINE
  5
137
330
1F
100
AcDbEntity
  8
0
  6
HIDDEN
 62
     7
370
    18
100
AcDbSpline
210
0.0
220
0.0
230
1.0
 70
     8
 71
     3
 72
     9
 73
     5
 74
     0
 42
0.000000001
 43
0.00000001
 40
0.0
 40
0.0
 40
0.0
 40
0.0
 40
0.5
 40
1.0
 40
1.0
 40
1.0
 40
1.0
 10
220.1483216299953
 20
108.4636543759307
 30
0.0
 10
220.1410404209421
 20
108.2410756122132
 30
0.0
 10
220.1252445875754
 20
107.7959306661247
 30
0.0
 10
220.1090379796993
 20
107.3507899101062
 30
0.0
 10
220.101297641748
 20
107.1282158296936
 30
0.0
  0
SPLINE
  5
138
330
1F
100
AcDbEntity
  8
0
  6
HIDDEN
 62
     7
370
    18
100
AcDbSpline
210
0.0
220
0.0
230
1.0
 70
     8
 71
     3
 72
    12
 73
     8
 74
     0
 42
0.000000001
 43
0.00000001
 40
0.0
 40
0.0
 40
0.0
 40
0.0
 40
0.5000000000000003
 40
0.5000000000000003
 40
0.7500000000000001
 40
0.7500000000000001
 40
1.0
 40
1.0
 40
1.0
 40
1.0
 10
219.1823958037067
 20
81.4646241433359
 30
0.0
 10
219.3790551319722
 20
81.82942328506073
 30
0.0
 10
219.5530328748328
 20
82.16822411075091
 30
0.0
 10
219.7879629467877
 20
82.64658148061383
 30
0.0
 10
219.8615596159518
 20
82.80067582423185
 30
0.0
 10
219.994374288754
 20
83.09092760432677
 30
0.0
 10
220.0541220598633
 20
83.22787244310028
 30
0.0
 10
220.101297641747
 20
83.34937277158322
 30
0.0
  0
LINE
  5
139
330
1F
100
AcDbEntity
  8
0
  6
HIDDEN
 62
     7
370
    18
100
AcDbLine
 10
243.3121085415
 20
111.396613768
 30
0.0
 11
239.5255483935
 21
112.774809594
 31
0.0
  0
LINE
  5
13A
330
1F
100
AcDbEntity
  8
0
  6
HIDDEN
 62
     7
370
    18
100
AcDbLine
 10
233.3265349517
 20
138.689753371
 30
0.0
 11
233.2879632959
 21
138.6715329761
 31
0.0
  0
LINE
  5
13B
330
1F
100
AcDbEntity
  8
0
  6
HIDDEN
 62
     7
370
    18
100
AcDbLine
 10
236.0938109706
 20
135.8656853015
 30
0.0
 11
236.1120350907
 21
135.9042569573
 31
0.0
  0
LINE
  5
13C
330
1F
100
AcDbEntity
  8
0
  6
HIDDEN
 62
     7
370
    18
100
AcDbLine
 10
236.1120350907
 20
135.9042569573
 30
0.0
 11
245.528320993
 21
136.7280751045
 31
0.0
  0
LINE
  5
13D
330
1F
100
AcDbEntity
  8
0
  6
HIDDEN
 62
     7
370
    18
100
AcDbLine
 10
234.1371283183
 20
147.9548781688
 30
0.0
 11
234.0998679648
 21
147.9516185398
 31
0.0
  0
LINE
  5
13E
330
1F
100
AcDbEntity
  8
0
  6
HIDDEN
 62
     7
370
    18
100
AcDbLine
 10
234.1371283183
 20
147.9548781688
 30
0.0
 11
233.3265349517
 21
138.689753371
 31
0.0
  0
LINE
  5
13F
330
1F
100
AcDbEntity
  8
0
  6
HIDDEN
 62
     7
370
    18
100
AcDbLine
 10
245.528320993
 20
136.7280751045
 30
0.0
 11
245.5250650892
 21
136.6908147509
 31
0.0
  0
ARC
  5
140
330
1F
100
AcDbEntity
  8
0
  6
HIDDEN
 62
     7
370
    18
100
AcDbCircle
 10
234.2042596777
 20
136.7819812363
 30
0.0
 40
2.100000000000052
100
AcDbArc
 50
335.2938894515
 51
342.6073121946
  0
LINE
  5
141
330
1F
100
AcDbEntity
  8
0
  6
HIDDEN
 62
     7
370
    18
100
AcDbLine
 10
236.2082444379
 20
136.1542500133
 30
0.0
 11
245.3061819325
 21
136.9502178902
 31
0.0
  0
LINE
  5
142
330
1F
100
AcDbEntity
  8
0
  6
HIDDEN
 62
     7
370
    18
100
AcDbLine
 10
245.528320993
 20
136.7280751045
 30
0.0
 11
245.3061819325
 21
136.9502178902
 31
0.0
  0
LINE
  5
143
330
1F
100
AcDbEntity
  8
0
  6
HIDDEN
 62
     7
370
    18
100
AcDbLine
 10
234.3706630418
 20
147.8629454548
 30
0.0
 11
233.5765280078
 21
138.7859664435
 31
0.0
  0
ELLIPSE
  5
144
330
1F
100
AcDbEntity
  8
0
  6
HIDDEN
 62
     7
370
    18
100
AcDbEllipse
 10
230.4375226086
 20
107.4996213095
 30
0.0
 11
3.646655873727156
 21
40.4624384178742
 31
0.0
210
0.0
220
0.0
230
1.0
 40
0.1208634283
 41
6.2232289782917
 42
6.272313748863642
  0
ARC
  5
145
330
1F
100
AcDbEntity
  8
0
  6
HIDDEN
 62
     7
370
    18
100
AcDbCircle
 10
234.2042596777
 20
136.7819812363
 30
0.0
 40
2.09999999999999
100
AcDbArc
 50
107.3926878054
 51
114.7061105485
  0
SPLINE
  5
146
330
1F
100
AcDbEntity
  8
0
  6
HIDDEN
 62
     7
370
    18
100
AcDbSpline
210
0.0
220
0.0
230
1.0
 70
     8
 71
     3
 72
    22
 73
    18
 74
     0
 42
0.000000001
 43
0.00000001
 40
0.0
 40
0.0
 40
0.0
 40
0.0
 40
0.2500000000000004
 40
0.2500000000000004
 40
0.3125000000000005
 40
0.3125000000000005
 40
0.3750000000000006
 40
0.3750000000000006
 40
0.5000000000000011
 40
0.5000000000000011
 40
0.6250000000000017
 40
0.6250000000000017
 40
0.6875000000000017
 40
0.6875000000000017
 40
0.7500000000000017
 40
0.7500000000000017
 40
1.0
 40
1.0
 40
1.0
 40
1.0
 10
222.8821068178835
 20
146.9701902846935
 30
0.0
 10
222.8599897145188
 20
146.8653658172041
 30
0.0
 10
222.8320602263896
 20
146.392939307056
 30
0.0
 10
222.7901199720931
 20
145.3572659116275
 30
0.0
 10
222.7813764657435
 20
145.1275834794412
 30
0.0
 10
222.7631682176757
 20
144.6223074753578
 30
0.0
 10
222.753671546898
 20
144.3457003347372
 30
0.0
 10
222.7244204941586
 20
143.4558286905898
 30
0.0
 10
222.7038614546905
 20
142.7818037162567
 30
0.0
 10
222.6607287522078
 20
141.2772202894755
 30
0.0
 10
222.6381548393612
 20
140.4466499854295
 30
0.0
 10
222.6028042208781
 20
139.0822445197177
 30
0.0
 10
222.5907718456903
 20
138.6076349151167
 30
0.0
 10
222.5662062865832
 20
137.6179855991594
 30
0.0
 10
222.5536773837085
 20
137.1030386803758
 30
0.0
 10
222.4905485615811
 20
134.4579186692234
 30
0.0
 10
222.4379308254443
 20
132.0963387077387
 30
0.0
 10
222.3834441743084
 20
129.4866384707144
 30
0.0
  0
LINE
  5
147
330
1F
100
AcDbEntity
  8
0
  6
HIDDEN
 62
     7
370
    18
100
AcDbLine
 10
245.3061819325
 20
136.9502178902
 30
0.0
 11
244.9956715355
 21
136.9230530734
 31
0.0
  0
LWPOLYLINE
  5
148
330
1F
100
AcDbEntity
  8
0
  6
HIDDEN
 62
     7
370
    18
100
AcDbPolyline
 90
        4
 70
   128
 43
0.0
 10
234.3706630418
 20
147.8629454548
 10
234.36383831
 20
147.7849304254
 10
234.3554638574
 20
147.6892128165
 10
234.3455434094
 20
147.5758373315
  0
SPLINE
  5
149
330
1F
100
AcDbEntity
  8
0
  6
HIDDEN
 62
     7
370
    18
100
AcDbSpline
210
0.0
220
0.0
230
1.0
 70
     8
 71
     3
 72
    47
 73
    43
 74
     0
 42
0.000000001
 43
0.00000001
 40
0.0
 40
0.0
 40
0.0
 40
0.0
 40
0.0195113309509477
 40
0.0392183871882145
 40
0.0591212928744323
 40
0.0792201685381585
 40
0.0995151312119967
 40
0.1200062945643321
 40
0.1406937690250061
 40
0.1615776619052493
 40
0.1826580775122157
 40
0.2039351172583576
 40
0.2254088797659416
 40
0.2470794609669589
 40
0.268946954198652
 40
0.2910114502948933
 40
0.3132730376736322
 40
0.3357318024205986
 40
0.3583878283694545
 40
0.3812411971785729
 40
0.4042919884046131
 40
0.4275402795730399
 40
0.4509861462457458
 40
0.4746296620859143
 40
0.498470898920249
 40
0.5180542704997494
 40
0.5388772848370921
 40
0.560939993531551
 40
0.5842424388199444
 40
0.6087846554066046
 40
0.6345666718534807
 40
0.661588511651443
 40
0.6898501940566284
 40
0.7193517347511
 40
0.7500931463702908
 40
0.7820744389282218
 40
0.8152956201633893
 40
0.8497566958224247
 40
0.8854576698945092
 40
0.9223985448064511
 40
0.9605793215860896
 40
1.0
 40
1.0
 40
1.0
 40
1.0
 10
245.4758164498219
 20
148.5496077886604
 30
0.0
 10
245.4467535825031
 20
148.5147783470255
 30
0.0
 10
245.3883363076298
 20
148.4447700769068
 30
0.0
 10
245.2993230184123
 20
148.32577572589
 30
0.0
 10
245.2087741595135
 20
148.1955889735139
 30
0.0
 10
245.1166413494414
 20
148.0529634160677
 30
0.0
 10
245.0229677175935
 20
147.8978953468296
 30
0.0
 10
244.9277712473235
 20
147.7300461244805
 30
0.0
 10
244.8310764606208
 20
147.5491715865824
 30
0.0
 10
244.732905765522
 20
147.3550057326438
 30
0.0
 10
244.6332817691927
 20
147.1472927918599
 30
0.0
 10
244.5322266089564
 20
146.9257789665265
 30
0.0
 10
244.4297620927707
 20
146.6902151486062
 30
0.0
 10
244.3259096185348
 20
146.4403566667367
 30
0.0
 10
244.2206901527028
 20
146.1759638526737
 30
0.0
 10
244.1141241905694
 20
145.8968023974761
 30
0.0
 10
244.0062317247576
 20
145.6026437768339
 30
0.0
 10
243.8970321942197
 20
145.2932656701079
 30
0.0
 10
243.7865444988219
 20
144.9684523907408
 30
0.0
 10
243.6747867632615
 20
144.6279953327601
 30
0.0
 10
243.5617770447134
 20
144.2716933947761
 30
0.0
 10
243.4475304691354
 20
143.8993535315385
 30
0.0
 10
243.3320698642278
 20
143.5107908630159
 30
0.0
 10
243.2153853750573
 20
143.1058304945747
 30
0.0
 10
243.1049252818512
 20
142.7105624538705
 30
0.0
 10
242.9987200173022
 20
142.321240071704
 30
0.0
 10
242.8950229106884
 20
141.9331420801529
 30
0.0
 10
242.78496981501
 20
141.511323474151
 30
0.0
 10
242.6686840435591
 20
141.0540955168494
 30
0.0
 10
242.5463241050616
 20
140.5597206941501
 30
0.0
 10
242.4180430737013
 20
140.0264219912788
 30
0.0
 10
242.2839992745052
 20
139.4523928985002
 30
0.0
 10
242.1443519470743
 20
138.8358084702056
 30
0.0
 10
241.9992611684087
 20
138.1748370963141
 30
0.0
 10
241.8488863740262
 20
137.4676543590739
 30
0.0
 10
241.6933854100333
 20
136.7124537872175
 30
0.0
 10
241.5329123416369
 20
135.9074752318163
 30
0.0
 10
241.3676193255515
 20
135.0509690971456
 30
0.0
 10
241.1976420797634
 20
134.1414191117087
 30
0.0
 10
241.0231493829896
 20
133.1767532815784
 30
0.0
 10
240.8441405499887
 20
132.1575354062322
 30
0.0
 10
240.7241183995889
 20
131.4469004786454
 30
0.0
 10
240.6631484785782
 20
131.0859058184265
 30
0.0
  0
SPLINE
  5
14A
330
1F
100
AcDbEntity
  8
0
  6
HIDDEN
 62
     7
370
    18
100
AcDbSpline
210
0.0
220
0.0
230
1.0
 70
     8
 71
     3
 72
    31
 73
    27
 74
     0
 42
0.000000001
 43
0.00000001
 40
0.0
 40
0.0
 40
0.0
 40
0.0
 40
0.0193047272979444
 40
0.0385925734597654
 40
0.0578683754555404
 40
0.0771369793256378
 40
0.0964032365420595
 40
0.1156720003493226
 40
0.1349481220986534
 40
0.1542364475893261
 40
0.1735418134309105
 40
0.192869043440016
 40
0.2122229450848133
 40
0.2316083059902051
 40
0.2510298905159912
 40
0.3765802352137658
 40
0.5015698643654876
 40
0.6263192176683525
 40
0.7512886719453109
 40
0.7870714480243716
 40
0.8227172536028551
 40
0.8582575229955958
 40
0.8937239711322892
 40
0.929148511215565
 40
0.9645631697420152
 40
1.0
 40
1.0
 40
1.0
 40
1.0
 10
241.0586801920024
 20
130.2986038755943
 30
0.0
 10
241.0890424988397
 20
130.4786897489588
 30
0.0
 10
241.1497405620104
 20
130.8387040185014
 30
0.0
 10
241.2414440487899
 20
131.3711821850949
 30
0.0
 10
241.3335661812322
 20
131.8977665664191
 30
0.0
 10
241.4261578771155
 20
132.4179403199613
 30
0.0
 10
241.5192054821524
 20
132.931841689258
 30
0.0
 10
241.6127126317071
 20
133.4394335251231
 30
0.0
 10
241.7066783265081
 20
133.9407256545738
 30
0.0
 10
241.8011028205709
 20
134.4357153599037
 30
0.0
 10
241.8959859880417
 20
134.9244031592738
 30
0.0
 10
241.9913279683688
 20
135.4067892125774
 30
0.0
 10
242.0871282185732
 20
135.8828719085891
 30
0.0
 10
242.1833886655614
 20
136.3526571350947
 30
0.0
 10
242.4561822680916
 20
137.6599264121535
 30
0.0
 10
242.9090145050049
 20
139.6828155420241
 30
0.0
 10
243.542573826716
 20
142.1523419545785
 30
0.0
 10
244.1726153320265
 20
144.2522854092192
 30
0.0
 10
244.6456033306247
 20
145.5529965107472
 30
0.0
 10
244.9654123150025
 20
146.3113657701796
 30
0.0
 10
245.1381607457187
 20
146.6908925129724
 30
0.0
 10
245.3087787504477
 20
147.0351797669779
 30
0.0
 10
245.4772869152216
 20
147.3444762306275
 30
0.0
 10
245.643625601169
 20
147.6179120650324
 30
0.0
 10
245.8080100765375
 20
147.8587085549201
 30
0.0
 10
245.9156945437961
 20
147.9893815802775
 30
0.0
 10
245.9695536264088
 20
148.0547385388727
 30
0.0
  0
CIRCLE
  5
14B
330
1F
100
AcDbEntity
  8
0
  6
HIDDEN
 62
     7
370
    18
100
AcDbCircle
 10
239.8145803026
 20
142.3923018612
 30
0.0
 40
2.599999999999994
  0
LINE
  5
14C
330
1F
100
AcDbEntity
  8
0
  6
HIDDEN
 62
     7
370
    18
100
AcDbLine
 10
245.9695741782
 20
148.054756927
 30
0.0
 11
245.475772048
 21
148.5503285701
 31
0.0
  0
LINE
  5
14D
330
1F
100
AcDbEntity
  8
0
  6
HIDDEN
 62
     7
370
    18
100
AcDbLine
 10
233.5765280078
 20
138.7859664435
 30
0.0
 11
234.3455434094
 21
147.5758373315
 31
0.0
  0
LINE
  5
14E
330
1F
100
AcDbEntity
  8
0
  6
HIDDEN
 62
     7
370
    18
100
AcDbLine
 10
244.9956715355
 20
136.9230530734
 30
0.0
 11
236.2082444379
 21
136.1542500133
 31
0.0
  0
LINE
  5
14F
330
1F
100
AcDbEntity
  8
0
  6
HIDDEN
 62
     7
370
    18
100
AcDbLine
 10
245.4757049928
 20
148.5496021385
 30
0.0
 11
234.3455434094
 21
147.5758373315
 31
0.0
  0
ARC
  5
150
330
1F
100
AcDbEntity
  8
0
  6
HIDDEN
 62
     7
370
    18
100
AcDbCircle
 10
234.2042596777
 20
136.7819812363
 30
0.0
 40
2.100000000000052
100
AcDbArc
 50
342.6073121946
 51
107.3926878054
  0
LINE
  5
151
330
1F
100
AcDbEntity
  8
0
  6
HIDDEN
 62
     7
370
    18
100
AcDbLine
 10
245.9695667277
 20
148.0547383005
 30
0.0
 11
244.9956715355
 21
136.9230530734
 31
0.0
  0
CIRCLE
  5
152
330
1F
100
AcDbEntity
  8
0
  6
HIDDEN
 62
     7
370
    18
100
AcDbCircle
 10
239.8145803026
 20
142.3923018612
 30
0.0
 40
2.099999999999994
  0
CIRCLE
  5
153
330
1F
100
AcDbEntity
  8
0
  6
HIDDEN
 62
     7
370
    18
100
AcDbCircle
 10
234.2042596777
 20
136.7819812363
 30
0.0
 40
2.099999999999994
  0
SPLINE
  5
154
330
1F
100
AcDbEntity
  8
0
  6
HIDDEN
 62
     7
370
    18
100
AcDbSpline
210
0.0
220
0.0
230
1.0
 70
     8
 71
     3
 72
    16
 73
    12
 74
     0
 42
0.000000001
 43
0.00000001
 40
0.0
 40
0.0
 40
0.0
 40
0.0
 40
0.2500000000000004
 40
0.2500000000000004
 40
0.3750000000000003
 40
0.3750000000000003
 40
0.5000000000000003
 40
0.5000000000000003
 40
0.7500000000000001
 40
0.7500000000000001
 40
1.0
 40
1.0
 40
1.0
 40
1.0
 10
180.6284024481255
 20
126.29752530523
 30
0.0
 10
180.467169970641
 20
126.1995096921753
 30
0.0
 10
180.3466901310014
 20
126.0127736604992
 30
0.0
 10
180.2243096136881
 20
125.5997338529403
 30
0.0
 10
180.1933319532906
 20
125.4397333537074
 30
0.0
 10
180.1517182156627
 20
125.0729277026163
 30
0.0
 10
180.1414823027299
 20
124.8695905499923
 30
0.0
 10
180.1412939056737
 20
124.2023032833656
 30
0.0
 10
180.1814386083114
 20
123.6814888194775
 30
0.0
 10
180.3455923632509
 20
122.4841298039998
 30
0.0
 10
180.4671440136605
 20
121.8258601497038
 30
0.0
 10
180.6284024481255
 20
121.1113509764689
 30
0.0
  0
LINE
  5
155
330
1F
100
AcDbEntity
  8
0
  6
HIDDEN
 62
     7
370
    18
100
AcDbLine
 10
145.4497233281
 20
89.4233917395
 30
0.0
 11
145.4497233281
 21
83.3690806801
 31
0.0
  0
LINE
  5
156
330
1F
100
AcDbEntity
  8
0
  6
HIDDEN
 62
     7
370
    18
100
AcDbLine
 10
143.9497240136
 20
89.8564045827
 30
0.0
 11
143.9497240136
 21
84.2351063664
 31
0.0
  0
LINE
  5
157
330
1F
100
AcDbEntity
  8
0
  6
HIDDEN
 62
     7
370
    18
100
AcDbLine
 10
145.4497233281
 20
125.6858080203
 30
0.0
 11
145.4497233281
 21
119.6314969609
 31
0.0
  0
LINE
  5
158
330
1F
100
AcDbEntity
  8
0
  6
HIDDEN
 62
     7
370
    18
100
AcDbLine
 10
143.9497240136
 20
124.8197823341
 30
0.0
 11
143.9497240136
 21
119.1984841178
 31
0.0
  0
LINE
  5
159
330
1F
100
AcDbEntity
  8
0
  6
HIDDEN
 62
     7
370
    18
100
AcDbLine
 10
179.7497228036
 20
126.5475440348
 30
0.0
 11
179.7497228036
 21
120.0623649682
 31
0.0
  0
LINE
  5
15A
330
1F
100
AcDbEntity
  8
0
  6
HIDDEN
 62
     7
370
    18
100
AcDbLine
 10
179.7497228036
 20
88.9925237323
 30
0.0
 11
179.7497228036
 21
82.5073446656
 31
0.0
  0
SPLINE
  5
15B
330
1F
100
AcDbEntity
  8
0
  6
HIDDEN
 62
     7
370
    18
100
AcDbSpline
210
0.0
220
0.0
230
1.0
 70
     8
 71
     3
 72
    16
 73
    12
 74
     0
 42
0.000000001
 43
0.00000001
 40
0.0
 40
0.0
 40
0.0
 40
0.0
 40
0.2499999999999993
 40
0.2499999999999993
 40
0.3749999999999992
 40
0.3749999999999992
 40
0.4999999999999992
 40
0.4999999999999992
 40
0.7499999999999996
 40
0.7499999999999996
 40
1.0
 40
1.0
 40
1.0
 40
1.0
 10
180.6284024481255
 20
87.94353772398686
 30
0.0
 10
180.467169970641
 20
87.22914356179473
 30
0.0
 10
180.3466901310014
 20
86.57580129908605
 30
0.0
 10
180.2243096136881
 20
85.68754605728218
 30
0.0
 10
180.1933319532906
 20
85.40686552093034
 30
0.0
 10
180.1517182156627
 20
84.87783153109035
 30
0.0
 10
180.1414823027299
 20
84.6345105525119
 30
0.0
 10
180.1412939056737
 20
83.96648786199867
 30
0.0
 10
180.1814386083114
 20
83.60280695257921
 30
0.0
 10
180.3455923632509
 20
83.04291608003089
 30
0.0
 10
180.4671440136605
 20
82.85539478791374
 30
0.0
 10
180.6284024481255
 20
82.7573633952258
 30
0.0
  0
SPLINE
  5
15C
330
1F
100
AcDbEntity
  8
0
  6
HIDDEN
 62
     7
370
    18
100
AcDbSpline
210
0.0
220
0.0
230
1.0
 70
     8
 71
     3
 72
    16
 73
    12
 74
     0
 42
0.000000001
 43
0.00000001
 40
0.0
 40
0.0
 40
0.0
 40
0.0
 40
0.2499999999999937
 40
0.2499999999999937
 40
0.374999999999995
 40
0.374999999999995
 40
0.4999999999999963
 40
0.4999999999999963
 40
0.7499999999999981
 40
0.7499999999999981
 40
1.0
 40
1.0
 40
1.0
 40
1.0
 10
240.5434542919471
 20
144.3617542489209
 30
0.0
 10
240.420166138387
 20
144.4073819213039
 30
0.0
 10
240.2826208998501
 20
144.4453353080742
 30
0.0
 10
240.0528285548096
 20
144.4801811330567
 30
0.0
 10
239.9731149152546
 20
144.4879844580572
 30
0.0
 10
239.805665063411
 20
144.4939534233493
 30
0.0
 10
239.7185343618955
 20
144.4918757691328
 30
0.0
 10
239.4608205691179
 20
144.4694623561825
 30
0.0
 10
239.2907927579386
 20
144.4318629213382
 30
0.0
 10
238.9962068445886
 20
144.3325151466915
 30
0.0
 10
238.8683808731797
 20
144.2716685949251
 30
0.0
 10
238.7547877288112
 20
144.2052662018187
 30
0.0
  0
LINE
  5
15D
330
1F
100
AcDbEntity
  8
0
  6
HIDDEN
 62
     7
370
    18
100
AcDbLine
 10
143.9497240136
 20
119.1984841178
 30
0.0
 11
143.9497240136
 21
107.4294317557
 31
0.0
  0
LINE
  5
15E
330
1F
100
AcDbEntity
  8
0
  6
HIDDEN
 62
     7
370
    18
100
AcDbLine
 10
143.9497240136
 20
101.6254569447
 30
0.0
 11
143.9497240136
 21
89.8564045827
 31
0.0
  0
LINE
  5
15F
330
1F
100
AcDbEntity
  8
0
  6
HIDDEN
 62
     7
370
    18
100
AcDbLine
 10
145.4497233281
 20
100.5622332494
 30
0.0
 11
145.4497233281
 21
89.4233917395
 31
0.0
  0
LINE
  5
160
330
1F
100
AcDbEntity
  8
0
  6
HIDDEN
 62
     7
370
    18
100
AcDbLine
 10
145.4497233281
 20
119.6314969609
 30
0.0
 11
145.4497233281
 21
108.4926554511
 31
0.0
  0
LINE
  5
161
330
1F
100
AcDbEntity
  8
0
  6
HIDDEN
 62
     7
370
    18
100
AcDbLine
 10
181.7497227967
 20
119.5651514034
 30
0.0
 11
181.7497227967
 21
89.4897372971
 31
0.0
  0
LINE
  5
162
330
1F
100
AcDbEntity
  8
0
  6
HIDDEN
 62
     7
370
    18
100
AcDbLine
 10
179.7497228036
 20
120.0623649682
 30
0.0
 11
179.7497228036
 21
88.9925237323
 31
0.0
  0
ARC
  5
163
330
1F
100
AcDbEntity
  8
0
  6
HIDDEN
 62
     7
370
    18
100
AcDbCircle
 10
239.8145803026
 20
142.3923018612
 30
0.0
 40
2.100000000000005
100
AcDbArc
 50
120.3089927617
 51
69.6910072383
  0
SPLINE
  5
164
330
1F
100
AcDbEntity
  8
0
  6
HIDDEN
 62
     7
370
    18
100
AcDbSpline
210
0.0
220
0.0
230
1.0
 70
     8
 71
     3
 72
    14
 73
    10
 74
     0
 42
0.000000001
 43
0.00000001
 40
0.0
 40
0.0
 40
0.0
 40
0.0
 40
0.25
 40
0.25
 40
0.5
 40
0.5
 40
0.75
 40
0.75
 40
1.0
 40
1.0
 40
1.0
 40
1.0
 10
238.7547877288114
 20
144.2052662018186
 30
0.0
 10
238.8993313158859
 20
144.1929263661168
 30
0.0
 10
239.046186354845
 20
144.1841407286494
 30
0.0
 10
239.348060628921
 20
144.1795611869419
 30
0.0
 10
239.5037282873642
 20
144.1842767386177
 30
0.0
 10
239.8086413617302
 20
144.2109202104304
 30
0.0
 10
239.9603245771334
 20
144.2328490264587
 30
0.0
 10
240.2589572003893
 20
144.2900505786507
 30
0.0
 10
240.4027405593895
 20
144.3243669450636
 30
0.0
 10
240.5434542919471
 20
144.3617542489209
 30
0.0
  0
SPLINE
  5
165
330
1F
100
AcDbEntity
  8
0
  6
HIDDEN
 62
     7
370
    18
100
AcDbSpline
210
0.0
220
0.0
230
1.0
 70
     8
 71
     3
 72
    24
 73
    20
 74
     0
 42
0.000000001
 43
0.00000001
 40
0.0
 40
0.0
 40
0.0
 40
0.0
 40
0.1249999999999999
 40
0.1249999999999999
 40
0.2499999999999997
 40
0.2499999999999997
 40
0.3749999999999997
 40
0.3749999999999997
 40
0.4374999999999997
 40
0.4374999999999997
 40
0.4999999999999997
 40
0.4999999999999997
 40
0.6249999999999998
 40
0.6249999999999998
 40
0.7499999999999998
 40
0.7499999999999998
 40
0.8749999999999999
 40
0.8749999999999999
 40
1.0
 40
1.0
 40
1.0
 40
1.0
 10
150.3997227916851
 20
100.4414832971287
 30
0.0
 10
150.6375264239602
 20
100.7404903994588
 30
0.0
 10
150.8676120851715
 20
101.0448282507775
 30
0.0
 10
151.3023654837813
 20
101.6705617881735
 30
0.0
 10
151.5072982760675
 20
101.991786515501
 30
0.0
 10
151.8724002265662
 20
102.6637122862337
 30
0.0
 10
152.0342006123577
 20
103.0190275181126
 30
0.0
 10
152.2060608169375
 20
103.5692587394651
 30
0.0
 10
152.2516460085976
 20
103.7556625244456
 30
0.0
 10
152.3141207481724
 20
104.1357970265418
 30
0.0
 10
152.3307918939209
 20
104.3314668188277
 30
0.0
 10
152.3313129370974
 20
104.9099471975021
 30
0.0
 10
152.2668706362107
 20
105.2878590364709
 30
0.0
 10
152.0370215428373
 20
106.0298270615693
 30
0.0
 10
151.8785008651742
 20
106.3785425217303
 30
0.0
 10
151.5142665352741
 20
107.0516349194635
 30
0.0
 10
151.3075302952105
 20
107.3765874067051
 30
0.0
 10
150.8695923494701
 20
108.0075112171669
 30
0.0
 10
150.6383196221906
 20
108.3134009575075
 30
0.0
 10
150.3997227916852
 20
108.613405403327
 30
0.0
  0
LINE
  5
166
330
1F
100
AcDbEntity
  8
0
  6
HIDDEN
 62
     7
370
    18
100
AcDbLine
 10
150.3997214387
 20
100.4414830866
 30
0.0
 11
150.3997214387
 21
108.6134056139
 31
0.0
  0
SPLINE
  5
167
330
1F
100
AcDbEntity
  8
0
  6
HIDDEN
 62
     7
370
    18
100
AcDbSpline
210
0.0
220
0.0
230
1.0
 70
     8
 71
     3
 72
     8
 73
     4
 74
     0
 42
0.000000001
 43
0.00000001
 40
0.0000249638557296
 40
0.0000249638557296
 40
0.0000249638557296
 40
0.0000249638557296
 40
0.0049776420541172
 40
0.0049776420541172
 40
0.0049776420541172
 40
0.0049776420541172
 10
145.4497227916851
 20
100.5622334533914
 30
0.0
 10
147.0996990261947
 20
100.5209542156231
 30
0.0
 10
148.7497003459397
 20
100.4807325343836
 30
0.0
 10
150.3997227916851
 20
100.4414832971286
 30
0.0
  0
SPLINE
  5
168
330
1F
100
AcDbEntity
  8
0
  6
HIDDEN
 62
     7
370
    18
100
AcDbSpline
210
0.0
220
0.0
230
1.0
 70
     8
 71
     3
 72
     8
 73
     4
 74
     0
 42
0.000000001
 43
0.00000001
 40
0.0000249631533153
 40
0.0000249631533153
 40
0.0000249631533153
 40
0.0000249631533153
 40
0.0049776413517029
 40
0.0049776413517029
 40
0.0049776413517029
 40
0.0049776413517029
 10
150.3997227916851
 20
108.6134054033272
 30
0.0
 10
148.7497003459397
 20
108.5741561660721
 30
0.0
 10
147.0996990261947
 20
108.5339344848327
 30
0.0
 10
145.4497227916851
 20
108.4926552470644
 30
0.0
  0
SPLINE
  5
169
330
1F
100
AcDbEntity
  8
0
  6
HIDDEN
 62
     7
370
    18
100
AcDbSpline
210
0.0
220
0.0
230
1.0
 70
     8
 71
     3
 72
     8
 73
     4
 74
     0
 42
0.000000001
 43
0.00000001
 40
0.0
 40
0.0
 40
0.0
 40
0.0
 40
1.0
 40
1.0
 40
1.0
 40
1.0
 10
143.9497227916829
 20
101.6254570172475
 30
0.0
 10
144.4164834030607
 20
101.2100937716245
 30
0.0
 10
144.9222309498408
 20
100.8655033423199
 30
0.0
 10
145.4497227916851
 20
100.5622334533914
 30
0.0
  0
SPLINE
  5
16A
330
1F
100
AcDbEntity
  8
0
  6
HIDDEN
 62
     7
370
    18
100
AcDbSpline
210
0.0
220
0.0
230
1.0
 70
     8
 71
     3
 72
     8
 73
     4
 74
     0
 42
0.000000001
 43
0.00000001
 40
0.0
 40
0.0
 40
0.0
 40
0.0
 40
1.0
 40
1.0
 40
1.0
 40
1.0
 10
145.4497227916851
 20
108.4926552470644
 30
0.0
 10
144.9222309498416
 20
108.1893853581364
 30
0.0
 10
144.4164834030623
 20
107.8447949288324
 30
0.0
 10
143.9497227916851
 20
107.4294316832103
 30
0.0
  0
LINE
  5
16B
330
1F
100
AcDbEntity
  8
0
  6
HIDDEN
 62
     7
370
    18
100
AcDbLine
 10
143.9497240136
 20
101.6254569447
 30
0.0
 11
143.9497240136
 21
107.4294317557
 31
0.0
  0
SPLINE
  5
16C
330
1F
100
AcDbEntity
  8
0
  6
HIDDEN
 62
     7
370
    18
100
AcDbSpline
210
0.0
220
0.0
230
1.0
 70
    11
 71
     3
 72
    72
 73
    68
 74
     0
 42
0.000000001
 43
0.00000001
 40
0.0
 40
0.0
 40
0.0
 40
0.0
 40
0.0312499999999999
 40
0.0312499999999999
 40
0.0624999999999997
 40
0.0624999999999997
 40
0.0937499999999996
 40
0.0937499999999996
 40
0.1249999999999995
 40
0.1249999999999995
 40
0.1562499999999995
 40
0.1562499999999995
 40
0.1874999999999995
 40
0.1874999999999995
 40
0.2187499999999996
 40
0.2187499999999996
 40
0.2499999999999996
 40
0.2499999999999996
 40
0.2812499999999997
 40
0.2812499999999997
 40
0.3124999999999998
 40
0.3124999999999998
 40
0.3437499999999999
 40
0.3437499999999999
 40
0.3749999999999999
 40
0.3749999999999999
 40
0.390625
 40
0.390625
 40
0.4062500000000001
 40
0.4062500000000001
 40
0.4375000000000002
 40
0.4375000000000002
 40
0.4687500000000002
 40
0.4687500000000002
 40
0.5000000000000003
 40
0.5000000000000003
 40
0.5312500000000004
 40
0.5312500000000004
 40
0.5625000000000006
 40
0.5625000000000006
 40
0.5937500000000006
 40
0.5937500000000006
 40
0.6250000000000007
 40
0.6250000000000007
 40
0.6562500000000008
 40
0.6562500000000008
 40
0.6875000000000007
 40
0.6875000000000007
 40
0.7187500000000006
 40
0.7187500000000006
 40
0.7500000000000003
 40
0.7500000000000003
 40
0.7812500000000002
 40
0.7812500000000002
 40
0.8125000000000001
 40
0.8125000000000001
 40
0.8437500000000001
 40
0.8437500000000001
 40
0.8750000000000001
 40
0.8750000000000001
 40
0.9062500000000001
 40
0.9062500000000001
 40
0.9375
 40
0.9375
 40
0.96875
 40
0.96875
 40
1.0
 40
1.0
 40
1.0
 40
1.0
 10
163.2608842204473
 20
107.1734559002853
 30
0.0
 10
163.4480993303842
 20
107.3786338005279
 30
0.0
 10
163.6529519316498
 20
107.5622828831864
 30
0.0
 10
164.0958201284968
 20
107.8892377866817
 30
0.0
 10
164.3357755458151
 20
108.0330159948616
 30
0.0
 10
164.8313865285896
 20
108.2705333503074
 30
0.0
 10
165.0886528197441
 20
108.3658529152052
 30
0.0
 10
165.6220065875812
 20
108.5099384478396
 30
0.0
 10
165.8962867274795
 20
108.5576744548092
 30
0.0
 10
166.442715262059
 20
108.6032565953431
 30
0.0
 10
166.7172915805268
 20
108.6018228352708
 30
0.0
 10
167.2692587547975
 20
108.54890952718
 30
0.0
 10
167.5398757173692
 20
108.4979398009758
 30
0.0
 10
168.0661608884484
 20
108.3493331740322
 30
0.0
 10
168.323792451856
 20
108.2510478032751
 30
0.0
 10
168.8197186165295
 20
108.0067944440894
 30
0.0
 10
169.0527022943212
 20
107.8637143130672
 30
0.0
 10
169.4890355696462
 20
107.5358557625984
 30
0.0
 10
169.6943168235044
 20
107.3488621248981
 30
0.0
 10
170.0623511213646
 20
106.9394315050751
 30
0.0
 10
170.2238661113498
 20
106.7193260640906
 30
0.0
 10
170.501023794497
 20
106.2475759826526
 30
0.0
 10
170.6174179739307
 20
105.9925594562114
 30
0.0
 10
170.7906920105773
 20
105.4713216328144
 30
0.0
 10
170.8491385650431
 20
105.2038375150335
 30
0.0
 10
170.8930032905189
 20
104.791921855701
 30
0.0
 10
170.9001835071483
 20
104.6522145526255
 30
0.0
 10
170.8992154798529
 20
104.3760914971631
 30
0.0
 10
170.8912126904392
 20
104.2389149308323
 30
0.0
 10
170.8451399585268
 20
103.829981489569
 30
0.0
 10
170.7842051260748
 20
103.5580552405648
 30
0.0
 10
170.6060849696663
 20
103.0348747241097
 30
0.0
 10
170.4905170583239
 20
102.7861627237463
 30
0.0
 10
170.2086702743846
 20
102.3132781987544
 30
0.0
 10
170.0418003289699
 20
102.0896689815223
 30
0.0
 10
169.6724747741711
 20
101.6850115933346
 30
0.0
 10
169.4676896178737
 20
101.5005980051651
 30
0.0
 10
169.0230366703575
 20
101.1715719702707
 30
0.0
 10
168.7881875408467
 20
101.0304038942825
 30
0.0
 10
168.2947777783696
 20
100.791994365502
 30
0.0
 10
168.033490824665
 20
100.6942118090971
 30
0.0
 10
167.5027525441523
 20
100.548883780907
 30
0.0
 10
167.2331128432551
 20
100.500594390712
 30
0.0
 10
166.6853615035099
 20
100.4521791669254
 30
0.0
 10
166.4054574616513
 20
100.4526373525613
 30
0.0
 10
165.8583795538162
 20
100.5027892081635
 30
0.0
 10
165.5887744491288
 20
100.5519627751955
 30
0.0
 10
165.0576196924727
 20
100.6996372985025
 30
0.0
 10
164.7963248760292
 20
100.7987924628681
 30
0.0
 10
164.3040108978538
 20
101.0398052333448
 30
0.0
 10
164.0700540222752
 20
101.1822933579696
 30
0.0
 10
163.6278854017447
 20
101.5137807869545
 30
0.0
 10
163.4226918706331
 20
101.7012144149429
 30
0.0
 10
163.0569976542751
 20
102.1081181339933
 30
0.0
 10
162.8942270318867
 20
102.3292972086623
 30
0.0
 10
162.6132746011212
 20
102.8090445378776
 30
0.0
 10
162.5000707488476
 20
103.0590565046879
 30
0.0
 10
162.3274620247087
 20
103.5791317147083
 30
0.0
 10
162.2678557420323
 20
103.8528631793381
 30
0.0
 10
162.2099639719625
 20
104.4014808292365
 30
0.0
 10
162.2107535108224
 20
104.6758206931281
 30
0.0
 10
162.2719439864389
 20
105.2245626442671
 30
0.0
 10
162.3330727101729
 20
105.4976279581242
 30
0.0
 10
162.5091523958027
 20
106.0177932068926
 30
0.0
 10
162.6254829907926
 20
106.2701123404515
 30
0.0
 10
162.9086842205334
 20
106.7465166818585
 30
0.0
 10
163.0736691105104
 20
106.9682780000427
 30
0.0
 10
163.2608842204473
 20
107.1734559002853
 30
0.0
  0
CIRCLE
  5
16D
330
1F
100
AcDbEntity
  8
0
  6
HIDDEN
 62
     7
370
    18
100
AcDbCircle
 10
166.4497227917
 20
104.5274443502
 30
0.0
 40
4.049999999999997
  0
LINE
  5
16E
330
1F
100
AcDbEntity
  8
0
  6
HIDDEN
 62
     7
370
    18
100
AcDbLine
 10
220.1012961815
 20
83.3122569645
 30
0.0
 11
220.1012961815
 21
83.3493720318
 31
0.0
  0
LINE
  5
16F
330
1F
100
AcDbEntity
  8
0
  6
HIDDEN
 62
     7
370
    18
100
AcDbLine
 10
220.1012961815
 20
104.5274443502
 30
0.0
 11
220.1012961815
 21
83.3122569645
 31
0.0
  0
ELLIPSE
  5
170
330
1F
100
AcDbEntity
  8
0
  6
HIDDEN
 62
     7
370
    18
100
AcDbEllipse
 10
238.5472323332
 20
104.5274443502
 30
0.0
 11
22.69053094615282
 21
31.91932617208907
 31
0.0
210
0.0
220
0.0
230
1.0
 40
0.1000778042
 41
1.641819099524551
 42
2.366604263344941
  0
CIRCLE
  5
171
330
1F
100
AcDbEntity
  8
0
  6
HIDDEN
 62
     7
370
    18
100
AcDbCircle
 10
193.9497227917
 20
104.5274443502
 30
0.0
 40
2.0
  0
LINE
  5
172
330
1F
100
AcDbEntity
  8
0
  6
HIDDEN
 62
     7
370
    18
100
AcDbLine
 10
220.1012961815
 20
104.5274443502
 30
0.0
 11
220.1012961815
 21
107.1282157252
 31
0.0
  0
LINE
  5
173
330
1F
100
AcDbEntity
  8
0
  6
HIDDEN
 62
     7
370
    18
100
AcDbLine
 10
240.6635612497
 20
131.0865122403
 30
0.0
 11
241.0590082655
 21
130.2979409273
 31
0.0
  0
LINE
  5
174
330
1F
100
AcDbEntity
  8
0
  6
HIDDEN
 62
     7
370
    18
100
AcDbLine
 10
222.3834425459
 20
129.4866378928
 30
0.0
 11
240.6631514678
 21
131.085905018
 31
0.0
  0
LINE
  5
175
330
1F
100
AcDbEntity
  8
0
  6
HIDDEN
 62
     7
370
    18
100
AcDbLine
 10
241.05868044
 20
130.2986040289
 30
0.0
 11
239.5255483935
 21
112.774809594
 31
0.0
  0
SPLINE
  5
176
330
1F
100
AcDbEntity
  8
0
  6
HIDDEN
 62
     7
370
    18
100
AcDbSpline
210
0.0
220
0.0
230
1.0
 70
     8
 71
     3
 72
     8
 73
     4
 74
     0
 42
0.000000001
 43
0.00000001
 40
0.0
 40
0.0
 40
0.0
 40
0.0
 40
1.0
 40
1.0
 40
1.0
 40
1.0
 10
222.3834441743084
 20
129.4866384707144
 30
0.0
 10
221.2387120511737
 20
122.5401940485102
 30
0.0
 10
220.3801343845428
 20
115.5499220472012
 30
0.0
 10
220.1483216299953
 20
108.4636543759307
 30
0.0
  0
LINE
  5
177
330
1F
100
AcDbEntity
  8
0
  6
HIDDEN
 62
     7
370
    18
100
AcDbLine
 10
239.5255483935
 20
112.774809594
 30
0.0
 11
233.7506778786
 21
104.5274443502
 31
0.0
  0
LINE
  5
178
330
1F
100
AcDbEntity
  8
0
  6
HIDDEN
 62
     7
370
    18
100
AcDbLine
 10
205.9497230003
 20
116.7774440299
 30
0.0
 11
205.9497230003
 21
120.2774446035
 31
0.0
  0
LINE
  5
179
330
1F
100
AcDbEntity
  8
0
  6
HIDDEN
 62
     7
370
    18
100
AcDbLine
 10
199.9497220168
 20
120.2756918545
 30
0.0
 11
199.9497220168
 21
116.7774440299
 31
0.0
  0
LINE
  5
17A
330
1F
100
AcDbEntity
  8
0
  6
HIDDEN
 62
     7
370
    18
100
AcDbLine
 10
181.9497227917
 20
80.277443635
 30
0.0
 11
182.0426160121
 21
80.3703374739
 31
0.0
  0
LINE
  5
17B
330
1F
100
AcDbEntity
  8
0
  6
HIDDEN
 62
     7
370
    18
100
AcDbLine
 10
182.0426160121
 20
128.6845512266
 30
0.0
 11
181.9497227917
 21
128.7774450655
 31
0.0
  0
ARC
  5
17C
330
1F
100
AcDbEntity
  8
0
  6
HIDDEN
 62
     7
370
    18
100
AcDbCircle
 10
181.3355092293
 20
81.0774443502
 30
0.0
 40
1.0
100
AcDbArc
 50
315.0
 51
0.0
  0
ARC
  5
17D
330
1F
100
AcDbEntity
  8
0
  6
HIDDEN
 62
     7
370
    18
100
AcDbCircle
 10
181.3355092293
 20
81.0774443502
 30
0.0
 40
1.0
100
AcDbArc
 50
0.0
 51
52.1052014664
  0
ARC
  5
17E
330
1F
100
AcDbEntity
  8
0
  6
HIDDEN
 62
     7
370
    18
100
AcDbCircle
 10
181.3355092293
 20
127.9774443502
 30
0.0
 40
1.000000000000002
100
AcDbArc
 50
351.8087250651
 51
45.0
  0
ARC
  5
17F
330
1F
100
AcDbEntity
  8
0
  6
HIDDEN
 62
     7
370
    18
100
AcDbCircle
 10
181.3355092293
 20
127.9774443502
 30
0.0
 40
1.000000000000002
100
AcDbArc
 50
307.8947985336
 51
351.8087250651
  0
LINE
  5
180
330
1F
100
AcDbEntity
  8
0
  6
HIDDEN
 62
     7
370
    18
100
AcDbLine
 10
182.3355092275
 20
81.0774441386
 30
0.0
 11
182.3355092275
 21
127.9774445618
 31
0.0
  0
LINE
  5
181
330
1F
100
AcDbEntity
  8
0
  6
HIDDEN
 62
     7
370
    18
100
AcDbLine
 10
182.3355092275
 20
81.0774441386
 30
0.0
 11
182.3355092275
 21
127.9774445618
 31
0.0
  0
LINE
  5
182
330
1F
100
AcDbEntity
  8
0
  6
HIDDEN
 62
     7
370
    18
100
AcDbLine
 10
205.449721987
 20
114.828774477
 30
0.0
 11
205.449721987
 21
116.6272291491
 31
0.0
  0
LINE
  5
183
330
1F
100
AcDbEntity
  8
0
  6
HIDDEN
 62
     7
370
    18
100
AcDbLine
 10
205.449721987
 20
109.025118644
 30
0.0
 11
205.449721987
 21
112.7272190104
 31
0.0
  0
LINE
  5
184
330
1F
100
AcDbEntity
  8
0
  6
HIDDEN
 62
     7
370
    18
100
AcDbLine
 10
200.4497230301
 20
116.6272291491
 30
0.0
 11
200.4497230301
 21
109.0234790507
 31
0.0
  0
LINE
  5
185
330
1F
100
AcDbEntity
  8
0
  6
HIDDEN
 62
     7
370
    18
100
AcDbLine
 10
213.7691669414
 20
125.4715386356
 30
0.0
 11
202.7594216416
 21
116.4153644393
 31
0.0
  0
LINE
  5
186
330
1F
100
AcDbEntity
  8
0
  6
HIDDEN
 62
     7
370
    18
100
AcDbLine
 10
205.0582144658
 20
111.8320694702
 30
0.0
 11
213.4235605846
 21
118.713067616
 31
0.0
  0
LINE
  5
187
330
1F
100
AcDbEntity
  8
0
  6
HIDDEN
 62
     7
370
    18
100
AcDbLine
 10
143.9497240136
 20
88.3310146208
 30
0.0
 11
145.4799503336
 21
89.2144932921
 31
0.0
  0
LINE
  5
188
330
1F
100
AcDbEntity
  8
0
  6
HIDDEN
 62
     7
370
    18
100
AcDbLine
 10
145.4799503336
 20
119.8403954084
 30
0.0
 11
143.9497240136
 21
120.7238740797
 31
0.0
  0
LINE
  5
189
330
1F
100
AcDbEntity
  8
0
  6
HIDDEN
 62
     7
370
    18
100
AcDbLine
 10
153.9497219274
 20
88.5274435903
 30
0.0
 11
154.9515232692
 21
88.5274435903
 31
0.0
  0
LINE
  5
18A
330
1F
100
AcDbEntity
  8
0
  6
HIDDEN
 62
     7
370
    18
100
AcDbLine
 10
154.9515232692
 20
120.5274451102
 30
0.0
 11
153.9497219274
 21
120.5274451102
 31
0.0
  0
ARC
  5
18B
330
1F
100
AcDbEntity
  8
0
  6
HIDDEN
 62
     7
370
    18
100
AcDbCircle
 10
154.9515241066
 20
90.5274443502
 30
0.0
 40
2.000000000000006
100
AcDbArc
 50
270.0
 51
315.0
  0
ARC
  5
18C
330
1F
100
AcDbEntity
  8
0
  6
HIDDEN
 62
     7
370
    18
100
AcDbCircle
 10
154.9515241066
 20
118.5274443502
 30
0.0
 40
2.000000000000016
100
AcDbArc
 50
45.0
 51
90.0
  0
ARC
  5
18D
330
1F
100
AcDbEntity
  8
0
  6
HIDDEN
 62
     7
370
    18
100
AcDbCircle
 10
153.9497227917
 20
90.5274443502
 30
0.0
 40
1.999999999999986
100
AcDbArc
 50
189.9742217944
 51
270.0
  0
ARC
  5
18E
330
1F
100
AcDbEntity
  8
0
  6
HIDDEN
 62
     7
370
    18
100
AcDbCircle
 10
153.9497227917
 20
118.5274443502
 30
0.0
 40
2.0
100
AcDbArc
 50
90.0
 51
170.0257782056
  0
LINE
  5
18F
330
1F
100
AcDbEntity
  8
0
  6
HIDDEN
 62
     7
370
    18
100
AcDbLine
 10
156.3657384614
 20
89.1132305885
 30
0.0
 11
157.7799517909
 21
90.5274439181
 31
0.0
  0
LINE
  5
190
330
1F
100
AcDbEntity
  8
0
  6
HIDDEN
 62
     7
370
    18
100
AcDbLine
 10
157.7799517909
 20
118.5274447824
 30
0.0
 11
156.3657384614
 21
119.9416581119
 31
0.0
  0
LINE
  5
191
330
1F
100
AcDbEntity
  8
0
  6
HIDDEN
 62
     7
370
    18
100
AcDbLine
 10
145.4799503336
 20
89.2144932921
 30
0.0
 11
150.379951323
 21
90.5274439181
 31
0.0
  0
LINE
  5
192
330
1F
100
AcDbEntity
  8
0
  6
HIDDEN
 62
     7
370
    18
100
AcDbLine
 10
150.379951323
 20
118.5274447824
 30
0.0
 11
145.4799503336
 21
119.8403954084
 31
0.0
  0
LINE
  5
193
330
1F
100
AcDbEntity
  8
0
  6
HIDDEN
 62
     7
370
    18
100
AcDbLine
 10
151.9799504677
 20
118.8738548706
 30
0.0
 11
151.379951487
 21
118.5274447824
 31
0.0
  0
LINE
  5
194
330
1F
100
AcDbEntity
  8
0
  6
HIDDEN
 62
     7
370
    18
100
AcDbLine
 10
151.379951487
 20
90.5274439181
 30
0.0
 11
151.9799504677
 21
90.1810338299
 31
0.0
  0
ARC
  5
195
330
1F
100
AcDbEntity
  8
0
  6
HIDDEN
 62
     7
370
    18
100
AcDbCircle
 10
170.4497227917
 20
91.0274443502
 30
0.0
 40
0.5
100
AcDbArc
 50
270.0
 51
0.0
  0
ARC
  5
196
330
1F
100
AcDbEntity
  8
0
  6
HIDDEN
 62
     7
370
    18
100
AcDbCircle
 10
170.4497227917
 20
118.0274443502
 30
0.0
 40
0.5
100
AcDbArc
 50
0.0
 51
90.0
  0
LINE
  5
197
330
1F
100
AcDbEntity
  8
0
  6
HIDDEN
 62
     7
370
    18
100
AcDbLine
 10
157.7799517909
 20
90.5274439181
 30
0.0
 11
170.4497227693
 21
90.5274439181
 31
0.0
  0
LINE
  5
198
330
1F
100
AcDbEntity
  8
0
  6
HIDDEN
 62
     7
370
    18
100
AcDbLine
 10
170.4497227693
 20
118.5274447824
 30
0.0
 11
157.7799517909
 21
118.5274447824
 31
0.0
  0
LINE
  5
199
330
1F
100
AcDbEntity
  8
0
  6
HIDDEN
 62
     7
370
    18
100
AcDbLine
 10
150.379951323
 20
90.5274439181
 30
0.0
 11
151.379951487
 21
90.5274439181
 31
0.0
  0
LINE
  5
19A
330
1F
100
AcDbEntity
  8
0
  6
HIDDEN
 62
     7
370
    18
100
AcDbLine
 10
151.379951487
 20
118.5274447824
 30
0.0
 11
150.379951323
 21
118.5274447824
 31
0.0
  0
LINE
  5
19B
330
1F
100
AcDbEntity
  8
0
  6
HIDDEN
 62
     7
370
    18
100
AcDbLine
 10
170.9497228513
 20
94.2774440671
 30
0.0
 11
172.1997225905
 21
95.5274447377
 31
0.0
  0
LINE
  5
19C
330
1F
100
AcDbEntity
  8
0
  6
HIDDEN
 62
     7
370
    18
100
AcDbLine
 10
172.1997225905
 20
113.5274439628
 30
0.0
 11
170.9497228513
 21
114.7774446333
 31
0.0
  0
LINE
  5
19D
330
1F
100
AcDbEntity
  8
0
  6
HIDDEN
 62
     7
370
    18
100
AcDbLine
 10
208.949723492
 20
113.5274439628
 30
0.0
 11
172.1997225905
 21
113.5274439628
 31
0.0
  0
LINE
  5
19E
330
1F
100
AcDbEntity
  8
0
  6
HIDDEN
 62
     7
370
    18
100
AcDbLine
 10
172.1997225905
 20
95.5274447377
 30
0.0
 11
208.949723492
 21
95.5274447377
 31
0.0
  0
LINE
  5
19F
330
1F
100
AcDbEntity
  8
0
  6
HIDDEN
 62
     7
370
    18
100
AcDbLine
 10
208.949723492
 20
95.5274447377
 30
0.0
 11
214.3574685106
 21
104.5274443502
 31
0.0
  0
LINE
  5
1A0
330
1F
100
AcDbEntity
  8
0
  6
HIDDEN
 62
     7
370
    18
100
AcDbLine
 10
214.3574685106
 20
104.5274443502
 30
0.0
 11
208.949723492
 21
113.5274439628
 31
0.0
  0
ARC
  5
1A1
330
1F
100
AcDbEntity
  8
0
  6
HIDDEN
 62
     7
370
    18
100
AcDbCircle
 10
219.1823958037
 20
137.0274443502
 30
0.0
 40
1.000000000000007
100
AcDbArc
 50
270.0
 51
296.0556324729
  0
LINE
  5
1A2
330
1F
100
AcDbEntity
  8
VERMASSUNG
  6
CENTERX2
100
AcDbLine
 10
246.9497227917
 20
149.5274443502
 30
0.0
 11
246.9497227917
 21
104.5274443502
 31
0.0
  0
LINE
  5
1A3
330
1F
100
AcDbEntity
  8
VERMASSUNG
  6
CENTERX2
100
AcDbLine
 10
246.9497227917
 20
149.5274443502
 30
0.0
 11
263.057668605
 21
149.5274443502
 31
0.0
  0
LINE
  5
1A4
330
1F
100
AcDbEntity
  8
VERMASSUNG
  6
CENTERX2
100
AcDbLine
 10
140.2467975211
 20
104.5274443502
 30
0.0
 11
246.9497227917
 21
104.5274443502
 31
0.0
  0
DIMENSION
  5
1A5
330
1F
100
AcDbEntity
  8
VERMASSUNG
100
AcDbDimension
  2
_D
 10
246.9497227917
 20
166.5979378653
 30
0.0
 11
195.4497227917
 21
166.5979378653
 31
0.0
 70
   160
  1
<>
 71
     2
 42
-1.0
  3
SLDDIMSTYLE0
100
AcDbAlignedDimension
 13
143.9497227917
 23
124.8197823427
 33
0.0
 14
246.9497227917
 24
149.5274443502
 34
0.0
 50
0.0
100
AcDbRotatedDimension
  0
DIMENSION
  5
1B0
330
1F
100
AcDbEntity
  8
VERMASSUNG
100
AcDbDimension
  2
_D_1
 10
246.9497227917
 20
158.8949436593
 30
0.0
 11
214.4497227917
 21
158.8949436593
 31
0.0
 70
   160
  1
<>
 71
     2
 42
-1.0
  3
SLDDIMSTYLE1
100
AcDbAlignedDimension
 13
181.9497227917
 23
135.5274443502
 33
0.0
 14
246.9497227917
 24
149.5274443502
 34
0.0
100
AcDbRotatedDimension
  0
DIMENSION
  5
1BD
330
1F
100
AcDbEntity
  8
VERMASSUNG
100
AcDbDimension
  2
_D_2
 10
273.2909334191
 20
104.5274443502
 30
0.0
 11
273.2909334191
 21
127.0274443502
 31
0.0
 70
   160
  1
<>
 71
     2
 42
-1.0
  3
SLDDIMSTYLE1
100
AcDbAlignedDimension
 13
246.9497227917
 23
149.5274443502
 33
0.0
 14
246.9497227917
 24
104.5274443502
 34
0.0
 50
90.0
100
AcDbRotatedDimension
  0
DIMENSION
  5
1C9
330
1F
100
AcDbEntity
  8
VERMASSUNG
100
AcDbDimension
  2
_D_3
 10
263.057668605
 20
149.5274443502
 30
0.0
 11
259.5053212303
 21
135.8652713356
 31
0.0
 70
   162
  1
<>
 71
     1
 42
-1.0
  3
SLDDIMSTYLE2
100
AcDb2LineAngularDimension
 13
245.8950475702
 23
137.0549870291
 33
0.0
 14
246.9482006709
 24
149.0925820531
 34
0.0
 15
246.9497227917
 25
149.5274443502
 35
0.0
 16
259.5053212303
 26
135.8652713356
 36
0.0
  0
DIMENSION
  5
1D4
330
1F
100
AcDbEntity
  8
VERMASSUNG
100
AcDbDimension
  2
_D_4
 10
133.9497227917
 20
73.0274443502
 30
0.0
 11
133.9497227917
 21
104.5274443502
 31
0.0
 70
   160
  1
PSC%%c<>
 71
     2
 42
-1.0
  3
SLDDIMSTYLE0
100
AcDbAlignedDimension
 13
182.4497227917
 23
136.0274443502
 33
0.0
 14
182.4497227917
 24
73.0274443502
 34
0.0
 50
90.0
100
AcDbRotatedDimension
  0
CIRCLE
  5
1E0
330
1F
100
AcDbEntity
  8
0
  6
Continuous
 62
     7
100
AcDbCircle
 10
60.959458
 20
109.4764790871
 30
0.0
 40
39.99999999999999
  0
POINT
  5
1E1
330
1F
100
AcDbEntity
  8
0
  6
Continuous
 62
     7
100
AcDbPoint
 10
60.959458
 20
149.4764790871
 30
0.0
  0
LINE
  5
1E2
330
1F
100
AcDbEntity
  8
0
  6
Continuous
 62
     7
370
    25
100
AcDbLine
 10
64.2171966592
 20
149.1274430926
 30
0.0
 11
60.959458
 21
149.5274461384
 31
0.0
  0
LINE
  5
1E3
330
1F
100
AcDbEntity
  8
0
  6
Continuous
 62
     7
370
    25
100
AcDbLine
 10
60.959458
 20
135.6366954322
 30
0.0
 11
61.2594580143
 21
135.6735311026
 31
0.0
  0
SPLINE
  5
1E4
330
1F
100
AcDbEntity
  8
0
  6
Continuous
 62
     7
370
    25
100
AcDbSpline
210
0.0
220
0.0
230
1.0
 70
     8
 71
     3
 72
    47
 73
    43
 74
     0
 42
0.000000001
 43
0.00000001
 40
0.0
 40
0.0
 40
0.0
 40
0.0
 40
0.0195113309509477
 40
0.0392183871882145
 40
0.0591212928744323
 40
0.0792201685381585
 40
0.0995151312119967
 40
0.1200062945643321
 40
0.1406937690250061
 40
0.1615776619052493
 40
0.1826580775122157
 40
0.2039351172583576
 40
0.2254088797659416
 40
0.2470794609669589
 40
0.268946954198652
 40
0.2910114502948933
 40
0.3132730376736322
 40
0.3357318024205986
 40
0.3583878283694545
 40
0.3812411971785729
 40
0.4042919884046131
 40
0.4275402795730399
 40
0.4509861462457458
 40
0.4746296620859143
 40
0.498470898920249
 40
0.5180542704997494
 40
0.5388772848370921
 40
0.560939993531551
 40
0.5842424388199444
 40
0.6087846554066046
 40
0.6345666718534807
 40
0.661588511651443
 40
0.6898501940566284
 40
0.7193517347511
 40
0.7500931463702908
 40
0.7820744389282218
 40
0.8152956201633893
 40
0.8497566958224247
 40
0.8854576698945092
 40
0.9223985448064511
 40
0.9605793215860896
 40
1.0
 40
1.0
 40
1.0
 40
1.0
 10
65.71947373888196
 20
148.5496077886604
 30
0.0
 10
65.9334586394919
 20
148.5147783470255
 30
0.0
 10
66.36357500139722
 20
148.4447700769068
 30
0.0
 10
67.00953744213085
 20
148.32577572589
 30
0.0
 10
67.65988321092946
 20
148.1955889735139
 30
0.0
 10
68.31421331905071
 20
148.0529634160677
 30
0.0
 10
68.97232692911071
 20
147.8978953468296
 30
0.0
 10
69.6339562624593
 20
147.7300461244805
 30
0.0
 10
70.29883852416526
 20
147.5491715865824
 30
0.0
 10
70.96669619818996
 20
147.3550057326438
 30
0.0
 10
71.63724226520995
 20
147.1472927918599
 30
0.0
 10
72.31017865663328
 20
146.9257789665265
 30
0.0
 10
72.98519655893217
 20
146.6902151486062
 30
0.0
 10
73.66197622762927
 20
146.4403566667367
 30
0.0
 10
74.34018694779937
 20
146.1759638526737
 30
0.0
 10
75.01948696844855
 20
145.8968023974761
 30
0.0
 10
75.69952345941326
 20
145.6026437768339
 30
0.0
 10
76.37993247435848
 20
145.2932656701079
 30
0.0
 10
77.06033893987266
 20
144.9684523907408
 30
0.0
 10
77.74035660992512
 20
144.6279953327601
 30
0.0
 10
78.41958821477284
 20
144.2716933947761
 30
0.0
 10
79.09762494189697
 20
143.8993535315385
 30
0.0
 10
79.77404851166253
 20
143.5107908630159
 30
0.0
 10
80.44842351815473
 20
143.1058304945747
 30
0.0
 10
81.07846965807822
 20
142.7105624538705
 30
0.0
 10
81.67509744492521
 20
142.321240071704
 30
0.0
 10
82.24879098925666
 20
141.9331420801529
 30
0.0
 10
82.84929228158623
 20
141.511323474151
 30
0.0
 10
83.47514674948508
 20
141.0540955168494
 30
0.0
 10
84.12476612236705
 20
140.5597206941501
 30
0.0
 10
84.79641483106772
 20
140.0264219912788
 30
0.0
 10
85.48820368440241
 20
139.4523928985002
 30
0.0
 10
86.19808158640132
 20
138.8358084702056
 30
0.0
 10
86.92382763801993
 20
138.1748370963141
 30
0.0
 10
87.66304486010972
 20
137.4676543590739
 30
0.0
 10
88.41314818860762
 20
136.7124537872175
 30
0.0
 10
89.17137722737174
 20
135.9074752318163
 30
0.0
 10
89.93471356696676
 20
135.0509690971456
 30
0.0
 10
90.7001774904739
 20
134.1414191117087
 30
0.0
 10
91.46363527626292
 20
133.1767532815784
 30
0.0
 10
92.22446189142138
 20
132.1575354062322
 30
0.0
 10
92.71186322381824
 20
131.4469004786454
 30
0.0
 10
92.95945769398645
 20
131.0859058184265
 30
0.0
  0
LINE
  5
1E5
330
1F
100
AcDbEntity
  8
0
  6
Continuous
 62
     7
370
    25
100
AcDbLine
 10
92.95945952
 20
131.0865122403
 30
0.0
 11
92.95945952
 21
130.2979409273
 31
0.0
  0
SPLINE
  5
1E6
330
1F
100
AcDbEntity
  8
0
  6
Continuous
 62
     7
370
    25
100
AcDbSpline
210
0.0
220
0.0
230
1.0
 70
     8
 71
     3
 72
    31
 73
    27
 74
     0
 42
0.000000001
 43
0.00000001
 40
0.0
 40
0.0
 40
0.0
 40
0.0
 40
0.0193047272979444
 40
0.0385925734597654
 40
0.0578683754555404
 40
0.0771369793256378
 40
0.0964032365420595
 40
0.1156720003493226
 40
0.1349481220986534
 40
0.1542364475893261
 40
0.1735418134309105
 40
0.192869043440016
 40
0.2122229450848133
 40
0.2316083059902051
 40
0.2510298905159912
 40
0.3765802352137658
 40
0.5015698643654876
 40
0.6263192176683525
 40
0.7512886719453109
 40
0.7870714480243716
 40
0.8227172536028551
 40
0.8582575229955958
 40
0.8937239711322892
 40
0.929148511215565
 40
0.9645631697420152
 40
1.0
 40
1.0
 40
1.0
 40
1.0
 10
92.95945799403171
 20
130.2986038755943
 30
0.0
 10
92.84094756458788
 20
130.4786897489588
 30
0.0
 10
92.60403033786558
 20
130.8387040185014
 30
0.0
 10
92.2379745659565
 20
131.3711821850949
 30
0.0
 10
91.86433860794193
 20
131.8977665664191
 30
0.0
 10
91.48234248128253
 20
132.4179403199613
 30
0.0
 10
91.0921950969906
 20
132.931841689258
 30
0.0
 10
90.69384059058497
 20
133.4394335251231
 30
0.0
 10
90.28729404499094
 20
133.9407256545738
 30
0.0
 10
89.87255147018779
 20
134.4357153599037
 30
0.0
 10
89.44961425507854
 20
134.9244031592738
 30
0.0
 10
89.01848138176456
 20
135.4067892125774
 30
0.0
 10
88.57915611193728
 20
135.8828719085891
 30
0.0
 10
88.13162699122726
 20
136.3526571350947
 30
0.0
 10
86.84629018226573
 20
137.6599264121535
 30
0.0
 10
84.60820204718401
 20
139.6828155420241
 30
0.0
 10
81.22084597052736
 20
142.1523419545785
 30
0.0
 10
77.59969138577135
 20
144.2522854092192
 30
0.0
 10
74.68545125916712
 20
145.5529965107472
 30
0.0
 10
72.62903816700167
 20
146.3113657701796
 30
0.0
 10
71.49686703245315
 20
146.6908925129724
 30
0.0
 10
70.3569668744913
 20
147.0351797669779
 30
0.0
 10
69.20934720408472
 20
147.3444762306275
 30
0.0
 10
68.05387445780688
 20
147.6179120650324
 30
0.0
 10
66.89108864146662
 20
147.8587085549201
 30
0.0
 10
66.11016154393309
 20
147.9893815802775
 30
0.0
 10
65.71957580644276
 20
148.0547385388727
 30
0.0
  0
LINE
  5
1E7
330
1F
100
AcDbEntity
  8
0
  6
Continuous
 62
     7
370
    25
100
AcDbLine
 10
61.2594580143
 20
111.396613768
 30
0.0
 11
92.95945952
 21
112.774809594
 31
0.0
  0
LINE
  5
1E8
330
1F
100
AcDbEntity
  8
0
  6
Continuous
 62
     7
370
    25
100
AcDbLine
 10
61.2594580143
 20
136.7280751045
 30
0.0
 11
61.2594580143
 21
111.396613768
 31
0.0
  0
LINE
  5
1E9
330
1F
100
AcDbEntity
  8
0
  6
Continuous
 62
     7
370
    25
100
AcDbLine
 10
61.2594580143
 20
136.7280751045
 30
0.0
 11
63.2194579793
 21
136.9502178902
 31
0.0
  0
LINE
  5
1EA
330
1F
100
AcDbEntity
  8
0
  6
Continuous
 62
     7
370
    25
100
AcDbLine
 10
63.2194579793
 20
136.9502178902
 30
0.0
 11
65.7194579234
 21
136.9230530734
 31
0.0
  0
LINE
  5
1EB
330
1F
100
AcDbEntity
  8
0
  6
Continuous
 62
     7
370
    25
100
AcDbLine
 10
65.7194579234
 20
137.2601136143
 30
0.0
 11
65.7194579234
 21
136.9230530734
 31
0.0
  0
LINE
  5
1EC
330
1F
100
AcDbEntity
  8
0
  6
Continuous
 62
     7
370
    25
100
AcDbLine
 10
92.95945952
 20
130.2986040289
 30
0.0
 11
92.95945952
 21
112.774809594
 31
0.0
  0
SPLINE
  5
1ED
330
1F
100
AcDbEntity
  8
0
  6
Continuous
 62
     7
370
    25
100
AcDbSpline
210
0.0
220
0.0
230
1.0
 70
     8
 71
     3
 72
    12
 73
     8
 74
     0
 42
0.000000001
 43
0.00000001
 40
0.0
 40
0.0
 40
0.0
 40
0.0
 40
0.5000000000000003
 40
0.5000000000000003
 40
0.7500000000000001
 40
0.7500000000000001
 40
1.0
 40
1.0
 40
1.0
 40
1.0
 10
82.41537383004322
 20
81.4646241433359
 30
0.0
 10
82.80749398393864
 20
81.82942328506073
 30
0.0
 10
83.22948471409273
 20
82.16822411075091
 30
0.0
 10
83.89675970533713
 20
82.64658148061383
 30
0.0
 10
84.12559973432026
 20
82.80067582423185
 30
0.0
 10
84.59541589450875
 20
83.09092760432677
 30
0.0
 10
84.8365359794509
 20
83.22787244310028
 30
0.0
 10
85.08938333141364
 20
83.34937277158322
 30
0.0
  0
ARC
  5
1EE
330
1F
100
AcDbEntity
  8
0
  6
Continuous
 62
     7
370
    25
100
AcDbCircle
 10
60.959458
 20
104.5274443502
 30
0.0
 40
31.5
100
AcDbArc
 50
266.368372865
 51
312.9328055032
  0
ELLIPSE
  5
1EF
330
1F
100
AcDbEntity
  8
0
  6
Continuous
 62
     7
370
    25
100
AcDbEllipse
 10
55.259458
 20
79.0379536076
 30
0.0
 11
1.633816617457427
 21
8.594832069372615
 31
0.0
210
0.0
220
0.0
230
1.0
 40
0.6717140804
 41
4.082884489369331
 42
4.988174409172457
  0
LINE
  5
1F0
330
1F
100
AcDbEntity
  8
0
  6
Continuous
 62
     7
370
    25
100
AcDbLine
 10
92.95945952
 20
112.774809594
 30
0.0
 11
92.95945952
 21
104.5274443502
 31
0.0
  0
ARC
  5
1F1
330
1F
100
AcDbEntity
  8
0
  6
Continuous
 62
     7
370
    25
100
AcDbCircle
 10
60.959458
 20
104.5274443502
 30
0.0
 40
32.00000000000001
100
AcDbArc
 50
318.4728690594
 51
0.0
  0
LINE
  5
1F2
330
1F
100
AcDbEntity
  8
0
  6
Continuous
 62
     7
370
    25
100
AcDbLine
 10
84.9159971094
 20
83.3122569645
 30
0.0
 11
85.0893832957
 21
83.3493720318
 31
0.0
  0
LINE
  5
1F3
330
1F
100
AcDbEntity
  8
0
  6
Continuous
 62
     7
370
    25
100
AcDbLine
 10
61.2594580143
 20
111.396613768
 30
0.0
 11
61.2594580143
 21
80.3223631854
 31
0.0
  0
SPLINE
  5
1F4
330
1F
100
AcDbEntity
  8
0
  6
Continuous
 62
     7
370
    25
100
AcDbSpline
210
0.0
220
0.0
230
1.0
 70
     8
 71
     3
 72
    10
 73
     6
 74
     0
 42
0.000000001
 43
0.00000001
 40
0.0
 40
0.0
 40
0.0
 40
0.0
 40
0.5
 40
0.5
 40
1.0
 40
1.0
 40
1.0
 40
1.0
 10
58.9642033225394
 20
73.09069899114304
 30
0.0
 10
58.64817952535878
 20
73.11075666417253
 30
0.0
 10
58.30541064551138
 20
73.13733910150852
 30
0.0
 10
57.58026758188399
 20
73.20710356339077
 30
0.0
 10
57.20337121998723
 20
73.24969844621562
 30
0.0
 10
56.81237227064742
 20
73.30162682765318
 30
0.0
  0
SPLINE
  5
1F5
330
1F
100
AcDbEntity
  8
0
  6
Continuous
 62
     7
370
    25
100
AcDbSpline
210
0.0
220
0.0
230
1.0
 70
     8
 71
     3
 72
    14
 73
    10
 74
     0
 42
0.000000001
 43
0.00000001
 40
0.0
 40
0.0
 40
0.0
 40
0.0
 40
0.25
 40
0.25
 40
0.5
 40
0.5
 40
0.75
 40
0.75
 40
1.0
 40
1.0
 40
1.0
 40
1.0
 10
56.81237227064743
 20
135.7532618728026
 30
0.0
 10
57.24925039828154
 20
135.8112834457296
 30
0.0
 10
57.66596880687359
 20
135.857330017178
 30
0.0
 10
58.45960363284152
 20
135.9306215001988
 30
0.0
 10
58.83912801331172
 20
135.9578512074987
 30
0.0
 10
59.52001929085559
 20
135.9963860335558
 30
0.0
 10
59.82687567180239
 20
136.0082311120509
 30
0.0
 10
60.36584992186208
 20
136.023004471031
 30
0.0
 10
60.59078246710359
 20
136.0258023137172
 30
0.0
 10
60.7709903529768
 20
136.0268805348013
 30
0.0
  0
SPLINE
  5
1F6
330
1F
100
AcDbEntity
  8
0
  6
Continuous
 62
     7
370
    25
100
AcDbSpline
210
0.0
220
0.0
230
1.0
 70
     8
 71
     3
 72
     9
 73
     5
 74
     0
 42
0.000000001
 43
0.00000001
 40
0.0
 40
0.0
 40
0.0
 40
0.0
 40
0.65186756070872
 40
1.0
 40
1.0
 40
1.0
 40
1.0
 10
60.77099035424725
 20
136.0268823380323
 30
0.0
 10
60.81930001936752
 20
136.0340010849871
 30
0.0
 10
60.89340965149547
 20
136.0449216268025
 30
0.0
 10
60.94240212924554
 20
136.1472205812486
 30
0.0
 10
60.9594580000316
 20
136.1828341657968
 30
0.0
  0
ARC
  5
1F7
330
1F
100
AcDbEntity
  8
0
  6
Continuous
 62
     7
370
    25
100
AcDbCircle
 10
60.959458
 20
104.5274443502
 30
0.0
 40
32.10551373655939
100
AcDbArc
 50
318.7275996399
 51
4.6464506928
  0
ELLIPSE
  5
1F8
330
1F
100
AcDbEntity
  8
0
  6
Continuous
 62
     7
370
    25
100
AcDbEllipse
 10
48.7445462234
 20
122.0923033099
 30
0.0
 11
2.156649216541958
 21
3.149035452977174
 31
0.0
210
0.0
220
0.0
230
1.0
 40
0.6401414518
 41
0.0
 42
6.283185307179586
  0
ARC
  5
1F9
330
1F
100
AcDbEntity
  8
0
  6
Continuous
 62
     7
370
    25
100
AcDbCircle
 10
60.959458
 20
104.5274443502
 30
0.0
 40
31.50000000000001
100
AcDbArc
 50
97.5651530928
 51
262.4348469072
  0
LINE
  5
1FA
330
1F
100
AcDbEntity
  8
0
  6
Continuous
 62
     7
370
    25
100
AcDbLine
 10
60.959458
 20
149.092581826
 30
0.0
 11
60.959458
 21
149.5274461384
 31
0.0
  0
LINE
  5
1FB
330
1F
100
AcDbEntity
  8
0
  6
Continuous
 62
     7
370
    25
100
AcDbLine
 10
64.2171966592
 20
149.1274430926
 30
0.0
 11
60.959458
 21
149.092581826
 31
0.0
  0
LINE
  5
1FC
330
1F
100
AcDbEntity
  8
0
  6
Continuous
 62
     7
370
    25
100
AcDbLine
 10
65.7194579234
 20
148.9245339806
 30
0.0
 11
64.2171966592
 21
149.1274430926
 31
0.0
  0
LINE
  5
1FD
330
1F
100
AcDbEntity
  8
0
  6
Continuous
 62
     7
370
    25
100
AcDbLine
 10
65.7194579234
 20
137.2601136143
 30
0.0
 11
65.7194579234
 21
148.9245339806
 31
0.0
  0
LINE
  5
1FE
330
1F
100
AcDbEntity
  8
0
  6
Continuous
 62
     7
370
    25
100
AcDbLine
 10
65.7194579234
 20
137.2601136143
 30
0.0
 11
64.2171966592
 21
137.0898492212
 31
0.0
  0
LINE
  5
1FF
330
1F
100
AcDbEntity
  8
0
  6
Continuous
 62
     7
370
    25
100
AcDbLine
 10
64.2171966592
 20
137.0898492212
 30
0.0
 11
60.959458
 21
137.0549879546
 31
0.0
  0
LINE
  5
200
330
1F
100
AcDbEntity
  8
0
  6
Continuous
 62
     7
370
    25
100
AcDbLine
 10
60.959458
 20
137.0549879546
 30
0.0
 11
60.959458
 21
149.092581826
 31
0.0
  0
LINE
  5
201
330
1F
100
AcDbEntity
  8
0
  6
Continuous
 62
     7
370
    25
100
AcDbLine
 10
64.2171966592
 20
137.0898492212
 30
0.0
 11
61.2604608741
 21
136.7281905885
 31
0.0
  0
LINE
  5
202
330
1F
100
AcDbEntity
  8
0
  6
Continuous
 62
     7
370
    25
100
AcDbLine
 10
61.2594580143
 20
136.7280676539
 30
0.0
 11
60.959458
 21
136.6913698191
 31
0.0
  0
LINE
  5
203
330
1F
100
AcDbEntity
  8
0
  6
Continuous
 62
     7
370
    25
100
AcDbLine
 10
60.959458
 20
136.6913698191
 30
0.0
 11
60.959458
 21
137.0549879546
 31
0.0
  0
LINE
  5
204
330
1F
100
AcDbEntity
  8
0
  6
Continuous
 62
     7
370
    25
100
AcDbLine
 10
61.2594580143
 20
135.6749131853
 30
0.0
 11
60.959458
 21
135.6382190759
 31
0.0
  0
LINE
  5
205
330
1F
100
AcDbEntity
  8
0
  6
Continuous
 62
     7
370
    25
100
AcDbLine
 10
60.959458
 20
135.6382190759
 30
0.0
 11
60.959458
 21
136.6913698191
 31
0.0
  0
LINE
  5
206
330
1F
100
AcDbEntity
  8
0
  6
Continuous
 62
     7
370
    25
100
AcDbLine
 10
60.959458
 20
135.6366954322
 30
0.0
 11
60.959458
 21
135.6382190759
 31
0.0
  0
DIMENSION
  5
207
330
1F
100
AcDbEntity
  8
VERMASSUNG
100
AcDbDimension
  2
_D_5
 10
33.8521286655
 20
138.8906371807
 30
0.0
 11
27.8634892603
 21
145.3889087019
 31
0.0
 70
   160
  1
%%c<> min. 
 71
     2
 42
-1.0
  3
SLDDIMSTYLE3
100
AcDbAlignedDimension
 13
88.0667873345
 23
80.0623209936
 33
0.0
 14
33.8521286655
 24
138.8906371807
 34
0.0
 50
-47.3371330803
100
AcDbRotatedDimension
  0
INSERT
  5
221
330
1F
100
AcDbEntity
  8
VERMASSUNG
100
AcDbBlockReference
  2
SW_CENTERMARKSYMBOL_0
 10
60.959458
 20
104.5274443502
 30
0.0
  0
OLE2FRAME
  5
222
330
1F
100
AcDbEntity
  8
0
100
AcDbOle2Frame
 70
     2
  3
Paintbrush-Bild
 10
13.8511154363
 20
38.264191557
 30
0.0
 11
51.6290888628
 21
31.9806341108
 31
0.0
 71
     2
 72
     0
 73
     1
 90
    12928
310
80552BED0767C5B32B40DDAF6807D121434000000000000000006FFBDDFB85D0
310
4940DDAF6807D121434000000000000000006FFBDDFB85D04940416F4BD60AFB
310
3F4000000000000000002BED0767C5B32B40416F4BD60AFB3F40000000000000
310
0000000000000100000000010000010000000100000000000100000000320000
310
D0CF11E0A1B11AE1000000000000000000000000000000003E000300FEFF0900
310
0600000000000000000000000100000001000000000000000010000002000000
310
01000000FEFFFFFF0000000000000000FFFFFFFFFFFFFFFFFFFFFFFFFFFFFFFF
310
FFFFFFFFFFFFFFFFFFFFFFFFFFFFFFFFFFFFFFFFFFFFFFFFFFFFFFFFFFFFFFFF
310
FFFFFFFFFFFFFFFFFFFFFFFFFFFFFFFFFFFFFFFFFFFFFFFFFFFFFFFFFFFFFFFF
310
FFFFFFFFFFFFFFFFFFFFFFFFFFFFFFFFFFFFFFFFFFFFFFFFFFFFFFFFFFFFFFFF
310
FFFFFFFFFFFFFFFFFFFFFFFFFFFFFFFFFFFFFFFFFFFFFFFFFFFFFFFFFFFFFFFF
310
FFFFFFFFFFFFFFFFFFFFFFFFFFFFFFFFFFFFFFFFFFFFFFFFFFFFFFFFFFFFFFFF
310
FFFFFFFFFFFFFFFFFFFFFFFFFFFFFFFFFFFFFFFFFFFFFFFFFFFFFFFFFFFFFFFF
310
FFFFFFFFFFFFFFFFFFFFFFFFFFFFFFFFFFFFFFFFFFFFFFFFFFFFFFFFFFFFFFFF
310
FFFFFFFFFFFFFFFFFFFFFFFFFFFFFFFFFFFFFFFFFFFFFFFFFFFFFFFFFFFFFFFF
310
FFFFFFFFFFFFFFFFFFFFFFFFFFFFFFFFFFFFFFFFFFFFFFFFFFFFFFFFFFFFFFFF
310
FFFFFFFFFFFFFFFFFFFFFFFFFFFFFFFFFFFFFFFFFFFFFFFFFFFFFFFFFFFFFFFF
310
FFFFFFFFFFFFFFFFFFFFFFFFFFFFFFFFFFFFFFFFFFFFFFFFFFFFFFFFFFFFFFFF
310
FFFFFFFFFFFFFFFFFFFFFFFFFFFFFFFFFFFFFFFFFFFFFFFFFFFFFFFFFFFFFFFF
310
FFFFFFFFFFFFFFFFFFFFFFFFFFFFFFFFFFFFFFFFFFFFFFFFFFFFFFFFFFFFFFFF
310
FDFFFFFFFEFFFFFFFEFFFFFFFEFFFFFF05000000060000000700000008000000
310
090000000A0000000B0000000C0000000D0000000E0000000F00000010000000
310
11000000120000001300000014000000150000001600000017000000FEFFFFFF
310
FFFFFFFFFFFFFFFFFFFFFFFFFFFFFFFFFFFFFFFFFFFFFFFFFFFFFFFFFFFFFFFF
310
FFFFFFFFFFFFFFFFFFFFFFFFFFFFFFFFFFFFFFFFFFFFFFFFFFFFFFFFFFFFFFFF
310
FFFFFFFFFFFFFFFFFFFFFFFFFFFFFFFFFFFFFFFFFFFFFFFFFFFFFFFFFFFFFFFF
310
FFFFFFFFFFFFFFFFFFFFFFFFFFFFFFFFFFFFFFFFFFFFFFFFFFFFFFFFFFFFFFFF
310
FFFFFFFFFFFFFFFFFFFFFFFFFFFFFFFFFFFFFFFFFFFFFFFFFFFFFFFFFFFFFFFF
310
FFFFFFFFFFFFFFFFFFFFFFFFFFFFFFFFFFFFFFFFFFFFFFFFFFFFFFFFFFFFFFFF
310
FFFFFFFFFFFFFFFFFFFFFFFFFFFFFFFFFFFFFFFFFFFFFFFFFFFFFFFFFFFFFFFF
310
FFFFFFFFFFFFFFFFFFFFFFFFFFFFFFFFFFFFFFFFFFFFFFFFFFFFFFFFFFFFFFFF
310
FFFFFFFFFFFFFFFFFFFFFFFFFFFFFFFFFFFFFFFFFFFFFFFFFFFFFFFFFFFFFFFF
310
FFFFFFFFFFFFFFFFFFFFFFFFFFFFFFFFFFFFFFFFFFFFFFFFFFFFFFFFFFFFFFFF
310
FFFFFFFFFFFFFFFFFFFFFFFFFFFFFFFFFFFFFFFFFFFFFFFFFFFFFFFFFFFFFFFF
310
FFFFFFFFFFFFFFFFFFFFFFFFFFFFFFFFFFFFFFFFFFFFFFFFFFFFFFFFFFFFFFFF
310
FFFFFFFFFFFFFFFFFFFFFFFFFFFFFFFFFFFFFFFFFFFFFFFFFFFFFFFFFFFFFFFF
310
52006F006F007400200045006E00740072007900000000000000000000000000
310
0000000000000000000000000000000000000000000000000000000000000000
310
16000500FFFFFFFFFFFFFFFF020000000A00030000000000C000000000000046
310
00000000000000000000000000AF22140EA0D30103000000C000000000000000
310
01004F006C006500000000000000000000000000000000000000000000000000
310
0000000000000000000000000000000000000000000000000000000000000000
310
0A000200FFFFFFFFFFFFFFFFFFFFFFFF00000000000000000000000000000000
310
0000000000000000000000000000000000000000000000001400000000000000
310
010043006F006D0070004F0062006A0000000000000000000000000000000000
310
0000000000000000000000000000000000000000000000000000000000000000
310
120002010100000003000000FFFFFFFF00000000000000000000000000000000
310
0000000000000000000000000000000000000000010000004D00000000000000
310
01004F006C006500310030004E00610074006900760065000000000000000000
310
0000000000000000000000000000000000000000000000000000000000000000
310
1A000200FFFFFFFFFFFFFFFFFFFFFFFF00000000000000000000000000000000
310
0000000000000000000000000000000000000000040000002426000000000000
310
FEFFFFFF02000000FEFFFFFFFFFFFFFFFFFFFFFFFFFFFFFFFFFFFFFFFFFFFFFF
310
FFFFFFFFFFFFFFFFFFFFFFFFFFFFFFFFFFFFFFFFFFFFFFFFFFFFFFFFFFFFFFFF
310
FFFFFFFFFFFFFFFFFFFFFFFFFFFFFFFFFFFFFFFFFFFFFFFFFFFFFFFFFFFFFFFF
310
FFFFFFFFFFFFFFFFFFFFFFFFFFFFFFFFFFFFFFFFFFFFFFFFFFFFFFFFFFFFFFFF
310
FFFFFFFFFFFFFFFFFFFFFFFFFFFFFFFFFFFFFFFFFFFFFFFFFFFFFFFFFFFFFFFF
310
FFFFFFFFFFFFFFFFFFFFFFFFFFFFFFFFFFFFFFFFFFFFFFFFFFFFFFFFFFFFFFFF
310
FFFFFFFFFFFFFFFFFFFFFFFFFFFFFFFFFFFFFFFFFFFFFFFFFFFFFFFFFFFFFFFF
310
FFFFFFFFFFFFFFFFFFFFFFFFFFFFFFFFFFFFFFFFFFFFFFFFFFFFFFFFFFFFFFFF
310
FFFFFFFFFFFFFFFFFFFFFFFFFFFFFFFFFFFFFFFFFFFFFFFFFFFFFFFFFFFFFFFF
310
FFFFFFFFFFFFFFFFFFFFFFFFFFFFFFFFFFFFFFFFFFFFFFFFFFFFFFFFFFFFFFFF
310
FFFFFFFFFFFFFFFFFFFFFFFFFFFFFFFFFFFFFFFFFFFFFFFFFFFFFFFFFFFFFFFF
310
FFFFFFFFFFFFFFFFFFFFFFFFFFFFFFFFFFFFFFFFFFFFFFFFFFFFFFFFFFFFFFFF
310
FFFFFFFFFFFFFFFFFFFFFFFFFFFFFFFFFFFFFFFFFFFFFFFFFFFFFFFFFFFFFFFF
310
FFFFFFFFFFFFFFFFFFFFFFFFFFFFFFFFFFFFFFFFFFFFFFFFFFFFFFFFFFFFFFFF
310
FFFFFFFFFFFFFFFFFFFFFFFFFFFFFFFFFFFFFFFFFFFFFFFFFFFFFFFFFFFFFFFF
310
FFFFFFFFFFFFFFFFFFFFFFFFFFFFFFFFFFFFFFFFFFFFFFFFFFFFFFFFFFFFFFFF
310
0100000200000000000000000000000000000000000000000000000000000000
310
0000000000000000000000000000000000000000000000000000000000000000
310
0100FEFF030A0000FFFFFFFF0A00030000000000C00000000000004607000000
310
5042727573680007000000504272757368000700000050427275736800F439B2
310
7100000000000000000000000000000000000000000000000000000000000000
310
0000000000000000000000000000000000000000000000000000000000000000
310
0000000000000000000000000000000000000000000000000000000000000000
310
0000000000000000000000000000000000000000000000000000000000000000
310
0000000000000000000000000000000000000000000000000000000000000000
310
0000000000000000000000000000000000000000000000000000000000000000
310
0000000000000000000000000000000000000000000000000000000000000000
310
0000000000000000000000000000000000000000000000000000000000000000
310
0000000000000000000000000000000000000000000000000000000000000000
310
0000000000000000000000000000000000000000000000000000000000000000
310
0000000000000000000000000000000000000000000000000000000000000000
310
0000000000000000000000000000000000000000000000000000000000000000
310
20260000424D0E260000000000003E00000028000000B40200006E0000000100
310
01000000000000000000130B0000130B00000200000002000000000000FFFFFF
310
FFFFFFFFFFFFFFFFFFFFFFFFFFFFFFFFFFFFFFFFFFFFFFFFFFFFFFFFFFFFFFFF
310
FFFFFFFFFFFFFFFFFFFFFFFFFFFFFFFFFFFFFFFFFFFFFFFFFFFFFFFFFFFFFFFF
310
FFFFFFFFFFFFFFFFFFFFFFFFFFFFFFFFFFFFFFFFFFFFFFFFF000FFFFFFFFFFFF
310
FFFFFFFFFFFFFFFFFFFFFFFFFFFFFFFFFFFFFFFFFFFFFFFFFFFFFFFFFFFFFFFF
310
FFFFFFFFFFFFFFFFFFFFFFFFFFFFFFFFFFFFFFFFFFFFFFFFFFFFFFFFFFFFFFFF
310
FFFFFFFFFFFFFFFFFFFFFFFFFFFFFFFFF000FFFFFFFFFFFFFFFFFFFFFFFFFFFF
310
FFFFFFFFFFFFFFFFFFFFFFFFFFFFFFFFFFFFFFFFFFFFFFFFFFFFFFFFFFFFFFFF
310
FFFFFFFFFFFFFFFFFFFFFFFFFFFFFFFFFFFFFFFFFFFFFFFFFFFFFFFFFFFFFFFF
310
FFFFFFFFFFFFFFFFF000FFFFFFFFFFFFFFFFFFFFFFFFFFFFFFFFFFFFFFFFFFFF
310
FFFFFFFFFFFFFFFFFFFFFFFFFFFFFFFFFFFFFFFFFFFFFFFFFFFFFFFFFFFFFFFF
310
FFFFFFFFFFFFFFFFFFFFFFFFFFFFFFFFFFFFFFFFFFFFFFFFFFFFFFFFFFFFFFFF
310
F000FFFFFFFFFFFFFFFFFFFFFFFFFFFFFFFFFFFFFFFFFFFFFFFFFFFFFFFFFFFF
310
FFFFFFFFFFFFFFFFFFFFFFFFFFFFFFFFFFFFFFFFFFFFFFFFFFFFFFFFFFFFFFFF
310
FFFFFFFFFFFFFFFFFFFFFFFFFFFFFFFFFFFFFFFFFFFFFFFFF000FFFFFFFFFFFF
310
FFFFFFFFFFFFFFFFFFFFFFFFFFFFFFFFFFFFFFFFFFFFFFFFFFFFFFFFFFFFFFFF
310
FFFFFFFFFFFFFFFFFFFFFFFFFFFFFFFFFFFFFFFFFFFFFFFFFFFFFFFFFFFFFFFF
310
FFFFFFFFFFFFFFFFFFFFFFFFFFFFFFFFF000FFFFFFFFFFFFFFFFFFFFFFFFFFFF
310
FFFFFFFFFFFFFFFFFFFFFFFFFFFFFFFFFFFFFFFFFFFFFFFFFFFFFFFFFFFFFFFF
310
FFFFFFFFFFFFFFFFFFFFFFFFFFFFFFFFFFFFFFFFFFFFFFFFFFFFFFFFFFFFFFFF
310
FFFFFFFFFFFFFFFFF000FFFFFFFFFFFFFFFFFFFFFFFFFFFFFFFFFFFFFFFFFFFF
310
FFFFFFFFFFFFFFFFFFFFFFFFFFFFFFFFFFFFFFFFFFFFFFFFFFFFFFFFFFFFFFFF
310
FFFFFFFFFFFFFFFFFFFFFFFFFFFFFFFFFFFFFFFFFFFFFFFFFFFFFFFFFFFFFFFF
310
F000FFFFFFFFFFFFFFFFFFFFFFFFFFFFFFFFFFFFFFFFFFFFFFFFFFFFFFFFFFFF
310
FFFFFFFFFFFFFFFFFFFFFFFFFFFFFFFFFFFFFFFFFFFFFFFFFFFFFFFFFFFFFFFF
310
FFFFFFFFFFFFFFFFFFFFFFFFFFFFFFFFFFFFFFFFFFFFFFFFF000FFFFFFFFFFFF
310
FFFFFFFFFFFFFFFFFFFFFFFFFFFFFFFFFFFFFFFFFFFFFFFFFFFFFFFFFFFFFFFF
310
FFFFFFFFFFFFFFFFFFFFFFFFFFFFFFFFFFFFFFFFFFFFFFFFFFFFFFFFFFFFFFFF
310
FFFFFFFFFFFFFFFFFFFFFFFFFFFFFFFFF000FFFFFFFFFFFFFFFFFFFFFFFFFFFF
310
FFFFFFFFFFFFFFFFFFFFFFFFFFFFFFFFFFFFFFFFFFFFFFFFFFFFFFFFFFFFFFFF
310
FFFFFFFFFFFFFFFFFFFFFFFFFFFFFFFFFFFFFFFFFFFFFFFFFFFFFFFFFFFFFFFF
310
FFFFFFFFFFFFFFFFF000FFFFFFFFFFFFFFFFFFFFFFFFFFFFFFFFFFFFFFFFFFFF
310
FFFFFFFFFFFFFFFFFFFFFFFFFFFFFFFFFFFFFFFFFFFFFFFFFFFFFFFFFFFFFFFF
310
FFFFFFFFFFFFFFFFFFFFFFFFFFFFFFFFFFFFFFFFFFFFFFFFFFFFFFFFFFFFFFFF
310
F000FFFFFFFFFFFFFFFFFFFFFFFFFFFFFFFFFFFFFFFFFFFFFFFFFFFFFFFFFFFF
310
FFFFFFFFFFFFFFFFFFFFFFFFFFFFFFFFFFFFFFFFFFFFFFFFFFFFFFFFFFFFFFFF
310
FFFFFFFFFFFFFFFFFFFFFFFFFFFFFFFFFFFFFFFFFFFFFFFFF000FFFFFFFFFFFF
310
FFFFFFFFFFFFFFFFFFFFFFFFFFFFFFFFFFFFFFFFFFFFFFFFFFFFFFFFFFFFFFFF
310
FFFFFFFFFFFFFFFFFFFFFFFFFFFFFFFFFFFFFFFFFFFFFFFFFFFFFFFFFFFFFFFF
310
FFFFFFFFFFFFFFFFFFFFFFFFFFFFFFFFF000FFFFFFFFFFFFFFFFFFFFFFFFFFFF
310
FFFFFFFFFFFFFFFFFFFFFFFFFFFFFFFFFFFFFFFFFFFFFFFFFFFFFFFFFFFFFFFF
310
FFFFFFFFFFFFFFFFFFFFFFFFFFFFFFFFFFFFFFFFFFFFFFFFFFFFFFFFFFFFFFFF
310
FFFFFFFFFFFFFFFFF000FFFFFFFFFFFFFFFFFFFFFFFFFFFFFFFFFFFFFFFFFFFF
310
FFFFFFFFFFFFFFFFFFFFFFFFFFFFFFFFFFFFFFFFFFFFFFFFFFFFFFFFFFFFFFFF
310
FFFFFFFFFFFFFFFFFFFFFFFFFFFFFFFFFFFFFFFFFFFFFFFFFFFFFFFFFFFFFFFF
310
F000FFFFFFFFFFFFFFFFFFFFFFFFFFFFFFFFFFFFFFFFFFFFFFFFFFFFFFFFFFFF
310
FFFFFFFFFFFFFFFFFFFFFFFFFFFFFFFFFFFFFFFFFFFFFFFFFFFFFFFFFFFFFFFF
310
FFFFFFFFFFFFFFFFFFFFFFFFFFFFFFFFFFFFFFFFFFFFFFFFF000FFFFFFFFFFFF
310
FFFFFFFFFFFFFFFFFFFFFFFFFFFFFFFFFFFFFFFFFFFFFFFFFFFFFFFFFFFFFFFF
310
FFFFFFFFFFFFFFFFFFFFFFFFFFFFFFFFFFFFFFFFFFFFFFFFFFFFFFFFFFFFFFFF
310
FFFFFFFFFFFFFFFFFFFFFFFFFFFFFFFFF000FFFFFFFFFFFFFFFFFFFFFFFFFFFF
310
FFFFFFFFFFFFFFFFFFFFFFFFFFFFFFFFFFFFFFFFFFFFFFFFFFFFFFFFFFFFFFFF
310
FFFFFFFFFFFFFFFFFFFFFFFFFFFFFFFFFFFFFFFFFFFFFFFFFFFFFFFFFFFFFFFF
310
FFFFFFFFFFFFFFFFF000FFFFF80003FFFFFFFFFFFFFFFFFFFFFFFFFFFFFFFFFF
310
FFFFF00007FFFFFFFFFF00007FFFFFF800000000000000007FFFFFFFFFFFFFFF
310
FFFFFFFC001FFFFFFFFFFFFFFC001FFFFFFFFFFFFFFFFFFFFFFFFFFE0007FFFF
310
F000FFFF8000007FFFFFFFF8000FFFFFC0007FFFFF80007FFFFF0000007FFFFF
310
FFF8000007FFFFF800000000000000007FFFFFF0001FFFFFFFFFFFC00001FFFF
310
FFFFFFFFC00001FFFFFFFF000000000003FFFFE000007FFFF000FFFE0000000F
310
FFFFFFF0000FFFFF80007FFFFF80007FFFFC0000001FFFFFFFC0000001FFFFF8
310
00000000000000007FFFFFF0001FFFFFFFFFFE0000003FFFFFFFFFFE0000003F
310
FFFFFF000000000003FFFF0000000FFFF000FFF800000003FFFFFFF00007FFFF
310
80007FFFFF80007FFFF000000007FFFFFF000000003FFFF80000000000000000
310
7FFFFFF0001FFFFFFFFFF80000000FFFFFFFFFF80000000FFFFFFF0000000000
310
03FFFC00000003FFF000FFE000000000FFFFFFF00007FFFF80003FFFFF80007F
310
FFC000000001FFFFFC000000001FFFF800000000000000007FFFFFF0001FFFFF
310
FFFFE000000003FFFFFFFFE000000003FFFFFF000000000003FFF000000000FF
310
F000FF80000000007FFFFFF00007FFFF80003FFFFF80007FFF8000000000FFFF
310
F80000000007FFF800000000000000007FFFFFF0001FFFFFFFFFC000000001FF
310
FFFFFFC000000001FFFFFF000000000003FFC0000000007FF000FF0000000000
310
3FFFFFE00007FFFF00003FFFFF80007FFE00000000003FFFF00000000003FFF8
310
00000000000000007FFFFFF0001FFFFFFFFF8000000000FFFFFFFF8000000000
310
FFFFFF000000000003FF80000000003FF000FE00000000001FFFFFE00003FFFF
310
00003FFFFF80007FFC00000000001FFFE00000000001FFF8000001FFFE000000
310
7FFFFFF0001FFFFFFFFE00000000003FFFFFFE00000000003FFFFF0000000000
310
03FF00000000001FF000FC00000000000FFFFFE00003FFFF00001FFFFF80007F
310
F800000000001FFFC00000000000FFF8000001FFFE0000007FFFFFF0001FFFFF
310
FFFC00000000001FFFFFFC00000000001FFFFF000000000003FE00000000000F
310
F000F8000000000007FFFFE00003FFFF00001FFFFF80007FF800000000000FFF
310
800000000000FFF8000001FFFE0000007FFFFFF0001FFFFFFFF800000000000F
310
FFFFF800000000000FFFFF000000000003FC000000000007F000F80000000000
310
03FFFFC00003FFFE00001FFFFF80007FF0000000000007FF0000000000007FF8
310
000001FFFE0000007FFFFFF0001FFFFFFFF0000000000007FFFFF00000000000
310
07FFFF000000000003F8000000000003F000F0000000000003FFFFC00001FFFE
310
00001FFFFF80007FE0000000000007FE0000000000003FF8000001FFFE000000
310
7FFFFFF0001FFFFFFFF0000000000007FFFFF0000000000007FFFF0000000000
310
03F800001F800003F000E00001FFF00001FFFFC00001FFFE00000FFFFF80007F
310
E00001FFE00003FE00001FFF00003FF8000001FFFE0000007FFFFFF0001FFFFF
310
FFE000003E000003FFFFE000003E000003FFFF000000000003F00001FFF80001
310
F000E00007FFFC0001FFFFC00001FFFE00000FFFFF80007FC0000FFFFC0003FC
310
0000FFFFC0001FF8000001FFFE0000007FFFFFF0001FFFFFFFC00003FFE00001
310
FFFFC00003FFE00001FFFF0001FFFFFFFFF00007FFFE0001F000E0000FFFFF00
310
00FFFF800001FFFC00000FFFFF80007FC0001FFFFE0001FC0001FFFFE0001FF8
310
000001FFFE0000007FFFFFF0001FFFFFFF80000FFFF80000FFFF80000FFFF800
310
00FFFF0003FFFFFFFFE0000FFFFF8000F000C0003FFFFF8000FFFF800000FFFC
310
000007FFFF80007F80003FFFFF0001FC0003FFFFF0001FF8000001FFFE000000
310
7FFFFFF0001FFFFFFF80003FFFFE0000FFFF80003FFFFE0000FFFF0003FFFFFF
310
FFE0003FFFFF8000F000C0003FFFFF8000FFFF800000FFFC000007FFFF80007F
310
80007FFFFF8001F80007FFFFF8000FF8000001FFFE0000007FFFFFF0001FFFFF
310
FF00007FFFFF00007FFF00007FFFFF00007FFF0003FFFFFFFFE0003FFFFFC000
310
F000C0007FFFFFC000FFFF000000FFFC000007FFFF80007F8000FFFFFF8000F8
310
000FFFFFF8000FF8000001FFFE0000007FFFFFF0001FFFFFFF0000FFFFFF8000
310
7FFF0000FFFFFF80007FFF0003FFFFFFFFC0007FFFFFC00070008000FFFFFFC0
310
00FFFF000000FFF8000007FFFF80007F8000FFFFFF8000F8000FFFFFF8000FF8
310
000001FFFE0000007FFFFFF0001FFFFFFE0001FFFFFFC0003FFE0001FFFFFFC0
310
003FFF0003FFFFFFFFC0007FFFFFE00070008000FFFFFFC0007FFF0000007FF8
310
000003FFFF80007F0001FFFFFF8000F8000FFFFFF8000FF8000001FFFE000000
310
7FFFFFF0001FFFFFFE0001FFFFFFC0003FFE0001FFFFFFC0003FFF0003FFFFFF
310
FFC000FFFFFFE00070008000FFFFFFC0007FFF0000007FF8000003FFFF80007F
310
0001FFFFFF8000F8001FFFFFF8000FF8000001FFFE0000007FFFFFF0001FFFFF
310
FE0003FFFFFFE0003FFE0003FFFFFFE0003FFF0003FFFFFFFFC000FFFFFFE000
310
70008000FFFFFFC0007FFE0000007FF8000003FFFF80007F0001FFFFFF8000F0
310
001FFFFFF8000FF8000001FFFE0000007FFFFFF0001FFFFFFC0003FFFFFFE000
310
1FFC0003FFFFFFE0001FFF0003FFFFFFFFC000FFFFFFC00070008000FFFFFF80
310
007FFE0000007FF0000003FFFF80007F0001FFFFFF0000F0001FFFFFF8000FF8
310
000001FFFE0000007FFFFFF0001FFFFFFC0007FFFFFFF0001FFC0007FFFFFFF0
310
001FFF0003FFFFFFFFC000FFFFFFC00070008001FFFFFF0000FFFE0000003FF0
310
000001FFFF80007F0001FFFFFF0000F8001FFFFFF0000FF8000001FFFE000000
310
7FFFFFF0001FFFFFFC0007FFFFFFF0001FFC0007FFFFFFF0001FFF0003FFFFFF
310
FFC001FFFFFF80007000FFFFFFFFFE0000FFFE0008003FF0008001FFFF80007F
310
FFFFFFFFFC0000FFFFFFFFFFE0000FF8000001FFFE0000007FFFFFF0001FFFFF
310
F8000FFFFFFFF8000FF8000FFFFFFFF8000FFF0003FFFFFFFFFFFFFFFFFF0000
310
7000FFFFFFFFFC0000FFFC0008003FF0008001FFFF80007FFFFFFFFFF80001FF
310
FFFFFFFF80000FF8000001FFFE0000007FFFFFF0001FFFFFF8000FFFFFFFF800
310
0FF8000FFFFFFFF8000FFF0003FFFFFFFFFFFFFFFFFE0000F000FFFFFFFFE000
310
00FFFC000C003FE000C001FFFF80007FFFFFFFFFC00001FFFFFFFFFE00001FF8
310
000001FFFE0000007FFFFFF0001FFFFFF8000FFFFFFFF8000FF8000FFFFFFFF8
310
000FFF0003FFFFFFFFFFFFFFFFF00000F000FFFFFFFE000001FFFC000C001FE0
310
00C000FFFF80007FFFFFFFFE000001FFFFFFFFE000001FF80FFFFFFFFFFFFFC0
310
7FFFFFF0001FFFFFF8000FFFFFFFF8000FF8000FFFFFFFF8000FFF0003FFFFFF
310
FFFFFFFFFF800000F000FFFFFFC0000001FFFC001C001FE001C000FFFF80007F
310
FFFFFF80000003FFFFFFF80000001FF80FFFFFFFFFFFFFC07FFFFFF0001FFFFF
310
F8001FFFFFFFFC000FF8001FFFFFFFFC000FFF0003FFFFFFFFFFFFFFF0000001
310
F000FFFFF800000001FFF8001C001FE001C000FFFF80007FFFFFF800000003FF
310
FFFF800000003FF80FFFFFFFFFFFFFC07FFFFFF0001FFFFFF8001FFFFFFFFC00
310
0FF8001FFFFFFFFC000FFF0003FFFFFFFFFFFFFE00000001F000FFFFC0000000
310
03FFF8001E001FC001E000FFFF80007FFFFF8000000007FFFFFC000000003FF8
310
0FFFFFFFFFFFFFC07FFFFFF0001FFFFFF8001FFFFFFFFC000FF8001FFFFFFFFC
310
000FFF0003FFFFFFFFFFFFE000000003F000FFFE0000000007FFF8001E000FC0
310
01E0007FFF80007FFFFE0000000007FFFFE0000000007FF80FFFFFFFFFFFFFC0
310
7FFFFFF0001FFFFFF0001FFFFFFFFC0007F0001FFFFFFFFC0007FF0003FFFFFF
310
FFFFFF0000000003F000FFF80000000007FFF8001E000FC003E0007FFF80007F
310
FFF0000000000FFFFF8000000000FFF80FFFFFFFFFFFFFC07FFFFFF0001FFFFF
310
F0001FFFFFFFFC0007F0001FFFFFFFFC0007FF0003FFFFFFFFFFFC0000000007
310
F000FFE0000000000FFFF0003E000FC003E0007FFF80007FFFC0000000001FFF
310
FE0000000001FFF80FFFFFFFFFFFFFC07FFFFFF0001FFFFFF0001FFFFFFFFC00
310
07F0001FFFFFFFFC0007FF0003FFFFFFFFFFF0000000000FF000FFC000000000
310
1FFFF0003F000F8003F0003FFF80007FFF80000000003FFFF80000000003FFF8
310
0FFFFFFFFFFFFFC07FFFFFF0001FFFFFF0001FFFFFFFFC0007F0001FFFFFFFFC
310
0007FF0003FFFFFFFFFFE0000000001FF000FF00000000007FFFF0003F000780
310
03F0003FFF80007FFF00000000007FFFF00000000007FFF80FFFFFFFFFFFFFC0
310
7FFFFFF0001FFFFFF0001FFFFFFFFC0007F0001FFFFFFFFC0007FF0003FFFFFF
310
FFFF80000000007FF000FE0000000000FFFFE0003F00078007F0003FFF80007F
310
FE0000000001FFFFE0000000001FFFF80FFFFFFFFFFFFFC07FFFFFF0001FFFFF
310
F0001FFFFFFFFC0007F0001FFFFFFFFC0007FF0003FFFFFFFFFF0000000000FF
310
F000FC0000000003FFFFE0007F00078007F0003FFF80007FFC0000000007FFFF
310
C0000000007FFFF80FFFFFFFFFFFFFC07FFFFFF0001FFFFFF8001FFFFFFFFC00
310
0FF8001FFFFFFFFC000FFF0003FFFFFFFFFE0000000003FFF000FC000000000F
310
FFFFE0007F80070007F8001FFF80007FF8000000001FFFFF8000000001FFFFF8
310
0FFFFFFFFFFFFFC07FFFFFF0001FFFFFF8001FFFFFFFFC000FF8001FFFFFFFFC
310
000FFF0003FFFFFFFFFC000000000FFFF000F8000000007FFFFFE0007F800700
310
07F8001FFF80007FF000000000FFFFFF800000000FFFFFF80FFFFFFFFFFFFFC0
310
7FFFFFF0001FFFFFF8000FFFFFFFF8000FF8000FFFFFFFF8000FFF0003FFFFFF
310
FFFC000000007FFFF000F800000007FFFFFFC0007F8003000FF8001FFF80007F
310
F000000007FFFFFF000000007FFFFFF80FFFFFFFFFFFFFC07FFFFFF0001FFFFF
310
F8000FFFFFFFF8000FF8000FFFFFFFF8000FFF0003FFFFFFFFF80000000FFFFF
310
F000F0000000FFFFFFFFC000FF8003000FF8001FFF80007FE0000000FFFFFFFF
310
0000000FFFFFFFF8000001FFFE0000007FFFFFF0001FFFFFF8000FFFFFFFF800
310
0FF8000FFFFFFFF8000FFF0003FFFFFFFFF8000000FFFFFFF000F000000FFFFF
310
FFFFC000FFC002000FF8000FFF80007FE000001FFFFFFFFE000001FFFFFFFFF8
310
000001FFFE0000007FFFFFF0001FFFFFF8000FFFFFFFF8000FF8000FFFFFFFF8
310
000FFF0003FFFFFFFFF000001FFFFFFFF000E00000FFFFFFFFFFC000FFC00200
310
0FFC000FFF80007FE00001FFFFFFFFFE00001FFFFFFFFFF8000001FFFE000000
310
7FFFFFF0001FFFFFFC000FFFFFFFF8001FFC000FFFFFFFF8001FFF0003FFFFFF
310
FFF00001FFFFFFFFF000E00007FFFFFFFFFF8000FFC000001FFC000FFF80007F
310
C0000FFFFFFFFFFE0000FFFFFFFFFFF8000001FFFE0000007FFFFFF0001FFFFF
310
FC0007FFFFFFF0001FFC0007FFFFFFF0001FFF0003FFFFFFFFF00007FFFFFFFF
310
F000E0001FFFFFFFFFFF8000FFC000001FFC000FFF80007FC0003FFFFFFFFFFE
310
0001FFFFFFFFFFF8000001FFFE0000007FFFFFF0001FFFFFFC0007FFFFFFF000
310
1FFC0007FFFFFFF0001FFF0003FFFFFFFFF0001FFFFFFFFFF000E0003FFFFF00
310
03FF8001FFE000001FFC0007FF80007FC0007FFFFF0007FC0003FFFFF0003FF8
310
000001FFFE0000007FFFFFF0001FFFFFFC0003FFFFFFE0001FFC0003FFFFFFE0
310
001FFF0003FFFFFFFFF0003FFFFFFFFFF000E0003FFFFF0001FF8001FFE00000
310
1FFE0007FF80007FC0007FFFFE0003FC0007FFFFE0003FF8000001FFFE000000
310
7FFFFFF0001FFFFFFE0003FFFFFFE0003FFE0003FFFFFFE0003FFF0003FFFFFF
310
FFF0003FFFFF8001F000E0003FFFFF0001FF0001FFE000001FFE0007FF80007F
310
C0007FFFFE0003FC0007FFFFE0003FF8000001FFFE0000007FFFFFF0001FFFFF
310
FE0001FFFFFFC0003FFE0001FFFFFFC0003FFF0003FFFFFFFFF0003FFFFF0001
310
F000E0003FFFFF0003FF0001FFE000003FFE0007FF80007FC0007FFFFE0003FC
310
0007FFFFE0003FF8000001FFFE0000007FFFFFF0001FFFFFFF0001FFFFFFC000
310
7FFF0001FFFFFFC0007FFF0003FFFFFFFFF0003FFFFF0001F000E0003FFFFE00
310
03FF0003FFF000003FFE0003FF80007FC0007FFFFC0003FE0007FFFFE0003FF8
310
000001FFFE0000007FFFFFF0001FFFFFFF0000FFFFFF80007FFF0000FFFFFF80
310
007FFF0003FFFFFFFFF0003FFFFF0001F000E0003FFFFE0003FF0003FFF00000
310
3FFF0003FF80007FC0007FFFFC0007FE0007FFFFC0003FF8000001FFFE000000
310
7FFFFFF0001FFFFFFF80007FFFFF0000FFFF80007FFFFF0000FFFF0003FFFFFF
310
FFF0003FFFFF0003F000E0003FFFFC0003FE0003FFF000003FFF0003FF80007F
310
E0003FFFF80007FE0003FFFFC0007FF8000001FFFE0000007FFFFFF0001FFFFF
310
FF80003FFFFE0000FFFF80003FFFFE0000FFFF0003FFFFFFFFF0001FFFFE0003
310
F000F0001FFFF80003FE0003FFF000007FFF0001FF80007FE0003FFFF00007FE
310
0001FFFF80007FF8000001FFFE0000007FFFFFF0001FFFFFFFC0000FFFF80001
310
FFFFC0000FFFF80001FFFF0003FFFFFFFFF0001FFFFC0003F000F0000FFFF000
310
07FE0007FFF800007FFF0001FF80007FE0001FFFE00007FF0000FFFE00007FF8
310
000001FFFE0000007FFFFFF0001FFFFFFFC00003FFE00001FFFFC00003FFE000
310
01FFFF0003FFFFFFFFF8000FFFF80003F000F00003FFC00007FC0007FFF80000
310
7FFF8001FF80007FF00007FF80000FFF00007FF80000FFF8000001FFFE000000
310
7F80000000000001FFE000003E000003FFFFE000003E000003FFFF0003FFFFFF
310
FFF80003FFE00007F000F800000000000FFC0007FFF800007FFF8001FF80007F
310
F000000000000FFF000000000000FFF8000001FFFE0000007F80000000000001
310
FFF0000000000007FFFFF0000000000007FFFF0003FFFFFFFFFC00007E000007
310
F000F800000000000FFC0007FFF80000FFFF8000FF80007FF800000000001FFF
310
800000000001FFF8000001FFFE0000007F80000000000001FFF800000000000F
310
FFFFF800000000000FFFFF0003FFFFFFFFFC00000000000FF000FC0000000000
310
1FFC0007FFFC0000FFFF8000FF80007FF800000000003FFFC00000000001FFF8
310
000001FFFE0000007F80000000000001FFF800000000000FFFFFF80000000000
310
0FFFFF0003FFFFFFFFFE00000000001FF000FE00000000003FF8000FFFFC0000
310
FFFF8000FF80007FFC00000000003FFFC00000000003FFF8000001FFFE000000
310
7F80000000000001FFFC00000000001FFFFFFC00000000001FFFFF0003FFFFFF
310
FFFF00000000001FF000FF00000000003FF8000FFFFC0000FFFFC000FF80007F
310
FE00000000007FFFE00000000007FFF8000001FFFE0000007F80000000000001
310
FFFE00000000003FFFFFFE00000000003FFFFF0003FFFFFFFFFF80000000003F
310
F000FF80000000007FF8000FFFFC0001FFFFC0007F80007FFF0000000000FFFF
310
F0000000000FFFF800000000000000007F80000000000001FFFF8000000000FF
310
FFFFFF8000000000FFFFFF0003FFFFFFFFFFC0000000007FF000FFC000000000
310
FFF8000FFFFE0001FFFFC0007F80007FFF8000000001FFFFF8000000001FFFF8
310
00000000000000007F80000000000001FFFFC000000001FFFFFFFFC000000001
310
FFFFFF0003FFFFFFFFFFE000000000FFF000FFE000000003FFF0001FFFFE0001
310
FFFFC0007F80007FFFC000000007FFFFFE000000003FFFF80000000000000000
310
7F80000000000001FFFFE000000003FFFFFFFFE000000003FFFFFF0003FFFFFF
310
FFFFF000000003FFF000FFF80000000FFFF0001FFFFE0001FFFFE0007F80007F
310
FFF00000000FFFFFFF00000000FFFFF800000000000000007F80000000000001
310
FFFFF80000000FFFFFFFFFF80000000FFFFFFF0003FFFFFFFFFFFC0000000FFF
310
F000FFFE0000003FFFF0001FFFFE0003FFFFE0003F80007FFFFC0000003FFFFF
310
FFC0000003FFFFF800000000000000007F80000000000001FFFFFE0000003FFF
310
FFFFFFFE0000003FFFFFFF0003FFFFFFFFFFFF0000003FFFF000FFFF800000FF
310
FFF0001FFFFF0003FFFFE0003F80007FFFFF000001FFFFFFFFF800001FFFFFF8
310
00000000000000007F80000000000001FFFFFFC00001FFFFFFFFFFFFC00001FF
310
FFFFFF0003FFFFFFFFFFFFC00000FFFFF000FFFFF8000FFFFFFFFFFFFFFFFFFF
310
FFFFFFFFFFFFFFFFFFFFF0001FFFFFFFFFFF0000FFFFFFF80000000000000000
310
7FFFFFFFFFFFFFFFFFFFFFFC001FFFFFFFFFFFFFFC001FFFFFFFFFFFFFFFFFFF
310
FFFFFFFC001FFFFFF000FFFFFFFFFFFFFFFFFFFFFFFFFFFFFFFFFFFFFFFFFFFF
310
FFFFFFFFFFFFFFFFFFFFFFFFFFFFFFFFFFFFFFFFFFFFFFFFFFFFFFFFFFFFFFFF
310
FFFFFFFFFFFFFFFFFFFFFFFFFFFFFFFFFFFFFFFFFFFFFFFFFFFFFFFFFFFFFFFF
310
F000FFFFFFFFFFFFFFFFFFFFFFFFFFFFFFFFFFFFFFFFFFFFFFFFFFFFFFFFFFFF
310
FFFFFFFFFFFFFFFFFFFFFFFFFFFFFFFFFFFFFFFFFFFFFFFFFFFFFFFFFFFFFFFF
310
FFFFFFFFFFFFFFFFFFFFFFFFFFFFFFFFFFFFFFFFFFFFFFFFF000FFFFFFFFFFFF
310
FFFFFFFFFFFFFFFFFFFFFFFFFFFFFFFFFFFFFFFFFFFFFFFFFFFFFFFFFFFFFFFF
310
FFFFFFFFFFFFFFFFFFFFFFFFFFFFFFFFFFFFFFFFFFFFFFFFFFFFFFFFFFFFFFFF
310
FFFFFFFFFFFFFFFFFFFFFFFFFFFFFFFFF000FFFFFFFFFFFFFFFFFFFFFFFFFFFF
310
FFFFFFFFFFFFFFFFFFFFFFFFFFFFFFFFFFFFFFFFFFFFFFFFFFFFFFFFFFFFFFFF
310
FFFFFFFFFFFFFFFFFFFFFFFFFFFFFFFFFFFFFFFFFFFFFFFFFFFFFFFFFFFFFFFF
310
FFFFFFFFFFFFFFFFF000FFFFFFFFFFFFFFFFFFFFFFFFFFFFFFFFFFFFFFFFFFFF
310
FFFFFFFFFFFFFFFFFFFFFFFFFFFFFFFFFFFFFFFFFFFFFFFFFFFFFFFFFFFFFFFF
310
FFFFFFFFFFFFFFFFFFFFFFFFFFFFFFFFFFFFFFFFFFFFFFFFFFFFFFFFFFFFFFFF
310
F000FFFFFFFFFFFFFFFFFFFFFFFFFFFFFFFFFFFFFFFFFFFFFFFFFFFFFFFFFFFF
310
FFFFFFFFFFFFFFFFFFFFFFFFFFFFFFFFFFFFFFFFFFFFFFFFFFFFFFFFFFFFFFFF
310
FFFFFFFFFFFFFFFFFFFFFFFFFFFFFFFFFFFFFFFFFFFFFFFFF000FFFFFFFFFFFF
310
FFFFFFFFFFFFFFFFFFFFFFFFFFFFFFFFFFFFFFFFFFFFFFFFFFFFFFFFFFFFFFFF
310
FFFFFFFFFFFFFFFFFFFFFFFFFFFFFFFFFFFFFFFFFFFFFFFFFFFFFFFFFFFFFFFF
310
FFFFFFFFFFFFFFFFFFFFFFFFFFFFFFFFF000FFFFFFFFFFFFFFFFFFFFFFFFFFFF
310
FFFFFFFFFFFFFFFFFFFFFFFFFFFFFFFFFFFFFFFFFFFFFFFFFFFFFFFFFFFFFFFF
310
FFFFFFFFFFFFFFFFFFFFFFFFFFFFFFFFFFFFFFFFFFFFFFFFFFFFFFFFFFFFFFFF
310
FFFFFFFFFFFFFFFFF000FFFFFFFFFFFFFFFFFFFFFFFFFFFFFFFFFFFFFFFFFFFF
310
FFFFFFFFFFFFFFFFFFFFFFFFFFFFFFFFFFFFFFFFFFFFFFFFFFFFFFFFFFFFFFFF
310
FFFFFFFFFFFFFFFFFFFFFFFFFFFFFFFFFFFFFFFFFFFFFFFFFFFFFFFFFFFFFFFF
310
F000FFFFFFFFFFFFFFFFFFFFFFFFFFFFFFFFFFFFFFFFFFFFFFFFFFFFFFFFFFFF
310
FFFFFFFFFFFFFFFFFFFFFFFFFFFFFFFFFFFFFFFFFFFFFFFFFFFFFFFFFFFFFFFF
310
FFFFFFFFFFFFFFFFFFFFFFFFFFFFFFFFFFFFFFFFFFFFFFFFF000FFFFFFFFFFFF
310
FFFFFFFFFFFFFFFFFFFFFFFFFFFFFFFFFFFFFFFFFFFFFFFFFFFFFFFFFFFFFFFF
310
FFFFFFFFFFFFFFFFFFFFFFFFFFFFFFFFFFFFFFFFFFFFFFFFFFFFFFFFFFFFFFFF
310
FFFFFFFFFFFFFFFFFFFFFFFFFFFFFFFFF000FFFFFFFFFFFFFFFFFFFFFFFFFFFF
310
FFFFFFFFFFFFFFFFFFFFFFFFFFFFFFFFFFFFFFFFFFFFFFFFFFFFFFFFFFFFFFFF
310
FFFFFFFFFFFFFFFFFFFFFFFFFFFFFFFFFFFFFFFFFFFFFFFFFFFFFFFFFFFFFFFF
310
FFFFFFFFFFFFFFFFF000FFFFFFFFFFFFFFFFFFFFFFFFFFFFFFFFFFFFFFFFFFFF
310
FFFFFFFFFFFFFFFFFFFFFFFFFFFFFFFFFFFFFFFFFFFFFFFFFFFFFFFFFFFFFFFF
310
FFFFFFFFFFFFFFFFFFFFFFFFFFFFFFFFFFFFFFFFFFFFFFFFFFFFFFFFFFFFFFFF
310
F000FFFFFFFFFFFFFFFFFFFFFFFFFFFFFFFFFFFFFFFFFFFFFFFFFFFFFFFFFFFF
310
FFFFFFFFFFFFFFFFFFFFFFFFFFFFFFFFFFFFFFFFFFFFFFFFFFFFFFFFFFFFFFFF
310
FFFFFFFFFFFFFFFFFFFFFFFFFFFFFFFFFFFFFFFFFFFFFFFFF000FFFFFFFFFFFF
310
FFFFFFFFFFFFFFFFFFFFFFFFFFFFFFFFFFFFFFFFFFFFFFFFFFFFFFFFFFFFFFFF
310
FFFFFFFFFFFFFFFFFFFFFFFFFFFFFFFFFFFFFFFFFFFFFFFFFFFFFFFFFFFFFFFF
310
FFFFFFFFFFFFFFFFFFFFFFFFFFFFFFFFF000FFFFFFFFFFFFFFFFFFFFFFFFFFFF
310
FFFFFFFFFFFFFFFFFFFFFFFFFFFFFFFFFFFFFFFFFFFFFFFFFFFFFFFFFFFFFFFF
310
FFFFFFFFFFFFFFFFFFFFFFFFFFFFFFFFFFFFFFFFFFFFFFFFFFFFFFFFFFFFFFFF
310
FFFFFFFFFFFFFFFFF000FFFFFFFFFFFFFFFFFFFFFFFFFFFFFFFFFFFFFFFFFFFF
310
FFFFFFFFFFFFFFFFFFFFFFFFFFFFFFFFFFFFFFFFFFFFFFFFFFFFFFFFFFFFFFFF
310
FFFFFFFFFFFFFFFFFFFFFFFFFFFFFFFFFFFFFFFFFFFFFFFFFFFFFFFFFFFFFFFF
310
F000FFFFFFFFFFFFFFFFFFFFFFFFFFFFFFFFFFFFFFFFFFFFFFFFFFFFFFFFFFFF
310
FFFFFFFFFFFFFFFFFFFFFFFFFFFFFFFFFFFFFFFFFFFFFFFFFFFFFFFFFFFFFFFF
310
FFFFFFFFFFFFFFFFFFFFFFFFFFFFFFFFFFFFFFFFFFFFFFFFF000FFFFFFFFFFFF
310
FFFFFFFFFFFFFFFFFFFFFFFFFFFFFFFFFFFFFFFFFFFFFFFFFFFFFFFFFFFFFFFF
310
FFFFFFFFFFFFFFFFFFFFFFFFFFFFFFFFFFFFFFFFFFFFFFFFFFFFFFFFFFFFFFFF
310
FFFFFFFFFFFFFFFFFFFFFFFFFFFFFFFFF000FFFFFFFFFFFFFFFFFFFFFFFFFFFF
310
FFFFFFFFFFFFFFFFFFFFFFFFFFFFFFFFFFFFFFFFFFFFFFFFFFFFFFFFFFFFFFFF
310
FFFFFFFFFFFFFFFFFFFFFFFFFFFFFFFFFFFFFFFFFFFFFFFFFFFFFFFFFFFFFFFF
310
FFFFFFFFFFFFFFFFF000FFFFFFFFFFFFFFFFFFFFFFFFFFFFFFFFFFFFFFFFFFFF
310
FFFFFFFFFFFFFFFFFFFFFFFFFFFFFFFFFFFFFFFFFFFFFFFFFFFFFFFFFFFFFFFF
310
FFFFFFFFFFFFFFFFFFFFFFFFFFFFFFFFFFFFFFFFFFFFFFFFFFFFFFFFFFFFFFFF
310
F000FFFFFFFFFFFFFFFFFFFFFFFFFFFFFFFFFFFFFFFFFFFFFFFFFFFFFFFFFFFF
310
FFFFFFFFFFFFFFFFFFFFFFFFFFFFFFFFFFFFFFFFFFFFFFFFFFFFFFFFFFFFFFFF
310
FFFFFFFFFFFFFFFFFFFFFFFFFFFFFFFFFFFFFFFFFFFFFFFFF000FFFFFFFFFFFF
310
FFFFFFFFFFFFFFFFFFFFFFFFFFFFFFFFFFFFFFFFFFFFFFFFFFFFFFFFFFFFFFFF
310
FFFFFFFFFFFFFFFFFFFFFFFFFFFFFFFFFFFFFFFFFFFFFFFFFFFFFFFFFFFFFFFF
310
FFFFFFFFFFFFFFFFFFFFFFFFFFFFFFFFF0000000000000000000000000000000
310
0000000000000000000000000000000000000000000000000000000000000000
310
0000000000000000000000000000000000000000000000000000000000000000
310
0000000000000000000000000000000000000000000000000000000000000000
310
0000000000000000000000000000000000000000000000000000000000000000
310
0000000000000000000000000000000000000000000000000000000000000000
310
0000000000000000000000000000000000000000000000000000000000000000
310
0000000000000000000000000000000000000000000000000000000000000000
310
0000000000000000000000000000000000000000000000000000000000000000
310
0000000000000000000000000000000000000000000000000000000000000000
310
0000000000000000000000000000000000000000000000000000000000000000
310
0000000000000000000000000000000000000000000000000000000000000000
310
0000000000000000000000000000000000000000000000000000000000000000
310
0000000000000000000000000000000000000000000000000000000000000000
310
0000000000000000000000000000000000000000000000000000000000000000
310
0000000000000000000000000000000000000000000000000000000000000000
  1
OLE
  0
ENDSEC
  0
SECTION
  2
OBJECTS
  0
DICTIONARY
  5
C
330
0
100
AcDbDictionary
281
     1
  3
ACAD_GROUP
350
D
  3
ACAD_LAYOUT
350
1A
  3
ACAD_MLINESTYLE
350
17
  3
ACAD_PLOTSETTINGS
350
19
  3
ACAD_PLOTSTYLENAME
350
E
  3
ACAD_SCALELIST
350
47
  0
DICTIONARY
  5
D
102
{ACAD_REACTORS
330
C
102
}
330
C
100
AcDbDictionary
281
     1
  0
DICTIONARY
  5
1A
102
{ACAD_REACTORS
330
C
102
}
330
C
100
AcDbDictionary
281
     1
  3
Layout1
350
1E
  3
Layout2
350
26
  3
Model
350
22
  0
DICTIONARY
  5
17
102
{ACAD_REACTORS
330
C
102
}
330
C
100
AcDbDictionary
281
     1
  3
Standard
350
18
  0
DICTIONARY
  5
19
102
{ACAD_REACTORS
330
C
102
}
330
C
100
AcDbDictionary
281
     1
  0
ACDBDICTIONARYWDFLT
  5
E
102
{ACAD_REACTORS
330
C
102
}
330
C
100
AcDbDictionary
281
     1
  3
Normal
350
F
100
AcDbDictionaryWithDefault
340
F
  0
DICTIONARY
  5
47
102
{ACAD_REACTORS
330
C
102
}
330
C
100
AcDbDictionary
281
     1
  3
A0
350
48
  3
A1
350
49
  3
A2
350
4A
  3
A3
350
4B
  3
A4
350
4C
  3
A5
350
4D
  3
A6
350
4E
  3
A7
350
4F
  3
A8
350
50
  3
A9
350
51
  3
B0
350
52
  3
B1
350
53
  3
B2
350
54
  3
B3
350
55
  3
B4
350
56
  3
B5
350
57
  3
B6
350
58
  3
B7
350
59
  3
B8
350
5A
  3
B9
350
5B
  3
C0
350
5C
  3
C1
350
5D
  3
C2
350
5E
  3
C3
350
5F
  3
C4
350
60
  3
C5
350
61
  3
C6
350
62
  3
C7
350
63
  3
C8
350
64
  3
C9
350
65
  3
D0
350
66
  3
D1
350
67
  3
D2
350
68
  0
LAYOUT
  5
1E
102
{ACAD_REACTORS
330
1A
102
}
330
1A
100
AcDbPlotSettings
  1

  2
none_device
  4

  6

 40
0.0
 41
0.0
 42
0.0
 43
0.0
 44
0.0
 45
0.0
 46
0.0
 47
0.0
 48
0.0
 49
0.0
140
0.0
141
0.0
142
1.0
143
1.0
 70
   688
 72
     1
 73
     0
 74
     5
  7

 75
    16
147
1.0
148
0.0
149
0.0
100
AcDbLayout
  1
Layout1
 70
     1
 71
     1
 10
0.0
 20
0.0
 11
420.0
 21
297.0
 12
0.0
 22
0.0
 32
0.0
 14
1.0000000000E+20
 24
1.0000000000E+20
 34
1.0000000000E+20
 15
-1.0000000000E+20
 25
-1.0000000000E+20
 35
-1.0000000000E+20
146
0.0
 13
0.0
 23
0.0
 33
0.0
 16
1.0
 26
0.0
 36
0.0
 17
0.0
 27
1.0
 37
0.0
 76
     0
330
1B
  0
LAYOUT
  5
26
102
{ACAD_REACTORS
330
1A
102
}
330
1A
100
AcDbPlotSettings
  1

  2
none_device
  4

  6

 40
0.0
 41
0.0
 42
0.0
 43
0.0
 44
0.0
 45
0.0
 46
0.0
 47
0.0
 48
0.0
 49
0.0
140
0.0
141
0.0
142
1.0
143
1.0
 70
   688
 72
     1
 73
     0
 74
     5
  7

 75
    16
147
1.0
148
0.0
149
0.0
100
AcDbLayout
  1
Layout2
 70
     1
 71
     2
 10
0.0
 20
0.0
 11
0.0
 21
0.0
 12
0.0
 22
0.0
 32
0.0
 14
0.0
 24
0.0
 34
0.0
 15
0.0
 25
0.0
 35
0.0
146
0.0
 13
0.0
 23
0.0
 33
0.0
 16
1.0
 26
0.0
 36
0.0
 17
0.0
 27
1.0
 37
0.0
 76
     0
330
23
  0
LAYOUT
  5
22
102
{ACAD_REACTORS
330
1A
102
}
330
1A
100
AcDbPlotSettings
  1

  2
none_device
  4
Letter_(8.50_x_11.00_Inches)
  6

 40
6.35
 41
6.35
 42
6.35000508
 43
6.35000508
 44
215.9
 45
279.4
 46
0.0
 47
0.0
 48
0.0
 49
0.0
140
0.0
141
0.0
142
1.0
143
1.0
 70
  1712
 72
     1
 73
     0
 74
     0
  7

 75
     0
147
1.0
148
0.0
149
0.0
100
AcDbLayout
  1
Model
 70
     1
 71
     0
 10
0.0
 20
0.0
 11
297.0
 21
210.0
 12
0.0
 22
0.0
 32
0.0
 14
0.0
 24
0.0
 34
0.0
 15
297.0
 25
210.0
 35
0.0
146
0.0
 13
0.0
 23
0.0
 33
0.0
 16
1.0
 26
0.0
 36
0.0
 17
0.0
 27
1.0
 37
0.0
 76
     0
330
1F
331
29
  0
MLINESTYLE
  5
18
102
{ACAD_REACTORS
330
17
102
}
330
17
100
AcDbMlineStyle
  2
Standard
 70
     0
  3

 62
   256
 51
90.0
 52
90.0
 71
     2
 49
0.5
 62
   256
  6
BYLAYER
 49
-0.5
 62
   256
  6
BYLAYER
  0
ACDBPLACEHOLDER
  5
F
102
{ACAD_REACTORS
330
E
102
}
330
E
  0
SCALE
  5
48
102
{ACAD_REACTORS
330
47
102
}
330
47
100
AcDbScale
 70
     0
300
1:1
140
1.0
141
1.0
290
     1
  0
SCALE
  5
49
102
{ACAD_REACTORS
330
47
102
}
330
47
100
AcDbScale
 70
     0
300
1:2
140
1.0
141
2.0
290
     0
  0
SCALE
  5
4A
102
{ACAD_REACTORS
330
47
102
}
330
47
100
AcDbScale
 70
     0
300
1:4
140
1.0
141
4.0
290
     0
  0
SCALE
  5
4B
102
{ACAD_REACTORS
330
47
102
}
330
47
100
AcDbScale
 70
     0
300
1:5
140
1.0
141
5.0
290
     0
  0
SCALE
  5
4C
102
{ACAD_REACTORS
330
47
102
}
330
47
100
AcDbScale
 70
     0
300
1:8
140
1.0
141
8.0
290
     0
  0
SCALE
  5
4D
102
{ACAD_REACTORS
330
47
102
}
330
47
100
AcDbScale
 70
     0
300
1:10
140
1.0
141
10.0
290
     0
  0
SCALE
  5
4E
102
{ACAD_REACTORS
330
47
102
}
330
47
100
AcDbScale
 70
     0
300
1:16
140
1.0
141
16.0
290
     0
  0
SCALE
  5
4F
102
{ACAD_REACTORS
330
47
102
}
330
47
100
AcDbScale
 70
     0
300
1:20
140
1.0
141
20.0
290
     0
  0
SCALE
  5
50
102
{ACAD_REACTORS
330
47
102
}
330
47
100
AcDbScale
 70
     0
300
1:30
140
1.0
141
30.0
290
     0
  0
SCALE
  5
51
102
{ACAD_REACTORS
330
47
102
}
330
47
100
AcDbScale
 70
     0
300
1:40
140
1.0
141
40.0
290
     0
  0
SCALE
  5
52
102
{ACAD_REACTORS
330
47
102
}
330
47
100
AcDbScale
 70
     0
300
1:50
140
1.0
141
50.0
290
     0
  0
SCALE
  5
53
102
{ACAD_REACTORS
330
47
102
}
330
47
100
AcDbScale
 70
     0
300
1:100
140
1.0
141
100.0
290
     0
  0
SCALE
  5
54
102
{ACAD_REACTORS
330
47
102
}
330
47
100
AcDbScale
 70
     0
300
2:1
140
2.0
141
1.0
290
     0
  0
SCALE
  5
55
102
{ACAD_REACTORS
330
47
102
}
330
47
100
AcDbScale
 70
     0
300
4:1
140
4.0
141
1.0
290
     0
  0
SCALE
  5
56
102
{ACAD_REACTORS
330
47
102
}
330
47
100
AcDbScale
 70
     0
300
8:1
140
8.0
141
1.0
290
     0
  0
SCALE
  5
57
102
{ACAD_REACTORS
330
47
102
}
330
47
100
AcDbScale
 70
     0
300
10:1
140
10.0
141
1.0
290
     0
  0
SCALE
  5
58
102
{ACAD_REACTORS
330
47
102
}
330
47
100
AcDbScale
 70
     0
300
100:1
140
100.0
141
1.0
290
     0
  0
SCALE
  5
59
102
{ACAD_REACTORS
330
47
102
}
330
47
100
AcDbScale
 70
     0
300
1/128" = 1'-0"
140
0.0078125
141
12.0
290
     0
  0
SCALE
  5
5A
102
{ACAD_REACTORS
330
47
102
}
330
47
100
AcDbScale
 70
     0
300
1/64" = 1'-0"
140
0.015625
141
12.0
290
     0
  0
SCALE
  5
5B
102
{ACAD_REACTORS
330
47
102
}
330
47
100
AcDbScale
 70
     0
300
1/32" = 1'-0"
140
0.03125
141
12.0
290
     0
  0
SCALE
  5
5C
102
{ACAD_REACTORS
330
47
102
}
330
47
100
AcDbScale
 70
     0
300
1/16" = 1'-0"
140
0.0625
141
12.0
290
     0
  0
SCALE
  5
5D
102
{ACAD_REACTORS
330
47
102
}
330
47
100
AcDbScale
 70
     0
300
3/32" = 1'-0"
140
0.09375
141
12.0
290
     0
  0
SCALE
  5
5E
102
{ACAD_REACTORS
330
47
102
}
330
47
100
AcDbScale
 70
     0
300
1/8" = 1'-0"
140
0.125
141
12.0
290
     0
  0
SCALE
  5
5F
102
{ACAD_REACTORS
330
47
102
}
330
47
100
AcDbScale
 70
     0
300
3/16" = 1'-0"
140
0.1875
141
12.0
290
     0
  0
SCALE
  5
60
102
{ACAD_REACTORS
330
47
102
}
330
47
100
AcDbScale
 70
     0
300
1/4" = 1'-0"
140
0.25
141
12.0
290
     0
  0
SCALE
  5
61
102
{ACAD_REACTORS
330
47
102
}
330
47
100
AcDbScale
 70
     0
300
3/8" = 1'-0"
140
0.375
141
12.0
290
     0
  0
SCALE
  5
62
102
{ACAD_REACTORS
330
47
102
}
330
47
100
AcDbScale
 70
     0
300
1/2" = 1'-0"
140
0.5
141
12.0
290
     0
  0
SCALE
  5
63
102
{ACAD_REACTORS
330
47
102
}
330
47
100
AcDbScale
 70
     0
300
3/4" = 1'-0"
140
0.75
141
12.0
290
     0
  0
SCALE
  5
64
102
{ACAD_REACTORS
330
47
102
}
330
47
100
AcDbScale
 70
     0
300
1" = 1'-0"
140
1.0
141
12.0
290
     0
  0
SCALE
  5
65
102
{ACAD_REACTORS
330
47
102
}
330
47
100
AcDbScale
 70
     0
300
1-1/2" = 1'-0"
140
1.5
141
12.0
290
     0
  0
SCALE
  5
66
102
{ACAD_REACTORS
330
47
102
}
330
47
100
AcDbScale
 70
     0
300
3" = 1'-0"
140
3.0
141
12.0
290
     0
  0
SCALE
  5
67
102
{ACAD_REACTORS
330
47
102
}
330
47
100
AcDbScale
 70
     0
300
6" = 1'-0"
140
6.0
141
12.0
290
     0
  0
SCALE
  5
68
102
{ACAD_REACTORS
330
47
102
}
330
47
100
AcDbScale
 70
     0
300
1'-0" = 1'-0"
140
12.0
141
12.0
290
     0
  0
ENDSEC
  0
EOF
