  0
SECTION
  2
HEADER
  9
$ACADVER
  1
AC1015
  9
$ACADMAINTVER
 70
     6
  9
$DWGCODEPAGE
  3
ANSI_1252
  9
$INSBASE
 10
0.0
 20
0.0
 30
0.0
  9
$EXTMIN
 10
0.0
 20
0.0
 30
0.0
  9
$EXTMAX
 10
297.0
 20
210.0
 30
0.0
  9
$LIMMIN
 10
0.0
 20
0.0
  9
$LIMMAX
 10
297.0
 20
210.0
  9
$ORTHOMODE
 70
     0
  9
$REGENMODE
 70
     1
  9
$FILLMODE
 70
     1
  9
$QTEXTMODE
 70
     0
  9
$MIRRTEXT
 70
     1
  9
$LTSCALE
 40
1.0
  9
$ATTMODE
 70
     1
  9
$TEXTSIZE
 40
2.0
  9
$TRACEWID
 40
1.0
  9
$TEXTSTYLE
  7
Standard
  9
$CLAYER
  8
0
  9
$CELTYPE
  6
ByLayer
  9
$CECOLOR
 62
   256
  9
$CELTSCALE
 40
1.0
  9
$DISPSILH
 70
     0
  9
$DIMSCALE
 40
1.0
  9
$DIMASZ
 40
3.0
  9
$DIMEXO
 40
0.0
  9
$DIMDLI
 40
3.75
  9
$DIMRND
 40
0.0
  9
$DIMDLE
 40
0.0
  9
$DIMEXE
 40
1.0
  9
$DIMTP
 40
0.0
  9
$DIMTM
 40
0.0
  9
$DIMTXT
 40
2.0
  9
$DIMCEN
 40
2.5
  9
$DIMTSZ
 40
0.0
  9
$DIMTOL
 70
     0
  9
$DIMLIM
 70
     0
  9
$DIMTIH
 70
     1
  9
$DIMTOH
 70
     1
  9
$DIMSE1
 70
     0
  9
$DIMSE2
 70
     0
  9
$DIMTAD
 70
     1
  9
$DIMZIN
 70
     0
  9
$DIMBLK
  1

  9
$DIMASO
 70
     1
  9
$DIMSHO
 70
     1
  9
$DIMPOST
  1

  9
$DIMAPOST
  1

  9
$DIMALT
 70
     0
  9
$DIMALTD
 70
     3
  9
$DIMALTF
 40
0.0393700787
  9
$DIMLFAC
 40
1.0
  9
$DIMTOFL
 70
     1
  9
$DIMTVP
 40
0.0
  9
$DIMTIX
 70
     0
  9
$DIMSOXD
 70
     0
  9
$DIMSAH
 70
     0
  9
$DIMBLK1
  1

  9
$DIMBLK2
  1

  9
$DIMSTYLE
  2
ISO-25
  9
$DIMCLRD
 70
     0
  9
$DIMCLRE
 70
     0
  9
$DIMCLRT
 70
     0
  9
$DIMTFAC
 40
1.0
  9
$DIMGAP
 40
1.524
  9
$DIMJUST
 70
     0
  9
$DIMSD1
 70
     0
  9
$DIMSD2
 70
     0
  9
$DIMTOLJ
 70
     0
  9
$DIMTZIN
 70
     0
  9
$DIMALTZ
 70
     0
  9
$DIMALTTZ
 70
     0
  9
$DIMUPT
 70
     0
  9
$DIMDEC
 70
     2
  9
$DIMTDEC
 70
     3
  9
$DIMALTU
 70
     2
  9
$DIMALTTD
 70
     3
  9
$DIMTXSTY
  7
Standard
  9
$DIMAUNIT
 70
     0
  9
$DIMADEC
 70
     2
  9
$DIMALTRND
 40
0.0
  9
$DIMAZIN
 70
     0
  9
$DIMDSEP
 70
    44
  9
$DIMATFIT
 70
     3
  9
$DIMFRAC
 70
     0
  9
$DIMLDRBLK
  1

  9
$DIMLUNIT
 70
     2
  9
$DIMLWD
 70
    -2
  9
$DIMLWE
 70
    -2
  9
$DIMTMOVE
 70
     0
  9
$LUNITS
 70
     2
  9
$LUPREC
 70
     2
  9
$SKETCHINC
 40
1.0
  9
$FILLETRAD
 40
10.0
  9
$AUNITS
 70
     0
  9
$AUPREC
 70
     2
  9
$MENU
  1
.
  9
$ELEVATION
 40
0.0
  9
$PELEVATION
 40
0.0
  9
$THICKNESS
 40
0.0
  9
$LIMCHECK
 70
     0
  9
$CHAMFERA
 40
10.0
  9
$CHAMFERB
 40
10.0
  9
$CHAMFERC
 40
20.0
  9
$CHAMFERD
 40
0.0
  9
$SKPOLY
 70
     0
  9
$TDCREATE
 40
2456072.648689884
  9
$TDUCREATE
 40
2456072.565356551
  9
$TDUPDATE
 40
2456072.648690961
  9
$TDUUPDATE
 40
2456072.565357627
  9
$TDINDWG
 40
0.0000000116
  9
$TDUSRTIMER
 40
0.0000000116
  9
$USRTIMER
 70
     1
  9
$ANGBASE
 50
0.0
  9
$ANGDIR
 70
     0
  9
$PDMODE
 70
     0
  9
$PDSIZE
 40
-1.0
  9
$PLINEWID
 40
0.0
  9
$SPLFRAME
 70
     0
  9
$SPLINETYPE
 70
     6
  9
$SPLINESEGS
 70
     8
  9
$HANDSEED
  5
2BB
  9
$SURFTAB1
 70
     6
  9
$SURFTAB2
 70
     6
  9
$SURFTYPE
 70
     6
  9
$SURFU
 70
     6
  9
$SURFV
 70
     6
  9
$UCSBASE
  2

  9
$UCSNAME
  2

  9
$UCSORG
 10
0.0
 20
0.0
 30
0.0
  9
$UCSXDIR
 10
1.0
 20
0.0
 30
0.0
  9
$UCSYDIR
 10
0.0
 20
1.0
 30
0.0
  9
$UCSORTHOREF
  2

  9
$UCSORTHOVIEW
 70
     0
  9
$UCSORGTOP
 10
0.0
 20
0.0
 30
0.0
  9
$UCSORGBOTTOM
 10
0.0
 20
0.0
 30
0.0
  9
$UCSORGLEFT
 10
0.0
 20
0.0
 30
0.0
  9
$UCSORGRIGHT
 10
0.0
 20
0.0
 30
0.0
  9
$UCSORGFRONT
 10
0.0
 20
0.0
 30
0.0
  9
$UCSORGBACK
 10
0.0
 20
0.0
 30
0.0
  9
$PUCSBASE
  2

  9
$PUCSNAME
  2

  9
$PUCSORG
 10
0.0
 20
0.0
 30
0.0
  9
$PUCSXDIR
 10
1.0
 20
0.0
 30
0.0
  9
$PUCSYDIR
 10
0.0
 20
1.0
 30
0.0
  9
$PUCSORTHOREF
  2

  9
$PUCSORTHOVIEW
 70
     0
  9
$PUCSORGTOP
 10
0.0
 20
0.0
 30
0.0
  9
$PUCSORGBOTTOM
 10
0.0
 20
0.0
 30
0.0
  9
$PUCSORGLEFT
 10
0.0
 20
0.0
 30
0.0
  9
$PUCSORGRIGHT
 10
0.0
 20
0.0
 30
0.0
  9
$PUCSORGFRONT
 10
0.0
 20
0.0
 30
0.0
  9
$PUCSORGBACK
 10
0.0
 20
0.0
 30
0.0
  9
$USERI1
 70
     0
  9
$USERI2
 70
     0
  9
$USERI3
 70
     0
  9
$USERI4
 70
     0
  9
$USERI5
 70
     0
  9
$USERR1
 40
0.0
  9
$USERR2
 40
0.0
  9
$USERR3
 40
0.0
  9
$USERR4
 40
0.0
  9
$USERR5
 40
0.0
  9
$WORLDVIEW
 70
     1
  9
$SHADEDGE
 70
     3
  9
$SHADEDIF
 70
    70
  9
$TILEMODE
 70
     1
  9
$MAXACTVP
 70
    64
  9
$PINSBASE
 10
0.0
 20
0.0
 30
0.0
  9
$PLIMCHECK
 70
     0
  9
$PEXTMIN
 10
1.0000000000E+20
 20
1.0000000000E+20
 30
1.0000000000E+20
  9
$PEXTMAX
 10
-1.0000000000E+20
 20
-1.0000000000E+20
 30
-1.0000000000E+20
  9
$PLIMMIN
 10
0.0
 20
0.0
  9
$PLIMMAX
 10
420.0
 20
297.0
  9
$UNITMODE
 70
     0
  9
$VISRETAIN
 70
     1
  9
$PLINEGEN
 70
     0
  9
$PSLTSCALE
 70
     1
  9
$TREEDEPTH
 70
  3020
  9
$CMLSTYLE
  2
Standard
  9
$CMLJUST
 70
     0
  9
$CMLSCALE
 40
20.0
  9
$PROXYGRAPHICS
 70
     1
  9
$MEASUREMENT
 70
     1
  9
$CELWEIGHT
370
    -1
  9
$ENDCAPS
280
     0
  9
$JOINSTYLE
280
     0
  9
$LWDISPLAY
290
     1
  9
$INSUNITS
 70
     4
  9
$HYPERLINKBASE
  1

  9
$STYLESHEET
  1

  9
$XEDIT
290
     1
  9
$CEPSNTYPE
380
     0
  9
$PSTYLEMODE
290
     1
  9
$FINGERPRINTGUID
  2
{2261CC1A-A345-4CCE-8DD2-EAEADC1CEBDC}
  9
$VERSIONGUID
  2
{FAEB1C32-E019-11D5-929B-00C0DF256EC4}
  9
$EXTNAMES
290
     1
  9
$PSVPSCALE
 40
0.0
  9
$OLESTARTUP
290
     0
  0
ENDSEC
  0
SECTION
  2
CLASSES
  0
CLASS
  1
ACDBDICTIONARYWDFLT
  2
AcDbDictionaryWithDefault
  3
ObjectDBX Classes
 90
        0
280
     0
281
     0
  0
CLASS
  1
VISUALSTYLE
  2
AcDbVisualStyle
  3
ObjectDBX Classes
 90
     4095
280
     0
281
     0
  0
CLASS
  1
MATERIAL
  2
AcDbMaterial
  3
ObjectDBX Classes
 90
     1153
280
     0
281
     0
  0
CLASS
  1
ACDBPLACEHOLDER
  2
AcDbPlaceHolder
  3
ObjectDBX Classes
 90
        0
280
     0
281
     0
  0
CLASS
  1
LAYOUT
  2
AcDbLayout
  3
ObjectDBX Classes
 90
        0
280
     0
281
     0
  0
ENDSEC
  0
SECTION
  2
TABLES
  0
TABLE
  2
VPORT
  5
8
330
0
100
AcDbSymbolTable
 70
     1
  0
VPORT
  5
29
330
8
100
AcDbSymbolTableRecord
100
AcDbViewportTableRecord
  2
*Active
 70
     0
 10
0.0
 20
0.0
 11
1.0
 21
1.0
 12
148.5
 22
105.0
 13
0.0
 23
0.0
 14
10.0
 24
10.0
 15
10.0
 25
10.0
 16
0.0
 26
0.0
 36
1.0
 17
0.0
 27
0.0
 37
0.0
 40
210.0
 41
1.4142857143
 42
50.0
 43
0.0
 44
0.0
 50
0.0
 51
0.0
 71
     0
 72
  2000
 73
     1
 74
     3
 75
     0
 76
     0
 77
     0
 78
     0
281
     0
 65
     1
110
0.0
120
0.0
130
0.0
111
1.0
121
0.0
131
0.0
112
0.0
122
1.0
132
0.0
 79
     0
146
0.0
  0
ENDTAB
  0
TABLE
  2
LTYPE
  5
5
330
0
100
AcDbSymbolTable
 70
     6
  0
LTYPE
  5
14
330
5
100
AcDbSymbolTableRecord
100
AcDbLinetypeTableRecord
  2
ByBlock
 70
     0
  3

 72
    65
 73
     0
 40
0.0
  0
LTYPE
  5
15
330
5
100
AcDbSymbolTableRecord
100
AcDbLinetypeTableRecord
  2
ByLayer
 70
     0
  3

 72
    65
 73
     0
 40
0.0
  0
LTYPE
  5
16
330
5
100
AcDbSymbolTableRecord
100
AcDbLinetypeTableRecord
  2
Continuous
 70
     0
  3
Solid line
 72
    65
 73
     0
 40
0.0
  0
LTYPE
  5
3F
330
5
100
AcDbSymbolTableRecord
100
AcDbLinetypeTableRecord
  2
HIDDEN
 70
     0
  3
Hidden __ __ __ __ __ __ __ __ __ __ __ __ __ __
 72
    65
 73
     2
 40
1.905
 49
1.27
 74
     0
 49
-0.635
 74
     0
  0
LTYPE
  5
40
330
5
100
AcDbSymbolTableRecord
100
AcDbLinetypeTableRecord
  2
PHANTOM
 70
     0
  3
Phantom ______  __  __  ______  __  __  ______
 72
    65
 73
     6
 40
12.7
 49
6.35
 74
     0
 49
-1.27
 74
     0
 49
1.27
 74
     0
 49
-1.27
 74
     0
 49
1.27
 74
     0
 49
-1.27
 74
     0
  0
LTYPE
  5
41
330
5
100
AcDbSymbolTableRecord
100
AcDbLinetypeTableRecord
  2
CENTER
 70
     0
  3
Center ____ _ ____ _ ____ _ ____ _ ____ _ ____
 72
    65
 73
     4
 40
10.16
 49
6.35
 74
     0
 49
-1.27
 74
     0
 49
1.27
 74
     0
 49
-1.27
 74
     0
  0
LTYPE
  5
42
330
5
100
AcDbSymbolTableRecord
100
AcDbLinetypeTableRecord
  2
CENTERX2
 70
     0
  3
Center (2x) ________  __  ________  __  _____
 72
    65
 73
     4
 40
20.32
 49
12.7
 74
     0
 49
-2.54
 74
     0
 49
2.54
 74
     0
 49
-2.54
 74
     0
  0
LTYPE
  5
43
330
5
100
AcDbSymbolTableRecord
100
AcDbLinetypeTableRecord
  2
DOT2
 70
     0
  3
Dot (.5x) ........................................
 72
    65
 73
     2
 40
0.635
 49
0.0
 74
     0
 49
-0.635
 74
     0
  0
ENDTAB
  0
TABLE
  2
LAYER
  5
2
330
0
100
AcDbSymbolTable
 70
     5
  0
LAYER
  5
10
330
2
100
AcDbSymbolTableRecord
100
AcDbLayerTableRecord
  2
0
 70
     0
 62
     7
  6
Continuous
370
    -3
390
F
  0
LAYER
  5
44
330
2
100
AcDbSymbolTableRecord
100
AcDbLayerTableRecord
  2
FORMAT
 70
     0
 62
     7
  6
Continuous
370
    -3
390
F
  0
LAYER
  5
45
330
2
100
AcDbSymbolTableRecord
100
AcDbLayerTableRecord
  2
VERMASSUNG
 70
     0
 62
     7
  6
Continuous
370
    -3
390
F
  0
LAYER
  5
46
330
2
100
AcDbSymbolTableRecord
100
AcDbLayerTableRecord
  2
KOPF_DÜNN
 70
     0
 62
     7
  6
Continuous
370
    -3
390
F
  0
LAYER
  5
47
330
2
100
AcDbSymbolTableRecord
100
AcDbLayerTableRecord
  2
KOPF_DICK
 70
     0
 62
     7
  6
Continuous
370
    15
390
F
  0
ENDTAB
  0
TABLE
  2
STYLE
  5
3
330
0
100
AcDbSymbolTable
 70
     2
  0
STYLE
  5
11
330
3
100
AcDbSymbolTableRecord
100
AcDbTextStyleTableRecord
  2
Standard
 70
     0
 40
0.0
 41
1.0
 50
0.0
 71
     0
 42
2.0
  3
txt
  4

  0
STYLE
  5
48
330
3
100
AcDbSymbolTableRecord
100
AcDbTextStyleTableRecord
  2
SLDTEXTSTYLE0
 70
     0
 40
0.0
 41
0.7
 50
0.0
 71
     0
 42
0.2
  3
TXT
  4

  0
ENDTAB
  0
TABLE
  2
VIEW
  5
6
330
0
100
AcDbSymbolTable
 70
     0
  0
ENDTAB
  0
TABLE
  2
UCS
  5
7
330
0
100
AcDbSymbolTable
 70
     0
  0
ENDTAB
  0
TABLE
  2
APPID
  5
9
330
0
100
AcDbSymbolTable
 70
     1
  0
APPID
  5
12
330
9
100
AcDbSymbolTableRecord
100
AcDbRegAppTableRecord
  2
ACAD
 70
     0
  0
ENDTAB
  0
TABLE
  2
DIMSTYLE
  5
A
330
0
100
AcDbSymbolTable
 70
     3
100
AcDbDimStyleTable
  0
DIMSTYLE
105
27
330
A
100
AcDbSymbolTableRecord
100
AcDbDimStyleTableRecord
  2
ISO-25
 70
     0
 41
2.5
 42
0.625
 43
3.75
 44
1.25
 73
     0
 74
     0
 77
     1
 78
     8
140
2.5
141
2.5
143
0.0393700787
147
0.625
171
     3
172
     1
178
     0
271
     2
272
     2
274
     3
278
    44
283
     0
284
     8
340
11
  0
DIMSTYLE
105
1A8
102
{ACAD_REACTORS
330
1A7
102
}
330
A
100
AcDbSymbolTableRecord
100
AcDbDimStyleTableRecord
  2
SLDDIMSTYLE0
 70
     0
 41
3.0
 44
0.0
 45
0.000000001
 47
0.1
 48
0.1
 71
     1
 73
     0
 74
     0
 77
     1
 78
    12
 79
     3
140
2.0
147
0.5
173
     1
178
     0
271
     2
272
     1
276
     2
284
     8
340
48
  0
DIMSTYLE
105
1B5
102
{ACAD_REACTORS
330
1B4
330
2AD
102
}
330
A
100
AcDbSymbolTableRecord
100
AcDbDimStyleTableRecord
  2
SLDDIMSTYLE1
 70
     0
 41
3.0
 44
0.0
 45
0.000000001
 73
     0
 74
     0
 77
     1
 78
    12
 79
     3
140
2.0
147
0.5
173
     1
178
     0
271
     2
272
     3
276
     2
284
    12
340
48
  0
ENDTAB
  0
TABLE
  2
BLOCK_RECORD
  5
1
330
0
100
AcDbSymbolTable
 70
     4
  0
BLOCK_RECORD
  5
1F
330
1
100
AcDbSymbolTableRecord
100
AcDbBlockTableRecord
  2
*Model_Space
340
22
  0
BLOCK_RECORD
  5
1B
330
1
100
AcDbSymbolTableRecord
100
AcDbBlockTableRecord
  2
*Paper_Space
340
1E
  0
BLOCK_RECORD
  5
23
330
1
100
AcDbSymbolTableRecord
100
AcDbBlockTableRecord
  2
*Paper_Space0
340
26
  0
BLOCK_RECORD
  5
1A9
330
1
100
AcDbSymbolTableRecord
100
AcDbBlockTableRecord
  2
_D
340
0
  0
BLOCK_RECORD
  5
1B6
330
1
100
AcDbSymbolTableRecord
100
AcDbBlockTableRecord
  2
_D_1
340
0
  0
BLOCK_RECORD
  5
2AE
330
1
100
AcDbSymbolTableRecord
100
AcDbBlockTableRecord
  2
_D_2
340
0
  0
ENDTAB
  0
ENDSEC
  0
SECTION
  2
BLOCKS
  0
BLOCK
  5
20
330
1F
100
AcDbEntity
  8
0
100
AcDbBlockBegin
  2
*Model_Space
 70
     0
 10
0.0
 20
0.0
 30
0.0
  3
*Model_Space
  1

  0
ENDBLK
  5
21
330
1F
100
AcDbEntity
  8
0
100
AcDbBlockEnd
  0
BLOCK
  5
1C
330
1B
100
AcDbEntity
 67
     1
  8
0
100
AcDbBlockBegin
  2
*Paper_Space
 70
     0
 10
0.0
 20
0.0
 30
0.0
  3
*Paper_Space
  1

  0
ENDBLK
  5
1D
330
1B
100
AcDbEntity
 67
     1
  8
0
100
AcDbBlockEnd
  0
BLOCK
  5
24
330
23
100
AcDbEntity
  8
0
100
AcDbBlockBegin
  2
*Paper_Space0
 70
     0
 10
0.0
 20
0.0
 30
0.0
  3
*Paper_Space0
  1

  0
ENDBLK
  5
25
330
23
100
AcDbEntity
  8
0
100
AcDbBlockEnd
  0
BLOCK
  5
1AA
330
1A9
100
AcDbEntity
  8
0
100
AcDbBlockBegin
  2
_D
 70
     0
 10
0.0
 20
0.0
 30
0.0
  3
_D
  1

  0
SOLID
  5
1AC
330
1A9
100
AcDbEntity
  8
VERMASSUNG
100
AcDbTrace
 10
261.0176859702
 20
192.7948350513
 30
0.0
 11
258.0176859702
 21
193.2448350513
 31
0.0
 12
258.0176859702
 22
192.3448350513
 32
0.0
 13
258.0176859702
 23
192.3448350513
 33
0.0
  0
SOLID
  5
1AD
330
1A9
100
AcDbEntity
  8
VERMASSUNG
100
AcDbTrace
 10
131.0176859702
 20
192.7948350513
 30
0.0
 11
134.0176859702
 21
192.3448350513
 31
0.0
 12
134.0176859702
 22
193.2448350513
 32
0.0
 13
134.0176859702
 23
193.2448350513
 33
0.0
  0
LINE
  5
1AE
330
1A9
100
AcDbEntity
  8
VERMASSUNG
100
AcDbLine
 10
261.0176859702
 20
160.780581163
 30
0.0
 11
261.0176859702
 21
193.7948350513
 31
0.0
  0
LINE
  5
1AF
330
1A9
100
AcDbEntity
  8
VERMASSUNG
100
AcDbLine
 10
131.0176859702
 20
182.2948350513
 30
0.0
 11
131.0176859702
 21
193.7948350513
 31
0.0
  0
LINE
  5
1B0
330
1A9
100
AcDbEntity
  8
VERMASSUNG
100
AcDbLine
 10
261.0176859702
 20
192.7948350513
 30
0.0
 11
131.0176859702
 21
192.7948350513
 31
0.0
  0
MTEXT
  5
1B1
330
1A9
100
AcDbEntity
  8
VERMASSUNG
100
AcDbMText
 10
190.9676857013
 20
195.3729704144
 30
0.1
 40
2.0
 41
0.0
 71
     1
 72
     1
  1
130
  7
SLDTEXTSTYLE0
 73
     1
 44
1.0
  0
MTEXT
  5
1B2
330
1A9
100
AcDbEntity
  8
VERMASSUNG
100
AcDbMText
 10
197.7551859673
 20
195.3729704144
 30
0.1
 40
2.0
 41
0.0
 71
     1
 72
     1
  1

  7
SLDTEXTSTYLE0
 73
     1
 44
1.0
  0
MTEXT
  5
1B3
330
1A9
100
AcDbEntity
  8
VERMASSUNG
100
AcDbMText
 10
197.7676862571
 20
194.8784365517
 30
0.1
 40
1.5
 41
0.0
 71
     1
 72
     1
  1
±0.1
  7
SLDTEXTSTYLE0
 73
     1
 44
1.0
  0
ENDBLK
  5
1AB
330
1A9
100
AcDbEntity
  8
0
100
AcDbBlockEnd
  0
BLOCK
  5
1B7
330
1B6
100
AcDbEntity
  8
0
100
AcDbBlockBegin
  2
_D_1
 70
     0
 10
0.0
 20
0.0
 30
0.0
  3
_D_1
  1

  0
SOLID
  5
1B9
330
1B6
100
AcDbEntity
  8
VERMASSUNG
100
AcDbTrace
 10
93.0176859702
 20
198.7948350513
 30
0.0
 11
96.0176859702
 21
198.3448350513
 31
0.0
 12
96.0176859702
 22
199.2448350513
 32
0.0
 13
96.0176859702
 23
199.2448350513
 33
0.0
  0
SOLID
  5
1BA
330
1B6
100
AcDbEntity
  8
VERMASSUNG
100
AcDbTrace
 10
261.0176859702
 20
198.7948350513
 30
0.0
 11
258.0176859702
 21
199.2448350513
 31
0.0
 12
258.0176859702
 22
198.3448350513
 32
0.0
 13
258.0176859702
 23
198.3448350513
 33
0.0
  0
LINE
  5
1BB
330
1B6
100
AcDbEntity
  8
VERMASSUNG
100
AcDbLine
 10
93.0176859702
 20
171.4809508203
 30
0.0
 11
93.0176859702
 21
199.7948350513
 31
0.0
  0
LINE
  5
1BC
330
1B6
100
AcDbEntity
  8
VERMASSUNG
100
AcDbLine
 10
261.0176859702
 20
160.780581163
 30
0.0
 11
261.0176859702
 21
199.7948350513
 31
0.0
  0
LINE
  5
1BD
330
1B6
100
AcDbEntity
  8
VERMASSUNG
100
AcDbLine
 10
93.0176859702
 20
198.7948350513
 30
0.0
 11
261.0176859702
 21
198.7948350513
 31
0.0
  0
MTEXT
  5
1BE
330
1B6
100
AcDbEntity
  8
VERMASSUNG
100
AcDbMText
 10
174.2176858372
 20
201.3729704144
 30
0.1
 40
2.0
 41
0.0
 71
     1
 72
     1
  1
168
  7
SLDTEXTSTYLE0
 73
     1
 44
1.0
  0
ENDBLK
  5
1B8
330
1B6
100
AcDbEntity
  8
0
100
AcDbBlockEnd
  0
BLOCK
  5
2AF
330
2AE
100
AcDbEntity
  8
0
100
AcDbBlockBegin
  2
_D_2
 70
     0
 10
0.0
 20
0.0
 30
0.0
  3
_D_2
  1

  0
SOLID
  5
2B1
330
2AE
100
AcDbEntity
  8
VERMASSUNG
100
AcDbTrace
 10
83.0176359702
 20
107.5635853864
 30
0.0
 11
82.5676359702
 21
104.5635853864
 31
0.0
 12
83.4676359702
 22
104.5635853864
 32
0.0
 13
83.4676359702
 23
104.5635853864
 33
0.0
  0
SOLID
  5
2B2
330
2AE
100
AcDbEntity
  8
VERMASSUNG
100
AcDbTrace
 10
83.0176359702
 20
44.5635853864
 30
0.0
 11
83.4676359702
 21
47.5635853864
 31
0.0
 12
82.5676359702
 22
47.5635853864
 32
0.0
 13
82.5676359702
 23
47.5635853864
 33
0.0
  0
LINE
  5
2B3
330
2AE
100
AcDbEntity
  8
VERMASSUNG
100
AcDbLine
 10
131.5176859702
 20
107.5635853864
 30
0.0
 11
82.0176359702
 21
107.5635853864
 31
0.0
  0
LINE
  5
2B4
330
2AE
100
AcDbEntity
  8
VERMASSUNG
100
AcDbLine
 10
131.5176859702
 20
44.5635853864
 30
0.0
 11
82.0176359702
 21
44.5635853864
 31
0.0
  0
LINE
  5
2B5
330
2AE
100
AcDbEntity
  8
VERMASSUNG
100
AcDbLine
 10
83.0176359702
 20
107.5635853864
 30
0.0
 11
83.0176359702
 21
44.5635853864
 31
0.0
  0
MTEXT
  5
2B6
330
2AE
100
AcDbEntity
  8
VERMASSUNG
100
AcDbMText
 10
80.2395004812
 20
69.6585852771
 30
0.1
 40
2.0
 41
0.0
 71
     1
 72
     1
  1
PSC
  7
SLDTEXTSTYLE0
 11
-7.044195017643634E-15
 21
1.0
 31
0.0
 73
     1
 44
1.0
  0
MTEXT
  5
2B7
330
2AE
100
AcDbEntity
  8
VERMASSUNG
100
AcDbMText
 10
80.4395004907
 20
74.2585853792
 30
0.1
 40
2.0
 41
0.0
 71
     1
 72
     1
  1
%%c
  7
SLDTEXTSTYLE0
 11
-7.044195017643634E-15
 21
1.0
 31
0.0
 73
     1
 44
1.0
  0
MTEXT
  5
2B8
330
2AE
100
AcDbEntity
  8
VERMASSUNG
100
AcDbMText
 10
80.2395004812
 20
77.8685858592
 30
0.1
 40
2.0
 41
0.0
 71
     1
 72
     1
  1
63
  7
SLDTEXTSTYLE0
 11
-7.044195017643634E-15
 21
1.0
 31
0.0
 73
     1
 44
1.0
  0
ENDBLK
  5
2B0
330
2AE
100
AcDbEntity
  8
0
100
AcDbBlockEnd
  0
ENDSEC
  0
SECTION
  2
ENTITIES
  0
MTEXT
  5
49
330
1F
100
AcDbEntity
  8
KOPF_DÜNN
100
AcDbMText
 10
13.8892156294
 20
23.8442973028
 30
0.0
 40
3.0
 41
0.0
 71
     1
 72
     1
  1
PS6.KCC.NMA.130
  7
SLDTEXTSTYLE0
 73
     1
 44
1.0
  0
MTEXT
  5
4A
330
1F
100
AcDbEntity
  8
VERMASSUNG
100
AcDbMText
 10
13.9329988022
 20
28.8834360957
 30
0.0
 40
3.0
 41
0.0
 71
     1
 72
     1
  1
Klemmhalter_Turning tool neutral
  7
SLDTEXTSTYLE0
 73
     1
 44
1.0
  0
MTEXT
  5
4B
330
1F
100
AcDbEntity
  8
VERMASSUNG
100
AcDbMText
 10
98.8601118557
 20
13.8365368179
 30
0.0
 40
2.0
 41
0.0
 71
     1
 72
     1
  1
Datum: 24.05.2012
  7
SLDTEXTSTYLE0
 73
     1
 44
1.0
  0
MTEXT
  5
4C
330
1F
100
AcDbEntity
  8
VERMASSUNG
100
AcDbMText
 10
13.933048693
 20
18.0482802738
 30
0.0
 40
2.0
 41
0.0
 71
     1
 72
     1
  1
PSC ø63 / CC.. 12 04..
  7
SLDTEXTSTYLE0
 73
     1
 44
1.0
  0
MTEXT
  5
4D
330
1F
100
AcDbEntity
  8
VERMASSUNG
100
AcDbMText
 10
13.9808475933
 20
13.9090973692
 30
0.0
 40
2.0
 41
0.0
 71
     1
 72
     1
  1
Gewicht: 2491g
  7
SLDTEXTSTYLE0
 73
     1
 44
1.0
  0
LINE
  5
4E
330
1F
100
AcDbEntity
  8
0
  6
Continuous
 62
     7
370
    15
100
AcDbLine
 10
195.0176859702
 20
182.7948350513
 30
0.0
 11
131.5176859702
 21
182.7948350513
 31
0.0
  0
LINE
  5
4F
330
1F
100
AcDbEntity
  8
0
  6
Continuous
 62
     7
370
    15
100
AcDbLine
 10
204.4969016509
 20
182.7948350513
 30
0.0
 11
200.9803968316
 21
182.7948350513
 31
0.0
  0
LINE
  5
50
330
1F
100
AcDbEntity
  8
0
  6
Continuous
 62
     7
370
    15
100
AcDbLine
 10
145.0176859702
 20
119.7948350513
 30
0.0
 11
256.26830143
 21
119.7948350513
 31
0.0
  0
LINE
  5
51
330
1F
100
AcDbEntity
  8
0
  6
Continuous
 62
     7
370
    15
100
AcDbLine
 10
131.5176859702
 20
119.7948350513
 30
0.0
 11
141.0423043259
 21
119.7948350513
 31
0.0
  0
ARC
  5
52
330
1F
100
AcDbEntity
  8
0
  6
Continuous
 62
     7
370
    15
100
AcDbCircle
 10
131.5176859702
 20
120.2948350513
 30
0.0
 40
0.5
100
AcDbArc
 50
180.0
 51
270.0
  0
ARC
  5
53
330
1F
100
AcDbEntity
  8
0
  6
Continuous
 62
     7
370
    15
100
AcDbCircle
 10
131.5176859702
 20
182.2948350513
 30
0.0
 40
0.5
100
AcDbArc
 50
90.0
 51
180.0
  0
LWPOLYLINE
  5
54
330
1F
100
AcDbEntity
  8
0
  6
Continuous
 62
     7
370
    15
100
AcDbPolyline
 90
        3
 70
   128
 43
0.0
 10
130.8176859702
 20
128.7550147724
 10
130.9431409137
 20
128.6867126575
 10
131.0176859702
 20
128.6339748994
  0
ARC
  5
55
330
1F
100
AcDbEntity
  8
0
  6
Continuous
 62
     7
370
    15
100
AcDbCircle
 10
130.4034724079
 20
174.7448350513
 30
0.0
 40
1.000000000000021
100
AcDbArc
 50
225.0
 51
307.8947985336
  0
LINE
  5
56
330
1F
100
AcDbEntity
  8
0
  6
Continuous
 62
     7
370
    15
100
AcDbLine
 10
119.9559756761
 20
130.8973732744
 30
0.0
 11
128.8176859702
 21
130.6747362667
 31
0.0
  0
LINE
  5
57
330
1F
100
AcDbEntity
  8
0
  6
Continuous
 62
     7
370
    15
100
AcDbLine
 10
101.3835933756
 20
131.3639761628
 30
0.0
 11
111.2869994408
 21
131.1151681316
 31
0.0
  0
ARC
  5
58
330
1F
100
AcDbEntity
  8
0
  6
Continuous
 62
     7
370
    15
100
AcDbCircle
 10
129.0176228812
 20
130.6697131556
 30
0.0
 40
0.2000000000000066
100
AcDbArc
 50
88.5608333333
 51
178.5608333333
  0
ARC
  5
59
330
1F
100
AcDbEntity
  8
0
  6
Continuous
 62
     7
370
    15
100
AcDbCircle
 10
130.6176859702
 20
130.6295140015
 30
0.0
 40
0.2000000000000052
100
AcDbArc
 50
0.0
 51
88.5608333333
  0
LINE
  5
5A
330
1F
100
AcDbEntity
  8
0
  6
Continuous
 62
     7
370
    15
100
AcDbLine
 10
129.0226459923
 20
130.8696500666
 30
0.0
 11
130.6227090814
 21
130.8294509124
 31
0.0
  0
LINE
  5
5B
330
1F
100
AcDbEntity
  8
0
  6
Continuous
 62
     7
370
    15
100
AcDbLine
 10
128.8176859702
 20
174.7149338359
 30
0.0
 11
94.5176859702
 21
173.8531984476
 31
0.0
  0
ARC
  5
5C
330
1F
100
AcDbEntity
  8
0
  6
Continuous
 62
     7
370
    15
100
AcDbCircle
 10
129.0176228812
 20
174.719956947
 30
0.0
 40
0.200000000000035
100
AcDbArc
 50
181.4391666667
 51
271.4391666667
  0
LINE
  5
5D
330
1F
100
AcDbEntity
  8
0
  6
Continuous
 62
     7
370
    15
100
AcDbLine
 10
129.2234251193
 20
174.5250643066
 30
0.0
 11
129.0226459923
 21
174.5200200361
 31
0.0
  0
LINE
  5
5E
330
1F
100
AcDbEntity
  8
0
  6
Continuous
 62
     7
370
    15
100
AcDbLine
 10
94.5176859702
 20
173.8531984476
 30
0.0
 11
93.0176859702
 21
172.9871730438
 31
0.0
  0
LINE
  5
5F
330
1F
100
AcDbEntity
  8
0
  6
Continuous
 62
     7
370
    15
100
AcDbLine
 10
129.6963656267
 20
174.0377282701
 30
0.0
 11
129.2336205306
 21
174.5004733662
 31
0.0
  0
LINE
  5
60
330
1F
100
AcDbEntity
  8
0
  6
Continuous
 62
     7
370
    15
100
AcDbLine
 10
241.7045724306
 20
151.0948350513
 30
0.0
 11
241.7168508867
 21
150.9948350513
 31
0.0
  0
LINE
  5
61
330
1F
100
AcDbEntity
  8
0
  6
Continuous
 62
     7
370
    15
100
AcDbLine
 10
260.6176859702
 20
147.8370964801
 30
0.0
 11
261.0176859702
 21
151.0948350513
 31
0.0
  0
LWPOLYLINE
  5
62
330
1F
100
AcDbEntity
  8
0
  6
Continuous
 62
     7
370
    15
100
AcDbPolyline
 90
       12
 70
   128
 43
0.0
 10
141.0423043259
 20
119.7963827395
 10
141.0702430906
 20
119.7981283382
 10
141.3300078799
 20
119.813121989
 10
141.7798459364
 20
119.8340301037
 10
142.3699669538
 20
119.8517191128
 10
143.0328789754
 20
119.8583875607
 10
143.6929444966
 20
119.851139752
 10
144.2769709138
 20
119.8331790464
 10
144.7201654091
 20
119.8123250459
 10
144.9717013573
 20
119.7977212767
 10
145.0176859702
 20
119.7948350513
 10
145.0176859702
 20
119.7948350513
  0
SPLINE
  5
63
330
1F
100
AcDbEntity
  8
0
  6
Continuous
 62
     7
370
    15
100
AcDbSpline
210
0.0
220
0.0
230
1.0
 70
     8
 71
     3
 72
    12
 73
     8
 74
     0
 42
0.00000001
 43
0.00000001
 12
1.0
 22
0.0
 32
0.0
 13
1.0
 23
0.0
 33
0.0
 40
0.0
 40
0.0
 40
0.0
 40
0.0
 40
0.5
 40
0.5
 40
0.75
 40
0.75
 40
1.0
 40
1.0
 40
1.0
 40
1.0
 10
141.1124300819121
 20
121.3940925911935
 30
0.0
 10
141.1431523238312
 20
121.3567906082404
 30
0.0
 10
141.1859895383663
 20
121.3201787761941
 30
0.0
 10
141.2854165625661
 20
121.2724139929088
 30
0.0
 10
141.3251687573828
 20
121.2574564774265
 30
0.0
 10
141.423210214241
 20
121.2342665316573
 30
0.0
 10
141.4827662698285
 20
121.2263430924376
 30
0.0
 10
141.5454427838043
 20
121.2263430924376
 30
0.0
  0
LINE
  5
64
330
1F
100
AcDbEntity
  8
0
  6
Continuous
 62
     7
370
    15
100
AcDbLine
 10
141.5454427838
 20
121.2263430924
 30
0.0
 11
144.4899291567
 21
121.2263430924
 31
0.0
  0
SPLINE
  5
65
330
1F
100
AcDbEntity
  8
0
  6
Continuous
 62
     7
370
    15
100
AcDbSpline
210
0.0
220
0.0
230
1.0
 70
     8
 71
     3
 72
    12
 73
     8
 74
     0
 42
0.00000001
 43
0.00000001
 12
1.0
 22
0.0
 32
0.0
 13
1.0
 23
0.0
 33
0.0
 40
0.0
 40
0.0
 40
0.0
 40
0.0
 40
0.2499999999999991
 40
0.2499999999999991
 40
0.4999999999999981
 40
0.4999999999999981
 40
1.0
 40
1.0
 40
1.0
 40
1.0
 10
144.4899291566714
 20
121.2263430924376
 30
0.0
 10
144.5530091951648
 20
121.2263430924376
 30
0.0
 10
144.6121578173462
 20
121.2342490186501
 30
0.0
 10
144.7106303674153
 20
121.2575741800863
 30
0.0
 10
144.7496669794
 20
121.272286969918
 30
0.0
 10
144.849563446179
 20
121.3202427706489
 30
0.0
 10
144.8919843272456
 20
121.356504927229
 30
0.0
 10
144.9229418585636
 20
121.3940925911935
 30
0.0
  0
ELLIPSE
  5
66
330
1F
100
AcDbEntity
  8
0
  6
Continuous
 62
     7
370
    15
100
AcDbEllipse
 10
128.6705317809
 20
151.2948350513
 30
0.0
 11
-14.75368316065624
 21
31.09325491558116
 31
0.0
210
0.0
220
0.0
230
1.0
 40
0.3419987131
 41
3.300734856217117
 42
4.231496223360768
  0
SPLINE
  5
67
330
1F
100
AcDbEntity
  8
0
  6
Continuous
 62
     7
370
    15
100
AcDbSpline
210
0.0
220
0.0
230
1.0
 70
     8
 71
     3
 72
    12
 73
     8
 74
     0
 42
0.00000001
 43
0.00000001
 12
1.0
 22
0.0
 32
0.0
 13
1.0
 23
0.0
 33
0.0
 40
0.0
 40
0.0
 40
0.0
 40
0.0
 40
0.4999999999999972
 40
0.4999999999999972
 40
0.7499999999999986
 40
0.7499999999999986
 40
1.0
 40
1.0
 40
1.0
 40
1.0
 10
144.9229418585636
 20
141.3854657306252
 30
0.0
 10
144.8922196166445
 20
141.4980215300344
 30
0.0
 10
144.8493824021094
 20
141.6107793897741
 30
0.0
 10
144.7499553779096
 20
141.7603202755704
 30
0.0
 10
144.7102031830929
 20
141.8076130072773
 30
0.0
 10
144.6121617262347
 20
141.8813493005987
 30
0.0
 10
144.5526056706473
 20
141.9067686199744
 30
0.0
 10
144.4899291566714
 20
141.9067686199744
 30
0.0
  0
LINE
  5
68
330
1F
100
AcDbEntity
  8
0
  6
Continuous
 62
     7
370
    15
100
AcDbLine
 10
144.4899291567
 20
141.90676862
 30
0.0
 11
141.5454427838
 21
141.90676862
 31
0.0
  0
SPLINE
  5
69
330
1F
100
AcDbEntity
  8
0
  6
Continuous
 62
     7
370
    15
100
AcDbSpline
210
0.0
220
0.0
230
1.0
 70
     8
 71
     3
 72
    12
 73
     8
 74
     0
 42
0.00000001
 43
0.00000001
 12
1.0
 22
0.0
 32
0.0
 13
1.0
 23
0.0
 33
0.0
 40
0.0
 40
0.0
 40
0.0
 40
0.0
 40
0.2500000000000013
 40
0.2500000000000013
 40
0.5000000000000027
 40
0.5000000000000027
 40
1.0
 40
1.0
 40
1.0
 40
1.0
 10
141.5454427838043
 20
141.9067686199744
 30
0.0
 10
141.4823627453109
 20
141.9067686199744
 30
0.0
 10
141.4232141231295
 20
141.8814043007595
 30
0.0
 10
141.3247415730605
 20
141.8072394403865
 30
0.0
 10
141.2857049610757
 20
141.7607190998324
 30
0.0
 10
141.1858084942967
 20
141.6105767569871
 30
0.0
 10
141.14338761323
 20
141.498883550015
 30
0.0
 10
141.1124300819121
 20
141.3854657306252
 30
0.0
  0
ELLIPSE
  5
6A
330
1F
100
AcDbEntity
  8
0
  6
Continuous
 62
     7
370
    15
100
AcDbEllipse
 10
157.3648401596
 20
151.2948350513
 30
0.0
 11
14.75368316065621
 21
31.09325491558116
 31
0.0
210
0.0
220
0.0
230
1.0
 40
0.3419987131
 41
2.051689083818828
 42
2.982450450962502
  0
SPLINE
  5
6B
330
1F
100
AcDbEntity
  8
0
  6
Continuous
 62
     7
370
    15
100
AcDbSpline
210
0.0
220
0.0
230
1.0
 70
     8
 71
     3
 72
    12
 73
     8
 74
     0
 42
0.00000001
 43
0.00000001
 12
1.0
 22
0.0
 32
0.0
 13
1.0
 23
0.0
 33
0.0
 40
0.0
 40
0.0
 40
0.0
 40
0.0
 40
0.500000000000001
 40
0.500000000000001
 40
0.7500000000000004
 40
0.7500000000000004
 40
1.0
 40
1.0
 40
1.0
 40
1.0
 10
141.1124300819121
 20
161.2042043719961
 30
0.0
 10
141.1435752798742
 20
161.0900990061308
 30
0.0
 10
141.1858495462086
 20
160.978992678912
 30
0.0
 10
141.2857950800339
 20
160.8288350714817
 30
0.0
 10
141.325525384738
 20
160.7818423798644
 30
0.0
 10
141.4224134347442
 20
160.7088667953259
 30
0.0
 10
141.4824786764907
 20
160.6829014826469
 30
0.0
 10
141.5454427838043
 20
160.6829014826469
 30
0.0
  0
LINE
  5
6C
330
1F
100
AcDbEntity
  8
0
  6
Continuous
 62
     7
370
    15
100
AcDbLine
 10
141.5454427838
 20
160.6829014826
 30
0.0
 11
144.4899291567
 21
160.6829014826
 31
0.0
  0
SPLINE
  5
6D
330
1F
100
AcDbEntity
  8
0
  6
Continuous
 62
     7
370
    15
100
AcDbSpline
210
0.0
220
0.0
230
1.0
 70
     8
 71
     3
 72
    12
 73
     8
 74
     0
 42
0.00000001
 43
0.00000001
 12
1.0
 22
0.0
 32
0.0
 13
1.0
 23
0.0
 33
0.0
 40
0.0
 40
0.0
 40
0.0
 40
0.0
 40
0.2499999999999982
 40
0.2499999999999982
 40
0.4999999999999964
 40
0.4999999999999964
 40
1.0
 40
1.0
 40
1.0
 40
1.0
 10
144.4899291566714
 20
160.682901482647
 30
0.0
 10
144.5529861115692
 20
160.682901482647
 30
0.0
 10
144.6121162613148
 20
160.7082478360277
 30
0.0
 10
144.7105638118481
 20
160.7823672181672
 30
0.0
 10
144.7495960500362
 20
160.8288637328652
 30
0.0
 10
144.8494859344931
 20
160.9789382398737
 30
0.0
 10
144.8917849081024
 20
161.0900559489886
 30
0.0
 10
144.9229418585637
 20
161.2042043719961
 30
0.0
  0
ELLIPSE
  5
6E
330
1F
100
AcDbEntity
  8
0
  6
Continuous
 62
     7
370
    15
100
AcDbEllipse
 10
128.6705317809
 20
151.2948350513
 30
0.0
 11
14.75368316065612
 21
31.09325491558116
 31
0.0
210
0.0
220
0.0
230
1.0
 40
0.3419987131
 41
5.19328173740863
 42
6.124043104552333
  0
SPLINE
  5
6F
330
1F
100
AcDbEntity
  8
0
  6
Continuous
 62
     7
370
    15
100
AcDbSpline
210
0.0
220
0.0
230
1.0
 70
     8
 71
     3
 72
    12
 73
     8
 74
     0
 42
0.00000001
 43
0.00000001
 12
1.0
 22
0.0
 32
0.0
 13
1.0
 23
0.0
 33
0.0
 40
0.0
 40
0.0
 40
0.0
 40
0.0
 40
0.5000000000000047
 40
0.5000000000000047
 40
0.7500000000000023
 40
0.7500000000000023
 40
1.0
 40
1.0
 40
1.0
 40
1.0
 10
144.9229418585636
 20
181.195577511428
 30
0.0
 10
144.8917966606015
 20
181.2333930343482
 30
0.0
 10
144.8495223942671
 20
181.2694598924318
 30
0.0
 10
144.7495768604418
 20
181.3174199574431
 30
0.0
 10
144.7098465557377
 20
181.3322809313407
 30
0.0
 10
144.6129585057315
 20
181.3552320774719
 30
0.0
 10
144.552893263985
 20
181.3633270101839
 30
0.0
 10
144.4899291566714
 20
181.3633270101839
 30
0.0
  0
LINE
  5
70
330
1F
100
AcDbEntity
  8
0
  6
Continuous
 62
     7
370
    15
100
AcDbLine
 10
144.4899291567
 20
181.3633270102
 30
0.0
 11
141.5454427838
 21
181.3633270102
 31
0.0
  0
SPLINE
  5
71
330
1F
100
AcDbEntity
  8
0
  6
Continuous
 62
     7
370
    15
100
AcDbSpline
210
0.0
220
0.0
230
1.0
 70
     8
 71
     3
 72
    12
 73
     8
 74
     0
 42
0.00000001
 43
0.00000001
 12
1.0
 22
0.0
 32
0.0
 13
1.0
 23
0.0
 33
0.0
 40
0.0
 40
0.0
 40
0.0
 40
0.0
 40
0.2500000000000014
 40
0.2500000000000014
 40
0.5000000000000028
 40
0.5000000000000028
 40
1.0
 40
1.0
 40
1.0
 40
1.0
 10
141.5454427838043
 20
181.3633270101839
 30
0.0
 10
141.4823858289065
 20
181.3633270101839
 30
0.0
 10
141.4232556791609
 20
181.3554266791043
 30
0.0
 10
141.3248081286276
 20
181.3321159310993
 30
0.0
 10
141.2857758904396
 20
181.3174108048156
 30
0.0
 10
141.1858860059826
 20
181.269477276629
 30
0.0
 10
141.1435870323733
 20
181.2334073038642
 30
0.0
 10
141.112430081912
 20
181.195577511428
 30
0.0
  0
ELLIPSE
  5
72
330
1F
100
AcDbEntity
  8
0
  6
Continuous
 62
     7
370
    15
100
AcDbEllipse
 10
157.3648401596
 20
151.2948350513
 30
0.0
 11
-14.75368316065615
 21
31.09325491558116
 31
0.0
210
0.0
220
0.0
230
1.0
 40
0.3419987131
 41
0.1591422026272958
 42
1.089903569770969
  0
ARC
  5
73
330
1F
100
AcDbEntity
  8
0
  6
Continuous
 62
     7
370
    15
100
AcDbCircle
 10
198.0175792641
 20
214.2178084734
 30
0.0
 40
31.56584575867241
100
AcDbArc
 50
264.5466052905
 51
275.3857956481
  0
LINE
  5
74
330
1F
100
AcDbEntity
  8
0
  6
Continuous
 62
     7
370
    15
100
AcDbLine
 10
211.8260929404
 20
155.4419207807
 30
0.0
 11
204.4969016509
 21
182.7948350513
 31
0.0
  0
SPLINE
  5
75
330
1F
100
AcDbEntity
  8
0
  6
Continuous
 62
     7
370
    15
100
AcDbSpline
210
0.0
220
0.0
230
1.0
 70
     8
 71
     3
 72
    18
 73
    14
 74
     0
 42
0.00000001
 43
0.00000001
 12
1.0
 22
0.0
 32
0.0
 13
1.0
 23
0.0
 33
0.0
 40
0.0
 40
0.0
 40
0.0
 40
0.0
 40
0.25
 40
0.25
 40
0.5
 40
0.5
 40
0.625
 40
0.625
 40
0.75
 40
0.75
 40
0.875
 40
0.875
 40
1.0
 40
1.0
 40
1.0
 40
1.0
 10
217.6216478981116
 20
150.9948350513108
 30
0.0
 10
216.9602568896286
 20
150.9948350513108
 30
0.0
 10
216.316993071593
 20
151.1012882708659
 30
0.0
 10
215.0665389699631
 20
151.5260658812921
 30
0.0
 10
214.4898182495923
 20
151.8347764481606
 30
0.0
 10
213.7055975398036
 20
152.4370735365958
 30
0.0
 10
213.4617885104874
 20
152.6587378246489
 30
0.0
 10
213.0166846566279
 20
153.1347206969873
 30
0.0
 10
212.8139252594282
 20
153.3901492834558
 30
0.0
 10
212.4490601895807
 20
153.9366831824462
 30
0.0
 10
212.2892053593926
 20
154.2251698795514
 30
0.0
 10
212.0208312273778
 20
154.818406505912
 30
0.0
 10
211.9109937670861
 20
155.1250665818135
 30
0.0
 10
211.8260929403772
 20
155.4419207806957
 30
0.0
  0
LINE
  5
76
330
1F
100
AcDbEntity
  8
0
  6
Continuous
 62
     7
370
    15
100
AcDbLine
 10
222.9453464519
 20
150.9948350513
 30
0.0
 11
217.6216478981
 21
150.9948350513
 31
0.0
  0
ELLIPSE
  5
77
330
1F
100
AcDbEntity
  8
0
  6
Continuous
 62
     7
370
    15
100
AcDbEllipse
 10
260.5207174431
 20
151.2948350513
 30
0.0
 11
36.9091809207406
 21
9.691898823412432
 31
0.0
210
0.0
220
0.0
230
1.0
 40
0.8120456143
 41
2.838363526904375
 42
4.389387987634321
  0
LINE
  5
78
330
1F
100
AcDbEntity
  8
0
  6
Continuous
 62
     7
370
    15
100
AcDbLine
 10
256.2685045214
 20
119.7964890973
 30
0.0
 11
256.26830143
 21
119.7948350513
 31
0.0
  0
LINE
  5
79
330
1F
100
AcDbEntity
  8
0
  6
Continuous
 62
     7
370
    15
100
AcDbLine
 10
131.0176859702
 20
151.2948350513
 30
0.0
 11
131.0176859702
 21
182.2948350513
 31
0.0
  0
LINE
  5
7A
330
1F
100
AcDbEntity
  8
0
  6
Continuous
 62
     7
370
    15
100
AcDbLine
 10
131.0176859702
 20
120.2948350513
 30
0.0
 11
131.0176859702
 21
151.2948350513
 31
0.0
  0
LINE
  5
7B
330
1F
100
AcDbEntity
  8
0
  6
Continuous
 62
     7
370
    15
100
AcDbLine
 10
250.9926334307
 20
150.9948350513
 30
0.0
 11
222.9453464519
 21
150.9948350513
 31
0.0
  0
LINE
  5
7C
330
1F
100
AcDbEntity
  8
0
  6
Continuous
 62
     7
370
    15
100
AcDbLine
 10
250.9926334307
 20
150.9948350513
 30
0.0
 11
251.0663264813
 21
148.8348350513
 31
0.0
  0
LINE
  5
7D
330
1F
100
AcDbEntity
  8
0
  6
Continuous
 62
     7
370
    15
100
AcDbLine
 10
251.0663264813
 20
148.8348350513
 30
0.0
 11
250.9128457801
 21
146.3348350513
 31
0.0
  0
LINE
  5
7E
330
1F
100
AcDbEntity
  8
0
  6
Continuous
 62
     7
370
    15
100
AcDbLine
 10
251.1516193638
 20
146.3348350513
 30
0.0
 11
250.9128457801
 21
146.3348350513
 31
0.0
  0
LINE
  5
7F
330
1F
100
AcDbEntity
  8
0
  6
Continuous
 62
     7
370
    15
100
AcDbLine
 10
256.2685045214
 20
119.7964890973
 30
0.0
 11
259.5270036764
 21
146.3348350513
 31
0.0
  0
LINE
  5
80
330
1F
100
AcDbEntity
  8
0
  6
Continuous
 62
     7
370
    15
100
AcDbLine
 10
130.8176859702
 20
134.5046336976
 30
0.0
 11
130.8176859702
 21
128.7550147724
 31
0.0
  0
SPLINE
  5
81
330
1F
100
AcDbEntity
  8
0
  6
Continuous
 62
     7
370
    15
100
AcDbSpline
210
0.0
220
0.0
230
1.0
 70
     8
 71
     3
 72
    16
 73
    12
 74
     0
 42
0.00000001
 43
0.00000001
 12
1.0
 22
0.0
 32
0.0
 13
1.0
 23
0.0
 33
0.0
 40
0.0
 40
0.0
 40
0.0
 40
0.0
 40
0.5000000000000047
 40
0.5000000000000047
 40
0.7500000000000094
 40
0.7500000000000094
 40
0.8750000000000098
 40
0.8750000000000098
 40
0.9375000000000049
 40
0.9375000000000049
 40
1.0
 40
1.0
 40
1.0
 40
1.0
 10
130.8176859702378
 20
134.5046336975696
 30
0.0
 10
130.8176859702378
 20
134.5844574085501
 30
0.0
 10
130.8135396951599
 20
134.6663135264342
 30
0.0
 10
130.7875740997664
 20
134.7951286475181
 30
0.0
 10
130.7761131943889
 20
134.8399193192197
 30
0.0
 10
130.7418014566146
 20
134.906050126951
 30
0.0
 10
130.7277767206849
 20
134.9288971851541
 30
0.0
 10
130.6917537576512
 20
134.9553279383964
 30
0.0
 10
130.6769992485615
 20
134.9617556075386
 30
0.0
 10
130.6476470874146
 20
134.9647165306937
 30
0.0
 10
130.6343072129106
 20
134.9617351391856
 30
0.0
 10
130.6227090813622
 20
134.9569921515044
 30
0.0
  0
SPLINE
  5
82
330
1F
100
AcDbEntity
  8
0
  6
Continuous
 62
     7
370
    15
100
AcDbSpline
210
0.0
220
0.0
230
1.0
 70
     8
 71
     3
 72
    12
 73
     8
 74
     0
 42
0.00000001
 43
0.00000001
 12
1.0
 22
0.0
 32
0.0
 13
1.0
 23
0.0
 33
0.0
 40
0.0
 40
0.0
 40
0.0
 40
0.0
 40
0.25
 40
0.25
 40
0.5
 40
0.5
 40
1.0
 40
1.0
 40
1.0
 40
1.0
 10
130.6227090813693
 20
134.956992151499
 30
0.0
 10
130.5925172396521
 20
134.9446453754044
 30
0.0
 10
130.5591582702374
 20
134.9341476889346
 30
0.0
 10
130.4860209856569
 20
134.9207266343554
 30
0.0
 10
130.4457791130029
 20
134.9181162231084
 30
0.0
 10
130.3280733360344
 20
134.9260866758506
 30
0.0
 10
130.257662858255
 20
134.9511744334684
 30
0.0
 10
130.2011736837867
 20
134.9804640757967
 30
0.0
  0
SPLINE
  5
83
330
1F
100
AcDbEntity
  8
0
  6
Continuous
 62
     7
370
    15
100
AcDbSpline
210
0.0
220
0.0
230
1.0
 70
     8
 71
     3
 72
    12
 73
     8
 74
     0
 42
0.00000001
 43
0.00000001
 12
1.0
 22
0.0
 32
0.0
 13
1.0
 23
0.0
 33
0.0
 40
0.0
 40
0.0
 40
0.0
 40
0.0
 40
0.2499999999999986
 40
0.2499999999999986
 40
0.4999999999999998
 40
0.4999999999999998
 40
1.0
 40
1.0
 40
1.0
 40
1.0
 10
130.2011736837863
 20
134.9804640757966
 30
0.0
 10
130.1130197460486
 20
135.0261719008882
 30
0.0
 10
130.0526663214199
 20
135.0815891392075
 30
0.0
 10
129.946404363353
 20
135.1998818662628
 30
0.0
 10
129.904172196791
 20
135.2616769816717
 30
0.0
 10
129.7931015014738
 20
135.4530976081866
 30
0.0
 10
129.740164725047
 20
135.5888442730721
 30
0.0
 10
129.6963656266782
 20
135.7316338068859
 30
0.0
  0
SPLINE
  5
84
330
1F
100
AcDbEntity
  8
0
  6
Continuous
 62
     7
370
    15
100
AcDbSpline
210
0.0
220
0.0
230
1.0
 70
     8
 71
     3
 72
    12
 73
     8
 74
     0
 42
0.00000001
 43
0.00000001
 12
1.0
 22
0.0
 32
0.0
 13
1.0
 23
0.0
 33
0.0
 40
0.0
 40
0.0
 40
0.0
 40
0.0
 40
0.4999999999999991
 40
0.4999999999999991
 40
0.7499999999999996
 40
0.7499999999999996
 40
1.0
 40
1.0
 40
1.0
 40
1.0
 10
129.6963656266782
 20
144.7143512412094
 30
0.0
 10
129.7401121675148
 20
144.953525168256
 30
0.0
 10
129.7929965227463
 20
145.1909680231719
 30
0.0
 10
129.9045636100824
 20
145.5398060595875
 30
0.0
 10
129.9471472066255
 20
145.654714967198
 30
0.0
 10
130.0520639337072
 20
145.8745974121082
 30
0.0
 10
130.1135975415521
 20
145.9829583331225
 30
0.0
 10
130.2011736837782
 20
146.0699639207216
 30
0.0
  0
SPLINE
  5
85
330
1F
100
AcDbEntity
  8
0
  6
Continuous
 62
     7
370
    15
100
AcDbSpline
210
0.0
220
0.0
230
1.0
 70
     8
 71
     3
 72
    12
 73
     8
 74
     0
 42
0.00000001
 43
0.00000001
 12
1.0
 22
0.0
 32
0.0
 13
1.0
 23
0.0
 33
0.0
 40
0.0
 40
0.0
 40
0.0
 40
0.0
 40
0.4999999999999998
 40
0.4999999999999998
 40
0.7499999999999997
 40
0.7499999999999997
 40
1.0
 40
1.0
 40
1.0
 40
1.0
 10
130.2011736837814
 20
146.0699639207217
 30
0.0
 10
130.2576101846885
 20
146.1260327403636
 30
0.0
 10
130.3266948153773
 20
146.1731454191179
 30
0.0
 10
130.4454970870952
 20
146.1844658656138
 30
0.0
 10
130.4856823625653
 20
146.1774649751223
 30
0.0
 10
130.5590634099692
 20
146.1472536784634
 30
0.0
 10
130.5924729737118
 20
146.1246748680819
 30
0.0
 10
130.6227090813682
 20
146.0985875467277
 30
0.0
  0
SPLINE
  5
86
330
1F
100
AcDbEntity
  8
0
  6
Continuous
 62
     7
370
    15
100
AcDbSpline
210
0.0
220
0.0
230
1.0
 70
     8
 71
     3
 72
    16
 73
    12
 74
     0
 42
0.00000001
 43
0.00000001
 12
1.0
 22
0.0
 32
0.0
 13
1.0
 23
0.0
 33
0.0
 40
0.0
 40
0.0
 40
0.0
 40
0.0
 40
0.0625000000000026
 40
0.0625000000000026
 40
0.1250000000000052
 40
0.1250000000000052
 40
0.2500000000000053
 40
0.2500000000000053
 40
0.5000000000000024
 40
0.5000000000000024
 40
1.0
 40
1.0
 40
1.0
 40
1.0
 10
130.622709081331
 20
146.0985875466708
 30
0.0
 10
130.634289488919
 20
146.088596121261
 30
0.0
 10
130.6475990156802
 20
146.0803387148793
 30
0.0
 10
130.6769004457664
 20
146.0745894300672
 30
0.0
 10
130.6917145456507
 20
146.0781997287753
 30
0.0
 10
130.7275429473535
 20
146.1011201880579
 30
0.0
 10
130.7416625717165
 20
146.1269156963035
 30
0.0
 10
130.7761667158051
 20
146.2050707207225
 30
0.0
 10
130.7872712665096
 20
146.2612135634585
 30
0.0
 10
130.8134474437258
 20
146.4321196189922
 30
0.0
 10
130.8176859702378
 20
146.549334711571
 30
0.0
 10
130.8176859702378
 20
146.6668993107928
 30
0.0
  0
LINE
  5
87
330
1F
100
AcDbEntity
  8
0
  6
Continuous
 62
     7
370
    15
100
AcDbLine
 10
130.8176859702
 20
172.7129721456
 30
0.0
 11
130.8176859702
 21
146.6668993108
 31
0.0
  0
SPLINE
  5
88
330
1F
100
AcDbEntity
  8
0
  6
Continuous
 62
     7
370
    15
100
AcDbSpline
210
0.0
220
0.0
230
1.0
 70
     8
 71
     3
 72
    16
 73
    12
 74
     0
 42
0.00000001
 43
0.00000001
 12
1.0
 22
0.0
 32
0.0
 13
1.0
 23
0.0
 33
0.0
 40
0.0
 40
0.0
 40
0.0
 40
0.0
 40
0.499999999999994
 40
0.499999999999994
 40
0.7499999999999943
 40
0.7499999999999943
 40
0.874999999999997
 40
0.874999999999997
 40
0.9374999999999986
 40
0.9374999999999986
 40
1.0
 40
1.0
 40
1.0
 40
1.0
 10
130.8176859702378
 20
172.7129721455699
 30
0.0
 10
130.8176859702378
 20
172.7502459864801
 30
0.0
 10
130.8135396951599
 20
172.7845420784987
 30
0.0
 10
130.7875740997664
 20
172.826640267635
 30
0.0
 10
130.776113194389
 20
172.8395539091997
 30
0.0
 10
130.7418014566146
 20
172.8512657599393
 30
0.0
 10
130.727776720685
 20
172.8542791917954
 30
0.0
 10
130.6917537576512
 20
172.8509817290196
 30
0.0
 10
130.6769992485615
 20
172.8481602440317
 30
0.0
 10
130.6476470874146
 20
172.8394785030403
 30
0.0
 10
130.6343072129106
 20
172.8341891854333
 30
0.0
 10
130.6227090813622
 20
172.8289254557076
 30
0.0
  0
SPLINE
  5
89
330
1F
100
AcDbEntity
  8
0
  6
Continuous
 62
     7
370
    15
100
AcDbSpline
210
0.0
220
0.0
230
1.0
 70
     8
 71
     3
 72
    12
 73
     8
 74
     0
 42
0.00000001
 43
0.00000001
 12
1.0
 22
0.0
 32
0.0
 13
1.0
 23
0.0
 33
0.0
 40
0.0
 40
0.0
 40
0.0
 40
0.0
 40
0.2500000000000003
 40
0.2500000000000003
 40
0.5000000000000003
 40
0.5000000000000003
 40
1.0
 40
1.0
 40
1.0
 40
1.0
 10
130.6227090813693
 20
172.8289254557027
 30
0.0
 10
130.5925106399287
 20
172.8152201072833
 30
0.0
 10
130.5591432845927
 20
172.8031725018328
 30
0.0
 10
130.4859880087628
 20
172.7864125136032
 30
0.0
 10
130.4457353097388
 20
172.7820036240623
 30
0.0
 10
130.3280065664639
 20
172.7849333891599
 30
0.0
 10
130.257548118405
 20
172.8073001494156
 30
0.0
 10
130.2011736837867
 20
172.8340771574212
 30
0.0
  0
SPLINE
  5
8A
330
1F
100
AcDbEntity
  8
0
  6
Continuous
 62
     7
370
    15
100
AcDbSpline
210
0.0
220
0.0
230
1.0
 70
     8
 71
     3
 72
    12
 73
     8
 74
     0
 42
0.00000001
 43
0.00000001
 12
1.0
 22
0.0
 32
0.0
 13
1.0
 23
0.0
 33
0.0
 40
0.0
 40
0.0
 40
0.0
 40
0.0
 40
0.4999999999999993
 40
0.4999999999999993
 40
0.7499999999999997
 40
0.7499999999999997
 40
1.0
 40
1.0
 40
1.0
 40
1.0
 10
129.6963656266782
 20
173.4385201058371
 30
0.0
 10
129.7401159785627
 20
173.3419559580786
 30
0.0
 10
129.7930061296872
 20
173.240331694893
 30
0.0
 10
129.9046176728288
 20
173.0835772307099
 30
0.0
 10
129.9471770167324
 20
173.0307106610364
 30
0.0
 10
130.0521542520698
 20
172.927554546722
 30
0.0
 10
130.1137214951644
 20
172.8756156308571
 30
0.0
 10
130.2011736837867
 20
172.8340771574213
 30
0.0
  0
SPLINE
  5
8B
330
1F
100
AcDbEntity
  8
0
  6
Continuous
 62
     7
370
    15
100
AcDbSpline
210
0.0
220
0.0
230
1.0
 70
     8
 71
     3
 72
    16
 73
    12
 74
     0
 42
0.00000001
 43
0.00000001
 12
1.0
 22
0.0
 32
0.0
 13
1.0
 23
0.0
 33
0.0
 40
0.0
 40
0.0
 40
0.0
 40
0.0
 40
0.2499999999999995
 40
0.2499999999999995
 40
0.3749999999999996
 40
0.3749999999999996
 40
0.4999999999999997
 40
0.4999999999999997
 40
0.7499999999999998
 40
0.7499999999999998
 40
1.0
 40
1.0
 40
1.0
 40
1.0
 10
129.6963656266782
 20
135.7316338068859
 30
0.0
 10
129.5351331491937
 20
136.2572681498988
 30
0.0
 10
129.4146533095541
 20
136.8500996774578
 30
0.0
 10
129.2922727922408
 20
137.8398713685827
 30
0.0
 10
129.2612951318433
 20
138.1866750144069
 30
0.0
 10
129.2196813942154
 20
138.915663613647
 30
0.0
 10
129.2094454812826
 20
139.2909385657362
 30
0.0
 10
129.2092570842265
 20
140.4471386119562
 30
0.0
 10
129.2494017868641
 20
141.2584946247559
 30
0.0
 10
129.4135555418036
 20
142.9643388705438
 30
0.0
 10
129.5351071922132
 20
143.8327086632407
 30
0.0
 10
129.6963656266782
 20
144.7143512412094
 30
0.0
  0
LINE
  5
8C
330
1F
100
AcDbEntity
  8
0
  6
Continuous
 62
     7
370
    15
100
AcDbLine
 10
128.8176859702
 20
146.0699639207
 30
0.0
 11
128.8176859702
 21
172.9772355579
 31
0.0
  0
LINE
  5
8D
330
1F
100
AcDbEntity
  8
0
  6
Continuous
 62
     7
370
    15
100
AcDbLine
 10
94.5176859702
 20
146.0699639207
 30
0.0
 11
94.5176859702
 21
172.2309508203
 31
0.0
  0
LINE
  5
8E
330
1F
100
AcDbEntity
  8
0
  6
Continuous
 62
     7
370
    15
100
AcDbLine
 10
94.5176859702
 20
135.5835904129
 30
0.0
 11
94.5176859702
 21
146.0699639207
 31
0.0
  0
LINE
  5
8F
330
1F
100
AcDbEntity
  8
0
  6
Continuous
 62
     7
370
    15
100
AcDbLine
 10
128.8176859702
 20
134.8373056753
 30
0.0
 11
128.8176859702
 21
146.0699639207
 31
0.0
  0
LINE
  5
90
330
1F
100
AcDbEntity
  8
0
  6
Continuous
 62
     7
370
    15
100
AcDbLine
 10
93.0176859702
 20
146.0699639207
 30
0.0
 11
93.0176859702
 21
171.4809508203
 31
0.0
  0
LINE
  5
91
330
1F
100
AcDbEntity
  8
0
  6
Continuous
 62
     7
370
    15
100
AcDbLine
 10
93.0176859702
 20
136.3335904129
 30
0.0
 11
93.0176859702
 21
146.0699639207
 31
0.0
  0
SPLINE
  5
92
330
1F
100
AcDbEntity
  8
0
  6
Continuous
 62
     7
370
    15
100
AcDbSpline
210
0.0
220
0.0
230
1.0
 70
     8
 71
     3
 72
     8
 73
     4
 74
     0
 42
0.00000001
 43
0.00000001
 12
1.0
 22
0.0
 32
0.0
 13
1.0
 23
0.0
 33
0.0
 40
0.0000249638557296
 40
0.0000249638557296
 40
0.0000249638557296
 40
0.0000249638557296
 40
0.0049776420541172
 40
0.0049776420541172
 40
0.0049776420541172
 40
0.0049776420541172
 10
94.51768597023785
 20
131.7978454381086
 30
0.0
 10
96.1676622047474
 20
131.7614962251706
 30
0.0
 10
97.81766352449242
 20
131.7250716390385
 30
0.0
 10
99.46768597023785
 20
131.6885717608276
 30
0.0
  0
LINE
  5
93
330
1F
100
AcDbEntity
  8
0
  6
Continuous
 62
     7
370
    15
100
AcDbLine
 10
94.5176859702
 20
131.7978454381
 30
0.0
 11
94.5176859702
 21
135.5835904129
 31
0.0
  0
LINE
  5
94
330
1F
100
AcDbEntity
  8
0
  6
Continuous
 62
     7
370
    15
100
AcDbLine
 10
128.8176859702
 20
130.6747362667
 30
0.0
 11
128.8176859702
 21
134.8373056753
 31
0.0
  0
SPLINE
  5
95
330
1F
100
AcDbEntity
  8
0
  6
Continuous
 62
     7
370
    15
100
AcDbSpline
210
0.0
220
0.0
230
1.0
 70
     8
 71
     3
 72
    13
 73
     9
 74
     0
 42
0.00000001
 43
0.00000001
 12
1.0
 22
0.0
 32
0.0
 13
1.0
 23
0.0
 33
0.0
 40
0.0
 40
0.0
 40
0.0
 40
0.0
 40
0.3215847526849677
 40
0.4843334633322193
 40
0.6483653932238873
 40
0.7954038195698537
 40
0.9461289082384644
 40
1.0
 40
1.0
 40
1.0
 40
1.0
 10
99.46768597023784
 20
131.6885717608276
 30
0.0
 10
99.76752590595132
 20
131.6320253220869
 30
0.0
 10
100.2191098610267
 20
131.5468616683821
 30
0.0
 10
100.7372681487307
 20
131.4621984214887
 30
0.0
 10
101.063410065894
 20
131.4118990790641
 30
0.0
 10
101.2901085665843
 20
131.3788767296029
 30
0.0
 10
101.4029663899351
 20
131.3630215502711
 30
0.0
 10
101.3876662828818
 20
131.3651736189218
 30
0.0
 10
101.3836376960856
 20
131.3657402682479
 30
0.0
  0
SPLINE
  5
96
330
1F
100
AcDbEntity
  8
0
  6
Continuous
 62
     7
370
    15
100
AcDbSpline
210
0.0
220
0.0
230
1.0
 70
     8
 71
     3
 72
    27
 73
    23
 74
     0
 42
0.00000001
 43
0.00000001
 12
1.0
 22
0.0
 32
0.0
 13
1.0
 23
0.0
 33
0.0
 40
0.0
 40
0.0
 40
0.0
 40
0.0
 40
0.0322524045785721
 40
0.0816430999251081
 40
0.1290586612648769
 40
0.1777432041577067
 40
0.2272475226158279
 40
0.2780116234121243
 40
0.3309569209659089
 40
0.385274875478122
 40
0.441283729508576
 40
0.4988337213646152
 40
0.5562818536597489
 40
0.6154087749742457
 40
0.6725513772536958
 40
0.7314550518215063
 40
0.7867561477595283
 40
0.8438515416930652
 40
0.8960134612747825
 40
0.9498846523531244
 40
0.9989419924478982
 40
0.9999999999999999
 40
0.9999999999999999
 40
0.9999999999999999
 40
0.9999999999999999
 10
119.9560116295643
 20
130.8988043447904
 30
0.0
 10
119.9559693793929
 20
130.8988126831637
 30
0.0
 10
119.9558624281435
 20
130.8988337907572
 30
0.0
 10
119.8322591887374
 20
130.9170253061516
 30
0.0
 10
119.6063380151367
 20
130.9491218873721
 30
0.0
 10
119.2831250477819
 20
130.9926515275621
 30
0.0
 10
118.8678943639813
 20
131.0443077919689
 30
0.0
 10
118.3638806288128
 20
131.1005749059578
 30
0.0
 10
117.7774929547305
 20
131.1570297071372
 30
0.0
 10
117.1172887227989
 20
131.2088411758233
 30
0.0
 10
116.3991488317841
 20
131.2509599053647
 30
0.0
 10
115.6460329204674
 20
131.2789577631652
 30
0.0
 10
114.8781014377957
 20
131.2904580727854
 30
0.0
 10
114.1321914324989
 20
131.2849984778095
 30
0.0
 10
113.4231173880293
 20
131.2647364621139
 30
0.0
 10
112.7926870690958
 20
131.2343279990053
 30
0.0
 10
112.246135003223
 20
131.1986730116219
 30
0.0
 10
111.8200725670813
 20
131.1648728253338
 30
0.0
 10
111.5054532673207
 20
131.1365978243221
 30
0.0
 10
111.3363362289115
 20
131.1202382761685
 30
0.0
 10
111.2677234139462
 20
131.113416380481
 30
0.0
 10
111.2866045528545
 20
131.1152769301076
 30
0.0
 10
111.2870031610353
 20
131.1153162090041
 30
0.0
  0
SPLINE
  5
97
330
1F
100
AcDbEntity
  8
0
  6
Continuous
 62
     7
370
    15
100
AcDbSpline
210
0.0
220
0.0
230
1.0
 70
     8
 71
     3
 72
     8
 73
     4
 74
     0
 42
0.00000001
 43
0.00000001
 12
1.0
 22
0.0
 32
0.0
 13
1.0
 23
0.0
 33
0.0
 40
0.0
 40
0.0
 40
0.0
 40
0.0
 40
1.0
 40
1.0
 40
1.0
 40
1.0
 10
93.0176859702356
 20
132.5463557376665
 30
0.0
 10
93.4844465816134
 20
132.3168262452824
 30
0.0
 10
93.99019412839348
 20
132.064895470191
 30
0.0
 10
94.51768597023785
 20
131.7978454381086
 30
0.0
  0
LINE
  5
98
330
1F
100
AcDbEntity
  8
0
  6
Continuous
 62
     7
370
    15
100
AcDbLine
 10
93.0176859702
 20
132.5463557377
 30
0.0
 11
93.0176859702
 21
136.3335904129
 31
0.0
  0
LINE
  5
99
330
1F
100
AcDbEntity
  8
0
  6
Continuous
 62
     7
370
    15
100
AcDbLine
 10
128.8176859702
 20
174.7149338359
 30
0.0
 11
128.8176859702
 21
172.9772355579
 31
0.0
  0
LINE
  5
9A
330
1F
100
AcDbEntity
  8
0
  6
Continuous
 62
     7
370
    15
100
AcDbLine
 10
94.5176859702
 20
173.8531984476
 30
0.0
 11
94.5176859702
 21
172.2309508203
 31
0.0
  0
SPLINE
  5
9B
330
1F
100
AcDbEntity
  8
0
  6
Continuous
 62
     7
370
    15
100
AcDbSpline
210
0.0
220
0.0
230
1.0
 70
     8
 71
     3
 72
    10
 73
     6
 74
     0
 42
0.00000001
 43
0.00000001
 12
1.0
 22
0.0
 32
0.0
 13
1.0
 23
0.0
 33
0.0
 40
0.0
 40
0.0
 40
0.0
 40
0.0
 40
0.1209913321306093
 40
0.5024128609468697
 40
1.0
 40
1.0
 40
1.0
 40
1.0
 10
129.2242769245317
 20
174.4911595612054
 30
0.0
 10
129.2202496555751
 20
174.5002427726537
 30
0.0
 10
129.2035265425833
 20
174.5379605344961
 30
0.0
 10
129.3219175030105
 20
174.2700166824774
 30
0.0
 10
129.5610168411867
 20
173.739074560981
 30
0.0
 10
129.6963656266782
 20
173.4385201058371
 30
0.0
  0
LINE
  5
9C
330
1F
100
AcDbEntity
  8
0
  6
Continuous
 62
     7
370
    15
100
AcDbLine
 10
93.0176859702
 20
172.9871730438
 30
0.0
 11
93.0176859702
 21
171.4809508203
 31
0.0
  0
LINE
  5
9D
330
1F
100
AcDbEntity
  8
0
  6
Continuous
 62
     7
370
    15
100
AcDbLine
 10
251.3611292004
 20
147.8370964801
 30
0.0
 11
251.1040141565
 21
151.0948350513
 31
0.0
  0
LINE
  5
9E
330
1F
100
AcDbEntity
  8
0
  6
Continuous
 62
     7
370
    15
100
AcDbLine
 10
251.3611292004
 20
146.3348350513
 30
0.0
 11
251.3611292004
 21
147.8370964801
 31
0.0
  0
LINE
  5
9F
330
1F
100
AcDbEntity
  8
0
  6
Continuous
 62
     7
370
    15
100
AcDbLine
 10
251.1516193638
 20
146.3348350513
 30
0.0
 11
251.3611292004
 21
146.3348350513
 31
0.0
  0
LINE
  5
A0
330
1F
100
AcDbEntity
  8
0
  6
Continuous
 62
     7
370
    15
100
AcDbLine
 10
241.8553498262
 20
150.9948350513
 30
0.0
 11
241.8474573867
 21
151.0948350513
 31
0.0
  0
LINE
  5
A1
330
1F
100
AcDbEntity
  8
0
  6
Continuous
 62
     7
370
    15
100
AcDbLine
 10
241.8474573867
 20
151.0948350513
 30
0.0
 11
251.1040141565
 21
151.0948350513
 31
0.0
  0
LINE
  5
A2
330
1F
100
AcDbEntity
  8
0
  6
Continuous
 62
     7
370
    15
100
AcDbLine
 10
251.3611292004
 20
147.8370964801
 30
0.0
 11
251.6182442443
 21
151.0948350513
 31
0.0
  0
LINE
  5
A3
330
1F
100
AcDbEntity
  8
0
  6
Continuous
 62
     7
370
    15
100
AcDbLine
 10
251.1040141565
 20
151.0948350513
 30
0.0
 11
251.6182442443
 21
151.0948350513
 31
0.0
  0
LINE
  5
A4
330
1F
100
AcDbEntity
  8
0
  6
Continuous
 62
     7
370
    15
100
AcDbLine
 10
260.6176859702
 20
147.8370964801
 30
0.0
 11
260.8748010141
 21
151.0948350513
 31
0.0
  0
LINE
  5
A5
330
1F
100
AcDbEntity
  8
0
  6
Continuous
 62
     7
370
    15
100
AcDbLine
 10
260.3307256942
 20
146.3348350513
 30
0.0
 11
260.6176859702
 21
147.8370964801
 31
0.0
  0
LINE
  5
A6
330
1F
100
AcDbEntity
  8
0
  6
Continuous
 62
     7
370
    15
100
AcDbLine
 10
251.3611292004
 20
146.3348350513
 30
0.0
 11
260.3307256942
 21
146.3348350513
 31
0.0
  0
LINE
  5
A7
330
1F
100
AcDbEntity
  8
0
  6
Continuous
 62
     7
370
    15
100
AcDbLine
 10
251.6182442443
 20
151.0948350513
 30
0.0
 11
260.8748010141
 21
151.0948350513
 31
0.0
  0
LINE
  5
A8
330
1F
100
AcDbEntity
  8
0
  6
Continuous
 62
     7
370
    15
100
AcDbLine
 10
241.7045724306
 20
151.0948350513
 30
0.0
 11
241.8474573867
 21
151.0948350513
 31
0.0
  0
LINE
  5
A9
330
1F
100
AcDbEntity
  8
0
  6
Continuous
 62
     7
370
    15
100
AcDbLine
 10
260.8748010141
 20
151.0948350513
 30
0.0
 11
261.0176859702
 21
151.0948350513
 31
0.0
  0
LINE
  5
AA
330
1F
100
AcDbEntity
  8
0
  6
HIDDEN
 62
     7
370
     0
100
AcDbLine
 10
94.5479144099
 20
151.2948350513
 30
0.0
 11
94.5479144099
 21
166.6077860942
 31
0.0
  0
LINE
  5
AB
330
1F
100
AcDbEntity
  8
0
  6
HIDDEN
 62
     7
370
     0
100
AcDbLine
 10
94.5479144099
 20
135.9818840084
 30
0.0
 11
94.5479144099
 21
151.2948350513
 31
0.0
  0
LINE
  5
AC
330
1F
100
AcDbEntity
  8
0
  6
HIDDEN
 62
     7
370
     0
100
AcDbLine
 10
101.0479144099
 20
151.2948350513
 30
0.0
 11
101.0479144099
 21
165.6412452128
 31
0.0
  0
LINE
  5
AD
330
1F
100
AcDbEntity
  8
0
  6
HIDDEN
 62
     7
370
     0
100
AcDbLine
 10
101.0479144099
 20
136.9484248898
 30
0.0
 11
101.0479144099
 21
151.2948350513
 31
0.0
  0
SPLINE
  5
AE
330
1F
100
AcDbEntity
  8
0
  6
HIDDEN
 62
     7
370
     0
100
AcDbSpline
210
0.0
220
0.0
230
1.0
 70
     8
 71
     3
 72
     9
 73
     5
 74
     0
 42
0.00000001
 43
0.00000001
 12
1.0
 22
0.0
 32
0.0
 13
1.0
 23
0.0
 33
0.0
 40
0.0
 40
0.0
 40
0.0
 40
0.0
 40
0.975676459604674
 40
1.0
 40
1.0
 40
1.0
 40
1.0
 10
112.328847399
 20
131.2034009275661
 30
0.0
 10
112.4668521050011
 20
131.2132525957923
 30
0.0
 10
112.6082972578923
 20
131.2233498653626
 30
0.0
 10
112.7781922480049
 20
131.2317871857194
 30
0.0
 10
112.7823246956599
 20
131.231992411222
 30
0.0
  0
LINE
  5
AF
330
1F
100
AcDbEntity
  8
0
  6
HIDDEN
 62
     7
370
     0
100
AcDbLine
 10
106.8479144099
 20
151.2948350513
 30
0.0
 11
106.8479144099
 21
165.2948350513
 31
0.0
  0
LINE
  5
B0
330
1F
100
AcDbEntity
  8
0
  6
HIDDEN
 62
     7
370
     0
100
AcDbLine
 10
106.8479144099
 20
137.2948350513
 30
0.0
 11
106.8479144099
 21
151.2948350513
 31
0.0
  0
LINE
  5
B1
330
1F
100
AcDbEntity
  8
0
  6
HIDDEN
 62
     7
370
     0
100
AcDbLine
 10
99.4479144099
 20
151.2948350513
 30
0.0
 11
99.4479144099
 21
165.2948350513
 31
0.0
  0
LINE
  5
B2
330
1F
100
AcDbEntity
  8
0
  6
HIDDEN
 62
     7
370
     0
100
AcDbLine
 10
99.4479144099
 20
137.2948350513
 30
0.0
 11
99.4479144099
 21
151.2948350513
 31
0.0
  0
LINE
  5
B3
330
1F
100
AcDbEntity
  8
0
  6
HIDDEN
 62
     7
370
     0
100
AcDbLine
 10
100.4479144099
 20
151.2948350513
 30
0.0
 11
100.4479144099
 21
165.2948350513
 31
0.0
  0
LINE
  5
B4
330
1F
100
AcDbEntity
  8
0
  6
HIDDEN
 62
     7
370
     0
100
AcDbLine
 10
100.4479144099
 20
137.2948350513
 30
0.0
 11
100.4479144099
 21
151.2948350513
 31
0.0
  0
SPLINE
  5
B5
330
1F
100
AcDbEntity
  8
0
  6
HIDDEN
 62
     7
370
     0
100
AcDbSpline
210
0.0
220
0.0
230
1.0
 70
     8
 71
     3
 72
    35
 73
    31
 74
     0
 42
0.00000001
 43
0.00000001
 12
1.0
 22
0.0
 32
0.0
 13
1.0
 23
0.0
 33
0.0
 40
0.0
 40
0.0
 40
0.0
 40
0.0
 40
0.0273987508535341
 40
0.0831597112586278
 40
0.1115832357547432
 40
0.138980232516568
 40
0.1946673376866794
 40
0.2230156836972862
 40
0.2510568050700744
 40
0.3080900397346535
 40
0.3371567334586857
 40
0.3650778244635077
 40
0.4219356749181349
 40
0.4509560163852434
 40
0.4778200579268616
 40
0.5324886076544718
 40
0.5603580307272963
 40
0.5869136865482286
 40
0.6408798682776337
 40
0.668342366490851
 40
0.6957778042408137
 40
0.7515323888964793
 40
0.7799123754599586
 40
0.8080762459650279
 40
0.8364390628639469
 40
0.8654397725145686
 40
0.894666273291777
 40
0.9222951128559085
 40
0.9785532013223892
 40
0.9999999999999999
 40
0.9999999999999999
 40
0.9999999999999999
 40
0.9999999999999999
 10
119.5176859702379
 20
137.3092174389205
 30
0.0
 10
119.4976164232257
 20
137.3149395863019
 30
0.0
 10
119.4367020500287
 20
137.3323072439208
 30
0.0
 10
119.2899031370901
 20
137.3731423020776
 30
0.0
 10
119.095509346492
 20
137.4243446282128
 30
0.0
 10
118.8681514909308
 20
137.4817936588574
 30
0.0
 10
118.594561507197
 20
137.5461748113709
 30
0.0
 10
118.278509866126
 20
137.6127315718861
 30
0.0
 10
117.9327840956038
 20
137.6795162958053
 30
0.0
 10
117.5478891010064
 20
137.7431786771093
 30
0.0
 10
117.1350970835653
 20
137.7973980330529
 30
0.0
 10
116.7067195967201
 20
137.8437942848804
 30
0.0
 10
116.2576392240204
 20
137.8764645533637
 30
0.0
 10
115.8037393091944
 20
137.8918067146029
 30
0.0
 10
115.3558855927057
 20
137.895652004819
 30
0.0
 10
114.9125155771661
 20
137.8829041921962
 30
0.0
 10
114.4817084012669
 20
137.8547019841081
 30
0.0
 10
114.0634810324666
 20
137.817489698817
 30
0.0
 10
113.6646558001994
 20
137.7682298745227
 30
0.0
 10
113.289755879746
 20
137.7104141377285
 30
0.0
 10
112.9290271163831
 20
137.6476569210392
 30
0.0
 10
112.5991774827879
 20
137.5806916219893
 30
0.0
 10
112.3091438710714
 20
137.5151890842932
 30
0.0
 10
112.1122018297006
 20
137.4679003541481
 30
0.0
 10
111.9378110686815
 20
137.4238298552129
 30
0.0
 10
111.7872867457411
 20
137.3841378367273
 30
0.0
 10
111.6651968322043
 20
137.3508141967275
 30
0.0
 10
111.5421441003299
 20
137.3163621933609
 30
0.0
 10
111.4733759782478
 20
137.2964785610833
 30
0.0
 10
111.4711405091836
 20
137.2958333796285
 30
0.0
 10
111.4705235125347
 20
137.2956553074727
 30
0.0
  0
SPLINE
  5
B6
330
1F
100
AcDbEntity
  8
0
  6
HIDDEN
 62
     7
370
     0
100
AcDbSpline
210
0.0
220
0.0
230
1.0
 70
     8
 71
     3
 72
    36
 73
    32
 74
     0
 42
0.00000001
 43
0.00000001
 12
1.0
 22
0.0
 32
0.0
 13
1.0
 23
0.0
 33
0.0
 40
0.0
 40
0.0
 40
0.0
 40
0.0
 40
0.0072608271413518
 40
0.0339691556498998
 40
0.0882971088653583
 40
0.1159770860563221
 40
0.1427431203793688
 40
0.1971329733815475
 40
0.2248099183853799
 40
0.2524954338319795
 40
0.3087720925039083
 40
0.3374283766033697
 40
0.3655845582880913
 40
0.3939428457375679
 40
0.4229517956775054
 40
0.4521919729728558
 40
0.4795469938032822
 40
0.5352456355268931
 40
0.5636643357258524
 40
0.5901846104660858
 40
0.6441079384602477
 40
0.6715662761009141
 40
0.6985154310944128
 40
0.753269490961219
 40
0.7811286795862387
 40
0.809087501734285
 40
0.8659430010723371
 40
0.8949114908456525
 40
0.9207742265810251
 40
0.9732876644712262
 40
0.9999999999999999
 40
0.9999999999999999
 40
0.9999999999999999
 40
0.9999999999999999
 10
111.4705235125347
 20
165.2940147951489
 30
0.0
 10
111.4696697427981
 20
165.2942615399053
 30
0.0
 10
111.4656754544743
 20
165.2954159140384
 30
0.0
 10
111.4942023624195
 20
165.2871686512091
 30
0.0
 10
111.5714636632907
 20
165.2649682633366
 30
0.0
 10
111.7045218147578
 20
165.2280247927513
 30
0.0
 10
111.8701944914564
 20
165.1832917574762
 30
0.0
 10
112.0843416381149
 20
165.1281297372679
 30
0.0
 10
112.3441183091487
 20
165.0663815430908
 30
0.0
 10
112.6368850014919
 20
165.0009671415808
 30
0.0
 10
112.9738197829881
 20
164.933467871095
 30
0.0
 10
113.3466270652206
 20
164.8699534627416
 30
0.0
 10
113.6433334986784
 20
164.8255699012025
 30
0.0
 10
113.9551614263517
 20
164.7857697808152
 30
0.0
 10
114.2830808584057
 20
164.751593713128
 30
0.0
 10
114.6170282842607
 20
164.7250803657654
 30
0.0
 10
115.0640213451484
 20
164.7006892939791
 30
0.0
 10
115.5173249253736
 20
164.6928505820695
 30
0.0
 10
115.9646004755496
 20
164.7023224188379
 30
0.0
 10
116.4002689775585
 20
164.7222829059149
 30
0.0
 10
116.8220054035641
 20
164.7568638785796
 30
0.0
 10
117.2250627737725
 20
164.8034844983136
 30
0.0
 10
117.6155312067053
 20
164.8571034700809
 30
0.0
 10
117.9807689668049
 20
164.9189034857015
 30
0.0
 10
118.3141538300396
 20
164.984206748074
 30
0.0
 10
118.6281083010542
 20
165.0510452548877
 30
0.0
 10
118.9028780843044
 20
165.1163297979578
 30
0.0
 10
119.1240953528978
 20
165.1727578785641
 30
0.0
 10
119.3050811505881
 20
165.220734806233
 30
0.0
 10
119.4403669593664
 20
165.2584058209765
 30
0.0
 10
119.4981899514618
 20
165.2748935437011
 30
0.0
 10
119.5176859702379
 20
165.280452663701
 30
0.0
  0
SPLINE
  5
B7
330
1F
100
AcDbEntity
  8
0
  6
HIDDEN
 62
     7
370
     0
100
AcDbSpline
210
0.0
220
0.0
230
1.0
 70
     8
 71
     3
 72
     9
 73
     5
 74
     0
 42
0.00000001
 43
0.00000001
 12
1.0
 22
0.0
 32
0.0
 13
1.0
 23
0.0
 33
0.0
 40
0.0
 40
0.0
 40
0.0
 40
0.0
 40
0.715869084332166
 40
1.0
 40
1.0
 40
1.0
 40
1.0
 10
119.5176859702379
 20
165.280452663701
 30
0.0
 10
119.5391634361084
 20
165.2856121492534
 30
0.0
 10
119.5691653824706
 20
165.2928194524675
 30
0.0
 10
119.5631148969828
 20
165.2914762106729
 30
0.0
 10
119.5613957670009
 20
165.2910945541519
 30
0.0
  0
SPLINE
  5
B8
330
1F
100
AcDbEntity
  8
0
  6
HIDDEN
 62
     7
370
     0
100
AcDbSpline
210
0.0
220
0.0
230
1.0
 70
    24
 71
     3
 72
     9
 73
     5
 74
     0
 42
0.00000001
 43
0.00000001
 12
1.0
 22
0.0
 32
0.0
 13
1.0
 23
0.0
 33
0.0
 40
0.0
 40
0.0
 40
0.0
 40
0.0
 40
0.0268273759263264
 40
0.9999999999999999
 40
0.9999999999999999
 40
0.9999999999999999
 40
0.9999999999999999
 10
119.5663443573818
 20
137.2976583341458
 30
0.0
 10
119.5667918744682
 20
137.2975520236576
 30
0.0
 10
119.5834732333768
 20
137.2935892623182
 30
0.0
 10
119.5501323779766
 20
137.3015095914428
 30
0.0
 10
119.5176859702379
 20
137.3092174389205
 30
0.0
  0
LINE
  5
B9
330
1F
100
AcDbEntity
  8
0
  6
HIDDEN
 62
     7
370
     0
100
AcDbLine
 10
120.0176859702
 20
151.2948350513
 30
0.0
 11
120.0176859702
 21
164.7948350513
 31
0.0
  0
LINE
  5
BA
330
1F
100
AcDbEntity
  8
0
  6
HIDDEN
 62
     7
370
     0
100
AcDbLine
 10
120.0176859702
 20
137.7948350513
 30
0.0
 11
120.0176859702
 21
151.2948350513
 31
0.0
  0
LINE
  5
BB
330
1F
100
AcDbEntity
  8
0
  6
HIDDEN
 62
     7
370
     0
100
AcDbLine
 10
121.2676859702
 20
151.2948350513
 30
0.0
 11
121.2676859702
 21
160.2948350513
 31
0.0
  0
LINE
  5
BC
330
1F
100
AcDbEntity
  8
0
  6
HIDDEN
 62
     7
370
     0
100
AcDbLine
 10
121.2676859702
 20
142.2948350513
 30
0.0
 11
121.2676859702
 21
151.2948350513
 31
0.0
  0
LINE
  5
BD
330
1F
100
AcDbEntity
  8
0
  6
HIDDEN
 62
     7
370
     0
100
AcDbLine
 10
158.0176859702
 20
160.2948350513
 30
0.0
 11
158.0176859702
 21
142.2948350513
 31
0.0
  0
LINE
  5
BE
330
1F
100
AcDbEntity
  8
0
  6
HIDDEN
 62
     7
370
     0
100
AcDbLine
 10
160.8717739106
 20
155.5448350513
 30
0.0
 11
160.8717739106
 21
147.0448350513
 31
0.0
  0
LINE
  5
BF
330
1F
100
AcDbEntity
  8
0
  6
HIDDEN
 62
     7
370
     0
100
AcDbLine
 10
244.1317237743
 20
148.8348350513
 30
0.0
 11
251.0663264813
 21
148.8348350513
 31
0.0
  0
LINE
  5
C0
330
1F
100
AcDbEntity
  8
0
  6
HIDDEN
 62
     7
370
     0
100
AcDbLine
 10
244.1317237743
 20
146.3348350513
 30
0.0
 11
250.9128457801
 21
146.3348350513
 31
0.0
  0
LINE
  5
C1
330
1F
100
AcDbEntity
  8
0
  6
HIDDEN
 62
     7
370
     0
100
AcDbLine
 10
119.5676859702
 20
131.297079071
 30
0.0
 11
111.4676859702
 21
131.297079071
 31
0.0
  0
SPLINE
  5
C2
330
1F
100
AcDbEntity
  8
0
  6
HIDDEN
 62
     7
370
     0
100
AcDbSpline
210
0.0
220
0.0
230
1.0
 70
     8
 71
     3
 72
    28
 73
    24
 74
     0
 42
0.00000001
 43
0.00000001
 12
1.0
 22
0.0
 32
0.0
 13
1.0
 23
0.0
 33
0.0
 40
0.0
 40
0.0
 40
0.0
 40
0.0
 40
0.0471231770824826
 40
0.0957398568620758
 40
0.1428344199442827
 40
0.1911240391306886
 40
0.2418158766334993
 40
0.293690144406285
 40
0.350037387686827
 40
0.4082134368300775
 40
0.4514590849636316
 40
0.4959171798308198
 40
0.5391878855433825
 40
0.5837504156835288
 40
0.6268370106733646
 40
0.6708488126841824
 40
0.7212139733638223
 40
0.7727243385552862
 40
0.8292826466991634
 40
0.8876992429805638
 40
0.9403391341852888
 40
0.9949899353632653
 40
1.0
 40
1.0
 40
1.0
 40
1.0
 10
195.5176859702379
 20
155.5448350513108
 30
0.0
 10
195.5232729693735
 20
155.5415364001464
 30
0.0
 10
195.5346240397099
 20
155.5348345517171
 30
0.0
 10
195.6251474999517
 20
155.482165692592
 30
0.0
 10
195.7659220874971
 20
155.4029707785909
 30
0.0
 10
195.9586919159545
 20
155.2998803399349
 30
0.0
 10
196.2037951526829
 20
155.178595724119
 30
0.0
 10
196.5069628266238
 20
155.0451111966353
 30
0.0
 10
196.8689494227263
 20
154.912197033528
 30
0.0
 10
197.2518614383926
 20
154.8092318234315
 30
0.0
 10
197.6301245712766
 20
154.747766418045
 30
0.0
 10
197.9813960652772
 20
154.7258212755237
 30
0.0
 10
198.3371659378813
 20
154.7406616867756
 30
0.0
 10
198.6797966701598
 20
154.7897799596805
 30
0.0
 10
199.0063143105794
 20
154.8669054750545
 30
0.0
 10
199.3232237391032
 20
154.9674763883137
 30
0.0
 10
199.6280806197462
 20
155.0871066292051
 30
0.0
 10
199.9181080117767
 20
155.219762315221
 30
0.0
 10
200.1713012674991
 20
155.3491815210647
 30
0.0
 10
200.3652352861883
 20
155.4563862098942
 30
0.0
 10
200.4807409557475
 20
155.5230360243425
 30
0.0
 10
200.5261034368618
 20
155.5497738167942
 30
0.0
 10
200.5158876071254
 20
155.5437798737961
 30
0.0
 10
200.5150297253867
 20
155.5432765280696
 30
0.0
  0
LINE
  5
C3
330
1F
100
AcDbEntity
  8
0
  6
HIDDEN
 62
     7
370
     0
100
AcDbLine
 10
202.0176859702
 20
155.5448350513
 30
0.0
 11
202.0176859702
 21
147.0448350513
 31
0.0
  0
LINE
  5
C4
330
1F
100
AcDbEntity
  8
0
  6
HIDDEN
 62
     7
370
     0
100
AcDbLine
 10
99.4676859702
 20
131.6885717608
 30
0.0
 11
99.4676859702
 21
133.2948350513
 31
0.0
  0
LINE
  5
C5
330
1F
100
AcDbEntity
  8
0
  6
HIDDEN
 62
     7
370
     0
100
AcDbLine
 10
119.5676859702
 20
168.7948350513
 30
0.0
 11
111.4676859702
 21
168.7948350513
 31
0.0
  0
LINE
  5
C6
330
1F
100
AcDbEntity
  8
0
  6
HIDDEN
 62
     7
370
     0
100
AcDbLine
 10
195.0176859702
 20
175.7948350513
 30
0.0
 11
201.0176859702
 21
175.7948350513
 31
0.0
  0
LINE
  5
C7
330
1F
100
AcDbEntity
  8
0
  6
HIDDEN
 62
     7
370
     0
100
AcDbLine
 10
195.5176859702
 20
175.4944047418
 30
0.0
 11
200.5176859702
 21
175.4944047418
 31
0.0
  0
LINE
  5
C8
330
1F
100
AcDbEntity
  8
0
  6
HIDDEN
 62
     7
370
     0
100
AcDbLine
 10
251.2611292004
 20
145.8348350513
 30
0.0
 11
253.3611292004
 21
145.8348350513
 31
0.0
  0
LINE
  5
C9
330
1F
100
AcDbEntity
  8
0
  6
HIDDEN
 62
     7
370
     0
100
AcDbLine
 10
249.1611292004
 20
145.8348350513
 30
0.0
 11
251.2611292004
 21
145.8348350513
 31
0.0
  0
LINE
  5
CA
330
1F
100
AcDbEntity
  8
0
  6
HIDDEN
 62
     7
370
     0
100
AcDbLine
 10
198.3075224667
 20
168.3980335403
 30
0.0
 11
200.5176859702
 21
170.0939516444
 31
0.0
  0
LINE
  5
CB
330
1F
100
AcDbEntity
  8
0
  6
HIDDEN
 62
     7
370
     0
100
AcDbLine
 10
198.3075224667
 20
168.3980335403
 30
0.0
 11
198.1883390058
 21
167.9532348086
 31
0.0
  0
LINE
  5
CC
330
1F
100
AcDbEntity
  8
0
  6
HIDDEN
 62
     7
370
     0
100
AcDbLine
 10
200.5176859702
 20
164.9175707424
 30
0.0
 11
198.1883390058
 21
167.9532348086
 31
0.0
  0
SPLINE
  5
CD
330
1F
100
AcDbEntity
  8
0
  6
HIDDEN
 62
     7
370
     0
100
AcDbSpline
210
0.0
220
0.0
230
1.0
 70
     8
 71
     3
 72
     8
 73
     4
 74
     0
 42
0.00000001
 43
0.00000001
 12
1.0
 22
0.0
 32
0.0
 13
1.0
 23
0.0
 33
0.0
 40
0.0
 40
0.0
 40
0.0
 40
0.0
 40
1.0
 40
1.0
 40
1.0
 40
1.0
 10
198.1883390057526
 20
167.9532348086359
 30
0.0
 10
198.2204839110759
 20
168.1024551553184
 30
0.0
 10
198.2607614592806
 20
168.2521239532253
 30
0.0
 10
198.307522466698
 20
168.3980335403062
 30
0.0
  0
LINE
  5
CE
330
1F
100
AcDbEntity
  8
0
  6
HIDDEN
 62
     7
370
     0
100
AcDbLine
 10
251.2611292004
 20
134.3348350513
 30
0.0
 11
253.3611292004
 21
134.3348350513
 31
0.0
  0
LINE
  5
CF
330
1F
100
AcDbEntity
  8
0
  6
HIDDEN
 62
     7
370
     0
100
AcDbLine
 10
249.1611292004
 20
134.3348350513
 30
0.0
 11
251.2611292004
 21
134.3348350513
 31
0.0
  0
LINE
  5
D0
330
1F
100
AcDbEntity
  8
0
  6
HIDDEN
 62
     7
370
     0
100
AcDbLine
 10
243.1585646007
 20
146.1948350513
 30
0.0
 11
245.2585646007
 21
146.1948350513
 31
0.0
  0
LINE
  5
D1
330
1F
100
AcDbEntity
  8
0
  6
HIDDEN
 62
     7
370
     0
100
AcDbLine
 10
241.0585646007
 20
146.1948350513
 30
0.0
 11
243.1585646007
 21
146.1948350513
 31
0.0
  0
LINE
  5
D2
330
1F
100
AcDbEntity
  8
0
  6
HIDDEN
 62
     7
370
     0
100
AcDbLine
 10
244.1317237743
 20
146.3348350513
 30
0.0
 11
244.1317237743
 21
148.8348350513
 31
0.0
  0
ELLIPSE
  5
D3
330
1F
100
AcDbEntity
  8
0
  6
HIDDEN
 62
     7
370
     0
100
AcDbEllipse
 10
243.1585646007
 20
142.3193579089
 30
0.0
 11
-1.361789089734771
 21
17.10265383053547
 31
0.0
210
0.0
220
0.0
230
1.0
 40
0.0934710297
 41
5.095772670770542
 42
5.236931605185752
  0
LINE
  5
D4
330
1F
100
AcDbEntity
  8
0
  6
HIDDEN
 62
     7
370
     0
100
AcDbLine
 10
143.0176859702
 20
120.2948350513
 30
0.0
 11
145.0176859702
 21
120.2948350513
 31
0.0
  0
LINE
  5
D5
330
1F
100
AcDbEntity
  8
0
  6
HIDDEN
 62
     7
370
     0
100
AcDbLine
 10
141.0176859702
 20
120.2948350513
 30
0.0
 11
143.0176859702
 21
120.2948350513
 31
0.0
  0
LINE
  5
D6
330
1F
100
AcDbEntity
  8
0
  6
HIDDEN
 62
     7
370
     0
100
AcDbLine
 10
201.0176859702
 20
179.2348350513
 30
0.0
 11
195.0176859702
 21
179.2348350513
 31
0.0
  0
LINE
  5
D7
330
1F
100
AcDbEntity
  8
0
  6
HIDDEN
 62
     7
370
     0
100
AcDbLine
 10
200.8176859702
 20
179.4145730277
 30
0.0
 11
195.2176859702
 21
179.4145730277
 31
0.0
  0
LINE
  5
D8
330
1F
100
AcDbEntity
  8
0
  6
HIDDEN
 62
     7
370
     0
100
AcDbLine
 10
201.0176859702
 20
181.8548350513
 30
0.0
 11
195.0176859702
 21
181.8548350513
 31
0.0
  0
LINE
  5
D9
330
1F
100
AcDbEntity
  8
0
  6
HIDDEN
 62
     7
370
     0
100
AcDbLine
 10
200.8776859702
 20
181.9948350513
 30
0.0
 11
195.1576859702
 21
181.9948350513
 31
0.0
  0
LINE
  5
DA
330
1F
100
AcDbEntity
  8
0
  6
HIDDEN
 62
     7
370
     0
100
AcDbLine
 10
201.0176859702
 20
179.9248350513
 30
0.0
 11
195.0176859702
 21
179.9248350513
 31
0.0
  0
LINE
  5
DB
330
1F
100
AcDbEntity
  8
0
  6
HIDDEN
 62
     7
370
     0
100
AcDbLine
 10
200.8176859702
 20
180.1045730277
 30
0.0
 11
195.2176859702
 21
180.1045730277
 31
0.0
  0
LINE
  5
DC
330
1F
100
AcDbEntity
  8
0
  6
HIDDEN
 62
     7
370
     0
100
AcDbLine
 10
201.0176859702
 20
181.3048350513
 30
0.0
 11
195.0176859702
 21
181.3048350513
 31
0.0
  0
LINE
  5
DD
330
1F
100
AcDbEntity
  8
0
  6
HIDDEN
 62
     7
370
     0
100
AcDbLine
 10
200.8176859702
 20
178.7245730277
 30
0.0
 11
195.2176859702
 21
178.7245730277
 31
0.0
  0
LINE
  5
DE
330
1F
100
AcDbEntity
  8
0
  6
HIDDEN
 62
     7
370
     0
100
AcDbLine
 10
200.8176859702
 20
180.7945730277
 30
0.0
 11
195.2176859702
 21
180.7945730277
 31
0.0
  0
LINE
  5
DF
330
1F
100
AcDbEntity
  8
0
  6
HIDDEN
 62
     7
370
     0
100
AcDbLine
 10
201.0176859702
 20
180.6148350513
 30
0.0
 11
195.0176859702
 21
180.6148350513
 31
0.0
  0
LINE
  5
E0
330
1F
100
AcDbEntity
  8
0
  6
HIDDEN
 62
     7
370
     0
100
AcDbLine
 10
201.0176859702
 20
178.5448350513
 30
0.0
 11
195.0176859702
 21
178.5448350513
 31
0.0
  0
LINE
  5
E1
330
1F
100
AcDbEntity
  8
0
  6
HIDDEN
 62
     7
370
     0
100
AcDbLine
 10
200.498070728
 20
175.4948350513
 30
0.0
 11
195.5373012125
 21
175.4948350513
 31
0.0
  0
LINE
  5
E2
330
1F
100
AcDbEntity
  8
0
  6
HIDDEN
 62
     7
370
     0
100
AcDbLine
 10
200.5176859702
 20
177.1382107243
 30
0.0
 11
195.5176859702
 21
177.1382107243
 31
0.0
  0
LINE
  5
E3
330
1F
100
AcDbEntity
  8
0
  6
HIDDEN
 62
     7
370
     0
100
AcDbLine
 10
251.1946712303
 20
150.3948350513
 30
0.0
 11
254.7611292004
 21
150.3948350513
 31
0.0
  0
LINE
  5
E4
330
1F
100
AcDbEntity
  8
0
  6
HIDDEN
 62
     7
370
     0
100
AcDbLine
 10
247.7611292004
 20
150.3948350513
 30
0.0
 11
251.1946712303
 21
150.3948350513
 31
0.0
  0
LINE
  5
E5
330
1F
100
AcDbEntity
  8
0
  6
HIDDEN
 62
     7
370
     0
100
AcDbLine
 10
251.1946712303
 20
150.5948350513
 30
0.0
 11
254.7611292004
 21
150.5948350513
 31
0.0
  0
LINE
  5
E6
330
1F
100
AcDbEntity
  8
0
  6
HIDDEN
 62
     7
370
     0
100
AcDbLine
 10
247.7611292004
 20
150.5948350513
 30
0.0
 11
251.1946712303
 21
150.5948350513
 31
0.0
  0
LINE
  5
E7
330
1F
100
AcDbEntity
  8
0
  6
HIDDEN
 62
     7
370
     0
100
AcDbLine
 10
251.2136592218
 20
141.7948350513
 30
0.0
 11
253.7611292004
 21
141.7948350513
 31
0.0
  0
LINE
  5
E8
330
1F
100
AcDbEntity
  8
0
  6
HIDDEN
 62
     7
370
     0
100
AcDbLine
 10
248.7611292004
 20
141.7948350513
 30
0.0
 11
251.2136592218
 21
141.7948350513
 31
0.0
  0
LINE
  5
E9
330
1F
100
AcDbEntity
  8
0
  6
HIDDEN
 62
     7
370
     0
100
AcDbLine
 10
251.2136592218
 20
147.0948350513
 30
0.0
 11
253.7611292004
 21
147.0948350513
 31
0.0
  0
LINE
  5
EA
330
1F
100
AcDbEntity
  8
0
  6
HIDDEN
 62
     7
370
     0
100
AcDbLine
 10
248.7611292004
 20
147.0948350513
 30
0.0
 11
251.2136592218
 21
147.0948350513
 31
0.0
  0
LINE
  5
EB
330
1F
100
AcDbEntity
  8
0
  6
HIDDEN
 62
     7
370
     0
100
AcDbLine
 10
251.2307484141
 20
140.8948350513
 30
0.0
 11
252.8611292004
 21
140.8948350513
 31
0.0
  0
LINE
  5
EC
330
1F
100
AcDbEntity
  8
0
  6
HIDDEN
 62
     7
370
     0
100
AcDbLine
 10
249.6611292004
 20
140.8948350513
 30
0.0
 11
251.2307484141
 21
140.8948350513
 31
0.0
  0
SPLINE
  5
ED
330
1F
100
AcDbEntity
  8
0
  6
HIDDEN
 62
     7
370
     0
100
AcDbSpline
210
0.0
220
0.0
230
1.0
 70
     8
 71
     3
 72
    12
 73
     8
 74
     0
 42
0.00000001
 43
0.00000001
 12
1.0
 22
0.0
 32
0.0
 13
1.0
 23
0.0
 33
0.0
 40
0.0
 40
0.0
 40
0.0
 40
0.0
 40
0.2357874155417814
 40
0.4731981586289004
 40
0.7086272368278944
 40
0.9418061608005327
 40
1.0
 40
1.0
 40
1.0
 40
1.0
 10
252.9201680280358
 20
151.0437283884118
 30
0.0
 10
252.9623441795575
 20
151.0503976698613
 30
0.0
 10
253.0469868530955
 20
151.0637821488168
 30
0.0
 10
253.1490672559082
 20
151.0785513674718
 30
0.0
 10
253.2127404371708
 20
151.0873582583687
 30
0.0
 10
253.2380595945701
 20
151.0906504785786
 30
0.0
 10
253.2276541517399
 20
151.0890313245843
 30
0.0
 10
253.225575945595
 20
151.0887079423088
 30
0.0
  0
SPLINE
  5
EE
330
1F
100
AcDbEntity
  8
0
  6
HIDDEN
 62
     7
370
     0
100
AcDbSpline
210
0.0
220
0.0
230
1.0
 70
     8
 71
     3
 72
    10
 73
     6
 74
     0
 42
0.00000001
 43
0.00000001
 12
1.0
 22
0.0
 32
0.0
 13
1.0
 23
0.0
 33
0.0
 40
0.0
 40
0.0
 40
0.0
 40
0.0
 40
0.3342374952798944
 40
0.6702707527246345
 40
1.0
 40
1.0
 40
1.0
 40
1.0
 10
253.2098696023969
 20
151.0862212781919
 30
0.0
 10
253.1916771560873
 20
151.0835073734334
 30
0.0
 10
253.1551945206737
 20
151.0780649828849
 30
0.0
 10
253.055802407613
 20
151.063144432752
 30
0.0
 10
252.9743554569099
 20
151.0500816846792
 30
0.0
 10
252.9340175863363
 20
151.0436121552917
 30
0.0
  0
SPLINE
  5
EF
330
1F
100
AcDbEntity
  8
0
  6
HIDDEN
 62
     7
370
     0
100
AcDbSpline
210
0.0
220
0.0
230
1.0
 70
     8
 71
     3
 72
    11
 73
     7
 74
     0
 42
0.00000001
 43
0.00000001
 12
1.0
 22
0.0
 32
0.0
 13
1.0
 23
0.0
 33
0.0
 40
0.0
 40
0.0
 40
0.0
 40
0.0
 40
0.2545431021728926
 40
0.5095189175203511
 40
0.7593574703557425
 40
1.0
 40
1.0
 40
1.0
 40
1.0
 10
252.9340175863363
 20
151.0436121552917
 30
0.0
 10
252.8613536821139
 20
151.0321060538971
 30
0.0
 10
252.7159023479151
 20
151.0090742911922
 30
0.0
 10
252.5468184211713
 20
150.9908330030533
 30
0.0
 10
252.4347880347331
 20
150.9913275735987
 30
0.0
 10
252.4217595955672
 20
151.0064440901277
 30
0.0
 10
252.4153675109993
 20
151.0138606387101
 30
0.0
  0
LINE
  5
F0
330
1F
100
AcDbEntity
  8
0
  6
HIDDEN
 62
     7
370
     0
100
AcDbLine
 10
252.4475429052
 20
151.0436121553
 30
0.0
 11
252.4647226408
 21
151.0612958406
 31
0.0
  0
SPLINE
  5
F1
330
1F
100
AcDbEntity
  8
0
  6
HIDDEN
 62
     7
370
     0
100
AcDbSpline
210
0.0
220
0.0
230
1.0
 70
     8
 71
     3
 72
    15
 73
    11
 74
     0
 42
0.00000001
 43
0.00000001
 12
1.0
 22
0.0
 32
0.0
 13
1.0
 23
0.0
 33
0.0
 40
0.0
 40
0.0
 40
0.0
 40
0.0
 40
0.1268036956063243
 40
0.2539263442701235
 40
0.3799872671767205
 40
0.5048410097959342
 40
0.6290227167746121
 40
0.7532063308916868
 40
0.8780553361591635
 40
1.0
 40
1.0
 40
1.0
 40
1.0
 10
250.7859328597244
 20
151.0439918756851
 30
0.0
 10
250.7529272203084
 20
151.0507077302248
 30
0.0
 10
250.6868329214228
 20
151.0641563318901
 30
0.0
 10
250.5565676583962
 20
151.0788660814048
 30
0.0
 10
250.4217410718596
 20
151.0880963525961
 30
0.0
 10
250.2952949307188
 20
151.0910334586155
 30
0.0
 10
250.191612367478
 20
151.0877079800574
 30
0.0
 10
250.1223738957065
 20
151.0782850625123
 30
0.0
 10
250.0916291034386
 20
151.0637408132063
 30
0.0
 10
250.1071624774432
 20
151.050678366779
 30
0.0
 10
250.1148377637591
 20
151.044224004946
 30
0.0
  0
SPLINE
  5
F2
330
1F
100
AcDbEntity
  8
0
  6
HIDDEN
 62
     7
370
     0
100
AcDbSpline
210
0.0
220
0.0
230
1.0
 70
     8
 71
     3
 72
    11
 73
     7
 74
     0
 42
0.00000001
 43
0.00000001
 12
1.0
 22
0.0
 32
0.0
 13
1.0
 23
0.0
 33
0.0
 40
0.0
 40
0.0
 40
0.0
 40
0.0
 40
0.2480998992753149
 40
0.5032410443862295
 40
0.7516046718220869
 40
1.0
 40
1.0
 40
1.0
 40
1.0
 10
250.1148377637591
 20
151.044224004946
 30
0.0
 10
250.1233724456104
 20
151.0384033030658
 30
0.0
 10
250.1406840294561
 20
151.0265967037813
 30
0.0
 10
250.1422379054143
 20
151.0120711009438
 30
0.0
 10
250.1271167831224
 20
151.0005452758887
 30
0.0
 10
250.100983046005
 20
150.9967385404792
 30
0.0
 10
250.0879153435823
 20
150.9948350513108
 30
0.0
  0
SPLINE
  5
F3
330
1F
100
AcDbEntity
  8
0
  6
HIDDEN
 62
     7
370
     0
100
AcDbSpline
210
0.0
220
0.0
230
1.0
 70
     8
 71
     3
 72
    12
 73
     8
 74
     0
 42
0.00000001
 43
0.00000001
 12
1.0
 22
0.0
 32
0.0
 13
1.0
 23
0.0
 33
0.0
 40
0.0
 40
0.0
 40
0.0
 40
0.0
 40
0.0884707583212531
 40
0.320464670057961
 40
0.5589854630932289
 40
0.7769463291295833
 40
0.9999999999999999
 40
0.9999999999999999
 40
0.9999999999999999
 40
0.9999999999999999
 10
249.9907908301495
 20
150.9948350513108
 30
0.0
 10
249.9825297383575
 20
150.9951469819891
 30
0.0
 10
249.952605861749
 20
150.9962768780564
 30
0.0
 10
249.8857034410607
 20
151.0031057524886
 30
0.0
 10
249.7957890644296
 20
151.0142399589811
 30
0.0
 10
249.6982907886506
 20
151.0283389819622
 30
0.0
 10
249.6309879570317
 20
151.0390630870801
 30
0.0
 10
249.5969479370409
 20
151.0444870602445
 30
0.0
  0
SPLINE
  5
F4
330
1F
100
AcDbEntity
  8
0
  6
HIDDEN
 62
     7
370
     0
100
AcDbSpline
210
0.0
220
0.0
230
1.0
 70
     8
 71
     3
 72
    15
 73
    11
 74
     0
 42
0.00000001
 43
0.00000001
 12
1.0
 22
0.0
 32
0.0
 13
1.0
 23
0.0
 33
0.0
 40
0.0
 40
0.0
 40
0.0
 40
0.0
 40
0.1262564375371179
 40
0.2533820972842237
 40
0.3794454811308436
 40
0.5043002379033873
 40
0.628481453046521
 40
0.7526634908999702
 40
0.8775104621121917
 40
1.0
 40
1.0
 40
1.0
 40
1.0
 10
249.5969479370409
 20
151.0444870602445
 30
0.0
 10
249.5547204477156
 20
151.0511728436629
 30
0.0
 10
249.4699747506485
 20
151.0645904392928
 30
0.0
 10
249.3686368330008
 20
151.0792919714442
 30
0.0
 10
249.3021619040856
 20
151.0885345215895
 30
0.0
 10
249.2788406198461
 20
151.0914825281965
 30
0.0
 10
249.3002354291893
 20
151.0881657490001
 30
0.0
 10
249.3638203033669
 20
151.0787490794828
 30
0.0
 10
249.4608652902724
 20
151.0641878473246
 30
0.0
 10
249.5426137383456
 20
151.0510896396187
 30
0.0
 10
249.5830983787409
 20
151.044602957103
 30
0.0
  0
SPLINE
  5
F5
330
1F
100
AcDbEntity
  8
0
  6
HIDDEN
 62
     7
370
     0
100
AcDbSpline
210
0.0
220
0.0
230
1.0
 70
     8
 71
     3
 72
    12
 73
     8
 74
     0
 42
0.00000001
 43
0.00000001
 12
1.0
 22
0.0
 32
0.0
 13
1.0
 23
0.0
 33
0.0
 40
0.0
 40
0.0
 40
0.0
 40
0.0
 40
0.2434413287546172
 40
0.4937921115902267
 40
0.7374885097212506
 40
0.9885298119786466
 40
1.0
 40
1.0
 40
1.0
 40
1.0
 10
249.5830983787409
 20
151.044602957103
 30
0.0
 10
249.6192897532486
 20
151.0387905917004
 30
0.0
 10
249.6926997010621
 20
151.027000891898
 30
0.0
 10
249.7942157280322
 20
151.0122587276192
 30
0.0
 10
249.8848561975099
 20
151.0013321207314
 30
0.0
 10
249.9419961277399
 20
150.9954981734719
 30
0.0
 10
249.9640575019745
 20
150.9948628127871
 30
0.0
 10
249.9650214525818
 20
150.9948350513108
 30
0.0
  0
SPLINE
  5
F6
330
1F
100
AcDbEntity
  8
0
  6
HIDDEN
 62
     7
370
     0
100
AcDbSpline
210
0.0
220
0.0
230
1.0
 70
     8
 71
     3
 72
    12
 73
     8
 74
     0
 42
0.00000001
 43
0.00000001
 12
1.0
 22
0.0
 32
0.0
 13
1.0
 23
0.0
 33
0.0
 40
0.0
 40
0.0
 40
0.0
 40
0.0
 40
0.1047446954222721
 40
0.332635836144012
 40
0.5669397433162419
 40
0.7809706532461496
 40
1.0
 40
1.0
 40
1.0
 40
1.0
 10
250.0480119688957
 20
150.9948350513108
 30
0.0
 10
250.0550236236233
 20
150.995194461622
 30
0.0
 10
250.0772904088163
 20
150.9963358344514
 30
0.0
 10
250.0966321887516
 20
151.0032704195976
 30
0.0
 10
250.105356458339
 20
151.0144066242516
 30
0.0
 10
250.0971225806824
 20
151.0284737944136
 30
0.0
 10
250.0788266248842
 20
151.0391853581275
 30
0.0
 10
250.0695730598552
 20
151.044602957103
 30
0.0
  0
SPLINE
  5
F7
330
1F
100
AcDbEntity
  8
0
  6
HIDDEN
 62
     7
370
     0
100
AcDbSpline
210
0.0
220
0.0
230
1.0
 70
     8
 71
     3
 72
    15
 73
    11
 74
     0
 42
0.00000001
 43
0.00000001
 12
1.0
 22
0.0
 32
0.0
 13
1.0
 23
0.0
 33
0.0
 40
0.0
 40
0.0
 40
0.0
 40
0.0
 40
0.0116175993748127
 40
0.155506966110604
 40
0.2981945202331368
 40
0.4395187662436714
 40
0.5800879233516307
 40
0.7206660721476655
 40
0.8620040527068014
 40
0.9999999999999999
 40
0.9999999999999999
 40
0.9999999999999999
 40
0.9999999999999999
 10
250.0523926986413
 20
151.0622739527991
 30
0.0
 10
250.0518477483172
 20
151.0627962673739
 30
0.0
 10
250.0445533350013
 20
151.0697876906667
 30
0.0
 10
250.0727442700239
 20
151.0791828013451
 30
0.0
 10
250.1381712919019
 20
151.0886590622167
 30
0.0
 10
250.2423192978901
 20
151.091463699331
 30
0.0
 10
250.3673716420832
 20
151.0881037604482
 30
0.0
 10
250.5004231890946
 20
151.0786220723097
 30
0.0
 10
250.6281688636829
 20
151.0640325386976
 30
0.0
 10
250.6941986863133
 20
151.0509500454633
 30
0.0
 10
250.7268185975197
 20
151.0444870602445
 30
0.0
  0
SPLINE
  5
F8
330
1F
100
AcDbEntity
  8
0
  6
HIDDEN
 62
     7
370
     0
100
AcDbSpline
210
0.0
220
0.0
230
1.0
 70
     8
 71
     3
 72
    12
 73
     8
 74
     0
 42
0.00000001
 43
0.00000001
 12
1.0
 22
0.0
 32
0.0
 13
1.0
 23
0.0
 33
0.0
 40
0.0
 40
0.0
 40
0.0
 40
0.0
 40
0.2058321750920525
 40
0.4120750343577143
 40
0.6141697879285802
 40
0.8133029339855636
 40
1.0
 40
1.0
 40
1.0
 40
1.0
 10
250.7268185975197
 20
151.0444870602445
 30
0.0
 10
250.7857293573851
 20
151.0329939695104
 30
0.0
 10
250.9036684181016
 20
151.0099848565911
 30
0.0
 10
251.1313045254833
 20
150.9914584541133
 30
0.0
 10
251.36202658013
 20
150.9927495423812
 30
0.0
 10
251.5739887878425
 20
151.0121901088717
 30
0.0
 10
251.6799231584529
 20
151.033777979684
 30
0.0
 10
251.7311831053526
 20
151.044224004946
 30
0.0
  0
SPLINE
  5
F9
330
1F
100
AcDbEntity
  8
0
  6
HIDDEN
 62
     7
370
     0
100
AcDbSpline
210
0.0
220
0.0
230
1.0
 70
     8
 71
     3
 72
    15
 73
    11
 74
     0
 42
0.00000001
 43
0.00000001
 12
1.0
 22
0.0
 32
0.0
 13
1.0
 23
0.0
 33
0.0
 40
0.0
 40
0.0
 40
0.0
 40
0.0
 40
0.1413664089933942
 40
0.2830884393771833
 40
0.423627382853883
 40
0.5628253714561342
 40
0.7012816621887326
 40
0.8397484088637815
 40
0.978964417815835
 40
1.0
 40
1.0
 40
1.0
 40
1.0
 10
251.7311831053526
 20
151.044224004946
 30
0.0
 10
251.7641867602632
 20
151.0509260652231
 30
0.0
 10
251.8302770940905
 20
151.0643470454827
 30
0.0
 10
251.9605175362975
 20
151.0789962134843
 30
0.0
 10
252.0953831743046
 20
151.0881656615124
 30
0.0
 10
252.2216423416299
 20
151.0910173346386
 30
0.0
 10
252.3260058835554
 20
151.0876881558316
 30
0.0
 10
252.392732070823
 20
151.0779658998617
 30
0.0
 10
252.4217340594133
 20
151.0680597177746
 30
0.0
 10
252.4151748864539
 20
151.0606709521793
 30
0.0
 10
252.4143138901863
 20
151.0597010586212
 30
0.0
  0
LINE
  5
FA
330
1F
100
AcDbEntity
  8
0
  6
HIDDEN
 62
     7
370
     0
100
AcDbLine
 10
252.4022782013
 20
151.0439918757
 30
0.0
 11
252.3821296642
 21
151.0178394039
 31
0.0
  0
SPLINE
  5
FB
330
1F
100
AcDbEntity
  8
0
  6
HIDDEN
 62
     7
370
     0
100
AcDbSpline
210
0.0
220
0.0
230
1.0
 70
     8
 71
     3
 72
    11
 73
     7
 74
     0
 42
0.00000001
 43
0.00000001
 12
1.0
 22
0.0
 32
0.0
 13
1.0
 23
0.0
 33
0.0
 40
0.0
 40
0.0
 40
0.0
 40
0.0
 40
0.2597163829176692
 40
0.5142029912782272
 40
0.7649547206361019
 40
0.9999999999999999
 40
0.9999999999999999
 40
0.9999999999999999
 40
0.9999999999999999
 10
252.3777334862317
 20
151.0121332367951
 30
0.0
 10
252.3899456258496
 20
151.0047869646625
 30
0.0
 10
252.4141239955421
 20
150.9902423484822
 30
0.0
 10
252.5428926907906
 20
150.9924155467646
 30
0.0
 10
252.715470296189
 20
151.0116480882278
 30
0.0
 10
252.853422172025
 20
151.0332679544952
 30
0.0
 10
252.9201680280358
 20
151.0437283884118
 30
0.0
  0
LINE
  5
FC
330
1F
100
AcDbEntity
  8
0
  6
HIDDEN
 62
     7
370
     0
100
AcDbLine
 10
252.4170181957
 20
149.3948350513
 30
0.0
 11
251.7311831054
 21
149.3948350513
 31
0.0
  0
LINE
  5
FD
330
1F
100
AcDbEntity
  8
0
  6
HIDDEN
 62
     7
370
     0
100
AcDbLine
 10
250.7268185975
 20
149.3948350513
 30
0.0
 11
250.050731112
 21
149.3948350513
 31
0.0
  0
LINE
  5
FE
330
1F
100
AcDbEntity
  8
0
  6
HIDDEN
 62
     7
370
     0
100
AcDbLine
 10
251.7311831054
 20
149.3948350513
 30
0.0
 11
250.7268185975
 21
149.3948350513
 31
0.0
  0
LINE
  5
FF
330
1F
100
AcDbEntity
  8
0
  6
HIDDEN
 62
     7
370
     0
100
AcDbLine
 10
252.920168028
 20
149.3948350513
 30
0.0
 11
252.4170181957
 21
149.3948350513
 31
0.0
  0
LINE
  5
100
330
1F
100
AcDbEntity
  8
0
  6
HIDDEN
 62
     7
370
     0
100
AcDbLine
 10
250.050731112
 20
149.3948350513
 30
0.0
 11
249.5830983787
 21
149.3948350513
 31
0.0
  0
LINE
  5
101
330
1F
100
AcDbEntity
  8
0
  6
HIDDEN
 62
     7
370
     0
100
AcDbLine
 10
253.2308450663
 20
149.3948350513
 30
0.0
 11
252.920168028
 21
149.3948350513
 31
0.0
  0
LINE
  5
102
330
1F
100
AcDbEntity
  8
0
  6
HIDDEN
 62
     7
370
     0
100
AcDbLine
 10
249.5830983787
 20
149.3948350513
 30
0.0
 11
249.2862708988
 21
149.3948350513
 31
0.0
  0
LINE
  5
103
330
1F
100
AcDbEntity
  8
0
  6
HIDDEN
 62
     7
370
     0
100
AcDbLine
 10
242.3915327066
 20
146.3348350513
 30
0.0
 11
244.1317237743
 21
146.3348350513
 31
0.0
  0
LINE
  5
104
330
1F
100
AcDbEntity
  8
0
  6
HIDDEN
 62
     7
370
     0
100
AcDbLine
 10
242.3915327066
 20
146.3348350513
 30
0.0
 11
242.1045724306
 21
147.8370964801
 31
0.0
  0
LINE
  5
105
330
1F
100
AcDbEntity
  8
0
  6
HIDDEN
 62
     7
370
     0
100
AcDbLine
 10
242.1045724306
 20
147.8370964801
 30
0.0
 11
241.8553498262
 21
150.9948350513
 31
0.0
  0
LINE
  5
106
330
1F
100
AcDbEntity
  8
0
  6
HIDDEN
 62
     7
370
     0
100
AcDbLine
 10
251.3611292004
 20
150.8754419492
 30
0.0
 11
251.1168699087
 21
151.0948350515
 31
0.0
  0
LINE
  5
107
330
1F
100
AcDbEntity
  8
0
  6
HIDDEN
 62
     7
370
     0
100
AcDbLine
 10
251.3611292004
 20
150.8754419492
 30
0.0
 11
251.6053884921
 21
151.0948350515
 31
0.0
  0
LINE
  5
108
330
1F
100
AcDbEntity
  8
0
  6
HIDDEN
 62
     7
370
     0
100
AcDbLine
 10
251.3611292004
 20
150.5166118261
 30
0.0
 11
251.3611292004
 21
150.8754419492
 31
0.0
  0
SPLINE
  5
109
330
1F
100
AcDbEntity
  8
0
  6
HIDDEN
 62
     7
370
     0
100
AcDbSpline
210
0.0
220
0.0
230
1.0
 70
    24
 71
     3
 72
     9
 73
     5
 74
     0
 42
0.00000001
 43
0.00000001
 12
1.0
 22
0.0
 32
0.0
 13
1.0
 23
0.0
 33
0.0
 40
0.0
 40
0.0
 40
0.0
 40
0.0
 40
0.2509279074144093
 40
1.0
 40
1.0
 40
1.0
 40
1.0
 10
251.3611292004183
 20
150.4652628297453
 30
0.0
 10
251.3611292004183
 20
150.4618501622155
 30
0.0
 10
251.3611292004183
 20
150.4482499709692
 30
0.0
 10
251.3611292004183
 20
150.4873346121442
 30
0.0
 10
251.3611292004183
 20
150.5166118260971
 30
0.0
  0
LINE
  5
10A
330
1F
100
AcDbEntity
  8
0
  6
HIDDEN
 62
     7
370
     0
100
AcDbLine
 10
252.6294659662
 20
150.6262890762
 30
0.0
 11
252.6467044198
 21
150.6257751592
 31
0.0
  0
SPLINE
  5
10B
330
1F
100
AcDbEntity
  8
0
  6
HIDDEN
 62
     7
370
     0
100
AcDbSpline
210
0.0
220
0.0
230
1.0
 70
     8
 71
     3
 72
    11
 73
     7
 74
     0
 42
0.00000001
 43
0.00000001
 12
1.0
 22
0.0
 32
0.0
 13
1.0
 23
0.0
 33
0.0
 40
0.0
 40
0.0
 40
0.0
 40
0.0
 40
0.3367831131414777
 40
0.6790111347689283
 40
0.9923717339918429
 40
1.0
 40
1.0
 40
1.0
 40
1.0
 10
243.4042351816205
 20
150.393119427542
 30
0.0
 10
243.4827096628068
 20
150.372824992558
 30
0.0
 10
243.6409273537823
 20
150.3319080142706
 30
0.0
 10
243.8805628212923
 20
150.3683461411324
 30
0.0
 10
244.0277201891453
 20
150.4294088564549
 30
0.0
 10
244.09410555183
 20
150.4675691460723
 30
0.0
 10
244.0956831928652
 20
150.4684760212686
 30
0.0
  0
SPLINE
  5
10C
330
1F
100
AcDbEntity
  8
0
  6
HIDDEN
 62
     7
370
     0
100
AcDbSpline
210
0.0
220
0.0
230
1.0
 70
     8
 71
     3
 72
    14
 73
    10
 74
     0
 42
0.00000001
 43
0.00000001
 12
1.0
 22
0.0
 32
0.0
 13
1.0
 23
0.0
 33
0.0
 40
0.0
 40
0.0
 40
0.0
 40
0.0
 40
0.007607845272194
 40
0.1629874631621692
 40
0.3207220632347716
 40
0.4900060525182182
 40
0.6629673458728789
 40
0.8292185822131455
 40
1.0
 40
1.0
 40
1.0
 40
1.0
 10
258.6265752079715
 20
150.4684760212686
 30
0.0
 10
258.6281528334439
 20
150.4675692041816
 30
0.0
 10
258.6619512565649
 20
150.4481419141573
 30
0.0
 10
258.7309682126581
 20
150.4141460318607
 30
0.0
 10
258.8401706493789
 20
150.3760567164193
 30
0.0
 10
258.957748822737
 20
150.3518652223595
 30
0.0
 10
259.0795590505776
 20
150.3454730038805
 30
0.0
 10
259.2018391810175
 20
150.3566808910266
 30
0.0
 10
259.2789497160086
 20
150.3808648933091
 30
0.0
 10
259.3180232192161
 20
150.3931194275419
 30
0.0
  0
LINE
  5
10D
330
1F
100
AcDbEntity
  8
0
  6
HIDDEN
 62
     7
370
     0
100
AcDbLine
 10
259.3180232192
 20
150.3931194275
 30
0.0
 11
260.6176859702
 21
150.8754419492
 31
0.0
  0
LINE
  5
10E
330
1F
100
AcDbEntity
  8
0
  6
HIDDEN
 62
     7
370
     0
100
AcDbLine
 10
243.4042351816
 20
150.3931194275
 30
0.0
 11
242.1045724306
 21
150.8754419492
 31
0.0
  0
LINE
  5
10F
330
1F
100
AcDbEntity
  8
0
  6
HIDDEN
 62
     7
370
     0
100
AcDbLine
 10
244.8949936376
 20
150.6257751592
 30
0.0
 11
244.9168257329
 21
150.6265996458
 31
0.0
  0
LINE
  5
110
330
1F
100
AcDbEntity
  8
0
  6
HIDDEN
 62
     7
370
     0
100
AcDbLine
 10
257.8113635647
 20
150.6262124117
 30
0.0
 11
257.8272647632
 21
150.6257751592
 31
0.0
  0
LINE
  5
111
330
1F
100
AcDbEntity
  8
0
  6
HIDDEN
 62
     7
370
     0
100
AcDbLine
 10
242.1045724306
 20
150.8754419492
 30
0.0
 11
241.8603131389
 21
151.0948350515
 31
0.0
  0
LINE
  5
112
330
1F
100
AcDbEntity
  8
0
  6
HIDDEN
 62
     7
370
     0
100
AcDbLine
 10
260.6176859702
 20
150.8754419492
 30
0.0
 11
260.8619452619
 21
151.0948350515
 31
0.0
  0
LINE
  5
113
330
1F
100
AcDbEntity
  8
0
  6
HIDDEN
 62
     7
370
     0
100
AcDbLine
 10
131.0176859702
 20
127.0448350513
 30
0.0
 11
131.1105791891
 21
127.1377282701
 31
0.0
  0
LINE
  5
114
330
1F
100
AcDbEntity
  8
0
  6
HIDDEN
 62
     7
370
     0
100
AcDbLine
 10
131.1105791891
 20
175.4519418325
 30
0.0
 11
131.0176859702
 21
175.5448350513
 31
0.0
  0
ARC
  5
115
330
1F
100
AcDbEntity
  8
0
  6
HIDDEN
 62
     7
370
     0
100
AcDbCircle
 10
130.4034724079
 20
127.8448350513
 30
0.0
 40
1.000000000000008
100
AcDbArc
 50
315.0
 51
0.0
  0
ARC
  5
116
330
1F
100
AcDbEntity
  8
0
  6
HIDDEN
 62
     7
370
     0
100
AcDbCircle
 10
130.4034724079
 20
127.8448350513
 30
0.0
 40
1.0
100
AcDbArc
 50
0.0
 51
52.1052014664
  0
ARC
  5
117
330
1F
100
AcDbEntity
  8
0
  6
HIDDEN
 62
     7
370
     0
100
AcDbCircle
 10
130.4034724079
 20
174.7448350513
 30
0.0
 40
1.000000000000035
100
AcDbArc
 50
343.125
 51
45.0
  0
ARC
  5
118
330
1F
100
AcDbEntity
  8
0
  6
HIDDEN
 62
     7
370
     0
100
AcDbCircle
 10
130.4034724079
 20
174.7448350513
 30
0.0
 40
1.000000000000035
100
AcDbArc
 50
307.8947985336
 51
343.125
  0
LINE
  5
119
330
1F
100
AcDbEntity
  8
0
  6
HIDDEN
 62
     7
370
     0
100
AcDbLine
 10
131.4034724079
 20
127.8448350513
 30
0.0
 11
131.4034724079
 21
174.7448350513
 31
0.0
  0
LINE
  5
11A
330
1F
100
AcDbEntity
  8
0
  6
HIDDEN
 62
     7
370
     0
100
AcDbLine
 10
93.0176859702
 20
135.0984062069
 30
0.0
 11
94.5479144099
 21
135.9818840084
 31
0.0
  0
LINE
  5
11B
330
1F
100
AcDbEntity
  8
0
  6
HIDDEN
 62
     7
370
     0
100
AcDbLine
 10
94.5479144099
 20
166.6077860942
 30
0.0
 11
93.0176859702
 21
167.4912638958
 31
0.0
  0
ARC
  5
11C
330
1F
100
AcDbEntity
  8
0
  6
HIDDEN
 62
     7
370
     0
100
AcDbCircle
 10
104.0194872851
 20
137.2948350513
 30
0.0
 40
2.000000000000016
100
AcDbArc
 50
270.0
 51
315.0
  0
ARC
  5
11D
330
1F
100
AcDbEntity
  8
0
  6
HIDDEN
 62
     7
370
     0
100
AcDbCircle
 10
104.0194872851
 20
165.2948350513
 30
0.0
 40
2.0
100
AcDbArc
 50
45.0
 51
90.0
  0
LINE
  5
11E
330
1F
100
AcDbEntity
  8
0
  6
HIDDEN
 62
     7
370
     0
100
AcDbLine
 10
103.0176859702
 20
135.2948350513
 30
0.0
 11
104.0194872851
 21
135.2948350513
 31
0.0
  0
LINE
  5
11F
330
1F
100
AcDbEntity
  8
0
  6
HIDDEN
 62
     7
370
     0
100
AcDbLine
 10
104.0194872851
 20
167.2948350513
 30
0.0
 11
103.0176859702
 21
167.2948350513
 31
0.0
  0
ARC
  5
120
330
1F
100
AcDbEntity
  8
0
  6
HIDDEN
 62
     7
370
     0
100
AcDbCircle
 10
103.0176859702
 20
137.2948350513
 30
0.0
 40
2.000000000000004
100
AcDbArc
 50
189.9742217944
 51
270.0
  0
ARC
  5
121
330
1F
100
AcDbEntity
  8
0
  6
HIDDEN
 62
     7
370
     0
100
AcDbCircle
 10
103.0176859702
 20
165.2948350513
 30
0.0
 40
2.0
100
AcDbArc
 50
90.0
 51
170.0257782056
  0
LINE
  5
122
330
1F
100
AcDbEntity
  8
0
  6
HIDDEN
 62
     7
370
     0
100
AcDbLine
 10
105.4337008475
 20
135.8806214889
 30
0.0
 11
106.8479144099
 21
137.2948350513
 31
0.0
  0
LINE
  5
123
330
1F
100
AcDbEntity
  8
0
  6
HIDDEN
 62
     7
370
     0
100
AcDbLine
 10
106.8479144099
 20
165.2948350513
 30
0.0
 11
105.4337008475
 21
166.7090486137
 31
0.0
  0
LINE
  5
124
330
1F
100
AcDbEntity
  8
0
  6
HIDDEN
 62
     7
370
     0
100
AcDbLine
 10
94.5479144099
 20
135.9818840084
 30
0.0
 11
99.4479144099
 21
137.2948350513
 31
0.0
  0
LINE
  5
125
330
1F
100
AcDbEntity
  8
0
  6
HIDDEN
 62
     7
370
     0
100
AcDbLine
 10
99.4479144099
 20
165.2948350513
 30
0.0
 11
94.5479144099
 21
166.6077860942
 31
0.0
  0
LINE
  5
126
330
1F
100
AcDbEntity
  8
0
  6
HIDDEN
 62
     7
370
     0
100
AcDbLine
 10
101.0479144099
 20
165.6412452128
 30
0.0
 11
100.4479144099
 21
165.2948350513
 31
0.0
  0
LINE
  5
127
330
1F
100
AcDbEntity
  8
0
  6
HIDDEN
 62
     7
370
     0
100
AcDbLine
 10
100.4479144099
 20
137.2948350513
 30
0.0
 11
101.0479144099
 21
136.9484248898
 31
0.0
  0
LINE
  5
128
330
1F
100
AcDbEntity
  8
0
  6
HIDDEN
 62
     7
370
     0
100
AcDbLine
 10
99.4479144099
 20
137.2948350513
 30
0.0
 11
100.4479144099
 21
137.2948350513
 31
0.0
  0
LINE
  5
129
330
1F
100
AcDbEntity
  8
0
  6
HIDDEN
 62
     7
370
     0
100
AcDbLine
 10
100.4479144099
 20
165.2948350513
 30
0.0
 11
99.4479144099
 21
165.2948350513
 31
0.0
  0
LINE
  5
12A
330
1F
100
AcDbEntity
  8
0
  6
HIDDEN
 62
     7
370
     0
100
AcDbLine
 10
106.8479144099
 20
137.2948350513
 30
0.0
 11
111.4705235125
 21
137.2948350513
 31
0.0
  0
LINE
  5
12B
330
1F
100
AcDbEntity
  8
0
  6
HIDDEN
 62
     7
370
     0
100
AcDbLine
 10
111.4705235125
 20
165.2948350513
 30
0.0
 11
106.8479144099
 21
165.2948350513
 31
0.0
  0
ARC
  5
12C
330
1F
100
AcDbEntity
  8
0
  6
HIDDEN
 62
     7
370
     0
100
AcDbCircle
 10
119.5176859702
 20
137.7948350513
 30
0.0
 40
0.5
100
AcDbArc
 50
275.5682401931
 51
0.0
  0
ARC
  5
12D
330
1F
100
AcDbEntity
  8
0
  6
HIDDEN
 62
     7
370
     0
100
AcDbCircle
 10
119.5176859702
 20
164.7948350513
 30
0.0
 40
0.5
100
AcDbArc
 50
360.0
 51
84.9755685961
  0
LINE
  5
12E
330
1F
100
AcDbEntity
  8
0
  6
HIDDEN
 62
     7
370
     0
100
AcDbLine
 10
120.0176859702
 20
141.0448350513
 30
0.0
 11
121.2676859702
 21
142.2948350513
 31
0.0
  0
LINE
  5
12F
330
1F
100
AcDbEntity
  8
0
  6
HIDDEN
 62
     7
370
     0
100
AcDbLine
 10
121.2676859702
 20
160.2948350513
 30
0.0
 11
120.0176859702
 21
161.5448350513
 31
0.0
  0
LINE
  5
130
330
1F
100
AcDbEntity
  8
0
  6
HIDDEN
 62
     7
370
     0
100
AcDbLine
 10
158.0176859702
 20
160.2948350513
 30
0.0
 11
121.2676859702
 21
160.2948350513
 31
0.0
  0
LINE
  5
131
330
1F
100
AcDbEntity
  8
0
  6
HIDDEN
 62
     7
370
     0
100
AcDbLine
 10
121.2676859702
 20
142.2948350513
 30
0.0
 11
158.0176859702
 21
142.2948350513
 31
0.0
  0
LINE
  5
132
330
1F
100
AcDbEntity
  8
0
  6
HIDDEN
 62
     7
370
     0
100
AcDbLine
 10
158.0176859702
 20
142.2948350513
 30
0.0
 11
160.8717739106
 21
147.0448350513
 31
0.0
  0
LINE
  5
133
330
1F
100
AcDbEntity
  8
0
  6
HIDDEN
 62
     7
370
     0
100
AcDbLine
 10
160.8717739106
 20
155.5448350513
 30
0.0
 11
158.0176859702
 21
160.2948350513
 31
0.0
  0
LINE
  5
134
330
1F
100
AcDbEntity
  8
0
  6
HIDDEN
 62
     7
370
     0
100
AcDbLine
 10
119.9676859702
 20
130.897079071
 30
0.0
 11
119.5676859702
 21
131.297079071
 31
0.0
  0
LINE
  5
135
330
1F
100
AcDbEntity
  8
0
  6
HIDDEN
 62
     7
370
     0
100
AcDbLine
 10
111.4676859702
 20
131.297079071
 30
0.0
 11
111.2864613155
 21
131.1158544163
 31
0.0
  0
LINE
  5
136
330
1F
100
AcDbEntity
  8
0
  6
HIDDEN
 62
     7
370
     0
100
AcDbLine
 10
195.5176859702
 20
155.5448350513
 30
0.0
 11
160.8717739106
 21
155.5448350513
 31
0.0
  0
LINE
  5
137
330
1F
100
AcDbEntity
  8
0
  6
HIDDEN
 62
     7
370
     0
100
AcDbLine
 10
202.0176859702
 20
155.5448350513
 30
0.0
 11
200.5150297254
 21
155.5448350513
 31
0.0
  0
LINE
  5
138
330
1F
100
AcDbEntity
  8
0
  6
HIDDEN
 62
     7
370
     0
100
AcDbLine
 10
160.8717739106
 20
147.0448350513
 30
0.0
 11
202.0176859702
 21
147.0448350513
 31
0.0
  0
LINE
  5
139
330
1F
100
AcDbEntity
  8
0
  6
HIDDEN
 62
     7
370
     0
100
AcDbLine
 10
202.0176859702
 20
147.0448350513
 30
0.0
 11
204.5713436011
 21
151.2948350513
 31
0.0
  0
LINE
  5
13A
330
1F
100
AcDbEntity
  8
0
  6
HIDDEN
 62
     7
370
     0
100
AcDbLine
 10
204.5713436011
 20
151.2948350513
 30
0.0
 11
202.0176859702
 21
155.5448350513
 31
0.0
  0
LINE
  5
13B
330
1F
100
AcDbEntity
  8
0
  6
HIDDEN
 62
     7
370
     0
100
AcDbLine
 10
99.4676859702
 20
133.2948350513
 30
0.0
 11
93.0176859702
 21
133.2948350513
 31
0.0
  0
LINE
  5
13C
330
1F
100
AcDbEntity
  8
0
  6
HIDDEN
 62
     7
370
     0
100
AcDbLine
 10
101.3902113295
 20
131.372309692
 30
0.0
 11
99.4676859702
 21
133.2948350513
 31
0.0
  0
LINE
  5
13D
330
1F
100
AcDbEntity
  8
0
  6
HIDDEN
 62
     7
370
     0
100
AcDbLine
 10
119.5676859702
 20
168.7948350513
 30
0.0
 11
115.5176859702
 21
171.2283205584
 31
0.0
  0
LINE
  5
13E
330
1F
100
AcDbEntity
  8
0
  6
HIDDEN
 62
     7
370
     0
100
AcDbLine
 10
115.5176859702
 20
171.2283205584
 30
0.0
 11
111.4676859702
 21
168.7948350513
 31
0.0
  0
LINE
  5
13F
330
1F
100
AcDbEntity
  8
0
  6
HIDDEN
 62
     7
370
     0
100
AcDbLine
 10
119.5676859702
 20
131.297079071
 30
0.0
 11
119.5676859702
 21
137.2976532441
 31
0.0
  0
LINE
  5
140
330
1F
100
AcDbEntity
  8
0
  6
HIDDEN
 62
     7
370
     0
100
AcDbLine
 10
111.4676859702
 20
137.295654967
 30
0.0
 11
111.4676859702
 21
131.297079071
 31
0.0
  0
LINE
  5
141
330
1F
100
AcDbEntity
  8
0
  6
HIDDEN
 62
     7
370
     0
100
AcDbLine
 10
119.5676859702
 20
165.2910948255
 30
0.0
 11
119.5676859702
 21
168.7948350513
 31
0.0
  0
LINE
  5
142
330
1F
100
AcDbEntity
  8
0
  6
HIDDEN
 62
     7
370
     0
100
AcDbLine
 10
111.4676859702
 20
168.7948350513
 30
0.0
 11
111.4676859702
 21
165.2940151357
 31
0.0
  0
LINE
  5
143
330
1F
100
AcDbEntity
  8
0
  6
HIDDEN
 62
     7
370
     0
100
AcDbLine
 10
195.0176859702
 20
182.7948350513
 30
0.0
 11
195.0176859702
 21
175.7948350513
 31
0.0
  0
LINE
  5
144
330
1F
100
AcDbEntity
  8
0
  6
HIDDEN
 62
     7
370
     0
100
AcDbLine
 10
201.0176859702
 20
175.7948350513
 30
0.0
 11
201.0176859702
 21
182.7948350513
 31
0.0
  0
LINE
  5
145
330
1F
100
AcDbEntity
  8
0
  6
HIDDEN
 62
     7
370
     0
100
AcDbLine
 10
195.0176859702
 20
175.7948350513
 30
0.0
 11
195.5176859702
 21
175.4944047418
 31
0.0
  0
LINE
  5
146
330
1F
100
AcDbEntity
  8
0
  6
HIDDEN
 62
     7
370
     0
100
AcDbLine
 10
200.5176859702
 20
175.4944047418
 30
0.0
 11
201.0176859702
 21
175.7948350513
 31
0.0
  0
LINE
  5
147
330
1F
100
AcDbEntity
  8
0
  6
HIDDEN
 62
     7
370
     0
100
AcDbLine
 10
248.6611292004
 20
146.3348350513
 30
0.0
 11
249.1611292004
 21
145.8348350513
 31
0.0
  0
LINE
  5
148
330
1F
100
AcDbEntity
  8
0
  6
HIDDEN
 62
     7
370
     0
100
AcDbLine
 10
253.3611292004
 20
145.8348350513
 30
0.0
 11
253.8611292004
 21
146.3348350513
 31
0.0
  0
LINE
  5
149
330
1F
100
AcDbEntity
  8
0
  6
HIDDEN
 62
     7
370
     0
100
AcDbLine
 10
208.471124282
 20
167.9628342717
 30
0.0
 11
200.5176859702
 21
170.0939516444
 31
0.0
  0
LINE
  5
14A
330
1F
100
AcDbEntity
  8
0
  6
HIDDEN
 62
     7
370
     0
100
AcDbLine
 10
200.5176859702
 20
164.9175707424
 30
0.0
 11
209.9654167356
 21
162.3860589135
 31
0.0
  0
LINE
  5
14B
330
1F
100
AcDbEntity
  8
0
  6
HIDDEN
 62
     7
370
     0
100
AcDbLine
 10
195.5176859702
 20
175.4944047418
 30
0.0
 11
195.5176859702
 21
155.5448350513
 31
0.0
  0
LINE
  5
14C
330
1F
100
AcDbEntity
  8
0
  6
HIDDEN
 62
     7
370
     0
100
AcDbLine
 10
200.5176859702
 20
170.0939516444
 30
0.0
 11
200.5176859702
 21
175.4944047418
 31
0.0
  0
LINE
  5
14D
330
1F
100
AcDbEntity
  8
0
  6
HIDDEN
 62
     7
370
     0
100
AcDbLine
 10
200.5176859702
 20
155.5432799488
 30
0.0
 11
200.5176859702
 21
164.9175707424
 31
0.0
  0
LINE
  5
14E
330
1F
100
AcDbEntity
  8
0
  6
HIDDEN
 62
     7
370
     0
100
AcDbLine
 10
249.1611292004
 20
145.8348350513
 30
0.0
 11
249.1611292004
 21
134.3348350513
 31
0.0
  0
LINE
  5
14F
330
1F
100
AcDbEntity
  8
0
  6
HIDDEN
 62
     7
370
     0
100
AcDbLine
 10
253.3611292004
 20
134.3348350513
 30
0.0
 11
253.3611292004
 21
145.8348350513
 31
0.0
  0
LINE
  5
150
330
1F
100
AcDbEntity
  8
0
  6
HIDDEN
 62
     7
370
     0
100
AcDbLine
 10
249.1611292004
 20
134.3348350513
 30
0.0
 11
251.2611292004
 21
133.0730277514
 31
0.0
  0
LINE
  5
151
330
1F
100
AcDbEntity
  8
0
  6
HIDDEN
 62
     7
370
     0
100
AcDbLine
 10
251.2611292004
 20
133.0730277514
 30
0.0
 11
253.3611292004
 21
134.3348350513
 31
0.0
  0
LINE
  5
152
330
1F
100
AcDbEntity
  8
0
  6
HIDDEN
 62
     7
370
     0
100
AcDbLine
 10
241.0585646007
 20
146.1948350513
 30
0.0
 11
243.1585646007
 21
144.9330277514
 31
0.0
  0
LINE
  5
153
330
1F
100
AcDbEntity
  8
0
  6
HIDDEN
 62
     7
370
     0
100
AcDbLine
 10
243.1585646007
 20
144.9330277514
 30
0.0
 11
245.2585646007
 21
146.1948350513
 31
0.0
  0
LINE
  5
154
330
1F
100
AcDbEntity
  8
0
  6
HIDDEN
 62
     7
370
     0
100
AcDbLine
 10
241.0585646007
 20
150.9948350513
 30
0.0
 11
241.0585646007
 21
146.1948350513
 31
0.0
  0
LINE
  5
155
330
1F
100
AcDbEntity
  8
0
  6
HIDDEN
 62
     7
370
     0
100
AcDbLine
 10
245.2585646007
 20
146.1948350513
 30
0.0
 11
245.2585646007
 21
146.3348350513
 31
0.0
  0
LINE
  5
156
330
1F
100
AcDbEntity
  8
0
  6
HIDDEN
 62
     7
370
     0
100
AcDbLine
 10
141.0176859702
 20
120.2948350513
 30
0.0
 11
141.0176859702
 21
119.7948350513
 31
0.0
  0
LINE
  5
157
330
1F
100
AcDbEntity
  8
0
  6
HIDDEN
 62
     7
370
     0
100
AcDbLine
 10
145.0176859702
 20
119.7948350513
 30
0.0
 11
145.0176859702
 21
120.2948350513
 31
0.0
  0
LINE
  5
158
330
1F
100
AcDbEntity
  8
0
  6
HIDDEN
 62
     7
370
     0
100
AcDbLine
 10
145.0176859702
 20
120.2948350513
 30
0.0
 11
143.0176859702
 21
121.4965562894
 31
0.0
  0
LINE
  5
159
330
1F
100
AcDbEntity
  8
0
  6
HIDDEN
 62
     7
370
     0
100
AcDbLine
 10
143.0176859702
 20
121.4965562894
 30
0.0
 11
141.0176859702
 21
120.2948350513
 31
0.0
  0
LINE
  5
15A
330
1F
100
AcDbEntity
  8
0
  6
HIDDEN
 62
     7
370
     0
100
AcDbLine
 10
201.0176859702
 20
179.2348350513
 30
0.0
 11
200.8176859702
 21
179.4145730277
 31
0.0
  0
LINE
  5
15B
330
1F
100
AcDbEntity
  8
0
  6
HIDDEN
 62
     7
370
     0
100
AcDbLine
 10
195.2176859702
 20
179.4145730277
 30
0.0
 11
195.0176859702
 21
179.2348350513
 31
0.0
  0
LINE
  5
15C
330
1F
100
AcDbEntity
  8
0
  6
HIDDEN
 62
     7
370
     0
100
AcDbLine
 10
201.0176859702
 20
181.8548350513
 30
0.0
 11
200.8776859702
 21
181.9948350513
 31
0.0
  0
LINE
  5
15D
330
1F
100
AcDbEntity
  8
0
  6
HIDDEN
 62
     7
370
     0
100
AcDbLine
 10
195.1576859702
 20
181.9948350513
 30
0.0
 11
195.0176859702
 21
181.8548350513
 31
0.0
  0
LINE
  5
15E
330
1F
100
AcDbEntity
  8
0
  6
HIDDEN
 62
     7
370
     0
100
AcDbLine
 10
195.0176859702
 20
179.9248350513
 30
0.0
 11
195.2176859702
 21
179.4145730277
 31
0.0
  0
LINE
  5
15F
330
1F
100
AcDbEntity
  8
0
  6
HIDDEN
 62
     7
370
     0
100
AcDbLine
 10
200.8176859702
 20
179.4145730277
 30
0.0
 11
201.0176859702
 21
179.9248350513
 31
0.0
  0
LINE
  5
160
330
1F
100
AcDbEntity
  8
0
  6
HIDDEN
 62
     7
370
     0
100
AcDbLine
 10
201.0176859702
 20
179.9248350513
 30
0.0
 11
200.8176859702
 21
180.1045730277
 31
0.0
  0
LINE
  5
161
330
1F
100
AcDbEntity
  8
0
  6
HIDDEN
 62
     7
370
     0
100
AcDbLine
 10
195.2176859702
 20
180.1045730277
 30
0.0
 11
195.0176859702
 21
179.9248350513
 31
0.0
  0
LINE
  5
162
330
1F
100
AcDbEntity
  8
0
  6
HIDDEN
 62
     7
370
     0
100
AcDbLine
 10
201.0176859702
 20
181.3048350513
 30
0.0
 11
201.0176859702
 21
181.8548350513
 31
0.0
  0
LINE
  5
163
330
1F
100
AcDbEntity
  8
0
  6
HIDDEN
 62
     7
370
     0
100
AcDbLine
 10
195.0176859702
 20
181.8548350513
 30
0.0
 11
195.0176859702
 21
181.3048350513
 31
0.0
  0
LINE
  5
164
330
1F
100
AcDbEntity
  8
0
  6
HIDDEN
 62
     7
370
     0
100
AcDbLine
 10
195.0176859702
 20
179.2348350513
 30
0.0
 11
195.2176859702
 21
178.7245730277
 31
0.0
  0
LINE
  5
165
330
1F
100
AcDbEntity
  8
0
  6
HIDDEN
 62
     7
370
     0
100
AcDbLine
 10
200.8176859702
 20
178.7245730277
 30
0.0
 11
201.0176859702
 21
179.2348350513
 31
0.0
  0
LINE
  5
166
330
1F
100
AcDbEntity
  8
0
  6
HIDDEN
 62
     7
370
     0
100
AcDbLine
 10
195.0176859702
 20
181.3048350513
 30
0.0
 11
195.2176859702
 21
180.7945730277
 31
0.0
  0
LINE
  5
167
330
1F
100
AcDbEntity
  8
0
  6
HIDDEN
 62
     7
370
     0
100
AcDbLine
 10
200.8176859702
 20
180.7945730277
 30
0.0
 11
201.0176859702
 21
181.3048350513
 31
0.0
  0
LINE
  5
168
330
1F
100
AcDbEntity
  8
0
  6
HIDDEN
 62
     7
370
     0
100
AcDbLine
 10
201.0176859702
 20
180.6148350513
 30
0.0
 11
200.8176859702
 21
180.7945730277
 31
0.0
  0
LINE
  5
169
330
1F
100
AcDbEntity
  8
0
  6
HIDDEN
 62
     7
370
     0
100
AcDbLine
 10
195.2176859702
 20
180.7945730277
 30
0.0
 11
195.0176859702
 21
180.6148350513
 31
0.0
  0
LINE
  5
16A
330
1F
100
AcDbEntity
  8
0
  6
HIDDEN
 62
     7
370
     0
100
AcDbLine
 10
195.0176859702
 20
180.6148350513
 30
0.0
 11
195.2176859702
 21
180.1045730277
 31
0.0
  0
LINE
  5
16B
330
1F
100
AcDbEntity
  8
0
  6
HIDDEN
 62
     7
370
     0
100
AcDbLine
 10
200.8176859702
 20
180.1045730277
 30
0.0
 11
201.0176859702
 21
180.6148350513
 31
0.0
  0
LINE
  5
16C
330
1F
100
AcDbEntity
  8
0
  6
HIDDEN
 62
     7
370
     0
100
AcDbLine
 10
201.0176859702
 20
178.5448350513
 30
0.0
 11
200.8176859702
 21
178.7245730277
 31
0.0
  0
LINE
  5
16D
330
1F
100
AcDbEntity
  8
0
  6
HIDDEN
 62
     7
370
     0
100
AcDbLine
 10
195.2176859702
 20
178.7245730277
 30
0.0
 11
195.0176859702
 21
178.5448350513
 31
0.0
  0
LINE
  5
16E
330
1F
100
AcDbEntity
  8
0
  6
HIDDEN
 62
     7
370
     0
100
AcDbLine
 10
201.0176859702
 20
175.7948350513
 30
0.0
 11
201.0176859702
 21
178.5448350513
 31
0.0
  0
LINE
  5
16F
330
1F
100
AcDbEntity
  8
0
  6
HIDDEN
 62
     7
370
     0
100
AcDbLine
 10
195.0176859702
 20
178.5448350513
 30
0.0
 11
195.0176859702
 21
175.7948350513
 31
0.0
  0
LINE
  5
170
330
1F
100
AcDbEntity
  8
0
  6
HIDDEN
 62
     7
370
     0
100
AcDbLine
 10
195.0176859702
 20
175.7948350513
 30
0.0
 11
195.5373012125
 21
175.4948350513
 31
0.0
  0
LINE
  5
171
330
1F
100
AcDbEntity
  8
0
  6
HIDDEN
 62
     7
370
     0
100
AcDbLine
 10
200.498070728
 20
175.4948350513
 30
0.0
 11
201.0176859702
 21
175.7948350513
 31
0.0
  0
LINE
  5
172
330
1F
100
AcDbEntity
  8
0
  6
HIDDEN
 62
     7
370
     0
100
AcDbLine
 10
200.5176859702
 20
177.1382107243
 30
0.0
 11
200.5176859702
 21
181.9948350513
 31
0.0
  0
LINE
  5
173
330
1F
100
AcDbEntity
  8
0
  6
HIDDEN
 62
     7
370
     0
100
AcDbLine
 10
195.5176859702
 20
181.9948350513
 30
0.0
 11
195.5176859702
 21
177.1382107243
 31
0.0
  0
LINE
  5
174
330
1F
100
AcDbEntity
  8
0
  6
HIDDEN
 62
     7
370
     0
100
AcDbLine
 10
195.5176859702
 20
177.1382107243
 30
0.0
 11
198.0176859702
 21
175.6948350513
 31
0.0
  0
LINE
  5
175
330
1F
100
AcDbEntity
  8
0
  6
HIDDEN
 62
     7
370
     0
100
AcDbLine
 10
198.0176859702
 20
175.6948350513
 30
0.0
 11
200.5176859702
 21
177.1382107243
 31
0.0
  0
CIRCLE
  5
176
330
1F
100
AcDbEntity
  8
0
  6
HIDDEN
 62
     7
370
     0
100
AcDbCircle
 10
198.0176859702
 20
178.5948350513
 30
0.0
 40
2.5
  0
LINE
  5
177
330
1F
100
AcDbEntity
  8
0
  6
HIDDEN
 62
     7
370
     0
100
AcDbLine
 10
247.7611292004
 20
150.3948350513
 30
0.0
 11
248.7810362881
 21
148.6283041565
 31
0.0
  0
LINE
  5
178
330
1F
100
AcDbEntity
  8
0
  6
HIDDEN
 62
     7
370
     0
100
AcDbLine
 10
253.7412221128
 20
148.6283041565
 30
0.0
 11
254.7611292004
 21
150.3948350513
 31
0.0
  0
LINE
  5
179
330
1F
100
AcDbEntity
  8
0
  6
HIDDEN
 62
     7
370
     0
100
AcDbLine
 10
247.7611292004
 20
150.5948350513
 30
0.0
 11
247.7611292004
 21
150.3948350513
 31
0.0
  0
LINE
  5
17A
330
1F
100
AcDbEntity
  8
0
  6
HIDDEN
 62
     7
370
     0
100
AcDbLine
 10
254.7611292004
 20
150.3948350513
 30
0.0
 11
254.7611292004
 21
150.5948350513
 31
0.0
  0
LINE
  5
17B
330
1F
100
AcDbEntity
  8
0
  6
HIDDEN
 62
     7
370
     0
100
AcDbLine
 10
254.7611292004
 20
150.5948350513
 30
0.0
 11
253.8951037966
 21
151.0948350513
 31
0.0
  0
LINE
  5
17C
330
1F
100
AcDbEntity
  8
0
  6
HIDDEN
 62
     7
370
     0
100
AcDbLine
 10
248.6271546042
 20
151.0948350513
 30
0.0
 11
247.7611292004
 21
150.5948350513
 31
0.0
  0
LINE
  5
17D
330
1F
100
AcDbEntity
  8
0
  6
HIDDEN
 62
     7
370
     0
100
AcDbLine
 10
248.7611292004
 20
147.0948350513
 30
0.0
 11
248.7611292004
 21
141.7948350513
 31
0.0
  0
LINE
  5
17E
330
1F
100
AcDbEntity
  8
0
  6
HIDDEN
 62
     7
370
     0
100
AcDbLine
 10
253.7611292004
 20
141.7948350513
 30
0.0
 11
253.7611292004
 21
147.0948350513
 31
0.0
  0
LINE
  5
17F
330
1F
100
AcDbEntity
  8
0
  6
HIDDEN
 62
     7
370
     0
100
AcDbLine
 10
248.7611292004
 20
141.7948350513
 30
0.0
 11
249.6611292004
 21
140.8948350513
 31
0.0
  0
LINE
  5
180
330
1F
100
AcDbEntity
  8
0
  6
HIDDEN
 62
     7
370
     0
100
AcDbLine
 10
252.8611292004
 20
140.8948350513
 30
0.0
 11
253.7611292004
 21
141.7948350513
 31
0.0
  0
ARC
  5
181
330
1F
100
AcDbEntity
  8
0
  6
HIDDEN
 62
     7
370
     0
100
AcDbCircle
 10
247.4819981824
 20
147.8783041565
 30
0.0
 40
1.5
100
AcDbArc
 50
328.5124864464
 51
30.0
  0
ARC
  5
182
330
1F
100
AcDbEntity
  8
0
  6
HIDDEN
 62
     7
370
     0
100
AcDbCircle
 10
255.0402602184
 20
147.8783041565
 30
0.0
 40
1.500000000000019
100
AcDbArc
 50
150.0
 51
211.4875135536
  0
LINE
  5
183
330
1F
100
AcDbEntity
  8
0
  6
HIDDEN
 62
     7
370
     0
100
AcDbLine
 10
249.2611292004
 20
151.0948350513
 30
0.0
 11
249.2910538466
 21
151.0895585288
 31
0.0
  0
LINE
  5
184
330
1F
100
AcDbEntity
  8
0
  6
HIDDEN
 62
     7
370
     0
100
AcDbLine
 10
253.2256002101
 20
151.0885703317
 30
0.0
 11
253.2611292004
 21
151.0948350513
 31
0.0
  0
LINE
  5
185
330
1F
100
AcDbEntity
  8
0
  6
HIDDEN
 62
     7
370
     0
100
AcDbLine
 10
252.4170181957
 20
149.3948350513
 30
0.0
 11
252.4170181957
 21
151.0597010586
 31
0.0
  0
LINE
  5
186
330
1F
100
AcDbEntity
  8
0
  6
HIDDEN
 62
     7
370
     0
100
AcDbLine
 10
250.050731112
 20
151.0622739528
 30
0.0
 11
250.050731112
 21
149.3948350513
 31
0.0
  0
LINE
  5
187
330
1F
100
AcDbEntity
  8
0
  6
HIDDEN
 62
     7
370
     0
100
AcDbLine
 10
252.3764832111
 20
151.0178394039
 30
0.0
 11
252.3764832111
 21
149.3948350513
 31
0.0
  0
LINE
  5
188
330
1F
100
AcDbEntity
  8
0
  6
HIDDEN
 62
     7
370
     0
100
AcDbLine
 10
250.1025464686
 20
149.3948350513
 30
0.0
 11
250.1025464686
 21
151.0147817473
 31
0.0
  0
LINE
  5
189
330
1F
100
AcDbEntity
  8
0
  6
HIDDEN
 62
     7
370
     0
100
AcDbLine
 10
253.2308450663
 20
149.3948350513
 30
0.0
 11
253.2308450663
 21
151.0895452419
 31
0.0
  0
LINE
  5
18A
330
1F
100
AcDbEntity
  8
0
  6
HIDDEN
 62
     7
370
     0
100
AcDbLine
 10
249.2862708988
 20
151.0904427816
 30
0.0
 11
249.2862708988
 21
149.3948350513
 31
0.0
  0
LINE
  5
18B
330
1F
100
AcDbEntity
  8
0
  6
HIDDEN
 62
     7
370
     0
100
AcDbLine
 10
252.4145694964
 20
151.0138606387
 30
0.0
 11
252.4145694964
 21
149.3948350513
 31
0.0
  0
LINE
  5
18C
330
1F
100
AcDbEntity
  8
0
  6
HIDDEN
 62
     7
370
     0
100
AcDbLine
 10
250.140632754
 20
149.3948350513
 30
0.0
 11
250.140632754
 21
151.0177007793
 31
0.0
  0
LINE
  5
18D
330
1F
100
AcDbEntity
  8
0
  6
HIDDEN
 62
     7
370
     0
100
AcDbLine
 10
252.4663848531
 20
149.3948350513
 30
0.0
 11
252.4663848531
 21
151.0612958406
 31
0.0
  0
LINE
  5
18E
330
1F
100
AcDbEntity
  8
0
  6
HIDDEN
 62
     7
370
     0
100
AcDbLine
 10
250.1000977694
 20
151.0598987844
 30
0.0
 11
250.1000977694
 21
149.3948350513
 31
0.0
  0
SPLINE
  5
18F
330
1F
100
AcDbEntity
  8
0
  6
HIDDEN
 62
     7
370
     0
100
AcDbSpline
210
0.0
220
0.0
230
1.0
 70
     8
 71
     3
 72
    10
 73
     6
 74
     0
 42
0.00000001
 43
0.00000001
 12
1.0
 22
0.0
 32
0.0
 13
1.0
 23
0.0
 33
0.0
 40
0.0
 40
0.0
 40
0.0
 40
0.0
 40
0.4040402619455328
 40
0.8809053275649711
 40
0.9999999999999999
 40
0.9999999999999999
 40
0.9999999999999999
 40
0.9999999999999999
 10
250.0826595536501
 20
150.6159423679077
 30
0.0
 10
250.2375356549159
 20
150.6088715294305
 30
0.0
 10
250.5752029508941
 20
150.5934553942785
 30
0.0
 10
251.0215966690437
 20
150.5292121890002
 30
0.0
 10
251.3013877373656
 20
150.4607710168473
 30
0.0
 10
251.3573002822984
 20
150.4470939536866
 30
0.0
  0
SPLINE
  5
190
330
1F
100
AcDbEntity
  8
0
  6
HIDDEN
 62
     7
370
     0
100
AcDbSpline
210
0.0
220
0.0
230
1.0
 70
     8
 71
     3
 72
    10
 73
     6
 74
     0
 42
0.00000001
 43
0.00000001
 12
1.0
 22
0.0
 32
0.0
 13
1.0
 23
0.0
 33
0.0
 40
0.0
 40
0.0
 40
0.0
 40
0.0
 40
0.2755729330042535
 40
0.745149223897541
 40
0.9999999999999999
 40
0.9999999999999999
 40
0.9999999999999999
 40
0.9999999999999999
 10
251.3652917814403
 20
150.4436092449947
 30
0.0
 10
251.4934380852275
 20
150.4730630467367
 30
0.0
 10
251.8399456967385
 20
150.5527061280421
 30
0.0
 10
252.2782041359129
 20
150.6076855537513
 30
0.0
 10
252.5391097416343
 20
150.6098882611244
 30
0.0
 10
252.6308953735314
 20
150.6106631654717
 30
0.0
  0
LINE
  5
191
330
1F
100
AcDbEntity
  8
0
  6
HIDDEN
 62
     7
370
     0
100
AcDbLine
 10
244.8477176313
 20
150.6257751592
 30
0.0
 11
250.075553981
 21
150.6257751592
 31
0.0
  0
LINE
  5
192
330
1F
100
AcDbEntity
  8
0
  6
HIDDEN
 62
     7
370
     0
100
AcDbLine
 10
252.6467044198
 20
150.6257751592
 30
0.0
 11
257.8272647632
 21
150.6257751592
 31
0.0
  0
ARC
  5
193
330
1F
100
AcDbEntity
  8
0
  6
HIDDEN
 62
     7
370
     0
100
AcDbCircle
 10
247.7611292004
 20
149.9448350515
 30
0.0
 40
0.199999999999995
100
AcDbArc
 50
180.0
 51
249.8944902121
  0
ARC
  5
194
330
1F
100
AcDbEntity
  8
0
  6
HIDDEN
 62
     7
370
     0
100
AcDbCircle
 10
254.9611292004
 20
149.9448350515
 30
0.0
 40
0.2000000000000455
100
AcDbArc
 50
290.1055097879
 51
0.0
  0
LINE
  5
195
330
1F
100
AcDbEntity
  8
0
  6
HIDDEN
 62
     7
370
     0
100
AcDbLine
 10
247.5611292004
 20
151.0948350513
 30
0.0
 11
247.5611292004
 21
149.9448350515
 31
0.0
  0
LINE
  5
196
330
1F
100
AcDbEntity
  8
0
  6
HIDDEN
 62
     7
370
     0
100
AcDbLine
 10
255.1611292004
 20
149.9448350515
 30
0.0
 11
255.1611292004
 21
151.0948350513
 31
0.0
  0
ARC
  5
197
330
1F
100
AcDbEntity
  8
0
  6
HIDDEN
 62
     7
370
     0
100
AcDbCircle
 10
247.2111292004
 20
148.4423371313
 30
0.0
 40
1.400000000000006
100
AcDbArc
 50
0.0
 51
69.8944902121
  0
ARC
  5
198
330
1F
100
AcDbEntity
  8
0
  6
HIDDEN
 62
     7
370
     0
100
AcDbCircle
 10
255.5111292004
 20
148.4423371313
 30
0.0
 40
1.400000000000021
100
AcDbArc
 50
110.1055097879
 51
180.0
  0
LINE
  5
199
330
1F
100
AcDbEntity
  8
0
  6
HIDDEN
 62
     7
370
     0
100
AcDbLine
 10
248.6111292004
 20
148.4423371313
 30
0.0
 11
248.6111292004
 21
146.3348350513
 31
0.0
  0
LINE
  5
19A
330
1F
100
AcDbEntity
  8
0
  6
HIDDEN
 62
     7
370
     0
100
AcDbLine
 10
254.1111292004
 20
146.3348350513
 30
0.0
 11
254.1111292004
 21
148.4423371313
 31
0.0
  0
SPLINE
  5
19B
330
1F
100
AcDbEntity
  8
0
  6
HIDDEN
 62
     7
370
     0
100
AcDbSpline
210
0.0
220
0.0
230
1.0
 70
     8
 71
     3
 72
    10
 73
     6
 74
     0
 42
0.00000001
 43
0.00000001
 12
1.0
 22
0.0
 32
0.0
 13
1.0
 23
0.0
 33
0.0
 40
0.0
 40
0.0
 40
0.0
 40
0.0
 40
0.3754786052637977
 40
0.8138319829636399
 40
1.0
 40
1.0
 40
1.0
 40
1.0
 10
244.0988691212462
 20
150.4566794657636
 30
0.0
 10
244.1575268331821
 20
150.4848654410458
 30
0.0
 10
244.2846646283897
 20
150.5459571992289
 30
0.0
 10
244.5816599060973
 20
150.6130237895164
 30
0.0
 10
244.8434799104565
 20
150.6093722749802
 30
0.0
 10
244.9215276946363
 20
150.6082837690842
 30
0.0
  0
SPLINE
  5
19C
330
1F
100
AcDbEntity
  8
0
  6
HIDDEN
 62
     7
370
     0
100
AcDbSpline
210
0.0
220
0.0
230
1.0
 70
     8
 71
     3
 72
    11
 73
     7
 74
     0
 42
0.00000001
 43
0.00000001
 12
1.0
 22
0.0
 32
0.0
 13
1.0
 23
0.0
 33
0.0
 40
0.0
 40
0.0
 40
0.0
 40
0.0
 40
0.0688216935023673
 40
0.4679482238519629
 40
0.8858165546437706
 40
1.0
 40
1.0
 40
1.0
 40
1.0
 10
257.8122773482305
 20
150.6164717361478
 30
0.0
 10
257.8408361646764
 20
150.616644570634
 30
0.0
 10
258.0350198115925
 20
150.6178197464647
 30
0.0
 10
258.3155319808781
 20
150.5757082737519
 30
0.0
 10
258.5570717426409
 20
150.5029363992362
 30
0.0
 10
258.6088995530715
 20
150.4668774565192
 30
0.0
 10
258.6200223013181
 20
150.4591388594504
 30
0.0
  0
LINE
  5
19D
330
1F
100
AcDbEntity
  8
0
  6
HIDDEN
 62
     7
370
     0
100
AcDbLine
 10
245.180568857
 20
151.0948350515
 30
0.0
 11
244.0956831929
 21
150.4684760213
 31
0.0
  0
LINE
  5
19E
330
1F
100
AcDbEntity
  8
0
  6
HIDDEN
 62
     7
370
     0
100
AcDbLine
 10
258.626575208
 20
150.4684760213
 30
0.0
 11
257.5416895439
 21
151.0948350515
 31
0.0
  0
LINE
  5
19F
330
1F
100
AcDbEntity
  8
0
  6
HIDDEN
 62
     7
370
     0
100
AcDbLine
 10
244.804548449
 20
150.6078819867
 30
0.0
 11
244.9183723923
 21
150.611390045
 31
0.0
  0
LINE
  5
1A0
330
1F
100
AcDbEntity
  8
0
  6
HIDDEN
 62
     7
370
     0
100
AcDbLine
 10
258.569104728
 20
150.4868140725
 30
0.0
 11
258.6192494821
 21
150.4588620918
 31
0.0
  0
LINE
  5
1A1
330
1F
100
AcDbEntity
  8
0
  6
HIDDEN
 62
     7
370
     0
100
AcDbLine
 10
241.7168508867
 20
150.9948350513
 30
0.0
 11
242.1045724306
 21
147.8370964801
 31
0.0
  0
LINE
  5
1A2
330
1F
100
AcDbEntity
  8
0
  6
HIDDEN
 62
     7
370
     0
100
AcDbLine
 10
241.7245724306
 20
151.0948350515
 30
0.0
 11
242.1045724306
 21
150.8754419492
 31
0.0
  0
LINE
  5
1A3
330
1F
100
AcDbEntity
  8
0
  6
HIDDEN
 62
     7
370
     0
100
AcDbLine
 10
260.6176859702
 20
150.8754419492
 30
0.0
 11
260.9976859702
 21
151.0948350515
 31
0.0
  0
LINE
  5
1A4
330
1F
100
AcDbEntity
  8
0
  6
HIDDEN
 62
     7
370
     0
100
AcDbLine
 10
252.5994284135
 20
150.6257751592
 30
0.0
 11
252.6467044198
 21
150.6257751592
 31
0.0
  0
LINE
  5
1A5
330
1F
100
AcDbEntity
  8
VERMASSUNG
100
AcDbLine
 10
261.0176859702
 20
151.2948350513
 30
0.0
 11
261.0176859702
 21
160.780581163
 31
0.0
  0
LINE
  5
1A6
330
1F
100
AcDbEntity
  8
VERMASSUNG
  6
CENTERX2
100
AcDbLine
 10
90.3141516276
 20
151.2948350513
 30
0.0
 11
264.2287616615
 21
151.2948350513
 31
0.0
  0
DIMENSION
  5
1A7
330
1F
100
AcDbEntity
  8
VERMASSUNG
100
AcDbDimension
  2
_D
 10
131.0176859702
 20
192.7948350513
 30
0.0
 11
196.0176859702
 21
192.7948350513
 31
0.0
 70
   160
  1
<>
 71
     2
 42
-1.0
  3
SLDDIMSTYLE0
100
AcDbAlignedDimension
 13
261.0176859702
 23
160.780581163
 33
0.0
 14
131.0176859702
 24
182.2948350513
 34
0.0
100
AcDbRotatedDimension
  0
DIMENSION
  5
1B4
330
1F
100
AcDbEntity
  8
VERMASSUNG
100
AcDbDimension
  2
_D_1
 10
261.0176859702
 20
198.7948350513
 30
0.0
 11
177.0176859702
 21
198.7948350513
 31
0.0
 70
   160
  1
<>
 71
     2
 42
-1.0
  3
SLDDIMSTYLE1
100
AcDbAlignedDimension
 13
93.0176859702
 23
171.4809508203
 33
0.0
 14
261.0176859702
 24
160.780581163
 34
0.0
100
AcDbRotatedDimension
  0
LINE
  5
1BF
330
1F
100
AcDbEntity
  8
0
  6
Continuous
 62
     7
370
    15
100
AcDbLine
 10
215.7605523395
 20
107.5635853864
 30
0.0
 11
131.5176859702
 21
107.5635853864
 31
0.0
  0
LINE
  5
1C0
330
1F
100
AcDbEntity
  8
0
  6
Continuous
 62
     7
370
    15
100
AcDbLine
 10
131.5176859702
 20
44.5635853864
 30
0.0
 11
215.7841016893
 21
44.5635853864
 31
0.0
  0
ARC
  5
1C1
330
1F
100
AcDbEntity
  8
0
  6
Continuous
 62
     7
370
    15
100
AcDbCircle
 10
131.5176859702
 20
45.0635853864
 30
0.0
 40
0.5
100
AcDbArc
 50
180.0
 51
270.0
  0
ARC
  5
1C2
330
1F
100
AcDbEntity
  8
0
  6
Continuous
 62
     7
370
    15
100
AcDbCircle
 10
131.5176859702
 20
107.0635853864
 30
0.0
 40
0.5
100
AcDbArc
 50
90.0
 51
180.0
  0
LWPOLYLINE
  5
1C3
330
1F
100
AcDbEntity
  8
0
  6
Continuous
 62
     7
370
    15
100
AcDbPolyline
 90
        3
 70
   128
 43
0.0
 10
130.8176859702
 20
53.5237651075
 10
130.9431409137
 20
53.4554629925
 10
131.0176859702
 20
53.4027252344
  0
LWPOLYLINE
  5
1C4
330
1F
100
AcDbEntity
  8
0
  6
Continuous
 62
     7
370
    15
100
AcDbPolyline
 90
        3
 70
   128
 43
0.0
 10
131.0176859702
 20
98.7244455383
 10
130.9431409137
 20
98.6717077802
 10
130.8176859702
 20
98.6034056652
  0
SPLINE
  5
1C5
330
1F
100
AcDbEntity
  8
0
  6
Continuous
 62
     7
370
    15
100
AcDbSpline
210
0.0
220
0.0
230
1.0
 70
     8
 71
     3
 72
    12
 73
     8
 74
     0
 42
0.00000001
 43
0.00000001
 12
1.0
 22
0.0
 32
0.0
 13
1.0
 23
0.0
 33
0.0
 40
0.0
 40
0.0
 40
0.0
 40
0.0
 40
0.5
 40
0.5
 40
0.75
 40
0.75
 40
1.0
 40
1.0
 40
1.0
 40
1.0
 10
141.1124300819121
 20
85.97295470704726
 30
0.0
 10
141.1431523238312
 20
85.86039890763809
 30
0.0
 10
141.1859895383663
 20
85.74764104789848
 30
0.0
 10
141.2854165625661
 20
85.59810016210213
 30
0.0
 10
141.3251687573828
 20
85.55080743039528
 30
0.0
 10
141.423210214241
 20
85.47707113707382
 30
0.0
 10
141.4827662698285
 20
85.45165181769812
 30
0.0
 10
141.5454427838043
 20
85.45165181769812
 30
0.0
  0
LINE
  5
1C6
330
1F
100
AcDbEntity
  8
0
  6
Continuous
 62
     7
370
    15
100
AcDbLine
 10
141.5454427838
 20
85.4516518177
 30
0.0
 11
144.4899291567
 21
85.4516518177
 31
0.0
  0
SPLINE
  5
1C7
330
1F
100
AcDbEntity
  8
0
  6
Continuous
 62
     7
370
    15
100
AcDbSpline
210
0.0
220
0.0
230
1.0
 70
     8
 71
     3
 72
    12
 73
     8
 74
     0
 42
0.00000001
 43
0.00000001
 12
1.0
 22
0.0
 32
0.0
 13
1.0
 23
0.0
 33
0.0
 40
0.0
 40
0.0
 40
0.0
 40
0.0
 40
0.2500000000000009
 40
0.2500000000000009
 40
0.5000000000000019
 40
0.5000000000000019
 40
1.0
 40
1.0
 40
1.0
 40
1.0
 10
144.4899291566714
 20
85.4516518176981
 30
0.0
 10
144.5530091951648
 20
85.4516518176981
 30
0.0
 10
144.6121578173462
 20
85.47701613691304
 30
0.0
 10
144.7106303674153
 20
85.55118099728595
 30
0.0
 10
144.7496669794
 20
85.5977013378401
 30
0.0
 10
144.849563446179
 20
85.74784368068534
 30
0.0
 10
144.8919843272456
 20
85.85953688765748
 30
0.0
 10
144.9229418585636
 20
85.97295470704725
 30
0.0
  0
ELLIPSE
  5
1C8
330
1F
100
AcDbEntity
  8
0
  6
Continuous
 62
     7
370
    15
100
AcDbEllipse
 10
128.6705317809
 20
76.0635853864
 30
0.0
 11
14.75368316065604
 21
31.09325491558115
 31
0.0
210
0.0
220
0.0
230
1.0
 40
0.3419987131
 41
5.193281737408621
 42
6.124043104552324
  0
SPLINE
  5
1C9
330
1F
100
AcDbEntity
  8
0
  6
Continuous
 62
     7
370
    15
100
AcDbSpline
210
0.0
220
0.0
230
1.0
 70
     8
 71
     3
 72
    12
 73
     8
 74
     0
 42
0.00000001
 43
0.00000001
 12
1.0
 22
0.0
 32
0.0
 13
1.0
 23
0.0
 33
0.0
 40
0.0
 40
0.0
 40
0.0
 40
0.0
 40
0.5000000000000047
 40
0.5000000000000047
 40
0.7500000000000023
 40
0.7500000000000023
 40
1.0
 40
1.0
 40
1.0
 40
1.0
 10
144.9229418585636
 20
105.9643278464794
 30
0.0
 10
144.8922196166445
 20
106.0016298294324
 30
0.0
 10
144.8493824021094
 20
106.0382416614788
 30
0.0
 10
144.7499553779096
 20
106.086006444764
 30
0.0
 10
144.7102031830929
 20
106.1009639602464
 30
0.0
 10
144.6121617262347
 20
106.1241539060155
 30
0.0
 10
144.5526056706472
 20
106.1320773452352
 30
0.0
 10
144.4899291566714
 20
106.1320773452352
 30
0.0
  0
LINE
  5
1CA
330
1F
100
AcDbEntity
  8
0
  6
Continuous
 62
     7
370
    15
100
AcDbLine
 10
144.4899291567
 20
106.1320773452
 30
0.0
 11
141.5454427838
 21
106.1320773452
 31
0.0
  0
SPLINE
  5
1CB
330
1F
100
AcDbEntity
  8
0
  6
Continuous
 62
     7
370
    15
100
AcDbSpline
210
0.0
220
0.0
230
1.0
 70
     8
 71
     3
 72
    12
 73
     8
 74
     0
 42
0.00000001
 43
0.00000001
 12
1.0
 22
0.0
 32
0.0
 13
1.0
 23
0.0
 33
0.0
 40
0.0
 40
0.0
 40
0.0
 40
0.0
 40
0.2500000000000004
 40
0.2500000000000004
 40
0.5000000000000009
 40
0.5000000000000009
 40
1.0
 40
1.0
 40
1.0
 40
1.0
 10
141.5454427838043
 20
106.1320773452352
 30
0.0
 10
141.482362745311
 20
106.1320773452352
 30
0.0
 10
141.4232141231295
 20
106.1241714190228
 30
0.0
 10
141.3247415730605
 20
106.1008462575866
 30
0.0
 10
141.2857049610757
 20
106.0861334677549
 30
0.0
 10
141.1858084942967
 20
106.0381776670239
 30
0.0
 10
141.1433876132301
 20
106.0019155104439
 30
0.0
 10
141.1124300819121
 20
105.9643278464794
 30
0.0
  0
ELLIPSE
  5
1CC
330
1F
100
AcDbEntity
  8
0
  6
Continuous
 62
     7
370
    15
100
AcDbEllipse
 10
157.3648401596
 20
76.0635853864
 30
0.0
 11
-14.75368316065607
 21
31.09325491558116
 31
0.0
210
0.0
220
0.0
230
1.0
 40
0.3419987131
 41
0.1591422026273038
 42
1.089903569770978
  0
SPLINE
  5
1CD
330
1F
100
AcDbEntity
  8
0
  6
Continuous
 62
     7
370
    15
100
AcDbSpline
210
0.0
220
0.0
230
1.0
 70
     8
 71
     3
 72
    12
 73
     8
 74
     0
 42
0.00000001
 43
0.00000001
 12
1.0
 22
0.0
 32
0.0
 13
1.0
 23
0.0
 33
0.0
 40
0.0
 40
0.0
 40
0.0
 40
0.0
 40
0.500000000000001
 40
0.500000000000001
 40
0.7500000000000004
 40
0.7500000000000004
 40
1.0
 40
1.0
 40
1.0
 40
1.0
 10
141.1124300819121
 20
46.16284292624496
 30
0.0
 10
141.1435752798742
 20
46.12502740332478
 30
0.0
 10
141.1858495462086
 20
46.08896054524116
 30
0.0
 10
141.2857950800339
 20
46.04100048022988
 30
0.0
 10
141.325525384738
 20
46.02613950633223
 30
0.0
 10
141.4224134347442
 20
46.00318836020111
 30
0.0
 10
141.4824786764907
 20
45.99509342748907
 30
0.0
 10
141.5454427838043
 20
45.99509342748907
 30
0.0
  0
LINE
  5
1CE
330
1F
100
AcDbEntity
  8
0
  6
Continuous
 62
     7
370
    15
100
AcDbLine
 10
141.5454427838
 20
45.9950934275
 30
0.0
 11
144.4899291567
 21
45.9950934275
 31
0.0
  0
SPLINE
  5
1CF
330
1F
100
AcDbEntity
  8
0
  6
Continuous
 62
     7
370
    15
100
AcDbSpline
210
0.0
220
0.0
230
1.0
 70
     8
 71
     3
 72
    12
 73
     8
 74
     0
 42
0.00000001
 43
0.00000001
 12
1.0
 22
0.0
 32
0.0
 13
1.0
 23
0.0
 33
0.0
 40
0.0
 40
0.0
 40
0.0
 40
0.0
 40
0.2499999999999982
 40
0.2499999999999982
 40
0.4999999999999964
 40
0.4999999999999964
 40
1.0
 40
1.0
 40
1.0
 40
1.0
 10
144.4899291566714
 20
45.99509342748912
 30
0.0
 10
144.5529861115692
 20
45.99509342748912
 30
0.0
 10
144.6121162613148
 20
46.00299375856867
 30
0.0
 10
144.7105638118481
 20
46.02630450657369
 30
0.0
 10
144.7495960500362
 20
46.04100963285736
 30
0.0
 10
144.8494859344931
 20
46.08894316104399
 30
0.0
 10
144.8917849081024
 20
46.12501313380874
 30
0.0
 10
144.9229418585637
 20
46.16284292624496
 30
0.0
  0
ELLIPSE
  5
1D0
330
1F
100
AcDbEntity
  8
0
  6
Continuous
 62
     7
370
    15
100
AcDbEllipse
 10
128.6705317809
 20
76.0635853864
 30
0.0
 11
-14.75368316065618
 21
31.09325491558114
 31
0.0
210
0.0
220
0.0
230
1.0
 40
0.3419987131
 41
3.300734856217121
 42
4.231496223360772
  0
SPLINE
  5
1D1
330
1F
100
AcDbEntity
  8
0
  6
Continuous
 62
     7
370
    15
100
AcDbSpline
210
0.0
220
0.0
230
1.0
 70
     8
 71
     3
 72
    12
 73
     8
 74
     0
 42
0.00000001
 43
0.00000001
 12
1.0
 22
0.0
 32
0.0
 13
1.0
 23
0.0
 33
0.0
 40
0.0
 40
0.0
 40
0.0
 40
0.0
 40
0.5000000000000047
 40
0.5000000000000047
 40
0.7500000000000023
 40
0.7500000000000023
 40
1.0
 40
1.0
 40
1.0
 40
1.0
 10
144.9229418585636
 20
66.1542160656768
 30
0.0
 10
144.8917966606015
 20
66.26832143154212
 30
0.0
 10
144.8495223942671
 20
66.37942775876088
 30
0.0
 10
144.7495768604418
 20
66.52958536619117
 30
0.0
 10
144.7098465557377
 20
66.57657805780853
 30
0.0
 10
144.6129585057315
 20
66.64955364234703
 30
0.0
 10
144.552893263985
 20
66.67551895502604
 30
0.0
 10
144.4899291566714
 20
66.67551895502604
 30
0.0
  0
LINE
  5
1D2
330
1F
100
AcDbEntity
  8
0
  6
Continuous
 62
     7
370
    15
100
AcDbLine
 10
144.4899291567
 20
66.675518955
 30
0.0
 11
141.5454427838
 21
66.675518955
 31
0.0
  0
SPLINE
  5
1D3
330
1F
100
AcDbEntity
  8
0
  6
Continuous
 62
     7
370
    15
100
AcDbSpline
210
0.0
220
0.0
230
1.0
 70
     8
 71
     3
 72
    12
 73
     8
 74
     0
 42
0.00000001
 43
0.00000001
 12
1.0
 22
0.0
 32
0.0
 13
1.0
 23
0.0
 33
0.0
 40
0.0
 40
0.0
 40
0.0
 40
0.0
 40
0.2500000000000014
 40
0.2500000000000014
 40
0.5000000000000028
 40
0.5000000000000028
 40
1.0
 40
1.0
 40
1.0
 40
1.0
 10
141.5454427838043
 20
66.67551895502594
 30
0.0
 10
141.4823858289065
 20
66.67551895502594
 30
0.0
 10
141.4232556791609
 20
66.65017260164524
 30
0.0
 10
141.3248081286276
 20
66.57605321950574
 30
0.0
 10
141.2857758904396
 20
66.52955670480775
 30
0.0
 10
141.1858860059826
 20
66.37948219779915
 30
0.0
 10
141.1435870323733
 20
66.26836448868431
 30
0.0
 10
141.112430081912
 20
66.15421606567682
 30
0.0
  0
ELLIPSE
  5
1D4
330
1F
100
AcDbEntity
  8
0
  6
Continuous
 62
     7
370
    15
100
AcDbEllipse
 10
157.3648401596
 20
76.0635853864
 30
0.0
 11
14.75368316065618
 21
31.09325491558114
 31
0.0
210
0.0
220
0.0
230
1.0
 40
0.3419987131
 41
2.051689083818826
 42
2.9824504509625
  0
SPLINE
  5
1D5
330
1F
100
AcDbEntity
  8
0
  6
Continuous
 62
     7
370
    15
100
AcDbSpline
210
0.0
220
0.0
230
1.0
 70
     8
 71
     3
 72
    68
 73
    64
 74
     0
 42
0.00000001
 43
0.00000001
 12
1.0
 22
0.0
 32
0.0
 13
1.0
 23
0.0
 33
0.0
 40
-0.0624999999999998
 40
-0.0624999999999998
 40
0.0
 40
0.0
 40
0.0312500000000001
 40
0.0312500000000001
 40
0.0625000000000001
 40
0.0625000000000001
 40
0.0937500000000002
 40
0.0937500000000002
 40
0.1250000000000002
 40
0.1250000000000002
 40
0.1562500000000003
 40
0.1562500000000003
 40
0.1875000000000004
 40
0.1875000000000004
 40
0.2187500000000004
 40
0.2187500000000004
 40
0.2500000000000005
 40
0.2500000000000005
 40
0.2812500000000006
 40
0.2812500000000006
 40
0.3125000000000006
 40
0.3125000000000006
 40
0.3437500000000007
 40
0.3437500000000007
 40
0.3750000000000008
 40
0.3750000000000008
 40
0.4062500000000008
 40
0.4062500000000008
 40
0.4375000000000008
 40
0.4375000000000008
 40
0.4687500000000008
 40
0.4687500000000008
 40
0.5000000000000008
 40
0.5000000000000008
 40
0.5312500000000009
 40
0.5312500000000009
 40
0.5625000000000008
 40
0.5625000000000008
 40
0.5937500000000008
 40
0.5937500000000008
 40
0.6250000000000007
 40
0.6250000000000007
 40
0.6562500000000007
 40
0.6562500000000007
 40
0.6875000000000006
 40
0.6875000000000006
 40
0.7187500000000006
 40
0.7187500000000006
 40
0.7500000000000004
 40
0.7500000000000004
 40
0.7812500000000004
 40
0.7812500000000004
 40
0.8125000000000004
 40
0.8125000000000004
 40
0.8437500000000003
 40
0.8437500000000003
 40
0.8750000000000003
 40
0.8750000000000003
 40
0.9062500000000002
 40
0.9062500000000002
 40
0.9375000000000002
 40
0.9375000000000002
 40
1.0
 40
1.0
 40
1.03125
 40
1.03125
 10
195.0176859702378
 20
75.66695593343226
 30
0.0
 10
195.0176859702379
 20
76.26190011282722
 30
0.0
 10
195.0371566433381
 20
76.45687849362987
 30
0.0
 10
195.1134256694585
 20
76.84044228570077
 30
0.0
 10
195.1711577764728
 20
77.03102349925379
 30
0.0
 10
195.3217766874513
 20
77.39427407991903
 30
0.0
 10
195.4139301517615
 20
77.5665413507562
 30
0.0
 10
195.6316306600214
 20
77.89256352995616
 30
0.0
 10
195.7582710611568
 20
78.04683914655303
 30
0.0
 10
196.0348897673458
 20
78.32340184494593
 30
0.0
 10
196.1858446843532
 20
78.44754422520428
 30
0.0
 10
196.5137327125818
 20
78.66685771955181
 30
0.0
 10
196.6881816817956
 20
78.75998767453657
 30
0.0
 10
197.0491132845439
 20
78.90964123704151
 30
0.0
 10
197.2382650225532
 20
78.967287959307
 30
0.0
 10
197.6255597078109
 20
79.04439444434145
 30
0.0
 10
197.8202812523602
 20
79.06347820721612
 30
0.0
 10
198.211819489875
 20
79.06369167378014
 30
0.0
 10
198.4106858864523
 20
79.0441964469248
 30
0.0
 10
198.7955260976783
 20
78.9676267022935
 30
0.0
 10
198.9825853490248
 20
78.91097361086683
 30
0.0
 10
199.3459300661801
 20
78.76069831203398
 30
0.0
 10
199.5214732892002
 20
78.66681533004906
 30
0.0
 10
199.8464547154393
 20
78.44975120561155
 30
0.0
 10
199.9979676139918
 20
78.32582037650084
 30
0.0
 10
200.2781717121021
 20
78.04586355806887
 30
0.0
 10
200.4022758120785
 20
77.89440487279066
 30
0.0
 10
200.6195841308381
 20
77.5696712629181
 30
0.0
 10
200.7135821317225
 20
77.39430606384738
 30
0.0
 10
200.8642288027945
 20
77.03098785556246
 30
0.0
 10
200.9210308329137
 20
76.84399578229412
 30
0.0
 10
200.9979148355566
 20
76.45942334314009
 30
0.0
 10
201.0176140578617
 20
76.26051564285812
 30
0.0
 10
201.0177574803329
 20
75.86885225832816
 30
0.0
 10
200.9988386213364
 20
75.67414431169716
 30
0.0
 10
200.9221466195987
 20
75.28702642781316
 30
0.0
 10
200.8646084519454
 20
75.09755529719338
 30
0.0
 10
200.7152439635943
 20
74.7364220119014
 30
0.0
 10
200.6223315780592
 20
74.56200250111279
 30
0.0
 10
200.4032314502074
 20
74.2338032499827
 30
0.0
 10
200.2791980910412
 20
74.08272489294885
 30
0.0
 10
200.0028947458514
 20
73.80588932972982
 30
0.0
 10
199.8487464043537
 20
73.67912612914225
 30
0.0
 10
199.5228821657252
 20
73.46112257667268
 30
0.0
 10
199.3507210957341
 20
73.36884193464037
 30
0.0
 10
198.9877676190874
 20
73.2179630447698
 30
0.0
 10
198.7971259358683
 20
73.16001679334079
 30
0.0
 10
198.4136164305618
 20
73.08340480374812
 30
0.0
 10
198.2187233786699
 20
73.0637767788285
 30
0.0
 10
197.8224018661701
 20
73.06339675227254
 30
0.0
 10
197.6270390267612
 20
73.08270910740725
 30
0.0
 10
197.2434379496526
 20
73.15862954719634
 30
0.0
 10
197.0529456576169
 20
73.21613509191418
 30
0.0
 10
196.689379634216
 20
73.36649448544092
 30
0.0
 10
196.5170202815203
 20
73.45851327812207
 30
0.0
 10
196.190899532852
 20
73.67585644223813
 30
0.0
 10
196.0364750496514
 20
73.802375254675
 30
0.0
 10
195.7596055197764
 20
74.07880815686269
 30
0.0
 10
195.6353557738051
 20
74.22963776054927
 30
0.0
 10
195.4158569058493
 20
74.55715033009085
 30
0.0
 10
195.3224591361433
 20
74.73169937719295
 30
0.0
 10
195.0974979014429
 20
75.27290608509914
 30
0.0
 10
195.0176859702378
 20
75.66695593343226
 30
0.0
 10
195.0176859702379
 20
76.26190011282722
 30
0.0
  0
LINE
  5
1D6
330
1F
100
AcDbEntity
  8
0
  6
Continuous
 62
     7
370
    15
100
AcDbLine
 10
217.6216478981
 20
107.5621567825
 30
0.0
 11
222.9453464519
 21
107.5621567825
 31
0.0
  0
SPLINE
  5
1D7
330
1F
100
AcDbEntity
  8
0
  6
Continuous
 62
     7
370
    15
100
AcDbSpline
210
0.0
220
0.0
230
1.0
 70
     8
 71
     3
 72
    18
 73
    14
 74
     0
 42
0.00000001
 43
0.00000001
 12
1.0
 22
0.0
 32
0.0
 13
1.0
 23
0.0
 33
0.0
 40
0.0
 40
0.0
 40
0.0
 40
0.0
 40
0.25
 40
0.25
 40
0.5
 40
0.5
 40
0.625
 40
0.625
 40
0.75
 40
0.75
 40
0.875
 40
0.875
 40
1.0
 40
1.0
 40
1.0
 40
1.0
 10
211.8260929403772
 20
107.2894029089369
 30
0.0
 10
211.9958888078064
 20
107.3735625470484
 30
0.0
 10
212.2630170749857
 20
107.4326381365524
 30
0.0
 10
212.9943345351909
 20
107.5155418178169
 30
0.0
 10
213.4402090989542
 20
107.5373577432444
 30
0.0
 10
214.2247119491286
 20
107.5554594366107
 30
0.0
 10
214.5011196897889
 20
107.5588950958209
 30
0.0
 10
215.0760308550132
 20
107.5629133175933
 30
0.0
 10
215.3755730131817
 20
107.5635105274958
 30
0.0
 10
215.999609771237
 20
107.5636472121276
 30
0.0
 10
216.3196534528531
 20
107.5631924322868
 30
0.0
 10
216.9644825921441
 20
107.5624488572032
 30
0.0
 10
217.2909602386169
 20
107.5621567825383
 30
0.0
 10
217.6216478981117
 20
107.5621567825383
 30
0.0
  0
ELLIPSE
  5
1D8
330
1F
100
AcDbEntity
  8
0
  6
Continuous
 62
     7
370
    15
100
AcDbEllipse
 10
212.9373012125
 20
76.0635853864
 30
0.0
 11
0.0
 21
31.49999999999998
 31
0.0
210
0.0
220
0.0
230
1.0
 40
0.2679491924
 41
0.1320368298873566
 42
3.009555823702437
  0
SPLINE
  5
1D9
330
1F
100
AcDbEntity
  8
0
  6
Continuous
 62
     7
370
    15
100
AcDbSpline
210
0.0
220
0.0
230
1.0
 70
     8
 71
     3
 72
    18
 73
    14
 74
     0
 42
0.00000001
 43
0.00000001
 12
1.0
 22
0.0
 32
0.0
 13
1.0
 23
0.0
 33
0.0
 40
0.0
 40
0.0
 40
0.0
 40
0.0
 40
0.25
 40
0.25
 40
0.5
 40
0.5
 40
0.625
 40
0.625
 40
0.75
 40
0.75
 40
0.875
 40
0.875
 40
1.0
 40
1.0
 40
1.0
 40
1.0
 10
217.6216478981116
 20
44.56501399018619
 30
0.0
 10
216.9602568896286
 20
44.56501399018619
 30
0.0
 10
216.316993071593
 20
44.5634639792232
 30
0.0
 10
215.0665389699631
 20
44.56371806403872
 30
0.0
 10
214.4898182495923
 20
44.56565156683592
 30
0.0
 10
213.7055975398036
 20
44.58366108299776
 30
0.0
 10
213.4617885104874
 20
44.59222450054603
 30
0.0
 10
213.0166846566279
 20
44.6164613908164
 30
0.0
 10
212.8139252594282
 20
44.63215592942978
 30
0.0
 10
212.4490601895807
 20
44.67336815408481
 30
0.0
 10
212.2892053593926
 20
44.69876347793002
 30
0.0
 10
212.0208312273778
 20
44.75985781666874
 30
0.0
 10
211.9109937670861
 20
44.7956866108138
 30
0.0
 10
211.8260929403772
 20
44.83776786378757
 30
0.0
  0
LINE
  5
1DA
330
1F
100
AcDbEntity
  8
0
  6
Continuous
 62
     7
370
    15
100
AcDbLine
 10
222.9453464519
 20
44.5650139902
 30
0.0
 11
217.6216478981
 21
44.5650139902
 31
0.0
  0
LINE
  5
1DB
330
1F
100
AcDbEntity
  8
0
  6
Continuous
 62
     7
370
    15
100
AcDbLine
 10
131.0176859702
 20
45.0635853864
 30
0.0
 11
131.0176859702
 21
107.0635853841
 31
0.0
  0
ELLIPSE
  5
1DC
330
1F
100
AcDbEntity
  8
0
  6
Continuous
 62
     7
370
    15
100
AcDbEllipse
 10
209.2182705088
 20
76.0635853864
 30
0.0
 11
0.0
 21
2.5
 31
0.0
210
0.0
220
0.0
230
1.0
 40
0.2988584907
 41
0.0
 42
6.283185307179586
  0
SPLINE
  5
1DD
330
1F
100
AcDbEntity
  8
0
  6
Continuous
 62
     7
370
    15
100
AcDbSpline
210
0.0
220
0.0
230
1.0
 70
     8
 71
     3
 72
    12
 73
     8
 74
     0
 42
0.00000001
 43
0.00000001
 12
1.0
 22
0.0
 32
0.0
 13
1.0
 23
0.0
 33
0.0
 40
0.0
 40
0.0
 40
0.0
 40
0.0
 40
0.4999999999999998
 40
0.4999999999999998
 40
0.7499999999999997
 40
0.7499999999999997
 40
1.0
 40
1.0
 40
1.0
 40
1.0
 10
130.2011736837814
 20
54.20879168388637
 30
0.0
 10
130.2576101846885
 20
54.20737380254463
 30
0.0
 10
130.3266948153773
 20
54.20580946629632
 30
0.0
 10
130.4454970870952
 20
54.20286527432187
 30
0.0
 10
130.4856823625653
 20
54.20182707122449
 30
0.0
 10
130.5590634099692
 20
54.19989317600985
 30
0.0
 10
130.5924729737118
 20
54.19899828872104
 30
0.0
 10
130.6227090813682
 20
54.19821449844871
 30
0.0
  0
SPLINE
  5
1DE
330
1F
100
AcDbEntity
  8
0
  6
Continuous
 62
     7
370
    15
100
AcDbSpline
210
0.0
220
0.0
230
1.0
 70
     8
 71
     3
 72
    16
 73
    12
 74
     0
 42
0.00000001
 43
0.00000001
 12
1.0
 22
0.0
 32
0.0
 13
1.0
 23
0.0
 33
0.0
 40
0.0
 40
0.0
 40
0.0
 40
0.0
 40
0.0625000000000026
 40
0.0625000000000026
 40
0.1250000000000052
 40
0.1250000000000052
 40
0.2500000000000053
 40
0.2500000000000053
 40
0.5000000000000024
 40
0.5000000000000024
 40
1.0
 40
1.0
 40
1.0
 40
1.0
 10
130.622709081331
 20
54.19821449847295
 30
0.0
 10
130.634289488919
 20
54.19791430736161
 30
0.0
 10
130.6475990156802
 20
54.19658655910261
 30
0.0
 10
130.6769004457664
 20
54.18988788432759
 30
0.0
 10
130.6917145456507
 20
54.18452970122191
 30
0.0
 10
130.7275429473535
 20
54.16748405205456
 30
0.0
 10
130.7416625717165
 20
54.15602151427883
 30
0.0
 10
130.7761667158051
 20
54.12445818890659
 30
0.0
 10
130.7872712665096
 20
54.10656088986131
 30
0.0
 10
130.8134474437258
 20
54.05639947224707
 30
0.0
 10
130.8176859702378
 20
54.0286550600505
 30
0.0
 10
130.8176859702378
 20
54.00399089812095
 30
0.0
  0
LINE
  5
1DF
330
1F
100
AcDbEntity
  8
0
  6
Continuous
 62
     7
370
    15
100
AcDbLine
 10
130.8176859702
 20
69.0416980606
 30
0.0
 11
130.8176859702
 21
53.5237651075
 31
0.0
  0
SPLINE
  5
1E0
330
1F
100
AcDbEntity
  8
0
  6
Continuous
 62
     7
370
    15
100
AcDbSpline
210
0.0
220
0.0
230
1.0
 70
     8
 71
     3
 72
    16
 73
    12
 74
     0
 42
0.00000001
 43
0.00000001
 12
1.0
 22
0.0
 32
0.0
 13
1.0
 23
0.0
 33
0.0
 40
0.0
 40
0.0
 40
0.0
 40
0.0
 40
0.499999999999994
 40
0.499999999999994
 40
0.7499999999999943
 40
0.7499999999999943
 40
0.874999999999997
 40
0.874999999999997
 40
0.9374999999999986
 40
0.9374999999999986
 40
1.0
 40
1.0
 40
1.0
 40
1.0
 10
130.8176859702378
 20
69.04169806061209
 30
0.0
 10
130.8176859702378
 20
69.15539060473999
 30
0.0
 10
130.8135396951599
 20
69.26971076608949
 30
0.0
 10
130.7875740997664
 20
69.4427590565866
 30
0.0
 10
130.776113194389
 20
69.5019345637483
 30
0.0
 10
130.7418014566146
 20
69.58505768321646
 30
0.0
 10
130.727776720685
 20
69.61317899931711
 30
0.0
 10
130.6917537576512
 20
69.64179481329457
 30
0.0
 10
130.6769992485615
 20
69.64758786119637
 30
0.0
 10
130.6476470874146
 20
69.64599443525934
 30
0.0
 10
130.6343072129106
 20
69.63949803193552
 30
0.0
 10
130.6227090813622
 20
69.63098228573239
 30
0.0
  0
SPLINE
  5
1E1
330
1F
100
AcDbEntity
  8
0
  6
Continuous
 62
     7
370
    15
100
AcDbSpline
210
0.0
220
0.0
230
1.0
 70
     8
 71
     3
 72
    12
 73
     8
 74
     0
 42
0.00000001
 43
0.00000001
 12
1.0
 22
0.0
 32
0.0
 13
1.0
 23
0.0
 33
0.0
 40
0.0
 40
0.0
 40
0.0
 40
0.0
 40
0.2500000000000003
 40
0.2500000000000003
 40
0.5000000000000003
 40
0.5000000000000003
 40
1.0
 40
1.0
 40
1.0
 40
1.0
 10
130.6227090813693
 20
69.63098228572323
 30
0.0
 10
130.5925106399287
 20
69.60880955367819
 30
0.0
 10
130.5591432845927
 20
69.58972989780096
 30
0.0
 10
130.4859880087628
 20
69.56455685335825
 30
0.0
 10
130.4457353097388
 20
69.55900031694145
 30
0.0
 10
130.3280065664639
 20
69.56991212792822
 30
0.0
 10
130.257548118405
 20
69.61184788333905
 30
0.0
 10
130.2011736837867
 20
69.66105966572061
 30
0.0
  0
SPLINE
  5
1E2
330
1F
100
AcDbEntity
  8
0
  6
Continuous
 62
     7
370
    15
100
AcDbSpline
210
0.0
220
0.0
230
1.0
 70
     8
 71
     3
 72
    12
 73
     8
 74
     0
 42
0.00000001
 43
0.00000001
 12
1.0
 22
0.0
 32
0.0
 13
1.0
 23
0.0
 33
0.0
 40
0.0
 40
0.0
 40
0.0
 40
0.0
 40
0.4999999999999993
 40
0.4999999999999993
 40
0.7499999999999997
 40
0.7499999999999997
 40
1.0
 40
1.0
 40
1.0
 40
1.0
 10
129.6963656266782
 20
70.87741105760118
 30
0.0
 10
129.7401159785627
 20
70.65696407262665
 30
0.0
 10
129.7930061296872
 20
70.44141908282108
 30
0.0
 10
129.9046176728288
 20
70.12900500624916
 30
0.0
 10
129.9471770167324
 20
70.02692553063325
 30
0.0
 10
130.0521542520698
 20
69.8324855179915
 30
0.0
 10
130.1137214951644
 20
69.73740061892784
 30
0.0
 10
130.2011736837867
 20
69.66105966572064
 30
0.0
  0
SPLINE
  5
1E3
330
1F
100
AcDbEntity
  8
0
  6
Continuous
 62
     7
370
    15
100
AcDbSpline
210
0.0
220
0.0
230
1.0
 70
     8
 71
     3
 72
    12
 73
     8
 74
     0
 42
0.00000001
 43
0.00000001
 12
1.0
 22
0.0
 32
0.0
 13
1.0
 23
0.0
 33
0.0
 40
0.0
 40
0.0
 40
0.0
 40
0.0
 40
0.2500000000000008
 40
0.2500000000000008
 40
0.5000000000000016
 40
0.5000000000000016
 40
1.0
 40
1.0
 40
1.0
 40
1.0
 10
130.2011736837866
 20
82.46611110700377
 30
0.0
 10
130.1126802762188
 20
82.38886122689547
 30
0.0
 10
130.0526222354529
 20
82.29554190300625
 30
0.0
 10
129.9467739624703
 20
82.09950885003681
 30
0.0
 10
129.9042404411928
 20
81.99718249182507
 30
0.0
 10
129.7930891343692
 20
81.68583808604917
 30
0.0
 10
129.7401582773214
 20
81.47041983287117
 30
0.0
 10
129.6963656266782
 20
81.2497597151233
 30
0.0
  0
SPLINE
  5
1E4
330
1F
100
AcDbEntity
  8
0
  6
Continuous
 62
     7
370
    15
100
AcDbSpline
210
0.0
220
0.0
230
1.0
 70
     8
 71
     3
 72
    12
 73
     8
 74
     0
 42
0.00000001
 43
0.00000001
 12
1.0
 22
0.0
 32
0.0
 13
1.0
 23
0.0
 33
0.0
 40
0.0
 40
0.0
 40
0.0
 40
0.0
 40
0.5000000000000002
 40
0.5000000000000002
 40
0.7500000000000001
 40
0.7500000000000001
 40
1.0
 40
1.0
 40
1.0
 40
1.0
 10
130.2011736837866
 20
82.46611110700378
 30
0.0
 10
130.2574822320823
 20
82.51526537424763
 30
0.0
 10
130.3277568928004
 20
82.55722269285138
 30
0.0
 10
130.4457948071239
 20
82.56818237038384
 30
0.0
 10
130.4859710479779
 20
82.56267361213646
 30
0.0
 10
130.5599281426558
 20
82.53711638334752
 30
0.0
 10
130.5925445303673
 20
82.51833633550821
 30
0.0
 10
130.622709081363
 20
82.4961884869915
 30
0.0
  0
SPLINE
  5
1E5
330
1F
100
AcDbEntity
  8
0
  6
Continuous
 62
     7
370
    15
100
AcDbSpline
210
0.0
220
0.0
230
1.0
 70
     8
 71
     3
 72
    16
 73
    12
 74
     0
 42
0.00000001
 43
0.00000001
 12
1.0
 22
0.0
 32
0.0
 13
1.0
 23
0.0
 33
0.0
 40
0.0
 40
0.0
 40
0.0
 40
0.0
 40
0.0625000000000001
 40
0.0625000000000001
 40
0.1250000000000001
 40
0.1250000000000001
 40
0.2500000000000023
 40
0.2500000000000023
 40
0.5000000000000016
 40
0.5000000000000016
 40
1.0
 40
1.0
 40
1.0
 40
1.0
 10
130.6227090813313
 20
82.49618848693699
 30
0.0
 10
130.6343219811706
 20
82.48766189734174
 30
0.0
 10
130.6476731656031
 20
82.48116163580897
 30
0.0
 10
130.6770730052223
 20
82.47959223869147
 30
0.0
 10
130.6919137297776
 20
82.48547562932207
 30
0.0
 10
130.7277469377461
 20
82.5140232653726
 30
0.0
 10
130.7418601455677
 20
82.5421902846784
 30
0.0
 10
130.7763515167866
 20
82.62594454310033
 30
0.0
 10
130.787435587897
 20
82.68365795672175
 30
0.0
 10
130.813558405693
 20
82.85724849336759
 30
0.0
 10
130.8176859702378
 20
82.97227654600952
 30
0.0
 10
130.8176859702378
 20
83.08547271211236
 30
0.0
  0
LINE
  5
1E6
330
1F
100
AcDbEntity
  8
0
  6
Continuous
 62
     7
370
    15
100
AcDbLine
 10
130.8176859702
 20
98.6034056652
 30
0.0
 11
130.8176859702
 21
83.0854727121
 31
0.0
  0
SPLINE
  5
1E7
330
1F
100
AcDbEntity
  8
0
  6
Continuous
 62
     7
370
    15
100
AcDbSpline
210
0.0
220
0.0
230
1.0
 70
     8
 71
     3
 72
    16
 73
    12
 74
     0
 42
0.00000001
 43
0.00000001
 12
1.0
 22
0.0
 32
0.0
 13
1.0
 23
0.0
 33
0.0
 40
0.0
 40
0.0
 40
0.0
 40
0.0
 40
0.5000000000000004
 40
0.5000000000000004
 40
0.7500000000000027
 40
0.7500000000000027
 40
0.8750000000000048
 40
0.8750000000000048
 40
0.9375000000000024
 40
0.9375000000000024
 40
1.0
 40
1.0
 40
1.0
 40
1.0
 10
130.8176859702378
 20
98.12317987460352
 30
0.0
 10
130.8176859702378
 20
98.09850871856057
 30
0.0
 10
130.8135202717779
 20
98.07092688716934
 30
0.0
 10
130.7872619434529
 20
98.020584016346
 30
0.0
 10
130.7757581617153
 20
98.0022945182841
 30
0.0
 10
130.7416274023688
 20
97.97113948724707
 30
0.0
 10
130.7272055156981
 20
97.95950011203533
 30
0.0
 10
130.6916385472603
 20
97.94261808610429
 30
0.0
 10
130.6766867789656
 20
97.93722898229662
 30
0.0
 10
130.6476829606059
 20
97.93060848635213
 30
0.0
 10
130.6342676065966
 20
97.92925589814567
 30
0.0
 10
130.62270908136
 20
97.92895627427406
 30
0.0
  0
SPLINE
  5
1E8
330
1F
100
AcDbEntity
  8
0
  6
Continuous
 62
     7
370
    15
100
AcDbSpline
210
0.0
220
0.0
230
1.0
 70
     8
 71
     3
 72
    12
 73
     8
 74
     0
 42
0.00000001
 43
0.00000001
 12
1.0
 22
0.0
 32
0.0
 13
1.0
 23
0.0
 33
0.0
 40
0.0
 40
0.0
 40
0.0
 40
0.0
 40
0.2499999999999999
 40
0.2499999999999999
 40
0.4999999999999999
 40
0.4999999999999999
 40
1.0
 40
1.0
 40
1.0
 40
1.0
 10
130.6227090813693
 20
97.9289562742758
 30
0.0
 10
130.5925213048196
 20
97.92817373685824
 30
0.0
 10
130.5591675007279
 20
97.9272804050397
 30
0.0
 10
130.486041297532
 20
97.92535309623611
 30
0.0
 10
130.4458060945078
 20
97.92431356502345
 30
0.0
 10
130.3281144643747
 20
97.92139568167619
 30
0.0
 10
130.2577337912147
 20
97.91980007560598
 30
0.0
 10
130.201173683784
 20
97.91837908883812
 30
0.0
  0
SPLINE
  5
1E9
330
1F
100
AcDbEntity
  8
0
  6
Continuous
 62
     7
370
    15
100
AcDbSpline
210
0.0
220
0.0
230
1.0
 70
     8
 71
     3
 72
    16
 73
    12
 74
     0
 42
0.00000001
 43
0.00000001
 12
1.0
 22
0.0
 32
0.0
 13
1.0
 23
0.0
 33
0.0
 40
0.0
 40
0.0
 40
0.0
 40
0.0
 40
0.2499999999999999
 40
0.2499999999999999
 40
0.3749999999999999
 40
0.3749999999999999
 40
0.5
 40
0.5
 40
0.75
 40
0.75
 40
1.0
 40
1.0
 40
1.0
 40
1.0
 10
129.6963656266782
 20
81.24975971512332
 30
0.0
 10
129.5351331491937
 20
80.43734993987647
 30
0.0
 10
129.4146533095541
 20
79.59727164549174
 30
0.0
 10
129.2922727922408
 20
78.29597659612895
 30
0.0
 10
129.2612951318433
 20
77.85529556054419
 30
0.0
 10
129.2196813942154
 20
76.95945591961305
 30
0.0
 10
129.2094454812826
 20
76.5127977884106
 30
0.0
 10
129.2092570842265
 20
75.1774878312707
 30
0.0
 10
129.2494017868641
 20
74.29299245796318
 30
0.0
 10
129.4135555418036
 20
72.53574256993717
 30
0.0
 10
129.5351071922132
 20
71.68995162352404
 30
0.0
 10
129.6963656266782
 20
70.87741105760118
 30
0.0
  0
LINE
  5
1EA
330
1F
100
AcDbEntity
  8
0
  6
Continuous
 62
     7
370
    15
100
AcDbLine
 10
128.8176859702
 20
82.548763648
 30
0.0
 11
128.8176859702
 21
69.5784071247
 31
0.0
  0
LINE
  5
1EB
330
1F
100
AcDbEntity
  8
0
  6
Continuous
 62
     7
370
    15
100
AcDbLine
 10
94.5176859702
 20
82.1178959539
 30
0.0
 11
94.5176859702
 21
70.0092748188
 31
0.0
  0
LINE
  5
1EC
330
1F
100
AcDbEntity
  8
0
  6
Continuous
 62
     7
370
    15
100
AcDbLine
 10
93.0176859702
 20
81.684883252
 30
0.0
 11
93.0176859702
 21
70.4422875207
 31
0.0
  0
LINE
  5
1ED
330
1F
100
AcDbEntity
  8
0
  6
Continuous
 62
     7
370
    15
100
AcDbLine
 10
128.8176859702
 20
82.548763648
 30
0.0
 11
128.8176859702
 21
98.0836841709
 31
0.0
  0
ARC
  5
1EE
330
1F
100
AcDbEntity
  8
0
  6
Continuous
 62
     7
370
    15
100
AcDbCircle
 10
129.0176228812
 20
98.0887072821
 30
0.0
 40
0.2000000000000059
100
AcDbArc
 50
181.4391666667
 51
271.4391666667
  0
LINE
  5
1EF
330
1F
100
AcDbEntity
  8
0
  6
Continuous
 62
     7
370
    15
100
AcDbLine
 10
94.5176859702
 20
82.1178959539
 30
0.0
 11
94.5176859702
 21
97.2219487826
 31
0.0
  0
LINE
  5
1F0
330
1F
100
AcDbEntity
  8
0
  6
Continuous
 62
     7
370
    15
100
AcDbLine
 10
94.5176859702
 20
97.2219487826
 30
0.0
 11
128.8176859702
 21
98.0836841709
 31
0.0
  0
LINE
  5
1F1
330
1F
100
AcDbEntity
  8
0
  6
Continuous
 62
     7
370
    15
100
AcDbLine
 10
128.8176859702
 20
54.0434866018
 30
0.0
 11
128.8176859702
 21
69.5784071247
 31
0.0
  0
ARC
  5
1F2
330
1F
100
AcDbEntity
  8
0
  6
Continuous
 62
     7
370
    15
100
AcDbCircle
 10
129.0176228812
 20
54.0384634907
 30
0.0
 40
0.2000000000000059
100
AcDbArc
 50
88.5608333333
 51
178.5608333333
  0
LINE
  5
1F3
330
1F
100
AcDbEntity
  8
0
  6
Continuous
 62
     7
370
    15
100
AcDbLine
 10
94.5176859702
 20
54.9052219901
 30
0.0
 11
94.5176859702
 21
70.0092748188
 31
0.0
  0
LINE
  5
1F4
330
1F
100
AcDbEntity
  8
0
  6
Continuous
 62
     7
370
    15
100
AcDbLine
 10
94.5176859702
 20
54.9052219901
 30
0.0
 11
128.8176859702
 21
54.0434866018
 31
0.0
  0
LINE
  5
1F5
330
1F
100
AcDbEntity
  8
0
  6
Continuous
 62
     7
370
    15
100
AcDbLine
 10
129.0226459923
 20
97.8887703711
 30
0.0
 11
130.2011736838
 21
97.9183790888
 31
0.0
  0
LINE
  5
1F6
330
1F
100
AcDbEntity
  8
0
  6
Continuous
 62
     7
370
    15
100
AcDbLine
 10
129.0226459923
 20
54.2384004016
 30
0.0
 11
130.2011736838
 21
54.2087916839
 31
0.0
  0
LINE
  5
1F7
330
1F
100
AcDbEntity
  8
0
  6
Continuous
 62
     7
370
    15
100
AcDbLine
 10
93.0176859702
 20
96.3559233789
 30
0.0
 11
94.5176859702
 21
97.2219487826
 31
0.0
  0
LINE
  5
1F8
330
1F
100
AcDbEntity
  8
0
  6
Continuous
 62
     7
370
    15
100
AcDbLine
 10
93.0176859702
 20
81.684883252
 30
0.0
 11
93.0176859702
 21
96.3559233789
 31
0.0
  0
LINE
  5
1F9
330
1F
100
AcDbEntity
  8
0
  6
Continuous
 62
     7
370
    15
100
AcDbLine
 10
93.0176859702
 20
55.7712473939
 30
0.0
 11
94.5176859702
 21
54.9052219901
 31
0.0
  0
LINE
  5
1FA
330
1F
100
AcDbEntity
  8
0
  6
Continuous
 62
     7
370
    15
100
AcDbLine
 10
93.0176859702
 20
55.7712473939
 30
0.0
 11
93.0176859702
 21
70.4422875207
 31
0.0
  0
ARC
  5
1FB
330
1F
100
AcDbEntity
  8
0
  6
Continuous
 62
     7
370
    15
100
AcDbCircle
 10
243.1585646007
 20
76.0635853864
 30
0.0
 40
2.100000000000016
100
AcDbArc
 50
70.4804989879
 51
289.519501012
  0
LINE
  5
1FC
330
1F
100
AcDbEntity
  8
0
  6
Continuous
 62
     7
370
    15
100
AcDbLine
 10
250.9830824874
 20
68.0914679566
 30
0.0
 11
222.9453464519
 21
44.5650139902
 31
0.0
  0
LINE
  5
1FD
330
1F
100
AcDbEntity
  8
0
  6
Continuous
 62
     7
370
    15
100
AcDbLine
 10
222.9453464519
 20
107.5621567825
 30
0.0
 11
250.9830824874
 21
84.0357028161
 31
0.0
  0
LINE
  5
1FE
330
1F
100
AcDbEntity
  8
0
  6
Continuous
 62
     7
370
    15
100
AcDbLine
 10
200.1733031301
 20
78.1500452255
 30
0.0
 11
200.2826368189
 21
78.0308163472
 31
0.0
  0
ARC
  5
1FF
330
1F
100
AcDbEntity
  8
0
  6
Continuous
 62
     7
370
    15
100
AcDbCircle
 10
198.0176859702
 20
76.0635853864
 30
0.0
 40
3.000000000000026
100
AcDbArc
 50
176.965599467
 51
195.2664058294
  0
CIRCLE
  5
200
330
1F
100
AcDbEntity
  8
0
  6
Continuous
 62
     7
370
    15
100
AcDbCircle
 10
198.0176859702
 20
76.0635853864
 30
0.0
 40
2.86000000000004
  0
CIRCLE
  5
201
330
1F
100
AcDbEntity
  8
0
  6
Continuous
 62
     7
370
    15
100
AcDbCircle
 10
198.0176859702
 20
76.0635853864
 30
0.0
 40
2.500000000000038
  0
CIRCLE
  5
202
330
1F
100
AcDbEntity
  8
0
  6
Continuous
 62
     7
370
    15
100
AcDbCircle
 10
251.2611292004
 20
76.0635853864
 30
0.0
 40
3.499999999999989
  0
CIRCLE
  5
203
330
1F
100
AcDbEntity
  8
0
  6
Continuous
 62
     7
370
    15
100
AcDbCircle
 10
251.2611292004
 20
76.0635853864
 30
0.0
 40
2.633974596215555
  0
CIRCLE
  5
204
330
1F
100
AcDbEntity
  8
0
  6
Continuous
 62
     7
370
    15
100
AcDbCircle
 10
251.2611292004
 20
76.0635853864
 30
0.0
 40
1.999999999999999
  0
SPLINE
  5
205
330
1F
100
AcDbEntity
  8
0
  6
Continuous
 62
     7
370
    15
100
AcDbSpline
210
0.0
220
0.0
230
1.0
 70
     8
 71
     3
 72
    15
 73
    11
 74
     0
 42
0.00000001
 43
0.00000001
 12
1.0
 22
0.0
 32
0.0
 13
1.0
 23
0.0
 33
0.0
 40
0.0
 40
0.0
 40
0.0
 40
0.0
 40
0.1262470803731704
 40
0.2533633350515916
 40
0.3794185517359741
 40
0.5042689738353081
 40
0.628450282160874
 40
0.7526361292233825
 40
0.8774891912115296
 40
1.0
 40
1.0
 40
1.0
 40
1.0
 10
252.9201680280358
 20
75.6485716414607
 30
0.0
 10
252.9623935553018
 20
75.66212070225278
 30
0.0
 10
253.047135320266
 20
75.68931210516644
 30
0.0
 10
253.1484706975099
 20
75.78092248493029
 30
0.0
 10
253.2149472518312
 20
75.89822559334476
 30
0.0
 10
253.2382748420714
 20
76.0308415238487
 30
0.0
 10
253.2168884057198
 20
76.16305911603959
 30
0.0
 10
253.153310214889
 20
76.27991367367581
 30
0.0
 10
253.056264217915
 20
76.3717319570246
 30
0.0
 10
252.9745084188636
 20
76.40099599391314
 30
0.0
 10
252.9340175863363
 20
76.4154894638624
 30
0.0
  0
SPLINE
  5
206
330
1F
100
AcDbEntity
  8
0
  6
Continuous
 62
     7
370
    15
100
AcDbSpline
210
0.0
220
0.0
230
1.0
 70
     8
 71
     3
 72
    12
 73
     8
 74
     0
 42
0.00000001
 43
0.00000001
 12
1.0
 22
0.0
 32
0.0
 13
1.0
 23
0.0
 33
0.0
 40
0.0
 40
0.0
 40
0.0
 40
0.0
 40
0.2058748011362942
 40
0.4120995812663114
 40
0.6141693366126046
 40
0.8132901286728592
 40
1.0
 40
1.0
 40
1.0
 40
1.0
 10
252.9340175863363
 20
76.4154894638624
 30
0.0
 10
252.8614527092298
 20
76.44163513142374
 30
0.0
 10
252.7161995976048
 20
76.49397091314395
 30
0.0
 10
252.5456370670673
 20
76.65836004635912
 30
0.0
 10
252.4382576272275
 20
76.86275524767369
 30
0.0
 10
252.4002630748544
 20
77.08555378132374
 30
0.0
 10
252.4321245889473
 20
77.2262689867859
 30
0.0
 10
252.447542905222
 20
77.29436341369058
 30
0.0
  0
SPLINE
  5
207
330
1F
100
AcDbEntity
  8
0
  6
Continuous
 62
     7
370
    15
100
AcDbSpline
210
0.0
220
0.0
230
1.0
 70
     8
 71
     3
 72
    15
 73
    11
 74
     0
 42
0.00000001
 43
0.00000001
 12
1.0
 22
0.0
 32
0.0
 13
1.0
 23
0.0
 33
0.0
 40
0.0
 40
0.0
 40
0.0
 40
0.0
 40
0.1268765508970912
 40
0.253993629034616
 40
0.3800496379884502
 40
0.5049006370989556
 40
0.6290821973263759
 40
0.7532679407718224
 40
0.8781205851189445
 40
1.0
 40
1.0
 40
1.0
 40
1.0
 10
252.447542905222
 20
77.29436341369058
 30
0.0
 10
252.4569490596589
 20
77.33793050206195
 30
0.0
 10
252.4757792003255
 20
77.42514727146244
 30
0.0
 10
252.446830895821
 20
77.55888858241778
 30
0.0
 10
252.3782865685963
 20
77.67499416089278
 30
0.0
 10
252.2749545530804
 20
77.76133035262453
 30
0.0
 10
252.1496774476485
 20
77.80870577451003
 30
0.0
 10
252.0166821439279
 20
77.81184838534412
 30
0.0
 10
251.8889303752643
 20
77.77355869418516
 30
0.0
 10
251.8229098446817
 20
77.71750533836604
 30
0.0
 10
251.7902973675569
 20
77.68981639421048
 30
0.0
  0
SPLINE
  5
208
330
1F
100
AcDbEntity
  8
0
  6
Continuous
 62
     7
370
    15
100
AcDbSpline
210
0.0
220
0.0
230
1.0
 70
     8
 71
     3
 72
    12
 73
     8
 74
     0
 42
0.00000001
 43
0.00000001
 12
1.0
 22
0.0
 32
0.0
 13
1.0
 23
0.0
 33
0.0
 40
0.0
 40
0.0
 40
0.0
 40
0.0
 40
0.2057949882086942
 40
0.4120010155285841
 40
0.6140549927931833
 40
0.8131810826684245
 40
1.0
 40
1.0
 40
1.0
 40
1.0
 10
251.7902973675569
 20
77.68981639421048
 30
0.0
 10
251.7313957493872
 20
77.64006266034986
 30
0.0
 10
251.6134748674772
 20
77.54045581834002
 30
0.0
 10
251.3858757385005
 20
77.47491900253212
 30
0.0
 10
251.155186165028
 20
77.48408669709647
 30
0.0
 10
250.9431942353605
 20
77.56255575946702
 30
0.0
 10
250.8372269421129
 20
77.6605292844476
 30
0.0
 10
250.7859328597244
 20
77.70795393698165
 30
0.0
  0
SPLINE
  5
209
330
1F
100
AcDbEntity
  8
0
  6
Continuous
 62
     7
370
    15
100
AcDbSpline
210
0.0
220
0.0
230
1.0
 70
     8
 71
     3
 72
    15
 73
    11
 74
     0
 42
0.00000001
 43
0.00000001
 12
1.0
 22
0.0
 32
0.0
 13
1.0
 23
0.0
 33
0.0
 40
0.0
 40
0.0
 40
0.0
 40
0.0
 40
0.1268036956063343
 40
0.2539263442701332
 40
0.3799872671767299
 40
0.5048410097959433
 40
0.6290227167746109
 40
0.7532063308916919
 40
0.8780553361591656
 40
1.0
 40
1.0
 40
1.0
 40
1.0
 10
250.7859328597244
 20
77.70795393698165
 30
0.0
 10
250.7529272203084
 20
77.73786730208812
 30
0.0
 10
250.6868329214228
 20
77.7977692742663
 30
0.0
 10
250.5565676583961
 20
77.83958840313976
 30
0.0
 10
250.4217410718596
 20
77.83830519270215
 30
0.0
 10
250.2952949307188
 20
77.79200681567794
 30
0.0
 10
250.191612367478
 20
77.70721859445811
 30
0.0
 10
250.1223738957066
 20
77.59362508862034
 30
0.0
 10
250.0916291034385
 20
77.46382648531055
 30
0.0
 10
250.1071624774433
 20
77.37860057051773
 30
0.0
 10
250.1148377637591
 20
77.33648909509988
 30
0.0
  0
SPLINE
  5
20A
330
1F
100
AcDbEntity
  8
0
  6
Continuous
 62
     7
370
    15
100
AcDbSpline
210
0.0
220
0.0
230
1.0
 70
     8
 71
     3
 72
    17
 73
    13
 74
     0
 42
0.00000001
 43
0.00000001
 12
1.0
 22
0.0
 32
0.0
 13
1.0
 23
0.0
 33
0.0
 40
0.0
 40
0.0
 40
0.0
 40
0.0
 40
0.1014898822866973
 40
0.2058601172583178
 40
0.3074578824584987
 40
0.4121178416800653
 40
0.5116797789146537
 40
0.6142181466598998
 40
0.7124037419662858
 40
0.813351675822824
 40
0.9055981370556632
 40
1.0
 40
1.0
 40
1.0
 40
1.0
 10
250.1148377637591
 20
77.33648909509988
 30
0.0
 10
250.1233532796846
 20
77.29959107457911
 30
0.0
 10
250.1406259877365
 20
77.22474784232912
 30
0.0
 10
250.1424751176857
 20
77.10903122727242
 30
0.0
 10
250.1260935166254
 20
76.99330278439571
 30
0.0
 10
250.0905756157401
 20
76.88325224789494
 30
0.0
 10
250.037084339506
 20
76.7802550849662
 30
0.0
 10
249.9687473844671
 20
76.68946588145158
 30
0.0
 10
249.8863200200483
 20
76.61085500068761
 30
0.0
 10
249.7956387606205
 20
76.5493254737841
 30
0.0
 10
249.6983279340381
 20
76.50242018458619
 30
0.0
 10
249.6310004337847
 20
76.48471002544774
 30
0.0
 10
249.5969479370409
 20
76.47575268804286
 30
0.0
  0
SPLINE
  5
20B
330
1F
100
AcDbEntity
  8
0
  6
Continuous
 62
     7
370
    15
100
AcDbSpline
210
0.0
220
0.0
230
1.0
 70
     8
 71
     3
 72
    15
 73
    11
 74
     0
 42
0.00000001
 43
0.00000001
 12
1.0
 22
0.0
 32
0.0
 13
1.0
 23
0.0
 33
0.0
 40
0.0
 40
0.0
 40
0.0
 40
0.0
 40
0.1262564375371052
 40
0.2533820972842206
 40
0.3794454811308401
 40
0.5043002379033815
 40
0.6284814530465125
 40
0.7526634908999613
 40
0.8775104621121922
 40
1.0
 40
1.0
 40
1.0
 40
1.0
 10
249.5969479370409
 20
76.47575268804286
 30
0.0
 10
249.5547204477156
 20
76.46220277387499
 30
0.0
 10
249.4699747506485
 20
76.43500966010713
 30
0.0
 10
249.3686368330008
 20
76.34339256846921
 30
0.0
 10
249.3021619040856
 20
76.22608163735835
 30
0.0
 10
249.2788406198461
 20
76.09346005342879
 30
0.0
 10
249.3002354291893
 20
75.96124210076987
 30
0.0
 10
249.3638203033669
 20
75.84439234728126
 30
0.0
 10
249.4608652902724
 20
75.75258552610356
 30
0.0
 10
249.5426137383457
 20
75.7233254571665
 30
0.0
 10
249.5830983787409
 20
75.70883486564117
 30
0.0
  0
SPLINE
  5
20C
330
1F
100
AcDbEntity
  8
0
  6
Continuous
 62
     7
370
    15
100
AcDbSpline
210
0.0
220
0.0
230
1.0
 70
     8
 71
     3
 72
    17
 73
    13
 74
     0
 42
0.00000001
 43
0.00000001
 12
1.0
 22
0.0
 32
0.0
 13
1.0
 23
0.0
 33
0.0
 40
0.0
 40
0.0
 40
0.0
 40
0.0
 40
0.1015004730475748
 40
0.2058817751692796
 40
0.3074885968902605
 40
0.4121578043085573
 40
0.5117295539129223
 40
0.6142784881919215
 40
0.7124655806083346
 40
0.8134156189213058
 40
0.9056310190755245
 40
1.0
 40
1.0
 40
1.0
 40
1.0
 10
249.5830983787409
 20
75.70883486564117
 30
0.0
 10
249.6193138571398
 20
75.69775939219673
 30
0.0
 10
249.6927726968623
 20
75.6752940965669
 30
0.0
 10
249.7939174010123
 20
75.61903054614284
 30
0.0
 10
249.8859545478786
 20
75.54697119815168
 30
0.0
 10
249.9635040742955
 20
75.46117667023339
 30
0.0
 10
250.0259565360713
 20
75.3633408475557
 30
0.0
 10
250.0704095656504
 20
75.25875298357079
 30
0.0
 10
250.0972670137894
 20
75.14805385425528
 30
0.0
 10
250.1052017680244
 20
75.03876367829895
 30
0.0
 10
250.0971608036267
 20
74.93105894912325
 30
0.0
 10
250.0788394635286
 20
74.86391857451099
 30
0.0
 10
250.0695730598552
 20
74.82996091581299
 30
0.0
  0
SPLINE
  5
20D
330
1F
100
AcDbEntity
  8
0
  6
Continuous
 62
     7
370
    15
100
AcDbSpline
210
0.0
220
0.0
230
1.0
 70
     8
 71
     3
 72
    15
 73
    11
 74
     0
 42
0.00000001
 43
0.00000001
 12
1.0
 22
0.0
 32
0.0
 13
1.0
 23
0.0
 33
0.0
 40
0.0
 40
0.0
 40
0.0
 40
0.0
 40
0.1268702503425725
 40
0.2539810595566145
 40
0.3800301963395374
 40
0.50487499675449
 40
0.6290527571816347
 40
0.7532384607999382
 40
0.8780953942141853
 40
1.0
 40
1.0
 40
1.0
 40
1.0
 10
250.0695730598552
 20
74.82996091581299
 30
0.0
 10
250.0601670565351
 20
74.78639523271127
 30
0.0
 10
250.0413372151579
 20
74.6991812615509
 30
0.0
 10
250.0702825463401
 20
74.56544353163521
 30
0.0
 10
250.1388216944187
 20
74.44934009514033
 30
0.0
 10
250.2421467693328
 20
74.3630031636707
 30
0.0
 10
250.3674177480479
 20
74.31562300658915
 30
0.0
 10
250.5004108097708
 20
74.31247281820394
 30
0.0
 10
250.6281718800566
 20
74.35075678592267
 30
0.0
 10
250.6941996837194
 20
74.4068144489587
 30
0.0
 10
250.7268185975197
 20
74.43450793529306
 30
0.0
  0
SPLINE
  5
20E
330
1F
100
AcDbEntity
  8
0
  6
Continuous
 62
     7
370
    15
100
AcDbSpline
210
0.0
220
0.0
230
1.0
 70
     8
 71
     3
 72
    12
 73
     8
 74
     0
 42
0.00000001
 43
0.00000001
 12
1.0
 22
0.0
 32
0.0
 13
1.0
 23
0.0
 33
0.0
 40
0.0
 40
0.0
 40
0.0
 40
0.0
 40
0.2058321750920523
 40
0.412075034357714
 40
0.6141697879285921
 40
0.8133029339855639
 40
1.0
 40
1.0
 40
1.0
 40
1.0
 10
250.7268185975197
 20
74.43450793529306
 30
0.0
 10
250.7857293573851
 20
74.48426788555403
 30
0.0
 10
250.9036684181016
 20
74.58388706901874
 30
0.0
 10
251.1313045254833
 20
74.64941757157467
 30
0.0
 10
251.36202658013
 20
74.64022166314784
 30
0.0
 10
251.5739887878426
 20
74.56172159445369
 30
0.0
 10
251.6799231584529
 20
74.46376838381599
 30
0.0
 10
251.7311831053526
 20
74.41637039252191
 30
0.0
  0
SPLINE
  5
20F
330
1F
100
AcDbEntity
  8
0
  6
Continuous
 62
     7
370
    15
100
AcDbSpline
210
0.0
220
0.0
230
1.0
 70
     8
 71
     3
 72
    15
 73
    11
 74
     0
 42
0.00000001
 43
0.00000001
 12
1.0
 22
0.0
 32
0.0
 13
1.0
 23
0.0
 33
0.0
 40
0.0
 40
0.0
 40
0.0
 40
0.0
 40
0.1267880291974677
 40
0.2538950064077728
 40
0.3799409022877188
 40
0.504784128969366
 40
0.6289621452108105
 40
0.7531495391279528
 40
0.8780089278147876
 40
1.0
 40
1.0
 40
1.0
 40
1.0
 10
251.7311831053526
 20
74.41637039252191
 30
0.0
 10
251.7641858837663
 20
74.38645913110813
 30
0.0
 10
251.830274462395
 20
74.32656136350035
 30
0.0
 10
251.9605280572497
 20
74.28474028267937
 30
0.0
 10
252.0953442489042
 20
74.2860147548396
 30
0.0
 10
252.2217858355664
 20
74.33229847022812
 30
0.0
 10
252.3254733225623
 20
74.41707160656725
 30
0.0
 10
252.3947247351682
 20
74.53065602044767
 30
0.0
 10
252.4254885211577
 20
74.66046642993531
 30
0.0
 10
252.4099548091538
 20
74.74570912975584
 30
0.0
 10
252.4022782013174
 20
74.78783523440369
 30
0.0
  0
SPLINE
  5
210
330
1F
100
AcDbEntity
  8
0
  6
Continuous
 62
     7
370
    15
100
AcDbSpline
210
0.0
220
0.0
230
1.0
 70
     8
 71
     3
 72
    12
 73
     8
 74
     0
 42
0.00000001
 43
0.00000001
 12
1.0
 22
0.0
 32
0.0
 13
1.0
 23
0.0
 33
0.0
 40
0.0
 40
0.0
 40
0.0
 40
0.0
 40
0.2058903596433024
 40
0.4121336430767986
 40
0.6142239121175914
 40
0.8133482777367944
 40
1.0
 40
1.0
 40
1.0
 40
1.0
 10
252.4022782013174
 20
74.78783523440369
 30
0.0
 10
252.3886382707234
 20
74.8637554470079
 30
0.0
 10
252.3613350288583
 20
75.01572600967992
 30
0.0
 10
252.4184294772475
 20
75.24564567203461
 30
0.0
 10
252.5417706517206
 20
75.44084427604068
 30
0.0
 10
252.7157287872108
 20
75.58512875213853
 30
0.0
 10
252.8535064582766
 20
75.62788479790164
 30
0.0
 10
252.9201680280358
 20
75.6485716414607
 30
0.0
  0
LINE
  5
211
330
1F
100
AcDbEntity
  8
0
  6
Continuous
 62
     7
370
    15
100
AcDbLine
 10
241.8474573867
 20
75.7571676091
 30
0.0
 11
251.1040141565
 21
67.9899942376
 31
0.0
  0
ARC
  5
212
330
1F
100
AcDbEntity
  8
0
  6
Continuous
 62
     7
370
    15
100
AcDbCircle
 10
242.1045724306
 20
76.0635853864
 30
0.0
 40
0.40000000000003
100
AcDbArc
 50
130.0
 51
230.0
  0
LINE
  5
213
330
1F
100
AcDbEntity
  8
0
  6
Continuous
 62
     7
370
    15
100
AcDbLine
 10
251.1040141565
 20
84.1371765351
 30
0.0
 11
241.8474573867
 21
76.3700031636
 31
0.0
  0
ARC
  5
214
330
1F
100
AcDbEntity
  8
0
  6
Continuous
 62
     7
370
    15
100
AcDbCircle
 10
251.3611292004
 20
83.8307587579
 30
0.0
 40
0.4000000000000192
100
AcDbArc
 50
50.0
 51
130.0
  0
LINE
  5
215
330
1F
100
AcDbEntity
  8
0
  6
Continuous
 62
     7
370
    15
100
AcDbLine
 10
260.8748010141
 20
76.3700031636
 30
0.0
 11
251.6182442443
 21
84.1371765351
 31
0.0
  0
ARC
  5
216
330
1F
100
AcDbEntity
  8
0
  6
Continuous
 62
     7
370
    15
100
AcDbCircle
 10
260.6176859702
 20
76.0635853864
 30
0.0
 40
0.4000000000001754
100
AcDbArc
 50
310.0
 51
50.0
  0
LINE
  5
217
330
1F
100
AcDbEntity
  8
0
  6
Continuous
 62
     7
370
    15
100
AcDbLine
 10
251.6182442443
 20
67.9899942376
 30
0.0
 11
260.8748010141
 21
75.7571676091
 31
0.0
  0
ARC
  5
218
330
1F
100
AcDbEntity
  8
0
  6
Continuous
 62
     7
370
    15
100
AcDbCircle
 10
251.3611292004
 20
68.2964120148
 30
0.0
 40
0.4000000000000409
100
AcDbArc
 50
230.0
 51
310.0
  0
ARC
  5
219
330
1F
100
AcDbEntity
  8
0
  6
Continuous
 62
     7
370
    15
100
AcDbCircle
 10
260.6176859702
 20
76.0635853864
 30
0.0
 40
0.3800000000001567
100
AcDbArc
 50
310.0
 51
50.0
  0
LINE
  5
21A
330
1F
100
AcDbEntity
  8
0
  6
Continuous
 62
     7
370
    15
100
AcDbLine
 10
260.8619452619
 20
76.3546822747
 30
0.0
 11
251.6053884919
 21
84.121855646
 31
0.0
  0
ARC
  5
21B
330
1F
100
AcDbEntity
  8
0
  6
Continuous
 62
     7
370
    15
100
AcDbCircle
 10
251.3611292004
 20
83.8307587579
 30
0.0
 40
0.380000000000044
100
AcDbArc
 50
50.0
 51
130.0
  0
LINE
  5
21C
330
1F
100
AcDbEntity
  8
0
  6
Continuous
 62
     7
370
    15
100
AcDbLine
 10
251.1168699087
 20
84.1218556463
 30
0.0
 11
241.8603131389
 21
76.3546822747
 31
0.0
  0
ARC
  5
21D
330
1F
100
AcDbEntity
  8
0
  6
Continuous
 62
     7
370
    15
100
AcDbCircle
 10
242.1045724306
 20
76.0635853864
 30
0.0
 40
0.3800000000000039
100
AcDbArc
 50
130.0
 51
230.0
  0
LINE
  5
21E
330
1F
100
AcDbEntity
  8
0
  6
Continuous
 62
     7
370
    15
100
AcDbLine
 10
241.8603131389
 20
75.772488498
 30
0.0
 11
251.1168699087
 21
68.0053151264
 31
0.0
  0
ARC
  5
21F
330
1F
100
AcDbEntity
  8
0
  6
Continuous
 62
     7
370
    15
100
AcDbCircle
 10
251.3611292004
 20
68.2964120148
 30
0.0
 40
0.3800000000000113
100
AcDbArc
 50
230.0
 51
310.0
  0
LINE
  5
220
330
1F
100
AcDbEntity
  8
0
  6
Continuous
 62
     7
370
    15
100
AcDbLine
 10
251.6053884921
 20
68.0053151264
 30
0.0
 11
260.8619452619
 21
75.772488498
 31
0.0
  0
LINE
  5
221
330
1F
100
AcDbEntity
  8
0
  6
Continuous
 62
     7
370
    15
100
AcDbLine
 10
251.3611292004
 20
83.8307587579
 30
0.0
 11
251.6053884919
 21
84.121855646
 31
0.0
  0
LINE
  5
222
330
1F
100
AcDbEntity
  8
0
  6
Continuous
 62
     7
370
    15
100
AcDbLine
 10
260.6176859702
 20
76.0635853864
 30
0.0
 11
260.8619452619
 21
76.3546822747
 31
0.0
  0
LINE
  5
223
330
1F
100
AcDbEntity
  8
0
  6
Continuous
 62
     7
370
    15
100
AcDbLine
 10
259.3180232192
 20
76.0635853864
 30
0.0
 11
260.6176859702
 21
76.0635853864
 31
0.0
  0
LINE
  5
224
330
1F
100
AcDbEntity
  8
0
  6
Continuous
 62
     7
370
    15
100
AcDbLine
 10
251.3611292004
 20
83.0194324568
 30
0.0
 11
251.3611292004
 21
83.8307587579
 31
0.0
  0
LINE
  5
225
330
1F
100
AcDbEntity
  8
0
  6
Continuous
 62
     7
370
    15
100
AcDbLine
 10
251.3611292004
 20
83.8307587579
 30
0.0
 11
251.1168699087
 21
84.1218556463
 31
0.0
  0
LINE
  5
226
330
1F
100
AcDbEntity
  8
0
  6
Continuous
 62
     7
370
    15
100
AcDbLine
 10
242.1045724306
 20
76.0635853864
 30
0.0
 11
241.8603131389
 21
76.3546822747
 31
0.0
  0
LINE
  5
227
330
1F
100
AcDbEntity
  8
0
  6
Continuous
 62
     7
370
    15
100
AcDbLine
 10
243.4042351816
 20
76.0635853864
 30
0.0
 11
242.1045724306
 21
76.0635853864
 31
0.0
  0
ARC
  5
228
330
1F
100
AcDbEntity
  8
0
  6
Continuous
 62
     7
370
    15
100
AcDbCircle
 10
251.3611292004
 20
80.4105916598
 30
0.0
 40
1.000000000000033
100
AcDbArc
 50
50.0
 51
130.0
  0
LINE
  5
229
330
1F
100
AcDbEntity
  8
0
  6
Continuous
 62
     7
370
    15
100
AcDbLine
 10
245.5377812473
 20
75.2975409432
 30
0.0
 11
250.7183415907
 21
70.9505346698
 31
0.0
  0
ARC
  5
22A
330
1F
100
AcDbEntity
  8
0
  6
Continuous
 62
     7
370
    15
100
AcDbCircle
 10
246.180568857
 20
76.0635853864
 30
0.0
 40
1.000000000000004
100
AcDbArc
 50
130.0
 51
230.0
  0
LINE
  5
22B
330
1F
100
AcDbEntity
  8
0
  6
Continuous
 62
     7
370
    15
100
AcDbLine
 10
250.7183415907
 20
81.176636103
 30
0.0
 11
245.5377812473
 21
76.8296298295
 31
0.0
  0
LINE
  5
22C
330
1F
100
AcDbEntity
  8
0
  6
Continuous
 62
     7
370
    15
100
AcDbLine
 10
257.1844771536
 20
76.8296298295
 30
0.0
 11
252.0039168101
 21
81.176636103
 31
0.0
  0
ARC
  5
22D
330
1F
100
AcDbEntity
  8
0
  6
Continuous
 62
     7
370
    15
100
AcDbCircle
 10
256.5416895439
 20
76.0635853864
 30
0.0
 40
1.000000000295345
100
AcDbArc
 50
310.0
 51
50.0
  0
LINE
  5
22E
330
1F
100
AcDbEntity
  8
0
  6
Continuous
 62
     7
370
    15
100
AcDbLine
 10
252.0039168101
 20
70.9505346698
 30
0.0
 11
257.1844771537
 21
75.297540943
 31
0.0
  0
ARC
  5
22F
330
1F
100
AcDbEntity
  8
0
  6
Continuous
 62
     7
370
    15
100
AcDbCircle
 10
251.3611292004
 20
71.7165791129
 30
0.0
 40
1.000000000000059
100
AcDbArc
 50
230.0
 51
310.0
  0
CIRCLE
  5
230
330
1F
100
AcDbEntity
  8
0
  6
Continuous
 62
     7
370
    15
100
AcDbCircle
 10
251.3611292004
 20
76.0635853864
 30
0.0
 40
3.800000000000021
  0
LINE
  5
231
330
1F
100
AcDbEntity
  8
0
  6
Continuous
 62
     7
370
    15
100
AcDbLine
 10
260.6176859702
 20
76.0635853864
 30
0.0
 11
260.8619452619
 21
75.772488498
 31
0.0
  0
LINE
  5
232
330
1F
100
AcDbEntity
  8
0
  6
Continuous
 62
     7
370
    15
100
AcDbLine
 10
251.3611292004
 20
68.2964120148
 30
0.0
 11
251.6053884921
 21
68.0053151264
 31
0.0
  0
LINE
  5
233
330
1F
100
AcDbEntity
  8
0
  6
Continuous
 62
     7
370
    15
100
AcDbLine
 10
251.3611292004
 20
69.1077383159
 30
0.0
 11
251.3611292004
 21
68.2964120148
 31
0.0
  0
LINE
  5
234
330
1F
100
AcDbEntity
  8
0
  6
Continuous
 62
     7
370
    15
100
AcDbLine
 10
251.3611292004
 20
68.2964120148
 30
0.0
 11
251.1168699087
 21
68.0053151264
 31
0.0
  0
LINE
  5
235
330
1F
100
AcDbEntity
  8
0
  6
Continuous
 62
     7
370
    15
100
AcDbLine
 10
242.1045724306
 20
76.0635853864
 30
0.0
 11
241.8603131389
 21
75.772488498
 31
0.0
  0
SPLINE
  5
236
330
1F
100
AcDbEntity
  8
0
  6
Continuous
 62
     7
370
    15
100
AcDbSpline
210
0.0
220
0.0
230
1.0
 70
    24
 71
     3
 72
    14
 73
    10
 74
     0
 42
0.00000001
 43
0.00000001
 12
1.0
 22
0.0
 32
0.0
 13
1.0
 23
0.0
 33
0.0
 40
0.0
 40
0.0
 40
0.0
 40
0.0
 40
0.007607845272194
 40
0.1629874631621692
 40
0.3207220632347716
 40
0.4900060525182182
 40
0.6629673458728789
 40
0.8292185822131455
 40
1.0
 40
1.0
 40
1.0
 40
1.0
 10
258.6265752079715
 20
76.06358538636222
 30
0.0
 10
258.6281528334439
 20
76.06358538636222
 30
0.0
 10
258.6619512565649
 20
76.06358538636232
 30
0.0
 10
258.7309682126581
 20
76.06358538636215
 30
0.0
 10
258.8401706493789
 20
76.06358538636222
 30
0.0
 10
258.957748822737
 20
76.06358538636222
 30
0.0
 10
259.0795590505776
 20
76.06358538636222
 30
0.0
 10
259.2018391810175
 20
76.06358538636219
 30
0.0
 10
259.2789497160086
 20
76.06358538636219
 30
0.0
 10
259.3180232192161
 20
76.06358538636219
 30
0.0
  0
SPLINE
  5
237
330
1F
100
AcDbEntity
  8
0
  6
Continuous
 62
     7
370
    15
100
AcDbSpline
210
0.0
220
0.0
230
1.0
 70
    24
 71
     3
 72
    11
 73
     7
 74
     0
 42
0.00000001
 43
0.00000001
 12
1.0
 22
0.0
 32
0.0
 13
1.0
 23
0.0
 33
0.0
 40
0.0
 40
0.0
 40
0.0
 40
0.0
 40
0.3372314186521228
 40
0.6736321483071501
 40
0.9918835608968519
 40
1.0
 40
1.0
 40
1.0
 40
1.0
 10
251.3611292004184
 20
83.01943245683132
 30
0.0
 10
251.3611292004184
 20
82.94178674039856
 30
0.0
 10
251.3611292004184
 20
82.78668656919707
 30
0.0
 10
251.3611292004185
 20
82.54421658642345
 30
0.0
 10
251.361129200418
 20
82.3950472572622
 30
0.0
 10
251.3611292004184
 20
82.32722694541408
 30
0.0
 10
251.3611292004184
 20
82.32554032270227
 30
0.0
  0
SPLINE
  5
238
330
1F
100
AcDbEntity
  8
0
  6
Continuous
 62
     7
370
    15
100
AcDbSpline
210
0.0
220
0.0
230
1.0
 70
    24
 71
     3
 72
    11
 73
     7
 74
     0
 42
0.00000001
 43
0.00000001
 12
1.0
 22
0.0
 32
0.0
 13
1.0
 23
0.0
 33
0.0
 40
0.0
 40
0.0
 40
0.0
 40
0.0
 40
0.3367831131414777
 40
0.6790111347689283
 40
0.9923717339918429
 40
1.0
 40
1.0
 40
1.0
 40
1.0
 10
243.4042351816205
 20
76.06358538636223
 30
0.0
 10
243.4827096628068
 20
76.06358538636222
 30
0.0
 10
243.6409273537823
 20
76.0635853863622
 30
0.0
 10
243.8805628212923
 20
76.06358538636232
 30
0.0
 10
244.0277201891453
 20
76.06358538636202
 30
0.0
 10
244.09410555183
 20
76.0635853863622
 30
0.0
 10
244.0956831928652
 20
76.06358538636222
 30
0.0
  0
SPLINE
  5
239
330
1F
100
AcDbEntity
  8
0
  6
Continuous
 62
     7
370
    15
100
AcDbSpline
210
0.0
220
0.0
230
1.0
 70
    24
 71
     3
 72
    11
 73
     7
 74
     0
 42
0.00000001
 43
0.00000001
 12
1.0
 22
0.0
 32
0.0
 13
1.0
 23
0.0
 33
0.0
 40
0.0
 40
0.0
 40
0.0
 40
0.0
 40
0.0081164391031219
 40
0.3263678516928315
 40
0.6627685813478772
 40
1.0
 40
1.0
 40
1.0
 40
1.0
 10
251.3611292004183
 20
69.80163045002213
 30
0.0
 10
251.3611292004183
 20
69.79994382731033
 30
0.0
 10
251.3611292004181
 20
69.73212351546226
 30
0.0
 10
251.3611292004185
 20
69.58295418630095
 30
0.0
 10
251.3611292004183
 20
69.34048420352735
 30
0.0
 10
251.3611292004183
 20
69.18538403232589
 30
0.0
 10
251.3611292004183
 20
69.1077383158931
 30
0.0
  0
ELLIPSE
  5
23A
330
1F
100
AcDbEntity
  8
0
  6
HIDDEN
 62
     7
370
     0
100
AcDbEllipse
 10
260.5207174431
 20
76.0635853864
 30
0.0
 11
37.70547486859959
 21
31.44229061528167
 31
0.0
210
0.0
220
0.0
230
1.0
 40
0.0505463825
 41
1.641585194590573
 42
3.1926096553208
  0
ELLIPSE
  5
23B
330
1F
100
AcDbEntity
  8
0
  6
HIDDEN
 62
     7
370
     0
100
AcDbEllipse
 10
260.1360150985
 20
76.0635853864
 30
0.0
 11
-2.785327524179593E-12
 21
31.49999999999998
 31
0.0
210
0.0
220
0.0
230
1.0
 40
0.1227845609
 41
1.560548414232514
 42
1.58104423935723
  0
ELLIPSE
  5
23C
330
1F
100
AcDbEntity
  8
0
  6
HIDDEN
 62
     7
370
     0
100
AcDbEllipse
 10
260.5207174431
 20
76.0635853864
 30
0.0
 11
37.7054748686042
 21
-31.44229061528172
 31
0.0
210
0.0
220
0.0
230
1.0
 40
0.0505463825
 41
3.090575651859115
 42
4.641600112588989
  0
SPLINE
  5
23D
330
1F
100
AcDbEntity
  8
0
  6
HIDDEN
 62
     7
370
     0
100
AcDbSpline
210
0.0
220
0.0
230
1.0
 70
     8
 71
     3
 72
    12
 73
     8
 74
     0
 42
0.00000001
 43
0.00000001
 12
1.0
 22
0.0
 32
0.0
 13
1.0
 23
0.0
 33
0.0
 40
0.0
 40
0.0
 40
0.0
 40
0.0
 40
0.4999999999999991
 40
0.4999999999999991
 40
0.7499999999999993
 40
0.7499999999999993
 40
1.0
 40
1.0
 40
1.0
 40
1.0
 10
130.2011736837908
 20
91.51585336819312
 30
0.0
 10
130.2575798624711
 20
91.46803099453328
 30
0.0
 10
130.3277427639428
 20
91.42776014759474
 30
0.0
 10
130.4457534773321
 20
91.41971427911778
 30
0.0
 10
130.4859592609275
 20
91.42627687745664
 30
0.0
 10
130.5596799576606
 20
91.45365897191027
 30
0.0
 10
130.5925406794471
 20
91.47342046244063
 30
0.0
 10
130.6227090813763
 20
91.49635317362866
 30
0.0
  0
SPLINE
  5
23E
330
1F
100
AcDbEntity
  8
0
  6
HIDDEN
 62
     7
370
     0
100
AcDbSpline
210
0.0
220
0.0
230
1.0
 70
     8
 71
     3
 72
    16
 73
    12
 74
     0
 42
0.00000001
 43
0.00000001
 12
1.0
 22
0.0
 32
0.0
 13
1.0
 23
0.0
 33
0.0
 40
0.0
 40
0.0
 40
0.0
 40
0.0
 40
0.0624999999999985
 40
0.0624999999999985
 40
0.1249999999999971
 40
0.1249999999999971
 40
0.2500000000000005
 40
0.2500000000000005
 40
0.4999999999999969
 40
0.4999999999999969
 40
1.0
 40
1.0
 40
1.0
 40
1.0
 10
130.6227090813312
 20
91.49635317367674
 30
0.0
 10
130.6343219811706
 20
91.50518079665814
 30
0.0
 10
130.647673165603
 20
91.51301517854004
 30
0.0
 10
130.6770730052222
 20
91.52132530461243
 30
0.0
 10
130.6919137297774
 20
91.5208294853774
 30
0.0
 10
130.7277469377461
 20
91.50937851440804
 30
0.0
 10
130.7418601455677
 20
91.49269801354941
 30
0.0
 10
130.7763515167866
 20
91.44057732779235
 30
0.0
 10
130.787435587897
 20
91.40078783376735
 30
0.0
 10
130.813558405693
 20
91.27745120167025
 30
0.0
 10
130.8176859702378
 20
91.19002979117161
 30
0.0
 10
130.8176859702378
 20
91.10129254885338
 30
0.0
  0
SPLINE
  5
23F
330
1F
100
AcDbEntity
  8
0
  6
HIDDEN
 62
     7
370
     0
100
AcDbSpline
210
0.0
220
0.0
230
1.0
 70
     8
 71
     3
 72
    15
 73
    11
 74
     0
 42
0.00000001
 43
0.00000001
 12
1.0
 22
0.0
 32
0.0
 13
1.0
 23
0.0
 33
0.0
 40
0.0
 40
0.0
 40
0.0
 40
0.0
 40
0.4363584259416624
 40
0.5912664340662199
 40
0.7470788784248059
 40
0.8149521612747812
 40
0.8581633523612943
 40
0.9016926975556867
 40
0.9400252237201036
 40
1.0
 40
1.0
 40
1.0
 40
1.0
 10
130.7988086440417
 20
60.86392740068595
 30
0.0
 10
130.7972798984986
 20
60.81093045035641
 30
0.0
 10
130.7952084456009
 20
60.73911948951586
 30
0.0
 10
130.7618670571561
 20
60.66235967482861
 30
0.0
 10
130.7369289186544
 20
60.62704941907332
 30
0.0
 10
130.7078524729679
 20
60.61019996266904
 30
0.0
 10
130.6859887006469
 20
60.60604208094446
 30
0.0
 10
130.6658391438144
 20
60.60827088377816
 30
0.0
 10
130.6435218019579
 20
60.61641509480093
 30
0.0
 10
130.630595244291
 20
60.62536033582538
 30
0.0
 10
130.6227090813626
 20
60.63081759907919
 30
0.0
  0
SPLINE
  5
240
330
1F
100
AcDbEntity
  8
0
  6
HIDDEN
 62
     7
370
     0
100
AcDbSpline
210
0.0
220
0.0
230
1.0
 70
     8
 71
     3
 72
    12
 73
     8
 74
     0
 42
0.00000001
 43
0.00000001
 12
1.0
 22
0.0
 32
0.0
 13
1.0
 23
0.0
 33
0.0
 40
0.0
 40
0.0
 40
0.0
 40
0.0
 40
0.25
 40
0.25
 40
0.5
 40
0.5
 40
1.0
 40
1.0
 40
1.0
 40
1.0
 10
130.6227090813693
 20
60.63081759908764
 30
0.0
 10
130.5925172396521
 20
60.65376812818546
 30
0.0
 10
130.5591582702374
 20
60.67373760220965
 30
0.0
 10
130.4860209856569
 20
60.70083873583513
 30
0.0
 10
130.4457791130029
 20
60.70743947648057
 30
0.0
 10
130.3280733360344
 20
60.69947060197386
 30
0.0
 10
130.257662858255
 20
60.65921014380599
 30
0.0
 10
130.2011736837867
 20
60.61131740452785
 30
0.0
  0
SPLINE
  5
241
330
1F
100
AcDbEntity
  8
0
  6
HIDDEN
 62
     7
370
     0
100
AcDbSpline
210
0.0
220
0.0
230
1.0
 70
     8
 71
     3
 72
    12
 73
     8
 74
     0
 42
0.00000001
 43
0.00000001
 12
1.0
 22
0.0
 32
0.0
 13
1.0
 23
0.0
 33
0.0
 40
0.0
 40
0.0
 40
0.0
 40
0.0
 40
0.2499999999999986
 40
0.2499999999999986
 40
0.4999999999999998
 40
0.4999999999999998
 40
1.0
 40
1.0
 40
1.0
 40
1.0
 10
130.2011736837863
 20
60.61131740452804
 30
0.0
 10
130.1130197460486
 20
60.53657859667397
 30
0.0
 10
130.0526663214199
 20
60.44559809619157
 30
0.0
 10
129.946404363353
 20
60.25668427343897
 30
0.0
 10
129.904172196791
 20
60.16017981389839
 30
0.0
 10
129.7931015014738
 20
59.86941205973123
 30
0.0
 10
129.740164725047
 20
59.67374524518748
 30
0.0
 10
129.6963656266782
 20
59.47967876012117
 30
0.0
  0
SPLINE
  5
242
330
1F
100
AcDbEntity
  8
0
  6
HIDDEN
 62
     7
370
     0
100
AcDbSpline
210
0.0
220
0.0
230
1.0
 70
     8
 71
     3
 72
    12
 73
     8
 74
     0
 42
0.00000001
 43
0.00000001
 12
1.0
 22
0.0
 32
0.0
 13
1.0
 23
0.0
 33
0.0
 40
0.0
 40
0.0
 40
0.0
 40
0.0
 40
0.4999999999999991
 40
0.4999999999999991
 40
0.7499999999999996
 40
0.7499999999999996
 40
1.0
 40
1.0
 40
1.0
 40
1.0
 10
129.6963656266782
 20
54.29350443136013
 30
0.0
 10
129.7401121675148
 20
54.26691026071895
 30
0.0
 10
129.7929965227463
 20
54.24715003539323
 30
0.0
 10
129.9045636100824
 20
54.22669904516414
 30
0.0
 10
129.9471472066255
 20
54.2214388205077
 30
0.0
 10
130.0520639337072
 20
54.21355602658505
 30
0.0
 10
130.1135975415521
 20
54.2109919014059
 30
0.0
 10
130.2011736837782
 20
54.20879168388626
 30
0.0
  0
SPLINE
  5
243
330
1F
100
AcDbEntity
  8
0
  6
HIDDEN
 62
     7
370
     0
100
AcDbSpline
210
0.0
220
0.0
230
1.0
 70
     8
 71
     3
 72
    12
 73
     8
 74
     0
 42
0.00000001
 43
0.00000001
 12
1.0
 22
0.0
 32
0.0
 13
1.0
 23
0.0
 33
0.0
 40
0.0
 40
0.0
 40
0.0
 40
0.0
 40
0.25
 40
0.25
 40
0.5
 40
0.5
 40
1.0
 40
1.0
 40
1.0
 40
1.0
 10
130.2011736837862
 20
97.91837908883815
 30
0.0
 10
130.1124890239298
 20
97.91615102149714
 30
0.0
 10
130.0525706082064
 20
97.91364923746681
 30
0.0
 10
129.9469113808857
 20
97.9057178016308
 30
0.0
 10
129.9042701427707
 20
97.90042564673396
 30
0.0
 10
129.7930808006682
 20
97.88002070624682
 30
0.0
 10
129.7401541185472
 20
97.86028601465996
 30
0.0
 10
129.6963656266782
 20
97.83366634136434
 30
0.0
  0
SPLINE
  5
244
330
1F
100
AcDbEntity
  8
0
  6
HIDDEN
 62
     7
370
     0
100
AcDbSpline
210
0.0
220
0.0
230
1.0
 70
     8
 71
     3
 72
    12
 73
     8
 74
     0
 42
0.00000001
 43
0.00000001
 12
1.0
 22
0.0
 32
0.0
 13
1.0
 23
0.0
 33
0.0
 40
0.0
 40
0.0
 40
0.0
 40
0.0
 40
0.4999999999999967
 40
0.4999999999999967
 40
0.7499999999999997
 40
0.7499999999999997
 40
1.0
 40
1.0
 40
1.0
 40
1.0
 10
129.6963656266766
 20
92.64749201260346
 30
0.0
 10
129.7401271029754
 20
92.45359222464138
 30
0.0
 10
129.7930334186284
 20
92.25773586070453
 30
0.0
 10
129.9047446162758
 20
91.96559371420558
 30
0.0
 10
129.9472640598622
 20
91.86887577750765
 30
0.0
 10
130.0523874024296
 20
91.68215134108318
 30
0.0
 10
130.1139533661473
 20
91.58980063281348
 30
0.0
 10
130.20117368379
 20
91.51585336819379
 30
0.0
  0
ARC
  5
245
330
1F
100
AcDbEntity
  8
0
  6
HIDDEN
 62
     7
370
     0
100
AcDbCircle
 10
198.2327659398
 20
78.3883284866
 30
0.0
 40
0.1751536150545673
100
AcDbArc
 50
64.73500048
 51
104.6933421268
  0
ARC
  5
246
330
1F
100
AcDbEntity
  8
0
  6
HIDDEN
 62
     7
370
     0
100
AcDbCircle
 10
198.2327659398
 20
73.7388422861
 30
0.0
 40
0.1751536150546702
100
AcDbArc
 50
255.3066578732
 51
295.26499952
  0
CIRCLE
  5
247
330
1F
100
AcDbEntity
  8
0
  6
HIDDEN
 62
     7
370
     0
100
AcDbCircle
 10
115.5176859702
 20
76.0635853864
 30
0.0
 40
4.049999999999997
  0
LINE
  5
248
330
1F
100
AcDbEntity
  8
0
  6
HIDDEN
 62
     7
370
     0
100
AcDbLine
 10
94.5479144099
 20
60.7506343434
 30
0.0
 11
94.5479144099
 21
91.3765364293
 31
0.0
  0
LINE
  5
249
330
1F
100
AcDbEntity
  8
0
  6
HIDDEN
 62
     7
370
     0
100
AcDbLine
 10
101.0479144099
 20
61.7171752248
 30
0.0
 11
101.0479144099
 21
90.4099955479
 31
0.0
  0
LINE
  5
24A
330
1F
100
AcDbEntity
  8
0
  6
HIDDEN
 62
     7
370
     0
100
AcDbLine
 10
106.8479144099
 20
62.0635853864
 30
0.0
 11
106.8479144099
 21
90.0635853864
 31
0.0
  0
LINE
  5
24B
330
1F
100
AcDbEntity
  8
0
  6
HIDDEN
 62
     7
370
     0
100
AcDbLine
 10
99.4479144099
 20
62.0635853864
 30
0.0
 11
99.4479144099
 21
90.0635853864
 31
0.0
  0
LINE
  5
24C
330
1F
100
AcDbEntity
  8
0
  6
HIDDEN
 62
     7
370
     0
100
AcDbLine
 10
100.4479144099
 20
62.0635853864
 30
0.0
 11
100.4479144099
 21
90.0635853864
 31
0.0
  0
SPLINE
  5
24D
330
1F
100
AcDbEntity
  8
0
  6
HIDDEN
 62
     7
370
     0
100
AcDbSpline
210
0.0
220
0.0
230
1.0
 70
     8
 71
     3
 72
     9
 73
     5
 74
     0
 42
0.00000001
 43
0.00000001
 12
1.0
 22
0.0
 32
0.0
 13
1.0
 23
0.0
 33
0.0
 40
0.0
 40
0.0
 40
0.0
 40
0.0
 40
0.4184609711560125
 40
1.0
 40
1.0
 40
1.0
 40
1.0
 10
119.5176859702379
 20
76.69801426338476
 30
0.0
 10
119.4986302400778
 20
76.8073971760672
 30
0.0
 10
119.4530925878865
 20
77.06879052030254
 30
0.0
 10
119.3601265245375
 20
77.31663040583852
 30
0.0
 10
119.306063130342
 20
77.46075897218194
 30
0.0
  0
SPLINE
  5
24E
330
1F
100
AcDbEntity
  8
0
  6
HIDDEN
 62
     7
370
     0
100
AcDbSpline
210
0.0
220
0.0
230
1.0
 70
     8
 71
     3
 72
    10
 73
     6
 74
     0
 42
0.00000001
 43
0.00000001
 12
1.0
 22
0.0
 32
0.0
 13
1.0
 23
0.0
 33
0.0
 40
0.0
 40
0.0
 40
0.0
 40
0.0
 40
0.1274035824192808
 40
0.7057890723974987
 40
1.0
 40
1.0
 40
1.0
 40
1.0
 10
119.1981503871684
 20
74.38055885629919
 30
0.0
 10
119.2180233375928
 20
74.42264755423511
 30
0.0
 10
119.3281153065899
 20
74.65581009574714
 30
0.0
 10
119.4395641654125
 20
75.00803568997596
 30
0.0
 10
119.4979875266529
 20
75.32297073033412
 30
0.0
 10
119.5176859702379
 20
75.4291565093397
 30
0.0
  0
LINE
  5
24F
330
1F
100
AcDbEntity
  8
0
  6
HIDDEN
 62
     7
370
     0
100
AcDbLine
 10
120.0176859702
 20
62.5635853864
 30
0.0
 11
120.0176859702
 21
89.5635853084
 31
0.0
  0
LINE
  5
250
330
1F
100
AcDbEntity
  8
0
  6
HIDDEN
 62
     7
370
     0
100
AcDbLine
 10
121.2676859702
 20
67.0635853864
 30
0.0
 11
121.2676859702
 21
85.0635853864
 31
0.0
  0
LINE
  5
251
330
1F
100
AcDbEntity
  8
0
  6
HIDDEN
 62
     7
370
     0
100
AcDbLine
 10
158.0176859702
 20
85.0635853864
 30
0.0
 11
158.0176859702
 21
67.0635853864
 31
0.0
  0
LINE
  5
252
330
1F
100
AcDbEntity
  8
0
  6
HIDDEN
 62
     7
370
     0
100
AcDbLine
 10
160.8717739106
 20
80.3135853864
 30
0.0
 11
160.8717739106
 21
71.8135853864
 31
0.0
  0
LINE
  5
253
330
1F
100
AcDbEntity
  8
0
  6
HIDDEN
 62
     7
370
     0
100
AcDbLine
 10
202.0176859702
 20
80.3135853864
 30
0.0
 11
202.0176859702
 21
71.8135853864
 31
0.0
  0
LINE
  5
254
330
1F
100
AcDbEntity
  8
0
  6
HIDDEN
 62
     7
370
     0
100
AcDbLine
 10
250.9926334307
 20
84.0276886231
 30
0.0
 11
243.8602327169
 21
78.0428938147
 31
0.0
  0
LINE
  5
255
330
1F
100
AcDbEntity
  8
0
  6
HIDDEN
 62
     7
370
     0
100
AcDbLine
 10
243.8602327169
 20
74.084276958
 30
0.0
 11
250.9926334307
 21
68.0994821496
 31
0.0
  0
LINE
  5
256
330
1F
100
AcDbEntity
  8
0
  6
HIDDEN
 62
     7
370
     0
100
AcDbLine
 10
250.9926334307
 20
68.0994821496
 30
0.0
 11
250.9830824874
 21
68.0914679566
 31
0.0
  0
LINE
  5
257
330
1F
100
AcDbEntity
  8
0
  6
HIDDEN
 62
     7
370
     0
100
AcDbLine
 10
250.9830824874
 20
84.0357028161
 30
0.0
 11
250.9926334307
 21
84.0276886231
 31
0.0
  0
ARC
  5
258
330
1F
100
AcDbEntity
  8
0
  6
HIDDEN
 62
     7
370
     0
100
AcDbCircle
 10
243.1585646007
 20
76.0635853864
 30
0.0
 40
2.100000000000022
100
AcDbArc
 50
62.3926878054
 51
70.4804989879
  0
LINE
  5
259
330
1F
100
AcDbEntity
  8
0
  6
HIDDEN
 62
     7
370
     0
100
AcDbLine
 10
251.0663264813
 20
83.7433112953
 30
0.0
 11
244.1317237743
 21
77.9244887215
 31
0.0
  0
LINE
  5
25A
330
1F
100
AcDbEntity
  8
0
  6
HIDDEN
 62
     7
370
     0
100
AcDbLine
 10
251.0663264813
 20
83.7433112953
 30
0.0
 11
250.9926334307
 21
84.0276886231
 31
0.0
  0
LINE
  5
25B
330
1F
100
AcDbEntity
  8
0
  6
HIDDEN
 62
     7
370
     0
100
AcDbLine
 10
244.1317237743
 20
74.2026820512
 30
0.0
 11
251.0663264813
 21
68.3838594775
 31
0.0
  0
LINE
  5
25C
330
1F
100
AcDbEntity
  8
0
  6
HIDDEN
 62
     7
370
     0
100
AcDbLine
 10
250.9926334307
 20
68.0994821496
 30
0.0
 11
251.0663264813
 21
68.3838594775
 31
0.0
  0
ARC
  5
25D
330
1F
100
AcDbEntity
  8
0
  6
HIDDEN
 62
     7
370
     0
100
AcDbCircle
 10
243.1585646007
 20
76.0635853864
 30
0.0
 40
2.100000000000005
100
AcDbArc
 50
289.519501012
 51
297.6073121946
  0
CIRCLE
  5
25E
330
1F
100
AcDbEntity
  8
0
  6
HIDDEN
 62
     7
370
     0
100
AcDbCircle
 10
251.2611292004
 20
76.0635853864
 30
0.0
 40
2.600000000000009
  0
LINE
  5
25F
330
1F
100
AcDbEntity
  8
0
  6
HIDDEN
 62
     7
370
     0
100
AcDbLine
 10
259.5270036764
 20
76.3863889819
 30
0.0
 11
259.5270036764
 21
75.7407817908
 31
0.0
  0
LINE
  5
260
330
1F
100
AcDbEntity
  8
0
  6
HIDDEN
 62
     7
370
     0
100
AcDbLine
 10
259.5270036764
 20
75.7407817908
 30
0.0
 11
250.9128457801
 21
68.5126450772
 31
0.0
  0
ARC
  5
261
330
1F
100
AcDbEntity
  8
0
  6
HIDDEN
 62
     7
370
     0
100
AcDbCircle
 10
243.1585646007
 20
76.0635853864
 30
0.0
 40
2.100000000000022
100
AcDbArc
 50
297.6073121946
 51
62.3926878054
  0
LINE
  5
262
330
1F
100
AcDbEntity
  8
0
  6
HIDDEN
 62
     7
370
     0
100
AcDbLine
 10
250.9128457801
 20
83.6145256955
 30
0.0
 11
259.5270036764
 21
76.3863889819
 31
0.0
  0
CIRCLE
  5
263
330
1F
100
AcDbEntity
  8
0
  6
HIDDEN
 62
     7
370
     0
100
AcDbCircle
 10
251.2611292004
 20
76.0635853864
 30
0.0
 40
2.100000000000009
  0
LINE
  5
264
330
1F
100
AcDbEntity
  8
0
  6
HIDDEN
 62
     7
370
     0
100
AcDbLine
 10
256.2685045214
 20
75.7407817908
 30
0.0
 11
259.5270036764
 21
75.7407817908
 31
0.0
  0
LINE
  5
265
330
1F
100
AcDbEntity
  8
0
  6
HIDDEN
 62
     7
370
     0
100
AcDbLine
 10
256.2685045214
 20
76.3863889819
 30
0.0
 11
259.5270036764
 21
76.3863889819
 31
0.0
  0
SPLINE
  5
266
330
1F
100
AcDbEntity
  8
0
  6
HIDDEN
 62
     7
370
     0
100
AcDbSpline
210
0.0
220
0.0
230
1.0
 70
     8
 71
     3
 72
    16
 73
    12
 74
     0
 42
0.00000001
 43
0.00000001
 12
1.0
 22
0.0
 32
0.0
 13
1.0
 23
0.0
 33
0.0
 40
0.0
 40
0.0
 40
0.0
 40
0.0
 40
0.25
 40
0.25
 40
0.375
 40
0.375
 40
0.5
 40
0.5
 40
0.75
 40
0.75
 40
1.0
 40
1.0
 40
1.0
 40
1.0
 10
129.6963656266782
 20
97.83366634136434
 30
0.0
 10
129.5351331491937
 20
97.73565072830962
 30
0.0
 10
129.4146533095541
 20
97.54891469663357
 30
0.0
 10
129.2922727922408
 20
97.13587488907467
 30
0.0
 10
129.2612951318433
 20
96.97587438984175
 30
0.0
 10
129.2196813942154
 20
96.60906873875058
 30
0.0
 10
129.2094454812826
 20
96.40573158612659
 30
0.0
 10
129.2092570842265
 20
95.73844431949992
 30
0.0
 10
129.2494017868641
 20
95.21762985561186
 30
0.0
 10
129.4135555418036
 20
94.02027084013416
 30
0.0
 10
129.5351071922132
 20
93.36200118583818
 30
0.0
 10
129.6963656266782
 20
92.64749201260327
 30
0.0
  0
SPLINE
  5
267
330
1F
100
AcDbEntity
  8
0
  6
HIDDEN
 62
     7
370
     0
100
AcDbSpline
210
0.0
220
0.0
230
1.0
 70
     8
 71
     3
 72
    16
 73
    12
 74
     0
 42
0.00000001
 43
0.00000001
 12
1.0
 22
0.0
 32
0.0
 13
1.0
 23
0.0
 33
0.0
 40
0.0
 40
0.0
 40
0.0
 40
0.0
 40
0.2499999999999995
 40
0.2499999999999995
 40
0.3749999999999996
 40
0.3749999999999996
 40
0.4999999999999997
 40
0.4999999999999997
 40
0.7499999999999998
 40
0.7499999999999998
 40
1.0
 40
1.0
 40
1.0
 40
1.0
 10
129.6963656266782
 20
59.47967876012118
 30
0.0
 10
129.5351331491937
 20
58.76528459792905
 30
0.0
 10
129.4146533095541
 20
58.11194233522038
 30
0.0
 10
129.2922727922408
 20
57.2236870934165
 30
0.0
 10
129.2612951318433
 20
56.94300655706466
 30
0.0
 10
129.2196813942154
 20
56.41397256722468
 30
0.0
 10
129.2094454812826
 20
56.17065158864623
 30
0.0
 10
129.2092570842265
 20
55.502628898133
 30
0.0
 10
129.2494017868641
 20
55.13894798871353
 30
0.0
 10
129.4135555418036
 20
54.57905711616523
 30
0.0
 10
129.5351071922132
 20
54.39153582404808
 30
0.0
 10
129.6963656266782
 20
54.29350443136013
 30
0.0
  0
LINE
  5
268
330
1F
100
AcDbEntity
  8
0
  6
HIDDEN
 62
     7
370
     0
100
AcDbLine
 10
130.8176859702
 20
83.0854727121
 30
0.0
 11
130.8176859702
 21
69.0416980606
 31
0.0
  0
SPLINE
  5
269
330
1F
100
AcDbEntity
  8
0
  6
HIDDEN
 62
     7
370
     0
100
AcDbSpline
210
0.0
220
0.0
230
1.0
 70
     8
 71
     3
 72
    24
 73
    20
 74
     0
 42
0.00000001
 43
0.00000001
 12
1.0
 22
0.0
 32
0.0
 13
1.0
 23
0.0
 33
0.0
 40
0.0
 40
0.0
 40
0.0
 40
0.0
 40
0.125
 40
0.125
 40
0.2500000000000001
 40
0.2500000000000001
 40
0.3750000000000001
 40
0.3750000000000001
 40
0.4375000000000001
 40
0.4375000000000001
 40
0.5000000000000001
 40
0.5000000000000001
 40
0.6250000000000001
 40
0.6250000000000001
 40
0.7500000000000002
 40
0.7500000000000002
 40
0.8750000000000001
 40
0.8750000000000001
 40
1.0
 40
1.0
 40
1.0
 40
1.0
 10
99.46768597023785
 20
71.977624333263
 30
0.0
 10
99.70548960251294
 20
72.27663143559313
 30
0.0
 10
99.93557526372422
 20
72.58096928691185
 30
0.0
 10
100.370328662334
 20
73.20670282430784
 30
0.0
 10
100.5752614546202
 20
73.52792755163536
 30
0.0
 10
100.9403634051189
 20
74.19985332236809
 30
0.0
 10
101.1021637909104
 20
74.55516855424698
 30
0.0
 10
101.2740239954901
 20
75.10539977559942
 30
0.0
 10
101.3196091871503
 20
75.2918035605799
 30
0.0
 10
101.3820839267251
 20
75.67193806267615
 30
0.0
 10
101.3987550724736
 20
75.86760785496203
 30
0.0
 10
101.3992761156501
 20
76.44608823363646
 30
0.0
 10
101.3348338147634
 20
76.82400007260524
 30
0.0
 10
101.10498472139
 20
77.56596809770367
 30
0.0
 10
100.9464640437269
 20
77.91468355786465
 30
0.0
 10
100.5822297138268
 20
78.58777595559779
 30
0.0
 10
100.3754934737632
 20
78.91272844283944
 30
0.0
 10
99.93755552802283
 20
79.54365225330122
 30
0.0
 10
99.70628280074327
 20
79.84954199364186
 30
0.0
 10
99.46768597023795
 20
80.14954643946136
 30
0.0
  0
LINE
  5
26A
330
1F
100
AcDbEntity
  8
0
  6
HIDDEN
 62
     7
370
     0
100
AcDbLine
 10
99.4676859702
 20
71.9776243333
 30
0.0
 11
99.4676859702
 21
80.1495464395
 31
0.0
  0
SPLINE
  5
26B
330
1F
100
AcDbEntity
  8
0
  6
HIDDEN
 62
     7
370
     0
100
AcDbSpline
210
0.0
220
0.0
230
1.0
 70
     8
 71
     3
 72
     8
 73
     4
 74
     0
 42
0.00000001
 43
0.00000001
 12
1.0
 22
0.0
 32
0.0
 13
1.0
 23
0.0
 33
0.0
 40
0.0000249638557296
 40
0.0000249638557296
 40
0.0000249638557296
 40
0.0000249638557296
 40
0.0049776420541172
 40
0.0049776420541172
 40
0.0049776420541172
 40
0.0049776420541172
 10
94.51768597023785
 20
72.0983744895257
 30
0.0
 10
96.1676622047474
 20
72.05709525175749
 30
0.0
 10
97.81766352449242
 20
72.016873570518
 30
0.0
 10
99.46768597023785
 20
71.977624333263
 30
0.0
  0
SPLINE
  5
26C
330
1F
100
AcDbEntity
  8
0
  6
HIDDEN
 62
     7
370
     0
100
AcDbSpline
210
0.0
220
0.0
230
1.0
 70
     8
 71
     3
 72
     8
 73
     4
 74
     0
 42
0.00000001
 43
0.00000001
 12
1.0
 22
0.0
 32
0.0
 13
1.0
 23
0.0
 33
0.0
 40
0.0000249631533153
 40
0.0000249631533153
 40
0.0000249631533153
 40
0.0000249631533153
 40
0.0049776413517029
 40
0.0049776413517029
 40
0.0049776413517029
 40
0.0049776413517029
 10
99.46768597023784
 20
80.14954643946149
 30
0.0
 10
97.81766352449242
 20
80.11029720220647
 30
0.0
 10
96.16766220474739
 20
80.07007552096698
 30
0.0
 10
94.51768597023785
 20
80.02879628319879
 30
0.0
  0
SPLINE
  5
26D
330
1F
100
AcDbEntity
  8
0
  6
HIDDEN
 62
     7
370
     0
100
AcDbSpline
210
0.0
220
0.0
230
1.0
 70
     8
 71
     3
 72
     8
 73
     4
 74
     0
 42
0.00000001
 43
0.00000001
 12
1.0
 22
0.0
 32
0.0
 13
1.0
 23
0.0
 33
0.0
 40
0.0
 40
0.0
 40
0.0
 40
0.0
 40
1.0
 40
1.0
 40
1.0
 40
1.0
 10
93.0176859702356
 20
73.16159805338188
 30
0.0
 10
93.4844465816134
 20
72.74623480775885
 30
0.0
 10
93.99019412839348
 20
72.40164437845425
 30
0.0
 10
94.51768597023785
 20
72.0983744895257
 30
0.0
  0
SPLINE
  5
26E
330
1F
100
AcDbEntity
  8
0
  6
HIDDEN
 62
     7
370
     0
100
AcDbSpline
210
0.0
220
0.0
230
1.0
 70
     8
 71
     3
 72
     8
 73
     4
 74
     0
 42
0.00000001
 43
0.00000001
 12
1.0
 22
0.0
 32
0.0
 13
1.0
 23
0.0
 33
0.0
 40
0.0
 40
0.0
 40
0.0
 40
0.0
 40
1.0
 40
1.0
 40
1.0
 40
1.0
 10
94.51768597023785
 20
80.02879628319879
 30
0.0
 10
93.99019412839432
 20
79.7255263942707
 30
0.0
 10
93.48444658161503
 20
79.38093596496672
 30
0.0
 10
93.01768597023785
 20
78.96557271934458
 30
0.0
  0
SPLINE
  5
26F
330
1F
100
AcDbEntity
  8
0
  6
HIDDEN
 62
     7
370
     0
100
AcDbSpline
210
0.0
220
0.0
230
1.0
 70
     8
 71
     3
 72
    11
 73
     7
 74
     0
 42
0.00000001
 43
0.00000001
 12
1.0
 22
0.0
 32
0.0
 13
1.0
 23
0.0
 33
0.0
 40
0.0
 40
0.0
 40
0.0
 40
0.0
 40
0.2662454704970133
 40
0.5381261528018115
 40
0.8488064763655931
 40
1.0
 40
1.0
 40
1.0
 40
1.0
 10
112.328847399
 20
78.70959693641963
 30
0.0
 10
112.471780760635
 20
78.8538231873916
 30
0.0
 10
112.7606727363748
 20
79.14532830642213
 30
0.0
 10
113.2955878138419
 20
79.5113475928364
 30
0.0
 10
113.792296697448
 20
79.77660980606173
 30
0.0
 10
114.1309573872442
 20
79.87377649335893
 30
0.0
 10
114.2418173186245
 20
79.90558382326398
 30
0.0
  0
SPLINE
  5
270
330
1F
100
AcDbEntity
  8
0
  6
HIDDEN
 62
     7
370
     0
100
AcDbSpline
210
0.0
220
0.0
230
1.0
 70
     8
 71
     3
 72
    29
 73
    25
 74
     0
 42
0.00000001
 43
0.00000001
 12
1.0
 22
0.0
 32
0.0
 13
1.0
 23
0.0
 33
0.0
 40
0.0
 40
0.0
 40
0.0
 40
0.0
 40
0.0225186817509607
 40
0.0741096296212508
 40
0.1254756854844676
 40
0.1783361674439447
 40
0.2295295446085626
 40
0.2823198177597153
 40
0.3315257321136433
 40
0.3823737442710139
 40
0.4281368325520185
 40
0.4754107719722711
 40
0.5183313683892575
 40
0.562532468793078
 40
0.604965967102383
 40
0.6485351121290284
 40
0.6928378970005029
 40
0.7382680959572815
 40
0.7856503082680284
 40
0.8342609492861222
 40
0.8843848230873169
 40
0.9358879037874401
 40
0.9872998275470287
 40
1.0
 40
1.0
 40
1.0
 40
1.0
 10
115.0123311119351
 20
80.07729610553844
 30
0.0
 10
115.1218103376454
 20
80.09527174382175
 30
0.0
 10
115.4821096197413
 20
80.15443008666415
 30
0.0
 10
116.104329059287
 20
80.1239039441154
 30
0.0
 10
116.8594523446053
 20
79.98661702595041
 30
0.0
 10
117.5787090241099
 20
79.71849654878869
 30
0.0
 10
118.2471011908338
 20
79.3306516585467
 30
0.0
 10
118.8238621160971
 20
78.84273426131652
 30
0.0
 10
119.303506844303
 20
78.26164277617956
 30
0.0
 10
119.6539962892651
 20
77.63231255565162
 30
0.0
 10
119.8818355331151
 20
76.95901885012215
 30
0.0
 10
119.9803602725863
 20
76.29346797016265
 30
0.0
 10
119.9610985795491
 20
75.62935069159826
 30
0.0
 10
119.8347991808478
 20
75.00146776253325
 30
0.0
 10
119.6056495323836
 20
74.4010835836096
 30
0.0
 10
119.2833153013368
 20
73.84527404394859
 30
0.0
 10
118.8678401078847
 20
73.3367888293931
 30
0.0
 10
118.3639020193172
 20
72.88758471832176
 30
0.0
 10
117.7774631801267
 20
72.51154750699052
 30
0.0
 10
117.1173893260356
 20
72.22435862326385
 30
0.0
 10
116.3987604317165
 20
72.03832798275268
 30
0.0
 10
115.647522976403
 20
71.98019735816915
 30
0.0
 10
115.0724981755761
 20
72.00136379086196
 30
0.0
 10
114.7673769008393
 20
72.08253747337851
 30
0.0
 10
114.7069344408801
 20
72.09861743063314
 30
0.0
  0
SPLINE
  5
271
330
1F
100
AcDbEntity
  8
0
  6
HIDDEN
 62
     7
370
     0
100
AcDbSpline
210
0.0
220
0.0
230
1.0
 70
     8
 71
     3
 72
    20
 73
    16
 74
     0
 42
0.00000001
 43
0.00000001
 12
1.0
 22
0.0
 32
0.0
 13
1.0
 23
0.0
 33
0.0
 40
0.0
 40
0.0
 40
0.0
 40
0.0
 40
0.0292674553081814
 40
0.1209852157190403
 40
0.2155296168457019
 40
0.3042916344188055
 40
0.3959336222259126
 40
0.4796570483899836
 40
0.566123971478431
 40
0.6448643365602044
 40
0.726020710444204
 40
0.8027159236219856
 40
0.8815470388811862
 40
0.9403450855586192
 40
1.0
 40
1.0
 40
1.0
 40
1.0
 10
114.3647476912453
 20
72.18425522028963
 30
0.0
 10
114.2864297457322
 20
72.20236051541883
 30
0.0
 10
113.9626806041411
 20
72.27720381880134
 30
0.0
 10
113.4246842015839
 20
72.53737147332804
 30
0.0
 10
112.7922392944091
 20
72.95095766701647
 30
0.0
 10
112.246436760955
 20
73.47714436305576
 30
0.0
 10
111.8193168369901
 20
74.0664440460723
 30
0.0
 10
111.5079544270776
 20
74.71728218419197
 30
0.0
 10
111.3270232173156
 20
75.37974852184712
 30
0.0
 10
111.2667486189192
 20
76.05620262972317
 30
0.0
 10
111.3216883216102
 20
76.7063598317822
 30
0.0
 10
111.4852686730104
 20
77.33769235168683
 30
0.0
 10
111.7262070486339
 20
77.87631463522084
 30
0.0
 10
112.0119474877138
 20
78.33755620200374
 30
0.0
 10
112.222705898885
 20
78.58498673538006
 30
0.0
 10
112.328847399
 20
78.70959693641963
 30
0.0
  0
CIRCLE
  5
272
330
1F
100
AcDbEntity
  8
0
  6
HIDDEN
 62
     7
370
     0
100
AcDbCircle
 10
143.0176859702
 20
76.0635853864
 30
0.0
 40
2.0
  0
CIRCLE
  5
273
330
1F
100
AcDbEntity
  8
0
  6
HIDDEN
 62
     7
370
     0
100
AcDbCircle
 10
198.0176859702
 20
76.0635853864
 30
0.0
 40
2.800000000000053
  0
CIRCLE
  5
274
330
1F
100
AcDbEntity
  8
0
  6
HIDDEN
 62
     7
370
     0
100
AcDbCircle
 10
198.0176859702
 20
76.0635853864
 30
0.0
 40
2.480384757729378
  0
CIRCLE
  5
275
330
1F
100
AcDbEntity
  8
0
  6
HIDDEN
 62
     7
370
     0
100
AcDbCircle
 10
251.2611292004
 20
76.0635853864
 30
0.0
 40
2.500000000000005
  0
CIRCLE
  5
276
330
1F
100
AcDbEntity
  8
0
  6
HIDDEN
 62
     7
370
     0
100
AcDbCircle
 10
251.2611292004
 20
76.0635853864
 30
0.0
 40
1.599999999999999
  0
LINE
  5
277
330
1F
100
AcDbEntity
  8
0
  6
HIDDEN
 62
     7
370
     0
100
AcDbLine
 10
251.6053884919
 20
84.121855646
 30
0.0
 11
251.6182442443
 21
84.1371765351
 31
0.0
  0
LINE
  5
278
330
1F
100
AcDbEntity
  8
0
  6
HIDDEN
 62
     7
370
     0
100
AcDbLine
 10
251.1168699087
 20
84.1218556463
 30
0.0
 11
251.1040141565
 21
84.1371765351
 31
0.0
  0
LINE
  5
279
330
1F
100
AcDbEntity
  8
0
  6
HIDDEN
 62
     7
370
     0
100
AcDbLine
 10
260.8619452619
 20
76.3546822747
 30
0.0
 11
260.8748010141
 21
76.3700031636
 31
0.0
  0
LINE
  5
27A
330
1F
100
AcDbEntity
  8
0
  6
HIDDEN
 62
     7
370
     0
100
AcDbLine
 10
260.8619452619
 20
75.772488498
 30
0.0
 11
260.8748010141
 21
75.7571676091
 31
0.0
  0
LINE
  5
27B
330
1F
100
AcDbEntity
  8
0
  6
HIDDEN
 62
     7
370
     0
100
AcDbLine
 10
242.3915327066
 20
76.0635853864
 30
0.0
 11
242.1045724306
 21
76.0635853864
 31
0.0
  0
LINE
  5
27C
330
1F
100
AcDbEntity
  8
0
  6
HIDDEN
 62
     7
370
     0
100
AcDbLine
 10
241.8603131389
 20
75.772488498
 30
0.0
 11
241.8474573867
 21
75.7571676091
 31
0.0
  0
LINE
  5
27D
330
1F
100
AcDbEntity
  8
0
  6
HIDDEN
 62
     7
370
     0
100
AcDbLine
 10
241.8603131389
 20
76.3546822747
 30
0.0
 11
241.8474573867
 21
76.3700031636
 31
0.0
  0
LINE
  5
27E
330
1F
100
AcDbEntity
  8
0
  6
HIDDEN
 62
     7
370
     0
100
AcDbLine
 10
251.1168699087
 20
68.0053151264
 30
0.0
 11
251.1040141565
 21
67.9899942376
 31
0.0
  0
LINE
  5
27F
330
1F
100
AcDbEntity
  8
0
  6
HIDDEN
 62
     7
370
     0
100
AcDbLine
 10
251.6053884921
 20
68.0053151264
 30
0.0
 11
251.6182442443
 21
67.9899942376
 31
0.0
  0
CIRCLE
  5
280
330
1F
100
AcDbEntity
  8
0
  6
HIDDEN
 62
     7
370
     0
100
AcDbCircle
 10
251.3611292004
 20
76.0635853864
 30
0.0
 40
2.749999999999993
  0
LINE
  5
281
330
1F
100
AcDbEntity
  8
0
  6
HIDDEN
 62
     7
370
     0
100
AcDbLine
 10
242.3915327066
 20
76.0635853864
 30
0.0
 11
251.3611292004
 21
68.5372002766
 31
0.0
  0
LINE
  5
282
330
1F
100
AcDbEntity
  8
0
  6
HIDDEN
 62
     7
370
     0
100
AcDbLine
 10
251.3611292004
 20
68.5372002766
 30
0.0
 11
260.3307256942
 21
76.0635853864
 31
0.0
  0
LINE
  5
283
330
1F
100
AcDbEntity
  8
0
  6
HIDDEN
 62
     7
370
     0
100
AcDbLine
 10
251.3611292004
 20
83.5899704961
 30
0.0
 11
242.3915327066
 21
76.0635853864
 31
0.0
  0
LINE
  5
284
330
1F
100
AcDbEntity
  8
0
  6
HIDDEN
 62
     7
370
     0
100
AcDbLine
 10
260.3307256942
 20
76.0635853864
 30
0.0
 11
251.3611292004
 21
83.5899704961
 31
0.0
  0
LINE
  5
285
330
1F
100
AcDbEntity
  8
0
  6
HIDDEN
 62
     7
370
     0
100
AcDbLine
 10
131.0176859702
 20
51.8135853864
 30
0.0
 11
131.1105791891
 21
51.9064786052
 31
0.0
  0
LINE
  5
286
330
1F
100
AcDbEntity
  8
0
  6
HIDDEN
 62
     7
370
     0
100
AcDbLine
 10
131.1105791891
 20
100.2206921675
 30
0.0
 11
131.0176859702
 21
100.3135853864
 31
0.0
  0
ARC
  5
287
330
1F
100
AcDbEntity
  8
0
  6
HIDDEN
 62
     7
370
     0
100
AcDbCircle
 10
130.4034724079
 20
52.6135853864
 30
0.0
 40
1.0
100
AcDbArc
 50
315.0
 51
0.0
  0
ARC
  5
288
330
1F
100
AcDbEntity
  8
0
  6
HIDDEN
 62
     7
370
     0
100
AcDbCircle
 10
130.4034724079
 20
52.6135853864
 30
0.0
 40
1.000000000000016
100
AcDbArc
 50
0.0
 51
52.1052014664
  0
ARC
  5
289
330
1F
100
AcDbEntity
  8
0
  6
HIDDEN
 62
     7
370
     0
100
AcDbCircle
 10
130.4034724079
 20
99.5135853864
 30
0.0
 40
1.000000000000006
100
AcDbArc
 50
351.8087250651
 51
45.0
  0
ARC
  5
28A
330
1F
100
AcDbEntity
  8
0
  6
HIDDEN
 62
     7
370
     0
100
AcDbCircle
 10
130.4034724079
 20
99.5135853864
 30
0.0
 40
1.00000000000001
100
AcDbArc
 50
307.8947985336
 51
351.8087250651
  0
LINE
  5
28B
330
1F
100
AcDbEntity
  8
0
  6
HIDDEN
 62
     7
370
     0
100
AcDbLine
 10
131.4034724079
 20
52.6135853864
 30
0.0
 11
131.4034724079
 21
99.5135853864
 31
0.0
  0
LINE
  5
28C
330
1F
100
AcDbEntity
  8
0
  6
HIDDEN
 62
     7
370
     0
100
AcDbLine
 10
209.2182705088
 20
78.5635853864
 30
0.0
 11
198.2325072614
 21
78.5635853864
 31
0.0
  0
LINE
  5
28D
330
1F
100
AcDbEntity
  8
0
  6
HIDDEN
 62
     7
370
     0
100
AcDbLine
 10
198.2325072614
 20
73.5635853864
 30
0.0
 11
209.2182705088
 21
73.5635853864
 31
0.0
  0
LINE
  5
28E
330
1F
100
AcDbEntity
  8
0
  6
HIDDEN
 62
     7
370
     0
100
AcDbLine
 10
93.0176859702
 20
59.8671565419
 30
0.0
 11
94.5479144099
 21
60.7506343434
 31
0.0
  0
LINE
  5
28F
330
1F
100
AcDbEntity
  8
0
  6
HIDDEN
 62
     7
370
     0
100
AcDbLine
 10
94.5479144099
 20
91.3765364293
 30
0.0
 11
93.0176859702
 21
92.2600142308
 31
0.0
  0
ARC
  5
290
330
1F
100
AcDbEntity
  8
0
  6
HIDDEN
 62
     7
370
     0
100
AcDbCircle
 10
104.0194872851
 20
62.0635853864
 30
0.0
 40
1.999999999999996
100
AcDbArc
 50
270.0
 51
315.0
  0
ARC
  5
291
330
1F
100
AcDbEntity
  8
0
  6
HIDDEN
 62
     7
370
     0
100
AcDbCircle
 10
104.0194872851
 20
90.0635853864
 30
0.0
 40
2.000000000000006
100
AcDbArc
 50
45.0
 51
90.0
  0
ARC
  5
292
330
1F
100
AcDbEntity
  8
0
  6
HIDDEN
 62
     7
370
     0
100
AcDbCircle
 10
103.0176859702
 20
62.0635853864
 30
0.0
 40
2.000000000000003
100
AcDbArc
 50
189.9742217944
 51
270.0
  0
ARC
  5
293
330
1F
100
AcDbEntity
  8
0
  6
HIDDEN
 62
     7
370
     0
100
AcDbCircle
 10
103.0176859702
 20
90.0635853864
 30
0.0
 40
2.000000000000006
100
AcDbArc
 50
90.0
 51
170.0257782056
  0
LINE
  5
294
330
1F
100
AcDbEntity
  8
0
  6
HIDDEN
 62
     7
370
     0
100
AcDbLine
 10
103.0176859702
 20
60.0635853864
 30
0.0
 11
104.0194872851
 21
60.0635853864
 31
0.0
  0
LINE
  5
295
330
1F
100
AcDbEntity
  8
0
  6
HIDDEN
 62
     7
370
     0
100
AcDbLine
 10
104.0194872851
 20
92.0635853864
 30
0.0
 11
103.0176859702
 21
92.0635853864
 31
0.0
  0
LINE
  5
296
330
1F
100
AcDbEntity
  8
0
  6
HIDDEN
 62
     7
370
     0
100
AcDbLine
 10
105.4337008475
 20
60.649371824
 30
0.0
 11
106.8479144099
 21
62.0635853864
 31
0.0
  0
LINE
  5
297
330
1F
100
AcDbEntity
  8
0
  6
HIDDEN
 62
     7
370
     0
100
AcDbLine
 10
106.8479144099
 20
90.0635853864
 30
0.0
 11
105.4337008475
 21
91.4777989487
 31
0.0
  0
LINE
  5
298
330
1F
100
AcDbEntity
  8
0
  6
HIDDEN
 62
     7
370
     0
100
AcDbLine
 10
94.5479144099
 20
60.7506343434
 30
0.0
 11
99.4479144099
 21
62.0635853864
 31
0.0
  0
LINE
  5
299
330
1F
100
AcDbEntity
  8
0
  6
HIDDEN
 62
     7
370
     0
100
AcDbLine
 10
99.4479144099
 20
90.0635853864
 30
0.0
 11
94.5479144099
 21
91.3765364293
 31
0.0
  0
LINE
  5
29A
330
1F
100
AcDbEntity
  8
0
  6
HIDDEN
 62
     7
370
     0
100
AcDbLine
 10
101.0479144099
 20
90.4099955479
 30
0.0
 11
100.4479144099
 21
90.0635853864
 31
0.0
  0
LINE
  5
29B
330
1F
100
AcDbEntity
  8
0
  6
HIDDEN
 62
     7
370
     0
100
AcDbLine
 10
100.4479144099
 20
62.0635853864
 30
0.0
 11
101.0479144099
 21
61.7171752248
 31
0.0
  0
LINE
  5
29C
330
1F
100
AcDbEntity
  8
0
  6
HIDDEN
 62
     7
370
     0
100
AcDbLine
 10
99.4479144099
 20
62.0635853864
 30
0.0
 11
100.4479144099
 21
62.0635853864
 31
0.0
  0
LINE
  5
29D
330
1F
100
AcDbEntity
  8
0
  6
HIDDEN
 62
     7
370
     0
100
AcDbLine
 10
100.4479144099
 20
90.0635853864
 30
0.0
 11
99.4479144099
 21
90.0635853864
 31
0.0
  0
LINE
  5
29E
330
1F
100
AcDbEntity
  8
0
  6
HIDDEN
 62
     7
370
     0
100
AcDbLine
 10
106.8479144099
 20
62.0635853864
 30
0.0
 11
119.5176859702
 21
62.0635853864
 31
0.0
  0
LINE
  5
29F
330
1F
100
AcDbEntity
  8
0
  6
HIDDEN
 62
     7
370
     0
100
AcDbLine
 10
119.5176859702
 20
90.0635853864
 30
0.0
 11
106.8479144099
 21
90.0635853864
 31
0.0
  0
ARC
  5
2A0
330
1F
100
AcDbEntity
  8
0
  6
HIDDEN
 62
     7
370
     0
100
AcDbCircle
 10
119.5176859702
 20
62.5635853864
 30
0.0
 40
0.5
100
AcDbArc
 50
270.0
 51
0.0
  0
ARC
  5
2A1
330
1F
100
AcDbEntity
  8
0
  6
HIDDEN
 62
     7
370
     0
100
AcDbCircle
 10
119.5176859702
 20
89.5635853864
 30
0.0
 40
0.5
100
AcDbArc
 50
0.0
 51
90.0
  0
LINE
  5
2A2
330
1F
100
AcDbEntity
  8
0
  6
HIDDEN
 62
     7
370
     0
100
AcDbLine
 10
120.0176859702
 20
65.8135853864
 30
0.0
 11
121.2676859702
 21
67.0635853864
 31
0.0
  0
LINE
  5
2A3
330
1F
100
AcDbEntity
  8
0
  6
HIDDEN
 62
     7
370
     0
100
AcDbLine
 10
121.2676859702
 20
85.0635853864
 30
0.0
 11
120.0176859702
 21
86.3135853864
 31
0.0
  0
LINE
  5
2A4
330
1F
100
AcDbEntity
  8
0
  6
HIDDEN
 62
     7
370
     0
100
AcDbLine
 10
158.0176859702
 20
85.0635853864
 30
0.0
 11
121.2676859702
 21
85.0635853864
 31
0.0
  0
LINE
  5
2A5
330
1F
100
AcDbEntity
  8
0
  6
HIDDEN
 62
     7
370
     0
100
AcDbLine
 10
121.2676859702
 20
67.0635853864
 30
0.0
 11
158.0176859702
 21
67.0635853864
 31
0.0
  0
LINE
  5
2A6
330
1F
100
AcDbEntity
  8
0
  6
HIDDEN
 62
     7
370
     0
100
AcDbLine
 10
158.0176859702
 20
67.0635853864
 30
0.0
 11
160.8717739106
 21
71.8135853864
 31
0.0
  0
LINE
  5
2A7
330
1F
100
AcDbEntity
  8
0
  6
HIDDEN
 62
     7
370
     0
100
AcDbLine
 10
160.8717739106
 20
80.3135853864
 30
0.0
 11
158.0176859702
 21
85.0635853864
 31
0.0
  0
LINE
  5
2A8
330
1F
100
AcDbEntity
  8
0
  6
HIDDEN
 62
     7
370
     0
100
AcDbLine
 10
202.0176859702
 20
80.3135853864
 30
0.0
 11
160.8717739106
 21
80.3135853864
 31
0.0
  0
LINE
  5
2A9
330
1F
100
AcDbEntity
  8
0
  6
HIDDEN
 62
     7
370
     0
100
AcDbLine
 10
160.8717739106
 20
71.8135853864
 30
0.0
 11
202.0176859702
 21
71.8135853864
 31
0.0
  0
LINE
  5
2AA
330
1F
100
AcDbEntity
  8
0
  6
HIDDEN
 62
     7
370
     0
100
AcDbLine
 10
202.0176859702
 20
71.8135853864
 30
0.0
 11
204.5713436011
 21
76.0635853864
 31
0.0
  0
LINE
  5
2AB
330
1F
100
AcDbEntity
  8
0
  6
HIDDEN
 62
     7
370
     0
100
AcDbLine
 10
204.5713436011
 20
76.0635853864
 30
0.0
 11
202.0176859702
 21
80.3135853864
 31
0.0
  0
CIRCLE
  5
2AC
330
1F
100
AcDbEntity
  8
0
  6
HIDDEN
 62
     7
370
     0
100
AcDbCircle
 10
251.2611292004
 20
76.0635853864
 30
0.0
 40
2.279131018014131
  0
DIMENSION
  5
2AD
330
1F
100
AcDbEntity
  8
VERMASSUNG
100
AcDbDimension
  2
_D_2
 10
83.0176359702
 20
44.5635853864
 30
0.0
 11
83.0176359702
 21
76.0635853864
 31
0.0
 70
   160
  1
PSC%%c<>
 71
     2
 42
-1.0
  3
SLDDIMSTYLE1
100
AcDbAlignedDimension
 13
131.5176859702
 23
107.5635853864
 33
0.0
 14
131.5176859702
 24
44.5635853864
 34
0.0
 50
90.0
100
AcDbRotatedDimension
  0
LINE
  5
2B9
330
1F
100
AcDbEntity
  8
VERMASSUNG
  6
CENTERX2
370
     0
100
AcDbLine
 10
263.7626039436
 20
76.0635853864
 30
0.0
 11
89.1685860772
 21
76.0635853864
 31
0.0
  0
OLE2FRAME
  5
2BA
330
1F
100
AcDbEntity
  8
0
100
AcDbOle2Frame
 70
     2
  3
Paintbrush-Bild
 10
13.8511154363
 20
38.264191557
 30
0.0
 11
51.6290888628
 21
31.9806341108
 31
0.0
 71
     2
 72
     0
 73
     1
 90
    12928
310
80552BED0767C5B32B40DDAF6807D121434000000000000000006FFBDDFB85D0
310
4940DDAF6807D121434000000000000000006FFBDDFB85D04940416F4BD60AFB
310
3F4000000000000000002BED0767C5B32B40416F4BD60AFB3F40000000000000
310
0000000000000100000000010000010000000100000000000100000000320000
310
D0CF11E0A1B11AE1000000000000000000000000000000003E000300FEFF0900
310
0600000000000000000000000100000001000000000000000010000002000000
310
01000000FEFFFFFF0000000000000000FFFFFFFFFFFFFFFFFFFFFFFFFFFFFFFF
310
FFFFFFFFFFFFFFFFFFFFFFFFFFFFFFFFFFFFFFFFFFFFFFFFFFFFFFFFFFFFFFFF
310
FFFFFFFFFFFFFFFFFFFFFFFFFFFFFFFFFFFFFFFFFFFFFFFFFFFFFFFFFFFFFFFF
310
FFFFFFFFFFFFFFFFFFFFFFFFFFFFFFFFFFFFFFFFFFFFFFFFFFFFFFFFFFFFFFFF
310
FFFFFFFFFFFFFFFFFFFFFFFFFFFFFFFFFFFFFFFFFFFFFFFFFFFFFFFFFFFFFFFF
310
FFFFFFFFFFFFFFFFFFFFFFFFFFFFFFFFFFFFFFFFFFFFFFFFFFFFFFFFFFFFFFFF
310
FFFFFFFFFFFFFFFFFFFFFFFFFFFFFFFFFFFFFFFFFFFFFFFFFFFFFFFFFFFFFFFF
310
FFFFFFFFFFFFFFFFFFFFFFFFFFFFFFFFFFFFFFFFFFFFFFFFFFFFFFFFFFFFFFFF
310
FFFFFFFFFFFFFFFFFFFFFFFFFFFFFFFFFFFFFFFFFFFFFFFFFFFFFFFFFFFFFFFF
310
FFFFFFFFFFFFFFFFFFFFFFFFFFFFFFFFFFFFFFFFFFFFFFFFFFFFFFFFFFFFFFFF
310
FFFFFFFFFFFFFFFFFFFFFFFFFFFFFFFFFFFFFFFFFFFFFFFFFFFFFFFFFFFFFFFF
310
FFFFFFFFFFFFFFFFFFFFFFFFFFFFFFFFFFFFFFFFFFFFFFFFFFFFFFFFFFFFFFFF
310
FFFFFFFFFFFFFFFFFFFFFFFFFFFFFFFFFFFFFFFFFFFFFFFFFFFFFFFFFFFFFFFF
310
FFFFFFFFFFFFFFFFFFFFFFFFFFFFFFFFFFFFFFFFFFFFFFFFFFFFFFFFFFFFFFFF
310
FDFFFFFFFEFFFFFFFEFFFFFFFEFFFFFF05000000060000000700000008000000
310
090000000A0000000B0000000C0000000D0000000E0000000F00000010000000
310
11000000120000001300000014000000150000001600000017000000FEFFFFFF
310
FFFFFFFFFFFFFFFFFFFFFFFFFFFFFFFFFFFFFFFFFFFFFFFFFFFFFFFFFFFFFFFF
310
FFFFFFFFFFFFFFFFFFFFFFFFFFFFFFFFFFFFFFFFFFFFFFFFFFFFFFFFFFFFFFFF
310
FFFFFFFFFFFFFFFFFFFFFFFFFFFFFFFFFFFFFFFFFFFFFFFFFFFFFFFFFFFFFFFF
310
FFFFFFFFFFFFFFFFFFFFFFFFFFFFFFFFFFFFFFFFFFFFFFFFFFFFFFFFFFFFFFFF
310
FFFFFFFFFFFFFFFFFFFFFFFFFFFFFFFFFFFFFFFFFFFFFFFFFFFFFFFFFFFFFFFF
310
FFFFFFFFFFFFFFFFFFFFFFFFFFFFFFFFFFFFFFFFFFFFFFFFFFFFFFFFFFFFFFFF
310
FFFFFFFFFFFFFFFFFFFFFFFFFFFFFFFFFFFFFFFFFFFFFFFFFFFFFFFFFFFFFFFF
310
FFFFFFFFFFFFFFFFFFFFFFFFFFFFFFFFFFFFFFFFFFFFFFFFFFFFFFFFFFFFFFFF
310
FFFFFFFFFFFFFFFFFFFFFFFFFFFFFFFFFFFFFFFFFFFFFFFFFFFFFFFFFFFFFFFF
310
FFFFFFFFFFFFFFFFFFFFFFFFFFFFFFFFFFFFFFFFFFFFFFFFFFFFFFFFFFFFFFFF
310
FFFFFFFFFFFFFFFFFFFFFFFFFFFFFFFFFFFFFFFFFFFFFFFFFFFFFFFFFFFFFFFF
310
FFFFFFFFFFFFFFFFFFFFFFFFFFFFFFFFFFFFFFFFFFFFFFFFFFFFFFFFFFFFFFFF
310
FFFFFFFFFFFFFFFFFFFFFFFFFFFFFFFFFFFFFFFFFFFFFFFFFFFFFFFFFFFFFFFF
310
52006F006F007400200045006E00740072007900000000000000000000000000
310
0000000000000000000000000000000000000000000000000000000000000000
310
16000500FFFFFFFFFFFFFFFF020000000A00030000000000C000000000000046
310
00000000000000000000000030C87CE4B139CD0103000000C000000000000000
310
01004F006C006500000000000000000000000000000000000000000000000000
310
0000000000000000000000000000000000000000000000000000000000000000
310
0A000200FFFFFFFFFFFFFFFFFFFFFFFF00000000000000000000000000000000
310
0000000000000000000000000000000000000000000000001400000000000000
310
010043006F006D0070004F0062006A0000000000000000000000000000000000
310
0000000000000000000000000000000000000000000000000000000000000000
310
120002010100000003000000FFFFFFFF00000000000000000000000000000000
310
0000000000000000000000000000000000000000010000004D00000000000000
310
01004F006C006500310030004E00610074006900760065000000000000000000
310
0000000000000000000000000000000000000000000000000000000000000000
310
1A000200FFFFFFFFFFFFFFFFFFFFFFFF00000000000000000000000000000000
310
0000000000000000000000000000000000000000040000002426000000000000
310
FEFFFFFF02000000FEFFFFFFFFFFFFFFFFFFFFFFFFFFFFFFFFFFFFFFFFFFFFFF
310
FFFFFFFFFFFFFFFFFFFFFFFFFFFFFFFFFFFFFFFFFFFFFFFFFFFFFFFFFFFFFFFF
310
FFFFFFFFFFFFFFFFFFFFFFFFFFFFFFFFFFFFFFFFFFFFFFFFFFFFFFFFFFFFFFFF
310
FFFFFFFFFFFFFFFFFFFFFFFFFFFFFFFFFFFFFFFFFFFFFFFFFFFFFFFFFFFFFFFF
310
FFFFFFFFFFFFFFFFFFFFFFFFFFFFFFFFFFFFFFFFFFFFFFFFFFFFFFFFFFFFFFFF
310
FFFFFFFFFFFFFFFFFFFFFFFFFFFFFFFFFFFFFFFFFFFFFFFFFFFFFFFFFFFFFFFF
310
FFFFFFFFFFFFFFFFFFFFFFFFFFFFFFFFFFFFFFFFFFFFFFFFFFFFFFFFFFFFFFFF
310
FFFFFFFFFFFFFFFFFFFFFFFFFFFFFFFFFFFFFFFFFFFFFFFFFFFFFFFFFFFFFFFF
310
FFFFFFFFFFFFFFFFFFFFFFFFFFFFFFFFFFFFFFFFFFFFFFFFFFFFFFFFFFFFFFFF
310
FFFFFFFFFFFFFFFFFFFFFFFFFFFFFFFFFFFFFFFFFFFFFFFFFFFFFFFFFFFFFFFF
310
FFFFFFFFFFFFFFFFFFFFFFFFFFFFFFFFFFFFFFFFFFFFFFFFFFFFFFFFFFFFFFFF
310
FFFFFFFFFFFFFFFFFFFFFFFFFFFFFFFFFFFFFFFFFFFFFFFFFFFFFFFFFFFFFFFF
310
FFFFFFFFFFFFFFFFFFFFFFFFFFFFFFFFFFFFFFFFFFFFFFFFFFFFFFFFFFFFFFFF
310
FFFFFFFFFFFFFFFFFFFFFFFFFFFFFFFFFFFFFFFFFFFFFFFFFFFFFFFFFFFFFFFF
310
FFFFFFFFFFFFFFFFFFFFFFFFFFFFFFFFFFFFFFFFFFFFFFFFFFFFFFFFFFFFFFFF
310
FFFFFFFFFFFFFFFFFFFFFFFFFFFFFFFFFFFFFFFFFFFFFFFFFFFFFFFFFFFFFFFF
310
0100000200000000000000000000000000000000000000000000000000000000
310
0000000000000000000000000000000000000000000000000000000000000000
310
0100FEFF030A0000FFFFFFFF0A00030000000000C00000000000004607000000
310
5042727573680007000000504272757368000700000050427275736800F439B2
310
7100000000000000000000000000000000000000000000000000000000000000
310
0000000000000000000000000000000000000000000000000000000000000000
310
0000000000000000000000000000000000000000000000000000000000000000
310
0000000000000000000000000000000000000000000000000000000000000000
310
0000000000000000000000000000000000000000000000000000000000000000
310
0000000000000000000000000000000000000000000000000000000000000000
310
0000000000000000000000000000000000000000000000000000000000000000
310
0000000000000000000000000000000000000000000000000000000000000000
310
0000000000000000000000000000000000000000000000000000000000000000
310
0000000000000000000000000000000000000000000000000000000000000000
310
0000000000000000000000000000000000000000000000000000000000000000
310
0000000000000000000000000000000000000000000000000000000000000000
310
20260000424D0E260000000000003E00000028000000B40200006E0000000100
310
01000000000000000000130B0000130B00000200000002000000000000FFFFFF
310
FFFFFFFFFFFFFFFFFFFFFFFFFFFFFFFFFFFFFFFFFFFFFFFFFFFFFFFFFFFFFFFF
310
FFFFFFFFFFFFFFFFFFFFFFFFFFFFFFFFFFFFFFFFFFFFFFFFFFFFFFFFFFFFFFFF
310
FFFFFFFFFFFFFFFFFFFFFFFFFFFFFFFFFFFFFFFFFFFFFFFFF000FFFFFFFFFFFF
310
FFFFFFFFFFFFFFFFFFFFFFFFFFFFFFFFFFFFFFFFFFFFFFFFFFFFFFFFFFFFFFFF
310
FFFFFFFFFFFFFFFFFFFFFFFFFFFFFFFFFFFFFFFFFFFFFFFFFFFFFFFFFFFFFFFF
310
FFFFFFFFFFFFFFFFFFFFFFFFFFFFFFFFF000FFFFFFFFFFFFFFFFFFFFFFFFFFFF
310
FFFFFFFFFFFFFFFFFFFFFFFFFFFFFFFFFFFFFFFFFFFFFFFFFFFFFFFFFFFFFFFF
310
FFFFFFFFFFFFFFFFFFFFFFFFFFFFFFFFFFFFFFFFFFFFFFFFFFFFFFFFFFFFFFFF
310
FFFFFFFFFFFFFFFFF000FFFFFFFFFFFFFFFFFFFFFFFFFFFFFFFFFFFFFFFFFFFF
310
FFFFFFFFFFFFFFFFFFFFFFFFFFFFFFFFFFFFFFFFFFFFFFFFFFFFFFFFFFFFFFFF
310
FFFFFFFFFFFFFFFFFFFFFFFFFFFFFFFFFFFFFFFFFFFFFFFFFFFFFFFFFFFFFFFF
310
F000FFFFFFFFFFFFFFFFFFFFFFFFFFFFFFFFFFFFFFFFFFFFFFFFFFFFFFFFFFFF
310
FFFFFFFFFFFFFFFFFFFFFFFFFFFFFFFFFFFFFFFFFFFFFFFFFFFFFFFFFFFFFFFF
310
FFFFFFFFFFFFFFFFFFFFFFFFFFFFFFFFFFFFFFFFFFFFFFFFF000FFFFFFFFFFFF
310
FFFFFFFFFFFFFFFFFFFFFFFFFFFFFFFFFFFFFFFFFFFFFFFFFFFFFFFFFFFFFFFF
310
FFFFFFFFFFFFFFFFFFFFFFFFFFFFFFFFFFFFFFFFFFFFFFFFFFFFFFFFFFFFFFFF
310
FFFFFFFFFFFFFFFFFFFFFFFFFFFFFFFFF000FFFFFFFFFFFFFFFFFFFFFFFFFFFF
310
FFFFFFFFFFFFFFFFFFFFFFFFFFFFFFFFFFFFFFFFFFFFFFFFFFFFFFFFFFFFFFFF
310
FFFFFFFFFFFFFFFFFFFFFFFFFFFFFFFFFFFFFFFFFFFFFFFFFFFFFFFFFFFFFFFF
310
FFFFFFFFFFFFFFFFF000FFFFFFFFFFFFFFFFFFFFFFFFFFFFFFFFFFFFFFFFFFFF
310
FFFFFFFFFFFFFFFFFFFFFFFFFFFFFFFFFFFFFFFFFFFFFFFFFFFFFFFFFFFFFFFF
310
FFFFFFFFFFFFFFFFFFFFFFFFFFFFFFFFFFFFFFFFFFFFFFFFFFFFFFFFFFFFFFFF
310
F000FFFFFFFFFFFFFFFFFFFFFFFFFFFFFFFFFFFFFFFFFFFFFFFFFFFFFFFFFFFF
310
FFFFFFFFFFFFFFFFFFFFFFFFFFFFFFFFFFFFFFFFFFFFFFFFFFFFFFFFFFFFFFFF
310
FFFFFFFFFFFFFFFFFFFFFFFFFFFFFFFFFFFFFFFFFFFFFFFFF000FFFFFFFFFFFF
310
FFFFFFFFFFFFFFFFFFFFFFFFFFFFFFFFFFFFFFFFFFFFFFFFFFFFFFFFFFFFFFFF
310
FFFFFFFFFFFFFFFFFFFFFFFFFFFFFFFFFFFFFFFFFFFFFFFFFFFFFFFFFFFFFFFF
310
FFFFFFFFFFFFFFFFFFFFFFFFFFFFFFFFF000FFFFFFFFFFFFFFFFFFFFFFFFFFFF
310
FFFFFFFFFFFFFFFFFFFFFFFFFFFFFFFFFFFFFFFFFFFFFFFFFFFFFFFFFFFFFFFF
310
FFFFFFFFFFFFFFFFFFFFFFFFFFFFFFFFFFFFFFFFFFFFFFFFFFFFFFFFFFFFFFFF
310
FFFFFFFFFFFFFFFFF000FFFFFFFFFFFFFFFFFFFFFFFFFFFFFFFFFFFFFFFFFFFF
310
FFFFFFFFFFFFFFFFFFFFFFFFFFFFFFFFFFFFFFFFFFFFFFFFFFFFFFFFFFFFFFFF
310
FFFFFFFFFFFFFFFFFFFFFFFFFFFFFFFFFFFFFFFFFFFFFFFFFFFFFFFFFFFFFFFF
310
F000FFFFFFFFFFFFFFFFFFFFFFFFFFFFFFFFFFFFFFFFFFFFFFFFFFFFFFFFFFFF
310
FFFFFFFFFFFFFFFFFFFFFFFFFFFFFFFFFFFFFFFFFFFFFFFFFFFFFFFFFFFFFFFF
310
FFFFFFFFFFFFFFFFFFFFFFFFFFFFFFFFFFFFFFFFFFFFFFFFF000FFFFFFFFFFFF
310
FFFFFFFFFFFFFFFFFFFFFFFFFFFFFFFFFFFFFFFFFFFFFFFFFFFFFFFFFFFFFFFF
310
FFFFFFFFFFFFFFFFFFFFFFFFFFFFFFFFFFFFFFFFFFFFFFFFFFFFFFFFFFFFFFFF
310
FFFFFFFFFFFFFFFFFFFFFFFFFFFFFFFFF000FFFFFFFFFFFFFFFFFFFFFFFFFFFF
310
FFFFFFFFFFFFFFFFFFFFFFFFFFFFFFFFFFFFFFFFFFFFFFFFFFFFFFFFFFFFFFFF
310
FFFFFFFFFFFFFFFFFFFFFFFFFFFFFFFFFFFFFFFFFFFFFFFFFFFFFFFFFFFFFFFF
310
FFFFFFFFFFFFFFFFF000FFFFFFFFFFFFFFFFFFFFFFFFFFFFFFFFFFFFFFFFFFFF
310
FFFFFFFFFFFFFFFFFFFFFFFFFFFFFFFFFFFFFFFFFFFFFFFFFFFFFFFFFFFFFFFF
310
FFFFFFFFFFFFFFFFFFFFFFFFFFFFFFFFFFFFFFFFFFFFFFFFFFFFFFFFFFFFFFFF
310
F000FFFFFFFFFFFFFFFFFFFFFFFFFFFFFFFFFFFFFFFFFFFFFFFFFFFFFFFFFFFF
310
FFFFFFFFFFFFFFFFFFFFFFFFFFFFFFFFFFFFFFFFFFFFFFFFFFFFFFFFFFFFFFFF
310
FFFFFFFFFFFFFFFFFFFFFFFFFFFFFFFFFFFFFFFFFFFFFFFFF000FFFFFFFFFFFF
310
FFFFFFFFFFFFFFFFFFFFFFFFFFFFFFFFFFFFFFFFFFFFFFFFFFFFFFFFFFFFFFFF
310
FFFFFFFFFFFFFFFFFFFFFFFFFFFFFFFFFFFFFFFFFFFFFFFFFFFFFFFFFFFFFFFF
310
FFFFFFFFFFFFFFFFFFFFFFFFFFFFFFFFF000FFFFFFFFFFFFFFFFFFFFFFFFFFFF
310
FFFFFFFFFFFFFFFFFFFFFFFFFFFFFFFFFFFFFFFFFFFFFFFFFFFFFFFFFFFFFFFF
310
FFFFFFFFFFFFFFFFFFFFFFFFFFFFFFFFFFFFFFFFFFFFFFFFFFFFFFFFFFFFFFFF
310
FFFFFFFFFFFFFFFFF000FFFFF80003FFFFFFFFFFFFFFFFFFFFFFFFFFFFFFFFFF
310
FFFFF00007FFFFFFFFFF00007FFFFFF800000000000000007FFFFFFFFFFFFFFF
310
FFFFFFFC001FFFFFFFFFFFFFFC001FFFFFFFFFFFFFFFFFFFFFFFFFFE0007FFFF
310
F000FFFF8000007FFFFFFFF8000FFFFFC0007FFFFF80007FFFFF0000007FFFFF
310
FFF8000007FFFFF800000000000000007FFFFFF0001FFFFFFFFFFFC00001FFFF
310
FFFFFFFFC00001FFFFFFFF000000000003FFFFE000007FFFF000FFFE0000000F
310
FFFFFFF0000FFFFF80007FFFFF80007FFFFC0000001FFFFFFFC0000001FFFFF8
310
00000000000000007FFFFFF0001FFFFFFFFFFE0000003FFFFFFFFFFE0000003F
310
FFFFFF000000000003FFFF0000000FFFF000FFF800000003FFFFFFF00007FFFF
310
80007FFFFF80007FFFF000000007FFFFFF000000003FFFF80000000000000000
310
7FFFFFF0001FFFFFFFFFF80000000FFFFFFFFFF80000000FFFFFFF0000000000
310
03FFFC00000003FFF000FFE000000000FFFFFFF00007FFFF80003FFFFF80007F
310
FFC000000001FFFFFC000000001FFFF800000000000000007FFFFFF0001FFFFF
310
FFFFE000000003FFFFFFFFE000000003FFFFFF000000000003FFF000000000FF
310
F000FF80000000007FFFFFF00007FFFF80003FFFFF80007FFF8000000000FFFF
310
F80000000007FFF800000000000000007FFFFFF0001FFFFFFFFFC000000001FF
310
FFFFFFC000000001FFFFFF000000000003FFC0000000007FF000FF0000000000
310
3FFFFFE00007FFFF00003FFFFF80007FFE00000000003FFFF00000000003FFF8
310
00000000000000007FFFFFF0001FFFFFFFFF8000000000FFFFFFFF8000000000
310
FFFFFF000000000003FF80000000003FF000FE00000000001FFFFFE00003FFFF
310
00003FFFFF80007FFC00000000001FFFE00000000001FFF8000001FFFE000000
310
7FFFFFF0001FFFFFFFFE00000000003FFFFFFE00000000003FFFFF0000000000
310
03FF00000000001FF000FC00000000000FFFFFE00003FFFF00001FFFFF80007F
310
F800000000001FFFC00000000000FFF8000001FFFE0000007FFFFFF0001FFFFF
310
FFFC00000000001FFFFFFC00000000001FFFFF000000000003FE00000000000F
310
F000F8000000000007FFFFE00003FFFF00001FFFFF80007FF800000000000FFF
310
800000000000FFF8000001FFFE0000007FFFFFF0001FFFFFFFF800000000000F
310
FFFFF800000000000FFFFF000000000003FC000000000007F000F80000000000
310
03FFFFC00003FFFE00001FFFFF80007FF0000000000007FF0000000000007FF8
310
000001FFFE0000007FFFFFF0001FFFFFFFF0000000000007FFFFF00000000000
310
07FFFF000000000003F8000000000003F000F0000000000003FFFFC00001FFFE
310
00001FFFFF80007FE0000000000007FE0000000000003FF8000001FFFE000000
310
7FFFFFF0001FFFFFFFF0000000000007FFFFF0000000000007FFFF0000000000
310
03F800001F800003F000E00001FFF00001FFFFC00001FFFE00000FFFFF80007F
310
E00001FFE00003FE00001FFF00003FF8000001FFFE0000007FFFFFF0001FFFFF
310
FFE000003E000003FFFFE000003E000003FFFF000000000003F00001FFF80001
310
F000E00007FFFC0001FFFFC00001FFFE00000FFFFF80007FC0000FFFFC0003FC
310
0000FFFFC0001FF8000001FFFE0000007FFFFFF0001FFFFFFFC00003FFE00001
310
FFFFC00003FFE00001FFFF0001FFFFFFFFF00007FFFE0001F000E0000FFFFF00
310
00FFFF800001FFFC00000FFFFF80007FC0001FFFFE0001FC0001FFFFE0001FF8
310
000001FFFE0000007FFFFFF0001FFFFFFF80000FFFF80000FFFF80000FFFF800
310
00FFFF0003FFFFFFFFE0000FFFFF8000F000C0003FFFFF8000FFFF800000FFFC
310
000007FFFF80007F80003FFFFF0001FC0003FFFFF0001FF8000001FFFE000000
310
7FFFFFF0001FFFFFFF80003FFFFE0000FFFF80003FFFFE0000FFFF0003FFFFFF
310
FFE0003FFFFF8000F000C0003FFFFF8000FFFF800000FFFC000007FFFF80007F
310
80007FFFFF8001F80007FFFFF8000FF8000001FFFE0000007FFFFFF0001FFFFF
310
FF00007FFFFF00007FFF00007FFFFF00007FFF0003FFFFFFFFE0003FFFFFC000
310
F000C0007FFFFFC000FFFF000000FFFC000007FFFF80007F8000FFFFFF8000F8
310
000FFFFFF8000FF8000001FFFE0000007FFFFFF0001FFFFFFF0000FFFFFF8000
310
7FFF0000FFFFFF80007FFF0003FFFFFFFFC0007FFFFFC00070008000FFFFFFC0
310
00FFFF000000FFF8000007FFFF80007F8000FFFFFF8000F8000FFFFFF8000FF8
310
000001FFFE0000007FFFFFF0001FFFFFFE0001FFFFFFC0003FFE0001FFFFFFC0
310
003FFF0003FFFFFFFFC0007FFFFFE00070008000FFFFFFC0007FFF0000007FF8
310
000003FFFF80007F0001FFFFFF8000F8000FFFFFF8000FF8000001FFFE000000
310
7FFFFFF0001FFFFFFE0001FFFFFFC0003FFE0001FFFFFFC0003FFF0003FFFFFF
310
FFC000FFFFFFE00070008000FFFFFFC0007FFF0000007FF8000003FFFF80007F
310
0001FFFFFF8000F8001FFFFFF8000FF8000001FFFE0000007FFFFFF0001FFFFF
310
FE0003FFFFFFE0003FFE0003FFFFFFE0003FFF0003FFFFFFFFC000FFFFFFE000
310
70008000FFFFFFC0007FFE0000007FF8000003FFFF80007F0001FFFFFF8000F0
310
001FFFFFF8000FF8000001FFFE0000007FFFFFF0001FFFFFFC0003FFFFFFE000
310
1FFC0003FFFFFFE0001FFF0003FFFFFFFFC000FFFFFFC00070008000FFFFFF80
310
007FFE0000007FF0000003FFFF80007F0001FFFFFF0000F0001FFFFFF8000FF8
310
000001FFFE0000007FFFFFF0001FFFFFFC0007FFFFFFF0001FFC0007FFFFFFF0
310
001FFF0003FFFFFFFFC000FFFFFFC00070008001FFFFFF0000FFFE0000003FF0
310
000001FFFF80007F0001FFFFFF0000F8001FFFFFF0000FF8000001FFFE000000
310
7FFFFFF0001FFFFFFC0007FFFFFFF0001FFC0007FFFFFFF0001FFF0003FFFFFF
310
FFC001FFFFFF80007000FFFFFFFFFE0000FFFE0008003FF0008001FFFF80007F
310
FFFFFFFFFC0000FFFFFFFFFFE0000FF8000001FFFE0000007FFFFFF0001FFFFF
310
F8000FFFFFFFF8000FF8000FFFFFFFF8000FFF0003FFFFFFFFFFFFFFFFFF0000
310
7000FFFFFFFFFC0000FFFC0008003FF0008001FFFF80007FFFFFFFFFF80001FF
310
FFFFFFFF80000FF8000001FFFE0000007FFFFFF0001FFFFFF8000FFFFFFFF800
310
0FF8000FFFFFFFF8000FFF0003FFFFFFFFFFFFFFFFFE0000F000FFFFFFFFE000
310
00FFFC000C003FE000C001FFFF80007FFFFFFFFFC00001FFFFFFFFFE00001FF8
310
000001FFFE0000007FFFFFF0001FFFFFF8000FFFFFFFF8000FF8000FFFFFFFF8
310
000FFF0003FFFFFFFFFFFFFFFFF00000F000FFFFFFFE000001FFFC000C001FE0
310
00C000FFFF80007FFFFFFFFE000001FFFFFFFFE000001FF80FFFFFFFFFFFFFC0
310
7FFFFFF0001FFFFFF8000FFFFFFFF8000FF8000FFFFFFFF8000FFF0003FFFFFF
310
FFFFFFFFFF800000F000FFFFFFC0000001FFFC001C001FE001C000FFFF80007F
310
FFFFFF80000003FFFFFFF80000001FF80FFFFFFFFFFFFFC07FFFFFF0001FFFFF
310
F8001FFFFFFFFC000FF8001FFFFFFFFC000FFF0003FFFFFFFFFFFFFFF0000001
310
F000FFFFF800000001FFF8001C001FE001C000FFFF80007FFFFFF800000003FF
310
FFFF800000003FF80FFFFFFFFFFFFFC07FFFFFF0001FFFFFF8001FFFFFFFFC00
310
0FF8001FFFFFFFFC000FFF0003FFFFFFFFFFFFFE00000001F000FFFFC0000000
310
03FFF8001E001FC001E000FFFF80007FFFFF8000000007FFFFFC000000003FF8
310
0FFFFFFFFFFFFFC07FFFFFF0001FFFFFF8001FFFFFFFFC000FF8001FFFFFFFFC
310
000FFF0003FFFFFFFFFFFFE000000003F000FFFE0000000007FFF8001E000FC0
310
01E0007FFF80007FFFFE0000000007FFFFE0000000007FF80FFFFFFFFFFFFFC0
310
7FFFFFF0001FFFFFF0001FFFFFFFFC0007F0001FFFFFFFFC0007FF0003FFFFFF
310
FFFFFF0000000003F000FFF80000000007FFF8001E000FC003E0007FFF80007F
310
FFF0000000000FFFFF8000000000FFF80FFFFFFFFFFFFFC07FFFFFF0001FFFFF
310
F0001FFFFFFFFC0007F0001FFFFFFFFC0007FF0003FFFFFFFFFFFC0000000007
310
F000FFE0000000000FFFF0003E000FC003E0007FFF80007FFFC0000000001FFF
310
FE0000000001FFF80FFFFFFFFFFFFFC07FFFFFF0001FFFFFF0001FFFFFFFFC00
310
07F0001FFFFFFFFC0007FF0003FFFFFFFFFFF0000000000FF000FFC000000000
310
1FFFF0003F000F8003F0003FFF80007FFF80000000003FFFF80000000003FFF8
310
0FFFFFFFFFFFFFC07FFFFFF0001FFFFFF0001FFFFFFFFC0007F0001FFFFFFFFC
310
0007FF0003FFFFFFFFFFE0000000001FF000FF00000000007FFFF0003F000780
310
03F0003FFF80007FFF00000000007FFFF00000000007FFF80FFFFFFFFFFFFFC0
310
7FFFFFF0001FFFFFF0001FFFFFFFFC0007F0001FFFFFFFFC0007FF0003FFFFFF
310
FFFF80000000007FF000FE0000000000FFFFE0003F00078007F0003FFF80007F
310
FE0000000001FFFFE0000000001FFFF80FFFFFFFFFFFFFC07FFFFFF0001FFFFF
310
F0001FFFFFFFFC0007F0001FFFFFFFFC0007FF0003FFFFFFFFFF0000000000FF
310
F000FC0000000003FFFFE0007F00078007F0003FFF80007FFC0000000007FFFF
310
C0000000007FFFF80FFFFFFFFFFFFFC07FFFFFF0001FFFFFF8001FFFFFFFFC00
310
0FF8001FFFFFFFFC000FFF0003FFFFFFFFFE0000000003FFF000FC000000000F
310
FFFFE0007F80070007F8001FFF80007FF8000000001FFFFF8000000001FFFFF8
310
0FFFFFFFFFFFFFC07FFFFFF0001FFFFFF8001FFFFFFFFC000FF8001FFFFFFFFC
310
000FFF0003FFFFFFFFFC000000000FFFF000F8000000007FFFFFE0007F800700
310
07F8001FFF80007FF000000000FFFFFF800000000FFFFFF80FFFFFFFFFFFFFC0
310
7FFFFFF0001FFFFFF8000FFFFFFFF8000FF8000FFFFFFFF8000FFF0003FFFFFF
310
FFFC000000007FFFF000F800000007FFFFFFC0007F8003000FF8001FFF80007F
310
F000000007FFFFFF000000007FFFFFF80FFFFFFFFFFFFFC07FFFFFF0001FFFFF
310
F8000FFFFFFFF8000FF8000FFFFFFFF8000FFF0003FFFFFFFFF80000000FFFFF
310
F000F0000000FFFFFFFFC000FF8003000FF8001FFF80007FE0000000FFFFFFFF
310
0000000FFFFFFFF8000001FFFE0000007FFFFFF0001FFFFFF8000FFFFFFFF800
310
0FF8000FFFFFFFF8000FFF0003FFFFFFFFF8000000FFFFFFF000F000000FFFFF
310
FFFFC000FFC002000FF8000FFF80007FE000001FFFFFFFFE000001FFFFFFFFF8
310
000001FFFE0000007FFFFFF0001FFFFFF8000FFFFFFFF8000FF8000FFFFFFFF8
310
000FFF0003FFFFFFFFF000001FFFFFFFF000E00000FFFFFFFFFFC000FFC00200
310
0FFC000FFF80007FE00001FFFFFFFFFE00001FFFFFFFFFF8000001FFFE000000
310
7FFFFFF0001FFFFFFC000FFFFFFFF8001FFC000FFFFFFFF8001FFF0003FFFFFF
310
FFF00001FFFFFFFFF000E00007FFFFFFFFFF8000FFC000001FFC000FFF80007F
310
C0000FFFFFFFFFFE0000FFFFFFFFFFF8000001FFFE0000007FFFFFF0001FFFFF
310
FC0007FFFFFFF0001FFC0007FFFFFFF0001FFF0003FFFFFFFFF00007FFFFFFFF
310
F000E0001FFFFFFFFFFF8000FFC000001FFC000FFF80007FC0003FFFFFFFFFFE
310
0001FFFFFFFFFFF8000001FFFE0000007FFFFFF0001FFFFFFC0007FFFFFFF000
310
1FFC0007FFFFFFF0001FFF0003FFFFFFFFF0001FFFFFFFFFF000E0003FFFFF00
310
03FF8001FFE000001FFC0007FF80007FC0007FFFFF0007FC0003FFFFF0003FF8
310
000001FFFE0000007FFFFFF0001FFFFFFC0003FFFFFFE0001FFC0003FFFFFFE0
310
001FFF0003FFFFFFFFF0003FFFFFFFFFF000E0003FFFFF0001FF8001FFE00000
310
1FFE0007FF80007FC0007FFFFE0003FC0007FFFFE0003FF8000001FFFE000000
310
7FFFFFF0001FFFFFFE0003FFFFFFE0003FFE0003FFFFFFE0003FFF0003FFFFFF
310
FFF0003FFFFF8001F000E0003FFFFF0001FF0001FFE000001FFE0007FF80007F
310
C0007FFFFE0003FC0007FFFFE0003FF8000001FFFE0000007FFFFFF0001FFFFF
310
FE0001FFFFFFC0003FFE0001FFFFFFC0003FFF0003FFFFFFFFF0003FFFFF0001
310
F000E0003FFFFF0003FF0001FFE000003FFE0007FF80007FC0007FFFFE0003FC
310
0007FFFFE0003FF8000001FFFE0000007FFFFFF0001FFFFFFF0001FFFFFFC000
310
7FFF0001FFFFFFC0007FFF0003FFFFFFFFF0003FFFFF0001F000E0003FFFFE00
310
03FF0003FFF000003FFE0003FF80007FC0007FFFFC0003FE0007FFFFE0003FF8
310
000001FFFE0000007FFFFFF0001FFFFFFF0000FFFFFF80007FFF0000FFFFFF80
310
007FFF0003FFFFFFFFF0003FFFFF0001F000E0003FFFFE0003FF0003FFF00000
310
3FFF0003FF80007FC0007FFFFC0007FE0007FFFFC0003FF8000001FFFE000000
310
7FFFFFF0001FFFFFFF80007FFFFF0000FFFF80007FFFFF0000FFFF0003FFFFFF
310
FFF0003FFFFF0003F000E0003FFFFC0003FE0003FFF000003FFF0003FF80007F
310
E0003FFFF80007FE0003FFFFC0007FF8000001FFFE0000007FFFFFF0001FFFFF
310
FF80003FFFFE0000FFFF80003FFFFE0000FFFF0003FFFFFFFFF0001FFFFE0003
310
F000F0001FFFF80003FE0003FFF000007FFF0001FF80007FE0003FFFF00007FE
310
0001FFFF80007FF8000001FFFE0000007FFFFFF0001FFFFFFFC0000FFFF80001
310
FFFFC0000FFFF80001FFFF0003FFFFFFFFF0001FFFFC0003F000F0000FFFF000
310
07FE0007FFF800007FFF0001FF80007FE0001FFFE00007FF0000FFFE00007FF8
310
000001FFFE0000007FFFFFF0001FFFFFFFC00003FFE00001FFFFC00003FFE000
310
01FFFF0003FFFFFFFFF8000FFFF80003F000F00003FFC00007FC0007FFF80000
310
7FFF8001FF80007FF00007FF80000FFF00007FF80000FFF8000001FFFE000000
310
7F80000000000001FFE000003E000003FFFFE000003E000003FFFF0003FFFFFF
310
FFF80003FFE00007F000F800000000000FFC0007FFF800007FFF8001FF80007F
310
F000000000000FFF000000000000FFF8000001FFFE0000007F80000000000001
310
FFF0000000000007FFFFF0000000000007FFFF0003FFFFFFFFFC00007E000007
310
F000F800000000000FFC0007FFF80000FFFF8000FF80007FF800000000001FFF
310
800000000001FFF8000001FFFE0000007F80000000000001FFF800000000000F
310
FFFFF800000000000FFFFF0003FFFFFFFFFC00000000000FF000FC0000000000
310
1FFC0007FFFC0000FFFF8000FF80007FF800000000003FFFC00000000001FFF8
310
000001FFFE0000007F80000000000001FFF800000000000FFFFFF80000000000
310
0FFFFF0003FFFFFFFFFE00000000001FF000FE00000000003FF8000FFFFC0000
310
FFFF8000FF80007FFC00000000003FFFC00000000003FFF8000001FFFE000000
310
7F80000000000001FFFC00000000001FFFFFFC00000000001FFFFF0003FFFFFF
310
FFFF00000000001FF000FF00000000003FF8000FFFFC0000FFFFC000FF80007F
310
FE00000000007FFFE00000000007FFF8000001FFFE0000007F80000000000001
310
FFFE00000000003FFFFFFE00000000003FFFFF0003FFFFFFFFFF80000000003F
310
F000FF80000000007FF8000FFFFC0001FFFFC0007F80007FFF0000000000FFFF
310
F0000000000FFFF800000000000000007F80000000000001FFFF8000000000FF
310
FFFFFF8000000000FFFFFF0003FFFFFFFFFFC0000000007FF000FFC000000000
310
FFF8000FFFFE0001FFFFC0007F80007FFF8000000001FFFFF8000000001FFFF8
310
00000000000000007F80000000000001FFFFC000000001FFFFFFFFC000000001
310
FFFFFF0003FFFFFFFFFFE000000000FFF000FFE000000003FFF0001FFFFE0001
310
FFFFC0007F80007FFFC000000007FFFFFE000000003FFFF80000000000000000
310
7F80000000000001FFFFE000000003FFFFFFFFE000000003FFFFFF0003FFFFFF
310
FFFFF000000003FFF000FFF80000000FFFF0001FFFFE0001FFFFE0007F80007F
310
FFF00000000FFFFFFF00000000FFFFF800000000000000007F80000000000001
310
FFFFF80000000FFFFFFFFFF80000000FFFFFFF0003FFFFFFFFFFFC0000000FFF
310
F000FFFE0000003FFFF0001FFFFE0003FFFFE0003F80007FFFFC0000003FFFFF
310
FFC0000003FFFFF800000000000000007F80000000000001FFFFFE0000003FFF
310
FFFFFFFE0000003FFFFFFF0003FFFFFFFFFFFF0000003FFFF000FFFF800000FF
310
FFF0001FFFFF0003FFFFE0003F80007FFFFF000001FFFFFFFFF800001FFFFFF8
310
00000000000000007F80000000000001FFFFFFC00001FFFFFFFFFFFFC00001FF
310
FFFFFF0003FFFFFFFFFFFFC00000FFFFF000FFFFF8000FFFFFFFFFFFFFFFFFFF
310
FFFFFFFFFFFFFFFFFFFFF0001FFFFFFFFFFF0000FFFFFFF80000000000000000
310
7FFFFFFFFFFFFFFFFFFFFFFC001FFFFFFFFFFFFFFC001FFFFFFFFFFFFFFFFFFF
310
FFFFFFFC001FFFFFF000FFFFFFFFFFFFFFFFFFFFFFFFFFFFFFFFFFFFFFFFFFFF
310
FFFFFFFFFFFFFFFFFFFFFFFFFFFFFFFFFFFFFFFFFFFFFFFFFFFFFFFFFFFFFFFF
310
FFFFFFFFFFFFFFFFFFFFFFFFFFFFFFFFFFFFFFFFFFFFFFFFFFFFFFFFFFFFFFFF
310
F000FFFFFFFFFFFFFFFFFFFFFFFFFFFFFFFFFFFFFFFFFFFFFFFFFFFFFFFFFFFF
310
FFFFFFFFFFFFFFFFFFFFFFFFFFFFFFFFFFFFFFFFFFFFFFFFFFFFFFFFFFFFFFFF
310
FFFFFFFFFFFFFFFFFFFFFFFFFFFFFFFFFFFFFFFFFFFFFFFFF000FFFFFFFFFFFF
310
FFFFFFFFFFFFFFFFFFFFFFFFFFFFFFFFFFFFFFFFFFFFFFFFFFFFFFFFFFFFFFFF
310
FFFFFFFFFFFFFFFFFFFFFFFFFFFFFFFFFFFFFFFFFFFFFFFFFFFFFFFFFFFFFFFF
310
FFFFFFFFFFFFFFFFFFFFFFFFFFFFFFFFF000FFFFFFFFFFFFFFFFFFFFFFFFFFFF
310
FFFFFFFFFFFFFFFFFFFFFFFFFFFFFFFFFFFFFFFFFFFFFFFFFFFFFFFFFFFFFFFF
310
FFFFFFFFFFFFFFFFFFFFFFFFFFFFFFFFFFFFFFFFFFFFFFFFFFFFFFFFFFFFFFFF
310
FFFFFFFFFFFFFFFFF000FFFFFFFFFFFFFFFFFFFFFFFFFFFFFFFFFFFFFFFFFFFF
310
FFFFFFFFFFFFFFFFFFFFFFFFFFFFFFFFFFFFFFFFFFFFFFFFFFFFFFFFFFFFFFFF
310
FFFFFFFFFFFFFFFFFFFFFFFFFFFFFFFFFFFFFFFFFFFFFFFFFFFFFFFFFFFFFFFF
310
F000FFFFFFFFFFFFFFFFFFFFFFFFFFFFFFFFFFFFFFFFFFFFFFFFFFFFFFFFFFFF
310
FFFFFFFFFFFFFFFFFFFFFFFFFFFFFFFFFFFFFFFFFFFFFFFFFFFFFFFFFFFFFFFF
310
FFFFFFFFFFFFFFFFFFFFFFFFFFFFFFFFFFFFFFFFFFFFFFFFF000FFFFFFFFFFFF
310
FFFFFFFFFFFFFFFFFFFFFFFFFFFFFFFFFFFFFFFFFFFFFFFFFFFFFFFFFFFFFFFF
310
FFFFFFFFFFFFFFFFFFFFFFFFFFFFFFFFFFFFFFFFFFFFFFFFFFFFFFFFFFFFFFFF
310
FFFFFFFFFFFFFFFFFFFFFFFFFFFFFFFFF000FFFFFFFFFFFFFFFFFFFFFFFFFFFF
310
FFFFFFFFFFFFFFFFFFFFFFFFFFFFFFFFFFFFFFFFFFFFFFFFFFFFFFFFFFFFFFFF
310
FFFFFFFFFFFFFFFFFFFFFFFFFFFFFFFFFFFFFFFFFFFFFFFFFFFFFFFFFFFFFFFF
310
FFFFFFFFFFFFFFFFF000FFFFFFFFFFFFFFFFFFFFFFFFFFFFFFFFFFFFFFFFFFFF
310
FFFFFFFFFFFFFFFFFFFFFFFFFFFFFFFFFFFFFFFFFFFFFFFFFFFFFFFFFFFFFFFF
310
FFFFFFFFFFFFFFFFFFFFFFFFFFFFFFFFFFFFFFFFFFFFFFFFFFFFFFFFFFFFFFFF
310
F000FFFFFFFFFFFFFFFFFFFFFFFFFFFFFFFFFFFFFFFFFFFFFFFFFFFFFFFFFFFF
310
FFFFFFFFFFFFFFFFFFFFFFFFFFFFFFFFFFFFFFFFFFFFFFFFFFFFFFFFFFFFFFFF
310
FFFFFFFFFFFFFFFFFFFFFFFFFFFFFFFFFFFFFFFFFFFFFFFFF000FFFFFFFFFFFF
310
FFFFFFFFFFFFFFFFFFFFFFFFFFFFFFFFFFFFFFFFFFFFFFFFFFFFFFFFFFFFFFFF
310
FFFFFFFFFFFFFFFFFFFFFFFFFFFFFFFFFFFFFFFFFFFFFFFFFFFFFFFFFFFFFFFF
310
FFFFFFFFFFFFFFFFFFFFFFFFFFFFFFFFF000FFFFFFFFFFFFFFFFFFFFFFFFFFFF
310
FFFFFFFFFFFFFFFFFFFFFFFFFFFFFFFFFFFFFFFFFFFFFFFFFFFFFFFFFFFFFFFF
310
FFFFFFFFFFFFFFFFFFFFFFFFFFFFFFFFFFFFFFFFFFFFFFFFFFFFFFFFFFFFFFFF
310
FFFFFFFFFFFFFFFFF000FFFFFFFFFFFFFFFFFFFFFFFFFFFFFFFFFFFFFFFFFFFF
310
FFFFFFFFFFFFFFFFFFFFFFFFFFFFFFFFFFFFFFFFFFFFFFFFFFFFFFFFFFFFFFFF
310
FFFFFFFFFFFFFFFFFFFFFFFFFFFFFFFFFFFFFFFFFFFFFFFFFFFFFFFFFFFFFFFF
310
F000FFFFFFFFFFFFFFFFFFFFFFFFFFFFFFFFFFFFFFFFFFFFFFFFFFFFFFFFFFFF
310
FFFFFFFFFFFFFFFFFFFFFFFFFFFFFFFFFFFFFFFFFFFFFFFFFFFFFFFFFFFFFFFF
310
FFFFFFFFFFFFFFFFFFFFFFFFFFFFFFFFFFFFFFFFFFFFFFFFF000FFFFFFFFFFFF
310
FFFFFFFFFFFFFFFFFFFFFFFFFFFFFFFFFFFFFFFFFFFFFFFFFFFFFFFFFFFFFFFF
310
FFFFFFFFFFFFFFFFFFFFFFFFFFFFFFFFFFFFFFFFFFFFFFFFFFFFFFFFFFFFFFFF
310
FFFFFFFFFFFFFFFFFFFFFFFFFFFFFFFFF000FFFFFFFFFFFFFFFFFFFFFFFFFFFF
310
FFFFFFFFFFFFFFFFFFFFFFFFFFFFFFFFFFFFFFFFFFFFFFFFFFFFFFFFFFFFFFFF
310
FFFFFFFFFFFFFFFFFFFFFFFFFFFFFFFFFFFFFFFFFFFFFFFFFFFFFFFFFFFFFFFF
310
FFFFFFFFFFFFFFFFF000FFFFFFFFFFFFFFFFFFFFFFFFFFFFFFFFFFFFFFFFFFFF
310
FFFFFFFFFFFFFFFFFFFFFFFFFFFFFFFFFFFFFFFFFFFFFFFFFFFFFFFFFFFFFFFF
310
FFFFFFFFFFFFFFFFFFFFFFFFFFFFFFFFFFFFFFFFFFFFFFFFFFFFFFFFFFFFFFFF
310
F000FFFFFFFFFFFFFFFFFFFFFFFFFFFFFFFFFFFFFFFFFFFFFFFFFFFFFFFFFFFF
310
FFFFFFFFFFFFFFFFFFFFFFFFFFFFFFFFFFFFFFFFFFFFFFFFFFFFFFFFFFFFFFFF
310
FFFFFFFFFFFFFFFFFFFFFFFFFFFFFFFFFFFFFFFFFFFFFFFFF000FFFFFFFFFFFF
310
FFFFFFFFFFFFFFFFFFFFFFFFFFFFFFFFFFFFFFFFFFFFFFFFFFFFFFFFFFFFFFFF
310
FFFFFFFFFFFFFFFFFFFFFFFFFFFFFFFFFFFFFFFFFFFFFFFFFFFFFFFFFFFFFFFF
310
FFFFFFFFFFFFFFFFFFFFFFFFFFFFFFFFF000FFFFFFFFFFFFFFFFFFFFFFFFFFFF
310
FFFFFFFFFFFFFFFFFFFFFFFFFFFFFFFFFFFFFFFFFFFFFFFFFFFFFFFFFFFFFFFF
310
FFFFFFFFFFFFFFFFFFFFFFFFFFFFFFFFFFFFFFFFFFFFFFFFFFFFFFFFFFFFFFFF
310
FFFFFFFFFFFFFFFFF000FFFFFFFFFFFFFFFFFFFFFFFFFFFFFFFFFFFFFFFFFFFF
310
FFFFFFFFFFFFFFFFFFFFFFFFFFFFFFFFFFFFFFFFFFFFFFFFFFFFFFFFFFFFFFFF
310
FFFFFFFFFFFFFFFFFFFFFFFFFFFFFFFFFFFFFFFFFFFFFFFFFFFFFFFFFFFFFFFF
310
F000FFFFFFFFFFFFFFFFFFFFFFFFFFFFFFFFFFFFFFFFFFFFFFFFFFFFFFFFFFFF
310
FFFFFFFFFFFFFFFFFFFFFFFFFFFFFFFFFFFFFFFFFFFFFFFFFFFFFFFFFFFFFFFF
310
FFFFFFFFFFFFFFFFFFFFFFFFFFFFFFFFFFFFFFFFFFFFFFFFF000FFFFFFFFFFFF
310
FFFFFFFFFFFFFFFFFFFFFFFFFFFFFFFFFFFFFFFFFFFFFFFFFFFFFFFFFFFFFFFF
310
FFFFFFFFFFFFFFFFFFFFFFFFFFFFFFFFFFFFFFFFFFFFFFFFFFFFFFFFFFFFFFFF
310
FFFFFFFFFFFFFFFFFFFFFFFFFFFFFFFFF0000000000000000000000000000000
310
0000000000000000000000000000000000000000000000000000000000000000
310
0000000000000000000000000000000000000000000000000000000000000000
310
0000000000000000000000000000000000000000000000000000000000000000
310
0000000000000000000000000000000000000000000000000000000000000000
310
0000000000000000000000000000000000000000000000000000000000000000
310
0000000000000000000000000000000000000000000000000000000000000000
310
0000000000000000000000000000000000000000000000000000000000000000
310
0000000000000000000000000000000000000000000000000000000000000000
310
0000000000000000000000000000000000000000000000000000000000000000
310
0000000000000000000000000000000000000000000000000000000000000000
310
0000000000000000000000000000000000000000000000000000000000000000
310
0000000000000000000000000000000000000000000000000000000000000000
310
0000000000000000000000000000000000000000000000000000000000000000
310
0000000000000000000000000000000000000000000000000000000000000000
310
0000000000000000000000000000000000000000000000000000000000000000
  1
OLE
  0
ENDSEC
  0
SECTION
  2
OBJECTS
  0
DICTIONARY
  5
C
330
0
100
AcDbDictionary
281
     1
  3
ACAD_GROUP
350
D
  3
ACAD_LAYOUT
350
1A
  3
ACAD_MLINESTYLE
350
17
  3
ACAD_PLOTSETTINGS
350
19
  3
ACAD_PLOTSTYLENAME
350
E
  0
DICTIONARY
  5
D
102
{ACAD_REACTORS
330
C
102
}
330
C
100
AcDbDictionary
281
     1
  0
DICTIONARY
  5
1A
102
{ACAD_REACTORS
330
C
102
}
330
C
100
AcDbDictionary
281
     1
  3
Layout1
350
1E
  3
Layout2
350
26
  3
Model
350
22
  0
DICTIONARY
  5
17
102
{ACAD_REACTORS
330
C
102
}
330
C
100
AcDbDictionary
281
     1
  3
Standard
350
18
  0
DICTIONARY
  5
19
102
{ACAD_REACTORS
330
C
102
}
330
C
100
AcDbDictionary
281
     1
  0
ACDBDICTIONARYWDFLT
  5
E
102
{ACAD_REACTORS
330
C
102
}
330
C
100
AcDbDictionary
281
     1
  3
Normal
350
F
100
AcDbDictionaryWithDefault
340
F
  0
LAYOUT
  5
1E
102
{ACAD_REACTORS
330
1A
102
}
330
1A
100
AcDbPlotSettings
  1

  2
none_device
  4

  6

 40
0.0
 41
0.0
 42
0.0
 43
0.0
 44
0.0
 45
0.0
 46
0.0
 47
0.0
 48
0.0
 49
0.0
140
0.0
141
0.0
142
1.0
143
1.0
 70
   688
 72
     0
 73
     0
 74
     5
  7

 75
    16
147
1.0
148
0.0
149
0.0
100
AcDbLayout
  1
Layout1
 70
     1
 71
     1
 10
0.0
 20
0.0
 11
420.0
 21
297.0
 12
0.0
 22
0.0
 32
0.0
 14
1.0000000000E+20
 24
1.0000000000E+20
 34
1.0000000000E+20
 15
-1.0000000000E+20
 25
-1.0000000000E+20
 35
-1.0000000000E+20
146
0.0
 13
0.0
 23
0.0
 33
0.0
 16
1.0
 26
0.0
 36
0.0
 17
0.0
 27
1.0
 37
0.0
 76
     0
330
1B
  0
LAYOUT
  5
26
102
{ACAD_REACTORS
330
1A
102
}
330
1A
100
AcDbPlotSettings
  1

  2
none_device
  4

  6

 40
0.0
 41
0.0
 42
0.0
 43
0.0
 44
0.0
 45
0.0
 46
0.0
 47
0.0
 48
0.0
 49
0.0
140
0.0
141
0.0
142
1.0
143
1.0
 70
   688
 72
     0
 73
     0
 74
     5
  7

 75
    16
147
1.0
148
0.0
149
0.0
100
AcDbLayout
  1
Layout2
 70
     1
 71
     2
 10
0.0
 20
0.0
 11
0.0
 21
0.0
 12
0.0
 22
0.0
 32
0.0
 14
0.0
 24
0.0
 34
0.0
 15
0.0
 25
0.0
 35
0.0
146
0.0
 13
0.0
 23
0.0
 33
0.0
 16
1.0
 26
0.0
 36
0.0
 17
0.0
 27
1.0
 37
0.0
 76
     0
330
23
  0
LAYOUT
  5
22
102
{ACAD_REACTORS
330
1A
102
}
330
1A
100
AcDbPlotSettings
  1

  2
none_device
  4

  6

 40
0.0
 41
0.0
 42
0.0
 43
0.0
 44
0.0
 45
0.0
 46
0.0
 47
0.0
 48
0.0
 49
0.0
140
0.0
141
0.0
142
1.0
143
1.0
 70
  1712
 72
     0
 73
     0
 74
     0
  7

 75
     0
147
1.0
148
0.0
149
0.0
100
AcDbLayout
  1
Model
 70
     1
 71
     0
 10
0.0
 20
0.0
 11
297.0
 21
210.0
 12
0.0
 22
0.0
 32
0.0
 14
0.0
 24
0.0
 34
0.0
 15
297.0
 25
210.0
 35
0.0
146
0.0
 13
0.0
 23
0.0
 33
0.0
 16
1.0
 26
0.0
 36
0.0
 17
0.0
 27
1.0
 37
0.0
 76
     0
330
1F
331
29
  0
MLINESTYLE
  5
18
102
{ACAD_REACTORS
330
17
102
}
330
17
100
AcDbMlineStyle
  2
Standard
 70
     0
  3

 62
   256
 51
90.0
 52
90.0
 71
     2
 49
0.5
 62
   256
  6
BYLAYER
 49
-0.5
 62
   256
  6
BYLAYER
  0
ACDBPLACEHOLDER
  5
F
102
{ACAD_REACTORS
330
E
102
}
330
E
  0
ENDSEC
  0
EOF
