  0
SECTION
  2
HEADER
  9
$ACADVER
  1
AC1015
  9
$ACADMAINTVER
 70
     6
  9
$DWGCODEPAGE
  3
ANSI_1252
  9
$INSBASE
 10
0.0
 20
0.0
 30
0.0
  9
$EXTMIN
 10
0.0
 20
0.0
 30
0.0
  9
$EXTMAX
 10
297.0
 20
210.0
 30
0.0
  9
$LIMMIN
 10
0.0
 20
0.0
  9
$LIMMAX
 10
297.0
 20
210.0
  9
$ORTHOMODE
 70
     0
  9
$REGENMODE
 70
     1
  9
$FILLMODE
 70
     1
  9
$QTEXTMODE
 70
     0
  9
$MIRRTEXT
 70
     1
  9
$LTSCALE
 40
1.0
  9
$ATTMODE
 70
     1
  9
$TEXTSIZE
 40
2.0
  9
$TRACEWID
 40
1.0
  9
$TEXTSTYLE
  7
Standard
  9
$CLAYER
  8
0
  9
$CELTYPE
  6
ByLayer
  9
$CECOLOR
 62
   256
  9
$CELTSCALE
 40
1.0
  9
$DISPSILH
 70
     0
  9
$DIMSCALE
 40
1.0
  9
$DIMASZ
 40
3.0
  9
$DIMEXO
 40
0.0
  9
$DIMDLI
 40
3.75
  9
$DIMRND
 40
0.0
  9
$DIMDLE
 40
0.0
  9
$DIMEXE
 40
1.0
  9
$DIMTP
 40
0.0
  9
$DIMTM
 40
0.0
  9
$DIMTXT
 40
2.0
  9
$DIMCEN
 40
2.5
  9
$DIMTSZ
 40
0.0
  9
$DIMTOL
 70
     0
  9
$DIMLIM
 70
     0
  9
$DIMTIH
 70
     1
  9
$DIMTOH
 70
     1
  9
$DIMSE1
 70
     0
  9
$DIMSE2
 70
     0
  9
$DIMTAD
 70
     1
  9
$DIMZIN
 70
     0
  9
$DIMBLK
  1

  9
$DIMASO
 70
     1
  9
$DIMSHO
 70
     1
  9
$DIMPOST
  1

  9
$DIMAPOST
  1

  9
$DIMALT
 70
     0
  9
$DIMALTD
 70
     3
  9
$DIMALTF
 40
0.0393700787
  9
$DIMLFAC
 40
1.0
  9
$DIMTOFL
 70
     1
  9
$DIMTVP
 40
0.0
  9
$DIMTIX
 70
     0
  9
$DIMSOXD
 70
     0
  9
$DIMSAH
 70
     0
  9
$DIMBLK1
  1

  9
$DIMBLK2
  1

  9
$DIMSTYLE
  2
ISO-25
  9
$DIMCLRD
 70
     0
  9
$DIMCLRE
 70
     0
  9
$DIMCLRT
 70
     0
  9
$DIMTFAC
 40
1.0
  9
$DIMGAP
 40
1.524
  9
$DIMJUST
 70
     0
  9
$DIMSD1
 70
     0
  9
$DIMSD2
 70
     0
  9
$DIMTOLJ
 70
     0
  9
$DIMTZIN
 70
     0
  9
$DIMALTZ
 70
     0
  9
$DIMALTTZ
 70
     0
  9
$DIMUPT
 70
     0
  9
$DIMDEC
 70
     2
  9
$DIMTDEC
 70
     3
  9
$DIMALTU
 70
     2
  9
$DIMALTTD
 70
     3
  9
$DIMTXSTY
  7
Standard
  9
$DIMAUNIT
 70
     0
  9
$DIMADEC
 70
     2
  9
$DIMALTRND
 40
0.0
  9
$DIMAZIN
 70
     0
  9
$DIMDSEP
 70
    44
  9
$DIMATFIT
 70
     3
  9
$DIMFRAC
 70
     0
  9
$DIMLDRBLK
  1

  9
$DIMLUNIT
 70
     2
  9
$DIMLWD
 70
    -2
  9
$DIMLWE
 70
    -2
  9
$DIMTMOVE
 70
     0
  9
$LUNITS
 70
     2
  9
$LUPREC
 70
     2
  9
$SKETCHINC
 40
1.0
  9
$FILLETRAD
 40
10.0
  9
$AUNITS
 70
     0
  9
$AUPREC
 70
     2
  9
$MENU
  1
.
  9
$ELEVATION
 40
0.0
  9
$PELEVATION
 40
0.0
  9
$THICKNESS
 40
0.0
  9
$LIMCHECK
 70
     0
  9
$CHAMFERA
 40
10.0
  9
$CHAMFERB
 40
10.0
  9
$CHAMFERC
 40
20.0
  9
$CHAMFERD
 40
0.0
  9
$SKPOLY
 70
     0
  9
$TDCREATE
 40
2456072.630686956
  9
$TDUCREATE
 40
2456072.547353623
  9
$TDUPDATE
 40
2456072.630688044
  9
$TDUUPDATE
 40
2456072.547354711
  9
$TDINDWG
 40
0.0000000116
  9
$TDUSRTIMER
 40
0.0000000116
  9
$USRTIMER
 70
     1
  9
$ANGBASE
 50
0.0
  9
$ANGDIR
 70
     0
  9
$PDMODE
 70
     0
  9
$PDSIZE
 40
-1.0
  9
$PLINEWID
 40
0.0
  9
$SPLFRAME
 70
     0
  9
$SPLINETYPE
 70
     6
  9
$SPLINESEGS
 70
     8
  9
$HANDSEED
  5
2BD
  9
$SURFTAB1
 70
     6
  9
$SURFTAB2
 70
     6
  9
$SURFTYPE
 70
     6
  9
$SURFU
 70
     6
  9
$SURFV
 70
     6
  9
$UCSBASE
  2

  9
$UCSNAME
  2

  9
$UCSORG
 10
0.0
 20
0.0
 30
0.0
  9
$UCSXDIR
 10
1.0
 20
0.0
 30
0.0
  9
$UCSYDIR
 10
0.0
 20
1.0
 30
0.0
  9
$UCSORTHOREF
  2

  9
$UCSORTHOVIEW
 70
     0
  9
$UCSORGTOP
 10
0.0
 20
0.0
 30
0.0
  9
$UCSORGBOTTOM
 10
0.0
 20
0.0
 30
0.0
  9
$UCSORGLEFT
 10
0.0
 20
0.0
 30
0.0
  9
$UCSORGRIGHT
 10
0.0
 20
0.0
 30
0.0
  9
$UCSORGFRONT
 10
0.0
 20
0.0
 30
0.0
  9
$UCSORGBACK
 10
0.0
 20
0.0
 30
0.0
  9
$PUCSBASE
  2

  9
$PUCSNAME
  2

  9
$PUCSORG
 10
0.0
 20
0.0
 30
0.0
  9
$PUCSXDIR
 10
1.0
 20
0.0
 30
0.0
  9
$PUCSYDIR
 10
0.0
 20
1.0
 30
0.0
  9
$PUCSORTHOREF
  2

  9
$PUCSORTHOVIEW
 70
     0
  9
$PUCSORGTOP
 10
0.0
 20
0.0
 30
0.0
  9
$PUCSORGBOTTOM
 10
0.0
 20
0.0
 30
0.0
  9
$PUCSORGLEFT
 10
0.0
 20
0.0
 30
0.0
  9
$PUCSORGRIGHT
 10
0.0
 20
0.0
 30
0.0
  9
$PUCSORGFRONT
 10
0.0
 20
0.0
 30
0.0
  9
$PUCSORGBACK
 10
0.0
 20
0.0
 30
0.0
  9
$USERI1
 70
     0
  9
$USERI2
 70
     0
  9
$USERI3
 70
     0
  9
$USERI4
 70
     0
  9
$USERI5
 70
     0
  9
$USERR1
 40
0.0
  9
$USERR2
 40
0.0
  9
$USERR3
 40
0.0
  9
$USERR4
 40
0.0
  9
$USERR5
 40
0.0
  9
$WORLDVIEW
 70
     1
  9
$SHADEDGE
 70
     3
  9
$SHADEDIF
 70
    70
  9
$TILEMODE
 70
     1
  9
$MAXACTVP
 70
    64
  9
$PINSBASE
 10
0.0
 20
0.0
 30
0.0
  9
$PLIMCHECK
 70
     0
  9
$PEXTMIN
 10
1.0000000000E+20
 20
1.0000000000E+20
 30
1.0000000000E+20
  9
$PEXTMAX
 10
-1.0000000000E+20
 20
-1.0000000000E+20
 30
-1.0000000000E+20
  9
$PLIMMIN
 10
0.0
 20
0.0
  9
$PLIMMAX
 10
420.0
 20
297.0
  9
$UNITMODE
 70
     0
  9
$VISRETAIN
 70
     1
  9
$PLINEGEN
 70
     0
  9
$PSLTSCALE
 70
     1
  9
$TREEDEPTH
 70
  3020
  9
$CMLSTYLE
  2
Standard
  9
$CMLJUST
 70
     0
  9
$CMLSCALE
 40
20.0
  9
$PROXYGRAPHICS
 70
     1
  9
$MEASUREMENT
 70
     1
  9
$CELWEIGHT
370
    -1
  9
$ENDCAPS
280
     0
  9
$JOINSTYLE
280
     0
  9
$LWDISPLAY
290
     1
  9
$INSUNITS
 70
     4
  9
$HYPERLINKBASE
  1

  9
$STYLESHEET
  1

  9
$XEDIT
290
     1
  9
$CEPSNTYPE
380
     0
  9
$PSTYLEMODE
290
     1
  9
$FINGERPRINTGUID
  2
{FA272B49-5A97-4507-93BA-717CAC3C1A83}
  9
$VERSIONGUID
  2
{FAEB1C32-E019-11D5-929B-00C0DF256EC4}
  9
$EXTNAMES
290
     1
  9
$PSVPSCALE
 40
0.0
  9
$OLESTARTUP
290
     0
  0
ENDSEC
  0
SECTION
  2
CLASSES
  0
CLASS
  1
ACDBDICTIONARYWDFLT
  2
AcDbDictionaryWithDefault
  3
ObjectDBX Classes
 90
        0
280
     0
281
     0
  0
CLASS
  1
VISUALSTYLE
  2
AcDbVisualStyle
  3
ObjectDBX Classes
 90
     4095
280
     0
281
     0
  0
CLASS
  1
MATERIAL
  2
AcDbMaterial
  3
ObjectDBX Classes
 90
     1153
280
     0
281
     0
  0
CLASS
  1
ACDBPLACEHOLDER
  2
AcDbPlaceHolder
  3
ObjectDBX Classes
 90
        0
280
     0
281
     0
  0
CLASS
  1
LAYOUT
  2
AcDbLayout
  3
ObjectDBX Classes
 90
        0
280
     0
281
     0
  0
ENDSEC
  0
SECTION
  2
TABLES
  0
TABLE
  2
VPORT
  5
8
330
0
100
AcDbSymbolTable
 70
     1
  0
VPORT
  5
29
330
8
100
AcDbSymbolTableRecord
100
AcDbViewportTableRecord
  2
*Active
 70
     0
 10
0.0
 20
0.0
 11
1.0
 21
1.0
 12
148.5
 22
105.0
 13
0.0
 23
0.0
 14
10.0
 24
10.0
 15
10.0
 25
10.0
 16
0.0
 26
0.0
 36
1.0
 17
0.0
 27
0.0
 37
0.0
 40
210.0
 41
1.4142857143
 42
50.0
 43
0.0
 44
0.0
 50
0.0
 51
0.0
 71
     0
 72
  2000
 73
     1
 74
     3
 75
     0
 76
     0
 77
     0
 78
     0
281
     0
 65
     1
110
0.0
120
0.0
130
0.0
111
1.0
121
0.0
131
0.0
112
0.0
122
1.0
132
0.0
 79
     0
146
0.0
  0
ENDTAB
  0
TABLE
  2
LTYPE
  5
5
330
0
100
AcDbSymbolTable
 70
     6
  0
LTYPE
  5
14
330
5
100
AcDbSymbolTableRecord
100
AcDbLinetypeTableRecord
  2
ByBlock
 70
     0
  3

 72
    65
 73
     0
 40
0.0
  0
LTYPE
  5
15
330
5
100
AcDbSymbolTableRecord
100
AcDbLinetypeTableRecord
  2
ByLayer
 70
     0
  3

 72
    65
 73
     0
 40
0.0
  0
LTYPE
  5
16
330
5
100
AcDbSymbolTableRecord
100
AcDbLinetypeTableRecord
  2
Continuous
 70
     0
  3
Solid line
 72
    65
 73
     0
 40
0.0
  0
LTYPE
  5
3F
330
5
100
AcDbSymbolTableRecord
100
AcDbLinetypeTableRecord
  2
HIDDEN
 70
     0
  3
Hidden __ __ __ __ __ __ __ __ __ __ __ __ __ __
 72
    65
 73
     2
 40
1.905
 49
1.27
 74
     0
 49
-0.635
 74
     0
  0
LTYPE
  5
40
330
5
100
AcDbSymbolTableRecord
100
AcDbLinetypeTableRecord
  2
PHANTOM
 70
     0
  3
Phantom ______  __  __  ______  __  __  ______
 72
    65
 73
     6
 40
12.7
 49
6.35
 74
     0
 49
-1.27
 74
     0
 49
1.27
 74
     0
 49
-1.27
 74
     0
 49
1.27
 74
     0
 49
-1.27
 74
     0
  0
LTYPE
  5
41
330
5
100
AcDbSymbolTableRecord
100
AcDbLinetypeTableRecord
  2
CENTER
 70
     0
  3
Center ____ _ ____ _ ____ _ ____ _ ____ _ ____
 72
    65
 73
     4
 40
10.16
 49
6.35
 74
     0
 49
-1.27
 74
     0
 49
1.27
 74
     0
 49
-1.27
 74
     0
  0
LTYPE
  5
42
330
5
100
AcDbSymbolTableRecord
100
AcDbLinetypeTableRecord
  2
CENTERX2
 70
     0
  3
Center (2x) ________  __  ________  __  _____
 72
    65
 73
     4
 40
20.32
 49
12.7
 74
     0
 49
-2.54
 74
     0
 49
2.54
 74
     0
 49
-2.54
 74
     0
  0
LTYPE
  5
43
330
5
100
AcDbSymbolTableRecord
100
AcDbLinetypeTableRecord
  2
DOT2
 70
     0
  3
Dot (.5x) ........................................
 72
    65
 73
     2
 40
0.635
 49
0.0
 74
     0
 49
-0.635
 74
     0
  0
ENDTAB
  0
TABLE
  2
LAYER
  5
2
330
0
100
AcDbSymbolTable
 70
     5
  0
LAYER
  5
10
330
2
100
AcDbSymbolTableRecord
100
AcDbLayerTableRecord
  2
0
 70
     0
 62
     7
  6
Continuous
370
    -3
390
F
  0
LAYER
  5
44
330
2
100
AcDbSymbolTableRecord
100
AcDbLayerTableRecord
  2
FORMAT
 70
     0
 62
     7
  6
Continuous
370
    -3
390
F
  0
LAYER
  5
45
330
2
100
AcDbSymbolTableRecord
100
AcDbLayerTableRecord
  2
VERMASSUNG
 70
     0
 62
     7
  6
Continuous
370
    -3
390
F
  0
LAYER
  5
46
330
2
100
AcDbSymbolTableRecord
100
AcDbLayerTableRecord
  2
KOPF_DÜNN
 70
     0
 62
     7
  6
Continuous
370
    -3
390
F
  0
LAYER
  5
47
330
2
100
AcDbSymbolTableRecord
100
AcDbLayerTableRecord
  2
KOPF_DICK
 70
     0
 62
     7
  6
Continuous
370
    15
390
F
  0
ENDTAB
  0
TABLE
  2
STYLE
  5
3
330
0
100
AcDbSymbolTable
 70
     2
  0
STYLE
  5
11
330
3
100
AcDbSymbolTableRecord
100
AcDbTextStyleTableRecord
  2
Standard
 70
     0
 40
0.0
 41
1.0
 50
0.0
 71
     0
 42
2.0
  3
txt
  4

  0
STYLE
  5
48
330
3
100
AcDbSymbolTableRecord
100
AcDbTextStyleTableRecord
  2
SLDTEXTSTYLE0
 70
     0
 40
0.0
 41
0.7
 50
0.0
 71
     0
 42
0.2
  3
TXT
  4

  0
ENDTAB
  0
TABLE
  2
VIEW
  5
6
330
0
100
AcDbSymbolTable
 70
     0
  0
ENDTAB
  0
TABLE
  2
UCS
  5
7
330
0
100
AcDbSymbolTable
 70
     0
  0
ENDTAB
  0
TABLE
  2
APPID
  5
9
330
0
100
AcDbSymbolTable
 70
     1
  0
APPID
  5
12
330
9
100
AcDbSymbolTableRecord
100
AcDbRegAppTableRecord
  2
ACAD
 70
     0
  0
ENDTAB
  0
TABLE
  2
DIMSTYLE
  5
A
330
0
100
AcDbSymbolTable
 70
     3
100
AcDbDimStyleTable
  0
DIMSTYLE
105
27
330
A
100
AcDbSymbolTableRecord
100
AcDbDimStyleTableRecord
  2
ISO-25
 70
     0
 41
2.5
 42
0.625
 43
3.75
 44
1.25
 73
     0
 74
     0
 77
     1
 78
     8
140
2.5
141
2.5
143
0.0393700787
147
0.625
171
     3
172
     1
178
     0
271
     2
272
     2
274
     3
278
    44
283
     0
284
     8
340
11
  0
DIMSTYLE
105
13D
102
{ACAD_REACTORS
330
13C
330
2B2
102
}
330
A
100
AcDbSymbolTableRecord
100
AcDbDimStyleTableRecord
  2
SLDDIMSTYLE0
 70
     0
 41
3.0
 44
0.0
 45
0.000000001
 73
     0
 74
     0
 77
     1
 78
    12
 79
     3
140
2.0
147
0.5
173
     1
178
     0
271
     2
272
     3
276
     2
284
    12
340
48
  0
DIMSTYLE
105
2A6
102
{ACAD_REACTORS
330
2A5
102
}
330
A
100
AcDbSymbolTableRecord
100
AcDbDimStyleTableRecord
  2
SLDDIMSTYLE1
 70
     0
 41
3.0
 44
0.0
 45
0.000000001
 47
0.1
 48
0.1
 71
     1
 73
     0
 74
     0
 77
     1
 78
    12
 79
     3
140
2.0
147
0.5
173
     1
178
     0
271
     2
272
     1
276
     2
284
     8
340
48
  0
ENDTAB
  0
TABLE
  2
BLOCK_RECORD
  5
1
330
0
100
AcDbSymbolTable
 70
     4
  0
BLOCK_RECORD
  5
1F
330
1
100
AcDbSymbolTableRecord
100
AcDbBlockTableRecord
  2
*Model_Space
340
22
  0
BLOCK_RECORD
  5
1B
330
1
100
AcDbSymbolTableRecord
100
AcDbBlockTableRecord
  2
*Paper_Space
340
1E
  0
BLOCK_RECORD
  5
23
330
1
100
AcDbSymbolTableRecord
100
AcDbBlockTableRecord
  2
*Paper_Space0
340
26
  0
BLOCK_RECORD
  5
13E
330
1
100
AcDbSymbolTableRecord
100
AcDbBlockTableRecord
  2
_D
340
0
  0
BLOCK_RECORD
  5
2A7
330
1
100
AcDbSymbolTableRecord
100
AcDbBlockTableRecord
  2
_D_1
340
0
  0
BLOCK_RECORD
  5
2B3
330
1
100
AcDbSymbolTableRecord
100
AcDbBlockTableRecord
  2
_D_2
340
0
  0
ENDTAB
  0
ENDSEC
  0
SECTION
  2
BLOCKS
  0
BLOCK
  5
20
330
1F
100
AcDbEntity
  8
0
100
AcDbBlockBegin
  2
*Model_Space
 70
     0
 10
0.0
 20
0.0
 30
0.0
  3
*Model_Space
  1

  0
ENDBLK
  5
21
330
1F
100
AcDbEntity
  8
0
100
AcDbBlockEnd
  0
BLOCK
  5
1C
330
1B
100
AcDbEntity
 67
     1
  8
0
100
AcDbBlockBegin
  2
*Paper_Space
 70
     0
 10
0.0
 20
0.0
 30
0.0
  3
*Paper_Space
  1

  0
ENDBLK
  5
1D
330
1B
100
AcDbEntity
 67
     1
  8
0
100
AcDbBlockEnd
  0
BLOCK
  5
24
330
23
100
AcDbEntity
  8
0
100
AcDbBlockBegin
  2
*Paper_Space0
 70
     0
 10
0.0
 20
0.0
 30
0.0
  3
*Paper_Space0
  1

  0
ENDBLK
  5
25
330
23
100
AcDbEntity
  8
0
100
AcDbBlockEnd
  0
BLOCK
  5
13F
330
13E
100
AcDbEntity
  8
0
100
AcDbBlockBegin
  2
_D
 70
     0
 10
0.0
 20
0.0
 30
0.0
  3
_D
  1

  0
SOLID
  5
141
330
13E
100
AcDbEntity
  8
VERMASSUNG
100
AcDbTrace
 10
84.4291945253
 20
108.7157023774
 30
0.0
 11
83.9791945253
 21
105.7157023774
 31
0.0
 12
84.8791945253
 22
105.7157023774
 32
0.0
 13
84.8791945253
 23
105.7157023774
 33
0.0
  0
SOLID
  5
142
330
13E
100
AcDbEntity
  8
VERMASSUNG
100
AcDbTrace
 10
84.4291945253
 20
45.7157023774
 30
0.0
 11
84.8791945253
 21
48.7157023774
 31
0.0
 12
83.9791945253
 22
48.7157023774
 32
0.0
 13
83.9791945253
 23
48.7157023774
 33
0.0
  0
LINE
  5
143
330
13E
100
AcDbEntity
  8
VERMASSUNG
100
AcDbLine
 10
132.9291945253
 20
108.7157023774
 30
0.0
 11
83.4291945253
 21
108.7157023774
 31
0.0
  0
LINE
  5
144
330
13E
100
AcDbEntity
  8
VERMASSUNG
100
AcDbLine
 10
132.9291945253
 20
45.7157023774
 30
0.0
 11
83.4291945253
 21
45.7157023774
 31
0.0
  0
LINE
  5
145
330
13E
100
AcDbEntity
  8
VERMASSUNG
100
AcDbLine
 10
84.4291945253
 20
108.7157023774
 30
0.0
 11
84.4291945253
 21
45.7157023774
 31
0.0
  0
MTEXT
  5
146
330
13E
100
AcDbEntity
  8
VERMASSUNG
100
AcDbMText
 10
81.6510590363
 20
70.8107022681
 30
0.1
 40
2.0
 41
0.0
 71
     1
 72
     1
  1
PSC
  7
SLDTEXTSTYLE0
 11
-7.044195017643634E-15
 21
1.0
 31
0.0
 73
     1
 44
1.0
  0
MTEXT
  5
147
330
13E
100
AcDbEntity
  8
VERMASSUNG
100
AcDbMText
 10
81.8510590458
 20
75.4107023702
 30
0.1
 40
2.0
 41
0.0
 71
     1
 72
     1
  1
%%c
  7
SLDTEXTSTYLE0
 11
-7.044195017643634E-15
 21
1.0
 31
0.0
 73
     1
 44
1.0
  0
MTEXT
  5
148
330
13E
100
AcDbEntity
  8
VERMASSUNG
100
AcDbMText
 10
81.6510590363
 20
79.0207028502
 30
0.1
 40
2.0
 41
0.0
 71
     1
 72
     1
  1
63
  7
SLDTEXTSTYLE0
 11
-7.044195017643634E-15
 21
1.0
 31
0.0
 73
     1
 44
1.0
  0
ENDBLK
  5
140
330
13E
100
AcDbEntity
  8
0
100
AcDbBlockEnd
  0
BLOCK
  5
2A8
330
2A7
100
AcDbEntity
  8
0
100
AcDbBlockBegin
  2
_D_1
 70
     0
 10
0.0
 20
0.0
 30
0.0
  3
_D_1
  1

  0
SOLID
  5
2AA
330
2A7
100
AcDbEntity
  8
VERMASSUNG
100
AcDbTrace
 10
232.4291945253
 20
191.8044549841
 30
0.0
 11
229.4291945253
 21
192.2544549841
 31
0.0
 12
229.4291945253
 22
191.3544549841
 32
0.0
 13
229.4291945253
 23
191.3544549841
 33
0.0
  0
SOLID
  5
2AB
330
2A7
100
AcDbEntity
  8
VERMASSUNG
100
AcDbTrace
 10
132.4291945253
 20
191.8044549841
 30
0.0
 11
135.4291945253
 21
191.3544549841
 31
0.0
 12
135.4291945253
 22
192.2544549841
 32
0.0
 13
135.4291945253
 23
192.2544549841
 33
0.0
  0
LINE
  5
2AC
330
2A7
100
AcDbEntity
  8
VERMASSUNG
100
AcDbLine
 10
232.4291945253
 20
157.3782914754
 30
0.0
 11
232.4291945253
 21
192.8044549841
 31
0.0
  0
LINE
  5
2AD
330
2A7
100
AcDbEntity
  8
VERMASSUNG
100
AcDbLine
 10
132.4291945253
 20
181.3044549841
 30
0.0
 11
132.4291945253
 21
192.8044549841
 31
0.0
  0
LINE
  5
2AE
330
2A7
100
AcDbEntity
  8
VERMASSUNG
100
AcDbLine
 10
232.4291945253
 20
191.8044549841
 30
0.0
 11
132.4291945253
 21
191.8044549841
 31
0.0
  0
MTEXT
  5
2AF
330
2A7
100
AcDbEntity
  8
VERMASSUNG
100
AcDbMText
 10
177.3791942563
 20
194.3825903473
 30
0.1
 40
2.0
 41
0.0
 71
     1
 72
     1
  1
100
  7
SLDTEXTSTYLE0
 73
     1
 44
1.0
  0
MTEXT
  5
2B0
330
2A7
100
AcDbEntity
  8
VERMASSUNG
100
AcDbMText
 10
184.1666945223
 20
194.3825903473
 30
0.1
 40
2.0
 41
0.0
 71
     1
 72
     1
  1

  7
SLDTEXTSTYLE0
 73
     1
 44
1.0
  0
MTEXT
  5
2B1
330
2A7
100
AcDbEntity
  8
VERMASSUNG
100
AcDbMText
 10
184.1791948122
 20
193.8880564845
 30
0.1
 40
1.5
 41
0.0
 71
     1
 72
     1
  1
±0.1
  7
SLDTEXTSTYLE0
 73
     1
 44
1.0
  0
ENDBLK
  5
2A9
330
2A7
100
AcDbEntity
  8
0
100
AcDbBlockEnd
  0
BLOCK
  5
2B4
330
2B3
100
AcDbEntity
  8
0
100
AcDbBlockBegin
  2
_D_2
 70
     0
 10
0.0
 20
0.0
 30
0.0
  3
_D_2
  1

  0
SOLID
  5
2B6
330
2B3
100
AcDbEntity
  8
VERMASSUNG
100
AcDbTrace
 10
232.4291945253
 20
197.8044549841
 30
0.0
 11
229.4291945253
 21
198.2544549841
 31
0.0
 12
229.4291945253
 22
197.3544549841
 32
0.0
 13
229.4291945253
 23
197.3544549841
 33
0.0
  0
SOLID
  5
2B7
330
2B3
100
AcDbEntity
  8
VERMASSUNG
100
AcDbTrace
 10
94.4291945253
 20
197.8044549841
 30
0.0
 11
97.4291945253
 21
197.3544549841
 31
0.0
 12
97.4291945253
 22
198.2544549841
 32
0.0
 13
97.4291945253
 23
198.2544549841
 33
0.0
  0
LINE
  5
2B8
330
2B3
100
AcDbEntity
  8
VERMASSUNG
100
AcDbLine
 10
232.4291945253
 20
150.3044549841
 30
0.0
 11
232.4291945253
 21
198.8044549841
 31
0.0
  0
LINE
  5
2B9
330
2B3
100
AcDbEntity
  8
VERMASSUNG
100
AcDbLine
 10
94.4291945253
 20
170.4905707531
 30
0.0
 11
94.4291945253
 21
198.8044549841
 31
0.0
  0
LINE
  5
2BA
330
2B3
100
AcDbEntity
  8
VERMASSUNG
100
AcDbLine
 10
232.4291945253
 20
197.8044549841
 30
0.0
 11
94.4291945253
 21
197.8044549841
 31
0.0
  0
MTEXT
  5
2BB
330
2B3
100
AcDbEntity
  8
VERMASSUNG
100
AcDbMText
 10
160.6291943923
 20
200.3825903473
 30
0.1
 40
2.0
 41
0.0
 71
     1
 72
     1
  1
138
  7
SLDTEXTSTYLE0
 73
     1
 44
1.0
  0
ENDBLK
  5
2B5
330
2B3
100
AcDbEntity
  8
0
100
AcDbBlockEnd
  0
ENDSEC
  0
SECTION
  2
ENTITIES
  0
MTEXT
  5
49
330
1F
100
AcDbEntity
  8
KOPF_DÜNN
100
AcDbMText
 10
13.8892156294
 20
23.8442973028
 30
0.0
 40
3.0
 41
0.0
 71
     1
 72
     1
  1
PS6.KCC.NMA.100
  7
SLDTEXTSTYLE0
 73
     1
 44
1.0
  0
MTEXT
  5
4A
330
1F
100
AcDbEntity
  8
VERMASSUNG
100
AcDbMText
 10
13.9329988022
 20
28.8834360957
 30
0.0
 40
3.0
 41
0.0
 71
     1
 72
     1
  1
Klemmhalter_Turning tool neutral
  7
SLDTEXTSTYLE0
 73
     1
 44
1.0
  0
MTEXT
  5
4B
330
1F
100
AcDbEntity
  8
VERMASSUNG
100
AcDbMText
 10
98.8601118557
 20
13.8365368179
 30
0.0
 40
2.0
 41
0.0
 71
     1
 72
     1
  1
Datum: 24.05.2012
  7
SLDTEXTSTYLE0
 73
     1
 44
1.0
  0
MTEXT
  5
4C
330
1F
100
AcDbEntity
  8
VERMASSUNG
100
AcDbMText
 10
13.933048693
 20
18.0482802738
 30
0.0
 40
2.0
 41
0.0
 71
     1
 72
     1
  1
PSC ø63 / CC.. 12 04..
  7
SLDTEXTSTYLE0
 73
     1
 44
1.0
  0
MTEXT
  5
4D
330
1F
100
AcDbEntity
  8
VERMASSUNG
100
AcDbMText
 10
13.9808475933
 20
13.9090973692
 30
0.0
 40
2.0
 41
0.0
 71
     1
 72
     1
  1
Gewicht: 1771g
  7
SLDTEXTSTYLE0
 73
     1
 44
1.0
  0
ARC
  5
4E
330
1F
100
AcDbEntity
  8
0
  6
Continuous
 62
     7
370
    15
100
AcDbCircle
 10
132.9291945253
 20
46.2157023774
 30
0.0
 40
0.5
100
AcDbArc
 50
180.0
 51
270.0
  0
ARC
  5
4F
330
1F
100
AcDbEntity
  8
0
  6
Continuous
 62
     7
370
    15
100
AcDbCircle
 10
132.9291945253
 20
108.2157023774
 30
0.0
 40
0.5
100
AcDbArc
 50
90.0
 51
180.0
  0
LINE
  5
50
330
1F
100
AcDbEntity
  8
0
  6
Continuous
 62
     7
370
    15
100
AcDbLine
 10
187.1720608946
 20
108.7157023774
 30
0.0
 11
132.9291945253
 21
108.7157023774
 31
0.0
  0
LINE
  5
51
330
1F
100
AcDbEntity
  8
0
  6
Continuous
 62
     7
370
    15
100
AcDbLine
 10
132.9291945253
 20
45.7157023774
 30
0.0
 11
187.1956102444
 21
45.7157023774
 31
0.0
  0
LWPOLYLINE
  5
52
330
1F
100
AcDbEntity
  8
0
  6
Continuous
 62
     7
370
    15
100
AcDbPolyline
 90
        3
 70
   128
 43
0.0
 10
132.2291945253
 20
54.6758820985
 10
132.3546494688
 20
54.6075799835
 10
132.4291945253
 20
54.5548422254
  0
LWPOLYLINE
  5
53
330
1F
100
AcDbEntity
  8
0
  6
Continuous
 62
     7
370
    15
100
AcDbPolyline
 90
        3
 70
   128
 43
0.0
 10
132.4291945253
 20
99.8765625293
 10
132.3546494688
 20
99.8238247712
 10
132.2291945253
 20
99.7555226562
  0
CIRCLE
  5
54
330
1F
100
AcDbEntity
  8
0
  6
Continuous
 62
     7
370
    15
100
AcDbCircle
 10
169.4291945253
 20
77.2157023774
 30
0.0
 40
2.859999999999999
  0
CIRCLE
  5
55
330
1F
100
AcDbEntity
  8
0
  6
Continuous
 62
     7
370
    15
100
AcDbCircle
 10
169.4291945253
 20
77.2157023774
 30
0.0
 40
2.500000000000008
  0
ARC
  5
56
330
1F
100
AcDbEntity
  8
0
  6
Continuous
 62
     7
370
    15
100
AcDbCircle
 10
169.4291945253
 20
77.2157023774
 30
0.0
 40
3.000000000000036
100
AcDbArc
 50
175.5372545187
 51
196.3988863846
  0
CIRCLE
  5
57
330
1F
100
AcDbEntity
  8
0
  6
Continuous
 62
     7
370
    15
100
AcDbCircle
 10
222.6726377555
 20
77.2157023774
 30
0.0
 40
3.500000000000003
  0
CIRCLE
  5
58
330
1F
100
AcDbEntity
  8
0
  6
Continuous
 62
     7
370
    15
100
AcDbCircle
 10
222.6726377555
 20
77.2157023774
 30
0.0
 40
2.63397459621557
  0
CIRCLE
  5
59
330
1F
100
AcDbEntity
  8
0
  6
Continuous
 62
     7
370
    15
100
AcDbCircle
 10
222.6726377555
 20
77.2157023774
 30
0.0
 40
1.999999999999998
  0
SPLINE
  5
5A
330
1F
100
AcDbEntity
  8
0
  6
Continuous
 62
     7
370
    15
100
AcDbSpline
210
0.0
220
0.0
230
1.0
 70
     8
 71
     3
 72
    15
 73
    11
 74
     0
 42
0.00000001
 43
0.00000001
 12
1.0
 22
0.0
 32
0.0
 13
1.0
 23
0.0
 33
0.0
 40
0.0
 40
0.0
 40
0.0
 40
0.0
 40
0.1262470803731152
 40
0.2533633350514091
 40
0.3794185517357985
 40
0.5042689738351821
 40
0.6284502821607936
 40
0.7526361292231848
 40
0.8774891912115229
 40
1.0
 40
1.0
 40
1.0
 40
1.0
 10
224.3316765831052
 20
76.800688632451
 30
0.0
 10
224.3739021103711
 20
76.81423769324309
 30
0.0
 10
224.4586438753353
 20
76.84142909615672
 30
0.0
 10
224.5599792525789
 20
76.93303947592067
 30
0.0
 10
224.6264558069002
 20
77.05034258433508
 30
0.0
 10
224.6497833971409
 20
77.182958514839
 30
0.0
 10
224.6283969607886
 20
77.31517610702977
 30
0.0
 10
224.5648187699585
 20
77.43203066466629
 30
0.0
 10
224.4677727729841
 20
77.52384894801483
 30
0.0
 10
224.3860169739327
 20
77.55311298490344
 30
0.0
 10
224.3455261414054
 20
77.5676064548527
 30
0.0
  0
SPLINE
  5
5B
330
1F
100
AcDbEntity
  8
0
  6
Continuous
 62
     7
370
    15
100
AcDbSpline
210
0.0
220
0.0
230
1.0
 70
     8
 71
     3
 72
    12
 73
     8
 74
     0
 42
0.00000001
 43
0.00000001
 12
1.0
 22
0.0
 32
0.0
 13
1.0
 23
0.0
 33
0.0
 40
0.0
 40
0.0
 40
0.0
 40
0.0
 40
0.2058748011360962
 40
0.4120995812663022
 40
0.6141693366125823
 40
0.813290128672853
 40
1.0
 40
1.0
 40
1.0
 40
1.0
 10
224.3455261414054
 20
77.5676064548527
 30
0.0
 10
224.272961264299
 20
77.59375212241407
 30
0.0
 10
224.127708152674
 20
77.6460879041344
 30
0.0
 10
223.9571456221363
 20
77.8104770373493
 30
0.0
 10
223.8497661822967
 20
78.01487223866401
 30
0.0
 10
223.8117716299236
 20
78.23767077231405
 30
0.0
 10
223.8436331440164
 20
78.3783859777762
 30
0.0
 10
223.8590514602911
 20
78.44648040468087
 30
0.0
  0
SPLINE
  5
5C
330
1F
100
AcDbEntity
  8
0
  6
Continuous
 62
     7
370
    15
100
AcDbSpline
210
0.0
220
0.0
230
1.0
 70
     8
 71
     3
 72
    15
 73
    11
 74
     0
 42
0.00000001
 43
0.00000001
 12
1.0
 22
0.0
 32
0.0
 13
1.0
 23
0.0
 33
0.0
 40
0.0
 40
0.0
 40
0.0
 40
0.0
 40
0.1268765508970963
 40
0.2539936290345735
 40
0.3800496379884129
 40
0.5049006370991181
 40
0.6290821973265438
 40
0.7532679407718119
 40
0.8781205851189395
 40
1.0
 40
1.0
 40
1.0
 40
1.0
 10
223.8590514602911
 20
78.44648040468087
 30
0.0
 10
223.8684576147279
 20
78.49004749305226
 30
0.0
 10
223.8872877553944
 20
78.5772642624527
 30
0.0
 10
223.8583394508904
 20
78.7110055734081
 30
0.0
 10
223.7897951236656
 20
78.82711115188317
 30
0.0
 10
223.6864631081495
 20
78.91344734361476
 30
0.0
 10
223.5611860027176
 20
78.96082276550032
 30
0.0
 10
223.4281906989972
 20
78.9639653763344
 30
0.0
 10
223.3004389303335
 20
78.92567568517548
 30
0.0
 10
223.234418399751
 20
78.86962232935635
 30
0.0
 10
223.2018059226262
 20
78.84193338520079
 30
0.0
  0
SPLINE
  5
5D
330
1F
100
AcDbEntity
  8
0
  6
Continuous
 62
     7
370
    15
100
AcDbSpline
210
0.0
220
0.0
230
1.0
 70
     8
 71
     3
 72
    12
 73
     8
 74
     0
 42
0.00000001
 43
0.00000001
 12
1.0
 22
0.0
 32
0.0
 13
1.0
 23
0.0
 33
0.0
 40
0.0
 40
0.0
 40
0.0
 40
0.0
 40
0.2057949882088032
 40
0.4120010155284418
 40
0.6140549927930747
 40
0.8131810826684501
 40
1.0
 40
1.0
 40
1.0
 40
1.0
 10
223.2018059226262
 20
78.84193338520079
 30
0.0
 10
223.1429043044564
 20
78.79217965134016
 30
0.0
 10
223.0249834225464
 20
78.69257280933044
 30
0.0
 10
222.7973842935698
 20
78.62703599352237
 30
0.0
 10
222.5666947200972
 20
78.63620368808681
 30
0.0
 10
222.3547027904296
 20
78.71467275045727
 30
0.0
 10
222.2487354971819
 20
78.81264627543791
 30
0.0
 10
222.1974414147935
 20
78.86007092797195
 30
0.0
  0
SPLINE
  5
5E
330
1F
100
AcDbEntity
  8
0
  6
Continuous
 62
     7
370
    15
100
AcDbSpline
210
0.0
220
0.0
230
1.0
 70
     8
 71
     3
 72
    15
 73
    11
 74
     0
 42
0.00000001
 43
0.00000001
 12
1.0
 22
0.0
 32
0.0
 13
1.0
 23
0.0
 33
0.0
 40
0.0
 40
0.0
 40
0.0
 40
0.0
 40
0.126803695606143
 40
0.253926344269948
 40
0.3799872671766161
 40
0.5048410097957742
 40
0.6290227167746383
 40
0.753206330891598
 40
0.8780553361591283
 40
1.0
 40
1.0
 40
1.0
 40
1.0
 10
222.1974414147935
 20
78.86007092797195
 30
0.0
 10
222.1644357753776
 20
78.88998429307843
 30
0.0
 10
222.0983414764922
 20
78.94988626525668
 30
0.0
 10
221.9680762134654
 20
78.99170539413004
 30
0.0
 10
221.8332496269289
 20
78.9904221836925
 30
0.0
 10
221.7068034857881
 20
78.94412380666814
 30
0.0
 10
221.603120922547
 20
78.8593355854486
 30
0.0
 10
221.533882450776
 20
78.74574207961052
 30
0.0
 10
221.5031376585074
 20
78.61594347630088
 30
0.0
 10
221.5186710325125
 20
78.53071756150806
 30
0.0
 10
221.5263463188284
 20
78.48860608609019
 30
0.0
  0
SPLINE
  5
5F
330
1F
100
AcDbEntity
  8
0
  6
Continuous
 62
     7
370
    15
100
AcDbSpline
210
0.0
220
0.0
230
1.0
 70
     8
 71
     3
 72
    12
 73
     8
 74
     0
 42
0.00000001
 43
0.00000001
 12
1.0
 22
0.0
 32
0.0
 13
1.0
 23
0.0
 33
0.0
 40
0.0
 40
0.0
 40
0.0
 40
0.0
 40
0.2058497400954609
 40
0.4120524486336925
 40
0.6141081262895607
 40
0.8132431903674976
 40
1.0
 40
1.0
 40
1.0
 40
1.0
 10
221.5263463188284
 20
78.48860608609019
 30
0.0
 10
221.5399853537938
 20
78.41269769871356
 30
0.0
 10
221.5672868104381
 20
78.26075076462527
 30
0.0
 10
221.5102177471477
 20
78.03086055141435
 30
0.0
 10
221.3869160814979
 20
77.83567083146066
 30
0.0
 10
221.2129656386743
 20
77.69134433836506
 30
0.0
 10
221.0751526652857
 20
77.64857054714682
 30
0.0
 10
221.0084564921101
 20
77.62786967903317
 30
0.0
  0
SPLINE
  5
60
330
1F
100
AcDbEntity
  8
0
  6
Continuous
 62
     7
370
    15
100
AcDbSpline
210
0.0
220
0.0
230
1.0
 70
     8
 71
     3
 72
    15
 73
    11
 74
     0
 42
0.00000001
 43
0.00000001
 12
1.0
 22
0.0
 32
0.0
 13
1.0
 23
0.0
 33
0.0
 40
0.0
 40
0.0
 40
0.0
 40
0.0
 40
0.1262564375372755
 40
0.2533820972842172
 40
0.3794454811308475
 40
0.5043002379034403
 40
0.6284814530466146
 40
0.7526634909000749
 40
0.8775104621121813
 40
1.0
 40
1.0
 40
1.0
 40
1.0
 10
221.0084564921101
 20
77.62786967903317
 30
0.0
 10
220.9662290027847
 20
77.61431976486534
 30
0.0
 10
220.8814833057177
 20
77.58712665109756
 30
0.0
 10
220.7801453880701
 20
77.49550955945942
 30
0.0
 10
220.713670459155
 20
77.37819862834863
 30
0.0
 10
220.690349174915
 20
77.24557704441911
 30
0.0
 10
220.7117439842586
 20
77.11335909176017
 30
0.0
 10
220.7753288584362
 20
76.99650933827162
 30
0.0
 10
220.8723738453415
 20
76.90470251709382
 30
0.0
 10
220.9541222934147
 20
76.87544244815679
 30
0.0
 10
220.99460693381
 20
76.86095185663149
 30
0.0
  0
SPLINE
  5
61
330
1F
100
AcDbEntity
  8
0
  6
Continuous
 62
     7
370
    15
100
AcDbSpline
210
0.0
220
0.0
230
1.0
 70
     8
 71
     3
 72
    12
 73
     8
 74
     0
 42
0.00000001
 43
0.00000001
 12
1.0
 22
0.0
 32
0.0
 13
1.0
 23
0.0
 33
0.0
 40
0.0
 40
0.0
 40
0.0
 40
0.0
 40
0.2058713741444477
 40
0.4120924153876813
 40
0.6141683533432729
 40
0.813306887280343
 40
1.0
 40
1.0
 40
1.0
 40
1.0
 10
220.99460693381
 20
76.86095185663149
 30
0.0
 10
221.0671710773818
 20
76.83480651624559
 30
0.0
 10
221.2124226128092
 20
76.78247142830277
 30
0.0
 10
221.3829853509473
 20
76.61808381709476
 30
0.0
 10
221.4903686515129
 20
76.41368503656605
 30
0.0
 10
221.5283617269207
 20
76.19088240131022
 30
0.0
 10
221.4964990639233
 20
76.05016642243679
 30
0.0
 10
221.4810816149243
 20
75.98207790680331
 30
0.0
  0
SPLINE
  5
62
330
1F
100
AcDbEntity
  8
0
  6
Continuous
 62
     7
370
    15
100
AcDbSpline
210
0.0
220
0.0
230
1.0
 70
     8
 71
     3
 72
    15
 73
    11
 74
     0
 42
0.00000001
 43
0.00000001
 12
1.0
 22
0.0
 32
0.0
 13
1.0
 23
0.0
 33
0.0
 40
0.0
 40
0.0
 40
0.0
 40
0.0
 40
0.1268702503425591
 40
0.2539810595566272
 40
0.3800301963395151
 40
0.5048749967545133
 40
0.6290527571814178
 40
0.7532384607997156
 40
0.8780953942141921
 40
1.0
 40
1.0
 40
1.0
 40
1.0
 10
221.4810816149243
 20
75.98207790680331
 30
0.0
 10
221.4716756116042
 20
75.93851222370157
 30
0.0
 10
221.452845770227
 20
75.85129825254118
 30
0.0
 10
221.4817911014095
 20
75.71756052262559
 30
0.0
 10
221.550330249488
 20
75.60145708613057
 30
0.0
 10
221.6536553244021
 20
75.51512015466109
 30
0.0
 10
221.778926303117
 20
75.46773999757939
 30
0.0
 10
221.91191936484
 20
75.4645898091943
 30
0.0
 10
222.0396804351259
 20
75.50287377691289
 30
0.0
 10
222.1057082387887
 20
75.55893143994899
 30
0.0
 10
222.1383271525891
 20
75.58662492628335
 30
0.0
  0
SPLINE
  5
63
330
1F
100
AcDbEntity
  8
0
  6
Continuous
 62
     7
370
    15
100
AcDbSpline
210
0.0
220
0.0
230
1.0
 70
     8
 71
     3
 72
    12
 73
     8
 74
     0
 42
0.00000001
 43
0.00000001
 12
1.0
 22
0.0
 32
0.0
 13
1.0
 23
0.0
 33
0.0
 40
0.0
 40
0.0
 40
0.0
 40
0.0
 40
0.2058321750920657
 40
0.4120750343576801
 40
0.6141697879283978
 40
0.8133029339855985
 40
1.0
 40
1.0
 40
1.0
 40
1.0
 10
222.1383271525891
 20
75.58662492628335
 30
0.0
 10
222.1972379124545
 20
75.63638487654434
 30
0.0
 10
222.3151769731709
 20
75.73600406000902
 30
0.0
 10
222.5428130805525
 20
75.801534562565
 30
0.0
 10
222.7735351351992
 20
75.79233865413808
 30
0.0
 10
222.9854973429117
 20
75.7138385854441
 30
0.0
 10
223.0914317135223
 20
75.61588537480631
 30
0.0
 10
223.1426916604219
 20
75.56848738351222
 30
0.0
  0
SPLINE
  5
64
330
1F
100
AcDbEntity
  8
0
  6
Continuous
 62
     7
370
    15
100
AcDbSpline
210
0.0
220
0.0
230
1.0
 70
     8
 71
     3
 72
    15
 73
    11
 74
     0
 42
0.00000001
 43
0.00000001
 12
1.0
 22
0.0
 32
0.0
 13
1.0
 23
0.0
 33
0.0
 40
0.0
 40
0.0
 40
0.0
 40
0.0
 40
0.1267880291974731
 40
0.2538950064076075
 40
0.379940902287741
 40
0.5047841289692199
 40
0.6289621452108565
 40
0.7531495391280024
 40
0.8780089278148057
 40
1.0
 40
1.0
 40
1.0
 40
1.0
 10
223.1426916604219
 20
75.56848738351222
 30
0.0
 10
223.1756944388355
 20
75.53857612209842
 30
0.0
 10
223.2417830174642
 20
75.47867835449068
 30
0.0
 10
223.3720366123188
 20
75.43685727366966
 30
0.0
 10
223.5068528039733
 20
75.43813174582986
 30
0.0
 10
223.6332943906356
 20
75.48441546121856
 30
0.0
 10
223.7369818776316
 20
75.56918859755744
 30
0.0
 10
223.8062332902376
 20
75.68277301143796
 30
0.0
 10
223.8369970762267
 20
75.81258342092563
 30
0.0
 10
223.8214633642231
 20
75.89782612074613
 30
0.0
 10
223.8137867563868
 20
75.939952225394
 30
0.0
  0
SPLINE
  5
65
330
1F
100
AcDbEntity
  8
0
  6
Continuous
 62
     7
370
    15
100
AcDbSpline
210
0.0
220
0.0
230
1.0
 70
     8
 71
     3
 72
    12
 73
     8
 74
     0
 42
0.00000001
 43
0.00000001
 12
1.0
 22
0.0
 32
0.0
 13
1.0
 23
0.0
 33
0.0
 40
0.0
 40
0.0
 40
0.0
 40
0.0
 40
0.2058903596432804
 40
0.4121336430767242
 40
0.6142239121176203
 40
0.8133482777367562
 40
1.0
 40
1.0
 40
1.0
 40
1.0
 10
223.8137867563868
 20
75.939952225394
 30
0.0
 10
223.8001468257927
 20
76.0158724379982
 30
0.0
 10
223.7728435839276
 20
76.16784300067019
 30
0.0
 10
223.8299380323165
 20
76.39776266302503
 30
0.0
 10
223.9532792067899
 20
76.59296126703087
 30
0.0
 10
224.1272373422801
 20
76.73724574312888
 30
0.0
 10
224.2650150133459
 20
76.78000178889195
 30
0.0
 10
224.3316765831052
 20
76.800688632451
 30
0.0
  0
LINE
  5
66
330
1F
100
AcDbEntity
  8
0
  6
Continuous
 62
     7
370
    15
100
AcDbLine
 10
213.2589659418
 20
76.9092846001
 30
0.0
 11
222.5155227116
 21
69.1421112286
 31
0.0
  0
ARC
  5
67
330
1F
100
AcDbEntity
  8
0
  6
Continuous
 62
     7
370
    15
100
AcDbCircle
 10
213.5160809857
 20
77.2157023774
 30
0.0
 40
0.4000000000000118
100
AcDbArc
 50
130.0
 51
230.0
  0
LINE
  5
68
330
1F
100
AcDbEntity
  8
0
  6
Continuous
 62
     7
370
    15
100
AcDbLine
 10
222.5155227116
 20
85.2892935261
 30
0.0
 11
213.2589659418
 21
77.5221201546
 31
0.0
  0
ARC
  5
69
330
1F
100
AcDbEntity
  8
0
  6
Continuous
 62
     7
370
    15
100
AcDbCircle
 10
222.7726377555
 20
84.9828757489
 30
0.0
 40
0.4000000000000082
100
AcDbArc
 50
50.0
 51
130.0
  0
LINE
  5
6A
330
1F
100
AcDbEntity
  8
0
  6
Continuous
 62
     7
370
    15
100
AcDbLine
 10
232.2863095692
 20
77.5221201546
 30
0.0
 11
223.0297527994
 21
85.2892935261
 31
0.0
  0
ARC
  5
6B
330
1F
100
AcDbEntity
  8
0
  6
Continuous
 62
     7
370
    15
100
AcDbCircle
 10
232.0291945253
 20
77.2157023774
 30
0.0
 40
0.3999999999999935
100
AcDbArc
 50
310.0
 51
50.0
  0
LINE
  5
6C
330
1F
100
AcDbEntity
  8
0
  6
Continuous
 62
     7
370
    15
100
AcDbLine
 10
223.0297527994
 20
69.1421112286
 30
0.0
 11
232.2863095692
 21
76.9092846001
 31
0.0
  0
ARC
  5
6D
330
1F
100
AcDbEntity
  8
0
  6
Continuous
 62
     7
370
    15
100
AcDbCircle
 10
222.7726377555
 20
69.4485290058
 30
0.0
 40
0.3999999999999935
100
AcDbArc
 50
230.0
 51
310.0
  0
ARC
  5
6E
330
1F
100
AcDbEntity
  8
0
  6
Continuous
 62
     7
370
    15
100
AcDbCircle
 10
232.0291945253
 20
77.2157023774
 30
0.0
 40
0.3799999999999856
100
AcDbArc
 50
310.0
 51
50.0
  0
LINE
  5
6F
330
1F
100
AcDbEntity
  8
0
  6
Continuous
 62
     7
370
    15
100
AcDbLine
 10
232.273453817
 20
77.5067992657
 30
0.0
 11
223.016897047
 21
85.273972637
 31
0.0
  0
ARC
  5
70
330
1F
100
AcDbEntity
  8
0
  6
Continuous
 62
     7
370
    15
100
AcDbCircle
 10
222.7726377555
 20
84.9828757489
 30
0.0
 40
0.3800000000000148
100
AcDbArc
 50
50.0
 51
130.0
  0
LINE
  5
71
330
1F
100
AcDbEntity
  8
0
  6
Continuous
 62
     7
370
    15
100
AcDbLine
 10
222.5283784638
 20
85.2739726373
 30
0.0
 11
213.271821694
 21
77.5067992657
 31
0.0
  0
ARC
  5
72
330
1F
100
AcDbEntity
  8
0
  6
Continuous
 62
     7
370
    15
100
AcDbCircle
 10
213.5160809857
 20
77.2157023774
 30
0.0
 40
0.3800000000000039
100
AcDbArc
 50
130.0
 51
230.0
  0
LINE
  5
73
330
1F
100
AcDbEntity
  8
0
  6
Continuous
 62
     7
370
    15
100
AcDbLine
 10
213.271821694
 20
76.924605489
 30
0.0
 11
222.5283784638
 21
69.1574321174
 31
0.0
  0
ARC
  5
74
330
1F
100
AcDbEntity
  8
0
  6
Continuous
 62
     7
370
    15
100
AcDbCircle
 10
222.7726377555
 20
69.4485290058
 30
0.0
 40
0.3800000000000148
100
AcDbArc
 50
230.0
 51
310.0
  0
LINE
  5
75
330
1F
100
AcDbEntity
  8
0
  6
Continuous
 62
     7
370
    15
100
AcDbLine
 10
223.0168970472
 20
69.1574321174
 30
0.0
 11
232.273453817
 21
76.924605489
 31
0.0
  0
LINE
  5
76
330
1F
100
AcDbEntity
  8
0
  6
Continuous
 62
     7
370
    15
100
AcDbLine
 10
213.5160809857
 20
77.2157023774
 30
0.0
 11
213.271821694
 21
77.5067992657
 31
0.0
  0
LINE
  5
77
330
1F
100
AcDbEntity
  8
0
  6
Continuous
 62
     7
370
    15
100
AcDbLine
 10
222.7726377555
 20
84.9828757489
 30
0.0
 11
222.5283784638
 21
85.2739726373
 31
0.0
  0
LINE
  5
78
330
1F
100
AcDbEntity
  8
0
  6
Continuous
 62
     7
370
    15
100
AcDbLine
 10
222.7726377555
 20
84.1715494478
 30
0.0
 11
222.7726377555
 21
84.9828757489
 31
0.0
  0
LINE
  5
79
330
1F
100
AcDbEntity
  8
0
  6
Continuous
 62
     7
370
    15
100
AcDbLine
 10
214.8157437367
 20
77.2157023774
 30
0.0
 11
213.5160809857
 21
77.2157023774
 31
0.0
  0
LINE
  5
7A
330
1F
100
AcDbEntity
  8
0
  6
Continuous
 62
     7
370
    15
100
AcDbLine
 10
222.7726377555
 20
84.9828757489
 30
0.0
 11
223.016897047
 21
85.273972637
 31
0.0
  0
LINE
  5
7B
330
1F
100
AcDbEntity
  8
0
  6
Continuous
 62
     7
370
    15
100
AcDbLine
 10
232.0291945253
 20
77.2157023774
 30
0.0
 11
232.273453817
 21
77.5067992657
 31
0.0
  0
LINE
  5
7C
330
1F
100
AcDbEntity
  8
0
  6
Continuous
 62
     7
370
    15
100
AcDbLine
 10
230.7295317743
 20
77.2157023774
 30
0.0
 11
232.0291945253
 21
77.2157023774
 31
0.0
  0
LINE
  5
7D
330
1F
100
AcDbEntity
  8
0
  6
Continuous
 62
     7
370
    15
100
AcDbLine
 10
216.9492898024
 20
76.4496579342
 30
0.0
 11
222.1298501458
 21
72.1026516608
 31
0.0
  0
ARC
  5
7E
330
1F
100
AcDbEntity
  8
0
  6
Continuous
 62
     7
370
    15
100
AcDbCircle
 10
217.592077412
 20
77.2157023774
 30
0.0
 40
1.000000000000004
100
AcDbArc
 50
130.0
 51
230.0
  0
LINE
  5
7F
330
1F
100
AcDbEntity
  8
0
  6
Continuous
 62
     7
370
    15
100
AcDbLine
 10
222.1298501458
 20
82.3287530939
 30
0.0
 11
216.9492898024
 21
77.9817468205
 31
0.0
  0
ARC
  5
80
330
1F
100
AcDbEntity
  8
0
  6
Continuous
 62
     7
370
    15
100
AcDbCircle
 10
222.7726377555
 20
81.5627086508
 30
0.0
 40
1.000000000000033
100
AcDbArc
 50
50.0
 51
130.0
  0
LINE
  5
81
330
1F
100
AcDbEntity
  8
0
  6
Continuous
 62
     7
370
    15
100
AcDbLine
 10
228.5959857086
 20
77.9817468205
 30
0.0
 11
223.4154253652
 21
82.3287530939
 31
0.0
  0
ARC
  5
82
330
1F
100
AcDbEntity
  8
0
  6
Continuous
 62
     7
370
    15
100
AcDbCircle
 10
227.9531980989
 20
77.2157023774
 30
0.0
 40
1.000000000295356
100
AcDbArc
 50
310.0
 51
50.0
  0
LINE
  5
83
330
1F
100
AcDbEntity
  8
0
  6
Continuous
 62
     7
370
    15
100
AcDbLine
 10
223.4154253652
 20
72.1026516608
 30
0.0
 11
228.5959857088
 21
76.449657934
 31
0.0
  0
ARC
  5
84
330
1F
100
AcDbEntity
  8
0
  6
Continuous
 62
     7
370
    15
100
AcDbCircle
 10
222.7726377555
 20
72.8686961039
 30
0.0
 40
1.000000000000015
100
AcDbArc
 50
230.0
 51
310.0
  0
CIRCLE
  5
85
330
1F
100
AcDbEntity
  8
0
  6
Continuous
 62
     7
370
    15
100
AcDbCircle
 10
222.7726377555
 20
77.2157023774
 30
0.0
 40
3.800000000000014
  0
LINE
  5
86
330
1F
100
AcDbEntity
  8
0
  6
Continuous
 62
     7
370
    15
100
AcDbLine
 10
232.0291945253
 20
77.2157023774
 30
0.0
 11
232.273453817
 21
76.924605489
 31
0.0
  0
LINE
  5
87
330
1F
100
AcDbEntity
  8
0
  6
Continuous
 62
     7
370
    15
100
AcDbLine
 10
222.7726377555
 20
69.4485290058
 30
0.0
 11
223.0168970472
 21
69.1574321174
 31
0.0
  0
LINE
  5
88
330
1F
100
AcDbEntity
  8
0
  6
Continuous
 62
     7
370
    15
100
AcDbLine
 10
222.7726377555
 20
70.2598553069
 30
0.0
 11
222.7726377555
 21
69.4485290058
 31
0.0
  0
LINE
  5
89
330
1F
100
AcDbEntity
  8
0
  6
Continuous
 62
     7
370
    15
100
AcDbLine
 10
213.5160809857
 20
77.2157023774
 30
0.0
 11
213.271821694
 21
76.924605489
 31
0.0
  0
LINE
  5
8A
330
1F
100
AcDbEntity
  8
0
  6
Continuous
 62
     7
370
    15
100
AcDbLine
 10
222.7726377555
 20
69.4485290058
 30
0.0
 11
222.5283784638
 21
69.1574321174
 31
0.0
  0
SPLINE
  5
8B
330
1F
100
AcDbEntity
  8
0
  6
Continuous
 62
     7
370
    15
100
AcDbSpline
210
0.0
220
0.0
230
1.0
 70
    24
 71
     3
 72
    11
 73
     7
 74
     0
 42
0.00000001
 43
0.00000001
 12
1.0
 22
0.0
 32
0.0
 13
1.0
 23
0.0
 33
0.0
 40
0.0
 40
0.0
 40
0.0
 40
0.0
 40
0.336783113141471
 40
0.6790111347689531
 40
0.9923717339918599
 40
1.0
 40
1.0
 40
1.0
 40
1.0
 10
214.8157437366898
 20
77.21570237735251
 30
0.0
 10
214.8942182178762
 20
77.2157023773525
 30
0.0
 10
215.0524359088515
 20
77.21570237735249
 30
0.0
 10
215.2920713763617
 20
77.21570237735261
 30
0.0
 10
215.4392287442142
 20
77.21570237735219
 30
0.0
 10
215.5056141068994
 20
77.2157023773525
 30
0.0
 10
215.5071917479345
 20
77.21570237735251
 30
0.0
  0
SPLINE
  5
8C
330
1F
100
AcDbEntity
  8
0
  6
Continuous
 62
     7
370
    15
100
AcDbSpline
210
0.0
220
0.0
230
1.0
 70
    24
 71
     3
 72
    11
 73
     7
 74
     0
 42
0.00000001
 43
0.00000001
 12
1.0
 22
0.0
 32
0.0
 13
1.0
 23
0.0
 33
0.0
 40
0.0
 40
0.0
 40
0.0
 40
0.0
 40
0.3372314186521173
 40
0.673632148307159
 40
0.9918835608968641
 40
1.0
 40
1.0
 40
1.0
 40
1.0
 10
222.7726377554877
 20
84.1715494478216
 30
0.0
 10
222.7726377554877
 20
84.09390373138882
 30
0.0
 10
222.7726377554877
 20
83.93880356018735
 30
0.0
 10
222.7726377554876
 20
83.69633357741374
 30
0.0
 10
222.7726377554879
 20
83.54716424825247
 30
0.0
 10
222.7726377554877
 20
83.47934393640436
 30
0.0
 10
222.7726377554877
 20
83.47765731369256
 30
0.0
  0
SPLINE
  5
8D
330
1F
100
AcDbEntity
  8
0
  6
Continuous
 62
     7
370
    15
100
AcDbSpline
210
0.0
220
0.0
230
1.0
 70
    24
 71
     3
 72
    11
 73
     7
 74
     0
 42
0.00000001
 43
0.00000001
 12
1.0
 22
0.0
 32
0.0
 13
1.0
 23
0.0
 33
0.0
 40
0.0
 40
0.0
 40
0.0
 40
0.0
 40
0.008116439103126
 40
0.3263678516928299
 40
0.6627685813478803
 40
1.0
 40
1.0
 40
1.0
 40
1.0
 10
222.7726377554877
 20
70.95374744101242
 30
0.0
 10
222.7726377554877
 20
70.95206081830061
 30
0.0
 10
222.7726377554879
 20
70.88424050645256
 30
0.0
 10
222.7726377554876
 20
70.73507117729122
 30
0.0
 10
222.7726377554877
 20
70.49260119451763
 30
0.0
 10
222.7726377554877
 20
70.33750102331615
 30
0.0
 10
222.7726377554877
 20
70.25985530688338
 30
0.0
  0
SPLINE
  5
8E
330
1F
100
AcDbEntity
  8
0
  6
Continuous
 62
     7
370
    15
100
AcDbSpline
210
0.0
220
0.0
230
1.0
 70
    24
 71
     3
 72
    14
 73
    10
 74
     0
 42
0.00000001
 43
0.00000001
 12
1.0
 22
0.0
 32
0.0
 13
1.0
 23
0.0
 33
0.0
 40
0.0
 40
0.0
 40
0.0
 40
0.0
 40
0.0076078452721773
 40
0.1629874631621349
 40
0.320722063234774
 40
0.4900060525182201
 40
0.6629673458728418
 40
0.8292185822131269
 40
1.0
 40
1.0
 40
1.0
 40
1.0
 10
230.0380837630409
 20
77.2157023773525
 30
0.0
 10
230.0396613885132
 20
77.2157023773525
 30
0.0
 10
230.0734598116342
 20
77.2157023773526
 30
0.0
 10
230.1424767677275
 20
77.21570237735246
 30
0.0
 10
230.2516792044481
 20
77.2157023773525
 30
0.0
 10
230.3692573778064
 20
77.2157023773525
 30
0.0
 10
230.491067605647
 20
77.21570237735249
 30
0.0
 10
230.6133477360868
 20
77.2157023773525
 30
0.0
 10
230.6904582710778
 20
77.2157023773525
 30
0.0
 10
230.7295317742854
 20
77.21570237735249
 30
0.0
  0
LINE
  5
8F
330
1F
100
AcDbEntity
  8
0
  6
Continuous
 62
     7
370
    15
100
AcDbLine
 10
132.4291945253
 20
46.2157023774
 30
0.0
 11
132.4291945253
 21
108.2157023774
 31
0.0
  0
SPLINE
  5
90
330
1F
100
AcDbEntity
  8
0
  6
Continuous
 62
     7
370
    15
100
AcDbSpline
210
0.0
220
0.0
230
1.0
 70
     8
 71
     3
 72
    12
 73
     8
 74
     0
 42
0.00000001
 43
0.00000001
 12
1.0
 22
0.0
 32
0.0
 13
1.0
 23
0.0
 33
0.0
 40
0.0
 40
0.0
 40
0.0
 40
0.0
 40
0.5
 40
0.5
 40
0.75
 40
0.75
 40
1.0
 40
1.0
 40
1.0
 40
1.0
 10
142.5239386369813
 20
87.12507169803753
 30
0.0
 10
142.5546608789004
 20
87.01251589862835
 30
0.0
 10
142.5974980934356
 20
86.89975803888876
 30
0.0
 10
142.6969251176354
 20
86.75021715309241
 30
0.0
 10
142.736677312452
 20
86.70292442138555
 30
0.0
 10
142.8347187693103
 20
86.6291881280641
 30
0.0
 10
142.8942748248977
 20
86.60376880868839
 30
0.0
 10
142.9569513388736
 20
86.60376880868839
 30
0.0
  0
LINE
  5
91
330
1F
100
AcDbEntity
  8
0
  6
Continuous
 62
     7
370
    15
100
AcDbLine
 10
142.9569513389
 20
86.6037688087
 30
0.0
 11
145.9014377117
 21
86.6037688087
 31
0.0
  0
SPLINE
  5
92
330
1F
100
AcDbEntity
  8
0
  6
Continuous
 62
     7
370
    15
100
AcDbSpline
210
0.0
220
0.0
230
1.0
 70
     8
 71
     3
 72
    12
 73
     8
 74
     0
 42
0.00000001
 43
0.00000001
 12
1.0
 22
0.0
 32
0.0
 13
1.0
 23
0.0
 33
0.0
 40
0.0
 40
0.0
 40
0.0
 40
0.0
 40
0.2500000000000009
 40
0.2500000000000009
 40
0.5000000000000019
 40
0.5000000000000019
 40
1.0
 40
1.0
 40
1.0
 40
1.0
 10
145.9014377117407
 20
86.60376880868837
 30
0.0
 10
145.9645177502341
 20
86.60376880868837
 30
0.0
 10
146.0236663724155
 20
86.62913312790332
 30
0.0
 10
146.1221389224845
 20
86.70329798827622
 30
0.0
 10
146.1611755344692
 20
86.74981832883037
 30
0.0
 10
146.2610720012483
 20
86.8999606716756
 30
0.0
 10
146.3034928823149
 20
87.01165387864776
 30
0.0
 10
146.3344504136329
 20
87.12507169803752
 30
0.0
  0
ELLIPSE
  5
93
330
1F
100
AcDbEntity
  8
0
  6
Continuous
 62
     7
370
    15
100
AcDbEllipse
 10
130.0820403359
 20
77.2157023774
 30
0.0
 11
14.75368316065604
 21
31.09325491558113
 31
0.0
210
0.0
220
0.0
230
1.0
 40
0.3419987131
 41
5.19328173740862
 42
6.124043104552324
  0
SPLINE
  5
94
330
1F
100
AcDbEntity
  8
0
  6
Continuous
 62
     7
370
    15
100
AcDbSpline
210
0.0
220
0.0
230
1.0
 70
     8
 71
     3
 72
    12
 73
     8
 74
     0
 42
0.00000001
 43
0.00000001
 12
1.0
 22
0.0
 32
0.0
 13
1.0
 23
0.0
 33
0.0
 40
0.0
 40
0.0
 40
0.0
 40
0.0
 40
0.5000000000000047
 40
0.5000000000000047
 40
0.7500000000000023
 40
0.7500000000000023
 40
1.0
 40
1.0
 40
1.0
 40
1.0
 10
146.3344504136329
 20
107.1164448374696
 30
0.0
 10
146.3037281717138
 20
107.1537468204227
 30
0.0
 10
146.2608909571786
 20
107.1903586524691
 30
0.0
 10
146.1614639329788
 20
107.2381234357543
 30
0.0
 10
146.1217117381622
 20
107.2530809512366
 30
0.0
 10
146.023670281304
 20
107.2762708970058
 30
0.0
 10
145.9641142257165
 20
107.2841943362255
 30
0.0
 10
145.9014377117407
 20
107.2841943362255
 30
0.0
  0
LINE
  5
95
330
1F
100
AcDbEntity
  8
0
  6
Continuous
 62
     7
370
    15
100
AcDbLine
 10
145.9014377117
 20
107.2841943362
 30
0.0
 11
142.9569513389
 21
107.2841943362
 31
0.0
  0
SPLINE
  5
96
330
1F
100
AcDbEntity
  8
0
  6
Continuous
 62
     7
370
    15
100
AcDbSpline
210
0.0
220
0.0
230
1.0
 70
     8
 71
     3
 72
    12
 73
     8
 74
     0
 42
0.00000001
 43
0.00000001
 12
1.0
 22
0.0
 32
0.0
 13
1.0
 23
0.0
 33
0.0
 40
0.0
 40
0.0
 40
0.0
 40
0.0
 40
0.2500000000000004
 40
0.2500000000000004
 40
0.5000000000000009
 40
0.5000000000000009
 40
1.0
 40
1.0
 40
1.0
 40
1.0
 10
142.9569513388736
 20
107.2841943362255
 30
0.0
 10
142.8938713003802
 20
107.2841943362255
 30
0.0
 10
142.8347226781988
 20
107.2762884100131
 30
0.0
 10
142.7362501281297
 20
107.2529632485768
 30
0.0
 10
142.697213516145
 20
107.2382504587451
 30
0.0
 10
142.597317049366
 20
107.1902946580142
 30
0.0
 10
142.5548961682993
 20
107.1540325014341
 30
0.0
 10
142.5239386369814
 20
107.1164448374696
 30
0.0
  0
ELLIPSE
  5
97
330
1F
100
AcDbEntity
  8
0
  6
Continuous
 62
     7
370
    15
100
AcDbEllipse
 10
158.7763487147
 20
77.2157023774
 30
0.0
 11
-14.75368316065604
 21
31.09325491558115
 31
0.0
210
0.0
220
0.0
230
1.0
 40
0.3419987131
 41
0.1591422026273038
 42
1.08990356977098
  0
SPLINE
  5
98
330
1F
100
AcDbEntity
  8
0
  6
Continuous
 62
     7
370
    15
100
AcDbSpline
210
0.0
220
0.0
230
1.0
 70
     8
 71
     3
 72
    12
 73
     8
 74
     0
 42
0.00000001
 43
0.00000001
 12
1.0
 22
0.0
 32
0.0
 13
1.0
 23
0.0
 33
0.0
 40
0.0
 40
0.0
 40
0.0
 40
0.0
 40
0.500000000000001
 40
0.500000000000001
 40
0.7500000000000004
 40
0.7500000000000004
 40
1.0
 40
1.0
 40
1.0
 40
1.0
 10
142.5239386369813
 20
47.31495991723524
 30
0.0
 10
142.5550838349434
 20
47.27714439431505
 30
0.0
 10
142.5973581012779
 20
47.24107753623144
 30
0.0
 10
142.6973036351032
 20
47.19311747122016
 30
0.0
 10
142.7370339398072
 20
47.1782564973225
 30
0.0
 10
142.8339219898134
 20
47.15530535119137
 30
0.0
 10
142.89398723156
 20
47.14721041847935
 30
0.0
 10
142.9569513388736
 20
47.14721041847934
 30
0.0
  0
LINE
  5
99
330
1F
100
AcDbEntity
  8
0
  6
Continuous
 62
     7
370
    15
100
AcDbLine
 10
142.9569513389
 20
47.1472104185
 30
0.0
 11
145.9014377117
 21
47.1472104185
 31
0.0
  0
SPLINE
  5
9A
330
1F
100
AcDbEntity
  8
0
  6
Continuous
 62
     7
370
    15
100
AcDbSpline
210
0.0
220
0.0
230
1.0
 70
     8
 71
     3
 72
    12
 73
     8
 74
     0
 42
0.00000001
 43
0.00000001
 12
1.0
 22
0.0
 32
0.0
 13
1.0
 23
0.0
 33
0.0
 40
0.0
 40
0.0
 40
0.0
 40
0.0
 40
0.2499999999999982
 40
0.2499999999999982
 40
0.4999999999999964
 40
0.4999999999999964
 40
1.0
 40
1.0
 40
1.0
 40
1.0
 10
145.9014377117407
 20
47.14721041847938
 30
0.0
 10
145.9644946666385
 20
47.14721041847938
 30
0.0
 10
146.0236248163841
 20
47.15511074955894
 30
0.0
 10
146.1220723669174
 20
47.17842149756397
 30
0.0
 10
146.1611046051054
 20
47.19312662384763
 30
0.0
 10
146.2609944895624
 20
47.24106015203426
 30
0.0
 10
146.3032934631717
 20
47.27713012479901
 30
0.0
 10
146.334450413633
 20
47.31495991723523
 30
0.0
  0
ELLIPSE
  5
9B
330
1F
100
AcDbEntity
  8
0
  6
Continuous
 62
     7
370
    15
100
AcDbEllipse
 10
130.0820403359
 20
77.2157023774
 30
0.0
 11
-14.75368316065618
 21
31.09325491558113
 31
0.0
210
0.0
220
0.0
230
1.0
 40
0.3419987131
 41
3.30073485621712
 42
4.231496223360771
  0
SPLINE
  5
9C
330
1F
100
AcDbEntity
  8
0
  6
Continuous
 62
     7
370
    15
100
AcDbSpline
210
0.0
220
0.0
230
1.0
 70
     8
 71
     3
 72
    12
 73
     8
 74
     0
 42
0.00000001
 43
0.00000001
 12
1.0
 22
0.0
 32
0.0
 13
1.0
 23
0.0
 33
0.0
 40
0.0
 40
0.0
 40
0.0
 40
0.0
 40
0.5000000000000047
 40
0.5000000000000047
 40
0.7500000000000023
 40
0.7500000000000023
 40
1.0
 40
1.0
 40
1.0
 40
1.0
 10
146.3344504136329
 20
67.30633305666709
 30
0.0
 10
146.3033052156708
 20
67.4204384225324
 30
0.0
 10
146.2610309493364
 20
67.53154474975115
 30
0.0
 10
146.1610854155111
 20
67.68170235718145
 30
0.0
 10
146.121355110807
 20
67.7286950487988
 30
0.0
 10
146.0244670608008
 20
67.8016706333373
 30
0.0
 10
145.9644018190542
 20
67.8276359460163
 30
0.0
 10
145.9014377117407
 20
67.8276359460163
 30
0.0
  0
LINE
  5
9D
330
1F
100
AcDbEntity
  8
0
  6
Continuous
 62
     7
370
    15
100
AcDbLine
 10
145.9014377117
 20
67.827635946
 30
0.0
 11
142.9569513389
 21
67.827635946
 31
0.0
  0
SPLINE
  5
9E
330
1F
100
AcDbEntity
  8
0
  6
Continuous
 62
     7
370
    15
100
AcDbSpline
210
0.0
220
0.0
230
1.0
 70
     8
 71
     3
 72
    12
 73
     8
 74
     0
 42
0.00000001
 43
0.00000001
 12
1.0
 22
0.0
 32
0.0
 13
1.0
 23
0.0
 33
0.0
 40
0.0
 40
0.0
 40
0.0
 40
0.0
 40
0.2500000000000014
 40
0.2500000000000014
 40
0.5000000000000028
 40
0.5000000000000028
 40
1.0
 40
1.0
 40
1.0
 40
1.0
 10
142.9569513388736
 20
67.8276359460162
 30
0.0
 10
142.8938943839757
 20
67.8276359460162
 30
0.0
 10
142.8347642342302
 20
67.80228959263552
 30
0.0
 10
142.7363166836969
 20
67.72817021049602
 30
0.0
 10
142.6972844455088
 20
67.68167369579801
 30
0.0
 10
142.5973945610519
 20
67.53159918878943
 30
0.0
 10
142.5550955874426
 20
67.42048147967458
 30
0.0
 10
142.5239386369813
 20
67.3063330566671
 30
0.0
  0
ELLIPSE
  5
9F
330
1F
100
AcDbEntity
  8
0
  6
Continuous
 62
     7
370
    15
100
AcDbEllipse
 10
158.7763487147
 20
77.2157023774
 30
0.0
 11
14.75368316065621
 21
31.09325491558113
 31
0.0
210
0.0
220
0.0
230
1.0
 40
0.3419987131
 41
2.051689083818827
 42
2.982450450962505
  0
SPLINE
  5
A0
330
1F
100
AcDbEntity
  8
0
  6
Continuous
 62
     7
370
    15
100
AcDbSpline
210
0.0
220
0.0
230
1.0
 70
     8
 71
     3
 72
    68
 73
    64
 74
     0
 42
0.00000001
 43
0.00000001
 12
1.0
 22
0.0
 32
0.0
 13
1.0
 23
0.0
 33
0.0
 40
-0.0625000000000001
 40
-0.0625000000000001
 40
0.0
 40
0.0
 40
0.03125
 40
0.03125
 40
0.0625
 40
0.0625
 40
0.09375
 40
0.09375
 40
0.125
 40
0.125
 40
0.15625
 40
0.15625
 40
0.1875
 40
0.1875
 40
0.21875
 40
0.21875
 40
0.25
 40
0.25
 40
0.28125
 40
0.28125
 40
0.3125
 40
0.3125
 40
0.34375
 40
0.34375
 40
0.3749999999999999
 40
0.3749999999999999
 40
0.4062499999999999
 40
0.4062499999999999
 40
0.4374999999999999
 40
0.4374999999999999
 40
0.4687499999999999
 40
0.4687499999999999
 40
0.5
 40
0.5
 40
0.53125
 40
0.53125
 40
0.5625
 40
0.5625
 40
0.59375
 40
0.59375
 40
0.625
 40
0.625
 40
0.65625
 40
0.65625
 40
0.6875
 40
0.6875
 40
0.71875
 40
0.71875
 40
0.7499999999999999
 40
0.7499999999999999
 40
0.7812499999999999
 40
0.7812499999999999
 40
0.8124999999999999
 40
0.8124999999999999
 40
0.8437499999999999
 40
0.8437499999999999
 40
0.8749999999999999
 40
0.8749999999999999
 40
0.9062499999999999
 40
0.9062499999999999
 40
0.9374999999999999
 40
0.9374999999999999
 40
1.0
 40
1.0
 40
1.03125
 40
1.03125
 10
166.4291945253071
 20
76.81907292442253
 30
0.0
 10
166.4291945253071
 20
77.4140171038175
 30
0.0
 10
166.4486651984074
 20
77.60899548462015
 30
0.0
 10
166.5249342245277
 20
77.99255927669105
 30
0.0
 10
166.5826663315421
 20
78.18314049024409
 30
0.0
 10
166.7332852425206
 20
78.5463910709093
 30
0.0
 10
166.8254387068308
 20
78.71865834174648
 30
0.0
 10
167.0431392150906
 20
79.04468052094644
 30
0.0
 10
167.169779616226
 20
79.1989561375433
 30
0.0
 10
167.446398322415
 20
79.47551883593621
 30
0.0
 10
167.5973532394225
 20
79.59966121619456
 30
0.0
 10
167.925241267651
 20
79.81897471054208
 30
0.0
 10
168.0996902368648
 20
79.91210466552685
 30
0.0
 10
168.4606218396131
 20
80.06175822803179
 30
0.0
 10
168.6497735776224
 20
80.1194049502973
 30
0.0
 10
169.0370682628802
 20
80.19651143533173
 30
0.0
 10
169.2317898074294
 20
80.2155951982064
 30
0.0
 10
169.6233280449442
 20
80.2158086647704
 30
0.0
 10
169.8221944415215
 20
80.19631343791507
 30
0.0
 10
170.2070346527476
 20
80.11974369328377
 30
0.0
 10
170.3940939040941
 20
80.06309060185713
 30
0.0
 10
170.7574386212494
 20
79.91281530302427
 30
0.0
 10
170.9329818442694
 20
79.81893232103933
 30
0.0
 10
171.2579632705086
 20
79.60186819660184
 30
0.0
 10
171.409476169061
 20
79.47793736749112
 30
0.0
 10
171.6896802671714
 20
79.19798054905917
 30
0.0
 10
171.8137843671478
 20
79.04652186378092
 30
0.0
 10
172.0310926859073
 20
78.72178825390839
 30
0.0
 10
172.1250906867918
 20
78.54642305483765
 30
0.0
 10
172.2757373578638
 20
78.18310484655274
 30
0.0
 10
172.332539387983
 20
77.99611277328438
 30
0.0
 10
172.4094233906258
 20
77.61154033413035
 30
0.0
 10
172.429122612931
 20
77.4126326338484
 30
0.0
 10
172.4292660354022
 20
77.02096924931844
 30
0.0
 10
172.4103471764057
 20
76.82626130268744
 30
0.0
 10
172.333655174668
 20
76.43914341880344
 30
0.0
 10
172.2761170070147
 20
76.24967228818365
 30
0.0
 10
172.1267525186636
 20
75.88853900289165
 30
0.0
 10
172.0338401331284
 20
75.71411949210307
 30
0.0
 10
171.8147400052767
 20
75.38592024097296
 30
0.0
 10
171.6907066461105
 20
75.2348418839391
 30
0.0
 10
171.4144033009206
 20
74.95800632072009
 30
0.0
 10
171.260254959423
 20
74.83124312013251
 30
0.0
 10
170.9343907207944
 20
74.61323956766294
 30
0.0
 10
170.7622296508034
 20
74.52095892563062
 30
0.0
 10
170.3992761741567
 20
74.37008003576007
 30
0.0
 10
170.2086344909375
 20
74.31213378433105
 30
0.0
 10
169.825124985631
 20
74.23552179473839
 30
0.0
 10
169.6302319337392
 20
74.21589376981875
 30
0.0
 10
169.2339104212394
 20
74.21551374326279
 30
0.0
 10
169.0385475818304
 20
74.23482609839752
 30
0.0
 10
168.6549465047219
 20
74.3107465381866
 30
0.0
 10
168.4644542126861
 20
74.36825208290446
 30
0.0
 10
168.1008881892853
 20
74.51861147643119
 30
0.0
 10
167.9285288365896
 20
74.61063026911232
 30
0.0
 10
167.6024080879213
 20
74.8279734332284
 30
0.0
 10
167.4479836047206
 20
74.95449224566525
 30
0.0
 10
167.1711140748456
 20
75.23092514785294
 30
0.0
 10
167.0468643288743
 20
75.38175475153953
 30
0.0
 10
166.8273654609185
 20
75.70926732108111
 30
0.0
 10
166.7339676912125
 20
75.88381636818323
 30
0.0
 10
166.5090064565122
 20
76.4250230760894
 30
0.0
 10
166.4291945253071
 20
76.81907292442253
 30
0.0
 10
166.4291945253071
 20
77.4140171038175
 30
0.0
  0
LINE
  5
A1
330
1F
100
AcDbEntity
  8
0
  6
Continuous
 62
     7
370
    15
100
AcDbLine
 10
189.0331564532
 20
108.7142737735
 30
0.0
 11
194.356855007
 21
108.7142737735
 31
0.0
  0
SPLINE
  5
A2
330
1F
100
AcDbEntity
  8
0
  6
Continuous
 62
     7
370
    15
100
AcDbSpline
210
0.0
220
0.0
230
1.0
 70
     8
 71
     3
 72
    18
 73
    14
 74
     0
 42
0.00000001
 43
0.00000001
 12
1.0
 22
0.0
 32
0.0
 13
1.0
 23
0.0
 33
0.0
 40
0.0
 40
0.0
 40
0.0
 40
0.0
 40
0.25
 40
0.25
 40
0.5
 40
0.5
 40
0.625
 40
0.625
 40
0.75
 40
0.75
 40
0.875
 40
0.875
 40
1.0
 40
1.0
 40
1.0
 40
1.0
 10
183.2376014954465
 20
108.4415198999272
 30
0.0
 10
183.4073973628757
 20
108.5256795380387
 30
0.0
 10
183.6745256300549
 20
108.5847551275426
 30
0.0
 10
184.4058430902602
 20
108.6676588088072
 30
0.0
 10
184.8517176540235
 20
108.6894747342347
 30
0.0
 10
185.6362205041979
 20
108.707576427601
 30
0.0
 10
185.9126282448581
 20
108.7110120868112
 30
0.0
 10
186.4875394100825
 20
108.7150303085836
 30
0.0
 10
186.7870815682509
 20
108.7156275184861
 30
0.0
 10
187.4111183263063
 20
108.7157642031179
 30
0.0
 10
187.7311620079224
 20
108.7153094232771
 30
0.0
 10
188.3759911472134
 20
108.7145658481934
 30
0.0
 10
188.7024687936862
 20
108.7142737735286
 30
0.0
 10
189.0331564531809
 20
108.7142737735285
 30
0.0
  0
ELLIPSE
  5
A3
330
1F
100
AcDbEntity
  8
0
  6
Continuous
 62
     7
370
    15
100
AcDbEllipse
 10
184.3488097676
 20
77.2157023774
 30
0.0
 11
0.0
 21
31.49999999999998
 31
0.0
210
0.0
220
0.0
230
1.0
 40
0.2679491924
 41
0.1320368298873605
 42
3.009555823702434
  0
SPLINE
  5
A4
330
1F
100
AcDbEntity
  8
0
  6
Continuous
 62
     7
370
    15
100
AcDbSpline
210
0.0
220
0.0
230
1.0
 70
     8
 71
     3
 72
    18
 73
    14
 74
     0
 42
0.00000001
 43
0.00000001
 12
1.0
 22
0.0
 32
0.0
 13
1.0
 23
0.0
 33
0.0
 40
0.0
 40
0.0
 40
0.0
 40
0.0
 40
0.250000000000001
 40
0.250000000000001
 40
0.500000000000002
 40
0.500000000000002
 40
0.6250000000000014
 40
0.6250000000000014
 40
0.750000000000001
 40
0.750000000000001
 40
0.8750000000000004
 40
0.8750000000000004
 40
1.0
 40
1.0
 40
1.0
 40
1.0
 10
189.0331564531809
 20
45.71713098117647
 30
0.0
 10
188.3717654446979
 20
45.71713098117646
 30
0.0
 10
187.7285016266623
 20
45.71558097021347
 30
0.0
 10
186.4780475250324
 20
45.71583505502898
 30
0.0
 10
185.9013268046616
 20
45.7177685578262
 30
0.0
 10
185.1171060948728
 20
45.73577807398804
 30
0.0
 10
184.8732970655567
 20
45.7443414915363
 30
0.0
 10
184.4281932116972
 20
45.76857838180667
 30
0.0
 10
184.2254338144975
 20
45.78427292042004
 30
0.0
 10
183.86056874465
 20
45.8254851450751
 30
0.0
 10
183.7007139144618
 20
45.85088046892029
 30
0.0
 10
183.432339782447
 20
45.91197480765899
 30
0.0
 10
183.3225023221554
 20
45.94780360180406
 30
0.0
 10
183.2376014954465
 20
45.98988485477784
 30
0.0
  0
LINE
  5
A5
330
1F
100
AcDbEntity
  8
0
  6
Continuous
 62
     7
370
    15
100
AcDbLine
 10
194.356855007
 20
45.7171309812
 30
0.0
 11
189.0331564532
 21
45.7171309812
 31
0.0
  0
ELLIPSE
  5
A6
330
1F
100
AcDbEntity
  8
0
  6
Continuous
 62
     7
370
    15
100
AcDbEllipse
 10
180.6297790638
 20
77.2157023774
 30
0.0
 11
0.0
 21
2.5
 31
0.0
210
0.0
220
0.0
230
1.0
 40
0.2988584907
 41
0.0
 42
6.283185307179586
  0
SPLINE
  5
A7
330
1F
100
AcDbEntity
  8
0
  6
Continuous
 62
     7
370
    15
100
AcDbSpline
210
0.0
220
0.0
230
1.0
 70
     8
 71
     3
 72
    12
 73
     8
 74
     0
 42
0.00000001
 43
0.00000001
 12
1.0
 22
0.0
 32
0.0
 13
1.0
 23
0.0
 33
0.0
 40
0.0
 40
0.0
 40
0.0
 40
0.0
 40
0.5000000000000002
 40
0.5000000000000002
 40
0.7500000000000003
 40
0.7500000000000003
 40
1.0
 40
1.0
 40
1.0
 40
1.0
 10
131.6126822388507
 20
55.36090867487664
 30
0.0
 10
131.6691187397578
 20
55.3594907935349
 30
0.0
 10
131.7382033704466
 20
55.35792645728659
 30
0.0
 10
131.8570056421645
 20
55.35498226531215
 30
0.0
 10
131.8971909176346
 20
55.35394406221476
 30
0.0
 10
131.9705719650384
 20
55.35201016700013
 30
0.0
 10
132.0039815287811
 20
55.35111527971132
 30
0.0
 10
132.0342176364375
 20
55.35033148943898
 30
0.0
  0
SPLINE
  5
A8
330
1F
100
AcDbEntity
  8
0
  6
Continuous
 62
     7
370
    15
100
AcDbSpline
210
0.0
220
0.0
230
1.0
 70
     8
 71
     3
 72
    16
 73
    12
 74
     0
 42
0.00000001
 43
0.00000001
 12
1.0
 22
0.0
 32
0.0
 13
1.0
 23
0.0
 33
0.0
 40
0.0
 40
0.0
 40
0.0
 40
0.0
 40
0.062500000000002
 40
0.062500000000002
 40
0.1250000000000039
 40
0.1250000000000039
 40
0.2500000000000026
 40
0.2500000000000026
 40
0.5000000000000029
 40
0.5000000000000029
 40
1.0
 40
1.0
 40
1.0
 40
1.0
 10
132.0342176364003
 20
55.35033148946322
 30
0.0
 10
132.0457980439882
 20
55.35003129835188
 30
0.0
 10
132.0591075707495
 20
55.34870355009288
 30
0.0
 10
132.0884090008357
 20
55.34200487531786
 30
0.0
 10
132.10322310072
 20
55.33664669221218
 30
0.0
 10
132.1390515024228
 20
55.31960104304483
 30
0.0
 10
132.1531711267858
 20
55.30813850526908
 30
0.0
 10
132.1876752708743
 20
55.27657517989685
 30
0.0
 10
132.1987798215789
 20
55.25867788085159
 30
0.0
 10
132.2249559987951
 20
55.20851646323734
 30
0.0
 10
132.2291945253071
 20
55.18077205104075
 30
0.0
 10
132.2291945253071
 20
55.15610788911123
 30
0.0
  0
LINE
  5
A9
330
1F
100
AcDbEntity
  8
0
  6
Continuous
 62
     7
370
    15
100
AcDbLine
 10
132.2291945253
 20
70.1938150516
 30
0.0
 11
132.2291945253
 21
54.6758820985
 31
0.0
  0
SPLINE
  5
AA
330
1F
100
AcDbEntity
  8
0
  6
Continuous
 62
     7
370
    15
100
AcDbSpline
210
0.0
220
0.0
230
1.0
 70
     8
 71
     3
 72
    16
 73
    12
 74
     0
 42
0.00000001
 43
0.00000001
 12
1.0
 22
0.0
 32
0.0
 13
1.0
 23
0.0
 33
0.0
 40
0.0
 40
0.0
 40
0.0
 40
0.0
 40
0.4999999999999997
 40
0.4999999999999997
 40
0.7500000000000029
 40
0.7500000000000029
 40
0.875000000000003
 40
0.875000000000003
 40
0.9375000000000014
 40
0.9375000000000014
 40
1.0
 40
1.0
 40
1.0
 40
1.0
 10
132.2291945253071
 20
70.19381505160237
 30
0.0
 10
132.2291945253071
 20
70.30750759573026
 30
0.0
 10
132.2250482502292
 20
70.42182775707977
 30
0.0
 10
132.1990826548356
 20
70.59487604757686
 30
0.0
 10
132.1876217494583
 20
70.65405155473857
 30
0.0
 10
132.1533100116839
 20
70.73717467420671
 30
0.0
 10
132.1392852757543
 20
70.76529599030738
 30
0.0
 10
132.1032623127205
 20
70.79391180428482
 30
0.0
 10
132.0885078036308
 20
70.79970485218662
 30
0.0
 10
132.0591556424839
 20
70.79811142624959
 30
0.0
 10
132.0458157679798
 20
70.79161502292578
 30
0.0
 10
132.0342176364315
 20
70.78309927672267
 30
0.0
  0
SPLINE
  5
AB
330
1F
100
AcDbEntity
  8
0
  6
Continuous
 62
     7
370
    15
100
AcDbSpline
210
0.0
220
0.0
230
1.0
 70
     8
 71
     3
 72
    12
 73
     8
 74
     0
 42
0.00000001
 43
0.00000001
 12
1.0
 22
0.0
 32
0.0
 13
1.0
 23
0.0
 33
0.0
 40
0.0
 40
0.0
 40
0.0
 40
0.0
 40
0.25
 40
0.25
 40
0.5
 40
0.5
 40
1.0
 40
1.0
 40
1.0
 40
1.0
 10
132.0342176364385
 20
70.7830992767135
 30
0.0
 10
132.0040191949979
 20
70.76092654466845
 30
0.0
 10
131.9706518396619
 20
70.74184688879123
 30
0.0
 10
131.897496563832
 20
70.71667384434853
 30
0.0
 10
131.8572438648081
 20
70.71111730793173
 30
0.0
 10
131.7395151215332
 20
70.72202911891848
 30
0.0
 10
131.6690566734743
 20
70.76396487432933
 30
0.0
 10
131.612682238856
 20
70.81317665671088
 30
0.0
  0
SPLINE
  5
AC
330
1F
100
AcDbEntity
  8
0
  6
Continuous
 62
     7
370
    15
100
AcDbSpline
210
0.0
220
0.0
230
1.0
 70
     8
 71
     3
 72
    12
 73
     8
 74
     0
 42
0.00000001
 43
0.00000001
 12
1.0
 22
0.0
 32
0.0
 13
1.0
 23
0.0
 33
0.0
 40
0.0
 40
0.0
 40
0.0
 40
0.0
 40
0.5000000000000022
 40
0.5000000000000022
 40
0.7500000000000011
 40
0.7500000000000011
 40
1.0
 40
1.0
 40
1.0
 40
1.0
 10
131.1078741817475
 20
72.02952804859144
 30
0.0
 10
131.1516245336319
 20
71.80908106361692
 30
0.0
 10
131.2045146847564
 20
71.59353607381136
 30
0.0
 10
131.3161262278981
 20
71.28112199723944
 30
0.0
 10
131.3586855718016
 20
71.17904252162353
 30
0.0
 10
131.4636628071391
 20
70.98460250898177
 30
0.0
 10
131.5252300502336
 20
70.8895176099181
 30
0.0
 10
131.612682238856
 20
70.81317665671092
 30
0.0
  0
SPLINE
  5
AD
330
1F
100
AcDbEntity
  8
0
  6
Continuous
 62
     7
370
    15
100
AcDbSpline
210
0.0
220
0.0
230
1.0
 70
     8
 71
     3
 72
    12
 73
     8
 74
     0
 42
0.00000001
 43
0.00000001
 12
1.0
 22
0.0
 32
0.0
 13
1.0
 23
0.0
 33
0.0
 40
0.0
 40
0.0
 40
0.0
 40
0.0
 40
0.2500000000000012
 40
0.2500000000000012
 40
0.5000000000000023
 40
0.5000000000000023
 40
1.0
 40
1.0
 40
1.0
 40
1.0
 10
131.6126822388559
 20
83.61822809799405
 30
0.0
 10
131.524188831288
 20
83.54097821788574
 30
0.0
 10
131.4641307905221
 20
83.44765889399652
 30
0.0
 10
131.3582825175396
 20
83.25162584102706
 30
0.0
 10
131.3157489962621
 20
83.14929948281534
 30
0.0
 10
131.2045976894385
 20
82.83795507703945
 30
0.0
 10
131.1516668323907
 20
82.62253682386145
 30
0.0
 10
131.1078741817475
 20
82.40187670611357
 30
0.0
  0
SPLINE
  5
AE
330
1F
100
AcDbEntity
  8
0
  6
Continuous
 62
     7
370
    15
100
AcDbSpline
210
0.0
220
0.0
230
1.0
 70
     8
 71
     3
 72
    12
 73
     8
 74
     0
 42
0.00000001
 43
0.00000001
 12
1.0
 22
0.0
 32
0.0
 13
1.0
 23
0.0
 33
0.0
 40
0.0
 40
0.0
 40
0.0
 40
0.0
 40
0.4999999999999998
 40
0.4999999999999998
 40
0.7499999999999997
 40
0.7499999999999997
 40
1.0
 40
1.0
 40
1.0
 40
1.0
 10
131.6126822388559
 20
83.61822809799406
 30
0.0
 10
131.6689907871515
 20
83.66738236523791
 30
0.0
 10
131.7392654478696
 20
83.70933968384166
 30
0.0
 10
131.8573033621932
 20
83.7202993613741
 30
0.0
 10
131.8974796030471
 20
83.71479060312676
 30
0.0
 10
131.9714366977251
 20
83.6892333743378
 30
0.0
 10
132.0040530854365
 20
83.67045332649849
 30
0.0
 10
132.0342176364323
 20
83.64830547798176
 30
0.0
  0
SPLINE
  5
AF
330
1F
100
AcDbEntity
  8
0
  6
Continuous
 62
     7
370
    15
100
AcDbSpline
210
0.0
220
0.0
230
1.0
 70
     8
 71
     3
 72
    16
 73
    12
 74
     0
 42
0.00000001
 43
0.00000001
 12
1.0
 22
0.0
 32
0.0
 13
1.0
 23
0.0
 33
0.0
 40
0.0
 40
0.0
 40
0.0
 40
0.0
 40
0.0625000000000001
 40
0.0625000000000001
 40
0.1250000000000001
 40
0.1250000000000001
 40
0.2500000000000023
 40
0.2500000000000023
 40
0.5000000000000016
 40
0.5000000000000016
 40
1.0
 40
1.0
 40
1.0
 40
1.0
 10
132.0342176364005
 20
83.64830547792727
 30
0.0
 10
132.0458305362399
 20
83.639778888332
 30
0.0
 10
132.0591817206724
 20
83.63327862679924
 30
0.0
 10
132.0885815602916
 20
83.63170922968173
 30
0.0
 10
132.1034222848468
 20
83.63759262031235
 30
0.0
 10
132.1392554928154
 20
83.66614025636288
 30
0.0
 10
132.153368700637
 20
83.69430727566866
 30
0.0
 10
132.1878600718559
 20
83.77806153409061
 30
0.0
 10
132.1989441429663
 20
83.83577494771203
 30
0.0
 10
132.2250669607623
 20
84.00936548435786
 30
0.0
 10
132.2291945253071
 20
84.1243935369998
 30
0.0
 10
132.2291945253071
 20
84.23758970310263
 30
0.0
  0
LINE
  5
B0
330
1F
100
AcDbEntity
  8
0
  6
Continuous
 62
     7
370
    15
100
AcDbLine
 10
132.2291945253
 20
99.7555226562
 30
0.0
 11
132.2291945253
 21
84.2375897031
 31
0.0
  0
SPLINE
  5
B1
330
1F
100
AcDbEntity
  8
0
  6
Continuous
 62
     7
370
    15
100
AcDbSpline
210
0.0
220
0.0
230
1.0
 70
     8
 71
     3
 72
    16
 73
    12
 74
     0
 42
0.00000001
 43
0.00000001
 12
1.0
 22
0.0
 32
0.0
 13
1.0
 23
0.0
 33
0.0
 40
0.0
 40
0.0
 40
0.0
 40
0.0
 40
0.5000000000000004
 40
0.5000000000000004
 40
0.7500000000000027
 40
0.7500000000000027
 40
0.8750000000000048
 40
0.8750000000000048
 40
0.9375000000000024
 40
0.9375000000000024
 40
1.0
 40
1.0
 40
1.0
 40
1.0
 10
132.2291945253071
 20
99.27529686559379
 30
0.0
 10
132.2291945253071
 20
99.25062570955085
 30
0.0
 10
132.2250288268472
 20
99.22304387815961
 30
0.0
 10
132.1987704985222
 20
99.17270100733627
 30
0.0
 10
132.1872667167846
 20
99.15441150927437
 30
0.0
 10
132.1531359574381
 20
99.12325647823735
 30
0.0
 10
132.1387140707674
 20
99.1116171030256
 30
0.0
 10
132.1031471023296
 20
99.09473507709455
 30
0.0
 10
132.0881953340349
 20
99.0893459732869
 30
0.0
 10
132.0591915156751
 20
99.0827254773424
 30
0.0
 10
132.0457761616659
 20
99.08137288913595
 30
0.0
 10
132.0342176364293
 20
99.08107326526434
 30
0.0
  0
SPLINE
  5
B2
330
1F
100
AcDbEntity
  8
0
  6
Continuous
 62
     7
370
    15
100
AcDbSpline
210
0.0
220
0.0
230
1.0
 70
     8
 71
     3
 72
    12
 73
     8
 74
     0
 42
0.00000001
 43
0.00000001
 12
1.0
 22
0.0
 32
0.0
 13
1.0
 23
0.0
 33
0.0
 40
0.0
 40
0.0
 40
0.0
 40
0.0
 40
0.2499999999999999
 40
0.2499999999999999
 40
0.4999999999999999
 40
0.4999999999999999
 40
1.0
 40
1.0
 40
1.0
 40
1.0
 10
132.0342176364385
 20
99.08107326526608
 30
0.0
 10
132.0040298598889
 20
99.0802907278485
 30
0.0
 10
131.9706760557972
 20
99.07939739602998
 30
0.0
 10
131.8975498526012
 20
99.07747008722637
 30
0.0
 10
131.8573146495771
 20
99.07643055601373
 30
0.0
 10
131.739623019444
 20
99.07351267266645
 30
0.0
 10
131.6692423462839
 20
99.07191706659626
 30
0.0
 10
131.6126822388533
 20
99.07049607982839
 30
0.0
  0
SPLINE
  5
B3
330
1F
100
AcDbEntity
  8
0
  6
Continuous
 62
     7
370
    15
100
AcDbSpline
210
0.0
220
0.0
230
1.0
 70
     8
 71
     3
 72
    16
 73
    12
 74
     0
 42
0.00000001
 43
0.00000001
 12
1.0
 22
0.0
 32
0.0
 13
1.0
 23
0.0
 33
0.0
 40
0.0
 40
0.0
 40
0.0
 40
0.0
 40
0.25
 40
0.25
 40
0.375
 40
0.375
 40
0.5
 40
0.5
 40
0.75
 40
0.75
 40
1.0
 40
1.0
 40
1.0
 40
1.0
 10
131.1078741817475
 20
82.40187670611358
 30
0.0
 10
130.946641704263
 20
81.58946693086675
 30
0.0
 10
130.8261618646234
 20
80.749388636482
 30
0.0
 10
130.7037813473101
 20
79.44809358711923
 30
0.0
 10
130.6728036869126
 20
79.00741255153446
 30
0.0
 10
130.6311899492846
 20
78.11157291060331
 30
0.0
 10
130.6209540363519
 20
77.66491477940086
 30
0.0
 10
130.6207656392957
 20
76.32960482226096
 30
0.0
 10
130.6609103419333
 20
75.44510944895346
 30
0.0
 10
130.8250640968729
 20
73.68785956092744
 30
0.0
 10
130.9466157472825
 20
72.8420686145143
 30
0.0
 10
131.1078741817475
 20
72.02952804859144
 30
0.0
  0
LINE
  5
B4
330
1F
100
AcDbEntity
  8
0
  6
Continuous
 62
     7
370
    15
100
AcDbLine
 10
130.2291945253
 20
83.700880639
 30
0.0
 11
130.2291945253
 21
70.7305241157
 31
0.0
  0
LINE
  5
B5
330
1F
100
AcDbEntity
  8
0
  6
Continuous
 62
     7
370
    15
100
AcDbLine
 10
95.9291945253
 20
83.2700129449
 30
0.0
 11
95.9291945253
 21
71.1613918098
 31
0.0
  0
LINE
  5
B6
330
1F
100
AcDbEntity
  8
0
  6
Continuous
 62
     7
370
    15
100
AcDbLine
 10
94.4291945253
 20
82.837000243
 30
0.0
 11
94.4291945253
 21
71.5944045117
 31
0.0
  0
LINE
  5
B7
330
1F
100
AcDbEntity
  8
0
  6
Continuous
 62
     7
370
    15
100
AcDbLine
 10
130.2291945253
 20
83.700880639
 30
0.0
 11
130.2291945253
 21
99.2358011619
 31
0.0
  0
ARC
  5
B8
330
1F
100
AcDbEntity
  8
0
  6
Continuous
 62
     7
370
    15
100
AcDbCircle
 10
130.4291314362
 20
99.240824273
 30
0.0
 40
0.2000000000000066
100
AcDbArc
 50
181.4391666667
 51
271.4391666667
  0
LINE
  5
B9
330
1F
100
AcDbEntity
  8
0
  6
Continuous
 62
     7
370
    15
100
AcDbLine
 10
95.9291945253
 20
83.2700129449
 30
0.0
 11
95.9291945253
 21
98.3740657736
 31
0.0
  0
LINE
  5
BA
330
1F
100
AcDbEntity
  8
0
  6
Continuous
 62
     7
370
    15
100
AcDbLine
 10
95.9291945253
 20
98.3740657736
 30
0.0
 11
130.2291945253
 21
99.2358011619
 31
0.0
  0
LINE
  5
BB
330
1F
100
AcDbEntity
  8
0
  6
Continuous
 62
     7
370
    15
100
AcDbLine
 10
95.9291945253
 20
56.0573389811
 30
0.0
 11
95.9291945253
 21
71.1613918098
 31
0.0
  0
LINE
  5
BC
330
1F
100
AcDbEntity
  8
0
  6
Continuous
 62
     7
370
    15
100
AcDbLine
 10
130.2291945253
 20
55.1956035928
 30
0.0
 11
130.2291945253
 21
70.7305241157
 31
0.0
  0
LINE
  5
BD
330
1F
100
AcDbEntity
  8
0
  6
Continuous
 62
     7
370
    15
100
AcDbLine
 10
95.9291945253
 20
56.0573389811
 30
0.0
 11
130.2291945253
 21
55.1956035928
 31
0.0
  0
ARC
  5
BE
330
1F
100
AcDbEntity
  8
0
  6
Continuous
 62
     7
370
    15
100
AcDbCircle
 10
130.4291314362
 20
55.1905804817
 30
0.0
 40
0.2000000000000059
100
AcDbArc
 50
88.5608333333
 51
178.5608333333
  0
LINE
  5
BF
330
1F
100
AcDbEntity
  8
0
  6
Continuous
 62
     7
370
    15
100
AcDbLine
 10
130.4341545474
 20
99.0408873621
 30
0.0
 11
131.6126822389
 21
99.0704960798
 31
0.0
  0
LINE
  5
C0
330
1F
100
AcDbEntity
  8
0
  6
Continuous
 62
     7
370
    15
100
AcDbLine
 10
130.4341545474
 20
55.3905173926
 30
0.0
 11
131.6126822389
 21
55.3609086749
 31
0.0
  0
LINE
  5
C1
330
1F
100
AcDbEntity
  8
0
  6
Continuous
 62
     7
370
    15
100
AcDbLine
 10
94.4291945253
 20
97.5080403699
 30
0.0
 11
95.9291945253
 21
98.3740657736
 31
0.0
  0
LINE
  5
C2
330
1F
100
AcDbEntity
  8
0
  6
Continuous
 62
     7
370
    15
100
AcDbLine
 10
94.4291945253
 20
82.837000243
 30
0.0
 11
94.4291945253
 21
97.5080403699
 31
0.0
  0
LINE
  5
C3
330
1F
100
AcDbEntity
  8
0
  6
Continuous
 62
     7
370
    15
100
AcDbLine
 10
94.4291945253
 20
56.9233643849
 30
0.0
 11
95.9291945253
 21
56.0573389811
 31
0.0
  0
LINE
  5
C4
330
1F
100
AcDbEntity
  8
0
  6
Continuous
 62
     7
370
    15
100
AcDbLine
 10
94.4291945253
 20
56.9233643849
 30
0.0
 11
94.4291945253
 21
71.5944045117
 31
0.0
  0
ARC
  5
C5
330
1F
100
AcDbEntity
  8
0
  6
Continuous
 62
     7
370
    15
100
AcDbCircle
 10
214.5700731558
 20
77.2157023774
 30
0.0
 40
2.100000000000009
100
AcDbArc
 50
70.4804989879
 51
289.519501012
  0
LINE
  5
C6
330
1F
100
AcDbEntity
  8
0
  6
Continuous
 62
     7
370
    15
100
AcDbLine
 10
222.3945910424
 20
69.2435849476
 30
0.0
 11
194.356855007
 21
45.7171309812
 31
0.0
  0
LINE
  5
C7
330
1F
100
AcDbEntity
  8
0
  6
Continuous
 62
     7
370
    15
100
AcDbLine
 10
194.356855007
 20
108.7142737735
 30
0.0
 11
222.3945910424
 21
85.1878198071
 31
0.0
  0
CIRCLE
  5
C8
330
1F
100
AcDbEntity
  8
0
  6
HIDDEN
 62
     7
370
     0
100
AcDbCircle
 10
169.4291945253
 20
77.2157023774
 30
0.0
 40
2.800000000000013
  0
CIRCLE
  5
C9
330
1F
100
AcDbEntity
  8
0
  6
HIDDEN
 62
     7
370
     0
100
AcDbCircle
 10
169.4291945253
 20
77.2157023774
 30
0.0
 40
2.480384757729338
  0
CIRCLE
  5
CA
330
1F
100
AcDbEntity
  8
0
  6
HIDDEN
 62
     7
370
     0
100
AcDbCircle
 10
222.6726377555
 20
77.2157023774
 30
0.0
 40
2.500000000000005
  0
CIRCLE
  5
CB
330
1F
100
AcDbEntity
  8
0
  6
HIDDEN
 62
     7
370
     0
100
AcDbCircle
 10
222.6726377555
 20
77.2157023774
 30
0.0
 40
1.600000000000012
  0
LINE
  5
CC
330
1F
100
AcDbEntity
  8
0
  6
HIDDEN
 62
     7
370
     0
100
AcDbLine
 10
223.016897047
 20
85.273972637
 30
0.0
 11
223.0297527994
 21
85.2892935261
 31
0.0
  0
LINE
  5
CD
330
1F
100
AcDbEntity
  8
0
  6
HIDDEN
 62
     7
370
     0
100
AcDbLine
 10
222.5283784638
 20
85.2739726373
 30
0.0
 11
222.5155227116
 21
85.2892935261
 31
0.0
  0
LINE
  5
CE
330
1F
100
AcDbEntity
  8
0
  6
HIDDEN
 62
     7
370
     0
100
AcDbLine
 10
232.273453817
 20
77.5067992657
 30
0.0
 11
232.2863095692
 21
77.5221201546
 31
0.0
  0
LINE
  5
CF
330
1F
100
AcDbEntity
  8
0
  6
HIDDEN
 62
     7
370
     0
100
AcDbLine
 10
232.273453817
 20
76.924605489
 30
0.0
 11
232.2863095692
 21
76.9092846001
 31
0.0
  0
LINE
  5
D0
330
1F
100
AcDbEntity
  8
0
  6
HIDDEN
 62
     7
370
     0
100
AcDbLine
 10
213.271821694
 20
77.5067992657
 30
0.0
 11
213.2589659418
 21
77.5221201546
 31
0.0
  0
LINE
  5
D1
330
1F
100
AcDbEntity
  8
0
  6
HIDDEN
 62
     7
370
     0
100
AcDbLine
 10
213.271821694
 20
76.924605489
 30
0.0
 11
213.2589659418
 21
76.9092846001
 31
0.0
  0
LINE
  5
D2
330
1F
100
AcDbEntity
  8
0
  6
HIDDEN
 62
     7
370
     0
100
AcDbLine
 10
222.5283784638
 20
69.1574321174
 30
0.0
 11
222.5155227116
 21
69.1421112286
 31
0.0
  0
LINE
  5
D3
330
1F
100
AcDbEntity
  8
0
  6
HIDDEN
 62
     7
370
     0
100
AcDbLine
 10
223.0168970472
 20
69.1574321174
 30
0.0
 11
223.0297527994
 21
69.1421112286
 31
0.0
  0
CIRCLE
  5
D4
330
1F
100
AcDbEntity
  8
0
  6
HIDDEN
 62
     7
370
     0
100
AcDbCircle
 10
222.7726377555
 20
77.2157023774
 30
0.0
 40
2.750000000000012
  0
LINE
  5
D5
330
1F
100
AcDbEntity
  8
0
  6
HIDDEN
 62
     7
370
     0
100
AcDbLine
 10
213.8030412617
 20
77.2157023774
 30
0.0
 11
222.7726377555
 21
69.6893172676
 31
0.0
  0
LINE
  5
D6
330
1F
100
AcDbEntity
  8
0
  6
HIDDEN
 62
     7
370
     0
100
AcDbLine
 10
222.7726377555
 20
69.6893172676
 30
0.0
 11
231.7422342493
 21
77.2157023774
 31
0.0
  0
LINE
  5
D7
330
1F
100
AcDbEntity
  8
0
  6
HIDDEN
 62
     7
370
     0
100
AcDbLine
 10
222.7726377555
 20
84.7420874871
 30
0.0
 11
213.8030412617
 21
77.2157023774
 31
0.0
  0
LINE
  5
D8
330
1F
100
AcDbEntity
  8
0
  6
HIDDEN
 62
     7
370
     0
100
AcDbLine
 10
231.7422342493
 20
77.2157023774
 30
0.0
 11
222.7726377555
 21
84.7420874871
 31
0.0
  0
SPLINE
  5
D9
330
1F
100
AcDbEntity
  8
0
  6
HIDDEN
 62
     7
370
     0
100
AcDbSpline
210
0.0
220
0.0
230
1.0
 70
     8
 71
     3
 72
     9
 73
     5
 74
     0
 42
0.00000001
 43
0.00000001
 12
1.0
 22
0.0
 32
0.0
 13
1.0
 23
0.0
 33
0.0
 40
0.0
 40
0.0
 40
0.0
 40
0.0
 40
0.861693829371059
 40
0.9999999999999999
 40
0.9999999999999999
 40
0.9999999999999999
 40
0.9999999999999999
 10
146.4291945253071
 20
77.21570237735251
 30
0.0
 10
146.4221732634116
 20
77.44682528017094
 30
0.0
 10
146.4140250538547
 20
77.71504456518906
 30
0.0
 10
146.2827629122437
 20
77.94001612662599
 30
0.0
 10
146.2646085480889
 20
77.97113108178876
 30
0.0
  0
LINE
  5
DA
330
1F
100
AcDbEntity
  8
0
  6
HIDDEN
 62
     7
370
     0
100
AcDbLine
 10
143.8437685675
 20
75.3133685681
 30
0.0
 11
144.4361063571
 21
75.2171058847
 31
0.0
  0
SPLINE
  5
DB
330
1F
100
AcDbEntity
  8
0
  6
HIDDEN
 62
     7
370
     0
100
AcDbSpline
210
0.0
220
0.0
230
1.0
 70
     8
 71
     3
 72
     9
 73
     5
 74
     0
 42
0.00000001
 43
0.00000001
 12
1.0
 22
0.0
 32
0.0
 13
1.0
 23
0.0
 33
0.0
 40
0.0
 40
0.0
 40
0.0
 40
0.0
 40
0.2924551997117136
 40
0.9999999999999999
 40
0.9999999999999999
 40
0.9999999999999999
 40
0.9999999999999999
 10
146.3168690540047
 20
76.62494385678706
 30
0.0
 10
146.3412898363008
 20
76.67914728078303
 30
0.0
 10
146.4247924798516
 20
76.86448651923524
 30
0.0
 10
146.4273704769003
 20
77.07017122985482
 30
0.0
 10
146.4291945253071
 20
77.21570237735251
 30
0.0
  0
ELLIPSE
  5
DC
330
1F
100
AcDbEntity
  8
0
  6
HIDDEN
 62
     7
370
     0
100
AcDbEllipse
 10
231.9322259982
 20
77.2157023774
 30
0.0
 11
37.70547486859912
 21
31.44229061528135
 31
0.0
210
0.0
220
0.0
230
1.0
 40
0.0505463825
 41
1.641585194590572
 42
3.192609655320782
  0
ELLIPSE
  5
DD
330
1F
100
AcDbEntity
  8
0
  6
HIDDEN
 62
     7
370
     0
100
AcDbEllipse
 10
231.5475236536
 20
77.2157023774
 30
0.0
 11
-6.821210263296962E-13
 21
31.49999999999998
 31
0.0
210
0.0
220
0.0
230
1.0
 40
0.1227845609
 41
1.560548414232522
 42
1.581044239357237
  0
ELLIPSE
  5
DE
330
1F
100
AcDbEntity
  8
0
  6
HIDDEN
 62
     7
370
     0
100
AcDbEllipse
 10
231.9322259982
 20
77.2157023774
 30
0.0
 11
37.70547486860406
 21
-31.44229061528165
 31
0.0
210
0.0
220
0.0
230
1.0
 40
0.0505463825
 41
3.090575651859089
 42
4.641600112588989
  0
SPLINE
  5
DF
330
1F
100
AcDbEntity
  8
0
  6
HIDDEN
 62
     7
370
     0
100
AcDbSpline
210
0.0
220
0.0
230
1.0
 70
     8
 71
     3
 72
    12
 73
     8
 74
     0
 42
0.00000001
 43
0.00000001
 12
1.0
 22
0.0
 32
0.0
 13
1.0
 23
0.0
 33
0.0
 40
0.0
 40
0.0
 40
0.0
 40
0.0
 40
0.4999999999999991
 40
0.4999999999999991
 40
0.7499999999999993
 40
0.7499999999999993
 40
1.0
 40
1.0
 40
1.0
 40
1.0
 10
131.6126822388601
 20
92.6679703591834
 30
0.0
 10
131.6690884175404
 20
92.62014798552354
 30
0.0
 10
131.7392513190121
 20
92.579877138585
 30
0.0
 10
131.8572620324013
 20
92.57183127010805
 30
0.0
 10
131.8974678159968
 20
92.57839386844692
 30
0.0
 10
131.9711885127298
 20
92.60577596290054
 30
0.0
 10
132.0040492345164
 20
92.6255374534309
 30
0.0
 10
132.0342176364456
 20
92.64847016461894
 30
0.0
  0
SPLINE
  5
E0
330
1F
100
AcDbEntity
  8
0
  6
HIDDEN
 62
     7
370
     0
100
AcDbSpline
210
0.0
220
0.0
230
1.0
 70
     8
 71
     3
 72
    15
 73
    11
 74
     0
 42
0.00000001
 43
0.00000001
 12
1.0
 22
0.0
 32
0.0
 13
1.0
 23
0.0
 33
0.0
 40
0.0
 40
0.0
 40
0.0
 40
0.0
 40
0.0595484363790828
 40
0.1082736731625992
 40
0.1573326172116636
 40
0.2001446202588402
 40
0.2729584879416781
 40
0.4170604938088162
 40
0.9140879859639338
 40
1.0
 40
1.0
 40
1.0
 40
1.0
 10
132.0342176364318
 20
92.64847016463709
 30
0.0
 10
132.0411628246331
 20
92.65332211551981
 30
0.0
 10
132.0537908814401
 20
92.66214415310837
 30
0.0
 10
132.0758074163498
 20
92.67074969353695
 30
0.0
 10
132.0960993861848
 20
92.67318105451395
 30
0.0
 10
132.1171763981108
 20
92.66975012381748
 30
0.0
 10
132.1434964518765
 20
92.65593632218176
 30
0.0
 10
132.1892004646965
 20
92.5988524411745
 30
0.0
 10
132.2107022496643
 20
92.52764354427819
 30
0.0
 10
132.2143929441491
 20
92.46541643902316
 30
0.0
 10
132.2149368685066
 20
92.45624558015476
 30
0.0
  0
SPLINE
  5
E1
330
1F
100
AcDbEntity
  8
0
  6
HIDDEN
 62
     7
370
     0
100
AcDbSpline
210
0.0
220
0.0
230
1.0
 70
     8
 71
     3
 72
    15
 73
    11
 74
     0
 42
0.00000001
 43
0.00000001
 12
1.0
 22
0.0
 32
0.0
 13
1.0
 23
0.0
 33
0.0
 40
0.0
 40
0.0
 40
0.0
 40
0.0
 40
0.4306142032595389
 40
0.587100920505045
 40
0.7445012913371828
 40
0.8130662890442609
 40
0.8567178569861815
 40
0.9006908214299548
 40
0.93941400466509
 40
0.9999999999999999
 40
0.9999999999999999
 40
0.9999999999999999
 40
0.9999999999999999
 10
132.2099049727495
 20
62.01250785276777
 30
0.0
 10
132.2083877723324
 20
61.96074699850109
 30
0.0
 10
132.2063192159432
 20
61.89017606759342
 30
0.0
 10
132.1733672834281
 20
61.81448045421689
 30
0.0
 10
132.1484383853707
 20
61.77916599539606
 30
0.0
 10
132.119360933954
 20
61.76231699645358
 30
0.0
 10
132.0974972762517
 20
61.75815906259405
 30
0.0
 10
132.077347694193
 20
61.76038787690199
 30
0.0
 10
132.0550303588956
 20
61.76853208494131
 30
0.0
 10
132.0421038000683
 20
61.77747732649362
 30
0.0
 10
132.0342176364318
 20
61.78293459006947
 30
0.0
  0
SPLINE
  5
E2
330
1F
100
AcDbEntity
  8
0
  6
HIDDEN
 62
     7
370
     0
100
AcDbSpline
210
0.0
220
0.0
230
1.0
 70
     8
 71
     3
 72
    12
 73
     8
 74
     0
 42
0.00000001
 43
0.00000001
 12
1.0
 22
0.0
 32
0.0
 13
1.0
 23
0.0
 33
0.0
 40
0.0
 40
0.0
 40
0.0
 40
0.0
 40
0.2500000000000004
 40
0.2500000000000004
 40
0.5000000000000004
 40
0.5000000000000004
 40
1.0
 40
1.0
 40
1.0
 40
1.0
 10
132.0342176364385
 20
61.78293459007791
 30
0.0
 10
132.0040257947213
 20
61.80588511917573
 30
0.0
 10
131.9706668253067
 20
61.82585459319991
 30
0.0
 10
131.8975295407261
 20
61.85295572682541
 30
0.0
 10
131.8572876680721
 20
61.85955646747084
 30
0.0
 10
131.7395818911037
 20
61.85158759296412
 30
0.0
 10
131.6691714133242
 20
61.81132713479627
 30
0.0
 10
131.6126822388559
 20
61.76343439551812
 30
0.0
  0
SPLINE
  5
E3
330
1F
100
AcDbEntity
  8
0
  6
HIDDEN
 62
     7
370
     0
100
AcDbSpline
210
0.0
220
0.0
230
1.0
 70
     8
 71
     3
 72
    12
 73
     8
 74
     0
 42
0.00000001
 43
0.00000001
 12
1.0
 22
0.0
 32
0.0
 13
1.0
 23
0.0
 33
0.0
 40
0.0
 40
0.0
 40
0.0
 40
0.0
 40
0.2500000000000011
 40
0.2500000000000011
 40
0.4999999999999994
 40
0.4999999999999994
 40
1.0
 40
1.0
 40
1.0
 40
1.0
 10
131.6126822388556
 20
61.76343439551831
 30
0.0
 10
131.5245283011179
 20
61.68869558766423
 30
0.0
 10
131.4641748764892
 20
61.59771508718184
 30
0.0
 10
131.3579129184223
 20
61.40880126442925
 30
0.0
 10
131.3156807518602
 20
61.31229680488866
 30
0.0
 10
131.2046100565431
 20
61.02152905072152
 30
0.0
 10
131.1516732801163
 20
60.82586223617778
 30
0.0
 10
131.1078741817475
 20
60.63179575111147
 30
0.0
  0
SPLINE
  5
E4
330
1F
100
AcDbEntity
  8
0
  6
HIDDEN
 62
     7
370
     0
100
AcDbSpline
210
0.0
220
0.0
230
1.0
 70
     8
 71
     3
 72
    12
 73
     8
 74
     0
 42
0.00000001
 43
0.00000001
 12
1.0
 22
0.0
 32
0.0
 13
1.0
 23
0.0
 33
0.0
 40
0.0
 40
0.0
 40
0.0
 40
0.0
 40
0.4999999999999998
 40
0.4999999999999998
 40
0.7499999999999999
 40
0.7499999999999999
 40
1.0
 40
1.0
 40
1.0
 40
1.0
 10
131.1078741817475
 20
55.44562142235041
 30
0.0
 10
131.1516207225841
 20
55.41902725170922
 30
0.0
 10
131.2045050778156
 20
55.3992670263835
 30
0.0
 10
131.3160721651517
 20
55.37881603615443
 30
0.0
 10
131.3586557616947
 20
55.37355581149797
 30
0.0
 10
131.4635724887765
 20
55.36567301757533
 30
0.0
 10
131.5251060966213
 20
55.36310889239618
 30
0.0
 10
131.6126822388474
 20
55.36090867487653
 30
0.0
  0
SPLINE
  5
E5
330
1F
100
AcDbEntity
  8
0
  6
HIDDEN
 62
     7
370
     0
100
AcDbSpline
210
0.0
220
0.0
230
1.0
 70
     8
 71
     3
 72
    12
 73
     8
 74
     0
 42
0.00000001
 43
0.00000001
 12
1.0
 22
0.0
 32
0.0
 13
1.0
 23
0.0
 33
0.0
 40
0.0
 40
0.0
 40
0.0
 40
0.0
 40
0.25
 40
0.25
 40
0.5
 40
0.5
 40
1.0
 40
1.0
 40
1.0
 40
1.0
 10
131.6126822388554
 20
99.07049607982842
 30
0.0
 10
131.5239975789991
 20
99.06826801248741
 30
0.0
 10
131.4640791632756
 20
99.06576622845708
 30
0.0
 10
131.3584199359549
 20
99.05783479262108
 30
0.0
 10
131.31577869784
 20
99.05254263772424
 30
0.0
 10
131.2045893557374
 20
99.03213769723709
 30
0.0
 10
131.1516626736165
 20
99.01240300565023
 30
0.0
 10
131.1078741817475
 20
98.98578333235461
 30
0.0
  0
SPLINE
  5
E6
330
1F
100
AcDbEntity
  8
0
  6
HIDDEN
 62
     7
370
     0
100
AcDbSpline
210
0.0
220
0.0
230
1.0
 70
     8
 71
     3
 72
    12
 73
     8
 74
     0
 42
0.00000001
 43
0.00000001
 12
1.0
 22
0.0
 32
0.0
 13
1.0
 23
0.0
 33
0.0
 40
0.0
 40
0.0
 40
0.0
 40
0.0
 40
0.4999999999999967
 40
0.4999999999999967
 40
0.7499999999999997
 40
0.7499999999999997
 40
1.0
 40
1.0
 40
1.0
 40
1.0
 10
131.1078741817459
 20
93.79960900359374
 30
0.0
 10
131.1516356580447
 20
93.60570921563166
 30
0.0
 10
131.2045419736977
 20
93.4098528516948
 30
0.0
 10
131.3162531713451
 20
93.11771070519585
 30
0.0
 10
131.3587726149314
 20
93.02099276849793
 30
0.0
 10
131.4638959574989
 20
92.83426833207345
 30
0.0
 10
131.5254619212165
 20
92.74191762380376
 30
0.0
 10
131.6126822388593
 20
92.66797035918405
 30
0.0
  0
ARC
  5
E7
330
1F
100
AcDbEntity
  8
0
  6
HIDDEN
 62
     7
370
     0
100
AcDbCircle
 10
169.6442744949
 20
79.5404454776
 30
0.0
 40
0.1751536150545552
100
AcDbArc
 50
64.73500048
 51
104.6933421268
  0
ARC
  5
E8
330
1F
100
AcDbEntity
  8
0
  6
HIDDEN
 62
     7
370
     0
100
AcDbCircle
 10
169.6442744949
 20
74.8909592771
 30
0.0
 40
0.1751536150546474
100
AcDbArc
 50
255.3066578732
 51
295.26499952
  0
CIRCLE
  5
E9
330
1F
100
AcDbEntity
  8
0
  6
HIDDEN
 62
     7
370
     0
100
AcDbCircle
 10
116.9291945253
 20
77.2157023774
 30
0.0
 40
4.049999999999997
  0
LINE
  5
EA
330
1F
100
AcDbEntity
  8
0
  6
HIDDEN
 62
     7
370
     0
100
AcDbLine
 10
95.9594229649
 20
61.9027513344
 30
0.0
 11
95.9594229649
 21
92.5286534203
 31
0.0
  0
LINE
  5
EB
330
1F
100
AcDbEntity
  8
0
  6
HIDDEN
 62
     7
370
     0
100
AcDbLine
 10
102.4594229649
 20
62.8692922158
 30
0.0
 11
102.4594229649
 21
91.5621125389
 31
0.0
  0
LINE
  5
EC
330
1F
100
AcDbEntity
  8
0
  6
HIDDEN
 62
     7
370
     0
100
AcDbLine
 10
108.2594229649
 20
63.2157023774
 30
0.0
 11
108.2594229649
 21
91.2157023774
 31
0.0
  0
LINE
  5
ED
330
1F
100
AcDbEntity
  8
0
  6
HIDDEN
 62
     7
370
     0
100
AcDbLine
 10
100.8594229649
 20
63.2157023774
 30
0.0
 11
100.8594229649
 21
91.2157023774
 31
0.0
  0
LINE
  5
EE
330
1F
100
AcDbEntity
  8
0
  6
HIDDEN
 62
     7
370
     0
100
AcDbLine
 10
101.8594229649
 20
63.2157023774
 30
0.0
 11
101.8594229649
 21
91.2157023774
 31
0.0
  0
LINE
  5
EF
330
1F
100
AcDbEntity
  8
0
  6
HIDDEN
 62
     7
370
     0
100
AcDbLine
 10
121.4291945253
 20
63.7157023774
 30
0.0
 11
121.4291945253
 21
90.7157023274
 31
0.0
  0
SPLINE
  5
F0
330
1F
100
AcDbEntity
  8
0
  6
HIDDEN
 62
     7
370
     0
100
AcDbSpline
210
0.0
220
0.0
230
1.0
 70
     8
 71
     3
 72
     9
 73
     5
 74
     0
 42
0.00000001
 43
0.00000001
 12
1.0
 22
0.0
 32
0.0
 13
1.0
 23
0.0
 33
0.0
 40
0.0
 40
0.0
 40
0.0
 40
0.0
 40
0.8240629730854048
 40
1.0
 40
1.0
 40
1.0
 40
1.0
 10
120.9291945253071
 20
77.85013125437504
 30
0.0
 10
120.8908444779457
 20
78.07088746088883
 30
0.0
 10
120.8443067149179
 20
78.33877500555944
 30
0.0
 10
120.7344578856585
 20
78.58406885083292
 30
0.0
 10
120.7151314092286
 20
78.6272251206908
 30
0.0
  0
SPLINE
  5
F1
330
1F
100
AcDbEntity
  8
0
  6
HIDDEN
 62
     7
370
     0
100
AcDbSpline
210
0.0
220
0.0
230
1.0
 70
     8
 71
     3
 72
    10
 73
     6
 74
     0
 42
0.00000001
 43
0.00000001
 12
1.0
 22
0.0
 32
0.0
 13
1.0
 23
0.0
 33
0.0
 40
0.0
 40
0.0
 40
0.0
 40
0.0
 40
0.3814668728166268
 40
0.9692546436518842
 40
1.0
 40
1.0
 40
1.0
 40
1.0
 10
116.9891804126305
 20
81.25352172341569
 30
0.0
 10
116.8435505024196
 20
81.25468598994672
 30
0.0
 10
116.4735250119114
 20
81.25764423041817
 30
0.0
 10
116.0889073283865
 20
81.20122760621673
 30
0.0
 10
115.8672434880913
 20
81.12217836046273
 30
0.0
 10
115.8562252685977
 20
81.11824906852517
 30
0.0
  0
SPLINE
  5
F2
330
1F
100
AcDbEntity
  8
0
  6
HIDDEN
 62
     7
370
     0
100
AcDbSpline
210
0.0
220
0.0
230
1.0
 70
     8
 71
     3
 72
     9
 73
     5
 74
     0
 42
0.00000001
 43
0.00000001
 12
1.0
 22
0.0
 32
0.0
 13
1.0
 23
0.0
 33
0.0
 40
0.0
 40
0.0
 40
0.0
 40
0.0
 40
0.3911289720172414
 40
1.0
 40
1.0
 40
1.0
 40
1.0
 10
120.6192329479208
 20
75.57316074394808
 30
0.0
 10
120.6760854772956
 20
75.69886749797068
 30
0.0
 10
120.8214404201463
 20
76.02026213507533
 30
0.0
 10
120.8884154002949
 20
76.36896091546052
 30
0.0
 10
120.9291945253071
 20
76.58127350032997
 30
0.0
  0
LINE
  5
F3
330
1F
100
AcDbEntity
  8
0
  6
HIDDEN
 62
     7
370
     0
100
AcDbLine
 10
122.6791945253
 20
68.2157023774
 30
0.0
 11
122.6791945253
 21
86.2157023774
 31
0.0
  0
LINE
  5
F4
330
1F
100
AcDbEntity
  8
0
  6
HIDDEN
 62
     7
370
     0
100
AcDbLine
 10
159.4291945253
 20
86.2157023774
 30
0.0
 11
159.4291945253
 21
68.2157023774
 31
0.0
  0
LINE
  5
F5
330
1F
100
AcDbEntity
  8
0
  6
HIDDEN
 62
     7
370
     0
100
AcDbLine
 10
162.2832824657
 20
81.4657023774
 30
0.0
 11
162.2832824657
 21
72.9657023774
 31
0.0
  0
LINE
  5
F6
330
1F
100
AcDbEntity
  8
0
  6
HIDDEN
 62
     7
370
     0
100
AcDbLine
 10
173.4291945253
 20
81.4657023774
 30
0.0
 11
173.4291945253
 21
72.9657023774
 31
0.0
  0
ARC
  5
F7
330
1F
100
AcDbEntity
  8
0
  6
HIDDEN
 62
     7
370
     0
100
AcDbCircle
 10
214.5700731558
 20
77.2157023774
 30
0.0
 40
2.100000000000009
100
AcDbArc
 50
289.519501012
 51
297.6073121946
  0
LINE
  5
F8
330
1F
100
AcDbEntity
  8
0
  6
HIDDEN
 62
     7
370
     0
100
AcDbLine
 10
215.5432323294
 20
75.3547990422
 30
0.0
 11
222.4778350363
 21
69.5359764685
 31
0.0
  0
LINE
  5
F9
330
1F
100
AcDbEntity
  8
0
  6
HIDDEN
 62
     7
370
     0
100
AcDbLine
 10
222.4041419858
 20
69.2515991406
 30
0.0
 11
222.4778350363
 21
69.5359764685
 31
0.0
  0
LINE
  5
FA
330
1F
100
AcDbEntity
  8
0
  6
HIDDEN
 62
     7
370
     0
100
AcDbLine
 10
215.271741272
 20
75.236393949
 30
0.0
 11
222.4041419858
 21
69.2515991406
 31
0.0
  0
LINE
  5
FB
330
1F
100
AcDbEntity
  8
0
  6
HIDDEN
 62
     7
370
     0
100
AcDbLine
 10
222.4041419858
 20
85.1798056141
 30
0.0
 11
215.271741272
 21
79.1950108057
 31
0.0
  0
LINE
  5
FC
330
1F
100
AcDbEntity
  8
0
  6
HIDDEN
 62
     7
370
     0
100
AcDbLine
 10
222.4041419858
 20
69.2515991406
 30
0.0
 11
222.3945910424
 21
69.2435849476
 31
0.0
  0
LINE
  5
FD
330
1F
100
AcDbEntity
  8
0
  6
HIDDEN
 62
     7
370
     0
100
AcDbLine
 10
222.3945910424
 20
85.1878198071
 30
0.0
 11
222.4041419858
 21
85.1798056141
 31
0.0
  0
ARC
  5
FE
330
1F
100
AcDbEntity
  8
0
  6
HIDDEN
 62
     7
370
     0
100
AcDbCircle
 10
214.5700731558
 20
77.2157023774
 30
0.0
 40
2.099999999999997
100
AcDbArc
 50
62.3926878054
 51
70.4804989879
  0
LINE
  5
FF
330
1F
100
AcDbEntity
  8
0
  6
HIDDEN
 62
     7
370
     0
100
AcDbLine
 10
222.4778350363
 20
84.8954282862
 30
0.0
 11
222.4041419858
 21
85.1798056141
 31
0.0
  0
LINE
  5
100
330
1F
100
AcDbEntity
  8
0
  6
HIDDEN
 62
     7
370
     0
100
AcDbLine
 10
222.4778350363
 20
84.8954282862
 30
0.0
 11
215.5432323294
 21
79.0766057125
 31
0.0
  0
LINE
  5
101
330
1F
100
AcDbEntity
  8
0
  6
HIDDEN
 62
     7
370
     0
100
AcDbLine
 10
227.6800130764
 20
77.5385059729
 30
0.0
 11
230.9385122315
 21
77.5385059729
 31
0.0
  0
LINE
  5
102
330
1F
100
AcDbEntity
  8
0
  6
HIDDEN
 62
     7
370
     0
100
AcDbLine
 10
227.6800130764
 20
76.8928987818
 30
0.0
 11
230.9385122315
 21
76.8928987818
 31
0.0
  0
CIRCLE
  5
103
330
1F
100
AcDbEntity
  8
0
  6
HIDDEN
 62
     7
370
     0
100
AcDbCircle
 10
222.6726377555
 20
77.2157023774
 30
0.0
 40
2.600000000000009
  0
LINE
  5
104
330
1F
100
AcDbEntity
  8
0
  6
HIDDEN
 62
     7
370
     0
100
AcDbLine
 10
230.9385122315
 20
77.5385059729
 30
0.0
 11
230.9385122315
 21
76.8928987818
 31
0.0
  0
LINE
  5
105
330
1F
100
AcDbEntity
  8
0
  6
HIDDEN
 62
     7
370
     0
100
AcDbLine
 10
222.3243543352
 20
84.7666426865
 30
0.0
 11
230.9385122315
 21
77.5385059729
 31
0.0
  0
ARC
  5
106
330
1F
100
AcDbEntity
  8
0
  6
HIDDEN
 62
     7
370
     0
100
AcDbCircle
 10
214.5700731558
 20
77.2157023774
 30
0.0
 40
2.099999999999997
100
AcDbArc
 50
297.6073121946
 51
62.3926878054
  0
LINE
  5
107
330
1F
100
AcDbEntity
  8
0
  6
HIDDEN
 62
     7
370
     0
100
AcDbLine
 10
230.9385122315
 20
76.8928987818
 30
0.0
 11
222.3243543352
 21
69.6647620682
 31
0.0
  0
CIRCLE
  5
108
330
1F
100
AcDbEntity
  8
0
  6
HIDDEN
 62
     7
370
     0
100
AcDbCircle
 10
222.6726377555
 20
77.2157023774
 30
0.0
 40
2.100000000000009
  0
SPLINE
  5
109
330
1F
100
AcDbEntity
  8
0
  6
HIDDEN
 62
     7
370
     0
100
AcDbSpline
210
0.0
220
0.0
230
1.0
 70
     8
 71
     3
 72
    16
 73
    12
 74
     0
 42
0.00000001
 43
0.00000001
 12
1.0
 22
0.0
 32
0.0
 13
1.0
 23
0.0
 33
0.0
 40
0.0
 40
0.0
 40
0.0
 40
0.0
 40
0.2500000000000004
 40
0.2500000000000004
 40
0.3750000000000004
 40
0.3750000000000004
 40
0.5000000000000006
 40
0.5000000000000006
 40
0.7500000000000002
 40
0.7500000000000002
 40
1.0
 40
1.0
 40
1.0
 40
1.0
 10
131.1078741817475
 20
60.63179575111147
 30
0.0
 10
130.946641704263
 20
59.91740158891935
 30
0.0
 10
130.8261618646234
 20
59.26405932621066
 30
0.0
 10
130.7037813473101
 20
58.37580408440679
 30
0.0
 10
130.6728036869126
 20
58.09512354805495
 30
0.0
 10
130.6311899492846
 20
57.56608955821496
 30
0.0
 10
130.6209540363519
 20
57.32276857963651
 30
0.0
 10
130.6207656392957
 20
56.65474588912329
 30
0.0
 10
130.6609103419333
 20
56.29106497970382
 30
0.0
 10
130.8250640968729
 20
55.7311741071555
 30
0.0
 10
130.9466157472825
 20
55.54365281503836
 30
0.0
 10
131.1078741817475
 20
55.44562142235041
 30
0.0
  0
SPLINE
  5
10A
330
1F
100
AcDbEntity
  8
0
  6
HIDDEN
 62
     7
370
     0
100
AcDbSpline
210
0.0
220
0.0
230
1.0
 70
     8
 71
     3
 72
    16
 73
    12
 74
     0
 42
0.00000001
 43
0.00000001
 12
1.0
 22
0.0
 32
0.0
 13
1.0
 23
0.0
 33
0.0
 40
0.0
 40
0.0
 40
0.0
 40
0.0
 40
0.25
 40
0.25
 40
0.375
 40
0.375
 40
0.5
 40
0.5
 40
0.75
 40
0.75
 40
1.0
 40
1.0
 40
1.0
 40
1.0
 10
131.1078741817475
 20
98.98578333235461
 30
0.0
 10
130.946641704263
 20
98.8877677192999
 30
0.0
 10
130.8261618646234
 20
98.70103168762384
 30
0.0
 10
130.7037813473101
 20
98.28799188006494
 30
0.0
 10
130.6728036869126
 20
98.12799138083201
 30
0.0
 10
130.6311899492846
 20
97.76118572974084
 30
0.0
 10
130.6209540363519
 20
97.55784857711686
 30
0.0
 10
130.6207656392957
 20
96.89056131049018
 30
0.0
 10
130.6609103419333
 20
96.36974684660213
 30
0.0
 10
130.8250640968729
 20
95.17238783112442
 30
0.0
 10
130.9466157472825
 20
94.51411817682845
 30
0.0
 10
131.1078741817475
 20
93.79960900359353
 30
0.0
  0
LINE
  5
10B
330
1F
100
AcDbEntity
  8
0
  6
HIDDEN
 62
     7
370
     0
100
AcDbLine
 10
132.2291945253
 20
84.2375897031
 30
0.0
 11
132.2291945253
 21
70.1938150516
 31
0.0
  0
SPLINE
  5
10C
330
1F
100
AcDbEntity
  8
0
  6
HIDDEN
 62
     7
370
     0
100
AcDbSpline
210
0.0
220
0.0
230
1.0
 70
     8
 71
     3
 72
    24
 73
    20
 74
     0
 42
0.00000001
 43
0.00000001
 12
1.0
 22
0.0
 32
0.0
 13
1.0
 23
0.0
 33
0.0
 40
0.0
 40
0.0
 40
0.0
 40
0.0
 40
0.1250000000000001
 40
0.1250000000000001
 40
0.2500000000000001
 40
0.2500000000000001
 40
0.3750000000000002
 40
0.3750000000000002
 40
0.4375000000000002
 40
0.4375000000000002
 40
0.5000000000000002
 40
0.5000000000000002
 40
0.6250000000000001
 40
0.6250000000000001
 40
0.7500000000000001
 40
0.7500000000000001
 40
0.875
 40
0.875
 40
1.0
 40
1.0
 40
1.0
 40
1.0
 10
100.8791945253071
 20
73.12974132425326
 30
0.0
 10
101.1169981575822
 20
73.4287484265834
 30
0.0
 10
101.3470838187935
 20
73.73308627790212
 30
0.0
 10
101.7818372174033
 20
74.35881981529812
 30
0.0
 10
101.9867700096895
 20
74.68004454262562
 30
0.0
 10
102.3518719601882
 20
75.35197031335835
 30
0.0
 10
102.5136723459797
 20
75.70728554523724
 30
0.0
 10
102.6855325505594
 20
76.25751676658969
 30
0.0
 10
102.7311177422196
 20
76.44392055157016
 30
0.0
 10
102.7935924817944
 20
76.82405505366643
 30
0.0
 10
102.8102636275429
 20
77.01972484595231
 30
0.0
 10
102.8107846707193
 20
77.59820522462672
 30
0.0
 10
102.7463423698327
 20
77.97611706359551
 30
0.0
 10
102.5164932764593
 20
78.71808508869395
 30
0.0
 10
102.3579725987962
 20
79.06680054885491
 30
0.0
 10
101.993738268896
 20
79.73989294658807
 30
0.0
 10
101.7870020288324
 20
80.0648454338297
 30
0.0
 10
101.3490640830921
 20
80.69576924429148
 30
0.0
 10
101.1177913558125
 20
81.00165898463213
 30
0.0
 10
100.8791945253072
 20
81.30166343045163
 30
0.0
  0
LINE
  5
10D
330
1F
100
AcDbEntity
  8
0
  6
HIDDEN
 62
     7
370
     0
100
AcDbLine
 10
100.8791945253
 20
73.1297413243
 30
0.0
 11
100.8791945253
 21
81.3016634305
 31
0.0
  0
SPLINE
  5
10E
330
1F
100
AcDbEntity
  8
0
  6
HIDDEN
 62
     7
370
     0
100
AcDbSpline
210
0.0
220
0.0
230
1.0
 70
     8
 71
     3
 72
     8
 73
     4
 74
     0
 42
0.00000001
 43
0.00000001
 12
1.0
 22
0.0
 32
0.0
 13
1.0
 23
0.0
 33
0.0
 40
0.0000249638557296
 40
0.0000249638557296
 40
0.0000249638557296
 40
0.0000249638557296
 40
0.0049776420541172
 40
0.0049776420541172
 40
0.0049776420541172
 40
0.0049776420541172
 10
95.92919452530712
 20
73.25049148051596
 30
0.0
 10
97.57917075981668
 20
73.20921224274777
 30
0.0
 10
99.22917207956169
 20
73.16899056150828
 30
0.0
 10
100.8791945253071
 20
73.12974132425326
 30
0.0
  0
SPLINE
  5
10F
330
1F
100
AcDbEntity
  8
0
  6
HIDDEN
 62
     7
370
     0
100
AcDbSpline
210
0.0
220
0.0
230
1.0
 70
     8
 71
     3
 72
     8
 73
     4
 74
     0
 42
0.00000001
 43
0.00000001
 12
1.0
 22
0.0
 32
0.0
 13
1.0
 23
0.0
 33
0.0
 40
0.0000249631533153
 40
0.0000249631533153
 40
0.0000249631533153
 40
0.0000249631533153
 40
0.0049776413517029
 40
0.0049776413517029
 40
0.0049776413517029
 40
0.0049776413517029
 10
100.8791945253071
 20
81.30166343045175
 30
0.0
 10
99.22917207956169
 20
81.26241419319675
 30
0.0
 10
97.57917075981666
 20
81.22219251195725
 30
0.0
 10
95.92919452530712
 20
81.18091327418905
 30
0.0
  0
SPLINE
  5
110
330
1F
100
AcDbEntity
  8
0
  6
HIDDEN
 62
     7
370
     0
100
AcDbSpline
210
0.0
220
0.0
230
1.0
 70
     8
 71
     3
 72
     8
 73
     4
 74
     0
 42
0.00000001
 43
0.00000001
 12
1.0
 22
0.0
 32
0.0
 13
1.0
 23
0.0
 33
0.0
 40
0.0
 40
0.0
 40
0.0
 40
0.0
 40
1.0
 40
1.0
 40
1.0
 40
1.0
 10
94.42919452530488
 20
74.31371504437215
 30
0.0
 10
94.89595513668267
 20
73.89835179874912
 30
0.0
 10
95.40170268346276
 20
73.55376136944453
 30
0.0
 10
95.92919452530712
 20
73.25049148051596
 30
0.0
  0
SPLINE
  5
111
330
1F
100
AcDbEntity
  8
0
  6
HIDDEN
 62
     7
370
     0
100
AcDbSpline
210
0.0
220
0.0
230
1.0
 70
     8
 71
     3
 72
     8
 73
     4
 74
     0
 42
0.00000001
 43
0.00000001
 12
1.0
 22
0.0
 32
0.0
 13
1.0
 23
0.0
 33
0.0
 40
0.0
 40
0.0
 40
0.0
 40
0.0
 40
1.0
 40
1.0
 40
1.0
 40
1.0
 10
95.92919452530712
 20
81.18091327418905
 30
0.0
 10
95.4017026834636
 20
80.87764338526098
 30
0.0
 10
94.89595513668431
 20
80.53305295595699
 30
0.0
 10
94.42919452530712
 20
80.11768971033486
 30
0.0
  0
SPLINE
  5
112
330
1F
100
AcDbEntity
  8
0
  6
HIDDEN
 62
     7
370
     0
100
AcDbSpline
210
0.0
220
0.0
230
1.0
 70
     8
 71
     3
 72
    72
 73
    68
 74
     0
 42
0.00000001
 43
0.00000001
 12
1.0
 22
0.0
 32
0.0
 13
1.0
 23
0.0
 33
0.0
 40
-0.0312499999999998
 40
-0.0312499999999998
 40
0.0
 40
0.0
 40
0.0312500000000001
 40
0.0312500000000001
 40
0.0625000000000002
 40
0.0625000000000002
 40
0.0937500000000002
 40
0.0937500000000002
 40
0.1250000000000003
 40
0.1250000000000003
 40
0.1562500000000004
 40
0.1562500000000004
 40
0.1875000000000005
 40
0.1875000000000005
 40
0.2187500000000006
 40
0.2187500000000006
 40
0.2500000000000007
 40
0.2500000000000007
 40
0.2812500000000008
 40
0.2812500000000008
 40
0.3125000000000008
 40
0.3125000000000008
 40
0.3437500000000009
 40
0.3437500000000009
 40
0.375000000000001
 40
0.375000000000001
 40
0.3906250000000011
 40
0.3906250000000011
 40
0.4062500000000011
 40
0.4062500000000011
 40
0.4375000000000012
 40
0.4375000000000012
 40
0.4687500000000013
 40
0.4687500000000013
 40
0.5000000000000014
 40
0.5000000000000014
 40
0.5312500000000016
 40
0.5312500000000016
 40
0.5625000000000017
 40
0.5625000000000017
 40
0.5937500000000017
 40
0.5937500000000017
 40
0.6250000000000018
 40
0.6250000000000018
 40
0.6562500000000017
 40
0.6562500000000017
 40
0.6875000000000014
 40
0.6875000000000014
 40
0.7187500000000013
 40
0.7187500000000013
 40
0.7500000000000012
 40
0.7500000000000012
 40
0.7812500000000011
 40
0.7812500000000011
 40
0.8125000000000009
 40
0.8125000000000009
 40
0.8437500000000008
 40
0.8437500000000008
 40
0.8750000000000007
 40
0.8750000000000007
 40
0.9062500000000006
 40
0.9062500000000006
 40
0.9375000000000003
 40
0.9375000000000003
 40
0.9687500000000002
 40
0.9687500000000002
 40
1.0
 40
1.0
 40
1.03125
 40
1.03125
 10
113.5531408441324
 20
79.65653602716733
 30
0.0
 10
113.9275710640062
 20
80.06689182765247
 30
0.0
 10
114.1324236652718
 20
80.25054091031097
 30
0.0
 10
114.5752918621188
 20
80.57749581380628
 30
0.0
 10
114.8152472794371
 20
80.72127402198613
 30
0.0
 10
115.3108582622117
 20
80.95879137743202
 30
0.0
 10
115.5681245533661
 20
81.05411094232974
 30
0.0
 10
116.1014783212032
 20
81.19819647496422
 30
0.0
 10
116.3757584611015
 20
81.24593248193382
 30
0.0
 10
116.922186995681
 20
81.29151462246764
 30
0.0
 10
117.1967633141488
 20
81.29008086239538
 30
0.0
 10
117.7487304884195
 20
81.23716755430455
 30
0.0
 10
118.0193474509912
 20
81.18619782810036
 30
0.0
 10
118.5456326220704
 20
81.03759120115677
 30
0.0
 10
118.803264185478
 20
80.93930583039968
 30
0.0
 10
119.2991903501515
 20
80.69505247121394
 30
0.0
 10
119.5321740279432
 20
80.55197234019178
 30
0.0
 10
119.9685073032682
 20
80.22411378972294
 30
0.0
 10
120.1737885571264
 20
80.03712015202272
 30
0.0
 10
120.5418228549866
 20
79.62768953219971
 30
0.0
 10
120.7033378449718
 20
79.40758409121523
 30
0.0
 10
120.980495528119
 20
78.93583400977721
 30
0.0
 10
121.0968897075526
 20
78.68081748333597
 30
0.0
 10
121.2701637441993
 20
78.159579659939
 30
0.0
 10
121.328610298665
 20
77.89209554215807
 30
0.0
 10
121.3724750241409
 20
77.48017988282562
 30
0.0
 10
121.3796552407703
 20
77.3404725797501
 30
0.0
 10
121.3786872134748
 20
77.06434952428769
 30
0.0
 10
121.3706844240612
 20
76.92717295795691
 30
0.0
 10
121.3246116921488
 20
76.51823951669365
 30
0.0
 10
121.2636768596968
 20
76.2463132676894
 30
0.0
 10
121.0855567032882
 20
75.72313275123432
 30
0.0
 10
120.9699887919459
 20
75.47442075087095
 30
0.0
 10
120.6881420080066
 20
75.001536225879
 30
0.0
 10
120.5212720625919
 20
74.77792700864687
 30
0.0
 10
120.1519465077932
 20
74.37326962045924
 30
0.0
 10
119.9471613514956
 20
74.18885603228969
 30
0.0
 10
119.5025084039794
 20
73.85982999739531
 30
0.0
 10
119.2676592744687
 20
73.71866192140709
 30
0.0
 10
118.7742495119916
 20
73.48025239262661
 30
0.0
 10
118.512962558287
 20
73.38246983622172
 30
0.0
 10
117.9822242777743
 20
73.2371418080316
 30
0.0
 10
117.7125845768771
 20
73.18885241783664
 30
0.0
 10
117.1648332371319
 20
73.14043719405
 30
0.0
 10
116.8849291952732
 20
73.14089537968594
 30
0.0
 10
116.3378512874382
 20
73.19104723528812
 30
0.0
 10
116.0682461827508
 20
73.24022080232015
 30
0.0
 10
115.5370914260947
 20
73.38789532562717
 30
0.0
 10
115.2757966096512
 20
73.48705048999275
 30
0.0
 10
114.7834826314758
 20
73.72806326046947
 30
0.0
 10
114.5495257558972
 20
73.8705513850942
 30
0.0
 10
114.1073571353667
 20
74.20203881407913
 30
0.0
 10
113.9021636042551
 20
74.38947244206751
 30
0.0
 10
113.5364693878971
 20
74.79637616111793
 30
0.0
 10
113.3736987655087
 20
75.01755523578692
 30
0.0
 10
113.0927463347432
 20
75.49730256500219
 30
0.0
 10
112.9795424824697
 20
75.74731453181248
 30
0.0
 10
112.8069337583307
 20
76.26738974183289
 30
0.0
 10
112.7473274756543
 20
76.54112120646268
 30
0.0
 10
112.6894357055845
 20
77.08973885636115
 30
0.0
 10
112.6902252444445
 20
77.36407872025272
 30
0.0
 10
112.7514157200609
 20
77.91282067139167
 30
0.0
 10
112.8125444437949
 20
78.18588598524882
 30
0.0
 10
112.9886241294247
 20
78.70605123401721
 30
0.0
 10
113.1049547244147
 20
78.95837036757612
 30
0.0
 10
113.3881559541554
 20
79.43477470898311
 30
0.0
 10
113.5531408441324
 20
79.65653602716733
 30
0.0
 10
113.9275710640062
 20
80.06689182765247
 30
0.0
  0
CIRCLE
  5
113
330
1F
100
AcDbEntity
  8
0
  6
HIDDEN
 62
     7
370
     0
100
AcDbCircle
 10
144.4291945253
 20
77.2157023774
 30
0.0
 40
2.000000000000014
  0
CIRCLE
  5
114
330
1F
100
AcDbEntity
  8
0
  6
HIDDEN
 62
     7
370
     0
100
AcDbCircle
 10
222.6726377555
 20
77.2157023774
 30
0.0
 40
2.279131018014116
  0
LINE
  5
115
330
1F
100
AcDbEntity
  8
0
  6
HIDDEN
 62
     7
370
     0
100
AcDbLine
 10
132.4291945253
 20
52.9657023774
 30
0.0
 11
132.5220877441
 21
53.0585955962
 31
0.0
  0
LINE
  5
116
330
1F
100
AcDbEntity
  8
0
  6
HIDDEN
 62
     7
370
     0
100
AcDbLine
 10
132.5220877441
 20
101.3728091585
 30
0.0
 11
132.4291945253
 21
101.4657023774
 31
0.0
  0
ARC
  5
117
330
1F
100
AcDbEntity
  8
0
  6
HIDDEN
 62
     7
370
     0
100
AcDbCircle
 10
131.8149809629
 20
53.7657023774
 30
0.0
 40
1.0
100
AcDbArc
 50
315.0
 51
0.0
  0
ARC
  5
118
330
1F
100
AcDbEntity
  8
0
  6
HIDDEN
 62
     7
370
     0
100
AcDbCircle
 10
131.8149809629
 20
53.7657023774
 30
0.0
 40
1.00000000000001
100
AcDbArc
 50
0.0
 51
52.1052014664
  0
ARC
  5
119
330
1F
100
AcDbEntity
  8
0
  6
HIDDEN
 62
     7
370
     0
100
AcDbCircle
 10
131.8149809629
 20
100.6657023774
 30
0.0
 40
1.000000000000008
100
AcDbArc
 50
351.8087250651
 51
45.0
  0
ARC
  5
11A
330
1F
100
AcDbEntity
  8
0
  6
HIDDEN
 62
     7
370
     0
100
AcDbCircle
 10
131.8149809629
 20
100.6657023774
 30
0.0
 40
1.00000000000001
100
AcDbArc
 50
307.8947985336
 51
351.8087250651
  0
LINE
  5
11B
330
1F
100
AcDbEntity
  8
0
  6
HIDDEN
 62
     7
370
     0
100
AcDbLine
 10
132.8149809629
 20
53.7657023774
 30
0.0
 11
132.8149809629
 21
100.6657023774
 31
0.0
  0
LINE
  5
11C
330
1F
100
AcDbEntity
  8
0
  6
HIDDEN
 62
     7
370
     0
100
AcDbLine
 10
180.6297790638
 20
79.7157023774
 30
0.0
 11
169.6440158165
 21
79.7157023774
 31
0.0
  0
LINE
  5
11D
330
1F
100
AcDbEntity
  8
0
  6
HIDDEN
 62
     7
370
     0
100
AcDbLine
 10
169.6440158165
 20
74.7157023774
 30
0.0
 11
180.6297790638
 21
74.7157023774
 31
0.0
  0
LINE
  5
11E
330
1F
100
AcDbEntity
  8
0
  6
HIDDEN
 62
     7
370
     0
100
AcDbLine
 10
94.4291945253
 20
61.0192735329
 30
0.0
 11
95.9594229649
 21
61.9027513344
 31
0.0
  0
LINE
  5
11F
330
1F
100
AcDbEntity
  8
0
  6
HIDDEN
 62
     7
370
     0
100
AcDbLine
 10
95.9594229649
 20
92.5286534203
 30
0.0
 11
94.4291945253
 21
93.4121312218
 31
0.0
  0
ARC
  5
120
330
1F
100
AcDbEntity
  8
0
  6
HIDDEN
 62
     7
370
     0
100
AcDbCircle
 10
105.4309958402
 20
63.2157023774
 30
0.0
 40
2.000000000000001
100
AcDbArc
 50
270.0
 51
315.0
  0
ARC
  5
121
330
1F
100
AcDbEntity
  8
0
  6
HIDDEN
 62
     7
370
     0
100
AcDbCircle
 10
105.4309958402
 20
91.2157023774
 30
0.0
 40
2.000000000000014
100
AcDbArc
 50
45.0
 51
90.0
  0
ARC
  5
122
330
1F
100
AcDbEntity
  8
0
  6
HIDDEN
 62
     7
370
     0
100
AcDbCircle
 10
104.4291945253
 20
63.2157023774
 30
0.0
 40
2.000000000000005
100
AcDbArc
 50
189.9742217944
 51
270.0
  0
ARC
  5
123
330
1F
100
AcDbEntity
  8
0
  6
HIDDEN
 62
     7
370
     0
100
AcDbCircle
 10
104.4291945253
 20
91.2157023774
 30
0.0
 40
2.000000000000014
100
AcDbArc
 50
90.0
 51
170.0257782056
  0
LINE
  5
124
330
1F
100
AcDbEntity
  8
0
  6
HIDDEN
 62
     7
370
     0
100
AcDbLine
 10
104.4291945253
 20
61.2157023774
 30
0.0
 11
105.4309958402
 21
61.2157023774
 31
0.0
  0
LINE
  5
125
330
1F
100
AcDbEntity
  8
0
  6
HIDDEN
 62
     7
370
     0
100
AcDbLine
 10
105.4309958402
 20
93.2157023774
 30
0.0
 11
104.4291945253
 21
93.2157023774
 31
0.0
  0
LINE
  5
126
330
1F
100
AcDbEntity
  8
0
  6
HIDDEN
 62
     7
370
     0
100
AcDbLine
 10
106.8452094026
 20
61.801488815
 30
0.0
 11
108.2594229649
 21
63.2157023774
 31
0.0
  0
LINE
  5
127
330
1F
100
AcDbEntity
  8
0
  6
HIDDEN
 62
     7
370
     0
100
AcDbLine
 10
108.2594229649
 20
91.2157023774
 30
0.0
 11
106.8452094026
 21
92.6299159397
 31
0.0
  0
LINE
  5
128
330
1F
100
AcDbEntity
  8
0
  6
HIDDEN
 62
     7
370
     0
100
AcDbLine
 10
95.9594229649
 20
61.9027513344
 30
0.0
 11
100.8594229649
 21
63.2157023774
 31
0.0
  0
LINE
  5
129
330
1F
100
AcDbEntity
  8
0
  6
HIDDEN
 62
     7
370
     0
100
AcDbLine
 10
100.8594229649
 20
91.2157023774
 30
0.0
 11
95.9594229649
 21
92.5286534203
 31
0.0
  0
LINE
  5
12A
330
1F
100
AcDbEntity
  8
0
  6
HIDDEN
 62
     7
370
     0
100
AcDbLine
 10
102.4594229649
 20
91.5621125389
 30
0.0
 11
101.8594229649
 21
91.2157023774
 31
0.0
  0
LINE
  5
12B
330
1F
100
AcDbEntity
  8
0
  6
HIDDEN
 62
     7
370
     0
100
AcDbLine
 10
101.8594229649
 20
63.2157023774
 30
0.0
 11
102.4594229649
 21
62.8692922158
 31
0.0
  0
ARC
  5
12C
330
1F
100
AcDbEntity
  8
0
  6
HIDDEN
 62
     7
370
     0
100
AcDbCircle
 10
120.9291945253
 20
63.7157023774
 30
0.0
 40
0.5
100
AcDbArc
 50
270.0
 51
0.0
  0
ARC
  5
12D
330
1F
100
AcDbEntity
  8
0
  6
HIDDEN
 62
     7
370
     0
100
AcDbCircle
 10
120.9291945253
 20
90.7157023774
 30
0.0
 40
0.5
100
AcDbArc
 50
0.0
 51
90.0
  0
LINE
  5
12E
330
1F
100
AcDbEntity
  8
0
  6
HIDDEN
 62
     7
370
     0
100
AcDbLine
 10
100.8594229649
 20
63.2157023774
 30
0.0
 11
101.8594229649
 21
63.2157023774
 31
0.0
  0
LINE
  5
12F
330
1F
100
AcDbEntity
  8
0
  6
HIDDEN
 62
     7
370
     0
100
AcDbLine
 10
101.8594229649
 20
91.2157023774
 30
0.0
 11
100.8594229649
 21
91.2157023774
 31
0.0
  0
LINE
  5
130
330
1F
100
AcDbEntity
  8
0
  6
HIDDEN
 62
     7
370
     0
100
AcDbLine
 10
108.2594229649
 20
63.2157023774
 30
0.0
 11
120.9291945253
 21
63.2157023774
 31
0.0
  0
LINE
  5
131
330
1F
100
AcDbEntity
  8
0
  6
HIDDEN
 62
     7
370
     0
100
AcDbLine
 10
120.9291945253
 20
91.2157023774
 30
0.0
 11
108.2594229649
 21
91.2157023774
 31
0.0
  0
LINE
  5
132
330
1F
100
AcDbEntity
  8
0
  6
HIDDEN
 62
     7
370
     0
100
AcDbLine
 10
121.4291945253
 20
66.9657023774
 30
0.0
 11
122.6791945253
 21
68.2157023774
 31
0.0
  0
LINE
  5
133
330
1F
100
AcDbEntity
  8
0
  6
HIDDEN
 62
     7
370
     0
100
AcDbLine
 10
122.6791945253
 20
86.2157023774
 30
0.0
 11
121.4291945253
 21
87.4657023774
 31
0.0
  0
LINE
  5
134
330
1F
100
AcDbEntity
  8
0
  6
HIDDEN
 62
     7
370
     0
100
AcDbLine
 10
159.4291945253
 20
86.2157023774
 30
0.0
 11
122.6791945253
 21
86.2157023774
 31
0.0
  0
LINE
  5
135
330
1F
100
AcDbEntity
  8
0
  6
HIDDEN
 62
     7
370
     0
100
AcDbLine
 10
122.6791945253
 20
68.2157023774
 30
0.0
 11
159.4291945253
 21
68.2157023774
 31
0.0
  0
LINE
  5
136
330
1F
100
AcDbEntity
  8
0
  6
HIDDEN
 62
     7
370
     0
100
AcDbLine
 10
159.4291945253
 20
68.2157023774
 30
0.0
 11
162.2832824657
 21
72.9657023774
 31
0.0
  0
LINE
  5
137
330
1F
100
AcDbEntity
  8
0
  6
HIDDEN
 62
     7
370
     0
100
AcDbLine
 10
162.2832824657
 20
81.4657023774
 30
0.0
 11
159.4291945253
 21
86.2157023774
 31
0.0
  0
LINE
  5
138
330
1F
100
AcDbEntity
  8
0
  6
HIDDEN
 62
     7
370
     0
100
AcDbLine
 10
173.4291945253
 20
81.4657023774
 30
0.0
 11
162.2832824657
 21
81.4657023774
 31
0.0
  0
LINE
  5
139
330
1F
100
AcDbEntity
  8
0
  6
HIDDEN
 62
     7
370
     0
100
AcDbLine
 10
162.2832824657
 20
72.9657023774
 30
0.0
 11
173.4291945253
 21
72.9657023774
 31
0.0
  0
LINE
  5
13A
330
1F
100
AcDbEntity
  8
0
  6
HIDDEN
 62
     7
370
     0
100
AcDbLine
 10
173.4291945253
 20
72.9657023774
 30
0.0
 11
175.9828521562
 21
77.2157023774
 31
0.0
  0
LINE
  5
13B
330
1F
100
AcDbEntity
  8
0
  6
HIDDEN
 62
     7
370
     0
100
AcDbLine
 10
175.9828521562
 20
77.2157023774
 30
0.0
 11
173.4291945253
 21
81.4657023774
 31
0.0
  0
DIMENSION
  5
13C
330
1F
100
AcDbEntity
  8
VERMASSUNG
100
AcDbDimension
  2
_D
 10
84.4291945253
 20
45.7157023774
 30
0.0
 11
84.4291945253
 21
77.2157023774
 31
0.0
 70
   160
  1
PSC%%c<>
 71
     2
 42
-1.0
  3
SLDDIMSTYLE0
100
AcDbAlignedDimension
 13
132.9291945253
 23
108.7157023774
 33
0.0
 14
132.9291945253
 24
45.7157023774
 34
0.0
 50
90.0
100
AcDbRotatedDimension
  0
LINE
  5
149
330
1F
100
AcDbEntity
  8
VERMASSUNG
  6
CENTERX2
370
     0
100
AcDbLine
 10
238.3491070134
 20
77.2157023774
 30
0.0
 11
90.3492859448
 21
77.2157023774
 31
0.0
  0
LINE
  5
14A
330
1F
100
AcDbEntity
  8
0
  6
Continuous
 62
     7
370
    15
100
AcDbLine
 10
213.1160809857
 20
150.1044549841
 30
0.0
 11
213.1283594418
 21
150.0044549841
 31
0.0
  0
LINE
  5
14B
330
1F
100
AcDbEntity
  8
0
  6
Continuous
 62
     7
370
    15
100
AcDbLine
 10
232.0291945253
 20
146.8467164129
 30
0.0
 11
232.4291945253
 21
150.1044549841
 31
0.0
  0
ARC
  5
14C
330
1F
100
AcDbEntity
  8
0
  6
Continuous
 62
     7
370
    15
100
AcDbCircle
 10
132.9291945253
 20
119.3044549841
 30
0.0
 40
0.5
100
AcDbArc
 50
180.0
 51
270.0
  0
ARC
  5
14D
330
1F
100
AcDbEntity
  8
0
  6
Continuous
 62
     7
370
    15
100
AcDbCircle
 10
132.9291945253
 20
181.3044549841
 30
0.0
 40
0.5
100
AcDbArc
 50
90.0
 51
180.0
  0
LINE
  5
14E
330
1F
100
AcDbEntity
  8
0
  6
Continuous
 62
     7
370
    15
100
AcDbLine
 10
166.4291945253
 20
181.8044549841
 30
0.0
 11
132.9291945253
 21
181.8044549841
 31
0.0
  0
LINE
  5
14F
330
1F
100
AcDbEntity
  8
0
  6
Continuous
 62
     7
370
    15
100
AcDbLine
 10
175.908410206
 20
181.8044549841
 30
0.0
 11
172.4199558464
 21
181.8044549841
 31
0.0
  0
LINE
  5
150
330
1F
100
AcDbEntity
  8
0
  6
Continuous
 62
     7
370
    15
100
AcDbLine
 10
146.4291945253
 20
118.8044549841
 30
0.0
 11
227.6798099851
 21
118.8044549841
 31
0.0
  0
LINE
  5
151
330
1F
100
AcDbEntity
  8
0
  6
Continuous
 62
     7
370
    15
100
AcDbLine
 10
132.9291945253
 20
118.8044549841
 30
0.0
 11
142.453812881
 21
118.8044549841
 31
0.0
  0
LWPOLYLINE
  5
152
330
1F
100
AcDbEntity
  8
0
  6
Continuous
 62
     7
370
    15
100
AcDbPolyline
 90
        3
 70
   128
 43
0.0
 10
132.2291945253
 20
127.7646347053
 10
132.3546494688
 20
127.6963325903
 10
132.4291945253
 20
127.6435948322
  0
ARC
  5
153
330
1F
100
AcDbEntity
  8
0
  6
Continuous
 62
     7
370
    15
100
AcDbCircle
 10
131.8149809629
 20
173.7544549841
 30
0.0
 40
1.000000000000021
100
AcDbArc
 50
225.0
 51
307.8947985336
  0
LINE
  5
154
330
1F
100
AcDbEntity
  8
0
  6
Continuous
 62
     7
370
    15
100
AcDbLine
 10
121.3762160663
 20
129.9067738331
 30
0.0
 11
130.2291945253
 21
129.6843561996
 31
0.0
  0
LINE
  5
155
330
1F
100
AcDbEntity
  8
0
  6
Continuous
 62
     7
370
    15
100
AcDbLine
 10
102.7951019307
 20
130.3735960956
 30
0.0
 11
112.7114742899
 21
130.1244623059
 31
0.0
  0
ARC
  5
156
330
1F
100
AcDbEntity
  8
0
  6
Continuous
 62
     7
370
    15
100
AcDbCircle
 10
130.4291314362
 20
129.6793330884
 30
0.0
 40
0.200000000000035
100
AcDbArc
 50
88.5608333333
 51
178.5608333333
  0
ARC
  5
157
330
1F
100
AcDbEntity
  8
0
  6
Continuous
 62
     7
370
    15
100
AcDbCircle
 10
132.0291945253
 20
129.6391339343
 30
0.0
 40
0.2000000000000052
100
AcDbArc
 50
0.0
 51
88.5608333333
  0
LINE
  5
158
330
1F
100
AcDbEntity
  8
0
  6
Continuous
 62
     7
370
    15
100
AcDbLine
 10
130.4341545474
 20
129.8792699994
 30
0.0
 11
132.0342176364
 21
129.8390708452
 31
0.0
  0
ARC
  5
159
330
1F
100
AcDbEntity
  8
0
  6
Continuous
 62
     7
370
    15
100
AcDbCircle
 10
130.4291314362
 20
173.7295768798
 30
0.0
 40
0.2000000000000066
100
AcDbArc
 50
181.4391666666
 51
271.4391666667
  0
LINE
  5
15A
330
1F
100
AcDbEntity
  8
0
  6
Continuous
 62
     7
370
    15
100
AcDbLine
 10
130.2291945253
 20
173.7245537687
 30
0.0
 11
95.9291945253
 21
172.8628183804
 31
0.0
  0
LINE
  5
15B
330
1F
100
AcDbEntity
  8
0
  6
Continuous
 62
     7
370
    15
100
AcDbLine
 10
130.6349336744
 20
173.5346842394
 30
0.0
 11
130.4341545474
 21
173.5296399689
 31
0.0
  0
LINE
  5
15C
330
1F
100
AcDbEntity
  8
0
  6
Continuous
 62
     7
370
    15
100
AcDbLine
 10
95.9291945253
 20
172.8628183804
 30
0.0
 11
94.4291945253
 21
171.9967929766
 31
0.0
  0
LINE
  5
15D
330
1F
100
AcDbEntity
  8
0
  6
Continuous
 62
     7
370
    15
100
AcDbLine
 10
131.1078741817
 20
173.0473482029
 30
0.0
 11
130.6451290857
 21
173.510093299
 31
0.0
  0
LINE
  5
15E
330
1F
100
AcDbEntity
  8
0
  6
Continuous
 62
     7
370
    15
100
AcDbLine
 10
222.7726377555
 20
146.8467164129
 30
0.0
 11
222.5155227116
 21
150.1044549841
 31
0.0
  0
LINE
  5
15F
330
1F
100
AcDbEntity
  8
0
  6
Continuous
 62
     7
370
    15
100
AcDbLine
 10
222.7726377555
 20
145.3444549841
 30
0.0
 11
222.7726377555
 21
146.8467164129
 31
0.0
  0
LINE
  5
160
330
1F
100
AcDbEntity
  8
0
  6
Continuous
 62
     7
370
    15
100
AcDbLine
 10
222.5631279189
 20
145.3444549841
 30
0.0
 11
222.7726377555
 21
145.3444549841
 31
0.0
  0
LINE
  5
161
330
1F
100
AcDbEntity
  8
0
  6
Continuous
 62
     7
370
    15
100
AcDbLine
 10
213.2668583812
 20
150.0044549841
 30
0.0
 11
213.2589659418
 21
150.1044549841
 31
0.0
  0
LINE
  5
162
330
1F
100
AcDbEntity
  8
0
  6
Continuous
 62
     7
370
    15
100
AcDbLine
 10
213.2589659418
 20
150.1044549841
 30
0.0
 11
222.5155227116
 21
150.1044549841
 31
0.0
  0
LINE
  5
163
330
1F
100
AcDbEntity
  8
0
  6
Continuous
 62
     7
370
    15
100
AcDbLine
 10
222.7726377555
 20
146.8467164129
 30
0.0
 11
223.0297527994
 21
150.1044549841
 31
0.0
  0
LINE
  5
164
330
1F
100
AcDbEntity
  8
0
  6
Continuous
 62
     7
370
    15
100
AcDbLine
 10
222.5155227116
 20
150.1044549841
 30
0.0
 11
223.0297527994
 21
150.1044549841
 31
0.0
  0
LINE
  5
165
330
1F
100
AcDbEntity
  8
0
  6
Continuous
 62
     7
370
    15
100
AcDbLine
 10
232.0291945253
 20
146.8467164129
 30
0.0
 11
232.2863095692
 21
150.1044549841
 31
0.0
  0
LINE
  5
166
330
1F
100
AcDbEntity
  8
0
  6
Continuous
 62
     7
370
    15
100
AcDbLine
 10
231.7422342493
 20
145.3444549841
 30
0.0
 11
232.0291945253
 21
146.8467164129
 31
0.0
  0
LINE
  5
167
330
1F
100
AcDbEntity
  8
0
  6
Continuous
 62
     7
370
    15
100
AcDbLine
 10
222.7726377555
 20
145.3444549841
 30
0.0
 11
231.7422342493
 21
145.3444549841
 31
0.0
  0
LINE
  5
168
330
1F
100
AcDbEntity
  8
0
  6
Continuous
 62
     7
370
    15
100
AcDbLine
 10
223.0297527994
 20
150.1044549841
 30
0.0
 11
232.2863095692
 21
150.1044549841
 31
0.0
  0
LINE
  5
169
330
1F
100
AcDbEntity
  8
0
  6
Continuous
 62
     7
370
    15
100
AcDbLine
 10
213.1160809857
 20
150.1044549841
 30
0.0
 11
213.2589659418
 21
150.1044549841
 31
0.0
  0
LINE
  5
16A
330
1F
100
AcDbEntity
  8
0
  6
Continuous
 62
     7
370
    15
100
AcDbLine
 10
232.2863095692
 20
150.1044549841
 30
0.0
 11
232.4291945253
 21
150.1044549841
 31
0.0
  0
LINE
  5
16B
330
1F
100
AcDbEntity
  8
0
  6
Continuous
 62
     7
370
    15
100
AcDbLine
 10
132.4291945253
 20
150.3044549841
 30
0.0
 11
132.4291945253
 21
181.3044549841
 31
0.0
  0
LINE
  5
16C
330
1F
100
AcDbEntity
  8
0
  6
Continuous
 62
     7
370
    15
100
AcDbLine
 10
132.4291945253
 20
119.3044549841
 30
0.0
 11
132.4291945253
 21
150.3044549841
 31
0.0
  0
LWPOLYLINE
  5
16D
330
1F
100
AcDbEntity
  8
0
  6
Continuous
 62
     7
370
    15
100
AcDbPolyline
 90
       12
 70
   128
 43
0.0
 10
142.453812881
 20
118.8060026724
 10
142.4817516456
 20
118.8077482711
 10
142.741516435
 20
118.8227419218
 10
143.1913544915
 20
118.8436500366
 10
143.7814755089
 20
118.8613390456
 10
144.4443875305
 20
118.8680074936
 10
145.1044530517
 20
118.8607596848
 10
145.6884794689
 20
118.8427989793
 10
146.1316739642
 20
118.8219449787
 10
146.3832099123
 20
118.8073412095
 10
146.4291945253
 20
118.8044549841
 10
146.4291945253
 20
118.8044549841
  0
SPLINE
  5
16E
330
1F
100
AcDbEntity
  8
0
  6
Continuous
 62
     7
370
    15
100
AcDbSpline
210
0.0
220
0.0
230
1.0
 70
     8
 71
     3
 72
    12
 73
     8
 74
     0
 42
0.00000001
 43
0.00000001
 12
1.0
 22
0.0
 32
0.0
 13
1.0
 23
0.0
 33
0.0
 40
0.0
 40
0.0
 40
0.0
 40
0.0
 40
0.5
 40
0.5
 40
0.75
 40
0.75
 40
1.0
 40
1.0
 40
1.0
 40
1.0
 10
142.5239386369813
 20
120.4037125240142
 30
0.0
 10
142.5546608789004
 20
120.3664105410612
 30
0.0
 10
142.5974980934356
 20
120.3297987090148
 30
0.0
 10
142.6969251176354
 20
120.2820339257296
 30
0.0
 10
142.736677312452
 20
120.2670764102472
 30
0.0
 10
142.8347187693103
 20
120.2438864644781
 30
0.0
 10
142.8942748248977
 20
120.2359630252583
 30
0.0
 10
142.9569513388736
 20
120.2359630252584
 30
0.0
  0
LINE
  5
16F
330
1F
100
AcDbEntity
  8
0
  6
Continuous
 62
     7
370
    15
100
AcDbLine
 10
142.9569513389
 20
120.2359630253
 30
0.0
 11
145.9014377117
 21
120.2359630253
 31
0.0
  0
SPLINE
  5
170
330
1F
100
AcDbEntity
  8
0
  6
Continuous
 62
     7
370
    15
100
AcDbSpline
210
0.0
220
0.0
230
1.0
 70
     8
 71
     3
 72
    12
 73
     8
 74
     0
 42
0.00000001
 43
0.00000001
 12
1.0
 22
0.0
 32
0.0
 13
1.0
 23
0.0
 33
0.0
 40
0.0
 40
0.0
 40
0.0
 40
0.0
 40
0.2499999999999991
 40
0.2499999999999991
 40
0.4999999999999981
 40
0.4999999999999981
 40
1.0
 40
1.0
 40
1.0
 40
1.0
 10
145.9014377117407
 20
120.2359630252584
 30
0.0
 10
145.9645177502341
 20
120.2359630252583
 30
0.0
 10
146.0236663724155
 20
120.2438689514708
 30
0.0
 10
146.1221389224845
 20
120.267194112907
 30
0.0
 10
146.1611755344693
 20
120.2819069027387
 30
0.0
 10
146.2610720012483
 20
120.3298627034697
 30
0.0
 10
146.3034928823149
 20
120.3661248600497
 30
0.0
 10
146.3344504136329
 20
120.4037125240142
 30
0.0
  0
ELLIPSE
  5
171
330
1F
100
AcDbEntity
  8
0
  6
Continuous
 62
     7
370
    15
100
AcDbEllipse
 10
130.0820403359
 20
150.3044549841
 30
0.0
 11
-14.75368316065624
 21
31.09325491558116
 31
0.0
210
0.0
220
0.0
230
1.0
 40
0.3419987131
 41
3.300734856217117
 42
4.231496223360768
  0
SPLINE
  5
172
330
1F
100
AcDbEntity
  8
0
  6
Continuous
 62
     7
370
    15
100
AcDbSpline
210
0.0
220
0.0
230
1.0
 70
     8
 71
     3
 72
    12
 73
     8
 74
     0
 42
0.00000001
 43
0.00000001
 12
1.0
 22
0.0
 32
0.0
 13
1.0
 23
0.0
 33
0.0
 40
0.0
 40
0.0
 40
0.0
 40
0.0
 40
0.4999999999999972
 40
0.4999999999999972
 40
0.7499999999999986
 40
0.7499999999999986
 40
1.0
 40
1.0
 40
1.0
 40
1.0
 10
146.3344504136329
 20
140.395085663446
 30
0.0
 10
146.3037281717138
 20
140.5076414628552
 30
0.0
 10
146.2608909571786
 20
140.6203993225947
 30
0.0
 10
146.1614639329788
 20
140.7699402083911
 30
0.0
 10
146.1217117381622
 20
140.817232940098
 30
0.0
 10
146.023670281304
 20
140.8909692334194
 30
0.0
 10
145.9641142257165
 20
140.9163885527951
 30
0.0
 10
145.9014377117407
 20
140.9163885527951
 30
0.0
  0
LINE
  5
173
330
1F
100
AcDbEntity
  8
0
  6
Continuous
 62
     7
370
    15
100
AcDbLine
 10
145.9014377117
 20
140.9163885528
 30
0.0
 11
142.9569513389
 21
140.9163885528
 31
0.0
  0
SPLINE
  5
174
330
1F
100
AcDbEntity
  8
0
  6
Continuous
 62
     7
370
    15
100
AcDbSpline
210
0.0
220
0.0
230
1.0
 70
     8
 71
     3
 72
    12
 73
     8
 74
     0
 42
0.00000001
 43
0.00000001
 12
1.0
 22
0.0
 32
0.0
 13
1.0
 23
0.0
 33
0.0
 40
0.0
 40
0.0
 40
0.0
 40
0.0
 40
0.2500000000000013
 40
0.2500000000000013
 40
0.5000000000000027
 40
0.5000000000000027
 40
1.0
 40
1.0
 40
1.0
 40
1.0
 10
142.9569513388736
 20
140.9163885527951
 30
0.0
 10
142.8938713003802
 20
140.9163885527951
 30
0.0
 10
142.8347226781988
 20
140.8910242335802
 30
0.0
 10
142.7362501281297
 20
140.8168593732073
 30
0.0
 10
142.697213516145
 20
140.7703390326531
 30
0.0
 10
142.597317049366
 20
140.6201966898079
 30
0.0
 10
142.5548961682993
 20
140.5085034828357
 30
0.0
 10
142.5239386369813
 20
140.395085663446
 30
0.0
  0
ELLIPSE
  5
175
330
1F
100
AcDbEntity
  8
0
  6
Continuous
 62
     7
370
    15
100
AcDbEllipse
 10
158.7763487147
 20
150.3044549841
 30
0.0
 11
14.75368316065624
 21
31.09325491558116
 31
0.0
210
0.0
220
0.0
230
1.0
 40
0.3419987131
 41
2.051689083818829
 42
2.982450450962506
  0
SPLINE
  5
176
330
1F
100
AcDbEntity
  8
0
  6
Continuous
 62
     7
370
    15
100
AcDbSpline
210
0.0
220
0.0
230
1.0
 70
     8
 71
     3
 72
    12
 73
     8
 74
     0
 42
0.00000001
 43
0.00000001
 12
1.0
 22
0.0
 32
0.0
 13
1.0
 23
0.0
 33
0.0
 40
0.0
 40
0.0
 40
0.0
 40
0.0
 40
0.500000000000001
 40
0.500000000000001
 40
0.7500000000000004
 40
0.7500000000000004
 40
1.0
 40
1.0
 40
1.0
 40
1.0
 10
142.5239386369813
 20
160.2138243048168
 30
0.0
 10
142.5550838349434
 20
160.0997189389515
 30
0.0
 10
142.5973581012779
 20
159.9886126117327
 30
0.0
 10
142.6973036351032
 20
159.8384550043025
 30
0.0
 10
142.7370339398072
 20
159.7914623126851
 30
0.0
 10
142.8339219898134
 20
159.7184867281466
 30
0.0
 10
142.89398723156
 20
159.6925214154676
 30
0.0
 10
142.9569513388736
 20
159.6925214154676
 30
0.0
  0
LINE
  5
177
330
1F
100
AcDbEntity
  8
0
  6
Continuous
 62
     7
370
    15
100
AcDbLine
 10
142.9569513389
 20
159.6925214155
 30
0.0
 11
145.9014377117
 21
159.6925214155
 31
0.0
  0
SPLINE
  5
178
330
1F
100
AcDbEntity
  8
0
  6
Continuous
 62
     7
370
    15
100
AcDbSpline
210
0.0
220
0.0
230
1.0
 70
     8
 71
     3
 72
    12
 73
     8
 74
     0
 42
0.00000001
 43
0.00000001
 12
1.0
 22
0.0
 32
0.0
 13
1.0
 23
0.0
 33
0.0
 40
0.0
 40
0.0
 40
0.0
 40
0.0
 40
0.2499999999999982
 40
0.2499999999999982
 40
0.4999999999999964
 40
0.4999999999999964
 40
1.0
 40
1.0
 40
1.0
 40
1.0
 10
145.9014377117407
 20
159.6925214154677
 30
0.0
 10
145.9644946666385
 20
159.6925214154677
 30
0.0
 10
146.0236248163841
 20
159.7178677688484
 30
0.0
 10
146.1220723669174
 20
159.7919871509879
 30
0.0
 10
146.1611046051054
 20
159.8384836656859
 30
0.0
 10
146.2609944895624
 20
159.9885581726945
 30
0.0
 10
146.3032934631717
 20
160.0996758818093
 30
0.0
 10
146.334450413633
 20
160.2138243048168
 30
0.0
  0
ELLIPSE
  5
179
330
1F
100
AcDbEntity
  8
0
  6
Continuous
 62
     7
370
    15
100
AcDbEllipse
 10
130.0820403359
 20
150.3044549841
 30
0.0
 11
14.75368316065612
 21
31.09325491558116
 31
0.0
210
0.0
220
0.0
230
1.0
 40
0.3419987131
 41
5.19328173740863
 42
6.124043104552333
  0
SPLINE
  5
17A
330
1F
100
AcDbEntity
  8
0
  6
Continuous
 62
     7
370
    15
100
AcDbSpline
210
0.0
220
0.0
230
1.0
 70
     8
 71
     3
 72
    12
 73
     8
 74
     0
 42
0.00000001
 43
0.00000001
 12
1.0
 22
0.0
 32
0.0
 13
1.0
 23
0.0
 33
0.0
 40
0.0
 40
0.0
 40
0.0
 40
0.0
 40
0.5000000000000047
 40
0.5000000000000047
 40
0.7500000000000023
 40
0.7500000000000023
 40
1.0
 40
1.0
 40
1.0
 40
1.0
 10
146.3344504136329
 20
180.2051974442487
 30
0.0
 10
146.3033052156708
 20
180.2430129671689
 30
0.0
 10
146.2610309493364
 20
180.2790798252526
 30
0.0
 10
146.1610854155111
 20
180.3270398902638
 30
0.0
 10
146.121355110807
 20
180.3419008641615
 30
0.0
 10
146.0244670608008
 20
180.3648520102926
 30
0.0
 10
145.9644018190542
 20
180.3729469430046
 30
0.0
 10
145.9014377117407
 20
180.3729469430046
 30
0.0
  0
LINE
  5
17B
330
1F
100
AcDbEntity
  8
0
  6
Continuous
 62
     7
370
    15
100
AcDbLine
 10
145.9014377117
 20
180.372946943
 30
0.0
 11
142.9569513389
 21
180.372946943
 31
0.0
  0
SPLINE
  5
17C
330
1F
100
AcDbEntity
  8
0
  6
Continuous
 62
     7
370
    15
100
AcDbSpline
210
0.0
220
0.0
230
1.0
 70
     8
 71
     3
 72
    12
 73
     8
 74
     0
 42
0.00000001
 43
0.00000001
 12
1.0
 22
0.0
 32
0.0
 13
1.0
 23
0.0
 33
0.0
 40
0.0
 40
0.0
 40
0.0
 40
0.0
 40
0.2500000000000014
 40
0.2500000000000014
 40
0.5000000000000028
 40
0.5000000000000028
 40
1.0
 40
1.0
 40
1.0
 40
1.0
 10
142.9569513388736
 20
180.3729469430046
 30
0.0
 10
142.8938943839757
 20
180.3729469430046
 30
0.0
 10
142.8347642342302
 20
180.365046611925
 30
0.0
 10
142.7363166836969
 20
180.34173586392
 30
0.0
 10
142.6972844455088
 20
180.3270307376363
 30
0.0
 10
142.5973945610519
 20
180.2790972094497
 30
0.0
 10
142.5550955874426
 20
180.243027236685
 30
0.0
 10
142.5239386369813
 20
180.2051974442487
 30
0.0
  0
ELLIPSE
  5
17D
330
1F
100
AcDbEntity
  8
0
  6
Continuous
 62
     7
370
    15
100
AcDbEllipse
 10
158.7763487147
 20
150.3044549841
 30
0.0
 11
-14.75368316065612
 21
31.09325491558116
 31
0.0
210
0.0
220
0.0
230
1.0
 40
0.3419987131
 41
0.1591422026272961
 42
1.08990356977097
  0
SPLINE
  5
17E
330
1F
100
AcDbEntity
  8
0
  6
Continuous
 62
     7
370
    15
100
AcDbSpline
210
0.0
220
0.0
230
1.0
 70
     8
 71
     3
 72
    27
 73
    23
 74
     0
 42
0.00000001
 43
0.00000001
 12
1.0
 22
0.0
 32
0.0
 13
1.0
 23
0.0
 33
0.0
 40
0.0
 40
0.0
 40
0.0
 40
0.0
 40
0.0178846554864572
 40
0.0721835123532738
 40
0.1248550484655198
 40
0.1790452615330511
 40
0.231879232374904
 40
0.286235401554219
 40
0.3392347306808776
 40
0.3937754721498625
 40
0.4466845481327467
 40
0.5011401284874725
 40
0.5538426295263559
 40
0.6080743275583989
 40
0.6607769009101581
 40
0.7149962492363859
 40
0.7679045851266936
 40
0.8223412625637428
 40
0.8753408738265922
 40
0.9298864953702445
 40
0.9647285114613968
 40
1.0
 40
1.0
 40
1.0
 40
1.0
 10
172.419955846425
 20
181.8035770759742
 30
0.0
 10
172.4224832431669
 20
181.8038171949049
 30
0.0
 10
172.4326839637837
 20
181.8047863289099
 30
0.0
 10
172.3637125836104
 20
181.7982175544515
 30
0.0
 10
172.2134162408262
 20
181.7844531181044
 30
0.0
 10
171.9808017636115
 20
181.7645336274734
 30
0.0
 10
171.6752171325136
 20
181.7410130403919
 30
0.0
 10
171.3081355224492
 20
181.7166812267469
 30
0.0
 10
170.8838135162163
 20
181.6939446561835
 30
0.0
 10
170.4217142242841
 20
181.6757495781635
 30
0.0
 10
169.927126777406
 20
181.6638896777326
 30
0.0
 10
169.423731861926
 20
181.6599026265955
 30
0.0
 10
168.9166006327893
 20
181.664136987828
 30
0.0
 10
168.4292490131522
 20
181.6760035364923
 30
0.0
 10
167.9659656641276
 20
181.6943555217432
 30
0.0
 10
167.5474718473464
 20
181.7168584957784
 30
0.0
 10
167.1780363196021
 20
181.7413748725211
 30
0.0
 10
166.874815560421
 20
181.7647650389822
 30
0.0
 10
166.6410925033101
 20
181.7847893006796
 30
0.0
 10
166.5067018308346
 20
181.7971272818122
 30
0.0
 10
166.439816176519
 20
181.8034400021127
 30
0.0
 10
166.4327495044148
 20
181.8041152780162
 30
0.0
 10
166.4291945253071
 20
181.8044549841315
 30
0.0
  0
LINE
  5
17F
330
1F
100
AcDbEntity
  8
0
  6
Continuous
 62
     7
370
    15
100
AcDbLine
 10
183.2376014954
 20
154.4515407135
 30
0.0
 11
175.908410206
 21
181.8044549841
 31
0.0
  0
SPLINE
  5
180
330
1F
100
AcDbEntity
  8
0
  6
Continuous
 62
     7
370
    15
100
AcDbSpline
210
0.0
220
0.0
230
1.0
 70
     8
 71
     3
 72
    18
 73
    14
 74
     0
 42
0.00000001
 43
0.00000001
 12
1.0
 22
0.0
 32
0.0
 13
1.0
 23
0.0
 33
0.0
 40
0.0
 40
0.0
 40
0.0
 40
0.0
 40
0.250000000000001
 40
0.250000000000001
 40
0.500000000000002
 40
0.500000000000002
 40
0.6250000000000014
 40
0.6250000000000014
 40
0.750000000000001
 40
0.750000000000001
 40
0.8750000000000004
 40
0.8750000000000004
 40
1.0
 40
1.0
 40
1.0
 40
1.0
 10
189.0331564531809
 20
150.0044549841315
 30
0.0
 10
188.3717654446979
 20
150.0044549841315
 30
0.0
 10
187.7285016266623
 20
150.1109082036866
 30
0.0
 10
186.4780475250324
 20
150.5356858141129
 30
0.0
 10
185.9013268046616
 20
150.8443963809813
 30
0.0
 10
185.1171060948728
 20
151.4466934694165
 30
0.0
 10
184.8732970655567
 20
151.6683577574696
 30
0.0
 10
184.4281932116972
 20
152.1443406298081
 30
0.0
 10
184.2254338144975
 20
152.3997692162765
 30
0.0
 10
183.86056874465
 20
152.9463031152669
 30
0.0
 10
183.7007139144618
 20
153.2347898123722
 30
0.0
 10
183.432339782447
 20
153.8280264387327
 30
0.0
 10
183.3225023221554
 20
154.1346865146342
 30
0.0
 10
183.2376014954465
 20
154.4515407135164
 30
0.0
  0
LINE
  5
181
330
1F
100
AcDbEntity
  8
0
  6
Continuous
 62
     7
370
    15
100
AcDbLine
 10
194.356855007
 20
150.0044549841
 30
0.0
 11
189.0331564532
 21
150.0044549841
 31
0.0
  0
ELLIPSE
  5
182
330
1F
100
AcDbEntity
  8
0
  6
Continuous
 62
     7
370
    15
100
AcDbEllipse
 10
231.9322259982
 20
150.3044549841
 30
0.0
 11
36.90918092074045
 21
9.691898823412517
 31
0.0
210
0.0
220
0.0
230
1.0
 40
0.8120456143
 41
2.838363526904372
 42
4.389387987634317
  0
LINE
  5
183
330
1F
100
AcDbEntity
  8
0
  6
Continuous
 62
     7
370
    15
100
AcDbLine
 10
227.6800130764
 20
118.8061090301
 30
0.0
 11
227.6798099851
 21
118.8044549841
 31
0.0
  0
LINE
  5
184
330
1F
100
AcDbEntity
  8
0
  6
Continuous
 62
     7
370
    15
100
AcDbLine
 10
222.4041419858
 20
150.0044549841
 30
0.0
 11
194.356855007
 21
150.0044549841
 31
0.0
  0
LINE
  5
185
330
1F
100
AcDbEntity
  8
0
  6
Continuous
 62
     7
370
    15
100
AcDbLine
 10
222.4041419858
 20
150.0044549841
 30
0.0
 11
222.4778350363
 21
147.8444549841
 31
0.0
  0
LINE
  5
186
330
1F
100
AcDbEntity
  8
0
  6
Continuous
 62
     7
370
    15
100
AcDbLine
 10
222.4778350363
 20
147.8444549841
 30
0.0
 11
222.3243543352
 21
145.3444549841
 31
0.0
  0
LINE
  5
187
330
1F
100
AcDbEntity
  8
0
  6
Continuous
 62
     7
370
    15
100
AcDbLine
 10
222.5631279189
 20
145.3444549841
 30
0.0
 11
222.3243543352
 21
145.3444549841
 31
0.0
  0
LINE
  5
188
330
1F
100
AcDbEntity
  8
0
  6
Continuous
 62
     7
370
    15
100
AcDbLine
 10
227.6800130764
 20
118.8061090301
 30
0.0
 11
230.9385122315
 21
145.3444549841
 31
0.0
  0
LINE
  5
189
330
1F
100
AcDbEntity
  8
0
  6
Continuous
 62
     7
370
    15
100
AcDbLine
 10
132.2291945253
 20
133.5142536304
 30
0.0
 11
132.2291945253
 21
127.7646347053
 31
0.0
  0
SPLINE
  5
18A
330
1F
100
AcDbEntity
  8
0
  6
Continuous
 62
     7
370
    15
100
AcDbSpline
210
0.0
220
0.0
230
1.0
 70
     8
 71
     3
 72
    16
 73
    12
 74
     0
 42
0.00000001
 43
0.00000001
 12
1.0
 22
0.0
 32
0.0
 13
1.0
 23
0.0
 33
0.0
 40
0.0
 40
0.0
 40
0.0
 40
0.0
 40
0.5000000000000047
 40
0.5000000000000047
 40
0.7500000000000094
 40
0.7500000000000094
 40
0.8750000000000098
 40
0.8750000000000098
 40
0.9375000000000049
 40
0.9375000000000049
 40
1.0
 40
1.0
 40
1.0
 40
1.0
 10
132.2291945253071
 20
133.5142536303904
 30
0.0
 10
132.2291945253071
 20
133.5940773413708
 30
0.0
 10
132.2250482502292
 20
133.6759334592549
 30
0.0
 10
132.1990826548356
 20
133.8047485803388
 30
0.0
 10
132.1876217494582
 20
133.8495392520404
 30
0.0
 10
132.1533100116839
 20
133.9156700597718
 30
0.0
 10
132.1392852757542
 20
133.9385171179748
 30
0.0
 10
132.1032623127205
 20
133.9649478712171
 30
0.0
 10
132.0885078036308
 20
133.9713755403593
 30
0.0
 10
132.0591556424839
 20
133.9743364635145
 30
0.0
 10
132.0458157679799
 20
133.9713550720063
 30
0.0
 10
132.0342176364315
 20
133.9666120843251
 30
0.0
  0
SPLINE
  5
18B
330
1F
100
AcDbEntity
  8
0
  6
Continuous
 62
     7
370
    15
100
AcDbSpline
210
0.0
220
0.0
230
1.0
 70
     8
 71
     3
 72
    12
 73
     8
 74
     0
 42
0.00000001
 43
0.00000001
 12
1.0
 22
0.0
 32
0.0
 13
1.0
 23
0.0
 33
0.0
 40
0.0
 40
0.0
 40
0.0
 40
0.0
 40
0.2500000000000004
 40
0.2500000000000004
 40
0.5000000000000004
 40
0.5000000000000004
 40
1.0
 40
1.0
 40
1.0
 40
1.0
 10
132.0342176364385
 20
133.9666120843197
 30
0.0
 10
132.0040257947213
 20
133.9542653082251
 30
0.0
 10
131.9706668253067
 20
133.9437676217553
 30
0.0
 10
131.8975295407261
 20
133.9303465671761
 30
0.0
 10
131.8572876680721
 20
133.9277361559292
 30
0.0
 10
131.7395818911037
 20
133.9357066086713
 30
0.0
 10
131.6691714133242
 20
133.9607943662891
 30
0.0
 10
131.6126822388559
 20
133.9900840086174
 30
0.0
  0
SPLINE
  5
18C
330
1F
100
AcDbEntity
  8
0
  6
Continuous
 62
     7
370
    15
100
AcDbSpline
210
0.0
220
0.0
230
1.0
 70
     8
 71
     3
 72
    12
 73
     8
 74
     0
 42
0.00000001
 43
0.00000001
 12
1.0
 22
0.0
 32
0.0
 13
1.0
 23
0.0
 33
0.0
 40
0.0
 40
0.0
 40
0.0
 40
0.0
 40
0.2500000000000011
 40
0.2500000000000011
 40
0.4999999999999994
 40
0.4999999999999994
 40
1.0
 40
1.0
 40
1.0
 40
1.0
 10
131.6126822388556
 20
133.9900840086173
 30
0.0
 10
131.5245283011179
 20
134.035791833709
 30
0.0
 10
131.4641748764892
 20
134.0912090720282
 30
0.0
 10
131.3579129184223
 20
134.2095017990835
 30
0.0
 10
131.3156807518602
 20
134.2712969144924
 30
0.0
 10
131.2046100565431
 20
134.4627175410073
 30
0.0
 10
131.1516732801163
 20
134.5984642058928
 30
0.0
 10
131.1078741817475
 20
134.7412537397066
 30
0.0
  0
SPLINE
  5
18D
330
1F
100
AcDbEntity
  8
0
  6
Continuous
 62
     7
370
    15
100
AcDbSpline
210
0.0
220
0.0
230
1.0
 70
     8
 71
     3
 72
    12
 73
     8
 74
     0
 42
0.00000001
 43
0.00000001
 12
1.0
 22
0.0
 32
0.0
 13
1.0
 23
0.0
 33
0.0
 40
0.0
 40
0.0
 40
0.0
 40
0.0
 40
0.4999999999999998
 40
0.4999999999999998
 40
0.7499999999999999
 40
0.7499999999999999
 40
1.0
 40
1.0
 40
1.0
 40
1.0
 10
131.1078741817475
 20
143.7239711740301
 30
0.0
 10
131.1516207225841
 20
143.9631451010767
 30
0.0
 10
131.2045050778156
 20
144.2005879559926
 30
0.0
 10
131.3160721651517
 20
144.5494259924082
 30
0.0
 10
131.3586557616947
 20
144.6643349000187
 30
0.0
 10
131.4635724887765
 20
144.8842173449289
 30
0.0
 10
131.5251060966213
 20
144.9925782659432
 30
0.0
 10
131.6126822388474
 20
145.0795838535424
 30
0.0
  0
SPLINE
  5
18E
330
1F
100
AcDbEntity
  8
0
  6
Continuous
 62
     7
370
    15
100
AcDbSpline
210
0.0
220
0.0
230
1.0
 70
     8
 71
     3
 72
    12
 73
     8
 74
     0
 42
0.00000001
 43
0.00000001
 12
1.0
 22
0.0
 32
0.0
 13
1.0
 23
0.0
 33
0.0
 40
0.0
 40
0.0
 40
0.0
 40
0.0
 40
0.5000000000000002
 40
0.5000000000000002
 40
0.7500000000000003
 40
0.7500000000000003
 40
1.0
 40
1.0
 40
1.0
 40
1.0
 10
131.6126822388507
 20
145.0795838535425
 30
0.0
 10
131.6691187397578
 20
145.1356526731843
 30
0.0
 10
131.7382033704466
 20
145.1827653519387
 30
0.0
 10
131.8570056421645
 20
145.1940857984345
 30
0.0
 10
131.8971909176346
 20
145.187084907943
 30
0.0
 10
131.9705719650384
 20
145.1568736112842
 30
0.0
 10
132.0039815287811
 20
145.1342948009026
 30
0.0
 10
132.0342176364375
 20
145.1082074795484
 30
0.0
  0
SPLINE
  5
18F
330
1F
100
AcDbEntity
  8
0
  6
Continuous
 62
     7
370
    15
100
AcDbSpline
210
0.0
220
0.0
230
1.0
 70
     8
 71
     3
 72
    16
 73
    12
 74
     0
 42
0.00000001
 43
0.00000001
 12
1.0
 22
0.0
 32
0.0
 13
1.0
 23
0.0
 33
0.0
 40
0.0
 40
0.0
 40
0.0
 40
0.0
 40
0.062500000000002
 40
0.062500000000002
 40
0.1250000000000039
 40
0.1250000000000039
 40
0.2500000000000026
 40
0.2500000000000026
 40
0.5000000000000029
 40
0.5000000000000029
 40
1.0
 40
1.0
 40
1.0
 40
1.0
 10
132.0342176364003
 20
145.1082074794915
 30
0.0
 10
132.0457980439882
 20
145.0982160540817
 30
0.0
 10
132.0591075707495
 20
145.0899586477001
 30
0.0
 10
132.0884090008357
 20
145.0842093628879
 30
0.0
 10
132.10322310072
 20
145.087819661596
 30
0.0
 10
132.1390515024228
 20
145.1107401208787
 30
0.0
 10
132.1531711267858
 20
145.1365356291242
 30
0.0
 10
132.1876752708743
 20
145.2146906535432
 30
0.0
 10
132.1987798215789
 20
145.2708334962792
 30
0.0
 10
132.2249559987951
 20
145.4417395518129
 30
0.0
 10
132.2291945253071
 20
145.5589546443918
 30
0.0
 10
132.2291945253071
 20
145.6765192436135
 30
0.0
  0
LINE
  5
190
330
1F
100
AcDbEntity
  8
0
  6
Continuous
 62
     7
370
    15
100
AcDbLine
 10
132.2291945253
 20
171.7225920784
 30
0.0
 11
132.2291945253
 21
145.6765192436
 31
0.0
  0
SPLINE
  5
191
330
1F
100
AcDbEntity
  8
0
  6
Continuous
 62
     7
370
    15
100
AcDbSpline
210
0.0
220
0.0
230
1.0
 70
     8
 71
     3
 72
    16
 73
    12
 74
     0
 42
0.00000001
 43
0.00000001
 12
1.0
 22
0.0
 32
0.0
 13
1.0
 23
0.0
 33
0.0
 40
0.0
 40
0.0
 40
0.0
 40
0.0
 40
0.4999999999999997
 40
0.4999999999999997
 40
0.7500000000000029
 40
0.7500000000000029
 40
0.875000000000003
 40
0.875000000000003
 40
0.9375000000000014
 40
0.9375000000000014
 40
1.0
 40
1.0
 40
1.0
 40
1.0
 10
132.2291945253071
 20
171.7225920783906
 30
0.0
 10
132.2291945253071
 20
171.7598659193008
 30
0.0
 10
132.2250482502292
 20
171.7941620113195
 30
0.0
 10
132.1990826548356
 20
171.8362602004557
 30
0.0
 10
132.1876217494583
 20
171.8491738420204
 30
0.0
 10
132.1533100116839
 20
171.86088569276
 30
0.0
 10
132.1392852757543
 20
171.8638991246162
 30
0.0
 10
132.1032623127205
 20
171.8606016618403
 30
0.0
 10
132.0885078036308
 20
171.8577801768525
 30
0.0
 10
132.0591556424839
 20
171.849098435861
 30
0.0
 10
132.0458157679798
 20
171.843809118254
 30
0.0
 10
132.0342176364315
 20
171.8385453885284
 30
0.0
  0
SPLINE
  5
192
330
1F
100
AcDbEntity
  8
0
  6
Continuous
 62
     7
370
    15
100
AcDbSpline
210
0.0
220
0.0
230
1.0
 70
     8
 71
     3
 72
    12
 73
     8
 74
     0
 42
0.00000001
 43
0.00000001
 12
1.0
 22
0.0
 32
0.0
 13
1.0
 23
0.0
 33
0.0
 40
0.0
 40
0.0
 40
0.0
 40
0.0
 40
0.25
 40
0.25
 40
0.5
 40
0.5
 40
1.0
 40
1.0
 40
1.0
 40
1.0
 10
132.0342176364385
 20
171.8385453885234
 30
0.0
 10
132.0040191949979
 20
171.824840040104
 30
0.0
 10
131.9706518396619
 20
171.8127924346536
 30
0.0
 10
131.897496563832
 20
171.7960324464239
 30
0.0
 10
131.8572438648081
 20
171.791623556883
 30
0.0
 10
131.7395151215332
 20
171.7945533219806
 30
0.0
 10
131.6690566734743
 20
171.8169200822364
 30
0.0
 10
131.612682238856
 20
171.843697090242
 30
0.0
  0
SPLINE
  5
193
330
1F
100
AcDbEntity
  8
0
  6
Continuous
 62
     7
370
    15
100
AcDbSpline
210
0.0
220
0.0
230
1.0
 70
     8
 71
     3
 72
    12
 73
     8
 74
     0
 42
0.00000001
 43
0.00000001
 12
1.0
 22
0.0
 32
0.0
 13
1.0
 23
0.0
 33
0.0
 40
0.0
 40
0.0
 40
0.0
 40
0.0
 40
0.5000000000000022
 40
0.5000000000000022
 40
0.7500000000000011
 40
0.7500000000000011
 40
1.0
 40
1.0
 40
1.0
 40
1.0
 10
131.1078741817475
 20
172.4481400386578
 30
0.0
 10
131.1516245336319
 20
172.3515758908994
 30
0.0
 10
131.2045146847564
 20
172.2499516277137
 30
0.0
 10
131.3161262278981
 20
172.0931971635306
 30
0.0
 10
131.3586855718016
 20
172.0403305938571
 30
0.0
 10
131.4636628071391
 20
171.9371744795427
 30
0.0
 10
131.5252300502336
 20
171.8852355636778
 30
0.0
 10
131.612682238856
 20
171.843697090242
 30
0.0
  0
SPLINE
  5
194
330
1F
100
AcDbEntity
  8
0
  6
Continuous
 62
     7
370
    15
100
AcDbSpline
210
0.0
220
0.0
230
1.0
 70
     8
 71
     3
 72
    16
 73
    12
 74
     0
 42
0.00000001
 43
0.00000001
 12
1.0
 22
0.0
 32
0.0
 13
1.0
 23
0.0
 33
0.0
 40
0.0
 40
0.0
 40
0.0
 40
0.0
 40
0.2500000000000004
 40
0.2500000000000004
 40
0.3750000000000004
 40
0.3750000000000004
 40
0.5000000000000006
 40
0.5000000000000006
 40
0.7500000000000002
 40
0.7500000000000002
 40
1.0
 40
1.0
 40
1.0
 40
1.0
 10
131.1078741817475
 20
134.7412537397066
 30
0.0
 10
130.946641704263
 20
135.2668880827195
 30
0.0
 10
130.8261618646234
 20
135.8597196102785
 30
0.0
 10
130.7037813473101
 20
136.8494913014034
 30
0.0
 10
130.6728036869126
 20
137.1962949472276
 30
0.0
 10
130.6311899492846
 20
137.9252835464677
 30
0.0
 10
130.6209540363519
 20
138.3005584985569
 30
0.0
 10
130.6207656392957
 20
139.4567585447769
 30
0.0
 10
130.6609103419333
 20
140.2681145575766
 30
0.0
 10
130.8250640968729
 20
141.9739588033645
 30
0.0
 10
130.9466157472825
 20
142.8423285960614
 30
0.0
 10
131.1078741817475
 20
143.7239711740301
 30
0.0
  0
LINE
  5
195
330
1F
100
AcDbEntity
  8
0
  6
Continuous
 62
     7
370
    15
100
AcDbLine
 10
130.2291945253
 20
145.0795838535
 30
0.0
 11
130.2291945253
 21
171.9868554907
 31
0.0
  0
LINE
  5
196
330
1F
100
AcDbEntity
  8
0
  6
Continuous
 62
     7
370
    15
100
AcDbLine
 10
95.9291945253
 20
145.0795838535
 30
0.0
 11
95.9291945253
 21
171.2405707531
 31
0.0
  0
LINE
  5
197
330
1F
100
AcDbEntity
  8
0
  6
Continuous
 62
     7
370
    15
100
AcDbLine
 10
95.9291945253
 20
134.5932103457
 30
0.0
 11
95.9291945253
 21
145.0795838535
 31
0.0
  0
LINE
  5
198
330
1F
100
AcDbEntity
  8
0
  6
Continuous
 62
     7
370
    15
100
AcDbLine
 10
130.2291945253
 20
133.8469256082
 30
0.0
 11
130.2291945253
 21
145.0795838535
 31
0.0
  0
LINE
  5
199
330
1F
100
AcDbEntity
  8
0
  6
Continuous
 62
     7
370
    15
100
AcDbLine
 10
94.4291945253
 20
135.3432103457
 30
0.0
 11
94.4291945253
 21
145.0795838535
 31
0.0
  0
LINE
  5
19A
330
1F
100
AcDbEntity
  8
0
  6
Continuous
 62
     7
370
    15
100
AcDbLine
 10
94.4291945253
 20
145.0795838535
 30
0.0
 11
94.4291945253
 21
170.4905707531
 31
0.0
  0
SPLINE
  5
19B
330
1F
100
AcDbEntity
  8
0
  6
Continuous
 62
     7
370
    15
100
AcDbSpline
210
0.0
220
0.0
230
1.0
 70
     8
 71
     3
 72
     8
 73
     4
 74
     0
 42
0.00000001
 43
0.00000001
 12
1.0
 22
0.0
 32
0.0
 13
1.0
 23
0.0
 33
0.0
 40
0.0000249638557296
 40
0.0000249638557296
 40
0.0000249638557296
 40
0.0000249638557296
 40
0.0049776420541172
 40
0.0049776420541172
 40
0.0049776420541172
 40
0.0049776420541172
 10
95.92919452530712
 20
130.8074653709293
 30
0.0
 10
97.57917075981668
 20
130.7711161579913
 30
0.0
 10
99.22917207956169
 20
130.7346915718592
 30
0.0
 10
100.8791945253071
 20
130.6981916936484
 30
0.0
  0
LINE
  5
19C
330
1F
100
AcDbEntity
  8
0
  6
Continuous
 62
     7
370
    15
100
AcDbLine
 10
95.9291945253
 20
130.8074653709
 30
0.0
 11
95.9291945253
 21
134.5932103457
 31
0.0
  0
LINE
  5
19D
330
1F
100
AcDbEntity
  8
0
  6
Continuous
 62
     7
370
    15
100
AcDbLine
 10
130.2291945253
 20
129.6843561996
 30
0.0
 11
130.2291945253
 21
133.8469256082
 31
0.0
  0
SPLINE
  5
19E
330
1F
100
AcDbEntity
  8
0
  6
Continuous
 62
     7
370
    15
100
AcDbSpline
210
0.0
220
0.0
230
1.0
 70
     8
 71
     3
 72
    13
 73
     9
 74
     0
 42
0.00000001
 43
0.00000001
 12
1.0
 22
0.0
 32
0.0
 13
1.0
 23
0.0
 33
0.0
 40
0.0
 40
0.0
 40
0.0
 40
0.0
 40
0.3215847526849677
 40
0.4843334633322193
 40
0.6483653932238873
 40
0.7954038195698537
 40
0.9461289082384644
 40
1.0
 40
1.0
 40
1.0
 40
1.0
 10
100.8791945253071
 20
130.6981916936483
 30
0.0
 10
101.1790344610206
 20
130.6416452549076
 30
0.0
 10
101.6306184160959
 20
130.5564816012028
 30
0.0
 10
102.1487767038
 20
130.4718183543094
 30
0.0
 10
102.4749186209633
 20
130.4215190118849
 30
0.0
 10
102.7016171216535
 20
130.3884966624236
 30
0.0
 10
102.8144749450044
 20
130.3726414830918
 30
0.0
 10
102.7991748379511
 20
130.3747935517426
 30
0.0
 10
102.7951462511549
 20
130.3753602010686
 30
0.0
  0
SPLINE
  5
19F
330
1F
100
AcDbEntity
  8
0
  6
Continuous
 62
     7
370
    15
100
AcDbSpline
210
0.0
220
0.0
230
1.0
 70
     8
 71
     3
 72
    37
 73
    33
 74
     0
 42
0.00000001
 43
0.00000001
 12
1.0
 22
0.0
 32
0.0
 13
1.0
 23
0.0
 33
0.0
 40
0.0
 40
0.0
 40
0.0
 40
0.0
 40
0.0082088346175164
 40
0.0568531972136972
 40
0.081651140827906
 40
0.1052884390662398
 40
0.1533128249123507
 40
0.1777418966329147
 40
0.2024231120724542
 40
0.2525315413255846
 40
0.277998673257396
 40
0.3043949669448032
 40
0.3579968697510288
 40
0.3852504953761501
 40
0.413171302389453
 40
0.4699154050270579
 40
0.4988002582485112
 40
0.5274352865224592
 40
0.556269178669174
 40
0.5857349725469946
 40
0.615421587924776
 40
0.6439014255725662
 40
0.701880487381926
 40
0.7314650872387425
 40
0.7590241491214005
 40
0.8151760451390261
 40
0.8438618849323981
 40
0.86985543917579
 40
0.922829507035619
 40
0.9498954013012062
 40
0.9743446826445187
 40
1.0
 40
1.0
 40
1.0
 40
1.0
 10
121.3762252247323
 20
129.9071383701291
 30
0.0
 10
121.3769696305253
 20
129.907028134184
 30
0.0
 10
121.3821252770121
 20
129.906264656027
 30
0.0
 10
121.3332809922019
 20
129.9135130700257
 30
0.0
 10
121.2327732558508
 20
129.9281181675916
 30
0.0
 10
121.0972643099559
 20
129.9474778016215
 30
0.0
 10
120.9144342760739
 20
129.9728384565508
 30
0.0
 10
120.6856352152596
 20
130.0029638505883
 30
0.0
 10
120.4234853734894
 20
130.0361481998411
 30
0.0
 10
120.1173304004362
 20
130.0723712455201
 30
0.0
 10
119.7715824554562
 20
130.1095441230611
 30
0.0
 10
119.3918007884393
 20
130.1474840121175
 30
0.0
 10
118.9740933421093
 20
130.1840804598363
 30
0.0
 10
118.5282086187766
 20
130.2167901098404
 30
0.0
 10
118.056375080859
 20
130.2467718779734
 30
0.0
 10
117.5611581661494
 20
130.2705618535815
 30
0.0
 10
117.0580818419184
 20
130.2864475989215
 30
0.0
 10
116.6774809373224
 20
130.2942791534639
 30
0.0
 10
116.2967070769848
 20
130.2979233610551
 30
0.0
 10
115.9164792603536
 20
130.297358889503
 30
0.0
 10
115.5457965570365
 20
130.2927184892363
 30
0.0
 10
115.0689405590354
 20
130.2817274451555
 30
0.0
 10
114.6180065098511
 20
130.2643218295503
 30
0.0
 10
114.2092366114178
 20
130.2429822854141
 30
0.0
 10
113.8346318687987
 20
130.2202785724849
 30
0.0
 10
113.5073971184787
 20
130.1965142645722
 30
0.0
 10
113.2398508664927
 20
130.1747065232671
 30
0.0
 10
113.0169036313471
 20
130.1553804416276
 30
0.0
 10
112.8515687705153
 20
130.1398824048995
 30
0.0
 10
112.7531852497266
 20
130.1303409943534
 30
0.0
 10
112.7023149605352
 20
130.1253173128769
 30
0.0
 10
112.7084018827116
 20
130.1259183092759
 30
0.0
 10
112.7115186010211
 20
130.1262260405769
 30
0.0
  0
SPLINE
  5
1A0
330
1F
100
AcDbEntity
  8
0
  6
Continuous
 62
     7
370
    15
100
AcDbSpline
210
0.0
220
0.0
230
1.0
 70
     8
 71
     3
 72
     8
 73
     4
 74
     0
 42
0.00000001
 43
0.00000001
 12
1.0
 22
0.0
 32
0.0
 13
1.0
 23
0.0
 33
0.0
 40
0.0
 40
0.0
 40
0.0
 40
0.0
 40
1.0
 40
1.0
 40
1.0
 40
1.0
 10
94.42919452530488
 20
131.5559756704872
 30
0.0
 10
94.89595513668267
 20
131.3264461781031
 30
0.0
 10
95.40170268346276
 20
131.0745154030117
 30
0.0
 10
95.92919452530712
 20
130.8074653709293
 30
0.0
  0
LINE
  5
1A1
330
1F
100
AcDbEntity
  8
0
  6
Continuous
 62
     7
370
    15
100
AcDbLine
 10
94.4291945253
 20
131.5559756705
 30
0.0
 11
94.4291945253
 21
135.3432103457
 31
0.0
  0
LINE
  5
1A2
330
1F
100
AcDbEntity
  8
0
  6
Continuous
 62
     7
370
    15
100
AcDbLine
 10
130.2291945253
 20
173.7245537687
 30
0.0
 11
130.2291945253
 21
171.9868554907
 31
0.0
  0
LINE
  5
1A3
330
1F
100
AcDbEntity
  8
0
  6
Continuous
 62
     7
370
    15
100
AcDbLine
 10
95.9291945253
 20
172.8628183804
 30
0.0
 11
95.9291945253
 21
171.2405707531
 31
0.0
  0
SPLINE
  5
1A4
330
1F
100
AcDbEntity
  8
0
  6
Continuous
 62
     7
370
    15
100
AcDbSpline
210
0.0
220
0.0
230
1.0
 70
     8
 71
     3
 72
    10
 73
     6
 74
     0
 42
0.00000001
 43
0.00000001
 12
1.0
 22
0.0
 32
0.0
 13
1.0
 23
0.0
 33
0.0
 40
0.0
 40
0.0
 40
0.0
 40
0.0
 40
0.1209913321306093
 40
0.5024128609468697
 40
1.0
 40
1.0
 40
1.0
 40
1.0
 10
130.6357854796009
 20
173.5007794940261
 30
0.0
 10
130.6317582106444
 20
173.5098627054744
 30
0.0
 10
130.6150350976525
 20
173.5475804673169
 30
0.0
 10
130.7334260580798
 20
173.2796366152981
 30
0.0
 10
130.972525396256
 20
172.7486944938017
 30
0.0
 10
131.1078741817475
 20
172.4481400386578
 30
0.0
  0
LINE
  5
1A5
330
1F
100
AcDbEntity
  8
0
  6
Continuous
 62
     7
370
    15
100
AcDbLine
 10
94.4291945253
 20
171.9967929766
 30
0.0
 11
94.4291945253
 21
170.4905707531
 31
0.0
  0
LINE
  5
1A6
330
1F
100
AcDbEntity
  8
0
  6
HIDDEN
 62
     7
370
     0
100
AcDbLine
 10
172.2291945253
 20
179.1141929605
 30
0.0
 11
166.6291945253
 21
179.1141929605
 31
0.0
  0
LINE
  5
1A7
330
1F
100
AcDbEntity
  8
0
  6
HIDDEN
 62
     7
370
     0
100
AcDbLine
 10
172.4291945253
 20
179.6244549841
 30
0.0
 11
166.4291945253
 21
179.6244549841
 31
0.0
  0
LINE
  5
1A8
330
1F
100
AcDbEntity
  8
0
  6
HIDDEN
 62
     7
370
     0
100
AcDbLine
 10
172.2291945253
 20
179.8041929605
 30
0.0
 11
166.6291945253
 21
179.8041929605
 31
0.0
  0
LINE
  5
1A9
330
1F
100
AcDbEntity
  8
0
  6
HIDDEN
 62
     7
370
     0
100
AcDbLine
 10
172.4291945253
 20
178.2444549841
 30
0.0
 11
166.4291945253
 21
178.2444549841
 31
0.0
  0
LINE
  5
1AA
330
1F
100
AcDbEntity
  8
0
  6
HIDDEN
 62
     7
370
     0
100
AcDbLine
 10
172.2291945253
 20
178.4241929605
 30
0.0
 11
166.6291945253
 21
178.4241929605
 31
0.0
  0
LINE
  5
1AB
330
1F
100
AcDbEntity
  8
0
  6
HIDDEN
 62
     7
370
     0
100
AcDbLine
 10
172.4291945253
 20
174.8044549841
 30
0.0
 11
166.4291945253
 21
174.8044549841
 31
0.0
  0
LINE
  5
1AC
330
1F
100
AcDbEntity
  8
0
  6
HIDDEN
 62
     7
370
     0
100
AcDbLine
 10
172.4291945253
 20
177.5544549841
 30
0.0
 11
166.4291945253
 21
177.5544549841
 31
0.0
  0
LINE
  5
1AD
330
1F
100
AcDbEntity
  8
0
  6
HIDDEN
 62
     7
370
     0
100
AcDbLine
 10
172.4291945253
 20
180.3144549841
 30
0.0
 11
166.4291945253
 21
180.3144549841
 31
0.0
  0
LINE
  5
1AE
330
1F
100
AcDbEntity
  8
0
  6
HIDDEN
 62
     7
370
     0
100
AcDbLine
 10
172.4291945253
 20
178.9344549841
 30
0.0
 11
166.4291945253
 21
178.9344549841
 31
0.0
  0
LINE
  5
1AF
330
1F
100
AcDbEntity
  8
0
  6
HIDDEN
 62
     7
370
     0
100
AcDbLine
 10
172.2291945253
 20
177.7341929605
 30
0.0
 11
166.6291945253
 21
177.7341929605
 31
0.0
  0
LINE
  5
1B0
330
1F
100
AcDbEntity
  8
0
  6
HIDDEN
 62
     7
370
     0
100
AcDbLine
 10
172.4291945253
 20
180.8644549841
 30
0.0
 11
166.4291945253
 21
180.8644549841
 31
0.0
  0
LINE
  5
1B1
330
1F
100
AcDbEntity
  8
0
  6
HIDDEN
 62
     7
370
     0
100
AcDbLine
 10
172.2891945253
 20
181.0044549841
 30
0.0
 11
166.5691945253
 21
181.0044549841
 31
0.0
  0
LINE
  5
1B2
330
1F
100
AcDbEntity
  8
0
  6
HIDDEN
 62
     7
370
     0
100
AcDbLine
 10
171.909579283
 20
174.5044549841
 30
0.0
 11
166.9488097676
 21
174.5044549841
 31
0.0
  0
LINE
  5
1B3
330
1F
100
AcDbEntity
  8
0
  6
HIDDEN
 62
     7
370
     0
100
AcDbLine
 10
171.9291945253
 20
176.1478306571
 30
0.0
 11
166.9291945253
 21
176.1478306571
 31
0.0
  0
LINE
  5
1B4
330
1F
100
AcDbEntity
  8
0
  6
HIDDEN
 62
     7
370
     0
100
AcDbLine
 10
222.6061797854
 20
149.4044549841
 30
0.0
 11
226.1726377555
 21
149.4044549841
 31
0.0
  0
LINE
  5
1B5
330
1F
100
AcDbEntity
  8
0
  6
HIDDEN
 62
     7
370
     0
100
AcDbLine
 10
219.1726377555
 20
149.4044549841
 30
0.0
 11
222.6061797854
 21
149.4044549841
 31
0.0
  0
LINE
  5
1B6
330
1F
100
AcDbEntity
  8
0
  6
HIDDEN
 62
     7
370
     0
100
AcDbLine
 10
222.6061797854
 20
149.6044549841
 30
0.0
 11
226.1726377555
 21
149.6044549841
 31
0.0
  0
LINE
  5
1B7
330
1F
100
AcDbEntity
  8
0
  6
HIDDEN
 62
     7
370
     0
100
AcDbLine
 10
219.1726377555
 20
149.6044549841
 30
0.0
 11
222.6061797854
 21
149.6044549841
 31
0.0
  0
LINE
  5
1B8
330
1F
100
AcDbEntity
  8
0
  6
HIDDEN
 62
     7
370
     0
100
AcDbLine
 10
222.6251677768
 20
140.8044549841
 30
0.0
 11
225.1726377555
 21
140.8044549841
 31
0.0
  0
LINE
  5
1B9
330
1F
100
AcDbEntity
  8
0
  6
HIDDEN
 62
     7
370
     0
100
AcDbLine
 10
220.1726377555
 20
140.8044549841
 30
0.0
 11
222.6251677768
 21
140.8044549841
 31
0.0
  0
LINE
  5
1BA
330
1F
100
AcDbEntity
  8
0
  6
HIDDEN
 62
     7
370
     0
100
AcDbLine
 10
222.6251677768
 20
146.1044549841
 30
0.0
 11
225.1726377555
 21
146.1044549841
 31
0.0
  0
LINE
  5
1BB
330
1F
100
AcDbEntity
  8
0
  6
HIDDEN
 62
     7
370
     0
100
AcDbLine
 10
220.1726377555
 20
146.1044549841
 30
0.0
 11
222.6251677768
 21
146.1044549841
 31
0.0
  0
LINE
  5
1BC
330
1F
100
AcDbEntity
  8
0
  6
HIDDEN
 62
     7
370
     0
100
AcDbLine
 10
222.6422569692
 20
139.9044549841
 30
0.0
 11
224.2726377555
 21
139.9044549841
 31
0.0
  0
LINE
  5
1BD
330
1F
100
AcDbEntity
  8
0
  6
HIDDEN
 62
     7
370
     0
100
AcDbLine
 10
221.0726377555
 20
139.9044549841
 30
0.0
 11
222.6422569692
 21
139.9044549841
 31
0.0
  0
SPLINE
  5
1BE
330
1F
100
AcDbEntity
  8
0
  6
HIDDEN
 62
     7
370
     0
100
AcDbSpline
210
0.0
220
0.0
230
1.0
 70
     8
 71
     3
 72
    12
 73
     8
 74
     0
 42
0.00000001
 43
0.00000001
 12
1.0
 22
0.0
 32
0.0
 13
1.0
 23
0.0
 33
0.0
 40
0.0
 40
0.0
 40
0.0
 40
0.0
 40
0.2357874155417647
 40
0.4731981586287052
 40
0.7086272368277526
 40
0.9418061608005124
 40
0.9999999999999999
 40
0.9999999999999999
 40
0.9999999999999999
 40
0.9999999999999999
 10
224.3316765831052
 20
150.0533483212325
 30
0.0
 10
224.3738527346268
 20
150.060017602682
 30
0.0
 10
224.4584954081647
 20
150.0734020816376
 30
0.0
 10
224.5605758109773
 20
150.0881713002925
 30
0.0
 10
224.6242489922398
 20
150.0969781911895
 30
0.0
 10
224.6495681496396
 20
150.1002704113993
 30
0.0
 10
224.6391627068091
 20
150.098651257405
 30
0.0
 10
224.6370845006643
 20
150.0983278751295
 30
0.0
  0
SPLINE
  5
1BF
330
1F
100
AcDbEntity
  8
0
  6
HIDDEN
 62
     7
370
     0
100
AcDbSpline
210
0.0
220
0.0
230
1.0
 70
     8
 71
     3
 72
    10
 73
     6
 74
     0
 42
0.00000001
 43
0.00000001
 12
1.0
 22
0.0
 32
0.0
 13
1.0
 23
0.0
 33
0.0
 40
0.0
 40
0.0
 40
0.0
 40
0.0
 40
0.3342374952795682
 40
0.6702707527246797
 40
1.0
 40
1.0
 40
1.0
 40
1.0
 10
224.621378157466
 20
150.0958412110126
 30
0.0
 10
224.6031857111565
 20
150.0931273062541
 30
0.0
 10
224.566703075743
 20
150.0876849157056
 30
0.0
 10
224.4673109626821
 20
150.0727643655727
 30
0.0
 10
224.385864011979
 20
150.0597016174999
 30
0.0
 10
224.3455261414054
 20
150.0532320881124
 30
0.0
  0
SPLINE
  5
1C0
330
1F
100
AcDbEntity
  8
0
  6
HIDDEN
 62
     7
370
     0
100
AcDbSpline
210
0.0
220
0.0
230
1.0
 70
     8
 71
     3
 72
    11
 73
     7
 74
     0
 42
0.00000001
 43
0.00000001
 12
1.0
 22
0.0
 32
0.0
 13
1.0
 23
0.0
 33
0.0
 40
0.0
 40
0.0
 40
0.0
 40
0.0
 40
0.2545431021726927
 40
0.5095189175203538
 40
0.7593574703557471
 40
1.0
 40
1.0
 40
1.0
 40
1.0
 10
224.3455261414054
 20
150.0532320881124
 30
0.0
 10
224.2728622371831
 20
150.0417259867179
 30
0.0
 10
224.1274109029844
 20
150.0186942240129
 30
0.0
 10
223.9583269762404
 20
150.0004529358741
 30
0.0
 10
223.8462965898022
 20
150.0009475064194
 30
0.0
 10
223.8332681506364
 20
150.0160640229485
 30
0.0
 10
223.8268760660685
 20
150.0234805715308
 30
0.0
  0
LINE
  5
1C1
330
1F
100
AcDbEntity
  8
0
  6
HIDDEN
 62
     7
370
     0
100
AcDbLine
 10
223.8590514603
 20
150.0532320881
 30
0.0
 11
223.8762311959
 21
150.0709157734
 31
0.0
  0
SPLINE
  5
1C2
330
1F
100
AcDbEntity
  8
0
  6
HIDDEN
 62
     7
370
     0
100
AcDbSpline
210
0.0
220
0.0
230
1.0
 70
     8
 71
     3
 72
    15
 73
    11
 74
     0
 42
0.00000001
 43
0.00000001
 12
1.0
 22
0.0
 32
0.0
 13
1.0
 23
0.0
 33
0.0
 40
0.0
 40
0.0
 40
0.0
 40
0.0
 40
0.1268036956061633
 40
0.2539263442699678
 40
0.3799872671766092
 40
0.5048410097957912
 40
0.629022716774635
 40
0.7532063308916076
 40
0.8780553361591321
 40
1.0
 40
1.0
 40
1.0
 40
1.0
 10
222.1974414147935
 20
150.0536118085058
 30
0.0
 10
222.1644357753776
 20
150.0603276630455
 30
0.0
 10
222.0983414764922
 20
150.0737762647108
 30
0.0
 10
221.9680762134654
 20
150.0884860142255
 30
0.0
 10
221.8332496269289
 20
150.0977162854168
 30
0.0
 10
221.7068034857881
 20
150.1006533914362
 30
0.0
 10
221.603120922547
 20
150.0973279128781
 30
0.0
 10
221.5338824507759
 20
150.087904995333
 30
0.0
 10
221.5031376585075
 20
150.073360746027
 30
0.0
 10
221.5186710325125
 20
150.0602982995997
 30
0.0
 10
221.5263463188284
 20
150.0538439377667
 30
0.0
  0
SPLINE
  5
1C3
330
1F
100
AcDbEntity
  8
0
  6
HIDDEN
 62
     7
370
     0
100
AcDbSpline
210
0.0
220
0.0
230
1.0
 70
     8
 71
     3
 72
    15
 73
    11
 74
     0
 42
0.00000001
 43
0.00000001
 12
1.0
 22
0.0
 32
0.0
 13
1.0
 23
0.0
 33
0.0
 40
0.0
 40
0.0
 40
0.0
 40
0.0
 40
0.1262564375372736
 40
0.2533820972842327
 40
0.3794454811308611
 40
0.5043002379034479
 40
0.6284814530466203
 40
0.7526634909000788
 40
0.8775104621121832
 40
1.0
 40
1.0
 40
1.0
 40
1.0
 10
221.0084564921101
 20
150.0541069930653
 30
0.0
 10
220.9662290027847
 20
150.0607927764836
 30
0.0
 10
220.8814833057177
 20
150.0742103721135
 30
0.0
 10
220.7801453880701
 20
150.088911904265
 30
0.0
 10
220.713670459155
 20
150.0981544544102
 30
0.0
 10
220.690349174915
 20
150.1011024610172
 30
0.0
 10
220.7117439842586
 20
150.0977856818208
 30
0.0
 10
220.7753288584361
 20
150.0883690123035
 30
0.0
 10
220.8723738453415
 20
150.0738077801453
 30
0.0
 10
220.9541222934147
 20
150.0607095724394
 30
0.0
 10
220.99460693381
 20
150.0542228899238
 30
0.0
  0
SPLINE
  5
1C4
330
1F
100
AcDbEntity
  8
0
  6
HIDDEN
 62
     7
370
     0
100
AcDbSpline
210
0.0
220
0.0
230
1.0
 70
     8
 71
     3
 72
    10
 73
     6
 74
     0
 42
0.00000001
 43
0.00000001
 12
1.0
 22
0.0
 32
0.0
 13
1.0
 23
0.0
 33
0.0
 40
0.0
 40
0.0
 40
0.0
 40
0.0
 40
0.3352034878120583
 40
0.6709763099065886
 40
1.0
 40
1.0
 40
1.0
 40
1.0
 10
220.99460693381
 20
150.0542228899238
 30
0.0
 10
221.0669100503321
 20
150.0428120117826
 30
0.0
 10
221.2116390883128
 20
150.0199708744246
 30
0.0
 10
221.3860993553798
 20
150.000445588949
 30
0.0
 10
221.4485597090304
 20
150.0040430228897
 30
0.0
 10
221.4794728315663
 20
150.0058234789665
 30
0.0
  0
SPLINE
  5
1C5
330
1F
100
AcDbEntity
  8
0
  6
HIDDEN
 62
     7
370
     0
100
AcDbSpline
210
0.0
220
0.0
230
1.0
 70
     8
 71
     3
 72
     9
 73
     5
 74
     0
 42
0.00000001
 43
0.00000001
 12
1.0
 22
0.0
 32
0.0
 13
1.0
 23
0.0
 33
0.0
 40
0.0
 40
0.0
 40
0.0
 40
0.0
 40
0.023559420701782
 40
1.0
 40
1.0
 40
1.0
 40
1.0
 10
221.5132542066504
 20
150.0244928979264
 30
0.0
 10
221.5135210045878
 20
150.0246358438141
 30
0.0
 10
221.5248454739237
 20
150.0307033057238
 30
0.0
 10
221.5027027090676
 20
150.0426032760271
 30
0.0
 10
221.4810816149243
 20
150.0542228899238
 30
0.0
  0
SPLINE
  5
1C6
330
1F
100
AcDbEntity
  8
0
  6
HIDDEN
 62
     7
370
     0
100
AcDbSpline
210
0.0
220
0.0
230
1.0
 70
     8
 71
     3
 72
    15
 73
    11
 74
     0
 42
0.00000001
 43
0.00000001
 12
1.0
 22
0.0
 32
0.0
 13
1.0
 23
0.0
 33
0.0
 40
0.0
 40
0.0
 40
0.0
 40
0.0
 40
0.0116175993748409
 40
0.1555069661106543
 40
0.2981945202331581
 40
0.4395187662437164
 40
0.5800879233514411
 40
0.7206660721474648
 40
0.8620040527068137
 40
0.9999999999999999
 40
0.9999999999999999
 40
0.9999999999999999
 40
0.9999999999999999
 10
221.4639012537104
 20
150.0718938856198
 30
0.0
 10
221.4633563033864
 20
150.0724162001946
 30
0.0
 10
221.4560618900705
 20
150.0794076234875
 30
0.0
 10
221.4842528250932
 20
150.0888027341659
 30
0.0
 10
221.5496798469711
 20
150.0982789950374
 30
0.0
 10
221.6538278529594
 20
150.1010836321517
 30
0.0
 10
221.7788801971524
 20
150.0977236932689
 30
0.0
 10
221.9119317441637
 20
150.0882420051304
 30
0.0
 10
222.0396774187521
 20
150.0736524715183
 30
0.0
 10
222.1057072413826
 20
150.060569978284
 30
0.0
 10
222.138327152589
 20
150.0541069930653
 30
0.0
  0
SPLINE
  5
1C7
330
1F
100
AcDbEntity
  8
0
  6
HIDDEN
 62
     7
370
     0
100
AcDbSpline
210
0.0
220
0.0
230
1.0
 70
     8
 71
     3
 72
    12
 73
     8
 74
     0
 42
0.00000001
 43
0.00000001
 12
1.0
 22
0.0
 32
0.0
 13
1.0
 23
0.0
 33
0.0
 40
0.0
 40
0.0
 40
0.0
 40
0.0
 40
0.2058321750920618
 40
0.4120750343576957
 40
0.6141697879284095
 40
0.8133029339855833
 40
1.0
 40
1.0
 40
1.0
 40
1.0
 10
222.1383271525891
 20
150.0541069930653
 30
0.0
 10
222.1972379124545
 20
150.0426139023311
 30
0.0
 10
222.3151769731709
 20
150.0196047894118
 30
0.0
 10
222.5428130805525
 20
150.001078386934
 30
0.0
 10
222.7735351351992
 20
150.002369475202
 30
0.0
 10
222.9854973429117
 20
150.0218100416924
 30
0.0
 10
223.0914317135222
 20
150.0433979125047
 30
0.0
 10
223.1426916604219
 20
150.0538439377667
 30
0.0
  0
SPLINE
  5
1C8
330
1F
100
AcDbEntity
  8
0
  6
HIDDEN
 62
     7
370
     0
100
AcDbSpline
210
0.0
220
0.0
230
1.0
 70
     8
 71
     3
 72
    15
 73
    11
 74
     0
 42
0.00000001
 43
0.00000001
 12
1.0
 22
0.0
 32
0.0
 13
1.0
 23
0.0
 33
0.0
 40
0.0
 40
0.0
 40
0.0
 40
0.0
 40
0.141366408993403
 40
0.2830884393770186
 40
0.4236273828539155
 40
0.5628253714559958
 40
0.7012816621887783
 40
0.8397484088638343
 40
0.9789644178158583
 40
1.0
 40
1.0
 40
1.0
 40
1.0
 10
223.1426916604219
 20
150.0538439377667
 30
0.0
 10
223.1756953153324
 20
150.0605459980439
 30
0.0
 10
223.2417856491597
 20
150.0739669783034
 30
0.0
 10
223.3720260913666
 20
150.088616146305
 30
0.0
 10
223.5068917293737
 20
150.0977855943331
 30
0.0
 10
223.6331508966991
 20
150.1006372674593
 30
0.0
 10
223.7375144386246
 20
150.0973080886524
 30
0.0
 10
223.8042406258924
 20
150.0875858326825
 30
0.0
 10
223.8332426144823
 20
150.0776796505953
 30
0.0
 10
223.826683441523
 20
150.070290885
 30
0.0
 10
223.8258224452555
 20
150.0693209914419
 30
0.0
  0
LINE
  5
1C9
330
1F
100
AcDbEntity
  8
0
  6
HIDDEN
 62
     7
370
     0
100
AcDbLine
 10
223.8137867564
 20
150.0536118085
 30
0.0
 11
223.7936382192
 21
150.0274593367
 31
0.0
  0
SPLINE
  5
1CA
330
1F
100
AcDbEntity
  8
0
  6
HIDDEN
 62
     7
370
     0
100
AcDbSpline
210
0.0
220
0.0
230
1.0
 70
     8
 71
     3
 72
    11
 73
     7
 74
     0
 42
0.00000001
 43
0.00000001
 12
1.0
 22
0.0
 32
0.0
 13
1.0
 23
0.0
 33
0.0
 40
0.0
 40
0.0
 40
0.0
 40
0.0
 40
0.2597163829176058
 40
0.5142029912782691
 40
0.7649547206360827
 40
0.9999999999999999
 40
0.9999999999999999
 40
0.9999999999999999
 40
0.9999999999999999
 10
223.789242041301
 20
150.0217531696158
 30
0.0
 10
223.8014541809187
 20
150.0144068974833
 30
0.0
 10
223.8256325506112
 20
149.9998622813029
 30
0.0
 10
223.9544012458599
 20
150.0020354795853
 30
0.0
 10
224.1269788512583
 20
150.0212680210485
 30
0.0
 10
224.2649307270943
 20
150.0428878873159
 30
0.0
 10
224.3316765831052
 20
150.0533483212325
 30
0.0
  0
LINE
  5
1CB
330
1F
100
AcDbEntity
  8
0
  6
HIDDEN
 62
     7
370
     0
100
AcDbLine
 10
223.8285267508
 20
148.4044549841
 30
0.0
 11
223.1426916604
 21
148.4044549841
 31
0.0
  0
LINE
  5
1CC
330
1F
100
AcDbEntity
  8
0
  6
HIDDEN
 62
     7
370
     0
100
AcDbLine
 10
222.1383271526
 20
148.4044549841
 30
0.0
 11
221.4622396671
 21
148.4044549841
 31
0.0
  0
LINE
  5
1CD
330
1F
100
AcDbEntity
  8
0
  6
HIDDEN
 62
     7
370
     0
100
AcDbLine
 10
223.1426916604
 20
148.4044549841
 30
0.0
 11
222.1383271526
 21
148.4044549841
 31
0.0
  0
LINE
  5
1CE
330
1F
100
AcDbEntity
  8
0
  6
HIDDEN
 62
     7
370
     0
100
AcDbLine
 10
224.3316765831
 20
148.4044549841
 30
0.0
 11
223.8285267508
 21
148.4044549841
 31
0.0
  0
LINE
  5
1CF
330
1F
100
AcDbEntity
  8
0
  6
HIDDEN
 62
     7
370
     0
100
AcDbLine
 10
221.4622396671
 20
148.4044549841
 30
0.0
 11
220.9946069338
 21
148.4044549841
 31
0.0
  0
LINE
  5
1D0
330
1F
100
AcDbEntity
  8
0
  6
HIDDEN
 62
     7
370
     0
100
AcDbLine
 10
224.6423536213
 20
148.4044549841
 30
0.0
 11
224.3316765831
 21
148.4044549841
 31
0.0
  0
LINE
  5
1D1
330
1F
100
AcDbEntity
  8
0
  6
HIDDEN
 62
     7
370
     0
100
AcDbLine
 10
220.9946069338
 20
148.4044549841
 30
0.0
 11
220.6977794539
 21
148.4044549841
 31
0.0
  0
LINE
  5
1D2
330
1F
100
AcDbEntity
  8
0
  6
HIDDEN
 62
     7
370
     0
100
AcDbLine
 10
213.8030412617
 20
145.3444549841
 30
0.0
 11
215.5432323294
 21
145.3444549841
 31
0.0
  0
LINE
  5
1D3
330
1F
100
AcDbEntity
  8
0
  6
HIDDEN
 62
     7
370
     0
100
AcDbLine
 10
213.8030412617
 20
145.3444549841
 30
0.0
 11
213.5160809857
 21
146.8467164129
 31
0.0
  0
LINE
  5
1D4
330
1F
100
AcDbEntity
  8
0
  6
HIDDEN
 62
     7
370
     0
100
AcDbLine
 10
213.5160809857
 20
146.8467164129
 30
0.0
 11
213.2668583812
 21
150.0044549841
 31
0.0
  0
LINE
  5
1D5
330
1F
100
AcDbEntity
  8
0
  6
HIDDEN
 62
     7
370
     0
100
AcDbLine
 10
222.7726377555
 20
149.885061882
 30
0.0
 11
222.5283784638
 21
150.1044549843
 31
0.0
  0
LINE
  5
1D6
330
1F
100
AcDbEntity
  8
0
  6
HIDDEN
 62
     7
370
     0
100
AcDbLine
 10
222.7726377555
 20
149.885061882
 30
0.0
 11
223.0168970472
 21
150.1044549843
 31
0.0
  0
LINE
  5
1D7
330
1F
100
AcDbEntity
  8
0
  6
HIDDEN
 62
     7
370
     0
100
AcDbLine
 10
222.7726377555
 20
149.5262317589
 30
0.0
 11
222.7726377555
 21
149.885061882
 31
0.0
  0
LINE
  5
1D8
330
1F
100
AcDbEntity
  8
0
  6
HIDDEN
 62
     7
370
     0
100
AcDbLine
 10
221.4870625361
 20
149.635395092
 30
0.0
 11
221.4973637578
 21
149.6355785646
 31
0.0
  0
SPLINE
  5
1D9
330
1F
100
AcDbEntity
  8
0
  6
HIDDEN
 62
     7
370
     0
100
AcDbSpline
210
0.0
220
0.0
230
1.0
 70
    24
 71
     3
 72
     9
 73
     5
 74
     0
 42
0.00000001
 43
0.00000001
 12
1.0
 22
0.0
 32
0.0
 13
1.0
 23
0.0
 33
0.0
 40
0.0
 40
0.0
 40
0.0
 40
0.0
 40
0.2568062667921964
 40
1.0
 40
1.0
 40
1.0
 40
1.0
 10
222.7726377554877
 20
149.4751009129083
 30
0.0
 10
222.7726377554877
 20
149.4715539527209
 30
0.0
 10
222.7726377554877
 20
149.4577421395136
 30
0.0
 10
222.7726377554877
 20
149.4970318742685
 30
0.0
 10
222.7726377554877
 20
149.5262317589179
 30
0.0
  0
LINE
  5
1DA
330
1F
100
AcDbEntity
  8
0
  6
HIDDEN
 62
     7
370
     0
100
AcDbLine
 10
224.046618982
 20
149.6356275129
 30
0.0
 11
224.0582129749
 21
149.635395092
 31
0.0
  0
SPLINE
  5
1DB
330
1F
100
AcDbEntity
  8
0
  6
HIDDEN
 62
     7
370
     0
100
AcDbSpline
210
0.0
220
0.0
230
1.0
 70
     8
 71
     3
 72
    11
 73
     7
 74
     0
 42
0.00000001
 43
0.00000001
 12
1.0
 22
0.0
 32
0.0
 13
1.0
 23
0.0
 33
0.0
 40
0.0
 40
0.0
 40
0.0
 40
0.0
 40
0.336783113141471
 40
0.6790111347689531
 40
0.9923717339918599
 40
1.0
 40
1.0
 40
1.0
 40
1.0
 10
214.8157437366898
 20
149.4027393603627
 30
0.0
 10
214.8942182178762
 20
149.3824449253787
 30
0.0
 10
215.0524359088515
 20
149.3415279470913
 30
0.0
 10
215.2920713763618
 20
149.3779660739532
 30
0.0
 10
215.4392287442142
 20
149.4390287892756
 30
0.0
 10
215.5056141068994
 20
149.4771890788931
 30
0.0
 10
215.5071917479345
 20
149.4780959540893
 30
0.0
  0
SPLINE
  5
1DC
330
1F
100
AcDbEntity
  8
0
  6
HIDDEN
 62
     7
370
     0
100
AcDbSpline
210
0.0
220
0.0
230
1.0
 70
     8
 71
     3
 72
    14
 73
    10
 74
     0
 42
0.00000001
 43
0.00000001
 12
1.0
 22
0.0
 32
0.0
 13
1.0
 23
0.0
 33
0.0
 40
0.0
 40
0.0
 40
0.0
 40
0.0
 40
0.0076078452721773
 40
0.1629874631621348
 40
0.3207220632347738
 40
0.49000605251822
 40
0.6629673458728418
 40
0.8292185822131269
 40
1.0
 40
1.0
 40
1.0
 40
1.0
 10
230.0380837630409
 20
149.4780959540893
 30
0.0
 10
230.0396613885132
 20
149.4771891370023
 30
0.0
 10
230.0734598116341
 20
149.457761846978
 30
0.0
 10
230.1424767677275
 20
149.4237659646814
 30
0.0
 10
230.2516792044482
 20
149.3856766492401
 30
0.0
 10
230.3692573778063
 20
149.3614851551802
 30
0.0
 10
230.491067605647
 20
149.3550929367012
 30
0.0
 10
230.6133477360868
 20
149.3663008238473
 30
0.0
 10
230.6904582710778
 20
149.3904848261298
 30
0.0
 10
230.7295317742854
 20
149.4027393603626
 30
0.0
  0
LINE
  5
1DD
330
1F
100
AcDbEntity
  8
0
  6
HIDDEN
 62
     7
370
     0
100
AcDbLine
 10
230.7295317743
 20
149.4027393604
 30
0.0
 11
232.0291945253
 21
149.885061882
 31
0.0
  0
LINE
  5
1DE
330
1F
100
AcDbEntity
  8
0
  6
HIDDEN
 62
     7
370
     0
100
AcDbLine
 10
214.8157437367
 20
149.4027393604
 30
0.0
 11
213.5160809857
 21
149.885061882
 31
0.0
  0
LINE
  5
1DF
330
1F
100
AcDbEntity
  8
0
  6
HIDDEN
 62
     7
370
     0
100
AcDbLine
 10
216.3065021927
 20
149.635395092
 30
0.0
 11
216.3208961504
 21
149.6357533604
 31
0.0
  0
LINE
  5
1E0
330
1F
100
AcDbEntity
  8
0
  6
HIDDEN
 62
     7
370
     0
100
AcDbLine
 10
229.2225848204
 20
149.6358482928
 30
0.0
 11
229.2387733183
 21
149.635395092
 31
0.0
  0
LINE
  5
1E1
330
1F
100
AcDbEntity
  8
0
  6
HIDDEN
 62
     7
370
     0
100
AcDbLine
 10
213.5160809857
 20
149.885061882
 30
0.0
 11
213.271821694
 21
150.1044549843
 31
0.0
  0
LINE
  5
1E2
330
1F
100
AcDbEntity
  8
0
  6
HIDDEN
 62
     7
370
     0
100
AcDbLine
 10
232.0291945253
 20
149.885061882
 30
0.0
 11
232.273453817
 21
150.1044549843
 31
0.0
  0
LINE
  5
1E3
330
1F
100
AcDbEntity
  8
0
  6
HIDDEN
 62
     7
370
     0
100
AcDbLine
 10
132.2153898006
 20
171.7993268065
 30
0.0
 11
132.2291945253
 21
171.7225920784
 31
0.0
  0
LINE
  5
1E4
330
1F
100
AcDbEntity
  8
0
  6
HIDDEN
 62
     7
370
     0
100
AcDbLine
 10
95.9594229649
 20
150.3044549841
 30
0.0
 11
95.9594229649
 21
165.617406027
 31
0.0
  0
LINE
  5
1E5
330
1F
100
AcDbEntity
  8
0
  6
HIDDEN
 62
     7
370
     0
100
AcDbLine
 10
95.9594229649
 20
134.9915039412
 30
0.0
 11
95.9594229649
 21
150.3044549841
 31
0.0
  0
LINE
  5
1E6
330
1F
100
AcDbEntity
  8
0
  6
HIDDEN
 62
     7
370
     0
100
AcDbLine
 10
102.4594229649
 20
150.3044549841
 30
0.0
 11
102.4594229649
 21
164.6508651456
 31
0.0
  0
LINE
  5
1E7
330
1F
100
AcDbEntity
  8
0
  6
HIDDEN
 62
     7
370
     0
100
AcDbLine
 10
102.4594229649
 20
135.9580448226
 30
0.0
 11
102.4594229649
 21
150.3044549841
 31
0.0
  0
LINE
  5
1E8
330
1F
100
AcDbEntity
  8
0
  6
HIDDEN
 62
     7
370
     0
100
AcDbLine
 10
113.7403559541
 20
130.2130208604
 30
0.0
 11
113.9204842709
 21
130.2250346499
 31
0.0
  0
SPLINE
  5
1E9
330
1F
100
AcDbEntity
  8
0
  6
HIDDEN
 62
     7
370
     0
100
AcDbSpline
210
0.0
220
0.0
230
1.0
 70
     8
 71
     3
 72
     9
 73
     5
 74
     0
 42
0.00000001
 43
0.00000001
 12
1.0
 22
0.0
 32
0.0
 13
1.0
 23
0.0
 33
0.0
 40
0.0
 40
0.0
 40
0.0
 40
0.0
 40
0.3978976610752623
 40
1.0
 40
1.0
 40
1.0
 40
1.0
 10
113.4857018451689
 20
130.1940841543527
 30
0.0
 10
113.5164275949481
 20
130.1965354569615
 30
0.0
 10
113.5936478271458
 20
130.2026960928452
 30
0.0
 10
113.6852200840229
 20
130.2091406047161
 30
0.0
 10
113.7403559540693
 20
130.2130208603868
 30
0.0
  0
LINE
  5
1EA
330
1F
100
AcDbEntity
  8
0
  6
HIDDEN
 62
     7
370
     0
100
AcDbLine
 10
108.2594229649
 20
150.3044549841
 30
0.0
 11
108.2594229649
 21
164.3044549841
 31
0.0
  0
LINE
  5
1EB
330
1F
100
AcDbEntity
  8
0
  6
HIDDEN
 62
     7
370
     0
100
AcDbLine
 10
108.2594229649
 20
136.3044549841
 30
0.0
 11
108.2594229649
 21
150.3044549841
 31
0.0
  0
LINE
  5
1EC
330
1F
100
AcDbEntity
  8
0
  6
HIDDEN
 62
     7
370
     0
100
AcDbLine
 10
100.8594229649
 20
150.3044549841
 30
0.0
 11
100.8594229649
 21
164.3044549841
 31
0.0
  0
LINE
  5
1ED
330
1F
100
AcDbEntity
  8
0
  6
HIDDEN
 62
     7
370
     0
100
AcDbLine
 10
100.8594229649
 20
136.3044549841
 30
0.0
 11
100.8594229649
 21
150.3044549841
 31
0.0
  0
LINE
  5
1EE
330
1F
100
AcDbEntity
  8
0
  6
HIDDEN
 62
     7
370
     0
100
AcDbLine
 10
101.8594229649
 20
150.3044549841
 30
0.0
 11
101.8594229649
 21
164.3044549841
 31
0.0
  0
LINE
  5
1EF
330
1F
100
AcDbEntity
  8
0
  6
HIDDEN
 62
     7
370
     0
100
AcDbLine
 10
101.8594229649
 20
136.3044549841
 30
0.0
 11
101.8594229649
 21
150.3044549841
 31
0.0
  0
SPLINE
  5
1F0
330
1F
100
AcDbEntity
  8
0
  6
HIDDEN
 62
     7
370
     0
100
AcDbSpline
210
0.0
220
0.0
230
1.0
 70
     8
 71
     3
 72
    35
 73
    31
 74
     0
 42
0.00000001
 43
0.00000001
 12
1.0
 22
0.0
 32
0.0
 13
1.0
 23
0.0
 33
0.0
 40
0.0
 40
0.0
 40
0.0
 40
0.0
 40
0.0273987508535341
 40
0.0831597112586278
 40
0.1115832357547432
 40
0.138980232516568
 40
0.1946673376866794
 40
0.2230156836972862
 40
0.2510568050700744
 40
0.3080900397346535
 40
0.3371567334586857
 40
0.3650778244635077
 40
0.4219356749181349
 40
0.4509560163852434
 40
0.4778200579268616
 40
0.5324886076544718
 40
0.5603580307272963
 40
0.5869136865482286
 40
0.6408798682776337
 40
0.668342366490851
 40
0.6957778042408137
 40
0.7515323888964793
 40
0.7799123754599586
 40
0.8080762459650279
 40
0.8364390628639469
 40
0.8654397725145686
 40
0.894666273291777
 40
0.9222951128559085
 40
0.9785532013223892
 40
0.9999999999999999
 40
0.9999999999999999
 40
0.9999999999999999
 40
0.9999999999999999
 10
120.9291945253071
 20
136.3188373717413
 30
0.0
 10
120.909124978295
 20
136.3245595191226
 30
0.0
 10
120.848210605098
 20
136.3419271767415
 30
0.0
 10
120.7014116921594
 20
136.3827622348984
 30
0.0
 10
120.5070179015613
 20
136.4339645610335
 30
0.0
 10
120.279660046
 20
136.4914135916781
 30
0.0
 10
120.0060700622662
 20
136.5557947441916
 30
0.0
 10
119.6900184211953
 20
136.6223515047068
 30
0.0
 10
119.3442926506731
 20
136.689136228626
 30
0.0
 10
118.9593976560757
 20
136.75279860993
 30
0.0
 10
118.5466056386345
 20
136.8070179658736
 30
0.0
 10
118.1182281517893
 20
136.8534142177011
 30
0.0
 10
117.6691477790897
 20
136.8860844861844
 30
0.0
 10
117.2152478642637
 20
136.9014266474236
 30
0.0
 10
116.767394147775
 20
136.9052719376397
 30
0.0
 10
116.3240241322354
 20
136.892524125017
 30
0.0
 10
115.8932169563362
 20
136.8643219169288
 30
0.0
 10
115.4749895875358
 20
136.8271096316377
 30
0.0
 10
115.0761643552687
 20
136.7778498073434
 30
0.0
 10
114.7012644348152
 20
136.7200340705492
 30
0.0
 10
114.3405356714523
 20
136.6572768538599
 30
0.0
 10
114.0106860378572
 20
136.5903115548101
 30
0.0
 10
113.7206524261407
 20
136.5248090171139
 30
0.0
 10
113.5237103847698
 20
136.4775202869688
 30
0.0
 10
113.3493196237508
 20
136.4334497880336
 30
0.0
 10
113.1987953008104
 20
136.393757769548
 30
0.0
 10
113.0767053872736
 20
136.3604341295483
 30
0.0
 10
112.9536526553991
 20
136.3259821261817
 30
0.0
 10
112.884884533317
 20
136.3060984939041
 30
0.0
 10
112.8826490642528
 20
136.3054533124493
 30
0.0
 10
112.882032067604
 20
136.3052752402934
 30
0.0
  0
SPLINE
  5
1F1
330
1F
100
AcDbEntity
  8
0
  6
HIDDEN
 62
     7
370
     0
100
AcDbSpline
210
0.0
220
0.0
230
1.0
 70
     8
 71
     3
 72
    26
 73
    22
 74
     0
 42
0.00000001
 43
0.00000001
 12
1.0
 22
0.0
 32
0.0
 13
1.0
 23
0.0
 33
0.0
 40
0.0
 40
0.0
 40
0.0
 40
0.0
 40
0.0072761510202676
 40
0.0608588622393706
 40
0.1159961278785948
 40
0.1696869484977916
 40
0.2248356045681137
 40
0.2803721972800554
 40
0.3374590698641257
 40
0.3939498239410826
 40
0.4521687479109855
 40
0.5070555597878397
 40
0.5636413711496923
 40
0.6168440399158794
 40
0.6715483407463314
 40
0.7256051222217871
 40
0.7811176369167449
 40
0.8372052268092746
 40
0.8949039621445418
 40
0.9467741440334031
 40
0.9999999999999999
 40
0.9999999999999999
 40
0.9999999999999999
 40
0.9999999999999999
 10
112.8858029611891
 20
164.3025518525228
 30
0.0
 10
112.8836563672217
 20
164.3031699197681
 30
0.0
 10
112.8657019204015
 20
164.3083395306285
 30
0.0
 10
112.9370182455257
 20
164.2876850999494
 30
0.0
 10
113.1008389987903
 20
164.2414312499717
 30
0.0
 10
113.378105862964
 20
164.1672046841911
 30
0.0
 10
113.7457931301387
 20
164.0768038620257
 30
0.0
 10
114.2078789953047
 20
163.9763918886029
 30
0.0
 10
114.7498662872071
 20
163.8778790777503
 30
0.0
 10
115.364584661175
 20
163.7918522640391
 30
0.0
 10
116.0193562879483
 20
163.7311099147321
 30
0.0
 10
116.7020785848679
 20
163.7020301549297
 30
0.0
 10
117.3718563450084
 20
163.7076534241804
 30
0.0
 10
118.0271813605263
 20
163.7458297574161
 30
0.0
 10
118.6419805562624
 20
163.8105271143378
 30
0.0
 10
119.2180049798654
 20
163.8963317688611
 30
0.0
 10
119.7365723535639
 20
163.9939759937057
 30
0.0
 10
120.1893505073584
 20
164.094791509611
 30
0.0
 10
120.5411422341115
 20
164.1830500602281
 30
0.0
 10
120.7996608858923
 20
164.2531712125318
 30
0.0
 10
120.885646923217
 20
164.2776668091616
 30
0.0
 10
120.9291945253071
 20
164.2900725965217
 30
0.0
  0
SPLINE
  5
1F2
330
1F
100
AcDbEntity
  8
0
  6
HIDDEN
 62
     7
370
     0
100
AcDbSpline
210
0.0
220
0.0
230
1.0
 70
     8
 71
     3
 72
     9
 73
     5
 74
     0
 42
0.00000001
 43
0.00000001
 12
1.0
 22
0.0
 32
0.0
 13
1.0
 23
0.0
 33
0.0
 40
0.0
 40
0.0
 40
0.0
 40
0.0
 40
0.715869084332166
 40
1.0
 40
1.0
 40
1.0
 40
1.0
 10
120.9291945253071
 20
164.2900725965217
 30
0.0
 10
120.9506719911776
 20
164.2952320820741
 30
0.0
 10
120.9806739375398
 20
164.3024393852883
 30
0.0
 10
120.9746234520521
 20
164.3010961434937
 30
0.0
 10
120.9729043220702
 20
164.3007144869726
 30
0.0
  0
SPLINE
  5
1F3
330
1F
100
AcDbEntity
  8
0
  6
HIDDEN
 62
     7
370
     0
100
AcDbSpline
210
0.0
220
0.0
230
1.0
 70
     8
 71
     3
 72
    10
 73
     6
 74
     0
 42
0.00000001
 43
0.00000001
 12
1.0
 22
0.0
 32
0.0
 13
1.0
 23
0.0
 33
0.0
 40
0.0
 40
0.0
 40
0.0
 40
0.0
 40
0.0265988383145269
 40
0.511777106262988
 40
1.0
 40
1.0
 40
1.0
 40
1.0
 10
120.9785434991419
 20
136.3070914308958
 30
0.0
 10
120.978758751911
 20
136.3070484924545
 30
0.0
 10
120.9829003402768
 20
136.3062223318904
 30
0.0
 10
120.9694402456414
 20
136.3084218045774
 30
0.0
 10
120.9426377099408
 20
136.3153582839952
 30
0.0
 10
120.9291945253071
 20
136.3188373717413
 30
0.0
  0
LINE
  5
1F4
330
1F
100
AcDbEntity
  8
0
  6
HIDDEN
 62
     7
370
     0
100
AcDbLine
 10
121.4291945253
 20
150.3044549841
 30
0.0
 11
121.4291945253
 21
163.8044549841
 31
0.0
  0
LINE
  5
1F5
330
1F
100
AcDbEntity
  8
0
  6
HIDDEN
 62
     7
370
     0
100
AcDbLine
 10
121.4291945253
 20
136.8044549841
 30
0.0
 11
121.4291945253
 21
150.3044549841
 31
0.0
  0
LINE
  5
1F6
330
1F
100
AcDbEntity
  8
0
  6
HIDDEN
 62
     7
370
     0
100
AcDbLine
 10
122.6791945253
 20
150.3044549841
 30
0.0
 11
122.6791945253
 21
159.3044549841
 31
0.0
  0
LINE
  5
1F7
330
1F
100
AcDbEntity
  8
0
  6
HIDDEN
 62
     7
370
     0
100
AcDbLine
 10
122.6791945253
 20
141.3044549841
 30
0.0
 11
122.6791945253
 21
150.3044549841
 31
0.0
  0
LINE
  5
1F8
330
1F
100
AcDbEntity
  8
0
  6
HIDDEN
 62
     7
370
     0
100
AcDbLine
 10
159.4291945253
 20
159.3044549841
 30
0.0
 11
159.4291945253
 21
141.3044549841
 31
0.0
  0
LINE
  5
1F9
330
1F
100
AcDbEntity
  8
0
  6
HIDDEN
 62
     7
370
     0
100
AcDbLine
 10
162.2832824657
 20
154.5544549841
 30
0.0
 11
162.2832824657
 21
146.0544549841
 31
0.0
  0
LINE
  5
1FA
330
1F
100
AcDbEntity
  8
0
  6
HIDDEN
 62
     7
370
     0
100
AcDbLine
 10
215.5432323294
 20
147.8444549841
 30
0.0
 11
222.4778350363
 21
147.8444549841
 31
0.0
  0
LINE
  5
1FB
330
1F
100
AcDbEntity
  8
0
  6
HIDDEN
 62
     7
370
     0
100
AcDbLine
 10
215.5432323294
 20
145.3444549841
 30
0.0
 11
222.3243543352
 21
145.3444549841
 31
0.0
  0
LINE
  5
1FC
330
1F
100
AcDbEntity
  8
0
  6
HIDDEN
 62
     7
370
     0
100
AcDbLine
 10
120.9791945253
 20
130.3066990038
 30
0.0
 11
112.8791945253
 21
130.3066990038
 31
0.0
  0
SPLINE
  5
1FD
330
1F
100
AcDbEntity
  8
0
  6
HIDDEN
 62
     7
370
     0
100
AcDbSpline
210
0.0
220
0.0
230
1.0
 70
     8
 71
     3
 72
    36
 73
    32
 74
     0
 42
0.00000001
 43
0.00000001
 12
1.0
 22
0.0
 32
0.0
 13
1.0
 23
0.0
 33
0.0
 40
0.0
 40
0.0
 40
0.0
 40
0.0
 40
0.0234825418545061
 40
0.047146875703263
 40
0.0713735574849807
 40
0.0957877341789522
 40
0.1428607262812006
 40
0.1911282271095746
 40
0.2417968459531744
 40
0.293647353471757
 40
0.3217325725741688
 40
0.350019755478946
 40
0.3789942400592021
 40
0.4082376256247081
 40
0.4514634657178415
 40
0.4959011972010076
 40
0.539152083395889
 40
0.5836942023169546
 40
0.626761062118347
 40
0.6707527051630977
 40
0.7210947968130984
 40
0.7725815684306468
 40
0.8007701451182189
 40
0.829166328256753
 40
0.8582619971269387
 40
0.8876234310037866
 40
0.913846690060375
 40
0.9402963260213831
 40
0.9675045100319145
 40
0.9949922301505327
 40
1.0
 40
1.0
 40
1.0
 40
1.0
 10
166.9291945253071
 20
154.5544549841315
 30
0.0
 10
166.9305740660537
 20
154.5536427214496
 30
0.0
 10
166.9333438273729
 20
154.5520119078887
 30
0.0
 10
166.9558930763386
 20
154.5387833751869
 30
0.0
 10
166.9922770477984
 20
154.5176060421307
 30
0.0
 10
167.0597599852686
 20
154.478798782662
 30
0.0
 10
167.177617343659
 20
154.4124819294674
 30
0.0
 10
167.3701527388789
 20
154.3095285022188
 30
0.0
 10
167.6152948312017
 20
154.1882190451761
 30
0.0
 10
167.8646515884569
 20
154.0784231272481
 30
0.0
 10
168.0924118575317
 20
153.9908818261756
 30
0.0
 10
168.2832596882691
 20
153.9257790314258
 30
0.0
 10
168.4874214259725
 20
153.8661445944533
 30
0.0
 10
168.7382792383344
 20
153.8066937288947
 30
0.0
 10
169.0416580311495
 20
153.7573777385892
 30
0.0
 10
169.3928980777025
 20
153.735443469174
 30
0.0
 10
169.7486762778552
 20
153.7502810088929
 30
0.0
 10
170.0913047887284
 20
153.7994000184747
 30
0.0
 10
170.4178228772857
 20
153.8765254943784
 30
0.0
 10
170.7347327189569
 20
153.9770958067528
 30
0.0
 10
171.0395871544391
 20
154.0967288687409
 30
0.0
 10
171.2777131202152
 20
154.2056321472322
 30
0.0
 10
171.450915460825
 20
154.2914023495974
 30
0.0
 10
171.5735018766183
 20
154.3550554761271
 30
0.0
 10
171.6814249757283
 20
154.4133128946664
 30
0.0
 10
171.7693245258382
 20
154.4622640730036
 30
0.0
 10
171.8370845626872
 20
154.5008458341158
 30
0.0
 10
171.8871465252767
 20
154.529817465894
 30
0.0
 10
171.9168813040476
 20
154.5472110290682
 30
0.0
 10
171.9332301829419
 20
154.5568222420931
 30
0.0
 10
171.9274318429801
 20
154.5534206662217
 30
0.0
 10
171.926538280456
 20
154.5528964608903
 30
0.0
  0
LINE
  5
1FE
330
1F
100
AcDbEntity
  8
0
  6
HIDDEN
 62
     7
370
     0
100
AcDbLine
 10
173.4291945253
 20
154.5544549841
 30
0.0
 11
173.4291945253
 21
146.0544549841
 31
0.0
  0
LINE
  5
1FF
330
1F
100
AcDbEntity
  8
0
  6
HIDDEN
 62
     7
370
     0
100
AcDbLine
 10
100.8791945253
 20
130.6981916936
 30
0.0
 11
100.8791945253
 21
132.3044549841
 31
0.0
  0
LINE
  5
200
330
1F
100
AcDbEntity
  8
0
  6
HIDDEN
 62
     7
370
     0
100
AcDbLine
 10
120.9791945253
 20
167.8044549841
 30
0.0
 11
112.8791945253
 21
167.8044549841
 31
0.0
  0
LINE
  5
201
330
1F
100
AcDbEntity
  8
0
  6
HIDDEN
 62
     7
370
     0
100
AcDbLine
 10
166.9291945253
 20
174.5040246746
 30
0.0
 11
171.9291945253
 21
174.5040246746
 31
0.0
  0
LINE
  5
202
330
1F
100
AcDbEntity
  8
0
  6
HIDDEN
 62
     7
370
     0
100
AcDbLine
 10
222.6726377555
 20
144.8444549841
 30
0.0
 11
224.7726377555
 21
144.8444549841
 31
0.0
  0
LINE
  5
203
330
1F
100
AcDbEntity
  8
0
  6
HIDDEN
 62
     7
370
     0
100
AcDbLine
 10
220.5726377555
 20
144.8444549841
 30
0.0
 11
222.6726377555
 21
144.8444549841
 31
0.0
  0
SPLINE
  5
204
330
1F
100
AcDbEntity
  8
0
  6
HIDDEN
 62
     7
370
     0
100
AcDbSpline
210
0.0
220
0.0
230
1.0
 70
     8
 71
     3
 72
     8
 73
     4
 74
     0
 42
0.00000001
 43
0.00000001
 12
1.0
 22
0.0
 32
0.0
 13
1.0
 23
0.0
 33
0.0
 40
0.0
 40
0.0
 40
0.0
 40
0.0
 40
1.0
 40
1.0
 40
1.0
 40
1.0
 10
169.5998475608218
 20
166.9628547414567
 30
0.0
 10
169.6319924661452
 20
167.1120750881392
 30
0.0
 10
169.6722700143499
 20
167.261743886046
 30
0.0
 10
169.7190310217673
 20
167.4076534731269
 30
0.0
  0
LINE
  5
205
330
1F
100
AcDbEntity
  8
0
  6
HIDDEN
 62
     7
370
     0
100
AcDbLine
 10
169.7190310218
 20
167.4076534731
 30
0.0
 11
171.9291945253
 21
169.1035715772
 31
0.0
  0
LINE
  5
206
330
1F
100
AcDbEntity
  8
0
  6
HIDDEN
 62
     7
370
     0
100
AcDbLine
 10
171.9291945253
 20
163.9271906752
 30
0.0
 11
169.5998475608
 21
166.9628547415
 31
0.0
  0
LINE
  5
207
330
1F
100
AcDbEntity
  8
0
  6
HIDDEN
 62
     7
370
     0
100
AcDbLine
 10
169.7190310218
 20
167.4076534731
 30
0.0
 11
169.5998475608
 21
166.9628547415
 31
0.0
  0
LINE
  5
208
330
1F
100
AcDbEntity
  8
0
  6
HIDDEN
 62
     7
370
     0
100
AcDbLine
 10
222.6726377555
 20
133.3444549841
 30
0.0
 11
224.7726377555
 21
133.3444549841
 31
0.0
  0
LINE
  5
209
330
1F
100
AcDbEntity
  8
0
  6
HIDDEN
 62
     7
370
     0
100
AcDbLine
 10
220.5726377555
 20
133.3444549841
 30
0.0
 11
222.6726377555
 21
133.3444549841
 31
0.0
  0
LINE
  5
20A
330
1F
100
AcDbEntity
  8
0
  6
HIDDEN
 62
     7
370
     0
100
AcDbLine
 10
214.5700731558
 20
145.2044549841
 30
0.0
 11
216.6700731558
 21
145.2044549841
 31
0.0
  0
LINE
  5
20B
330
1F
100
AcDbEntity
  8
0
  6
HIDDEN
 62
     7
370
     0
100
AcDbLine
 10
212.4700731558
 20
145.2044549841
 30
0.0
 11
214.5700731558
 21
145.2044549841
 31
0.0
  0
LINE
  5
20C
330
1F
100
AcDbEntity
  8
0
  6
HIDDEN
 62
     7
370
     0
100
AcDbLine
 10
215.5432323294
 20
145.3444549841
 30
0.0
 11
215.5432323294
 21
147.8444549841
 31
0.0
  0
ELLIPSE
  5
20D
330
1F
100
AcDbEntity
  8
0
  6
HIDDEN
 62
     7
370
     0
100
AcDbEllipse
 10
214.5700731558
 20
141.3289778417
 30
0.0
 11
-1.361789089734799
 21
17.10265383053544
 31
0.0
210
0.0
220
0.0
230
1.0
 40
0.0934710297
 41
5.095772670770551
 42
5.236931605185764
  0
LINE
  5
20E
330
1F
100
AcDbEntity
  8
0
  6
HIDDEN
 62
     7
370
     0
100
AcDbLine
 10
144.4291945253
 20
119.3044549841
 30
0.0
 11
146.4291945253
 21
119.3044549841
 31
0.0
  0
LINE
  5
20F
330
1F
100
AcDbEntity
  8
0
  6
HIDDEN
 62
     7
370
     0
100
AcDbLine
 10
142.4291945253
 20
119.3044549841
 30
0.0
 11
144.4291945253
 21
119.3044549841
 31
0.0
  0
LINE
  5
210
330
1F
100
AcDbEntity
  8
0
  6
HIDDEN
 62
     7
370
     0
100
AcDbLine
 10
166.4291945253
 20
179.6244549841
 30
0.0
 11
166.6291945253
 21
179.1141929605
 31
0.0
  0
LINE
  5
211
330
1F
100
AcDbEntity
  8
0
  6
HIDDEN
 62
     7
370
     0
100
AcDbLine
 10
172.2291945253
 20
179.1141929605
 30
0.0
 11
172.4291945253
 21
179.6244549841
 31
0.0
  0
LINE
  5
212
330
1F
100
AcDbEntity
  8
0
  6
HIDDEN
 62
     7
370
     0
100
AcDbLine
 10
172.4291945253
 20
179.6244549841
 30
0.0
 11
172.2291945253
 21
179.8041929605
 31
0.0
  0
LINE
  5
213
330
1F
100
AcDbEntity
  8
0
  6
HIDDEN
 62
     7
370
     0
100
AcDbLine
 10
166.6291945253
 20
179.8041929605
 30
0.0
 11
166.4291945253
 21
179.6244549841
 31
0.0
  0
LINE
  5
214
330
1F
100
AcDbEntity
  8
0
  6
HIDDEN
 62
     7
370
     0
100
AcDbLine
 10
172.4291945253
 20
178.2444549841
 30
0.0
 11
172.2291945253
 21
178.4241929605
 31
0.0
  0
LINE
  5
215
330
1F
100
AcDbEntity
  8
0
  6
HIDDEN
 62
     7
370
     0
100
AcDbLine
 10
166.6291945253
 20
178.4241929605
 30
0.0
 11
166.4291945253
 21
178.2444549841
 31
0.0
  0
LINE
  5
216
330
1F
100
AcDbEntity
  8
0
  6
HIDDEN
 62
     7
370
     0
100
AcDbLine
 10
172.4291945253
 20
174.8044549841
 30
0.0
 11
172.4291945253
 21
177.5544549841
 31
0.0
  0
LINE
  5
217
330
1F
100
AcDbEntity
  8
0
  6
HIDDEN
 62
     7
370
     0
100
AcDbLine
 10
166.4291945253
 20
177.5544549841
 30
0.0
 11
166.4291945253
 21
174.8044549841
 31
0.0
  0
LINE
  5
218
330
1F
100
AcDbEntity
  8
0
  6
HIDDEN
 62
     7
370
     0
100
AcDbLine
 10
166.4291945253
 20
180.3144549841
 30
0.0
 11
166.6291945253
 21
179.8041929605
 31
0.0
  0
LINE
  5
219
330
1F
100
AcDbEntity
  8
0
  6
HIDDEN
 62
     7
370
     0
100
AcDbLine
 10
172.2291945253
 20
179.8041929605
 30
0.0
 11
172.4291945253
 21
180.3144549841
 31
0.0
  0
LINE
  5
21A
330
1F
100
AcDbEntity
  8
0
  6
HIDDEN
 62
     7
370
     0
100
AcDbLine
 10
172.4291945253
 20
178.9344549841
 30
0.0
 11
172.2291945253
 21
179.1141929605
 31
0.0
  0
LINE
  5
21B
330
1F
100
AcDbEntity
  8
0
  6
HIDDEN
 62
     7
370
     0
100
AcDbLine
 10
166.6291945253
 20
179.1141929605
 30
0.0
 11
166.4291945253
 21
178.9344549841
 31
0.0
  0
LINE
  5
21C
330
1F
100
AcDbEntity
  8
0
  6
HIDDEN
 62
     7
370
     0
100
AcDbLine
 10
166.4291945253
 20
178.9344549841
 30
0.0
 11
166.6291945253
 21
178.4241929605
 31
0.0
  0
LINE
  5
21D
330
1F
100
AcDbEntity
  8
0
  6
HIDDEN
 62
     7
370
     0
100
AcDbLine
 10
172.2291945253
 20
178.4241929605
 30
0.0
 11
172.4291945253
 21
178.9344549841
 31
0.0
  0
LINE
  5
21E
330
1F
100
AcDbEntity
  8
0
  6
HIDDEN
 62
     7
370
     0
100
AcDbLine
 10
166.4291945253
 20
178.2444549841
 30
0.0
 11
166.6291945253
 21
177.7341929605
 31
0.0
  0
LINE
  5
21F
330
1F
100
AcDbEntity
  8
0
  6
HIDDEN
 62
     7
370
     0
100
AcDbLine
 10
172.2291945253
 20
177.7341929605
 30
0.0
 11
172.4291945253
 21
178.2444549841
 31
0.0
  0
LINE
  5
220
330
1F
100
AcDbEntity
  8
0
  6
HIDDEN
 62
     7
370
     0
100
AcDbLine
 10
172.4291945253
 20
177.5544549841
 30
0.0
 11
172.2291945253
 21
177.7341929605
 31
0.0
  0
LINE
  5
221
330
1F
100
AcDbEntity
  8
0
  6
HIDDEN
 62
     7
370
     0
100
AcDbLine
 10
166.6291945253
 20
177.7341929605
 30
0.0
 11
166.4291945253
 21
177.5544549841
 31
0.0
  0
LINE
  5
222
330
1F
100
AcDbEntity
  8
0
  6
HIDDEN
 62
     7
370
     0
100
AcDbLine
 10
172.4291945253
 20
180.3144549841
 30
0.0
 11
172.4291945253
 21
180.8644549841
 31
0.0
  0
LINE
  5
223
330
1F
100
AcDbEntity
  8
0
  6
HIDDEN
 62
     7
370
     0
100
AcDbLine
 10
166.4291945253
 20
180.8644549841
 30
0.0
 11
166.4291945253
 21
180.3144549841
 31
0.0
  0
LINE
  5
224
330
1F
100
AcDbEntity
  8
0
  6
HIDDEN
 62
     7
370
     0
100
AcDbLine
 10
172.4291945253
 20
180.8644549841
 30
0.0
 11
172.2891945253
 21
181.0044549841
 31
0.0
  0
LINE
  5
225
330
1F
100
AcDbEntity
  8
0
  6
HIDDEN
 62
     7
370
     0
100
AcDbLine
 10
166.5691945253
 20
181.0044549841
 30
0.0
 11
166.4291945253
 21
180.8644549841
 31
0.0
  0
LINE
  5
226
330
1F
100
AcDbEntity
  8
0
  6
HIDDEN
 62
     7
370
     0
100
AcDbLine
 10
166.4291945253
 20
174.8044549841
 30
0.0
 11
166.9488097676
 21
174.5044549841
 31
0.0
  0
LINE
  5
227
330
1F
100
AcDbEntity
  8
0
  6
HIDDEN
 62
     7
370
     0
100
AcDbLine
 10
171.909579283
 20
174.5044549841
 30
0.0
 11
172.4291945253
 21
174.8044549841
 31
0.0
  0
LINE
  5
228
330
1F
100
AcDbEntity
  8
0
  6
HIDDEN
 62
     7
370
     0
100
AcDbLine
 10
171.9291945253
 20
176.1478306571
 30
0.0
 11
171.9291945253
 21
181.0044549841
 31
0.0
  0
LINE
  5
229
330
1F
100
AcDbEntity
  8
0
  6
HIDDEN
 62
     7
370
     0
100
AcDbLine
 10
166.9291945253
 20
181.0044549841
 30
0.0
 11
166.9291945253
 21
176.1478306571
 31
0.0
  0
LINE
  5
22A
330
1F
100
AcDbEntity
  8
0
  6
HIDDEN
 62
     7
370
     0
100
AcDbLine
 10
166.9291945253
 20
176.1478306571
 30
0.0
 11
169.4291945253
 21
174.7044549841
 31
0.0
  0
LINE
  5
22B
330
1F
100
AcDbEntity
  8
0
  6
HIDDEN
 62
     7
370
     0
100
AcDbLine
 10
169.4291945253
 20
174.7044549841
 30
0.0
 11
171.9291945253
 21
176.1478306571
 31
0.0
  0
CIRCLE
  5
22C
330
1F
100
AcDbEntity
  8
0
  6
HIDDEN
 62
     7
370
     0
100
AcDbCircle
 10
169.4291945253
 20
177.6044549841
 30
0.0
 40
2.5
  0
LINE
  5
22D
330
1F
100
AcDbEntity
  8
0
  6
HIDDEN
 62
     7
370
     0
100
AcDbLine
 10
219.1726377555
 20
149.6044549841
 30
0.0
 11
219.1726377555
 21
149.4044549841
 31
0.0
  0
LINE
  5
22E
330
1F
100
AcDbEntity
  8
0
  6
HIDDEN
 62
     7
370
     0
100
AcDbLine
 10
226.1726377555
 20
149.4044549841
 30
0.0
 11
226.1726377555
 21
149.6044549841
 31
0.0
  0
LINE
  5
22F
330
1F
100
AcDbEntity
  8
0
  6
HIDDEN
 62
     7
370
     0
100
AcDbLine
 10
226.1726377555
 20
149.6044549841
 30
0.0
 11
225.3066123517
 21
150.1044549841
 31
0.0
  0
LINE
  5
230
330
1F
100
AcDbEntity
  8
0
  6
HIDDEN
 62
     7
370
     0
100
AcDbLine
 10
220.0386631593
 20
150.1044549841
 30
0.0
 11
219.1726377555
 21
149.6044549841
 31
0.0
  0
LINE
  5
231
330
1F
100
AcDbEntity
  8
0
  6
HIDDEN
 62
     7
370
     0
100
AcDbLine
 10
219.1726377555
 20
149.4044549841
 30
0.0
 11
220.1925448432
 21
147.6379240893
 31
0.0
  0
LINE
  5
232
330
1F
100
AcDbEntity
  8
0
  6
HIDDEN
 62
     7
370
     0
100
AcDbLine
 10
225.1527306678
 20
147.6379240893
 30
0.0
 11
226.1726377555
 21
149.4044549841
 31
0.0
  0
LINE
  5
233
330
1F
100
AcDbEntity
  8
0
  6
HIDDEN
 62
     7
370
     0
100
AcDbLine
 10
220.1726377555
 20
146.1044549841
 30
0.0
 11
220.1726377555
 21
140.8044549841
 31
0.0
  0
LINE
  5
234
330
1F
100
AcDbEntity
  8
0
  6
HIDDEN
 62
     7
370
     0
100
AcDbLine
 10
225.1726377555
 20
140.8044549841
 30
0.0
 11
225.1726377555
 21
146.1044549841
 31
0.0
  0
LINE
  5
235
330
1F
100
AcDbEntity
  8
0
  6
HIDDEN
 62
     7
370
     0
100
AcDbLine
 10
220.1726377555
 20
140.8044549841
 30
0.0
 11
221.0726377555
 21
139.9044549841
 31
0.0
  0
LINE
  5
236
330
1F
100
AcDbEntity
  8
0
  6
HIDDEN
 62
     7
370
     0
100
AcDbLine
 10
224.2726377555
 20
139.9044549841
 30
0.0
 11
225.1726377555
 21
140.8044549841
 31
0.0
  0
ARC
  5
237
330
1F
100
AcDbEntity
  8
0
  6
HIDDEN
 62
     7
370
     0
100
AcDbCircle
 10
218.8935067375
 20
146.8879240893
 30
0.0
 40
1.500000000000025
100
AcDbArc
 50
328.5124864464
 51
30.0
  0
ARC
  5
238
330
1F
100
AcDbEntity
  8
0
  6
HIDDEN
 62
     7
370
     0
100
AcDbCircle
 10
226.4517687735
 20
146.8879240893
 30
0.0
 40
1.499999999999995
100
AcDbArc
 50
150.0
 51
211.4875135536
  0
LINE
  5
239
330
1F
100
AcDbEntity
  8
0
  6
HIDDEN
 62
     7
370
     0
100
AcDbLine
 10
220.6726377555
 20
150.1044549841
 30
0.0
 11
220.7025624016
 21
150.0991784616
 31
0.0
  0
LINE
  5
23A
330
1F
100
AcDbEntity
  8
0
  6
HIDDEN
 62
     7
370
     0
100
AcDbLine
 10
224.6371087651
 20
150.0981902645
 30
0.0
 11
224.6726377555
 21
150.1044549841
 31
0.0
  0
LINE
  5
23B
330
1F
100
AcDbEntity
  8
0
  6
HIDDEN
 62
     7
370
     0
100
AcDbLine
 10
223.8285267508
 20
148.4044549841
 30
0.0
 11
223.8285267508
 21
150.0693209914
 31
0.0
  0
LINE
  5
23C
330
1F
100
AcDbEntity
  8
0
  6
HIDDEN
 62
     7
370
     0
100
AcDbLine
 10
221.4622396671
 20
150.0718938856
 30
0.0
 11
221.4622396671
 21
148.4044549841
 31
0.0
  0
LINE
  5
23D
330
1F
100
AcDbEntity
  8
0
  6
HIDDEN
 62
     7
370
     0
100
AcDbLine
 10
223.7879917662
 20
150.0274593367
 30
0.0
 11
223.7879917662
 21
148.4044549841
 31
0.0
  0
LINE
  5
23E
330
1F
100
AcDbEntity
  8
0
  6
HIDDEN
 62
     7
370
     0
100
AcDbLine
 10
221.5140550237
 20
148.4044549841
 30
0.0
 11
221.5140550237
 21
150.0244928979
 31
0.0
  0
LINE
  5
23F
330
1F
100
AcDbEntity
  8
0
  6
HIDDEN
 62
     7
370
     0
100
AcDbLine
 10
224.6423536213
 20
148.4044549841
 30
0.0
 11
224.6423536213
 21
150.0991651747
 31
0.0
  0
LINE
  5
240
330
1F
100
AcDbEntity
  8
0
  6
HIDDEN
 62
     7
370
     0
100
AcDbLine
 10
220.6977794539
 20
150.1000627144
 30
0.0
 11
220.6977794539
 21
148.4044549841
 31
0.0
  0
LINE
  5
241
330
1F
100
AcDbEntity
  8
0
  6
HIDDEN
 62
     7
370
     0
100
AcDbLine
 10
223.8260780515
 20
150.0234805715
 30
0.0
 11
223.8260780515
 21
148.4044549841
 31
0.0
  0
LINE
  5
242
330
1F
100
AcDbEntity
  8
0
  6
HIDDEN
 62
     7
370
     0
100
AcDbLine
 10
221.552141309
 20
148.4044549841
 30
0.0
 11
221.552141309
 21
150.0277626817
 31
0.0
  0
LINE
  5
243
330
1F
100
AcDbEntity
  8
0
  6
HIDDEN
 62
     7
370
     0
100
AcDbLine
 10
223.8778934082
 20
148.4044549841
 30
0.0
 11
223.8778934082
 21
150.0709157734
 31
0.0
  0
LINE
  5
244
330
1F
100
AcDbEntity
  8
0
  6
HIDDEN
 62
     7
370
     0
100
AcDbLine
 10
221.5116063244
 20
150.0695187172
 30
0.0
 11
221.5116063244
 21
148.4044549841
 31
0.0
  0
SPLINE
  5
245
330
1F
100
AcDbEntity
  8
0
  6
HIDDEN
 62
     7
370
     0
100
AcDbSpline
210
0.0
220
0.0
230
1.0
 70
     8
 71
     3
 72
    10
 73
     6
 74
     0
 42
0.00000001
 43
0.00000001
 12
1.0
 22
0.0
 32
0.0
 13
1.0
 23
0.0
 33
0.0
 40
0.0
 40
0.0
 40
0.0
 40
0.0
 40
0.3259536231239173
 40
0.7625919768474085
 40
1.0
 40
1.0
 40
1.0
 40
1.0
 10
221.4974332267495
 20
149.6235276437652
 30
0.0
 10
221.6195061670014
 20
149.619818489953
 30
0.0
 10
221.9051046025523
 20
149.6111406574718
 30
0.0
 10
222.3449577390085
 20
149.5519739999662
 30
0.0
 10
222.6585773706688
 20
149.4807206281625
 30
0.0
 10
222.7690383409056
 20
149.455624250935
 30
0.0
  0
SPLINE
  5
246
330
1F
100
AcDbEntity
  8
0
  6
HIDDEN
 62
     7
370
     0
100
AcDbSpline
210
0.0
220
0.0
230
1.0
 70
     8
 71
     3
 72
    10
 73
     6
 74
     0
 42
0.00000001
 43
0.00000001
 12
1.0
 22
0.0
 32
0.0
 13
1.0
 23
0.0
 33
0.0
 40
0.0
 40
0.0
 40
0.0
 40
0.0
 40
0.2160963615508121
 40
0.6599771493462587
 40
0.9999999999999999
 40
0.9999999999999999
 40
0.9999999999999999
 40
0.9999999999999999
 10
222.7766428880114
 20
149.4546221620417
 30
0.0
 10
222.8775035001888
 20
149.4782444823373
 30
0.0
 10
223.1855406130235
 20
149.5503891103068
 30
0.0
 10
223.6258669100294
 20
149.6097178907151
 30
0.0
 10
223.9203562461417
 20
149.6194728445625
 30
0.0
 10
224.0480927415995
 20
149.6237041136274
 30
0.0
  0
LINE
  5
247
330
1F
100
AcDbEntity
  8
0
  6
HIDDEN
 62
     7
370
     0
100
AcDbLine
 10
216.2592261864
 20
149.635395092
 30
0.0
 11
221.4870625361
 21
149.635395092
 31
0.0
  0
LINE
  5
248
330
1F
100
AcDbEntity
  8
0
  6
HIDDEN
 62
     7
370
     0
100
AcDbLine
 10
224.0582129749
 20
149.635395092
 30
0.0
 11
229.2387733183
 21
149.635395092
 31
0.0
  0
ARC
  5
249
330
1F
100
AcDbEntity
  8
0
  6
HIDDEN
 62
     7
370
     0
100
AcDbCircle
 10
219.1726377555
 20
148.9544549843
 30
0.0
 40
0.1999999999999852
100
AcDbArc
 50
180.0
 51
249.8944902121
  0
ARC
  5
24A
330
1F
100
AcDbEntity
  8
0
  6
HIDDEN
 62
     7
370
     0
100
AcDbCircle
 10
226.3726377555
 20
148.9544549843
 30
0.0
 40
0.1999999999999886
100
AcDbArc
 50
290.1055097879
 51
0.0
  0
LINE
  5
24B
330
1F
100
AcDbEntity
  8
0
  6
HIDDEN
 62
     7
370
     0
100
AcDbLine
 10
218.9726377555
 20
150.1044549841
 30
0.0
 11
218.9726377555
 21
148.9544549843
 31
0.0
  0
LINE
  5
24C
330
1F
100
AcDbEntity
  8
0
  6
HIDDEN
 62
     7
370
     0
100
AcDbLine
 10
226.5726377555
 20
148.9544549843
 30
0.0
 11
226.5726377555
 21
150.1044549841
 31
0.0
  0
ARC
  5
24D
330
1F
100
AcDbEntity
  8
0
  6
HIDDEN
 62
     7
370
     0
100
AcDbCircle
 10
218.6226377555
 20
147.4519570642
 30
0.0
 40
1.400000000000011
100
AcDbArc
 50
0.0
 51
69.8944902121
  0
ARC
  5
24E
330
1F
100
AcDbEntity
  8
0
  6
HIDDEN
 62
     7
370
     0
100
AcDbCircle
 10
226.9226377555
 20
147.4519570642
 30
0.0
 40
1.400000000000011
100
AcDbArc
 50
110.1055097879
 51
180.0
  0
LINE
  5
24F
330
1F
100
AcDbEntity
  8
0
  6
HIDDEN
 62
     7
370
     0
100
AcDbLine
 10
220.0226377555
 20
147.4519570642
 30
0.0
 11
220.0226377555
 21
145.3444549841
 31
0.0
  0
LINE
  5
250
330
1F
100
AcDbEntity
  8
0
  6
HIDDEN
 62
     7
370
     0
100
AcDbLine
 10
225.5226377555
 20
145.3444549841
 30
0.0
 11
225.5226377555
 21
147.4519570642
 31
0.0
  0
SPLINE
  5
251
330
1F
100
AcDbEntity
  8
0
  6
HIDDEN
 62
     7
370
     0
100
AcDbSpline
210
0.0
220
0.0
230
1.0
 70
     8
 71
     3
 72
    10
 73
     6
 74
     0
 42
0.00000001
 43
0.00000001
 12
1.0
 22
0.0
 32
0.0
 13
1.0
 23
0.0
 33
0.0
 40
0.0
 40
0.0
 40
0.0
 40
0.0
 40
0.2393509954457418
 40
0.7013973724624493
 40
1.0
 40
1.0
 40
1.0
 40
1.0
 10
215.5688077335184
 20
149.4920229175918
 30
0.0
 10
215.6012193994724
 20
149.5079089542951
 30
0.0
 10
215.6961989807978
 20
149.5544616096612
 30
0.0
 10
215.9551723282139
 20
149.6147375971604
 30
0.0
 10
216.2244459871817
 20
149.618680212465
 30
0.0
 10
216.3301528527833
 20
149.6202279372135
 30
0.0
  0
SPLINE
  5
252
330
1F
100
AcDbEntity
  8
0
  6
HIDDEN
 62
     7
370
     0
100
AcDbSpline
210
0.0
220
0.0
230
1.0
 70
     8
 71
     3
 72
    11
 73
     7
 74
     0
 42
0.00000001
 43
0.00000001
 12
1.0
 22
0.0
 32
0.0
 13
1.0
 23
0.0
 33
0.0
 40
0.0
 40
0.0
 40
0.0
 40
0.0
 40
0.054300575791063
 40
0.4248097318577132
 40
0.8113990271242428
 40
1.0
 40
1.0
 40
1.0
 40
1.0
 10
229.224456711125
 20
149.6265248824388
 30
0.0
 10
229.2470259454323
 20
149.6266947608271
 30
0.0
 10
229.4235918516802
 20
149.6280237705388
 30
0.0
 10
229.6894170095045
 20
149.5917069744232
 30
0.0
 10
229.9384805811811
 20
149.5240892464628
 30
0.0
 10
230.008528553069
 20
149.4815750308866
 30
0.0
 10
230.0314968061459
 20
149.4676349090473
 30
0.0
  0
LINE
  5
253
330
1F
100
AcDbEntity
  8
0
  6
HIDDEN
 62
     7
370
     0
100
AcDbLine
 10
216.592077412
 20
150.1044549843
 30
0.0
 11
215.5071917479
 21
149.4780959541
 31
0.0
  0
LINE
  5
254
330
1F
100
AcDbEntity
  8
0
  6
HIDDEN
 62
     7
370
     0
100
AcDbLine
 10
230.038083763
 20
149.4780959541
 30
0.0
 11
228.9531980989
 21
150.1044549843
 31
0.0
  0
SPLINE
  5
255
330
1F
100
AcDbEntity
  8
0
  6
HIDDEN
 62
     7
370
     0
100
AcDbSpline
210
0.0
220
0.0
230
1.0
 70
     8
 71
     3
 72
     9
 73
     5
 74
     0
 42
0.00000001
 43
0.00000001
 12
1.0
 22
0.0
 32
0.0
 13
1.0
 23
0.0
 33
0.0
 40
0.0
 40
0.0
 40
0.0
 40
0.0
 40
0.9037187690460687
 40
1.0
 40
1.0
 40
1.0
 40
1.0
 10
215.5124551449564
 20
149.4670715281739
 30
0.0
 10
215.5403576110879
 20
149.4880766776617
 30
0.0
 10
215.5712327761139
 20
149.5113196933069
 30
0.0
 10
215.6490803350679
 20
149.528896422398
 30
0.0
 10
215.6565755938707
 20
149.5305887315111
 30
0.0
  0
LINE
  5
256
330
1F
100
AcDbEntity
  8
0
  6
HIDDEN
 62
     7
370
     0
100
AcDbLine
 10
216.1101152046
 20
149.6122448436
 30
0.0
 11
216.3225043358
 21
149.6261120517
 31
0.0
  0
LINE
  5
257
330
1F
100
AcDbEntity
  8
0
  6
HIDDEN
 62
     7
370
     0
100
AcDbLine
 10
229.2228837343
 20
149.6255461904
 30
0.0
 11
229.476780959
 21
149.6076787123
 31
0.0
  0
LINE
  5
258
330
1F
100
AcDbEntity
  8
0
  6
HIDDEN
 62
     7
370
     0
100
AcDbLine
 10
213.1283594418
 20
150.0044549841
 30
0.0
 11
213.5160809857
 21
146.8467164129
 31
0.0
  0
LINE
  5
259
330
1F
100
AcDbEntity
  8
0
  6
HIDDEN
 62
     7
370
     0
100
AcDbLine
 10
213.1360809857
 20
150.1044549843
 30
0.0
 11
213.5160809857
 21
149.885061882
 31
0.0
  0
LINE
  5
25A
330
1F
100
AcDbEntity
  8
0
  6
HIDDEN
 62
     7
370
     0
100
AcDbLine
 10
232.0291945253
 20
149.885061882
 30
0.0
 11
232.4091945253
 21
150.1044549843
 31
0.0
  0
LINE
  5
25B
330
1F
100
AcDbEntity
  8
0
  6
HIDDEN
 62
     7
370
     0
100
AcDbLine
 10
224.0109369686
 20
149.635395092
 30
0.0
 11
224.0582129749
 21
149.635395092
 31
0.0
  0
LINE
  5
25C
330
1F
100
AcDbEntity
  8
0
  6
HIDDEN
 62
     7
370
     0
100
AcDbLine
 10
132.4291945253
 20
126.0544549841
 30
0.0
 11
132.5220877441
 21
126.1473482029
 31
0.0
  0
LINE
  5
25D
330
1F
100
AcDbEntity
  8
0
  6
HIDDEN
 62
     7
370
     0
100
AcDbLine
 10
132.5220877441
 20
174.4615617653
 30
0.0
 11
132.4291945253
 21
174.5544549841
 31
0.0
  0
ARC
  5
25E
330
1F
100
AcDbEntity
  8
0
  6
HIDDEN
 62
     7
370
     0
100
AcDbCircle
 10
131.8149809629
 20
126.8544549841
 30
0.0
 40
1.000000000000008
100
AcDbArc
 50
315.0
 51
0.0
  0
ARC
  5
25F
330
1F
100
AcDbEntity
  8
0
  6
HIDDEN
 62
     7
370
     0
100
AcDbCircle
 10
131.8149809629
 20
126.8544549841
 30
0.0
 40
1.0
100
AcDbArc
 50
0.0
 51
52.1052014664
  0
ARC
  5
260
330
1F
100
AcDbEntity
  8
0
  6
HIDDEN
 62
     7
370
     0
100
AcDbCircle
 10
131.8149809629
 20
173.7544549841
 30
0.0
 40
1.000000000000035
100
AcDbArc
 50
343.125
 51
45.0
  0
ARC
  5
261
330
1F
100
AcDbEntity
  8
0
  6
HIDDEN
 62
     7
370
     0
100
AcDbCircle
 10
131.8149809629
 20
173.7544549841
 30
0.0
 40
1.000000000000035
100
AcDbArc
 50
307.8947985336
 51
343.125
  0
LINE
  5
262
330
1F
100
AcDbEntity
  8
0
  6
HIDDEN
 62
     7
370
     0
100
AcDbLine
 10
132.8149809629
 20
126.8544549841
 30
0.0
 11
132.8149809629
 21
173.7544549841
 31
0.0
  0
LINE
  5
263
330
1F
100
AcDbEntity
  8
0
  6
HIDDEN
 62
     7
370
     0
100
AcDbLine
 10
94.4291945253
 20
134.1080261397
 30
0.0
 11
95.9594229649
 21
134.9915039412
 31
0.0
  0
LINE
  5
264
330
1F
100
AcDbEntity
  8
0
  6
HIDDEN
 62
     7
370
     0
100
AcDbLine
 10
95.9594229649
 20
165.617406027
 30
0.0
 11
94.4291945253
 21
166.5008838286
 31
0.0
  0
LINE
  5
265
330
1F
100
AcDbEntity
  8
0
  6
HIDDEN
 62
     7
370
     0
100
AcDbLine
 10
104.4291945253
 20
134.3044549841
 30
0.0
 11
105.4309958402
 21
134.3044549841
 31
0.0
  0
LINE
  5
266
330
1F
100
AcDbEntity
  8
0
  6
HIDDEN
 62
     7
370
     0
100
AcDbLine
 10
105.4309958402
 20
166.3044549841
 30
0.0
 11
104.4291945253
 21
166.3044549841
 31
0.0
  0
ARC
  5
267
330
1F
100
AcDbEntity
  8
0
  6
HIDDEN
 62
     7
370
     0
100
AcDbCircle
 10
105.4309958402
 20
136.3044549841
 30
0.0
 40
2.000000000000016
100
AcDbArc
 50
270.0
 51
315.0
  0
ARC
  5
268
330
1F
100
AcDbEntity
  8
0
  6
HIDDEN
 62
     7
370
     0
100
AcDbCircle
 10
105.4309958402
 20
164.3044549841
 30
0.0
 40
2.0
100
AcDbArc
 50
45.0
 51
90.0
  0
ARC
  5
269
330
1F
100
AcDbEntity
  8
0
  6
HIDDEN
 62
     7
370
     0
100
AcDbCircle
 10
104.4291945253
 20
136.3044549841
 30
0.0
 40
2.000000000000004
100
AcDbArc
 50
189.9742217944
 51
270.0
  0
ARC
  5
26A
330
1F
100
AcDbEntity
  8
0
  6
HIDDEN
 62
     7
370
     0
100
AcDbCircle
 10
104.4291945253
 20
164.3044549841
 30
0.0
 40
2.0
100
AcDbArc
 50
90.0
 51
170.0257782056
  0
LINE
  5
26B
330
1F
100
AcDbEntity
  8
0
  6
HIDDEN
 62
     7
370
     0
100
AcDbLine
 10
106.8452094026
 20
134.8902414218
 30
0.0
 11
108.2594229649
 21
136.3044549841
 31
0.0
  0
LINE
  5
26C
330
1F
100
AcDbEntity
  8
0
  6
HIDDEN
 62
     7
370
     0
100
AcDbLine
 10
108.2594229649
 20
164.3044549841
 30
0.0
 11
106.8452094026
 21
165.7186685465
 31
0.0
  0
LINE
  5
26D
330
1F
100
AcDbEntity
  8
0
  6
HIDDEN
 62
     7
370
     0
100
AcDbLine
 10
95.9594229649
 20
134.9915039412
 30
0.0
 11
100.8594229649
 21
136.3044549841
 31
0.0
  0
LINE
  5
26E
330
1F
100
AcDbEntity
  8
0
  6
HIDDEN
 62
     7
370
     0
100
AcDbLine
 10
100.8594229649
 20
164.3044549841
 30
0.0
 11
95.9594229649
 21
165.617406027
 31
0.0
  0
LINE
  5
26F
330
1F
100
AcDbEntity
  8
0
  6
HIDDEN
 62
     7
370
     0
100
AcDbLine
 10
102.4594229649
 20
164.6508651456
 30
0.0
 11
101.8594229649
 21
164.3044549841
 31
0.0
  0
LINE
  5
270
330
1F
100
AcDbEntity
  8
0
  6
HIDDEN
 62
     7
370
     0
100
AcDbLine
 10
101.8594229649
 20
136.3044549841
 30
0.0
 11
102.4594229649
 21
135.9580448226
 31
0.0
  0
LINE
  5
271
330
1F
100
AcDbEntity
  8
0
  6
HIDDEN
 62
     7
370
     0
100
AcDbLine
 10
100.8594229649
 20
136.3044549841
 30
0.0
 11
101.8594229649
 21
136.3044549841
 31
0.0
  0
LINE
  5
272
330
1F
100
AcDbEntity
  8
0
  6
HIDDEN
 62
     7
370
     0
100
AcDbLine
 10
101.8594229649
 20
164.3044549841
 30
0.0
 11
100.8594229649
 21
164.3044549841
 31
0.0
  0
LINE
  5
273
330
1F
100
AcDbEntity
  8
0
  6
HIDDEN
 62
     7
370
     0
100
AcDbLine
 10
108.2594229649
 20
136.3044549841
 30
0.0
 11
112.8820320676
 21
136.3044549841
 31
0.0
  0
LINE
  5
274
330
1F
100
AcDbEntity
  8
0
  6
HIDDEN
 62
     7
370
     0
100
AcDbLine
 10
112.8858029612
 20
164.3044549841
 30
0.0
 11
108.2594229649
 21
164.3044549841
 31
0.0
  0
ARC
  5
275
330
1F
100
AcDbEntity
  8
0
  6
HIDDEN
 62
     7
370
     0
100
AcDbCircle
 10
120.9291945253
 20
136.8044549841
 30
0.0
 40
0.5
100
AcDbArc
 50
275.6408087552
 51
0.0
  0
ARC
  5
276
330
1F
100
AcDbEntity
  8
0
  6
HIDDEN
 62
     7
370
     0
100
AcDbCircle
 10
120.9291945253
 20
163.8044549841
 30
0.0
 40
0.5
100
AcDbArc
 50
360.0
 51
84.9755685961
  0
LINE
  5
277
330
1F
100
AcDbEntity
  8
0
  6
HIDDEN
 62
     7
370
     0
100
AcDbLine
 10
121.4291945253
 20
140.0544549841
 30
0.0
 11
122.6791945253
 21
141.3044549841
 31
0.0
  0
LINE
  5
278
330
1F
100
AcDbEntity
  8
0
  6
HIDDEN
 62
     7
370
     0
100
AcDbLine
 10
122.6791945253
 20
159.3044549841
 30
0.0
 11
121.4291945253
 21
160.5544549841
 31
0.0
  0
LINE
  5
279
330
1F
100
AcDbEntity
  8
0
  6
HIDDEN
 62
     7
370
     0
100
AcDbLine
 10
159.4291945253
 20
159.3044549841
 30
0.0
 11
122.6791945253
 21
159.3044549841
 31
0.0
  0
LINE
  5
27A
330
1F
100
AcDbEntity
  8
0
  6
HIDDEN
 62
     7
370
     0
100
AcDbLine
 10
122.6791945253
 20
141.3044549841
 30
0.0
 11
159.4291945253
 21
141.3044549841
 31
0.0
  0
LINE
  5
27B
330
1F
100
AcDbEntity
  8
0
  6
HIDDEN
 62
     7
370
     0
100
AcDbLine
 10
159.4291945253
 20
141.3044549841
 30
0.0
 11
162.2832824657
 21
146.0544549841
 31
0.0
  0
LINE
  5
27C
330
1F
100
AcDbEntity
  8
0
  6
HIDDEN
 62
     7
370
     0
100
AcDbLine
 10
162.2832824657
 20
154.5544549841
 30
0.0
 11
159.4291945253
 21
159.3044549841
 31
0.0
  0
LINE
  5
27D
330
1F
100
AcDbEntity
  8
0
  6
HIDDEN
 62
     7
370
     0
100
AcDbLine
 10
121.377490293
 20
129.9084032362
 30
0.0
 11
120.9791945253
 21
130.3066990038
 31
0.0
  0
LINE
  5
27E
330
1F
100
AcDbEntity
  8
0
  6
HIDDEN
 62
     7
370
     0
100
AcDbLine
 10
112.8791945253
 20
130.3066990038
 30
0.0
 11
112.7051200598
 21
130.1326245383
 31
0.0
  0
LINE
  5
27F
330
1F
100
AcDbEntity
  8
0
  6
HIDDEN
 62
     7
370
     0
100
AcDbLine
 10
166.9291945253
 20
154.5544549841
 30
0.0
 11
162.2832824657
 21
154.5544549841
 31
0.0
  0
LINE
  5
280
330
1F
100
AcDbEntity
  8
0
  6
HIDDEN
 62
     7
370
     0
100
AcDbLine
 10
173.4291945253
 20
154.5544549841
 30
0.0
 11
171.9265382805
 21
154.5544549841
 31
0.0
  0
LINE
  5
281
330
1F
100
AcDbEntity
  8
0
  6
HIDDEN
 62
     7
370
     0
100
AcDbLine
 10
162.2832824657
 20
146.0544549841
 30
0.0
 11
173.4291945253
 21
146.0544549841
 31
0.0
  0
LINE
  5
282
330
1F
100
AcDbEntity
  8
0
  6
HIDDEN
 62
     7
370
     0
100
AcDbLine
 10
173.4291945253
 20
146.0544549841
 30
0.0
 11
175.9828521562
 21
150.3044549841
 31
0.0
  0
LINE
  5
283
330
1F
100
AcDbEntity
  8
0
  6
HIDDEN
 62
     7
370
     0
100
AcDbLine
 10
175.9828521562
 20
150.3044549841
 30
0.0
 11
173.4291945253
 21
154.5544549841
 31
0.0
  0
LINE
  5
284
330
1F
100
AcDbEntity
  8
0
  6
HIDDEN
 62
     7
370
     0
100
AcDbLine
 10
100.8791945253
 20
132.3044549841
 30
0.0
 11
94.4291945253
 21
132.3044549841
 31
0.0
  0
LINE
  5
285
330
1F
100
AcDbEntity
  8
0
  6
HIDDEN
 62
     7
370
     0
100
AcDbLine
 10
102.8017198846
 20
130.3819296249
 30
0.0
 11
100.8791945253
 21
132.3044549841
 31
0.0
  0
LINE
  5
286
330
1F
100
AcDbEntity
  8
0
  6
HIDDEN
 62
     7
370
     0
100
AcDbLine
 10
120.9791945253
 20
130.3066990038
 30
0.0
 11
120.9791945253
 21
136.3070906531
 31
0.0
  0
LINE
  5
287
330
1F
100
AcDbEntity
  8
0
  6
HIDDEN
 62
     7
370
     0
100
AcDbLine
 10
112.8791945253
 20
136.3052748998
 30
0.0
 11
112.8791945253
 21
130.3066990038
 31
0.0
  0
LINE
  5
288
330
1F
100
AcDbEntity
  8
0
  6
HIDDEN
 62
     7
370
     0
100
AcDbLine
 10
120.9791945253
 20
164.3007147584
 30
0.0
 11
120.9791945253
 21
167.8044549841
 31
0.0
  0
LINE
  5
289
330
1F
100
AcDbEntity
  8
0
  6
HIDDEN
 62
     7
370
     0
100
AcDbLine
 10
112.8791945253
 20
167.8044549841
 30
0.0
 11
112.8791945253
 21
164.3025589845
 31
0.0
  0
LINE
  5
28A
330
1F
100
AcDbEntity
  8
0
  6
HIDDEN
 62
     7
370
     0
100
AcDbLine
 10
120.9791945253
 20
167.8044549841
 30
0.0
 11
116.9291945253
 21
170.2379404912
 31
0.0
  0
LINE
  5
28B
330
1F
100
AcDbEntity
  8
0
  6
HIDDEN
 62
     7
370
     0
100
AcDbLine
 10
116.9291945253
 20
170.2379404912
 30
0.0
 11
112.8791945253
 21
167.8044549841
 31
0.0
  0
LINE
  5
28C
330
1F
100
AcDbEntity
  8
0
  6
HIDDEN
 62
     7
370
     0
100
AcDbLine
 10
166.4291945253
 20
174.8044549841
 30
0.0
 11
166.9291945253
 21
174.5040246746
 31
0.0
  0
LINE
  5
28D
330
1F
100
AcDbEntity
  8
0
  6
HIDDEN
 62
     7
370
     0
100
AcDbLine
 10
171.9291945253
 20
174.5040246746
 30
0.0
 11
172.4291945253
 21
174.8044549841
 31
0.0
  0
LINE
  5
28E
330
1F
100
AcDbEntity
  8
0
  6
HIDDEN
 62
     7
370
     0
100
AcDbLine
 10
166.4291945253
 20
181.8044549841
 30
0.0
 11
166.4291945253
 21
174.8044549841
 31
0.0
  0
LINE
  5
28F
330
1F
100
AcDbEntity
  8
0
  6
HIDDEN
 62
     7
370
     0
100
AcDbLine
 10
172.4291945253
 20
174.8044549841
 30
0.0
 11
172.4291945253
 21
181.8044549841
 31
0.0
  0
LINE
  5
290
330
1F
100
AcDbEntity
  8
0
  6
HIDDEN
 62
     7
370
     0
100
AcDbLine
 10
220.0726377555
 20
145.3444549841
 30
0.0
 11
220.5726377555
 21
144.8444549841
 31
0.0
  0
LINE
  5
291
330
1F
100
AcDbEntity
  8
0
  6
HIDDEN
 62
     7
370
     0
100
AcDbLine
 10
224.7726377555
 20
144.8444549841
 30
0.0
 11
225.2726377555
 21
145.3444549841
 31
0.0
  0
LINE
  5
292
330
1F
100
AcDbEntity
  8
0
  6
HIDDEN
 62
     7
370
     0
100
AcDbLine
 10
166.9291945253
 20
174.5040246746
 30
0.0
 11
166.9291945253
 21
154.5544549841
 31
0.0
  0
LINE
  5
293
330
1F
100
AcDbEntity
  8
0
  6
HIDDEN
 62
     7
370
     0
100
AcDbLine
 10
171.9291945253
 20
169.1035715772
 30
0.0
 11
171.9291945253
 21
174.5040246746
 31
0.0
  0
LINE
  5
294
330
1F
100
AcDbEntity
  8
0
  6
HIDDEN
 62
     7
370
     0
100
AcDbLine
 10
171.9291945253
 20
154.5528998816
 30
0.0
 11
171.9291945253
 21
163.9271906752
 31
0.0
  0
LINE
  5
295
330
1F
100
AcDbEntity
  8
0
  6
HIDDEN
 62
     7
370
     0
100
AcDbLine
 10
179.882632837
 20
166.9724542046
 30
0.0
 11
171.9291945253
 21
169.1035715772
 31
0.0
  0
LINE
  5
296
330
1F
100
AcDbEntity
  8
0
  6
HIDDEN
 62
     7
370
     0
100
AcDbLine
 10
171.9291945253
 20
163.9271906752
 30
0.0
 11
181.3769252906
 21
161.3956788463
 31
0.0
  0
LINE
  5
297
330
1F
100
AcDbEntity
  8
0
  6
HIDDEN
 62
     7
370
     0
100
AcDbLine
 10
220.5726377555
 20
144.8444549841
 30
0.0
 11
220.5726377555
 21
133.3444549841
 31
0.0
  0
LINE
  5
298
330
1F
100
AcDbEntity
  8
0
  6
HIDDEN
 62
     7
370
     0
100
AcDbLine
 10
224.7726377555
 20
133.3444549841
 30
0.0
 11
224.7726377555
 21
144.8444549841
 31
0.0
  0
LINE
  5
299
330
1F
100
AcDbEntity
  8
0
  6
HIDDEN
 62
     7
370
     0
100
AcDbLine
 10
220.5726377555
 20
133.3444549841
 30
0.0
 11
222.6726377555
 21
132.0826476842
 31
0.0
  0
LINE
  5
29A
330
1F
100
AcDbEntity
  8
0
  6
HIDDEN
 62
     7
370
     0
100
AcDbLine
 10
222.6726377555
 20
132.0826476842
 30
0.0
 11
224.7726377555
 21
133.3444549841
 31
0.0
  0
LINE
  5
29B
330
1F
100
AcDbEntity
  8
0
  6
HIDDEN
 62
     7
370
     0
100
AcDbLine
 10
212.4700731558
 20
150.0044549841
 30
0.0
 11
212.4700731558
 21
145.2044549841
 31
0.0
  0
LINE
  5
29C
330
1F
100
AcDbEntity
  8
0
  6
HIDDEN
 62
     7
370
     0
100
AcDbLine
 10
216.6700731558
 20
145.2044549841
 30
0.0
 11
216.6700731558
 21
145.3444549841
 31
0.0
  0
LINE
  5
29D
330
1F
100
AcDbEntity
  8
0
  6
HIDDEN
 62
     7
370
     0
100
AcDbLine
 10
212.4700731558
 20
145.2044549841
 30
0.0
 11
214.5700731558
 21
143.9426476842
 31
0.0
  0
LINE
  5
29E
330
1F
100
AcDbEntity
  8
0
  6
HIDDEN
 62
     7
370
     0
100
AcDbLine
 10
214.5700731558
 20
143.9426476842
 30
0.0
 11
216.6700731558
 21
145.2044549841
 31
0.0
  0
LINE
  5
29F
330
1F
100
AcDbEntity
  8
0
  6
HIDDEN
 62
     7
370
     0
100
AcDbLine
 10
146.4291945253
 20
119.3044549841
 30
0.0
 11
144.4291945253
 21
120.5061762222
 31
0.0
  0
LINE
  5
2A0
330
1F
100
AcDbEntity
  8
0
  6
HIDDEN
 62
     7
370
     0
100
AcDbLine
 10
144.4291945253
 20
120.5061762222
 30
0.0
 11
142.4291945253
 21
119.3044549841
 31
0.0
  0
LINE
  5
2A1
330
1F
100
AcDbEntity
  8
0
  6
HIDDEN
 62
     7
370
     0
100
AcDbLine
 10
142.4291945253
 20
119.3044549841
 30
0.0
 11
142.4291945253
 21
118.8044549841
 31
0.0
  0
LINE
  5
2A2
330
1F
100
AcDbEntity
  8
0
  6
HIDDEN
 62
     7
370
     0
100
AcDbLine
 10
146.4291945253
 20
118.8044549841
 30
0.0
 11
146.4291945253
 21
119.3044549841
 31
0.0
  0
LINE
  5
2A3
330
1F
100
AcDbEntity
  8
VERMASSUNG
  6
CENTERX2
100
AcDbLine
 10
87.9528369381
 20
150.3044549841
 30
0.0
 11
239.0934060073
 21
150.3044549841
 31
0.0
  0
LINE
  5
2A4
330
1F
100
AcDbEntity
  8
VERMASSUNG
100
AcDbLine
 10
232.4291945253
 20
150.3044549841
 30
0.0
 11
232.4291945253
 21
157.3782914754
 31
0.0
  0
DIMENSION
  5
2A5
330
1F
100
AcDbEntity
  8
VERMASSUNG
100
AcDbDimension
  2
_D_1
 10
132.4291945253
 20
191.8044549841
 30
0.0
 11
182.4291945253
 21
191.8044549841
 31
0.0
 70
   160
  1
<>
 71
     2
 42
-1.0
  3
SLDDIMSTYLE1
100
AcDbAlignedDimension
 13
232.4291945253
 23
157.3782914754
 33
0.0
 14
132.4291945253
 24
181.3044549841
 34
0.0
100
AcDbRotatedDimension
  0
DIMENSION
  5
2B2
330
1F
100
AcDbEntity
  8
VERMASSUNG
100
AcDbDimension
  2
_D_2
 10
94.4291945253
 20
197.8044549841
 30
0.0
 11
163.4291945253
 21
197.8044549841
 31
0.0
 70
   160
  1
<>
 71
     2
 42
-1.0
  3
SLDDIMSTYLE0
100
AcDbAlignedDimension
 13
232.4291945253
 23
150.3044549841
 33
0.0
 14
94.4291945253
 24
170.4905707531
 34
0.0
100
AcDbRotatedDimension
  0
OLE2FRAME
  5
2BC
330
1F
100
AcDbEntity
  8
0
100
AcDbOle2Frame
 70
     2
  3
Paintbrush-Bild
 10
13.8511154363
 20
38.264191557
 30
0.0
 11
51.6290888628
 21
31.9806341108
 31
0.0
 71
     2
 72
     0
 73
     1
 90
    12928
310
80552BED0767C5B32B40DDAF6807D121434000000000000000006FFBDDFB85D0
310
4940DDAF6807D121434000000000000000006FFBDDFB85D04940416F4BD60AFB
310
3F4000000000000000002BED0767C5B32B40416F4BD60AFB3F40000000000000
310
0000000000000100000000010000010000000100000000000100000000320000
310
D0CF11E0A1B11AE1000000000000000000000000000000003E000300FEFF0900
310
0600000000000000000000000100000001000000000000000010000002000000
310
01000000FEFFFFFF0000000000000000FFFFFFFFFFFFFFFFFFFFFFFFFFFFFFFF
310
FFFFFFFFFFFFFFFFFFFFFFFFFFFFFFFFFFFFFFFFFFFFFFFFFFFFFFFFFFFFFFFF
310
FFFFFFFFFFFFFFFFFFFFFFFFFFFFFFFFFFFFFFFFFFFFFFFFFFFFFFFFFFFFFFFF
310
FFFFFFFFFFFFFFFFFFFFFFFFFFFFFFFFFFFFFFFFFFFFFFFFFFFFFFFFFFFFFFFF
310
FFFFFFFFFFFFFFFFFFFFFFFFFFFFFFFFFFFFFFFFFFFFFFFFFFFFFFFFFFFFFFFF
310
FFFFFFFFFFFFFFFFFFFFFFFFFFFFFFFFFFFFFFFFFFFFFFFFFFFFFFFFFFFFFFFF
310
FFFFFFFFFFFFFFFFFFFFFFFFFFFFFFFFFFFFFFFFFFFFFFFFFFFFFFFFFFFFFFFF
310
FFFFFFFFFFFFFFFFFFFFFFFFFFFFFFFFFFFFFFFFFFFFFFFFFFFFFFFFFFFFFFFF
310
FFFFFFFFFFFFFFFFFFFFFFFFFFFFFFFFFFFFFFFFFFFFFFFFFFFFFFFFFFFFFFFF
310
FFFFFFFFFFFFFFFFFFFFFFFFFFFFFFFFFFFFFFFFFFFFFFFFFFFFFFFFFFFFFFFF
310
FFFFFFFFFFFFFFFFFFFFFFFFFFFFFFFFFFFFFFFFFFFFFFFFFFFFFFFFFFFFFFFF
310
FFFFFFFFFFFFFFFFFFFFFFFFFFFFFFFFFFFFFFFFFFFFFFFFFFFFFFFFFFFFFFFF
310
FFFFFFFFFFFFFFFFFFFFFFFFFFFFFFFFFFFFFFFFFFFFFFFFFFFFFFFFFFFFFFFF
310
FFFFFFFFFFFFFFFFFFFFFFFFFFFFFFFFFFFFFFFFFFFFFFFFFFFFFFFFFFFFFFFF
310
FDFFFFFFFEFFFFFFFEFFFFFFFEFFFFFF05000000060000000700000008000000
310
090000000A0000000B0000000C0000000D0000000E0000000F00000010000000
310
11000000120000001300000014000000150000001600000017000000FEFFFFFF
310
FFFFFFFFFFFFFFFFFFFFFFFFFFFFFFFFFFFFFFFFFFFFFFFFFFFFFFFFFFFFFFFF
310
FFFFFFFFFFFFFFFFFFFFFFFFFFFFFFFFFFFFFFFFFFFFFFFFFFFFFFFFFFFFFFFF
310
FFFFFFFFFFFFFFFFFFFFFFFFFFFFFFFFFFFFFFFFFFFFFFFFFFFFFFFFFFFFFFFF
310
FFFFFFFFFFFFFFFFFFFFFFFFFFFFFFFFFFFFFFFFFFFFFFFFFFFFFFFFFFFFFFFF
310
FFFFFFFFFFFFFFFFFFFFFFFFFFFFFFFFFFFFFFFFFFFFFFFFFFFFFFFFFFFFFFFF
310
FFFFFFFFFFFFFFFFFFFFFFFFFFFFFFFFFFFFFFFFFFFFFFFFFFFFFFFFFFFFFFFF
310
FFFFFFFFFFFFFFFFFFFFFFFFFFFFFFFFFFFFFFFFFFFFFFFFFFFFFFFFFFFFFFFF
310
FFFFFFFFFFFFFFFFFFFFFFFFFFFFFFFFFFFFFFFFFFFFFFFFFFFFFFFFFFFFFFFF
310
FFFFFFFFFFFFFFFFFFFFFFFFFFFFFFFFFFFFFFFFFFFFFFFFFFFFFFFFFFFFFFFF
310
FFFFFFFFFFFFFFFFFFFFFFFFFFFFFFFFFFFFFFFFFFFFFFFFFFFFFFFFFFFFFFFF
310
FFFFFFFFFFFFFFFFFFFFFFFFFFFFFFFFFFFFFFFFFFFFFFFFFFFFFFFFFFFFFFFF
310
FFFFFFFFFFFFFFFFFFFFFFFFFFFFFFFFFFFFFFFFFFFFFFFFFFFFFFFFFFFFFFFF
310
FFFFFFFFFFFFFFFFFFFFFFFFFFFFFFFFFFFFFFFFFFFFFFFFFFFFFFFFFFFFFFFF
310
52006F006F007400200045006E00740072007900000000000000000000000000
310
0000000000000000000000000000000000000000000000000000000000000000
310
16000500FFFFFFFFFFFFFFFF020000000A00030000000000C000000000000046
310
00000000000000000000000070A45D45AE39CD0103000000C000000000000000
310
01004F006C006500000000000000000000000000000000000000000000000000
310
0000000000000000000000000000000000000000000000000000000000000000
310
0A000200FFFFFFFFFFFFFFFFFFFFFFFF00000000000000000000000000000000
310
0000000000000000000000000000000000000000000000001400000000000000
310
010043006F006D0070004F0062006A0000000000000000000000000000000000
310
0000000000000000000000000000000000000000000000000000000000000000
310
120002010100000003000000FFFFFFFF00000000000000000000000000000000
310
0000000000000000000000000000000000000000010000004D00000000000000
310
01004F006C006500310030004E00610074006900760065000000000000000000
310
0000000000000000000000000000000000000000000000000000000000000000
310
1A000200FFFFFFFFFFFFFFFFFFFFFFFF00000000000000000000000000000000
310
0000000000000000000000000000000000000000040000002426000000000000
310
FEFFFFFF02000000FEFFFFFFFFFFFFFFFFFFFFFFFFFFFFFFFFFFFFFFFFFFFFFF
310
FFFFFFFFFFFFFFFFFFFFFFFFFFFFFFFFFFFFFFFFFFFFFFFFFFFFFFFFFFFFFFFF
310
FFFFFFFFFFFFFFFFFFFFFFFFFFFFFFFFFFFFFFFFFFFFFFFFFFFFFFFFFFFFFFFF
310
FFFFFFFFFFFFFFFFFFFFFFFFFFFFFFFFFFFFFFFFFFFFFFFFFFFFFFFFFFFFFFFF
310
FFFFFFFFFFFFFFFFFFFFFFFFFFFFFFFFFFFFFFFFFFFFFFFFFFFFFFFFFFFFFFFF
310
FFFFFFFFFFFFFFFFFFFFFFFFFFFFFFFFFFFFFFFFFFFFFFFFFFFFFFFFFFFFFFFF
310
FFFFFFFFFFFFFFFFFFFFFFFFFFFFFFFFFFFFFFFFFFFFFFFFFFFFFFFFFFFFFFFF
310
FFFFFFFFFFFFFFFFFFFFFFFFFFFFFFFFFFFFFFFFFFFFFFFFFFFFFFFFFFFFFFFF
310
FFFFFFFFFFFFFFFFFFFFFFFFFFFFFFFFFFFFFFFFFFFFFFFFFFFFFFFFFFFFFFFF
310
FFFFFFFFFFFFFFFFFFFFFFFFFFFFFFFFFFFFFFFFFFFFFFFFFFFFFFFFFFFFFFFF
310
FFFFFFFFFFFFFFFFFFFFFFFFFFFFFFFFFFFFFFFFFFFFFFFFFFFFFFFFFFFFFFFF
310
FFFFFFFFFFFFFFFFFFFFFFFFFFFFFFFFFFFFFFFFFFFFFFFFFFFFFFFFFFFFFFFF
310
FFFFFFFFFFFFFFFFFFFFFFFFFFFFFFFFFFFFFFFFFFFFFFFFFFFFFFFFFFFFFFFF
310
FFFFFFFFFFFFFFFFFFFFFFFFFFFFFFFFFFFFFFFFFFFFFFFFFFFFFFFFFFFFFFFF
310
FFFFFFFFFFFFFFFFFFFFFFFFFFFFFFFFFFFFFFFFFFFFFFFFFFFFFFFFFFFFFFFF
310
FFFFFFFFFFFFFFFFFFFFFFFFFFFFFFFFFFFFFFFFFFFFFFFFFFFFFFFFFFFFFFFF
310
0100000200000000000000000000000000000000000000000000000000000000
310
0000000000000000000000000000000000000000000000000000000000000000
310
0100FEFF030A0000FFFFFFFF0A00030000000000C00000000000004607000000
310
5042727573680007000000504272757368000700000050427275736800F439B2
310
7100000000000000000000000000000000000000000000000000000000000000
310
0000000000000000000000000000000000000000000000000000000000000000
310
0000000000000000000000000000000000000000000000000000000000000000
310
0000000000000000000000000000000000000000000000000000000000000000
310
0000000000000000000000000000000000000000000000000000000000000000
310
0000000000000000000000000000000000000000000000000000000000000000
310
0000000000000000000000000000000000000000000000000000000000000000
310
0000000000000000000000000000000000000000000000000000000000000000
310
0000000000000000000000000000000000000000000000000000000000000000
310
0000000000000000000000000000000000000000000000000000000000000000
310
0000000000000000000000000000000000000000000000000000000000000000
310
0000000000000000000000000000000000000000000000000000000000000000
310
20260000424D0E260000000000003E00000028000000B40200006E0000000100
310
01000000000000000000130B0000130B00000200000002000000000000FFFFFF
310
FFFFFFFFFFFFFFFFFFFFFFFFFFFFFFFFFFFFFFFFFFFFFFFFFFFFFFFFFFFFFFFF
310
FFFFFFFFFFFFFFFFFFFFFFFFFFFFFFFFFFFFFFFFFFFFFFFFFFFFFFFFFFFFFFFF
310
FFFFFFFFFFFFFFFFFFFFFFFFFFFFFFFFFFFFFFFFFFFFFFFFF000FFFFFFFFFFFF
310
FFFFFFFFFFFFFFFFFFFFFFFFFFFFFFFFFFFFFFFFFFFFFFFFFFFFFFFFFFFFFFFF
310
FFFFFFFFFFFFFFFFFFFFFFFFFFFFFFFFFFFFFFFFFFFFFFFFFFFFFFFFFFFFFFFF
310
FFFFFFFFFFFFFFFFFFFFFFFFFFFFFFFFF000FFFFFFFFFFFFFFFFFFFFFFFFFFFF
310
FFFFFFFFFFFFFFFFFFFFFFFFFFFFFFFFFFFFFFFFFFFFFFFFFFFFFFFFFFFFFFFF
310
FFFFFFFFFFFFFFFFFFFFFFFFFFFFFFFFFFFFFFFFFFFFFFFFFFFFFFFFFFFFFFFF
310
FFFFFFFFFFFFFFFFF000FFFFFFFFFFFFFFFFFFFFFFFFFFFFFFFFFFFFFFFFFFFF
310
FFFFFFFFFFFFFFFFFFFFFFFFFFFFFFFFFFFFFFFFFFFFFFFFFFFFFFFFFFFFFFFF
310
FFFFFFFFFFFFFFFFFFFFFFFFFFFFFFFFFFFFFFFFFFFFFFFFFFFFFFFFFFFFFFFF
310
F000FFFFFFFFFFFFFFFFFFFFFFFFFFFFFFFFFFFFFFFFFFFFFFFFFFFFFFFFFFFF
310
FFFFFFFFFFFFFFFFFFFFFFFFFFFFFFFFFFFFFFFFFFFFFFFFFFFFFFFFFFFFFFFF
310
FFFFFFFFFFFFFFFFFFFFFFFFFFFFFFFFFFFFFFFFFFFFFFFFF000FFFFFFFFFFFF
310
FFFFFFFFFFFFFFFFFFFFFFFFFFFFFFFFFFFFFFFFFFFFFFFFFFFFFFFFFFFFFFFF
310
FFFFFFFFFFFFFFFFFFFFFFFFFFFFFFFFFFFFFFFFFFFFFFFFFFFFFFFFFFFFFFFF
310
FFFFFFFFFFFFFFFFFFFFFFFFFFFFFFFFF000FFFFFFFFFFFFFFFFFFFFFFFFFFFF
310
FFFFFFFFFFFFFFFFFFFFFFFFFFFFFFFFFFFFFFFFFFFFFFFFFFFFFFFFFFFFFFFF
310
FFFFFFFFFFFFFFFFFFFFFFFFFFFFFFFFFFFFFFFFFFFFFFFFFFFFFFFFFFFFFFFF
310
FFFFFFFFFFFFFFFFF000FFFFFFFFFFFFFFFFFFFFFFFFFFFFFFFFFFFFFFFFFFFF
310
FFFFFFFFFFFFFFFFFFFFFFFFFFFFFFFFFFFFFFFFFFFFFFFFFFFFFFFFFFFFFFFF
310
FFFFFFFFFFFFFFFFFFFFFFFFFFFFFFFFFFFFFFFFFFFFFFFFFFFFFFFFFFFFFFFF
310
F000FFFFFFFFFFFFFFFFFFFFFFFFFFFFFFFFFFFFFFFFFFFFFFFFFFFFFFFFFFFF
310
FFFFFFFFFFFFFFFFFFFFFFFFFFFFFFFFFFFFFFFFFFFFFFFFFFFFFFFFFFFFFFFF
310
FFFFFFFFFFFFFFFFFFFFFFFFFFFFFFFFFFFFFFFFFFFFFFFFF000FFFFFFFFFFFF
310
FFFFFFFFFFFFFFFFFFFFFFFFFFFFFFFFFFFFFFFFFFFFFFFFFFFFFFFFFFFFFFFF
310
FFFFFFFFFFFFFFFFFFFFFFFFFFFFFFFFFFFFFFFFFFFFFFFFFFFFFFFFFFFFFFFF
310
FFFFFFFFFFFFFFFFFFFFFFFFFFFFFFFFF000FFFFFFFFFFFFFFFFFFFFFFFFFFFF
310
FFFFFFFFFFFFFFFFFFFFFFFFFFFFFFFFFFFFFFFFFFFFFFFFFFFFFFFFFFFFFFFF
310
FFFFFFFFFFFFFFFFFFFFFFFFFFFFFFFFFFFFFFFFFFFFFFFFFFFFFFFFFFFFFFFF
310
FFFFFFFFFFFFFFFFF000FFFFFFFFFFFFFFFFFFFFFFFFFFFFFFFFFFFFFFFFFFFF
310
FFFFFFFFFFFFFFFFFFFFFFFFFFFFFFFFFFFFFFFFFFFFFFFFFFFFFFFFFFFFFFFF
310
FFFFFFFFFFFFFFFFFFFFFFFFFFFFFFFFFFFFFFFFFFFFFFFFFFFFFFFFFFFFFFFF
310
F000FFFFFFFFFFFFFFFFFFFFFFFFFFFFFFFFFFFFFFFFFFFFFFFFFFFFFFFFFFFF
310
FFFFFFFFFFFFFFFFFFFFFFFFFFFFFFFFFFFFFFFFFFFFFFFFFFFFFFFFFFFFFFFF
310
FFFFFFFFFFFFFFFFFFFFFFFFFFFFFFFFFFFFFFFFFFFFFFFFF000FFFFFFFFFFFF
310
FFFFFFFFFFFFFFFFFFFFFFFFFFFFFFFFFFFFFFFFFFFFFFFFFFFFFFFFFFFFFFFF
310
FFFFFFFFFFFFFFFFFFFFFFFFFFFFFFFFFFFFFFFFFFFFFFFFFFFFFFFFFFFFFFFF
310
FFFFFFFFFFFFFFFFFFFFFFFFFFFFFFFFF000FFFFFFFFFFFFFFFFFFFFFFFFFFFF
310
FFFFFFFFFFFFFFFFFFFFFFFFFFFFFFFFFFFFFFFFFFFFFFFFFFFFFFFFFFFFFFFF
310
FFFFFFFFFFFFFFFFFFFFFFFFFFFFFFFFFFFFFFFFFFFFFFFFFFFFFFFFFFFFFFFF
310
FFFFFFFFFFFFFFFFF000FFFFFFFFFFFFFFFFFFFFFFFFFFFFFFFFFFFFFFFFFFFF
310
FFFFFFFFFFFFFFFFFFFFFFFFFFFFFFFFFFFFFFFFFFFFFFFFFFFFFFFFFFFFFFFF
310
FFFFFFFFFFFFFFFFFFFFFFFFFFFFFFFFFFFFFFFFFFFFFFFFFFFFFFFFFFFFFFFF
310
F000FFFFFFFFFFFFFFFFFFFFFFFFFFFFFFFFFFFFFFFFFFFFFFFFFFFFFFFFFFFF
310
FFFFFFFFFFFFFFFFFFFFFFFFFFFFFFFFFFFFFFFFFFFFFFFFFFFFFFFFFFFFFFFF
310
FFFFFFFFFFFFFFFFFFFFFFFFFFFFFFFFFFFFFFFFFFFFFFFFF000FFFFFFFFFFFF
310
FFFFFFFFFFFFFFFFFFFFFFFFFFFFFFFFFFFFFFFFFFFFFFFFFFFFFFFFFFFFFFFF
310
FFFFFFFFFFFFFFFFFFFFFFFFFFFFFFFFFFFFFFFFFFFFFFFFFFFFFFFFFFFFFFFF
310
FFFFFFFFFFFFFFFFFFFFFFFFFFFFFFFFF000FFFFFFFFFFFFFFFFFFFFFFFFFFFF
310
FFFFFFFFFFFFFFFFFFFFFFFFFFFFFFFFFFFFFFFFFFFFFFFFFFFFFFFFFFFFFFFF
310
FFFFFFFFFFFFFFFFFFFFFFFFFFFFFFFFFFFFFFFFFFFFFFFFFFFFFFFFFFFFFFFF
310
FFFFFFFFFFFFFFFFF000FFFFF80003FFFFFFFFFFFFFFFFFFFFFFFFFFFFFFFFFF
310
FFFFF00007FFFFFFFFFF00007FFFFFF800000000000000007FFFFFFFFFFFFFFF
310
FFFFFFFC001FFFFFFFFFFFFFFC001FFFFFFFFFFFFFFFFFFFFFFFFFFE0007FFFF
310
F000FFFF8000007FFFFFFFF8000FFFFFC0007FFFFF80007FFFFF0000007FFFFF
310
FFF8000007FFFFF800000000000000007FFFFFF0001FFFFFFFFFFFC00001FFFF
310
FFFFFFFFC00001FFFFFFFF000000000003FFFFE000007FFFF000FFFE0000000F
310
FFFFFFF0000FFFFF80007FFFFF80007FFFFC0000001FFFFFFFC0000001FFFFF8
310
00000000000000007FFFFFF0001FFFFFFFFFFE0000003FFFFFFFFFFE0000003F
310
FFFFFF000000000003FFFF0000000FFFF000FFF800000003FFFFFFF00007FFFF
310
80007FFFFF80007FFFF000000007FFFFFF000000003FFFF80000000000000000
310
7FFFFFF0001FFFFFFFFFF80000000FFFFFFFFFF80000000FFFFFFF0000000000
310
03FFFC00000003FFF000FFE000000000FFFFFFF00007FFFF80003FFFFF80007F
310
FFC000000001FFFFFC000000001FFFF800000000000000007FFFFFF0001FFFFF
310
FFFFE000000003FFFFFFFFE000000003FFFFFF000000000003FFF000000000FF
310
F000FF80000000007FFFFFF00007FFFF80003FFFFF80007FFF8000000000FFFF
310
F80000000007FFF800000000000000007FFFFFF0001FFFFFFFFFC000000001FF
310
FFFFFFC000000001FFFFFF000000000003FFC0000000007FF000FF0000000000
310
3FFFFFE00007FFFF00003FFFFF80007FFE00000000003FFFF00000000003FFF8
310
00000000000000007FFFFFF0001FFFFFFFFF8000000000FFFFFFFF8000000000
310
FFFFFF000000000003FF80000000003FF000FE00000000001FFFFFE00003FFFF
310
00003FFFFF80007FFC00000000001FFFE00000000001FFF8000001FFFE000000
310
7FFFFFF0001FFFFFFFFE00000000003FFFFFFE00000000003FFFFF0000000000
310
03FF00000000001FF000FC00000000000FFFFFE00003FFFF00001FFFFF80007F
310
F800000000001FFFC00000000000FFF8000001FFFE0000007FFFFFF0001FFFFF
310
FFFC00000000001FFFFFFC00000000001FFFFF000000000003FE00000000000F
310
F000F8000000000007FFFFE00003FFFF00001FFFFF80007FF800000000000FFF
310
800000000000FFF8000001FFFE0000007FFFFFF0001FFFFFFFF800000000000F
310
FFFFF800000000000FFFFF000000000003FC000000000007F000F80000000000
310
03FFFFC00003FFFE00001FFFFF80007FF0000000000007FF0000000000007FF8
310
000001FFFE0000007FFFFFF0001FFFFFFFF0000000000007FFFFF00000000000
310
07FFFF000000000003F8000000000003F000F0000000000003FFFFC00001FFFE
310
00001FFFFF80007FE0000000000007FE0000000000003FF8000001FFFE000000
310
7FFFFFF0001FFFFFFFF0000000000007FFFFF0000000000007FFFF0000000000
310
03F800001F800003F000E00001FFF00001FFFFC00001FFFE00000FFFFF80007F
310
E00001FFE00003FE00001FFF00003FF8000001FFFE0000007FFFFFF0001FFFFF
310
FFE000003E000003FFFFE000003E000003FFFF000000000003F00001FFF80001
310
F000E00007FFFC0001FFFFC00001FFFE00000FFFFF80007FC0000FFFFC0003FC
310
0000FFFFC0001FF8000001FFFE0000007FFFFFF0001FFFFFFFC00003FFE00001
310
FFFFC00003FFE00001FFFF0001FFFFFFFFF00007FFFE0001F000E0000FFFFF00
310
00FFFF800001FFFC00000FFFFF80007FC0001FFFFE0001FC0001FFFFE0001FF8
310
000001FFFE0000007FFFFFF0001FFFFFFF80000FFFF80000FFFF80000FFFF800
310
00FFFF0003FFFFFFFFE0000FFFFF8000F000C0003FFFFF8000FFFF800000FFFC
310
000007FFFF80007F80003FFFFF0001FC0003FFFFF0001FF8000001FFFE000000
310
7FFFFFF0001FFFFFFF80003FFFFE0000FFFF80003FFFFE0000FFFF0003FFFFFF
310
FFE0003FFFFF8000F000C0003FFFFF8000FFFF800000FFFC000007FFFF80007F
310
80007FFFFF8001F80007FFFFF8000FF8000001FFFE0000007FFFFFF0001FFFFF
310
FF00007FFFFF00007FFF00007FFFFF00007FFF0003FFFFFFFFE0003FFFFFC000
310
F000C0007FFFFFC000FFFF000000FFFC000007FFFF80007F8000FFFFFF8000F8
310
000FFFFFF8000FF8000001FFFE0000007FFFFFF0001FFFFFFF0000FFFFFF8000
310
7FFF0000FFFFFF80007FFF0003FFFFFFFFC0007FFFFFC00070008000FFFFFFC0
310
00FFFF000000FFF8000007FFFF80007F8000FFFFFF8000F8000FFFFFF8000FF8
310
000001FFFE0000007FFFFFF0001FFFFFFE0001FFFFFFC0003FFE0001FFFFFFC0
310
003FFF0003FFFFFFFFC0007FFFFFE00070008000FFFFFFC0007FFF0000007FF8
310
000003FFFF80007F0001FFFFFF8000F8000FFFFFF8000FF8000001FFFE000000
310
7FFFFFF0001FFFFFFE0001FFFFFFC0003FFE0001FFFFFFC0003FFF0003FFFFFF
310
FFC000FFFFFFE00070008000FFFFFFC0007FFF0000007FF8000003FFFF80007F
310
0001FFFFFF8000F8001FFFFFF8000FF8000001FFFE0000007FFFFFF0001FFFFF
310
FE0003FFFFFFE0003FFE0003FFFFFFE0003FFF0003FFFFFFFFC000FFFFFFE000
310
70008000FFFFFFC0007FFE0000007FF8000003FFFF80007F0001FFFFFF8000F0
310
001FFFFFF8000FF8000001FFFE0000007FFFFFF0001FFFFFFC0003FFFFFFE000
310
1FFC0003FFFFFFE0001FFF0003FFFFFFFFC000FFFFFFC00070008000FFFFFF80
310
007FFE0000007FF0000003FFFF80007F0001FFFFFF0000F0001FFFFFF8000FF8
310
000001FFFE0000007FFFFFF0001FFFFFFC0007FFFFFFF0001FFC0007FFFFFFF0
310
001FFF0003FFFFFFFFC000FFFFFFC00070008001FFFFFF0000FFFE0000003FF0
310
000001FFFF80007F0001FFFFFF0000F8001FFFFFF0000FF8000001FFFE000000
310
7FFFFFF0001FFFFFFC0007FFFFFFF0001FFC0007FFFFFFF0001FFF0003FFFFFF
310
FFC001FFFFFF80007000FFFFFFFFFE0000FFFE0008003FF0008001FFFF80007F
310
FFFFFFFFFC0000FFFFFFFFFFE0000FF8000001FFFE0000007FFFFFF0001FFFFF
310
F8000FFFFFFFF8000FF8000FFFFFFFF8000FFF0003FFFFFFFFFFFFFFFFFF0000
310
7000FFFFFFFFFC0000FFFC0008003FF0008001FFFF80007FFFFFFFFFF80001FF
310
FFFFFFFF80000FF8000001FFFE0000007FFFFFF0001FFFFFF8000FFFFFFFF800
310
0FF8000FFFFFFFF8000FFF0003FFFFFFFFFFFFFFFFFE0000F000FFFFFFFFE000
310
00FFFC000C003FE000C001FFFF80007FFFFFFFFFC00001FFFFFFFFFE00001FF8
310
000001FFFE0000007FFFFFF0001FFFFFF8000FFFFFFFF8000FF8000FFFFFFFF8
310
000FFF0003FFFFFFFFFFFFFFFFF00000F000FFFFFFFE000001FFFC000C001FE0
310
00C000FFFF80007FFFFFFFFE000001FFFFFFFFE000001FF80FFFFFFFFFFFFFC0
310
7FFFFFF0001FFFFFF8000FFFFFFFF8000FF8000FFFFFFFF8000FFF0003FFFFFF
310
FFFFFFFFFF800000F000FFFFFFC0000001FFFC001C001FE001C000FFFF80007F
310
FFFFFF80000003FFFFFFF80000001FF80FFFFFFFFFFFFFC07FFFFFF0001FFFFF
310
F8001FFFFFFFFC000FF8001FFFFFFFFC000FFF0003FFFFFFFFFFFFFFF0000001
310
F000FFFFF800000001FFF8001C001FE001C000FFFF80007FFFFFF800000003FF
310
FFFF800000003FF80FFFFFFFFFFFFFC07FFFFFF0001FFFFFF8001FFFFFFFFC00
310
0FF8001FFFFFFFFC000FFF0003FFFFFFFFFFFFFE00000001F000FFFFC0000000
310
03FFF8001E001FC001E000FFFF80007FFFFF8000000007FFFFFC000000003FF8
310
0FFFFFFFFFFFFFC07FFFFFF0001FFFFFF8001FFFFFFFFC000FF8001FFFFFFFFC
310
000FFF0003FFFFFFFFFFFFE000000003F000FFFE0000000007FFF8001E000FC0
310
01E0007FFF80007FFFFE0000000007FFFFE0000000007FF80FFFFFFFFFFFFFC0
310
7FFFFFF0001FFFFFF0001FFFFFFFFC0007F0001FFFFFFFFC0007FF0003FFFFFF
310
FFFFFF0000000003F000FFF80000000007FFF8001E000FC003E0007FFF80007F
310
FFF0000000000FFFFF8000000000FFF80FFFFFFFFFFFFFC07FFFFFF0001FFFFF
310
F0001FFFFFFFFC0007F0001FFFFFFFFC0007FF0003FFFFFFFFFFFC0000000007
310
F000FFE0000000000FFFF0003E000FC003E0007FFF80007FFFC0000000001FFF
310
FE0000000001FFF80FFFFFFFFFFFFFC07FFFFFF0001FFFFFF0001FFFFFFFFC00
310
07F0001FFFFFFFFC0007FF0003FFFFFFFFFFF0000000000FF000FFC000000000
310
1FFFF0003F000F8003F0003FFF80007FFF80000000003FFFF80000000003FFF8
310
0FFFFFFFFFFFFFC07FFFFFF0001FFFFFF0001FFFFFFFFC0007F0001FFFFFFFFC
310
0007FF0003FFFFFFFFFFE0000000001FF000FF00000000007FFFF0003F000780
310
03F0003FFF80007FFF00000000007FFFF00000000007FFF80FFFFFFFFFFFFFC0
310
7FFFFFF0001FFFFFF0001FFFFFFFFC0007F0001FFFFFFFFC0007FF0003FFFFFF
310
FFFF80000000007FF000FE0000000000FFFFE0003F00078007F0003FFF80007F
310
FE0000000001FFFFE0000000001FFFF80FFFFFFFFFFFFFC07FFFFFF0001FFFFF
310
F0001FFFFFFFFC0007F0001FFFFFFFFC0007FF0003FFFFFFFFFF0000000000FF
310
F000FC0000000003FFFFE0007F00078007F0003FFF80007FFC0000000007FFFF
310
C0000000007FFFF80FFFFFFFFFFFFFC07FFFFFF0001FFFFFF8001FFFFFFFFC00
310
0FF8001FFFFFFFFC000FFF0003FFFFFFFFFE0000000003FFF000FC000000000F
310
FFFFE0007F80070007F8001FFF80007FF8000000001FFFFF8000000001FFFFF8
310
0FFFFFFFFFFFFFC07FFFFFF0001FFFFFF8001FFFFFFFFC000FF8001FFFFFFFFC
310
000FFF0003FFFFFFFFFC000000000FFFF000F8000000007FFFFFE0007F800700
310
07F8001FFF80007FF000000000FFFFFF800000000FFFFFF80FFFFFFFFFFFFFC0
310
7FFFFFF0001FFFFFF8000FFFFFFFF8000FF8000FFFFFFFF8000FFF0003FFFFFF
310
FFFC000000007FFFF000F800000007FFFFFFC0007F8003000FF8001FFF80007F
310
F000000007FFFFFF000000007FFFFFF80FFFFFFFFFFFFFC07FFFFFF0001FFFFF
310
F8000FFFFFFFF8000FF8000FFFFFFFF8000FFF0003FFFFFFFFF80000000FFFFF
310
F000F0000000FFFFFFFFC000FF8003000FF8001FFF80007FE0000000FFFFFFFF
310
0000000FFFFFFFF8000001FFFE0000007FFFFFF0001FFFFFF8000FFFFFFFF800
310
0FF8000FFFFFFFF8000FFF0003FFFFFFFFF8000000FFFFFFF000F000000FFFFF
310
FFFFC000FFC002000FF8000FFF80007FE000001FFFFFFFFE000001FFFFFFFFF8
310
000001FFFE0000007FFFFFF0001FFFFFF8000FFFFFFFF8000FF8000FFFFFFFF8
310
000FFF0003FFFFFFFFF000001FFFFFFFF000E00000FFFFFFFFFFC000FFC00200
310
0FFC000FFF80007FE00001FFFFFFFFFE00001FFFFFFFFFF8000001FFFE000000
310
7FFFFFF0001FFFFFFC000FFFFFFFF8001FFC000FFFFFFFF8001FFF0003FFFFFF
310
FFF00001FFFFFFFFF000E00007FFFFFFFFFF8000FFC000001FFC000FFF80007F
310
C0000FFFFFFFFFFE0000FFFFFFFFFFF8000001FFFE0000007FFFFFF0001FFFFF
310
FC0007FFFFFFF0001FFC0007FFFFFFF0001FFF0003FFFFFFFFF00007FFFFFFFF
310
F000E0001FFFFFFFFFFF8000FFC000001FFC000FFF80007FC0003FFFFFFFFFFE
310
0001FFFFFFFFFFF8000001FFFE0000007FFFFFF0001FFFFFFC0007FFFFFFF000
310
1FFC0007FFFFFFF0001FFF0003FFFFFFFFF0001FFFFFFFFFF000E0003FFFFF00
310
03FF8001FFE000001FFC0007FF80007FC0007FFFFF0007FC0003FFFFF0003FF8
310
000001FFFE0000007FFFFFF0001FFFFFFC0003FFFFFFE0001FFC0003FFFFFFE0
310
001FFF0003FFFFFFFFF0003FFFFFFFFFF000E0003FFFFF0001FF8001FFE00000
310
1FFE0007FF80007FC0007FFFFE0003FC0007FFFFE0003FF8000001FFFE000000
310
7FFFFFF0001FFFFFFE0003FFFFFFE0003FFE0003FFFFFFE0003FFF0003FFFFFF
310
FFF0003FFFFF8001F000E0003FFFFF0001FF0001FFE000001FFE0007FF80007F
310
C0007FFFFE0003FC0007FFFFE0003FF8000001FFFE0000007FFFFFF0001FFFFF
310
FE0001FFFFFFC0003FFE0001FFFFFFC0003FFF0003FFFFFFFFF0003FFFFF0001
310
F000E0003FFFFF0003FF0001FFE000003FFE0007FF80007FC0007FFFFE0003FC
310
0007FFFFE0003FF8000001FFFE0000007FFFFFF0001FFFFFFF0001FFFFFFC000
310
7FFF0001FFFFFFC0007FFF0003FFFFFFFFF0003FFFFF0001F000E0003FFFFE00
310
03FF0003FFF000003FFE0003FF80007FC0007FFFFC0003FE0007FFFFE0003FF8
310
000001FFFE0000007FFFFFF0001FFFFFFF0000FFFFFF80007FFF0000FFFFFF80
310
007FFF0003FFFFFFFFF0003FFFFF0001F000E0003FFFFE0003FF0003FFF00000
310
3FFF0003FF80007FC0007FFFFC0007FE0007FFFFC0003FF8000001FFFE000000
310
7FFFFFF0001FFFFFFF80007FFFFF0000FFFF80007FFFFF0000FFFF0003FFFFFF
310
FFF0003FFFFF0003F000E0003FFFFC0003FE0003FFF000003FFF0003FF80007F
310
E0003FFFF80007FE0003FFFFC0007FF8000001FFFE0000007FFFFFF0001FFFFF
310
FF80003FFFFE0000FFFF80003FFFFE0000FFFF0003FFFFFFFFF0001FFFFE0003
310
F000F0001FFFF80003FE0003FFF000007FFF0001FF80007FE0003FFFF00007FE
310
0001FFFF80007FF8000001FFFE0000007FFFFFF0001FFFFFFFC0000FFFF80001
310
FFFFC0000FFFF80001FFFF0003FFFFFFFFF0001FFFFC0003F000F0000FFFF000
310
07FE0007FFF800007FFF0001FF80007FE0001FFFE00007FF0000FFFE00007FF8
310
000001FFFE0000007FFFFFF0001FFFFFFFC00003FFE00001FFFFC00003FFE000
310
01FFFF0003FFFFFFFFF8000FFFF80003F000F00003FFC00007FC0007FFF80000
310
7FFF8001FF80007FF00007FF80000FFF00007FF80000FFF8000001FFFE000000
310
7F80000000000001FFE000003E000003FFFFE000003E000003FFFF0003FFFFFF
310
FFF80003FFE00007F000F800000000000FFC0007FFF800007FFF8001FF80007F
310
F000000000000FFF000000000000FFF8000001FFFE0000007F80000000000001
310
FFF0000000000007FFFFF0000000000007FFFF0003FFFFFFFFFC00007E000007
310
F000F800000000000FFC0007FFF80000FFFF8000FF80007FF800000000001FFF
310
800000000001FFF8000001FFFE0000007F80000000000001FFF800000000000F
310
FFFFF800000000000FFFFF0003FFFFFFFFFC00000000000FF000FC0000000000
310
1FFC0007FFFC0000FFFF8000FF80007FF800000000003FFFC00000000001FFF8
310
000001FFFE0000007F80000000000001FFF800000000000FFFFFF80000000000
310
0FFFFF0003FFFFFFFFFE00000000001FF000FE00000000003FF8000FFFFC0000
310
FFFF8000FF80007FFC00000000003FFFC00000000003FFF8000001FFFE000000
310
7F80000000000001FFFC00000000001FFFFFFC00000000001FFFFF0003FFFFFF
310
FFFF00000000001FF000FF00000000003FF8000FFFFC0000FFFFC000FF80007F
310
FE00000000007FFFE00000000007FFF8000001FFFE0000007F80000000000001
310
FFFE00000000003FFFFFFE00000000003FFFFF0003FFFFFFFFFF80000000003F
310
F000FF80000000007FF8000FFFFC0001FFFFC0007F80007FFF0000000000FFFF
310
F0000000000FFFF800000000000000007F80000000000001FFFF8000000000FF
310
FFFFFF8000000000FFFFFF0003FFFFFFFFFFC0000000007FF000FFC000000000
310
FFF8000FFFFE0001FFFFC0007F80007FFF8000000001FFFFF8000000001FFFF8
310
00000000000000007F80000000000001FFFFC000000001FFFFFFFFC000000001
310
FFFFFF0003FFFFFFFFFFE000000000FFF000FFE000000003FFF0001FFFFE0001
310
FFFFC0007F80007FFFC000000007FFFFFE000000003FFFF80000000000000000
310
7F80000000000001FFFFE000000003FFFFFFFFE000000003FFFFFF0003FFFFFF
310
FFFFF000000003FFF000FFF80000000FFFF0001FFFFE0001FFFFE0007F80007F
310
FFF00000000FFFFFFF00000000FFFFF800000000000000007F80000000000001
310
FFFFF80000000FFFFFFFFFF80000000FFFFFFF0003FFFFFFFFFFFC0000000FFF
310
F000FFFE0000003FFFF0001FFFFE0003FFFFE0003F80007FFFFC0000003FFFFF
310
FFC0000003FFFFF800000000000000007F80000000000001FFFFFE0000003FFF
310
FFFFFFFE0000003FFFFFFF0003FFFFFFFFFFFF0000003FFFF000FFFF800000FF
310
FFF0001FFFFF0003FFFFE0003F80007FFFFF000001FFFFFFFFF800001FFFFFF8
310
00000000000000007F80000000000001FFFFFFC00001FFFFFFFFFFFFC00001FF
310
FFFFFF0003FFFFFFFFFFFFC00000FFFFF000FFFFF8000FFFFFFFFFFFFFFFFFFF
310
FFFFFFFFFFFFFFFFFFFFF0001FFFFFFFFFFF0000FFFFFFF80000000000000000
310
7FFFFFFFFFFFFFFFFFFFFFFC001FFFFFFFFFFFFFFC001FFFFFFFFFFFFFFFFFFF
310
FFFFFFFC001FFFFFF000FFFFFFFFFFFFFFFFFFFFFFFFFFFFFFFFFFFFFFFFFFFF
310
FFFFFFFFFFFFFFFFFFFFFFFFFFFFFFFFFFFFFFFFFFFFFFFFFFFFFFFFFFFFFFFF
310
FFFFFFFFFFFFFFFFFFFFFFFFFFFFFFFFFFFFFFFFFFFFFFFFFFFFFFFFFFFFFFFF
310
F000FFFFFFFFFFFFFFFFFFFFFFFFFFFFFFFFFFFFFFFFFFFFFFFFFFFFFFFFFFFF
310
FFFFFFFFFFFFFFFFFFFFFFFFFFFFFFFFFFFFFFFFFFFFFFFFFFFFFFFFFFFFFFFF
310
FFFFFFFFFFFFFFFFFFFFFFFFFFFFFFFFFFFFFFFFFFFFFFFFF000FFFFFFFFFFFF
310
FFFFFFFFFFFFFFFFFFFFFFFFFFFFFFFFFFFFFFFFFFFFFFFFFFFFFFFFFFFFFFFF
310
FFFFFFFFFFFFFFFFFFFFFFFFFFFFFFFFFFFFFFFFFFFFFFFFFFFFFFFFFFFFFFFF
310
FFFFFFFFFFFFFFFFFFFFFFFFFFFFFFFFF000FFFFFFFFFFFFFFFFFFFFFFFFFFFF
310
FFFFFFFFFFFFFFFFFFFFFFFFFFFFFFFFFFFFFFFFFFFFFFFFFFFFFFFFFFFFFFFF
310
FFFFFFFFFFFFFFFFFFFFFFFFFFFFFFFFFFFFFFFFFFFFFFFFFFFFFFFFFFFFFFFF
310
FFFFFFFFFFFFFFFFF000FFFFFFFFFFFFFFFFFFFFFFFFFFFFFFFFFFFFFFFFFFFF
310
FFFFFFFFFFFFFFFFFFFFFFFFFFFFFFFFFFFFFFFFFFFFFFFFFFFFFFFFFFFFFFFF
310
FFFFFFFFFFFFFFFFFFFFFFFFFFFFFFFFFFFFFFFFFFFFFFFFFFFFFFFFFFFFFFFF
310
F000FFFFFFFFFFFFFFFFFFFFFFFFFFFFFFFFFFFFFFFFFFFFFFFFFFFFFFFFFFFF
310
FFFFFFFFFFFFFFFFFFFFFFFFFFFFFFFFFFFFFFFFFFFFFFFFFFFFFFFFFFFFFFFF
310
FFFFFFFFFFFFFFFFFFFFFFFFFFFFFFFFFFFFFFFFFFFFFFFFF000FFFFFFFFFFFF
310
FFFFFFFFFFFFFFFFFFFFFFFFFFFFFFFFFFFFFFFFFFFFFFFFFFFFFFFFFFFFFFFF
310
FFFFFFFFFFFFFFFFFFFFFFFFFFFFFFFFFFFFFFFFFFFFFFFFFFFFFFFFFFFFFFFF
310
FFFFFFFFFFFFFFFFFFFFFFFFFFFFFFFFF000FFFFFFFFFFFFFFFFFFFFFFFFFFFF
310
FFFFFFFFFFFFFFFFFFFFFFFFFFFFFFFFFFFFFFFFFFFFFFFFFFFFFFFFFFFFFFFF
310
FFFFFFFFFFFFFFFFFFFFFFFFFFFFFFFFFFFFFFFFFFFFFFFFFFFFFFFFFFFFFFFF
310
FFFFFFFFFFFFFFFFF000FFFFFFFFFFFFFFFFFFFFFFFFFFFFFFFFFFFFFFFFFFFF
310
FFFFFFFFFFFFFFFFFFFFFFFFFFFFFFFFFFFFFFFFFFFFFFFFFFFFFFFFFFFFFFFF
310
FFFFFFFFFFFFFFFFFFFFFFFFFFFFFFFFFFFFFFFFFFFFFFFFFFFFFFFFFFFFFFFF
310
F000FFFFFFFFFFFFFFFFFFFFFFFFFFFFFFFFFFFFFFFFFFFFFFFFFFFFFFFFFFFF
310
FFFFFFFFFFFFFFFFFFFFFFFFFFFFFFFFFFFFFFFFFFFFFFFFFFFFFFFFFFFFFFFF
310
FFFFFFFFFFFFFFFFFFFFFFFFFFFFFFFFFFFFFFFFFFFFFFFFF000FFFFFFFFFFFF
310
FFFFFFFFFFFFFFFFFFFFFFFFFFFFFFFFFFFFFFFFFFFFFFFFFFFFFFFFFFFFFFFF
310
FFFFFFFFFFFFFFFFFFFFFFFFFFFFFFFFFFFFFFFFFFFFFFFFFFFFFFFFFFFFFFFF
310
FFFFFFFFFFFFFFFFFFFFFFFFFFFFFFFFF000FFFFFFFFFFFFFFFFFFFFFFFFFFFF
310
FFFFFFFFFFFFFFFFFFFFFFFFFFFFFFFFFFFFFFFFFFFFFFFFFFFFFFFFFFFFFFFF
310
FFFFFFFFFFFFFFFFFFFFFFFFFFFFFFFFFFFFFFFFFFFFFFFFFFFFFFFFFFFFFFFF
310
FFFFFFFFFFFFFFFFF000FFFFFFFFFFFFFFFFFFFFFFFFFFFFFFFFFFFFFFFFFFFF
310
FFFFFFFFFFFFFFFFFFFFFFFFFFFFFFFFFFFFFFFFFFFFFFFFFFFFFFFFFFFFFFFF
310
FFFFFFFFFFFFFFFFFFFFFFFFFFFFFFFFFFFFFFFFFFFFFFFFFFFFFFFFFFFFFFFF
310
F000FFFFFFFFFFFFFFFFFFFFFFFFFFFFFFFFFFFFFFFFFFFFFFFFFFFFFFFFFFFF
310
FFFFFFFFFFFFFFFFFFFFFFFFFFFFFFFFFFFFFFFFFFFFFFFFFFFFFFFFFFFFFFFF
310
FFFFFFFFFFFFFFFFFFFFFFFFFFFFFFFFFFFFFFFFFFFFFFFFF000FFFFFFFFFFFF
310
FFFFFFFFFFFFFFFFFFFFFFFFFFFFFFFFFFFFFFFFFFFFFFFFFFFFFFFFFFFFFFFF
310
FFFFFFFFFFFFFFFFFFFFFFFFFFFFFFFFFFFFFFFFFFFFFFFFFFFFFFFFFFFFFFFF
310
FFFFFFFFFFFFFFFFFFFFFFFFFFFFFFFFF000FFFFFFFFFFFFFFFFFFFFFFFFFFFF
310
FFFFFFFFFFFFFFFFFFFFFFFFFFFFFFFFFFFFFFFFFFFFFFFFFFFFFFFFFFFFFFFF
310
FFFFFFFFFFFFFFFFFFFFFFFFFFFFFFFFFFFFFFFFFFFFFFFFFFFFFFFFFFFFFFFF
310
FFFFFFFFFFFFFFFFF000FFFFFFFFFFFFFFFFFFFFFFFFFFFFFFFFFFFFFFFFFFFF
310
FFFFFFFFFFFFFFFFFFFFFFFFFFFFFFFFFFFFFFFFFFFFFFFFFFFFFFFFFFFFFFFF
310
FFFFFFFFFFFFFFFFFFFFFFFFFFFFFFFFFFFFFFFFFFFFFFFFFFFFFFFFFFFFFFFF
310
F000FFFFFFFFFFFFFFFFFFFFFFFFFFFFFFFFFFFFFFFFFFFFFFFFFFFFFFFFFFFF
310
FFFFFFFFFFFFFFFFFFFFFFFFFFFFFFFFFFFFFFFFFFFFFFFFFFFFFFFFFFFFFFFF
310
FFFFFFFFFFFFFFFFFFFFFFFFFFFFFFFFFFFFFFFFFFFFFFFFF000FFFFFFFFFFFF
310
FFFFFFFFFFFFFFFFFFFFFFFFFFFFFFFFFFFFFFFFFFFFFFFFFFFFFFFFFFFFFFFF
310
FFFFFFFFFFFFFFFFFFFFFFFFFFFFFFFFFFFFFFFFFFFFFFFFFFFFFFFFFFFFFFFF
310
FFFFFFFFFFFFFFFFFFFFFFFFFFFFFFFFF000FFFFFFFFFFFFFFFFFFFFFFFFFFFF
310
FFFFFFFFFFFFFFFFFFFFFFFFFFFFFFFFFFFFFFFFFFFFFFFFFFFFFFFFFFFFFFFF
310
FFFFFFFFFFFFFFFFFFFFFFFFFFFFFFFFFFFFFFFFFFFFFFFFFFFFFFFFFFFFFFFF
310
FFFFFFFFFFFFFFFFF000FFFFFFFFFFFFFFFFFFFFFFFFFFFFFFFFFFFFFFFFFFFF
310
FFFFFFFFFFFFFFFFFFFFFFFFFFFFFFFFFFFFFFFFFFFFFFFFFFFFFFFFFFFFFFFF
310
FFFFFFFFFFFFFFFFFFFFFFFFFFFFFFFFFFFFFFFFFFFFFFFFFFFFFFFFFFFFFFFF
310
F000FFFFFFFFFFFFFFFFFFFFFFFFFFFFFFFFFFFFFFFFFFFFFFFFFFFFFFFFFFFF
310
FFFFFFFFFFFFFFFFFFFFFFFFFFFFFFFFFFFFFFFFFFFFFFFFFFFFFFFFFFFFFFFF
310
FFFFFFFFFFFFFFFFFFFFFFFFFFFFFFFFFFFFFFFFFFFFFFFFF000FFFFFFFFFFFF
310
FFFFFFFFFFFFFFFFFFFFFFFFFFFFFFFFFFFFFFFFFFFFFFFFFFFFFFFFFFFFFFFF
310
FFFFFFFFFFFFFFFFFFFFFFFFFFFFFFFFFFFFFFFFFFFFFFFFFFFFFFFFFFFFFFFF
310
FFFFFFFFFFFFFFFFFFFFFFFFFFFFFFFFF0000000000000000000000000000000
310
0000000000000000000000000000000000000000000000000000000000000000
310
0000000000000000000000000000000000000000000000000000000000000000
310
0000000000000000000000000000000000000000000000000000000000000000
310
0000000000000000000000000000000000000000000000000000000000000000
310
0000000000000000000000000000000000000000000000000000000000000000
310
0000000000000000000000000000000000000000000000000000000000000000
310
0000000000000000000000000000000000000000000000000000000000000000
310
0000000000000000000000000000000000000000000000000000000000000000
310
0000000000000000000000000000000000000000000000000000000000000000
310
0000000000000000000000000000000000000000000000000000000000000000
310
0000000000000000000000000000000000000000000000000000000000000000
310
0000000000000000000000000000000000000000000000000000000000000000
310
0000000000000000000000000000000000000000000000000000000000000000
310
0000000000000000000000000000000000000000000000000000000000000000
310
0000000000000000000000000000000000000000000000000000000000000000
  1
OLE
  0
ENDSEC
  0
SECTION
  2
OBJECTS
  0
DICTIONARY
  5
C
330
0
100
AcDbDictionary
281
     1
  3
ACAD_GROUP
350
D
  3
ACAD_LAYOUT
350
1A
  3
ACAD_MLINESTYLE
350
17
  3
ACAD_PLOTSETTINGS
350
19
  3
ACAD_PLOTSTYLENAME
350
E
  0
DICTIONARY
  5
D
102
{ACAD_REACTORS
330
C
102
}
330
C
100
AcDbDictionary
281
     1
  0
DICTIONARY
  5
1A
102
{ACAD_REACTORS
330
C
102
}
330
C
100
AcDbDictionary
281
     1
  3
Layout1
350
1E
  3
Layout2
350
26
  3
Model
350
22
  0
DICTIONARY
  5
17
102
{ACAD_REACTORS
330
C
102
}
330
C
100
AcDbDictionary
281
     1
  3
Standard
350
18
  0
DICTIONARY
  5
19
102
{ACAD_REACTORS
330
C
102
}
330
C
100
AcDbDictionary
281
     1
  0
ACDBDICTIONARYWDFLT
  5
E
102
{ACAD_REACTORS
330
C
102
}
330
C
100
AcDbDictionary
281
     1
  3
Normal
350
F
100
AcDbDictionaryWithDefault
340
F
  0
LAYOUT
  5
1E
102
{ACAD_REACTORS
330
1A
102
}
330
1A
100
AcDbPlotSettings
  1

  2
none_device
  4

  6

 40
0.0
 41
0.0
 42
0.0
 43
0.0
 44
0.0
 45
0.0
 46
0.0
 47
0.0
 48
0.0
 49
0.0
140
0.0
141
0.0
142
1.0
143
1.0
 70
   688
 72
     0
 73
     0
 74
     5
  7

 75
    16
147
1.0
148
0.0
149
0.0
100
AcDbLayout
  1
Layout1
 70
     1
 71
     1
 10
0.0
 20
0.0
 11
420.0
 21
297.0
 12
0.0
 22
0.0
 32
0.0
 14
1.0000000000E+20
 24
1.0000000000E+20
 34
1.0000000000E+20
 15
-1.0000000000E+20
 25
-1.0000000000E+20
 35
-1.0000000000E+20
146
0.0
 13
0.0
 23
0.0
 33
0.0
 16
1.0
 26
0.0
 36
0.0
 17
0.0
 27
1.0
 37
0.0
 76
     0
330
1B
  0
LAYOUT
  5
26
102
{ACAD_REACTORS
330
1A
102
}
330
1A
100
AcDbPlotSettings
  1

  2
none_device
  4

  6

 40
0.0
 41
0.0
 42
0.0
 43
0.0
 44
0.0
 45
0.0
 46
0.0
 47
0.0
 48
0.0
 49
0.0
140
0.0
141
0.0
142
1.0
143
1.0
 70
   688
 72
     0
 73
     0
 74
     5
  7

 75
    16
147
1.0
148
0.0
149
0.0
100
AcDbLayout
  1
Layout2
 70
     1
 71
     2
 10
0.0
 20
0.0
 11
0.0
 21
0.0
 12
0.0
 22
0.0
 32
0.0
 14
0.0
 24
0.0
 34
0.0
 15
0.0
 25
0.0
 35
0.0
146
0.0
 13
0.0
 23
0.0
 33
0.0
 16
1.0
 26
0.0
 36
0.0
 17
0.0
 27
1.0
 37
0.0
 76
     0
330
23
  0
LAYOUT
  5
22
102
{ACAD_REACTORS
330
1A
102
}
330
1A
100
AcDbPlotSettings
  1

  2
none_device
  4

  6

 40
0.0
 41
0.0
 42
0.0
 43
0.0
 44
0.0
 45
0.0
 46
0.0
 47
0.0
 48
0.0
 49
0.0
140
0.0
141
0.0
142
1.0
143
1.0
 70
  1712
 72
     0
 73
     0
 74
     0
  7

 75
     0
147
1.0
148
0.0
149
0.0
100
AcDbLayout
  1
Model
 70
     1
 71
     0
 10
0.0
 20
0.0
 11
297.0
 21
210.0
 12
0.0
 22
0.0
 32
0.0
 14
0.0
 24
0.0
 34
0.0
 15
297.0
 25
210.0
 35
0.0
146
0.0
 13
0.0
 23
0.0
 33
0.0
 16
1.0
 26
0.0
 36
0.0
 17
0.0
 27
1.0
 37
0.0
 76
     0
330
1F
331
29
  0
MLINESTYLE
  5
18
102
{ACAD_REACTORS
330
17
102
}
330
17
100
AcDbMlineStyle
  2
Standard
 70
     0
  3

 62
   256
 51
90.0
 52
90.0
 71
     2
 49
0.5
 62
   256
  6
BYLAYER
 49
-0.5
 62
   256
  6
BYLAYER
  0
ACDBPLACEHOLDER
  5
F
102
{ACAD_REACTORS
330
E
102
}
330
E
  0
ENDSEC
  0
EOF
