  0
SECTION
  2
HEADER
  9
$ACADVER
  1
AC1015
  9
$ACADMAINTVER
 70
     6
  9
$DWGCODEPAGE
  3
ANSI_1252
  9
$INSBASE
 10
0.0
 20
0.0
 30
0.0
  9
$EXTMIN
 10
0.0
 20
0.0
 30
0.0
  9
$EXTMAX
 10
297.0
 20
210.0
 30
0.0
  9
$LIMMIN
 10
0.0
 20
0.0
  9
$LIMMAX
 10
297.0
 20
210.0
  9
$ORTHOMODE
 70
     0
  9
$REGENMODE
 70
     1
  9
$FILLMODE
 70
     1
  9
$QTEXTMODE
 70
     0
  9
$MIRRTEXT
 70
     1
  9
$LTSCALE
 40
1.0
  9
$ATTMODE
 70
     1
  9
$TEXTSIZE
 40
2.0
  9
$TRACEWID
 40
1.0
  9
$TEXTSTYLE
  7
Standard
  9
$CLAYER
  8
0
  9
$CELTYPE
  6
ByLayer
  9
$CECOLOR
 62
   256
  9
$CELTSCALE
 40
1.0
  9
$DISPSILH
 70
     0
  9
$DIMSCALE
 40
1.0
  9
$DIMASZ
 40
3.0
  9
$DIMEXO
 40
0.0
  9
$DIMDLI
 40
3.75
  9
$DIMRND
 40
0.0
  9
$DIMDLE
 40
0.0
  9
$DIMEXE
 40
1.0
  9
$DIMTP
 40
0.0
  9
$DIMTM
 40
0.0
  9
$DIMTXT
 40
2.0
  9
$DIMCEN
 40
2.5
  9
$DIMTSZ
 40
0.0
  9
$DIMTOL
 70
     0
  9
$DIMLIM
 70
     0
  9
$DIMTIH
 70
     1
  9
$DIMTOH
 70
     1
  9
$DIMSE1
 70
     0
  9
$DIMSE2
 70
     0
  9
$DIMTAD
 70
     1
  9
$DIMZIN
 70
     0
  9
$DIMBLK
  1

  9
$DIMASO
 70
     1
  9
$DIMSHO
 70
     1
  9
$DIMPOST
  1

  9
$DIMAPOST
  1

  9
$DIMALT
 70
     0
  9
$DIMALTD
 70
     3
  9
$DIMALTF
 40
0.0393700787
  9
$DIMLFAC
 40
1.0
  9
$DIMTOFL
 70
     1
  9
$DIMTVP
 40
0.0
  9
$DIMTIX
 70
     0
  9
$DIMSOXD
 70
     0
  9
$DIMSAH
 70
     0
  9
$DIMBLK1
  1

  9
$DIMBLK2
  1

  9
$DIMSTYLE
  2
ISO-25
  9
$DIMCLRD
 70
     0
  9
$DIMCLRE
 70
     0
  9
$DIMCLRT
 70
     0
  9
$DIMTFAC
 40
1.0
  9
$DIMGAP
 40
1.524
  9
$DIMJUST
 70
     0
  9
$DIMSD1
 70
     0
  9
$DIMSD2
 70
     0
  9
$DIMTOLJ
 70
     0
  9
$DIMTZIN
 70
     0
  9
$DIMALTZ
 70
     0
  9
$DIMALTTZ
 70
     0
  9
$DIMUPT
 70
     0
  9
$DIMDEC
 70
     2
  9
$DIMTDEC
 70
     3
  9
$DIMALTU
 70
     2
  9
$DIMALTTD
 70
     3
  9
$DIMTXSTY
  7
Standard
  9
$DIMAUNIT
 70
     0
  9
$DIMADEC
 70
     2
  9
$DIMALTRND
 40
0.0
  9
$DIMAZIN
 70
     0
  9
$DIMDSEP
 70
    44
  9
$DIMATFIT
 70
     3
  9
$DIMFRAC
 70
     0
  9
$DIMLDRBLK
  1

  9
$DIMLUNIT
 70
     2
  9
$DIMLWD
 70
    -2
  9
$DIMLWE
 70
    -2
  9
$DIMTMOVE
 70
     0
  9
$LUNITS
 70
     2
  9
$LUPREC
 70
     2
  9
$SKETCHINC
 40
1.0
  9
$FILLETRAD
 40
10.0
  9
$AUNITS
 70
     0
  9
$AUPREC
 70
     2
  9
$MENU
  1
.
  9
$ELEVATION
 40
0.0
  9
$PELEVATION
 40
0.0
  9
$THICKNESS
 40
0.0
  9
$LIMCHECK
 70
     0
  9
$CHAMFERA
 40
0.0
  9
$CHAMFERB
 40
0.0
  9
$CHAMFERC
 40
0.0
  9
$CHAMFERD
 40
0.0
  9
$SKPOLY
 70
     0
  9
$TDCREATE
 40
2458157.550588704
  9
$TDUCREATE
 40
2458157.508922037
  9
$TDUPDATE
 40
2458157.550590694
  9
$TDUUPDATE
 40
2458157.508924028
  9
$TDINDWG
 40
0.0000000116
  9
$TDUSRTIMER
 40
0.0000000116
  9
$USRTIMER
 70
     1
  9
$ANGBASE
 50
0.0
  9
$ANGDIR
 70
     0
  9
$PDMODE
 70
     0
  9
$PDSIZE
 40
-1.0
  9
$PLINEWID
 40
0.0
  9
$SPLFRAME
 70
     0
  9
$SPLINETYPE
 70
     6
  9
$SPLINESEGS
 70
     8
  9
$HANDSEED
  5
220
  9
$SURFTAB1
 70
     6
  9
$SURFTAB2
 70
     6
  9
$SURFTYPE
 70
     6
  9
$SURFU
 70
     6
  9
$SURFV
 70
     6
  9
$UCSBASE
  2

  9
$UCSNAME
  2

  9
$UCSORG
 10
0.0
 20
0.0
 30
0.0
  9
$UCSXDIR
 10
1.0
 20
0.0
 30
0.0
  9
$UCSYDIR
 10
0.0
 20
1.0
 30
0.0
  9
$UCSORTHOREF
  2

  9
$UCSORTHOVIEW
 70
     0
  9
$UCSORGTOP
 10
0.0
 20
0.0
 30
0.0
  9
$UCSORGBOTTOM
 10
0.0
 20
0.0
 30
0.0
  9
$UCSORGLEFT
 10
0.0
 20
0.0
 30
0.0
  9
$UCSORGRIGHT
 10
0.0
 20
0.0
 30
0.0
  9
$UCSORGFRONT
 10
0.0
 20
0.0
 30
0.0
  9
$UCSORGBACK
 10
0.0
 20
0.0
 30
0.0
  9
$PUCSBASE
  2

  9
$PUCSNAME
  2

  9
$PUCSORG
 10
0.0
 20
0.0
 30
0.0
  9
$PUCSXDIR
 10
1.0
 20
0.0
 30
0.0
  9
$PUCSYDIR
 10
0.0
 20
1.0
 30
0.0
  9
$PUCSORTHOREF
  2

  9
$PUCSORTHOVIEW
 70
     0
  9
$PUCSORGTOP
 10
0.0
 20
0.0
 30
0.0
  9
$PUCSORGBOTTOM
 10
0.0
 20
0.0
 30
0.0
  9
$PUCSORGLEFT
 10
0.0
 20
0.0
 30
0.0
  9
$PUCSORGRIGHT
 10
0.0
 20
0.0
 30
0.0
  9
$PUCSORGFRONT
 10
0.0
 20
0.0
 30
0.0
  9
$PUCSORGBACK
 10
0.0
 20
0.0
 30
0.0
  9
$USERI1
 70
     0
  9
$USERI2
 70
     0
  9
$USERI3
 70
     0
  9
$USERI4
 70
     0
  9
$USERI5
 70
     0
  9
$USERR1
 40
0.0
  9
$USERR2
 40
0.0
  9
$USERR3
 40
0.0
  9
$USERR4
 40
0.0
  9
$USERR5
 40
0.0
  9
$WORLDVIEW
 70
     1
  9
$SHADEDGE
 70
     3
  9
$SHADEDIF
 70
    70
  9
$TILEMODE
 70
     1
  9
$MAXACTVP
 70
    64
  9
$PINSBASE
 10
0.0
 20
0.0
 30
0.0
  9
$PLIMCHECK
 70
     0
  9
$PEXTMIN
 10
1.0000000000E+20
 20
1.0000000000E+20
 30
1.0000000000E+20
  9
$PEXTMAX
 10
-1.0000000000E+20
 20
-1.0000000000E+20
 30
-1.0000000000E+20
  9
$PLIMMIN
 10
0.0
 20
0.0
  9
$PLIMMAX
 10
420.0
 20
297.0
  9
$UNITMODE
 70
     0
  9
$VISRETAIN
 70
     1
  9
$PLINEGEN
 70
     0
  9
$PSLTSCALE
 70
     1
  9
$TREEDEPTH
 70
  3020
  9
$CMLSTYLE
  2
Standard
  9
$CMLJUST
 70
     0
  9
$CMLSCALE
 40
20.0
  9
$PROXYGRAPHICS
 70
     1
  9
$MEASUREMENT
 70
     1
  9
$CELWEIGHT
370
    -1
  9
$ENDCAPS
280
     0
  9
$JOINSTYLE
280
     0
  9
$LWDISPLAY
290
     1
  9
$INSUNITS
 70
     4
  9
$HYPERLINKBASE
  1

  9
$STYLESHEET
  1

  9
$XEDIT
290
     1
  9
$CEPSNTYPE
380
     0
  9
$PSTYLEMODE
290
     1
  9
$FINGERPRINTGUID
  2
{F79601C2-87B0-4902-95DE-77AB5DE2DE59}
  9
$VERSIONGUID
  2
{FAEB1C32-E019-11D5-929B-00C0DF256EC4}
  9
$EXTNAMES
290
     1
  9
$PSVPSCALE
 40
0.0
  9
$OLESTARTUP
290
     0
  0
ENDSEC
  0
SECTION
  2
CLASSES
  0
CLASS
  1
ACDBDICTIONARYWDFLT
  2
AcDbDictionaryWithDefault
  3
ObjectDBX Classes
 90
        0
280
     0
281
     0
  0
CLASS
  1
VISUALSTYLE
  2
AcDbVisualStyle
  3
ObjectDBX Classes
 90
     4095
280
     0
281
     0
  0
CLASS
  1
MATERIAL
  2
AcDbMaterial
  3
ObjectDBX Classes
 90
     1153
280
     0
281
     0
  0
CLASS
  1
SCALE
  2
AcDbScale
  3
ObjectDBX Classes
 90
     1153
280
     0
281
     0
  0
CLASS
  1
TABLESTYLE
  2
AcDbTableStyle
  3
ObjectDBX Classes
 90
     4095
280
     0
281
     0
  0
CLASS
  1
MLEADERSTYLE
  2
AcDbMLeaderStyle
  3
ACDB_MLEADERSTYLE_CLASS
 90
     4095
280
     0
281
     0
  0
CLASS
  1
SUN
  2
AcDbSun
  3
SCENEOE
 90
     1153
280
     0
281
     0
  0
CLASS
  1
ACDBPLACEHOLDER
  2
AcDbPlaceHolder
  3
ObjectDBX Classes
 90
        0
280
     0
281
     0
  0
CLASS
  1
LAYOUT
  2
AcDbLayout
  3
ObjectDBX Classes
 90
        0
280
     0
281
     0
  0
ENDSEC
  0
SECTION
  2
TABLES
  0
TABLE
  2
VPORT
  5
8
330
0
100
AcDbSymbolTable
 70
     1
  0
VPORT
  5
29
330
8
100
AcDbSymbolTableRecord
100
AcDbViewportTableRecord
  2
*Active
 70
     0
 10
0.0
 20
0.0
 11
1.0
 21
1.0
 12
148.5
 22
105.0
 13
0.0
 23
0.0
 14
10.0
 24
10.0
 15
10.0
 25
10.0
 16
0.0
 26
0.0
 36
1.0
 17
0.0
 27
0.0
 37
0.0
 40
210.0
 41
1.4142857143
 42
50.0
 43
0.0
 44
0.0
 50
0.0
 51
0.0
 71
     0
 72
  2000
 73
     1
 74
     3
 75
     0
 76
     0
 77
     0
 78
     0
281
     0
 65
     1
110
0.0
120
0.0
130
0.0
111
1.0
121
0.0
131
0.0
112
0.0
122
1.0
132
0.0
 79
     0
146
0.0
  0
ENDTAB
  0
TABLE
  2
LTYPE
  5
5
330
0
100
AcDbSymbolTable
 70
     6
  0
LTYPE
  5
14
330
5
100
AcDbSymbolTableRecord
100
AcDbLinetypeTableRecord
  2
ByBlock
 70
     0
  3

 72
    65
 73
     0
 40
0.0
  0
LTYPE
  5
15
330
5
100
AcDbSymbolTableRecord
100
AcDbLinetypeTableRecord
  2
ByLayer
 70
     0
  3

 72
    65
 73
     0
 40
0.0
  0
LTYPE
  5
16
330
5
100
AcDbSymbolTableRecord
100
AcDbLinetypeTableRecord
  2
Continuous
 70
     0
  3
Solid line
 72
    65
 73
     0
 40
0.0
  0
LTYPE
  5
6E
330
5
100
AcDbSymbolTableRecord
100
AcDbLinetypeTableRecord
  2
HIDDEN
 70
     0
  3
Hidden __ __ __ __ __ __ __ __ __ __ __ __ __ __
 72
    65
 73
     2
 40
1.905
 49
1.27
 74
     0
 49
-0.635
 74
     0
  0
LTYPE
  5
6F
330
5
100
AcDbSymbolTableRecord
100
AcDbLinetypeTableRecord
  2
PHANTOM
 70
     0
  3
Phantom ______  __  __  ______  __  __  ______
 72
    65
 73
     6
 40
12.7
 49
6.35
 74
     0
 49
-1.27
 74
     0
 49
1.27
 74
     0
 49
-1.27
 74
     0
 49
1.27
 74
     0
 49
-1.27
 74
     0
  0
LTYPE
  5
70
330
5
100
AcDbSymbolTableRecord
100
AcDbLinetypeTableRecord
  2
CENTER
 70
     0
  3
Center ____ _ ____ _ ____ _ ____ _ ____ _ ____
 72
    65
 73
     4
 40
10.16
 49
6.35
 74
     0
 49
-1.27
 74
     0
 49
1.27
 74
     0
 49
-1.27
 74
     0
  0
LTYPE
  5
71
330
5
100
AcDbSymbolTableRecord
100
AcDbLinetypeTableRecord
  2
CENTERX2
 70
     0
  3
Center (2x) ________  __  ________  __  _____
 72
    65
 73
     4
 40
20.32
 49
12.7
 74
     0
 49
-2.54
 74
     0
 49
2.54
 74
     0
 49
-2.54
 74
     0
  0
LTYPE
  5
72
330
5
100
AcDbSymbolTableRecord
100
AcDbLinetypeTableRecord
  2
DOT2
 70
     0
  3
Dot (.5x) ........................................
 72
    65
 73
     2
 40
0.635
 49
0.0
 74
     0
 49
-0.635
 74
     0
  0
ENDTAB
  0
TABLE
  2
LAYER
  5
2
330
0
100
AcDbSymbolTable
 70
     5
  0
LAYER
  5
10
330
2
100
AcDbSymbolTableRecord
100
AcDbLayerTableRecord
  2
0
 70
     0
 62
     7
  6
Continuous
370
    -3
390
F
  0
LAYER
  5
73
330
2
100
AcDbSymbolTableRecord
100
AcDbLayerTableRecord
  2
FORMAT
 70
     0
 62
     7
  6
Continuous
370
    -3
390
F
  0
LAYER
  5
74
330
2
100
AcDbSymbolTableRecord
100
AcDbLayerTableRecord
  2
VERMASSUNG
 70
     0
 62
     7
  6
Continuous
370
    -3
390
F
  0
LAYER
  5
75
330
2
100
AcDbSymbolTableRecord
100
AcDbLayerTableRecord
  2
KOPF_DÜNN
 70
     0
 62
     7
  6
Continuous
370
    -3
390
F
  0
LAYER
  5
76
330
2
100
AcDbSymbolTableRecord
100
AcDbLayerTableRecord
  2
KOPF_DICK
 70
     0
 62
     7
  6
Continuous
370
    25
390
F
  0
ENDTAB
  0
TABLE
  2
STYLE
  5
3
330
0
100
AcDbSymbolTable
 70
     2
  0
STYLE
  5
11
330
3
100
AcDbSymbolTableRecord
100
AcDbTextStyleTableRecord
  2
Standard
 70
     0
 40
0.0
 41
1.0
 50
0.0
 71
     0
 42
2.0
  3
txt
  4

  0
STYLE
  5
77
330
3
100
AcDbSymbolTableRecord
100
AcDbTextStyleTableRecord
  2
SLDTEXTSTYLE0
 70
     0
 40
0.0
 41
0.7
 50
0.0
 71
     0
 42
2.0
  3
TXT
  4

  0
ENDTAB
  0
TABLE
  2
VIEW
  5
6
330
0
100
AcDbSymbolTable
 70
     0
  0
ENDTAB
  0
TABLE
  2
UCS
  5
7
330
0
100
AcDbSymbolTable
 70
     0
  0
ENDTAB
  0
TABLE
  2
APPID
  5
9
330
0
100
AcDbSymbolTable
 70
     1
  0
APPID
  5
12
330
9
100
AcDbSymbolTableRecord
100
AcDbRegAppTableRecord
  2
ACAD
 70
     0
  0
ENDTAB
  0
TABLE
  2
DIMSTYLE
  5
A
330
0
100
AcDbSymbolTable
 70
     5
100
AcDbDimStyleTable
  0
DIMSTYLE
105
27
330
A
100
AcDbSymbolTableRecord
100
AcDbDimStyleTableRecord
  2
ISO-25
 70
     0
 41
2.5
 42
0.625
 43
3.75
 44
1.25
 73
     0
 74
     0
 77
     1
 78
     8
140
2.5
141
2.5
143
0.0393700787
147
0.625
171
     3
172
     1
178
     0
271
     2
272
     2
274
     3
278
    44
283
     0
284
     8
340
11
  0
DIMSTYLE
105
1A4
102
{ACAD_REACTORS
330
1A3
330
1BB
102
}
330
A
100
AcDbSymbolTableRecord
100
AcDbDimStyleTableRecord
  2
SLDDIMSTYLE0
 70
     0
 41
3.0
 44
0.0
 45
0.000000001
 47
0.1
 48
0.1
 71
     1
 73
     0
 74
     0
 77
     1
 78
    12
 79
     3
140
2.0
147
0.5
173
     1
178
     0
271
     2
272
     1
276
     2
284
     8
340
77
  0
DIMSTYLE
105
1B1
102
{ACAD_REACTORS
330
1B0
330
1D0
102
}
330
A
100
AcDbSymbolTableRecord
100
AcDbDimStyleTableRecord
  2
SLDDIMSTYLE1
 70
     0
 41
3.0
 44
0.0
 45
0.000000001
 73
     0
 74
     0
 77
     1
 78
    12
 79
     3
140
2.0
147
0.5
173
     1
178
     0
271
     2
272
     3
276
     2
284
    12
340
77
  0
DIMSTYLE
105
1C8
102
{ACAD_REACTORS
330
1C7
102
}
330
A
100
AcDbSymbolTableRecord
100
AcDbDimStyleTableRecord
  2
SLDDIMSTYLE2
 70
     0
 41
3.0
 44
0.0
 73
     0
 74
     0
 77
     1
 78
    12
 79
     3
140
2.0
147
0.5
173
     1
178
     0
179
     2
272
     3
276
     2
284
    12
340
77
  0
DIMSTYLE
105
203
102
{ACAD_REACTORS
330
202
102
}
330
A
100
AcDbSymbolTableRecord
100
AcDbDimStyleTableRecord
  2
SLDDIMSTYLE3
 70
     0
 41
3.0
 44
0.0
 45
0.000000001
 73
     0
 74
     0
 77
     1
 78
    12
 79
     3
140
2.0
147
0.5
172
     1
173
     1
178
     0
271
     2
272
     3
276
     2
284
     8
289
     0
340
77
  0
ENDTAB
  0
TABLE
  2
BLOCK_RECORD
  5
1
330
0
100
AcDbSymbolTable
 70
     8
  0
BLOCK_RECORD
  5
1F
330
1
100
AcDbSymbolTableRecord
100
AcDbBlockTableRecord
  2
*Model_Space
340
22
  0
BLOCK_RECORD
  5
1B
330
1
100
AcDbSymbolTableRecord
100
AcDbBlockTableRecord
  2
*Paper_Space
340
1E
  0
BLOCK_RECORD
  5
23
330
1
100
AcDbSymbolTableRecord
100
AcDbBlockTableRecord
  2
*Paper_Space0
340
26
  0
BLOCK_RECORD
  5
1A5
330
1
100
AcDbSymbolTableRecord
100
AcDbBlockTableRecord
  2
_D
340
0
  0
BLOCK_RECORD
  5
1B2
330
1
100
AcDbSymbolTableRecord
100
AcDbBlockTableRecord
  2
_D_1
340
0
  0
BLOCK_RECORD
  5
1BC
330
1
100
AcDbSymbolTableRecord
100
AcDbBlockTableRecord
  2
_D_2
340
0
  0
BLOCK_RECORD
  5
1C9
330
1
100
AcDbSymbolTableRecord
100
AcDbBlockTableRecord
  2
_D_3
340
0
  0
BLOCK_RECORD
  5
1D1
330
1
100
AcDbSymbolTableRecord
100
AcDbBlockTableRecord
  2
_D_4
340
0
  0
BLOCK_RECORD
  5
204
330
1
100
AcDbSymbolTableRecord
100
AcDbBlockTableRecord
  2
_D_5
340
0
  0
BLOCK_RECORD
  5
211
330
1
100
AcDbSymbolTableRecord
100
AcDbBlockTableRecord
  2
SW_CENTERMARKSYMBOL_0
340
0
102
{BLKREFS
331
21C
102
}
  0
ENDTAB
  0
ENDSEC
  0
SECTION
  2
BLOCKS
  0
BLOCK
  5
20
330
1F
100
AcDbEntity
  8
0
100
AcDbBlockBegin
  2
*Model_Space
 70
     0
 10
0.0
 20
0.0
 30
0.0
  3
*Model_Space
  1

  0
ENDBLK
  5
21
330
1F
100
AcDbEntity
  8
0
100
AcDbBlockEnd
  0
BLOCK
  5
1C
330
1B
100
AcDbEntity
 67
     1
  8
0
100
AcDbBlockBegin
  2
*Paper_Space
 70
     0
 10
0.0
 20
0.0
 30
0.0
  3
*Paper_Space
  1

  0
ENDBLK
  5
1D
330
1B
100
AcDbEntity
 67
     1
  8
0
100
AcDbBlockEnd
  0
BLOCK
  5
24
330
23
100
AcDbEntity
  8
0
100
AcDbBlockBegin
  2
*Paper_Space0
 70
     0
 10
0.0
 20
0.0
 30
0.0
  3
*Paper_Space0
  1

  0
ENDBLK
  5
25
330
23
100
AcDbEntity
  8
0
100
AcDbBlockEnd
  0
BLOCK
  5
1A6
330
1A5
100
AcDbEntity
  8
0
100
AcDbBlockBegin
  2
_D
 70
     0
 10
0.0
 20
0.0
 30
0.0
  3
_D
  1

  0
SOLID
  5
1A8
330
1A5
100
AcDbEntity
  8
VERMASSUNG
100
AcDbTrace
 10
268.6674110301
 20
80.9765351628
 30
0.0
 11
269.1174110301
 21
83.9765351628
 31
0.0
 12
268.2174110301
 22
83.9765351628
 32
0.0
 13
268.2174110301
 23
83.9765351628
 33
0.0
  0
SOLID
  5
1A9
330
1A5
100
AcDbEntity
  8
VERMASSUNG
100
AcDbTrace
 10
268.6674110301
 20
125.9765351628
 30
0.0
 11
268.2174110301
 21
122.9765351628
 31
0.0
 12
269.1174110301
 22
122.9765351628
 32
0.0
 13
269.1174110301
 23
122.9765351628
 33
0.0
  0
LINE
  5
1AA
330
1A5
100
AcDbEntity
  8
VERMASSUNG
100
AcDbLine
 10
248.887061787
 20
80.9765351628
 30
0.0
 11
269.6674110301
 21
80.9765351628
 31
0.0
  0
LINE
  5
1AB
330
1A5
100
AcDbEntity
  8
VERMASSUNG
100
AcDbLine
 10
248.887061787
 20
125.9765351628
 30
0.0
 11
269.6674110301
 21
125.9765351628
 31
0.0
  0
LINE
  5
1AC
330
1A5
100
AcDbEntity
  8
VERMASSUNG
100
AcDbLine
 10
268.6674110301
 20
80.9765351628
 30
0.0
 11
268.6674110301
 21
125.9765351628
 31
0.0
  0
MTEXT
  5
1AD
330
1A5
100
AcDbEntity
  8
VERMASSUNG
100
AcDbMText
 10
266.0892754341
 20
99.726534781
 30
0.0
 40
2.0
 41
0.0
 71
     1
 72
     1
  1
45
  7
SLDTEXTSTYLE0
 11
-6.049014748177263E-16
 21
1.0
 31
0.0
 73
     1
 44
1.0
  0
MTEXT
  5
1AE
330
1A5
100
AcDbEntity
  8
VERMASSUNG
100
AcDbMText
 10
266.0892754341
 20
103.914034807
 30
0.0
 40
2.0
 41
0.0
 71
     1
 72
     1
  1

  7
SLDTEXTSTYLE0
 11
-6.049014748177263E-16
 21
1.0
 31
0.0
 73
     1
 44
1.0
  0
MTEXT
  5
1AF
330
1A5
100
AcDbEntity
  8
VERMASSUNG
100
AcDbMText
 10
266.5838092678
 20
103.9265346312
 30
0.0
 40
1.5
 41
0.0
 71
     1
 72
     1
  1
±0.1
  7
SLDTEXTSTYLE0
 11
-6.049014748177263E-16
 21
1.0
 31
0.0
 73
     1
 44
1.0
  0
ENDBLK
  5
1A7
330
1A5
100
AcDbEntity
  8
0
100
AcDbBlockEnd
  0
BLOCK
  5
1B3
330
1B2
100
AcDbEntity
  8
0
100
AcDbBlockBegin
  2
_D_1
 70
     0
 10
0.0
 20
0.0
 30
0.0
  3
_D_1
  1

  0
SOLID
  5
1B5
330
1B2
100
AcDbEntity
  8
VERMASSUNG
100
AcDbTrace
 10
145.887061787
 20
62.4493800851
 30
0.0
 11
148.887061787
 21
61.9993800851
 31
0.0
 12
148.887061787
 22
62.8993800851
 32
0.0
 13
148.887061787
 23
62.8993800851
 33
0.0
  0
SOLID
  5
1B6
330
1B2
100
AcDbEntity
  8
VERMASSUNG
100
AcDbTrace
 10
248.887061787
 20
62.4493800851
 30
0.0
 11
245.887061787
 21
62.8993800851
 31
0.0
 12
245.887061787
 22
61.9993800851
 32
0.0
 13
245.887061787
 23
61.9993800851
 33
0.0
  0
LINE
  5
1B7
330
1B2
100
AcDbEntity
  8
VERMASSUNG
100
AcDbLine
 10
145.887061787
 20
105.6841971703
 30
0.0
 11
145.887061787
 21
61.4493800851
 31
0.0
  0
LINE
  5
1B8
330
1B2
100
AcDbEntity
  8
VERMASSUNG
100
AcDbLine
 10
248.887061787
 20
80.9765351628
 30
0.0
 11
248.887061787
 21
61.4493800851
 31
0.0
  0
LINE
  5
1B9
330
1B2
100
AcDbEntity
  8
VERMASSUNG
100
AcDbLine
 10
145.887061787
 20
62.4493800851
 30
0.0
 11
248.887061787
 21
62.4493800851
 31
0.0
  0
MTEXT
  5
1BA
330
1B2
100
AcDbEntity
  8
VERMASSUNG
100
AcDbMText
 10
195.487061755
 20
65.027515681
 30
0.0
 40
2.0
 41
0.0
 71
     1
 72
     1
  1
103
  7
SLDTEXTSTYLE0
 73
     1
 44
1.0
  0
ENDBLK
  5
1B4
330
1B2
100
AcDbEntity
  8
0
100
AcDbBlockEnd
  0
BLOCK
  5
1BD
330
1BC
100
AcDbEntity
  8
0
100
AcDbBlockBegin
  2
_D_2
 70
     0
 10
0.0
 20
0.0
 30
0.0
  3
_D_2
  1

  0
SOLID
  5
1BF
330
1BC
100
AcDbEntity
  8
VERMASSUNG
100
AcDbTrace
 10
183.887061787
 20
70.9431949865
 30
0.0
 11
186.887061787
 21
70.4931949865
 31
0.0
 12
186.887061787
 22
71.3931949865
 32
0.0
 13
186.887061787
 23
71.3931949865
 33
0.0
  0
SOLID
  5
1C0
330
1BC
100
AcDbEntity
  8
VERMASSUNG
100
AcDbTrace
 10
248.887061787
 20
70.9431949865
 30
0.0
 11
245.887061787
 21
71.3931949865
 31
0.0
 12
245.887061787
 22
70.4931949865
 32
0.0
 13
245.887061787
 23
70.4931949865
 33
0.0
  0
LINE
  5
1C1
330
1BC
100
AcDbEntity
  8
VERMASSUNG
100
AcDbLine
 10
183.887061787
 20
94.9765351628
 30
0.0
 11
183.887061787
 21
69.9431949865
 31
0.0
  0
LINE
  5
1C2
330
1BC
100
AcDbEntity
  8
VERMASSUNG
100
AcDbLine
 10
248.887061787
 20
80.9765351628
 30
0.0
 11
248.887061787
 21
69.9431949865
 31
0.0
  0
LINE
  5
1C3
330
1BC
100
AcDbEntity
  8
VERMASSUNG
100
AcDbLine
 10
183.887061787
 20
70.9431949865
 30
0.0
 11
248.887061787
 21
70.9431949865
 31
0.0
  0
MTEXT
  5
1C4
330
1BC
100
AcDbEntity
  8
VERMASSUNG
100
AcDbMText
 10
212.737061701
 20
73.5213305824
 30
0.0
 40
2.0
 41
0.0
 71
     1
 72
     1
  1
65
  7
SLDTEXTSTYLE0
 73
     1
 44
1.0
  0
MTEXT
  5
1C5
330
1BC
100
AcDbEntity
  8
VERMASSUNG
100
AcDbMText
 10
216.7245616011
 20
73.5213305824
 30
0.0
 40
2.0
 41
0.0
 71
     1
 72
     1
  1

  7
SLDTEXTSTYLE0
 73
     1
 44
1.0
  0
MTEXT
  5
1C6
330
1BC
100
AcDbEntity
  8
VERMASSUNG
100
AcDbMText
 10
216.7370614253
 20
73.0267967488
 30
0.0
 40
1.5
 41
0.0
 71
     1
 72
     1
  1
±0.1
  7
SLDTEXTSTYLE0
 73
     1
 44
1.0
  0
ENDBLK
  5
1BE
330
1BC
100
AcDbEntity
  8
0
100
AcDbBlockEnd
  0
BLOCK
  5
1CA
330
1C9
100
AcDbEntity
  8
0
100
AcDbBlockBegin
  2
_D_3
 70
     0
 10
0.0
 20
0.0
 30
0.0
  3
_D_3
  1

  0
ARC
  5
1CC
330
1C9
100
AcDbEntity
  8
VERMASSUNG
100
AcDbCircle
 10
248.9235851875
 20
80.9765351628
 30
0.0
 40
10.77064133414186
100
AcDbArc
 50
0.0
 51
95.0
  0
SOLID
  5
1CD
330
1C9
100
AcDbEntity
  8
VERMASSUNG
100
AcDbTrace
 10
259.6942265216
 20
80.9765351628
 30
0.0
 11
259.7338592682
 21
84.0098385181
 31
0.0
 12
258.8421482851
 22
83.8879716946
 32
0.0
 13
258.8421482851
 23
83.8879716946
 33
0.0
  0
SOLID
  5
1CE
330
1C9
100
AcDbEntity
  8
VERMASSUNG
100
AcDbTrace
 10
247.9848619421
 20
91.7061909549
 30
0.0
 11
250.9594830905
 21
91.1111035468
 31
0.0
 12
251.0031684409
 22
92.0100426938
 32
0.0
 13
251.0031684409
 23
92.0100426938
 33
0.0
  0
MTEXT
  5
1CF
330
1C9
100
AcDbEntity
  8
VERMASSUNG
100
AcDbMText
 10
256.4673335931
 20
92.1694661896
 30
0.0
 40
2.0
 41
0.0
 71
     1
 72
     1
  1
95°
  7
SLDTEXTSTYLE0
 11
0.7372773368101201
 21
-0.6755902076156646
 31
0.0
 73
     1
 44
1.0
  0
ENDBLK
  5
1CB
330
1C9
100
AcDbEntity
  8
0
100
AcDbBlockEnd
  0
BLOCK
  5
1D2
330
1D1
100
AcDbEntity
  8
0
100
AcDbBlockBegin
  2
_D_4
 70
     0
 10
0.0
 20
0.0
 30
0.0
  3
_D_4
  1

  0
SOLID
  5
1D4
330
1D1
100
AcDbEntity
  8
VERMASSUNG
100
AcDbTrace
 10
133.2121566668
 20
157.4765351628
 30
0.0
 11
132.7621566668
 21
154.4765351628
 31
0.0
 12
133.6621566668
 22
154.4765351628
 32
0.0
 13
133.6621566668
 23
154.4765351628
 33
0.0
  0
SOLID
  5
1D5
330
1D1
100
AcDbEntity
  8
VERMASSUNG
100
AcDbTrace
 10
133.2121566668
 20
94.4765351628
 30
0.0
 11
133.6621566668
 21
97.4765351628
 31
0.0
 12
132.7621566668
 22
97.4765351628
 32
0.0
 13
132.7621566668
 23
97.4765351628
 33
0.0
  0
LINE
  5
1D6
330
1D1
100
AcDbEntity
  8
VERMASSUNG
100
AcDbLine
 10
184.387061787
 20
157.4765351628
 30
0.0
 11
132.2121566668
 21
157.4765351628
 31
0.0
  0
LINE
  5
1D7
330
1D1
100
AcDbEntity
  8
VERMASSUNG
100
AcDbLine
 10
184.387061787
 20
94.4765351628
 30
0.0
 11
132.2121566668
 21
94.4765351628
 31
0.0
  0
LINE
  5
1D8
330
1D1
100
AcDbEntity
  8
VERMASSUNG
100
AcDbLine
 10
133.2121566668
 20
157.4765351628
 30
0.0
 11
133.2121566668
 21
94.4765351628
 31
0.0
  0
MTEXT
  5
1D9
330
1D1
100
AcDbEntity
  8
VERMASSUNG
100
AcDbMText
 10
130.4340214106
 20
120.471535853
 30
0.0
 40
2.0
 41
0.0
 71
     1
 72
     1
  1
PSC
  7
SLDTEXTSTYLE0
 11
-7.044195017643634E-15
 21
1.0
 31
0.0
 73
     1
 44
1.0
  0
MTEXT
  5
1DA
330
1D1
100
AcDbEntity
  8
VERMASSUNG
100
AcDbMText
 10
130.6340213619
 20
125.0715354894
 30
0.0
 40
2.0
 41
0.0
 71
     1
 72
     1
  1
%%c
  7
SLDTEXTSTYLE0
 11
-7.044195017643634E-15
 21
1.0
 31
0.0
 73
     1
 44
1.0
  0
MTEXT
  5
1DB
330
1D1
100
AcDbEntity
  8
VERMASSUNG
100
AcDbMText
 10
130.4340214106
 20
128.6815355037
 30
0.0
 40
2.0
 41
0.0
 71
     1
 72
     1
  1
63
  7
SLDTEXTSTYLE0
 11
-7.044195017643634E-15
 21
1.0
 31
0.0
 73
     1
 44
1.0
  0
ENDBLK
  5
1D3
330
1D1
100
AcDbEntity
  8
0
100
AcDbBlockEnd
  0
BLOCK
  5
205
330
204
100
AcDbEntity
  8
0
100
AcDbBlockBegin
  2
_D_5
 70
     0
 10
0.0
 20
0.0
 30
0.0
  3
_D_5
  1

  0
SOLID
  5
207
330
204
100
AcDbEntity
  8
VERMASSUNG
100
AcDbTrace
 10
52.5951716686
 20
88.3387501865
 30
0.0
 11
50.537255184
 21
86.1099658222
 31
0.0
 12
51.2817456985
 22
85.604264454
 32
0.0
 13
51.2817456985
 23
85.604264454
 33
0.0
  0
SOLID
  5
208
330
204
100
AcDbEntity
  8
VERMASSUNG
100
AcDbTrace
 10
97.5464043986
 20
154.5156848092
 30
0.0
 11
99.6043208832
 21
156.7444691734
 31
0.0
 12
98.8598303687
 22
157.2501705416
 32
0.0
 13
98.8598303687
 23
157.2501705416
 33
0.0
  0
LINE
  5
209
330
204
100
AcDbEntity
  8
VERMASSUNG
100
AcDbLine
 10
53.1836327392
 20
87.9390331146
 30
0.0
 11
51.7679599858
 21
88.9006405956
 31
0.0
  0
LINE
  5
20A
330
204
100
AcDbEntity
  8
VERMASSUNG
100
AcDbLine
 10
98.1348654692
 20
154.1159677372
 30
0.0
 11
96.7191927158
 21
155.0775752183
 31
0.0
  0
LINE
  5
20B
330
204
100
AcDbEntity
  8
VERMASSUNG
100
AcDbLine
 10
52.5951716686
 20
88.3387501865
 30
0.0
 11
49.2238292139
 21
83.3754800898
 31
0.0
  0
LINE
  5
20C
330
204
100
AcDbEntity
  8
VERMASSUNG
100
AcDbLine
 10
52.5951716686
 20
88.3387501865
 30
0.0
 11
97.5464043986
 21
154.5156848092
 31
0.0
  0
LINE
  5
20D
330
204
100
AcDbEntity
  8
VERMASSUNG
100
AcDbLine
 10
97.5464043986
 20
154.5156848092
 30
0.0
 11
107.1629155439
 21
168.6730547123
 31
0.0
  0
MTEXT
  5
20E
330
204
100
AcDbEntity
  8
VERMASSUNG
100
AcDbMText
 10
98.2819482465
 20
160.1868721392
 30
0.0
 40
2.0
 41
0.0
 71
     1
 72
     1
  1
%%c
  7
SLDTEXTSTYLE0
 11
0.5618904091248539
 21
0.8272116827834967
 31
0.0
 73
     1
 44
1.0
  0
MTEXT
  5
20F
330
204
100
AcDbEntity
  8
VERMASSUNG
100
AcDbMText
 10
100.1449303352
 20
163.2854843804
 30
0.0
 40
2.0
 41
0.0
 71
     1
 72
     1
  1
80
  7
SLDTEXTSTYLE0
 11
0.5618904091248539
 21
0.8272116827834967
 31
0.0
 73
     1
 44
1.0
  0
MTEXT
  5
210
330
204
100
AcDbEntity
  8
VERMASSUNG
100
AcDbMText
 10
102.3854682855
 20
166.5839908829
 30
0.0
 40
2.0
 41
0.0
 71
     1
 72
     1
  1
min.
  7
SLDTEXTSTYLE0
 11
0.5618904091248539
 21
0.8272116827834967
 31
0.0
 73
     1
 44
1.0
  0
ENDBLK
  5
206
330
204
100
AcDbEntity
  8
0
100
AcDbBlockEnd
  0
BLOCK
  5
212
330
211
100
AcDbEntity
  8
0
100
AcDbBlockBegin
  2
SW_CENTERMARKSYMBOL_0
 70
     0
 10
0.0
 20
0.0
 30
0.0
  3
SW_CENTERMARKSYMBOL_0
  1

  0
LINE
  5
214
330
211
100
AcDbEntity
  8
VERMASSUNG
 62
     0
100
AcDbLine
 10
0.0
 20
0.0
 30
0.0
 11
0.0
 21
2.5
 31
0.0
  0
LINE
  5
215
330
211
100
AcDbEntity
  8
VERMASSUNG
 62
     0
100
AcDbLine
 10
0.0
 20
0.0
 30
0.0
 11
-2.5
 21
0.0
 31
0.0
  0
LINE
  5
216
330
211
100
AcDbEntity
  8
VERMASSUNG
 62
     0
100
AcDbLine
 10
0.0
 20
0.0
 30
0.0
 11
0.0
 21
-2.5
 31
0.0
  0
LINE
  5
217
330
211
100
AcDbEntity
  8
VERMASSUNG
 62
     0
100
AcDbLine
 10
0.0
 20
0.0
 30
0.0
 11
2.5
 21
0.0
 31
0.0
  0
LINE
  5
218
330
211
100
AcDbEntity
  8
VERMASSUNG
 62
     0
100
AcDbLine
 10
0.0
 20
5.0
 30
0.0
 11
0.0
 21
34.0
 31
0.0
  0
LINE
  5
219
330
211
100
AcDbEntity
  8
VERMASSUNG
 62
     0
100
AcDbLine
 10
-5.0
 20
0.0
 30
0.0
 11
-34.0
 21
0.0
 31
0.0
  0
LINE
  5
21A
330
211
100
AcDbEntity
  8
VERMASSUNG
 62
     0
100
AcDbLine
 10
0.0
 20
-5.0
 30
0.0
 11
0.0
 21
-34.0
 31
0.0
  0
LINE
  5
21B
330
211
100
AcDbEntity
  8
VERMASSUNG
 62
     0
100
AcDbLine
 10
5.0
 20
0.0
 30
0.0
 11
34.0
 21
0.0
 31
0.0
  0
ENDBLK
  5
213
330
211
100
AcDbEntity
  8
0
100
AcDbBlockEnd
  0
ENDSEC
  0
SECTION
  2
ENTITIES
  0
MTEXT
  5
78
330
1F
100
AcDbEntity
  8
KOPF_DÜNN
100
AcDbMText
 10
13.8892156294
 20
23.8442973028
 30
0.0
 40
3.0
 41
0.0
 71
     1
 72
     1
  1
PS6.KCC.LLA.065
  7
SLDTEXTSTYLE0
 73
     1
 44
1.0
  0
MTEXT
  5
79
330
1F
100
AcDbEntity
  8
VERMASSUNG
100
AcDbMText
 10
13.9329988022
 20
28.8834360957
 30
0.0
 40
3.0
 41
0.0
 71
     1
 72
     1
  1
Klemmhalter links_Turning tool left 95° /80°
  7
SLDTEXTSTYLE0
 73
     1
 44
1.0
  0
MTEXT
  5
7A
330
1F
100
AcDbEntity
  8
VERMASSUNG
100
AcDbMText
 10
98.8601118557
 20
13.8365368761
 30
0.0
 40
2.0
 41
0.0
 71
     1
 72
     1
  1
Datum: 27.04.2012
  7
SLDTEXTSTYLE0
 73
     1
 44
1.0
  0
MTEXT
  5
7B
330
1F
100
AcDbEntity
  8
VERMASSUNG
100
AcDbMText
 10
13.933048693
 20
18.0482802738
 30
0.0
 40
2.0
 41
0.0
 71
     1
 72
     1
  1
PSC ø63 / CC..12 04..
  7
SLDTEXTSTYLE0
 73
     1
 44
1.0
  0
MTEXT
  5
7C
330
1F
100
AcDbEntity
  8
VERMASSUNG
100
AcDbMText
 10
13.9808475933
 20
13.9090974274
 30
0.0
 40
2.0
 41
0.0
 71
     1
 72
     1
  1
Gewicht: 1283g
  7
SLDTEXTSTYLE0
 73
     1
 44
1.0
  0
ARC
  5
7D
330
1F
100
AcDbEntity
  8
0
  6
Continuous
 62
     7
370
    25
100
AcDbCircle
 10
204.887061787
 20
112.3265351628
 30
0.0
 40
2.500000000000014
100
AcDbArc
 50
248.5196745971
 51
338.6286669096
  0
ARC
  5
7E
330
1F
100
AcDbEntity
  8
0
  6
Continuous
 62
     7
370
    25
100
AcDbCircle
 10
204.887061787
 20
112.3265351628
 30
0.0
 40
2.500000000000014
100
AcDbArc
 50
201.3713330904
 51
248.5196745971
  0
LINE
  5
7F
330
1F
100
AcDbEntity
  8
0
  6
Continuous
 62
     7
370
    25
100
AcDbLine
 10
218.4280353908
 20
157.4765356694
 30
0.0
 11
184.3870618108
 21
157.4765356694
 31
0.0
  0
LINE
  5
80
330
1F
100
AcDbEntity
  8
0
  6
Continuous
 62
     7
370
    25
100
AcDbLine
 10
184.3870618108
 20
94.4765346562
 30
0.0
 11
221.1197364453
 21
94.4765346562
 31
0.0
  0
ARC
  5
81
330
1F
100
AcDbEntity
  8
0
  6
Continuous
 62
     7
370
    25
100
AcDbCircle
 10
184.387061787
 20
94.9765351628
 30
0.0
 40
0.5
100
AcDbArc
 50
180.0
 51
270.0
  0
ARC
  5
82
330
1F
100
AcDbEntity
  8
0
  6
Continuous
 62
     7
370
    25
100
AcDbCircle
 10
184.387061787
 20
156.9765351628
 30
0.0
 40
0.5
100
AcDbArc
 50
90.0
 51
180.0
  0
LWPOLYLINE
  5
83
330
1F
100
AcDbEntity
  8
0
  6
Continuous
 62
     7
370
    25
100
AcDbPolyline
 90
        3
 70
   128
 43
0.0
 10
183.6870617921
 20
103.4367146407
 10
183.8125167273
 20
103.3684133058
 10
183.887061787
 20
103.315674371
  0
LWPOLYLINE
  5
84
330
1F
100
AcDbEntity
  8
0
  6
Continuous
 62
     7
370
    25
100
AcDbPolyline
 90
        3
 70
   128
 43
0.0
 10
183.887061787
 20
148.6373959546
 10
183.8125167273
 20
148.5846570199
 10
183.6870617921
 20
148.5163556849
  0
ARC
  5
85
330
1F
100
AcDbEntity
  8
0
  6
Continuous
 62
     7
370
    25
100
AcDbCircle
 10
221.1197347991
 20
93.4765351628
 30
0.0
 40
0.9999999999999915
100
AcDbArc
 50
59.0494945538
 51
67.5244230154
  0
CIRCLE
  5
86
330
1F
100
AcDbEntity
  8
0
  6
Continuous
 62
     7
370
    25
100
AcDbCircle
 10
241.751919298
 20
88.1116776519
 30
0.0
 40
3.499999999999999
  0
CIRCLE
  5
87
330
1F
100
AcDbEntity
  8
0
  6
Continuous
 62
     7
370
    25
100
AcDbCircle
 10
241.751919298
 20
88.1116776519
 30
0.0
 40
2.633974596215575
  0
CIRCLE
  5
88
330
1F
100
AcDbEntity
  8
0
  6
Continuous
 62
     7
370
    25
100
AcDbCircle
 10
241.751919298
 20
88.1116776519
 30
0.0
 40
2.000000000000003
  0
SPLINE
  5
89
330
1F
100
AcDbEntity
  8
0
  6
Continuous
 62
     7
370
    25
100
AcDbSpline
210
0.0
220
0.0
230
1.0
 70
     8
 71
     3
 72
    15
 73
    11
 74
     0
 42
0.000000001
 43
0.00000001
 40
0.0
 40
0.0
 40
0.0
 40
0.0
 40
0.1262471844694835
 40
0.2533656564305027
 40
0.3794181108538566
 40
0.5042705840956585
 40
0.6284482550537839
 40
0.7526345941727572
 40
0.8774872779886106
 40
1.0
 40
1.0
 40
1.0
 40
1.0
 10
243.400913787274
 20
88.56495343792758
 30
0.0
 10
243.4310422832432
 20
88.59749363678993
 30
0.0
 10
243.4915072052181
 20
88.66279860877636
 30
0.0
 10
243.5347869308138
 20
88.79236849867499
 30
0.0
 10
243.5350835477584
 20
88.92719890714288
 30
0.0
 10
243.4902742384037
 20
89.0541753313892
 30
0.0
 10
243.406709433729
 20
89.15884548324674
 30
0.0
 10
243.2939371756694
 20
89.22940966801443
 30
0.0
 10
243.1643071657951
 20
89.26173386808561
 30
0.0
 10
243.0787172258064
 20
89.24707314631368
 30
0.0
 10
243.0363270763442
 20
89.23981212723575
 30
0.0
  0
SPLINE
  5
8A
330
1F
100
AcDbEntity
  8
0
  6
Continuous
 62
     7
370
    25
100
AcDbSpline
210
0.0
220
0.0
230
1.0
 70
     8
 71
     3
 72
    12
 73
     8
 74
     0
 42
0.000000001
 43
0.00000001
 40
0.0
 40
0.0
 40
0.0
 40
0.0
 40
0.2058750604937883
 40
0.4120969164026574
 40
0.6141689979441589
 40
0.813289158918532
 40
1.0
 40
1.0
 40
1.0
 40
1.0
 10
243.0363270763442
 20
89.23981212723575
 30
0.0
 10
242.9602757049306
 20
89.2269492941703
 30
0.0
 10
242.8080448539835
 20
89.20120196066738
 30
0.0
 10
242.5787350223131
 20
89.26063170385648
 30
0.0
 10
242.3848128706182
 20
89.38593883704695
 30
0.0
 10
242.2422970779937
 20
89.5613594234086
 30
0.0
 10
242.2009420938914
 20
89.69958255719368
 30
0.0
 10
242.1809296433017
 20
89.7664713178905
 30
0.0
  0
SPLINE
  5
8B
330
1F
100
AcDbEntity
  8
0
  6
Continuous
 62
     7
370
    25
100
AcDbSpline
210
0.0
220
0.0
230
1.0
 70
     8
 71
     3
 72
    15
 73
    11
 74
     0
 42
0.000000001
 43
0.00000001
 40
0.0
 40
0.0
 40
0.0
 40
0.0
 40
0.1268771598331057
 40
0.2539938945028301
 40
0.3800487225429582
 40
0.5049000719306583
 40
0.6290822637584151
 40
0.7532692131020393
 40
0.8781234447865499
 40
1.0
 40
1.0
 40
1.0
 40
1.0
 10
242.1809296433017
 20
89.7664713178905
 30
0.0
 10
242.167727270284
 20
89.80904244382096
 30
0.0
 10
242.1412975949678
 20
89.89426508028812
 30
0.0
 10
242.0503936906708
 20
89.99654481193974
 30
0.0
 10
241.9336663391839
 20
90.06402256508025
 30
0.0
 10
241.8012527594688
 20
90.0884816948394
 30
0.0
 10
241.6688577216483
 20
90.0682226888746
 30
0.0
 10
241.5514604946494
 20
90.00564484671474
 30
0.0
 10
241.4589867892996
 20
89.90954485665515
 30
0.0
 10
241.4290043949242
 20
89.82829473453563
 30
0.0
 10
241.4141941193625
 20
89.78815995800815
 30
0.0
  0
SPLINE
  5
8C
330
1F
100
AcDbEntity
  8
0
  6
Continuous
 62
     7
370
    25
100
AcDbSpline
210
0.0
220
0.0
230
1.0
 70
     8
 71
     3
 72
    12
 73
     8
 74
     0
 42
0.000000001
 43
0.00000001
 40
0.0
 40
0.0
 40
0.0
 40
0.0
 40
0.2057973957090877
 40
0.4120018628128875
 40
0.614055749543943
 40
0.8131823703516038
 40
1.0
 40
1.0
 40
1.0
 40
1.0
 10
241.4141941193625
 20
89.78815995800814
 30
0.0
 10
241.3873208536472
 20
89.71589088474919
 30
0.0
 10
241.3335211663556
 20
89.57120978854844
 30
0.0
 10
241.1674454230938
 20
89.40234421124718
 30
0.0
 10
240.9619923104424
 20
89.29703475668252
 30
0.0
 10
240.738790941891
 20
89.26126837386455
 30
0.0
 10
240.5983675125769
 20
89.29457233153936
 30
0.0
 10
240.5303950730845
 20
89.31069322574459
 30
0.0
  0
SPLINE
  5
8D
330
1F
100
AcDbEntity
  8
0
  6
Continuous
 62
     7
370
    25
100
AcDbSpline
210
0.0
220
0.0
230
1.0
 70
     8
 71
     3
 72
    15
 73
    11
 74
     0
 42
0.000000001
 43
0.00000001
 40
0.0
 40
0.0
 40
0.0
 40
0.0
 40
0.12680503920706
 40
0.2539286748342391
 40
0.3799863624888512
 40
0.5048421486707945
 40
0.6290223650937654
 40
0.7532085736915409
 40
0.8780549798002295
 40
1.0
 40
1.0
 40
1.0
 40
1.0
 10
240.5303950730845
 20
89.31069322574459
 30
0.0
 10
240.48695234273
 20
89.32053927190361
 30
0.0
 10
240.3999577325861
 20
89.34025610231633
 30
0.0
 10
240.2659472535862
 20
89.31271014620259
 30
0.0
 10
240.1491295401309
 20
89.24537790906506
 30
0.0
 10
240.0617255756432
 20
89.14294555609746
 30
0.0
 10
240.0130446793372
 20
89.01816771523191
 30
0.0
 10
240.0085227677093
 20
88.88521256472553
 30
0.0
 10
240.0454885502753
 20
88.75704740300377
 30
0.0
 10
240.1008749219324
 20
88.69043688475867
 30
0.0
 10
240.128242534785
 20
88.65752317655407
 30
0.0
  0
SPLINE
  5
8E
330
1F
100
AcDbEntity
  8
0
  6
Continuous
 62
     7
370
    25
100
AcDbSpline
210
0.0
220
0.0
230
1.0
 70
     8
 71
     3
 72
    12
 73
     8
 74
     0
 42
0.000000001
 43
0.00000001
 40
0.0
 40
0.0
 40
0.0
 40
0.0
 40
0.2058510500515974
 40
0.412054870113225
 40
0.6141100105161638
 40
0.8132437443317437
 40
1.0
 40
1.0
 40
1.0
 40
1.0
 10
240.128242534785
 20
88.65752317655407
 30
0.0
 10
240.177404135789
 20
88.59809818240885
 30
0.0
 10
240.2758115867649
 20
88.47914635662102
 30
0.0
 10
240.3390031348727
 20
88.25086213609973
 30
0.0
 10
240.3274579877807
 20
88.02027841789439
 30
0.0
 10
240.2468146740062
 20
87.80912612480432
 30
0.0
 10
240.1477732496189
 20
87.704184875357
 30
0.0
 10
240.0998409215495
 20
87.65339725363573
 30
0.0
  0
SPLINE
  5
8F
330
1F
100
AcDbEntity
  8
0
  6
Continuous
 62
     7
370
    25
100
AcDbSpline
210
0.0
220
0.0
230
1.0
 70
     8
 71
     3
 72
    15
 73
    11
 74
     0
 42
0.000000001
 43
0.00000001
 40
0.0
 40
0.0
 40
0.0
 40
0.0
 40
0.1262567578944959
 40
0.2533823915451658
 40
0.3794479000220135
 40
0.5043001664459891
 40
0.6284815367754887
 40
0.7526654216636869
 40
0.8775102527156927
 40
1.0
 40
1.0
 40
1.0
 40
1.0
 10
240.0998409215495
 20
87.65339725363575
 30
0.0
 10
240.0697126303569
 20
87.62085442769165
 30
0.0
 10
240.0092487106201
 20
87.55554482206854
 30
0.0
 10
239.9659653168896
 20
87.42596959758758
 30
0.0
 10
239.9656776094743
 20
87.29113347020804
 30
0.0
 10
240.010496546589
 20
87.1641558629315
 30
0.0
 10
240.0940655670376
 20
87.05948745238659
 30
0.0
 10
240.2068423174184
 20
86.98892982939832
 30
0.0
 10
240.3364651812203
 20
86.95662003211709
 30
0.0
 10
240.422045108587
 20
86.97127891350067
 30
0.0
 10
240.4644276324794
 20
86.97853856432756
 30
0.0
  0
SPLINE
  5
90
330
1F
100
AcDbEntity
  8
0
  6
Continuous
 62
     7
370
    25
100
AcDbSpline
210
0.0
220
0.0
230
1.0
 70
     8
 71
     3
 72
    12
 73
     8
 74
     0
 42
0.000000001
 43
0.00000001
 40
0.0
 40
0.0
 40
0.0
 40
0.0
 40
0.2058734616069594
 40
0.4120911694042205
 40
0.6141690123101659
 40
0.813305408875716
 40
1.0
 40
1.0
 40
1.0
 40
1.0
 10
240.4644276324794
 20
86.97853856432758
 30
0.0
 10
240.5404790160009
 20
86.99140111319066
 30
0.0
 10
240.6927089504742
 20
87.01714771870813
 30
0.0
 10
240.9220203725934
 20
86.9577223604156
 30
0.0
 10
241.1159441263891
 20
86.83240923526095
 30
0.0
 10
241.2584636598736
 20
86.65698753015067
 30
0.0
 10
241.299818264726
 20
86.51876299394566
 30
0.0
 10
241.3198287908122
 20
86.45187937367282
 30
0.0
  0
SPLINE
  5
91
330
1F
100
AcDbEntity
  8
0
  6
Continuous
 62
     7
370
    25
100
AcDbSpline
210
0.0
220
0.0
230
1.0
 70
     8
 71
     3
 72
    15
 73
    11
 74
     0
 42
0.000000001
 43
0.00000001
 40
0.0
 40
0.0
 40
0.0
 40
0.0
 40
0.1268700277709639
 40
0.253981635571609
 40
0.380031012685993
 40
0.5048747618108937
 40
0.6290526088543164
 40
0.7532380752325043
 40
0.8780949934572465
 40
1.0
 40
1.0
 40
1.0
 40
1.0
 10
241.3198287908122
 20
86.45187937367282
 30
0.0
 10
241.3330300734927
 20
86.40930969442087
 30
0.0
 10
241.3594577761245
 20
86.32408927670578
 30
0.0
 10
241.4503569724158
 20
86.22180940940396
 30
0.0
 10
241.567080710927
 20
86.15433311306158
 30
0.0
 10
241.6994879701566
 20
86.12986964409671
 30
0.0
 10
241.8318794705428
 20
86.15012069730795
 30
0.0
 10
241.949275669197
 20
86.21269281708774
 30
0.0
 10
242.0417634006633
 20
86.30878920973898
 30
0.0
 10
242.0717502501819
 20
86.39004757912981
 30
0.0
 10
242.0865643147513
 20
86.43019073355518
 30
0.0
  0
SPLINE
  5
92
330
1F
100
AcDbEntity
  8
0
  6
Continuous
 62
     7
370
    25
100
AcDbSpline
210
0.0
220
0.0
230
1.0
 70
     8
 71
     3
 72
    12
 73
     8
 74
     0
 42
0.000000001
 43
0.00000001
 40
0.0
 40
0.0
 40
0.0
 40
0.0
 40
0.2058326291114892
 40
0.4120755090597893
 40
0.6141704432795677
 40
0.8133035885286757
 40
1.0
 40
1.0
 40
1.0
 40
1.0
 10
242.0865643147513
 20
86.43019073355518
 30
0.0
 10
242.1134415443464
 20
86.5024692985629
 30
0.0
 10
242.1672495733033
 20
86.6471704890313
 30
0.0
 10
242.3333583564621
 20
86.81605233902422
 30
0.0
 10
242.538857281344
 20
86.92134894773889
 30
0.0
 10
242.7620479274059
 20
86.9570722078378
 30
0.0
 10
242.9024332651519
 20
86.92377124147485
 30
0.0
 10
242.9703633610293
 20
86.90765746581874
 30
0.0
  0
SPLINE
  5
93
330
1F
100
AcDbEntity
  8
0
  6
Continuous
 62
     7
370
    25
100
AcDbSpline
210
0.0
220
0.0
230
1.0
 70
     8
 71
     3
 72
    15
 73
    11
 74
     0
 42
0.000000001
 43
0.00000001
 40
0.0
 40
0.0
 40
0.0
 40
0.0
 40
0.1267890452879628
 40
0.2538955910825715
 40
0.379940638116283
 40
0.504783807047805
 40
0.6289627872894469
 40
0.7531500671206532
 40
0.8780080980000554
 40
1.0
 40
1.0
 40
1.0
 40
1.0
 10
242.9703633610293
 20
86.90765746581874
 30
0.0
 10
243.0138023020393
 20
86.89780996279714
 30
0.0
 10
243.1007889622723
 20
86.87809029699574
 30
0.0
 10
243.2347900003305
 20
86.90563568222525
 30
0.0
 10
243.3516010228092
 20
86.9729556933205
 30
0.0
 10
243.4390128606866
 20
87.07537073021786
 30
0.0
 10
243.48770208724
 20
87.20013927387589
 30
0.0
 10
243.4922380517849
 20
87.33309225948274
 30
0.0
 10
243.4552877106768
 20
87.46127877058721
 30
0.0
 10
243.3998896139021
 20
87.52790245194603
 30
0.0
 10
243.3725121740386
 20
87.56082751500925
 30
0.0
  0
SPLINE
  5
94
330
1F
100
AcDbEntity
  8
0
  6
Continuous
 62
     7
370
    25
100
AcDbSpline
210
0.0
220
0.0
230
1.0
 70
     8
 71
     3
 72
    12
 73
     8
 74
     0
 42
0.000000001
 43
0.00000001
 40
0.0
 40
0.0
 40
0.0
 40
0.0
 40
0.2058906888327439
 40
0.412136170626656
 40
0.614224714569498
 40
0.8133492784815209
 40
1.0
 40
1.0
 40
1.0
 40
1.0
 10
243.3725121740386
 20
87.56082751500927
 30
0.0
 10
243.3233440760274
 20
87.62026182188549
 30
0.0
 10
243.2249231530307
 20
87.73923285344934
 30
0.0
 10
243.161740392843
 20
87.96755491098418
 30
0.0
 10
243.1733167486158
 20
88.19816593141019
 30
0.0
 10
243.2539885547257
 20
88.40928411254899
 30
0.0
 10
243.3530059348503
 20
88.5141944026156
 30
0.0
 10
243.400913787274
 20
88.56495343792757
 30
0.0
  0
LWPOLYLINE
  5
95
330
1F
100
AcDbEntity
  8
0
  6
Continuous
 62
     7
370
    25
100
AcDbPolyline
 90
       16
 70
   128
 43
0.0
 10
207.8747052077
 20
110.460967428
 10
207.8260044877
 20
110.1750309085
 10
207.6183195535
 20
109.6217470681
 10
207.2736799095
 20
109.1223570024
 10
206.8093653146
 20
108.7019021128
 10
206.2486588333
 20
108.3814675425
 10
205.6196752314
 20
108.1771186059
 10
204.9539546792
 20
108.0991054391
 10
204.2848813657
 20
108.1513377343
 10
203.6460033927
 20
108.3311966126
 10
203.0693563942
 20
108.629663146
 10
202.5838579361
 20
109.0317709808
 10
202.2138509277
 20
109.5173569833
 10
201.9778910402
 20
110.062072656
 10
201.8878079329
 20
110.6386032392
 10
201.8870610122
 20
110.6965352287
  0
LWPOLYLINE
  5
96
330
1F
100
AcDbEntity
  8
0
  6
Continuous
 62
     7
370
    25
100
AcDbPolyline
 90
       18
 70
   128
 43
0.0
 10
207.6634551708
 20
111.221033751
 10
207.6821542654
 20
111.1512218108
 10
207.7465310071
 20
110.5788449262
 10
207.6567552362
 20
110.0090394233
 10
207.4176623795
 20
109.4725231146
 10
207.0421456669
 20
108.9982210164
 10
206.5504483257
 20
108.6116997962
 10
205.9690757964
 20
108.3338005905
 10
205.3293726716
 20
108.1795027916
 10
204.6658239637
 20
108.1571249728
 10
204.0142017726
 20
108.2678722655
 10
203.4096374486
 20
108.5057786171
 10
202.8847198311
 20
108.8580141281
 10
202.4677499507
 20
109.3055909936
 10
202.1812043462
 20
109.8243805085
 10
202.0405336592
 20
110.3864131932
 10
202.0533188556
 20
110.961392193
 10
202.1362978343
 20
111.3045296137
  0
LWPOLYLINE
  5
97
330
1F
100
AcDbEntity
  8
0
  6
Continuous
 62
     7
370
    25
100
AcDbPolyline
 90
       27
 70
   128
 43
0.0
 10
205.9212765966
 20
112.5976514508
 10
206.4359180007
 20
112.3260293593
 10
206.860547078
 20
111.9556395774
 10
207.1704819176
 20
111.5080068325
 10
207.3477144662
 20
111.009145758
 10
207.3819424335
 20
110.4880493571
 10
207.2711765144
 20
109.9750014459
 10
207.0218540106
 20
109.4998164539
 10
206.6484663014
 20
109.0901146148
 10
206.17271134
 20
108.7697023963
 10
205.6222400937
 20
108.5572025244
 10
205.0290416304
 20
108.4649661993
 10
204.4275935117
 20
108.4983522509
 10
203.8528464113
 20
108.6554198031
 10
203.3382050071
 20
108.927040032
 10
202.9135777924
 20
109.2974307452
 10
202.6036410902
 20
109.7450634902
 10
202.4264085416
 20
110.2439245646
 10
202.3921805743
 20
110.7650209655
 10
202.5029464934
 20
111.2780698081
 10
202.7522689972
 20
111.7532529374
 10
203.1256567065
 20
112.1629566391
 10
203.6014116679
 20
112.4833679264
 10
204.1518829141
 20
112.6958668669
 10
204.7450813774
 20
112.7881041234
 10
205.3465313587
 20
112.754719003
 10
205.9212765966
 20
112.5976514508
  0
LINE
  5
98
330
1F
100
AcDbEntity
  8
0
  6
Continuous
 62
     7
370
    25
100
AcDbLine
 10
234.9978360657
 20
94.4324197685
 30
0.0
 11
236.0509905342
 21
82.3948258971
 31
0.0
  0
ARC
  5
99
330
1F
100
AcDbEntity
  8
0
  6
Continuous
 62
     7
370
    25
100
AcDbCircle
 10
235.3963136623
 20
94.4672832876
 30
0.0
 40
0.4000000000000102
100
AcDbArc
 50
85.0
 51
185.0
  0
LINE
  5
9A
330
1F
100
AcDbEntity
  8
0
  6
Continuous
 62
     7
370
    25
100
AcDbLine
 10
247.468774331
 20
93.8126096939
 30
0.0
 11
235.4311767344
 21
94.8657604371
 31
0.0
  0
ARC
  5
9B
330
1F
100
AcDbEntity
  8
0
  6
Continuous
 62
     7
370
    25
100
AcDbCircle
 10
247.4339086863
 20
93.4141301868
 30
0.0
 40
0.4000000000000373
100
AcDbArc
 50
5.0
 51
85.0
  0
LINE
  5
9C
330
1F
100
AcDbEntity
  8
0
  6
Continuous
 62
     7
370
    25
100
AcDbLine
 10
248.8855394844
 20
81.4113976871
 30
0.0
 11
247.8323850159
 21
93.4489915584
 31
0.0
  0
ARC
  5
9D
330
1F
100
AcDbEntity
  8
0
  6
Continuous
 62
     7
370
    25
100
AcDbCircle
 10
248.487061787
 20
81.3765351628
 30
0.0
 40
0.4000000000000348
100
AcDbArc
 50
265.0
 51
5.0
  0
LINE
  5
9E
330
1F
100
AcDbEntity
  8
0
  6
Continuous
 62
     7
370
    25
100
AcDbLine
 10
236.4146049444
 20
82.0312114869
 30
0.0
 11
248.4521988157
 21
80.9780570184
 31
0.0
  0
ARC
  5
9F
330
1F
100
AcDbEntity
  8
0
  6
Continuous
 62
     7
370
    25
100
AcDbCircle
 10
236.449466763
 20
82.4296882635
 30
0.0
 40
0.4000000000000102
100
AcDbArc
 50
185.0
 51
265.0
  0
ARC
  5
A0
330
1F
100
AcDbEntity
  8
0
  6
Continuous
 62
     7
370
    25
100
AcDbCircle
 10
248.487061787
 20
81.3765351628
 30
0.0
 40
0.3800000000000429
100
AcDbArc
 50
265.0
 51
5.0
  0
LINE
  5
A1
330
1F
100
AcDbEntity
  8
0
  6
Continuous
 62
     7
370
    25
100
AcDbLine
 10
248.8656166319
 20
81.4096542512
 30
0.0
 11
247.8124621634
 21
93.4472481226
 31
0.0
  0
ARC
  5
A2
330
1F
100
AcDbEntity
  8
0
  6
Continuous
 62
     7
370
    25
100
AcDbCircle
 10
247.4339086863
 20
93.4141301868
 30
0.0
 40
0.3799999999999979
100
AcDbArc
 50
5.0
 51
85.0
  0
LINE
  5
A3
330
1F
100
AcDbEntity
  8
0
  6
Continuous
 62
     7
370
    25
100
AcDbLine
 10
247.4670308951
 20
93.7926831161
 30
0.0
 11
235.4294332985
 21
94.8458375846
 31
0.0
  0
ARC
  5
A4
330
1F
100
AcDbEntity
  8
0
  6
Continuous
 62
     7
370
    25
100
AcDbCircle
 10
235.3963136623
 20
94.4672832876
 30
0.0
 40
0.380000000000017
100
AcDbArc
 50
85.0
 51
185.0
  0
LINE
  5
A5
330
1F
100
AcDbEntity
  8
0
  6
Continuous
 62
     7
370
    25
100
AcDbLine
 10
235.0177589182
 20
94.4341632043
 30
0.0
 11
236.0709133867
 21
82.396569333
 31
0.0
  0
ARC
  5
A6
330
1F
100
AcDbEntity
  8
0
  6
Continuous
 62
     7
370
    25
100
AcDbCircle
 10
236.449466763
 20
82.4296882635
 30
0.0
 40
0.3800000000000121
100
AcDbArc
 50
185.0
 51
265.0
  0
LINE
  5
A7
330
1F
100
AcDbEntity
  8
0
  6
Continuous
 62
     7
370
    25
100
AcDbLine
 10
236.4163483802
 20
82.0511343395
 30
0.0
 11
248.4539422516
 21
80.9979798709
 31
0.0
  0
LINE
  5
A8
330
1F
100
AcDbEntity
  8
0
  6
Continuous
 62
     7
370
    25
100
AcDbLine
 10
247.4339056138
 20
93.4141302918
 30
0.0
 11
247.8124621634
 21
93.4472481226
 31
0.0
  0
LINE
  5
A9
330
1F
100
AcDbEntity
  8
0
  6
Continuous
 62
     7
370
    25
100
AcDbLine
 10
248.4870600823
 20
81.3765364205
 30
0.0
 11
248.8656166319
 21
81.4096542512
 31
0.0
  0
LINE
  5
AA
330
1F
100
AcDbEntity
  8
0
  6
Continuous
 62
     7
370
    25
100
AcDbLine
 10
247.568060768
 20
82.2955357348
 30
0.0
 11
248.4870600823
 21
81.3765364205
 31
0.0
  0
LINE
  5
AB
330
1F
100
AcDbEntity
  8
0
  6
Continuous
 62
     7
370
    25
100
AcDbLine
 10
246.8602109078
 20
92.8404355859
 30
0.0
 11
247.4339056138
 21
93.4141302918
 31
0.0
  0
LINE
  5
AC
330
1F
100
AcDbEntity
  8
0
  6
Continuous
 62
     7
370
    25
100
AcDbLine
 10
248.4870600823
 20
81.3765364205
 30
0.0
 11
248.4539422516
 21
80.9979798709
 31
0.0
  0
LINE
  5
AD
330
1F
100
AcDbEntity
  8
0
  6
Continuous
 62
     7
370
    25
100
AcDbLine
 10
236.449466211
 20
82.4296871637
 30
0.0
 11
236.4163483802
 21
82.0511343395
 31
0.0
  0
LINE
  5
AE
330
1F
100
AcDbEntity
  8
0
  6
Continuous
 62
     7
370
    25
100
AcDbLine
 10
237.023160917
 20
83.0033818697
 30
0.0
 11
236.449466211
 21
82.4296871637
 31
0.0
  0
LINE
  5
AF
330
1F
100
AcDbEntity
  8
0
  6
Continuous
 62
     7
370
    25
100
AcDbLine
 10
246.6010946158
 20
84.345857284
 30
0.0
 11
246.0116791848
 21
91.0828622495
 31
0.0
  0
LINE
  5
B0
330
1F
100
AcDbEntity
  8
0
  6
Continuous
 62
     7
370
    25
100
AcDbLine
 10
247.4339056138
 20
93.4141302918
 30
0.0
 11
247.4670308951
 21
93.7926831161
 31
0.0
  0
LINE
  5
B1
330
1F
100
AcDbEntity
  8
0
  6
Continuous
 62
     7
370
    25
100
AcDbLine
 10
235.3963154677
 20
94.4672847604
 30
0.0
 11
235.4294332985
 21
94.8458375846
 31
0.0
  0
LINE
  5
B2
330
1F
100
AcDbEntity
  8
0
  6
Continuous
 62
     7
370
    25
100
AcDbLine
 10
236.3153147821
 20
93.5482817208
 30
0.0
 11
235.3963154677
 21
94.4672847604
 31
0.0
  0
ARC
  5
B3
330
1F
100
AcDbEntity
  8
0
  6
Continuous
 62
     7
370
    25
100
AcDbCircle
 10
245.6048970739
 20
84.258699876
 30
0.0
 40
1.000000000295356
100
AcDbArc
 50
265.0
 51
5.0
  0
LINE
  5
B4
330
1F
100
AcDbEntity
  8
0
  6
Continuous
 62
     7
370
    25
100
AcDbLine
 10
237.2822846595
 20
91.4979638969
 30
0.0
 11
237.8716963653
 21
84.760955206
 31
0.0
  0
ARC
  5
B5
330
1F
100
AcDbEntity
  8
0
  6
Continuous
 62
     7
370
    25
100
AcDbCircle
 10
238.2784783755
 20
91.5851185744
 30
0.0
 40
1.000000000000012
100
AcDbArc
 50
85.0
 51
185.0
  0
LINE
  5
B6
330
1F
100
AcDbEntity
  8
0
  6
Continuous
 62
     7
370
    25
100
AcDbLine
 10
245.1026412968
 20
91.9919001375
 30
0.0
 11
238.3656326059
 21
92.5813118433
 31
0.0
  0
ARC
  5
B7
330
1F
100
AcDbEntity
  8
0
  6
Continuous
 62
     7
370
    25
100
AcDbCircle
 10
245.0154853385
 20
90.995706839
 30
0.0
 40
1.00000000000001
100
AcDbArc
 50
5.0
 51
85.0
  0
LINE
  5
B8
330
1F
100
AcDbEntity
  8
0
  6
Continuous
 62
     7
370
    25
100
AcDbLine
 10
238.7807342533
 20
83.851917318
 30
0.0
 11
245.5177429441
 21
83.2625056123
 31
0.0
  0
ARC
  5
B9
330
1F
100
AcDbEntity
  8
0
  6
Continuous
 62
     7
370
    25
100
AcDbCircle
 10
238.8678901108
 20
84.8481116114
 30
0.0
 40
0.9999999999999959
100
AcDbArc
 50
185.0
 51
265.0
  0
CIRCLE
  5
BA
330
1F
100
AcDbEntity
  8
0
  6
Continuous
 62
     7
370
    25
100
AcDbCircle
 10
241.9416877247
 20
87.9219092252
 30
0.0
 40
3.799999999999997
  0
LINE
  5
BB
330
1F
100
AcDbEntity
  8
0
  6
Continuous
 62
     7
370
    25
100
AcDbLine
 10
236.449466211
 20
82.4296871637
 30
0.0
 11
236.0709133867
 21
82.396569333
 31
0.0
  0
LINE
  5
BC
330
1F
100
AcDbEntity
  8
0
  6
Continuous
 62
     7
370
    25
100
AcDbLine
 10
235.3963154677
 20
94.4672847604
 30
0.0
 11
235.0177589182
 21
94.4341632043
 31
0.0
  0
SPLINE
  5
BD
330
1F
100
AcDbEntity
  8
0
  6
Continuous
 62
     7
370
    25
100
AcDbSpline
210
0.0
220
0.0
230
1.0
 70
     8
 71
     3
 72
    11
 73
     7
 74
     0
 42
0.000000001
 43
0.00000001
 40
0.0
 40
0.0
 40
0.0
 40
0.0
 40
0.3372282907327558
 40
0.6736361126661535
 40
0.9918840804438402
 40
0.9999999999999999
 40
0.9999999999999999
 40
0.9999999999999999
 40
0.9999999999999999
 10
246.8602109078452
 20
92.84043558585964
 30
0.0
 10
246.8053100690464
 20
92.78553057112497
 30
0.0
 10
246.6956419639472
 20
92.67585412431393
 30
0.0
 10
246.5241821618448
 20
92.50441187039694
 30
0.0
 10
246.4187071960875
 20
92.3989281117207
 30
0.0
 10
246.3707528866426
 20
92.35097383846681
 30
0.0
 10
246.3695603732154
 20
92.34978132593952
 30
0.0
  0
SPLINE
  5
BE
330
1F
100
AcDbEntity
  8
0
  6
Continuous
 62
     7
370
    25
100
AcDbSpline
210
0.0
220
0.0
230
1.0
 70
     8
 71
     3
 72
    11
 73
     7
 74
     0
 42
0.000000001
 43
0.00000001
 40
0.0
 40
0.0
 40
0.0
 40
0.0
 40
0.0076290132672219
 40
0.3209867748663086
 40
0.6632186348042522
 40
1.0
 40
1.0
 40
1.0
 40
1.0
 10
247.0791313175246
 20
82.7844614599975
 30
0.0
 10
247.0802482782394
 20
82.78334701719473
 30
0.0
 10
247.1272438207739
 20
82.73645741450164
 30
0.0
 10
247.2312186475233
 20
82.63232416847858
 30
0.0
 10
247.4007039208506
 20
82.46291186374525
 30
0.0
 10
247.5125744836964
 20
82.35102841189006
 30
0.0
 10
247.5680607680365
 20
82.29553573477588
 30
0.0
  0
SPLINE
  5
BF
330
1F
100
AcDbEntity
  8
0
  6
Continuous
 62
     7
370
    25
100
AcDbSpline
210
0.0
220
0.0
230
1.0
 70
     8
 71
     3
 72
    11
 73
     7
 74
     0
 42
0.000000001
 43
0.00000001
 40
0.0
 40
0.0
 40
0.0
 40
0.0
 40
0.0081158658393184
 40
0.3263685342407615
 40
0.66276682802268
 40
1.0
 40
1.0
 40
1.0
 40
1.0
 10
237.5138151768729
 20
83.49403985488735
 30
0.0
 10
237.5126226636708
 20
83.49284734225321
 30
0.0
 10
237.4646673630872
 20
83.44489206450784
 30
0.0
 10
237.3591901067961
 20
83.33940925956074
 30
0.0
 10
237.1877373404579
 20
83.16795875484861
 30
0.0
 10
237.0780650329535
 20
83.05828613969359
 30
0.0
 10
237.0231609169528
 20
83.00338186967693
 30
0.0
  0
SPLINE
  5
C0
330
1F
100
AcDbEntity
  8
0
  6
Continuous
 62
     7
370
    25
100
AcDbSpline
210
0.0
220
0.0
230
1.0
 70
     8
 71
     3
 72
    11
 73
     7
 74
     0
 42
0.000000001
 43
0.00000001
 40
0.0
 40
0.0
 40
0.0
 40
0.0
 40
0.3367826821423163
 40
0.6790085772590992
 40
0.9923709604522745
 40
1.0
 40
1.0
 40
1.0
 40
1.0
 10
236.3153147820517
 20
93.54828172076068
 30
0.0
 10
236.37080527924
 20
93.49279322224798
 30
0.0
 10
236.4826831326603
 20
93.3809193984822
 30
0.0
 10
236.6521271355622
 20
93.21146779477765
 30
0.0
 10
236.7561817189763
 20
93.10741479008269
 30
0.0
 10
236.8031248056096
 20
93.06047169734785
 30
0.0
 10
236.8042405072734
 20
93.05935599553905
 30
0.0
  0
ELLIPSE
  5
C1
330
1F
100
AcDbEntity
  8
0
  6
Continuous
 62
     7
370
    25
100
AcDbEllipse
 10
218.8066770293
 20
125.9765351628
 30
0.0
 11
0.0
 21
31.49999999999997
 31
0.0
210
0.0
220
0.0
230
1.0
 40
0.2679491924
 41
0.1320368298873489
 42
3.009555823702445
  0
ELLIPSE
  5
C2
330
1F
100
AcDbEntity
  8
0
  6
Continuous
 62
     7
370
    25
100
AcDbEllipse
 10
215.5337012831
 20
108.4116762031
 30
0.0
 11
-0.3267812967789042
 21
3.437685688268005
 31
0.0
210
0.0
220
0.0
230
1.0
 40
0.2095444568
 41
0.0
 42
6.283185307179586
  0
SPLINE
  5
C3
330
1F
100
AcDbEntity
  8
0
  6
Continuous
 62
     7
370
    25
100
AcDbSpline
210
0.0
220
0.0
230
1.0
 70
    11
 71
     3
 72
    68
 73
    64
 74
     0
 42
0.000000001
 43
0.00000001
 40
0.0
 40
0.0
 40
0.0
 40
0.0
 40
0.0312500000000002
 40
0.0312500000000002
 40
0.0625000000000005
 40
0.0625000000000005
 40
0.0937500000000007
 40
0.0937500000000007
 40
0.1250000000000009
 40
0.1250000000000009
 40
0.1562500000000011
 40
0.1562500000000011
 40
0.1875000000000014
 40
0.1875000000000014
 40
0.2187500000000016
 40
0.2187500000000016
 40
0.2500000000000018
 40
0.2500000000000018
 40
0.2812500000000021
 40
0.2812500000000021
 40
0.3125000000000023
 40
0.3125000000000023
 40
0.3437500000000025
 40
0.3437500000000025
 40
0.3750000000000028
 40
0.3750000000000028
 40
0.406250000000003
 40
0.406250000000003
 40
0.4375000000000032
 40
0.4375000000000032
 40
0.4687500000000034
 40
0.4687500000000034
 40
0.5000000000000037
 40
0.5000000000000037
 40
0.5312500000000034
 40
0.5312500000000034
 40
0.5625000000000032
 40
0.5625000000000032
 40
0.593750000000003
 40
0.593750000000003
 40
0.6250000000000028
 40
0.6250000000000028
 40
0.6562500000000026
 40
0.6562500000000026
 40
0.6875000000000023
 40
0.6875000000000023
 40
0.7187500000000021
 40
0.7187500000000021
 40
0.7500000000000019
 40
0.7500000000000019
 40
0.7812500000000018
 40
0.7812500000000018
 40
0.8125000000000016
 40
0.8125000000000016
 40
0.8437500000000013
 40
0.8437500000000013
 40
0.8750000000000011
 40
0.8750000000000011
 40
0.9062500000000009
 40
0.9062500000000009
 40
0.9375000000000007
 40
0.9375000000000007
 40
1.0
 40
1.0
 40
1.0
 40
1.0
 10
207.8870617870376
 20
110.2265351628099
 30
0.0
 10
207.8870617870375
 20
110.0547895717466
 30
0.0
 10
207.8675911139372
 20
109.8868689755538
 30
0.0
 10
207.791322087817
 20
109.5582557226763
 30
0.0
 10
207.7335899808026
 20
109.3958767224952
 30
0.0
 10
207.5829710698241
 20
109.0879222684161
 30
0.0
 10
207.4908176055139
 20
108.9426631989081
 30
0.0
 10
207.2731170972541
 20
108.668953097218
 30
0.0
 10
207.1464766961187
 20
108.5400818987619
 30
0.0
 10
206.8698579899296
 20
108.3099060644508
 30
0.0
 10
206.7189030729222
 20
108.2070399441475
 30
0.0
 10
206.3910150446937
 20
108.0258169059742
 30
0.0
 10
206.2165660754799
 20
107.949146483948
 30
0.0
 10
205.8556344727316
 20
107.8261512462403
 30
0.0
 10
205.6664827347223
 20
107.778902355364
 30
0.0
 10
205.2791880494645
 20
107.7157430563348
 30
0.0
 10
205.0844665049153
 20
107.7001379239716
 30
0.0
 10
204.6929282674004
 20
107.6999632679933
 30
0.0
 10
204.4940618708231
 20
107.715905282926
 30
0.0
 10
204.109221659597
 20
107.7786248416424
 30
0.0
 10
203.9221624082506
 20
107.82505745391
 30
0.0
 10
203.5588176910954
 20
107.948561210633
 30
0.0
 10
203.3832744680752
 20
108.0258538248122
 30
0.0
 10
203.0582930418361
 20
108.2052144001958
 30
0.0
 10
202.9067801432836
 20
108.3078948026273
 30
0.0
 10
202.6265760451733
 20
108.5408922454712
 30
0.0
 10
202.5024719451969
 20
108.6674136904535
 30
0.0
 10
202.2851636264374
 20
108.9400291147571
 30
0.0
 10
202.1911656255529
 20
109.0878951479813
 30
0.0
 10
202.0405189544809
 20
109.3959069455825
 30
0.0
 10
201.9837169243617
 20
109.5552206962743
 30
0.0
 10
201.9068329217189
 20
109.8846794714957
 30
0.0
 10
201.8871336994137
 20
110.0559919823093
 30
0.0
 10
201.8869902769425
 20
110.3951755934034
 30
0.0
 10
201.905909135939
 20
110.5647072944778
 30
0.0
 10
201.9826011376767
 20
110.9035442066087
 30
0.0
 10
202.04013930533
 20
111.0702907370066
 30
0.0
 10
202.1895037936811
 20
111.3896183018073
 30
0.0
 10
202.2824161792163
 20
111.5446345538024
 30
0.0
 10
202.501516307068
 20
111.8375529929113
 30
0.0
 10
202.6255496662342
 20
111.9730298019328
 30
0.0
 10
202.901853011424
 20
112.2221101454617
 30
0.0
 10
203.0560013529217
 20
112.3366312908477
 30
0.0
 10
203.3818655915503
 20
112.5340833725502
 30
0.0
 10
203.5540266615413
 20
112.6179436738803
 30
0.0
 10
203.916980138188
 20
112.7552687489597
 30
0.0
 10
204.1076218214072
 20
112.8081406631202
 30
0.0
 10
204.4911313267136
 20
112.8780818028527
 30
0.0
 10
204.6860243786055
 20
112.8960277476111
 30
0.0
 10
205.0823458911053
 20
112.8963750393898
 30
0.0
 10
205.2777087305142
 20
112.8787175672554
 30
0.0
 10
205.6613098076228
 20
112.8094064902133
 30
0.0
 10
205.8518020996585
 20
112.7569350479141
 30
0.0
 10
206.2153681230594
 20
112.6200777605313
 30
0.0
 10
206.3877274757551
 20
112.5364518770062
 30
0.0
 10
206.7138482244234
 20
112.339587690901
 30
0.0
 10
206.8682727076241
 20
112.2252802206719
 30
0.0
 10
207.145142237499
 20
111.9765457537765
 30
0.0
 10
207.2693919834703
 20
111.841282631259
 30
0.0
 10
207.4888908514261
 20
111.5489535181541
 30
0.0
 10
207.5822886211321
 20
111.3938084442247
 30
0.0
 10
207.8072498558325
 20
110.9152111541665
 30
0.0
 10
207.8870617870375
 20
110.5700263449364
 30
0.0
 10
207.8870617870376
 20
110.2265351628099
 30
0.0
  0
SPLINE
  5
C4
330
1F
100
AcDbEntity
  8
0
  6
Continuous
 62
     7
370
    25
100
AcDbSpline
210
0.0
220
0.0
230
1.0
 70
     8
 71
     3
 72
    10
 73
     6
 74
     0
 42
0.000000001
 43
0.00000001
 40
0.0
 40
0.0
 40
0.0
 40
0.0
 40
0.5
 40
0.5
 40
1.0
 40
1.0
 40
1.0
 40
1.0
 10
218.7713985078252
 20
157.4132805218946
 30
0.0
 10
218.5233305717001
 20
157.3932228488651
 30
0.0
 10
218.3058045127829
 20
157.3666404115291
 30
0.0
 10
217.9432161680142
 20
157.2968759496468
 30
0.0
 10
217.8002366098939
 20
157.254281066822
 30
0.0
 10
217.6954687571769
 20
157.2023526853844
 30
0.0
  0
SPLINE
  5
C5
330
1F
100
AcDbEntity
  8
0
  6
Continuous
 62
     7
370
    25
100
AcDbSpline
210
0.0
220
0.0
230
1.0
 70
     8
 71
     3
 72
    14
 73
    10
 74
     0
 42
0.000000001
 43
0.00000001
 40
0.0
 40
0.0
 40
0.0
 40
0.0
 40
0.2499999999999999
 40
0.2499999999999999
 40
0.4999999999999998
 40
0.4999999999999998
 40
0.7499999999999999
 40
0.7499999999999999
 40
1.0
 40
1.0
 40
1.0
 40
1.0
 10
217.6954687571769
 20
94.75071764023498
 30
0.0
 10
217.8125298986672
 20
94.69269606730799
 30
0.0
 10
217.9764845116752
 20
94.64664949585959
 30
0.0
 10
218.3958784945782
 20
94.57335801283878
 30
0.0
 10
218.6548898263416
 20
94.54612830553886
 30
0.0
 10
219.2425126958267
 20
94.50759347948187
 30
0.0
 10
219.5736113876968
 20
94.49574840098666
 30
0.0
 10
220.3079143748977
 20
94.48097504200662
 30
0.0
 10
220.7008817497291
 20
94.47817719932036
 30
0.0
 10
221.1197347990586
 20
94.47709897823628
 30
0.0
  0
ELLIPSE
  5
C6
330
1F
100
AcDbEntity
  8
0
  6
Continuous
 62
     7
370
    25
100
AcDbEllipse
 10
240.4845713285
 20
125.9765351628
 30
0.0
 11
-22.33599140011918
 21
31.4205867006502
 31
0.0
210
0.0
220
0.0
230
1.0
 40
0.1000778042
 41
6.148778683739057
 42
6.21216253445007
  0
SPLINE
  5
C7
330
1F
100
AcDbEntity
  8
0
  6
Continuous
 62
     7
370
    25
100
AcDbSpline
210
0.0
220
0.0
230
1.0
 70
     8
 71
     3
 72
    12
 73
     8
 74
     0
 42
0.000000001
 43
0.00000001
 40
0.0
 40
0.0
 40
0.0
 40
0.0
 40
0.5
 40
0.5
 40
0.75
 40
0.75
 40
1.0
 40
1.0
 40
1.0
 40
1.0
 10
193.9818058987117
 20
96.07579270269241
 30
0.0
 10
194.0129510966738
 20
96.03797717977223
 30
0.0
 10
194.0552253630083
 20
96.0019103216886
 30
0.0
 10
194.1551708968336
 20
95.95395025667733
 30
0.0
 10
194.1949012015376
 20
95.93908928277969
 30
0.0
 10
194.2917892515439
 20
95.91613813664857
 30
0.0
 10
194.3518544932904
 20
95.9080432039365
 30
0.0
 10
194.414818600604
 20
95.9080432039365
 30
0.0
  0
LINE
  5
C8
330
1F
100
AcDbEntity
  8
0
  6
Continuous
 62
     7
370
    25
100
AcDbLine
 10
194.4148187835
 20
95.9080426459
 30
0.0
 11
197.3593049992
 21
95.9080426459
 31
0.0
  0
SPLINE
  5
C9
330
1F
100
AcDbEntity
  8
0
  6
Continuous
 62
     7
370
    25
100
AcDbSpline
210
0.0
220
0.0
230
1.0
 70
     8
 71
     3
 72
    12
 73
     8
 74
     0
 42
0.000000001
 43
0.00000001
 40
0.0
 40
0.0
 40
0.0
 40
0.0
 40
0.2500000000000005
 40
0.2500000000000005
 40
0.500000000000001
 40
0.500000000000001
 40
1.0
 40
1.0
 40
1.0
 40
1.0
 10
197.3593049734711
 20
95.90804320393654
 30
0.0
 10
197.4223619283689
 20
95.90804320393654
 30
0.0
 10
197.4814920781145
 20
95.91594353501611
 30
0.0
 10
197.5799396286478
 20
95.93925428302116
 30
0.0
 10
197.6189718668358
 20
95.95395940930479
 30
0.0
 10
197.7188617512928
 20
96.00189293749142
 30
0.0
 10
197.7611607249021
 20
96.0379629102562
 30
0.0
 10
197.7923176753634
 20
96.0757927026924
 30
0.0
  0
ELLIPSE
  5
CA
330
1F
100
AcDbEntity
  8
0
  6
Continuous
 62
     7
370
    25
100
AcDbEllipse
 10
181.5399075977
 20
125.9765351628
 30
0.0
 11
-14.75368316065618
 21
31.09325491558119
 31
0.0
210
0.0
220
0.0
230
1.0
 40
0.3419987131
 41
3.300734856217123
 42
4.231496223360772
  0
SPLINE
  5
CB
330
1F
100
AcDbEntity
  8
0
  6
Continuous
 62
     7
370
    25
100
AcDbSpline
210
0.0
220
0.0
230
1.0
 70
     8
 71
     3
 72
    12
 73
     8
 74
     0
 42
0.000000001
 43
0.00000001
 40
0.0
 40
0.0
 40
0.0
 40
0.0
 40
0.4999999999999981
 40
0.4999999999999981
 40
0.749999999999999
 40
0.749999999999999
 40
1.0
 40
1.0
 40
1.0
 40
1.0
 10
197.7923176753633
 20
116.0671658421243
 30
0.0
 10
197.7611724774012
 20
116.1812712079896
 30
0.0
 10
197.7188982110668
 20
116.2923775352084
 30
0.0
 10
197.6189526772415
 20
116.4425351426387
 30
0.0
 10
197.5792223725374
 20
116.489527834256
 30
0.0
 10
197.4823343225312
 20
116.5625034187945
 30
0.0
 10
197.4222690807846
 20
116.5884687314735
 30
0.0
 10
197.3593049734711
 20
116.5884687314735
 30
0.0
  0
LINE
  5
CC
330
1F
100
AcDbEntity
  8
0
  6
Continuous
 62
     7
370
    25
100
AcDbLine
 10
197.3593049992
 20
116.5884683346
 30
0.0
 11
194.4148187835
 21
116.5884683346
 31
0.0
  0
SPLINE
  5
CD
330
1F
100
AcDbEntity
  8
0
  6
Continuous
 62
     7
370
    25
100
AcDbSpline
210
0.0
220
0.0
230
1.0
 70
     8
 71
     3
 72
    12
 73
     8
 74
     0
 42
0.000000001
 43
0.00000001
 40
0.0
 40
0.0
 40
0.0
 40
0.0
 40
0.2499999999999982
 40
0.2499999999999982
 40
0.4999999999999963
 40
0.4999999999999963
 40
1.0
 40
1.0
 40
1.0
 40
1.0
 10
194.414818600604
 20
116.5884687314734
 30
0.0
 10
194.3517616457062
 20
116.5884687314734
 30
0.0
 10
194.2926314959606
 20
116.5631223780927
 30
0.0
 10
194.1941839454273
 20
116.4890029959532
 30
0.0
 10
194.1551517072392
 20
116.4425064812552
 30
0.0
 10
194.0552618227823
 20
116.2924319742467
 30
0.0
 10
194.012962849173
 20
116.1813142651318
 30
0.0
 10
193.9818058987117
 20
116.0671658421243
 30
0.0
  0
ELLIPSE
  5
CE
330
1F
100
AcDbEntity
  8
0
  6
Continuous
 62
     7
370
    25
100
AcDbEllipse
 10
210.2342159764
 20
125.9765351628
 30
0.0
 11
14.75368316065618
 21
31.09325491558116
 31
0.0
210
0.0
220
0.0
230
1.0
 40
0.3419987131
 41
2.051689083818825
 42
2.982450450962501
  0
SPLINE
  5
CF
330
1F
100
AcDbEntity
  8
0
  6
Continuous
 62
     7
370
    25
100
AcDbSpline
210
0.0
220
0.0
230
1.0
 70
     8
 71
     3
 72
    12
 73
     8
 74
     0
 42
0.000000001
 43
0.00000001
 40
0.0
 40
0.0
 40
0.0
 40
0.0
 40
0.5000000000000047
 40
0.5000000000000047
 40
0.7500000000000023
 40
0.7500000000000023
 40
1.0
 40
1.0
 40
1.0
 40
1.0
 10
193.9818058987117
 20
135.8859044834947
 30
0.0
 10
194.0125281406308
 20
135.7733486840855
 30
0.0
 10
194.055365355166
 20
135.6605908243459
 30
0.0
 10
194.1547923793658
 20
135.5110499385496
 30
0.0
 10
194.1945445741825
 20
135.4637572068427
 30
0.0
 10
194.2925860310407
 20
135.3900209135213
 30
0.0
 10
194.3521420866282
 20
135.3646015941456
 30
0.0
 10
194.414818600604
 20
135.3646015941456
 30
0.0
  0
LINE
  5
D0
330
1F
100
AcDbEntity
  8
0
  6
Continuous
 62
     7
370
    25
100
AcDbLine
 10
194.4148187835
 20
135.3646019911
 30
0.0
 11
197.3593049992
 21
135.3646019911
 31
0.0
  0
SPLINE
  5
D1
330
1F
100
AcDbEntity
  8
0
  6
Continuous
 62
     7
370
    25
100
AcDbSpline
210
0.0
220
0.0
230
1.0
 70
     8
 71
     3
 72
    12
 73
     8
 74
     0
 42
0.000000001
 43
0.00000001
 40
0.0
 40
0.0
 40
0.0
 40
0.0
 40
0.2500000000000014
 40
0.2500000000000014
 40
0.5000000000000029
 40
0.5000000000000029
 40
1.0
 40
1.0
 40
1.0
 40
1.0
 10
197.3593049734711
 20
135.3646015941455
 30
0.0
 10
197.4223850119644
 20
135.3646015941455
 30
0.0
 10
197.4815336341458
 20
135.3899659133605
 30
0.0
 10
197.5800061842149
 20
135.4641307737334
 30
0.0
 10
197.6190427961997
 20
135.5106511142875
 30
0.0
 10
197.7189392629787
 20
135.6607934571328
 30
0.0
 10
197.7613601440453
 20
135.7724866641049
 30
0.0
 10
197.7923176753633
 20
135.8859044834947
 30
0.0
  0
ELLIPSE
  5
D2
330
1F
100
AcDbEntity
  8
0
  6
Continuous
 62
     7
370
    25
100
AcDbEllipse
 10
181.5399075977
 20
125.9765351628
 30
0.0
 11
14.75368316065604
 21
31.09325491558116
 31
0.0
210
0.0
220
0.0
230
1.0
 40
0.3419987131
 41
5.193281737408618
 42
6.124043104552323
  0
SPLINE
  5
D3
330
1F
100
AcDbEntity
  8
0
  6
Continuous
 62
     7
370
    25
100
AcDbSpline
210
0.0
220
0.0
230
1.0
 70
     8
 71
     3
 72
    12
 73
     8
 74
     0
 42
0.000000001
 43
0.00000001
 40
0.0
 40
0.0
 40
0.0
 40
0.0
 40
0.5000000000000047
 40
0.5000000000000047
 40
0.7500000000000023
 40
0.7500000000000023
 40
1.0
 40
1.0
 40
1.0
 40
1.0
 10
197.7923176753633
 20
155.8772776229269
 30
0.0
 10
197.7615954334442
 20
155.9145796058799
 30
0.0
 10
197.718758218909
 20
155.9511914379263
 30
0.0
 10
197.6193311947092
 20
155.9989562212115
 30
0.0
 10
197.5795789998926
 20
156.0139137366939
 30
0.0
 10
197.4815375430344
 20
156.037103682463
 30
0.0
 10
197.4219814874469
 20
156.0450271216827
 30
0.0
 10
197.3593049734711
 20
156.0450271216827
 30
0.0
  0
LINE
  5
D4
330
1F
100
AcDbEntity
  8
0
  6
Continuous
 62
     7
370
    25
100
AcDbLine
 10
197.3593049992
 20
156.0450276797
 30
0.0
 11
194.4148187835
 21
156.0450276797
 31
0.0
  0
SPLINE
  5
D5
330
1F
100
AcDbEntity
  8
0
  6
Continuous
 62
     7
370
    25
100
AcDbSpline
210
0.0
220
0.0
230
1.0
 70
     8
 71
     3
 72
    12
 73
     8
 74
     0
 42
0.000000001
 43
0.00000001
 40
0.0
 40
0.0
 40
0.0
 40
0.0
 40
0.2499999999999982
 40
0.2499999999999982
 40
0.4999999999999964
 40
0.4999999999999964
 40
1.0
 40
1.0
 40
1.0
 40
1.0
 10
194.414818600604
 20
156.0450271216827
 30
0.0
 10
194.3517385621106
 20
156.0450271216827
 30
0.0
 10
194.2925899399292
 20
156.0371211954703
 30
0.0
 10
194.1941173898601
 20
156.013796034034
 30
0.0
 10
194.1550807778754
 20
155.9990832442023
 30
0.0
 10
194.0551843110964
 20
155.9511274434714
 30
0.0
 10
194.0127634300297
 20
155.9148652868914
 30
0.0
 10
193.9818058987117
 20
155.8772776229269
 30
0.0
  0
ELLIPSE
  5
D6
330
1F
100
AcDbEntity
  8
0
  6
Continuous
 62
     7
370
    25
100
AcDbEllipse
 10
210.2342159764
 20
125.9765351628
 30
0.0
 11
-14.75368316065607
 21
31.09325491558113
 31
0.0
210
0.0
220
0.0
230
1.0
 40
0.3419987131
 41
0.1591422026273018
 42
1.089903569770978
  0
LINE
  5
D7
330
1F
100
AcDbEntity
  8
0
  6
Continuous
 62
     7
370
    25
100
AcDbLine
 10
183.887061787
 20
94.9765356694
 30
0.0
 11
183.887061787
 21
156.9765346562
 31
0.0
  0
SPLINE
  5
D8
330
1F
100
AcDbEntity
  8
0
  6
Continuous
 62
     7
370
    25
100
AcDbSpline
210
0.0
220
0.0
230
1.0
 70
     8
 71
     3
 72
    12
 73
     8
 74
     0
 42
0.000000001
 43
0.00000001
 40
0.0
 40
0.0
 40
0.0
 40
0.0
 40
0.4999999999999997
 40
0.4999999999999997
 40
0.7499999999999998
 40
0.7499999999999998
 40
1.0
 40
1.0
 40
1.0
 40
1.0
 10
183.070549500581
 20
104.1217414603339
 30
0.0
 10
183.1269860014882
 20
104.1203235789921
 30
0.0
 10
183.196070632177
 20
104.1187592427438
 30
0.0
 10
183.3148729038949
 20
104.1158150507693
 30
0.0
 10
183.355058179365
 20
104.1147768476719
 30
0.0
 10
183.4284392267688
 20
104.1128429524573
 30
0.0
 10
183.4618487905115
 20
104.1119480651685
 30
0.0
 10
183.4920848981679
 20
104.1111642748962
 30
0.0
  0
SPLINE
  5
D9
330
1F
100
AcDbEntity
  8
0
  6
Continuous
 62
     7
370
    25
100
AcDbSpline
210
0.0
220
0.0
230
1.0
 70
     8
 71
     3
 72
    16
 73
    12
 74
     0
 42
0.000000001
 43
0.00000001
 40
0.0
 40
0.0
 40
0.0
 40
0.0
 40
0.0625000000000012
 40
0.0625000000000012
 40
0.1250000000000023
 40
0.1250000000000023
 40
0.2500000000000046
 40
0.2500000000000046
 40
0.5000000000000042
 40
0.5000000000000042
 40
1.0
 40
1.0
 40
1.0
 40
1.0
 10
183.4920848981307
 20
104.1111642749204
 30
0.0
 10
183.5036653057186
 20
104.1108640838091
 30
0.0
 10
183.5169748324799
 20
104.1095363355501
 30
0.0
 10
183.546276262566
 20
104.1028376607751
 30
0.0
 10
183.5610903624503
 20
104.0974794776694
 30
0.0
 10
183.5969187641532
 20
104.080433828502
 30
0.0
 10
183.6110383885162
 20
104.0689712907263
 30
0.0
 10
183.6455425326047
 20
104.0374079653541
 30
0.0
 10
183.6566470833093
 20
104.0195106663088
 30
0.0
 10
183.6828232605255
 20
103.9693492486946
 30
0.0
 10
183.6870617870375
 20
103.941604836498
 30
0.0
 10
183.6870617870375
 20
103.9169406745684
 30
0.0
  0
LINE
  5
DA
330
1F
100
AcDbEntity
  8
0
  6
Continuous
 62
     7
370
    25
100
AcDbLine
 10
183.6870617921
 20
118.9546479349
 30
0.0
 11
183.6870617921
 21
103.4367146407
 31
0.0
  0
SPLINE
  5
DB
330
1F
100
AcDbEntity
  8
0
  6
Continuous
 62
     7
370
    25
100
AcDbSpline
210
0.0
220
0.0
230
1.0
 70
     8
 71
     3
 72
    16
 73
    12
 74
     0
 42
0.000000001
 43
0.00000001
 40
0.0
 40
0.0
 40
0.0
 40
0.0
 40
0.5000000000000006
 40
0.5000000000000006
 40
0.7500000000000009
 40
0.7500000000000009
 40
0.875000000000001
 40
0.875000000000001
 40
0.9375000000000004
 40
0.9375000000000004
 40
1.0
 40
1.0
 40
1.0
 40
1.0
 10
183.6870617870375
 20
118.9546478370596
 30
0.0
 10
183.6870617870375
 20
119.0683403811875
 30
0.0
 10
183.6829155119595
 20
119.182660542537
 30
0.0
 10
183.656949916566
 20
119.3557088330341
 30
0.0
 10
183.6454890111886
 20
119.4148843401958
 30
0.0
 10
183.6111772734143
 20
119.498007459664
 30
0.0
 10
183.5971525374847
 20
119.5261287757647
 30
0.0
 10
183.5611295744508
 20
119.5547445897421
 30
0.0
 10
183.5463750653612
 20
119.5605376376438
 30
0.0
 10
183.5170229042143
 20
119.5589442117068
 30
0.0
 10
183.5036830297102
 20
119.552447808383
 30
0.0
 10
183.4920848981619
 20
119.5439320621799
 30
0.0
  0
SPLINE
  5
DC
330
1F
100
AcDbEntity
  8
0
  6
Continuous
 62
     7
370
    25
100
AcDbSpline
210
0.0
220
0.0
230
1.0
 70
     8
 71
     3
 72
    12
 73
     8
 74
     0
 42
0.000000001
 43
0.00000001
 40
0.0
 40
0.0
 40
0.0
 40
0.0
 40
0.2499999999999998
 40
0.2499999999999998
 40
0.4999999999999997
 40
0.4999999999999997
 40
1.0
 40
1.0
 40
1.0
 40
1.0
 10
183.4920848981689
 20
119.5439320621707
 30
0.0
 10
183.4618864567283
 20
119.5217593301257
 30
0.0
 10
183.4285191013923
 20
119.5026796742484
 30
0.0
 10
183.3553638255624
 20
119.4775066298057
 30
0.0
 10
183.3151111265385
 20
119.4719500933889
 30
0.0
 10
183.1973823832636
 20
119.4828619043757
 30
0.0
 10
183.1269239352047
 20
119.5247976597865
 30
0.0
 10
183.0705495005864
 20
119.5740094421681
 30
0.0
  0
SPLINE
  5
DD
330
1F
100
AcDbEntity
  8
0
  6
Continuous
 62
     7
370
    25
100
AcDbSpline
210
0.0
220
0.0
230
1.0
 70
     8
 71
     3
 72
    12
 73
     8
 74
     0
 42
0.000000001
 43
0.00000001
 40
0.0
 40
0.0
 40
0.0
 40
0.0
 40
0.4999999999999984
 40
0.4999999999999984
 40
0.7499999999999992
 40
0.7499999999999992
 40
1.0
 40
1.0
 40
1.0
 40
1.0
 10
182.5657414434779
 20
120.7903608340486
 30
0.0
 10
182.6094917953623
 20
120.5699138490741
 30
0.0
 10
182.6623819464868
 20
120.3543688592685
 30
0.0
 10
182.7739934896285
 20
120.0419547826966
 30
0.0
 10
182.816552833532
 20
119.9398753070807
 30
0.0
 10
182.9215300688695
 20
119.7454352944389
 30
0.0
 10
182.9830973119641
 20
119.6503503953753
 30
0.0
 10
183.0705495005864
 20
119.5740094421681
 30
0.0
  0
SPLINE
  5
DE
330
1F
100
AcDbEntity
  8
0
  6
Continuous
 62
     7
370
    25
100
AcDbSpline
210
0.0
220
0.0
230
1.0
 70
     8
 71
     3
 72
    12
 73
     8
 74
     0
 42
0.000000001
 43
0.00000001
 40
0.0
 40
0.0
 40
0.0
 40
0.0
 40
0.2500000000000004
 40
0.2500000000000004
 40
0.5000000000000008
 40
0.5000000000000008
 40
1.0
 40
1.0
 40
1.0
 40
1.0
 10
183.0705495005863
 20
132.3790608834512
 30
0.0
 10
182.9820560930184
 20
132.3018110033429
 30
0.0
 10
182.9219980522526
 20
132.2084916794537
 30
0.0
 10
182.81614977927
 20
132.0124586264843
 30
0.0
 10
182.7736162579925
 20
131.9101322682725
 30
0.0
 10
182.6624649511689
 20
131.5987878624967
 30
0.0
 10
182.6095340941211
 20
131.3833696093187
 30
0.0
 10
182.5657414434779
 20
131.1627094915708
 30
0.0
  0
SPLINE
  5
DF
330
1F
100
AcDbEntity
  8
0
  6
Continuous
 62
     7
370
    25
100
AcDbSpline
210
0.0
220
0.0
230
1.0
 70
     8
 71
     3
 72
    12
 73
     8
 74
     0
 42
0.000000001
 43
0.00000001
 40
0.0
 40
0.0
 40
0.0
 40
0.0
 40
0.4999999999999996
 40
0.4999999999999996
 40
0.7499999999999997
 40
0.7499999999999997
 40
1.0
 40
1.0
 40
1.0
 40
1.0
 10
183.0705495005863
 20
132.3790608834513
 30
0.0
 10
183.1268580488819
 20
132.4282151506951
 30
0.0
 10
183.1971327096
 20
132.4701724692989
 30
0.0
 10
183.3151706239236
 20
132.4811321468313
 30
0.0
 10
183.3553468647775
 20
132.475623388584
 30
0.0
 10
183.4293039594555
 20
132.450066159795
 30
0.0
 10
183.4619203471669
 20
132.4312861119557
 30
0.0
 10
183.4920848981627
 20
132.409138263439
 30
0.0
  0
SPLINE
  5
E0
330
1F
100
AcDbEntity
  8
0
  6
Continuous
 62
     7
370
    25
100
AcDbSpline
210
0.0
220
0.0
230
1.0
 70
     8
 71
     3
 72
    16
 73
    12
 74
     0
 42
0.000000001
 43
0.00000001
 40
0.0
 40
0.0
 40
0.0
 40
0.0
 40
0.0625000000000008
 40
0.0625000000000008
 40
0.1250000000000016
 40
0.1250000000000016
 40
0.2499999999999999
 40
0.2499999999999999
 40
0.5
 40
0.5
 40
1.0
 40
1.0
 40
1.0
 40
1.0
 10
183.492084898131
 20
132.4091382633844
 30
0.0
 10
183.5036977979703
 20
132.4006116737892
 30
0.0
 10
183.5170489824028
 20
132.3941114122564
 30
0.0
 10
183.5464488220219
 20
132.3925420151389
 30
0.0
 10
183.5612895465772
 20
132.3984254057695
 30
0.0
 10
183.5971227545458
 20
132.42697304182
 30
0.0
 10
183.6112359623674
 20
132.4551400611258
 30
0.0
 10
183.6457273335863
 20
132.5388943195478
 30
0.0
 10
183.6568114046967
 20
132.5966077331692
 30
0.0
 10
183.6829342224927
 20
132.770198269815
 30
0.0
 10
183.6870617870375
 20
132.885226322457
 30
0.0
 10
183.6870617870375
 20
132.9984224885598
 30
0.0
  0
LINE
  5
E1
330
1F
100
AcDbEntity
  8
0
  6
Continuous
 62
     7
370
    25
100
AcDbLine
 10
183.6870617921
 20
148.5163556849
 30
0.0
 11
183.6870617921
 21
132.9984223907
 31
0.0
  0
SPLINE
  5
E2
330
1F
100
AcDbEntity
  8
0
  6
Continuous
 62
     7
370
    25
100
AcDbSpline
210
0.0
220
0.0
230
1.0
 70
     8
 71
     3
 72
    16
 73
    12
 74
     0
 42
0.000000001
 43
0.00000001
 40
0.0
 40
0.0
 40
0.0
 40
0.0
 40
0.5000000000000049
 40
0.5000000000000049
 40
0.7500000000000036
 40
0.7500000000000036
 40
0.8750000000000044
 40
0.8750000000000044
 40
0.9375000000000022
 40
0.9375000000000022
 40
1.0
 40
1.0
 40
1.0
 40
1.0
 10
183.6870617870375
 20
148.036129651051
 30
0.0
 10
183.6870617870375
 20
148.011458495008
 30
0.0
 10
183.6828960885775
 20
147.9838766636168
 30
0.0
 10
183.6566377602526
 20
147.9335337927935
 30
0.0
 10
183.645133978515
 20
147.9152442947316
 30
0.0
 10
183.6110032191685
 20
147.8840892636946
 30
0.0
 10
183.5965813324978
 20
147.8724498884828
 30
0.0
 10
183.56101436406
 20
147.8555678625517
 30
0.0
 10
183.5460625957653
 20
147.8501787587441
 30
0.0
 10
183.5170587774055
 20
147.8435582627996
 30
0.0
 10
183.5036434233963
 20
147.8422056745931
 30
0.0
 10
183.4920848981597
 20
147.8419060507215
 30
0.0
  0
SPLINE
  5
E3
330
1F
100
AcDbEntity
  8
0
  6
Continuous
 62
     7
370
    25
100
AcDbSpline
210
0.0
220
0.0
230
1.0
 70
     8
 71
     3
 72
    12
 73
     8
 74
     0
 42
0.000000001
 43
0.00000001
 40
0.0
 40
0.0
 40
0.0
 40
0.0
 40
0.2500000000000002
 40
0.2500000000000002
 40
0.5000000000000003
 40
0.5000000000000003
 40
1.0
 40
1.0
 40
1.0
 40
1.0
 10
183.492084898169
 20
147.8419060507233
 30
0.0
 10
183.4618971216193
 20
147.8411235133057
 30
0.0
 10
183.4285433175276
 20
147.8402301814872
 30
0.0
 10
183.3554171143317
 20
147.8383028726836
 30
0.0
 10
183.3151819113075
 20
147.8372633414709
 30
0.0
 10
183.1974902811744
 20
147.8343454581237
 30
0.0
 10
183.1271096080143
 20
147.8327498520534
 30
0.0
 10
183.0705495005838
 20
147.8313288652856
 30
0.0
  0
SPLINE
  5
E4
330
1F
100
AcDbEntity
  8
0
  6
Continuous
 62
     7
370
    25
100
AcDbSpline
210
0.0
220
0.0
230
1.0
 70
     8
 71
     3
 72
    16
 73
    12
 74
     0
 42
0.000000001
 43
0.00000001
 40
0.0
 40
0.0
 40
0.0
 40
0.0
 40
0.2499999999999998
 40
0.2499999999999998
 40
0.3749999999999998
 40
0.3749999999999998
 40
0.4999999999999999
 40
0.4999999999999999
 40
0.7499999999999999
 40
0.7499999999999999
 40
1.0
 40
1.0
 40
1.0
 40
1.0
 10
182.5657414434779
 20
131.1627094915708
 30
0.0
 10
182.4045089659934
 20
130.3502997163239
 30
0.0
 10
182.2840291263538
 20
129.5102214219392
 30
0.0
 10
182.1616486090405
 20
128.2089263725764
 30
0.0
 10
182.130670948643
 20
127.7682453369917
 30
0.0
 10
182.0890572110151
 20
126.8724056960605
 30
0.0
 10
182.0788212980823
 20
126.4257475648581
 30
0.0
 10
182.0786329010261
 20
125.0904376077182
 30
0.0
 10
182.1187776036637
 20
124.2059422344106
 30
0.0
 10
182.2829313586033
 20
122.4486923463846
 30
0.0
 10
182.4044830090129
 20
121.6029013999715
 30
0.0
 10
182.5657414434779
 20
120.7903608340486
 30
0.0
  0
LINE
  5
E5
330
1F
100
AcDbEntity
  8
0
  6
Continuous
 62
     7
370
    25
100
AcDbLine
 10
181.687061799
 20
132.4617132981
 30
0.0
 11
181.687061799
 21
119.4913570275
 31
0.0
  0
LINE
  5
E6
330
1F
100
AcDbEntity
  8
0
  6
Continuous
 62
     7
370
    25
100
AcDbLine
 10
147.3870623235
 20
132.0308457566
 30
0.0
 11
147.3870623235
 21
119.9222245691
 31
0.0
  0
LINE
  5
E7
330
1F
100
AcDbEntity
  8
0
  6
Continuous
 62
     7
370
    25
100
AcDbLine
 10
145.8870630089
 20
131.5978329134
 30
0.0
 11
145.8870630089
 21
120.3552374122
 31
0.0
  0
LINE
  5
E8
330
1F
100
AcDbEntity
  8
0
  6
Continuous
 62
     7
370
    25
100
AcDbLine
 10
181.687061799
 20
103.9564354782
 30
0.0
 11
181.687061799
 21
119.4913570275
 31
0.0
  0
ARC
  5
E9
330
1F
100
AcDbEntity
  8
0
  6
Continuous
 62
     7
370
    25
100
AcDbCircle
 10
181.886998698
 20
103.9514132671
 30
0.0
 40
0.2000000000000059
100
AcDbArc
 50
88.5608333333
 51
178.5608333333
  0
LINE
  5
EA
330
1F
100
AcDbEntity
  8
0
  6
Continuous
 62
     7
370
    25
100
AcDbLine
 10
147.3870623235
 20
104.8181714927
 30
0.0
 11
147.3870623235
 21
119.9222245691
 31
0.0
  0
LINE
  5
EB
330
1F
100
AcDbEntity
  8
0
  6
Continuous
 62
     7
370
    25
100
AcDbLine
 10
147.3870623235
 20
104.8181714927
 30
0.0
 11
181.687061799
 21
103.9564354782
 31
0.0
  0
LINE
  5
EC
330
1F
100
AcDbEntity
  8
0
  6
Continuous
 62
     7
370
    25
100
AcDbLine
 10
147.3870623235
 20
132.0308457566
 30
0.0
 11
147.3870623235
 21
147.1348988329
 31
0.0
  0
LINE
  5
ED
330
1F
100
AcDbEntity
  8
0
  6
Continuous
 62
     7
370
    25
100
AcDbLine
 10
147.3870623235
 20
147.1348988329
 30
0.0
 11
181.687061799
 21
147.9966348474
 31
0.0
  0
LINE
  5
EE
330
1F
100
AcDbEntity
  8
0
  6
Continuous
 62
     7
370
    25
100
AcDbLine
 10
181.687061799
 20
132.4617132981
 30
0.0
 11
181.687061799
 21
147.9966348474
 31
0.0
  0
ARC
  5
EF
330
1F
100
AcDbEntity
  8
0
  6
Continuous
 62
     7
370
    25
100
AcDbCircle
 10
181.886998698
 20
148.0016570585
 30
0.0
 40
0.2000000000000059
100
AcDbArc
 50
181.4391666667
 51
271.4391666667
  0
LINE
  5
F0
330
1F
100
AcDbEntity
  8
0
  6
Continuous
 62
     7
370
    25
100
AcDbLine
 10
181.8920219161
 20
147.8017202084
 30
0.0
 11
183.0705495162
 21
147.8313288157
 31
0.0
  0
LINE
  5
F1
330
1F
100
AcDbEntity
  8
0
  6
Continuous
 62
     7
370
    25
100
AcDbLine
 10
181.8920219161
 20
104.1513501172
 30
0.0
 11
183.0705495162
 21
104.1217415099
 31
0.0
  0
LINE
  5
F2
330
1F
100
AcDbEntity
  8
0
  6
Continuous
 62
     7
370
    25
100
AcDbLine
 10
145.8870630089
 20
105.684197179
 30
0.0
 11
147.3870623235
 21
104.8181714927
 31
0.0
  0
LINE
  5
F3
330
1F
100
AcDbEntity
  8
0
  6
Continuous
 62
     7
370
    25
100
AcDbLine
 10
145.8870630089
 20
105.684197179
 30
0.0
 11
145.8870630089
 21
120.3552374122
 31
0.0
  0
LINE
  5
F4
330
1F
100
AcDbEntity
  8
0
  6
Continuous
 62
     7
370
    25
100
AcDbLine
 10
145.8870630089
 20
146.2688731467
 30
0.0
 11
147.3870623235
 21
147.1348988329
 31
0.0
  0
LINE
  5
F5
330
1F
100
AcDbEntity
  8
0
  6
Continuous
 62
     7
370
    25
100
AcDbLine
 10
145.8870630089
 20
131.5978329134
 30
0.0
 11
145.8870630089
 21
146.2688731467
 31
0.0
  0
SPLINE
  5
F6
330
1F
100
AcDbEntity
  8
0
  6
Continuous
 62
     7
370
    25
100
AcDbSpline
210
0.0
220
0.0
230
1.0
 70
     8
 71
     3
 72
     8
 73
     4
 74
     0
 42
0.000000001
 43
0.00000001
 40
0.0
 40
0.0
 40
0.0
 40
0.0
 40
1.0
 40
1.0
 40
1.0
 40
1.0
 10
222.0856606253476
 20
93.73562890908399
 30
0.0
 10
222.5536944950837
 20
91.98935333418773
 30
0.0
 10
223.0222164068227
 20
90.24133694447939
 30
0.0
 10
223.4910237149113
 20
88.49166821980938
 30
0.0
  0
SPLINE
  5
F7
330
1F
100
AcDbEntity
  8
0
  6
Continuous
 62
     7
370
    25
100
AcDbSpline
210
0.0
220
0.0
230
1.0
 70
     8
 71
     3
 72
    12
 73
     8
 74
     0
 42
0.000000001
 43
0.00000001
 40
0.0
 40
0.0
 40
0.0
 40
0.0
 40
0.2500000000000008
 40
0.2500000000000008
 40
0.5000000000000016
 40
0.5000000000000016
 40
1.0
 40
1.0
 40
1.0
 40
1.0
 10
221.1197347990586
 20
94.47709897823628
 30
0.0
 10
221.2243094881154
 20
94.47682977968374
 30
0.0
 10
221.3276714401546
 20
94.46066457363946
 30
0.0
 10
221.5312767035779
 20
94.39418390800675
 30
0.0
 10
221.6280029415414
 20
94.34466068721892
 30
0.0
 10
221.8918203423351
 20
94.14882244345895
 30
0.0
 10
222.0267257148856
 20
93.95552024879973
 30
0.0
 10
222.0856606253476
 20
93.73562890908399
 30
0.0
  0
ELLIPSE
  5
F8
330
1F
100
AcDbEntity
  8
0
  6
Continuous
 62
     7
370
    25
100
AcDbEllipse
 10
223.4910237149
 20
151.4660259054
 30
0.0
 11
-5.969584085074815
 21
8.654613893686587
 31
0.0
210
0.0
220
0.0
230
1.0
 40
0.0697175754
 41
0.766239797215064
 42
1.671529717018212
  0
LINE
  5
F9
330
1F
100
AcDbEntity
  8
0
  6
Continuous
 62
     7
370
    25
100
AcDbLine
 10
247.4624040846
 20
93.8131647621
 30
0.0
 11
245.2494475369
 21
119.107365745
 31
0.0
  0
ARC
  5
FA
330
1F
100
AcDbEntity
  8
0
  6
Continuous
 62
     7
370
    25
100
AcDbCircle
 10
236.1415986731
 20
93.7219982768
 30
0.0
 40
2.099999999999997
100
AcDbArc
 50
25.8700037428
 51
244.1299962572
  0
LINE
  5
FB
330
1F
100
AcDbEntity
  8
0
  6
Continuous
 62
     7
370
    25
100
AcDbLine
 10
236.0372069601
 20
82.5523609732
 30
0.0
 11
224.8194451753
 21
83.5337887024
 31
0.0
  0
LINE
  5
FC
330
1F
100
AcDbEntity
  8
0
  6
Continuous
 62
     7
370
    25
100
AcDbLine
 10
223.4910252813
 20
88.4916695272
 30
0.0
 11
224.8194451753
 21
83.5337887024
 31
0.0
  0
LINE
  5
FD
330
1F
100
AcDbEntity
  8
0
  6
Continuous
 62
     7
370
    25
100
AcDbLine
 10
245.2494475369
 20
119.107365745
 30
0.0
 11
223.4910252813
 21
150.1816163276
 31
0.0
  0
ELLIPSE
  5
FE
330
1F
100
AcDbEntity
  8
0
  6
HIDDEN
 62
     7
370
    18
100
AcDbEllipse
 10
240.4845713285
 20
125.9765351628
 30
0.0
 11
-22.33599140011918
 21
31.4205867006502
 31
0.0
210
0.0
220
0.0
230
1.0
 40
0.1000778042
 41
6.21216253445007
 42
6.961481347598703
  0
SPLINE
  5
FF
330
1F
100
AcDbEntity
  8
0
  6
HIDDEN
 62
     7
370
    18
100
AcDbSpline
210
0.0
220
0.0
230
1.0
 70
     8
 71
     3
 72
    12
 73
     8
 74
     0
 42
0.000000001
 43
0.00000001
 40
0.0
 40
0.0
 40
0.0
 40
0.0
 40
0.5000000000000037
 40
0.5000000000000037
 40
0.7500000000000018
 40
0.7500000000000018
 40
1.0
 40
1.0
 40
1.0
 40
1.0
 10
193.9818058987117
 20
155.8772776229271
 30
0.0
 10
194.0125281406308
 20
155.9145796058801
 30
0.0
 10
194.055365355166
 20
155.9511914379265
 30
0.0
 10
194.1547923793658
 20
155.9989562212117
 30
0.0
 10
194.1945445741825
 20
156.013913736694
 30
0.0
 10
194.2925860310407
 20
156.0371036824632
 30
0.0
 10
194.3521420866282
 20
156.0450271216829
 30
0.0
 10
194.414818600604
 20
156.0450271216829
 30
0.0
  0
LINE
  5
100
330
1F
100
AcDbEntity
  8
0
  6
HIDDEN
 62
     7
370
    18
100
AcDbLine
 10
194.4148187835
 20
156.0450276797
 30
0.0
 11
197.3593049992
 21
156.0450276797
 31
0.0
  0
SPLINE
  5
101
330
1F
100
AcDbEntity
  8
0
  6
HIDDEN
 62
     7
370
    18
100
AcDbSpline
210
0.0
220
0.0
230
1.0
 70
     8
 71
     3
 72
    12
 73
     8
 74
     0
 42
0.000000001
 43
0.00000001
 40
0.0
 40
0.0
 40
0.0
 40
0.0
 40
0.2500000000000009
 40
0.2500000000000009
 40
0.5000000000000018
 40
0.5000000000000018
 40
1.0
 40
1.0
 40
1.0
 40
1.0
 10
197.3593049734711
 20
156.0450271216829
 30
0.0
 10
197.4223850119645
 20
156.0450271216829
 30
0.0
 10
197.4815336341458
 20
156.0371211954705
 30
0.0
 10
197.5800061842149
 20
156.0137960340342
 30
0.0
 10
197.6190427961997
 20
155.9990832442026
 30
0.0
 10
197.7189392629787
 20
155.9511274434716
 30
0.0
 10
197.7613601440454
 20
155.9148652868916
 30
0.0
 10
197.7923176753633
 20
155.8772776229271
 30
0.0
  0
ELLIPSE
  5
102
330
1F
100
AcDbEntity
  8
0
  6
HIDDEN
 62
     7
370
    18
100
AcDbEllipse
 10
181.5399075977
 20
125.9765351628
 30
0.0
 11
14.75368316065627
 21
31.09325491558116
 31
0.0
210
0.0
220
0.0
230
1.0
 40
0.3419987131
 41
5.193281737408637
 42
6.124043104552343
  0
SPLINE
  5
103
330
1F
100
AcDbEntity
  8
0
  6
HIDDEN
 62
     7
370
    18
100
AcDbSpline
210
0.0
220
0.0
230
1.0
 70
     8
 71
     3
 72
    12
 73
     8
 74
     0
 42
0.000000001
 43
0.00000001
 40
0.0
 40
0.0
 40
0.0
 40
0.0
 40
0.5000000000000047
 40
0.5000000000000047
 40
0.7500000000000023
 40
0.7500000000000023
 40
1.0
 40
1.0
 40
1.0
 40
1.0
 10
197.7923176753633
 20
135.8859044834953
 30
0.0
 10
197.7615954334442
 20
135.7733486840861
 30
0.0
 10
197.718758218909
 20
135.6605908243466
 30
0.0
 10
197.6193311947092
 20
135.5110499385502
 30
0.0
 10
197.5795789998926
 20
135.4637572068433
 30
0.0
 10
197.4815375430344
 20
135.3900209135219
 30
0.0
 10
197.4219814874469
 20
135.3646015941462
 30
0.0
 10
197.3593049734711
 20
135.3646015941462
 30
0.0
  0
LINE
  5
104
330
1F
100
AcDbEntity
  8
0
  6
HIDDEN
 62
     7
370
    18
100
AcDbLine
 10
197.3593049992
 20
135.3646019911
 30
0.0
 11
194.4148187835
 21
135.3646019911
 31
0.0
  0
SPLINE
  5
105
330
1F
100
AcDbEntity
  8
0
  6
HIDDEN
 62
     7
370
    18
100
AcDbSpline
210
0.0
220
0.0
230
1.0
 70
     8
 71
     3
 72
    12
 73
     8
 74
     0
 42
0.000000001
 43
0.00000001
 40
0.0
 40
0.0
 40
0.0
 40
0.0
 40
0.2499999999999995
 40
0.2499999999999995
 40
0.499999999999999
 40
0.499999999999999
 40
1.0
 40
1.0
 40
1.0
 40
1.0
 10
194.414818600604
 20
135.3646015941462
 30
0.0
 10
194.3517385621106
 20
135.3646015941462
 30
0.0
 10
194.2925899399292
 20
135.3899659133611
 30
0.0
 10
194.1941173898601
 20
135.464130773734
 30
0.0
 10
194.1550807778754
 20
135.5106511142882
 30
0.0
 10
194.0551843110964
 20
135.6607934571335
 30
0.0
 10
194.0127634300297
 20
135.7724866641056
 30
0.0
 10
193.9818058987117
 20
135.8859044834954
 30
0.0
  0
ELLIPSE
  5
106
330
1F
100
AcDbEntity
  8
0
  6
HIDDEN
 62
     7
370
    18
100
AcDbEllipse
 10
210.2342159764
 20
125.9765351628
 30
0.0
 11
-14.75368316065627
 21
31.09325491558116
 31
0.0
210
0.0
220
0.0
230
1.0
 40
0.3419987131
 41
0.1591422026272842
 42
1.089903569770959
  0
SPLINE
  5
107
330
1F
100
AcDbEntity
  8
0
  6
HIDDEN
 62
     7
370
    18
100
AcDbSpline
210
0.0
220
0.0
230
1.0
 70
     8
 71
     3
 72
    12
 73
     8
 74
     0
 42
0.000000001
 43
0.00000001
 40
0.0
 40
0.0
 40
0.0
 40
0.0
 40
0.5000000000000028
 40
0.5000000000000028
 40
0.7500000000000013
 40
0.7500000000000013
 40
1.0
 40
1.0
 40
1.0
 40
1.0
 10
193.9818058987117
 20
116.0671658421245
 30
0.0
 10
194.0125281406308
 20
116.1797216415337
 30
0.0
 10
194.055365355166
 20
116.2924795012733
 30
0.0
 10
194.1547923793658
 20
116.4420203870696
 30
0.0
 10
194.1945445741825
 20
116.4893131187765
 30
0.0
 10
194.2925860310407
 20
116.5630494120979
 30
0.0
 10
194.3521420866282
 20
116.5884687314736
 30
0.0
 10
194.414818600604
 20
116.5884687314736
 30
0.0
  0
LINE
  5
108
330
1F
100
AcDbEntity
  8
0
  6
HIDDEN
 62
     7
370
    18
100
AcDbLine
 10
194.4148187835
 20
116.5884683346
 30
0.0
 11
197.3593049992
 21
116.5884683346
 31
0.0
  0
SPLINE
  5
109
330
1F
100
AcDbEntity
  8
0
  6
HIDDEN
 62
     7
370
    18
100
AcDbSpline
210
0.0
220
0.0
230
1.0
 70
     8
 71
     3
 72
    12
 73
     8
 74
     0
 42
0.000000001
 43
0.00000001
 40
0.0
 40
0.0
 40
0.0
 40
0.0
 40
0.2499999999999977
 40
0.2499999999999977
 40
0.4999999999999953
 40
0.4999999999999953
 40
1.0
 40
1.0
 40
1.0
 40
1.0
 10
197.3593049734711
 20
116.5884687314736
 30
0.0
 10
197.4223850119644
 20
116.5884687314736
 30
0.0
 10
197.4815336341458
 20
116.5631044122587
 30
0.0
 10
197.5800061842149
 20
116.4889395518858
 30
0.0
 10
197.6190427961997
 20
116.4424192113317
 30
0.0
 10
197.7189392629787
 20
116.2922768684864
 30
0.0
 10
197.7613601440453
 20
116.1805836615143
 30
0.0
 10
197.7923176753633
 20
116.0671658421245
 30
0.0
  0
ELLIPSE
  5
10A
330
1F
100
AcDbEntity
  8
0
  6
HIDDEN
 62
     7
370
    18
100
AcDbEllipse
 10
181.5399075977
 20
125.9765351628
 30
0.0
 11
-14.7536831606561
 21
31.09325491558116
 31
0.0
210
0.0
220
0.0
230
1.0
 40
0.3419987131
 41
3.300734856217131
 42
4.231496223360779
  0
SPLINE
  5
10B
330
1F
100
AcDbEntity
  8
0
  6
HIDDEN
 62
     7
370
    18
100
AcDbSpline
210
0.0
220
0.0
230
1.0
 70
     8
 71
     3
 72
    12
 73
     8
 74
     0
 42
0.000000001
 43
0.00000001
 40
0.0
 40
0.0
 40
0.0
 40
0.0
 40
0.4999999999999981
 40
0.4999999999999981
 40
0.749999999999999
 40
0.749999999999999
 40
1.0
 40
1.0
 40
1.0
 40
1.0
 10
197.7923176753633
 20
96.07579270269248
 30
0.0
 10
197.7615954334442
 20
96.03849071973944
 30
0.0
 10
197.718758218909
 20
96.00187888769305
 30
0.0
 10
197.6193311947092
 20
95.95411410440786
 30
0.0
 10
197.5795789998926
 20
95.93915658892548
 30
0.0
 10
197.4815375430344
 20
95.91596664315634
 30
0.0
 10
197.4219814874469
 20
95.90804320393661
 30
0.0
 10
197.3593049734711
 20
95.90804320393661
 30
0.0
  0
LINE
  5
10C
330
1F
100
AcDbEntity
  8
0
  6
HIDDEN
 62
     7
370
    18
100
AcDbLine
 10
197.3593049992
 20
95.9080426459
 30
0.0
 11
194.4148187835
 21
95.9080426459
 31
0.0
  0
SPLINE
  5
10D
330
1F
100
AcDbEntity
  8
0
  6
HIDDEN
 62
     7
370
    18
100
AcDbSpline
210
0.0
220
0.0
230
1.0
 70
     8
 71
     3
 72
    12
 73
     8
 74
     0
 42
0.000000001
 43
0.00000001
 40
0.0
 40
0.0
 40
0.0
 40
0.0
 40
0.2500000000000032
 40
0.2500000000000032
 40
0.5000000000000064
 40
0.5000000000000064
 40
1.0
 40
1.0
 40
1.0
 40
1.0
 10
194.414818600604
 20
95.90804320393661
 30
0.0
 10
194.3517385621106
 20
95.90804320393661
 30
0.0
 10
194.2925899399292
 20
95.91594913014906
 30
0.0
 10
194.1941173898601
 20
95.9392742915853
 30
0.0
 10
194.1550807778754
 20
95.953987081417
 30
0.0
 10
194.0551843110964
 20
96.00194288214793
 30
0.0
 10
194.0127634300297
 20
96.03820503872798
 30
0.0
 10
193.9818058987117
 20
96.0757927026925
 30
0.0
  0
ELLIPSE
  5
10E
330
1F
100
AcDbEntity
  8
0
  6
HIDDEN
 62
     7
370
    18
100
AcDbEllipse
 10
210.2342159764
 20
125.9765351628
 30
0.0
 11
14.7536831606561
 21
31.09325491558116
 31
0.0
210
0.0
220
0.0
230
1.0
 40
0.3419987131
 41
2.051689083818819
 42
2.982450450962492
  0
SPLINE
  5
10F
330
1F
100
AcDbEntity
  8
0
  6
HIDDEN
 62
     7
370
    18
100
AcDbSpline
210
0.0
220
0.0
230
1.0
 70
    11
 71
     3
 72
    60
 73
    56
 74
     0
 42
0.000000001
 43
0.00000001
 40
0.0
 40
0.0
 40
0.0
 40
0.0
 40
0.03125
 40
0.03125
 40
0.0625
 40
0.0625
 40
0.0937500000000001
 40
0.0937500000000001
 40
0.1250000000000001
 40
0.1250000000000001
 40
0.1875
 40
0.1875
 40
0.2499999999999998
 40
0.2499999999999998
 40
0.2812499999999997
 40
0.2812499999999997
 40
0.3124999999999996
 40
0.3124999999999996
 40
0.3437499999999996
 40
0.3437499999999996
 40
0.3749999999999994
 40
0.3749999999999994
 40
0.4062499999999993
 40
0.4062499999999993
 40
0.4374999999999992
 40
0.4374999999999992
 40
0.4687499999999992
 40
0.4687499999999992
 40
0.4999999999999991
 40
0.4999999999999991
 40
0.5624999999999989
 40
0.5624999999999989
 40
0.6249999999999988
 40
0.6249999999999988
 40
0.656249999999999
 40
0.656249999999999
 40
0.6874999999999991
 40
0.6874999999999991
 40
0.7187499999999992
 40
0.7187499999999992
 40
0.7499999999999993
 40
0.7499999999999993
 40
0.7812499999999994
 40
0.7812499999999994
 40
0.8124999999999996
 40
0.8124999999999996
 40
0.8437499999999997
 40
0.8437499999999997
 40
0.8749999999999998
 40
0.8749999999999998
 40
0.90625
 40
0.90625
 40
0.9375000000000001
 40
0.9375000000000001
 40
1.0
 40
1.0
 40
1.0
 40
1.0
 10
197.8870617870375
 20
125.9765351628097
 30
0.0
 10
197.8870617870375
 20
126.108700425353
 30
0.0
 10
197.8740899285487
 20
126.2386504863572
 30
0.0
 10
197.8232697588563
 20
126.4943034197173
 30
0.0
 10
197.7848024353894
 20
126.6213329262666
 30
0.0
 10
197.6844041993173
 20
126.8635210573911
 30
0.0
 10
197.6229711683441
 20
126.978382549944
 30
0.0
 10
197.4778363367992
 20
127.1957627457681
 30
0.0
 10
197.3933812193913
 20
127.2986603129667
 30
0.0
 10
197.116661769033
 20
127.5753273519745
 30
0.0
 10
196.893584877115
 20
127.7243254424545
 30
0.0
 10
196.4123015148946
 20
127.9238365829192
 30
0.0
 10
196.1490710959036
 20
127.9763946859159
 30
0.0
 10
195.7576688942157
 20
127.976604968294
 30
0.0
 10
195.6251458661069
 20
127.9636191975669
 30
0.0
 10
195.3686154128658
 20
127.912592049353
 30
0.0
 10
195.2439285785692
 20
127.8748368502027
 30
0.0
 10
195.0017493163336
 20
127.7746985172939
 30
0.0
 10
194.8846557841836
 20
127.7120928498824
 30
0.0
 10
194.6679407808282
 20
127.5673595566174
 30
0.0
 10
194.5669219539654
 20
127.4847322093378
 30
0.0
 10
194.3801370665133
 20
127.2981271560863
 30
0.0
 10
194.2972801853171
 20
127.1970120922101
 30
0.0
 10
194.1523959202433
 20
126.9804792882203
 30
0.0
 10
194.0897584124223
 20
126.8636090806191
 30
0.0
 10
193.9893095890226
 20
126.621311209969
 30
0.0
 10
193.9514584880053
 20
126.496647211508
 30
0.0
 10
193.900236922749
 20
126.2403601674441
 30
0.0
 10
193.8871087961317
 20
126.1077881716985
 30
0.0
 10
193.8869681557915
 20
125.7161839789246
 30
0.0
 10
193.9392929051633
 20
125.4530186476006
 30
0.0
 10
194.1384039672206
 20
124.9715132784275
 30
0.0
 10
194.2872663036779
 20
124.7482617389434
 30
0.0
 10
194.5635872630034
 20
124.4714054400545
 30
0.0
 10
194.6663509113769
 20
124.3868919932108
 30
0.0
 10
194.8837344687564
 20
124.2414747197705
 30
0.0
 10
194.9985332367129
 20
124.1799635207122
 30
0.0
 10
195.2404099601369
 20
124.0794336724573
 30
0.0
 10
195.3675635681371
 20
124.0407886492393
 30
0.0
 10
195.6232295775697
 20
123.9897323216884
 30
0.0
 10
195.7530956153257
 20
123.9766674631427
 30
0.0
 10
196.0170481420573
 20
123.9764048423448
 30
0.0
 10
196.1474524654814
 20
123.9892818425888
 30
0.0
 10
196.4031032288607
 20
124.0398678463946
 30
0.0
 10
196.5299687779751
 20
124.0781442110165
 30
0.0
 10
196.772489235921
 20
124.1784150784965
 30
0.0
 10
196.8874158745813
 20
124.2397711026374
 30
0.0
 10
197.1047873434133
 20
124.3846173978102
 30
0.0
 10
197.2078011560756
 20
124.4689949123048
 30
0.0
 10
197.3925017016575
 20
124.6534022324931
 30
0.0
 10
197.4753314359141
 20
124.7539752957625
 30
0.0
 10
197.6215838745116
 20
124.9722014363415
 30
0.0
 10
197.683952355304
 20
125.0887565462628
 30
0.0
 10
197.8339085068708
 20
125.4496061402965
 30
0.0
 10
197.8870617870375
 20
125.712204637723
 30
0.0
 10
197.8870617870375
 20
125.9765351628097
 30
0.0
  0
LINE
  5
110
330
1F
100
AcDbEntity
  8
0
  6
HIDDEN
 62
     7
370
    18
100
AcDbLine
 10
183.887061787
 20
94.9765356694
 30
0.0
 11
183.887061787
 21
156.9765346562
 31
0.0
  0
LWPOLYLINE
  5
111
330
1F
100
AcDbEntity
  8
0
  6
HIDDEN
 62
     7
370
    18
100
AcDbPolyline
 90
       29
 70
   128
 43
0.0
 10
204.8870615039
 20
116.3246116107
 10
205.5546242122
 20
116.2594721158
 10
206.1887133245
 20
116.0673207109
 10
206.7575316254
 20
115.7577928593
 10
207.2325564299
 20
115.3464090516
 10
207.5899682317
 20
114.853798083
 10
207.8118446592
 20
114.304661422
 10
207.8870619957
 20
113.7265354832
 10
207.8118446592
 20
113.1484086131
 10
207.5899682317
 20
112.5992719521
 10
207.2325564299
 20
112.1066609834
 10
206.7575316254
 20
111.6952771758
 10
206.1887133245
 20
111.3857493241
 10
205.5546242122
 20
111.1935979192
 10
204.8870615039
 20
111.1284593557
 10
204.2194987957
 20
111.1935979192
 10
203.5854096834
 20
111.3857493241
 10
203.0165932451
 20
111.6952771758
 10
202.5415665779
 20
112.1066609834
 10
202.1841547761
 20
112.5992719521
 10
201.9622783486
 20
113.1484086131
 10
201.8870610122
 20
113.7265354832
 10
201.9622783486
 20
114.304661422
 10
202.1841547761
 20
114.853798083
 10
202.5415665779
 20
115.3464090516
 10
203.0165932451
 20
115.7577928593
 10
203.5854096834
 20
116.0673207109
 10
204.2194987957
 20
116.2594721158
 10
204.8870615039
 20
116.3246116107
  0
LINE
  5
112
330
1F
100
AcDbEntity
  8
0
  6
HIDDEN
 62
     7
370
    18
100
AcDbLine
 10
183.887061787
 20
101.7265344476
 30
0.0
 11
183.887061787
 21
150.2082987194
 31
0.0
  0
SPLINE
  5
113
330
1F
100
AcDbEntity
  8
0
  6
HIDDEN
 62
     7
370
    18
100
AcDbSpline
210
0.0
220
0.0
230
1.0
 70
     8
 71
     3
 72
    12
 73
     8
 74
     0
 42
0.000000001
 43
0.00000001
 40
0.0
 40
0.0
 40
0.0
 40
0.0
 40
0.4999999999999996
 40
0.4999999999999996
 40
0.7499999999999998
 40
0.7499999999999998
 40
1.0
 40
1.0
 40
1.0
 40
1.0
 10
183.0705495005905
 20
141.4288031446406
 30
0.0
 10
183.1269556792707
 20
141.3809807709807
 30
0.0
 10
183.1971185807425
 20
141.3407099240422
 30
0.0
 10
183.3151292941317
 20
141.3326640555652
 30
0.0
 10
183.3553350777272
 20
141.3392266539041
 30
0.0
 10
183.4290557744602
 20
141.3666087483577
 30
0.0
 10
183.4619164962467
 20
141.3863702388881
 30
0.0
 10
183.492084898176
 20
141.4093029500762
 30
0.0
  0
SPLINE
  5
114
330
1F
100
AcDbEntity
  8
0
  6
HIDDEN
 62
     7
370
    18
100
AcDbSpline
210
0.0
220
0.0
230
1.0
 70
     8
 71
     3
 72
    16
 73
    12
 74
     0
 42
0.000000001
 43
0.00000001
 40
0.0
 40
0.0
 40
0.0
 40
0.0
 40
0.0625000000000025
 40
0.0625000000000025
 40
0.1250000000000049
 40
0.1250000000000049
 40
0.2500000000000079
 40
0.2500000000000079
 40
0.5000000000000036
 40
0.5000000000000036
 40
1.0
 40
1.0
 40
1.0
 40
1.0
 10
183.4920848981309
 20
141.4093029501242
 30
0.0
 10
183.5036977979702
 20
141.4181305731056
 30
0.0
 10
183.5170489824027
 20
141.4259649549875
 30
0.0
 10
183.5464488220219
 20
141.4342750810599
 30
0.0
 10
183.5612895465772
 20
141.4337792618249
 30
0.0
 10
183.5971227545458
 20
141.4223282908555
 30
0.0
 10
183.6112359623674
 20
141.4056477899969
 30
0.0
 10
183.6457273335863
 20
141.3535271042398
 30
0.0
 10
183.6568114046967
 20
141.3137376102149
 30
0.0
 10
183.6829342224927
 20
141.1904009781177
 30
0.0
 10
183.6870617870375
 20
141.1029795676191
 30
0.0
 10
183.6870617870375
 20
141.0142423253009
 30
0.0
  0
LINE
  5
115
330
1F
100
AcDbEntity
  8
0
  6
HIDDEN
 62
     7
370
    18
100
AcDbLine
 10
183.6870617921
 20
110.9388281097
 30
0.0
 11
183.6870617921
 21
141.0142422159
 31
0.0
  0
SPLINE
  5
116
330
1F
100
AcDbEntity
  8
0
  6
HIDDEN
 62
     7
370
    18
100
AcDbSpline
210
0.0
220
0.0
230
1.0
 70
     8
 71
     3
 72
    16
 73
    12
 74
     0
 42
0.000000001
 43
0.00000001
 40
0.0
 40
0.0
 40
0.0
 40
0.0
 40
0.5000000000000062
 40
0.5000000000000062
 40
0.7500000000000093
 40
0.7500000000000093
 40
0.8750000000000088
 40
0.8750000000000088
 40
0.9375000000000044
 40
0.9375000000000044
 40
1.0
 40
1.0
 40
1.0
 40
1.0
 10
183.6870617870375
 20
110.9388280003185
 30
0.0
 10
183.6870617870375
 20
110.8497016351297
 30
0.0
 10
183.6829155119596
 20
110.7628402675163
 30
0.0
 10
183.656949916566
 20
110.6398580210223
 30
0.0
 10
183.6454890111886
 20
110.599086725791
 30
0.0
 10
183.6111772734143
 20
110.5473824057913
 30
0.0
 10
183.5971525374846
 20
110.5307120392009
 30
0.0
 10
183.5611295744508
 20
110.5192598187441
 30
0.0
 10
183.5463750653611
 20
110.5188067724691
 30
0.0
 10
183.5170229042143
 20
110.5271220936853
 30
0.0
 10
183.5036830297102
 20
110.5349509787636
 30
0.0
 10
183.4920848981619
 20
110.5437673755262
 30
0.0
  0
SPLINE
  5
117
330
1F
100
AcDbEntity
  8
0
  6
HIDDEN
 62
     7
370
    18
100
AcDbSpline
210
0.0
220
0.0
230
1.0
 70
     8
 71
     3
 72
    12
 73
     8
 74
     0
 42
0.000000001
 43
0.00000001
 40
0.0
 40
0.0
 40
0.0
 40
0.0
 40
0.2500000000000001
 40
0.2500000000000001
 40
0.4999999999999998
 40
0.4999999999999998
 40
1.0
 40
1.0
 40
1.0
 40
1.0
 10
183.492084898169
 20
110.5437673755351
 30
0.0
 10
183.4618930564517
 20
110.5667179046329
 30
0.0
 10
183.4285340870371
 20
110.5866873786571
 30
0.0
 10
183.3553968024565
 20
110.6137885122826
 30
0.0
 10
183.3151549298026
 20
110.620389252928
 30
0.0
 10
183.1974491528341
 20
110.6124203784213
 30
0.0
 10
183.1270386750546
 20
110.5721599202535
 30
0.0
 10
183.0705495005863
 20
110.5242671809753
 30
0.0
  0
SPLINE
  5
118
330
1F
100
AcDbEntity
  8
0
  6
HIDDEN
 62
     7
370
    18
100
AcDbSpline
210
0.0
220
0.0
230
1.0
 70
     8
 71
     3
 72
    12
 73
     8
 74
     0
 42
0.000000001
 43
0.00000001
 40
0.0
 40
0.0
 40
0.0
 40
0.0
 40
0.2500000000000004
 40
0.2500000000000004
 40
0.500000000000001
 40
0.500000000000001
 40
1.0
 40
1.0
 40
1.0
 40
1.0
 10
183.070549500586
 20
110.5242671809755
 30
0.0
 10
182.9823955628483
 20
110.4495283731214
 30
0.0
 10
182.9220421382195
 20
110.3585478726391
 30
0.0
 10
182.8157801801527
 20
110.1696340498865
 30
0.0
 10
182.7735480135906
 20
110.0731295903459
 30
0.0
 10
182.6624773182735
 20
109.7823618361787
 30
0.0
 10
182.6095405418467
 20
109.586695021635
 30
0.0
 10
182.5657414434779
 20
109.3926285365687
 30
0.0
  0
SPLINE
  5
119
330
1F
100
AcDbEntity
  8
0
  6
HIDDEN
 62
     7
370
    18
100
AcDbSpline
210
0.0
220
0.0
230
1.0
 70
     8
 71
     3
 72
    12
 73
     8
 74
     0
 42
0.000000001
 43
0.00000001
 40
0.0
 40
0.0
 40
0.0
 40
0.0
 40
0.500000000000001
 40
0.500000000000001
 40
0.7500000000000004
 40
0.7500000000000004
 40
1.0
 40
1.0
 40
1.0
 40
1.0
 10
182.5657414434779
 20
104.2064542078076
 30
0.0
 10
182.6094879843145
 20
104.1798600371664
 30
0.0
 10
182.662372339546
 20
104.1600998118407
 30
0.0
 10
182.7739394268821
 20
104.1396488216116
 30
0.0
 10
182.8165230234251
 20
104.1343885969552
 30
0.0
 10
182.9214397505069
 20
104.1265058030325
 30
0.0
 10
182.9829733583517
 20
104.1239416778534
 30
0.0
 10
183.0705495005778
 20
104.1217414603337
 30
0.0
  0
LINE
  5
11A
330
1F
100
AcDbEntity
  8
0
  6
HIDDEN
 62
     7
370
    18
100
AcDbLine
 10
183.6870617921
 20
103.4367146407
 30
0.0
 11
183.6870617921
 21
103.9169399505
 31
0.0
  0
LINE
  5
11B
330
1F
100
AcDbEntity
  8
0
  6
HIDDEN
 62
     7
370
    18
100
AcDbLine
 10
183.6870617921
 20
148.0361303752
 30
0.0
 11
183.6870617921
 21
148.5163556849
 31
0.0
  0
SPLINE
  5
11C
330
1F
100
AcDbEntity
  8
0
  6
HIDDEN
 62
     7
370
    18
100
AcDbSpline
210
0.0
220
0.0
230
1.0
 70
     8
 71
     3
 72
    12
 73
     8
 74
     0
 42
0.000000001
 43
0.00000001
 40
0.0
 40
0.0
 40
0.0
 40
0.0
 40
0.2499999999999996
 40
0.2499999999999996
 40
0.4999999999999991
 40
0.4999999999999991
 40
1.0
 40
1.0
 40
1.0
 40
1.0
 10
183.0705495005858
 20
147.8313288652856
 30
0.0
 10
182.9818648407295
 20
147.8291007979446
 30
0.0
 10
182.9219464250061
 20
147.8265990139143
 30
0.0
 10
182.8162871976853
 20
147.8186675780783
 30
0.0
 10
182.7736459595704
 20
147.8133754231814
 30
0.0
 10
182.6624566174678
 20
147.7929704826943
 30
0.0
 10
182.6095299353468
 20
147.7732357911074
 30
0.0
 10
182.5657414434779
 20
147.7466161178118
 30
0.0
  0
SPLINE
  5
11D
330
1F
100
AcDbEntity
  8
0
  6
HIDDEN
 62
     7
370
    18
100
AcDbSpline
210
0.0
220
0.0
230
1.0
 70
     8
 71
     3
 72
    12
 73
     8
 74
     0
 42
0.000000001
 43
0.00000001
 40
0.0
 40
0.0
 40
0.0
 40
0.0
 40
0.4999999999999967
 40
0.4999999999999967
 40
0.7499999999999997
 40
0.7499999999999997
 40
1.0
 40
1.0
 40
1.0
 40
1.0
 10
182.5657414434763
 20
142.5604417890509
 30
0.0
 10
182.6095029197751
 20
142.3665420010889
 30
0.0
 10
182.6624092354281
 20
142.170685637152
 30
0.0
 10
182.7741204330754
 20
141.878543490653
 30
0.0
 10
182.8166398766618
 20
141.7818255539551
 30
0.0
 10
182.9217632192292
 20
141.5951011175306
 30
0.0
 10
182.9833291829469
 20
141.502750409261
 30
0.0
 10
183.0705495005897
 20
141.4288031446413
 30
0.0
  0
LWPOLYLINE
  5
11E
330
1F
100
AcDbEntity
  8
0
  6
HIDDEN
 62
     7
370
    18
100
AcDbPolyline
 90
       27
 70
   128
 43
0.0
 10
204.8870615039
 20
116.0418136482
 10
205.4853505764
 20
115.9789009457
 10
206.0488696519
 20
115.7938192104
 10
206.5448678408
 20
115.4973233556
 10
206.9445207093
 20
115.106646574
 10
207.2246029351
 20
114.6444926475
 10
207.3688331369
 20
114.1377199878
 10
207.3688331369
 20
113.61578074
 10
207.2246029351
 20
113.1090080802
 10
206.9445207093
 20
112.6468541538
 10
206.5448678408
 20
112.2561773722
 10
206.0488696519
 20
111.9596815174
 10
205.4853505764
 20
111.7745997821
 10
204.8870615039
 20
111.7116870796
 10
204.2887724314
 20
111.7745997821
 10
203.7252533559
 20
111.9596815174
 10
203.229255167
 20
112.2561773722
 10
202.8296022985
 20
112.6468541538
 10
202.5495219354
 20
113.1090080802
 10
202.4052898709
 20
113.61578074
 10
202.4052898709
 20
114.1377199878
 10
202.5495219354
 20
114.6444926475
 10
202.8296022985
 20
115.106646574
 10
203.229255167
 20
115.4973233556
 10
203.7252533559
 20
115.7938192104
 10
204.2887724314
 20
115.9789009457
 10
204.8870615039
 20
116.0418136482
  0
SPLINE
  5
11F
330
1F
100
AcDbEntity
  8
0
  6
HIDDEN
 62
     7
370
    18
100
AcDbSpline
210
0.0
220
0.0
230
1.0
 70
     8
 71
     3
 72
    66
 73
    62
 74
     0
 42
0.000000001
 43
0.00000001
 40
0.0
 40
0.0
 40
0.0
 40
0.0
 40
0.0312499999999998
 40
0.0312499999999998
 40
0.0624999999999996
 40
0.0624999999999996
 40
0.1249999999999994
 40
0.1249999999999994
 40
0.1874999999999993
 40
0.1874999999999993
 40
0.2187499999999995
 40
0.2187499999999995
 40
0.2499999999999998
 40
0.2499999999999998
 40
0.2812500000000001
 40
0.2812500000000001
 40
0.3125000000000003
 40
0.3125000000000003
 40
0.3437500000000005
 40
0.3437500000000005
 40
0.3750000000000007
 40
0.3750000000000007
 40
0.406250000000001
 40
0.406250000000001
 40
0.4375000000000012
 40
0.4375000000000012
 40
0.4687500000000014
 40
0.4687500000000014
 40
0.5000000000000017
 40
0.5000000000000017
 40
0.5156250000000018
 40
0.5156250000000018
 40
0.5312500000000019
 40
0.5312500000000019
 40
0.5625000000000018
 40
0.5625000000000018
 40
0.5937500000000017
 40
0.5937500000000017
 40
0.6250000000000016
 40
0.6250000000000016
 40
0.6562500000000014
 40
0.6562500000000014
 40
0.6875000000000013
 40
0.6875000000000013
 40
0.7187500000000012
 40
0.7187500000000012
 40
0.7500000000000011
 40
0.7500000000000011
 40
0.7812500000000011
 40
0.7812500000000011
 40
0.812500000000001
 40
0.812500000000001
 40
0.8437500000000009
 40
0.8437500000000009
 40
0.8750000000000008
 40
0.8750000000000008
 40
0.9375000000000004
 40
0.9375000000000004
 40
0.9687500000000002
 40
0.9687500000000002
 40
1.0
 40
1.0
 40
1.0
 40
1.0
 10
206.7819238041546
 20
117.5561985053777
 30
0.0
 10
206.8833686287894
 20
117.4314275212762
 30
0.0
 10
206.9668576084241
 20
117.2968103403572
 30
0.0
 10
207.1104602421654
 20
117.0148800500715
 30
0.0
 10
207.1705851498307
 20
116.8665444775719
 30
0.0
 10
207.3183699784251
 20
116.4111197295454
 30
0.0
 10
207.373682400174
 20
116.1000681427137
 30
0.0
 10
207.3963510488182
 20
115.4619794619894
 30
0.0
 10
207.3613610517593
 20
115.1409707261429
 30
0.0
 10
207.2205101184856
 20
114.6929207993625
 30
0.0
 10
207.1598693393072
 20
114.5523623395009
 30
0.0
 10
207.0079680416853
 20
114.2915803678551
 30
0.0
 10
206.9178304221766
 20
114.1743539630632
 30
0.0
 10
206.7167931497638
 20
113.9761015349044
 30
0.0
 10
206.6033869772282
 20
113.8931343773474
 30
0.0
 10
206.368312711835
 20
113.7685665042091
 30
0.0
 10
206.2439505196115
 20
113.7251059768559
 30
0.0
 10
205.9953224252068
 20
113.6741636027077
 30
0.0
 10
205.8713600629256
 20
113.6661520622598
 30
0.0
 10
205.6252323359904
 20
113.6787188333695
 30
0.0
 10
205.5032093797363
 20
113.6996463363162
 30
0.0
 10
205.2707439421515
 20
113.7638553657878
 30
0.0
 10
205.1590347432343
 20
113.8071944254128
 30
0.0
 10
204.9462046745087
 20
113.9127047014344
 30
0.0
 10
204.8445046834949
 20
113.9753956698996
 30
0.0
 10
204.660748968863
 20
114.1139747509406
 30
0.0
 10
204.5779874934026
 20
114.1900038220013
 30
0.0
 10
204.4411403691454
 20
114.352192253708
 30
0.0
 10
204.3879567121751
 20
114.4378827938409
 30
0.0
 10
204.349113371027
 20
114.5634248779142
 30
0.0
 10
204.3430817648293
 20
114.6051771164678
 30
0.0
 10
204.3466123815219
 20
114.6840287595321
 30
0.0
 10
204.3559515508504
 20
114.7215763561985
 30
0.0
 10
204.4054017530904
 20
114.829577714663
 30
0.0
 10
204.466550342399
 20
114.8938221160885
 30
0.0
 10
204.6193776132026
 20
115.0146418035644
 30
0.0
 10
204.7123399334112
 20
115.0727535476384
 30
0.0
 10
204.9129166852819
 20
115.1905058755359
 30
0.0
 10
205.021412043178
 20
115.2505731100088
 30
0.0
 10
205.2506733839791
 20
115.3797624531639
 30
0.0
 10
205.3724940939668
 20
115.4494186514653
 30
0.0
 10
205.6185000648391
 20
115.5977924463242
 30
0.0
 10
205.7434529059335
 20
115.6768320802124
 30
0.0
 10
205.9958870568465
 20
115.8485056120367
 30
0.0
 10
206.1251543861694
 20
115.9425523369454
 30
0.0
 10
206.3741648099047
 20
116.1407088454031
 30
0.0
 10
206.494198994603
 20
116.2447507011559
 30
0.0
 10
206.7228822738557
 20
116.4655679772444
 30
0.0
 10
206.8268532813016
 20
116.5779144190595
 30
0.0
 10
207.0119739790535
 20
116.806019773493
 30
0.0
 10
207.0934793991798
 20
116.9228058612779
 30
0.0
 10
207.2249558761379
 20
117.1485263907051
 30
0.0
 10
207.2767585218303
 20
117.260215358655
 30
0.0
 10
207.3506684858296
 20
117.4743746427224
 30
0.0
 10
207.3730582495912
 20
117.5765894092899
 30
0.0
 10
207.4006984321237
 20
117.8731891442413
 30
0.0
 10
207.3670876233615
 20
118.0484466032473
 30
0.0
 10
207.2461938302679
 20
118.3005097207682
 30
0.0
 10
207.1939250804142
 20
118.3822057280836
 30
0.0
 10
207.0653454677695
 20
118.5451577540926
 30
0.0
 10
206.9890038016856
 20
118.6267507400392
 30
0.0
 10
206.895771504284
 20
118.7154269318727
 30
0.0
  0
SPLINE
  5
120
330
1F
100
AcDbEntity
  8
0
  6
HIDDEN
 62
     7
370
    18
100
AcDbSpline
210
0.0
220
0.0
230
1.0
 70
     8
 71
     3
 72
    10
 73
     6
 74
     0
 42
0.000000001
 43
0.00000001
 40
0.0
 40
0.0
 40
0.0
 40
0.0
 40
0.4999999999999998
 40
0.4999999999999998
 40
1.0
 40
1.0
 40
1.0
 40
1.0
 10
206.8957715042841
 20
118.7154269318724
 30
0.0
 10
206.8068055443341
 20
118.6135649910736
 30
0.0
 10
206.7315133623052
 20
118.4720782032181
 30
0.0
 10
206.6876690319623
 20
118.0743765284944
 30
0.0
 10
206.722155180617
 20
117.8288159930246
 30
0.0
 10
206.7819238041544
 20
117.5561985053769
 30
0.0
  0
SPLINE
  5
121
330
1F
100
AcDbEntity
  8
0
  6
HIDDEN
 62
     7
370
    18
100
AcDbSpline
210
0.0
220
0.0
230
1.0
 70
    11
 71
     3
 72
    62
 73
    58
 74
     0
 42
0.000000001
 43
0.00000001
 40
0.0
 40
0.0
 40
0.0
 40
0.0
 40
0.0312500000000002
 40
0.0312500000000002
 40
0.0625000000000005
 40
0.0625000000000005
 40
0.0937500000000007
 40
0.0937500000000007
 40
0.1250000000000009
 40
0.1250000000000009
 40
0.1875000000000009
 40
0.1875000000000009
 40
0.2187500000000007
 40
0.2187500000000007
 40
0.2500000000000006
 40
0.2500000000000006
 40
0.2812500000000006
 40
0.2812500000000006
 40
0.3125000000000005
 40
0.3125000000000005
 40
0.3750000000000004
 40
0.3750000000000004
 40
0.4062500000000004
 40
0.4062500000000004
 40
0.4375000000000003
 40
0.4375000000000003
 40
0.4687500000000003
 40
0.4687500000000003
 40
0.5000000000000002
 40
0.5000000000000002
 40
0.5624999999999996
 40
0.5624999999999996
 40
0.5937499999999994
 40
0.5937499999999994
 40
0.6249999999999993
 40
0.6249999999999993
 40
0.6562499999999993
 40
0.6562499999999993
 40
0.6874999999999992
 40
0.6874999999999992
 40
0.7187499999999991
 40
0.7187499999999991
 40
0.749999999999999
 40
0.749999999999999
 40
0.781249999999999
 40
0.781249999999999
 40
0.812499999999999
 40
0.812499999999999
 40
0.874999999999999
 40
0.874999999999999
 40
0.9062499999999993
 40
0.9062499999999993
 40
0.9374999999999996
 40
0.9374999999999996
 40
0.9687499999999998
 40
0.9687499999999998
 40
1.0
 40
1.0
 40
1.0
 40
1.0
 10
204.8870617870376
 20
123.8186945558232
 30
0.0
 10
204.7210179681014
 20
123.8186945558232
 30
0.0
 10
204.5579212375243
 20
123.8021209117677
 30
0.0
 10
204.2373249326158
 20
123.7376323409392
 30
0.0
 10
204.0781227293094
 20
123.6888883154807
 30
0.0
 10
203.7758122275953
 20
123.5633107719108
 30
0.0
 10
203.6325606533508
 20
123.4869364435901
 30
0.0
 10
203.3614498122837
 20
123.3083526531606
 30
0.0
 10
203.2337678171548
 20
123.2057507286742
 30
0.0
 10
202.8897677289396
 20
122.8733138063317
 30
0.0
 10
202.7037661003553
 20
122.6100574650351
 30
0.0
 10
202.5162795871737
 20
122.1955131387263
 30
0.0
 10
202.4678076424215
 20
122.0517562267484
 30
0.0
 10
202.4032456630079
 20
121.7631407592803
 30
0.0
 10
202.3871671627879
 20
121.61993133824
 30
0.0
 10
202.3869574338743
 20
121.3359084980015
 30
0.0
 10
202.4033889812852
 20
121.1939424936235
 30
0.0
 10
202.4675576714375
 20
120.9244327053294
 30
0.0
 10
202.5150266342289
 20
120.7955146964272
 30
0.0
 10
202.7041501181832
 20
120.4253217238847
 30
0.0
 10
202.8882900105493
 20
120.2101493887742
 30
0.0
 10
203.2350255943533
 20
119.9446455748859
 30
0.0
 10
203.360342550505
 20
119.8670342609356
 30
0.0
 10
203.6304020533049
 20
119.7317704016029
 30
0.0
 10
203.7767754291861
 20
119.6738002308421
 30
0.0
 10
204.0781933322397
 20
119.5819203551977
 30
0.0
 10
204.2340454936787
 20
119.5473226993775
 30
0.0
 10
204.556388554995
 20
119.5004610823636
 30
0.0
 10
204.7223400220645
 20
119.4886187684315
 30
0.0
 10
205.2132613896157
 20
119.4884655799621
 30
0.0
 10
205.5437443767185
 20
119.5357178527723
 30
0.0
 10
205.995653874317
 20
119.6731907113651
 30
0.0
 10
206.1419510916963
 20
119.7309850162292
 30
0.0
 10
206.4128346542526
 20
119.8664599037781
 30
0.0
 10
206.5381911764105
 20
119.9440687095872
 30
0.0
 10
206.7689688178997
 20
120.1205468452274
 30
0.0
 10
206.8737566979698
 20
120.2194310072681
 30
0.0
 10
207.0544203221519
 20
120.4318887475656
 30
0.0
 10
207.1316088193472
 20
120.5463618693968
 30
0.0
 10
207.2584722236384
 20
120.7939039190901
 30
0.0
 10
207.3061335775708
 20
120.9232109646529
 30
0.0
 10
207.3703639446333
 20
121.1917991257859
 30
0.0
 10
207.3869971585124
 20
121.3329446692849
 30
0.0
 10
207.3871260335239
 20
121.6184329923265
 30
0.0
 10
207.371045054395
 20
121.76169898015
 30
0.0
 10
207.3070776419266
 20
122.0490357037942
 30
0.0
 10
207.258513591683
 20
122.1938040235248
 30
0.0
 10
207.0707827496404
 20
122.6095711032365
 30
0.0
 10
206.8848369121448
 20
122.8726990288886
 30
0.0
 10
206.5410616900404
 20
123.2051431561474
 30
0.0
 10
206.4138863856728
 20
123.3074688118704
 30
0.0
 10
206.1422439763982
 20
123.4865723057326
 30
0.0
 10
205.9990848054511
 20
123.5628868536151
 30
0.0
 10
205.6979578629133
 20
123.6881770875094
 30
0.0
 10
205.5384416342217
 20
123.7372326888235
 30
0.0
 10
205.2165757419899
 20
123.8021145295545
 30
0.0
 10
205.0531056059737
 20
123.8186945558232
 30
0.0
 10
204.8870617870376
 20
123.8186945558232
 30
0.0
  0
LINE
  5
122
330
1F
100
AcDbEntity
  8
0
  6
HIDDEN
 62
     7
370
    18
100
AcDbLine
 10
183.6870617921
 20
103.9169399505
 30
0.0
 11
183.6870617921
 21
118.9546479349
 31
0.0
  0
LINE
  5
123
330
1F
100
AcDbEntity
  8
0
  6
HIDDEN
 62
     7
370
    18
100
AcDbLine
 10
183.6870617921
 20
132.9984223907
 30
0.0
 11
183.6870617921
 21
148.0361303752
 31
0.0
  0
LWPOLYLINE
  5
124
330
1F
100
AcDbEntity
  8
0
  6
HIDDEN
 62
     7
370
    18
100
AcDbPolyline
 90
        9
 70
   128
 43
0.0
 10
206.7819229636
 20
117.5561981713
 10
206.8977869425
 20
117.79153221
 10
206.9865028683
 20
118.0077350204
 10
207.046459553
 20
118.200868505
 10
207.0765617613
 20
118.3674159897
 10
207.0762637381
 20
118.5043432255
 10
207.0455692087
 20
118.6091570621
 10
206.9850369666
 20
118.6799482879
 10
206.8957715605
 20
118.7154270214
  0
CIRCLE
  5
125
330
1F
100
AcDbEntity
  8
0
  6
HIDDEN
 62
     7
370
    18
100
AcDbCircle
 10
168.387061787
 20
125.9765351628
 30
0.0
 40
4.050000000000011
  0
LINE
  5
126
330
1F
100
AcDbEntity
  8
0
  6
HIDDEN
 62
     7
370
    18
100
AcDbLine
 10
147.417289329
 20
141.289486221
 30
0.0
 11
147.417289329
 21
110.6635841047
 31
0.0
  0
LINE
  5
127
330
1F
100
AcDbEntity
  8
0
  6
HIDDEN
 62
     7
370
    18
100
AcDbLine
 10
145.8870630089
 20
109.7801054333
 30
0.0
 11
145.8870630089
 21
142.1729648923
 31
0.0
  0
LINE
  5
128
330
1F
100
AcDbEntity
  8
0
  6
HIDDEN
 62
     7
370
    18
100
AcDbLine
 10
153.9172894631
 20
140.3229456832
 30
0.0
 11
153.9172894631
 21
111.6301246424
 31
0.0
  0
LINE
  5
129
330
1F
100
AcDbEntity
  8
0
  6
HIDDEN
 62
     7
370
    18
100
AcDbLine
 10
159.7172907863
 20
139.9765355949
 30
0.0
 11
159.7172907863
 21
111.9765347307
 31
0.0
  0
LINE
  5
12A
330
1F
100
AcDbEntity
  8
0
  6
HIDDEN
 62
     7
370
    18
100
AcDbLine
 10
152.3172903184
 20
139.9765355949
 30
0.0
 11
152.3172903184
 21
111.9765347307
 31
0.0
  0
LINE
  5
12B
330
1F
100
AcDbEntity
  8
0
  6
HIDDEN
 62
     7
370
    18
100
AcDbLine
 10
153.3172904823
 20
139.9765355949
 30
0.0
 11
153.3172904823
 21
111.9765347307
 31
0.0
  0
SPLINE
  5
12C
330
1F
100
AcDbEntity
  8
0
  6
HIDDEN
 62
     7
370
    18
100
AcDbSpline
210
0.0
220
0.0
230
1.0
 70
     8
 71
     3
 72
    10
 73
     6
 74
     0
 42
0.000000001
 43
0.00000001
 40
0.0
 40
0.0
 40
0.0
 40
0.0
 40
0.5
 40
0.5
 40
1.0
 40
1.0
 40
1.0
 40
1.0
 10
172.3870617870375
 20
126.6109640398322
 30
0.0
 10
172.420209205114
 20
126.4019734388242
 30
0.0
 10
172.4370680504756
 20
126.1904109728026
 30
0.0
 10
172.437055520128
 20
125.762422206835
 30
0.0
 10
172.4201405623876
 20
125.5506641024193
 30
0.0
 10
172.3870617870375
 20
125.3421062857872
 30
0.0
  0
LINE
  5
12D
330
1F
100
AcDbEntity
  8
0
  6
HIDDEN
 62
     7
370
    18
100
AcDbLine
 10
172.8870618466
 20
139.476535513
 30
0.0
 11
172.8870618466
 21
112.4765348126
 31
0.0
  0
SPLINE
  5
12E
330
1F
100
AcDbEntity
  8
0
  6
HIDDEN
 62
     7
370
    18
100
AcDbSpline
210
0.0
220
0.0
230
1.0
 70
     8
 71
     3
 72
    10
 73
     6
 74
     0
 42
0.000000001
 43
0.00000001
 40
0.0
 40
0.0
 40
0.0
 40
0.0
 40
0.5
 40
0.5
 40
1.0
 40
1.0
 40
1.0
 40
1.0
 10
172.3870617870375
 20
125.3421062857872
 30
0.0
 10
172.4202507495112
 20
125.5513588193697
 30
0.0
 10
172.4369515257659
 20
125.7621755802686
 30
0.0
 10
172.4371709662105
 20
126.1867078614719
 30
0.0
 10
172.4202912508171
 20
126.4014561502445
 30
0.0
 10
172.3870617870375
 20
126.6109640398322
 30
0.0
  0
SPLINE
  5
12F
330
1F
100
AcDbEntity
  8
0
  6
HIDDEN
 62
     7
370
    18
100
AcDbSpline
210
0.0
220
0.0
230
1.0
 70
     8
 71
     3
 72
    68
 73
    64
 74
     0
 42
0.000000001
 43
0.00000001
 40
0.0
 40
0.0
 40
0.0
 40
0.0
 40
0.03125
 40
0.03125
 40
0.0625
 40
0.0625
 40
0.09375
 40
0.09375
 40
0.125
 40
0.125
 40
0.15625
 40
0.15625
 40
0.1875
 40
0.1875
 40
0.21875
 40
0.21875
 40
0.25
 40
0.25
 40
0.28125
 40
0.28125
 40
0.3125
 40
0.3125
 40
0.34375
 40
0.34375
 40
0.375
 40
0.375
 40
0.40625
 40
0.40625
 40
0.4375
 40
0.4375
 40
0.46875
 40
0.46875
 40
0.5
 40
0.5
 40
0.5625
 40
0.5625
 40
0.59375
 40
0.59375
 40
0.625
 40
0.625
 40
0.65625
 40
0.65625
 40
0.6875
 40
0.6875
 40
0.71875
 40
0.71875
 40
0.75
 40
0.75
 40
0.78125
 40
0.78125
 40
0.8125
 40
0.8125
 40
0.84375
 40
0.84375
 40
0.875
 40
0.875
 40
0.90625
 40
0.90625
 40
0.9375
 40
0.9375
 40
0.96875
 40
0.96875
 40
1.0
 40
1.0
 40
1.0
 40
1.0
 10
172.3870617870375
 20
125.3421062857872
 30
0.0
 10
172.3470468346879
 20
125.0898166829716
 30
0.0
 10
172.2841050332765
 20
124.8458178325958
 30
0.0
 10
172.1147183712045
 20
124.3733994435333
 30
0.0
 10
172.007024808619
 20
124.1429860573733
 30
0.0
 10
171.7517400400811
 20
123.7082814615762
 30
0.0
 10
171.6057008096089
 20
123.5056394949249
 30
0.0
 10
171.2774793730496
 20
123.1286502041671
 30
0.0
 10
171.0932320852746
 20
122.9529922505897
 30
0.0
 10
170.7002719179663
 20
122.6427342816435
 30
0.0
 10
170.4909773210072
 20
122.5067890739936
 30
0.0
 10
170.0460918940698
 20
122.2733989785877
 30
0.0
 10
169.8092943015708
 20
122.1761523721733
 30
0.0
 10
169.3285592326515
 20
122.029480914302
 30
0.0
 10
169.0823161394688
 20
121.9785885693595
 30
0.0
 10
168.5775993594893
 20
121.9230612191241
 30
0.0
 10
168.3214046585528
 20
121.9192363320541
 30
0.0
 10
167.8190259093527
 20
121.9586601146985
 30
0.0
 10
167.5697762101691
 20
122.0016875639098
 30
0.0
 10
167.0782484126904
 20
122.1353925333611
 30
0.0
 10
166.8429528114645
 20
122.2240623792663
 30
0.0
 10
166.3920389168024
 20
122.4430937430437
 30
0.0
 10
166.174426566339
 20
122.5750953087272
 30
0.0
 10
165.7712193967907
 20
122.8744525897301
 30
0.0
 10
165.5856079043563
 20
123.041071517168
 30
0.0
 10
165.2456198339538
 20
123.4081829425955
 30
0.0
 10
165.0905469031309
 20
123.6104866881362
 30
0.0
 10
164.8242038264676
 20
124.0345673677302
 30
0.0
 10
164.7112197257508
 20
124.2577269731964
 30
0.0
 10
164.5263644688199
 20
124.7270822147906
 30
0.0
 10
164.4552237073165
 20
124.9732927181261
 30
0.0
 10
164.3612632960283
 20
125.4678185444972
 30
0.0
 10
164.3372539660719
 20
125.7187495395892
 30
0.0
 10
164.3366808453993
 20
126.4829949191454
 30
0.0
 10
164.432079956718
 20
126.9852192211964
 30
0.0
 10
164.7099437489191
 20
127.6927837274688
 30
0.0
 10
164.8231057049996
 20
127.9164899912096
 30
0.0
 10
165.0892368870435
 20
128.3407599025302
 30
0.0
 10
165.2440646612432
 20
128.5430118645862
 30
0.0
 10
165.5842457670311
 20
128.9107226059544
 30
0.0
 10
165.7697482239808
 20
129.0773394812038
 30
0.0
 10
166.1720420250401
 20
129.3763888599992
 30
0.0
 10
166.3900500732921
 20
129.5088455680276
 30
0.0
 10
166.8406484404424
 20
129.7280519687323
 30
0.0
 10
167.0751974393232
 20
129.8165370987359
 30
0.0
 10
167.5636574328755
 20
129.9500233286745
 30
0.0
 10
167.8159228285894
 20
129.9939650411683
 30
0.0
 10
168.3181034667496
 20
130.0337740376418
 30
0.0
 10
168.5705855841013
 20
130.0304298248283
 30
0.0
 10
169.0784506271708
 20
129.9752505048378
 30
0.0
 10
169.3259961003546
 20
129.9242045763684
 30
0.0
 10
169.8069636378254
 20
129.7777941881328
 30
0.0
 10
170.0429235029306
 20
129.6811479833592
 30
0.0
 10
170.4894939524522
 20
129.4472430390462
 30
0.0
 10
170.6991388150257
 20
129.3111180252196
 30
0.0
 10
171.0921255217802
 20
129.0010637608905
 30
0.0
 10
171.2765214255951
 20
128.8254065133154
 30
0.0
 10
171.6050718434556
 20
128.448266590651
 30
0.0
 10
171.7510139399787
 20
128.2458003853811
 30
0.0
 10
172.0058992951809
 20
127.8122240872478
 30
0.0
 10
172.1142106079892
 20
127.5809322436663
 30
0.0
 10
172.2840455854062
 20
127.107572563533
 30
0.0
 10
172.3470409465432
 20
126.8632907667122
 30
0.0
 10
172.3870617870375
 20
126.6109640398322
 30
0.0
  0
SPLINE
  5
130
330
1F
100
AcDbEntity
  8
0
  6
HIDDEN
 62
     7
370
    18
100
AcDbSpline
210
0.0
220
0.0
230
1.0
 70
     8
 71
     3
 72
    68
 73
    64
 74
     0
 42
0.000000001
 43
0.00000001
 40
0.0
 40
0.0
 40
0.0
 40
0.0
 40
0.03125
 40
0.03125
 40
0.0625
 40
0.0625
 40
0.09375
 40
0.09375
 40
0.125
 40
0.125
 40
0.1562499999999999
 40
0.1562499999999999
 40
0.1874999999999999
 40
0.1874999999999999
 40
0.2187499999999999
 40
0.2187499999999999
 40
0.2499999999999999
 40
0.2499999999999999
 40
0.2812499999999999
 40
0.2812499999999999
 40
0.3124999999999999
 40
0.3124999999999999
 40
0.3437499999999999
 40
0.3437499999999999
 40
0.3749999999999999
 40
0.3749999999999999
 40
0.40625
 40
0.40625
 40
0.4375
 40
0.4375
 40
0.46875
 40
0.46875
 40
0.5
 40
0.5
 40
0.5624999999999999
 40
0.5624999999999999
 40
0.5937499999999999
 40
0.5937499999999999
 40
0.6249999999999999
 40
0.6249999999999999
 40
0.6562499999999999
 40
0.6562499999999999
 40
0.6874999999999999
 40
0.6874999999999999
 40
0.7187499999999999
 40
0.7187499999999999
 40
0.7499999999999999
 40
0.7499999999999999
 40
0.78125
 40
0.78125
 40
0.8125
 40
0.8125
 40
0.84375
 40
0.84375
 40
0.875
 40
0.875
 40
0.90625
 40
0.90625
 40
0.9375
 40
0.9375
 40
0.96875
 40
0.96875
 40
1.0
 40
1.0
 40
1.0
 40
1.0
 10
172.3870617870375
 20
126.6109640398322
 30
0.0
 10
172.3470468346879
 20
126.8632536426478
 30
0.0
 10
172.2841050332765
 20
127.1072524930236
 30
0.0
 10
172.1147183712045
 20
127.5796708820861
 30
0.0
 10
172.007024808619
 20
127.8100842682461
 30
0.0
 10
171.7517400400811
 20
128.2447888640432
 30
0.0
 10
171.6057008096089
 20
128.4474308306945
 30
0.0
 10
171.2774793730497
 20
128.8244201214523
 30
0.0
 10
171.0932320852746
 20
129.0000780750297
 30
0.0
 10
170.7002719179663
 20
129.3103360439759
 30
0.0
 10
170.4909773210072
 20
129.4462812516258
 30
0.0
 10
170.0460918940698
 20
129.6796713470317
 30
0.0
 10
169.8092943015708
 20
129.7769179534461
 30
0.0
 10
169.3285592326515
 20
129.9235894113175
 30
0.0
 10
169.0823161394688
 20
129.9744817562599
 30
0.0
 10
168.5775993594893
 20
130.0300091064954
 30
0.0
 10
168.3214046585528
 20
130.0338339935653
 30
0.0
 10
167.8190259093527
 20
129.9944102109209
 30
0.0
 10
167.5697762101691
 20
129.9513827617096
 30
0.0
 10
167.0782484126904
 20
129.8176777922583
 30
0.0
 10
166.8429528114645
 20
129.7290079463531
 30
0.0
 10
166.3920389168024
 20
129.5099765825757
 30
0.0
 10
166.174426566339
 20
129.3779750168922
 30
0.0
 10
165.7712193967907
 20
129.0786177358893
 30
0.0
 10
165.5856079043563
 20
128.9119988084514
 30
0.0
 10
165.2456198339538
 20
128.5448873830239
 30
0.0
 10
165.0905469031309
 20
128.3425836374832
 30
0.0
 10
164.8242038264676
 20
127.9185029578892
 30
0.0
 10
164.7112197257508
 20
127.695343352423
 30
0.0
 10
164.5263644688199
 20
127.2259881108288
 30
0.0
 10
164.4552237073165
 20
126.9797776074933
 30
0.0
 10
164.3612632960283
 20
126.4852517811222
 30
0.0
 10
164.3372539660719
 20
126.2343207860302
 30
0.0
 10
164.3366808453993
 20
125.470075406474
 30
0.0
 10
164.432079956718
 20
124.967851104423
 30
0.0
 10
164.7099437489191
 20
124.2602865981506
 30
0.0
 10
164.8231057049996
 20
124.0365803344098
 30
0.0
 10
165.0892368870435
 20
123.6123104230892
 30
0.0
 10
165.2440646612432
 20
123.4100584610331
 30
0.0
 10
165.5842457670311
 20
123.042347719665
 30
0.0
 10
165.7697482239808
 20
122.8757308444156
 30
0.0
 10
166.1720420250401
 20
122.5766814656202
 30
0.0
 10
166.3900500732921
 20
122.4442247575918
 30
0.0
 10
166.8406484404424
 20
122.2250183568871
 30
0.0
 10
167.0751974393232
 20
122.1365332268835
 30
0.0
 10
167.5636574328755
 20
122.0030469969448
 30
0.0
 10
167.8159228285894
 20
121.9591052844511
 30
0.0
 10
168.3181034667497
 20
121.9192962879776
 30
0.0
 10
168.5705855841013
 20
121.9226405007911
 30
0.0
 10
169.0784506271709
 20
121.9778198207816
 30
0.0
 10
169.3259961003546
 20
122.028865749251
 30
0.0
 10
169.8069636378254
 20
122.1752761374866
 30
0.0
 10
170.0429235029306
 20
122.2719223422602
 30
0.0
 10
170.4894939524522
 20
122.5058272865733
 30
0.0
 10
170.6991388150257
 20
122.6419523003998
 30
0.0
 10
171.0921255217802
 20
122.9520065647289
 30
0.0
 10
171.2765214255951
 20
123.127663812304
 30
0.0
 10
171.6050718434556
 20
123.5048037349684
 30
0.0
 10
171.7510139399787
 20
123.7072699402383
 30
0.0
 10
172.0058992951809
 20
124.1408462383716
 30
0.0
 10
172.1142106079892
 20
124.3721380819531
 30
0.0
 10
172.2840455854062
 20
124.8454977620864
 30
0.0
 10
172.3470409465432
 20
125.0897795589072
 30
0.0
 10
172.3870617870375
 20
125.3421062857872
 30
0.0
  0
LINE
  5
131
330
1F
100
AcDbEntity
  8
0
  6
HIDDEN
 62
     7
370
    18
100
AcDbLine
 10
174.1370615859
 20
134.9765347754
 30
0.0
 11
174.1370615859
 21
116.9765355502
 31
0.0
  0
LINE
  5
132
330
1F
100
AcDbEntity
  8
0
  6
HIDDEN
 62
     7
370
    18
100
AcDbLine
 10
172.8870618466
 20
115.7265348797
 30
0.0
 11
172.8870618466
 21
136.2265354459
 31
0.0
  0
LINE
  5
133
330
1F
100
AcDbEntity
  8
0
  6
HIDDEN
 62
     7
370
    18
100
AcDbLine
 10
210.8870624874
 20
116.9765355502
 30
0.0
 11
210.8870624874
 21
134.9765347754
 31
0.0
  0
SPLINE
  5
134
330
1F
100
AcDbEntity
  8
0
  6
HIDDEN
 62
     7
370
    18
100
AcDbSpline
210
0.0
220
0.0
230
1.0
 70
     8
 71
     3
 72
     9
 73
     5
 74
     0
 42
0.000000001
 43
0.00000001
 40
0.0
 40
0.0
 40
0.0
 40
0.0
 40
0.5
 40
1.0
 40
1.0
 40
1.0
 40
1.0
 10
222.0856606253477
 20
122.0403251371068
 30
0.0
 10
222.0783794162945
 20
122.2629039008243
 30
0.0
 10
222.0625835829278
 20
122.7080488469129
 30
0.0
 10
222.0463769750517
 20
123.1531896029313
 30
0.0
 10
222.0386366371004
 20
123.3757636833439
 30
0.0
  0
LINE
  5
135
330
1F
100
AcDbEntity
  8
0
  6
HIDDEN
 62
     7
370
    18
100
AcDbLine
 10
222.0386351768
 20
123.3757637878
 30
0.0
 11
222.0386351768
 21
147.1546074812
 31
0.0
  0
SPLINE
  5
136
330
1F
100
AcDbEntity
  8
0
  6
HIDDEN
 62
     7
370
    18
100
AcDbSpline
210
0.0
220
0.0
230
1.0
 70
     8
 71
     3
 72
    12
 73
     8
 74
     0
 42
0.000000001
 43
0.00000001
 40
0.0
 40
0.0
 40
0.0
 40
0.0
 40
0.250000000000001
 40
0.250000000000001
 40
0.500000000000002
 40
0.500000000000002
 40
1.0
 40
1.0
 40
1.0
 40
1.0
 10
222.0386366370992
 20
147.1546067414548
 30
0.0
 10
221.9914525308375
 20
147.2761290244043
 30
0.0
 10
221.93172173403
 20
147.4130295392574
 30
0.0
 10
221.7990028680005
 20
147.7030797470921
 30
0.0
 10
221.7255111710189
 20
147.8569659182779
 30
0.0
 10
221.4904456914234
 20
148.3356172481584
 30
0.0
 10
221.3163952945071
 20
148.6745540628764
 30
0.0
 10
221.1197347990589
 20
149.0393553697018
 30
0.0
  0
LINE
  5
137
330
1F
100
AcDbEntity
  8
0
  6
HIDDEN
 62
     7
370
    18
100
AcDbLine
 10
247.4656599883
 20
93.7759044086
 30
0.0
 11
247.4624040846
 21
93.8131647621
 31
0.0
  0
LINE
  5
138
330
1F
100
AcDbEntity
  8
0
  6
HIDDEN
 62
     7
370
    18
100
AcDbLine
 10
238.0493740861
 20
94.5997225558
 30
0.0
 11
247.4656599883
 21
93.7759044086
 31
0.0
  0
LINE
  5
139
330
1F
100
AcDbEntity
  8
0
  6
HIDDEN
 62
     7
370
    18
100
AcDbLine
 10
238.0493740861
 20
94.5997225558
 30
0.0
 11
238.0311499659
 21
94.6382942115
 31
0.0
  0
LINE
  5
13A
330
1F
100
AcDbEntity
  8
0
  6
HIDDEN
 62
     7
370
    18
100
AcDbLine
 10
235.2253022913
 20
91.8324465369
 30
0.0
 11
235.2638739471
 21
91.8142261421
 31
0.0
  0
LINE
  5
13B
330
1F
100
AcDbEntity
  8
0
  6
HIDDEN
 62
     7
370
    18
100
AcDbLine
 10
236.0744673137
 20
82.5491013442
 30
0.0
 11
235.2638739471
 21
91.8142261421
 31
0.0
  0
LINE
  5
13C
330
1F
100
AcDbEntity
  8
0
  6
HIDDEN
 62
     7
370
    18
100
AcDbLine
 10
236.0744673137
 20
82.5491013442
 30
0.0
 11
236.0372069601
 21
82.5523609732
 31
0.0
  0
ARC
  5
13D
330
1F
100
AcDbEntity
  8
0
  6
HIDDEN
 62
     7
370
    18
100
AcDbCircle
 10
236.1415986731
 20
93.7219982768
 30
0.0
 40
2.100000000000013
100
AcDbArc
 50
17.3926878054
 51
24.7061105485
  0
LINE
  5
13E
330
1F
100
AcDbEntity
  8
0
  6
HIDDEN
 62
     7
370
    18
100
AcDbLine
 10
247.2435209278
 20
93.5537616228
 30
0.0
 11
247.4656599883
 21
93.7759044086
 31
0.0
  0
LINE
  5
13F
330
1F
100
AcDbEntity
  8
0
  6
HIDDEN
 62
     7
370
    18
100
AcDbLine
 10
247.2435209278
 20
93.5537616228
 30
0.0
 11
238.1455834333
 21
94.3497294997
 31
0.0
  0
LINE
  5
140
330
1F
100
AcDbEntity
  8
0
  6
HIDDEN
 62
     7
370
    18
100
AcDbLine
 10
241.4628873889
 20
117.7291699191
 30
0.0
 11
245.2494475369
 21
119.107365745
 31
0.0
  0
LINE
  5
141
330
1F
100
AcDbEntity
  8
0
  6
HIDDEN
 62
     7
370
    18
100
AcDbLine
 10
235.5138670031
 20
91.7180130695
 30
0.0
 11
236.3080020372
 21
82.6410340582
 31
0.0
  0
ELLIPSE
  5
142
330
1F
100
AcDbEntity
  8
0
  6
HIDDEN
 62
     7
370
    18
100
AcDbEllipse
 10
232.374861604
 20
123.0043582035
 30
0.0
 11
-3.646655873727185
 21
40.46243841787422
 31
0.0
210
0.0
220
0.0
230
1.0
 40
0.1208634283
 41
3.152464211905955
 42
3.20154898247791
  0
ARC
  5
143
330
1F
100
AcDbEntity
  8
0
  6
HIDDEN
 62
     7
370
    18
100
AcDbCircle
 10
236.1415986731
 20
93.7219982768
 30
0.0
 40
2.099999999999998
100
AcDbArc
 50
245.2938894515
 51
252.6073121946
  0
SPLINE
  5
144
330
1F
100
AcDbEntity
  8
0
  6
HIDDEN
 62
     7
370
    18
100
AcDbSpline
210
0.0
220
0.0
230
1.0
 70
     8
 71
     3
 72
    22
 73
    18
 74
     0
 42
0.000000001
 43
0.00000001
 40
0.0
 40
0.0
 40
0.0
 40
0.0
 40
0.2500000000000011
 40
0.2500000000000011
 40
0.3125000000000011
 40
0.3125000000000011
 40
0.375000000000001
 40
0.375000000000001
 40
0.5000000000000007
 40
0.5000000000000007
 40
0.6250000000000004
 40
0.6250000000000004
 40
0.6875000000000003
 40
0.6875000000000003
 40
0.7500000000000002
 40
0.7500000000000002
 40
1.0
 40
1.0
 40
1.0
 40
1.0
 10
224.3207831696608
 20
101.0173410423233
 30
0.0
 10
224.3752717830739
 20
98.40754681979568
 30
0.0
 10
224.4276876978269
 20
96.05559355162315
 30
0.0
 10
224.490375943852
 20
93.42749359180732
 30
0.0
 10
224.5027704594512
 20
92.91766853977585
 30
0.0
 10
224.527260643664
 20
91.93016515873892
 30
0.0
 10
224.5393917166948
 20
91.45112886410791
 30
0.0
 10
224.575047634408
 20
90.07380483784796
 30
0.0
 10
224.5977180129953
 20
89.2394099981665
 30
0.0
 10
224.6408812872603
 20
87.73286487997578
 30
0.0
 10
224.6613741281163
 20
87.06072821754809
 30
0.0
 10
224.6904387824528
 20
86.17526282384222
 30
0.0
 10
224.6998472993932
 20
85.90061550473199
 30
0.0
 10
224.7180903211974
 20
85.3931555669139
 30
0.0
 10
224.7269467159352
 20
85.15985108176547
 30
0.0
 10
224.7692929401764
 20
84.11177358065294
 30
0.0
 10
224.797321357398
 20
83.63864854303185
 30
0.0
 10
224.8194458132359
 20
83.53378922834415
 30
0.0
  0
LINE
  5
145
330
1F
100
AcDbEntity
  8
0
  6
HIDDEN
 62
     7
370
    18
100
AcDbLine
 10
246.9330105309
 20
93.5809264396
 30
0.0
 11
247.2435209278
 21
93.5537616228
 31
0.0
  0
LWPOLYLINE
  5
146
330
1F
100
AcDbEntity
  8
0
  6
HIDDEN
 62
     7
370
    18
100
AcDbPolyline
 90
        4
 70
   128
 43
0.0
 10
236.2828824047
 20
82.9281421815
 10
236.2928028528
 20
82.8147666966
 10
236.3011773054
 20
82.7190490876
 10
236.3080020372
 20
82.6410340582
  0
SPLINE
  5
147
330
1F
100
AcDbEntity
  8
0
  6
HIDDEN
 62
     7
370
    18
100
AcDbSpline
210
0.0
220
0.0
230
1.0
 70
     8
 71
     3
 72
    55
 73
    51
 74
     0
 42
0.000000001
 43
0.00000001
 40
0.0
 40
0.0
 40
0.0
 40
0.0
 40
0.0193016770280485
 40
0.0383108727049343
 40
0.0570275877460655
 40
0.075451822917337
 40
0.0935835790381261
 40
0.111422856984544
 40
0.1289696576929537
 40
0.1462239821637727
 40
0.1631858314656288
 40
0.1798552067398567
 40
0.1962321092054131
 40
0.2123165401642282
 40
0.2281085010070521
 40
0.2436079932198679
 40
0.2588150183908971
 40
0.2737295782183177
 40
0.2883516745187285
 40
0.3026813092365017
 40
0.3167184844540926
 40
0.3304632024034415
 40
0.3439154654786475
 40
0.357075276250003
 40
0.3699426374796606
 40
0.3825175521391067
 40
0.3948000234287093
 40
0.4067900547996622
 40
0.4184876499786637
 40
0.4298928129957572
 40
0.4410055482158415
 40
0.4518258603744246
 40
0.4623537546183587
 40
0.4725892365523758
 40
0.4825323122924773
 40
0.4921829885273976
 40
0.5015412725896702
 40
0.543584593000086
 40
0.5850094980977514
 40
0.6258163959943559
 40
0.6660057137691825
 40
0.7055778986376795
 40
0.7445334192104123
 40
0.782872766850775
 40
0.8205964571407762
 40
0.8577050314652257
 40
0.8941990587258045
 40
0.9300791371978131
 40
0.9653458965437938
 40
1.0
 40
1.0
 40
1.0
 40
1.0
 10
242.6004874739307
 20
99.41807369461117
 30
0.0
 10
242.6303034447741
 20
99.24075932854548
 30
0.0
 10
242.6894835803602
 20
98.8888174689222
 30
0.0
 10
242.7780258529077
 20
98.37208977251414
 30
0.0
 10
242.865529603073
 20
97.86853114719341
 30
0.0
 10
242.9520136126343
 20
97.3784943671832
 30
0.0
 10
243.0374560764207
 20
96.90169402604181
 30
0.0
 10
243.1218449996698
 20
96.4380024605805
 30
0.0
 10
243.2051650724638
 20
95.98724218045709
 30
0.0
 10
243.2874011657267
 20
95.5492408816998
 30
0.0
 10
243.3685374775402
 20
95.12381775209808
 30
0.0
 10
243.4485578151724
 20
94.71078772376043
 30
0.0
 10
243.5274455785753
 20
94.30996101541456
 30
0.0
 10
243.605183820199
 20
93.92114388613417
 30
0.0
 10
243.6817552831956
 20
93.54413905346587
 30
0.0
 10
243.757142443589
 20
93.17874617998845
 30
0.0
 10
243.8313275497441
 20
92.82476232293148
 30
0.0
 10
243.9042926608834
 20
92.48198237446675
 30
0.0
 10
243.9760196842115
 20
92.15019948562627
 30
0.0
 10
244.0464904107776
 20
91.82920547586913
 30
0.0
 10
244.1156865500614
 20
91.5187912279832
 30
0.0
 10
244.1835897633084
 20
91.21874706864277
 30
0.0
 10
244.2501816956306
 20
90.92886313480133
 30
0.0
 10
244.3154440068982
 20
90.64892972615604
 30
0.0
 10
244.3793584014286
 20
90.37873764392695
 30
0.0
 10
244.4419066565551
 20
90.1180785162061
 30
0.0
 10
244.5030706498873
 20
89.8667451101536
 30
0.0
 10
244.5628323860565
 20
89.62453163129008
 30
0.0
 10
244.6211740202137
 20
89.39123401028695
 30
0.0
 10
244.6780778882353
 20
89.16665017714148
 30
0.0
 10
244.7335265079859
 20
88.95058032451423
 30
0.0
 10
244.7875026797826
 20
88.74282715524132
 30
0.0
 10
244.8399892265736
 20
88.54319613332909
 30
0.0
 10
244.8909700202833
 20
88.35149567068645
 30
0.0
 10
244.9404264020757
 20
88.16753749348996
 30
0.0
 10
244.9883500587976
 20
87.99113631781665
 30
0.0
 10
245.0891376115484
 20
87.62357176093002
 30
0.0
 10
245.2419567635576
 20
87.08293815100598
 30
0.0
 10
245.4459360173765
 20
86.39981686652415
 30
0.0
 10
245.6460502405355
 20
85.76715736773895
 30
0.0
 10
245.8422355862294
 20
85.18390412548572
 30
0.0
 10
246.0343845133483
 20
84.64891322154486
 30
0.0
 10
246.2223932481882
 20
84.16097317631692
 30
0.0
 10
246.4061496503819
 20
83.71881646343934
 30
0.0
 10
246.5855391817708
 20
83.32109890515358
 30
0.0
 10
246.7604369020317
 20
82.96651172199475
 30
0.0
 10
246.9307365958815
 20
82.65340476246469
 30
0.0
 10
247.096248191811
 20
82.38118872814336
 30
0.0
 10
247.2570733300019
 20
82.14526302163358
 30
0.0
 10
247.3614328775238
 20
82.01762937580855
 30
0.0
 10
247.4131554451742
 20
81.95437172437731
 30
0.0
  0
SPLINE
  5
148
330
1F
100
AcDbEntity
  8
0
  6
HIDDEN
 62
     7
370
    18
100
AcDbSpline
210
0.0
220
0.0
230
1.0
 70
     8
 71
     3
 72
    31
 73
    27
 74
     0
 42
0.000000001
 43
0.00000001
 40
0.0
 40
0.0
 40
0.0
 40
0.0
 40
0.0190824983180828
 40
0.0381549618945445
 40
0.057222391055687
 40
0.0762897900885602
 40
0.0953621633039292
 40
0.1144445110991487
 40
0.1335418260364121
 40
0.1526590889516991
 40
0.1718012651094742
 40
0.1909733004177628
 40
0.2101801177176991
 40
0.229426613160971
 40
0.2487176526878224
 40
0.3736582059863226
 40
0.498436416092752
 40
0.6233970427986303
 40
0.7489763482073712
 40
0.7850081115347535
 40
0.8209313293550382
 40
0.8567767278238876
 40
0.8925752334765165
 40
0.928357894435084
 40
0.964155800048877
 40
1.0
 40
1.0
 40
1.0
 40
1.0
 10
247.9068926217612
 20
82.44924097416497
 30
0.0
 10
247.8779471985183
 20
82.48358808516568
 30
0.0
 10
247.8200715733019
 20
82.55226424536102
 30
0.0
 10
247.7324252469598
 20
82.66826255936837
 30
0.0
 10
247.6442095562738
 20
82.79372138475955
 30
0.0
 10
247.5553621009752
 20
82.92957454643278
 30
0.0
 10
247.4658996202403
 20
83.07557185566367
 30
0.0
 10
247.3758176515097
 20
83.23178031379605
 30
0.0
 10
247.2851174179788
 20
83.3981818900708
 30
0.0
 10
247.1937986069405
 20
83.57478139145827
 30
0.0
 10
247.1018613618643
 20
83.76157730470709
 30
0.0
 10
247.0093055390695
 20
83.95857049671483
 30
0.0
 10
246.9161316883799
 20
84.16575859347161
 30
0.0
 10
246.8223378656164
 20
84.38314979122465
 30
0.0
 10
246.5556839440186
 20
85.02590947251873
 30
0.0
 10
246.1099957824611
 20
86.2515863184953
 30
0.0
 10
245.4800137269314
 20
88.35127263723193
 30
0.0
 10
244.8463958075104
 20
90.82096904420847
 30
0.0
 10
244.3657243757289
 20
92.9682622207424
 30
0.0
 10
244.0382311200646
 20
94.54988464919708
 30
0.0
 10
243.8605224442996
 20
95.43750668796535
 30
0.0
 10
243.6843919396823
 20
96.34695738407528
 30
0.0
 10
243.5098218604505
 20
97.27812911381254
 30
0.0
 10
243.3368611095176
 20
98.23149100665981
 30
0.0
 10
243.165334162008
 20
99.20526209969483
 30
0.0
 10
243.0524818202181
 20
99.8718608752718
 30
0.0
 10
242.9960191873548
 20
100.2053756374434
 30
0.0
  0
CIRCLE
  5
149
330
1F
100
AcDbEntity
  8
0
  6
HIDDEN
 62
     7
370
    18
100
AcDbCircle
 10
241.751919298
 20
88.1116776519
 30
0.0
 40
2.599999999999994
  0
LINE
  5
14A
330
1F
100
AcDbEntity
  8
0
  6
HIDDEN
 62
     7
370
    18
100
AcDbLine
 10
247.4131110434
 20
81.9536509429
 30
0.0
 11
247.9069131736
 21
82.449222586
 31
0.0
  0
LINE
  5
14B
330
1F
100
AcDbEntity
  8
0
  6
HIDDEN
 62
     7
370
    18
100
AcDbLine
 10
236.2828824047
 20
82.9281421815
 30
0.0
 11
235.5138670031
 21
91.7180130695
 31
0.0
  0
LINE
  5
14C
330
1F
100
AcDbEntity
  8
0
  6
HIDDEN
 62
     7
370
    18
100
AcDbLine
 10
238.1455834333
 20
94.3497294997
 30
0.0
 11
246.9330105309
 21
93.5809264396
 31
0.0
  0
LINE
  5
14D
330
1F
100
AcDbEntity
  8
0
  6
HIDDEN
 62
     7
370
    18
100
AcDbLine
 10
236.2828824047
 20
82.9281421815
 30
0.0
 11
247.4130439881
 21
81.9543773745
 31
0.0
  0
ARC
  5
14E
330
1F
100
AcDbEntity
  8
0
  6
HIDDEN
 62
     7
370
    18
100
AcDbCircle
 10
236.1415986731
 20
93.7219982768
 30
0.0
 40
2.100000000000013
100
AcDbArc
 50
252.6073121946
 51
17.3926878054
  0
LINE
  5
14F
330
1F
100
AcDbEntity
  8
0
  6
HIDDEN
 62
     7
370
    18
100
AcDbLine
 10
246.9330105309
 20
93.5809264396
 30
0.0
 11
247.906905723
 21
82.4492412125
 31
0.0
  0
CIRCLE
  5
150
330
1F
100
AcDbEntity
  8
0
  6
HIDDEN
 62
     7
370
    18
100
AcDbCircle
 10
241.751919298
 20
88.1116776519
 30
0.0
 40
2.099999999999994
  0
CIRCLE
  5
151
330
1F
100
AcDbEntity
  8
0
  6
HIDDEN
 62
     7
370
    18
100
AcDbCircle
 10
236.1415986731
 20
93.7219982768
 30
0.0
 40
2.099999999999994
  0
LINE
  5
152
330
1F
100
AcDbEntity
  8
0
  6
HIDDEN
 62
     7
370
    18
100
AcDbLine
 10
147.3870623235
 20
110.8724825521
 30
0.0
 11
147.3870623235
 21
104.8181714927
 31
0.0
  0
LINE
  5
153
330
1F
100
AcDbEntity
  8
0
  6
HIDDEN
 62
     7
370
    18
100
AcDbLine
 10
181.687061799
 20
110.4416145449
 30
0.0
 11
181.687061799
 21
103.9564354782
 31
0.0
  0
SPLINE
  5
154
330
1F
100
AcDbEntity
  8
0
  6
HIDDEN
 62
     7
370
    18
100
AcDbSpline
210
0.0
220
0.0
230
1.0
 70
     8
 71
     3
 72
    16
 73
    12
 74
     0
 42
0.000000001
 43
0.00000001
 40
0.0
 40
0.0
 40
0.0
 40
0.0
 40
0.2500000000000004
 40
0.2500000000000004
 40
0.3750000000000003
 40
0.3750000000000003
 40
0.5000000000000003
 40
0.5000000000000003
 40
0.7500000000000001
 40
0.7500000000000001
 40
1.0
 40
1.0
 40
1.0
 40
1.0
 10
182.5657414434779
 20
147.7466161178118
 30
0.0
 10
182.4045089659934
 20
147.6486005047571
 30
0.0
 10
182.2840291263538
 20
147.4618644730811
 30
0.0
 10
182.1616486090405
 20
147.0488246655221
 30
0.0
 10
182.130670948643
 20
146.8888241662892
 30
0.0
 10
182.0890572110151
 20
146.5220185151981
 30
0.0
 10
182.0788212980823
 20
146.3186813625741
 30
0.0
 10
182.0786329010261
 20
145.6513940959474
 30
0.0
 10
182.1187776036637
 20
145.1305796320593
 30
0.0
 10
182.2829313586033
 20
143.9332206165817
 30
0.0
 10
182.4044830090129
 20
143.2749509622857
 30
0.0
 10
182.5657414434779
 20
142.5604417890507
 30
0.0
  0
LINE
  5
155
330
1F
100
AcDbEntity
  8
0
  6
HIDDEN
 62
     7
370
    18
100
AcDbLine
 10
147.3870623235
 20
147.1348988329
 30
0.0
 11
147.3870623235
 21
141.0805877735
 31
0.0
  0
LINE
  5
156
330
1F
100
AcDbEntity
  8
0
  6
HIDDEN
 62
     7
370
    18
100
AcDbLine
 10
181.687061799
 20
147.9966348474
 30
0.0
 11
181.687061799
 21
141.5114557807
 31
0.0
  0
LINE
  5
157
330
1F
100
AcDbEntity
  8
0
  6
HIDDEN
 62
     7
370
    18
100
AcDbLine
 10
145.8870630089
 20
111.3054953952
 30
0.0
 11
145.8870630089
 21
105.684197179
 31
0.0
  0
LINE
  5
158
330
1F
100
AcDbEntity
  8
0
  6
HIDDEN
 62
     7
370
    18
100
AcDbLine
 10
145.8870630089
 20
146.2688731467
 30
0.0
 11
145.8870630089
 21
140.6475749304
 31
0.0
  0
SPLINE
  5
159
330
1F
100
AcDbEntity
  8
0
  6
HIDDEN
 62
     7
370
    18
100
AcDbSpline
210
0.0
220
0.0
230
1.0
 70
     8
 71
     3
 72
    16
 73
    12
 74
     0
 42
0.000000001
 43
0.00000001
 40
0.0
 40
0.0
 40
0.0
 40
0.0
 40
0.2499999999999993
 40
0.2499999999999993
 40
0.3749999999999992
 40
0.3749999999999992
 40
0.4999999999999992
 40
0.4999999999999992
 40
0.7499999999999996
 40
0.7499999999999996
 40
1.0
 40
1.0
 40
1.0
 40
1.0
 10
182.5657414434779
 20
109.3926285365687
 30
0.0
 10
182.4045089659934
 20
108.6782343743765
 30
0.0
 10
182.2840291263538
 20
108.0248921116679
 30
0.0
 10
182.1616486090405
 20
107.136636869864
 30
0.0
 10
182.130670948643
 20
106.8559563335122
 30
0.0
 10
182.0890572110151
 20
106.3269223436722
 30
0.0
 10
182.0788212980823
 20
106.0836013650937
 30
0.0
 10
182.0786329010261
 20
105.4155786745805
 30
0.0
 10
182.1187776036637
 20
105.051897765161
 30
0.0
 10
182.2829313586033
 20
104.4920068926127
 30
0.0
 10
182.4044830090129
 20
104.3044856004955
 30
0.0
 10
182.5657414434779
 20
104.2064542078076
 30
0.0
  0
SPLINE
  5
15A
330
1F
100
AcDbEntity
  8
0
  6
HIDDEN
 62
     7
370
    18
100
AcDbSpline
210
0.0
220
0.0
230
1.0
 70
     8
 71
     3
 72
    16
 73
    12
 74
     0
 42
0.000000001
 43
0.00000001
 40
0.0
 40
0.0
 40
0.0
 40
0.0
 40
0.2500000000000137
 40
0.2500000000000137
 40
0.3750000000000147
 40
0.3750000000000147
 40
0.5000000000000158
 40
0.5000000000000158
 40
0.7500000000000079
 40
0.7500000000000079
 40
1.0
 40
1.0
 40
1.0
 40
1.0
 10
240.6921267241637
 20
86.29871331121899
 30
0.0
 10
240.8056186914837
 20
86.23237006251065
 30
0.0
 10
240.9344837723359
 20
86.17110879294749
 30
0.0
 10
241.1547341413071
 20
86.09688933238651
 30
0.0
 10
241.2318817183956
 20
86.07536242918289
 30
0.0
 10
241.3957511307864
 20
86.04040678426244
 30
0.0
 10
241.4819189020328
 20
86.02732278670592
 30
0.0
 10
241.7396094915325
 20
86.00464415907543
 30
0.0
 10
241.9135832715516
 20
86.01214735445495
 30
0.0
 10
242.2209453229696
 20
86.05883150615196
 30
0.0
 10
242.3573952234809
 20
86.09655691508192
 30
0.0
 10
242.4807932872997
 20
86.14222526411663
 30
0.0
  0
LINE
  5
15B
330
1F
100
AcDbEntity
  8
0
  6
HIDDEN
 62
     7
370
    18
100
AcDbLine
 10
145.8870630089
 20
140.6475749304
 30
0.0
 11
145.8870630089
 21
128.8785225683
 31
0.0
  0
LINE
  5
15C
330
1F
100
AcDbEntity
  8
0
  6
HIDDEN
 62
     7
370
    18
100
AcDbLine
 10
145.8870630089
 20
123.0745477573
 30
0.0
 11
145.8870630089
 21
111.3054953952
 31
0.0
  0
LINE
  5
15D
330
1F
100
AcDbEntity
  8
0
  6
HIDDEN
 62
     7
370
    18
100
AcDbLine
 10
147.3870623235
 20
122.0113240619
 30
0.0
 11
147.3870623235
 21
110.8724825521
 31
0.0
  0
LINE
  5
15E
330
1F
100
AcDbEntity
  8
0
  6
HIDDEN
 62
     7
370
    18
100
AcDbLine
 10
147.3870623235
 20
141.0805877735
 30
0.0
 11
147.3870623235
 21
129.9417462637
 31
0.0
  0
LINE
  5
15F
330
1F
100
AcDbEntity
  8
0
  6
HIDDEN
 62
     7
370
    18
100
AcDbLine
 10
183.6870617921
 20
141.0142422159
 30
0.0
 11
183.6870617921
 21
110.9388281097
 31
0.0
  0
LINE
  5
160
330
1F
100
AcDbEntity
  8
0
  6
HIDDEN
 62
     7
370
    18
100
AcDbLine
 10
181.687061799
 20
141.5114557807
 30
0.0
 11
181.687061799
 21
110.4416145449
 31
0.0
  0
ARC
  5
161
330
1F
100
AcDbEntity
  8
0
  6
HIDDEN
 62
     7
370
    18
100
AcDbCircle
 10
241.751919298
 20
88.1116776519
 30
0.0
 40
2.100000000000008
100
AcDbArc
 50
290.3089927617
 51
239.6910072383
  0
SPLINE
  5
162
330
1F
100
AcDbEntity
  8
0
  6
HIDDEN
 62
     7
370
    18
100
AcDbSpline
210
0.0
220
0.0
230
1.0
 70
     8
 71
     3
 72
    14
 73
    10
 74
     0
 42
0.000000001
 43
0.00000001
 40
0.0
 40
0.0
 40
0.0
 40
0.0
 40
0.25
 40
0.25
 40
0.5
 40
0.5
 40
0.75
 40
0.75
 40
1.0
 40
1.0
 40
1.0
 40
1.0
 10
242.4807932872995
 20
86.14222526411675
 30
0.0
 10
242.3405884320826
 20
86.17947736047572
 30
0.0
 10
242.1974900610826
 20
86.21363063426527
 30
0.0
 10
241.9009971646097
 20
86.27056052002183
 30
0.0
 10
241.7468756007265
 20
86.29294801338213
 30
0.0
 10
241.441968250769
 20
86.31965691548429
 30
0.0
 10
241.2887815452964
 20
86.32440076138272
 30
0.0
 10
240.9847528773137
 20
86.31992524011991
 30
0.0
 10
240.8371949361245
 20
86.31109793469057
 30
0.0
 10
240.6921267241637
 20
86.29871331121899
 30
0.0
  0
SPLINE
  5
163
330
1F
100
AcDbEntity
  8
0
  6
HIDDEN
 62
     7
370
    18
100
AcDbSpline
210
0.0
220
0.0
230
1.0
 70
     8
 71
     3
 72
     8
 73
     4
 74
     0
 42
0.000000001
 43
0.00000001
 40
0.0000249638557296
 40
0.0000249638557296
 40
0.0000249638557296
 40
0.0000249638557296
 40
0.0049776420541172
 40
0.0049776420541172
 40
0.0049776420541172
 40
0.0049776420541172
 10
147.3870617870375
 20
122.0113242659731
 30
0.0
 10
149.0370380215471
 20
121.970045028205
 30
0.0
 10
150.6870393412921
 20
121.9298233469655
 30
0.0
 10
152.3370617870375
 20
121.8905741097105
 30
0.0
  0
SPLINE
  5
164
330
1F
100
AcDbEntity
  8
0
  6
HIDDEN
 62
     7
370
    18
100
AcDbSpline
210
0.0
220
0.0
230
1.0
 70
     8
 71
     3
 72
     8
 73
     4
 74
     0
 42
0.000000001
 43
0.00000001
 40
0.0000249631533153
 40
0.0000249631533153
 40
0.0000249631533153
 40
0.0000249631533153
 40
0.0049776413517029
 40
0.0049776413517029
 40
0.0049776413517029
 40
0.0049776413517029
 10
152.3370617870375
 20
130.062496215909
 30
0.0
 10
150.6870393412921
 20
130.023246978654
 30
0.0
 10
149.0370380215471
 20
129.9830252974145
 30
0.0
 10
147.3870617870375
 20
129.9417460596462
 30
0.0
  0
SPLINE
  5
165
330
1F
100
AcDbEntity
  8
0
  6
HIDDEN
 62
     7
370
    18
100
AcDbSpline
210
0.0
220
0.0
230
1.0
 70
     8
 71
     3
 72
     8
 73
     4
 74
     0
 42
0.000000001
 43
0.00000001
 40
0.0
 40
0.0
 40
0.0
 40
0.0
 40
1.0
 40
1.0
 40
1.0
 40
1.0
 10
145.8870617870353
 20
123.0745478298293
 30
0.0
 10
146.3538223984131
 20
122.6591845842063
 30
0.0
 10
146.8595699451932
 20
122.3145941549017
 30
0.0
 10
147.3870617870375
 20
122.0113242659731
 30
0.0
  0
SPLINE
  5
166
330
1F
100
AcDbEntity
  8
0
  6
HIDDEN
 62
     7
370
    18
100
AcDbSpline
210
0.0
220
0.0
230
1.0
 70
     8
 71
     3
 72
     8
 73
     4
 74
     0
 42
0.000000001
 43
0.00000001
 40
0.0
 40
0.0
 40
0.0
 40
0.0
 40
1.0
 40
1.0
 40
1.0
 40
1.0
 10
147.3870617870375
 20
129.9417460596462
 30
0.0
 10
146.859569945194
 20
129.6384761707182
 30
0.0
 10
146.3538223984147
 20
129.2938857414142
 30
0.0
 10
145.8870617870375
 20
128.8785224957921
 30
0.0
  0
LINE
  5
167
330
1F
100
AcDbEntity
  8
0
  6
HIDDEN
 62
     7
370
    18
100
AcDbLine
 10
145.8870630089
 20
123.0745477573
 30
0.0
 11
145.8870630089
 21
128.8785225683
 31
0.0
  0
LINE
  5
168
330
1F
100
AcDbEntity
  8
0
  6
HIDDEN
 62
     7
370
    18
100
AcDbLine
 10
152.337060434
 20
121.8905738992
 30
0.0
 11
152.337060434
 21
130.0624964264
 31
0.0
  0
SPLINE
  5
169
330
1F
100
AcDbEntity
  8
0
  6
HIDDEN
 62
     7
370
    18
100
AcDbSpline
210
0.0
220
0.0
230
1.0
 70
     8
 71
     3
 72
    24
 73
    20
 74
     0
 42
0.000000001
 43
0.00000001
 40
0.0
 40
0.0
 40
0.0
 40
0.0
 40
0.1249999999999999
 40
0.1249999999999999
 40
0.2499999999999997
 40
0.2499999999999997
 40
0.3749999999999997
 40
0.3749999999999997
 40
0.4374999999999997
 40
0.4374999999999997
 40
0.4999999999999997
 40
0.4999999999999997
 40
0.6249999999999998
 40
0.6249999999999998
 40
0.7499999999999998
 40
0.7499999999999998
 40
0.8749999999999999
 40
0.8749999999999999
 40
1.0
 40
1.0
 40
1.0
 40
1.0
 10
152.3370617870375
 20
121.8905741097105
 30
0.0
 10
152.5748654193126
 20
122.1895812120406
 30
0.0
 10
152.8049510805239
 20
122.4939190633593
 30
0.0
 10
153.2397044791337
 20
123.1196526007553
 30
0.0
 10
153.4446372714199
 20
123.4408773280828
 30
0.0
 10
153.8097392219186
 20
124.1128030988156
 30
0.0
 10
153.9715396077101
 20
124.4681183306944
 30
0.0
 10
154.1433998122898
 20
125.0183495520469
 30
0.0
 10
154.1889850039499
 20
125.2047533370274
 30
0.0
 10
154.2514597435248
 20
125.5848878391236
 30
0.0
 10
154.2681308892733
 20
125.7805576314095
 30
0.0
 10
154.2686519324498
 20
126.3590380100839
 30
0.0
 10
154.2042096315631
 20
126.7369498490527
 30
0.0
 10
153.9743605381897
 20
127.4789178741512
 30
0.0
 10
153.8158398605266
 20
127.8276333343121
 30
0.0
 10
153.4516055306264
 20
128.5007257320453
 30
0.0
 10
153.2448692905629
 20
128.8256782192869
 30
0.0
 10
152.8069313448225
 20
129.4566020297487
 30
0.0
 10
152.5756586175429
 20
129.7624917700893
 30
0.0
 10
152.3370617870376
 20
130.0624962159089
 30
0.0
  0
SPLINE
  5
16A
330
1F
100
AcDbEntity
  8
0
  6
HIDDEN
 62
     7
370
    18
100
AcDbSpline
210
0.0
220
0.0
230
1.0
 70
    11
 71
     3
 72
    72
 73
    68
 74
     0
 42
0.000000001
 43
0.00000001
 40
0.0
 40
0.0
 40
0.0
 40
0.0
 40
0.0312499999999999
 40
0.0312499999999999
 40
0.0624999999999997
 40
0.0624999999999997
 40
0.0937499999999996
 40
0.0937499999999996
 40
0.1249999999999995
 40
0.1249999999999995
 40
0.1562499999999995
 40
0.1562499999999995
 40
0.1874999999999995
 40
0.1874999999999995
 40
0.2187499999999996
 40
0.2187499999999996
 40
0.2499999999999996
 40
0.2499999999999996
 40
0.2812499999999997
 40
0.2812499999999997
 40
0.3124999999999998
 40
0.3124999999999998
 40
0.3437499999999999
 40
0.3437499999999999
 40
0.3749999999999999
 40
0.3749999999999999
 40
0.390625
 40
0.390625
 40
0.4062500000000001
 40
0.4062500000000001
 40
0.4375000000000002
 40
0.4375000000000002
 40
0.4687500000000002
 40
0.4687500000000002
 40
0.5000000000000003
 40
0.5000000000000003
 40
0.5312500000000004
 40
0.5312500000000004
 40
0.5625000000000006
 40
0.5625000000000006
 40
0.5937500000000006
 40
0.5937500000000006
 40
0.6250000000000007
 40
0.6250000000000007
 40
0.6562500000000008
 40
0.6562500000000008
 40
0.6875000000000007
 40
0.6875000000000007
 40
0.7187500000000006
 40
0.7187500000000006
 40
0.7500000000000003
 40
0.7500000000000003
 40
0.7812500000000002
 40
0.7812500000000002
 40
0.8125000000000001
 40
0.8125000000000001
 40
0.8437500000000001
 40
0.8437500000000001
 40
0.8750000000000001
 40
0.8750000000000001
 40
0.9062500000000001
 40
0.9062500000000001
 40
0.9375
 40
0.9375
 40
0.96875
 40
0.96875
 40
1.0
 40
1.0
 40
1.0
 40
1.0
 10
165.1982232157997
 20
128.6225467128671
 30
0.0
 10
165.3854383257366
 20
128.8277246131097
 30
0.0
 10
165.5902909270022
 20
129.0113736957682
 30
0.0
 10
166.0331591238492
 20
129.3383285992635
 30
0.0
 10
166.2731145411675
 20
129.4821068074434
 30
0.0
 10
166.768725523942
 20
129.7196241628892
 30
0.0
 10
167.0259918150965
 20
129.814943727787
 30
0.0
 10
167.5593455829336
 20
129.9590292604215
 30
0.0
 10
167.8336257228319
 20
130.006765267391
 30
0.0
 10
168.3800542574114
 20
130.0523474079249
 30
0.0
 10
168.6546305758792
 20
130.0509136478526
 30
0.0
 10
169.2065977501499
 20
129.9980003397618
 30
0.0
 10
169.4772147127216
 20
129.9470306135576
 30
0.0
 10
170.0034998838008
 20
129.798423986614
 30
0.0
 10
170.2611314472084
 20
129.7001386158569
 30
0.0
 10
170.7570576118819
 20
129.4558852566712
 30
0.0
 10
170.9900412896735
 20
129.312805125649
 30
0.0
 10
171.4263745649986
 20
128.9849465751802
 30
0.0
 10
171.6316558188568
 20
128.7979529374799
 30
0.0
 10
171.999690116717
 20
128.3885223176569
 30
0.0
 10
172.1612051067022
 20
128.1684168766724
 30
0.0
 10
172.4383627898494
 20
127.6966667952344
 30
0.0
 10
172.5547569692831
 20
127.4416502687932
 30
0.0
 10
172.7280310059297
 20
126.9204124453962
 30
0.0
 10
172.7864775603954
 20
126.6529283276153
 30
0.0
 10
172.8303422858714
 20
126.2410126682828
 30
0.0
 10
172.8375225025007
 20
126.1013053652073
 30
0.0
 10
172.8365544752053
 20
125.8251823097449
 30
0.0
 10
172.8285516857916
 20
125.6880057434141
 30
0.0
 10
172.7824789538792
 20
125.2790723021509
 30
0.0
 10
172.7215441214272
 20
125.0071460531466
 30
0.0
 10
172.5434239650187
 20
124.4839655366915
 30
0.0
 10
172.4278560536763
 20
124.2352535363281
 30
0.0
 10
172.146009269737
 20
123.7623690113362
 30
0.0
 10
171.9791393243223
 20
123.538759794104
 30
0.0
 10
171.6098137695236
 20
123.1341024059164
 30
0.0
 10
171.4050286132261
 20
122.9496888177469
 30
0.0
 10
170.9603756657098
 20
122.6206627828525
 30
0.0
 10
170.7255265361991
 20
122.4794947068643
 30
0.0
 10
170.2321167737221
 20
122.2410851780838
 30
0.0
 10
169.9708298200174
 20
122.1433026216789
 30
0.0
 10
169.4400915395047
 20
121.9979745934888
 30
0.0
 10
169.1704518386074
 20
121.9496852032938
 30
0.0
 10
168.6227004988622
 20
121.9012699795072
 30
0.0
 10
168.3427964570036
 20
121.9017281651431
 30
0.0
 10
167.7957185491686
 20
121.9518800207453
 30
0.0
 10
167.5261134444812
 20
122.0010535877773
 30
0.0
 10
166.9949586878251
 20
122.1487281110844
 30
0.0
 10
166.7336638713816
 20
122.2478832754499
 30
0.0
 10
166.2413498932062
 20
122.4888960459267
 30
0.0
 10
166.0073930176276
 20
122.6313841705514
 30
0.0
 10
165.5652243970971
 20
122.9628715995363
 30
0.0
 10
165.3600308659854
 20
123.1503052275247
 30
0.0
 10
164.9943366496274
 20
123.5572089465751
 30
0.0
 10
164.8315660272391
 20
123.7783880212441
 30
0.0
 10
164.5506135964735
 20
124.2581353504594
 30
0.0
 10
164.4374097442
 20
124.5081473172697
 30
0.0
 10
164.2648010200611
 20
125.0282225272901
 30
0.0
 10
164.2051947373847
 20
125.3019539919199
 30
0.0
 10
164.1473029673148
 20
125.8505716418183
 30
0.0
 10
164.1480925061748
 20
126.1249115057099
 30
0.0
 10
164.2092829817912
 20
126.6736534568489
 30
0.0
 10
164.2704117055252
 20
126.946718770706
 30
0.0
 10
164.4464913911551
 20
127.4668840194744
 30
0.0
 10
164.562821986145
 20
127.7192031530333
 30
0.0
 10
164.8460232158858
 20
128.1956074944403
 30
0.0
 10
165.0110081058627
 20
128.4173688126245
 30
0.0
 10
165.1982232157997
 20
128.6225467128671
 30
0.0
  0
CIRCLE
  5
16B
330
1F
100
AcDbEntity
  8
0
  6
HIDDEN
 62
     7
370
    18
100
AcDbCircle
 10
168.387061787
 20
125.9765351628
 30
0.0
 40
4.050000000000011
  0
ELLIPSE
  5
16C
330
1F
100
AcDbEntity
  8
0
  6
HIDDEN
 62
     7
370
    18
100
AcDbEllipse
 10
240.4845713285
 20
125.9765351628
 30
0.0
 11
-22.69053094615285
 21
31.91932617208915
 31
0.0
210
0.0
220
0.0
230
1.0
 40
0.1000778042
 41
0.7749883902448398
 42
1.499773554065241
  0
LINE
  5
16D
330
1F
100
AcDbEntity
  8
0
  6
HIDDEN
 62
     7
370
    18
100
AcDbLine
 10
222.0386351768
 20
125.9765351628
 30
0.0
 11
222.0386351768
 21
147.1917225485
 31
0.0
  0
LINE
  5
16E
330
1F
100
AcDbEntity
  8
0
  6
HIDDEN
 62
     7
370
    18
100
AcDbLine
 10
222.0386351768
 20
147.1917225485
 30
0.0
 11
222.0386351768
 21
147.1546074812
 31
0.0
  0
CIRCLE
  5
16F
330
1F
100
AcDbEntity
  8
0
  6
HIDDEN
 62
     7
370
    18
100
AcDbCircle
 10
195.887061787
 20
125.9765351628
 30
0.0
 40
2.000000000000014
  0
LINE
  5
170
330
1F
100
AcDbEntity
  8
0
  6
HIDDEN
 62
     7
370
    18
100
AcDbLine
 10
222.0386351768
 20
125.9765351628
 30
0.0
 11
222.0386351768
 21
123.3757637878
 31
0.0
  0
LINE
  5
171
330
1F
100
AcDbEntity
  8
0
  6
HIDDEN
 62
     7
370
    18
100
AcDbLine
 10
242.9963472609
 20
100.2060385858
 30
0.0
 11
242.6009002451
 21
99.4174672728
 31
0.0
  0
LINE
  5
172
330
1F
100
AcDbEntity
  8
0
  6
HIDDEN
 62
     7
370
    18
100
AcDbLine
 10
224.3207815413
 20
101.0173416202
 30
0.0
 11
242.6004904632
 21
99.4180744951
 31
0.0
  0
LINE
  5
173
330
1F
100
AcDbEntity
  8
0
  6
HIDDEN
 62
     7
370
    18
100
AcDbLine
 10
242.9960194353
 20
100.2053754841
 30
0.0
 11
241.4628873889
 21
117.7291699191
 31
0.0
  0
SPLINE
  5
174
330
1F
100
AcDbEntity
  8
0
  6
HIDDEN
 62
     7
370
    18
100
AcDbSpline
210
0.0
220
0.0
230
1.0
 70
     8
 71
     3
 72
     8
 73
     4
 74
     0
 42
0.000000001
 43
0.00000001
 40
0.0
 40
0.0
 40
0.0
 40
0.0
 40
1.0
 40
1.0
 40
1.0
 40
1.0
 10
224.3207831696608
 20
101.0173410423233
 30
0.0
 10
223.1760510465261
 20
107.9637854645274
 30
0.0
 10
222.3174733798951
 20
114.9540574658364
 30
0.0
 10
222.0856606253476
 20
122.0403251371068
 30
0.0
  0
LINE
  5
175
330
1F
100
AcDbEntity
  8
0
  6
HIDDEN
 62
     7
370
    18
100
AcDbLine
 10
241.4628873889
 20
117.7291699191
 30
0.0
 11
235.688016874
 21
125.9765351628
 31
0.0
  0
LINE
  5
176
330
1F
100
AcDbEntity
  8
0
  6
HIDDEN
 62
     7
370
    18
100
AcDbLine
 10
201.8870610122
 20
113.7265354832
 30
0.0
 11
201.8870610122
 21
110.2282876586
 31
0.0
  0
LINE
  5
177
330
1F
100
AcDbEntity
  8
0
  6
HIDDEN
 62
     7
370
    18
100
AcDbLine
 10
207.8870619957
 20
110.2265349095
 30
0.0
 11
207.8870619957
 21
113.7265354832
 31
0.0
  0
LINE
  5
178
330
1F
100
AcDbEntity
  8
0
  6
HIDDEN
 62
     7
370
    18
100
AcDbLine
 10
183.887061787
 20
101.7265344476
 30
0.0
 11
183.9799550075
 21
101.8194282864
 31
0.0
  0
LINE
  5
179
330
1F
100
AcDbEntity
  8
0
  6
HIDDEN
 62
     7
370
    18
100
AcDbLine
 10
183.9799550075
 20
150.1336420392
 30
0.0
 11
183.887061787
 21
150.2265358781
 31
0.0
  0
ARC
  5
17A
330
1F
100
AcDbEntity
  8
0
  6
HIDDEN
 62
     7
370
    18
100
AcDbCircle
 10
183.2728482247
 20
102.5265351628
 30
0.0
 40
1.0
100
AcDbArc
 50
315.0
 51
0.0
  0
ARC
  5
17B
330
1F
100
AcDbEntity
  8
0
  6
HIDDEN
 62
     7
370
    18
100
AcDbCircle
 10
183.2728482247
 20
102.5265351628
 30
0.0
 40
1.0
100
AcDbArc
 50
0.0
 51
52.1052014664
  0
ARC
  5
17C
330
1F
100
AcDbEntity
  8
0
  6
HIDDEN
 62
     7
370
    18
100
AcDbCircle
 10
183.2728482247
 20
149.4265351628
 30
0.0
 40
0.999999999999988
100
AcDbArc
 50
351.8087250651
 51
45.0
  0
ARC
  5
17D
330
1F
100
AcDbEntity
  8
0
  6
HIDDEN
 62
     7
370
    18
100
AcDbCircle
 10
183.2728482247
 20
149.4265351628
 30
0.0
 40
0.9999999999999989
100
AcDbArc
 50
307.8947985336
 51
351.8087250651
  0
LINE
  5
17E
330
1F
100
AcDbEntity
  8
0
  6
HIDDEN
 62
     7
370
    18
100
AcDbLine
 10
184.2728482228
 20
102.5265349512
 30
0.0
 11
184.2728482228
 21
149.4265353744
 31
0.0
  0
LINE
  5
17F
330
1F
100
AcDbEntity
  8
0
  6
HIDDEN
 62
     7
370
    18
100
AcDbLine
 10
184.2728482228
 20
102.5265349512
 30
0.0
 11
184.2728482228
 21
149.4265353744
 31
0.0
  0
LINE
  5
180
330
1F
100
AcDbEntity
  8
0
  6
HIDDEN
 62
     7
370
    18
100
AcDbLine
 10
202.3870620255
 20
121.4805004624
 30
0.0
 11
202.3870620255
 21
113.8767503639
 31
0.0
  0
LINE
  5
181
330
1F
100
AcDbEntity
  8
0
  6
HIDDEN
 62
     7
370
    18
100
AcDbLine
 10
207.3870609824
 20
117.7748484974
 30
0.0
 11
207.3870609824
 21
121.478860869
 31
0.0
  0
LINE
  5
182
330
1F
100
AcDbEntity
  8
0
  6
HIDDEN
 62
     7
370
    18
100
AcDbLine
 10
207.3870609824
 20
113.8767503639
 30
0.0
 11
207.3870609824
 21
115.6667318632
 31
0.0
  0
LINE
  5
183
330
1F
100
AcDbEntity
  8
0
  6
HIDDEN
 62
     7
370
    18
100
AcDbLine
 10
204.705705059
 20
114.0812585567
 30
0.0
 11
215.7065059368
 21
105.0324408774
 31
0.0
  0
LINE
  5
184
330
1F
100
AcDbEntity
  8
0
  6
HIDDEN
 62
     7
370
    18
100
AcDbLine
 10
215.3608995799
 20
111.790911897
 30
0.0
 11
206.9955534611
 21
118.6719100428
 31
0.0
  0
LINE
  5
185
330
1F
100
AcDbEntity
  8
0
  6
HIDDEN
 62
     7
370
    18
100
AcDbLine
 10
145.8870630089
 20
109.7801054333
 30
0.0
 11
147.417289329
 21
110.6635841047
 31
0.0
  0
LINE
  5
186
330
1F
100
AcDbEntity
  8
0
  6
HIDDEN
 62
     7
370
    18
100
AcDbLine
 10
147.417289329
 20
141.289486221
 30
0.0
 11
145.8870630089
 21
142.1729648923
 31
0.0
  0
LINE
  5
187
330
1F
100
AcDbEntity
  8
0
  6
HIDDEN
 62
     7
370
    18
100
AcDbLine
 10
155.8870609228
 20
109.9765344029
 30
0.0
 11
156.8888622645
 21
109.9765344029
 31
0.0
  0
LINE
  5
188
330
1F
100
AcDbEntity
  8
0
  6
HIDDEN
 62
     7
370
    18
100
AcDbLine
 10
156.8888622645
 20
141.9765359228
 30
0.0
 11
155.8870609228
 21
141.9765359228
 31
0.0
  0
ARC
  5
189
330
1F
100
AcDbEntity
  8
0
  6
HIDDEN
 62
     7
370
    18
100
AcDbCircle
 10
156.8888631019
 20
111.9765351628
 30
0.0
 40
2.000000000000016
100
AcDbArc
 50
270.0
 51
315.0
  0
ARC
  5
18A
330
1F
100
AcDbEntity
  8
0
  6
HIDDEN
 62
     7
370
    18
100
AcDbCircle
 10
156.8888631019
 20
139.9765351628
 30
0.0
 40
2.000000000000057
100
AcDbArc
 50
45.0
 51
90.0
  0
ARC
  5
18B
330
1F
100
AcDbEntity
  8
0
  6
HIDDEN
 62
     7
370
    18
100
AcDbCircle
 10
155.887061787
 20
111.9765351628
 30
0.0
 40
2.000000000000001
100
AcDbArc
 50
189.9742217944
 51
270.0
  0
ARC
  5
18C
330
1F
100
AcDbEntity
  8
0
  6
HIDDEN
 62
     7
370
    18
100
AcDbCircle
 10
155.887061787
 20
139.9765351628
 30
0.0
 40
2.000000000000028
100
AcDbArc
 50
90.0
 51
170.0257782056
  0
LINE
  5
18D
330
1F
100
AcDbEntity
  8
0
  6
HIDDEN
 62
     7
370
    18
100
AcDbLine
 10
158.3030774567
 20
110.5623214011
 30
0.0
 11
159.7172907863
 21
111.9765347307
 31
0.0
  0
LINE
  5
18E
330
1F
100
AcDbEntity
  8
0
  6
HIDDEN
 62
     7
370
    18
100
AcDbLine
 10
159.7172907863
 20
139.9765355949
 30
0.0
 11
158.3030774567
 21
141.3907489245
 31
0.0
  0
LINE
  5
18F
330
1F
100
AcDbEntity
  8
0
  6
HIDDEN
 62
     7
370
    18
100
AcDbLine
 10
147.417289329
 20
110.6635841047
 30
0.0
 11
152.3172903184
 21
111.9765347307
 31
0.0
  0
LINE
  5
190
330
1F
100
AcDbEntity
  8
0
  6
HIDDEN
 62
     7
370
    18
100
AcDbLine
 10
152.3172903184
 20
139.9765355949
 30
0.0
 11
147.417289329
 21
141.289486221
 31
0.0
  0
LINE
  5
191
330
1F
100
AcDbEntity
  8
0
  6
HIDDEN
 62
     7
370
    18
100
AcDbLine
 10
153.9172894631
 20
140.3229456832
 30
0.0
 11
153.3172904823
 21
139.9765355949
 31
0.0
  0
LINE
  5
192
330
1F
100
AcDbEntity
  8
0
  6
HIDDEN
 62
     7
370
    18
100
AcDbLine
 10
153.3172904823
 20
111.9765347307
 30
0.0
 11
153.9172894631
 21
111.6301246424
 31
0.0
  0
ARC
  5
193
330
1F
100
AcDbEntity
  8
0
  6
HIDDEN
 62
     7
370
    18
100
AcDbCircle
 10
172.387061787
 20
112.4765351628
 30
0.0
 40
0.5
100
AcDbArc
 50
270.0
 51
0.0
  0
ARC
  5
194
330
1F
100
AcDbEntity
  8
0
  6
HIDDEN
 62
     7
370
    18
100
AcDbCircle
 10
172.387061787
 20
139.4765351628
 30
0.0
 40
0.5
100
AcDbArc
 50
0.0
 51
90.0
  0
LINE
  5
195
330
1F
100
AcDbEntity
  8
0
  6
HIDDEN
 62
     7
370
    18
100
AcDbLine
 10
159.7172907863
 20
111.9765347307
 30
0.0
 11
172.3870617647
 21
111.9765347307
 31
0.0
  0
LINE
  5
196
330
1F
100
AcDbEntity
  8
0
  6
HIDDEN
 62
     7
370
    18
100
AcDbLine
 10
172.3870617647
 20
139.9765355949
 30
0.0
 11
159.7172907863
 21
139.9765355949
 31
0.0
  0
LINE
  5
197
330
1F
100
AcDbEntity
  8
0
  6
HIDDEN
 62
     7
370
    18
100
AcDbLine
 10
152.3172903184
 20
111.9765347307
 30
0.0
 11
153.3172904823
 21
111.9765347307
 31
0.0
  0
LINE
  5
198
330
1F
100
AcDbEntity
  8
0
  6
HIDDEN
 62
     7
370
    18
100
AcDbLine
 10
153.3172904823
 20
139.9765355949
 30
0.0
 11
152.3172903184
 21
139.9765355949
 31
0.0
  0
LINE
  5
199
330
1F
100
AcDbEntity
  8
0
  6
HIDDEN
 62
     7
370
    18
100
AcDbLine
 10
172.8870618466
 20
115.7265348797
 30
0.0
 11
174.1370615859
 21
116.9765355502
 31
0.0
  0
LINE
  5
19A
330
1F
100
AcDbEntity
  8
0
  6
HIDDEN
 62
     7
370
    18
100
AcDbLine
 10
174.1370615859
 20
134.9765347754
 30
0.0
 11
172.8870618466
 21
136.2265354459
 31
0.0
  0
LINE
  5
19B
330
1F
100
AcDbEntity
  8
0
  6
HIDDEN
 62
     7
370
    18
100
AcDbLine
 10
210.8870624874
 20
134.9765347754
 30
0.0
 11
174.1370615859
 21
134.9765347754
 31
0.0
  0
LINE
  5
19C
330
1F
100
AcDbEntity
  8
0
  6
HIDDEN
 62
     7
370
    18
100
AcDbLine
 10
174.1370615859
 20
116.9765355502
 30
0.0
 11
210.8870624874
 21
116.9765355502
 31
0.0
  0
LINE
  5
19D
330
1F
100
AcDbEntity
  8
0
  6
HIDDEN
 62
     7
370
    18
100
AcDbLine
 10
210.8870624874
 20
116.9765355502
 30
0.0
 11
216.294807506
 21
125.9765351628
 31
0.0
  0
LINE
  5
19E
330
1F
100
AcDbEntity
  8
0
  6
HIDDEN
 62
     7
370
    18
100
AcDbLine
 10
216.294807506
 20
125.9765351628
 30
0.0
 11
210.8870624874
 21
134.9765347754
 31
0.0
  0
ARC
  5
19F
330
1F
100
AcDbEntity
  8
0
  6
HIDDEN
 62
     7
370
    18
100
AcDbCircle
 10
221.1197347991
 20
93.4765351628
 30
0.0
 40
1.0
100
AcDbArc
 50
67.5244230154
 51
90.0
  0
LINE
  5
1A0
330
1F
100
AcDbEntity
  8
VERMASSUNG
  6
CENTERX2
100
AcDbLine
 10
139.1241165961
 20
125.9765351628
 30
0.0
 11
248.887061787
 21
125.9765351628
 31
0.0
  0
LINE
  5
1A1
330
1F
100
AcDbEntity
  8
VERMASSUNG
  6
CENTERX2
100
AcDbLine
 10
248.887061787
 20
80.9765351628
 30
0.0
 11
248.887061787
 21
125.9765351628
 31
0.0
  0
LINE
  5
1A2
330
1F
100
AcDbEntity
  8
VERMASSUNG
  6
CENTERX2
100
AcDbLine
 10
248.887061787
 20
80.9765351628
 30
0.0
 11
263.6322105287
 21
80.9765351628
 31
0.0
  0
DIMENSION
  5
1A3
330
1F
100
AcDbEntity
  8
VERMASSUNG
100
AcDbDimension
  2
_D
 10
268.6674110301
 20
125.9765351628
 30
0.0
 11
268.6674110301
 21
103.4765351628
 31
0.0
 70
   160
  1
<>
 71
     2
 42
-1.0
  3
SLDDIMSTYLE0
100
AcDbAlignedDimension
 13
248.887061787
 23
80.9765351628
 33
0.0
 14
248.887061787
 24
125.9765351628
 34
0.0
 50
90.0
100
AcDbRotatedDimension
  0
DIMENSION
  5
1B0
330
1F
100
AcDbEntity
  8
VERMASSUNG
100
AcDbDimension
  2
_D_1
 10
248.887061787
 20
62.4493800851
 30
0.0
 11
197.387061787
 21
62.4493800851
 31
0.0
 70
   160
  1
<>
 71
     2
 42
-1.0
  3
SLDDIMSTYLE1
100
AcDbAlignedDimension
 13
145.887061787
 23
105.6841971703
 33
0.0
 14
248.887061787
 24
80.9765351628
 34
0.0
 50
0.0
100
AcDbRotatedDimension
  0
DIMENSION
  5
1BB
330
1F
100
AcDbEntity
  8
VERMASSUNG
100
AcDbDimension
  2
_D_2
 10
248.887061787
 20
70.9431949865
 30
0.0
 11
216.387061787
 21
70.9431949865
 31
0.0
 70
   160
  1
<>
 71
     2
 42
-1.0
  3
SLDDIMSTYLE0
100
AcDbAlignedDimension
 13
183.887061787
 23
94.9765351628
 33
0.0
 14
248.887061787
 24
80.9765351628
 34
0.0
100
AcDbRotatedDimension
  0
DIMENSION
  5
1C7
330
1F
100
AcDbEntity
  8
VERMASSUNG
100
AcDbDimension
  2
_D_3
 10
248.8855396663
 20
81.4113974599
 30
0.0
 11
256.2001250026
 21
88.9174849214
 31
0.0
 70
   162
  1
<>
 71
     1
 42
-1.0
  3
SLDDIMSTYLE2
100
AcDb2LineAngularDimension
 13
248.887061787
 23
80.9765351628
 33
0.0
 14
263.6322105287
 24
80.9765351628
 34
0.0
 15
247.8323865656
 25
93.4489924839
 35
0.0
 16
256.2001250026
 26
88.9174849214
 36
0.0
  0
DIMENSION
  5
1D0
330
1F
100
AcDbEntity
  8
VERMASSUNG
100
AcDbDimension
  2
_D_4
 10
133.2121566668
 20
94.4765351628
 30
0.0
 11
133.2121566668
 21
125.9765351628
 31
0.0
 70
   160
  1
PSC%%c<>
 71
     2
 42
-1.0
  3
SLDDIMSTYLE1
100
AcDbAlignedDimension
 13
184.387061787
 23
157.4765351628
 33
0.0
 14
184.387061787
 24
94.4765351628
 34
0.0
 50
90.0
100
AcDbRotatedDimension
  0
LINE
  5
1DC
330
1F
100
AcDbEntity
  8
0
  6
Continuous
 62
     7
370
    25
100
AcDbLine
 10
75.6592491042
 20
80.9765333747
 30
0.0
 11
78.9169877633
 21
81.3765364205
 31
0.0
  0
LINE
  5
1DD
330
1F
100
AcDbEntity
  8
0
  6
Continuous
 62
     7
370
    25
100
AcDbLine
 10
75.9592491184
 20
94.8304484104
 30
0.0
 11
75.6592491042
 21
94.8672840809
 31
0.0
  0
LINE
  5
1DE
330
1F
100
AcDbEntity
  8
0
  6
Continuous
 62
     7
370
    25
100
AcDbLine
 10
78.9169877633
 20
93.4141302918
 30
0.0
 11
75.6592491042
 21
93.4489915584
 31
0.0
  0
LINE
  5
1DF
330
1F
100
AcDbEntity
  8
0
  6
Continuous
 62
     7
370
    25
100
AcDbLine
 10
80.4192490276
 20
93.2438658987
 30
0.0
 11
78.9169877633
 21
93.4141302918
 31
0.0
  0
LINE
  5
1E0
330
1F
100
AcDbEntity
  8
0
  6
Continuous
 62
     7
370
    25
100
AcDbLine
 10
80.4192490276
 20
81.5794455324
 30
0.0
 11
80.4192490276
 21
93.2438658987
 31
0.0
  0
LINE
  5
1E1
330
1F
100
AcDbEntity
  8
0
  6
Continuous
 62
     7
370
    25
100
AcDbLine
 10
80.4192490276
 20
81.5794455324
 30
0.0
 11
78.9169877633
 21
81.3765364205
 31
0.0
  0
LINE
  5
1E2
330
1F
100
AcDbEntity
  8
0
  6
Continuous
 62
     7
370
    25
100
AcDbLine
 10
78.9169877633
 20
81.3765364205
 30
0.0
 11
75.6592491042
 21
81.4113976871
 31
0.0
  0
LINE
  5
1E3
330
1F
100
AcDbEntity
  8
0
  6
Continuous
 62
     7
370
    25
100
AcDbLine
 10
75.6592491042
 20
81.4113976871
 30
0.0
 11
75.6592491042
 21
93.4489915584
 31
0.0
  0
LINE
  5
1E4
330
1F
100
AcDbEntity
  8
0
  6
Continuous
 62
     7
370
    25
100
AcDbLine
 10
75.6592491042
 20
80.9765333747
 30
0.0
 11
75.6592491042
 21
81.4113976871
 31
0.0
  0
LINE
  5
1E5
330
1F
100
AcDbEntity
  8
0
  6
Continuous
 62
     7
370
    25
100
AcDbLine
 10
78.9169877633
 20
93.4141302918
 30
0.0
 11
75.9602519782
 21
93.7757889246
 31
0.0
  0
LINE
  5
1E6
330
1F
100
AcDbEntity
  8
0
  6
Continuous
 62
     7
370
    25
100
AcDbLine
 10
75.9592491184
 20
93.7759118592
 30
0.0
 11
75.6592491042
 21
93.8126096939
 31
0.0
  0
LINE
  5
1E7
330
1F
100
AcDbEntity
  8
0
  6
Continuous
 62
     7
370
    25
100
AcDbLine
 10
75.6592491042
 20
93.4489915584
 30
0.0
 11
75.6592491042
 21
93.8126096939
 31
0.0
  0
LINE
  5
1E8
330
1F
100
AcDbEntity
  8
0
  6
Continuous
 62
     7
370
    25
100
AcDbLine
 10
75.9592491184
 20
94.8290663277
 30
0.0
 11
75.6592491042
 21
94.8657604371
 31
0.0
  0
LINE
  5
1E9
330
1F
100
AcDbEntity
  8
0
  6
Continuous
 62
     7
370
    25
100
AcDbLine
 10
75.6592491042
 20
93.8126096939
 30
0.0
 11
75.6592491042
 21
94.8657604371
 31
0.0
  0
LINE
  5
1EA
330
1F
100
AcDbEntity
  8
0
  6
Continuous
 62
     7
370
    25
100
AcDbLine
 10
75.6592491042
 20
94.8657604371
 30
0.0
 11
75.6592491042
 21
94.8672840809
 31
0.0
  0
SPLINE
  5
1EB
330
1F
100
AcDbEntity
  8
0
  6
Continuous
 62
     7
370
    25
100
AcDbSpline
210
0.0
220
0.0
230
1.0
 70
     8
 71
     3
 72
    55
 73
    51
 74
     0
 42
0.000000001
 43
0.00000001
 40
0.0
 40
0.0
 40
0.0
 40
0.0
 40
0.0193016770280485
 40
0.0383108727049343
 40
0.0570275877460655
 40
0.075451822917337
 40
0.0935835790381261
 40
0.111422856984544
 40
0.1289696576929537
 40
0.1462239821637727
 40
0.1631858314656288
 40
0.1798552067398567
 40
0.1962321092054131
 40
0.2123165401642282
 40
0.2281085010070521
 40
0.2436079932198679
 40
0.2588150183908971
 40
0.2737295782183177
 40
0.2883516745187285
 40
0.3026813092365017
 40
0.3167184844540926
 40
0.3304632024034415
 40
0.3439154654786475
 40
0.357075276250003
 40
0.3699426374796606
 40
0.3825175521391067
 40
0.3948000234287093
 40
0.4067900547996622
 40
0.4184876499786637
 40
0.4298928129957572
 40
0.4410055482158415
 40
0.4518258603744246
 40
0.4623537546183587
 40
0.4725892365523758
 40
0.4825323122924773
 40
0.4921829885273976
 40
0.5015412725896702
 40
0.543584593000086
 40
0.5850094980977514
 40
0.6258163959943559
 40
0.6660057137691825
 40
0.7055778986376795
 40
0.7445334192104123
 40
0.782872766850775
 40
0.8205964571407762
 40
0.8577050314652257
 40
0.8941990587258045
 40
0.9300791371978131
 40
0.9653458965437938
 40
1.0
 40
1.0
 40
1.0
 40
1.0
 10
107.659248798138
 20
99.41807369461117
 30
0.0
 10
107.5388552024696
 20
99.24075932854547
 30
0.0
 10
107.2998923542444
 20
98.88881746892218
 30
0.0
 10
106.9339331172001
 20
98.37208977251413
 30
0.0
 10
106.5664570099789
 20
97.86853114719338
 30
0.0
 10
106.1971713375825
 20
97.37849436718318
 30
0.0
 10
105.8266990260293
 20
96.9016940260418
 30
0.0
 10
105.4554084246894
 20
96.4380024605805
 30
0.0
 10
105.0837196179518
 20
95.98724218045706
 30
0.0
 10
104.7120243726822
 20
95.54924088169979
 30
0.0
 10
104.3407071741447
 20
95.12381775209806
 30
0.0
 10
103.9701398470463
 20
94.71078772376042
 30
0.0
 10
103.6006830981453
 20
94.30996101541456
 30
0.0
 10
103.232686266432
 20
93.92114388613415
 30
0.0
 10
102.8664875562235
 20
93.54413905346584
 30
0.0
 10
102.502414157851
 20
93.17874617998844
 30
0.0
 10
102.1407824102137
 20
92.82476232293146
 30
0.0
 10
101.7818979638687
 20
92.48198237446675
 30
0.0
 10
101.4260559543857
 20
92.15019948562627
 30
0.0
 10
101.0735411824176
 20
91.82920547586912
 30
0.0
 10
100.7246283004318
 20
91.51879122798317
 30
0.0
 10
100.3795820051697
 20
91.21874706864277
 30
0.0
 10
100.0386572351649
 20
90.92886313480132
 30
0.0
 10
99.70209937261602
 20
90.64892972615601
 30
0.0
 10
99.37014444894996
 20
90.37873764392695
 30
0.0
 10
99.04301935343886
 20
90.11807851620607
 30
0.0
 10
98.72094204424292
 20
89.86674511015357
 30
0.0
 10
98.40412176133906
 20
89.62453163129008
 30
0.0
 10
98.09275924059166
 20
89.39123401028695
 30
0.0
 10
97.7870469290712
 20
89.16665017714146
 30
0.0
 10
97.48716919878086
 20
88.95058032451422
 30
0.0
 10
97.19330256663908
 20
88.7428271552413
 30
0.0
 10
96.90561589032862
 20
88.54319613332909
 30
0.0
 10
96.62427064675957
 20
88.35149567068643
 30
0.0
 10
96.34942090907957
 20
88.16753749348995
 30
0.0
 10
96.08121439316284
 20
87.99113631781665
 30
0.0
 10
95.5127137850272
 20
87.62357176093
 30
0.0
 10
94.63647963680094
 20
87.08293815100596
 30
0.0
 10
93.43920691554314
 20
86.39981686652415
 30
0.0
 10
92.2375687252207
 20
85.76715736773893
 30
0.0
 10
91.03385066062225
 20
85.18390412548571
 30
0.0
 10
89.83020528633551
 20
84.64891322154486
 30
0.0
 10
88.62868265009601
 20
84.1609731763169
 30
0.0
 10
87.43122124246355
 20
83.71881646343934
 30
0.0
 10
86.23965556255995
 20
83.32109890515356
 30
0.0
 10
85.05569888054997
 20
82.96651172199473
 30
0.0
 10
83.8810090969343
 20
82.65340476246469
 30
0.0
 10
82.7169559765134
 20
82.38118872814334
 30
0.0
 10
81.56547566546666
 20
82.14526302163358
 30
0.0
 10
80.79909674587283
 20
82.01762937580855
 30
0.0
 10
80.41926484303438
 20
81.95437172437731
 30
0.0
  0
SPLINE
  5
1EC
330
1F
100
AcDbEntity
  8
0
  6
Continuous
 62
     7
370
    25
100
AcDbSpline
210
0.0
220
0.0
230
1.0
 70
     8
 71
     3
 72
    31
 73
    27
 74
     0
 42
0.000000001
 43
0.00000001
 40
0.0
 40
0.0
 40
0.0
 40
0.0
 40
0.0190824983180828
 40
0.0381549618945445
 40
0.057222391055687
 40
0.0762897900885602
 40
0.0953621633039292
 40
0.1144445110991487
 40
0.1335418260364121
 40
0.1526590889516991
 40
0.1718012651094742
 40
0.1909733004177628
 40
0.2101801177176991
 40
0.229426613160971
 40
0.2487176526878224
 40
0.3736582059863226
 40
0.498436416092752
 40
0.6233970427986303
 40
0.7489763482073712
 40
0.7850081115347535
 40
0.8209313293550382
 40
0.8567767278238876
 40
0.8925752334765165
 40
0.928357894435084
 40
0.964155800048877
 40
1.0
 40
1.0
 40
1.0
 40
1.0
 10
80.41936691059435
 20
82.44924097416495
 30
0.0
 10
80.62983090548074
 20
82.48358808516565
 30
0.0
 10
81.05064822044703
 20
82.552264245361
 30
0.0
 10
81.67941527248283
 20
82.66826255936837
 30
0.0
 10
82.3060864571405
 20
82.79372138475952
 30
0.0
 10
82.93050519621798
 20
82.92957454643276
 30
0.0
 10
83.5527132694422
 20
83.07557185566364
 30
0.0
 10
84.1726993238064
 20
83.23178031379605
 30
0.0
 10
84.79046623380617
 20
83.39818189007079
 30
0.0
 10
85.40601312442759
 20
83.57478139145826
 30
0.0
 10
86.01933990579867
 20
83.76157730470707
 30
0.0
 10
86.63044712830465
 20
83.95857049671481
 30
0.0
 10
87.23933201616583
 20
84.1657585934716
 30
0.0
 10
87.84600452528291
 20
84.38314979122465
 30
0.0
 10
89.55321448676523
 20
85.02590947251872
 30
0.0
 10
92.29922265902022
 20
86.25158631849528
 30
0.0
 10
95.9200774285113
 20
88.35127263723192
 30
0.0
 10
99.30778826261813
 20
90.82096904420847
 30
0.0
 10
101.6834403643334
 20
92.96826222074239
 30
0.0
 10
103.2178317085698
 20
94.54988464919707
 30
0.0
 10
104.0295875335776
 20
95.43750668796534
 30
0.0
 10
104.8130445354409
 20
96.34695738407527
 30
0.0
 10
105.5684230859957
 20
97.27812911381253
 30
0.0
 10
106.2949934179897
 20
98.2314910066598
 30
0.0
 10
106.9954438017902
 20
99.20526209969482
 30
0.0
 10
107.4378853657683
 20
99.8718608752718
 30
0.0
 10
107.6592490981833
 20
100.2053756374434
 30
0.0
  0
LINE
  5
1ED
330
1F
100
AcDbEntity
  8
0
  6
Continuous
 62
     7
370
    25
100
AcDbLine
 10
107.6592506241
 20
100.2060385858
 30
0.0
 11
107.6592506241
 21
99.4174672728
 31
0.0
  0
LINE
  5
1EE
330
1F
100
AcDbEntity
  8
0
  6
Continuous
 62
     7
370
    25
100
AcDbLine
 10
80.4192490276
 20
93.5809264396
 30
0.0
 11
77.9192490835
 21
93.5537616228
 31
0.0
  0
LINE
  5
1EF
330
1F
100
AcDbEntity
  8
0
  6
Continuous
 62
     7
370
    25
100
AcDbLine
 10
77.9192490835
 20
93.5537616228
 30
0.0
 11
75.9592491184
 21
93.7759044086
 31
0.0
  0
LINE
  5
1F0
330
1F
100
AcDbEntity
  8
0
  6
Continuous
 62
     7
370
    25
100
AcDbLine
 10
75.9592491184
 20
93.7759044086
 30
0.0
 11
75.9592491184
 21
119.107365745
 31
0.0
  0
LINE
  5
1F1
330
1F
100
AcDbEntity
  8
0
  6
Continuous
 62
     7
370
    25
100
AcDbLine
 10
107.6592506241
 20
117.7291699191
 30
0.0
 11
75.9592491184
 21
119.107365745
 31
0.0
  0
LINE
  5
1F2
330
1F
100
AcDbEntity
  8
0
  6
Continuous
 62
     7
370
    25
100
AcDbLine
 10
107.6592506241
 20
100.2053754841
 30
0.0
 11
107.6592506241
 21
117.7291699191
 31
0.0
  0
LINE
  5
1F3
330
1F
100
AcDbEntity
  8
0
  6
Continuous
 62
     7
370
    25
100
AcDbLine
 10
80.4192490276
 20
93.5809264396
 30
0.0
 11
80.4192490276
 21
93.2438658987
 31
0.0
  0
LINE
  5
1F4
330
1F
100
AcDbEntity
  8
0
  6
Continuous
 62
     7
370
    25
100
AcDbLine
 10
107.6592506241
 20
117.7291699191
 30
0.0
 11
107.6592506241
 21
125.9765351628
 31
0.0
  0
ELLIPSE
  5
1F5
330
1F
100
AcDbEntity
  8
0
  6
Continuous
 62
     7
370
    25
100
AcDbEllipse
 10
69.9592491042
 20
151.4660259054
 30
0.0
 11
-1.633816617457427
 21
8.594832069372615
 31
0.0
210
0.0
220
0.0
230
1.0
 40
0.6717140804
 41
4.43660355159694
 42
5.341893471400076
  0
ARC
  5
1F6
330
1F
100
AcDbEntity
  8
0
  6
Continuous
 62
     7
370
    25
100
AcDbCircle
 10
75.6592491042
 20
125.9765351628
 30
0.0
 40
31.50000000000001
100
AcDbArc
 50
47.0671944968
 51
93.631627135
  0
SPLINE
  5
1F7
330
1F
100
AcDbEntity
  8
0
  6
Continuous
 62
     7
370
    25
100
AcDbSpline
210
0.0
220
0.0
230
1.0
 70
     8
 71
     3
 72
    12
 73
     8
 74
     0
 42
0.000000001
 43
0.00000001
 40
0.0
 40
0.0
 40
0.0
 40
0.0
 40
0.250000000000001
 40
0.250000000000001
 40
0.500000000000002
 40
0.500000000000002
 40
1.0
 40
1.0
 40
1.0
 40
1.0
 10
99.78917443556432
 20
147.1546067414548
 30
0.0
 10
99.53628139542296
 20
147.2761290244043
 30
0.0
 10
99.29525512213105
 20
147.4130295392574
 30
0.0
 10
98.82574141678421
 20
147.7030797470921
 30
0.0
 10
98.5971735280745
 20
147.8569659182779
 30
0.0
 10
97.9294286968662
 20
148.3356172481584
 30
0.0
 10
97.50728741534239
 20
148.6745540628764
 30
0.0
 10
97.11516493419491
 20
149.0393553697018
 30
0.0
  0
LINE
  5
1F8
330
1F
100
AcDbEntity
  8
0
  6
Continuous
 62
     7
370
    25
100
AcDbLine
 10
99.6157882135
 20
147.1917225485
 30
0.0
 11
99.7891743999
 21
147.1546074812
 31
0.0
  0
ARC
  5
1F9
330
1F
100
AcDbEntity
  8
0
  6
Continuous
 62
     7
370
    25
100
AcDbCircle
 10
75.6592491042
 20
125.9765351628
 30
0.0
 40
32.0
100
AcDbArc
 50
0.0
 51
41.5271309406
  0
LINE
  5
1FA
330
1F
100
AcDbEntity
  8
0
  6
Continuous
 62
     7
370
    25
100
AcDbLine
 10
75.9592491184
 20
119.107365745
 30
0.0
 11
75.9592491184
 21
150.1816163276
 31
0.0
  0
SPLINE
  5
1FB
330
1F
100
AcDbEntity
  8
0
  6
Continuous
 62
     7
370
    25
100
AcDbSpline
210
0.0
220
0.0
230
1.0
 70
     8
 71
     3
 72
     9
 73
     5
 74
     0
 42
0.000000001
 43
0.00000001
 40
0.0
 40
0.0
 40
0.0
 40
0.0
 40
0.6518675607087194
 40
1.0
 40
1.0
 40
1.0
 40
1.0
 10
75.47078145839883
 20
94.47709717500527
 30
0.0
 10
75.51909112351909
 20
94.46997842805047
 30
0.0
 10
75.59320075564705
 20
94.45905788623507
 30
0.0
 10
75.64219323339712
 20
94.35675893178902
 30
0.0
 10
75.65924910418317
 20
94.32114534724076
 30
0.0
  0
SPLINE
  5
1FC
330
1F
100
AcDbEntity
  8
0
  6
Continuous
 62
     7
370
    25
100
AcDbSpline
210
0.0
220
0.0
230
1.0
 70
     8
 71
     3
 72
    14
 73
    10
 74
     0
 42
0.000000001
 43
0.00000001
 40
0.0
 40
0.0
 40
0.0
 40
0.0
 40
0.2499999999999999
 40
0.2499999999999999
 40
0.4999999999999998
 40
0.4999999999999998
 40
0.7499999999999999
 40
0.7499999999999999
 40
1.0
 40
1.0
 40
1.0
 40
1.0
 10
71.51216337479902
 20
94.75071764023498
 30
0.0
 10
71.94904150243312
 20
94.69269606730798
 30
0.0
 10
72.36575991102518
 20
94.64664949585958
 30
0.0
 10
73.1593947369931
 20
94.57335801283877
 30
0.0
 10
73.5389191174633
 20
94.54612830553886
 30
0.0
 10
74.21981039500714
 20
94.50759347948187
 30
0.0
 10
74.52666677595394
 20
94.49574840098666
 30
0.0
 10
75.06564102601364
 20
94.4809750420066
 30
0.0
 10
75.29057357125515
 20
94.47817719932034
 30
0.0
 10
75.47078145712837
 20
94.47709897823626
 30
0.0
  0
SPLINE
  5
1FD
330
1F
100
AcDbEntity
  8
0
  6
Continuous
 62
     7
370
    25
100
AcDbSpline
210
0.0
220
0.0
230
1.0
 70
     8
 71
     3
 72
    10
 73
     6
 74
     0
 42
0.000000001
 43
0.00000001
 40
0.0
 40
0.0
 40
0.0
 40
0.0
 40
0.5
 40
0.5
 40
1.0
 40
1.0
 40
1.0
 40
1.0
 10
73.66399442669096
 20
157.4132805218945
 30
0.0
 10
73.34797062951034
 20
157.3932228488651
 30
0.0
 10
73.00520174966294
 20
157.366640411529
 30
0.0
 10
72.28005868603557
 20
157.2968759496468
 30
0.0
 10
71.90316232413882
 20
157.254281066822
 30
0.0
 10
71.51216337479902
 20
157.2023526853844
 30
0.0
  0
ARC
  5
1FE
330
1F
100
AcDbEntity
  8
0
  6
Continuous
 62
     7
370
    25
100
AcDbCircle
 10
75.6592491042
 20
125.9765351628
 30
0.0
 40
32.10551373655938
100
AcDbArc
 50
355.3535493072
 51
41.2724003601
  0
ELLIPSE
  5
1FF
330
1F
100
AcDbEntity
  8
0
  6
Continuous
 62
     7
370
    25
100
AcDbEllipse
 10
63.4443373276
 20
108.4116762031
 30
0.0
 11
-2.156649216542128
 21
3.1490354529775
 31
0.0
210
0.0
220
0.0
230
1.0
 40
0.6401414518
 41
0.0
 42
6.283185307179586
  0
ARC
  5
200
330
1F
100
AcDbEntity
  8
0
  6
Continuous
 62
     7
370
    25
100
AcDbCircle
 10
75.6592491042
 20
125.9765351628
 30
0.0
 40
31.50000000000003
100
AcDbArc
 50
97.5651530928
 51
262.4348469072
  0
CIRCLE
  5
201
330
1F
100
AcDbEntity
  8
VERMASSUNG
  6
CENTERX2
100
AcDbCircle
 10
75.6592491042
 20
121.0275004259
 30
0.0
 40
39.99999999999999
  0
DIMENSION
  5
202
330
1F
100
AcDbEntity
  8
VERMASSUNG
100
AcDbDimension
  2
_D_5
 10
97.5464043986
 20
154.5156848092
 30
0.0
 11
103.7887637172
 21
163.7056486751
 31
0.0
 70
   160
  1
%%c<> min. 
 71
     2
 42
-1.0
  3
SLDDIMSTYLE3
100
AcDbAlignedDimension
 13
53.1836327392
 23
87.9390331146
 33
0.0
 14
98.1348654692
 24
154.1159677372
 34
0.0
 50
55.813366796
100
AcDbRotatedDimension
  0
INSERT
  5
21C
330
1F
100
AcDbEntity
  8
VERMASSUNG
100
AcDbBlockReference
  2
SW_CENTERMARKSYMBOL_0
 10
75.6592491042
 20
125.9765351628
 30
0.0
  0
LINE
  5
21D
330
1F
100
AcDbEntity
  8
VERMASSUNG
  6
CENTERX2
370
    18
100
AcDbLine
 10
73.6592491042
 20
94.4672832876
 30
0.0
 11
80.9169876754
 21
94.4672832876
 31
0.0
  0
LINE
  5
21E
330
1F
100
AcDbEntity
  8
VERMASSUNG
  6
CENTERX2
370
    18
100
AcDbLine
 10
73.6592491042
 20
81.3765351628
 30
0.0
 11
80.9169876754
 21
81.3765351628
 31
0.0
  0
OLE2FRAME
  5
21F
330
1F
100
AcDbEntity
  8
0
100
AcDbOle2Frame
 70
     2
  3
Paintbrush-Bild
 10
13.8511154363
 20
38.264191557
 30
0.0
 11
51.6290888628
 21
31.9806341108
 31
0.0
 71
     2
 72
     0
 73
     1
 90
    12928
310
80552BED0767C5B32B40DDAF6807D121434000000000000000006FFBDDFB85D0
310
4940DDAF6807D121434000000000000000006FFBDDFB85D04940416F4BD60AFB
310
3F4000000000000000002BED0767C5B32B40416F4BD60AFB3F40000000000000
310
0000000000000100000000010000010000000100000000000100000000320000
310
D0CF11E0A1B11AE1000000000000000000000000000000003E000300FEFF0900
310
0600000000000000000000000100000001000000000000000010000002000000
310
01000000FEFFFFFF0000000000000000FFFFFFFFFFFFFFFFFFFFFFFFFFFFFFFF
310
FFFFFFFFFFFFFFFFFFFFFFFFFFFFFFFFFFFFFFFFFFFFFFFFFFFFFFFFFFFFFFFF
310
FFFFFFFFFFFFFFFFFFFFFFFFFFFFFFFFFFFFFFFFFFFFFFFFFFFFFFFFFFFFFFFF
310
FFFFFFFFFFFFFFFFFFFFFFFFFFFFFFFFFFFFFFFFFFFFFFFFFFFFFFFFFFFFFFFF
310
FFFFFFFFFFFFFFFFFFFFFFFFFFFFFFFFFFFFFFFFFFFFFFFFFFFFFFFFFFFFFFFF
310
FFFFFFFFFFFFFFFFFFFFFFFFFFFFFFFFFFFFFFFFFFFFFFFFFFFFFFFFFFFFFFFF
310
FFFFFFFFFFFFFFFFFFFFFFFFFFFFFFFFFFFFFFFFFFFFFFFFFFFFFFFFFFFFFFFF
310
FFFFFFFFFFFFFFFFFFFFFFFFFFFFFFFFFFFFFFFFFFFFFFFFFFFFFFFFFFFFFFFF
310
FFFFFFFFFFFFFFFFFFFFFFFFFFFFFFFFFFFFFFFFFFFFFFFFFFFFFFFFFFFFFFFF
310
FFFFFFFFFFFFFFFFFFFFFFFFFFFFFFFFFFFFFFFFFFFFFFFFFFFFFFFFFFFFFFFF
310
FFFFFFFFFFFFFFFFFFFFFFFFFFFFFFFFFFFFFFFFFFFFFFFFFFFFFFFFFFFFFFFF
310
FFFFFFFFFFFFFFFFFFFFFFFFFFFFFFFFFFFFFFFFFFFFFFFFFFFFFFFFFFFFFFFF
310
FFFFFFFFFFFFFFFFFFFFFFFFFFFFFFFFFFFFFFFFFFFFFFFFFFFFFFFFFFFFFFFF
310
FFFFFFFFFFFFFFFFFFFFFFFFFFFFFFFFFFFFFFFFFFFFFFFFFFFFFFFFFFFFFFFF
310
FDFFFFFFFEFFFFFFFEFFFFFFFEFFFFFF05000000060000000700000008000000
310
090000000A0000000B0000000C0000000D0000000E0000000F00000010000000
310
11000000120000001300000014000000150000001600000017000000FEFFFFFF
310
FFFFFFFFFFFFFFFFFFFFFFFFFFFFFFFFFFFFFFFFFFFFFFFFFFFFFFFFFFFFFFFF
310
FFFFFFFFFFFFFFFFFFFFFFFFFFFFFFFFFFFFFFFFFFFFFFFFFFFFFFFFFFFFFFFF
310
FFFFFFFFFFFFFFFFFFFFFFFFFFFFFFFFFFFFFFFFFFFFFFFFFFFFFFFFFFFFFFFF
310
FFFFFFFFFFFFFFFFFFFFFFFFFFFFFFFFFFFFFFFFFFFFFFFFFFFFFFFFFFFFFFFF
310
FFFFFFFFFFFFFFFFFFFFFFFFFFFFFFFFFFFFFFFFFFFFFFFFFFFFFFFFFFFFFFFF
310
FFFFFFFFFFFFFFFFFFFFFFFFFFFFFFFFFFFFFFFFFFFFFFFFFFFFFFFFFFFFFFFF
310
FFFFFFFFFFFFFFFFFFFFFFFFFFFFFFFFFFFFFFFFFFFFFFFFFFFFFFFFFFFFFFFF
310
FFFFFFFFFFFFFFFFFFFFFFFFFFFFFFFFFFFFFFFFFFFFFFFFFFFFFFFFFFFFFFFF
310
FFFFFFFFFFFFFFFFFFFFFFFFFFFFFFFFFFFFFFFFFFFFFFFFFFFFFFFFFFFFFFFF
310
FFFFFFFFFFFFFFFFFFFFFFFFFFFFFFFFFFFFFFFFFFFFFFFFFFFFFFFFFFFFFFFF
310
FFFFFFFFFFFFFFFFFFFFFFFFFFFFFFFFFFFFFFFFFFFFFFFFFFFFFFFFFFFFFFFF
310
FFFFFFFFFFFFFFFFFFFFFFFFFFFFFFFFFFFFFFFFFFFFFFFFFFFFFFFFFFFFFFFF
310
FFFFFFFFFFFFFFFFFFFFFFFFFFFFFFFFFFFFFFFFFFFFFFFFFFFFFFFFFFFFFFFF
310
52006F006F007400200045006E00740072007900000000000000000000000000
310
0000000000000000000000000000000000000000000000000000000000000000
310
16000500FFFFFFFFFFFFFFFF020000000A00030000000000C000000000000046
310
000000000000000000000000B0BA87F90CA0D30103000000C000000000000000
310
01004F006C006500000000000000000000000000000000000000000000000000
310
0000000000000000000000000000000000000000000000000000000000000000
310
0A000200FFFFFFFFFFFFFFFFFFFFFFFF00000000000000000000000000000000
310
0000000000000000000000000000000000000000000000001400000000000000
310
010043006F006D0070004F0062006A0000000000000000000000000000000000
310
0000000000000000000000000000000000000000000000000000000000000000
310
120002010100000003000000FFFFFFFF00000000000000000000000000000000
310
0000000000000000000000000000000000000000010000004D00000000000000
310
01004F006C006500310030004E00610074006900760065000000000000000000
310
0000000000000000000000000000000000000000000000000000000000000000
310
1A000200FFFFFFFFFFFFFFFFFFFFFFFF00000000000000000000000000000000
310
0000000000000000000000000000000000000000040000002426000000000000
310
FEFFFFFF02000000FEFFFFFFFFFFFFFFFFFFFFFFFFFFFFFFFFFFFFFFFFFFFFFF
310
FFFFFFFFFFFFFFFFFFFFFFFFFFFFFFFFFFFFFFFFFFFFFFFFFFFFFFFFFFFFFFFF
310
FFFFFFFFFFFFFFFFFFFFFFFFFFFFFFFFFFFFFFFFFFFFFFFFFFFFFFFFFFFFFFFF
310
FFFFFFFFFFFFFFFFFFFFFFFFFFFFFFFFFFFFFFFFFFFFFFFFFFFFFFFFFFFFFFFF
310
FFFFFFFFFFFFFFFFFFFFFFFFFFFFFFFFFFFFFFFFFFFFFFFFFFFFFFFFFFFFFFFF
310
FFFFFFFFFFFFFFFFFFFFFFFFFFFFFFFFFFFFFFFFFFFFFFFFFFFFFFFFFFFFFFFF
310
FFFFFFFFFFFFFFFFFFFFFFFFFFFFFFFFFFFFFFFFFFFFFFFFFFFFFFFFFFFFFFFF
310
FFFFFFFFFFFFFFFFFFFFFFFFFFFFFFFFFFFFFFFFFFFFFFFFFFFFFFFFFFFFFFFF
310
FFFFFFFFFFFFFFFFFFFFFFFFFFFFFFFFFFFFFFFFFFFFFFFFFFFFFFFFFFFFFFFF
310
FFFFFFFFFFFFFFFFFFFFFFFFFFFFFFFFFFFFFFFFFFFFFFFFFFFFFFFFFFFFFFFF
310
FFFFFFFFFFFFFFFFFFFFFFFFFFFFFFFFFFFFFFFFFFFFFFFFFFFFFFFFFFFFFFFF
310
FFFFFFFFFFFFFFFFFFFFFFFFFFFFFFFFFFFFFFFFFFFFFFFFFFFFFFFFFFFFFFFF
310
FFFFFFFFFFFFFFFFFFFFFFFFFFFFFFFFFFFFFFFFFFFFFFFFFFFFFFFFFFFFFFFF
310
FFFFFFFFFFFFFFFFFFFFFFFFFFFFFFFFFFFFFFFFFFFFFFFFFFFFFFFFFFFFFFFF
310
FFFFFFFFFFFFFFFFFFFFFFFFFFFFFFFFFFFFFFFFFFFFFFFFFFFFFFFFFFFFFFFF
310
FFFFFFFFFFFFFFFFFFFFFFFFFFFFFFFFFFFFFFFFFFFFFFFFFFFFFFFFFFFFFFFF
310
0100000200000000000000000000000000000000000000000000000000000000
310
0000000000000000000000000000000000000000000000000000000000000000
310
0100FEFF030A0000FFFFFFFF0A00030000000000C00000000000004607000000
310
5042727573680007000000504272757368000700000050427275736800F439B2
310
7100000000000000000000000000000000000000000000000000000000000000
310
0000000000000000000000000000000000000000000000000000000000000000
310
0000000000000000000000000000000000000000000000000000000000000000
310
0000000000000000000000000000000000000000000000000000000000000000
310
0000000000000000000000000000000000000000000000000000000000000000
310
0000000000000000000000000000000000000000000000000000000000000000
310
0000000000000000000000000000000000000000000000000000000000000000
310
0000000000000000000000000000000000000000000000000000000000000000
310
0000000000000000000000000000000000000000000000000000000000000000
310
0000000000000000000000000000000000000000000000000000000000000000
310
0000000000000000000000000000000000000000000000000000000000000000
310
0000000000000000000000000000000000000000000000000000000000000000
310
20260000424D0E260000000000003E00000028000000B40200006E0000000100
310
01000000000000000000130B0000130B00000200000002000000000000FFFFFF
310
FFFFFFFFFFFFFFFFFFFFFFFFFFFFFFFFFFFFFFFFFFFFFFFFFFFFFFFFFFFFFFFF
310
FFFFFFFFFFFFFFFFFFFFFFFFFFFFFFFFFFFFFFFFFFFFFFFFFFFFFFFFFFFFFFFF
310
FFFFFFFFFFFFFFFFFFFFFFFFFFFFFFFFFFFFFFFFFFFFFFFFF000FFFFFFFFFFFF
310
FFFFFFFFFFFFFFFFFFFFFFFFFFFFFFFFFFFFFFFFFFFFFFFFFFFFFFFFFFFFFFFF
310
FFFFFFFFFFFFFFFFFFFFFFFFFFFFFFFFFFFFFFFFFFFFFFFFFFFFFFFFFFFFFFFF
310
FFFFFFFFFFFFFFFFFFFFFFFFFFFFFFFFF000FFFFFFFFFFFFFFFFFFFFFFFFFFFF
310
FFFFFFFFFFFFFFFFFFFFFFFFFFFFFFFFFFFFFFFFFFFFFFFFFFFFFFFFFFFFFFFF
310
FFFFFFFFFFFFFFFFFFFFFFFFFFFFFFFFFFFFFFFFFFFFFFFFFFFFFFFFFFFFFFFF
310
FFFFFFFFFFFFFFFFF000FFFFFFFFFFFFFFFFFFFFFFFFFFFFFFFFFFFFFFFFFFFF
310
FFFFFFFFFFFFFFFFFFFFFFFFFFFFFFFFFFFFFFFFFFFFFFFFFFFFFFFFFFFFFFFF
310
FFFFFFFFFFFFFFFFFFFFFFFFFFFFFFFFFFFFFFFFFFFFFFFFFFFFFFFFFFFFFFFF
310
F000FFFFFFFFFFFFFFFFFFFFFFFFFFFFFFFFFFFFFFFFFFFFFFFFFFFFFFFFFFFF
310
FFFFFFFFFFFFFFFFFFFFFFFFFFFFFFFFFFFFFFFFFFFFFFFFFFFFFFFFFFFFFFFF
310
FFFFFFFFFFFFFFFFFFFFFFFFFFFFFFFFFFFFFFFFFFFFFFFFF000FFFFFFFFFFFF
310
FFFFFFFFFFFFFFFFFFFFFFFFFFFFFFFFFFFFFFFFFFFFFFFFFFFFFFFFFFFFFFFF
310
FFFFFFFFFFFFFFFFFFFFFFFFFFFFFFFFFFFFFFFFFFFFFFFFFFFFFFFFFFFFFFFF
310
FFFFFFFFFFFFFFFFFFFFFFFFFFFFFFFFF000FFFFFFFFFFFFFFFFFFFFFFFFFFFF
310
FFFFFFFFFFFFFFFFFFFFFFFFFFFFFFFFFFFFFFFFFFFFFFFFFFFFFFFFFFFFFFFF
310
FFFFFFFFFFFFFFFFFFFFFFFFFFFFFFFFFFFFFFFFFFFFFFFFFFFFFFFFFFFFFFFF
310
FFFFFFFFFFFFFFFFF000FFFFFFFFFFFFFFFFFFFFFFFFFFFFFFFFFFFFFFFFFFFF
310
FFFFFFFFFFFFFFFFFFFFFFFFFFFFFFFFFFFFFFFFFFFFFFFFFFFFFFFFFFFFFFFF
310
FFFFFFFFFFFFFFFFFFFFFFFFFFFFFFFFFFFFFFFFFFFFFFFFFFFFFFFFFFFFFFFF
310
F000FFFFFFFFFFFFFFFFFFFFFFFFFFFFFFFFFFFFFFFFFFFFFFFFFFFFFFFFFFFF
310
FFFFFFFFFFFFFFFFFFFFFFFFFFFFFFFFFFFFFFFFFFFFFFFFFFFFFFFFFFFFFFFF
310
FFFFFFFFFFFFFFFFFFFFFFFFFFFFFFFFFFFFFFFFFFFFFFFFF000FFFFFFFFFFFF
310
FFFFFFFFFFFFFFFFFFFFFFFFFFFFFFFFFFFFFFFFFFFFFFFFFFFFFFFFFFFFFFFF
310
FFFFFFFFFFFFFFFFFFFFFFFFFFFFFFFFFFFFFFFFFFFFFFFFFFFFFFFFFFFFFFFF
310
FFFFFFFFFFFFFFFFFFFFFFFFFFFFFFFFF000FFFFFFFFFFFFFFFFFFFFFFFFFFFF
310
FFFFFFFFFFFFFFFFFFFFFFFFFFFFFFFFFFFFFFFFFFFFFFFFFFFFFFFFFFFFFFFF
310
FFFFFFFFFFFFFFFFFFFFFFFFFFFFFFFFFFFFFFFFFFFFFFFFFFFFFFFFFFFFFFFF
310
FFFFFFFFFFFFFFFFF000FFFFFFFFFFFFFFFFFFFFFFFFFFFFFFFFFFFFFFFFFFFF
310
FFFFFFFFFFFFFFFFFFFFFFFFFFFFFFFFFFFFFFFFFFFFFFFFFFFFFFFFFFFFFFFF
310
FFFFFFFFFFFFFFFFFFFFFFFFFFFFFFFFFFFFFFFFFFFFFFFFFFFFFFFFFFFFFFFF
310
F000FFFFFFFFFFFFFFFFFFFFFFFFFFFFFFFFFFFFFFFFFFFFFFFFFFFFFFFFFFFF
310
FFFFFFFFFFFFFFFFFFFFFFFFFFFFFFFFFFFFFFFFFFFFFFFFFFFFFFFFFFFFFFFF
310
FFFFFFFFFFFFFFFFFFFFFFFFFFFFFFFFFFFFFFFFFFFFFFFFF000FFFFFFFFFFFF
310
FFFFFFFFFFFFFFFFFFFFFFFFFFFFFFFFFFFFFFFFFFFFFFFFFFFFFFFFFFFFFFFF
310
FFFFFFFFFFFFFFFFFFFFFFFFFFFFFFFFFFFFFFFFFFFFFFFFFFFFFFFFFFFFFFFF
310
FFFFFFFFFFFFFFFFFFFFFFFFFFFFFFFFF000FFFFFFFFFFFFFFFFFFFFFFFFFFFF
310
FFFFFFFFFFFFFFFFFFFFFFFFFFFFFFFFFFFFFFFFFFFFFFFFFFFFFFFFFFFFFFFF
310
FFFFFFFFFFFFFFFFFFFFFFFFFFFFFFFFFFFFFFFFFFFFFFFFFFFFFFFFFFFFFFFF
310
FFFFFFFFFFFFFFFFF000FFFFFFFFFFFFFFFFFFFFFFFFFFFFFFFFFFFFFFFFFFFF
310
FFFFFFFFFFFFFFFFFFFFFFFFFFFFFFFFFFFFFFFFFFFFFFFFFFFFFFFFFFFFFFFF
310
FFFFFFFFFFFFFFFFFFFFFFFFFFFFFFFFFFFFFFFFFFFFFFFFFFFFFFFFFFFFFFFF
310
F000FFFFFFFFFFFFFFFFFFFFFFFFFFFFFFFFFFFFFFFFFFFFFFFFFFFFFFFFFFFF
310
FFFFFFFFFFFFFFFFFFFFFFFFFFFFFFFFFFFFFFFFFFFFFFFFFFFFFFFFFFFFFFFF
310
FFFFFFFFFFFFFFFFFFFFFFFFFFFFFFFFFFFFFFFFFFFFFFFFF000FFFFFFFFFFFF
310
FFFFFFFFFFFFFFFFFFFFFFFFFFFFFFFFFFFFFFFFFFFFFFFFFFFFFFFFFFFFFFFF
310
FFFFFFFFFFFFFFFFFFFFFFFFFFFFFFFFFFFFFFFFFFFFFFFFFFFFFFFFFFFFFFFF
310
FFFFFFFFFFFFFFFFFFFFFFFFFFFFFFFFF000FFFFFFFFFFFFFFFFFFFFFFFFFFFF
310
FFFFFFFFFFFFFFFFFFFFFFFFFFFFFFFFFFFFFFFFFFFFFFFFFFFFFFFFFFFFFFFF
310
FFFFFFFFFFFFFFFFFFFFFFFFFFFFFFFFFFFFFFFFFFFFFFFFFFFFFFFFFFFFFFFF
310
FFFFFFFFFFFFFFFFF000FFFFF80003FFFFFFFFFFFFFFFFFFFFFFFFFFFFFFFFFF
310
FFFFF00007FFFFFFFFFF00007FFFFFF800000000000000007FFFFFFFFFFFFFFF
310
FFFFFFFC001FFFFFFFFFFFFFFC001FFFFFFFFFFFFFFFFFFFFFFFFFFE0007FFFF
310
F000FFFF8000007FFFFFFFF8000FFFFFC0007FFFFF80007FFFFF0000007FFFFF
310
FFF8000007FFFFF800000000000000007FFFFFF0001FFFFFFFFFFFC00001FFFF
310
FFFFFFFFC00001FFFFFFFF000000000003FFFFE000007FFFF000FFFE0000000F
310
FFFFFFF0000FFFFF80007FFFFF80007FFFFC0000001FFFFFFFC0000001FFFFF8
310
00000000000000007FFFFFF0001FFFFFFFFFFE0000003FFFFFFFFFFE0000003F
310
FFFFFF000000000003FFFF0000000FFFF000FFF800000003FFFFFFF00007FFFF
310
80007FFFFF80007FFFF000000007FFFFFF000000003FFFF80000000000000000
310
7FFFFFF0001FFFFFFFFFF80000000FFFFFFFFFF80000000FFFFFFF0000000000
310
03FFFC00000003FFF000FFE000000000FFFFFFF00007FFFF80003FFFFF80007F
310
FFC000000001FFFFFC000000001FFFF800000000000000007FFFFFF0001FFFFF
310
FFFFE000000003FFFFFFFFE000000003FFFFFF000000000003FFF000000000FF
310
F000FF80000000007FFFFFF00007FFFF80003FFFFF80007FFF8000000000FFFF
310
F80000000007FFF800000000000000007FFFFFF0001FFFFFFFFFC000000001FF
310
FFFFFFC000000001FFFFFF000000000003FFC0000000007FF000FF0000000000
310
3FFFFFE00007FFFF00003FFFFF80007FFE00000000003FFFF00000000003FFF8
310
00000000000000007FFFFFF0001FFFFFFFFF8000000000FFFFFFFF8000000000
310
FFFFFF000000000003FF80000000003FF000FE00000000001FFFFFE00003FFFF
310
00003FFFFF80007FFC00000000001FFFE00000000001FFF8000001FFFE000000
310
7FFFFFF0001FFFFFFFFE00000000003FFFFFFE00000000003FFFFF0000000000
310
03FF00000000001FF000FC00000000000FFFFFE00003FFFF00001FFFFF80007F
310
F800000000001FFFC00000000000FFF8000001FFFE0000007FFFFFF0001FFFFF
310
FFFC00000000001FFFFFFC00000000001FFFFF000000000003FE00000000000F
310
F000F8000000000007FFFFE00003FFFF00001FFFFF80007FF800000000000FFF
310
800000000000FFF8000001FFFE0000007FFFFFF0001FFFFFFFF800000000000F
310
FFFFF800000000000FFFFF000000000003FC000000000007F000F80000000000
310
03FFFFC00003FFFE00001FFFFF80007FF0000000000007FF0000000000007FF8
310
000001FFFE0000007FFFFFF0001FFFFFFFF0000000000007FFFFF00000000000
310
07FFFF000000000003F8000000000003F000F0000000000003FFFFC00001FFFE
310
00001FFFFF80007FE0000000000007FE0000000000003FF8000001FFFE000000
310
7FFFFFF0001FFFFFFFF0000000000007FFFFF0000000000007FFFF0000000000
310
03F800001F800003F000E00001FFF00001FFFFC00001FFFE00000FFFFF80007F
310
E00001FFE00003FE00001FFF00003FF8000001FFFE0000007FFFFFF0001FFFFF
310
FFE000003E000003FFFFE000003E000003FFFF000000000003F00001FFF80001
310
F000E00007FFFC0001FFFFC00001FFFE00000FFFFF80007FC0000FFFFC0003FC
310
0000FFFFC0001FF8000001FFFE0000007FFFFFF0001FFFFFFFC00003FFE00001
310
FFFFC00003FFE00001FFFF0001FFFFFFFFF00007FFFE0001F000E0000FFFFF00
310
00FFFF800001FFFC00000FFFFF80007FC0001FFFFE0001FC0001FFFFE0001FF8
310
000001FFFE0000007FFFFFF0001FFFFFFF80000FFFF80000FFFF80000FFFF800
310
00FFFF0003FFFFFFFFE0000FFFFF8000F000C0003FFFFF8000FFFF800000FFFC
310
000007FFFF80007F80003FFFFF0001FC0003FFFFF0001FF8000001FFFE000000
310
7FFFFFF0001FFFFFFF80003FFFFE0000FFFF80003FFFFE0000FFFF0003FFFFFF
310
FFE0003FFFFF8000F000C0003FFFFF8000FFFF800000FFFC000007FFFF80007F
310
80007FFFFF8001F80007FFFFF8000FF8000001FFFE0000007FFFFFF0001FFFFF
310
FF00007FFFFF00007FFF00007FFFFF00007FFF0003FFFFFFFFE0003FFFFFC000
310
F000C0007FFFFFC000FFFF000000FFFC000007FFFF80007F8000FFFFFF8000F8
310
000FFFFFF8000FF8000001FFFE0000007FFFFFF0001FFFFFFF0000FFFFFF8000
310
7FFF0000FFFFFF80007FFF0003FFFFFFFFC0007FFFFFC00070008000FFFFFFC0
310
00FFFF000000FFF8000007FFFF80007F8000FFFFFF8000F8000FFFFFF8000FF8
310
000001FFFE0000007FFFFFF0001FFFFFFE0001FFFFFFC0003FFE0001FFFFFFC0
310
003FFF0003FFFFFFFFC0007FFFFFE00070008000FFFFFFC0007FFF0000007FF8
310
000003FFFF80007F0001FFFFFF8000F8000FFFFFF8000FF8000001FFFE000000
310
7FFFFFF0001FFFFFFE0001FFFFFFC0003FFE0001FFFFFFC0003FFF0003FFFFFF
310
FFC000FFFFFFE00070008000FFFFFFC0007FFF0000007FF8000003FFFF80007F
310
0001FFFFFF8000F8001FFFFFF8000FF8000001FFFE0000007FFFFFF0001FFFFF
310
FE0003FFFFFFE0003FFE0003FFFFFFE0003FFF0003FFFFFFFFC000FFFFFFE000
310
70008000FFFFFFC0007FFE0000007FF8000003FFFF80007F0001FFFFFF8000F0
310
001FFFFFF8000FF8000001FFFE0000007FFFFFF0001FFFFFFC0003FFFFFFE000
310
1FFC0003FFFFFFE0001FFF0003FFFFFFFFC000FFFFFFC00070008000FFFFFF80
310
007FFE0000007FF0000003FFFF80007F0001FFFFFF0000F0001FFFFFF8000FF8
310
000001FFFE0000007FFFFFF0001FFFFFFC0007FFFFFFF0001FFC0007FFFFFFF0
310
001FFF0003FFFFFFFFC000FFFFFFC00070008001FFFFFF0000FFFE0000003FF0
310
000001FFFF80007F0001FFFFFF0000F8001FFFFFF0000FF8000001FFFE000000
310
7FFFFFF0001FFFFFFC0007FFFFFFF0001FFC0007FFFFFFF0001FFF0003FFFFFF
310
FFC001FFFFFF80007000FFFFFFFFFE0000FFFE0008003FF0008001FFFF80007F
310
FFFFFFFFFC0000FFFFFFFFFFE0000FF8000001FFFE0000007FFFFFF0001FFFFF
310
F8000FFFFFFFF8000FF8000FFFFFFFF8000FFF0003FFFFFFFFFFFFFFFFFF0000
310
7000FFFFFFFFFC0000FFFC0008003FF0008001FFFF80007FFFFFFFFFF80001FF
310
FFFFFFFF80000FF8000001FFFE0000007FFFFFF0001FFFFFF8000FFFFFFFF800
310
0FF8000FFFFFFFF8000FFF0003FFFFFFFFFFFFFFFFFE0000F000FFFFFFFFE000
310
00FFFC000C003FE000C001FFFF80007FFFFFFFFFC00001FFFFFFFFFE00001FF8
310
000001FFFE0000007FFFFFF0001FFFFFF8000FFFFFFFF8000FF8000FFFFFFFF8
310
000FFF0003FFFFFFFFFFFFFFFFF00000F000FFFFFFFE000001FFFC000C001FE0
310
00C000FFFF80007FFFFFFFFE000001FFFFFFFFE000001FF80FFFFFFFFFFFFFC0
310
7FFFFFF0001FFFFFF8000FFFFFFFF8000FF8000FFFFFFFF8000FFF0003FFFFFF
310
FFFFFFFFFF800000F000FFFFFFC0000001FFFC001C001FE001C000FFFF80007F
310
FFFFFF80000003FFFFFFF80000001FF80FFFFFFFFFFFFFC07FFFFFF0001FFFFF
310
F8001FFFFFFFFC000FF8001FFFFFFFFC000FFF0003FFFFFFFFFFFFFFF0000001
310
F000FFFFF800000001FFF8001C001FE001C000FFFF80007FFFFFF800000003FF
310
FFFF800000003FF80FFFFFFFFFFFFFC07FFFFFF0001FFFFFF8001FFFFFFFFC00
310
0FF8001FFFFFFFFC000FFF0003FFFFFFFFFFFFFE00000001F000FFFFC0000000
310
03FFF8001E001FC001E000FFFF80007FFFFF8000000007FFFFFC000000003FF8
310
0FFFFFFFFFFFFFC07FFFFFF0001FFFFFF8001FFFFFFFFC000FF8001FFFFFFFFC
310
000FFF0003FFFFFFFFFFFFE000000003F000FFFE0000000007FFF8001E000FC0
310
01E0007FFF80007FFFFE0000000007FFFFE0000000007FF80FFFFFFFFFFFFFC0
310
7FFFFFF0001FFFFFF0001FFFFFFFFC0007F0001FFFFFFFFC0007FF0003FFFFFF
310
FFFFFF0000000003F000FFF80000000007FFF8001E000FC003E0007FFF80007F
310
FFF0000000000FFFFF8000000000FFF80FFFFFFFFFFFFFC07FFFFFF0001FFFFF
310
F0001FFFFFFFFC0007F0001FFFFFFFFC0007FF0003FFFFFFFFFFFC0000000007
310
F000FFE0000000000FFFF0003E000FC003E0007FFF80007FFFC0000000001FFF
310
FE0000000001FFF80FFFFFFFFFFFFFC07FFFFFF0001FFFFFF0001FFFFFFFFC00
310
07F0001FFFFFFFFC0007FF0003FFFFFFFFFFF0000000000FF000FFC000000000
310
1FFFF0003F000F8003F0003FFF80007FFF80000000003FFFF80000000003FFF8
310
0FFFFFFFFFFFFFC07FFFFFF0001FFFFFF0001FFFFFFFFC0007F0001FFFFFFFFC
310
0007FF0003FFFFFFFFFFE0000000001FF000FF00000000007FFFF0003F000780
310
03F0003FFF80007FFF00000000007FFFF00000000007FFF80FFFFFFFFFFFFFC0
310
7FFFFFF0001FFFFFF0001FFFFFFFFC0007F0001FFFFFFFFC0007FF0003FFFFFF
310
FFFF80000000007FF000FE0000000000FFFFE0003F00078007F0003FFF80007F
310
FE0000000001FFFFE0000000001FFFF80FFFFFFFFFFFFFC07FFFFFF0001FFFFF
310
F0001FFFFFFFFC0007F0001FFFFFFFFC0007FF0003FFFFFFFFFF0000000000FF
310
F000FC0000000003FFFFE0007F00078007F0003FFF80007FFC0000000007FFFF
310
C0000000007FFFF80FFFFFFFFFFFFFC07FFFFFF0001FFFFFF8001FFFFFFFFC00
310
0FF8001FFFFFFFFC000FFF0003FFFFFFFFFE0000000003FFF000FC000000000F
310
FFFFE0007F80070007F8001FFF80007FF8000000001FFFFF8000000001FFFFF8
310
0FFFFFFFFFFFFFC07FFFFFF0001FFFFFF8001FFFFFFFFC000FF8001FFFFFFFFC
310
000FFF0003FFFFFFFFFC000000000FFFF000F8000000007FFFFFE0007F800700
310
07F8001FFF80007FF000000000FFFFFF800000000FFFFFF80FFFFFFFFFFFFFC0
310
7FFFFFF0001FFFFFF8000FFFFFFFF8000FF8000FFFFFFFF8000FFF0003FFFFFF
310
FFFC000000007FFFF000F800000007FFFFFFC0007F8003000FF8001FFF80007F
310
F000000007FFFFFF000000007FFFFFF80FFFFFFFFFFFFFC07FFFFFF0001FFFFF
310
F8000FFFFFFFF8000FF8000FFFFFFFF8000FFF0003FFFFFFFFF80000000FFFFF
310
F000F0000000FFFFFFFFC000FF8003000FF8001FFF80007FE0000000FFFFFFFF
310
0000000FFFFFFFF8000001FFFE0000007FFFFFF0001FFFFFF8000FFFFFFFF800
310
0FF8000FFFFFFFF8000FFF0003FFFFFFFFF8000000FFFFFFF000F000000FFFFF
310
FFFFC000FFC002000FF8000FFF80007FE000001FFFFFFFFE000001FFFFFFFFF8
310
000001FFFE0000007FFFFFF0001FFFFFF8000FFFFFFFF8000FF8000FFFFFFFF8
310
000FFF0003FFFFFFFFF000001FFFFFFFF000E00000FFFFFFFFFFC000FFC00200
310
0FFC000FFF80007FE00001FFFFFFFFFE00001FFFFFFFFFF8000001FFFE000000
310
7FFFFFF0001FFFFFFC000FFFFFFFF8001FFC000FFFFFFFF8001FFF0003FFFFFF
310
FFF00001FFFFFFFFF000E00007FFFFFFFFFF8000FFC000001FFC000FFF80007F
310
C0000FFFFFFFFFFE0000FFFFFFFFFFF8000001FFFE0000007FFFFFF0001FFFFF
310
FC0007FFFFFFF0001FFC0007FFFFFFF0001FFF0003FFFFFFFFF00007FFFFFFFF
310
F000E0001FFFFFFFFFFF8000FFC000001FFC000FFF80007FC0003FFFFFFFFFFE
310
0001FFFFFFFFFFF8000001FFFE0000007FFFFFF0001FFFFFFC0007FFFFFFF000
310
1FFC0007FFFFFFF0001FFF0003FFFFFFFFF0001FFFFFFFFFF000E0003FFFFF00
310
03FF8001FFE000001FFC0007FF80007FC0007FFFFF0007FC0003FFFFF0003FF8
310
000001FFFE0000007FFFFFF0001FFFFFFC0003FFFFFFE0001FFC0003FFFFFFE0
310
001FFF0003FFFFFFFFF0003FFFFFFFFFF000E0003FFFFF0001FF8001FFE00000
310
1FFE0007FF80007FC0007FFFFE0003FC0007FFFFE0003FF8000001FFFE000000
310
7FFFFFF0001FFFFFFE0003FFFFFFE0003FFE0003FFFFFFE0003FFF0003FFFFFF
310
FFF0003FFFFF8001F000E0003FFFFF0001FF0001FFE000001FFE0007FF80007F
310
C0007FFFFE0003FC0007FFFFE0003FF8000001FFFE0000007FFFFFF0001FFFFF
310
FE0001FFFFFFC0003FFE0001FFFFFFC0003FFF0003FFFFFFFFF0003FFFFF0001
310
F000E0003FFFFF0003FF0001FFE000003FFE0007FF80007FC0007FFFFE0003FC
310
0007FFFFE0003FF8000001FFFE0000007FFFFFF0001FFFFFFF0001FFFFFFC000
310
7FFF0001FFFFFFC0007FFF0003FFFFFFFFF0003FFFFF0001F000E0003FFFFE00
310
03FF0003FFF000003FFE0003FF80007FC0007FFFFC0003FE0007FFFFE0003FF8
310
000001FFFE0000007FFFFFF0001FFFFFFF0000FFFFFF80007FFF0000FFFFFF80
310
007FFF0003FFFFFFFFF0003FFFFF0001F000E0003FFFFE0003FF0003FFF00000
310
3FFF0003FF80007FC0007FFFFC0007FE0007FFFFC0003FF8000001FFFE000000
310
7FFFFFF0001FFFFFFF80007FFFFF0000FFFF80007FFFFF0000FFFF0003FFFFFF
310
FFF0003FFFFF0003F000E0003FFFFC0003FE0003FFF000003FFF0003FF80007F
310
E0003FFFF80007FE0003FFFFC0007FF8000001FFFE0000007FFFFFF0001FFFFF
310
FF80003FFFFE0000FFFF80003FFFFE0000FFFF0003FFFFFFFFF0001FFFFE0003
310
F000F0001FFFF80003FE0003FFF000007FFF0001FF80007FE0003FFFF00007FE
310
0001FFFF80007FF8000001FFFE0000007FFFFFF0001FFFFFFFC0000FFFF80001
310
FFFFC0000FFFF80001FFFF0003FFFFFFFFF0001FFFFC0003F000F0000FFFF000
310
07FE0007FFF800007FFF0001FF80007FE0001FFFE00007FF0000FFFE00007FF8
310
000001FFFE0000007FFFFFF0001FFFFFFFC00003FFE00001FFFFC00003FFE000
310
01FFFF0003FFFFFFFFF8000FFFF80003F000F00003FFC00007FC0007FFF80000
310
7FFF8001FF80007FF00007FF80000FFF00007FF80000FFF8000001FFFE000000
310
7F80000000000001FFE000003E000003FFFFE000003E000003FFFF0003FFFFFF
310
FFF80003FFE00007F000F800000000000FFC0007FFF800007FFF8001FF80007F
310
F000000000000FFF000000000000FFF8000001FFFE0000007F80000000000001
310
FFF0000000000007FFFFF0000000000007FFFF0003FFFFFFFFFC00007E000007
310
F000F800000000000FFC0007FFF80000FFFF8000FF80007FF800000000001FFF
310
800000000001FFF8000001FFFE0000007F80000000000001FFF800000000000F
310
FFFFF800000000000FFFFF0003FFFFFFFFFC00000000000FF000FC0000000000
310
1FFC0007FFFC0000FFFF8000FF80007FF800000000003FFFC00000000001FFF8
310
000001FFFE0000007F80000000000001FFF800000000000FFFFFF80000000000
310
0FFFFF0003FFFFFFFFFE00000000001FF000FE00000000003FF8000FFFFC0000
310
FFFF8000FF80007FFC00000000003FFFC00000000003FFF8000001FFFE000000
310
7F80000000000001FFFC00000000001FFFFFFC00000000001FFFFF0003FFFFFF
310
FFFF00000000001FF000FF00000000003FF8000FFFFC0000FFFFC000FF80007F
310
FE00000000007FFFE00000000007FFF8000001FFFE0000007F80000000000001
310
FFFE00000000003FFFFFFE00000000003FFFFF0003FFFFFFFFFF80000000003F
310
F000FF80000000007FF8000FFFFC0001FFFFC0007F80007FFF0000000000FFFF
310
F0000000000FFFF800000000000000007F80000000000001FFFF8000000000FF
310
FFFFFF8000000000FFFFFF0003FFFFFFFFFFC0000000007FF000FFC000000000
310
FFF8000FFFFE0001FFFFC0007F80007FFF8000000001FFFFF8000000001FFFF8
310
00000000000000007F80000000000001FFFFC000000001FFFFFFFFC000000001
310
FFFFFF0003FFFFFFFFFFE000000000FFF000FFE000000003FFF0001FFFFE0001
310
FFFFC0007F80007FFFC000000007FFFFFE000000003FFFF80000000000000000
310
7F80000000000001FFFFE000000003FFFFFFFFE000000003FFFFFF0003FFFFFF
310
FFFFF000000003FFF000FFF80000000FFFF0001FFFFE0001FFFFE0007F80007F
310
FFF00000000FFFFFFF00000000FFFFF800000000000000007F80000000000001
310
FFFFF80000000FFFFFFFFFF80000000FFFFFFF0003FFFFFFFFFFFC0000000FFF
310
F000FFFE0000003FFFF0001FFFFE0003FFFFE0003F80007FFFFC0000003FFFFF
310
FFC0000003FFFFF800000000000000007F80000000000001FFFFFE0000003FFF
310
FFFFFFFE0000003FFFFFFF0003FFFFFFFFFFFF0000003FFFF000FFFF800000FF
310
FFF0001FFFFF0003FFFFE0003F80007FFFFF000001FFFFFFFFF800001FFFFFF8
310
00000000000000007F80000000000001FFFFFFC00001FFFFFFFFFFFFC00001FF
310
FFFFFF0003FFFFFFFFFFFFC00000FFFFF000FFFFF8000FFFFFFFFFFFFFFFFFFF
310
FFFFFFFFFFFFFFFFFFFFF0001FFFFFFFFFFF0000FFFFFFF80000000000000000
310
7FFFFFFFFFFFFFFFFFFFFFFC001FFFFFFFFFFFFFFC001FFFFFFFFFFFFFFFFFFF
310
FFFFFFFC001FFFFFF000FFFFFFFFFFFFFFFFFFFFFFFFFFFFFFFFFFFFFFFFFFFF
310
FFFFFFFFFFFFFFFFFFFFFFFFFFFFFFFFFFFFFFFFFFFFFFFFFFFFFFFFFFFFFFFF
310
FFFFFFFFFFFFFFFFFFFFFFFFFFFFFFFFFFFFFFFFFFFFFFFFFFFFFFFFFFFFFFFF
310
F000FFFFFFFFFFFFFFFFFFFFFFFFFFFFFFFFFFFFFFFFFFFFFFFFFFFFFFFFFFFF
310
FFFFFFFFFFFFFFFFFFFFFFFFFFFFFFFFFFFFFFFFFFFFFFFFFFFFFFFFFFFFFFFF
310
FFFFFFFFFFFFFFFFFFFFFFFFFFFFFFFFFFFFFFFFFFFFFFFFF000FFFFFFFFFFFF
310
FFFFFFFFFFFFFFFFFFFFFFFFFFFFFFFFFFFFFFFFFFFFFFFFFFFFFFFFFFFFFFFF
310
FFFFFFFFFFFFFFFFFFFFFFFFFFFFFFFFFFFFFFFFFFFFFFFFFFFFFFFFFFFFFFFF
310
FFFFFFFFFFFFFFFFFFFFFFFFFFFFFFFFF000FFFFFFFFFFFFFFFFFFFFFFFFFFFF
310
FFFFFFFFFFFFFFFFFFFFFFFFFFFFFFFFFFFFFFFFFFFFFFFFFFFFFFFFFFFFFFFF
310
FFFFFFFFFFFFFFFFFFFFFFFFFFFFFFFFFFFFFFFFFFFFFFFFFFFFFFFFFFFFFFFF
310
FFFFFFFFFFFFFFFFF000FFFFFFFFFFFFFFFFFFFFFFFFFFFFFFFFFFFFFFFFFFFF
310
FFFFFFFFFFFFFFFFFFFFFFFFFFFFFFFFFFFFFFFFFFFFFFFFFFFFFFFFFFFFFFFF
310
FFFFFFFFFFFFFFFFFFFFFFFFFFFFFFFFFFFFFFFFFFFFFFFFFFFFFFFFFFFFFFFF
310
F000FFFFFFFFFFFFFFFFFFFFFFFFFFFFFFFFFFFFFFFFFFFFFFFFFFFFFFFFFFFF
310
FFFFFFFFFFFFFFFFFFFFFFFFFFFFFFFFFFFFFFFFFFFFFFFFFFFFFFFFFFFFFFFF
310
FFFFFFFFFFFFFFFFFFFFFFFFFFFFFFFFFFFFFFFFFFFFFFFFF000FFFFFFFFFFFF
310
FFFFFFFFFFFFFFFFFFFFFFFFFFFFFFFFFFFFFFFFFFFFFFFFFFFFFFFFFFFFFFFF
310
FFFFFFFFFFFFFFFFFFFFFFFFFFFFFFFFFFFFFFFFFFFFFFFFFFFFFFFFFFFFFFFF
310
FFFFFFFFFFFFFFFFFFFFFFFFFFFFFFFFF000FFFFFFFFFFFFFFFFFFFFFFFFFFFF
310
FFFFFFFFFFFFFFFFFFFFFFFFFFFFFFFFFFFFFFFFFFFFFFFFFFFFFFFFFFFFFFFF
310
FFFFFFFFFFFFFFFFFFFFFFFFFFFFFFFFFFFFFFFFFFFFFFFFFFFFFFFFFFFFFFFF
310
FFFFFFFFFFFFFFFFF000FFFFFFFFFFFFFFFFFFFFFFFFFFFFFFFFFFFFFFFFFFFF
310
FFFFFFFFFFFFFFFFFFFFFFFFFFFFFFFFFFFFFFFFFFFFFFFFFFFFFFFFFFFFFFFF
310
FFFFFFFFFFFFFFFFFFFFFFFFFFFFFFFFFFFFFFFFFFFFFFFFFFFFFFFFFFFFFFFF
310
F000FFFFFFFFFFFFFFFFFFFFFFFFFFFFFFFFFFFFFFFFFFFFFFFFFFFFFFFFFFFF
310
FFFFFFFFFFFFFFFFFFFFFFFFFFFFFFFFFFFFFFFFFFFFFFFFFFFFFFFFFFFFFFFF
310
FFFFFFFFFFFFFFFFFFFFFFFFFFFFFFFFFFFFFFFFFFFFFFFFF000FFFFFFFFFFFF
310
FFFFFFFFFFFFFFFFFFFFFFFFFFFFFFFFFFFFFFFFFFFFFFFFFFFFFFFFFFFFFFFF
310
FFFFFFFFFFFFFFFFFFFFFFFFFFFFFFFFFFFFFFFFFFFFFFFFFFFFFFFFFFFFFFFF
310
FFFFFFFFFFFFFFFFFFFFFFFFFFFFFFFFF000FFFFFFFFFFFFFFFFFFFFFFFFFFFF
310
FFFFFFFFFFFFFFFFFFFFFFFFFFFFFFFFFFFFFFFFFFFFFFFFFFFFFFFFFFFFFFFF
310
FFFFFFFFFFFFFFFFFFFFFFFFFFFFFFFFFFFFFFFFFFFFFFFFFFFFFFFFFFFFFFFF
310
FFFFFFFFFFFFFFFFF000FFFFFFFFFFFFFFFFFFFFFFFFFFFFFFFFFFFFFFFFFFFF
310
FFFFFFFFFFFFFFFFFFFFFFFFFFFFFFFFFFFFFFFFFFFFFFFFFFFFFFFFFFFFFFFF
310
FFFFFFFFFFFFFFFFFFFFFFFFFFFFFFFFFFFFFFFFFFFFFFFFFFFFFFFFFFFFFFFF
310
F000FFFFFFFFFFFFFFFFFFFFFFFFFFFFFFFFFFFFFFFFFFFFFFFFFFFFFFFFFFFF
310
FFFFFFFFFFFFFFFFFFFFFFFFFFFFFFFFFFFFFFFFFFFFFFFFFFFFFFFFFFFFFFFF
310
FFFFFFFFFFFFFFFFFFFFFFFFFFFFFFFFFFFFFFFFFFFFFFFFF000FFFFFFFFFFFF
310
FFFFFFFFFFFFFFFFFFFFFFFFFFFFFFFFFFFFFFFFFFFFFFFFFFFFFFFFFFFFFFFF
310
FFFFFFFFFFFFFFFFFFFFFFFFFFFFFFFFFFFFFFFFFFFFFFFFFFFFFFFFFFFFFFFF
310
FFFFFFFFFFFFFFFFFFFFFFFFFFFFFFFFF000FFFFFFFFFFFFFFFFFFFFFFFFFFFF
310
FFFFFFFFFFFFFFFFFFFFFFFFFFFFFFFFFFFFFFFFFFFFFFFFFFFFFFFFFFFFFFFF
310
FFFFFFFFFFFFFFFFFFFFFFFFFFFFFFFFFFFFFFFFFFFFFFFFFFFFFFFFFFFFFFFF
310
FFFFFFFFFFFFFFFFF000FFFFFFFFFFFFFFFFFFFFFFFFFFFFFFFFFFFFFFFFFFFF
310
FFFFFFFFFFFFFFFFFFFFFFFFFFFFFFFFFFFFFFFFFFFFFFFFFFFFFFFFFFFFFFFF
310
FFFFFFFFFFFFFFFFFFFFFFFFFFFFFFFFFFFFFFFFFFFFFFFFFFFFFFFFFFFFFFFF
310
F000FFFFFFFFFFFFFFFFFFFFFFFFFFFFFFFFFFFFFFFFFFFFFFFFFFFFFFFFFFFF
310
FFFFFFFFFFFFFFFFFFFFFFFFFFFFFFFFFFFFFFFFFFFFFFFFFFFFFFFFFFFFFFFF
310
FFFFFFFFFFFFFFFFFFFFFFFFFFFFFFFFFFFFFFFFFFFFFFFFF000FFFFFFFFFFFF
310
FFFFFFFFFFFFFFFFFFFFFFFFFFFFFFFFFFFFFFFFFFFFFFFFFFFFFFFFFFFFFFFF
310
FFFFFFFFFFFFFFFFFFFFFFFFFFFFFFFFFFFFFFFFFFFFFFFFFFFFFFFFFFFFFFFF
310
FFFFFFFFFFFFFFFFFFFFFFFFFFFFFFFFF000FFFFFFFFFFFFFFFFFFFFFFFFFFFF
310
FFFFFFFFFFFFFFFFFFFFFFFFFFFFFFFFFFFFFFFFFFFFFFFFFFFFFFFFFFFFFFFF
310
FFFFFFFFFFFFFFFFFFFFFFFFFFFFFFFFFFFFFFFFFFFFFFFFFFFFFFFFFFFFFFFF
310
FFFFFFFFFFFFFFFFF000FFFFFFFFFFFFFFFFFFFFFFFFFFFFFFFFFFFFFFFFFFFF
310
FFFFFFFFFFFFFFFFFFFFFFFFFFFFFFFFFFFFFFFFFFFFFFFFFFFFFFFFFFFFFFFF
310
FFFFFFFFFFFFFFFFFFFFFFFFFFFFFFFFFFFFFFFFFFFFFFFFFFFFFFFFFFFFFFFF
310
F000FFFFFFFFFFFFFFFFFFFFFFFFFFFFFFFFFFFFFFFFFFFFFFFFFFFFFFFFFFFF
310
FFFFFFFFFFFFFFFFFFFFFFFFFFFFFFFFFFFFFFFFFFFFFFFFFFFFFFFFFFFFFFFF
310
FFFFFFFFFFFFFFFFFFFFFFFFFFFFFFFFFFFFFFFFFFFFFFFFF000FFFFFFFFFFFF
310
FFFFFFFFFFFFFFFFFFFFFFFFFFFFFFFFFFFFFFFFFFFFFFFFFFFFFFFFFFFFFFFF
310
FFFFFFFFFFFFFFFFFFFFFFFFFFFFFFFFFFFFFFFFFFFFFFFFFFFFFFFFFFFFFFFF
310
FFFFFFFFFFFFFFFFFFFFFFFFFFFFFFFFF0000000000000000000000000000000
310
0000000000000000000000000000000000000000000000000000000000000000
310
0000000000000000000000000000000000000000000000000000000000000000
310
0000000000000000000000000000000000000000000000000000000000000000
310
0000000000000000000000000000000000000000000000000000000000000000
310
0000000000000000000000000000000000000000000000000000000000000000
310
0000000000000000000000000000000000000000000000000000000000000000
310
0000000000000000000000000000000000000000000000000000000000000000
310
0000000000000000000000000000000000000000000000000000000000000000
310
0000000000000000000000000000000000000000000000000000000000000000
310
0000000000000000000000000000000000000000000000000000000000000000
310
0000000000000000000000000000000000000000000000000000000000000000
310
0000000000000000000000000000000000000000000000000000000000000000
310
0000000000000000000000000000000000000000000000000000000000000000
310
0000000000000000000000000000000000000000000000000000000000000000
310
0000000000000000000000000000000000000000000000000000000000000000
  1
OLE
  0
ENDSEC
  0
SECTION
  2
OBJECTS
  0
DICTIONARY
  5
C
330
0
100
AcDbDictionary
281
     1
  3
ACAD_GROUP
350
D
  3
ACAD_LAYOUT
350
1A
  3
ACAD_MLINESTYLE
350
17
  3
ACAD_PLOTSETTINGS
350
19
  3
ACAD_PLOTSTYLENAME
350
E
  3
ACAD_SCALELIST
350
47
  0
DICTIONARY
  5
D
102
{ACAD_REACTORS
330
C
102
}
330
C
100
AcDbDictionary
281
     1
  0
DICTIONARY
  5
1A
102
{ACAD_REACTORS
330
C
102
}
330
C
100
AcDbDictionary
281
     1
  3
Layout1
350
1E
  3
Layout2
350
26
  3
Model
350
22
  0
DICTIONARY
  5
17
102
{ACAD_REACTORS
330
C
102
}
330
C
100
AcDbDictionary
281
     1
  3
Standard
350
18
  0
DICTIONARY
  5
19
102
{ACAD_REACTORS
330
C
102
}
330
C
100
AcDbDictionary
281
     1
  0
ACDBDICTIONARYWDFLT
  5
E
102
{ACAD_REACTORS
330
C
102
}
330
C
100
AcDbDictionary
281
     1
  3
Normal
350
F
100
AcDbDictionaryWithDefault
340
F
  0
DICTIONARY
  5
47
102
{ACAD_REACTORS
330
C
102
}
330
C
100
AcDbDictionary
281
     1
  3
A0
350
48
  3
A1
350
49
  3
A2
350
4A
  3
A3
350
4B
  3
A4
350
4C
  3
A5
350
4D
  3
A6
350
4E
  3
A7
350
4F
  3
A8
350
50
  3
A9
350
51
  3
B0
350
52
  3
B1
350
53
  3
B2
350
54
  3
B3
350
55
  3
B4
350
56
  3
B5
350
57
  3
B6
350
58
  3
B7
350
59
  3
B8
350
5A
  3
B9
350
5B
  3
C0
350
5C
  3
C1
350
5D
  3
C2
350
5E
  3
C3
350
5F
  3
C4
350
60
  3
C5
350
61
  3
C6
350
62
  3
C7
350
63
  3
C8
350
64
  3
C9
350
65
  3
D0
350
66
  3
D1
350
67
  3
D2
350
68
  0
LAYOUT
  5
1E
102
{ACAD_REACTORS
330
1A
102
}
330
1A
100
AcDbPlotSettings
  1

  2
none_device
  4

  6

 40
0.0
 41
0.0
 42
0.0
 43
0.0
 44
0.0
 45
0.0
 46
0.0
 47
0.0
 48
0.0
 49
0.0
140
0.0
141
0.0
142
1.0
143
1.0
 70
   688
 72
     1
 73
     0
 74
     5
  7

 75
    16
147
1.0
148
0.0
149
0.0
100
AcDbLayout
  1
Layout1
 70
     1
 71
     1
 10
0.0
 20
0.0
 11
420.0
 21
297.0
 12
0.0
 22
0.0
 32
0.0
 14
1.0000000000E+20
 24
1.0000000000E+20
 34
1.0000000000E+20
 15
-1.0000000000E+20
 25
-1.0000000000E+20
 35
-1.0000000000E+20
146
0.0
 13
0.0
 23
0.0
 33
0.0
 16
1.0
 26
0.0
 36
0.0
 17
0.0
 27
1.0
 37
0.0
 76
     0
330
1B
  0
LAYOUT
  5
26
102
{ACAD_REACTORS
330
1A
102
}
330
1A
100
AcDbPlotSettings
  1

  2
none_device
  4

  6

 40
0.0
 41
0.0
 42
0.0
 43
0.0
 44
0.0
 45
0.0
 46
0.0
 47
0.0
 48
0.0
 49
0.0
140
0.0
141
0.0
142
1.0
143
1.0
 70
   688
 72
     1
 73
     0
 74
     5
  7

 75
    16
147
1.0
148
0.0
149
0.0
100
AcDbLayout
  1
Layout2
 70
     1
 71
     2
 10
0.0
 20
0.0
 11
0.0
 21
0.0
 12
0.0
 22
0.0
 32
0.0
 14
0.0
 24
0.0
 34
0.0
 15
0.0
 25
0.0
 35
0.0
146
0.0
 13
0.0
 23
0.0
 33
0.0
 16
1.0
 26
0.0
 36
0.0
 17
0.0
 27
1.0
 37
0.0
 76
     0
330
23
  0
LAYOUT
  5
22
102
{ACAD_REACTORS
330
1A
102
}
330
1A
100
AcDbPlotSettings
  1

  2
none_device
  4
Letter_(8.50_x_11.00_Inches)
  6

 40
6.35
 41
6.35
 42
6.35000508
 43
6.35000508
 44
215.9
 45
279.4
 46
0.0
 47
0.0
 48
0.0
 49
0.0
140
0.0
141
0.0
142
1.0
143
1.0
 70
  1712
 72
     1
 73
     0
 74
     0
  7

 75
     0
147
1.0
148
0.0
149
0.0
100
AcDbLayout
  1
Model
 70
     1
 71
     0
 10
0.0
 20
0.0
 11
297.0
 21
210.0
 12
0.0
 22
0.0
 32
0.0
 14
0.0
 24
0.0
 34
0.0
 15
297.0
 25
210.0
 35
0.0
146
0.0
 13
0.0
 23
0.0
 33
0.0
 16
1.0
 26
0.0
 36
0.0
 17
0.0
 27
1.0
 37
0.0
 76
     0
330
1F
331
29
  0
MLINESTYLE
  5
18
102
{ACAD_REACTORS
330
17
102
}
330
17
100
AcDbMlineStyle
  2
Standard
 70
     0
  3

 62
   256
 51
90.0
 52
90.0
 71
     2
 49
0.5
 62
   256
  6
BYLAYER
 49
-0.5
 62
   256
  6
BYLAYER
  0
ACDBPLACEHOLDER
  5
F
102
{ACAD_REACTORS
330
E
102
}
330
E
  0
SCALE
  5
48
102
{ACAD_REACTORS
330
47
102
}
330
47
100
AcDbScale
 70
     0
300
1:1
140
1.0
141
1.0
290
     1
  0
SCALE
  5
49
102
{ACAD_REACTORS
330
47
102
}
330
47
100
AcDbScale
 70
     0
300
1:2
140
1.0
141
2.0
290
     0
  0
SCALE
  5
4A
102
{ACAD_REACTORS
330
47
102
}
330
47
100
AcDbScale
 70
     0
300
1:4
140
1.0
141
4.0
290
     0
  0
SCALE
  5
4B
102
{ACAD_REACTORS
330
47
102
}
330
47
100
AcDbScale
 70
     0
300
1:5
140
1.0
141
5.0
290
     0
  0
SCALE
  5
4C
102
{ACAD_REACTORS
330
47
102
}
330
47
100
AcDbScale
 70
     0
300
1:8
140
1.0
141
8.0
290
     0
  0
SCALE
  5
4D
102
{ACAD_REACTORS
330
47
102
}
330
47
100
AcDbScale
 70
     0
300
1:10
140
1.0
141
10.0
290
     0
  0
SCALE
  5
4E
102
{ACAD_REACTORS
330
47
102
}
330
47
100
AcDbScale
 70
     0
300
1:16
140
1.0
141
16.0
290
     0
  0
SCALE
  5
4F
102
{ACAD_REACTORS
330
47
102
}
330
47
100
AcDbScale
 70
     0
300
1:20
140
1.0
141
20.0
290
     0
  0
SCALE
  5
50
102
{ACAD_REACTORS
330
47
102
}
330
47
100
AcDbScale
 70
     0
300
1:30
140
1.0
141
30.0
290
     0
  0
SCALE
  5
51
102
{ACAD_REACTORS
330
47
102
}
330
47
100
AcDbScale
 70
     0
300
1:40
140
1.0
141
40.0
290
     0
  0
SCALE
  5
52
102
{ACAD_REACTORS
330
47
102
}
330
47
100
AcDbScale
 70
     0
300
1:50
140
1.0
141
50.0
290
     0
  0
SCALE
  5
53
102
{ACAD_REACTORS
330
47
102
}
330
47
100
AcDbScale
 70
     0
300
1:100
140
1.0
141
100.0
290
     0
  0
SCALE
  5
54
102
{ACAD_REACTORS
330
47
102
}
330
47
100
AcDbScale
 70
     0
300
2:1
140
2.0
141
1.0
290
     0
  0
SCALE
  5
55
102
{ACAD_REACTORS
330
47
102
}
330
47
100
AcDbScale
 70
     0
300
4:1
140
4.0
141
1.0
290
     0
  0
SCALE
  5
56
102
{ACAD_REACTORS
330
47
102
}
330
47
100
AcDbScale
 70
     0
300
8:1
140
8.0
141
1.0
290
     0
  0
SCALE
  5
57
102
{ACAD_REACTORS
330
47
102
}
330
47
100
AcDbScale
 70
     0
300
10:1
140
10.0
141
1.0
290
     0
  0
SCALE
  5
58
102
{ACAD_REACTORS
330
47
102
}
330
47
100
AcDbScale
 70
     0
300
100:1
140
100.0
141
1.0
290
     0
  0
SCALE
  5
59
102
{ACAD_REACTORS
330
47
102
}
330
47
100
AcDbScale
 70
     0
300
1/128" = 1'-0"
140
0.0078125
141
12.0
290
     0
  0
SCALE
  5
5A
102
{ACAD_REACTORS
330
47
102
}
330
47
100
AcDbScale
 70
     0
300
1/64" = 1'-0"
140
0.015625
141
12.0
290
     0
  0
SCALE
  5
5B
102
{ACAD_REACTORS
330
47
102
}
330
47
100
AcDbScale
 70
     0
300
1/32" = 1'-0"
140
0.03125
141
12.0
290
     0
  0
SCALE
  5
5C
102
{ACAD_REACTORS
330
47
102
}
330
47
100
AcDbScale
 70
     0
300
1/16" = 1'-0"
140
0.0625
141
12.0
290
     0
  0
SCALE
  5
5D
102
{ACAD_REACTORS
330
47
102
}
330
47
100
AcDbScale
 70
     0
300
3/32" = 1'-0"
140
0.09375
141
12.0
290
     0
  0
SCALE
  5
5E
102
{ACAD_REACTORS
330
47
102
}
330
47
100
AcDbScale
 70
     0
300
1/8" = 1'-0"
140
0.125
141
12.0
290
     0
  0
SCALE
  5
5F
102
{ACAD_REACTORS
330
47
102
}
330
47
100
AcDbScale
 70
     0
300
3/16" = 1'-0"
140
0.1875
141
12.0
290
     0
  0
SCALE
  5
60
102
{ACAD_REACTORS
330
47
102
}
330
47
100
AcDbScale
 70
     0
300
1/4" = 1'-0"
140
0.25
141
12.0
290
     0
  0
SCALE
  5
61
102
{ACAD_REACTORS
330
47
102
}
330
47
100
AcDbScale
 70
     0
300
3/8" = 1'-0"
140
0.375
141
12.0
290
     0
  0
SCALE
  5
62
102
{ACAD_REACTORS
330
47
102
}
330
47
100
AcDbScale
 70
     0
300
1/2" = 1'-0"
140
0.5
141
12.0
290
     0
  0
SCALE
  5
63
102
{ACAD_REACTORS
330
47
102
}
330
47
100
AcDbScale
 70
     0
300
3/4" = 1'-0"
140
0.75
141
12.0
290
     0
  0
SCALE
  5
64
102
{ACAD_REACTORS
330
47
102
}
330
47
100
AcDbScale
 70
     0
300
1" = 1'-0"
140
1.0
141
12.0
290
     0
  0
SCALE
  5
65
102
{ACAD_REACTORS
330
47
102
}
330
47
100
AcDbScale
 70
     0
300
1-1/2" = 1'-0"
140
1.5
141
12.0
290
     0
  0
SCALE
  5
66
102
{ACAD_REACTORS
330
47
102
}
330
47
100
AcDbScale
 70
     0
300
3" = 1'-0"
140
3.0
141
12.0
290
     0
  0
SCALE
  5
67
102
{ACAD_REACTORS
330
47
102
}
330
47
100
AcDbScale
 70
     0
300
6" = 1'-0"
140
6.0
141
12.0
290
     0
  0
SCALE
  5
68
102
{ACAD_REACTORS
330
47
102
}
330
47
100
AcDbScale
 70
     0
300
1'-0" = 1'-0"
140
12.0
141
12.0
290
     0
  0
ENDSEC
  0
EOF
