  0
SECTION
  2
HEADER
  9
$ACADVER
  1
AC1015
  9
$ACADMAINTVER
 70
     6
  9
$DWGCODEPAGE
  3
ANSI_1252
  9
$INSBASE
 10
0.0
 20
0.0
 30
0.0
  9
$EXTMIN
 10
0.0
 20
0.0
 30
0.0
  9
$EXTMAX
 10
297.0
 20
210.0
 30
0.0
  9
$LIMMIN
 10
0.0
 20
0.0
  9
$LIMMAX
 10
297.0
 20
210.0
  9
$ORTHOMODE
 70
     0
  9
$REGENMODE
 70
     1
  9
$FILLMODE
 70
     1
  9
$QTEXTMODE
 70
     0
  9
$MIRRTEXT
 70
     1
  9
$LTSCALE
 40
1.0
  9
$ATTMODE
 70
     1
  9
$TEXTSIZE
 40
2.0
  9
$TRACEWID
 40
1.0
  9
$TEXTSTYLE
  7
Standard
  9
$CLAYER
  8
0
  9
$CELTYPE
  6
ByLayer
  9
$CECOLOR
 62
   256
  9
$CELTSCALE
 40
1.0
  9
$DISPSILH
 70
     0
  9
$DIMSCALE
 40
1.0
  9
$DIMASZ
 40
3.0
  9
$DIMEXO
 40
0.0
  9
$DIMDLI
 40
3.75
  9
$DIMRND
 40
0.0
  9
$DIMDLE
 40
0.0
  9
$DIMEXE
 40
1.0
  9
$DIMTP
 40
0.0
  9
$DIMTM
 40
0.0
  9
$DIMTXT
 40
2.0
  9
$DIMCEN
 40
2.5
  9
$DIMTSZ
 40
0.0
  9
$DIMTOL
 70
     0
  9
$DIMLIM
 70
     0
  9
$DIMTIH
 70
     1
  9
$DIMTOH
 70
     1
  9
$DIMSE1
 70
     0
  9
$DIMSE2
 70
     0
  9
$DIMTAD
 70
     1
  9
$DIMZIN
 70
     0
  9
$DIMBLK
  1

  9
$DIMASO
 70
     1
  9
$DIMSHO
 70
     1
  9
$DIMPOST
  1

  9
$DIMAPOST
  1

  9
$DIMALT
 70
     0
  9
$DIMALTD
 70
     3
  9
$DIMALTF
 40
0.0393700787
  9
$DIMLFAC
 40
1.0
  9
$DIMTOFL
 70
     1
  9
$DIMTVP
 40
0.0
  9
$DIMTIX
 70
     0
  9
$DIMSOXD
 70
     0
  9
$DIMSAH
 70
     0
  9
$DIMBLK1
  1

  9
$DIMBLK2
  1

  9
$DIMSTYLE
  2
ISO-25
  9
$DIMCLRD
 70
     0
  9
$DIMCLRE
 70
     0
  9
$DIMCLRT
 70
     0
  9
$DIMTFAC
 40
1.0
  9
$DIMGAP
 40
1.524
  9
$DIMJUST
 70
     0
  9
$DIMSD1
 70
     0
  9
$DIMSD2
 70
     0
  9
$DIMTOLJ
 70
     0
  9
$DIMTZIN
 70
     0
  9
$DIMALTZ
 70
     0
  9
$DIMALTTZ
 70
     0
  9
$DIMUPT
 70
     0
  9
$DIMDEC
 70
     2
  9
$DIMTDEC
 70
     3
  9
$DIMALTU
 70
     2
  9
$DIMALTTD
 70
     3
  9
$DIMTXSTY
  7
Standard
  9
$DIMAUNIT
 70
     0
  9
$DIMADEC
 70
     2
  9
$DIMALTRND
 40
0.0
  9
$DIMAZIN
 70
     0
  9
$DIMDSEP
 70
    44
  9
$DIMATFIT
 70
     3
  9
$DIMFRAC
 70
     0
  9
$DIMLDRBLK
  1

  9
$DIMLUNIT
 70
     2
  9
$DIMLWD
 70
    -2
  9
$DIMLWE
 70
    -2
  9
$DIMTMOVE
 70
     0
  9
$LUNITS
 70
     2
  9
$LUPREC
 70
     2
  9
$SKETCHINC
 40
1.0
  9
$FILLETRAD
 40
10.0
  9
$AUNITS
 70
     0
  9
$AUPREC
 70
     2
  9
$MENU
  1
.
  9
$ELEVATION
 40
0.0
  9
$PELEVATION
 40
0.0
  9
$THICKNESS
 40
0.0
  9
$LIMCHECK
 70
     0
  9
$CHAMFERA
 40
0.0
  9
$CHAMFERB
 40
0.0
  9
$CHAMFERC
 40
0.0
  9
$CHAMFERD
 40
0.0
  9
$SKPOLY
 70
     0
  9
$TDCREATE
 40
2458135.335668623
  9
$TDUCREATE
 40
2458135.294001956
  9
$TDUPDATE
 40
2458135.335670428
  9
$TDUUPDATE
 40
2458135.294003761
  9
$TDINDWG
 40
0.0000000116
  9
$TDUSRTIMER
 40
0.0000000116
  9
$USRTIMER
 70
     1
  9
$ANGBASE
 50
0.0
  9
$ANGDIR
 70
     0
  9
$PDMODE
 70
     0
  9
$PDSIZE
 40
-1.0
  9
$PLINEWID
 40
0.0
  9
$SPLFRAME
 70
     0
  9
$SPLINETYPE
 70
     6
  9
$SPLINESEGS
 70
     8
  9
$HANDSEED
  5
258
  9
$SURFTAB1
 70
     6
  9
$SURFTAB2
 70
     6
  9
$SURFTYPE
 70
     6
  9
$SURFU
 70
     6
  9
$SURFV
 70
     6
  9
$UCSBASE
  2

  9
$UCSNAME
  2

  9
$UCSORG
 10
0.0
 20
0.0
 30
0.0
  9
$UCSXDIR
 10
1.0
 20
0.0
 30
0.0
  9
$UCSYDIR
 10
0.0
 20
1.0
 30
0.0
  9
$UCSORTHOREF
  2

  9
$UCSORTHOVIEW
 70
     0
  9
$UCSORGTOP
 10
0.0
 20
0.0
 30
0.0
  9
$UCSORGBOTTOM
 10
0.0
 20
0.0
 30
0.0
  9
$UCSORGLEFT
 10
0.0
 20
0.0
 30
0.0
  9
$UCSORGRIGHT
 10
0.0
 20
0.0
 30
0.0
  9
$UCSORGFRONT
 10
0.0
 20
0.0
 30
0.0
  9
$UCSORGBACK
 10
0.0
 20
0.0
 30
0.0
  9
$PUCSBASE
  2

  9
$PUCSNAME
  2

  9
$PUCSORG
 10
0.0
 20
0.0
 30
0.0
  9
$PUCSXDIR
 10
1.0
 20
0.0
 30
0.0
  9
$PUCSYDIR
 10
0.0
 20
1.0
 30
0.0
  9
$PUCSORTHOREF
  2

  9
$PUCSORTHOVIEW
 70
     0
  9
$PUCSORGTOP
 10
0.0
 20
0.0
 30
0.0
  9
$PUCSORGBOTTOM
 10
0.0
 20
0.0
 30
0.0
  9
$PUCSORGLEFT
 10
0.0
 20
0.0
 30
0.0
  9
$PUCSORGRIGHT
 10
0.0
 20
0.0
 30
0.0
  9
$PUCSORGFRONT
 10
0.0
 20
0.0
 30
0.0
  9
$PUCSORGBACK
 10
0.0
 20
0.0
 30
0.0
  9
$USERI1
 70
     0
  9
$USERI2
 70
     0
  9
$USERI3
 70
     0
  9
$USERI4
 70
     0
  9
$USERI5
 70
     0
  9
$USERR1
 40
0.0
  9
$USERR2
 40
0.0
  9
$USERR3
 40
0.0
  9
$USERR4
 40
0.0
  9
$USERR5
 40
0.0
  9
$WORLDVIEW
 70
     1
  9
$SHADEDGE
 70
     3
  9
$SHADEDIF
 70
    70
  9
$TILEMODE
 70
     1
  9
$MAXACTVP
 70
    64
  9
$PINSBASE
 10
0.0
 20
0.0
 30
0.0
  9
$PLIMCHECK
 70
     0
  9
$PEXTMIN
 10
1.0000000000E+20
 20
1.0000000000E+20
 30
1.0000000000E+20
  9
$PEXTMAX
 10
-1.0000000000E+20
 20
-1.0000000000E+20
 30
-1.0000000000E+20
  9
$PLIMMIN
 10
0.0
 20
0.0
  9
$PLIMMAX
 10
420.0
 20
297.0
  9
$UNITMODE
 70
     0
  9
$VISRETAIN
 70
     1
  9
$PLINEGEN
 70
     0
  9
$PSLTSCALE
 70
     1
  9
$TREEDEPTH
 70
  3020
  9
$CMLSTYLE
  2
Standard
  9
$CMLJUST
 70
     0
  9
$CMLSCALE
 40
20.0
  9
$PROXYGRAPHICS
 70
     1
  9
$MEASUREMENT
 70
     1
  9
$CELWEIGHT
370
    -1
  9
$ENDCAPS
280
     0
  9
$JOINSTYLE
280
     0
  9
$LWDISPLAY
290
     1
  9
$INSUNITS
 70
     4
  9
$HYPERLINKBASE
  1

  9
$STYLESHEET
  1

  9
$XEDIT
290
     1
  9
$CEPSNTYPE
380
     0
  9
$PSTYLEMODE
290
     1
  9
$FINGERPRINTGUID
  2
{71BA6A11-B9B6-4190-A30A-F3A41A068C8F}
  9
$VERSIONGUID
  2
{FAEB1C32-E019-11D5-929B-00C0DF256EC4}
  9
$EXTNAMES
290
     1
  9
$PSVPSCALE
 40
0.0
  9
$OLESTARTUP
290
     0
  0
ENDSEC
  0
SECTION
  2
CLASSES
  0
CLASS
  1
ACDBDICTIONARYWDFLT
  2
AcDbDictionaryWithDefault
  3
ObjectDBX Classes
 90
        0
280
     0
281
     0
  0
CLASS
  1
VISUALSTYLE
  2
AcDbVisualStyle
  3
ObjectDBX Classes
 90
     4095
280
     0
281
     0
  0
CLASS
  1
MATERIAL
  2
AcDbMaterial
  3
ObjectDBX Classes
 90
     1153
280
     0
281
     0
  0
CLASS
  1
SCALE
  2
AcDbScale
  3
ObjectDBX Classes
 90
     1153
280
     0
281
     0
  0
CLASS
  1
TABLESTYLE
  2
AcDbTableStyle
  3
ObjectDBX Classes
 90
     4095
280
     0
281
     0
  0
CLASS
  1
MLEADERSTYLE
  2
AcDbMLeaderStyle
  3
ACDB_MLEADERSTYLE_CLASS
 90
     4095
280
     0
281
     0
  0
CLASS
  1
SUN
  2
AcDbSun
  3
SCENEOE
 90
     1153
280
     0
281
     0
  0
CLASS
  1
ACDBPLACEHOLDER
  2
AcDbPlaceHolder
  3
ObjectDBX Classes
 90
        0
280
     0
281
     0
  0
CLASS
  1
LAYOUT
  2
AcDbLayout
  3
ObjectDBX Classes
 90
        0
280
     0
281
     0
  0
ENDSEC
  0
SECTION
  2
TABLES
  0
TABLE
  2
VPORT
  5
8
330
0
100
AcDbSymbolTable
 70
     1
  0
VPORT
  5
29
330
8
100
AcDbSymbolTableRecord
100
AcDbViewportTableRecord
  2
*Active
 70
     0
 10
0.0
 20
0.0
 11
1.0
 21
1.0
 12
148.5
 22
105.0
 13
0.0
 23
0.0
 14
10.0
 24
10.0
 15
10.0
 25
10.0
 16
0.0
 26
0.0
 36
1.0
 17
0.0
 27
0.0
 37
0.0
 40
210.0
 41
1.4142857143
 42
50.0
 43
0.0
 44
0.0
 50
0.0
 51
0.0
 71
     0
 72
  2000
 73
     1
 74
     3
 75
     0
 76
     0
 77
     0
 78
     0
281
     0
 65
     1
110
0.0
120
0.0
130
0.0
111
1.0
121
0.0
131
0.0
112
0.0
122
1.0
132
0.0
 79
     0
146
0.0
  0
ENDTAB
  0
TABLE
  2
LTYPE
  5
5
330
0
100
AcDbSymbolTable
 70
     6
  0
LTYPE
  5
14
330
5
100
AcDbSymbolTableRecord
100
AcDbLinetypeTableRecord
  2
ByBlock
 70
     0
  3

 72
    65
 73
     0
 40
0.0
  0
LTYPE
  5
15
330
5
100
AcDbSymbolTableRecord
100
AcDbLinetypeTableRecord
  2
ByLayer
 70
     0
  3

 72
    65
 73
     0
 40
0.0
  0
LTYPE
  5
16
330
5
100
AcDbSymbolTableRecord
100
AcDbLinetypeTableRecord
  2
Continuous
 70
     0
  3
Solid line
 72
    65
 73
     0
 40
0.0
  0
LTYPE
  5
6E
330
5
100
AcDbSymbolTableRecord
100
AcDbLinetypeTableRecord
  2
HIDDEN
 70
     0
  3
Hidden __ __ __ __ __ __ __ __ __ __ __ __ __ __
 72
    65
 73
     2
 40
1.905
 49
1.27
 74
     0
 49
-0.635
 74
     0
  0
LTYPE
  5
6F
330
5
100
AcDbSymbolTableRecord
100
AcDbLinetypeTableRecord
  2
PHANTOM
 70
     0
  3
Phantom ______  __  __  ______  __  __  ______
 72
    65
 73
     6
 40
12.7
 49
6.35
 74
     0
 49
-1.27
 74
     0
 49
1.27
 74
     0
 49
-1.27
 74
     0
 49
1.27
 74
     0
 49
-1.27
 74
     0
  0
LTYPE
  5
70
330
5
100
AcDbSymbolTableRecord
100
AcDbLinetypeTableRecord
  2
CENTER
 70
     0
  3
Center ____ _ ____ _ ____ _ ____ _ ____ _ ____
 72
    65
 73
     4
 40
10.16
 49
6.35
 74
     0
 49
-1.27
 74
     0
 49
1.27
 74
     0
 49
-1.27
 74
     0
  0
LTYPE
  5
71
330
5
100
AcDbSymbolTableRecord
100
AcDbLinetypeTableRecord
  2
CENTERX2
 70
     0
  3
Center (2x) ________  __  ________  __  _____
 72
    65
 73
     4
 40
20.32
 49
12.7
 74
     0
 49
-2.54
 74
     0
 49
2.54
 74
     0
 49
-2.54
 74
     0
  0
LTYPE
  5
72
330
5
100
AcDbSymbolTableRecord
100
AcDbLinetypeTableRecord
  2
DOT2
 70
     0
  3
Dot (.5x) ........................................
 72
    65
 73
     2
 40
0.635
 49
0.0
 74
     0
 49
-0.635
 74
     0
  0
ENDTAB
  0
TABLE
  2
LAYER
  5
2
330
0
100
AcDbSymbolTable
 70
     5
  0
LAYER
  5
10
330
2
100
AcDbSymbolTableRecord
100
AcDbLayerTableRecord
  2
0
 70
     0
 62
     7
  6
Continuous
370
    -3
390
F
  0
LAYER
  5
73
330
2
100
AcDbSymbolTableRecord
100
AcDbLayerTableRecord
  2
FORMAT
 70
     0
 62
     7
  6
Continuous
370
    -3
390
F
  0
LAYER
  5
74
330
2
100
AcDbSymbolTableRecord
100
AcDbLayerTableRecord
  2
VERMASSUNG
 70
     0
 62
     7
  6
Continuous
370
    -3
390
F
  0
LAYER
  5
75
330
2
100
AcDbSymbolTableRecord
100
AcDbLayerTableRecord
  2
KOPF_DÜNN
 70
     0
 62
     7
  6
Continuous
370
    -3
390
F
  0
LAYER
  5
76
330
2
100
AcDbSymbolTableRecord
100
AcDbLayerTableRecord
  2
KOPF_DICK
 70
     0
 62
     7
  6
Continuous
370
    25
390
F
  0
ENDTAB
  0
TABLE
  2
STYLE
  5
3
330
0
100
AcDbSymbolTable
 70
     2
  0
STYLE
  5
11
330
3
100
AcDbSymbolTableRecord
100
AcDbTextStyleTableRecord
  2
Standard
 70
     0
 40
0.0
 41
1.0
 50
0.0
 71
     0
 42
2.0
  3
txt
  4

  0
STYLE
  5
77
330
3
100
AcDbSymbolTableRecord
100
AcDbTextStyleTableRecord
  2
SLDTEXTSTYLE0
 70
     0
 40
0.0
 41
0.7
 50
0.0
 71
     0
 42
2.0
  3
TXT
  4

  0
ENDTAB
  0
TABLE
  2
VIEW
  5
6
330
0
100
AcDbSymbolTable
 70
     0
  0
ENDTAB
  0
TABLE
  2
UCS
  5
7
330
0
100
AcDbSymbolTable
 70
     0
  0
ENDTAB
  0
TABLE
  2
APPID
  5
9
330
0
100
AcDbSymbolTable
 70
     1
  0
APPID
  5
12
330
9
100
AcDbSymbolTableRecord
100
AcDbRegAppTableRecord
  2
ACAD
 70
     0
  0
ENDTAB
  0
TABLE
  2
DIMSTYLE
  5
A
330
0
100
AcDbSymbolTable
 70
     2
100
AcDbDimStyleTable
  0
DIMSTYLE
105
27
330
A
100
AcDbSymbolTableRecord
100
AcDbDimStyleTableRecord
  2
ISO-25
 70
     0
 41
2.5
 42
0.625
 43
3.75
 44
1.25
 73
     0
 74
     0
 77
     1
 78
     8
140
2.5
141
2.5
143
0.0393700787
147
0.625
171
     3
172
     1
178
     0
271
     2
272
     2
274
     3
278
    44
283
     0
284
     8
340
11
  0
DIMSTYLE
105
18B
102
{ACAD_REACTORS
330
18A
330
197
330
1A1
330
1AD
330
1B8
102
}
330
A
100
AcDbSymbolTableRecord
100
AcDbDimStyleTableRecord
  2
SLDDIMSTYLE0
 70
     0
 41
3.0
 44
0.0
 45
0.000000001
 73
     0
 74
     0
 77
     1
 78
    12
 79
     3
140
2.0
147
0.5
173
     1
178
     0
271
     2
272
     3
276
     2
284
    12
340
77
  0
ENDTAB
  0
TABLE
  2
BLOCK_RECORD
  5
1
330
0
100
AcDbSymbolTable
 70
     9
  0
BLOCK_RECORD
  5
1F
330
1
100
AcDbSymbolTableRecord
100
AcDbBlockTableRecord
  2
*Model_Space
340
22
  0
BLOCK_RECORD
  5
1B
330
1
100
AcDbSymbolTableRecord
100
AcDbBlockTableRecord
  2
*Paper_Space
340
1E
  0
BLOCK_RECORD
  5
23
330
1
100
AcDbSymbolTableRecord
100
AcDbBlockTableRecord
  2
*Paper_Space0
340
26
  0
BLOCK_RECORD
  5
18C
330
1
100
AcDbSymbolTableRecord
100
AcDbBlockTableRecord
  2
_D
340
0
  0
BLOCK_RECORD
  5
198
330
1
100
AcDbSymbolTableRecord
100
AcDbBlockTableRecord
  2
_D_1
340
0
  0
BLOCK_RECORD
  5
1A2
330
1
100
AcDbSymbolTableRecord
100
AcDbBlockTableRecord
  2
_D_2
340
0
  0
BLOCK_RECORD
  5
1AE
330
1
100
AcDbSymbolTableRecord
100
AcDbBlockTableRecord
  2
_D_3
340
0
  0
BLOCK_RECORD
  5
1B9
330
1
100
AcDbSymbolTableRecord
100
AcDbBlockTableRecord
  2
_D_4
340
0
  0
BLOCK_RECORD
  5
1C2
330
1
100
AcDbSymbolTableRecord
100
AcDbBlockTableRecord
  2
SW_CENTERMARKSYMBOL_0
340
0
102
{BLKREFS
331
1CD
102
}
  0
BLOCK_RECORD
  5
1CE
330
1
100
AcDbSymbolTableRecord
100
AcDbBlockTableRecord
  2
SW_CENTERMARKSYMBOL_1
340
0
102
{BLKREFS
331
1D9
102
}
  0
BLOCK_RECORD
  5
1EC
330
1
100
AcDbSymbolTableRecord
100
AcDbBlockTableRecord
  2
SW_CENTERMARKSYMBOL_2
340
0
102
{BLKREFS
331
1F7
102
}
  0
ENDTAB
  0
ENDSEC
  0
SECTION
  2
BLOCKS
  0
BLOCK
  5
20
330
1F
100
AcDbEntity
  8
0
100
AcDbBlockBegin
  2
*Model_Space
 70
     0
 10
0.0
 20
0.0
 30
0.0
  3
*Model_Space
  1

  0
ENDBLK
  5
21
330
1F
100
AcDbEntity
  8
0
100
AcDbBlockEnd
  0
BLOCK
  5
1C
330
1B
100
AcDbEntity
 67
     1
  8
0
100
AcDbBlockBegin
  2
*Paper_Space
 70
     0
 10
0.0
 20
0.0
 30
0.0
  3
*Paper_Space
  1

  0
ENDBLK
  5
1D
330
1B
100
AcDbEntity
 67
     1
  8
0
100
AcDbBlockEnd
  0
BLOCK
  5
24
330
23
100
AcDbEntity
  8
0
100
AcDbBlockBegin
  2
*Paper_Space0
 70
     0
 10
0.0
 20
0.0
 30
0.0
  3
*Paper_Space0
  1

  0
ENDBLK
  5
25
330
23
100
AcDbEntity
  8
0
100
AcDbBlockEnd
  0
BLOCK
  5
18D
330
18C
100
AcDbEntity
  8
0
100
AcDbBlockBegin
  2
_D
 70
     0
 10
0.0
 20
0.0
 30
0.0
  3
_D
  1

  0
SOLID
  5
18F
330
18C
100
AcDbEntity
  8
VERMASSUNG
100
AcDbTrace
 10
110.9423907664
 20
159.5874155347
 30
0.0
 11
110.4923907664
 21
156.5874155347
 31
0.0
 12
111.3923907664
 22
156.5874155347
 32
0.0
 13
111.3923907664
 23
156.5874155347
 33
0.0
  0
SOLID
  5
190
330
18C
100
AcDbEntity
  8
VERMASSUNG
100
AcDbTrace
 10
110.9423907664
 20
96.5874155347
 30
0.0
 11
111.3923907664
 21
99.5874155347
 31
0.0
 12
110.4923907664
 22
99.5874155347
 32
0.0
 13
110.4923907664
 23
99.5874155347
 33
0.0
  0
LINE
  5
191
330
18C
100
AcDbEntity
  8
VERMASSUNG
100
AcDbLine
 10
159.4423907664
 20
159.5874155347
 30
0.0
 11
109.9423907664
 21
159.5874155347
 31
0.0
  0
LINE
  5
192
330
18C
100
AcDbEntity
  8
VERMASSUNG
100
AcDbLine
 10
159.4423907664
 20
96.5874155347
 30
0.0
 11
109.9423907664
 21
96.5874155347
 31
0.0
  0
LINE
  5
193
330
18C
100
AcDbEntity
  8
VERMASSUNG
100
AcDbLine
 10
110.9423907664
 20
159.5874155347
 30
0.0
 11
110.9423907664
 21
96.5874155347
 31
0.0
  0
MTEXT
  5
194
330
18C
100
AcDbEntity
  8
VERMASSUNG
100
AcDbMText
 10
108.1642555101
 20
121.9846237753
 30
0.0
 40
2.0
 41
0.0
 71
     1
 72
     1
  1
PSC
  7
SLDTEXTSTYLE0
 11
-7.044195017643634E-15
 21
1.0
 31
0.0
 73
     1
 44
1.0
  0
MTEXT
  5
195
330
18C
100
AcDbEntity
  8
VERMASSUNG
100
AcDbMText
 10
108.3642554614
 20
127.7846237015
 30
0.0
 40
2.0
 41
0.0
 71
     1
 72
     1
  1
%%c
  7
SLDTEXTSTYLE0
 11
-7.044195017643634E-15
 21
1.0
 31
0.0
 73
     1
 44
1.0
  0
MTEXT
  5
196
330
18C
100
AcDbEntity
  8
VERMASSUNG
100
AcDbMText
 10
108.3642551704
 20
131.3922496105
 30
0.0
 40
2.0
 41
0.0
 71
     1
 72
     1
  1
63
  7
SLDTEXTSTYLE0
 11
-7.044195017643634E-15
 21
1.0
 31
0.0
 73
     1
 44
1.0
  0
ENDBLK
  5
18E
330
18C
100
AcDbEntity
  8
0
100
AcDbBlockEnd
  0
BLOCK
  5
199
330
198
100
AcDbEntity
  8
0
100
AcDbBlockBegin
  2
_D_1
 70
     0
 10
0.0
 20
0.0
 30
0.0
  3
_D_1
  1

  0
SOLID
  5
19B
330
198
100
AcDbEntity
  8
VERMASSUNG
100
AcDbTrace
 10
158.9423907664
 20
169.5874155347
 30
0.0
 11
161.9423907664
 21
169.1374155347
 31
0.0
 12
161.9423907664
 22
170.0374155347
 32
0.0
 13
161.9423907664
 23
170.0374155347
 33
0.0
  0
SOLID
  5
19C
330
198
100
AcDbEntity
  8
VERMASSUNG
100
AcDbTrace
 10
243.9423907664
 20
169.5874155347
 30
0.0
 11
240.9423907664
 21
170.0374155347
 31
0.0
 12
240.9423907664
 22
169.1374155347
 32
0.0
 13
240.9423907664
 23
169.1374155347
 33
0.0
  0
LINE
  5
19D
330
198
100
AcDbEntity
  8
VERMASSUNG
100
AcDbLine
 10
158.9423907664
 20
159.0874155347
 30
0.0
 11
158.9423907664
 21
170.5874155347
 31
0.0
  0
LINE
  5
19E
330
198
100
AcDbEntity
  8
VERMASSUNG
100
AcDbLine
 10
243.9423907664
 20
158.5874155347
 30
0.0
 11
243.9423907664
 21
170.5874155347
 31
0.0
  0
LINE
  5
19F
330
198
100
AcDbEntity
  8
VERMASSUNG
100
AcDbLine
 10
158.9423907664
 20
169.5874155347
 30
0.0
 11
243.9423907664
 21
169.5874155347
 31
0.0
  0
MTEXT
  5
1A0
330
198
100
AcDbEntity
  8
VERMASSUNG
100
AcDbMText
 10
200.0423908163
 20
172.1655511307
 30
0.0
 40
2.0
 41
0.0
 71
     1
 72
     1
  1
85
  7
SLDTEXTSTYLE0
 73
     1
 44
1.0
  0
ENDBLK
  5
19A
330
198
100
AcDbEntity
  8
0
100
AcDbBlockEnd
  0
BLOCK
  5
1A3
330
1A2
100
AcDbEntity
  8
0
100
AcDbBlockBegin
  2
_D_2
 70
     0
 10
0.0
 20
0.0
 30
0.0
  3
_D_2
  1

  0
ARC
  5
1A5
330
1A2
100
AcDbEntity
  8
VERMASSUNG
100
AcDbCircle
 10
184.3423908275
 20
180.9974809078
 30
0.0
 40
4.24852922888762
100
AcDbArc
 50
153.4349488229
 51
206.5650511771
  0
ARC
  5
1A6
330
1A2
100
AcDbEntity
  8
VERMASSUNG
100
AcDbCircle
 10
180.5423907634
 20
180.9974809078
 30
0.0
 40
4.24852922888762
100
AcDbArc
 50
333.4349488229
 51
26.5650511771
  0
SOLID
  5
1A7
330
1A2
100
AcDbEntity
  8
VERMASSUNG
100
AcDbTrace
 10
120.9423907664
 20
179.0974806429
 30
0.0
 11
123.9423907664
 21
178.6474806429
 31
0.0
 12
123.9423907664
 22
179.5474806429
 32
0.0
 13
123.9423907664
 23
179.5474806429
 33
0.0
  0
SOLID
  5
1A8
330
1A2
100
AcDbEntity
  8
VERMASSUNG
100
AcDbTrace
 10
243.9423907664
 20
179.0974806429
 30
0.0
 11
240.9423907664
 21
179.5474806429
 31
0.0
 12
240.9423907664
 22
178.6474806429
 32
0.0
 13
240.9423907664
 23
178.6474806429
 33
0.0
  0
LINE
  5
1A9
330
1A2
100
AcDbEntity
  8
VERMASSUNG
100
AcDbLine
 10
120.9423907664
 20
148.3797535272
 30
0.0
 11
120.9423907664
 21
180.0974806429
 31
0.0
  0
LINE
  5
1AA
330
1A2
100
AcDbEntity
  8
VERMASSUNG
100
AcDbLine
 10
243.9423907664
 20
158.5874155347
 30
0.0
 11
243.9423907664
 21
180.0974806429
 31
0.0
  0
LINE
  5
1AB
330
1A2
100
AcDbEntity
  8
VERMASSUNG
100
AcDbLine
 10
120.9423907664
 20
179.0974806429
 30
0.0
 11
243.9423907664
 21
179.0974806429
 31
0.0
  0
MTEXT
  5
1AC
330
1A2
100
AcDbEntity
  8
VERMASSUNG
100
AcDbMText
 10
180.5423907634
 20
181.6756164717
 30
0.0
 40
2.0
 41
0.0
 71
     1
 72
     1
  1
123
  7
SLDTEXTSTYLE0
 73
     1
 44
1.0
  0
ENDBLK
  5
1A4
330
1A2
100
AcDbEntity
  8
0
100
AcDbBlockEnd
  0
BLOCK
  5
1AF
330
1AE
100
AcDbEntity
  8
0
100
AcDbBlockBegin
  2
_D_3
 70
     0
 10
0.0
 20
0.0
 30
0.0
  3
_D_3
  1

  0
SOLID
  5
1B1
330
1AE
100
AcDbEntity
  8
VERMASSUNG
100
AcDbTrace
 10
257.2043351283
 20
148.0874155347
 30
0.0
 11
256.7543351283
 21
145.0874155347
 31
0.0
 12
257.6543351283
 22
145.0874155347
 32
0.0
 13
257.6543351283
 23
145.0874155347
 33
0.0
  0
SOLID
  5
1B2
330
1AE
100
AcDbEntity
  8
VERMASSUNG
100
AcDbTrace
 10
257.2043351283
 20
108.0874155347
 30
0.0
 11
257.6543351283
 21
111.0874155347
 31
0.0
 12
256.7543351283
 22
111.0874155347
 32
0.0
 13
256.7543351283
 23
111.0874155347
 33
0.0
  0
LINE
  5
1B3
330
1AE
100
AcDbEntity
  8
VERMASSUNG
100
AcDbLine
 10
242.7423907664
 20
148.0874155347
 30
0.0
 11
258.2043351283
 21
148.0874155347
 31
0.0
  0
LINE
  5
1B4
330
1AE
100
AcDbEntity
  8
VERMASSUNG
100
AcDbLine
 10
242.7423907664
 20
108.0874155347
 30
0.0
 11
258.2043351283
 21
108.0874155347
 31
0.0
  0
LINE
  5
1B5
330
1AE
100
AcDbEntity
  8
VERMASSUNG
100
AcDbLine
 10
257.2043351283
 20
148.0874155347
 30
0.0
 11
257.2043351283
 21
108.0874155347
 31
0.0
  0
MTEXT
  5
1B6
330
1AE
100
AcDbEntity
  8
VERMASSUNG
100
AcDbMText
 10
254.6261998234
 20
124.7824155146
 30
0.0
 40
2.0
 41
0.0
 71
     1
 72
     1
  1
%%c
  7
SLDTEXTSTYLE0
 11
-7.044195017643634E-15
 21
1.0
 31
0.0
 73
     1
 44
1.0
  0
MTEXT
  5
1B7
330
1AE
100
AcDbEntity
  8
VERMASSUNG
100
AcDbMText
 10
254.4261998721
 20
128.3924155289
 30
0.0
 40
2.0
 41
0.0
 71
     1
 72
     1
  1
40
  7
SLDTEXTSTYLE0
 11
-7.044195017643634E-15
 21
1.0
 31
0.0
 73
     1
 44
1.0
  0
ENDBLK
  5
1B0
330
1AE
100
AcDbEntity
  8
0
100
AcDbBlockEnd
  0
BLOCK
  5
1BA
330
1B9
100
AcDbEntity
  8
0
100
AcDbBlockBegin
  2
_D_4
 70
     0
 10
0.0
 20
0.0
 30
0.0
  3
_D_4
  1

  0
SOLID
  5
1BC
330
1B9
100
AcDbEntity
  8
VERMASSUNG
100
AcDbTrace
 10
243.9423907664
 20
86.5874155347
 30
0.0
 11
240.9423907664
 21
87.0374155347
 31
0.0
 12
240.9423907664
 22
86.1374155347
 32
0.0
 13
240.9423907664
 23
86.1374155347
 33
0.0
  0
SOLID
  5
1BD
330
1B9
100
AcDbEntity
  8
VERMASSUNG
100
AcDbTrace
 10
170.9423907664
 20
86.5874155347
 30
0.0
 11
173.9423907664
 21
86.1374155347
 31
0.0
 12
173.9423907664
 22
87.0374155347
 32
0.0
 13
173.9423907664
 23
87.0374155347
 33
0.0
  0
LINE
  5
1BE
330
1B9
100
AcDbEntity
  8
VERMASSUNG
100
AcDbLine
 10
243.9423907664
 20
97.5874155347
 30
0.0
 11
243.9423907664
 21
85.5874155347
 31
0.0
  0
LINE
  5
1BF
330
1B9
100
AcDbEntity
  8
VERMASSUNG
100
AcDbLine
 10
170.9423907664
 20
107.4874155347
 30
0.0
 11
170.9423907664
 21
85.5874155347
 31
0.0
  0
LINE
  5
1C0
330
1B9
100
AcDbEntity
  8
VERMASSUNG
100
AcDbLine
 10
243.9423907664
 20
86.5874155347
 30
0.0
 11
170.9423907664
 21
86.5874155347
 31
0.0
  0
MTEXT
  5
1C1
330
1B9
100
AcDbEntity
  8
VERMASSUNG
100
AcDbMText
 10
206.0423908163
 20
89.1655511307
 30
0.0
 40
2.0
 41
0.0
 71
     1
 72
     1
  1
73
  7
SLDTEXTSTYLE0
 73
     1
 44
1.0
  0
ENDBLK
  5
1BB
330
1B9
100
AcDbEntity
  8
0
100
AcDbBlockEnd
  0
BLOCK
  5
1C3
330
1C2
100
AcDbEntity
  8
0
100
AcDbBlockBegin
  2
SW_CENTERMARKSYMBOL_0
 70
     0
 10
0.0
 20
0.0
 30
0.0
  3
SW_CENTERMARKSYMBOL_0
  1

  0
LINE
  5
1C5
330
1C2
100
AcDbEntity
  8
VERMASSUNG
 62
     0
100
AcDbLine
 10
0.0
 20
0.0
 30
0.0
 11
0.0
 21
2.5
 31
0.0
  0
LINE
  5
1C6
330
1C2
100
AcDbEntity
  8
VERMASSUNG
 62
     0
100
AcDbLine
 10
0.0
 20
0.0
 30
0.0
 11
-2.5
 21
0.0
 31
0.0
  0
LINE
  5
1C7
330
1C2
100
AcDbEntity
  8
VERMASSUNG
 62
     0
100
AcDbLine
 10
0.0
 20
0.0
 30
0.0
 11
0.0
 21
-2.5
 31
0.0
  0
LINE
  5
1C8
330
1C2
100
AcDbEntity
  8
VERMASSUNG
 62
     0
100
AcDbLine
 10
0.0
 20
0.0
 30
0.0
 11
2.5
 21
0.0
 31
0.0
  0
LINE
  5
1C9
330
1C2
100
AcDbEntity
  8
VERMASSUNG
 62
     0
100
AcDbLine
 10
0.0
 20
5.0
 30
0.0
 11
0.0
 21
10.5
 31
0.0
  0
LINE
  5
1CA
330
1C2
100
AcDbEntity
  8
VERMASSUNG
 62
     0
100
AcDbLine
 10
-5.0
 20
0.0
 30
0.0
 11
-10.5
 21
0.0
 31
0.0
  0
LINE
  5
1CB
330
1C2
100
AcDbEntity
  8
VERMASSUNG
 62
     0
100
AcDbLine
 10
0.0
 20
-5.0
 30
0.0
 11
0.0
 21
-10.5
 31
0.0
  0
LINE
  5
1CC
330
1C2
100
AcDbEntity
  8
VERMASSUNG
 62
     0
100
AcDbLine
 10
5.0
 20
0.0
 30
0.0
 11
10.5
 21
0.0
 31
0.0
  0
ENDBLK
  5
1C4
330
1C2
100
AcDbEntity
  8
0
100
AcDbBlockEnd
  0
BLOCK
  5
1CF
330
1CE
100
AcDbEntity
  8
0
100
AcDbBlockBegin
  2
SW_CENTERMARKSYMBOL_1
 70
     0
 10
0.0
 20
0.0
 30
0.0
  3
SW_CENTERMARKSYMBOL_1
  1

  0
LINE
  5
1D1
330
1CE
100
AcDbEntity
  8
VERMASSUNG
 62
     0
100
AcDbLine
 10
0.0
 20
0.0
 30
0.0
 11
0.0
 21
2.5
 31
0.0
  0
LINE
  5
1D2
330
1CE
100
AcDbEntity
  8
VERMASSUNG
 62
     0
100
AcDbLine
 10
0.0
 20
0.0
 30
0.0
 11
-2.5
 21
0.0
 31
0.0
  0
LINE
  5
1D3
330
1CE
100
AcDbEntity
  8
VERMASSUNG
 62
     0
100
AcDbLine
 10
0.0
 20
0.0
 30
0.0
 11
0.0
 21
-2.5
 31
0.0
  0
LINE
  5
1D4
330
1CE
100
AcDbEntity
  8
VERMASSUNG
 62
     0
100
AcDbLine
 10
0.0
 20
0.0
 30
0.0
 11
2.5
 21
0.0
 31
0.0
  0
LINE
  5
1D5
330
1CE
100
AcDbEntity
  8
VERMASSUNG
 62
     0
100
AcDbLine
 10
0.0
 20
5.0
 30
0.0
 11
0.0
 21
10.5
 31
0.0
  0
LINE
  5
1D6
330
1CE
100
AcDbEntity
  8
VERMASSUNG
 62
     0
100
AcDbLine
 10
-5.0
 20
0.0
 30
0.0
 11
-10.5
 21
0.0
 31
0.0
  0
LINE
  5
1D7
330
1CE
100
AcDbEntity
  8
VERMASSUNG
 62
     0
100
AcDbLine
 10
0.0
 20
-5.0
 30
0.0
 11
0.0
 21
-10.5
 31
0.0
  0
LINE
  5
1D8
330
1CE
100
AcDbEntity
  8
VERMASSUNG
 62
     0
100
AcDbLine
 10
5.0
 20
0.0
 30
0.0
 11
10.5
 21
0.0
 31
0.0
  0
ENDBLK
  5
1D0
330
1CE
100
AcDbEntity
  8
0
100
AcDbBlockEnd
  0
BLOCK
  5
1ED
330
1EC
100
AcDbEntity
  8
0
100
AcDbBlockBegin
  2
SW_CENTERMARKSYMBOL_2
 70
     0
 10
0.0
 20
0.0
 30
0.0
  3
SW_CENTERMARKSYMBOL_2
  1

  0
LINE
  5
1EF
330
1EC
100
AcDbEntity
  8
VERMASSUNG
 62
     0
100
AcDbLine
 10
0.0
 20
0.0
 30
0.0
 11
0.0
 21
2.5
 31
0.0
  0
LINE
  5
1F0
330
1EC
100
AcDbEntity
  8
VERMASSUNG
 62
     0
100
AcDbLine
 10
0.0
 20
0.0
 30
0.0
 11
-2.5
 21
0.0
 31
0.0
  0
LINE
  5
1F1
330
1EC
100
AcDbEntity
  8
VERMASSUNG
 62
     0
100
AcDbLine
 10
0.0
 20
0.0
 30
0.0
 11
0.0
 21
-2.5
 31
0.0
  0
LINE
  5
1F2
330
1EC
100
AcDbEntity
  8
VERMASSUNG
 62
     0
100
AcDbLine
 10
0.0
 20
0.0
 30
0.0
 11
2.5
 21
0.0
 31
0.0
  0
LINE
  5
1F3
330
1EC
100
AcDbEntity
  8
VERMASSUNG
 62
     0
100
AcDbLine
 10
0.0
 20
5.0
 30
0.0
 11
0.0
 21
34.0
 31
0.0
  0
LINE
  5
1F4
330
1EC
100
AcDbEntity
  8
VERMASSUNG
 62
     0
100
AcDbLine
 10
-5.0
 20
0.0
 30
0.0
 11
-34.0
 21
0.0
 31
0.0
  0
LINE
  5
1F5
330
1EC
100
AcDbEntity
  8
VERMASSUNG
 62
     0
100
AcDbLine
 10
0.0
 20
-5.0
 30
0.0
 11
0.0
 21
-34.0
 31
0.0
  0
LINE
  5
1F6
330
1EC
100
AcDbEntity
  8
VERMASSUNG
 62
     0
100
AcDbLine
 10
5.0
 20
0.0
 30
0.0
 11
34.0
 21
0.0
 31
0.0
  0
ENDBLK
  5
1EE
330
1EC
100
AcDbEntity
  8
0
100
AcDbBlockEnd
  0
ENDSEC
  0
SECTION
  2
ENTITIES
  0
MTEXT
  5
78
330
1F
100
AcDbEntity
  8
KOPF_DÜNN
100
AcDbMText
 10
13.8892156294
 20
23.8442973028
 30
0.0
 40
3.0
 41
0.0
 71
     1
 72
     1
  1
PS6.K40.K01.085
  7
SLDTEXTSTYLE0
 73
     1
 44
1.0
  0
MTEXT
  5
79
330
1F
100
AcDbEntity
  8
VERMASSUNG
100
AcDbMText
 10
13.9329988022
 20
28.8834360957
 30
0.0
 40
3.0
 41
0.0
 71
     1
 72
     1
  1
Werkzeughalter / Toolholder
  7
SLDTEXTSTYLE0
 73
     1
 44
1.0
  0
MTEXT
  5
7A
330
1F
100
AcDbEntity
  8
VERMASSUNG
100
AcDbMText
 10
98.8601118557
 20
13.8365368761
 30
0.0
 40
2.0
 41
0.0
 71
     1
 72
     1
  1
Datum: 29.11.2017
  7
SLDTEXTSTYLE0
 73
     1
 44
1.0
  0
MTEXT
  5
7B
330
1F
100
AcDbEntity
  8
VERMASSUNG
100
AcDbMText
 10
13.933048693
 20
18.0482802738
 30
0.0
 40
2.0
 41
0.0
 71
     1
 72
     1
  1
für Wendeplattenbohrer Schaft-Ø40 / for indexable insert drills shaft-Ø40
  7
SLDTEXTSTYLE0
 73
     1
 44
1.0
  0
MTEXT
  5
7C
330
1F
100
AcDbEntity
  8
VERMASSUNG
100
AcDbMText
 10
13.9808475933
 20
13.9090974274
 30
0.0
 40
2.0
 41
0.0
 71
     1
 72
     1
  1
Gewicht: 1572g
  7
SLDTEXTSTYLE0
 73
     1
 44
1.0
  0
LINE
  5
7D
330
1F
100
AcDbEntity
  8
0
  6
Continuous
 62
     7
370
    25
100
AcDbLine
 10
159.4423907664
 20
96.5874155347
 30
0.0
 11
242.9423907664
 21
96.5874155347
 31
0.0
  0
LINE
  5
7E
330
1F
100
AcDbEntity
  8
0
  6
Continuous
 62
     7
370
    25
100
AcDbLine
 10
242.9423907664
 20
159.5874155347
 30
0.0
 11
159.4423907664
 21
159.5874155347
 31
0.0
  0
LINE
  5
7F
330
1F
100
AcDbEntity
  8
0
  6
Continuous
 62
     7
370
    25
100
AcDbLine
 10
242.9423907664
 20
96.5874155347
 30
0.0
 11
243.9423907664
 21
97.5874155347
 31
0.0
  0
LINE
  5
80
330
1F
100
AcDbEntity
  8
0
  6
Continuous
 62
     7
370
    25
100
AcDbLine
 10
243.9423907664
 20
158.5874155347
 30
0.0
 11
242.9423907664
 21
159.5874155347
 31
0.0
  0
ARC
  5
81
330
1F
100
AcDbEntity
  8
0
  6
Continuous
 62
     7
370
    25
100
AcDbCircle
 10
159.4423907664
 20
97.0874155347
 30
0.0
 40
0.5
100
AcDbArc
 50
180.0
 51
270.0
  0
ARC
  5
82
330
1F
100
AcDbEntity
  8
0
  6
Continuous
 62
     7
370
    25
100
AcDbCircle
 10
159.4423907664
 20
159.0874155347
 30
0.0
 40
0.5
100
AcDbArc
 50
90.0
 51
180.0
  0
LWPOLYLINE
  5
83
330
1F
100
AcDbEntity
  8
0
  6
Continuous
 62
     7
370
    25
100
AcDbPolyline
 90
        3
 70
   128
 43
0.0
 10
158.7423907664
 20
105.5475952559
 10
158.8678457098
 20
105.4792931409
 10
158.9423907664
 20
105.4265553828
  0
LWPOLYLINE
  5
84
330
1F
100
AcDbEntity
  8
0
  6
Continuous
 62
     7
370
    25
100
AcDbPolyline
 90
        3
 70
   128
 43
0.0
 10
158.9423907664
 20
150.7482756867
 10
158.8678457098
 20
150.6955379286
 10
158.7423907664
 20
150.6272358136
  0
CIRCLE
  5
85
330
1F
100
AcDbEntity
  8
0
  6
Continuous
 62
     7
370
    25
100
AcDbCircle
 10
221.9423907664
 20
128.0874155347
 30
0.0
 40
5.000000000000009
  0
SPLINE
  5
86
330
1F
100
AcDbEntity
  8
0
  6
Continuous
 62
     7
370
    25
100
AcDbSpline
210
0.0
220
0.0
230
1.0
 70
    24
 71
     3
 72
    11
 73
     7
 74
     0
 42
0.000000001
 43
0.00000001
 40
0.0
 40
0.0
 40
0.0
 40
0.0
 40
0.2164567244934178
 40
0.440314160093916
 40
0.7519028444798649
 40
1.0
 40
1.0
 40
1.0
 40
1.0
 10
217.4859046260041
 20
126.8737168018917
 30
0.0
 10
217.5665409936505
 20
127.1796632203752
 30
0.0
 10
217.7305707071019
 20
127.8020164441133
 30
0.0
 10
218.0349651688171
 20
128.956934480306
 30
0.0
 10
218.3614808497068
 20
130.1957837249156
 30
0.0
 10
218.5704306408005
 20
130.9885704301435
 30
0.0
 10
218.663053760988
 20
131.3399963774825
 30
0.0
  0
SPLINE
  5
87
330
1F
100
AcDbEntity
  8
0
  6
Continuous
 62
     7
370
    25
100
AcDbSpline
210
0.0
220
0.0
230
1.0
 70
    24
 71
     3
 72
    13
 73
     9
 74
     0
 42
0.000000001
 43
0.00000001
 40
0.0
 40
0.0
 40
0.0
 40
0.0
 40
0.1851179936176703
 40
0.3543524867819794
 40
0.5232486163695296
 40
0.7011104990909366
 40
0.8794444273035488
 40
1.0
 40
1.0
 40
1.0
 40
1.0
 10
220.7652416313773
 20
123.6211359591573
 30
0.0
 10
220.5734328460391
 20
123.8113797735738
 30
0.0
 10
220.2062728593572
 20
124.175544096101
 30
0.0
 10
219.6255795868024
 20
124.7514994830349
 30
0.0
 10
219.0349999610183
 20
125.3372605602854
 30
0.0
 10
218.437829532142
 20
125.929558666161
 30
0.0
 10
217.918139585113
 20
126.4450084546697
 30
0.0
 10
217.6101362270261
 20
126.7504988084728
 30
0.0
 10
217.4859046260041
 20
126.8737168018917
 30
0.0
  0
SPLINE
  5
88
330
1F
100
AcDbEntity
  8
0
  6
Continuous
 62
     7
370
    25
100
AcDbSpline
210
0.0
220
0.0
230
1.0
 70
    24
 71
     3
 72
    11
 73
     7
 74
     0
 42
0.000000001
 43
0.00000001
 40
0.0
 40
0.0
 40
0.0
 40
0.0
 40
0.2164567244934178
 40
0.4403141600939153
 40
0.7519028444798661
 40
1.0
 40
1.0
 40
1.0
 40
1.0
 10
225.2217277717346
 20
124.8348346920138
 30
0.0
 10
224.9164522173078
 20
124.7516946256228
 30
0.0
 10
224.2954636586978
 20
124.5825719125781
 30
0.0
 10
223.1430780692084
 20
124.2687262310984
 30
0.0
 10
221.9069453114724
 20
123.932072483178
 30
0.0
 10
221.1158969894156
 20
123.7166349577667
 30
0.0
 10
220.7652416313773
 20
123.6211359591573
 30
0.0
  0
SPLINE
  5
89
330
1F
100
AcDbEntity
  8
0
  6
Continuous
 62
     7
370
    25
100
AcDbSpline
210
0.0
220
0.0
230
1.0
 70
    24
 71
     3
 72
    11
 73
     7
 74
     0
 42
0.000000001
 43
0.00000001
 40
0.0
 40
0.0
 40
0.0
 40
0.0
 40
0.2164567244934153
 40
0.4403141600939131
 40
0.7519028444798699
 40
1.0
 40
1.0
 40
1.0
 40
1.0
 10
226.3988769067185
 20
129.3011142676046
 30
0.0
 10
226.3182405390721
 20
128.9951678491211
 30
0.0
 10
226.1542108256207
 20
128.372814625383
 30
0.0
 10
225.8498163639055
 20
127.2178965891903
 30
0.0
 10
225.5233006830158
 20
125.9790473445807
 30
0.0
 10
225.3143508919221
 20
125.1862606393528
 30
0.0
 10
225.2217277717345
 20
124.8348346920138
 30
0.0
  0
SPLINE
  5
8A
330
1F
100
AcDbEntity
  8
0
  6
Continuous
 62
     7
370
    25
100
AcDbSpline
210
0.0
220
0.0
230
1.0
 70
    24
 71
     3
 72
    13
 73
     9
 74
     0
 42
0.000000001
 43
0.00000001
 40
0.0
 40
0.0
 40
0.0
 40
0.0
 40
0.1205555726964536
 40
0.2988895009090645
 40
0.4767513836304711
 40
0.6456475132180196
 40
0.8148820063823263
 40
0.9999999999999999
 40
0.9999999999999999
 40
0.9999999999999999
 40
0.9999999999999999
 10
223.1195399013453
 20
132.553695110339
 30
0.0
 10
223.2437715023673
 20
132.4304771169201
 30
0.0
 10
223.5517748604542
 20
132.1249867631169
 30
0.0
 10
224.0714648074832
 20
131.6095369746083
 30
0.0
 10
224.6686352363594
 20
131.0172388687326
 30
0.0
 10
225.2592148621436
 20
130.4314777914821
 30
0.0
 10
225.8399081346984
 20
129.8555224045483
 30
0.0
 10
226.2070681213802
 20
129.4913580820211
 30
0.0
 10
226.3988769067185
 20
129.3011142676046
 30
0.0
  0
SPLINE
  5
8B
330
1F
100
AcDbEntity
  8
0
  6
Continuous
 62
     7
370
    25
100
AcDbSpline
210
0.0
220
0.0
230
1.0
 70
    24
 71
     3
 72
    11
 73
     7
 74
     0
 42
0.000000001
 43
0.00000001
 40
0.0
 40
0.0
 40
0.0
 40
0.0
 40
0.2164567244934155
 40
0.4403141600939146
 40
0.7519028444798642
 40
0.9999999999999999
 40
0.9999999999999999
 40
0.9999999999999999
 40
0.9999999999999999
 10
218.663053760988
 20
131.3399963774825
 30
0.0
 10
218.9683293154148
 20
131.4231364438735
 30
0.0
 10
219.5893178740248
 20
131.5922591569183
 30
0.0
 10
220.7417034635141
 20
131.9061048383979
 30
0.0
 10
221.9778362212501
 20
132.2427585863183
 30
0.0
 10
222.7688845433069
 20
132.4581961117296
 30
0.0
 10
223.1195399013453
 20
132.553695110339
 30
0.0
  0
CIRCLE
  5
8C
330
1F
100
AcDbEntity
  8
0
  6
Continuous
 62
     7
370
    25
100
AcDbCircle
 10
221.9423907664
 20
128.0874155347
 30
0.0
 40
6.999999999999964
  0
CIRCLE
  5
8D
330
1F
100
AcDbEntity
  8
0
  6
Continuous
 62
     7
370
    25
100
AcDbCircle
 10
221.9423907664
 20
128.0874155347
 30
0.0
 40
7.999999999999992
  0
ARC
  5
8E
330
1F
100
AcDbEntity
  8
0
  6
Continuous
 62
     7
370
    25
100
AcDbCircle
 10
221.9423907664
 20
128.0874155347
 30
0.0
 40
4.000000000000016
100
AcDbArc
 50
105.2346947186
 51
165.2346947186
  0
ARC
  5
8F
330
1F
100
AcDbEntity
  8
0
  6
Continuous
 62
     7
370
    25
100
AcDbCircle
 10
221.9423907664
 20
128.0874155347
 30
0.0
 40
3.999999999999991
100
AcDbArc
 50
165.2346947186
 51
225.2346947186
  0
ARC
  5
90
330
1F
100
AcDbEntity
  8
0
  6
Continuous
 62
     7
370
    25
100
AcDbCircle
 10
221.9423907664
 20
128.0874155347
 30
0.0
 40
3.999999999999996
100
AcDbArc
 50
285.2346947186
 51
345.2346947186
  0
ARC
  5
91
330
1F
100
AcDbEntity
  8
0
  6
Continuous
 62
     7
370
    25
100
AcDbCircle
 10
221.9423907664
 20
128.0874155347
 30
0.0
 40
3.999999999999996
100
AcDbArc
 50
225.2346947186
 51
285.2346947186
  0
ARC
  5
92
330
1F
100
AcDbEntity
  8
0
  6
Continuous
 62
     7
370
    25
100
AcDbCircle
 10
221.9423907664
 20
128.0874155347
 30
0.0
 40
3.999999999999993
100
AcDbArc
 50
345.2346947186
 51
45.2346947186
  0
ARC
  5
93
330
1F
100
AcDbEntity
  8
0
  6
Continuous
 62
     7
370
    25
100
AcDbCircle
 10
221.9423907664
 20
128.0874155347
 30
0.0
 40
4.000000000000016
100
AcDbArc
 50
45.2346947186
 51
105.2346947186
  0
SPLINE
  5
94
330
1F
100
AcDbEntity
  8
0
  6
Continuous
 62
     7
370
    25
100
AcDbSpline
210
0.0
220
0.0
230
1.0
 70
    24
 71
     3
 72
    11
 73
     7
 74
     0
 42
0.000000001
 43
0.00000001
 40
0.0
 40
0.0
 40
0.0
 40
0.0
 40
0.2164567244934166
 40
0.4403141600939154
 40
0.7519028444798639
 40
1.0
 40
1.0
 40
1.0
 40
1.0
 10
198.5543645046254
 20
128.3384764255609
 30
0.0
 10
198.3815072429817
 20
128.6034779385134
 30
0.0
 10
198.0298826854406
 20
129.1425414343339
 30
0.0
 10
197.3773632993703
 20
130.1428964260486
 30
0.0
 10
196.6774234567203
 20
131.2159500861271
 30
0.0
 10
196.2295053552026
 20
131.9026378969385
 30
0.0
 10
196.0309525261527
 20
132.2070323990779
 30
0.0
  0
SPLINE
  5
95
330
1F
100
AcDbEntity
  8
0
  6
Continuous
 62
     7
370
    25
100
AcDbSpline
210
0.0
220
0.0
230
1.0
 70
    24
 71
     3
 72
    13
 73
     9
 74
     0
 42
0.000000001
 43
0.00000001
 40
0.0
 40
0.0
 40
0.0
 40
0.0
 40
0.1205425664572836
 40
0.295997697301605
 40
0.476745156340463
 40
0.6427946289537892
 40
0.8149019779924774
 40
1.0
 40
1.0
 40
1.0
 40
1.0
 10
191.4189787878886
 20
131.9559715082652
 30
0.0
 10
191.5937249347239
 20
131.9654841216885
 30
0.0
 10
192.0228219632322
 20
131.988842772092
 30
0.0
 10
192.7526301179584
 20
132.0285711608137
 30
0.0
 10
193.5884161084091
 20
132.0740686391602
 30
0.0
 10
194.4239248392529
 20
132.119551024393
 30
0.0
 10
195.2404773978144
 20
132.1640014970935
 30
0.0
 10
195.7611489723198
 20
132.1923451687479
 30
0.0
 10
196.0309525261527
 20
132.2070323990779
 30
0.0
  0
SPLINE
  5
96
330
1F
100
AcDbEntity
  8
0
  6
Continuous
 62
     7
370
    25
100
AcDbSpline
210
0.0
220
0.0
230
1.0
 70
    24
 71
     3
 72
    11
 73
     7
 74
     0
 42
0.000000001
 43
0.00000001
 40
0.0
 40
0.0
 40
0.0
 40
0.0
 40
0.216456724493412
 40
0.4403141600939142
 40
0.7519028444798639
 40
1.0
 40
1.0
 40
1.0
 40
1.0
 10
189.3304170280972
 20
127.8363546439354
 30
0.0
 10
189.4734864395335
 20
128.1185541802237
 30
0.0
 10
189.7645168423963
 20
128.692601727559
 30
0.0
 10
190.3045899849887
 20
129.7578775882151
 30
0.0
 10
190.8839117929156
 20
130.9005701031101
 30
0.0
 10
191.2546418307886
 20
131.631822463245
 30
0.0
 10
191.4189787878886
 20
131.9559715082652
 30
0.0
  0
SPLINE
  5
97
330
1F
100
AcDbEntity
  8
0
  6
Continuous
 62
     7
370
    25
100
AcDbSpline
210
0.0
220
0.0
230
1.0
 70
    24
 71
     3
 72
    11
 73
     7
 74
     0
 42
0.000000001
 43
0.00000001
 40
0.0
 40
0.0
 40
0.0
 40
0.0
 40
0.2164567244934125
 40
0.4403141600939151
 40
0.7519028444798657
 40
1.0
 40
1.0
 40
1.0
 40
1.0
 10
189.3304170280972
 20
127.8363546439354
 30
0.0
 10
189.5032742897409
 20
127.5713531309829
 30
0.0
 10
189.854898847282
 20
127.0322896351624
 30
0.0
 10
190.5074182333523
 20
126.0319346434477
 30
0.0
 10
191.2073580760022
 20
124.9588809833692
 30
0.0
 10
191.6552761775199
 20
124.2721931725577
 30
0.0
 10
191.8538290065698
 20
123.9677986704184
 30
0.0
  0
SPLINE
  5
98
330
1F
100
AcDbEntity
  8
0
  6
Continuous
 62
     7
370
    25
100
AcDbSpline
210
0.0
220
0.0
230
1.0
 70
    24
 71
     3
 72
    13
 73
     9
 74
     0
 42
0.000000001
 43
0.00000001
 40
0.0
 40
0.0
 40
0.0
 40
0.0
 40
0.1205425664572822
 40
0.2959976973016035
 40
0.4767451563404616
 40
0.6427946289537935
 40
0.8149019779924758
 40
1.0
 40
1.0
 40
1.0
 40
1.0
 10
191.8538290065699
 20
123.9677986704184
 30
0.0
 10
192.0285751534051
 20
123.9773112838417
 30
0.0
 10
192.4576721819134
 20
124.0006699342452
 30
0.0
 10
193.1874803366396
 20
124.0403983229669
 30
0.0
 10
194.0232663270904
 20
124.0858958013134
 30
0.0
 10
194.8587750579341
 20
124.1313781865463
 30
0.0
 10
195.6753276164956
 20
124.1758286592467
 30
0.0
 10
196.195999191001
 20
124.2041723309011
 30
0.0
 10
196.465802744834
 20
124.2188595612311
 30
0.0
  0
SPLINE
  5
99
330
1F
100
AcDbEntity
  8
0
  6
Continuous
 62
     7
370
    25
100
AcDbSpline
210
0.0
220
0.0
230
1.0
 70
    24
 71
     3
 72
    11
 73
     7
 74
     0
 42
0.000000001
 43
0.00000001
 40
0.0
 40
0.0
 40
0.0
 40
0.0
 40
0.2164567244934167
 40
0.4403141600939157
 40
0.751902844479864
 40
1.0
 40
1.0
 40
1.0
 40
1.0
 10
198.5543645046254
 20
128.3384764255609
 30
0.0
 10
198.4112950931891
 20
128.0562768892726
 30
0.0
 10
198.1202646903262
 20
127.4822293419373
 30
0.0
 10
197.5801915477338
 20
126.4169534812812
 30
0.0
 10
197.0008697398069
 20
125.2742609663863
 30
0.0
 10
196.630139701934
 20
124.5430086062513
 30
0.0
 10
196.465802744834
 20
124.2188595612311
 30
0.0
  0
CIRCLE
  5
9A
330
1F
100
AcDbEntity
  8
0
  6
Continuous
 62
     7
370
    25
100
AcDbCircle
 10
193.9423907664
 20
128.0874155347
 30
0.0
 40
5.000000000000011
  0
CIRCLE
  5
9B
330
1F
100
AcDbEntity
  8
0
  6
Continuous
 62
     7
370
    25
100
AcDbCircle
 10
193.9423907664
 20
128.0874155347
 30
0.0
 40
7.000000000000028
  0
CIRCLE
  5
9C
330
1F
100
AcDbEntity
  8
0
  6
Continuous
 62
     7
370
    25
100
AcDbCircle
 10
193.9423907664
 20
128.0874155347
 30
0.0
 40
8.000000000000034
  0
ARC
  5
9D
330
1F
100
AcDbEntity
  8
0
  6
Continuous
 62
     7
370
    25
100
AcDbCircle
 10
193.9423907664
 20
128.0874155347
 30
0.0
 40
3.999999999999999
100
AcDbArc
 50
273.1159209537
 51
333.1159209537
  0
ARC
  5
9E
330
1F
100
AcDbEntity
  8
0
  6
Continuous
 62
     7
370
    25
100
AcDbCircle
 10
193.9423907664
 20
128.0874155347
 30
0.0
 40
4.00000000000003
100
AcDbArc
 50
93.1159209537
 51
153.1159209537
  0
ARC
  5
9F
330
1F
100
AcDbEntity
  8
0
  6
Continuous
 62
     7
370
    25
100
AcDbCircle
 10
193.9423907664
 20
128.0874155347
 30
0.0
 40
3.999999999999998
100
AcDbArc
 50
153.1159209537
 51
213.1159209537
  0
ARC
  5
A0
330
1F
100
AcDbEntity
  8
0
  6
Continuous
 62
     7
370
    25
100
AcDbCircle
 10
193.9423907664
 20
128.0874155347
 30
0.0
 40
3.999999999999999
100
AcDbArc
 50
333.1159209537
 51
33.1159209537
  0
ARC
  5
A1
330
1F
100
AcDbEntity
  8
0
  6
Continuous
 62
     7
370
    25
100
AcDbCircle
 10
193.9423907664
 20
128.0874155347
 30
0.0
 40
4.00000000000003
100
AcDbArc
 50
33.1159209537
 51
93.1159209537
  0
ARC
  5
A2
330
1F
100
AcDbEntity
  8
0
  6
Continuous
 62
     7
370
    25
100
AcDbCircle
 10
193.9423907664
 20
128.0874155347
 30
0.0
 40
3.999999999999998
100
AcDbArc
 50
213.1159209537
 51
273.1159209537
  0
SPLINE
  5
A3
330
1F
100
AcDbEntity
  8
0
  6
Continuous
 62
     7
370
    25
100
AcDbSpline
210
0.0
220
0.0
230
1.0
 70
    11
 71
     3
 72
    94
 73
    90
 74
     0
 42
0.000000001
 43
0.00000001
 40
0.0
 40
0.0
 40
0.0
 40
0.0
 40
0.0312499999999998
 40
0.0312499999999998
 40
0.0624999999999995
 40
0.0624999999999995
 40
0.0937499999999993
 40
0.0937499999999993
 40
0.1093749999999992
 40
0.1093749999999992
 40
0.1249999999999991
 40
0.1249999999999991
 40
0.140624999999999
 40
0.140624999999999
 40
0.1562499999999989
 40
0.1562499999999989
 40
0.1874999999999986
 40
0.1874999999999986
 40
0.2031249999999985
 40
0.2031249999999985
 40
0.2187499999999983
 40
0.2187499999999983
 40
0.2499999999999982
 40
0.2499999999999982
 40
0.281249999999998
 40
0.281249999999998
 40
0.3124999999999978
 40
0.3124999999999978
 40
0.3281249999999977
 40
0.3281249999999977
 40
0.3437499999999977
 40
0.3437499999999977
 40
0.3749999999999975
 40
0.3749999999999975
 40
0.3906249999999974
 40
0.3906249999999974
 40
0.4062499999999974
 40
0.4062499999999974
 40
0.4374999999999976
 40
0.4374999999999976
 40
0.4531249999999977
 40
0.4531249999999977
 40
0.4687499999999978
 40
0.4687499999999978
 40
0.499999999999998
 40
0.499999999999998
 40
0.5156249999999981
 40
0.5156249999999981
 40
0.5312499999999982
 40
0.5312499999999982
 40
0.5624999999999984
 40
0.5624999999999984
 40
0.5781249999999984
 40
0.5781249999999984
 40
0.5937499999999984
 40
0.5937499999999984
 40
0.6249999999999984
 40
0.6249999999999984
 40
0.6406249999999984
 40
0.6406249999999984
 40
0.6562499999999984
 40
0.6562499999999984
 40
0.6718749999999984
 40
0.6718749999999984
 40
0.6874999999999984
 40
0.6874999999999984
 40
0.7187499999999986
 40
0.7187499999999986
 40
0.7499999999999987
 40
0.7499999999999987
 40
0.7812499999999988
 40
0.7812499999999988
 40
0.8124999999999989
 40
0.8124999999999989
 40
0.828124999999999
 40
0.828124999999999
 40
0.8437499999999991
 40
0.8437499999999991
 40
0.8749999999999991
 40
0.8749999999999991
 40
0.8906249999999992
 40
0.8906249999999992
 40
0.9062499999999993
 40
0.9062499999999993
 40
0.9374999999999996
 40
0.9374999999999996
 40
0.9687499999999998
 40
0.9687499999999998
 40
1.0
 40
1.0
 40
1.0
 40
1.0
 10
187.5800892707007
 20
134.2876209453451
 30
0.0
 10
187.120778031744
 20
133.9215908475013
 30
0.0
 10
186.7023188481036
 20
133.51756152161
 30
0.0
 10
185.9503914242205
 20
132.6290248144642
 30
0.0
 10
185.6150655277541
 20
132.1390075227812
 30
0.0
 10
185.0680901241263
 20
131.1142674154191
 30
0.0
 10
184.8519801676406
 20
130.5760716394574
 30
0.0
 10
184.6221429251947
 20
129.7259185307929
 30
0.0
 10
184.5614792780569
 20
129.4341102655114
 30
0.0
 10
184.4767598539416
 20
128.8532534424362
 30
0.0
 10
184.4520038161302
 20
128.5621769564535
 30
0.0
 10
184.4373686707969
 20
127.9787386411696
 30
0.0
 10
184.4474884004752
 20
127.6863768542446
 30
0.0
 10
184.5034033538504
 20
127.1003390797809
 30
0.0
 10
184.5496390333842
 20
126.8058998484764
 30
0.0
 10
184.7378391323767
 20
125.9451905273306
 30
0.0
 10
184.929068520118
 20
125.393073266952
 30
0.0
 10
185.3101934187911
 20
124.5957346981912
 30
0.0
 10
185.4520421466421
 20
124.337605039654
 30
0.0
 10
185.7601480511142
 20
123.8418203008096
 30
0.0
 10
185.9268989023048
 20
123.6031311142249
 30
0.0
 10
186.4636903100559
 20
122.9133500772923
 30
0.0
 10
186.8736535455575
 20
122.4861939482503
 30
0.0
 10
187.7561251798961
 20
121.7273240999965
 30
0.0
 10
188.2310956611591
 20
121.3913797452821
 30
0.0
 10
189.2466408112149
 20
120.8025121586549
 30
0.0
 10
189.7781070476776
 20
120.5554057654823
 30
0.0
 10
190.5987397388893
 20
120.2553712786585
 30
0.0
 10
190.8767594831006
 20
120.1669090987958
 30
0.0
 10
191.441792011978
 20
120.0130414624405
 30
0.0
 10
191.7300023008279
 20
119.9474317247177
 30
0.0
 10
192.5996228843658
 20
119.7876022789088
 30
0.0
 10
193.1814608989451
 20
119.7304276830002
 30
0.0
 10
194.057248143139
 20
119.7158968055094
 30
0.0
 10
194.3496852660097
 20
119.7230016819375
 30
0.0
 10
194.9355933647661
 20
119.7615403517602
 30
0.0
 10
195.2304849494884
 20
119.7932266394384
 30
0.0
 10
196.1037701292682
 20
119.9241893161975
 30
0.0
 10
196.6712287725487
 20
120.0584694323939
 30
0.0
 10
197.5007411704218
 20
120.3297116254
 30
0.0
 10
197.77361102835
 20
120.4318364674402
 30
0.0
 10
198.311872617854
 20
120.6603597358699
 30
0.0
 10
198.5785542813587
 20
120.7875111779369
 30
0.0
 10
199.3532669862166
 20
121.2002028638538
 30
0.0
 10
199.8383612244791
 20
121.5169437570253
 30
0.0
 10
200.5181536123298
 20
122.0566699195024
 30
0.0
 10
200.7367208723799
 20
122.2474231114733
 30
0.0
 10
201.1568877827882
 20
122.6520563480434
 30
0.0
 10
201.3593987540999
 20
122.8671937551272
 30
0.0
 10
201.9261585145578
 20
123.5344598867768
 30
0.0
 10
202.254082163421
 20
124.011215254666
 30
0.0
 10
202.6668447629497
 20
124.7776645473903
 30
0.0
 10
202.7911456961728
 20
125.041763220094
 30
0.0
 10
203.0109789970181
 20
125.5887185537722
 30
0.0
 10
203.1054359275803
 20
125.8696033684548
 30
0.0
 10
203.3360546958441
 20
126.7162815948357
 30
0.0
 10
203.4229803399726
 20
127.2930241654387
 30
0.0
 10
203.4477915206806
 20
128.1776288098695
 30
0.0
 10
203.4379524234236
 20
128.4761024656032
 30
0.0
 10
203.383091088082
 20
129.0617527308949
 30
0.0
 10
203.3382319880111
 20
129.3512064798718
 30
0.0
 10
203.2146045354189
 20
129.9235671218405
 30
0.0
 10
203.1358346097596
 20
130.2064736814853
 30
0.0
 10
202.9442111005497
 20
130.7657284191919
 30
0.0
 10
202.8321874533887
 20
131.039222749816
 30
0.0
 10
202.4545782069627
 20
131.8320299872179
 30
0.0
 10
202.1452515440567
 20
132.3299392724683
 30
0.0
 10
201.4233112239895
 20
133.2596039775464
 30
0.0
 10
201.020022245043
 20
133.6800498781445
 30
0.0
 10
200.1365159015422
 20
134.4416693738602
 30
0.0
 10
199.6526924749293
 20
134.7838417599545
 30
0.0
 10
198.6437748416039
 20
135.3692366829351
 30
0.0
 10
198.1153785582279
 20
135.6159999695928
 30
0.0
 10
197.2872772487193
 20
135.9191283695769
 30
0.0
 10
197.0048318145168
 20
136.0089096992717
 30
0.0
 10
196.438254884021
 20
136.1629582752533
 30
0.0
 10
196.1528875075054
 20
136.2277304315049
 30
0.0
 10
195.29068057696
 20
136.3862470480245
 30
0.0
 10
194.7077836055697
 20
136.4444898797091
 30
0.0
 10
193.8209456994114
 20
136.4589627017024
 30
0.0
 10
193.5247726709163
 20
136.4514300788877
 30
0.0
 10
192.938925966265
 20
136.412325970845
 30
0.0
 10
192.6481046070585
 20
136.3807834122333
 30
0.0
 10
191.7818663611193
 20
136.2505526753906
 30
0.0
 10
191.2126217654977
 20
136.1165924307323
 30
0.0
 10
190.091411361097
 20
135.7488892880199
 30
0.0
 10
189.5525562090906
 20
135.5191175612125
 30
0.0
 10
188.5280078774794
 20
134.9721739147314
 30
0.0
 10
188.0394005096574
 20
134.6536510431889
 30
0.0
 10
187.5800892707007
 20
134.2876209453451
 30
0.0
  0
LINE
  5
A4
330
1F
100
AcDbEntity
  8
0
  6
Continuous
 62
     7
370
    25
100
AcDbLine
 10
242.9423907664
 20
96.5874155347
 30
0.0
 11
242.9423907664
 21
159.5874155347
 31
0.0
  0
SPLINE
  5
A5
330
1F
100
AcDbEntity
  8
0
  6
Continuous
 62
     7
370
    25
100
AcDbSpline
210
0.0
220
0.0
230
1.0
 70
     8
 71
     3
 72
    12
 73
     8
 74
     0
 42
0.000000001
 43
0.00000001
 40
0.0
 40
0.0
 40
0.0
 40
0.0
 40
0.2500000000000014
 40
0.2500000000000014
 40
0.5000000000000028
 40
0.5000000000000028
 40
1.0
 40
1.0
 40
1.0
 40
1.0
 10
169.4701475799277
 20
137.475481966084
 30
0.0
 10
169.4070675414343
 20
137.475481966084
 30
0.0
 10
169.3479189192529
 20
137.5008462852989
 30
0.0
 10
169.2494463691838
 20
137.5750111456719
 30
0.0
 10
169.2104097571991
 20
137.621531486226
 30
0.0
 10
169.11051329042
 20
137.7716738290712
 30
0.0
 10
169.0680924093534
 20
137.8833670360434
 30
0.0
 10
169.0371348780354
 20
137.9967848554332
 30
0.0
  0
LINE
  5
A6
330
1F
100
AcDbEntity
  8
0
  6
Continuous
 62
     7
370
    25
100
AcDbLine
 10
172.4146339528
 20
137.4754819661
 30
0.0
 11
169.4701475799
 21
137.4754819661
 31
0.0
  0
SPLINE
  5
A7
330
1F
100
AcDbEntity
  8
0
  6
Continuous
 62
     7
370
    25
100
AcDbSpline
210
0.0
220
0.0
230
1.0
 70
     8
 71
     3
 72
    12
 73
     8
 74
     0
 42
0.000000001
 43
0.00000001
 40
0.0
 40
0.0
 40
0.0
 40
0.0
 40
0.4999999999999963
 40
0.4999999999999963
 40
0.7499999999999981
 40
0.7499999999999981
 40
1.0
 40
1.0
 40
1.0
 40
1.0
 10
172.847646654687
 20
137.9967848554331
 30
0.0
 10
172.8169244127679
 20
137.884229056024
 30
0.0
 10
172.7740871982328
 20
137.7714711962844
 30
0.0
 10
172.674660174033
 20
137.621930310488
 30
0.0
 10
172.6349079792163
 20
137.5746375787812
 30
0.0
 10
172.5368665223581
 20
137.5009012854597
 30
0.0
 10
172.4773104667706
 20
137.475481966084
 30
0.0
 10
172.4146339527948
 20
137.475481966084
 30
0.0
  0
ELLIPSE
  5
A8
330
1F
100
AcDbEntity
  8
0
  6
Continuous
 62
     7
370
    25
100
AcDbEllipse
 10
156.595236577
 20
128.0874155347
 30
0.0
 11
14.75368316065612
 21
31.09325491558116
 31
0.0
210
0.0
220
0.0
230
1.0
 40
0.3419987131
 41
5.193281737408619
 42
6.124043104552323
  0
SPLINE
  5
A9
330
1F
100
AcDbEntity
  8
0
  6
Continuous
 62
     7
370
    25
100
AcDbSpline
210
0.0
220
0.0
230
1.0
 70
     8
 71
     3
 72
    12
 73
     8
 74
     0
 42
0.000000001
 43
0.00000001
 40
0.0
 40
0.0
 40
0.0
 40
0.0
 40
0.2499999999999991
 40
0.2499999999999991
 40
0.4999999999999982
 40
0.4999999999999982
 40
1.0
 40
1.0
 40
1.0
 40
1.0
 10
172.4146339527948
 20
158.1559074936212
 30
0.0
 10
172.4777139912881
 20
158.1559074936212
 30
0.0
 10
172.5368626134696
 20
158.1480015674087
 30
0.0
 10
172.6353351635386
 20
158.1246764059725
 30
0.0
 10
172.6743717755234
 20
158.1099636161408
 30
0.0
 10
172.7742682423024
 20
158.0620078154099
 30
0.0
 10
172.816689123369
 20
158.0257456588298
 30
0.0
 10
172.847646654687
 20
157.9881579948653
 30
0.0
  0
LINE
  5
AA
330
1F
100
AcDbEntity
  8
0
  6
Continuous
 62
     7
370
    25
100
AcDbLine
 10
169.4701475799
 20
158.1559074936
 30
0.0
 11
172.4146339528
 21
158.1559074936
 31
0.0
  0
SPLINE
  5
AB
330
1F
100
AcDbEntity
  8
0
  6
Continuous
 62
     7
370
    25
100
AcDbSpline
210
0.0
220
0.0
230
1.0
 70
     8
 71
     3
 72
    12
 73
     8
 74
     0
 42
0.000000001
 43
0.00000001
 40
0.0
 40
0.0
 40
0.0
 40
0.0
 40
0.4999999999999971
 40
0.4999999999999971
 40
0.7499999999999986
 40
0.7499999999999986
 40
1.0
 40
1.0
 40
1.0
 40
1.0
 10
169.0371348780355
 20
157.9881579948653
 30
0.0
 10
169.0678571199545
 20
158.0254599778184
 30
0.0
 10
169.1106943344897
 20
158.0620718098647
 30
0.0
 10
169.2101213586895
 20
158.1098365931499
 30
0.0
 10
169.2498735535061
 20
158.1247941086323
 30
0.0
 10
169.3479150103644
 20
158.1479840544014
 30
0.0
 10
169.4074710659519
 20
158.1559074936212
 30
0.0
 10
169.4701475799277
 20
158.1559074936212
 30
0.0
  0
ELLIPSE
  5
AC
330
1F
100
AcDbEntity
  8
0
  6
Continuous
 62
     7
370
    25
100
AcDbEllipse
 10
185.2895449557
 20
128.0874155347
 30
0.0
 11
-14.7536831606561
 21
31.09325491558116
 31
0.0
210
0.0
220
0.0
230
1.0
 40
0.3419987131
 41
0.1591422026272981
 42
1.089903569770978
  0
SPLINE
  5
AD
330
1F
100
AcDbEntity
  8
0
  6
Continuous
 62
     7
370
    25
100
AcDbSpline
210
0.0
220
0.0
230
1.0
 70
     8
 71
     3
 72
    12
 73
     8
 74
     0
 42
0.000000001
 43
0.00000001
 40
0.0
 40
0.0
 40
0.0
 40
0.0
 40
0.2500000000000001
 40
0.2500000000000001
 40
0.5000000000000001
 40
0.5000000000000001
 40
1.0
 40
1.0
 40
1.0
 40
1.0
 10
169.4701475799277
 20
98.018923575875
 30
0.0
 10
169.4070906250299
 20
98.018923575875
 30
0.0
 10
169.3479604752843
 20
98.02682390695455
 30
0.0
 10
169.249512924751
 20
98.05013465495958
 30
0.0
 10
169.2104806865629
 20
98.06483978124322
 30
0.0
 10
169.110590802106
 20
98.11277330942987
 30
0.0
 10
169.0682918284967
 20
98.14884328219463
 30
0.0
 10
169.0371348780354
 20
98.18667307463085
 30
0.0
  0
LINE
  5
AE
330
1F
100
AcDbEntity
  8
0
  6
Continuous
 62
     7
370
    25
100
AcDbLine
 10
172.4146339528
 20
98.0189235759
 30
0.0
 11
169.4701475799
 21
98.0189235759
 31
0.0
  0
SPLINE
  5
AF
330
1F
100
AcDbEntity
  8
0
  6
Continuous
 62
     7
370
    25
100
AcDbSpline
210
0.0
220
0.0
230
1.0
 70
     8
 71
     3
 72
    12
 73
     8
 74
     0
 42
0.000000001
 43
0.00000001
 40
0.0
 40
0.0
 40
0.0
 40
0.0
 40
0.5000000000000019
 40
0.5000000000000019
 40
0.7500000000000009
 40
0.7500000000000009
 40
1.0
 40
1.0
 40
1.0
 40
1.0
 10
172.847646654687
 20
98.18667307463086
 30
0.0
 10
172.8165014567249
 20
98.14885755171066
 30
0.0
 10
172.7742271903905
 20
98.11279069362705
 30
0.0
 10
172.6742816565652
 20
98.0648306286158
 30
0.0
 10
172.6345513518611
 20
98.04996965471813
 30
0.0
 10
172.5376633018549
 20
98.027018508587
 30
0.0
 10
172.4775980601083
 20
98.01892357587494
 30
0.0
 10
172.4146339527948
 20
98.01892357587494
 30
0.0
  0
ELLIPSE
  5
B0
330
1F
100
AcDbEntity
  8
0
  6
Continuous
 62
     7
370
    25
100
AcDbEllipse
 10
156.595236577
 20
128.0874155347
 30
0.0
 11
-14.75368316065629
 21
31.09325491558115
 31
0.0
210
0.0
220
0.0
230
1.0
 40
0.3419987131
 41
3.300734856217121
 42
4.231496223360772
  0
SPLINE
  5
B1
330
1F
100
AcDbEntity
  8
0
  6
Continuous
 62
     7
370
    25
100
AcDbSpline
210
0.0
220
0.0
230
1.0
 70
     8
 71
     3
 72
    12
 73
     8
 74
     0
 42
0.000000001
 43
0.00000001
 40
0.0
 40
0.0
 40
0.0
 40
0.0
 40
0.2500000000000009
 40
0.2500000000000009
 40
0.5000000000000018
 40
0.5000000000000018
 40
1.0
 40
1.0
 40
1.0
 40
1.0
 10
172.4146339527948
 20
118.6993491034119
 30
0.0
 10
172.4776909076926
 20
118.6993491034119
 30
0.0
 10
172.5368210574382
 20
118.6740027500312
 30
0.0
 10
172.6352686079715
 20
118.5998833678917
 30
0.0
 10
172.6743008461595
 20
118.5533868531937
 30
0.0
 10
172.7741907306165
 20
118.4033123461851
 30
0.0
 10
172.8164897042258
 20
118.2921946370703
 30
0.0
 10
172.8476466546871
 20
118.1780462140628
 30
0.0
  0
LINE
  5
B2
330
1F
100
AcDbEntity
  8
0
  6
Continuous
 62
     7
370
    25
100
AcDbLine
 10
169.4701475799
 20
118.6993491034
 30
0.0
 11
172.4146339528
 21
118.6993491034
 31
0.0
  0
SPLINE
  5
B3
330
1F
100
AcDbEntity
  8
0
  6
Continuous
 62
     7
370
    25
100
AcDbSpline
210
0.0
220
0.0
230
1.0
 70
     8
 71
     3
 72
    12
 73
     8
 74
     0
 42
0.000000001
 43
0.00000001
 40
0.0
 40
0.0
 40
0.0
 40
0.0
 40
0.5000000000000019
 40
0.5000000000000019
 40
0.7500000000000009
 40
0.7500000000000009
 40
1.0
 40
1.0
 40
1.0
 40
1.0
 10
169.0371348780355
 20
118.1780462140627
 30
0.0
 10
169.0682800759976
 20
118.292151579928
 30
0.0
 10
169.110554342332
 20
118.4032579071468
 30
0.0
 10
169.2104998761573
 20
118.5534155145771
 30
0.0
 10
169.2502301808614
 20
118.6004082061945
 30
0.0
 10
169.3471182308676
 20
118.6733837907329
 30
0.0
 10
169.4071834726141
 20
118.699349103412
 30
0.0
 10
169.4701475799276
 20
118.699349103412
 30
0.0
  0
ELLIPSE
  5
B4
330
1F
100
AcDbEntity
  8
0
  6
Continuous
 62
     7
370
    25
100
AcDbEllipse
 10
185.2895449557
 20
128.0874155347
 30
0.0
 11
14.75368316065621
 21
31.09325491558116
 31
0.0
210
0.0
220
0.0
230
1.0
 40
0.3419987131
 41
2.051689083818827
 42
2.982450450962506
  0
SPLINE
  5
B5
330
1F
100
AcDbEntity
  8
0
  6
Continuous
 62
     7
370
    25
100
AcDbSpline
210
0.0
220
0.0
230
1.0
 70
    11
 71
     3
 72
    94
 73
    90
 74
     0
 42
0.000000001
 43
0.00000001
 40
0.0
 40
0.0
 40
0.0
 40
0.0
 40
0.0312499999999989
 40
0.0312499999999989
 40
0.0624999999999977
 40
0.0624999999999977
 40
0.0937499999999966
 40
0.0937499999999966
 40
0.1093749999999961
 40
0.1093749999999961
 40
0.1249999999999956
 40
0.1249999999999956
 40
0.140624999999995
 40
0.140624999999995
 40
0.1562499999999945
 40
0.1562499999999945
 40
0.1874999999999934
 40
0.1874999999999934
 40
0.2031249999999928
 40
0.2031249999999928
 40
0.2187499999999922
 40
0.2187499999999922
 40
0.249999999999991
 40
0.249999999999991
 40
0.2812499999999897
 40
0.2812499999999897
 40
0.3124999999999885
 40
0.3124999999999885
 40
0.3281249999999878
 40
0.3281249999999878
 40
0.3437499999999872
 40
0.3437499999999872
 40
0.374999999999986
 40
0.374999999999986
 40
0.3906249999999861
 40
0.3906249999999861
 40
0.4062499999999862
 40
0.4062499999999862
 40
0.4374999999999865
 40
0.4374999999999865
 40
0.453124999999987
 40
0.453124999999987
 40
0.4687499999999875
 40
0.4687499999999875
 40
0.4999999999999885
 40
0.4999999999999885
 40
0.5156249999999887
 40
0.5156249999999887
 40
0.5312499999999889
 40
0.5312499999999889
 40
0.5624999999999897
 40
0.5624999999999897
 40
0.5781249999999901
 40
0.5781249999999901
 40
0.5937499999999906
 40
0.5937499999999906
 40
0.6249999999999915
 40
0.6249999999999915
 40
0.6406249999999919
 40
0.6406249999999919
 40
0.6562499999999923
 40
0.6562499999999923
 40
0.6718749999999928
 40
0.6718749999999928
 40
0.6874999999999931
 40
0.6874999999999931
 40
0.7187499999999937
 40
0.7187499999999937
 40
0.7499999999999942
 40
0.7499999999999942
 40
0.7812499999999948
 40
0.7812499999999948
 40
0.8124999999999952
 40
0.8124999999999952
 40
0.8281249999999956
 40
0.8281249999999956
 40
0.8437499999999959
 40
0.8437499999999959
 40
0.8749999999999972
 40
0.8749999999999972
 40
0.8906249999999979
 40
0.8906249999999979
 40
0.9062499999999982
 40
0.9062499999999982
 40
0.9374999999999988
 40
0.9374999999999988
 40
0.9687499999999994
 40
0.9687499999999994
 40
1.0
 40
1.0
 40
1.0
 40
1.0
 10
215.5800892707007
 20
134.2876209453451
 30
0.0
 10
215.120778031744
 20
133.9215908475013
 30
0.0
 10
214.7023188481035
 20
133.51756152161
 30
0.0
 10
213.9503914242204
 20
132.6290248144642
 30
0.0
 10
213.6150655277541
 20
132.1390075227812
 30
0.0
 10
213.0680901241263
 20
131.1142674154191
 30
0.0
 10
212.8519801676406
 20
130.5760716394574
 30
0.0
 10
212.6221429251947
 20
129.7259185307929
 30
0.0
 10
212.5614792780569
 20
129.4341102655114
 30
0.0
 10
212.4767598539416
 20
128.8532534424362
 30
0.0
 10
212.4520038161302
 20
128.5621769564535
 30
0.0
 10
212.4373686707969
 20
127.9787386411696
 30
0.0
 10
212.4474884004752
 20
127.6863768542446
 30
0.0
 10
212.5034033538504
 20
127.1003390797809
 30
0.0
 10
212.5496390333842
 20
126.8058998484764
 30
0.0
 10
212.7378391323767
 20
125.9451905273306
 30
0.0
 10
212.929068520118
 20
125.393073266952
 30
0.0
 10
213.3101934187911
 20
124.5957346981912
 30
0.0
 10
213.4520421466421
 20
124.3376050396539
 30
0.0
 10
213.7601480511142
 20
123.8418203008096
 30
0.0
 10
213.9268989023049
 20
123.6031311142248
 30
0.0
 10
214.4636903100559
 20
122.9133500772923
 30
0.0
 10
214.8736535455575
 20
122.4861939482503
 30
0.0
 10
215.7561251798961
 20
121.7273240999965
 30
0.0
 10
216.2310956611591
 20
121.3913797452821
 30
0.0
 10
217.2466408112149
 20
120.8025121586549
 30
0.0
 10
217.7781070476777
 20
120.5554057654823
 30
0.0
 10
218.5987397388893
 20
120.2553712786585
 30
0.0
 10
218.8767594831006
 20
120.1669090987958
 30
0.0
 10
219.441792011978
 20
120.0130414624405
 30
0.0
 10
219.7300023008279
 20
119.9474317247177
 30
0.0
 10
220.5996228843658
 20
119.7876022789088
 30
0.0
 10
221.1814608989451
 20
119.7304276830002
 30
0.0
 10
222.057248143139
 20
119.7158968055094
 30
0.0
 10
222.3496852660097
 20
119.7230016819375
 30
0.0
 10
222.9355933647662
 20
119.7615403517602
 30
0.0
 10
223.2304849494884
 20
119.7932266394384
 30
0.0
 10
224.1037701292681
 20
119.9241893161975
 30
0.0
 10
224.6712287725487
 20
120.0584694323939
 30
0.0
 10
225.5007411704218
 20
120.3297116254
 30
0.0
 10
225.77361102835
 20
120.4318364674402
 30
0.0
 10
226.311872617854
 20
120.6603597358699
 30
0.0
 10
226.5785542813586
 20
120.7875111779369
 30
0.0
 10
227.3532669862165
 20
121.2002028638538
 30
0.0
 10
227.8383612244791
 20
121.5169437570253
 30
0.0
 10
228.5181536123297
 20
122.0566699195025
 30
0.0
 10
228.7367208723799
 20
122.2474231114733
 30
0.0
 10
229.1568877827882
 20
122.6520563480434
 30
0.0
 10
229.3593987540998
 20
122.8671937551272
 30
0.0
 10
229.9261585145578
 20
123.5344598867768
 30
0.0
 10
230.254082163421
 20
124.011215254666
 30
0.0
 10
230.6668447629497
 20
124.7776645473903
 30
0.0
 10
230.7911456961728
 20
125.041763220094
 30
0.0
 10
231.0109789970181
 20
125.5887185537722
 30
0.0
 10
231.1054359275804
 20
125.8696033684548
 30
0.0
 10
231.3360546958441
 20
126.7162815948357
 30
0.0
 10
231.4229803399726
 20
127.2930241654387
 30
0.0
 10
231.4477915206806
 20
128.1776288098695
 30
0.0
 10
231.4379524234235
 20
128.4761024656032
 30
0.0
 10
231.3830910880819
 20
129.0617527308949
 30
0.0
 10
231.3382319880111
 20
129.3512064798718
 30
0.0
 10
231.2146045354189
 20
129.9235671218405
 30
0.0
 10
231.1358346097596
 20
130.2064736814853
 30
0.0
 10
230.9442111005497
 20
130.7657284191919
 30
0.0
 10
230.8321874533887
 20
131.039222749816
 30
0.0
 10
230.4545782069627
 20
131.8320299872179
 30
0.0
 10
230.1452515440567
 20
132.3299392724683
 30
0.0
 10
229.4233112239895
 20
133.2596039775464
 30
0.0
 10
229.020022245043
 20
133.6800498781446
 30
0.0
 10
228.1365159015422
 20
134.4416693738602
 30
0.0
 10
227.6526924749292
 20
134.7838417599545
 30
0.0
 10
226.6437748416039
 20
135.3692366829351
 30
0.0
 10
226.1153785582279
 20
135.6159999695929
 30
0.0
 10
225.2872772487193
 20
135.9191283695769
 30
0.0
 10
225.0048318145167
 20
136.0089096992717
 30
0.0
 10
224.438254884021
 20
136.1629582752533
 30
0.0
 10
224.1528875075053
 20
136.227730431505
 30
0.0
 10
223.29068057696
 20
136.3862470480245
 30
0.0
 10
222.7077836055697
 20
136.4444898797091
 30
0.0
 10
221.8209456994114
 20
136.4589627017024
 30
0.0
 10
221.5247726709162
 20
136.4514300788877
 30
0.0
 10
220.938925966265
 20
136.412325970845
 30
0.0
 10
220.6481046070585
 20
136.3807834122333
 30
0.0
 10
219.7818663611193
 20
136.2505526753906
 30
0.0
 10
219.2126217654977
 20
136.1165924307323
 30
0.0
 10
218.091411361097
 20
135.7488892880199
 30
0.0
 10
217.5525562090906
 20
135.5191175612125
 30
0.0
 10
216.5280078774794
 20
134.9721739147314
 30
0.0
 10
216.0394005096575
 20
134.6536510431889
 30
0.0
 10
215.5800892707007
 20
134.2876209453451
 30
0.0
  0
LINE
  5
B6
330
1F
100
AcDbEntity
  8
0
  6
Continuous
 62
     7
370
    25
100
AcDbLine
 10
243.9423907664
 20
97.5874155347
 30
0.0
 11
243.9423907664
 21
158.5874155347
 31
0.0
  0
LINE
  5
B7
330
1F
100
AcDbEntity
  8
0
  6
Continuous
 62
     7
370
    25
100
AcDbLine
 10
158.9423907664
 20
97.0874155347
 30
0.0
 11
158.9423907664
 21
159.0874155339
 31
0.0
  0
LINE
  5
B8
330
1F
100
AcDbEntity
  8
0
  6
Continuous
 62
     7
370
    25
100
AcDbLine
 10
169.037134878
 20
118.1780462141
 30
0.0
 11
169.037134878
 21
98.1866730746
 31
0.0
  0
LINE
  5
B9
330
1F
100
AcDbEntity
  8
0
  6
Continuous
 62
     7
370
    25
100
AcDbLine
 10
169.4701475799
 20
118.6993491034
 30
0.0
 11
169.4701475799
 21
98.0189235759
 31
0.0
  0
LINE
  5
BA
330
1F
100
AcDbEntity
  8
0
  6
Continuous
 62
     7
370
    25
100
AcDbLine
 10
169.4701475799
 20
158.1559074936
 30
0.0
 11
169.4701475799
 21
137.4754819661
 31
0.0
  0
LINE
  5
BB
330
1F
100
AcDbEntity
  8
0
  6
Continuous
 62
     7
370
    25
100
AcDbLine
 10
169.037134878
 20
157.9881579949
 30
0.0
 11
169.037134878
 21
137.9967848554
 31
0.0
  0
LINE
  5
BC
330
1F
100
AcDbEntity
  8
0
  6
Continuous
 62
     7
370
    25
100
AcDbLine
 10
172.4146339528
 20
118.6993491034
 30
0.0
 11
172.4146339528
 21
98.0189235759
 31
0.0
  0
LINE
  5
BD
330
1F
100
AcDbEntity
  8
0
  6
Continuous
 62
     7
370
    25
100
AcDbLine
 10
172.8476466547
 20
118.1780462141
 30
0.0
 11
172.8476466547
 21
98.1866730746
 31
0.0
  0
LINE
  5
BE
330
1F
100
AcDbEntity
  8
0
  6
Continuous
 62
     7
370
    25
100
AcDbLine
 10
172.8476466547
 20
157.9881579949
 30
0.0
 11
172.8476466547
 21
137.9967848554
 31
0.0
  0
LINE
  5
BF
330
1F
100
AcDbEntity
  8
0
  6
Continuous
 62
     7
370
    25
100
AcDbLine
 10
172.4146339528
 20
158.1559074936
 30
0.0
 11
172.4146339528
 21
137.4754819661
 31
0.0
  0
SPLINE
  5
C0
330
1F
100
AcDbEntity
  8
0
  6
Continuous
 62
     7
370
    25
100
AcDbSpline
210
0.0
220
0.0
230
1.0
 70
     8
 71
     3
 72
    12
 73
     8
 74
     0
 42
0.000000001
 43
0.00000001
 40
0.0
 40
0.0
 40
0.0
 40
0.0
 40
0.5000000000000001
 40
0.5000000000000001
 40
0.75
 40
0.75
 40
1.0
 40
1.0
 40
1.0
 40
1.0
 10
158.1258784799047
 20
106.2326218322723
 30
0.0
 10
158.1823149808119
 20
106.2312039509305
 30
0.0
 10
158.2513996115007
 20
106.2296396146822
 30
0.0
 10
158.3702018832186
 20
106.2266954227078
 30
0.0
 10
158.4103871586887
 20
106.2256572196104
 30
0.0
 10
158.4837682060925
 20
106.2237233243958
 30
0.0
 10
158.5171777698351
 20
106.222828437107
 30
0.0
 10
158.5474138774916
 20
106.2220446468346
 30
0.0
  0
SPLINE
  5
C1
330
1F
100
AcDbEntity
  8
0
  6
Continuous
 62
     7
370
    25
100
AcDbSpline
210
0.0
220
0.0
230
1.0
 70
     8
 71
     3
 72
    16
 73
    12
 74
     0
 42
0.000000001
 43
0.00000001
 40
0.0
 40
0.0
 40
0.0
 40
0.0
 40
0.0625000000000016
 40
0.0625000000000016
 40
0.1250000000000031
 40
0.1250000000000031
 40
0.2499999999999992
 40
0.2499999999999992
 40
0.4999999999999994
 40
0.4999999999999994
 40
1.0
 40
1.0
 40
1.0
 40
1.0
 10
158.5474138774544
 20
106.2220446468589
 30
0.0
 10
158.5589942850423
 20
106.2217444557475
 30
0.0
 10
158.5723038118036
 20
106.2204167074885
 30
0.0
 10
158.6016052418897
 20
106.2137180327135
 30
0.0
 10
158.616419341774
 20
106.2083598496078
 30
0.0
 10
158.6522477434769
 20
106.1913142004405
 30
0.0
 10
158.6663673678399
 20
106.1798516626647
 30
0.0
 10
158.7008715119284
 20
106.1482883372925
 30
0.0
 10
158.711976062633
 20
106.1303910382472
 30
0.0
 10
158.7381522398492
 20
106.080229620633
 30
0.0
 10
158.7423907663612
 20
106.0524852084364
 30
0.0
 10
158.7423907663612
 20
106.0278210465068
 30
0.0
  0
LINE
  5
C2
330
1F
100
AcDbEntity
  8
0
  6
Continuous
 62
     7
370
    25
100
AcDbLine
 10
158.7423907664
 20
121.065528209
 30
0.0
 11
158.7423907664
 21
105.5475952559
 31
0.0
  0
SPLINE
  5
C3
330
1F
100
AcDbEntity
  8
0
  6
Continuous
 62
     7
370
    25
100
AcDbSpline
210
0.0
220
0.0
230
1.0
 70
     8
 71
     3
 72
    16
 73
    12
 74
     0
 42
0.000000001
 43
0.00000001
 40
0.0
 40
0.0
 40
0.0
 40
0.0
 40
0.5000000000000029
 40
0.5000000000000029
 40
0.7500000000000027
 40
0.7500000000000027
 40
0.8750000000000009
 40
0.8750000000000009
 40
0.9375000000000006
 40
0.9375000000000006
 40
1.0
 40
1.0
 40
1.0
 40
1.0
 10
158.7423907663612
 20
121.065528208998
 30
0.0
 10
158.7423907663612
 20
121.1792207531259
 30
0.0
 10
158.7382444912833
 20
121.2935409144754
 30
0.0
 10
158.7122788958898
 20
121.4665892049725
 30
0.0
 10
158.7008179905123
 20
121.5257647121342
 30
0.0
 10
158.666506252738
 20
121.6088878316024
 30
0.0
 10
158.6524815168084
 20
121.6370091477031
 30
0.0
 10
158.6164585537746
 20
121.6656249616805
 30
0.0
 10
158.6017040446849
 20
121.6714180095823
 30
0.0
 10
158.572351883538
 20
121.6698245836453
 30
0.0
 10
158.5590120090339
 20
121.6633281803215
 30
0.0
 10
158.5474138774856
 20
121.6548124341183
 30
0.0
  0
SPLINE
  5
C4
330
1F
100
AcDbEntity
  8
0
  6
Continuous
 62
     7
370
    25
100
AcDbSpline
210
0.0
220
0.0
230
1.0
 70
     8
 71
     3
 72
    12
 73
     8
 74
     0
 42
0.000000001
 43
0.00000001
 40
0.0
 40
0.0
 40
0.0
 40
0.0
 40
0.2499999999999997
 40
0.2499999999999997
 40
0.4999999999999993
 40
0.4999999999999993
 40
1.0
 40
1.0
 40
1.0
 40
1.0
 10
158.5474138774927
 20
121.6548124341092
 30
0.0
 10
158.517215436052
 20
121.6326397020641
 30
0.0
 10
158.483848080716
 20
121.6135600461869
 30
0.0
 10
158.4106928048861
 20
121.5883870017442
 30
0.0
 10
158.3704401058622
 20
121.5828304653274
 30
0.0
 10
158.2527113625873
 20
121.5937422763142
 30
0.0
 10
158.1822529145284
 20
121.635678031725
 30
0.0
 10
158.1258784799101
 20
121.6848898141065
 30
0.0
  0
SPLINE
  5
C5
330
1F
100
AcDbEntity
  8
0
  6
Continuous
 62
     7
370
    25
100
AcDbSpline
210
0.0
220
0.0
230
1.0
 70
     8
 71
     3
 72
    12
 73
     8
 74
     0
 42
0.000000001
 43
0.00000001
 40
0.0
 40
0.0
 40
0.0
 40
0.0
 40
0.5
 40
0.5
 40
0.75
 40
0.75
 40
1.0
 40
1.0
 40
1.0
 40
1.0
 10
157.6210704228016
 20
122.901241205987
 30
0.0
 10
157.6648207533873
 20
122.6807943283314
 30
0.0
 10
157.7177108727677
 20
122.4652495112932
 30
0.0
 10
157.8293221933819
 20
122.1528358601831
 30
0.0
 10
157.8718816465649
 20
122.0507560870117
 30
0.0
 10
157.9768585697616
 20
121.8563164525475
 30
0.0
 10
158.0384257105964
 20
121.7612312742253
 30
0.0
 10
158.1258784799101
 20
121.6848898141066
 30
0.0
  0
LINE
  5
C6
330
1F
100
AcDbEntity
  8
0
  6
Continuous
 62
     7
370
    25
100
AcDbLine
 10
157.6210704228
 20
122.901241206
 30
0.0
 11
157.6210704228
 21
133.2735898635
 31
0.0
  0
SPLINE
  5
C7
330
1F
100
AcDbEntity
  8
0
  6
Continuous
 62
     7
370
    25
100
AcDbSpline
210
0.0
220
0.0
230
1.0
 70
     8
 71
     3
 72
    12
 73
     8
 74
     0
 42
0.000000001
 43
0.00000001
 40
0.0
 40
0.0
 40
0.0
 40
0.0
 40
0.2499999999999989
 40
0.2499999999999989
 40
0.4999999999999978
 40
0.4999999999999978
 40
1.0
 40
1.0
 40
1.0
 40
1.0
 10
158.12587847991
 20
134.4899412553897
 30
0.0
 10
158.0373841894925
 20
134.4126906046022
 30
0.0
 10
157.9773268303308
 20
134.3193715956089
 30
0.0
 10
157.8714794911361
 20
134.1233404381778
 30
0.0
 10
157.828945387212
 20
134.0210130314819
 30
0.0
 10
157.717793894158
 20
133.7096681898589
 30
0.0
 10
157.6648630550803
 20
133.494249888723
 30
0.0
 10
157.6210704228016
 20
133.2735898635092
 30
0.0
  0
SPLINE
  5
C8
330
1F
100
AcDbEntity
  8
0
  6
Continuous
 62
     7
370
    25
100
AcDbSpline
210
0.0
220
0.0
230
1.0
 70
     8
 71
     3
 72
    12
 73
     8
 74
     0
 42
0.000000001
 43
0.00000001
 40
0.0
 40
0.0
 40
0.0
 40
0.0
 40
0.5000000000000004
 40
0.5000000000000004
 40
0.7500000000000004
 40
0.7500000000000004
 40
1.0
 40
1.0
 40
1.0
 40
1.0
 10
158.12587847991
 20
134.4899412553897
 30
0.0
 10
158.1821870282056
 20
134.5390955226335
 30
0.0
 10
158.2524616889237
 20
134.5810528412373
 30
0.0
 10
158.3704996032473
 20
134.5920125187697
 30
0.0
 10
158.4106758441013
 20
134.5865037605224
 30
0.0
 10
158.4846329387792
 20
134.5609465317334
 30
0.0
 10
158.5172493264906
 20
134.5421664838941
 30
0.0
 10
158.5474138774864
 20
134.5200186353774
 30
0.0
  0
SPLINE
  5
C9
330
1F
100
AcDbEntity
  8
0
  6
Continuous
 62
     7
370
    25
100
AcDbSpline
210
0.0
220
0.0
230
1.0
 70
     8
 71
     3
 72
    16
 73
    12
 74
     0
 42
0.000000001
 43
0.00000001
 40
0.0
 40
0.0
 40
0.0
 40
0.0
 40
0.0625000000000007
 40
0.0625000000000007
 40
0.1250000000000014
 40
0.1250000000000014
 40
0.2500000000000017
 40
0.2500000000000017
 40
0.5000000000000023
 40
0.5000000000000023
 40
1.0
 40
1.0
 40
1.0
 40
1.0
 10
158.5474138774546
 20
134.5200186353229
 30
0.0
 10
158.559026777294
 20
134.5114920457276
 30
0.0
 10
158.5723779617265
 20
134.5049917841949
 30
0.0
 10
158.6017778013457
 20
134.5034223870774
 30
0.0
 10
158.6166185259009
 20
134.5093057777079
 30
0.0
 10
158.6524517338695
 20
134.5378534137585
 30
0.0
 10
158.6665649416911
 20
134.5660204330643
 30
0.0
 10
158.70105631291
 20
134.6497746914862
 30
0.0
 10
158.7121403840204
 20
134.7074881051076
 30
0.0
 10
158.7382632018164
 20
134.8810786417535
 30
0.0
 10
158.7423907663612
 20
134.9961066943954
 30
0.0
 10
158.7423907663612
 20
135.1093028604982
 30
0.0
  0
LINE
  5
CA
330
1F
100
AcDbEntity
  8
0
  6
Continuous
 62
     7
370
    25
100
AcDbLine
 10
158.7423907664
 20
150.6272358136
 30
0.0
 11
158.7423907664
 21
135.1093028605
 31
0.0
  0
SPLINE
  5
CB
330
1F
100
AcDbEntity
  8
0
  6
Continuous
 62
     7
370
    25
100
AcDbSpline
210
0.0
220
0.0
230
1.0
 70
     8
 71
     3
 72
    16
 73
    12
 74
     0
 42
0.000000001
 43
0.00000001
 40
0.0
 40
0.0
 40
0.0
 40
0.0
 40
0.4999999999999994
 40
0.4999999999999994
 40
0.7499999999999954
 40
0.7499999999999954
 40
0.8749999999999949
 40
0.8749999999999949
 40
0.9374999999999974
 40
0.9374999999999974
 40
1.0
 40
1.0
 40
1.0
 40
1.0
 10
158.7423907663612
 20
150.1470100229894
 30
0.0
 10
158.7423907663612
 20
150.1223388669465
 30
0.0
 10
158.7382250679013
 20
150.0947570355553
 30
0.0
 10
158.7119667395763
 20
150.0444141647319
 30
0.0
 10
158.7004629578387
 20
150.02612466667
 30
0.0
 10
158.6663321984922
 20
149.994969635633
 30
0.0
 10
158.6519103118215
 20
149.9833302604212
 30
0.0
 10
158.6163433433836
 20
149.9664482344902
 30
0.0
 10
158.601391575089
 20
149.9610591306825
 30
0.0
 10
158.5723877567292
 20
149.954438634738
 30
0.0
 10
158.55897240272
 20
149.9530860465316
 30
0.0
 10
158.5474138774834
 20
149.95278642266
 30
0.0
  0
SPLINE
  5
CC
330
1F
100
AcDbEntity
  8
0
  6
Continuous
 62
     7
370
    25
100
AcDbSpline
210
0.0
220
0.0
230
1.0
 70
     8
 71
     3
 72
    12
 73
     8
 74
     0
 42
0.000000001
 43
0.00000001
 40
0.0
 40
0.0
 40
0.0
 40
0.0
 40
0.2500000000000001
 40
0.2500000000000001
 40
0.5000000000000002
 40
0.5000000000000002
 40
1.0
 40
1.0
 40
1.0
 40
1.0
 10
158.5474138774927
 20
149.9527864226617
 30
0.0
 10
158.517226100943
 20
149.9520038852441
 30
0.0
 10
158.4838722968513
 20
149.9511105534256
 30
0.0
 10
158.4107460936553
 20
149.949183244622
 30
0.0
 10
158.3705108906312
 20
149.9481437134094
 30
0.0
 10
158.2528192604981
 20
149.9452258300621
 30
0.0
 10
158.1824385873381
 20
149.9436302239919
 30
0.0
 10
158.1258784799074
 20
149.942209237224
 30
0.0
  0
SPLINE
  5
CD
330
1F
100
AcDbEntity
  8
0
  6
Continuous
 62
     7
370
    25
100
AcDbSpline
210
0.0
220
0.0
230
1.0
 70
     8
 71
     3
 72
    16
 73
    12
 74
     0
 42
0.000000001
 43
0.00000001
 40
0.0
 40
0.0
 40
0.0
 40
0.0
 40
0.2500000000000001
 40
0.2500000000000001
 40
0.3750000000000001
 40
0.3750000000000001
 40
0.5
 40
0.5
 40
0.75
 40
0.75
 40
1.0
 40
1.0
 40
1.0
 40
1.0
 10
157.6210704228016
 20
133.2735898635092
 30
0.0
 10
157.4598379453171
 20
132.4611800882624
 30
0.0
 10
157.3393581056775
 20
131.6211017938776
 30
0.0
 10
157.2169775883642
 20
130.3198067445149
 30
0.0
 10
157.1859999279667
 20
129.8791257089301
 30
0.0
 10
157.1443861903388
 20
128.983286067999
 30
0.0
 10
157.1341502774059
 20
128.5366279367965
 30
0.0
 10
157.1339618803498
 20
127.2013179796566
 30
0.0
 10
157.1741065829874
 20
126.3168226063491
 30
0.0
 10
157.338260337927
 20
124.5595727183231
 30
0.0
 10
157.4598119883366
 20
123.7137817719099
 30
0.0
 10
157.6210704228016
 20
122.9012412059871
 30
0.0
  0
LINE
  5
CE
330
1F
100
AcDbEntity
  8
0
  6
Continuous
 62
     7
370
    25
100
AcDbLine
 10
156.9473507884
 20
121.699694173
 30
0.0
 11
158.1258784799
 21
121.6848898141
 31
0.0
  0
LINE
  5
CF
330
1F
100
AcDbEntity
  8
0
  6
Continuous
 62
     7
370
    25
100
AcDbLine
 10
156.9473507884
 20
134.4751368965
 30
0.0
 11
156.9473507884
 21
121.699694173
 31
0.0
  0
LINE
  5
D0
330
1F
100
AcDbEntity
  8
0
  6
Continuous
 62
     7
370
    25
100
AcDbLine
 10
156.9473507884
 20
134.4751368965
 30
0.0
 11
158.1258784799
 21
134.4899412554
 31
0.0
  0
LWPOLYLINE
  5
D1
330
1F
100
AcDbEntity
  8
0
  6
Continuous
 62
     7
370
    25
100
AcDbPolyline
 90
        9
 70
   128
 43
0.0
 10
156.7423907664
 20
121.6022372731
 10
156.7472124584
 20
121.6216918924
 10
156.7595323189
 20
121.6403023639
 10
156.7788769025
 20
121.6573534977
 10
156.8045028077
 20
121.6721900282
 10
156.8354252454
 20
121.6842417959
 10
156.8704558835
 20
121.6930456581
 10
156.9082485144
 20
121.6982632873
 10
156.9473507884
 20
121.699694173
  0
LINE
  5
D2
330
1F
100
AcDbEntity
  8
0
  6
Continuous
 62
     7
370
    25
100
AcDbLine
 10
156.7423907664
 20
134.5725937964
 30
0.0
 11
156.7423907664
 21
121.6022372731
 31
0.0
  0
LWPOLYLINE
  5
D3
330
1F
100
AcDbEntity
  8
0
  6
Continuous
 62
     7
370
    25
100
AcDbPolyline
 90
        9
 70
   128
 43
0.0
 10
156.7423907664
 20
134.5725937964
 10
156.7472124584
 20
134.5531391771
 10
156.7595323189
 20
134.5345287056
 10
156.7788769025
 20
134.5174775718
 10
156.8045028077
 20
134.5026410413
 10
156.8354252454
 20
134.4905892736
 10
156.8704558835
 20
134.4817854114
 10
156.9082485144
 20
134.4765677822
 10
156.9473507884
 20
134.4751368965
  0
LINE
  5
D4
330
1F
100
AcDbEntity
  8
0
  6
Continuous
 62
     7
370
    25
100
AcDbLine
 10
122.4423907664
 20
122.0331049672
 30
0.0
 11
156.7423907664
 21
121.6022372731
 31
0.0
  0
LINE
  5
D5
330
1F
100
AcDbEntity
  8
0
  6
Continuous
 62
     7
370
    25
100
AcDbLine
 10
122.4423907664
 20
134.1417261023
 30
0.0
 11
122.4423907664
 21
122.0331049672
 31
0.0
  0
LINE
  5
D6
330
1F
100
AcDbEntity
  8
0
  6
Continuous
 62
     7
370
    25
100
AcDbLine
 10
122.4423907664
 20
134.1417261023
 30
0.0
 11
156.7423907664
 21
134.5725937964
 31
0.0
  0
LINE
  5
D7
330
1F
100
AcDbEntity
  8
0
  6
Continuous
 62
     7
370
    25
100
AcDbLine
 10
120.9423907664
 20
122.4661176691
 30
0.0
 11
122.4423907664
 21
122.0331049672
 31
0.0
  0
LINE
  5
D8
330
1F
100
AcDbEntity
  8
0
  6
Continuous
 62
     7
370
    25
100
AcDbLine
 10
120.9423907664
 20
133.7087134004
 30
0.0
 11
120.9423907664
 21
122.4661176691
 31
0.0
  0
LINE
  5
D9
330
1F
100
AcDbEntity
  8
0
  6
Continuous
 62
     7
370
    25
100
AcDbLine
 10
120.9423907664
 20
133.7087134004
 30
0.0
 11
122.4423907664
 21
134.1417261023
 31
0.0
  0
LINE
  5
DA
330
1F
100
AcDbEntity
  8
0
  6
Continuous
 62
     7
370
    25
100
AcDbLine
 10
156.7423907664
 20
134.5725937964
 30
0.0
 11
156.7423907664
 21
150.1075143193
 31
0.0
  0
ARC
  5
DB
330
1F
100
AcDbEntity
  8
0
  6
Continuous
 62
     7
370
    25
100
AcDbCircle
 10
156.9423276773
 20
150.1125374304
 30
0.0
 40
0.1999999999999775
100
AcDbArc
 50
181.4391666667
 51
271.4391666667
  0
LINE
  5
DC
330
1F
100
AcDbEntity
  8
0
  6
Continuous
 62
     7
370
    25
100
AcDbLine
 10
156.9473507884
 20
134.4751368965
 30
0.0
 11
156.9473507884
 21
149.9126005195
 31
0.0
  0
LINE
  5
DD
330
1F
100
AcDbEntity
  8
0
  6
Continuous
 62
     7
370
    25
100
AcDbLine
 10
122.4423907664
 20
134.1417261023
 30
0.0
 11
122.4423907664
 21
149.245778931
 31
0.0
  0
LINE
  5
DE
330
1F
100
AcDbEntity
  8
0
  6
Continuous
 62
     7
370
    25
100
AcDbLine
 10
122.4423907664
 20
149.245778931
 30
0.0
 11
156.7423907664
 21
150.1075143193
 31
0.0
  0
LINE
  5
DF
330
1F
100
AcDbEntity
  8
0
  6
Continuous
 62
     7
370
    25
100
AcDbLine
 10
122.4423907664
 20
106.9290521385
 30
0.0
 11
122.4423907664
 21
122.0331049672
 31
0.0
  0
LINE
  5
E0
330
1F
100
AcDbEntity
  8
0
  6
Continuous
 62
     7
370
    25
100
AcDbLine
 10
156.7423907664
 20
106.0673167502
 30
0.0
 11
156.7423907664
 21
121.6022372731
 31
0.0
  0
LINE
  5
E1
330
1F
100
AcDbEntity
  8
0
  6
Continuous
 62
     7
370
    25
100
AcDbLine
 10
122.4423907664
 20
106.9290521385
 30
0.0
 11
156.7423907664
 21
106.0673167502
 31
0.0
  0
LINE
  5
E2
330
1F
100
AcDbEntity
  8
0
  6
Continuous
 62
     7
370
    25
100
AcDbLine
 10
156.9473507884
 20
106.26223055
 30
0.0
 11
156.9473507884
 21
121.699694173
 31
0.0
  0
ARC
  5
E3
330
1F
100
AcDbEntity
  8
0
  6
Continuous
 62
     7
370
    25
100
AcDbCircle
 10
156.9423276773
 20
106.0622936391
 30
0.0
 40
0.1999999999999917
100
AcDbArc
 50
88.5608333333
 51
178.5608333333
  0
LINE
  5
E4
330
1F
100
AcDbEntity
  8
0
  6
Continuous
 62
     7
370
    25
100
AcDbLine
 10
158.5474138775
 20
106.2220446468
 30
0.0
 11
158.5474138775
 21
121.6548124341
 31
0.0
  0
LINE
  5
E5
330
1F
100
AcDbEntity
  8
0
  6
Continuous
 62
     7
370
    25
100
AcDbLine
 10
158.5474138775
 20
134.5200186354
 30
0.0
 11
158.5474138775
 21
149.9527864227
 31
0.0
  0
LINE
  5
E6
330
1F
100
AcDbEntity
  8
0
  6
Continuous
 62
     7
370
    25
100
AcDbLine
 10
156.9473507884
 20
149.9126005195
 30
0.0
 11
158.1258784799
 21
149.9422092372
 31
0.0
  0
LINE
  5
E7
330
1F
100
AcDbEntity
  8
0
  6
Continuous
 62
     7
370
    25
100
AcDbLine
 10
156.9473507884
 20
106.26223055
 30
0.0
 11
158.1258784799
 21
106.2326218323
 31
0.0
  0
LINE
  5
E8
330
1F
100
AcDbEntity
  8
0
  6
Continuous
 62
     7
370
    25
100
AcDbLine
 10
120.9423907664
 20
148.3797535272
 30
0.0
 11
122.4423907664
 21
149.245778931
 31
0.0
  0
LINE
  5
E9
330
1F
100
AcDbEntity
  8
0
  6
Continuous
 62
     7
370
    25
100
AcDbLine
 10
120.9423907664
 20
133.7087134004
 30
0.0
 11
120.9423907664
 21
148.3797535272
 31
0.0
  0
LINE
  5
EA
330
1F
100
AcDbEntity
  8
0
  6
Continuous
 62
     7
370
    25
100
AcDbLine
 10
120.9423907664
 20
107.7950775422
 30
0.0
 11
122.4423907664
 21
106.9290521385
 31
0.0
  0
LINE
  5
EB
330
1F
100
AcDbEntity
  8
0
  6
Continuous
 62
     7
370
    25
100
AcDbLine
 10
120.9423907664
 20
107.7950775422
 30
0.0
 11
120.9423907664
 21
122.4661176691
 31
0.0
  0
LINE
  5
EC
330
1F
100
AcDbEntity
  8
0
  6
Continuous
 62
     7
370
    25
100
AcDbLine
 10
159.4423907664
 20
96.5874155347
 30
0.0
 11
159.4423907664
 21
159.5874155347
 31
0.0
  0
CIRCLE
  5
ED
330
1F
100
AcDbEntity
  8
0
  6
HIDDEN
 62
     7
370
    18
100
AcDbCircle
 10
193.9423907664
 20
128.0874155347
 30
0.0
 40
7.500000000000014
  0
LINE
  5
EE
330
1F
100
AcDbEntity
  8
0
  6
HIDDEN
 62
     7
370
    18
100
AcDbLine
 10
242.9423907664
 20
159.5874155347
 30
0.0
 11
242.9423907664
 21
96.5874155347
 31
0.0
  0
SPLINE
  5
EF
330
1F
100
AcDbEntity
  8
0
  6
HIDDEN
 62
     7
370
    18
100
AcDbSpline
210
0.0
220
0.0
230
1.0
 70
    11
 71
     3
 72
    60
 73
    56
 74
     0
 42
0.000000001
 43
0.00000001
 40
0.0
 40
0.0
 40
0.0
 40
0.0
 40
0.0312499999999998
 40
0.0312499999999998
 40
0.0624999999999997
 40
0.0624999999999997
 40
0.0937499999999995
 40
0.0937499999999995
 40
0.1249999999999994
 40
0.1249999999999994
 40
0.1874999999999989
 40
0.1874999999999989
 40
0.2499999999999984
 40
0.2499999999999984
 40
0.2812499999999983
 40
0.2812499999999983
 40
0.3124999999999983
 40
0.3124999999999983
 40
0.3437499999999983
 40
0.3437499999999983
 40
0.3749999999999982
 40
0.3749999999999982
 40
0.4062499999999982
 40
0.4062499999999982
 40
0.4374999999999981
 40
0.4374999999999981
 40
0.4687499999999981
 40
0.4687499999999981
 40
0.499999999999998
 40
0.499999999999998
 40
0.5624999999999979
 40
0.5624999999999979
 40
0.6249999999999978
 40
0.6249999999999978
 40
0.656249999999998
 40
0.656249999999998
 40
0.6874999999999982
 40
0.6874999999999982
 40
0.7187499999999983
 40
0.7187499999999983
 40
0.7499999999999986
 40
0.7499999999999986
 40
0.7812499999999988
 40
0.7812499999999988
 40
0.8124999999999989
 40
0.8124999999999989
 40
0.8437499999999991
 40
0.8437499999999991
 40
0.8749999999999992
 40
0.8749999999999992
 40
0.9062499999999994
 40
0.9062499999999994
 40
0.9374999999999997
 40
0.9374999999999997
 40
1.0
 40
1.0
 40
1.0
 40
1.0
 10
168.9423907663613
 20
128.0874155347482
 30
0.0
 10
168.9423907663612
 20
128.2195807972915
 30
0.0
 10
168.9553626248501
 20
128.3495308582956
 30
0.0
 10
169.0061827945424
 20
128.6051837916557
 30
0.0
 10
169.0446501180093
 20
128.7322132982051
 30
0.0
 10
169.1450483540815
 20
128.9744014293296
 30
0.0
 10
169.2064813850546
 20
129.0892629218824
 30
0.0
 10
169.3516162165996
 20
129.3066431177066
 30
0.0
 10
169.4360713340074
 20
129.4095406849052
 30
0.0
 10
169.7127907843658
 20
129.686207723913
 30
0.0
 10
169.9358676762838
 20
129.835205814393
 30
0.0
 10
170.4171510385041
 20
130.0347169548577
 30
0.0
 10
170.6803814574951
 20
130.0872750578543
 30
0.0
 10
171.071783659183
 20
130.0874853402324
 30
0.0
 10
171.2043066872919
 20
130.0744995695053
 30
0.0
 10
171.460837140533
 20
130.0234724212915
 30
0.0
 10
171.5855239748296
 20
129.9857172221411
 30
0.0
 10
171.8277032370651
 20
129.8855788892324
 30
0.0
 10
171.9447967692152
 20
129.8229732218208
 30
0.0
 10
172.1615117725706
 20
129.6782399285559
 30
0.0
 10
172.2625305994333
 20
129.5956125812763
 30
0.0
 10
172.4493154868855
 20
129.4090075280247
 30
0.0
 10
172.5321723680817
 20
129.3078924641485
 30
0.0
 10
172.6770566331555
 20
129.0913596601587
 30
0.0
 10
172.7396941409764
 20
128.9744894525576
 30
0.0
 10
172.8401429643762
 20
128.7321915819074
 30
0.0
 10
172.8779940653934
 20
128.6075275834464
 30
0.0
 10
172.9292156306498
 20
128.3512405393826
 30
0.0
 10
172.942343757267
 20
128.218668543637
 30
0.0
 10
172.9424843976073
 20
127.827064350863
 30
0.0
 10
172.8901596482354
 20
127.5638990195391
 30
0.0
 10
172.6910485861781
 20
127.0823936503659
 30
0.0
 10
172.5421862497209
 20
126.8591421108818
 30
0.0
 10
172.2658652903954
 20
126.582285811993
 30
0.0
 10
172.1631016420218
 20
126.4977723651492
 30
0.0
 10
171.9457180846424
 20
126.352355091709
 30
0.0
 10
171.8309193166859
 20
126.2908438926506
 30
0.0
 10
171.5890425932619
 20
126.1903140443958
 30
0.0
 10
171.4618889852617
 20
126.1516690211778
 30
0.0
 10
171.2062229758291
 20
126.1006126936268
 30
0.0
 10
171.0763569380731
 20
126.0875478350812
 30
0.0
 10
170.8124044113414
 20
126.0872852142832
 30
0.0
 10
170.6820000879174
 20
126.1001622145273
 30
0.0
 10
170.4263493245381
 20
126.150748218333
 30
0.0
 10
170.2994837754237
 20
126.1890245829549
 30
0.0
 10
170.0569633174777
 20
126.2892954504349
 30
0.0
 10
169.9420366788174
 20
126.3506514745758
 30
0.0
 10
169.7246652099854
 20
126.4954977697486
 30
0.0
 10
169.6216513973232
 20
126.5798752842432
 30
0.0
 10
169.4369508517412
 20
126.7642826044315
 30
0.0
 10
169.3541211174847
 20
126.864855667701
 30
0.0
 10
169.2078686788872
 20
127.0830818082799
 30
0.0
 10
169.1455001980948
 20
127.1996369182012
 30
0.0
 10
168.995544046528
 20
127.560486512235
 30
0.0
 10
168.9423907663612
 20
127.8230850096614
 30
0.0
 10
168.9423907663612
 20
128.0874155347481
 30
0.0
  0
SPLINE
  5
F0
330
1F
100
AcDbEntity
  8
0
  6
HIDDEN
 62
     7
370
    18
100
AcDbSpline
210
0.0
220
0.0
230
1.0
 70
     8
 71
     3
 72
    12
 73
     8
 74
     0
 42
0.000000001
 43
0.00000001
 40
0.0
 40
0.0
 40
0.0
 40
0.0
 40
0.2500000000000001
 40
0.2500000000000001
 40
0.5000000000000001
 40
0.5000000000000001
 40
1.0
 40
1.0
 40
1.0
 40
1.0
 10
169.4701475799277
 20
118.6993491034121
 30
0.0
 10
169.4070675414343
 20
118.6993491034121
 30
0.0
 10
169.3479189192529
 20
118.6739847841971
 30
0.0
 10
169.2494463691838
 20
118.5998199238242
 30
0.0
 10
169.2104097571991
 20
118.5532995832701
 30
0.0
 10
169.11051329042
 20
118.4031572404248
 30
0.0
 10
169.0680924093534
 20
118.2914640334527
 30
0.0
 10
169.0371348780354
 20
118.1780462140629
 30
0.0
  0
LINE
  5
F1
330
1F
100
AcDbEntity
  8
0
  6
HIDDEN
 62
     7
370
    18
100
AcDbLine
 10
172.4146339528
 20
118.6993491034
 30
0.0
 11
169.4701475799
 21
118.6993491034
 31
0.0
  0
SPLINE
  5
F2
330
1F
100
AcDbEntity
  8
0
  6
HIDDEN
 62
     7
370
    18
100
AcDbSpline
210
0.0
220
0.0
230
1.0
 70
     8
 71
     3
 72
    12
 73
     8
 74
     0
 42
0.000000001
 43
0.00000001
 40
0.0
 40
0.0
 40
0.0
 40
0.0
 40
0.4999999999999981
 40
0.4999999999999981
 40
0.749999999999999
 40
0.749999999999999
 40
1.0
 40
1.0
 40
1.0
 40
1.0
 10
172.847646654687
 20
118.1780462140629
 30
0.0
 10
172.8169244127679
 20
118.2906020134721
 30
0.0
 10
172.7740871982328
 20
118.4033598732117
 30
0.0
 10
172.674660174033
 20
118.5529007590081
 30
0.0
 10
172.6349079792163
 20
118.6001934907149
 30
0.0
 10
172.5368665223581
 20
118.6739297840364
 30
0.0
 10
172.4773104667706
 20
118.6993491034121
 30
0.0
 10
172.4146339527948
 20
118.6993491034121
 30
0.0
  0
ELLIPSE
  5
F3
330
1F
100
AcDbEntity
  8
0
  6
HIDDEN
 62
     7
370
    18
100
AcDbEllipse
 10
156.595236577
 20
128.0874155347
 30
0.0
 11
-14.75368316065621
 21
31.09325491558116
 31
0.0
210
0.0
220
0.0
230
1.0
 40
0.3419987131
 41
3.300734856217128
 42
4.231496223360779
  0
SPLINE
  5
F4
330
1F
100
AcDbEntity
  8
0
  6
HIDDEN
 62
     7
370
    18
100
AcDbSpline
210
0.0
220
0.0
230
1.0
 70
     8
 71
     3
 72
    12
 73
     8
 74
     0
 42
0.000000001
 43
0.00000001
 40
0.0
 40
0.0
 40
0.0
 40
0.0
 40
0.2499999999999982
 40
0.2499999999999982
 40
0.4999999999999963
 40
0.4999999999999963
 40
1.0
 40
1.0
 40
1.0
 40
1.0
 10
172.4146339527948
 20
98.01892357587505
 30
0.0
 10
172.4777139912881
 20
98.01892357587505
 30
0.0
 10
172.5368626134696
 20
98.0268295020875
 30
0.0
 10
172.6353351635386
 20
98.05015466352374
 30
0.0
 10
172.6743717755234
 20
98.06486745335545
 30
0.0
 10
172.7742682423024
 20
98.11282325408636
 30
0.0
 10
172.816689123369
 20
98.14908541066643
 30
0.0
 10
172.847646654687
 20
98.18667307463093
 30
0.0
  0
LINE
  5
F5
330
1F
100
AcDbEntity
  8
0
  6
HIDDEN
 62
     7
370
    18
100
AcDbLine
 10
169.4701475799
 20
98.0189235759
 30
0.0
 11
172.4146339528
 21
98.0189235759
 31
0.0
  0
SPLINE
  5
F6
330
1F
100
AcDbEntity
  8
0
  6
HIDDEN
 62
     7
370
    18
100
AcDbSpline
210
0.0
220
0.0
230
1.0
 70
     8
 71
     3
 72
    12
 73
     8
 74
     0
 42
0.000000001
 43
0.00000001
 40
0.0
 40
0.0
 40
0.0
 40
0.0
 40
0.4999999999999971
 40
0.4999999999999971
 40
0.7499999999999986
 40
0.7499999999999986
 40
1.0
 40
1.0
 40
1.0
 40
1.0
 10
169.0371348780355
 20
98.18667307463093
 30
0.0
 10
169.0678571199545
 20
98.14937109167788
 30
0.0
 10
169.1106943344897
 20
98.11275925963149
 30
0.0
 10
169.2101213586895
 20
98.06499447634629
 30
0.0
 10
169.2498735535061
 20
98.0500369608639
 30
0.0
 10
169.3479150103644
 20
98.02684701509477
 30
0.0
 10
169.4074710659518
 20
98.01892357587506
 30
0.0
 10
169.4701475799277
 20
98.01892357587506
 30
0.0
  0
ELLIPSE
  5
F7
330
1F
100
AcDbEntity
  8
0
  6
HIDDEN
 62
     7
370
    18
100
AcDbEllipse
 10
185.2895449557
 20
128.0874155347
 30
0.0
 11
14.75368316065615
 21
31.09325491558116
 31
0.0
210
0.0
220
0.0
230
1.0
 40
0.3419987131
 41
2.051689083818821
 42
2.982450450962496
  0
SPLINE
  5
F8
330
1F
100
AcDbEntity
  8
0
  6
HIDDEN
 62
     7
370
    18
100
AcDbSpline
210
0.0
220
0.0
230
1.0
 70
     8
 71
     3
 72
    12
 73
     8
 74
     0
 42
0.000000001
 43
0.00000001
 40
0.0
 40
0.0
 40
0.0
 40
0.0
 40
0.2500000000000009
 40
0.2500000000000009
 40
0.5000000000000019
 40
0.5000000000000019
 40
1.0
 40
1.0
 40
1.0
 40
1.0
 10
169.4701475799277
 20
158.1559074936214
 30
0.0
 10
169.4070675414343
 20
158.1559074936214
 30
0.0
 10
169.3479189192529
 20
158.1480015674089
 30
0.0
 10
169.2494463691838
 20
158.1246764059727
 30
0.0
 10
169.2104097571991
 20
158.109963616141
 30
0.0
 10
169.1105132904201
 20
158.0620078154101
 30
0.0
 10
169.0680924093534
 20
158.02574565883
 30
0.0
 10
169.0371348780355
 20
157.9881579948655
 30
0.0
  0
LINE
  5
F9
330
1F
100
AcDbEntity
  8
0
  6
HIDDEN
 62
     7
370
    18
100
AcDbLine
 10
172.4146339528
 20
158.1559074936
 30
0.0
 11
169.4701475799
 21
158.1559074936
 31
0.0
  0
SPLINE
  5
FA
330
1F
100
AcDbEntity
  8
0
  6
HIDDEN
 62
     7
370
    18
100
AcDbSpline
210
0.0
220
0.0
230
1.0
 70
     8
 71
     3
 72
    12
 73
     8
 74
     0
 42
0.000000001
 43
0.00000001
 40
0.0
 40
0.0
 40
0.0
 40
0.0
 40
0.5000000000000037
 40
0.5000000000000037
 40
0.7500000000000018
 40
0.7500000000000018
 40
1.0
 40
1.0
 40
1.0
 40
1.0
 10
172.847646654687
 20
157.9881579948655
 30
0.0
 10
172.8169244127679
 20
158.0254599778185
 30
0.0
 10
172.7740871982328
 20
158.0620718098649
 30
0.0
 10
172.674660174033
 20
158.1098365931501
 30
0.0
 10
172.6349079792163
 20
158.1247941086325
 30
0.0
 10
172.5368665223581
 20
158.1479840544016
 30
0.0
 10
172.4773104667706
 20
158.1559074936214
 30
0.0
 10
172.4146339527948
 20
158.1559074936214
 30
0.0
  0
ELLIPSE
  5
FB
330
1F
100
AcDbEntity
  8
0
  6
HIDDEN
 62
     7
370
    18
100
AcDbEllipse
 10
156.595236577
 20
128.0874155347
 30
0.0
 11
14.75368316065635
 21
31.09325491558116
 31
0.0
210
0.0
220
0.0
230
1.0
 40
0.3419987131
 41
5.193281737408639
 42
6.124043104552344
  0
SPLINE
  5
FC
330
1F
100
AcDbEntity
  8
0
  6
HIDDEN
 62
     7
370
    18
100
AcDbSpline
210
0.0
220
0.0
230
1.0
 70
     8
 71
     3
 72
    12
 73
     8
 74
     0
 42
0.000000001
 43
0.00000001
 40
0.0
 40
0.0
 40
0.0
 40
0.0
 40
0.2500000000000009
 40
0.2500000000000009
 40
0.5000000000000018
 40
0.5000000000000018
 40
1.0
 40
1.0
 40
1.0
 40
1.0
 10
172.4146339527948
 20
137.4754819660846
 30
0.0
 10
172.4777139912881
 20
137.4754819660846
 30
0.0
 10
172.5368626134696
 20
137.5008462852996
 30
0.0
 10
172.6353351635386
 20
137.5750111456725
 30
0.0
 10
172.6743717755234
 20
137.6215314862266
 30
0.0
 10
172.7742682423024
 20
137.7716738290719
 30
0.0
 10
172.816689123369
 20
137.883367036044
 30
0.0
 10
172.847646654687
 20
137.9967848554338
 30
0.0
  0
LINE
  5
FD
330
1F
100
AcDbEntity
  8
0
  6
HIDDEN
 62
     7
370
    18
100
AcDbLine
 10
169.4701475799
 20
137.4754819661
 30
0.0
 11
172.4146339528
 21
137.4754819661
 31
0.0
  0
SPLINE
  5
FE
330
1F
100
AcDbEntity
  8
0
  6
HIDDEN
 62
     7
370
    18
100
AcDbSpline
210
0.0
220
0.0
230
1.0
 70
     8
 71
     3
 72
    12
 73
     8
 74
     0
 42
0.000000001
 43
0.00000001
 40
0.0
 40
0.0
 40
0.0
 40
0.0
 40
0.4999999999999971
 40
0.4999999999999971
 40
0.7499999999999986
 40
0.7499999999999986
 40
1.0
 40
1.0
 40
1.0
 40
1.0
 10
169.0371348780355
 20
137.9967848554338
 30
0.0
 10
169.0678571199546
 20
137.8842290560246
 30
0.0
 10
169.1106943344897
 20
137.771471196285
 30
0.0
 10
169.2101213586895
 20
137.6219303104886
 30
0.0
 10
169.2498735535061
 20
137.5746375787818
 30
0.0
 10
169.3479150103644
 20
137.5009012854603
 30
0.0
 10
169.4074710659519
 20
137.4754819660846
 30
0.0
 10
169.4701475799277
 20
137.4754819660846
 30
0.0
  0
ELLIPSE
  5
FF
330
1F
100
AcDbEntity
  8
0
  6
HIDDEN
 62
     7
370
    18
100
AcDbEllipse
 10
185.2895449557
 20
128.0874155347
 30
0.0
 11
-14.75368316065627
 21
31.09325491558116
 31
0.0
210
0.0
220
0.0
230
1.0
 40
0.3419987131
 41
0.1591422026272825
 42
1.089903569770961
  0
CIRCLE
  5
100
330
1F
100
AcDbEntity
  8
0
  6
HIDDEN
 62
     7
370
    18
100
AcDbCircle
 10
221.9423907664
 20
128.0874155347
 30
0.0
 40
7.500000000000014
  0
LINE
  5
101
330
1F
100
AcDbEntity
  8
0
  6
HIDDEN
 62
     7
370
    18
100
AcDbLine
 10
243.9423907664
 20
158.5874155347
 30
0.0
 11
243.9423907664
 21
97.5874155347
 31
0.0
  0
LINE
  5
102
330
1F
100
AcDbEntity
  8
0
  6
HIDDEN
 62
     7
370
    18
100
AcDbLine
 10
158.9423907664
 20
159.0874155339
 30
0.0
 11
158.9423907664
 21
97.0874155347
 31
0.0
  0
LINE
  5
103
330
1F
100
AcDbEntity
  8
0
  6
HIDDEN
 62
     7
370
    18
100
AcDbLine
 10
159.0352839852
 20
103.9303087536
 30
0.0
 11
159.0352839852
 21
152.2254236403
 31
0.0
  0
LINE
  5
104
330
1F
100
AcDbEntity
  8
0
  6
HIDDEN
 62
     7
370
    18
100
AcDbLine
 10
158.9423907664
 20
103.8374155347
 30
0.0
 11
158.9423907664
 21
152.3182434175
 31
0.0
  0
SPLINE
  5
105
330
1F
100
AcDbEntity
  8
0
  6
HIDDEN
 62
     7
370
    18
100
AcDbSpline
210
0.0
220
0.0
230
1.0
 70
     8
 71
     3
 72
    12
 73
     8
 74
     0
 42
0.000000001
 43
0.00000001
 40
0.0
 40
0.0
 40
0.0
 40
0.0
 40
0.4999999999999998
 40
0.4999999999999998
 40
0.75
 40
0.75
 40
1.0
 40
1.0
 40
1.0
 40
1.0
 10
158.1258784799142
 20
143.539683516579
 30
0.0
 10
158.1822846585945
 20
143.4918611429192
 30
0.0
 10
158.2524475600662
 20
143.4515902959807
 30
0.0
 10
158.3704582734554
 20
143.4435444275037
 30
0.0
 10
158.4106640570509
 20
143.4501070258426
 30
0.0
 10
158.4843847537839
 20
143.4774891202962
 30
0.0
 10
158.5172454755704
 20
143.4972506108265
 30
0.0
 10
158.5474138774997
 20
143.5201833220146
 30
0.0
  0
SPLINE
  5
106
330
1F
100
AcDbEntity
  8
0
  6
HIDDEN
 62
     7
370
    18
100
AcDbSpline
210
0.0
220
0.0
230
1.0
 70
     8
 71
     3
 72
    16
 73
    12
 74
     0
 42
0.000000001
 43
0.00000001
 40
0.0
 40
0.0
 40
0.0
 40
0.0
 40
0.0624999999999957
 40
0.0624999999999957
 40
0.1249999999999915
 40
0.1249999999999915
 40
0.2499999999999926
 40
0.2499999999999926
 40
0.4999999999999951
 40
0.4999999999999951
 40
1.0
 40
1.0
 40
1.0
 40
1.0
 10
158.5474138774546
 20
143.5201833220626
 30
0.0
 10
158.5590267772939
 20
143.5290109450441
 30
0.0
 10
158.5723779617264
 20
143.536845326926
 30
0.0
 10
158.6017778013455
 20
143.5451554529984
 30
0.0
 10
158.6166185259008
 20
143.5446596337633
 30
0.0
 10
158.6524517338695
 20
143.533208662794
 30
0.0
 10
158.6665649416911
 20
143.5165281619354
 30
0.0
 10
158.7010563129099
 20
143.4644074761783
 30
0.0
 10
158.7121403840204
 20
143.4246179821533
 30
0.0
 10
158.7382632018164
 20
143.3012813500562
 30
0.0
 10
158.7423907663612
 20
143.2138599395576
 30
0.0
 10
158.7423907663612
 20
143.1251226972393
 30
0.0
  0
LINE
  5
107
330
1F
100
AcDbEntity
  8
0
  6
HIDDEN
 62
     7
370
    18
100
AcDbLine
 10
158.7423907664
 20
113.0497083723
 30
0.0
 11
158.7423907664
 21
143.1251226972
 31
0.0
  0
SPLINE
  5
108
330
1F
100
AcDbEntity
  8
0
  6
HIDDEN
 62
     7
370
    18
100
AcDbSpline
210
0.0
220
0.0
230
1.0
 70
     8
 71
     3
 72
    16
 73
    12
 74
     0
 42
0.000000001
 43
0.00000001
 40
0.0
 40
0.0
 40
0.0
 40
0.0
 40
0.5000000000000041
 40
0.5000000000000041
 40
0.7500000000000062
 40
0.7500000000000062
 40
0.8750000000000072
 40
0.8750000000000072
 40
0.9375000000000036
 40
0.9375000000000036
 40
1.0
 40
1.0
 40
1.0
 40
1.0
 10
158.7423907663612
 20
113.049708372257
 30
0.0
 10
158.7423907663612
 20
112.9605820070682
 30
0.0
 10
158.7382444912833
 20
112.8737206394548
 30
0.0
 10
158.7122788958897
 20
112.7507383929608
 30
0.0
 10
158.7008179905123
 20
112.7099670977295
 30
0.0
 10
158.6665062527379
 20
112.6582627777297
 30
0.0
 10
158.6524815168083
 20
112.6415924111393
 30
0.0
 10
158.6164585537745
 20
112.6301401906826
 30
0.0
 10
158.6017040446849
 20
112.6296871444076
 30
0.0
 10
158.572351883538
 20
112.6380024656237
 30
0.0
 10
158.5590120090339
 20
112.645831350702
 30
0.0
 10
158.5474138774856
 20
112.6546477474646
 30
0.0
  0
SPLINE
  5
109
330
1F
100
AcDbEntity
  8
0
  6
HIDDEN
 62
     7
370
    18
100
AcDbSpline
210
0.0
220
0.0
230
1.0
 70
     8
 71
     3
 72
    12
 73
     8
 74
     0
 42
0.000000001
 43
0.00000001
 40
0.0
 40
0.0
 40
0.0
 40
0.0
 40
0.2499999999999998
 40
0.2499999999999998
 40
0.4999999999999996
 40
0.4999999999999996
 40
1.0
 40
1.0
 40
1.0
 40
1.0
 10
158.5474138774927
 20
112.6546477474735
 30
0.0
 10
158.5172220357755
 20
112.6775982765713
 30
0.0
 10
158.4838630663608
 20
112.6975677505955
 30
0.0
 10
158.4107257817802
 20
112.724668884221
 30
0.0
 10
158.3704839091262
 20
112.7312696248665
 30
0.0
 10
158.2527781321578
 20
112.7233007503598
 30
0.0
 10
158.1823676543784
 20
112.6830402921919
 30
0.0
 10
158.1258784799101
 20
112.6351475529138
 30
0.0
  0
SPLINE
  5
10A
330
1F
100
AcDbEntity
  8
0
  6
HIDDEN
 62
     7
370
    18
100
AcDbSpline
210
0.0
220
0.0
230
1.0
 70
     8
 71
     3
 72
    12
 73
     8
 74
     0
 42
0.000000001
 43
0.00000001
 40
0.0
 40
0.0
 40
0.0
 40
0.0
 40
0.2499999999999957
 40
0.2499999999999957
 40
0.499999999999994
 40
0.499999999999994
 40
1.0
 40
1.0
 40
1.0
 40
1.0
 10
158.1258784799097
 20
112.6351475529139
 30
0.0
 10
158.037724542172
 20
112.5604087450599
 30
0.0
 10
157.9773711175432
 20
112.4694282445775
 30
0.0
 10
157.8711091594764
 20
112.2805144218249
 30
0.0
 10
157.8288769929143
 20
112.1840099622843
 30
0.0
 10
157.7178062975971
 20
111.8932422081171
 30
0.0
 10
157.6648695211704
 20
111.6975753935734
 30
0.0
 10
157.6210704228016
 20
111.5035089085071
 30
0.0
  0
LINE
  5
10B
330
1F
100
AcDbEntity
  8
0
  6
HIDDEN
 62
     7
370
    18
100
AcDbLine
 10
157.6210704228
 20
111.5035089085
 30
0.0
 11
157.6210704228
 21
106.3173345797
 31
0.0
  0
SPLINE
  5
10C
330
1F
100
AcDbEntity
  8
0
  6
HIDDEN
 62
     7
370
    18
100
AcDbSpline
210
0.0
220
0.0
230
1.0
 70
     8
 71
     3
 72
    12
 73
     8
 74
     0
 42
0.000000001
 43
0.00000001
 40
0.0
 40
0.0
 40
0.0
 40
0.0
 40
0.4999999999999999
 40
0.4999999999999999
 40
0.7499999999999999
 40
0.7499999999999999
 40
1.0
 40
1.0
 40
1.0
 40
1.0
 10
157.6210704228016
 20
106.317334579746
 30
0.0
 10
157.6648169636381
 20
106.2907404091049
 30
0.0
 10
157.7177013188697
 20
106.2709801837791
 30
0.0
 10
157.8292684062058
 20
106.2505291935501
 30
0.0
 10
157.8718520027488
 20
106.2452689688936
 30
0.0
 10
157.9767687298306
 20
106.237386174971
 30
0.0
 10
158.0383023376754
 20
106.2348220497918
 30
0.0
 10
158.1258784799016
 20
106.2326218322722
 30
0.0
  0
LINE
  5
10D
330
1F
100
AcDbEntity
  8
0
  6
HIDDEN
 62
     7
370
    18
100
AcDbLine
 10
158.7423907664
 20
105.5475952559
 30
0.0
 11
158.7423907664
 21
106.0278210465
 31
0.0
  0
LINE
  5
10E
330
1F
100
AcDbEntity
  8
0
  6
HIDDEN
 62
     7
370
    18
100
AcDbLine
 10
158.7423907664
 20
150.147010023
 30
0.0
 11
158.7423907664
 21
150.6272358136
 31
0.0
  0
SPLINE
  5
10F
330
1F
100
AcDbEntity
  8
0
  6
HIDDEN
 62
     7
370
    18
100
AcDbSpline
210
0.0
220
0.0
230
1.0
 70
     8
 71
     3
 72
    12
 73
     8
 74
     0
 42
0.000000001
 43
0.00000001
 40
0.0
 40
0.0
 40
0.0
 40
0.0
 40
0.2499999999999995
 40
0.2499999999999995
 40
0.4999999999999991
 40
0.4999999999999991
 40
1.0
 40
1.0
 40
1.0
 40
1.0
 10
158.1258784799095
 20
149.942209237224
 30
0.0
 10
158.0371938200531
 20
149.9399811698831
 30
0.0
 10
157.9772754043298
 20
149.9374793858527
 30
0.0
 10
157.871616177009
 20
149.9295479500167
 30
0.0
 10
157.8289749388941
 20
149.9242557951199
 30
0.0
 10
157.7177855967915
 20
149.9038508546327
 30
0.0
 10
157.6648589146706
 20
149.8841161630459
 30
0.0
 10
157.6210704228016
 20
149.8574964897502
 30
0.0
  0
LINE
  5
110
330
1F
100
AcDbEntity
  8
0
  6
HIDDEN
 62
     7
370
    18
100
AcDbLine
 10
157.6210704228
 20
149.8574964898
 30
0.0
 11
157.6210704228
 21
144.671322161
 31
0.0
  0
SPLINE
  5
111
330
1F
100
AcDbEntity
  8
0
  6
HIDDEN
 62
     7
370
    18
100
AcDbSpline
210
0.0
220
0.0
230
1.0
 70
     8
 71
     3
 72
    12
 73
     8
 74
     0
 42
0.000000001
 43
0.00000001
 40
0.0
 40
0.0
 40
0.0
 40
0.0
 40
0.5000000000000023
 40
0.5000000000000023
 40
0.7500000000000024
 40
0.7500000000000024
 40
1.0
 40
1.0
 40
1.0
 40
1.0
 10
157.6210704228
 20
144.6713221609894
 30
0.0
 10
157.6648318990987
 20
144.4774223730273
 30
0.0
 10
157.7177382147518
 20
144.2815660090904
 30
0.0
 10
157.8294494123992
 20
143.9894238625915
 30
0.0
 10
157.8719688559855
 20
143.8927059258936
 30
0.0
 10
157.9770921985529
 20
143.7059814894691
 30
0.0
 10
158.0386581622707
 20
143.6136307811994
 30
0.0
 10
158.1258784799134
 20
143.5396835165797
 30
0.0
  0
LINE
  5
112
330
1F
100
AcDbEntity
  8
0
  6
HIDDEN
 62
     7
370
    18
100
AcDbLine
 10
158.7423907664
 20
106.0278210465
 30
0.0
 11
158.7423907664
 21
121.065528209
 31
0.0
  0
LINE
  5
113
330
1F
100
AcDbEntity
  8
0
  6
HIDDEN
 62
     7
370
    18
100
AcDbLine
 10
158.7423907664
 20
135.1093028605
 30
0.0
 11
158.7423907664
 21
150.147010023
 31
0.0
  0
LINE
  5
114
330
1F
100
AcDbEntity
  8
0
  6
HIDDEN
 62
     7
370
    18
100
AcDbLine
 10
242.7423907664
 20
108.0874155347
 30
0.0
 11
242.7423907664
 21
148.0874155347
 31
0.0
  0
LINE
  5
115
330
1F
100
AcDbEntity
  8
0
  6
HIDDEN
 62
     7
370
    18
100
AcDbLine
 10
243.9423907664
 20
106.8874155347
 30
0.0
 11
243.9423907664
 21
149.2874155347
 31
0.0
  0
LINE
  5
116
330
1F
100
AcDbEntity
  8
0
  6
HIDDEN
 62
     7
370
    18
100
AcDbLine
 10
170.9423907664
 20
148.6874155207
 30
0.0
 11
170.9423907664
 21
107.4874155347
 31
0.0
  0
LINE
  5
117
330
1F
100
AcDbEntity
  8
0
  6
HIDDEN
 62
     7
370
    18
100
AcDbLine
 10
171.3423907664
 20
107.0874155347
 30
0.0
 11
171.3423907664
 21
149.0679719519
 31
0.0
  0
LINE
  5
118
330
1F
100
AcDbEntity
  8
0
  6
HIDDEN
 62
     7
370
    18
100
AcDbLine
 10
174.1243825546
 20
107.0874155347
 30
0.0
 11
174.1243825546
 21
149.0679719519
 31
0.0
  0
LINE
  5
119
330
1F
100
AcDbEntity
  8
0
  6
HIDDEN
 62
     7
370
    18
100
AcDbLine
 10
174.261190612
 20
107.1115384864
 30
0.0
 11
174.261190612
 21
149.0438713353
 31
0.0
  0
LINE
  5
11A
330
1F
100
AcDbEntity
  8
0
  6
HIDDEN
 62
     7
370
    18
100
AcDbLine
 10
176.9423907664
 20
148.0874155347
 30
0.0
 11
176.9423907664
 21
108.0874155347
 31
0.0
  0
SPLINE
  5
11B
330
1F
100
AcDbEntity
  8
0
  6
HIDDEN
 62
     7
370
    18
100
AcDbSpline
210
0.0
220
0.0
230
1.0
 70
    11
 71
     3
 72
    93
 73
    89
 74
     0
 42
0.000000001
 43
0.00000001
 40
0.0
 40
0.0
 40
0.0
 40
0.0
 40
0.0312500000000003
 40
0.0312500000000003
 40
0.0468750000000002
 40
0.0468750000000002
 40
0.0625000000000002
 40
0.0625000000000002
 40
0.09375
 40
0.09375
 40
0.109375
 40
0.109375
 40
0.125
 40
0.125
 40
0.1562499999999999
 40
0.1562499999999999
 40
0.1874999999999998
 40
0.1874999999999998
 40
0.2031249999999998
 40
0.2031249999999998
 40
0.2187499999999997
 40
0.2187499999999997
 40
0.2499999999999997
 40
0.2499999999999997
 40
0.2812499999999997
 40
0.2812499999999997
 40
0.3124999999999997
 40
0.3124999999999997
 40
0.3437499999999998
 40
0.3437499999999998
 40
0.3593749999999997
 40
0.3593749999999997
 40
0.3749999999999997
 40
0.3749999999999997
 40
0.4062499999999994
 40
0.4062499999999994
 40
0.4218749999999994
 40
0.4218749999999994
 40
0.4374999999999994
 40
0.4374999999999994
 40
0.4687499999999999
 40
0.4687499999999999
 40
0.4843750000000001
 40
0.4843750000000001
 40
0.5000000000000003
 40
0.5156250000000006
 40
0.5156250000000006
 40
0.5312500000000009
 40
0.5312500000000009
 40
0.5625000000000021
 40
0.5625000000000021
 40
0.5781250000000024
 40
0.5781250000000024
 40
0.5937500000000027
 40
0.5937500000000027
 40
0.625000000000003
 40
0.625000000000003
 40
0.6562500000000034
 40
0.6562500000000034
 40
0.6718750000000036
 40
0.6718750000000036
 40
0.6875000000000038
 40
0.6875000000000038
 40
0.7187500000000037
 40
0.7187500000000037
 40
0.7500000000000037
 40
0.7500000000000037
 40
0.7812500000000037
 40
0.7812500000000037
 40
0.7968750000000037
 40
0.7968750000000037
 40
0.8125000000000037
 40
0.8125000000000037
 40
0.8281250000000038
 40
0.8281250000000038
 40
0.8437500000000038
 40
0.8437500000000038
 40
0.8750000000000033
 40
0.8750000000000033
 40
0.906250000000003
 40
0.906250000000003
 40
0.9375000000000027
 40
0.9375000000000027
 40
0.953125000000002
 40
0.953125000000002
 40
0.9687500000000013
 40
0.9687500000000013
 40
1.0
 40
1.0
 40
1.0
 40
1.0
 10
221.9423907663613
 20
120.5874155347481
 30
0.0
 10
221.4419060070056
 20
120.5874155347481
 30
0.0
 10
220.9507996943135
 20
120.6370001274521
 30
0.0
 10
220.2273718445827
 20
120.781993182358
 30
0.0
 10
219.9884494045846
 20
120.84218554299
 30
0.0
 10
219.5150804386454
 20
120.9867529563899
 30
0.0
 10
219.2812724329189
 20
121.0711034880936
 30
0.0
 10
218.6020237491795
 20
121.3544599970236
 30
0.0
 10
218.1732134662289
 20
121.5849615044932
 30
0.0
 10
217.5645233437578
 20
121.9928336529485
 30
0.0
 10
217.3666510847261
 20
122.1399702019627
 30
0.0
 10
216.9898676123071
 20
122.4498616299842
 30
0.0
 10
216.8101822461454
 20
122.6130118980394
 30
0.0
 10
216.2964201135733
 20
123.1268053627831
 30
0.0
 10
215.986821014954
 20
123.5023219012063
 30
0.0
 10
215.4390448433375
 20
124.3193408940711
 30
0.0
 10
215.2087149145187
 20
124.7488602985803
 30
0.0
 10
214.9267293560868
 20
125.4246950533527
 30
0.0
 10
214.8434020927834
 20
125.6552695481951
 30
0.0
 10
214.6987975014598
 20
126.127484183867
 30
0.0
 10
214.6374414147777
 20
126.3701646028838
 30
0.0
 10
214.4914781638552
 20
127.0980497992509
 30
0.0
 10
214.4427211142142
 20
127.5879233509164
 30
0.0
 10
214.4420637320466
 20
128.5769374559892
 30
0.0
 10
214.4918969642507
 20
129.0788354957003
 30
0.0
 10
214.6856367454233
 20
130.0450397361366
 30
0.0
 10
214.828942199406
 20
130.515228302566
 30
0.0
 10
215.2100858366475
 20
131.4297942810377
 30
0.0
 10
215.4423042426158
 20
131.8604190169588
 30
0.0
 10
215.8487308049509
 20
132.4665111374887
 30
0.0
 10
215.9940433489446
 20
132.6620205135519
 30
0.0
 10
216.3048028012962
 20
133.0399350598521
 30
0.0
 10
216.4701747672388
 20
133.2220062246309
 30
0.0
 10
216.9864915211511
 20
133.7377023103074
 30
0.0
 10
217.3605345640619
 20
134.0451117314786
 30
0.0
 10
217.9677406228158
 20
134.4522834669354
 30
0.0
 10
218.1790884831641
 20
134.579557545763
 30
0.0
 10
218.6120063936586
 20
134.8119149135837
 30
0.0
 10
218.832891863695
 20
134.9168065612967
 30
0.0
 10
219.5087665563628
 20
135.198374266259
 30
0.0
 10
219.9768424454674
 20
135.34229826228
 30
0.0
 10
220.7072592191701
 20
135.4891805917555
 30
0.0
 10
220.9548129617138
 20
135.5262250183343
 30
0.0
 10
221.4471479107391
 20
135.5751344930065
 30
0.0
 10
221.939697832745
 20
135.5995257472456
 30
0.0
 10
222.4326735028612
 20
135.5754743675043
 30
0.0
 10
222.9258652263721
 20
135.526782458824
 30
0.0
 10
223.1739723612103
 20
135.4897598309489
 30
0.0
 10
223.9033903964454
 20
135.3434790452115
 30
0.0
 10
224.3725767614865
 20
135.1997295665597
 30
0.0
 10
225.0521052140682
 20
134.9167551637477
 30
0.0
 10
225.2756198692563
 20
134.8105128004036
 30
0.0
 10
225.7087956396579
 20
134.5777658662986
 30
0.0
 10
225.9178706686311
 20
134.4517429718587
 30
0.0
 10
226.5236042006002
 20
134.0455108839673
 30
0.0
 10
226.8989942450744
 20
133.7374448362484
 30
0.0
 10
227.5928639610705
 20
133.043512974153
 30
0.0
 10
227.9011594967093
 20
132.667682954104
 30
0.0
 10
228.3067990638774
 20
132.0627457884698
 30
0.0
 10
228.4325584264546
 20
131.8540897136235
 30
0.0
 10
228.6647039696995
 20
131.4221742699721
 30
0.0
 10
228.7714826615178
 20
131.1977336293043
 30
0.0
 10
229.0553184266099
 20
130.5161104821081
 30
0.0
 10
229.1984412393817
 20
130.0475969632498
 30
0.0
 10
229.3924702470693
 20
129.0818477500334
 30
0.0
 10
229.4425390397039
 20
128.5794897202842
 30
0.0
 10
229.4422418151611
 20
127.5908318338366
 30
0.0
 10
229.3937005072011
 20
127.1000785162899
 30
0.0
 10
229.2471838013118
 20
126.369360958483
 30
0.0
 10
229.1858732143678
 20
126.1271178205383
 30
0.0
 10
229.0414668674635
 20
125.6555595329106
 30
0.0
 10
228.9581166362426
 20
125.4248035083672
 30
0.0
 10
228.7695785354262
 20
124.9730264373039
 30
0.0
 10
228.6643903189252
 20
124.75200579718
 30
0.0
 10
228.4319462496206
 20
124.319670090609
 30
0.0
 10
228.3040902456132
 20
124.10763966558
 30
0.0
 10
227.8948194487187
 20
123.4985226711091
 30
0.0
 10
227.5863028509613
 20
123.1242704340998
 30
0.0
 10
226.8980183058714
 20
122.4369015228698
 30
0.0
 10
226.5157554054384
 20
122.1233324335118
 30
0.0
 10
225.7082302442918
 20
121.5832319282627
 30
0.0
 10
225.2797398397367
 20
121.352797286353
 30
0.0
 10
224.5971225842687
 20
121.0686446721053
 30
0.0
 10
224.362832999599
 20
120.984459659289
 30
0.0
 10
223.8921508546216
 20
120.8411090016661
 30
0.0
 10
223.654345001235
 20
120.7813048880451
 30
0.0
 10
222.9335436539438
 20
120.6370614297331
 30
0.0
 10
222.4428755257169
 20
120.5874155347481
 30
0.0
 10
221.9423907663613
 20
120.5874155347481
 30
0.0
  0
SPLINE
  5
11C
330
1F
100
AcDbEntity
  8
0
  6
HIDDEN
 62
     7
370
    18
100
AcDbSpline
210
0.0
220
0.0
230
1.0
 70
    11
 71
     3
 72
    93
 73
    89
 74
     0
 42
0.000000001
 43
0.00000001
 40
0.0
 40
0.0
 40
0.0
 40
0.0
 40
0.0312500000000001
 40
0.0312500000000001
 40
0.046875
 40
0.046875
 40
0.0624999999999998
 40
0.0624999999999998
 40
0.0937499999999996
 40
0.0937499999999996
 40
0.1093749999999995
 40
0.1093749999999995
 40
0.1249999999999994
 40
0.1249999999999994
 40
0.1562499999999993
 40
0.1562499999999993
 40
0.1874999999999992
 40
0.1874999999999992
 40
0.2031249999999991
 40
0.2031249999999991
 40
0.2187499999999991
 40
0.2187499999999991
 40
0.249999999999999
 40
0.249999999999999
 40
0.2812499999999988
 40
0.2812499999999988
 40
0.3124999999999987
 40
0.3124999999999987
 40
0.3437499999999987
 40
0.3437499999999987
 40
0.3593749999999986
 40
0.3593749999999986
 40
0.3749999999999986
 40
0.3749999999999986
 40
0.4062499999999984
 40
0.4062499999999984
 40
0.4218749999999984
 40
0.4218749999999984
 40
0.4374999999999986
 40
0.4374999999999986
 40
0.4687499999999993
 40
0.4687499999999993
 40
0.4843749999999997
 40
0.4843749999999997
 40
0.5000000000000001
 40
0.5156250000000006
 40
0.5156250000000006
 40
0.5312500000000009
 40
0.5312500000000009
 40
0.5625000000000017
 40
0.5625000000000017
 40
0.5781250000000019
 40
0.5781250000000019
 40
0.593750000000002
 40
0.593750000000002
 40
0.6250000000000019
 40
0.6250000000000019
 40
0.6562500000000019
 40
0.6562500000000019
 40
0.6718750000000019
 40
0.6718750000000019
 40
0.687500000000002
 40
0.687500000000002
 40
0.7187500000000019
 40
0.7187500000000019
 40
0.7500000000000018
 40
0.7500000000000018
 40
0.7812500000000017
 40
0.7812500000000017
 40
0.7968750000000017
 40
0.7968750000000017
 40
0.8125000000000016
 40
0.8125000000000016
 40
0.8281250000000016
 40
0.8281250000000016
 40
0.8437500000000014
 40
0.8437500000000014
 40
0.875000000000001
 40
0.875000000000001
 40
0.9062500000000007
 40
0.9062500000000007
 40
0.9375000000000002
 40
0.9375000000000002
 40
0.9531250000000001
 40
0.9531250000000001
 40
0.9687500000000001
 40
0.9687500000000001
 40
1.0
 40
1.0
 40
1.0
 40
1.0
 10
193.9423907663613
 20
120.5874155347481
 30
0.0
 10
193.4419060070057
 20
120.5874155347481
 30
0.0
 10
192.9507996943135
 20
120.6370001274521
 30
0.0
 10
192.2273718445827
 20
120.781993182358
 30
0.0
 10
191.9884494045846
 20
120.84218554299
 30
0.0
 10
191.5150804386454
 20
120.9867529563899
 30
0.0
 10
191.2812724329189
 20
121.0711034880936
 30
0.0
 10
190.6020237491795
 20
121.3544599970236
 30
0.0
 10
190.1732134662288
 20
121.5849615044932
 30
0.0
 10
189.5645233437578
 20
121.9928336529485
 30
0.0
 10
189.3666510847261
 20
122.1399702019627
 30
0.0
 10
188.9898676123071
 20
122.4498616299842
 30
0.0
 10
188.8101822461454
 20
122.6130118980394
 30
0.0
 10
188.2964201135733
 20
123.1268053627831
 30
0.0
 10
187.986821014954
 20
123.5023219012063
 30
0.0
 10
187.4390448433375
 20
124.3193408940711
 30
0.0
 10
187.2087149145187
 20
124.7488602985803
 30
0.0
 10
186.9267293560867
 20
125.4246950533527
 30
0.0
 10
186.8434020927834
 20
125.6552695481951
 30
0.0
 10
186.6987975014597
 20
126.127484183867
 30
0.0
 10
186.6374414147777
 20
126.3701646028838
 30
0.0
 10
186.4914781638552
 20
127.0980497992509
 30
0.0
 10
186.4427211142141
 20
127.5879233509164
 30
0.0
 10
186.4420637320467
 20
128.5769374559892
 30
0.0
 10
186.4918969642508
 20
129.0788354957003
 30
0.0
 10
186.6856367454233
 20
130.0450397361366
 30
0.0
 10
186.828942199406
 20
130.515228302566
 30
0.0
 10
187.2100858366475
 20
131.4297942810377
 30
0.0
 10
187.4423042426158
 20
131.8604190169588
 30
0.0
 10
187.8487308049509
 20
132.4665111374887
 30
0.0
 10
187.9940433489446
 20
132.6620205135519
 30
0.0
 10
188.3048028012962
 20
133.0399350598521
 30
0.0
 10
188.4701747672387
 20
133.2220062246309
 30
0.0
 10
188.9864915211511
 20
133.7377023103074
 30
0.0
 10
189.360534564062
 20
134.0451117314786
 30
0.0
 10
189.9677406228158
 20
134.4522834669354
 30
0.0
 10
190.179088483164
 20
134.579557545763
 30
0.0
 10
190.6120063936587
 20
134.8119149135837
 30
0.0
 10
190.832891863695
 20
134.9168065612967
 30
0.0
 10
191.5087665563628
 20
135.198374266259
 30
0.0
 10
191.9768424454675
 20
135.34229826228
 30
0.0
 10
192.7072592191701
 20
135.4891805917555
 30
0.0
 10
192.9548129617138
 20
135.5262250183343
 30
0.0
 10
193.4471479107392
 20
135.5751344930065
 30
0.0
 10
193.939697832745
 20
135.5995257472456
 30
0.0
 10
194.4326735028612
 20
135.5754743675043
 30
0.0
 10
194.9258652263721
 20
135.526782458824
 30
0.0
 10
195.1739723612102
 20
135.4897598309489
 30
0.0
 10
195.9033903964454
 20
135.3434790452115
 30
0.0
 10
196.3725767614865
 20
135.1997295665597
 30
0.0
 10
197.0521052140682
 20
134.9167551637477
 30
0.0
 10
197.2756198692563
 20
134.8105128004036
 30
0.0
 10
197.7087956396579
 20
134.5777658662986
 30
0.0
 10
197.9178706686311
 20
134.4517429718587
 30
0.0
 10
198.5236042006002
 20
134.0455108839673
 30
0.0
 10
198.8989942450744
 20
133.7374448362484
 30
0.0
 10
199.5928639610705
 20
133.0435129741529
 30
0.0
 10
199.9011594967093
 20
132.667682954104
 30
0.0
 10
200.3067990638774
 20
132.0627457884698
 30
0.0
 10
200.4325584264546
 20
131.8540897136235
 30
0.0
 10
200.6647039696995
 20
131.4221742699721
 30
0.0
 10
200.7714826615178
 20
131.1977336293043
 30
0.0
 10
201.0553184266099
 20
130.5161104821081
 30
0.0
 10
201.1984412393817
 20
130.0475969632498
 30
0.0
 10
201.3924702470693
 20
129.0818477500334
 30
0.0
 10
201.4425390397039
 20
128.5794897202843
 30
0.0
 10
201.4422418151611
 20
127.5908318338366
 30
0.0
 10
201.3937005072011
 20
127.1000785162899
 30
0.0
 10
201.2471838013119
 20
126.369360958483
 30
0.0
 10
201.1858732143678
 20
126.1271178205383
 30
0.0
 10
201.0414668674636
 20
125.6555595329106
 30
0.0
 10
200.9581166362426
 20
125.4248035083672
 30
0.0
 10
200.7695785354262
 20
124.9730264373039
 30
0.0
 10
200.6643903189252
 20
124.75200579718
 30
0.0
 10
200.4319462496207
 20
124.319670090609
 30
0.0
 10
200.3040902456132
 20
124.10763966558
 30
0.0
 10
199.8948194487187
 20
123.4985226711091
 30
0.0
 10
199.5863028509613
 20
123.1242704340998
 30
0.0
 10
198.8980183058713
 20
122.4369015228698
 30
0.0
 10
198.5157554054384
 20
122.1233324335118
 30
0.0
 10
197.7082302442919
 20
121.5832319282627
 30
0.0
 10
197.2797398397367
 20
121.352797286353
 30
0.0
 10
196.5971225842687
 20
121.0686446721053
 30
0.0
 10
196.3628329995989
 20
120.984459659289
 30
0.0
 10
195.8921508546216
 20
120.8411090016661
 30
0.0
 10
195.654345001235
 20
120.7813048880451
 30
0.0
 10
194.9335436539437
 20
120.6370614297331
 30
0.0
 10
194.4428755257169
 20
120.5874155347481
 30
0.0
 10
193.9423907663613
 20
120.5874155347481
 30
0.0
  0
CIRCLE
  5
11D
330
1F
100
AcDbEntity
  8
0
  6
HIDDEN
 62
     7
370
    18
100
AcDbCircle
 10
143.4423907664
 20
128.0874155347
 30
0.0
 40
4.049999999999983
  0
LINE
  5
11E
330
1F
100
AcDbEntity
  8
0
  6
HIDDEN
 62
     7
370
    18
100
AcDbLine
 10
122.472619206
 20
143.4003665777
 30
0.0
 11
122.472619206
 21
112.7744644918
 31
0.0
  0
LINE
  5
11F
330
1F
100
AcDbEntity
  8
0
  6
HIDDEN
 62
     7
370
    18
100
AcDbLine
 10
120.9423907664
 20
111.8909866903
 30
0.0
 11
120.9423907664
 21
144.2838443792
 31
0.0
  0
LINE
  5
120
330
1F
100
AcDbEntity
  8
0
  6
HIDDEN
 62
     7
370
    18
100
AcDbLine
 10
130.9423907664
 20
112.0874155347
 30
0.0
 11
130.9423907664
 21
144.0874155347
 31
0.0
  0
LINE
  5
121
330
1F
100
AcDbEntity
  8
0
  6
HIDDEN
 62
     7
370
    18
100
AcDbLine
 10
131.9441920813
 20
112.0874155347
 30
0.0
 11
131.9441920813
 21
144.0874155347
 31
0.0
  0
LINE
  5
122
330
1F
100
AcDbEntity
  8
0
  6
HIDDEN
 62
     7
370
    18
100
AcDbLine
 10
133.3584056436
 20
112.6732019724
 30
0.0
 11
133.3584056436
 21
143.4824680153
 31
0.0
  0
LINE
  5
123
330
1F
100
AcDbEntity
  8
0
  6
HIDDEN
 62
     7
370
    18
100
AcDbLine
 10
128.972619206
 20
142.4338256963
 30
0.0
 11
128.972619206
 21
113.7410053732
 31
0.0
  0
LINE
  5
124
330
1F
100
AcDbEntity
  8
0
  6
HIDDEN
 62
     7
370
    18
100
AcDbLine
 10
134.772619206
 20
142.0874155347
 30
0.0
 11
134.772619206
 21
114.0874155347
 31
0.0
  0
LINE
  5
125
330
1F
100
AcDbEntity
  8
0
  6
HIDDEN
 62
     7
370
    18
100
AcDbLine
 10
127.372619206
 20
142.0874155347
 30
0.0
 11
127.372619206
 21
114.0874155347
 31
0.0
  0
LINE
  5
126
330
1F
100
AcDbEntity
  8
0
  6
HIDDEN
 62
     7
370
    18
100
AcDbLine
 10
128.372619206
 20
142.0874155347
 30
0.0
 11
128.372619206
 21
114.0874155347
 31
0.0
  0
LINE
  5
127
330
1F
100
AcDbEntity
  8
0
  6
HIDDEN
 62
     7
370
    18
100
AcDbLine
 10
147.4423907664
 20
127.4529866577
 30
0.0
 11
147.4423907664
 21
114.1067800257
 31
0.0
  0
SPLINE
  5
128
330
1F
100
AcDbEntity
  8
0
  6
HIDDEN
 62
     7
370
    18
100
AcDbSpline
210
0.0
220
0.0
230
1.0
 70
     8
 71
     3
 72
    10
 73
     6
 74
     0
 42
0.000000001
 43
0.00000001
 40
0.0
 40
0.0
 40
0.0
 40
0.0
 40
0.5
 40
0.5
 40
1.0
 40
1.0
 40
1.0
 40
1.0
 10
147.4423907663612
 20
128.7218444117706
 30
0.0
 10
147.4755381844377
 20
128.5128538107626
 30
0.0
 10
147.4923970297993
 20
128.301291344741
 30
0.0
 10
147.4923844994516
 20
127.8733025787734
 30
0.0
 10
147.4754695417112
 20
127.6615444743578
 30
0.0
 10
147.4423907663612
 20
127.4529866577257
 30
0.0
  0
LINE
  5
129
330
1F
100
AcDbEntity
  8
0
  6
HIDDEN
 62
     7
370
    18
100
AcDbLine
 10
147.4423907664
 20
128.7218444118
 30
0.0
 11
147.4423907664
 21
142.0680510438
 31
0.0
  0
LINE
  5
12A
330
1F
100
AcDbEntity
  8
0
  6
HIDDEN
 62
     7
370
    18
100
AcDbLine
 10
147.9423907664
 20
141.5874154952
 30
0.0
 11
147.9423907664
 21
114.5874155347
 31
0.0
  0
SPLINE
  5
12B
330
1F
100
AcDbEntity
  8
0
  6
HIDDEN
 62
     7
370
    18
100
AcDbSpline
210
0.0
220
0.0
230
1.0
 70
     8
 71
     3
 72
    10
 73
     6
 74
     0
 42
0.000000001
 43
0.00000001
 40
0.0
 40
0.0
 40
0.0
 40
0.0
 40
0.5
 40
0.5
 40
1.0
 40
1.0
 40
1.0
 40
1.0
 10
147.4423907663612
 20
127.4529866577257
 30
0.0
 10
147.4755797288349
 20
127.6622391913081
 30
0.0
 10
147.4922805050896
 20
127.8730559522071
 30
0.0
 10
147.4924999455342
 20
128.2975882334103
 30
0.0
 10
147.4756202301408
 20
128.5123365221829
 30
0.0
 10
147.4423907663612
 20
128.7218444117706
 30
0.0
  0
SPLINE
  5
12C
330
1F
100
AcDbEntity
  8
0
  6
HIDDEN
 62
     7
370
    18
100
AcDbSpline
210
0.0
220
0.0
230
1.0
 70
     8
 71
     3
 72
    68
 73
    64
 74
     0
 42
0.000000001
 43
0.00000001
 40
0.0
 40
0.0
 40
0.0
 40
0.0
 40
0.03125
 40
0.03125
 40
0.0625000000000001
 40
0.0625000000000001
 40
0.0937500000000001
 40
0.0937500000000001
 40
0.1250000000000001
 40
0.1250000000000001
 40
0.1562500000000002
 40
0.1562500000000002
 40
0.1875000000000002
 40
0.1875000000000002
 40
0.2187500000000002
 40
0.2187500000000002
 40
0.2500000000000002
 40
0.2500000000000002
 40
0.2812500000000002
 40
0.2812500000000002
 40
0.3125000000000002
 40
0.3125000000000002
 40
0.3437500000000002
 40
0.3437500000000002
 40
0.3750000000000002
 40
0.3750000000000002
 40
0.4062500000000002
 40
0.4062500000000002
 40
0.4375000000000002
 40
0.4375000000000002
 40
0.4687500000000002
 40
0.4687500000000002
 40
0.5000000000000001
 40
0.5000000000000001
 40
0.5625000000000002
 40
0.5625000000000002
 40
0.5937500000000001
 40
0.5937500000000001
 40
0.6250000000000001
 40
0.6250000000000001
 40
0.65625
 40
0.65625
 40
0.6875
 40
0.6875
 40
0.7187499999999999
 40
0.7187499999999999
 40
0.7499999999999998
 40
0.7499999999999998
 40
0.7812499999999998
 40
0.7812499999999998
 40
0.8124999999999997
 40
0.8124999999999997
 40
0.8437499999999998
 40
0.8437499999999998
 40
0.8749999999999998
 40
0.8749999999999998
 40
0.9062499999999999
 40
0.9062499999999999
 40
0.9374999999999999
 40
0.9374999999999999
 40
0.96875
 40
0.96875
 40
1.0
 40
1.0
 40
1.0
 40
1.0
 10
147.4423907663612
 20
127.4529866577257
 30
0.0
 10
147.4023758140115
 20
127.2006970549101
 30
0.0
 10
147.3394340126002
 20
126.9566982045343
 30
0.0
 10
147.1700473505282
 20
126.4842798154718
 30
0.0
 10
147.0623537879427
 20
126.2538664293118
 30
0.0
 10
146.8070690194048
 20
125.8191618335147
 30
0.0
 10
146.6610297889326
 20
125.6165198668634
 30
0.0
 10
146.3328083523733
 20
125.2395305761056
 30
0.0
 10
146.1485610645984
 20
125.0638726225282
 30
0.0
 10
145.7556008972901
 20
124.7536146535819
 30
0.0
 10
145.5463063003309
 20
124.617669445932
 30
0.0
 10
145.1014208733936
 20
124.3842793505262
 30
0.0
 10
144.8646232808945
 20
124.2870327441118
 30
0.0
 10
144.3838882119753
 20
124.1403612862404
 30
0.0
 10
144.1376451187924
 20
124.089468941298
 30
0.0
 10
143.632928338813
 20
124.0339415910625
 30
0.0
 10
143.3767336378766
 20
124.0301167039925
 30
0.0
 10
142.8743548886764
 20
124.069540486637
 30
0.0
 10
142.6251051894928
 20
124.1125679358482
 30
0.0
 10
142.1335773920141
 20
124.2462729052995
 30
0.0
 10
141.8982817907882
 20
124.3349427512047
 30
0.0
 10
141.4473678961261
 20
124.5539741149821
 30
0.0
 10
141.2297555456628
 20
124.6859756806656
 30
0.0
 10
140.8265483761144
 20
124.9853329616686
 30
0.0
 10
140.64093688368
 20
125.1519518891064
 30
0.0
 10
140.3009488132775
 20
125.5190633145339
 30
0.0
 10
140.1458758824546
 20
125.7213670600746
 30
0.0
 10
139.8795328057912
 20
126.1454477396686
 30
0.0
 10
139.7665487050745
 20
126.3686073451348
 30
0.0
 10
139.5816934481436
 20
126.837962586729
 30
0.0
 10
139.5105526866402
 20
127.0841730900645
 30
0.0
 10
139.416592275352
 20
127.5786989164357
 30
0.0
 10
139.3925829453956
 20
127.8296299115277
 30
0.0
 10
139.3920098247231
 20
128.5938752910839
 30
0.0
 10
139.4874089360417
 20
129.0960995931349
 30
0.0
 10
139.7652727282428
 20
129.8036640994073
 30
0.0
 10
139.8784346843233
 20
130.0273703631481
 30
0.0
 10
140.1445658663672
 20
130.4516402744686
 30
0.0
 10
140.2993936405669
 20
130.6538922365247
 30
0.0
 10
140.6395747463548
 20
131.0216029778929
 30
0.0
 10
140.8250772033045
 20
131.1882198531422
 30
0.0
 10
141.2273710043638
 20
131.4872692319377
 30
0.0
 10
141.4453790526158
 20
131.6197259399661
 30
0.0
 10
141.8959774197661
 20
131.8389323406707
 30
0.0
 10
142.1305264186469
 20
131.9274174706744
 30
0.0
 10
142.6189864121992
 20
132.060903700613
 30
0.0
 10
142.8712518079131
 20
132.1048454131068
 30
0.0
 10
143.3734324460734
 20
132.1446544095803
 30
0.0
 10
143.6259145634251
 20
132.1413101967668
 30
0.0
 10
144.1337796064946
 20
132.0861308767762
 30
0.0
 10
144.3813250796784
 20
132.0350849483068
 30
0.0
 10
144.8622926171491
 20
131.8886745600712
 30
0.0
 10
145.0982524822544
 20
131.7920283552976
 30
0.0
 10
145.5448229317759
 20
131.5581234109846
 30
0.0
 10
145.7544677943494
 20
131.4219983971581
 30
0.0
 10
146.1474545011039
 20
131.1119441328289
 30
0.0
 10
146.3318504049189
 20
130.9362868852538
 30
0.0
 10
146.6604008227793
 20
130.5591469625894
 30
0.0
 10
146.8063429193024
 20
130.3566807573195
 30
0.0
 10
147.0612282745046
 20
129.9231044591862
 30
0.0
 10
147.1695395873129
 20
129.6918126156047
 30
0.0
 10
147.3393745647299
 20
129.2184529354714
 30
0.0
 10
147.4023699258669
 20
128.9741711386506
 30
0.0
 10
147.4423907663612
 20
128.7218444117706
 30
0.0
  0
SPLINE
  5
12D
330
1F
100
AcDbEntity
  8
0
  6
HIDDEN
 62
     7
370
    18
100
AcDbSpline
210
0.0
220
0.0
230
1.0
 70
     8
 71
     3
 72
    68
 73
    64
 74
     0
 42
0.000000001
 43
0.00000001
 40
0.0
 40
0.0
 40
0.0
 40
0.0
 40
0.03125
 40
0.03125
 40
0.0625000000000001
 40
0.0625000000000001
 40
0.0937500000000001
 40
0.0937500000000001
 40
0.1250000000000001
 40
0.1250000000000001
 40
0.1562500000000002
 40
0.1562500000000002
 40
0.1875000000000002
 40
0.1875000000000002
 40
0.2187500000000002
 40
0.2187500000000002
 40
0.2500000000000002
 40
0.2500000000000002
 40
0.2812500000000002
 40
0.2812500000000002
 40
0.3125000000000002
 40
0.3125000000000002
 40
0.3437500000000002
 40
0.3437500000000002
 40
0.3750000000000002
 40
0.3750000000000002
 40
0.4062500000000002
 40
0.4062500000000002
 40
0.4375000000000002
 40
0.4375000000000002
 40
0.4687500000000002
 40
0.4687500000000002
 40
0.5000000000000001
 40
0.5000000000000001
 40
0.5625000000000002
 40
0.5625000000000002
 40
0.5937500000000001
 40
0.5937500000000001
 40
0.6250000000000001
 40
0.6250000000000001
 40
0.65625
 40
0.65625
 40
0.6875
 40
0.6875
 40
0.7187499999999999
 40
0.7187499999999999
 40
0.7499999999999998
 40
0.7499999999999998
 40
0.7812499999999998
 40
0.7812499999999998
 40
0.8124999999999997
 40
0.8124999999999997
 40
0.8437499999999998
 40
0.8437499999999998
 40
0.8749999999999998
 40
0.8749999999999998
 40
0.9062499999999999
 40
0.9062499999999999
 40
0.9374999999999999
 40
0.9374999999999999
 40
0.96875
 40
0.96875
 40
1.0
 40
1.0
 40
1.0
 40
1.0
 10
147.4423907663612
 20
128.7218444117706
 30
0.0
 10
147.4023758140115
 20
128.9741340145862
 30
0.0
 10
147.3394340126002
 20
129.218132864962
 30
0.0
 10
147.1700473505282
 20
129.6905512540245
 30
0.0
 10
147.0623537879427
 20
129.9209646401845
 30
0.0
 10
146.8070690194048
 20
130.3556692359816
 30
0.0
 10
146.6610297889326
 20
130.5583112026329
 30
0.0
 10
146.3328083523733
 20
130.9353004933907
 30
0.0
 10
146.1485610645984
 20
131.1109584469681
 30
0.0
 10
145.7556008972901
 20
131.4212164159144
 30
0.0
 10
145.5463063003309
 20
131.5571616235643
 30
0.0
 10
145.1014208733936
 20
131.7905517189701
 30
0.0
 10
144.8646232808945
 20
131.8877983253845
 30
0.0
 10
144.3838882119753
 20
132.0344697832559
 30
0.0
 10
144.1376451187924
 20
132.0853621281983
 30
0.0
 10
143.632928338813
 20
132.1408894784338
 30
0.0
 10
143.3767336378766
 20
132.1447143655037
 30
0.0
 10
142.8743548886764
 20
132.1052905828593
 30
0.0
 10
142.6251051894928
 20
132.0622631336481
 30
0.0
 10
142.1335773920141
 20
131.9285581641968
 30
0.0
 10
141.8982817907882
 20
131.8398883182916
 30
0.0
 10
141.4473678961261
 20
131.6208569545142
 30
0.0
 10
141.2297555456628
 20
131.4888553888306
 30
0.0
 10
140.8265483761144
 20
131.1894981078277
 30
0.0
 10
140.64093688368
 20
131.0228791803899
 30
0.0
 10
140.3009488132775
 20
130.6557677549624
 30
0.0
 10
140.1458758824546
 20
130.4534640094217
 30
0.0
 10
139.8795328057912
 20
130.0293833298277
 30
0.0
 10
139.7665487050745
 20
129.8062237243614
 30
0.0
 10
139.5816934481436
 20
129.3368684827673
 30
0.0
 10
139.5105526866402
 20
129.0906579794318
 30
0.0
 10
139.416592275352
 20
128.5961321530606
 30
0.0
 10
139.3925829453956
 20
128.3452011579686
 30
0.0
 10
139.3920098247231
 20
127.5809557784124
 30
0.0
 10
139.4874089360417
 20
127.0787314763614
 30
0.0
 10
139.7652727282428
 20
126.371166970089
 30
0.0
 10
139.8784346843233
 20
126.1474607063482
 30
0.0
 10
140.1445658663672
 20
125.7231907950276
 30
0.0
 10
140.2993936405669
 20
125.5209388329716
 30
0.0
 10
140.6395747463548
 20
125.1532280916034
 30
0.0
 10
140.8250772033045
 20
124.9866112163541
 30
0.0
 10
141.2273710043638
 20
124.6875618375586
 30
0.0
 10
141.4453790526158
 20
124.5551051295302
 30
0.0
 10
141.8959774197661
 20
124.3358987288256
 30
0.0
 10
142.1305264186469
 20
124.2474135988219
 30
0.0
 10
142.6189864121992
 20
124.1139273688833
 30
0.0
 10
142.8712518079131
 20
124.0699856563895
 30
0.0
 10
143.3734324460734
 20
124.030176659916
 30
0.0
 10
143.6259145634251
 20
124.0335208727295
 30
0.0
 10
144.1337796064946
 20
124.0887001927201
 30
0.0
 10
144.3813250796784
 20
124.1397461211895
 30
0.0
 10
144.8622926171491
 20
124.2861565094251
 30
0.0
 10
145.0982524822544
 20
124.3828027141987
 30
0.0
 10
145.5448229317759
 20
124.6167076585117
 30
0.0
 10
145.7544677943494
 20
124.7528326723382
 30
0.0
 10
146.1474545011039
 20
125.0628869366673
 30
0.0
 10
146.3318504049189
 20
125.2385441842425
 30
0.0
 10
146.6604008227793
 20
125.6156841069069
 30
0.0
 10
146.8063429193024
 20
125.8181503121767
 30
0.0
 10
147.0612282745046
 20
126.2517266103101
 30
0.0
 10
147.1695395873129
 20
126.4830184538916
 30
0.0
 10
147.3393745647299
 20
126.9563781340249
 30
0.0
 10
147.4023699258669
 20
127.2006599308456
 30
0.0
 10
147.4423907663612
 20
127.4529866577257
 30
0.0
  0
LINE
  5
12E
330
1F
100
AcDbEntity
  8
0
  6
HIDDEN
 62
     7
370
    18
100
AcDbLine
 10
149.1923907664
 20
137.0874155347
 30
0.0
 11
149.1923907664
 21
119.0874155347
 31
0.0
  0
LINE
  5
12F
330
1F
100
AcDbEntity
  8
0
  6
HIDDEN
 62
     7
370
    18
100
AcDbLine
 10
147.9423907664
 20
117.8374155347
 30
0.0
 11
147.9423907664
 21
138.3179746543
 31
0.0
  0
LINE
  5
130
330
1F
100
AcDbEntity
  8
0
  6
HIDDEN
 62
     7
370
    18
100
AcDbLine
 10
170.9423907664
 20
119.0874155347
 30
0.0
 11
170.9423907664
 21
137.0874155347
 31
0.0
  0
LINE
  5
131
330
1F
100
AcDbEntity
  8
0
  6
HIDDEN
 62
     7
370
    18
100
AcDbLine
 10
156.9473507884
 20
112.6499519118
 30
0.0
 11
158.1258784799
 21
112.6351475529
 31
0.0
  0
LINE
  5
132
330
1F
100
AcDbEntity
  8
0
  6
HIDDEN
 62
     7
370
    18
100
AcDbLine
 10
156.9473507884
 20
112.6499519118
 30
0.0
 11
156.9473507884
 21
106.26223055
 31
0.0
  0
SPLINE
  5
133
330
1F
100
AcDbEntity
  8
0
  6
HIDDEN
 62
     7
370
    18
100
AcDbSpline
210
0.0
220
0.0
230
1.0
 70
     8
 71
     3
 72
    16
 73
    12
 74
     0
 42
0.000000001
 43
0.00000001
 40
0.0
 40
0.0
 40
0.0
 40
0.0
 40
0.25
 40
0.25
 40
0.3750000000000001
 40
0.3750000000000001
 40
0.5000000000000002
 40
0.5000000000000002
 40
0.7500000000000001
 40
0.7500000000000001
 40
1.0
 40
1.0
 40
1.0
 40
1.0
 10
157.6210704228016
 20
111.5035089085071
 30
0.0
 10
157.4598379453171
 20
110.789114746315
 30
0.0
 10
157.3393581056775
 20
110.1357724836063
 30
0.0
 10
157.2169775883642
 20
109.2475172418024
 30
0.0
 10
157.1859999279667
 20
108.9668367054506
 30
0.0
 10
157.1443861903388
 20
108.4378027156106
 30
0.0
 10
157.134150277406
 20
108.1944817370321
 30
0.0
 10
157.1339618803498
 20
107.5264590465189
 30
0.0
 10
157.1741065829874
 20
107.1627781370995
 30
0.0
 10
157.338260337927
 20
106.6028872645511
 30
0.0
 10
157.4598119883366
 20
106.415365972434
 30
0.0
 10
157.6210704228016
 20
106.317334579746
 30
0.0
  0
LINE
  5
134
330
1F
100
AcDbEntity
  8
0
  6
HIDDEN
 62
     7
370
    18
100
AcDbLine
 10
122.4423907664
 20
112.983362706
 30
0.0
 11
122.4423907664
 21
106.9290521385
 31
0.0
  0
LINE
  5
135
330
1F
100
AcDbEntity
  8
0
  6
HIDDEN
 62
     7
370
    18
100
AcDbLine
 10
120.9423907664
 20
113.4163754079
 30
0.0
 11
122.4423907664
 21
112.983362706
 31
0.0
  0
LINE
  5
136
330
1F
100
AcDbEntity
  8
0
  6
HIDDEN
 62
     7
370
    18
100
AcDbLine
 10
120.9423907664
 20
113.4163754079
 30
0.0
 11
120.9423907664
 21
107.7950775422
 31
0.0
  0
LINE
  5
137
330
1F
100
AcDbEntity
  8
0
  6
HIDDEN
 62
     7
370
    18
100
AcDbLine
 10
156.7423907664
 20
112.5524950119
 30
0.0
 11
156.7423907664
 21
106.0673167502
 31
0.0
  0
LWPOLYLINE
  5
138
330
1F
100
AcDbEntity
  8
0
  6
HIDDEN
 62
     7
370
    18
100
AcDbPolyline
 90
        9
 70
   128
 43
0.0
 10
156.7423907664
 20
112.5524950119
 10
156.7472124584
 20
112.5719496312
 10
156.7595323189
 20
112.5905601028
 10
156.7788769025
 20
112.6076112365
 10
156.8045028077
 20
112.622447767
 10
156.8354252454
 20
112.6344995347
 10
156.8704558835
 20
112.6433033969
 10
156.9082485144
 20
112.6485210261
 10
156.9473507884
 20
112.6499519118
  0
LINE
  5
139
330
1F
100
AcDbEntity
  8
0
  6
HIDDEN
 62
     7
370
    18
100
AcDbLine
 10
122.4423907664
 20
112.983362706
 30
0.0
 11
156.7423907664
 21
112.5524950119
 31
0.0
  0
LINE
  5
13A
330
1F
100
AcDbEntity
  8
0
  6
HIDDEN
 62
     7
370
    18
100
AcDbLine
 10
122.4423907664
 20
149.245778931
 30
0.0
 11
122.4423907664
 21
143.1914683635
 31
0.0
  0
LINE
  5
13B
330
1F
100
AcDbEntity
  8
0
  6
HIDDEN
 62
     7
370
    18
100
AcDbLine
 10
122.4423907664
 20
143.1914683635
 30
0.0
 11
156.7423907664
 21
143.6223360576
 31
0.0
  0
LINE
  5
13C
330
1F
100
AcDbEntity
  8
0
  6
HIDDEN
 62
     7
370
    18
100
AcDbLine
 10
156.7423907664
 20
150.1075143193
 30
0.0
 11
156.7423907664
 21
143.6223360576
 31
0.0
  0
LINE
  5
13D
330
1F
100
AcDbEntity
  8
0
  6
HIDDEN
 62
     7
370
    18
100
AcDbLine
 10
156.9473507884
 20
149.9126005195
 30
0.0
 11
156.9473507884
 21
143.5248791577
 31
0.0
  0
LINE
  5
13E
330
1F
100
AcDbEntity
  8
0
  6
HIDDEN
 62
     7
370
    18
100
AcDbLine
 10
156.9473507884
 20
143.5248791577
 30
0.0
 11
158.1258784799
 21
143.5396835166
 31
0.0
  0
SPLINE
  5
13F
330
1F
100
AcDbEntity
  8
0
  6
HIDDEN
 62
     7
370
    18
100
AcDbSpline
210
0.0
220
0.0
230
1.0
 70
     8
 71
     3
 72
    16
 73
    12
 74
     0
 42
0.000000001
 43
0.00000001
 40
0.0
 40
0.0
 40
0.0
 40
0.0
 40
0.2500000000000008
 40
0.2500000000000008
 40
0.3750000000000009
 40
0.3750000000000009
 40
0.5000000000000011
 40
0.5000000000000011
 40
0.7500000000000006
 40
0.7500000000000006
 40
1.0
 40
1.0
 40
1.0
 40
1.0
 10
157.6210704228016
 20
149.8574964897502
 30
0.0
 10
157.4598379453171
 20
149.7594808766956
 30
0.0
 10
157.3393581056775
 20
149.5727448450195
 30
0.0
 10
157.2169775883642
 20
149.1597050374606
 30
0.0
 10
157.1859999279667
 20
148.9997045382277
 30
0.0
 10
157.1443861903388
 20
148.6328988871365
 30
0.0
 10
157.1341502774059
 20
148.4295617345125
 30
0.0
 10
157.1339618803498
 20
147.7622744678858
 30
0.0
 10
157.1741065829874
 20
147.2414600039978
 30
0.0
 10
157.338260337927
 20
146.0441009885201
 30
0.0
 10
157.4598119883366
 20
145.3858313342241
 30
0.0
 10
157.6210704228016
 20
144.6713221609891
 30
0.0
  0
LWPOLYLINE
  5
140
330
1F
100
AcDbEntity
  8
0
  6
HIDDEN
 62
     7
370
    18
100
AcDbPolyline
 90
        9
 70
   128
 43
0.0
 10
156.7423907664
 20
143.6223360576
 10
156.7472124584
 20
143.6028814383
 10
156.7595323189
 20
143.5842709667
 10
156.7788769025
 20
143.567219833
 10
156.8045028077
 20
143.5523833025
 10
156.8354252454
 20
143.5403315348
 10
156.8704558835
 20
143.5315276726
 10
156.9082485144
 20
143.5263100434
 10
156.9473507884
 20
143.5248791577
  0
LINE
  5
141
330
1F
100
AcDbEntity
  8
0
  6
HIDDEN
 62
     7
370
    18
100
AcDbLine
 10
120.9423907664
 20
142.7584556616
 30
0.0
 11
122.4423907664
 21
143.1914683635
 31
0.0
  0
LINE
  5
142
330
1F
100
AcDbEntity
  8
0
  6
HIDDEN
 62
     7
370
    18
100
AcDbLine
 10
120.9423907664
 20
148.3797535272
 30
0.0
 11
120.9423907664
 21
142.7584556616
 31
0.0
  0
LINE
  5
143
330
1F
100
AcDbEntity
  8
0
  6
HIDDEN
 62
     7
370
    18
100
AcDbLine
 10
172.4146339528
 20
137.4754819661
 30
0.0
 11
172.4146339528
 21
158.1559074936
 31
0.0
  0
LINE
  5
144
330
1F
100
AcDbEntity
  8
0
  6
HIDDEN
 62
     7
370
    18
100
AcDbLine
 10
169.4701475799
 20
137.4754819661
 30
0.0
 11
169.4701475799
 21
158.1559074936
 31
0.0
  0
LINE
  5
145
330
1F
100
AcDbEntity
  8
0
  6
HIDDEN
 62
     7
370
    18
100
AcDbLine
 10
169.4701475799
 20
98.0189235759
 30
0.0
 11
169.4701475799
 21
118.6993491034
 31
0.0
  0
LINE
  5
146
330
1F
100
AcDbEntity
  8
0
  6
HIDDEN
 62
     7
370
    18
100
AcDbLine
 10
172.4146339528
 20
98.0189235759
 30
0.0
 11
172.4146339528
 21
118.6993491034
 31
0.0
  0
LINE
  5
147
330
1F
100
AcDbEntity
  8
0
  6
HIDDEN
 62
     7
370
    18
100
AcDbLine
 10
169.037134878
 20
137.9967848554
 30
0.0
 11
169.037134878
 21
157.9881579949
 31
0.0
  0
LINE
  5
148
330
1F
100
AcDbEntity
  8
0
  6
HIDDEN
 62
     7
370
    18
100
AcDbLine
 10
172.8476466547
 20
137.9967848554
 30
0.0
 11
172.8476466547
 21
157.9881579949
 31
0.0
  0
LINE
  5
149
330
1F
100
AcDbEntity
  8
0
  6
HIDDEN
 62
     7
370
    18
100
AcDbLine
 10
172.8476466547
 20
98.1866730746
 30
0.0
 11
172.8476466547
 21
118.1780462141
 31
0.0
  0
LINE
  5
14A
330
1F
100
AcDbEntity
  8
0
  6
HIDDEN
 62
     7
370
    18
100
AcDbLine
 10
169.037134878
 20
98.1866730746
 30
0.0
 11
169.037134878
 21
118.1780462141
 31
0.0
  0
LINE
  5
14B
330
1F
100
AcDbEntity
  8
0
  6
HIDDEN
 62
     7
370
    18
100
AcDbLine
 10
120.9423907664
 20
142.7584556616
 30
0.0
 11
120.9423907664
 21
130.9894028677
 31
0.0
  0
LINE
  5
14C
330
1F
100
AcDbEntity
  8
0
  6
HIDDEN
 62
     7
370
    18
100
AcDbLine
 10
120.9423907664
 20
125.1854282018
 30
0.0
 11
120.9423907664
 21
113.4163754079
 31
0.0
  0
LINE
  5
14D
330
1F
100
AcDbEntity
  8
0
  6
HIDDEN
 62
     7
370
    18
100
AcDbLine
 10
122.4423907664
 20
124.1222046379
 30
0.0
 11
122.4423907664
 21
112.983362706
 31
0.0
  0
LINE
  5
14E
330
1F
100
AcDbEntity
  8
0
  6
HIDDEN
 62
     7
370
    18
100
AcDbLine
 10
122.4423907664
 20
143.1914683635
 30
0.0
 11
122.4423907664
 21
132.0526264316
 31
0.0
  0
LINE
  5
14F
330
1F
100
AcDbEntity
  8
0
  6
HIDDEN
 62
     7
370
    18
100
AcDbLine
 10
158.7423907664
 20
143.1251226972
 30
0.0
 11
158.7423907664
 21
113.0497083723
 31
0.0
  0
LINE
  5
150
330
1F
100
AcDbEntity
  8
0
  6
HIDDEN
 62
     7
370
    18
100
AcDbLine
 10
158.5474138775
 20
143.520183322
 30
0.0
 11
158.5474138775
 21
112.6546477475
 31
0.0
  0
LINE
  5
151
330
1F
100
AcDbEntity
  8
0
  6
HIDDEN
 62
     7
370
    18
100
AcDbLine
 10
156.9473507884
 20
143.5248791577
 30
0.0
 11
156.9473507884
 21
112.6499519118
 31
0.0
  0
LINE
  5
152
330
1F
100
AcDbEntity
  8
0
  6
HIDDEN
 62
     7
370
    18
100
AcDbLine
 10
156.7423907664
 20
143.6223360576
 30
0.0
 11
156.7423907664
 21
112.5524950119
 31
0.0
  0
SPLINE
  5
153
330
1F
100
AcDbEntity
  8
0
  6
HIDDEN
 62
     7
370
    18
100
AcDbSpline
210
0.0
220
0.0
230
1.0
 70
     8
 71
     3
 72
    24
 73
    20
 74
     0
 42
0.000000001
 43
0.00000001
 40
0.0
 40
0.0
 40
0.0
 40
0.0
 40
0.1249999999999999
 40
0.1249999999999999
 40
0.2499999999999998
 40
0.2499999999999998
 40
0.3749999999999997
 40
0.3749999999999997
 40
0.4374999999999997
 40
0.4374999999999997
 40
0.4999999999999998
 40
0.4999999999999998
 40
0.6249999999999999
 40
0.6249999999999999
 40
0.75
 40
0.75
 40
0.875
 40
0.875
 40
1.0
 40
1.0
 40
1.0
 40
1.0
 10
127.3923907663612
 20
124.0014544816489
 30
0.0
 10
127.6301943986363
 20
124.300461583979
 30
0.0
 10
127.8602800598476
 20
124.6047994352978
 30
0.0
 10
128.2950334584574
 20
125.2305329726937
 30
0.0
 10
128.4999662507436
 20
125.5517577000213
 30
0.0
 10
128.8650682012423
 20
126.223683470754
 30
0.0
 10
129.0268685870338
 20
126.5789987026329
 30
0.0
 10
129.1987287916135
 20
127.1292299239853
 30
0.0
 10
129.2443139832737
 20
127.3156337089658
 30
0.0
 10
129.3067887228485
 20
127.6957682110621
 30
0.0
 10
129.323459868597
 20
127.891438003348
 30
0.0
 10
129.3239809117734
 20
128.4699183820224
 30
0.0
 10
129.2595386108868
 20
128.8478302209912
 30
0.0
 10
129.0296895175134
 20
129.5897982460896
 30
0.0
 10
128.8711688398503
 20
129.9385137062505
 30
0.0
 10
128.5069345099502
 20
130.6116061039837
 30
0.0
 10
128.3001982698866
 20
130.9365585912253
 30
0.0
 10
127.8622603241462
 20
131.5674824016871
 30
0.0
 10
127.6309875968666
 20
131.8733721420278
 30
0.0
 10
127.3923907663613
 20
132.1733765878473
 30
0.0
  0
LINE
  5
154
330
1F
100
AcDbEntity
  8
0
  6
HIDDEN
 62
     7
370
    18
100
AcDbLine
 10
127.3923907664
 20
124.0014544816
 30
0.0
 11
127.3923907664
 21
132.1733765878
 31
0.0
  0
SPLINE
  5
155
330
1F
100
AcDbEntity
  8
0
  6
HIDDEN
 62
     7
370
    18
100
AcDbSpline
210
0.0
220
0.0
230
1.0
 70
     8
 71
     3
 72
     8
 73
     4
 74
     0
 42
0.000000001
 43
0.00000001
 40
0.0000249638557296
 40
0.0000249638557296
 40
0.0000249638557296
 40
0.0000249638557296
 40
0.0049776420541172
 40
0.0049776420541172
 40
0.0049776420541172
 40
0.0049776420541172
 10
122.4423907663612
 20
124.1222046379116
 30
0.0
 10
124.0923670008708
 20
124.0809254001434
 30
0.0
 10
125.7423683206158
 20
124.0407037189039
 30
0.0
 10
127.3923907663612
 20
124.0014544816489
 30
0.0
  0
SPLINE
  5
156
330
1F
100
AcDbEntity
  8
0
  6
HIDDEN
 62
     7
370
    18
100
AcDbSpline
210
0.0
220
0.0
230
1.0
 70
     8
 71
     3
 72
     8
 73
     4
 74
     0
 42
0.000000001
 43
0.00000001
 40
0.0000249631533153
 40
0.0000249631533153
 40
0.0000249631533153
 40
0.0000249631533153
 40
0.0049776413517029
 40
0.0049776413517029
 40
0.0049776413517029
 40
0.0049776413517029
 10
127.3923907663612
 20
132.1733765878474
 30
0.0
 10
125.7423683206158
 20
132.1341273505924
 30
0.0
 10
124.0923670008708
 20
132.0939056693529
 30
0.0
 10
122.4423907663612
 20
132.0526264315847
 30
0.0
  0
SPLINE
  5
157
330
1F
100
AcDbEntity
  8
0
  6
HIDDEN
 62
     7
370
    18
100
AcDbSpline
210
0.0
220
0.0
230
1.0
 70
     8
 71
     3
 72
     8
 73
     4
 74
     0
 42
0.000000001
 43
0.00000001
 40
0.0
 40
0.0
 40
0.0
 40
0.0
 40
1.0
 40
1.0
 40
1.0
 40
1.0
 10
120.942390766359
 20
125.1854282017678
 30
0.0
 10
121.4091513777368
 20
124.7700649561448
 30
0.0
 10
121.9148989245168
 20
124.4254745268402
 30
0.0
 10
122.4423907663612
 20
124.1222046379116
 30
0.0
  0
SPLINE
  5
158
330
1F
100
AcDbEntity
  8
0
  6
HIDDEN
 62
     7
370
    18
100
AcDbSpline
210
0.0
220
0.0
230
1.0
 70
     8
 71
     3
 72
     8
 73
     4
 74
     0
 42
0.000000001
 43
0.00000001
 40
0.0
 40
0.0
 40
0.0
 40
0.0
 40
1.0
 40
1.0
 40
1.0
 40
1.0
 10
122.4423907663612
 20
132.0526264315847
 30
0.0
 10
121.9148989245177
 20
131.7493565426566
 30
0.0
 10
121.4091513777384
 20
131.4047661133526
 30
0.0
 10
120.9423907663612
 20
130.9894028677305
 30
0.0
  0
LINE
  5
159
330
1F
100
AcDbEntity
  8
0
  6
HIDDEN
 62
     7
370
    18
100
AcDbLine
 10
120.9423907664
 20
125.1854282018
 30
0.0
 11
120.9423907664
 21
130.9894028677
 31
0.0
  0
SPLINE
  5
15A
330
1F
100
AcDbEntity
  8
0
  6
HIDDEN
 62
     7
370
    18
100
AcDbSpline
210
0.0
220
0.0
230
1.0
 70
    11
 71
     3
 72
    72
 73
    68
 74
     0
 42
0.000000001
 43
0.00000001
 40
0.0
 40
0.0
 40
0.0
 40
0.0
 40
0.0312499999999998
 40
0.0312499999999998
 40
0.0624999999999996
 40
0.0624999999999996
 40
0.0937499999999994
 40
0.0937499999999994
 40
0.1249999999999993
 40
0.1249999999999993
 40
0.1562499999999993
 40
0.1562499999999993
 40
0.1874999999999993
 40
0.1874999999999993
 40
0.2187499999999993
 40
0.2187499999999993
 40
0.2499999999999992
 40
0.2499999999999992
 40
0.2812499999999992
 40
0.2812499999999992
 40
0.3124999999999992
 40
0.3124999999999992
 40
0.3437499999999992
 40
0.3437499999999992
 40
0.3749999999999992
 40
0.3749999999999992
 40
0.3906249999999993
 40
0.3906249999999993
 40
0.4062499999999993
 40
0.4062499999999993
 40
0.4374999999999993
 40
0.4374999999999993
 40
0.4687499999999994
 40
0.4687499999999994
 40
0.4999999999999994
 40
0.4999999999999994
 40
0.5312499999999994
 40
0.5312499999999994
 40
0.5624999999999996
 40
0.5624999999999996
 40
0.5937499999999996
 40
0.5937499999999996
 40
0.6249999999999996
 40
0.6249999999999996
 40
0.6562499999999997
 40
0.6562499999999997
 40
0.6874999999999997
 40
0.6874999999999997
 40
0.7187499999999997
 40
0.7187499999999997
 40
0.7499999999999997
 40
0.7499999999999997
 40
0.7812499999999998
 40
0.7812499999999998
 40
0.8124999999999998
 40
0.8124999999999998
 40
0.8437499999999998
 40
0.8437499999999998
 40
0.8749999999999999
 40
0.8749999999999999
 40
0.9062499999999999
 40
0.9062499999999999
 40
0.9374999999999999
 40
0.9374999999999999
 40
0.96875
 40
0.96875
 40
1.0
 40
1.0
 40
1.0
 40
1.0
 10
140.2535521951234
 20
130.7334270848056
 30
0.0
 10
140.4407673050603
 20
130.9386049850481
 30
0.0
 10
140.6456199063259
 20
131.1222540677066
 30
0.0
 10
141.0884881031729
 20
131.449208971202
 30
0.0
 10
141.3284435204912
 20
131.5929871793818
 30
0.0
 10
141.8240545032657
 20
131.8305045348277
 30
0.0
 10
142.0813207944202
 20
131.9258240997254
 30
0.0
 10
142.6146745622573
 20
132.0699096323599
 30
0.0
 10
142.8889547021556
 20
132.1176456393295
 30
0.0
 10
143.4353832367351
 20
132.1632277798633
 30
0.0
 10
143.7099595552029
 20
132.161794019791
 30
0.0
 10
144.2619267294736
 20
132.1088807117002
 30
0.0
 10
144.5325436920453
 20
132.057910985496
 30
0.0
 10
145.0588288631245
 20
131.9093043585524
 30
0.0
 10
145.3164604265321
 20
131.8110189877953
 30
0.0
 10
145.8123865912056
 20
131.5667656286096
 30
0.0
 10
146.0453702689973
 20
131.4236854975874
 30
0.0
 10
146.4817035443222
 20
131.0958269471186
 30
0.0
 10
146.6869847981805
 20
130.9088333094184
 30
0.0
 10
147.0550190960408
 20
130.4994026895954
 30
0.0
 10
147.2165340860259
 20
130.2792972486109
 30
0.0
 10
147.493691769173
 20
129.8075471671729
 30
0.0
 10
147.6100859486068
 20
129.5525306407316
 30
0.0
 10
147.7833599852534
 20
129.0312928173346
 30
0.0
 10
147.8418065397192
 20
128.7638086995537
 30
0.0
 10
147.885671265195
 20
128.3518930402213
 30
0.0
 10
147.8928514818244
 20
128.2121857371457
 30
0.0
 10
147.8918834545289
 20
127.9360626816833
 30
0.0
 10
147.8838806651153
 20
127.7988861153525
 30
0.0
 10
147.8378079332029
 20
127.3899526740893
 30
0.0
 10
147.7768731007509
 20
127.118026425085
 30
0.0
 10
147.5987529443423
 20
126.5948459086299
 30
0.0
 10
147.483185033
 20
126.3461339082666
 30
0.0
 10
147.2013382490607
 20
125.8732493832746
 30
0.0
 10
147.034468303646
 20
125.6496401660425
 30
0.0
 10
146.6651427488472
 20
125.2449827778549
 30
0.0
 10
146.4603575925497
 20
125.0605691896853
 30
0.0
 10
146.0157046450335
 20
124.7315431547909
 30
0.0
 10
145.7808555155227
 20
124.5903750788027
 30
0.0
 10
145.2874457530457
 20
124.3519655500222
 30
0.0
 10
145.0261587993411
 20
124.2541829936173
 30
0.0
 10
144.4954205188284
 20
124.1088549654272
 30
0.0
 10
144.2257808179311
 20
124.0605655752322
 30
0.0
 10
143.6780294781859
 20
124.0121503514456
 30
0.0
 10
143.3981254363273
 20
124.0126085370816
 30
0.0
 10
142.8510475284923
 20
124.0627603926837
 30
0.0
 10
142.5814424238049
 20
124.1119339597158
 30
0.0
 10
142.0502876671488
 20
124.2596084830228
 30
0.0
 10
141.7889928507053
 20
124.3587636473884
 30
0.0
 10
141.2966788725299
 20
124.5997764178651
 30
0.0
 10
141.0627219969512
 20
124.7422645424898
 30
0.0
 10
140.6205533764208
 20
125.0737519714747
 30
0.0
 10
140.4153598453091
 20
125.2611855994631
 30
0.0
 10
140.0496656289511
 20
125.6680893185136
 30
0.0
 10
139.8868950065628
 20
125.8892683931825
 30
0.0
 10
139.6059425757972
 20
126.3690157223978
 30
0.0
 10
139.4927387235237
 20
126.6190276892081
 30
0.0
 10
139.3201299993848
 20
127.1391028992285
 30
0.0
 10
139.2605237167084
 20
127.4128343638583
 30
0.0
 10
139.2026319466385
 20
127.9614520137568
 30
0.0
 10
139.2034214854985
 20
128.2357918776484
 30
0.0
 10
139.2646119611149
 20
128.7845338287873
 30
0.0
 10
139.325740684849
 20
129.0575991426445
 30
0.0
 10
139.5018203704788
 20
129.5777643914129
 30
0.0
 10
139.6181509654687
 20
129.8300835249718
 30
0.0
 10
139.9013521952094
 20
130.3064878663788
 30
0.0
 10
140.0663370851864
 20
130.528249184563
 30
0.0
 10
140.2535521951233
 20
130.7334270848056
 30
0.0
  0
CIRCLE
  5
15B
330
1F
100
AcDbEntity
  8
0
  6
HIDDEN
 62
     7
370
    18
100
AcDbCircle
 10
143.4423907664
 20
128.0874155347
 30
0.0
 40
4.049999999999983
  0
CIRCLE
  5
15C
330
1F
100
AcDbEntity
  8
0
  6
HIDDEN
 62
     7
370
    18
100
AcDbCircle
 10
170.9423907664
 20
128.0874155347
 30
0.0
 40
2.0
  0
LINE
  5
15D
330
1F
100
AcDbEntity
  8
0
  6
HIDDEN
 62
     7
370
    18
100
AcDbLine
 10
158.9423907664
 20
103.8374155347
 30
0.0
 11
159.0352839852
 21
103.9303087536
 31
0.0
  0
LINE
  5
15E
330
1F
100
AcDbEntity
  8
0
  6
HIDDEN
 62
     7
370
    18
100
AcDbLine
 10
159.0352839852
 20
152.2445223159
 30
0.0
 11
158.9423907664
 21
152.3374155347
 31
0.0
  0
ARC
  5
15F
330
1F
100
AcDbEntity
  8
0
  6
HIDDEN
 62
     7
370
    18
100
AcDbCircle
 10
158.328177204
 20
104.6374155347
 30
0.0
 40
1.000000000000028
100
AcDbArc
 50
315.0
 51
0.0
  0
ARC
  5
160
330
1F
100
AcDbEntity
  8
0
  6
HIDDEN
 62
     7
370
    18
100
AcDbCircle
 10
158.328177204
 20
104.6374155347
 30
0.0
 40
1.000000000000028
100
AcDbArc
 50
0.0
 51
52.1052014664
  0
ARC
  5
161
330
1F
100
AcDbEntity
  8
0
  6
HIDDEN
 62
     7
370
    18
100
AcDbCircle
 10
158.328177204
 20
151.5374155347
 30
0.0
 40
1.00000000000003
100
AcDbArc
 50
351.8087250651
 51
45.0
  0
ARC
  5
162
330
1F
100
AcDbEntity
  8
0
  6
HIDDEN
 62
     7
370
    18
100
AcDbCircle
 10
158.328177204
 20
151.5374155347
 30
0.0
 40
1.00000000000003
100
AcDbArc
 50
307.8947985336
 51
351.8087250651
  0
LINE
  5
163
330
1F
100
AcDbEntity
  8
0
  6
HIDDEN
 62
     7
370
    18
100
AcDbLine
 10
159.328177204
 20
104.6374155347
 30
0.0
 11
159.328177204
 21
151.5374155347
 31
0.0
  0
LINE
  5
164
330
1F
100
AcDbEntity
  8
0
  6
HIDDEN
 62
     7
370
    18
100
AcDbLine
 10
159.328177204
 20
104.6374155347
 30
0.0
 11
159.328177204
 21
151.5374155347
 31
0.0
  0
ARC
  5
165
330
1F
100
AcDbEntity
  8
0
  6
HIDDEN
 62
     7
370
    18
100
AcDbCircle
 10
242.7423907664
 20
106.8874155347
 30
0.0
 40
1.199999999999989
100
AcDbArc
 50
0.0
 51
90.0
  0
ARC
  5
166
330
1F
100
AcDbEntity
  8
0
  6
HIDDEN
 62
     7
370
    18
100
AcDbCircle
 10
242.7423907664
 20
149.2874155347
 30
0.0
 40
1.19999999999996
100
AcDbArc
 50
270.0
 51
0.0
  0
ARC
  5
167
330
1F
100
AcDbEntity
  8
0
  6
HIDDEN
 62
     7
370
    18
100
AcDbCircle
 10
171.3423907664
 20
107.4874155347
 30
0.0
 40
0.4000000000000057
100
AcDbArc
 50
180.0
 51
270.0
  0
ARC
  5
168
330
1F
100
AcDbEntity
  8
0
  6
HIDDEN
 62
     7
370
    18
100
AcDbCircle
 10
171.3423907664
 20
148.6874155347
 30
0.0
 40
0.4000000000000341
100
AcDbArc
 50
90.0
 51
180.0
  0
LINE
  5
169
330
1F
100
AcDbEntity
  8
0
  6
HIDDEN
 62
     7
370
    18
100
AcDbLine
 10
171.3423907664
 20
107.0874155347
 30
0.0
 11
174.1243825546
 21
107.0874155347
 31
0.0
  0
LINE
  5
16A
330
1F
100
AcDbEntity
  8
0
  6
HIDDEN
 62
     7
370
    18
100
AcDbLine
 10
174.1243825546
 20
149.0874155347
 30
0.0
 11
171.3423907664
 21
149.0874155347
 31
0.0
  0
ARC
  5
16B
330
1F
100
AcDbEntity
  8
0
  6
HIDDEN
 62
     7
370
    18
100
AcDbCircle
 10
174.1243825546
 20
107.4874155347
 30
0.0
 40
0.3999999999999915
100
AcDbArc
 50
270.0
 51
290.0
  0
ARC
  5
16C
330
1F
100
AcDbEntity
  8
0
  6
HIDDEN
 62
     7
370
    18
100
AcDbCircle
 10
174.1243825546
 20
148.6874155347
 30
0.0
 40
0.4000000000000057
100
AcDbArc
 50
70.0
 51
90.0
  0
LINE
  5
16D
330
1F
100
AcDbEntity
  8
0
  6
HIDDEN
 62
     7
370
    18
100
AcDbLine
 10
174.261190612
 20
107.1115384864
 30
0.0
 11
176.9423907664
 21
108.0874155347
 31
0.0
  0
LINE
  5
16E
330
1F
100
AcDbEntity
  8
0
  6
HIDDEN
 62
     7
370
    18
100
AcDbLine
 10
176.9423907664
 20
148.0874155347
 30
0.0
 11
174.261190612
 21
149.0632925831
 31
0.0
  0
LINE
  5
16F
330
1F
100
AcDbEntity
  8
0
  6
HIDDEN
 62
     7
370
    18
100
AcDbLine
 10
176.9423907664
 20
108.0874155347
 30
0.0
 11
242.7423907664
 21
108.0874155347
 31
0.0
  0
LINE
  5
170
330
1F
100
AcDbEntity
  8
0
  6
HIDDEN
 62
     7
370
    18
100
AcDbLine
 10
242.7423907664
 20
148.0874155347
 30
0.0
 11
176.9423907664
 21
148.0874155347
 31
0.0
  0
LINE
  5
171
330
1F
100
AcDbEntity
  8
0
  6
HIDDEN
 62
     7
370
    18
100
AcDbLine
 10
120.9423907664
 20
111.8909866903
 30
0.0
 11
122.472619206
 21
112.7744644918
 31
0.0
  0
LINE
  5
172
330
1F
100
AcDbEntity
  8
0
  6
HIDDEN
 62
     7
370
    18
100
AcDbLine
 10
122.472619206
 20
143.4003665777
 30
0.0
 11
120.9423907664
 21
144.2838443792
 31
0.0
  0
LINE
  5
173
330
1F
100
AcDbEntity
  8
0
  6
HIDDEN
 62
     7
370
    18
100
AcDbLine
 10
130.9423907664
 20
112.0874155347
 30
0.0
 11
131.9441920813
 21
112.0874155347
 31
0.0
  0
LINE
  5
174
330
1F
100
AcDbEntity
  8
0
  6
HIDDEN
 62
     7
370
    18
100
AcDbLine
 10
131.9441920813
 20
144.0874155347
 30
0.0
 11
130.9423907664
 21
144.0874155347
 31
0.0
  0
ARC
  5
175
330
1F
100
AcDbEntity
  8
0
  6
HIDDEN
 62
     7
370
    18
100
AcDbCircle
 10
131.9441920813
 20
114.0874155347
 30
0.0
 40
2.000000000000014
100
AcDbArc
 50
270.0
 51
315.0
  0
ARC
  5
176
330
1F
100
AcDbEntity
  8
0
  6
HIDDEN
 62
     7
370
    18
100
AcDbCircle
 10
131.9441920813
 20
142.0874155347
 30
0.0
 40
2.000000000000028
100
AcDbArc
 50
45.0
 51
90.0
  0
ARC
  5
177
330
1F
100
AcDbEntity
  8
0
  6
HIDDEN
 62
     7
370
    18
100
AcDbCircle
 10
130.9423907664
 20
114.0874155347
 30
0.0
 40
2.000000000000014
100
AcDbArc
 50
189.9742217944
 51
270.0
  0
ARC
  5
178
330
1F
100
AcDbEntity
  8
0
  6
HIDDEN
 62
     7
370
    18
100
AcDbCircle
 10
130.9423907664
 20
142.0874155347
 30
0.0
 40
2.000000000000004
100
AcDbArc
 50
90.0
 51
170.0257782056
  0
LINE
  5
179
330
1F
100
AcDbEntity
  8
0
  6
HIDDEN
 62
     7
370
    18
100
AcDbLine
 10
133.3584056436
 20
112.6732019724
 30
0.0
 11
134.772619206
 21
114.0874155347
 31
0.0
  0
LINE
  5
17A
330
1F
100
AcDbEntity
  8
0
  6
HIDDEN
 62
     7
370
    18
100
AcDbLine
 10
134.772619206
 20
142.0874155347
 30
0.0
 11
133.3584056436
 21
143.5016290971
 31
0.0
  0
LINE
  5
17B
330
1F
100
AcDbEntity
  8
0
  6
HIDDEN
 62
     7
370
    18
100
AcDbLine
 10
122.472619206
 20
112.7744644918
 30
0.0
 11
127.372619206
 21
114.0874155347
 31
0.0
  0
LINE
  5
17C
330
1F
100
AcDbEntity
  8
0
  6
HIDDEN
 62
     7
370
    18
100
AcDbLine
 10
127.372619206
 20
142.0874155347
 30
0.0
 11
122.472619206
 21
143.4003665777
 31
0.0
  0
LINE
  5
17D
330
1F
100
AcDbEntity
  8
0
  6
HIDDEN
 62
     7
370
    18
100
AcDbLine
 10
128.972619206
 20
142.4338256963
 30
0.0
 11
128.372619206
 21
142.0874155347
 31
0.0
  0
LINE
  5
17E
330
1F
100
AcDbEntity
  8
0
  6
HIDDEN
 62
     7
370
    18
100
AcDbLine
 10
128.372619206
 20
114.0874155347
 30
0.0
 11
128.972619206
 21
113.7410053732
 31
0.0
  0
ARC
  5
17F
330
1F
100
AcDbEntity
  8
0
  6
HIDDEN
 62
     7
370
    18
100
AcDbCircle
 10
147.4423907664
 20
114.5874155347
 30
0.0
 40
0.5
100
AcDbArc
 50
270.0
 51
0.0
  0
ARC
  5
180
330
1F
100
AcDbEntity
  8
0
  6
HIDDEN
 62
     7
370
    18
100
AcDbCircle
 10
147.4423907664
 20
141.5874155347
 30
0.0
 40
0.5
100
AcDbArc
 50
0.0
 51
90.0
  0
LINE
  5
181
330
1F
100
AcDbEntity
  8
0
  6
HIDDEN
 62
     7
370
    18
100
AcDbLine
 10
134.772619206
 20
114.0874155347
 30
0.0
 11
147.4423907664
 21
114.0874155347
 31
0.0
  0
LINE
  5
182
330
1F
100
AcDbEntity
  8
0
  6
HIDDEN
 62
     7
370
    18
100
AcDbLine
 10
147.4423907664
 20
142.0874155347
 30
0.0
 11
134.772619206
 21
142.0874155347
 31
0.0
  0
LINE
  5
183
330
1F
100
AcDbEntity
  8
0
  6
HIDDEN
 62
     7
370
    18
100
AcDbLine
 10
127.372619206
 20
114.0874155347
 30
0.0
 11
128.372619206
 21
114.0874155347
 31
0.0
  0
LINE
  5
184
330
1F
100
AcDbEntity
  8
0
  6
HIDDEN
 62
     7
370
    18
100
AcDbLine
 10
128.372619206
 20
142.0874155347
 30
0.0
 11
127.372619206
 21
142.0874155347
 31
0.0
  0
LINE
  5
185
330
1F
100
AcDbEntity
  8
0
  6
HIDDEN
 62
     7
370
    18
100
AcDbLine
 10
147.9423907664
 20
117.8374155347
 30
0.0
 11
149.1923907664
 21
119.0874155347
 31
0.0
  0
LINE
  5
186
330
1F
100
AcDbEntity
  8
0
  6
HIDDEN
 62
     7
370
    18
100
AcDbLine
 10
149.1923907664
 20
137.0874155347
 30
0.0
 11
147.9423907664
 21
138.3374155347
 31
0.0
  0
LINE
  5
187
330
1F
100
AcDbEntity
  8
0
  6
HIDDEN
 62
     7
370
    18
100
AcDbLine
 10
149.1923907664
 20
119.0874155347
 30
0.0
 11
170.9423907664
 21
119.0874155347
 31
0.0
  0
LINE
  5
188
330
1F
100
AcDbEntity
  8
0
  6
HIDDEN
 62
     7
370
    18
100
AcDbLine
 10
170.9423907664
 20
137.0874155347
 30
0.0
 11
149.1923907664
 21
137.0874155347
 31
0.0
  0
LINE
  5
189
330
1F
100
AcDbEntity
  8
0
  6
HIDDEN
 62
     7
370
    18
100
AcDbLine
 10
159.4423907664
 20
159.5874155347
 30
0.0
 11
159.4423907664
 21
96.5874155347
 31
0.0
  0
DIMENSION
  5
18A
330
1F
100
AcDbEntity
  8
VERMASSUNG
100
AcDbDimension
  2
_D
 10
110.9423907664
 20
96.5874155347
 30
0.0
 11
110.9423907664
 21
128.0874155347
 31
0.0
 70
   160
  1
PSC %%c<>
 71
     2
 42
-1.0
  3
SLDDIMSTYLE0
100
AcDbAlignedDimension
 13
159.4423907664
 23
159.5874155347
 33
0.0
 14
159.4423907664
 24
96.5874155347
 34
0.0
 50
90.0
100
AcDbRotatedDimension
  0
DIMENSION
  5
197
330
1F
100
AcDbEntity
  8
VERMASSUNG
100
AcDbDimension
  2
_D_1
 10
243.9423907664
 20
169.5874155347
 30
0.0
 11
201.4423907664
 21
169.5874155347
 31
0.0
 70
   160
  1
<>
 71
     2
 42
-1.0
  3
SLDDIMSTYLE0
100
AcDbAlignedDimension
 13
158.9423907664
 23
159.0874155347
 33
0.0
 14
243.9423907664
 24
158.5874155347
 34
0.0
100
AcDbRotatedDimension
  0
DIMENSION
  5
1A1
330
1F
100
AcDbEntity
  8
VERMASSUNG
100
AcDbDimension
  2
_D_2
 10
243.9423907664
 20
179.0974806429
 30
0.0
 11
182.4423907664
 21
179.0974806429
 31
0.0
 70
   160
  1
(<>)
 71
     2
 42
-1.0
  3
SLDDIMSTYLE0
100
AcDbAlignedDimension
 13
120.9423907664
 23
148.3797535272
 33
0.0
 14
243.9423907664
 24
158.5874155347
 34
0.0
100
AcDbRotatedDimension
  0
DIMENSION
  5
1AD
330
1F
100
AcDbEntity
  8
VERMASSUNG
100
AcDbDimension
  2
_D_3
 10
257.2043351283
 20
108.0874155347
 30
0.0
 11
257.2043351283
 21
128.0874155347
 31
0.0
 70
   160
  1
%%c<>
 71
     2
 42
-1.0
  3
SLDDIMSTYLE0
100
AcDbAlignedDimension
 13
242.7423907664
 23
148.0874155347
 33
0.0
 14
242.7423907664
 24
108.0874155347
 34
0.0
 50
90.0
100
AcDbRotatedDimension
  0
DIMENSION
  5
1B8
330
1F
100
AcDbEntity
  8
VERMASSUNG
100
AcDbDimension
  2
_D_4
 10
170.9423907664
 20
86.5874155347
 30
0.0
 11
207.4423907664
 21
86.5874155347
 31
0.0
 70
   160
  1
<>
 71
     2
 42
-1.0
  3
SLDDIMSTYLE0
100
AcDbAlignedDimension
 13
243.9423907664
 23
97.5874155347
 33
0.0
 14
170.9423907664
 24
107.4874155347
 34
0.0
100
AcDbRotatedDimension
  0
INSERT
  5
1CD
330
1F
100
AcDbEntity
  8
VERMASSUNG
100
AcDbBlockReference
  2
SW_CENTERMARKSYMBOL_0
 10
221.9423907664
 20
128.0874155347
 30
0.0
  0
INSERT
  5
1D9
330
1F
100
AcDbEntity
  8
VERMASSUNG
100
AcDbBlockReference
  2
SW_CENTERMARKSYMBOL_1
 10
193.9423907664
 20
128.0874155347
 30
0.0
  0
LINE
  5
1DA
330
1F
100
AcDbEntity
  8
VERMASSUNG
  6
CENTERX2
370
    18
100
AcDbLine
 10
117.8797777662
 20
128.0874155347
 30
0.0
 11
245.9534782366
 21
128.0874155347
 31
0.0
  0
LINE
  5
1DB
330
1F
100
AcDbEntity
  8
0
  6
Continuous
 62
     7
370
    25
100
AcDbLine
 10
40.2953890188
 20
123.6289824471
 30
0.0
 11
42.2921162929
 21
127.0874155347
 31
0.0
  0
LINE
  5
1DC
330
1F
100
AcDbEntity
  8
0
  6
Continuous
 62
     7
370
    25
100
AcDbLine
 10
42.2921162929
 20
129.0874155347
 30
0.0
 11
40.2953890188
 21
132.5458486224
 31
0.0
  0
LINE
  5
1DD
330
1F
100
AcDbEntity
  8
0
  6
Continuous
 62
     7
370
    25
100
AcDbLine
 10
29.2921162929
 20
120.0874155347
 30
0.0
 11
29.3249208198
 21
120.0874155347
 31
0.0
  0
LINE
  5
1DE
330
1F
100
AcDbEntity
  8
0
  6
Continuous
 62
     7
370
    25
100
AcDbLine
 10
29.3249208198
 20
136.0874155347
 30
0.0
 11
29.2921162929
 21
136.0874155347
 31
0.0
  0
LINE
  5
1DF
330
1F
100
AcDbEntity
  8
0
  6
Continuous
 62
     7
370
    25
100
AcDbLine
 10
29.2921162929
 20
136.0874155347
 30
0.0
 11
28.2921162929
 21
135.0874155347
 31
0.0
  0
LINE
  5
1E0
330
1F
100
AcDbEntity
  8
0
  6
Continuous
 62
     7
370
    25
100
AcDbLine
 10
28.2921162929
 20
121.0874155347
 30
0.0
 11
29.2921162929
 21
120.0874155347
 31
0.0
  0
LINE
  5
1E1
330
1F
100
AcDbEntity
  8
0
  6
Continuous
 62
     7
370
    25
100
AcDbLine
 10
42.2921162929
 20
127.3832111253
 30
0.0
 11
42.2921162929
 21
129.0874155347
 31
0.0
  0
LINE
  5
1E2
330
1F
100
AcDbEntity
  8
0
  6
Continuous
 62
     7
370
    25
100
AcDbLine
 10
42.2921162929
 20
127.0874155347
 30
0.0
 11
42.2921162929
 21
127.3832111253
 31
0.0
  0
LINE
  5
1E3
330
1F
100
AcDbEntity
  8
0
  6
Continuous
 62
     7
370
    25
100
AcDbLine
 10
29.2921162929
 20
135.9614234088
 30
0.0
 11
29.2921162929
 21
136.0874155347
 31
0.0
  0
LINE
  5
1E4
330
1F
100
AcDbEntity
  8
0
  6
Continuous
 62
     7
370
    25
100
AcDbLine
 10
29.2921162929
 20
120.0874155347
 30
0.0
 11
29.2921162929
 21
120.2134076607
 31
0.0
  0
LINE
  5
1E5
330
1F
100
AcDbEntity
  8
0
  6
Continuous
 62
     7
370
    25
100
AcDbLine
 10
28.2921162929
 20
123.1579846688
 30
0.0
 11
28.2921162929
 21
135.0874155347
 31
0.0
  0
LINE
  5
1E6
330
1F
100
AcDbEntity
  8
0
  6
Continuous
 62
     7
370
    25
100
AcDbLine
 10
28.2921162929
 20
121.0874155347
 30
0.0
 11
28.2921162929
 21
123.1579846688
 31
0.0
  0
CIRCLE
  5
1E7
330
1F
100
AcDbEntity
  8
0
  6
Continuous
 62
     7
370
    25
100
AcDbCircle
 10
59.7921162929
 20
128.0874155347
 30
0.0
 40
21.2
  0
CIRCLE
  5
1E8
330
1F
100
AcDbEntity
  8
0
  6
Continuous
 62
     7
370
    25
100
AcDbCircle
 10
59.7921162929
 20
128.0874155347
 30
0.0
 40
30.5
  0
CIRCLE
  5
1E9
330
1F
100
AcDbEntity
  8
0
  6
Continuous
 62
     7
370
    25
100
AcDbCircle
 10
59.7921162929
 20
128.0874155347
 30
0.0
 40
31.5
  0
CIRCLE
  5
1EA
330
1F
100
AcDbEntity
  8
0
  6
Continuous
 62
     7
370
    25
100
AcDbCircle
 10
59.7921162929
 20
128.0874155347
 30
0.0
 40
20.0
  0
CIRCLE
  5
1EB
330
1F
100
AcDbEntity
  8
0
  6
Continuous
 62
     7
370
    25
100
AcDbCircle
 10
59.7921162929
 20
128.0874155347
 30
0.0
 40
9.000000000000014
  0
INSERT
  5
1F7
330
1F
100
AcDbEntity
  8
VERMASSUNG
100
AcDbBlockReference
  2
SW_CENTERMARKSYMBOL_2
 10
59.7921162929
 20
128.0874155347
 30
0.0
  0
LINE
  5
1F8
330
1F
100
AcDbEntity
  8
0
  6
Continuous
 62
     7
370
    25
100
AcDbLine
 10
201.9994881745
 20
54.8801331286
 30
0.0
 11
201.6458773356
 21
55.0843346762
 31
0.0
  0
LINE
  5
1F9
330
1F
100
AcDbEntity
  8
0
  6
Continuous
 62
     7
370
    25
100
AcDbLine
 10
196.6953255902
 20
55.0843346762
 30
0.0
 11
196.3417147512
 21
54.8801331286
 31
0.0
  0
LINE
  5
1FA
330
1F
100
AcDbEntity
  8
0
  6
Continuous
 62
     7
370
    25
100
AcDbLine
 10
195.1706014629
 20
53.247582262
 30
0.0
 11
195.1706014629
 21
53.043447059
 31
0.0
  0
LINE
  5
1FB
330
1F
100
AcDbEntity
  8
0
  6
Continuous
 62
     7
370
    25
100
AcDbLine
 10
203.1706014629
 20
53.043447059
 30
0.0
 11
203.1706014629
 21
53.247582262
 31
0.0
  0
LINE
  5
1FC
330
1F
100
AcDbEntity
  8
0
  6
Continuous
 62
     7
370
    25
100
AcDbLine
 10
192.0999932379
 20
60.5949899114
 30
0.0
 11
191.746382399
 21
60.799191459
 31
0.0
  0
LINE
  5
1FD
330
1F
100
AcDbEntity
  8
0
  6
Continuous
 62
     7
370
    25
100
AcDbLine
 10
186.7958306536
 20
60.799191459
 30
0.0
 11
186.4422198146
 21
60.5949899114
 31
0.0
  0
LINE
  5
1FE
330
1F
100
AcDbEntity
  8
0
  6
Continuous
 62
     7
370
    25
100
AcDbLine
 10
185.2711065263
 20
58.9624390447
 30
0.0
 11
185.2711065263
 21
58.7583038417
 31
0.0
  0
LINE
  5
1FF
330
1F
100
AcDbEntity
  8
0
  6
Continuous
 62
     7
370
    25
100
AcDbLine
 10
193.2711065263
 20
58.7583038417
 30
0.0
 11
193.2711065263
 21
58.9624390447
 31
0.0
  0
LINE
  5
200
330
1F
100
AcDbEntity
  8
0
  6
Continuous
 62
     7
370
    25
100
AcDbLine
 10
206.59703273
 20
23.6497196044
 30
0.0
 11
206.9505286582
 21
23.8538548046
 31
0.0
  0
LINE
  5
201
330
1F
100
AcDbEntity
  8
0
  6
Continuous
 62
     7
370
    25
100
AcDbLine
 10
217.732154469
 20
42.5302021183
 30
0.0
 11
217.732154469
 21
42.9384061742
 31
0.0
  0
LINE
  5
202
330
1F
100
AcDbEntity
  8
0
  6
Continuous
 62
     7
370
    25
100
AcDbLine
 10
174.6224440677
 20
36.780643637
 30
0.0
 11
198.7208626458
 21
22.8689227111
 31
0.0
  0
LINE
  5
203
330
1F
100
AcDbEntity
  8
0
  6
Continuous
 62
     7
370
    25
100
AcDbLine
 10
169.1991545313
 20
39.9114420454
 30
0.0
 11
171.9075929786
 21
38.3478938109
 31
0.0
  0
LINE
  5
204
330
1F
100
AcDbEntity
  8
0
  6
Continuous
 62
     7
370
    25
100
AcDbLine
 10
187.6563130176
 20
65.6284329759
 30
0.0
 11
184.9478745703
 21
67.1919812104
 31
0.0
  0
LINE
  5
205
330
1F
100
AcDbEntity
  8
0
  6
Continuous
 62
     7
370
    25
100
AcDbLine
 10
214.4695826849
 20
50.1494618761
 30
0.0
 11
190.3711641067
 21
64.061182802
 31
0.0
  0
SPLINE
  5
206
330
1F
100
AcDbEntity
  8
0
  6
Continuous
 62
     7
370
    25
100
AcDbSpline
210
0.0
220
0.0
230
1.0
 70
     8
 71
     3
 72
    16
 73
    12
 74
     0
 42
0.000000001
 43
0.00000001
 40
0.0
 40
0.0
 40
0.0
 40
0.0
 40
0.0534237806533663
 40
0.1878236478321618
 40
0.3216506968253189
 40
0.452916920715169
 40
0.5815611049193233
 40
0.7083684346727064
 40
0.8341489136955562
 40
0.9594762315700232
 40
1.0
 40
1.0
 40
1.0
 40
1.0
 10
201.6255099455432
 20
27.84784595732479
 30
0.0
 10
201.5590608947765
 20
27.87960378318543
 30
0.0
 10
201.3254438995478
 20
27.99125575965385
 30
0.0
 10
200.9793686289888
 20
28.27613702322713
 30
0.0
 10
200.5898484603955
 20
28.70075228189564
 30
0.0
 10
200.2640468110759
 20
29.21450579328105
 30
0.0
 10
200.0021104478522
 20
29.80216353558484
 30
0.0
 10
199.8066647083511
 20
30.45862345398436
 30
0.0
 10
199.6797200236377
 20
31.17805105290621
 30
0.0
 10
199.6330786835179
 20
31.77813446686291
 30
0.0
 10
199.6299456312401
 20
32.13568614588014
 30
0.0
 10
199.6291801066493
 20
32.2230497065604
 30
0.0
  0
SPLINE
  5
207
330
1F
100
AcDbEntity
  8
0
  6
Continuous
 62
     7
370
    25
100
AcDbSpline
210
0.0
220
0.0
230
1.0
 70
     8
 71
     3
 72
    31
 73
    27
 74
     0
 42
0.000000001
 43
0.00000001
 40
0.0
 40
0.0
 40
0.0
 40
0.0
 40
0.022152796820805
 40
0.0645081020211656
 40
0.1069250836789933
 40
0.1493996802298349
 40
0.1919326108572578
 40
0.2345166007545511
 40
0.2771403207074565
 40
0.319790518893688
 40
0.3624530864131248
 40
0.405112698937226
 40
0.4477506493218282
 40
0.4903522037713592
 40
0.5329028756794079
 40
0.5753891306824216
 40
0.6177998900458956
 40
0.6601294211528699
 40
0.7023825222401673
 40
0.7445832661136543
 40
0.7867758815104399
 40
0.8290406085354062
 40
0.8715340115879342
 40
0.914492363808527
 40
0.9582035086056119
 40
1.0
 40
1.0
 40
1.0
 40
1.0
 10
199.6291801066493
 20
32.2230497065604
 30
0.0
 10
199.631123123078
 20
32.36631547471006
 30
0.0
 10
199.6367811130386
 20
32.78349994413379
 30
0.0
 10
199.7002106241465
 20
33.50800786855558
 30
0.0
 10
199.8431877645866
 20
34.40013855530877
 30
0.0
 10
200.0574350820542
 20
35.31682149464926
 30
0.0
 10
200.3399903994392
 20
36.24721250940437
 30
0.0
 10
200.6885754606741
 20
37.18145095944971
 30
0.0
 10
201.0996592243263
 20
38.10930927691499
 30
0.0
 10
201.5690320885977
 20
39.02071021075276
 30
0.0
 10
202.091718651927
 20
39.90574980263568
 30
0.0
 10
202.6620585697019
 20
40.75482135788343
 30
0.0
 10
203.2737691221469
 20
41.55875289336417
 30
0.0
 10
203.9200178064253
 20
42.30892662929327
 30
0.0
 10
204.5935086085958
 20
42.99740387930497
 30
0.0
 10
205.2865370757356
 20
43.61701267078799
 30
0.0
 10
205.991076875795
 20
44.16146930343695
 30
0.0
 10
206.6988901355644
 20
44.62550567044268
 30
0.0
 10
207.4016837531219
 20
45.00500510544345
 30
0.0
 10
208.0912495310851
 20
45.29706816583064
 30
0.0
 10
208.7597483529826
 20
45.50016006326358
 30
0.0
 10
209.400050241088
 20
45.61386576563305
 30
0.0
 10
210.0069175687209
 20
45.63957568757426
 30
0.0
 10
210.5753706455609
 20
45.57593084307848
 30
0.0
 10
211.0970577061151
 20
45.43494331905266
 30
0.0
 10
211.4031386166503
 20
45.2705658287539
 30
0.0
 10
211.5527522501571
 20
45.19021742170265
 30
0.0
  0
SPLINE
  5
208
330
1F
100
AcDbEntity
  8
0
  6
Continuous
 62
     7
370
    25
100
AcDbSpline
210
0.0
220
0.0
230
1.0
 70
     8
 71
     3
 72
    33
 73
    29
 74
     0
 42
0.000000001
 43
0.00000001
 40
0.0
 40
0.0
 40
0.0
 40
0.0
 40
0.0000971627383333
 40
0.0410918481301779
 40
0.0822075646095731
 40
0.123413174720818
 40
0.1646763336512865
 40
0.205970154450703
 40
0.2472751913798457
 40
0.2885763518931117
 40
0.3298680837536482
 40
0.3711480922996448
 40
0.4124161557712565
 40
0.4536733068410773
 40
0.4949213032246564
 40
0.5361623031236504
 40
0.5773986766114612
 40
0.6186329029172262
 40
0.659867518913232
 40
0.7011044050201886
 40
0.7423459881621142
 40
0.7835948617196383
 40
0.8248535813826798
 40
0.8661245822044933
 40
0.90741002122738
 40
0.9487114991536089
 40
0.987856816970123
 40
1.0
 40
1.0
 40
1.0
 40
1.0
 10
181.5358406556757
 20
67.938020003608
 30
0.0
 10
181.5351872739214
 20
67.9380178250733
 30
0.0
 10
181.2588605227633
 20
67.9370964840474
 30
0.0
 10
180.6798899626909
 20
67.84716108520239
 30
0.0
 10
179.8029468051996
 20
67.66121693557004
 30
0.0
 10
178.9039111191659
 20
67.36842740499613
 30
0.0
 10
177.9936478835579
 20
66.98598570290301
 30
0.0
 10
177.0772082223117
 20
66.51250614904171
 30
0.0
 10
176.1611967413019
 20
65.95246052707643
 30
0.0
 10
175.2516904845854
 20
65.30950777529891
 30
0.0
 10
174.3547545906795
 20
64.588199094477
 30
0.0
 10
173.4762687852223
 20
63.79344211185707
 30
0.0
 10
172.6219825357411
 20
62.93061907849082
 30
0.0
 10
171.7974808287563
 20
62.00552337381874
 30
0.0
 10
171.0081586280452
 20
61.02433681858921
 30
0.0
 10
170.2591891987521
 20
59.99359192349898
 30
0.0
 10
169.5554923907136
 20
58.92013345803067
 30
0.0
 10
168.901703099098
 20
57.81107573179967
 30
0.0
 10
168.3021443611912
 20
56.67376334789309
 30
0.0
 10
167.7607958537834
 20
55.51571932088275
 30
0.0
 10
167.2812653989377
 20
54.34459221024215
 30
0.0
 10
166.8667723438554
 20
53.16810267247351
 30
0.0
 10
166.5201052276024
 20
51.99398120716517
 30
0.0
 10
166.2437093746505
 20
50.82998035623665
 30
0.0
 10
166.0392986919169
 20
49.68360108896564
 30
0.0
 10
165.9115400592115
 20
48.58254499016115
 30
0.0
 10
165.8668862114905
 20
47.76799908670452
 30
0.0
 10
165.864034597161
 20
47.32858536203166
 30
0.0
 10
165.8633594424155
 20
47.22454876130271
 30
0.0
  0
SPLINE
  5
209
330
1F
100
AcDbEntity
  8
0
  6
Continuous
 62
     7
370
    25
100
AcDbSpline
210
0.0
220
0.0
230
1.0
 70
     8
 71
     3
 72
    13
 73
     9
 74
     0
 42
0.000000001
 43
0.00000001
 40
0.0
 40
0.0
 40
0.0
 40
0.0
 40
0.1072300961780236
 40
0.3108870324976486
 40
0.5146162623150129
 40
0.7182787536088402
 40
0.9217590181334283
 40
0.9999999999999999
 40
0.9999999999999999
 40
0.9999999999999999
 40
0.9999999999999999
 10
165.8633594424155
 20
47.22454876130271
 30
0.0
 10
165.8654552883957
 20
47.03992381746565
 30
0.0
 10
165.8715316732967
 20
46.50464964575123
 30
0.0
 10
165.9395506794967
 20
45.65287946882208
 30
0.0
 10
166.0905491684224
 20
44.69029583661061
 30
0.0
 10
166.3217235489231
 20
43.791477043618
 30
0.0
 10
166.5501402338367
 20
43.11451537416622
 30
0.0
 10
166.7259818853896
 20
42.7645181756248
 30
0.0
 10
166.7748174760551
 20
42.66731526737695
 30
0.0
  0
LINE
  5
20A
330
1F
100
AcDbEntity
  8
0
  6
Continuous
 62
     7
370
    25
100
AcDbLine
 10
157.7122544128
 20
51.9118045174
 30
0.0
 11
165.8702416692
 21
46.8615068891
 31
0.0
  0
LINE
  5
20B
330
1F
100
AcDbEntity
  8
0
  6
Continuous
 62
     7
370
    25
100
AcDbLine
 10
176.2231563085
 20
65.9758591914
 30
0.0
 11
168.2085094088
 21
70.2795012508
 31
0.0
  0
LINE
  5
20C
330
1F
100
AcDbEntity
  8
0
  6
Continuous
 62
     7
370
    25
100
AcDbLine
 10
165.5191398445
 20
70.8697577832
 30
0.0
 11
164.879589392
 21
70.7825467177
 31
0.0
  0
LINE
  5
20D
330
1F
100
AcDbEntity
  8
0
  6
Continuous
 62
     7
370
    25
100
AcDbLine
 10
156.5490033463
 20
53.6478465709
 30
0.0
 11
156.7933076391
 21
53.0503970217
 31
0.0
  0
LWPOLYLINE
  5
20E
330
1F
100
AcDbEntity
  8
0
  6
Continuous
 62
     7
370
    25
100
AcDbPolyline
 90
       35
 70
   128
 43
0.0
 10
199.1849381073
 20
51.6353626264
 10
199.8278119156
 20
51.6712860877
 10
200.4483052102
 20
51.7747915837
 10
201.0252878361
 20
51.9423543587
 10
201.5391113421
 20
52.1682682636
 10
201.9722780848
 20
52.4448400712
 10
202.3100370904
 20
52.7626514604
 10
202.540886381
 20
53.1108797454
 10
202.6569646609
 20
53.4776664296
 10
202.6543190236
 20
53.8505210325
 10
202.533039563
 20
54.2167464377
 10
202.2972563057
 20
54.5638712783
 10
201.9549985678
 20
54.8800746341
 10
201.5179215259
 20
55.1545885792
 10
201.0009093146
 20
55.3780648704
 10
200.4215681647
 20
55.5428932906
 10
199.799626844
 20
55.6434608056
 10
199.1562648185
 20
55.6763427094
 10
198.5133910101
 20
55.6404192481
 10
197.8928977155
 20
55.5369137521
 10
197.3159150896
 20
55.3693509771
 10
196.8020915837
 20
55.1434370722
 10
196.368924841
 20
54.8668652646
 10
196.0311658354
 20
54.5490538754
 10
195.8003165448
 20
54.2008255904
 10
195.6842382648
 20
53.8340389062
 10
195.6868839021
 20
53.4611843033
 10
195.8081633627
 20
53.0949588981
 10
196.04394662
 20
52.7478340575
 10
196.386204358
 20
52.4316307017
 10
196.8232813998
 20
52.1571167566
 10
197.3402936111
 20
51.9336404654
 10
197.9196347611
 20
51.7688120452
 10
198.5415760818
 20
51.6682445302
 10
199.1849381073
 20
51.6353626264
  0
LWPOLYLINE
  5
20F
330
1F
100
AcDbEntity
  8
0
  6
Continuous
 62
     7
370
    25
100
AcDbPolyline
 90
       15
 70
   128
 43
0.0
 10
199.1869861994
 20
50.938450786
 10
199.8813241619
 20
50.9751741689
 10
200.5540671748
 20
51.0809435219
 10
201.1847742821
 20
51.2525450966
 10
201.7542817676
 20
51.4847648661
 10
202.2452854344
 20
51.77054695
 10
202.6428663845
 20
52.1012080046
 10
202.9349443221
 20
52.4667010608
 10
203.1126446068
 20
52.8559207972
 10
203.1705679053
 20
53.257040969
 10
203.1069542475
 20
53.6578737428
 10
202.9237365023
 20
54.0462400175
 10
202.6264816481
 20
54.4103394805
 10
202.2242216232
 20
54.7391091538
 10
201.9994881745
 20
54.8801331286
  0
LWPOLYLINE
  5
210
330
1F
100
AcDbEntity
  8
0
  6
Continuous
 62
     7
370
    25
100
AcDbPolyline
 90
       15
 70
   128
 43
0.0
 10
196.3417147512
 20
54.8801331286
 10
196.0959174914
 20
54.7246175739
 10
195.6983365412
 20
54.3939565194
 10
195.4062586036
 20
54.0284634631
 10
195.228558319
 20
53.6392437267
 10
195.1706350205
 20
53.2381235549
 10
195.2342486782
 20
52.8372907811
 10
195.4174664235
 20
52.4489245064
 10
195.7147212777
 20
52.0848250434
 10
196.1169813026
 20
51.7560553701
 10
196.6120240309
 20
51.4726049867
 10
197.1848078397
 20
51.2430863896
 10
197.8179289829
 20
51.0744733852
 10
198.492150395
 20
50.9718891945
 10
199.1869861994
 20
50.938450786
  0
LWPOLYLINE
  5
211
330
1F
100
AcDbEntity
  8
0
  6
Continuous
 62
     7
370
    25
100
AcDbPolyline
 90
       30
 70
   128
 43
0.0
 10
199.1808419232
 20
52.2126454954
 10
199.7180240988
 20
52.2476577161
 10
200.2296094003
 20
52.3485155677
 10
200.6916766677
 20
52.510503049
 10
201.0826201491
 20
52.7260458056
 10
201.3841597617
 20
52.9850652976
 10
201.5821958485
 20
53.2754500616
 10
201.6674684621
 20
53.5836220286
 10
201.6359903499
 20
53.8951714201
 10
201.4892333935
 20
54.1955305326
 10
201.2340597849
 20
54.4706549081
 10
200.8824011585
 20
54.7076800363
 10
200.450700681
 20
54.8955228859
 10
199.9591441867
 20
55.0254001338
 10
199.430716311
 20
55.0912388644
 10
198.8901257542
 20
55.0899605318
 10
198.3626499297
 20
55.0216249093
 10
197.872953021
 20
54.8894272948
 10
197.4439327112
 20
54.6995491017
 10
197.0956495132
 20
54.4608688234
 10
196.8443887621
 20
54.1845468843
 10
196.7018991316
 20
53.8835037913
 10
196.6748432783
 20
53.5718159848
 10
196.7644863039
 20
53.2640576402
 10
196.9666366001
 20
52.9746191956
 10
197.2718418438
 20
52.7170344711
 10
197.665830977
 20
52.503347842
 10
198.1301815056
 20
52.3435510577
 10
198.6431809151
 20
52.2451160381
 10
199.1808419232
 20
52.2126454954
  0
SPLINE
  5
212
330
1F
100
AcDbEntity
  8
0
  6
Continuous
 62
     7
370
    25
100
AcDbSpline
210
0.0
220
0.0
230
1.0
 70
     8
 71
     3
 72
    11
 73
     7
 74
     0
 42
0.000000001
 43
0.00000001
 40
0.0
 40
0.0
 40
0.0
 40
0.0
 40
0.2164567244934178
 40
0.440314160093916
 40
0.7519028444798649
 40
1.0
 40
1.0
 40
1.0
 40
1.0
 10
197.1658883756712
 20
54.16208035447128
 30
0.0
 10
197.3025660304525
 20
54.14891702541869
 30
0.0
 10
197.5805943842005
 20
54.12214030970614
 30
0.0
 10
198.096539265771
 20
54.19544718534195
 30
0.0
 10
198.6499793426971
 20
54.44212322903363
 30
0.0
 10
199.0041466774526
 20
54.71322482011915
 30
0.0
 10
199.1611417308664
 20
54.8333985476099
 30
0.0
  0
SPLINE
  5
213
330
1F
100
AcDbEntity
  8
0
  6
Continuous
 62
     7
370
    25
100
AcDbSpline
210
0.0
220
0.0
230
1.0
 70
     8
 71
     3
 72
    11
 73
     7
 74
     0
 42
0.000000001
 43
0.00000001
 40
0.0
 40
0.0
 40
0.0
 40
0.0
 40
0.1856336509827548
 40
0.5233285802669897
 40
0.8791086124659514
 40
1.0
 40
1.0
 40
1.0
 40
1.0
 10
197.1753481076915
 20
52.82890267523263
 30
0.0
 10
197.1747954504262
 20
52.85565200545401
 30
0.0
 10
197.1732374282653
 20
52.93106230382252
 30
0.0
 10
197.170320154833
 20
53.23673407816577
 30
0.0
 10
197.1676579890651
 20
53.74500563510842
 30
0.0
 10
197.1662463815846
 20
54.07770304564956
 30
0.0
 10
197.1658883756712
 20
54.16208035447128
 30
0.0
  0
SPLINE
  5
214
330
1F
100
AcDbEntity
  8
0
  6
Continuous
 62
     7
370
    25
100
AcDbSpline
210
0.0
220
0.0
230
1.0
 70
     8
 71
     3
 72
     9
 73
     5
 74
     0
 42
0.000000001
 43
0.00000001
 40
0.0
 40
0.0
 40
0.0
 40
0.0
 40
0.0840283672261822
 40
1.0
 40
1.0
 40
1.0
 40
1.0
 10
197.7039434510145
 20
52.46875739278347
 30
0.0
 10
197.6881494646942
 20
52.47545639709413
 30
0.0
 10
197.5001892931278
 20
52.55517952550664
 30
0.0
 10
197.3306454544406
 20
52.6980434098376
 30
0.0
 10
197.1753481076915
 20
52.82890267523263
 30
0.0
  0
LINE
  5
215
330
1F
100
AcDbEntity
  8
0
  6
Continuous
 62
     7
370
    25
100
AcDbLine
 10
201.1753145501
 20
52.8383613823
 30
0.0
 11
200.8651542759
 21
52.6127608197
 31
0.0
  0
SPLINE
  5
216
330
1F
100
AcDbEntity
  8
0
  6
Continuous
 62
     7
370
    25
100
AcDbSpline
210
0.0
220
0.0
230
1.0
 70
     8
 71
     3
 72
    11
 73
     7
 74
     0
 42
0.000000001
 43
0.00000001
 40
0.0
 40
0.0
 40
0.0
 40
0.0
 40
0.1208913875340508
 40
0.4766714197330116
 40
0.8143663490172406
 40
1.0
 40
1.0
 40
1.0
 40
1.0
 10
201.1658548180818
 20
54.17153906150985
 30
0.0
 10
201.1662128239951
 20
54.08716175268813
 30
0.0
 10
201.1676244314756
 20
53.75446434214698
 30
0.0
 10
201.1702865972435
 20
53.24619278520433
 30
0.0
 10
201.1732038706759
 20
52.94052101086109
 30
0.0
 10
201.1747618928367
 20
52.86511071249257
 30
0.0
 10
201.175314550102
 20
52.83836138227119
 30
0.0
  0
SPLINE
  5
217
330
1F
100
AcDbEntity
  8
0
  6
Continuous
 62
     7
370
    25
100
AcDbSpline
210
0.0
220
0.0
230
1.0
 70
     8
 71
     3
 72
    11
 73
     7
 74
     0
 42
0.000000001
 43
0.00000001
 40
0.0
 40
0.0
 40
0.0
 40
0.0
 40
0.216456724493416
 40
0.4403141600939146
 40
0.7519028444798642
 40
0.9999999999999999
 40
0.9999999999999999
 40
0.9999999999999999
 40
0.9999999999999999
 10
199.1611417308664
 20
54.8333985476099
 30
0.0
 10
199.2984673905659
 20
54.72891067667366
 30
0.0
 10
199.5778139096054
 20
54.51636246760803
 30
0.0
 10
200.0962049468504
 20
54.24492806112233
 30
0.0
 10
200.6522689486045
 20
54.12180948427981
 30
0.0
 10
201.008115432561
 20
54.15626544628663
 30
0.0
 10
201.1658548180818
 20
54.17153906150985
 30
0.0
  0
LINE
  5
218
330
1F
100
AcDbEntity
  8
0
  6
Continuous
 62
     7
370
    25
100
AcDbLine
 10
201.1658548181
 20
52.8314806788
 30
0.0
 11
201.1658548181
 21
54.1715390615
 31
0.0
  0
LINE
  5
219
330
1F
100
AcDbEntity
  8
0
  6
Continuous
 62
     7
370
    25
100
AcDbLine
 10
199.1611417309
 20
52.2126437196
 30
0.0
 11
199.1611417309
 21
54.8333985476
 31
0.0
  0
LWPOLYLINE
  5
21A
330
1F
100
AcDbEntity
  8
0
  6
Continuous
 62
     7
370
    25
100
AcDbPolyline
 90
       35
 70
   128
 43
0.0
 10
191.8768463419
 20
58.0217670443
 10
192.261844325
 20
58.3211426916
 10
192.5449963193
 20
58.6562600759
 10
192.7166599233
 20
59.0157071769
 10
192.7709893389
 20
59.3872434545
 10
192.706134443
 20
59.7582166865
 10
192.5243037912
 20
60.1159938242
 10
192.2316894083
 20
60.4483911966
 10
191.8382559263
 20
60.7440894096
 10
191.3574012503
 20
60.9930188152
 10
190.8055003098
 20
61.1867024213
 10
190.2013474292
 20
61.3185445647
 10
189.5655163105
 20
61.3840555195
 10
188.9196594196
 20
61.3810043887
 10
188.2857706384
 20
61.3094950748
 10
187.6854362891
 20
61.1719627419
 10
187.1391000379
 20
60.9730908884
 10
186.6653667107
 20
60.719651857
 10
186.2803687276
 20
60.4202762098
 10
185.9972167332
 20
60.0851588254
 10
185.8255531292
 20
59.7257117244
 10
185.7712237136
 20
59.3541754468
 10
185.8360786096
 20
58.9832022149
 10
186.0179092613
 20
58.6254250771
 10
186.3105236442
 20
58.2930277048
 10
186.7039571263
 20
57.9973294918
 10
187.1848118022
 20
57.7484000861
 10
187.7367127428
 20
57.5547164801
 10
188.3408656233
 20
57.4228743366
 10
188.9766967421
 20
57.3573633818
 10
189.622553633
 20
57.3604145126
 10
190.2564424141
 20
57.4319238265
 10
190.8567767634
 20
57.5694561594
 10
191.4031130146
 20
57.7683280129
 10
191.8768463419
 20
58.0217670443
  0
LWPOLYLINE
  5
21B
330
1F
100
AcDbEntity
  8
0
  6
Continuous
 62
     7
370
    25
100
AcDbPolyline
 90
       10
 70
   128
 43
0.0
 10
192.249094887
 20
57.4207905803
 10
192.6675805008
 20
57.7427400063
 10
192.9828659716
 20
58.1017493703
 10
193.1853715099
 20
58.4869103545
 10
193.2689440874
 20
58.8865200374
 10
193.2310443936
 20
59.2884364809
 10
193.0728239916
 20
59.6804476572
 10
192.7990903281
 20
60.0506425052
 10
192.418160662
 20
60.3877728417
 10
192.0999932379
 20
60.5949899114
  0
LWPOLYLINE
  5
21C
330
1F
100
AcDbEntity
  8
0
  6
Continuous
 62
     7
370
    25
100
AcDbPolyline
 90
       20
 70
   128
 43
0.0
 10
186.4422198146
 20
60.5949899114
 10
186.2931181656
 20
60.5040875091
 10
185.8746325518
 20
60.1821380832
 10
185.5593470809
 20
59.8231287191
 10
185.3568415426
 20
59.4379677349
 10
185.2732689651
 20
59.038358052
 10
185.3111686589
 20
58.6364416085
 10
185.469389061
 20
58.2444304322
 10
185.7431227245
 20
57.8742355842
 10
186.1240523905
 20
57.5371052477
 10
186.600603704
 20
57.2432829574
 10
187.1582968944
 20
57.0016963548
 10
187.7801867364
 20
56.8196859267
 10
188.4473774217
 20
56.7027819678
 10
189.139596699
 20
56.6545365458
 10
189.8358118359
 20
56.6764155733
 10
190.5148686877
 20
56.7677542672
 10
191.1561344556
 20
56.9257773475
 10
191.7401246037
 20
57.1456833629
 10
192.249094887
 20
57.4207905803
  0
LWPOLYLINE
  5
21D
330
1F
100
AcDbEntity
  8
0
  6
Continuous
 62
     7
370
    25
100
AcDbPolyline
 90
       30
 70
   128
 43
0.0
 10
191.1323492517
 20
58.4071791604
 10
191.4476339106
 20
58.6606858012
 10
191.6611465681
 20
58.9473923587
 10
191.7629036096
 20
59.253892753
 10
191.7481469889
 20
59.5658553662
 10
191.6175667092
 20
59.8686931733
 10
191.3772685592
 20
60.1482458149
 10
191.0384886134
 20
60.3914417204
 10
190.6170678455
 20
60.5869093194
 10
190.1327114223
 20
60.7255087642
 10
189.6080673117
 20
60.8007592989
 10
189.0676672893
 20
60.809142292
 10
188.5367798595
 20
60.7502657643
 10
188.0402287285
 20
60.6268827165
 10
187.6012320754
 20
60.444762403
 10
187.2403168956
 20
60.2124205671
 10
186.9743591818
 20
59.940721255
 10
186.8157948213
 20
59.6423688243
 10
186.7720381072
 20
59.3313139034
 10
186.8451350548
 20
59.0221010744
 10
187.0316677322
 20
58.7291887856
 10
187.3229140786
 20
58.4662732901
 10
187.7052557387
 20
58.2456482243
 10
188.1608148412
 20
58.077629771
 10
188.6682899489
 20
57.9700742864
 10
189.2039520898
 20
57.9280109454
 10
189.7427542976
 20
57.953406583
 10
190.2595027797
 20
58.0450737275
 10
190.7300349515
 20
58.1987261251
 10
191.1323492517
 20
58.4071791604
  0
SPLINE
  5
21E
330
1F
100
AcDbEntity
  8
0
  6
Continuous
 62
     7
370
    25
100
AcDbSpline
210
0.0
220
0.0
230
1.0
 70
     8
 71
     3
 72
    11
 73
     7
 74
     0
 42
0.000000001
 43
0.00000001
 40
0.0
 40
0.0
 40
0.0
 40
0.0
 40
0.2164567244934176
 40
0.4403141600939162
 40
0.7519028444798642
 40
0.9999999999999999
 40
0.9999999999999999
 40
0.9999999999999999
 40
0.9999999999999999
 10
190.9904489079576
 20
58.32500649522741
 30
0.0
 10
191.0230268204315
 20
58.35522479173347
 30
0.0
 10
191.0892964925894
 20
58.41669455607861
 30
0.0
 10
191.2122749503341
 20
58.65376285780138
 30
0.0
 10
191.3441906055631
 20
59.07610134042491
 30
0.0
 10
191.4286084458549
 20
59.45961600097713
 30
0.0
 10
191.4660291282417
 20
59.62962011685621
 30
0.0
  0
SPLINE
  5
21F
330
1F
100
AcDbEntity
  8
0
  6
Continuous
 62
     7
370
    25
100
AcDbSpline
210
0.0
220
0.0
230
1.0
 70
     8
 71
     3
 72
    13
 73
     9
 74
     0
 42
0.000000001
 43
0.00000001
 40
0.0
 40
0.0
 40
0.0
 40
0.0
 40
0.1205425664572836
 40
0.295997697301605
 40
0.4767451563404632
 40
0.6427946289537892
 40
0.8149019779924775
 40
1.0
 40
1.0
 40
1.0
 40
1.0
 10
189.7466867465591
 20
60.519691272759
 30
0.0
 10
189.8118320559951
 20
60.45200399081007
 30
0.0
 10
189.9717992953675
 20
60.28579482352321
 30
0.0
 10
190.2438715494889
 20
60.04668033196094
 30
0.0
 10
190.555452307956
 20
59.83693218636293
 30
0.0
 10
190.8669297041274
 20
59.70160425496615
 30
0.0
 10
191.1713402451412
 20
59.63225018589162
 30
0.0
 10
191.3654464469084
 20
59.63051780730482
 30
0.0
 10
191.4660291282417
 20
59.62962011685621
 30
0.0
  0
SPLINE
  5
220
330
1F
100
AcDbEntity
  8
0
  6
Continuous
 62
     7
370
    25
100
AcDbSpline
210
0.0
220
0.0
230
1.0
 70
     8
 71
     3
 72
    11
 73
     7
 74
     0
 42
0.000000001
 43
0.00000001
 40
0.0
 40
0.0
 40
0.0
 40
0.0
 40
0.2164567244934115
 40
0.4403141600939144
 40
0.7519028444798639
 40
1.0
 40
1.0
 40
1.0
 40
1.0
 10
187.5517641445924
 20
60.10514880703299
 30
0.0
 10
187.7021194229744
 20
60.0743959803178
 30
0.0
 10
188.0079706653944
 20
60.01183887982901
 30
0.0
 10
188.5755472485785
 20
60.01874710893448
 30
0.0
 10
189.1843712510623
 20
60.19419912588191
 30
0.0
 10
189.5739808642521
 20
60.4197217558942
 30
0.0
 10
189.7466867465591
 20
60.519691272759
 30
0.0
  0
SPLINE
  5
221
330
1F
100
AcDbEntity
  8
0
  6
Continuous
 62
     7
370
    25
100
AcDbSpline
210
0.0
220
0.0
230
1.0
 70
     8
 71
     3
 72
    11
 73
     7
 74
     0
 42
0.000000001
 43
0.00000001
 40
0.0
 40
0.0
 40
0.0
 40
0.0
 40
0.2164567244934117
 40
0.4403141600939149
 40
0.7519028444798657
 40
1.0
 40
1.0
 40
1.0
 40
1.0
 10
187.5517641445924
 20
60.10514880703299
 30
0.0
 10
187.5191862321185
 20
59.95663137583252
 30
0.0
 10
187.4529165599606
 20
59.65451866424367
 30
0.0
 10
187.3299381022159
 20
59.21687694104261
 30
0.0
 10
187.1980224469869
 20
58.91547228474791
 30
0.0
 10
187.1136046066951
 20
58.83583621002637
 30
0.0
 10
187.0761839243083
 20
58.80053518540421
 30
0.0
  0
SPLINE
  5
222
330
1F
100
AcDbEntity
  8
0
  6
Continuous
 62
     7
370
    25
100
AcDbSpline
210
0.0
220
0.0
230
1.0
 70
     8
 71
     3
 72
     9
 73
     5
 74
     0
 42
0.000000001
 43
0.00000001
 40
0.0
 40
0.0
 40
0.0
 40
0.0
 40
0.4247486938852642
 40
1.0
 40
1.0
 40
1.0
 40
1.0
 10
187.0761839243083
 20
58.80053518540421
 30
0.0
 10
187.141198990465
 20
58.73238566909775
 30
0.0
 10
187.2942661266156
 20
58.57193899253926
 30
0.0
 10
187.4577308493409
 20
58.43549529314576
 30
0.0
 10
187.5517641445924
 20
58.35700587685852
 30
0.0
  0
LINE
  5
223
330
1F
100
AcDbEntity
  8
0
  6
Continuous
 62
     7
370
    25
100
AcDbLine
 10
187.5517641446
 20
58.3570058769
 30
0.0
 11
187.5517641446
 21
60.105148807
 31
0.0
  0
LINE
  5
224
330
1F
100
AcDbEntity
  8
0
  6
Continuous
 62
     7
370
    25
100
AcDbLine
 10
189.7466867466
 20
57.9538445856
 30
0.0
 11
189.7466867466
 21
60.5196912728
 31
0.0
  0
LWPOLYLINE
  5
225
330
1F
100
AcDbEntity
  8
0
  6
Continuous
 62
     7
370
    25
100
AcDbPolyline
 90
       72
 70
   128
 43
0.0
 10
196.1653976428
 20
30.079978413
 10
196.2075949212
 20
31.2048693093
 10
196.3338565054
 20
32.3696763498
 10
196.5431942273
 20
33.5652833399
 10
196.8339697354
 20
34.782333034
 10
197.2039073171
 20
36.0113003681
 10
197.6501117093
 20
37.2425670065
 10
198.1690907576
 20
38.4664966183
 10
198.7567827473
 20
39.6735102948
 10
199.4085881918
 20
40.8541615175
 10
200.1194058297
 20
41.9992100899
 10
200.8836725491
 20
43.0996944542
 10
201.6954069269
 20
44.1470018283
 10
202.5482560409
 20
45.132935612
 10
203.4355451905
 20
46.0497795366
 10
204.350330135
 20
46.8903580553
 10
205.285451442
 20
47.6480925015
 10
206.2335905192
 20
48.3170525758
 10
207.187326893
 20
48.8920027586
 10
208.139196283
 20
49.3684432852
 10
209.0817490208
 20
49.7426453625
 10
210.007608353
 20
50.0116803518
 10
210.9095281753
 20
50.1734426896
 10
211.780449742
 20
50.2266663663
 10
212.6135569111
 20
50.1709348344
 10
213.4023294894
 20
50.0066842688
 10
214.1405942621
 20
49.7352001528
 10
214.8225733062
 20
49.3586072177
 10
215.4429292112
 20
48.8798528139
 10
215.996806851
 20
48.3026838436
 10
216.479871382
 20
47.6316174366
 10
216.8883421693
 20
46.8719055975
 10
217.2190223753
 20
46.0294941013
 10
217.4693239788
 20
45.1109759603
 10
217.6372880306
 20
44.1235398243
 10
217.7215999842
 20
43.0749137199
 10
217.7215999842
 20
41.973304568
 10
217.6372880306
 20
40.827333954
 10
217.4693239788
 20
39.6459706516
 10
217.2190223753
 20
38.4384604305
 10
216.8883421693
 20
37.2142536953
 10
216.479871382
 20
35.9829315236
 10
215.996806851
 20
34.7541306809
 10
215.4429292112
 20
33.5374681997
 10
214.8225733062
 20
32.3424661137
 10
214.1405942621
 20
31.1784769345
 10
213.4023294894
 20
30.0546104554
 10
212.6135569111
 20
28.9796624556
 10
211.780449742
 20
27.9620458606
 10
210.9095281753
 20
27.0097249
 10
210.007608353
 20
26.1301527765
 10
209.0817490208
 20
25.3302133345
 10
208.139196283
 20
24.6161671848
 10
207.187326893
 20
23.9936027066
 10
206.2335905192
 20
23.4673923111
 10
205.285451442
 20
23.0416543081
 10
204.350330135
 20
22.7197206747
 10
203.4355451905
 20
22.5041109781
 10
202.5482560409
 20
22.3965126565
 10
201.6954069269
 20
22.3977678126
 10
200.8836725491
 20
22.5078666231
 10
200.1194058297
 20
22.7259474156
 10
199.4085881918
 20
23.0503034122
 10
198.7567827473
 20
23.4783960875
 10
198.1690907576
 20
24.0068750357
 10
197.6501117093
 20
24.6316041927
 10
197.2039073171
 20
25.3476942056
 10
196.8339697354
 20
26.1495406994
 10
196.5431942273
 20
27.0308681379
 10
196.3338565054
 20
27.984778939
 10
196.2075949212
 20
29.0038074573
 10
196.1653976428
 20
30.079978413
  0
LWPOLYLINE
  5
226
330
1F
100
AcDbEntity
  8
0
  6
Continuous
 62
     7
370
    25
100
AcDbPolyline
 90
       38
 70
   128
 43
0.0
 10
195.4582908617
 20
30.079978413
 10
195.499517835
 20
31.2093300614
 10
195.6228935248
 20
32.3779200354
 10
195.8275045007
 20
33.5770965038
 10
196.1118358946
 20
34.7979811836
 10
196.4737826163
 20
36.0315350718
 10
196.910664939
 20
37.2686253669
 10
197.4192483387
 20
38.5000930853
 10
197.995767442
 20
39.7168208707
 10
198.6359539031
 20
40.9098004964
 10
199.3350680054
 20
42.0701995587
 10
200.0879337526
 20
43.1894268687
 10
200.8889771903
 20
44.2591960592
 10
201.7322676731
 20
45.2715869332
 10
202.6115617732
 20
46.2191041031
 10
203.5203495048
 20
47.0947324831
 10
204.4519025214
 20
47.8919892271
 10
205.3993239306
 20
48.6049717251
 10
206.3555993555
 20
49.2284013041
 10
207.3136488676
 20
49.7576623097
 10
208.2663794035
 20
50.1888362785
 10
209.2067372795
 20
50.5187309493
 10
210.1277604151
 20
50.7449038975
 10
211.0226298771
 20
50.8656806175
 10
211.884720365
 20
50.8801669209
 10
212.7076492627
 20
50.7882555561
 10
213.4853238924
 20
50.5906270028
 10
214.2119866232
 20
50.2887444335
 10
214.8822574985
 20
49.8848428812
 10
215.4911740674
 20
49.3819126916
 10
216.0342281244
 20
48.7836773841
 10
216.5073990875
 20
48.0945660833
 10
216.9071837643
 20
47.3196807284
 10
217.230622289
 20
46.4647582994
 10
217.4753200358
 20
45.5361283428
 10
217.6394653483
 20
44.54066611
 10
217.7218429521
 20
43.485741655
 10
217.732154469
 20
42.9384061742
  0
LWPOLYLINE
  5
227
330
1F
100
AcDbEntity
  8
0
  6
Continuous
 62
     7
370
    25
100
AcDbPolyline
 90
       20
 70
   128
 43
0.0
 10
206.59703273
 20
23.6497196044
 10
206.3555993555
 20
23.5133200985
 10
205.3993239306
 20
23.0326575732
 10
204.4519025214
 20
22.6517705959
 10
203.5203495048
 20
22.3734791205
 10
202.6115617732
 20
22.1998435198
 10
201.7322676731
 20
22.1321493311
 10
200.8889771903
 20
22.1708977383
 10
200.0879337526
 20
22.315801862
 10
199.3350680054
 20
22.5657888825
 10
198.6359539031
 20
22.9190079835
 10
197.995767442
 20
23.3728440544
 10
197.4192483387
 20
23.9239370516
 10
196.910664939
 20
24.5682068755
 10
196.4737826163
 20
25.3008835776
 10
196.1118358946
 20
26.116542676
 10
195.8275045007
 20
27.0091453161
 10
195.6228935248
 20
27.9720829803
 10
195.499517835
 20
28.9982264149
 10
195.4582908617
 20
30.079978413
  0
SPLINE
  5
228
330
1F
100
AcDbEntity
  8
0
  6
Continuous
 62
     7
370
    25
100
AcDbSpline
210
0.0
220
0.0
230
1.0
 70
    11
 71
     3
 72
    94
 73
    90
 74
     0
 42
0.000000001
 43
0.00000001
 40
0.0
 40
0.0
 40
0.0
 40
0.0
 40
0.0312499999999998
 40
0.0312499999999998
 40
0.0624999999999995
 40
0.0624999999999995
 40
0.0937499999999993
 40
0.0937499999999993
 40
0.1093749999999992
 40
0.1093749999999992
 40
0.1249999999999991
 40
0.1249999999999991
 40
0.140624999999999
 40
0.140624999999999
 40
0.1562499999999989
 40
0.1562499999999989
 40
0.1874999999999986
 40
0.1874999999999986
 40
0.2031249999999985
 40
0.2031249999999985
 40
0.2187499999999983
 40
0.2187499999999983
 40
0.2499999999999982
 40
0.2499999999999982
 40
0.281249999999998
 40
0.281249999999998
 40
0.3124999999999978
 40
0.3124999999999978
 40
0.3281249999999977
 40
0.3281249999999977
 40
0.3437499999999977
 40
0.3437499999999977
 40
0.3749999999999975
 40
0.3749999999999975
 40
0.3906249999999974
 40
0.3906249999999974
 40
0.4062499999999974
 40
0.4062499999999974
 40
0.4374999999999976
 40
0.4374999999999976
 40
0.4531249999999977
 40
0.4531249999999977
 40
0.4687499999999978
 40
0.4687499999999978
 40
0.499999999999998
 40
0.499999999999998
 40
0.5156249999999981
 40
0.5156249999999981
 40
0.5312499999999982
 40
0.5312499999999982
 40
0.5624999999999984
 40
0.5624999999999984
 40
0.5781249999999984
 40
0.5781249999999984
 40
0.5937499999999984
 40
0.5937499999999984
 40
0.6249999999999984
 40
0.6249999999999984
 40
0.6406249999999984
 40
0.6406249999999984
 40
0.6562499999999984
 40
0.6562499999999984
 40
0.6718749999999984
 40
0.6718749999999984
 40
0.6874999999999984
 40
0.6874999999999984
 40
0.7187499999999986
 40
0.7187499999999986
 40
0.7499999999999987
 40
0.7499999999999987
 40
0.7812499999999988
 40
0.7812499999999988
 40
0.8124999999999989
 40
0.8124999999999989
 40
0.828124999999999
 40
0.828124999999999
 40
0.8437499999999991
 40
0.8437499999999991
 40
0.8749999999999991
 40
0.8749999999999991
 40
0.8906249999999992
 40
0.8906249999999992
 40
0.9062499999999993
 40
0.9062499999999993
 40
0.9374999999999996
 40
0.9374999999999996
 40
0.9687499999999998
 40
0.9687499999999998
 40
1.0
 40
1.0
 40
1.0
 40
1.0
 10
189.2137969057989
 20
61.68315548757903
 30
0.0
 10
188.9219946777762
 20
61.73219568153699
 30
0.0
 10
188.6312010765073
 20
61.76553066758443
 30
0.0
 10
188.0512094208354
 20
61.79580032973008
 30
0.0
 10
187.7594065382621
 20
61.79218554875685
 30
0.0
 10
187.2037211903036
 20
61.74197895103185
 30
0.0
 10
186.9370338410529
 20
61.69591720237364
 30
0.0
 10
186.5551995906098
 20
61.59052590395231
 30
0.0
 10
186.430581950885
 20
61.5490250671886
 30
0.0
 10
186.1952652119925
 20
61.45571895652176
 30
0.0
 10
186.0836015523454
 20
61.40370722777239
 30
0.0
 10
185.8721506525204
 20
61.28899752228929
 30
0.0
 10
185.7723630162128
 20
61.22629987743598
 30
0.0
 10
185.5849362953861
 20
61.09000294945591
 30
0.0
 10
185.4971830881002
 20
61.01611717490213
 30
0.0
 10
185.2594151724027
 20
60.78451421650002
 30
0.0
 10
185.1318220414078
 20
60.61515195211601
 30
0.0
 10
184.984668287137
 20
60.34111160556073
 30
0.0
 10
184.9435567698315
 20
60.24722282969125
 30
0.0
 10
184.8772022815966
 20
60.05724907561186
 30
0.0
 10
184.8517682392044
 20
59.96080831661925
 30
0.0
 10
184.7976782370817
 20
59.66783620742971
 30
0.0
 10
184.7915996312764
 20
59.46626621046602
 30
0.0
 10
184.8352994618301
 20
59.07135144401698
 30
0.0
 10
184.8844526202523
 20
58.87640309799361
 30
0.0
 10
185.0353059194926
 20
58.49422150894662
 30
0.0
 10
185.1358423062364
 20
58.31057772514164
 30
0.0
 10
185.3199015665345
 20
58.05083052805134
 30
0.0
 10
185.3869202861225
 20
57.96667511388887
 30
0.0
 10
185.5322890279667
 20
57.80345675975703
 30
0.0
 10
185.6109902075656
 20
57.72408497207296
 30
0.0
 10
185.8619392709227
 20
57.49639442331332
 30
0.0
 10
186.047435801514
 20
57.35949013942687
 30
0.0
 10
186.3519359101319
 20
57.17613996666852
 30
0.0
 10
186.4578399996091
 20
57.11870488298162
 30
0.0
 10
186.6786152718853
 20
57.01130851828246
 30
0.0
 10
186.7940779859652
 20
56.96113698999649
 30
0.0
 10
187.1491332206406
 20
56.82413853600897
 30
0.0
 10
187.3972353383644
 20
56.75048491711246
 30
0.0
 10
187.7864108561808
 20
56.66502974632945
 30
0.0
 10
187.9189915038091
 20
56.64073511556395
 30
0.0
 10
188.1900908901872
 20
56.60052240529677
 30
0.0
 10
188.3293319199899
 20
56.58456546653423
 30
0.0
 10
188.7491427683537
 20
56.55001721618033
 30
0.0
 10
189.032634297769
 20
56.54429517457402
 30
0.0
 10
189.4637992161288
 20
56.56002310306245
 30
0.0
 10
189.6085158497799
 20
56.56934471522821
 30
0.0
 10
189.900126738306
 20
56.59622591735548
 30
0.0
 10
190.0477877385635
 20
56.61393148262377
 30
0.0
 10
190.484081776798
 20
56.6782225940615
 30
0.0
 10
190.7685787715101
 20
56.73591352997242
 30
0.0
 10
191.185493134244
 20
56.84374751139241
 30
0.0
 10
191.3228131318246
 20
56.88327346391139
 30
0.0
 10
191.5939138534287
 20
56.96976841938795
 30
0.0
 10
191.7266172000912
 20
57.01645771452039
 30
0.0
 10
192.1074992052238
 20
57.16347758390285
 30
0.0
 10
192.3421413527711
 20
57.27172924993585
 30
0.0
 10
192.6636684012081
 20
57.44956132546319
 30
0.0
 10
192.7657161279999
 20
57.51155472773929
 30
0.0
 10
192.9533783538731
 20
57.6371101526816
 30
0.0
 10
193.0398556213149
 20
57.70111936473432
 30
0.0
 10
193.1985067618907
 20
57.83165977756948
 30
0.0
 10
193.2706799609805
 20
57.8981907993475
 30
0.0
 10
193.4006572283035
 20
58.03400911515303
 30
0.0
 10
193.4577457359233
 20
58.10262309670858
 30
0.0
 10
193.6045403934004
 20
58.30828693336134
 30
0.0
 10
193.6712144189372
 20
58.44666586369529
 30
0.0
 10
193.7446560795667
 20
58.72639704898861
 30
0.0
 10
193.7507219673888
 20
58.86429237220844
 30
0.0
 10
193.7076284590856
 20
59.14001038492814
 30
0.0
 10
193.6575472534292
 20
59.27861888271551
 30
0.0
 10
193.5078093631935
 20
59.54963730860941
 30
0.0
 10
193.4082370623009
 20
59.6831716921662
 30
0.0
 10
193.2226311101689
 20
59.88272725308492
 30
0.0
 10
193.1545140627745
 20
59.9492029033463
 30
0.0
 10
193.0086632643201
 20
60.07977288847731
 30
0.0
 10
192.9306710762472
 20
60.14417062040889
 30
0.0
 10
192.6818789797957
 20
60.3350692815937
 30
0.0
 10
192.4963857298139
 20
60.45932884727924
 30
0.0
 10
192.1879580964722
 20
60.64166027621649
 30
0.0
 10
192.0805819337093
 20
60.70142235633264
 30
0.0
 10
191.8596284549273
 20
60.81739951398797
 30
0.0
 10
191.7456555987778
 20
60.87385136112326
 30
0.0
 10
191.3933506112942
 20
61.03850087581269
 30
0.0
 10
191.1447301557316
 20
61.14207617576518
 30
0.0
 10
190.6183197228495
 20
61.3344742100081
 30
0.0
 10
190.3465690837438
 20
61.42099239555625
 30
0.0
 10
189.7909627665992
 20
61.57057984196808
 30
0.0
 10
189.5055991338215
 20
61.63411529362107
 30
0.0
 10
189.2137969057989
 20
61.68315548757903
 30
0.0
  0
ELLIPSE
  5
229
330
1F
100
AcDbEntity
  8
0
  6
Continuous
 62
     7
370
    25
100
AcDbEllipse
 10
176.0668935336
 20
54.1328215719
 30
0.0
 11
-0.746104128997189
 21
17.93477386060239
 31
0.0
210
0.0
220
0.0
230
1.0
 40
0.4444802122
 41
2.401404845694033
 42
2.866866793327969
  0
SPLINE
  5
22A
330
1F
100
AcDbEntity
  8
0
  6
Continuous
 62
     7
370
    25
100
AcDbSpline
210
0.0
220
0.0
230
1.0
 70
     8
 71
     3
 72
    12
 73
     8
 74
     0
 42
0.000000001
 43
0.00000001
 40
0.0
 40
0.0
 40
0.0
 40
0.0
 40
0.2499999999999982
 40
0.2499999999999982
 40
0.4999999999999963
 40
0.4999999999999963
 40
1.0
 40
1.0
 40
1.0
 40
1.0
 10
171.0290778308849
 20
40.93414060712805
 30
0.0
 10
171.051379992373
 20
40.92126584334803
 30
0.0
 10
171.0750873553123
 20
40.90045160428049
 30
0.0
 10
171.1181493491816
 20
40.85483455221381
 30
0.0
 10
171.1371526324361
 20
40.83087713246211
 30
0.0
 10
171.1894263029212
 20
40.75897726192568
 30
0.0
 10
171.2172449576633
 20
40.71211922281677
 30
0.0
 10
171.2414793438643
 20
40.66716730717212
 30
0.0
  0
LINE
  5
22B
330
1F
100
AcDbEntity
  8
0
  6
Continuous
 62
     7
370
    25
100
AcDbLine
 10
169.9880446902
 20
41.5351162471
 30
0.0
 11
171.0290778309
 21
40.9341406071
 31
0.0
  0
SPLINE
  5
22C
330
1F
100
AcDbEntity
  8
0
  6
Continuous
 62
     7
370
    25
100
AcDbSpline
210
0.0
220
0.0
230
1.0
 70
     8
 71
     3
 72
    12
 73
     8
 74
     0
 42
0.000000001
 43
0.00000001
 40
0.0
 40
0.0
 40
0.0
 40
0.0
 40
0.4999999999999971
 40
0.4999999999999971
 40
0.7499999999999986
 40
0.7499999999999986
 40
1.0
 40
1.0
 40
1.0
 40
1.0
 10
169.8942599853336
 20
41.4449004883357
 30
0.0
 10
169.8919336955818
 20
41.47696980800519
 30
0.0
 10
169.8941347006684
 20
41.50678979364788
 30
0.0
 10
169.9124000611095
 20
41.53780076539088
 30
0.0
 10
169.9211663040567
 20
41.54594262534209
 30
0.0
 10
169.9476303095933
 20
41.55130339662099
 30
0.0
 10
169.9658851961753
 20
41.54790865072574
 30
0.0
 10
169.9880446902021
 20
41.53511624711808
 30
0.0
  0
ELLIPSE
  5
22D
330
1F
100
AcDbEntity
  8
0
  6
Continuous
 62
     7
370
    25
100
AcDbEllipse
 10
186.2118635516
 20
48.276255041
 30
0.0
 11
15.90471575942232
 21
8.322204981098963
 31
0.0
210
0.0
220
0.0
230
1.0
 40
0.4445305117
 41
2.95090828102153
 42
3.578705763440483
  0
SPLINE
  5
22E
330
1F
100
AcDbEntity
  8
0
  6
Continuous
 62
     7
370
    25
100
AcDbSpline
210
0.0
220
0.0
230
1.0
 70
     8
 71
     3
 72
    12
 73
     8
 74
     0
 42
0.000000001
 43
0.00000001
 40
0.0
 40
0.0
 40
0.0
 40
0.0
 40
0.2500000000000014
 40
0.2500000000000014
 40
0.5000000000000028
 40
0.5000000000000028
 40
1.0
 40
1.0
 40
1.0
 40
1.0
 10
183.9380446902019
 20
65.69722494179092
 30
0.0
 10
183.9157425287139
 20
65.71009970557095
 30
0.0
 10
183.9037979738512
 20
65.72412121259433
 30
0.0
 10
183.8952039077417
 20
65.7498338850383
 30
0.0
 10
183.8978498053517
 20
65.76128943588006
 30
0.0
 10
183.9156144051982
 20
65.79274392976026
 30
0.0
 10
183.9401058708964
 20
65.80939416227821
 30
0.0
 10
183.9692599853335
 20
65.82351553331925
 30
0.0
  0
LINE
  5
22F
330
1F
100
AcDbEntity
  8
0
  6
Continuous
 62
     7
370
    25
100
AcDbLine
 10
184.9790778309
 20
65.0962493018
 30
0.0
 11
183.9380446902
 21
65.6972249418
 31
0.0
  0
SPLINE
  5
230
330
1F
100
AcDbEntity
  8
0
  6
Continuous
 62
     7
370
    25
100
AcDbSpline
210
0.0
220
0.0
230
1.0
 70
     8
 71
     3
 72
    12
 73
     8
 74
     0
 42
0.000000001
 43
0.00000001
 40
0.0
 40
0.0
 40
0.0
 40
0.0
 40
0.4999999999999963
 40
0.4999999999999963
 40
0.7499999999999981
 40
0.7499999999999981
 40
1.0
 40
1.0
 40
1.0
 40
1.0
 10
185.3164793438642
 20
65.04578235215567
 30
0.0
 10
185.265822906555
 20
65.04430925283982
 30
0.0
 10
185.2108117404856
 20
65.04498583488952
 30
0.0
 10
185.1227882917575
 20
65.05425844157061
 30
0.0
 10
185.0920132628512
 20
65.05882611361733
 30
0.0
 10
185.0312806568467
 20
65.07325461535792
 30
0.0
 10
185.0012373249115
 20
65.08345689819322
 30
0.0
 10
184.9790778308848
 20
65.09624930180088
 30
0.0
  0
ELLIPSE
  5
231
330
1F
100
AcDbEntity
  8
0
  6
Continuous
 62
     7
370
    25
100
AcDbEllipse
 10
176.0668935336
 20
54.1328215719
 30
0.0
 11
15.90471575942235
 21
8.32220498109897
 31
0.0
210
0.0
220
0.0
230
1.0
 40
0.4445305117
 41
0.2747775750656729
 42
0.7400769945754366
  0
ELLIPSE
  5
232
330
1F
100
AcDbEntity
  8
0
  6
Continuous
 62
     7
370
    25
100
AcDbEllipse
 10
186.2118635516
 20
48.276255041
 30
0.0
 11
-0.7461041289972173
 21
17.9347738606024
 31
0.0
210
0.0
220
0.0
230
1.0
 40
0.4444802122
 41
5.846123912132792
 42
6.473758866427505
  0
SPLINE
  5
233
330
1F
100
AcDbEntity
  8
0
  6
Continuous
 62
     7
370
    25
100
AcDbSpline
210
0.0
220
0.0
230
1.0
 70
     8
 71
     3
 72
    12
 73
     8
 74
     0
 42
0.000000001
 43
0.00000001
 40
0.0
 40
0.0
 40
0.0
 40
0.0
 40
0.2500000000000001
 40
0.2500000000000001
 40
0.5000000000000001
 40
0.5000000000000001
 40
1.0
 40
1.0
 40
1.0
 40
1.0
 10
169.988044690202
 20
49.20085563299874
 30
0.0
 10
169.9657506899974
 20
49.21372568537009
 30
0.0
 10
169.9476382139086
 20
49.23775490842525
 30
0.0
 10
169.9210733426164
 20
49.29286677431168
 30
0.0
 10
169.9124724097192
 20
49.32281783030803
 30
0.0
 10
169.894103063797
 20
49.414259868506
 30
0.0
 10
169.8919007794284
 20
49.47562120159746
 30
0.0
 10
169.8942599853335
 20
49.5363049587239
 30
0.0
  0
LINE
  5
234
330
1F
100
AcDbEntity
  8
0
  6
Continuous
 62
     7
370
    25
100
AcDbLine
 10
171.0290778309
 20
48.599879993
 30
0.0
 11
169.9880446902
 21
49.200855633
 31
0.0
  0
SPLINE
  5
235
330
1F
100
AcDbEntity
  8
0
  6
Continuous
 62
     7
370
    25
100
AcDbSpline
210
0.0
220
0.0
230
1.0
 70
     8
 71
     3
 72
    12
 73
     8
 74
     0
 42
0.000000001
 43
0.00000001
 40
0.0
 40
0.0
 40
0.0
 40
0.0
 40
0.5000000000000019
 40
0.5000000000000019
 40
0.7500000000000009
 40
0.7500000000000009
 40
1.0
 40
1.0
 40
1.0
 40
1.0
 10
171.2414793438643
 20
48.75857177756031
 30
0.0
 10
171.2170980471786
 20
48.71062450666716
 30
0.0
 10
171.1894002770177
 20
48.66653002596307
 30
0.0
 10
171.1371077510613
 20
48.61583545823127
 30
0.0
 10
171.1178068194149
 20
48.60172561379979
 30
0.0
 10
171.0754372652945
 20
48.58702251429801
 30
0.0
 10
171.0513390045113
 20
48.58702889101753
 30
0.0
 10
171.0290778308849
 20
48.59987999300865
 30
0.0
  0
ELLIPSE
  5
236
330
1F
100
AcDbEntity
  8
0
  6
Continuous
 62
     7
370
    25
100
AcDbEllipse
 10
176.0668935336
 20
54.1328215719
 30
0.0
 11
7.874888476696754
 21
13.63996451050156
 31
0.0
210
0.0
220
0.0
230
1.0
 40
0.1059897947
 41
1.105338485463662
 42
2.036099852607345
  0
SPLINE
  5
237
330
1F
100
AcDbEntity
  8
0
  6
Continuous
 62
     7
370
    25
100
AcDbSpline
210
0.0
220
0.0
230
1.0
 70
     8
 71
     3
 72
    12
 73
     8
 74
     0
 42
0.000000001
 43
0.00000001
 40
0.0
 40
0.0
 40
0.0
 40
0.0
 40
0.2500000000000009
 40
0.2500000000000009
 40
0.5000000000000018
 40
0.5000000000000018
 40
1.0
 40
1.0
 40
1.0
 40
1.0
 10
178.3407123950573
 20
61.26400250736423
 30
0.0
 10
178.3630063952619
 20
61.25113245499288
 30
0.0
 10
178.3749507710138
 20
61.23066515801327
 30
0.0
 10
178.3835520774363
 20
61.18592680854582
 30
0.0
 10
178.3809130571679
 20
61.16246654875599
 30
0.0
 10
178.3631701137092
 20
61.09187846853012
 30
0.0
 10
178.3388390164348
 20
61.04583951004088
 30
0.0
 10
178.3094970999258
 20
61.00073760392838
 30
0.0
  0
LINE
  5
238
330
1F
100
AcDbEntity
  8
0
  6
Continuous
 62
     7
370
    25
100
AcDbLine
 10
177.2996792544
 20
61.8649781474
 30
0.0
 11
178.3407123951
 21
61.2640025074
 31
0.0
  0
SPLINE
  5
239
330
1F
100
AcDbEntity
  8
0
  6
Continuous
 62
     7
370
    25
100
AcDbSpline
210
0.0
220
0.0
230
1.0
 70
     8
 71
     3
 72
    12
 73
     8
 74
     0
 42
0.000000001
 43
0.00000001
 40
0.0
 40
0.0
 40
0.0
 40
0.0
 40
0.5000000000000019
 40
0.5000000000000019
 40
0.7500000000000009
 40
0.7500000000000009
 40
1.0
 40
1.0
 40
1.0
 40
1.0
 10
176.962277741395
 20
61.77847078509195
 30
0.0
 10
177.0136315707218
 20
61.81084208249411
 30
0.0
 10
177.0678597996237
 20
61.83961587649985
 30
0.0
 10
177.1562846132126
 20
61.86944493776168
 30
0.0
 10
177.1869458226045
 20
61.8769945015044
 30
0.0
 10
177.2470016865363
 20
61.88148419255682
 30
0.0
 10
177.277418080748
 20
61.87782924934542
 30
0.0
 10
177.2996792543744
 20
61.86497814735431
 30
0.0
  0
ELLIPSE
  5
23A
330
1F
100
AcDbEntity
  8
0
  6
Continuous
 62
     7
370
    25
100
AcDbEllipse
 10
186.2118635516
 20
48.276255041
 30
0.0
 11
14.30238360604707
 21
-8.263902107297822
 31
0.0
210
0.0
220
0.0
230
1.0
 40
0.9534948969
 41
2.676532761479947
 42
3.607294128623639
  0
ARC
  5
23B
330
1F
100
AcDbEntity
  8
0
  6
Continuous
 62
     7
370
    25
100
AcDbCircle
 10
182.101264179
 20
62.1207014491
 30
0.0
 40
5.815588460157133
100
AcDbArc
 50
60.6936342629
 51
94.7161914743
  0
ARC
  5
23C
330
1F
100
AcDbEntity
  8
0
  6
Continuous
 62
     7
370
    25
100
AcDbCircle
 10
172.2585778747
 20
45.0033458142
 30
0.0
 40
5.940332918701881
100
AcDbArc
 50
203.949041136
 51
239.0008359093
  0
SPLINE
  5
23D
330
1F
100
AcDbEntity
  8
0
  6
Continuous
 62
     7
370
    25
100
AcDbSpline
210
0.0
220
0.0
230
1.0
 70
    11
 71
     3
 72
    94
 73
    90
 74
     0
 42
0.000000001
 43
0.00000001
 40
0.0
 40
0.0
 40
0.0
 40
0.0
 40
0.0312499999999989
 40
0.0312499999999989
 40
0.0624999999999977
 40
0.0624999999999977
 40
0.0937499999999966
 40
0.0937499999999966
 40
0.1093749999999961
 40
0.1093749999999961
 40
0.1249999999999956
 40
0.1249999999999956
 40
0.140624999999995
 40
0.140624999999995
 40
0.1562499999999945
 40
0.1562499999999945
 40
0.1874999999999934
 40
0.1874999999999934
 40
0.2031249999999928
 40
0.2031249999999928
 40
0.2187499999999922
 40
0.2187499999999922
 40
0.249999999999991
 40
0.249999999999991
 40
0.2812499999999897
 40
0.2812499999999897
 40
0.3124999999999885
 40
0.3124999999999885
 40
0.3281249999999878
 40
0.3281249999999878
 40
0.3437499999999872
 40
0.3437499999999872
 40
0.374999999999986
 40
0.374999999999986
 40
0.3906249999999861
 40
0.3906249999999861
 40
0.4062499999999862
 40
0.4062499999999862
 40
0.4374999999999865
 40
0.4374999999999865
 40
0.453124999999987
 40
0.453124999999987
 40
0.4687499999999875
 40
0.4687499999999875
 40
0.4999999999999885
 40
0.4999999999999885
 40
0.5156249999999887
 40
0.5156249999999887
 40
0.5312499999999889
 40
0.5312499999999889
 40
0.5624999999999897
 40
0.5624999999999897
 40
0.5781249999999901
 40
0.5781249999999901
 40
0.5937499999999906
 40
0.5937499999999906
 40
0.6249999999999915
 40
0.6249999999999915
 40
0.6406249999999919
 40
0.6406249999999919
 40
0.6562499999999923
 40
0.6562499999999923
 40
0.6718749999999928
 40
0.6718749999999928
 40
0.6874999999999931
 40
0.6874999999999931
 40
0.7187499999999937
 40
0.7187499999999937
 40
0.7499999999999942
 40
0.7499999999999942
 40
0.7812499999999948
 40
0.7812499999999948
 40
0.8124999999999952
 40
0.8124999999999952
 40
0.8281249999999956
 40
0.8281249999999956
 40
0.8437499999999959
 40
0.8437499999999959
 40
0.8749999999999972
 40
0.8749999999999972
 40
0.8906249999999979
 40
0.8906249999999979
 40
0.9062499999999982
 40
0.9062499999999982
 40
0.9374999999999988
 40
0.9374999999999988
 40
0.9687499999999994
 40
0.9687499999999994
 40
1.0
 40
1.0
 40
1.0
 40
1.0
 10
199.1132918424105
 20
55.96829870482005
 30
0.0
 10
198.8214896143879
 20
56.017338898778
 30
0.0
 10
198.5306960131189
 20
56.05067388482546
 30
0.0
 10
197.950704357447
 20
56.0809435469711
 30
0.0
 10
197.6589014748737
 20
56.07732876599786
 30
0.0
 10
197.1032161269152
 20
56.02712216827288
 30
0.0
 10
196.8365287776645
 20
55.98106041961464
 30
0.0
 10
196.4546945272214
 20
55.87566912119333
 30
0.0
 10
196.3300768874967
 20
55.83416828442962
 30
0.0
 10
196.0947601486042
 20
55.74086217376279
 30
0.0
 10
195.9830964889571
 20
55.68885044501341
 30
0.0
 10
195.771645589132
 20
55.57414073953032
 30
0.0
 10
195.6718579528244
 20
55.51144309467701
 30
0.0
 10
195.4844312319977
 20
55.37514616669695
 30
0.0
 10
195.3966780247119
 20
55.30126039214316
 30
0.0
 10
195.1589101090144
 20
55.06965743374104
 30
0.0
 10
195.0313169780194
 20
54.90029516935703
 30
0.0
 10
194.8841632237487
 20
54.62625482280176
 30
0.0
 10
194.8430517064432
 20
54.53236604693228
 30
0.0
 10
194.7766972182083
 20
54.34239229285289
 30
0.0
 10
194.7512631758161
 20
54.24595153386027
 30
0.0
 10
194.6971731736933
 20
53.95297942467074
 30
0.0
 10
194.6910945678881
 20
53.75140942770705
 30
0.0
 10
194.7347943984417
 20
53.35649466125802
 30
0.0
 10
194.783947556864
 20
53.16154631523462
 30
0.0
 10
194.9348008561043
 20
52.77936472618764
 30
0.0
 10
195.035337242848
 20
52.59572094238267
 30
0.0
 10
195.2193965031462
 20
52.33597374529236
 30
0.0
 10
195.2864152227342
 20
52.25181833112988
 30
0.0
 10
195.4317839645783
 20
52.08859997699805
 30
0.0
 10
195.5104851441772
 20
52.00922818931399
 30
0.0
 10
195.7614342075344
 20
51.78153764055435
 30
0.0
 10
195.9469307381256
 20
51.6446333566679
 30
0.0
 10
196.2514308467436
 20
51.46128318390955
 30
0.0
 10
196.3573349362207
 20
51.40384810022266
 30
0.0
 10
196.578110208497
 20
51.29645173552348
 30
0.0
 10
196.6935729225768
 20
51.24628020723752
 30
0.0
 10
197.0486281572522
 20
51.10928175325
 30
0.0
 10
197.296730274976
 20
51.0356281343535
 30
0.0
 10
197.6859057927924
 20
50.95017296357049
 30
0.0
 10
197.8184864404208
 20
50.92587833280498
 30
0.0
 10
198.0895858267988
 20
50.88566562253779
 30
0.0
 10
198.2288268566015
 20
50.86970868377527
 30
0.0
 10
198.6486377049653
 20
50.83516043342136
 30
0.0
 10
198.9321292343806
 20
50.82943839181505
 30
0.0
 10
199.3632941527404
 20
50.84516632030348
 30
0.0
 10
199.5080107863916
 20
50.85448793246924
 30
0.0
 10
199.7996216749177
 20
50.88136913459651
 30
0.0
 10
199.9472826751751
 20
50.89907469986479
 30
0.0
 10
200.3835767134096
 20
50.96336581130253
 30
0.0
 10
200.6680737081217
 20
51.02105674721344
 30
0.0
 10
201.0849880708557
 20
51.12889072863344
 30
0.0
 10
201.2223080684362
 20
51.16841668115241
 30
0.0
 10
201.4934087900403
 20
51.25491163662898
 30
0.0
 10
201.6261121367029
 20
51.30160093176142
 30
0.0
 10
202.0069941418355
 20
51.44862080114388
 30
0.0
 10
202.2416362893827
 20
51.55687246717687
 30
0.0
 10
202.5631633378198
 20
51.73470454270421
 30
0.0
 10
202.6652110646116
 20
51.79669794498032
 30
0.0
 10
202.8528732904848
 20
51.92225336992264
 30
0.0
 10
202.9393505579265
 20
51.98626258197535
 30
0.0
 10
203.0980016985023
 20
52.11680299481051
 30
0.0
 10
203.1701748975922
 20
52.18333401658852
 30
0.0
 10
203.3001521649151
 20
52.31915233239405
 30
0.0
 10
203.357240672535
 20
52.38776631394962
 30
0.0
 10
203.504035330012
 20
52.59343015060238
 30
0.0
 10
203.5707093555488
 20
52.73180908093632
 30
0.0
 10
203.6441510161784
 20
53.01154026622964
 30
0.0
 10
203.6502169040004
 20
53.14943558944946
 30
0.0
 10
203.6071233956972
 20
53.42515360216917
 30
0.0
 10
203.5570421900408
 20
53.56376209995654
 30
0.0
 10
203.4073042998051
 20
53.83478052585043
 30
0.0
 10
203.3077319989125
 20
53.96831490940724
 30
0.0
 10
203.1221260467805
 20
54.16787047032595
 30
0.0
 10
203.0540089993861
 20
54.23434612058734
 30
0.0
 10
202.9081582009318
 20
54.36491610571834
 30
0.0
 10
202.8301660128588
 20
54.42931383764992
 30
0.0
 10
202.5813739164073
 20
54.62021249883474
 30
0.0
 10
202.3958806664255
 20
54.74447206452026
 30
0.0
 10
202.0874530330838
 20
54.92680349345751
 30
0.0
 10
201.9800768703209
 20
54.98656557357366
 30
0.0
 10
201.759123391539
 20
55.10254273122899
 30
0.0
 10
201.6451505353894
 20
55.15899457836429
 30
0.0
 10
201.2928455479059
 20
55.32364409305372
 30
0.0
 10
201.0442250923432
 20
55.4272193930062
 30
0.0
 10
200.5178146594612
 20
55.61961742724913
 30
0.0
 10
200.2460640203554
 20
55.70613561279728
 30
0.0
 10
199.6904577032108
 20
55.85572305920911
 30
0.0
 10
199.4050940704331
 20
55.91925851086209
 30
0.0
 10
199.1132918424105
 20
55.96829870482004
 30
0.0
  0
LINE
  5
23E
330
1F
100
AcDbEntity
  8
0
  6
Continuous
 62
     7
370
    25
100
AcDbLine
 10
211.5241056504
 20
45.210501323
 30
0.0
 11
211.5584787324
 21
45.1903834646
 31
0.0
  0
LINE
  5
23F
330
1F
100
AcDbEntity
  8
0
  6
Continuous
 62
     7
370
    25
100
AcDbLine
 10
201.6323306356
 20
27.8301247778
 30
0.0
 11
201.524918324
 21
27.8895240754
 31
0.0
  0
LWPOLYLINE
  5
240
330
1F
100
AcDbEntity
  8
0
  6
Continuous
 62
     7
370
    25
100
AcDbPolyline
 90
       12
 70
   128
 43
0.0
 10
156.5114279807
 20
54.6518615274
 10
156.5597886544
 20
55.8521129145
 10
156.7044327138
 20
57.0973306847
 10
156.94405024
 20
58.3762379528
 10
157.2764712194
 20
59.6772527366
 10
157.6986851962
 20
60.9885928448
 10
158.2068685353
 20
62.2983825784
 10
158.7964190496
 20
63.5947602786
 10
159.4619976784
 20
64.8659857482
 10
160.1975768386
 20
66.1005465726
 10
160.9964950113
 20
67.2872623777
 10
161.85151707
 20
68.4153860814
  0
LINE
  5
241
330
1F
100
AcDbEntity
  8
0
  6
Continuous
 62
     7
370
    25
100
AcDbLine
 10
169.9880446902
 20
41.5351162471
 30
0.0
 11
171.0305923964
 21
40.9330706161
 31
0.0
  0
LWPOLYLINE
  5
242
330
1F
100
AcDbEntity
  8
0
  6
Continuous
 62
     7
370
    25
100
AcDbPolyline
 90
        9
 70
   128
 43
0.0
 10
166.1325611277
 20
70.8867802109
 10
165.630323733
 20
70.882851923
 10
165.1000548339
 20
70.784593911
 10
164.5508274784
 20
70.5936873967
 10
163.9920390989
 20
70.3133988435
 10
163.4332507193
 20
69.9485240663
 10
162.8840233638
 20
69.5053061737
 10
162.3537544647
 20
68.9913287466
 10
161.85151707
 20
68.4153860814
  0
ARC
  5
243
330
1F
100
AcDbEntity
  8
0
  6
Continuous
 62
     7
370
    25
100
AcDbCircle
 10
159.582359035
 20
54.3645342619
 30
0.0
 40
3.08434344677348
100
AcDbArc
 50
174.6547638622
 51
232.6759834224
  0
ARC
  5
244
330
1F
100
AcDbEntity
  8
0
  6
Continuous
 62
     7
370
    25
100
AcDbCircle
 10
165.7015661403
 20
65.561554052
 30
0.0
 40
5.342638891244564
100
AcDbArc
 50
62.0154699427
 51
85.3728752634
  0
LWPOLYLINE
  5
245
330
1F
100
AcDbEntity
  8
0
  6
Continuous
 62
     7
370
    25
100
AcDbPolyline
 90
       12
 70
   128
 43
0.0
 10
156.2872841127
 20
55.1347721105
 10
156.3342583515
 20
56.3006139188
 10
156.474755662
 20
57.510132985
 10
156.7075036787
 20
58.7523757169
 10
157.0303945997
 20
60.016092172
 10
157.4405042746
 20
61.2898379386
 10
157.9341186869
 20
62.5620777775
 10
158.5067675878
 20
63.8212900879
 10
159.1532649804
 20
65.0560712481
 10
159.867756084
 20
66.2552388887
 10
160.6437703567
 20
67.4079331617
 10
161.474280093
 20
68.5037150895
  0
ARC
  5
246
330
1F
100
AcDbEntity
  8
0
  6
Continuous
 62
     7
370
    25
100
AcDbCircle
 10
166.2536394376
 20
65.0455419556
 30
0.0
 40
5.899257340448231
100
AcDbArc
 50
103.4689958683
 51
144.1118487458
  0
ARC
  5
247
330
1F
100
AcDbEntity
  8
0
  6
Continuous
 62
     7
370
    25
100
AcDbCircle
 10
160.1983217693
 20
55.0566723823
 30
0.0
 40
3.911817367876615
100
AcDbArc
 50
178.8560094402
 51
201.1091694604
  0
LWPOLYLINE
  5
248
330
1F
100
AcDbEntity
  8
0
  6
Continuous
 62
     7
370
    18
100
AcDbPolyline
 90
       25
 70
   128
 43
0.0
 10
165.9365827471
 20
47.1224977473
 10
165.9778097204
 20
48.2518493957
 10
166.1011854102
 20
49.4204393697
 10
166.3057963861
 20
50.6196158381
 10
166.59012778
 20
51.8405005179
 10
166.9520745018
 20
53.0740544061
 10
167.3889568244
 20
54.3111447012
 10
167.8975402242
 20
55.5426124196
 10
168.4740593275
 20
56.759340205
 10
169.1142457885
 20
57.9523198307
 10
169.8133598908
 20
59.1127188929
 10
170.5662256381
 20
60.231946203
 10
171.3672690758
 20
61.3017153935
 10
172.2105595585
 20
62.3141062675
 10
173.0898536586
 20
63.2616234374
 10
173.9986413902
 20
64.1372518174
 10
174.9301944069
 20
64.9345085614
 10
175.877615816
 20
65.6474910594
 10
176.833891241
 20
66.2709206384
 10
177.7919407531
 20
66.800181644
 10
178.7446712889
 20
67.2313556128
 10
179.685029165
 20
67.5612502836
 10
180.6060523005
 20
67.7874232318
 10
181.5009217625
 20
67.9081999518
 10
181.6231056256
 20
67.9165994412
  0
ARC
  5
249
330
1F
100
AcDbEntity
  8
0
  6
Continuous
 62
     7
370
    18
100
AcDbCircle
 10
176.6393367188
 20
46.8790479511
 30
0.0
 40
10.70552242452757
100
AcDbArc
 50
178.6969483792
 51
203.6063086851
  0
LWPOLYLINE
  5
24A
330
1F
100
AcDbEntity
  8
0
  6
Continuous
 62
     7
370
    18
100
AcDbPolyline
 90
       60
 70
   128
 43
0.0
 10
199.4534441754
 20
31.978127273
 10
199.495906728
 20
32.922645855
 10
199.6228132681
 20
33.9054888837
 10
199.8327258938
 20
34.9155203549
 10
200.1232662114
 20
35.9412962084
 10
200.4911422828
 20
36.9711939939
 10
200.9321859252
 20
37.9935445581
 10
201.441399938
 20
38.9967642604
 10
202.0130147227
 20
39.9694862209
 10
202.6405536556
 20
40.9006891109
 10
203.3169064698
 20
41.7798220297
 10
204.0344098176
 20
42.5969240501
 10
204.7849340994
 20
43.3427370796
 10
205.5599755752
 20
44.0088107586
 10
206.3507527154
 20
44.5875982061
 10
207.1483056989
 20
45.0725415292
 10
207.943597932
 20
45.4581461261
 10
208.7276184356
 20
45.7400429428
 10
209.4914839443
 20
45.9150379756
 10
210.2265395566
 20
45.981148461
 10
210.9244567987
 20
45.9376253406
 10
211.5773279894
 20
45.7849617488
 10
212.1777558372
 20
45.5248874252
 10
212.7189372547
 20
45.1603491158
 10
213.1947404402
 20
44.6954771851
 10
213.5997743534
 20
44.1355388181
 10
213.9294497983
 20
43.48687834
 10
214.1800314204
 20
42.7568453334
 10
214.3486800298
 20
41.9537113639
 10
214.4334847702
 20
41.0865762603
 10
214.4334847702
 20
40.1652650097
 10
214.3486800298
 20
39.2002164369
 10
214.1800314204
 20
38.2023649277
 10
213.9294497983
 20
37.1830165384
 10
213.5997743534
 20
36.1537208937
 10
213.1947404402
 20
35.1261403245
 10
212.7189372547
 20
34.1119177292
 10
212.1777558372
 20
33.1225446551
 10
211.5773279894
 20
32.1692310944
 10
210.9244567987
 20
31.2627784707
 10
210.2265395566
 20
30.4134572545
 10
209.4914839443
 20
29.6308905945
 10
208.7276184356
 20
28.9239452836
 10
207.943597932
 20
28.3006312947
 10
207.1483056989
 20
27.7680110244
 10
206.3507527154
 20
27.3321192731
 10
205.5599755752
 20
26.9978948686
 10
204.7849340994
 20
26.7691247069
 10
204.0344098176
 20
26.6484008454
 10
203.3169064698
 20
26.6370911336
 10
202.6405536556
 20
26.7353237151
 10
202.0130147227
 20
26.9419855756
 10
201.441399938
 20
27.2547351534
 10
200.9321859252
 20
27.6700288711
 10
200.4911422828
 20
28.1831612847
 10
200.1232662114
 20
28.788318399
 10
199.8327258938
 20
29.4786435422
 10
199.6228132681
 20
30.2463150544
 10
199.495906728
 20
31.0826349107
 10
199.4534441754
 20
31.978127273
  0
LWPOLYLINE
  5
24B
330
1F
100
AcDbEntity
  8
0
  6
Continuous
 62
     7
370
    18
100
AcDbPolyline
 90
       31
 70
   128
 43
0.0
 10
211.5584787324
 20
45.1903834646
 10
211.6580753417
 20
45.1289024876
 10
212.1537400394
 20
44.7411913323
 10
212.583407185
 20
44.2574460968
 10
212.9420393241
 20
43.6833382517
 10
213.2254318228
 20
43.0255986865
 10
213.4302621631
 20
42.2919387963
 10
213.5541288966
 20
41.4909600725
 10
213.5955797991
 20
40.6320532583
 10
213.5541288966
 20
39.7252882508
 10
213.4302621631
 20
38.7812960407
 10
213.2254318228
 20
37.8111440734
 10
212.9420393241
 20
36.8262064939
 10
212.583407185
 20
35.8380307946
 10
212.1537400394
 20
34.8582024322
 10
211.6580753417
 20
33.8982089983
 10
211.1022243074
 20
32.9693055383
 10
210.4927037815
 20
32.0823825958
 10
209.8366598351
 20
31.2478385316
 10
209.1417839834
 20
30.4754576116
 10
208.4162230106
 20
29.774295296
 10
207.6684834556
 20
29.1525720718
 10
206.9073318811
 20
28.6175770755
 10
206.1416920934
 20
28.1755826341
 10
205.3805405189
 20
27.8317707285
 10
204.6328009639
 20
27.5901722388
 10
203.9072399911
 20
27.4536196864
 10
203.2123641394
 20
27.4237140252
 10
202.5563201929
 20
27.5008058717
 10
201.9467996671
 20
27.6839913945
 10
201.6323306356
 20
27.8301247778
  0
LINE
  5
24C
330
1F
100
AcDbEntity
  8
0
  6
Continuous
 62
     7
370
    18
100
AcDbLine
 10
178.3407123951
 20
61.2640025074
 30
0.0
 11
176.9872364054
 21
58.9197133333
 31
0.0
  0
LINE
  5
24D
330
1F
100
AcDbEntity
  8
0
  6
Continuous
 62
     7
370
    18
100
AcDbLine
 10
172.3826441765
 20
50.9443256681
 30
0.0
 11
171.0290778309
 21
48.599879993
 31
0.0
  0
LINE
  5
24E
330
1F
100
AcDbEntity
  8
0
  6
Continuous
 62
     7
370
    18
100
AcDbLine
 10
177.2996792544
 20
61.8649781474
 30
0.0
 11
169.9880446902
 21
49.200855633
 31
0.0
  0
LINE
  5
24F
330
1F
100
AcDbEntity
  8
0
  6
Continuous
 62
     7
370
    18
100
AcDbLine
 10
176.9622777414
 20
61.7784707851
 30
0.0
 11
169.8942599853
 21
49.5363049587
 31
0.0
  0
LINE
  5
250
330
1F
100
AcDbEntity
  8
0
  6
Continuous
 62
     7
370
    18
100
AcDbLine
 10
161.85151707
 20
68.4153860814
 30
0.0
 11
172.2659937103
 21
62.5152598527
 31
0.0
  0
LINE
  5
251
330
1F
100
AcDbEntity
  8
0
  6
Continuous
 62
     7
370
    18
100
AcDbLine
 10
156.5114279807
 20
54.6518615274
 30
0.0
 11
165.9617021681
 21
48.9151462768
 31
0.0
  0
LINE
  5
252
330
1F
100
AcDbEntity
  8
0
  6
Continuous
 62
     7
370
    18
100
AcDbLine
 10
185.3160464007
 20
65.0457795386
 30
0.0
 11
183.9692599853
 21
65.8235155333
 31
0.0
  0
LINE
  5
253
330
1F
100
AcDbEntity
  8
0
  6
Continuous
 62
     7
370
    18
100
AcDbLine
 10
169.8942599853
 20
41.4449004883
 30
0.0
 11
171.2416772749
 21
40.6668001793
 31
0.0
  0
LINE
  5
254
330
1F
100
AcDbEntity
  8
0
  6
Continuous
 62
     7
370
    18
100
AcDbLine
 10
166.1325611277
 20
70.8867802109
 30
0.0
 11
175.8013536544
 21
65.6835096632
 31
0.0
  0
LINE
  5
255
330
1F
100
AcDbEntity
  8
0
  6
Continuous
 62
     7
370
    18
100
AcDbLine
 10
161.474280093
 20
68.5037150895
 30
0.0
 11
161.85151707
 21
68.4153860814
 31
0.0
  0
LINE
  5
256
330
1F
100
AcDbEntity
  8
0
  6
Continuous
 62
     7
370
    18
100
AcDbLine
 10
156.2872841127
 20
55.1347721105
 30
0.0
 11
156.5114279807
 21
54.6518615274
 31
0.0
  0
OLE2FRAME
  5
257
330
1F
100
AcDbEntity
  8
0
100
AcDbOle2Frame
 70
     2
  3
Paintbrush-Bild
 10
13.8511154363
 20
38.264191557
 30
0.0
 11
51.6290888628
 21
31.9806341108
 31
0.0
 71
     2
 72
     0
 73
     1
 90
    12928
310
80552BED0767C5B32B40DDAF6807D121434000000000000000006FFBDDFB85D0
310
4940DDAF6807D121434000000000000000006FFBDDFB85D04940416F4BD60AFB
310
3F4000000000000000002BED0767C5B32B40416F4BD60AFB3F40000000000000
310
0000000000000100000000010000010000000100000000000100000000320000
310
D0CF11E0A1B11AE1000000000000000000000000000000003E000300FEFF0900
310
0600000000000000000000000100000001000000000000000010000002000000
310
01000000FEFFFFFF0000000000000000FFFFFFFFFFFFFFFFFFFFFFFFFFFFFFFF
310
FFFFFFFFFFFFFFFFFFFFFFFFFFFFFFFFFFFFFFFFFFFFFFFFFFFFFFFFFFFFFFFF
310
FFFFFFFFFFFFFFFFFFFFFFFFFFFFFFFFFFFFFFFFFFFFFFFFFFFFFFFFFFFFFFFF
310
FFFFFFFFFFFFFFFFFFFFFFFFFFFFFFFFFFFFFFFFFFFFFFFFFFFFFFFFFFFFFFFF
310
FFFFFFFFFFFFFFFFFFFFFFFFFFFFFFFFFFFFFFFFFFFFFFFFFFFFFFFFFFFFFFFF
310
FFFFFFFFFFFFFFFFFFFFFFFFFFFFFFFFFFFFFFFFFFFFFFFFFFFFFFFFFFFFFFFF
310
FFFFFFFFFFFFFFFFFFFFFFFFFFFFFFFFFFFFFFFFFFFFFFFFFFFFFFFFFFFFFFFF
310
FFFFFFFFFFFFFFFFFFFFFFFFFFFFFFFFFFFFFFFFFFFFFFFFFFFFFFFFFFFFFFFF
310
FFFFFFFFFFFFFFFFFFFFFFFFFFFFFFFFFFFFFFFFFFFFFFFFFFFFFFFFFFFFFFFF
310
FFFFFFFFFFFFFFFFFFFFFFFFFFFFFFFFFFFFFFFFFFFFFFFFFFFFFFFFFFFFFFFF
310
FFFFFFFFFFFFFFFFFFFFFFFFFFFFFFFFFFFFFFFFFFFFFFFFFFFFFFFFFFFFFFFF
310
FFFFFFFFFFFFFFFFFFFFFFFFFFFFFFFFFFFFFFFFFFFFFFFFFFFFFFFFFFFFFFFF
310
FFFFFFFFFFFFFFFFFFFFFFFFFFFFFFFFFFFFFFFFFFFFFFFFFFFFFFFFFFFFFFFF
310
FFFFFFFFFFFFFFFFFFFFFFFFFFFFFFFFFFFFFFFFFFFFFFFFFFFFFFFFFFFFFFFF
310
FDFFFFFFFEFFFFFFFEFFFFFFFEFFFFFF05000000060000000700000008000000
310
090000000A0000000B0000000C0000000D0000000E0000000F00000010000000
310
11000000120000001300000014000000150000001600000017000000FEFFFFFF
310
FFFFFFFFFFFFFFFFFFFFFFFFFFFFFFFFFFFFFFFFFFFFFFFFFFFFFFFFFFFFFFFF
310
FFFFFFFFFFFFFFFFFFFFFFFFFFFFFFFFFFFFFFFFFFFFFFFFFFFFFFFFFFFFFFFF
310
FFFFFFFFFFFFFFFFFFFFFFFFFFFFFFFFFFFFFFFFFFFFFFFFFFFFFFFFFFFFFFFF
310
FFFFFFFFFFFFFFFFFFFFFFFFFFFFFFFFFFFFFFFFFFFFFFFFFFFFFFFFFFFFFFFF
310
FFFFFFFFFFFFFFFFFFFFFFFFFFFFFFFFFFFFFFFFFFFFFFFFFFFFFFFFFFFFFFFF
310
FFFFFFFFFFFFFFFFFFFFFFFFFFFFFFFFFFFFFFFFFFFFFFFFFFFFFFFFFFFFFFFF
310
FFFFFFFFFFFFFFFFFFFFFFFFFFFFFFFFFFFFFFFFFFFFFFFFFFFFFFFFFFFFFFFF
310
FFFFFFFFFFFFFFFFFFFFFFFFFFFFFFFFFFFFFFFFFFFFFFFFFFFFFFFFFFFFFFFF
310
FFFFFFFFFFFFFFFFFFFFFFFFFFFFFFFFFFFFFFFFFFFFFFFFFFFFFFFFFFFFFFFF
310
FFFFFFFFFFFFFFFFFFFFFFFFFFFFFFFFFFFFFFFFFFFFFFFFFFFFFFFFFFFFFFFF
310
FFFFFFFFFFFFFFFFFFFFFFFFFFFFFFFFFFFFFFFFFFFFFFFFFFFFFFFFFFFFFFFF
310
FFFFFFFFFFFFFFFFFFFFFFFFFFFFFFFFFFFFFFFFFFFFFFFFFFFFFFFFFFFFFFFF
310
FFFFFFFFFFFFFFFFFFFFFFFFFFFFFFFFFFFFFFFFFFFFFFFFFFFFFFFFFFFFFFFF
310
52006F006F007400200045006E00740072007900000000000000000000000000
310
0000000000000000000000000000000000000000000000000000000000000000
310
16000500FFFFFFFFFFFFFFFF020000000A00030000000000C000000000000046
310
00000000000000000000000040C06318988ED30103000000C000000000000000
310
01004F006C006500000000000000000000000000000000000000000000000000
310
0000000000000000000000000000000000000000000000000000000000000000
310
0A000200FFFFFFFFFFFFFFFFFFFFFFFF00000000000000000000000000000000
310
0000000000000000000000000000000000000000000000001400000000000000
310
010043006F006D0070004F0062006A0000000000000000000000000000000000
310
0000000000000000000000000000000000000000000000000000000000000000
310
120002010100000003000000FFFFFFFF00000000000000000000000000000000
310
0000000000000000000000000000000000000000010000004D00000000000000
310
01004F006C006500310030004E00610074006900760065000000000000000000
310
0000000000000000000000000000000000000000000000000000000000000000
310
1A000200FFFFFFFFFFFFFFFFFFFFFFFF00000000000000000000000000000000
310
0000000000000000000000000000000000000000040000002426000000000000
310
FEFFFFFF02000000FEFFFFFFFFFFFFFFFFFFFFFFFFFFFFFFFFFFFFFFFFFFFFFF
310
FFFFFFFFFFFFFFFFFFFFFFFFFFFFFFFFFFFFFFFFFFFFFFFFFFFFFFFFFFFFFFFF
310
FFFFFFFFFFFFFFFFFFFFFFFFFFFFFFFFFFFFFFFFFFFFFFFFFFFFFFFFFFFFFFFF
310
FFFFFFFFFFFFFFFFFFFFFFFFFFFFFFFFFFFFFFFFFFFFFFFFFFFFFFFFFFFFFFFF
310
FFFFFFFFFFFFFFFFFFFFFFFFFFFFFFFFFFFFFFFFFFFFFFFFFFFFFFFFFFFFFFFF
310
FFFFFFFFFFFFFFFFFFFFFFFFFFFFFFFFFFFFFFFFFFFFFFFFFFFFFFFFFFFFFFFF
310
FFFFFFFFFFFFFFFFFFFFFFFFFFFFFFFFFFFFFFFFFFFFFFFFFFFFFFFFFFFFFFFF
310
FFFFFFFFFFFFFFFFFFFFFFFFFFFFFFFFFFFFFFFFFFFFFFFFFFFFFFFFFFFFFFFF
310
FFFFFFFFFFFFFFFFFFFFFFFFFFFFFFFFFFFFFFFFFFFFFFFFFFFFFFFFFFFFFFFF
310
FFFFFFFFFFFFFFFFFFFFFFFFFFFFFFFFFFFFFFFFFFFFFFFFFFFFFFFFFFFFFFFF
310
FFFFFFFFFFFFFFFFFFFFFFFFFFFFFFFFFFFFFFFFFFFFFFFFFFFFFFFFFFFFFFFF
310
FFFFFFFFFFFFFFFFFFFFFFFFFFFFFFFFFFFFFFFFFFFFFFFFFFFFFFFFFFFFFFFF
310
FFFFFFFFFFFFFFFFFFFFFFFFFFFFFFFFFFFFFFFFFFFFFFFFFFFFFFFFFFFFFFFF
310
FFFFFFFFFFFFFFFFFFFFFFFFFFFFFFFFFFFFFFFFFFFFFFFFFFFFFFFFFFFFFFFF
310
FFFFFFFFFFFFFFFFFFFFFFFFFFFFFFFFFFFFFFFFFFFFFFFFFFFFFFFFFFFFFFFF
310
FFFFFFFFFFFFFFFFFFFFFFFFFFFFFFFFFFFFFFFFFFFFFFFFFFFFFFFFFFFFFFFF
310
0100000200000000000000000000000000000000000000000000000000000000
310
0000000000000000000000000000000000000000000000000000000000000000
310
0100FEFF030A0000FFFFFFFF0A00030000000000C00000000000004607000000
310
5042727573680007000000504272757368000700000050427275736800F439B2
310
7100000000000000000000000000000000000000000000000000000000000000
310
0000000000000000000000000000000000000000000000000000000000000000
310
0000000000000000000000000000000000000000000000000000000000000000
310
0000000000000000000000000000000000000000000000000000000000000000
310
0000000000000000000000000000000000000000000000000000000000000000
310
0000000000000000000000000000000000000000000000000000000000000000
310
0000000000000000000000000000000000000000000000000000000000000000
310
0000000000000000000000000000000000000000000000000000000000000000
310
0000000000000000000000000000000000000000000000000000000000000000
310
0000000000000000000000000000000000000000000000000000000000000000
310
0000000000000000000000000000000000000000000000000000000000000000
310
0000000000000000000000000000000000000000000000000000000000000000
310
20260000424D0E260000000000003E00000028000000B40200006E0000000100
310
01000000000000000000130B0000130B00000200000002000000000000FFFFFF
310
FFFFFFFFFFFFFFFFFFFFFFFFFFFFFFFFFFFFFFFFFFFFFFFFFFFFFFFFFFFFFFFF
310
FFFFFFFFFFFFFFFFFFFFFFFFFFFFFFFFFFFFFFFFFFFFFFFFFFFFFFFFFFFFFFFF
310
FFFFFFFFFFFFFFFFFFFFFFFFFFFFFFFFFFFFFFFFFFFFFFFFF000FFFFFFFFFFFF
310
FFFFFFFFFFFFFFFFFFFFFFFFFFFFFFFFFFFFFFFFFFFFFFFFFFFFFFFFFFFFFFFF
310
FFFFFFFFFFFFFFFFFFFFFFFFFFFFFFFFFFFFFFFFFFFFFFFFFFFFFFFFFFFFFFFF
310
FFFFFFFFFFFFFFFFFFFFFFFFFFFFFFFFF000FFFFFFFFFFFFFFFFFFFFFFFFFFFF
310
FFFFFFFFFFFFFFFFFFFFFFFFFFFFFFFFFFFFFFFFFFFFFFFFFFFFFFFFFFFFFFFF
310
FFFFFFFFFFFFFFFFFFFFFFFFFFFFFFFFFFFFFFFFFFFFFFFFFFFFFFFFFFFFFFFF
310
FFFFFFFFFFFFFFFFF000FFFFFFFFFFFFFFFFFFFFFFFFFFFFFFFFFFFFFFFFFFFF
310
FFFFFFFFFFFFFFFFFFFFFFFFFFFFFFFFFFFFFFFFFFFFFFFFFFFFFFFFFFFFFFFF
310
FFFFFFFFFFFFFFFFFFFFFFFFFFFFFFFFFFFFFFFFFFFFFFFFFFFFFFFFFFFFFFFF
310
F000FFFFFFFFFFFFFFFFFFFFFFFFFFFFFFFFFFFFFFFFFFFFFFFFFFFFFFFFFFFF
310
FFFFFFFFFFFFFFFFFFFFFFFFFFFFFFFFFFFFFFFFFFFFFFFFFFFFFFFFFFFFFFFF
310
FFFFFFFFFFFFFFFFFFFFFFFFFFFFFFFFFFFFFFFFFFFFFFFFF000FFFFFFFFFFFF
310
FFFFFFFFFFFFFFFFFFFFFFFFFFFFFFFFFFFFFFFFFFFFFFFFFFFFFFFFFFFFFFFF
310
FFFFFFFFFFFFFFFFFFFFFFFFFFFFFFFFFFFFFFFFFFFFFFFFFFFFFFFFFFFFFFFF
310
FFFFFFFFFFFFFFFFFFFFFFFFFFFFFFFFF000FFFFFFFFFFFFFFFFFFFFFFFFFFFF
310
FFFFFFFFFFFFFFFFFFFFFFFFFFFFFFFFFFFFFFFFFFFFFFFFFFFFFFFFFFFFFFFF
310
FFFFFFFFFFFFFFFFFFFFFFFFFFFFFFFFFFFFFFFFFFFFFFFFFFFFFFFFFFFFFFFF
310
FFFFFFFFFFFFFFFFF000FFFFFFFFFFFFFFFFFFFFFFFFFFFFFFFFFFFFFFFFFFFF
310
FFFFFFFFFFFFFFFFFFFFFFFFFFFFFFFFFFFFFFFFFFFFFFFFFFFFFFFFFFFFFFFF
310
FFFFFFFFFFFFFFFFFFFFFFFFFFFFFFFFFFFFFFFFFFFFFFFFFFFFFFFFFFFFFFFF
310
F000FFFFFFFFFFFFFFFFFFFFFFFFFFFFFFFFFFFFFFFFFFFFFFFFFFFFFFFFFFFF
310
FFFFFFFFFFFFFFFFFFFFFFFFFFFFFFFFFFFFFFFFFFFFFFFFFFFFFFFFFFFFFFFF
310
FFFFFFFFFFFFFFFFFFFFFFFFFFFFFFFFFFFFFFFFFFFFFFFFF000FFFFFFFFFFFF
310
FFFFFFFFFFFFFFFFFFFFFFFFFFFFFFFFFFFFFFFFFFFFFFFFFFFFFFFFFFFFFFFF
310
FFFFFFFFFFFFFFFFFFFFFFFFFFFFFFFFFFFFFFFFFFFFFFFFFFFFFFFFFFFFFFFF
310
FFFFFFFFFFFFFFFFFFFFFFFFFFFFFFFFF000FFFFFFFFFFFFFFFFFFFFFFFFFFFF
310
FFFFFFFFFFFFFFFFFFFFFFFFFFFFFFFFFFFFFFFFFFFFFFFFFFFFFFFFFFFFFFFF
310
FFFFFFFFFFFFFFFFFFFFFFFFFFFFFFFFFFFFFFFFFFFFFFFFFFFFFFFFFFFFFFFF
310
FFFFFFFFFFFFFFFFF000FFFFFFFFFFFFFFFFFFFFFFFFFFFFFFFFFFFFFFFFFFFF
310
FFFFFFFFFFFFFFFFFFFFFFFFFFFFFFFFFFFFFFFFFFFFFFFFFFFFFFFFFFFFFFFF
310
FFFFFFFFFFFFFFFFFFFFFFFFFFFFFFFFFFFFFFFFFFFFFFFFFFFFFFFFFFFFFFFF
310
F000FFFFFFFFFFFFFFFFFFFFFFFFFFFFFFFFFFFFFFFFFFFFFFFFFFFFFFFFFFFF
310
FFFFFFFFFFFFFFFFFFFFFFFFFFFFFFFFFFFFFFFFFFFFFFFFFFFFFFFFFFFFFFFF
310
FFFFFFFFFFFFFFFFFFFFFFFFFFFFFFFFFFFFFFFFFFFFFFFFF000FFFFFFFFFFFF
310
FFFFFFFFFFFFFFFFFFFFFFFFFFFFFFFFFFFFFFFFFFFFFFFFFFFFFFFFFFFFFFFF
310
FFFFFFFFFFFFFFFFFFFFFFFFFFFFFFFFFFFFFFFFFFFFFFFFFFFFFFFFFFFFFFFF
310
FFFFFFFFFFFFFFFFFFFFFFFFFFFFFFFFF000FFFFFFFFFFFFFFFFFFFFFFFFFFFF
310
FFFFFFFFFFFFFFFFFFFFFFFFFFFFFFFFFFFFFFFFFFFFFFFFFFFFFFFFFFFFFFFF
310
FFFFFFFFFFFFFFFFFFFFFFFFFFFFFFFFFFFFFFFFFFFFFFFFFFFFFFFFFFFFFFFF
310
FFFFFFFFFFFFFFFFF000FFFFFFFFFFFFFFFFFFFFFFFFFFFFFFFFFFFFFFFFFFFF
310
FFFFFFFFFFFFFFFFFFFFFFFFFFFFFFFFFFFFFFFFFFFFFFFFFFFFFFFFFFFFFFFF
310
FFFFFFFFFFFFFFFFFFFFFFFFFFFFFFFFFFFFFFFFFFFFFFFFFFFFFFFFFFFFFFFF
310
F000FFFFFFFFFFFFFFFFFFFFFFFFFFFFFFFFFFFFFFFFFFFFFFFFFFFFFFFFFFFF
310
FFFFFFFFFFFFFFFFFFFFFFFFFFFFFFFFFFFFFFFFFFFFFFFFFFFFFFFFFFFFFFFF
310
FFFFFFFFFFFFFFFFFFFFFFFFFFFFFFFFFFFFFFFFFFFFFFFFF000FFFFFFFFFFFF
310
FFFFFFFFFFFFFFFFFFFFFFFFFFFFFFFFFFFFFFFFFFFFFFFFFFFFFFFFFFFFFFFF
310
FFFFFFFFFFFFFFFFFFFFFFFFFFFFFFFFFFFFFFFFFFFFFFFFFFFFFFFFFFFFFFFF
310
FFFFFFFFFFFFFFFFFFFFFFFFFFFFFFFFF000FFFFFFFFFFFFFFFFFFFFFFFFFFFF
310
FFFFFFFFFFFFFFFFFFFFFFFFFFFFFFFFFFFFFFFFFFFFFFFFFFFFFFFFFFFFFFFF
310
FFFFFFFFFFFFFFFFFFFFFFFFFFFFFFFFFFFFFFFFFFFFFFFFFFFFFFFFFFFFFFFF
310
FFFFFFFFFFFFFFFFF000FFFFF80003FFFFFFFFFFFFFFFFFFFFFFFFFFFFFFFFFF
310
FFFFF00007FFFFFFFFFF00007FFFFFF800000000000000007FFFFFFFFFFFFFFF
310
FFFFFFFC001FFFFFFFFFFFFFFC001FFFFFFFFFFFFFFFFFFFFFFFFFFE0007FFFF
310
F000FFFF8000007FFFFFFFF8000FFFFFC0007FFFFF80007FFFFF0000007FFFFF
310
FFF8000007FFFFF800000000000000007FFFFFF0001FFFFFFFFFFFC00001FFFF
310
FFFFFFFFC00001FFFFFFFF000000000003FFFFE000007FFFF000FFFE0000000F
310
FFFFFFF0000FFFFF80007FFFFF80007FFFFC0000001FFFFFFFC0000001FFFFF8
310
00000000000000007FFFFFF0001FFFFFFFFFFE0000003FFFFFFFFFFE0000003F
310
FFFFFF000000000003FFFF0000000FFFF000FFF800000003FFFFFFF00007FFFF
310
80007FFFFF80007FFFF000000007FFFFFF000000003FFFF80000000000000000
310
7FFFFFF0001FFFFFFFFFF80000000FFFFFFFFFF80000000FFFFFFF0000000000
310
03FFFC00000003FFF000FFE000000000FFFFFFF00007FFFF80003FFFFF80007F
310
FFC000000001FFFFFC000000001FFFF800000000000000007FFFFFF0001FFFFF
310
FFFFE000000003FFFFFFFFE000000003FFFFFF000000000003FFF000000000FF
310
F000FF80000000007FFFFFF00007FFFF80003FFFFF80007FFF8000000000FFFF
310
F80000000007FFF800000000000000007FFFFFF0001FFFFFFFFFC000000001FF
310
FFFFFFC000000001FFFFFF000000000003FFC0000000007FF000FF0000000000
310
3FFFFFE00007FFFF00003FFFFF80007FFE00000000003FFFF00000000003FFF8
310
00000000000000007FFFFFF0001FFFFFFFFF8000000000FFFFFFFF8000000000
310
FFFFFF000000000003FF80000000003FF000FE00000000001FFFFFE00003FFFF
310
00003FFFFF80007FFC00000000001FFFE00000000001FFF8000001FFFE000000
310
7FFFFFF0001FFFFFFFFE00000000003FFFFFFE00000000003FFFFF0000000000
310
03FF00000000001FF000FC00000000000FFFFFE00003FFFF00001FFFFF80007F
310
F800000000001FFFC00000000000FFF8000001FFFE0000007FFFFFF0001FFFFF
310
FFFC00000000001FFFFFFC00000000001FFFFF000000000003FE00000000000F
310
F000F8000000000007FFFFE00003FFFF00001FFFFF80007FF800000000000FFF
310
800000000000FFF8000001FFFE0000007FFFFFF0001FFFFFFFF800000000000F
310
FFFFF800000000000FFFFF000000000003FC000000000007F000F80000000000
310
03FFFFC00003FFFE00001FFFFF80007FF0000000000007FF0000000000007FF8
310
000001FFFE0000007FFFFFF0001FFFFFFFF0000000000007FFFFF00000000000
310
07FFFF000000000003F8000000000003F000F0000000000003FFFFC00001FFFE
310
00001FFFFF80007FE0000000000007FE0000000000003FF8000001FFFE000000
310
7FFFFFF0001FFFFFFFF0000000000007FFFFF0000000000007FFFF0000000000
310
03F800001F800003F000E00001FFF00001FFFFC00001FFFE00000FFFFF80007F
310
E00001FFE00003FE00001FFF00003FF8000001FFFE0000007FFFFFF0001FFFFF
310
FFE000003E000003FFFFE000003E000003FFFF000000000003F00001FFF80001
310
F000E00007FFFC0001FFFFC00001FFFE00000FFFFF80007FC0000FFFFC0003FC
310
0000FFFFC0001FF8000001FFFE0000007FFFFFF0001FFFFFFFC00003FFE00001
310
FFFFC00003FFE00001FFFF0001FFFFFFFFF00007FFFE0001F000E0000FFFFF00
310
00FFFF800001FFFC00000FFFFF80007FC0001FFFFE0001FC0001FFFFE0001FF8
310
000001FFFE0000007FFFFFF0001FFFFFFF80000FFFF80000FFFF80000FFFF800
310
00FFFF0003FFFFFFFFE0000FFFFF8000F000C0003FFFFF8000FFFF800000FFFC
310
000007FFFF80007F80003FFFFF0001FC0003FFFFF0001FF8000001FFFE000000
310
7FFFFFF0001FFFFFFF80003FFFFE0000FFFF80003FFFFE0000FFFF0003FFFFFF
310
FFE0003FFFFF8000F000C0003FFFFF8000FFFF800000FFFC000007FFFF80007F
310
80007FFFFF8001F80007FFFFF8000FF8000001FFFE0000007FFFFFF0001FFFFF
310
FF00007FFFFF00007FFF00007FFFFF00007FFF0003FFFFFFFFE0003FFFFFC000
310
F000C0007FFFFFC000FFFF000000FFFC000007FFFF80007F8000FFFFFF8000F8
310
000FFFFFF8000FF8000001FFFE0000007FFFFFF0001FFFFFFF0000FFFFFF8000
310
7FFF0000FFFFFF80007FFF0003FFFFFFFFC0007FFFFFC00070008000FFFFFFC0
310
00FFFF000000FFF8000007FFFF80007F8000FFFFFF8000F8000FFFFFF8000FF8
310
000001FFFE0000007FFFFFF0001FFFFFFE0001FFFFFFC0003FFE0001FFFFFFC0
310
003FFF0003FFFFFFFFC0007FFFFFE00070008000FFFFFFC0007FFF0000007FF8
310
000003FFFF80007F0001FFFFFF8000F8000FFFFFF8000FF8000001FFFE000000
310
7FFFFFF0001FFFFFFE0001FFFFFFC0003FFE0001FFFFFFC0003FFF0003FFFFFF
310
FFC000FFFFFFE00070008000FFFFFFC0007FFF0000007FF8000003FFFF80007F
310
0001FFFFFF8000F8001FFFFFF8000FF8000001FFFE0000007FFFFFF0001FFFFF
310
FE0003FFFFFFE0003FFE0003FFFFFFE0003FFF0003FFFFFFFFC000FFFFFFE000
310
70008000FFFFFFC0007FFE0000007FF8000003FFFF80007F0001FFFFFF8000F0
310
001FFFFFF8000FF8000001FFFE0000007FFFFFF0001FFFFFFC0003FFFFFFE000
310
1FFC0003FFFFFFE0001FFF0003FFFFFFFFC000FFFFFFC00070008000FFFFFF80
310
007FFE0000007FF0000003FFFF80007F0001FFFFFF0000F0001FFFFFF8000FF8
310
000001FFFE0000007FFFFFF0001FFFFFFC0007FFFFFFF0001FFC0007FFFFFFF0
310
001FFF0003FFFFFFFFC000FFFFFFC00070008001FFFFFF0000FFFE0000003FF0
310
000001FFFF80007F0001FFFFFF0000F8001FFFFFF0000FF8000001FFFE000000
310
7FFFFFF0001FFFFFFC0007FFFFFFF0001FFC0007FFFFFFF0001FFF0003FFFFFF
310
FFC001FFFFFF80007000FFFFFFFFFE0000FFFE0008003FF0008001FFFF80007F
310
FFFFFFFFFC0000FFFFFFFFFFE0000FF8000001FFFE0000007FFFFFF0001FFFFF
310
F8000FFFFFFFF8000FF8000FFFFFFFF8000FFF0003FFFFFFFFFFFFFFFFFF0000
310
7000FFFFFFFFFC0000FFFC0008003FF0008001FFFF80007FFFFFFFFFF80001FF
310
FFFFFFFF80000FF8000001FFFE0000007FFFFFF0001FFFFFF8000FFFFFFFF800
310
0FF8000FFFFFFFF8000FFF0003FFFFFFFFFFFFFFFFFE0000F000FFFFFFFFE000
310
00FFFC000C003FE000C001FFFF80007FFFFFFFFFC00001FFFFFFFFFE00001FF8
310
000001FFFE0000007FFFFFF0001FFFFFF8000FFFFFFFF8000FF8000FFFFFFFF8
310
000FFF0003FFFFFFFFFFFFFFFFF00000F000FFFFFFFE000001FFFC000C001FE0
310
00C000FFFF80007FFFFFFFFE000001FFFFFFFFE000001FF80FFFFFFFFFFFFFC0
310
7FFFFFF0001FFFFFF8000FFFFFFFF8000FF8000FFFFFFFF8000FFF0003FFFFFF
310
FFFFFFFFFF800000F000FFFFFFC0000001FFFC001C001FE001C000FFFF80007F
310
FFFFFF80000003FFFFFFF80000001FF80FFFFFFFFFFFFFC07FFFFFF0001FFFFF
310
F8001FFFFFFFFC000FF8001FFFFFFFFC000FFF0003FFFFFFFFFFFFFFF0000001
310
F000FFFFF800000001FFF8001C001FE001C000FFFF80007FFFFFF800000003FF
310
FFFF800000003FF80FFFFFFFFFFFFFC07FFFFFF0001FFFFFF8001FFFFFFFFC00
310
0FF8001FFFFFFFFC000FFF0003FFFFFFFFFFFFFE00000001F000FFFFC0000000
310
03FFF8001E001FC001E000FFFF80007FFFFF8000000007FFFFFC000000003FF8
310
0FFFFFFFFFFFFFC07FFFFFF0001FFFFFF8001FFFFFFFFC000FF8001FFFFFFFFC
310
000FFF0003FFFFFFFFFFFFE000000003F000FFFE0000000007FFF8001E000FC0
310
01E0007FFF80007FFFFE0000000007FFFFE0000000007FF80FFFFFFFFFFFFFC0
310
7FFFFFF0001FFFFFF0001FFFFFFFFC0007F0001FFFFFFFFC0007FF0003FFFFFF
310
FFFFFF0000000003F000FFF80000000007FFF8001E000FC003E0007FFF80007F
310
FFF0000000000FFFFF8000000000FFF80FFFFFFFFFFFFFC07FFFFFF0001FFFFF
310
F0001FFFFFFFFC0007F0001FFFFFFFFC0007FF0003FFFFFFFFFFFC0000000007
310
F000FFE0000000000FFFF0003E000FC003E0007FFF80007FFFC0000000001FFF
310
FE0000000001FFF80FFFFFFFFFFFFFC07FFFFFF0001FFFFFF0001FFFFFFFFC00
310
07F0001FFFFFFFFC0007FF0003FFFFFFFFFFF0000000000FF000FFC000000000
310
1FFFF0003F000F8003F0003FFF80007FFF80000000003FFFF80000000003FFF8
310
0FFFFFFFFFFFFFC07FFFFFF0001FFFFFF0001FFFFFFFFC0007F0001FFFFFFFFC
310
0007FF0003FFFFFFFFFFE0000000001FF000FF00000000007FFFF0003F000780
310
03F0003FFF80007FFF00000000007FFFF00000000007FFF80FFFFFFFFFFFFFC0
310
7FFFFFF0001FFFFFF0001FFFFFFFFC0007F0001FFFFFFFFC0007FF0003FFFFFF
310
FFFF80000000007FF000FE0000000000FFFFE0003F00078007F0003FFF80007F
310
FE0000000001FFFFE0000000001FFFF80FFFFFFFFFFFFFC07FFFFFF0001FFFFF
310
F0001FFFFFFFFC0007F0001FFFFFFFFC0007FF0003FFFFFFFFFF0000000000FF
310
F000FC0000000003FFFFE0007F00078007F0003FFF80007FFC0000000007FFFF
310
C0000000007FFFF80FFFFFFFFFFFFFC07FFFFFF0001FFFFFF8001FFFFFFFFC00
310
0FF8001FFFFFFFFC000FFF0003FFFFFFFFFE0000000003FFF000FC000000000F
310
FFFFE0007F80070007F8001FFF80007FF8000000001FFFFF8000000001FFFFF8
310
0FFFFFFFFFFFFFC07FFFFFF0001FFFFFF8001FFFFFFFFC000FF8001FFFFFFFFC
310
000FFF0003FFFFFFFFFC000000000FFFF000F8000000007FFFFFE0007F800700
310
07F8001FFF80007FF000000000FFFFFF800000000FFFFFF80FFFFFFFFFFFFFC0
310
7FFFFFF0001FFFFFF8000FFFFFFFF8000FF8000FFFFFFFF8000FFF0003FFFFFF
310
FFFC000000007FFFF000F800000007FFFFFFC0007F8003000FF8001FFF80007F
310
F000000007FFFFFF000000007FFFFFF80FFFFFFFFFFFFFC07FFFFFF0001FFFFF
310
F8000FFFFFFFF8000FF8000FFFFFFFF8000FFF0003FFFFFFFFF80000000FFFFF
310
F000F0000000FFFFFFFFC000FF8003000FF8001FFF80007FE0000000FFFFFFFF
310
0000000FFFFFFFF8000001FFFE0000007FFFFFF0001FFFFFF8000FFFFFFFF800
310
0FF8000FFFFFFFF8000FFF0003FFFFFFFFF8000000FFFFFFF000F000000FFFFF
310
FFFFC000FFC002000FF8000FFF80007FE000001FFFFFFFFE000001FFFFFFFFF8
310
000001FFFE0000007FFFFFF0001FFFFFF8000FFFFFFFF8000FF8000FFFFFFFF8
310
000FFF0003FFFFFFFFF000001FFFFFFFF000E00000FFFFFFFFFFC000FFC00200
310
0FFC000FFF80007FE00001FFFFFFFFFE00001FFFFFFFFFF8000001FFFE000000
310
7FFFFFF0001FFFFFFC000FFFFFFFF8001FFC000FFFFFFFF8001FFF0003FFFFFF
310
FFF00001FFFFFFFFF000E00007FFFFFFFFFF8000FFC000001FFC000FFF80007F
310
C0000FFFFFFFFFFE0000FFFFFFFFFFF8000001FFFE0000007FFFFFF0001FFFFF
310
FC0007FFFFFFF0001FFC0007FFFFFFF0001FFF0003FFFFFFFFF00007FFFFFFFF
310
F000E0001FFFFFFFFFFF8000FFC000001FFC000FFF80007FC0003FFFFFFFFFFE
310
0001FFFFFFFFFFF8000001FFFE0000007FFFFFF0001FFFFFFC0007FFFFFFF000
310
1FFC0007FFFFFFF0001FFF0003FFFFFFFFF0001FFFFFFFFFF000E0003FFFFF00
310
03FF8001FFE000001FFC0007FF80007FC0007FFFFF0007FC0003FFFFF0003FF8
310
000001FFFE0000007FFFFFF0001FFFFFFC0003FFFFFFE0001FFC0003FFFFFFE0
310
001FFF0003FFFFFFFFF0003FFFFFFFFFF000E0003FFFFF0001FF8001FFE00000
310
1FFE0007FF80007FC0007FFFFE0003FC0007FFFFE0003FF8000001FFFE000000
310
7FFFFFF0001FFFFFFE0003FFFFFFE0003FFE0003FFFFFFE0003FFF0003FFFFFF
310
FFF0003FFFFF8001F000E0003FFFFF0001FF0001FFE000001FFE0007FF80007F
310
C0007FFFFE0003FC0007FFFFE0003FF8000001FFFE0000007FFFFFF0001FFFFF
310
FE0001FFFFFFC0003FFE0001FFFFFFC0003FFF0003FFFFFFFFF0003FFFFF0001
310
F000E0003FFFFF0003FF0001FFE000003FFE0007FF80007FC0007FFFFE0003FC
310
0007FFFFE0003FF8000001FFFE0000007FFFFFF0001FFFFFFF0001FFFFFFC000
310
7FFF0001FFFFFFC0007FFF0003FFFFFFFFF0003FFFFF0001F000E0003FFFFE00
310
03FF0003FFF000003FFE0003FF80007FC0007FFFFC0003FE0007FFFFE0003FF8
310
000001FFFE0000007FFFFFF0001FFFFFFF0000FFFFFF80007FFF0000FFFFFF80
310
007FFF0003FFFFFFFFF0003FFFFF0001F000E0003FFFFE0003FF0003FFF00000
310
3FFF0003FF80007FC0007FFFFC0007FE0007FFFFC0003FF8000001FFFE000000
310
7FFFFFF0001FFFFFFF80007FFFFF0000FFFF80007FFFFF0000FFFF0003FFFFFF
310
FFF0003FFFFF0003F000E0003FFFFC0003FE0003FFF000003FFF0003FF80007F
310
E0003FFFF80007FE0003FFFFC0007FF8000001FFFE0000007FFFFFF0001FFFFF
310
FF80003FFFFE0000FFFF80003FFFFE0000FFFF0003FFFFFFFFF0001FFFFE0003
310
F000F0001FFFF80003FE0003FFF000007FFF0001FF80007FE0003FFFF00007FE
310
0001FFFF80007FF8000001FFFE0000007FFFFFF0001FFFFFFFC0000FFFF80001
310
FFFFC0000FFFF80001FFFF0003FFFFFFFFF0001FFFFC0003F000F0000FFFF000
310
07FE0007FFF800007FFF0001FF80007FE0001FFFE00007FF0000FFFE00007FF8
310
000001FFFE0000007FFFFFF0001FFFFFFFC00003FFE00001FFFFC00003FFE000
310
01FFFF0003FFFFFFFFF8000FFFF80003F000F00003FFC00007FC0007FFF80000
310
7FFF8001FF80007FF00007FF80000FFF00007FF80000FFF8000001FFFE000000
310
7F80000000000001FFE000003E000003FFFFE000003E000003FFFF0003FFFFFF
310
FFF80003FFE00007F000F800000000000FFC0007FFF800007FFF8001FF80007F
310
F000000000000FFF000000000000FFF8000001FFFE0000007F80000000000001
310
FFF0000000000007FFFFF0000000000007FFFF0003FFFFFFFFFC00007E000007
310
F000F800000000000FFC0007FFF80000FFFF8000FF80007FF800000000001FFF
310
800000000001FFF8000001FFFE0000007F80000000000001FFF800000000000F
310
FFFFF800000000000FFFFF0003FFFFFFFFFC00000000000FF000FC0000000000
310
1FFC0007FFFC0000FFFF8000FF80007FF800000000003FFFC00000000001FFF8
310
000001FFFE0000007F80000000000001FFF800000000000FFFFFF80000000000
310
0FFFFF0003FFFFFFFFFE00000000001FF000FE00000000003FF8000FFFFC0000
310
FFFF8000FF80007FFC00000000003FFFC00000000003FFF8000001FFFE000000
310
7F80000000000001FFFC00000000001FFFFFFC00000000001FFFFF0003FFFFFF
310
FFFF00000000001FF000FF00000000003FF8000FFFFC0000FFFFC000FF80007F
310
FE00000000007FFFE00000000007FFF8000001FFFE0000007F80000000000001
310
FFFE00000000003FFFFFFE00000000003FFFFF0003FFFFFFFFFF80000000003F
310
F000FF80000000007FF8000FFFFC0001FFFFC0007F80007FFF0000000000FFFF
310
F0000000000FFFF800000000000000007F80000000000001FFFF8000000000FF
310
FFFFFF8000000000FFFFFF0003FFFFFFFFFFC0000000007FF000FFC000000000
310
FFF8000FFFFE0001FFFFC0007F80007FFF8000000001FFFFF8000000001FFFF8
310
00000000000000007F80000000000001FFFFC000000001FFFFFFFFC000000001
310
FFFFFF0003FFFFFFFFFFE000000000FFF000FFE000000003FFF0001FFFFE0001
310
FFFFC0007F80007FFFC000000007FFFFFE000000003FFFF80000000000000000
310
7F80000000000001FFFFE000000003FFFFFFFFE000000003FFFFFF0003FFFFFF
310
FFFFF000000003FFF000FFF80000000FFFF0001FFFFE0001FFFFE0007F80007F
310
FFF00000000FFFFFFF00000000FFFFF800000000000000007F80000000000001
310
FFFFF80000000FFFFFFFFFF80000000FFFFFFF0003FFFFFFFFFFFC0000000FFF
310
F000FFFE0000003FFFF0001FFFFE0003FFFFE0003F80007FFFFC0000003FFFFF
310
FFC0000003FFFFF800000000000000007F80000000000001FFFFFE0000003FFF
310
FFFFFFFE0000003FFFFFFF0003FFFFFFFFFFFF0000003FFFF000FFFF800000FF
310
FFF0001FFFFF0003FFFFE0003F80007FFFFF000001FFFFFFFFF800001FFFFFF8
310
00000000000000007F80000000000001FFFFFFC00001FFFFFFFFFFFFC00001FF
310
FFFFFF0003FFFFFFFFFFFFC00000FFFFF000FFFFF8000FFFFFFFFFFFFFFFFFFF
310
FFFFFFFFFFFFFFFFFFFFF0001FFFFFFFFFFF0000FFFFFFF80000000000000000
310
7FFFFFFFFFFFFFFFFFFFFFFC001FFFFFFFFFFFFFFC001FFFFFFFFFFFFFFFFFFF
310
FFFFFFFC001FFFFFF000FFFFFFFFFFFFFFFFFFFFFFFFFFFFFFFFFFFFFFFFFFFF
310
FFFFFFFFFFFFFFFFFFFFFFFFFFFFFFFFFFFFFFFFFFFFFFFFFFFFFFFFFFFFFFFF
310
FFFFFFFFFFFFFFFFFFFFFFFFFFFFFFFFFFFFFFFFFFFFFFFFFFFFFFFFFFFFFFFF
310
F000FFFFFFFFFFFFFFFFFFFFFFFFFFFFFFFFFFFFFFFFFFFFFFFFFFFFFFFFFFFF
310
FFFFFFFFFFFFFFFFFFFFFFFFFFFFFFFFFFFFFFFFFFFFFFFFFFFFFFFFFFFFFFFF
310
FFFFFFFFFFFFFFFFFFFFFFFFFFFFFFFFFFFFFFFFFFFFFFFFF000FFFFFFFFFFFF
310
FFFFFFFFFFFFFFFFFFFFFFFFFFFFFFFFFFFFFFFFFFFFFFFFFFFFFFFFFFFFFFFF
310
FFFFFFFFFFFFFFFFFFFFFFFFFFFFFFFFFFFFFFFFFFFFFFFFFFFFFFFFFFFFFFFF
310
FFFFFFFFFFFFFFFFFFFFFFFFFFFFFFFFF000FFFFFFFFFFFFFFFFFFFFFFFFFFFF
310
FFFFFFFFFFFFFFFFFFFFFFFFFFFFFFFFFFFFFFFFFFFFFFFFFFFFFFFFFFFFFFFF
310
FFFFFFFFFFFFFFFFFFFFFFFFFFFFFFFFFFFFFFFFFFFFFFFFFFFFFFFFFFFFFFFF
310
FFFFFFFFFFFFFFFFF000FFFFFFFFFFFFFFFFFFFFFFFFFFFFFFFFFFFFFFFFFFFF
310
FFFFFFFFFFFFFFFFFFFFFFFFFFFFFFFFFFFFFFFFFFFFFFFFFFFFFFFFFFFFFFFF
310
FFFFFFFFFFFFFFFFFFFFFFFFFFFFFFFFFFFFFFFFFFFFFFFFFFFFFFFFFFFFFFFF
310
F000FFFFFFFFFFFFFFFFFFFFFFFFFFFFFFFFFFFFFFFFFFFFFFFFFFFFFFFFFFFF
310
FFFFFFFFFFFFFFFFFFFFFFFFFFFFFFFFFFFFFFFFFFFFFFFFFFFFFFFFFFFFFFFF
310
FFFFFFFFFFFFFFFFFFFFFFFFFFFFFFFFFFFFFFFFFFFFFFFFF000FFFFFFFFFFFF
310
FFFFFFFFFFFFFFFFFFFFFFFFFFFFFFFFFFFFFFFFFFFFFFFFFFFFFFFFFFFFFFFF
310
FFFFFFFFFFFFFFFFFFFFFFFFFFFFFFFFFFFFFFFFFFFFFFFFFFFFFFFFFFFFFFFF
310
FFFFFFFFFFFFFFFFFFFFFFFFFFFFFFFFF000FFFFFFFFFFFFFFFFFFFFFFFFFFFF
310
FFFFFFFFFFFFFFFFFFFFFFFFFFFFFFFFFFFFFFFFFFFFFFFFFFFFFFFFFFFFFFFF
310
FFFFFFFFFFFFFFFFFFFFFFFFFFFFFFFFFFFFFFFFFFFFFFFFFFFFFFFFFFFFFFFF
310
FFFFFFFFFFFFFFFFF000FFFFFFFFFFFFFFFFFFFFFFFFFFFFFFFFFFFFFFFFFFFF
310
FFFFFFFFFFFFFFFFFFFFFFFFFFFFFFFFFFFFFFFFFFFFFFFFFFFFFFFFFFFFFFFF
310
FFFFFFFFFFFFFFFFFFFFFFFFFFFFFFFFFFFFFFFFFFFFFFFFFFFFFFFFFFFFFFFF
310
F000FFFFFFFFFFFFFFFFFFFFFFFFFFFFFFFFFFFFFFFFFFFFFFFFFFFFFFFFFFFF
310
FFFFFFFFFFFFFFFFFFFFFFFFFFFFFFFFFFFFFFFFFFFFFFFFFFFFFFFFFFFFFFFF
310
FFFFFFFFFFFFFFFFFFFFFFFFFFFFFFFFFFFFFFFFFFFFFFFFF000FFFFFFFFFFFF
310
FFFFFFFFFFFFFFFFFFFFFFFFFFFFFFFFFFFFFFFFFFFFFFFFFFFFFFFFFFFFFFFF
310
FFFFFFFFFFFFFFFFFFFFFFFFFFFFFFFFFFFFFFFFFFFFFFFFFFFFFFFFFFFFFFFF
310
FFFFFFFFFFFFFFFFFFFFFFFFFFFFFFFFF000FFFFFFFFFFFFFFFFFFFFFFFFFFFF
310
FFFFFFFFFFFFFFFFFFFFFFFFFFFFFFFFFFFFFFFFFFFFFFFFFFFFFFFFFFFFFFFF
310
FFFFFFFFFFFFFFFFFFFFFFFFFFFFFFFFFFFFFFFFFFFFFFFFFFFFFFFFFFFFFFFF
310
FFFFFFFFFFFFFFFFF000FFFFFFFFFFFFFFFFFFFFFFFFFFFFFFFFFFFFFFFFFFFF
310
FFFFFFFFFFFFFFFFFFFFFFFFFFFFFFFFFFFFFFFFFFFFFFFFFFFFFFFFFFFFFFFF
310
FFFFFFFFFFFFFFFFFFFFFFFFFFFFFFFFFFFFFFFFFFFFFFFFFFFFFFFFFFFFFFFF
310
F000FFFFFFFFFFFFFFFFFFFFFFFFFFFFFFFFFFFFFFFFFFFFFFFFFFFFFFFFFFFF
310
FFFFFFFFFFFFFFFFFFFFFFFFFFFFFFFFFFFFFFFFFFFFFFFFFFFFFFFFFFFFFFFF
310
FFFFFFFFFFFFFFFFFFFFFFFFFFFFFFFFFFFFFFFFFFFFFFFFF000FFFFFFFFFFFF
310
FFFFFFFFFFFFFFFFFFFFFFFFFFFFFFFFFFFFFFFFFFFFFFFFFFFFFFFFFFFFFFFF
310
FFFFFFFFFFFFFFFFFFFFFFFFFFFFFFFFFFFFFFFFFFFFFFFFFFFFFFFFFFFFFFFF
310
FFFFFFFFFFFFFFFFFFFFFFFFFFFFFFFFF000FFFFFFFFFFFFFFFFFFFFFFFFFFFF
310
FFFFFFFFFFFFFFFFFFFFFFFFFFFFFFFFFFFFFFFFFFFFFFFFFFFFFFFFFFFFFFFF
310
FFFFFFFFFFFFFFFFFFFFFFFFFFFFFFFFFFFFFFFFFFFFFFFFFFFFFFFFFFFFFFFF
310
FFFFFFFFFFFFFFFFF000FFFFFFFFFFFFFFFFFFFFFFFFFFFFFFFFFFFFFFFFFFFF
310
FFFFFFFFFFFFFFFFFFFFFFFFFFFFFFFFFFFFFFFFFFFFFFFFFFFFFFFFFFFFFFFF
310
FFFFFFFFFFFFFFFFFFFFFFFFFFFFFFFFFFFFFFFFFFFFFFFFFFFFFFFFFFFFFFFF
310
F000FFFFFFFFFFFFFFFFFFFFFFFFFFFFFFFFFFFFFFFFFFFFFFFFFFFFFFFFFFFF
310
FFFFFFFFFFFFFFFFFFFFFFFFFFFFFFFFFFFFFFFFFFFFFFFFFFFFFFFFFFFFFFFF
310
FFFFFFFFFFFFFFFFFFFFFFFFFFFFFFFFFFFFFFFFFFFFFFFFF000FFFFFFFFFFFF
310
FFFFFFFFFFFFFFFFFFFFFFFFFFFFFFFFFFFFFFFFFFFFFFFFFFFFFFFFFFFFFFFF
310
FFFFFFFFFFFFFFFFFFFFFFFFFFFFFFFFFFFFFFFFFFFFFFFFFFFFFFFFFFFFFFFF
310
FFFFFFFFFFFFFFFFFFFFFFFFFFFFFFFFF000FFFFFFFFFFFFFFFFFFFFFFFFFFFF
310
FFFFFFFFFFFFFFFFFFFFFFFFFFFFFFFFFFFFFFFFFFFFFFFFFFFFFFFFFFFFFFFF
310
FFFFFFFFFFFFFFFFFFFFFFFFFFFFFFFFFFFFFFFFFFFFFFFFFFFFFFFFFFFFFFFF
310
FFFFFFFFFFFFFFFFF000FFFFFFFFFFFFFFFFFFFFFFFFFFFFFFFFFFFFFFFFFFFF
310
FFFFFFFFFFFFFFFFFFFFFFFFFFFFFFFFFFFFFFFFFFFFFFFFFFFFFFFFFFFFFFFF
310
FFFFFFFFFFFFFFFFFFFFFFFFFFFFFFFFFFFFFFFFFFFFFFFFFFFFFFFFFFFFFFFF
310
F000FFFFFFFFFFFFFFFFFFFFFFFFFFFFFFFFFFFFFFFFFFFFFFFFFFFFFFFFFFFF
310
FFFFFFFFFFFFFFFFFFFFFFFFFFFFFFFFFFFFFFFFFFFFFFFFFFFFFFFFFFFFFFFF
310
FFFFFFFFFFFFFFFFFFFFFFFFFFFFFFFFFFFFFFFFFFFFFFFFF000FFFFFFFFFFFF
310
FFFFFFFFFFFFFFFFFFFFFFFFFFFFFFFFFFFFFFFFFFFFFFFFFFFFFFFFFFFFFFFF
310
FFFFFFFFFFFFFFFFFFFFFFFFFFFFFFFFFFFFFFFFFFFFFFFFFFFFFFFFFFFFFFFF
310
FFFFFFFFFFFFFFFFFFFFFFFFFFFFFFFFF0000000000000000000000000000000
310
0000000000000000000000000000000000000000000000000000000000000000
310
0000000000000000000000000000000000000000000000000000000000000000
310
0000000000000000000000000000000000000000000000000000000000000000
310
0000000000000000000000000000000000000000000000000000000000000000
310
0000000000000000000000000000000000000000000000000000000000000000
310
0000000000000000000000000000000000000000000000000000000000000000
310
0000000000000000000000000000000000000000000000000000000000000000
310
0000000000000000000000000000000000000000000000000000000000000000
310
0000000000000000000000000000000000000000000000000000000000000000
310
0000000000000000000000000000000000000000000000000000000000000000
310
0000000000000000000000000000000000000000000000000000000000000000
310
0000000000000000000000000000000000000000000000000000000000000000
310
0000000000000000000000000000000000000000000000000000000000000000
310
0000000000000000000000000000000000000000000000000000000000000000
310
0000000000000000000000000000000000000000000000000000000000000000
  1
OLE
  0
ENDSEC
  0
SECTION
  2
OBJECTS
  0
DICTIONARY
  5
C
330
0
100
AcDbDictionary
281
     1
  3
ACAD_GROUP
350
D
  3
ACAD_LAYOUT
350
1A
  3
ACAD_MLINESTYLE
350
17
  3
ACAD_PLOTSETTINGS
350
19
  3
ACAD_PLOTSTYLENAME
350
E
  3
ACAD_SCALELIST
350
47
  0
DICTIONARY
  5
D
102
{ACAD_REACTORS
330
C
102
}
330
C
100
AcDbDictionary
281
     1
  0
DICTIONARY
  5
1A
102
{ACAD_REACTORS
330
C
102
}
330
C
100
AcDbDictionary
281
     1
  3
Layout1
350
1E
  3
Layout2
350
26
  3
Model
350
22
  0
DICTIONARY
  5
17
102
{ACAD_REACTORS
330
C
102
}
330
C
100
AcDbDictionary
281
     1
  3
Standard
350
18
  0
DICTIONARY
  5
19
102
{ACAD_REACTORS
330
C
102
}
330
C
100
AcDbDictionary
281
     1
  0
ACDBDICTIONARYWDFLT
  5
E
102
{ACAD_REACTORS
330
C
102
}
330
C
100
AcDbDictionary
281
     1
  3
Normal
350
F
100
AcDbDictionaryWithDefault
340
F
  0
DICTIONARY
  5
47
102
{ACAD_REACTORS
330
C
102
}
330
C
100
AcDbDictionary
281
     1
  3
A0
350
48
  3
A1
350
49
  3
A2
350
4A
  3
A3
350
4B
  3
A4
350
4C
  3
A5
350
4D
  3
A6
350
4E
  3
A7
350
4F
  3
A8
350
50
  3
A9
350
51
  3
B0
350
52
  3
B1
350
53
  3
B2
350
54
  3
B3
350
55
  3
B4
350
56
  3
B5
350
57
  3
B6
350
58
  3
B7
350
59
  3
B8
350
5A
  3
B9
350
5B
  3
C0
350
5C
  3
C1
350
5D
  3
C2
350
5E
  3
C3
350
5F
  3
C4
350
60
  3
C5
350
61
  3
C6
350
62
  3
C7
350
63
  3
C8
350
64
  3
C9
350
65
  3
D0
350
66
  3
D1
350
67
  3
D2
350
68
  0
LAYOUT
  5
1E
102
{ACAD_REACTORS
330
1A
102
}
330
1A
100
AcDbPlotSettings
  1

  2
none_device
  4

  6

 40
0.0
 41
0.0
 42
0.0
 43
0.0
 44
0.0
 45
0.0
 46
0.0
 47
0.0
 48
0.0
 49
0.0
140
0.0
141
0.0
142
1.0
143
1.0
 70
   688
 72
     1
 73
     0
 74
     5
  7

 75
    16
147
1.0
148
0.0
149
0.0
100
AcDbLayout
  1
Layout1
 70
     1
 71
     1
 10
0.0
 20
0.0
 11
420.0
 21
297.0
 12
0.0
 22
0.0
 32
0.0
 14
1.0000000000E+20
 24
1.0000000000E+20
 34
1.0000000000E+20
 15
-1.0000000000E+20
 25
-1.0000000000E+20
 35
-1.0000000000E+20
146
0.0
 13
0.0
 23
0.0
 33
0.0
 16
1.0
 26
0.0
 36
0.0
 17
0.0
 27
1.0
 37
0.0
 76
     0
330
1B
  0
LAYOUT
  5
26
102
{ACAD_REACTORS
330
1A
102
}
330
1A
100
AcDbPlotSettings
  1

  2
none_device
  4

  6

 40
0.0
 41
0.0
 42
0.0
 43
0.0
 44
0.0
 45
0.0
 46
0.0
 47
0.0
 48
0.0
 49
0.0
140
0.0
141
0.0
142
1.0
143
1.0
 70
   688
 72
     1
 73
     0
 74
     5
  7

 75
    16
147
1.0
148
0.0
149
0.0
100
AcDbLayout
  1
Layout2
 70
     1
 71
     2
 10
0.0
 20
0.0
 11
0.0
 21
0.0
 12
0.0
 22
0.0
 32
0.0
 14
0.0
 24
0.0
 34
0.0
 15
0.0
 25
0.0
 35
0.0
146
0.0
 13
0.0
 23
0.0
 33
0.0
 16
1.0
 26
0.0
 36
0.0
 17
0.0
 27
1.0
 37
0.0
 76
     0
330
23
  0
LAYOUT
  5
22
102
{ACAD_REACTORS
330
1A
102
}
330
1A
100
AcDbPlotSettings
  1

  2
none_device
  4
Letter_(8.50_x_11.00_Inches)
  6

 40
6.35
 41
6.35
 42
6.35000508
 43
6.35000508
 44
215.9
 45
279.4
 46
0.0
 47
0.0
 48
0.0
 49
0.0
140
0.0
141
0.0
142
1.0
143
1.0
 70
  1712
 72
     1
 73
     0
 74
     0
  7

 75
     0
147
1.0
148
0.0
149
0.0
100
AcDbLayout
  1
Model
 70
     1
 71
     0
 10
0.0
 20
0.0
 11
297.0
 21
210.0
 12
0.0
 22
0.0
 32
0.0
 14
0.0
 24
0.0
 34
0.0
 15
297.0
 25
210.0
 35
0.0
146
0.0
 13
0.0
 23
0.0
 33
0.0
 16
1.0
 26
0.0
 36
0.0
 17
0.0
 27
1.0
 37
0.0
 76
     0
330
1F
331
29
  0
MLINESTYLE
  5
18
102
{ACAD_REACTORS
330
17
102
}
330
17
100
AcDbMlineStyle
  2
Standard
 70
     0
  3

 62
   256
 51
90.0
 52
90.0
 71
     2
 49
0.5
 62
   256
  6
BYLAYER
 49
-0.5
 62
   256
  6
BYLAYER
  0
ACDBPLACEHOLDER
  5
F
102
{ACAD_REACTORS
330
E
102
}
330
E
  0
SCALE
  5
48
102
{ACAD_REACTORS
330
47
102
}
330
47
100
AcDbScale
 70
     0
300
1:1
140
1.0
141
1.0
290
     1
  0
SCALE
  5
49
102
{ACAD_REACTORS
330
47
102
}
330
47
100
AcDbScale
 70
     0
300
1:2
140
1.0
141
2.0
290
     0
  0
SCALE
  5
4A
102
{ACAD_REACTORS
330
47
102
}
330
47
100
AcDbScale
 70
     0
300
1:4
140
1.0
141
4.0
290
     0
  0
SCALE
  5
4B
102
{ACAD_REACTORS
330
47
102
}
330
47
100
AcDbScale
 70
     0
300
1:5
140
1.0
141
5.0
290
     0
  0
SCALE
  5
4C
102
{ACAD_REACTORS
330
47
102
}
330
47
100
AcDbScale
 70
     0
300
1:8
140
1.0
141
8.0
290
     0
  0
SCALE
  5
4D
102
{ACAD_REACTORS
330
47
102
}
330
47
100
AcDbScale
 70
     0
300
1:10
140
1.0
141
10.0
290
     0
  0
SCALE
  5
4E
102
{ACAD_REACTORS
330
47
102
}
330
47
100
AcDbScale
 70
     0
300
1:16
140
1.0
141
16.0
290
     0
  0
SCALE
  5
4F
102
{ACAD_REACTORS
330
47
102
}
330
47
100
AcDbScale
 70
     0
300
1:20
140
1.0
141
20.0
290
     0
  0
SCALE
  5
50
102
{ACAD_REACTORS
330
47
102
}
330
47
100
AcDbScale
 70
     0
300
1:30
140
1.0
141
30.0
290
     0
  0
SCALE
  5
51
102
{ACAD_REACTORS
330
47
102
}
330
47
100
AcDbScale
 70
     0
300
1:40
140
1.0
141
40.0
290
     0
  0
SCALE
  5
52
102
{ACAD_REACTORS
330
47
102
}
330
47
100
AcDbScale
 70
     0
300
1:50
140
1.0
141
50.0
290
     0
  0
SCALE
  5
53
102
{ACAD_REACTORS
330
47
102
}
330
47
100
AcDbScale
 70
     0
300
1:100
140
1.0
141
100.0
290
     0
  0
SCALE
  5
54
102
{ACAD_REACTORS
330
47
102
}
330
47
100
AcDbScale
 70
     0
300
2:1
140
2.0
141
1.0
290
     0
  0
SCALE
  5
55
102
{ACAD_REACTORS
330
47
102
}
330
47
100
AcDbScale
 70
     0
300
4:1
140
4.0
141
1.0
290
     0
  0
SCALE
  5
56
102
{ACAD_REACTORS
330
47
102
}
330
47
100
AcDbScale
 70
     0
300
8:1
140
8.0
141
1.0
290
     0
  0
SCALE
  5
57
102
{ACAD_REACTORS
330
47
102
}
330
47
100
AcDbScale
 70
     0
300
10:1
140
10.0
141
1.0
290
     0
  0
SCALE
  5
58
102
{ACAD_REACTORS
330
47
102
}
330
47
100
AcDbScale
 70
     0
300
100:1
140
100.0
141
1.0
290
     0
  0
SCALE
  5
59
102
{ACAD_REACTORS
330
47
102
}
330
47
100
AcDbScale
 70
     0
300
1/128" = 1'-0"
140
0.0078125
141
12.0
290
     0
  0
SCALE
  5
5A
102
{ACAD_REACTORS
330
47
102
}
330
47
100
AcDbScale
 70
     0
300
1/64" = 1'-0"
140
0.015625
141
12.0
290
     0
  0
SCALE
  5
5B
102
{ACAD_REACTORS
330
47
102
}
330
47
100
AcDbScale
 70
     0
300
1/32" = 1'-0"
140
0.03125
141
12.0
290
     0
  0
SCALE
  5
5C
102
{ACAD_REACTORS
330
47
102
}
330
47
100
AcDbScale
 70
     0
300
1/16" = 1'-0"
140
0.0625
141
12.0
290
     0
  0
SCALE
  5
5D
102
{ACAD_REACTORS
330
47
102
}
330
47
100
AcDbScale
 70
     0
300
3/32" = 1'-0"
140
0.09375
141
12.0
290
     0
  0
SCALE
  5
5E
102
{ACAD_REACTORS
330
47
102
}
330
47
100
AcDbScale
 70
     0
300
1/8" = 1'-0"
140
0.125
141
12.0
290
     0
  0
SCALE
  5
5F
102
{ACAD_REACTORS
330
47
102
}
330
47
100
AcDbScale
 70
     0
300
3/16" = 1'-0"
140
0.1875
141
12.0
290
     0
  0
SCALE
  5
60
102
{ACAD_REACTORS
330
47
102
}
330
47
100
AcDbScale
 70
     0
300
1/4" = 1'-0"
140
0.25
141
12.0
290
     0
  0
SCALE
  5
61
102
{ACAD_REACTORS
330
47
102
}
330
47
100
AcDbScale
 70
     0
300
3/8" = 1'-0"
140
0.375
141
12.0
290
     0
  0
SCALE
  5
62
102
{ACAD_REACTORS
330
47
102
}
330
47
100
AcDbScale
 70
     0
300
1/2" = 1'-0"
140
0.5
141
12.0
290
     0
  0
SCALE
  5
63
102
{ACAD_REACTORS
330
47
102
}
330
47
100
AcDbScale
 70
     0
300
3/4" = 1'-0"
140
0.75
141
12.0
290
     0
  0
SCALE
  5
64
102
{ACAD_REACTORS
330
47
102
}
330
47
100
AcDbScale
 70
     0
300
1" = 1'-0"
140
1.0
141
12.0
290
     0
  0
SCALE
  5
65
102
{ACAD_REACTORS
330
47
102
}
330
47
100
AcDbScale
 70
     0
300
1-1/2" = 1'-0"
140
1.5
141
12.0
290
     0
  0
SCALE
  5
66
102
{ACAD_REACTORS
330
47
102
}
330
47
100
AcDbScale
 70
     0
300
3" = 1'-0"
140
3.0
141
12.0
290
     0
  0
SCALE
  5
67
102
{ACAD_REACTORS
330
47
102
}
330
47
100
AcDbScale
 70
     0
300
6" = 1'-0"
140
6.0
141
12.0
290
     0
  0
SCALE
  5
68
102
{ACAD_REACTORS
330
47
102
}
330
47
100
AcDbScale
 70
     0
300
1'-0" = 1'-0"
140
12.0
141
12.0
290
     0
  0
ENDSEC
  0
EOF
