  0
SECTION
  2
HEADER
  9
$ACADVER
  1
AC1015
  9
$ACADMAINTVER
 70
     6
  9
$DWGCODEPAGE
  3
ANSI_1252
  9
$INSBASE
 10
0.0
 20
0.0
 30
0.0
  9
$EXTMIN
 10
0.0
 20
0.0
 30
0.0
  9
$EXTMAX
 10
297.0
 20
210.0
 30
0.0
  9
$LIMMIN
 10
0.0
 20
0.0
  9
$LIMMAX
 10
297.0
 20
210.0
  9
$ORTHOMODE
 70
     0
  9
$REGENMODE
 70
     1
  9
$FILLMODE
 70
     1
  9
$QTEXTMODE
 70
     0
  9
$MIRRTEXT
 70
     1
  9
$LTSCALE
 40
1.0
  9
$ATTMODE
 70
     1
  9
$TEXTSIZE
 40
2.0
  9
$TRACEWID
 40
1.0
  9
$TEXTSTYLE
  7
Standard
  9
$CLAYER
  8
0
  9
$CELTYPE
  6
ByLayer
  9
$CECOLOR
 62
   256
  9
$CELTSCALE
 40
1.0
  9
$DISPSILH
 70
     0
  9
$DIMSCALE
 40
1.0
  9
$DIMASZ
 40
3.0
  9
$DIMEXO
 40
0.0
  9
$DIMDLI
 40
3.75
  9
$DIMRND
 40
0.0
  9
$DIMDLE
 40
0.0
  9
$DIMEXE
 40
1.0
  9
$DIMTP
 40
0.0
  9
$DIMTM
 40
0.0
  9
$DIMTXT
 40
2.0
  9
$DIMCEN
 40
2.5
  9
$DIMTSZ
 40
0.0
  9
$DIMTOL
 70
     0
  9
$DIMLIM
 70
     0
  9
$DIMTIH
 70
     1
  9
$DIMTOH
 70
     1
  9
$DIMSE1
 70
     0
  9
$DIMSE2
 70
     0
  9
$DIMTAD
 70
     1
  9
$DIMZIN
 70
     0
  9
$DIMBLK
  1

  9
$DIMASO
 70
     1
  9
$DIMSHO
 70
     1
  9
$DIMPOST
  1

  9
$DIMAPOST
  1

  9
$DIMALT
 70
     0
  9
$DIMALTD
 70
     3
  9
$DIMALTF
 40
0.0393700787
  9
$DIMLFAC
 40
1.0
  9
$DIMTOFL
 70
     1
  9
$DIMTVP
 40
0.0
  9
$DIMTIX
 70
     0
  9
$DIMSOXD
 70
     0
  9
$DIMSAH
 70
     0
  9
$DIMBLK1
  1

  9
$DIMBLK2
  1

  9
$DIMSTYLE
  2
ISO-25
  9
$DIMCLRD
 70
     0
  9
$DIMCLRE
 70
     0
  9
$DIMCLRT
 70
     0
  9
$DIMTFAC
 40
1.0
  9
$DIMGAP
 40
1.524
  9
$DIMJUST
 70
     0
  9
$DIMSD1
 70
     0
  9
$DIMSD2
 70
     0
  9
$DIMTOLJ
 70
     0
  9
$DIMTZIN
 70
     0
  9
$DIMALTZ
 70
     0
  9
$DIMALTTZ
 70
     0
  9
$DIMUPT
 70
     0
  9
$DIMDEC
 70
     2
  9
$DIMTDEC
 70
     3
  9
$DIMALTU
 70
     2
  9
$DIMALTTD
 70
     3
  9
$DIMTXSTY
  7
Standard
  9
$DIMAUNIT
 70
     0
  9
$DIMADEC
 70
     2
  9
$DIMALTRND
 40
0.0
  9
$DIMAZIN
 70
     0
  9
$DIMDSEP
 70
    44
  9
$DIMATFIT
 70
     3
  9
$DIMFRAC
 70
     0
  9
$DIMLDRBLK
  1

  9
$DIMLUNIT
 70
     2
  9
$DIMLWD
 70
    -2
  9
$DIMLWE
 70
    -2
  9
$DIMTMOVE
 70
     0
  9
$LUNITS
 70
     2
  9
$LUPREC
 70
     2
  9
$SKETCHINC
 40
1.0
  9
$FILLETRAD
 40
10.0
  9
$AUNITS
 70
     0
  9
$AUPREC
 70
     2
  9
$MENU
  1
.
  9
$ELEVATION
 40
0.0
  9
$PELEVATION
 40
0.0
  9
$THICKNESS
 40
0.0
  9
$LIMCHECK
 70
     0
  9
$CHAMFERA
 40
0.0
  9
$CHAMFERB
 40
0.0
  9
$CHAMFERC
 40
0.0
  9
$CHAMFERD
 40
0.0
  9
$SKPOLY
 70
     0
  9
$TDCREATE
 40
2458135.335767755
  9
$TDUCREATE
 40
2458135.294101088
  9
$TDUPDATE
 40
2458135.335769514
  9
$TDUUPDATE
 40
2458135.294102847
  9
$TDINDWG
 40
0.0000000116
  9
$TDUSRTIMER
 40
0.0000000116
  9
$USRTIMER
 70
     1
  9
$ANGBASE
 50
0.0
  9
$ANGDIR
 70
     0
  9
$PDMODE
 70
     0
  9
$PDSIZE
 40
-1.0
  9
$PLINEWID
 40
0.0
  9
$SPLFRAME
 70
     0
  9
$SPLINETYPE
 70
     6
  9
$SPLINESEGS
 70
     8
  9
$HANDSEED
  5
296
  9
$SURFTAB1
 70
     6
  9
$SURFTAB2
 70
     6
  9
$SURFTYPE
 70
     6
  9
$SURFU
 70
     6
  9
$SURFV
 70
     6
  9
$UCSBASE
  2

  9
$UCSNAME
  2

  9
$UCSORG
 10
0.0
 20
0.0
 30
0.0
  9
$UCSXDIR
 10
1.0
 20
0.0
 30
0.0
  9
$UCSYDIR
 10
0.0
 20
1.0
 30
0.0
  9
$UCSORTHOREF
  2

  9
$UCSORTHOVIEW
 70
     0
  9
$UCSORGTOP
 10
0.0
 20
0.0
 30
0.0
  9
$UCSORGBOTTOM
 10
0.0
 20
0.0
 30
0.0
  9
$UCSORGLEFT
 10
0.0
 20
0.0
 30
0.0
  9
$UCSORGRIGHT
 10
0.0
 20
0.0
 30
0.0
  9
$UCSORGFRONT
 10
0.0
 20
0.0
 30
0.0
  9
$UCSORGBACK
 10
0.0
 20
0.0
 30
0.0
  9
$PUCSBASE
  2

  9
$PUCSNAME
  2

  9
$PUCSORG
 10
0.0
 20
0.0
 30
0.0
  9
$PUCSXDIR
 10
1.0
 20
0.0
 30
0.0
  9
$PUCSYDIR
 10
0.0
 20
1.0
 30
0.0
  9
$PUCSORTHOREF
  2

  9
$PUCSORTHOVIEW
 70
     0
  9
$PUCSORGTOP
 10
0.0
 20
0.0
 30
0.0
  9
$PUCSORGBOTTOM
 10
0.0
 20
0.0
 30
0.0
  9
$PUCSORGLEFT
 10
0.0
 20
0.0
 30
0.0
  9
$PUCSORGRIGHT
 10
0.0
 20
0.0
 30
0.0
  9
$PUCSORGFRONT
 10
0.0
 20
0.0
 30
0.0
  9
$PUCSORGBACK
 10
0.0
 20
0.0
 30
0.0
  9
$USERI1
 70
     0
  9
$USERI2
 70
     0
  9
$USERI3
 70
     0
  9
$USERI4
 70
     0
  9
$USERI5
 70
     0
  9
$USERR1
 40
0.0
  9
$USERR2
 40
0.0
  9
$USERR3
 40
0.0
  9
$USERR4
 40
0.0
  9
$USERR5
 40
0.0
  9
$WORLDVIEW
 70
     1
  9
$SHADEDGE
 70
     3
  9
$SHADEDIF
 70
    70
  9
$TILEMODE
 70
     1
  9
$MAXACTVP
 70
    64
  9
$PINSBASE
 10
0.0
 20
0.0
 30
0.0
  9
$PLIMCHECK
 70
     0
  9
$PEXTMIN
 10
1.0000000000E+20
 20
1.0000000000E+20
 30
1.0000000000E+20
  9
$PEXTMAX
 10
-1.0000000000E+20
 20
-1.0000000000E+20
 30
-1.0000000000E+20
  9
$PLIMMIN
 10
0.0
 20
0.0
  9
$PLIMMAX
 10
420.0
 20
297.0
  9
$UNITMODE
 70
     0
  9
$VISRETAIN
 70
     1
  9
$PLINEGEN
 70
     0
  9
$PSLTSCALE
 70
     1
  9
$TREEDEPTH
 70
  3020
  9
$CMLSTYLE
  2
Standard
  9
$CMLJUST
 70
     0
  9
$CMLSCALE
 40
20.0
  9
$PROXYGRAPHICS
 70
     1
  9
$MEASUREMENT
 70
     1
  9
$CELWEIGHT
370
    -1
  9
$ENDCAPS
280
     0
  9
$JOINSTYLE
280
     0
  9
$LWDISPLAY
290
     1
  9
$INSUNITS
 70
     4
  9
$HYPERLINKBASE
  1

  9
$STYLESHEET
  1

  9
$XEDIT
290
     1
  9
$CEPSNTYPE
380
     0
  9
$PSTYLEMODE
290
     1
  9
$FINGERPRINTGUID
  2
{15CF4D78-3361-497C-9409-ED18C5D8C1A7}
  9
$VERSIONGUID
  2
{FAEB1C32-E019-11D5-929B-00C0DF256EC4}
  9
$EXTNAMES
290
     1
  9
$PSVPSCALE
 40
0.0
  9
$OLESTARTUP
290
     0
  0
ENDSEC
  0
SECTION
  2
CLASSES
  0
CLASS
  1
ACDBDICTIONARYWDFLT
  2
AcDbDictionaryWithDefault
  3
ObjectDBX Classes
 90
        0
280
     0
281
     0
  0
CLASS
  1
VISUALSTYLE
  2
AcDbVisualStyle
  3
ObjectDBX Classes
 90
     4095
280
     0
281
     0
  0
CLASS
  1
MATERIAL
  2
AcDbMaterial
  3
ObjectDBX Classes
 90
     1153
280
     0
281
     0
  0
CLASS
  1
SCALE
  2
AcDbScale
  3
ObjectDBX Classes
 90
     1153
280
     0
281
     0
  0
CLASS
  1
TABLESTYLE
  2
AcDbTableStyle
  3
ObjectDBX Classes
 90
     4095
280
     0
281
     0
  0
CLASS
  1
MLEADERSTYLE
  2
AcDbMLeaderStyle
  3
ACDB_MLEADERSTYLE_CLASS
 90
     4095
280
     0
281
     0
  0
CLASS
  1
SUN
  2
AcDbSun
  3
SCENEOE
 90
     1153
280
     0
281
     0
  0
CLASS
  1
ACDBPLACEHOLDER
  2
AcDbPlaceHolder
  3
ObjectDBX Classes
 90
        0
280
     0
281
     0
  0
CLASS
  1
LAYOUT
  2
AcDbLayout
  3
ObjectDBX Classes
 90
        0
280
     0
281
     0
  0
ENDSEC
  0
SECTION
  2
TABLES
  0
TABLE
  2
VPORT
  5
8
330
0
100
AcDbSymbolTable
 70
     1
  0
VPORT
  5
29
330
8
100
AcDbSymbolTableRecord
100
AcDbViewportTableRecord
  2
*Active
 70
     0
 10
0.0
 20
0.0
 11
1.0
 21
1.0
 12
148.5
 22
105.0
 13
0.0
 23
0.0
 14
10.0
 24
10.0
 15
10.0
 25
10.0
 16
0.0
 26
0.0
 36
1.0
 17
0.0
 27
0.0
 37
0.0
 40
210.0
 41
1.4142857143
 42
50.0
 43
0.0
 44
0.0
 50
0.0
 51
0.0
 71
     0
 72
  2000
 73
     1
 74
     3
 75
     0
 76
     0
 77
     0
 78
     0
281
     0
 65
     1
110
0.0
120
0.0
130
0.0
111
1.0
121
0.0
131
0.0
112
0.0
122
1.0
132
0.0
 79
     0
146
0.0
  0
ENDTAB
  0
TABLE
  2
LTYPE
  5
5
330
0
100
AcDbSymbolTable
 70
     6
  0
LTYPE
  5
14
330
5
100
AcDbSymbolTableRecord
100
AcDbLinetypeTableRecord
  2
ByBlock
 70
     0
  3

 72
    65
 73
     0
 40
0.0
  0
LTYPE
  5
15
330
5
100
AcDbSymbolTableRecord
100
AcDbLinetypeTableRecord
  2
ByLayer
 70
     0
  3

 72
    65
 73
     0
 40
0.0
  0
LTYPE
  5
16
330
5
100
AcDbSymbolTableRecord
100
AcDbLinetypeTableRecord
  2
Continuous
 70
     0
  3
Solid line
 72
    65
 73
     0
 40
0.0
  0
LTYPE
  5
6E
330
5
100
AcDbSymbolTableRecord
100
AcDbLinetypeTableRecord
  2
HIDDEN
 70
     0
  3
Hidden __ __ __ __ __ __ __ __ __ __ __ __ __ __
 72
    65
 73
     2
 40
1.905
 49
1.27
 74
     0
 49
-0.635
 74
     0
  0
LTYPE
  5
6F
330
5
100
AcDbSymbolTableRecord
100
AcDbLinetypeTableRecord
  2
PHANTOM
 70
     0
  3
Phantom ______  __  __  ______  __  __  ______
 72
    65
 73
     6
 40
12.7
 49
6.35
 74
     0
 49
-1.27
 74
     0
 49
1.27
 74
     0
 49
-1.27
 74
     0
 49
1.27
 74
     0
 49
-1.27
 74
     0
  0
LTYPE
  5
70
330
5
100
AcDbSymbolTableRecord
100
AcDbLinetypeTableRecord
  2
CENTER
 70
     0
  3
Center ____ _ ____ _ ____ _ ____ _ ____ _ ____
 72
    65
 73
     4
 40
10.16
 49
6.35
 74
     0
 49
-1.27
 74
     0
 49
1.27
 74
     0
 49
-1.27
 74
     0
  0
LTYPE
  5
71
330
5
100
AcDbSymbolTableRecord
100
AcDbLinetypeTableRecord
  2
CENTERX2
 70
     0
  3
Center (2x) ________  __  ________  __  _____
 72
    65
 73
     4
 40
20.32
 49
12.7
 74
     0
 49
-2.54
 74
     0
 49
2.54
 74
     0
 49
-2.54
 74
     0
  0
LTYPE
  5
72
330
5
100
AcDbSymbolTableRecord
100
AcDbLinetypeTableRecord
  2
DOT2
 70
     0
  3
Dot (.5x) ........................................
 72
    65
 73
     2
 40
0.635
 49
0.0
 74
     0
 49
-0.635
 74
     0
  0
ENDTAB
  0
TABLE
  2
LAYER
  5
2
330
0
100
AcDbSymbolTable
 70
     5
  0
LAYER
  5
10
330
2
100
AcDbSymbolTableRecord
100
AcDbLayerTableRecord
  2
0
 70
     0
 62
     7
  6
Continuous
370
    -3
390
F
  0
LAYER
  5
73
330
2
100
AcDbSymbolTableRecord
100
AcDbLayerTableRecord
  2
FORMAT
 70
     0
 62
     7
  6
Continuous
370
    -3
390
F
  0
LAYER
  5
74
330
2
100
AcDbSymbolTableRecord
100
AcDbLayerTableRecord
  2
VERMASSUNG
 70
     0
 62
     7
  6
Continuous
370
    -3
390
F
  0
LAYER
  5
75
330
2
100
AcDbSymbolTableRecord
100
AcDbLayerTableRecord
  2
KOPF_DÜNN
 70
     0
 62
     7
  6
Continuous
370
    -3
390
F
  0
LAYER
  5
76
330
2
100
AcDbSymbolTableRecord
100
AcDbLayerTableRecord
  2
KOPF_DICK
 70
     0
 62
     7
  6
Continuous
370
    25
390
F
  0
ENDTAB
  0
TABLE
  2
STYLE
  5
3
330
0
100
AcDbSymbolTable
 70
     2
  0
STYLE
  5
11
330
3
100
AcDbSymbolTableRecord
100
AcDbTextStyleTableRecord
  2
Standard
 70
     0
 40
0.0
 41
1.0
 50
0.0
 71
     0
 42
2.0
  3
txt
  4

  0
STYLE
  5
77
330
3
100
AcDbSymbolTableRecord
100
AcDbTextStyleTableRecord
  2
SLDTEXTSTYLE0
 70
     0
 40
0.0
 41
0.7
 50
0.0
 71
     0
 42
2.0
  3
TXT
  4

  0
ENDTAB
  0
TABLE
  2
VIEW
  5
6
330
0
100
AcDbSymbolTable
 70
     0
  0
ENDTAB
  0
TABLE
  2
UCS
  5
7
330
0
100
AcDbSymbolTable
 70
     0
  0
ENDTAB
  0
TABLE
  2
APPID
  5
9
330
0
100
AcDbSymbolTable
 70
     1
  0
APPID
  5
12
330
9
100
AcDbSymbolTableRecord
100
AcDbRegAppTableRecord
  2
ACAD
 70
     0
  0
ENDTAB
  0
TABLE
  2
DIMSTYLE
  5
A
330
0
100
AcDbSymbolTable
 70
     3
100
AcDbDimStyleTable
  0
DIMSTYLE
105
27
330
A
100
AcDbSymbolTableRecord
100
AcDbDimStyleTableRecord
  2
ISO-25
 70
     0
 41
2.5
 42
0.625
 43
3.75
 44
1.25
 73
     0
 74
     0
 77
     1
 78
     8
140
2.5
141
2.5
143
0.0393700787
147
0.625
171
     3
172
     1
178
     0
271
     2
272
     2
274
     3
278
    44
283
     0
284
     8
340
11
  0
DIMSTYLE
105
198
102
{ACAD_REACTORS
330
197
330
1A4
330
1AF
330
1BA
330
1C4
330
1CE
330
1DA
102
}
330
A
100
AcDbSymbolTableRecord
100
AcDbDimStyleTableRecord
  2
SLDDIMSTYLE0
 70
     0
 41
3.0
 44
0.0
 45
0.000000001
 73
     0
 74
     0
 77
     1
 78
    12
 79
     3
140
2.0
147
0.5
173
     1
178
     0
271
     2
272
     3
276
     2
284
    12
340
77
  0
DIMSTYLE
105
1E5
102
{ACAD_REACTORS
330
1E4
102
}
330
A
100
AcDbSymbolTableRecord
100
AcDbDimStyleTableRecord
  2
SLDDIMSTYLE1
 70
     0
 41
3.0
 44
0.0
 45
0.000000001
 73
     0
 74
     0
 77
     1
 78
    12
 79
     3
140
2.0
141
0.0
147
0.5
173
     1
178
     0
271
     2
272
     3
276
     2
279
     1
284
    12
340
77
  0
ENDTAB
  0
TABLE
  2
BLOCK_RECORD
  5
1
330
0
100
AcDbSymbolTable
 70
    12
  0
BLOCK_RECORD
  5
1F
330
1
100
AcDbSymbolTableRecord
100
AcDbBlockTableRecord
  2
*Model_Space
340
22
  0
BLOCK_RECORD
  5
1B
330
1
100
AcDbSymbolTableRecord
100
AcDbBlockTableRecord
  2
*Paper_Space
340
1E
  0
BLOCK_RECORD
  5
23
330
1
100
AcDbSymbolTableRecord
100
AcDbBlockTableRecord
  2
*Paper_Space0
340
26
  0
BLOCK_RECORD
  5
199
330
1
100
AcDbSymbolTableRecord
100
AcDbBlockTableRecord
  2
_D
340
0
  0
BLOCK_RECORD
  5
1A5
330
1
100
AcDbSymbolTableRecord
100
AcDbBlockTableRecord
  2
_D_1
340
0
  0
BLOCK_RECORD
  5
1B0
330
1
100
AcDbSymbolTableRecord
100
AcDbBlockTableRecord
  2
_D_2
340
0
  0
BLOCK_RECORD
  5
1BB
330
1
100
AcDbSymbolTableRecord
100
AcDbBlockTableRecord
  2
_D_3
340
0
  0
BLOCK_RECORD
  5
1C5
330
1
100
AcDbSymbolTableRecord
100
AcDbBlockTableRecord
  2
_D_4
340
0
  0
BLOCK_RECORD
  5
1CF
330
1
100
AcDbSymbolTableRecord
100
AcDbBlockTableRecord
  2
_D_5
340
0
  0
BLOCK_RECORD
  5
1DB
330
1
100
AcDbSymbolTableRecord
100
AcDbBlockTableRecord
  2
_D_6
340
0
  0
BLOCK_RECORD
  5
1E6
330
1
100
AcDbSymbolTableRecord
100
AcDbBlockTableRecord
  2
_D_7
340
0
  0
BLOCK_RECORD
  5
1EC
330
1
100
AcDbSymbolTableRecord
100
AcDbBlockTableRecord
  2
SW_CENTERMARKSYMBOL_0
340
0
102
{BLKREFS
331
1F7
102
}
  0
BLOCK_RECORD
  5
1F8
330
1
100
AcDbSymbolTableRecord
100
AcDbBlockTableRecord
  2
SW_CENTERMARKSYMBOL_1
340
0
102
{BLKREFS
331
203
102
}
  0
BLOCK_RECORD
  5
221
330
1
100
AcDbSymbolTableRecord
100
AcDbBlockTableRecord
  2
SW_CENTERMARKSYMBOL_2
340
0
102
{BLKREFS
331
22C
102
}
  0
ENDTAB
  0
ENDSEC
  0
SECTION
  2
BLOCKS
  0
BLOCK
  5
20
330
1F
100
AcDbEntity
  8
0
100
AcDbBlockBegin
  2
*Model_Space
 70
     0
 10
0.0
 20
0.0
 30
0.0
  3
*Model_Space
  1

  0
ENDBLK
  5
21
330
1F
100
AcDbEntity
  8
0
100
AcDbBlockEnd
  0
BLOCK
  5
1C
330
1B
100
AcDbEntity
 67
     1
  8
0
100
AcDbBlockBegin
  2
*Paper_Space
 70
     0
 10
0.0
 20
0.0
 30
0.0
  3
*Paper_Space
  1

  0
ENDBLK
  5
1D
330
1B
100
AcDbEntity
 67
     1
  8
0
100
AcDbBlockEnd
  0
BLOCK
  5
24
330
23
100
AcDbEntity
  8
0
100
AcDbBlockBegin
  2
*Paper_Space0
 70
     0
 10
0.0
 20
0.0
 30
0.0
  3
*Paper_Space0
  1

  0
ENDBLK
  5
25
330
23
100
AcDbEntity
  8
0
100
AcDbBlockEnd
  0
BLOCK
  5
19A
330
199
100
AcDbEntity
  8
0
100
AcDbBlockBegin
  2
_D
 70
     0
 10
0.0
 20
0.0
 30
0.0
  3
_D
  1

  0
SOLID
  5
19C
330
199
100
AcDbEntity
  8
VERMASSUNG
100
AcDbTrace
 10
130.6618010583
 20
157.366461627
 30
0.0
 11
130.2118010583
 21
154.366461627
 31
0.0
 12
131.1118010583
 22
154.366461627
 32
0.0
 13
131.1118010583
 23
154.366461627
 33
0.0
  0
SOLID
  5
19D
330
199
100
AcDbEntity
  8
VERMASSUNG
100
AcDbTrace
 10
130.6618010583
 20
94.366461627
 30
0.0
 11
131.1118010583
 21
97.366461627
 31
0.0
 12
130.2118010583
 22
97.366461627
 32
0.0
 13
130.2118010583
 23
97.366461627
 33
0.0
  0
LINE
  5
19E
330
199
100
AcDbEntity
  8
VERMASSUNG
100
AcDbLine
 10
179.1618010583
 20
157.366461627
 30
0.0
 11
129.6618010583
 21
157.366461627
 31
0.0
  0
LINE
  5
19F
330
199
100
AcDbEntity
  8
VERMASSUNG
100
AcDbLine
 10
179.1618010583
 20
94.366461627
 30
0.0
 11
129.6618010583
 21
94.366461627
 31
0.0
  0
LINE
  5
1A0
330
199
100
AcDbEntity
  8
VERMASSUNG
100
AcDbLine
 10
130.6618010583
 20
157.366461627
 30
0.0
 11
130.6618010583
 21
94.366461627
 31
0.0
  0
MTEXT
  5
1A1
330
199
100
AcDbEntity
  8
VERMASSUNG
100
AcDbMText
 10
127.8836658021
 20
119.7636698675
 30
0.0
 40
2.0
 41
0.0
 71
     1
 72
     1
  1
PSC
  7
SLDTEXTSTYLE0
 11
-7.044195017643634E-15
 21
1.0
 31
0.0
 73
     1
 44
1.0
  0
MTEXT
  5
1A2
330
199
100
AcDbEntity
  8
VERMASSUNG
100
AcDbMText
 10
128.0836657534
 20
125.5636697938
 30
0.0
 40
2.0
 41
0.0
 71
     1
 72
     1
  1
%%c
  7
SLDTEXTSTYLE0
 11
-7.044195017643634E-15
 21
1.0
 31
0.0
 73
     1
 44
1.0
  0
MTEXT
  5
1A3
330
199
100
AcDbEntity
  8
VERMASSUNG
100
AcDbMText
 10
128.0836654623
 20
129.1712957027
 30
0.0
 40
2.0
 41
0.0
 71
     1
 72
     1
  1
63
  7
SLDTEXTSTYLE0
 11
-7.044195017643634E-15
 21
1.0
 31
0.0
 73
     1
 44
1.0
  0
ENDBLK
  5
19B
330
199
100
AcDbEntity
  8
0
100
AcDbBlockEnd
  0
BLOCK
  5
1A6
330
1A5
100
AcDbEntity
  8
0
100
AcDbBlockBegin
  2
_D_1
 70
     0
 10
0.0
 20
0.0
 30
0.0
  3
_D_1
  1

  0
SOLID
  5
1A8
330
1A5
100
AcDbEntity
  8
VERMASSUNG
100
AcDbTrace
 10
263.4618010583
 20
141.866461627
 30
0.0
 11
263.0118010583
 21
138.866461627
 31
0.0
 12
263.9118010583
 22
138.866461627
 32
0.0
 13
263.9118010583
 23
138.866461627
 33
0.0
  0
SOLID
  5
1A9
330
1A5
100
AcDbEntity
  8
VERMASSUNG
100
AcDbTrace
 10
263.4618010583
 20
109.866461627
 30
0.0
 11
263.9118010583
 21
112.866461627
 31
0.0
 12
263.0118010583
 22
112.866461627
 32
0.0
 13
263.0118010583
 23
112.866461627
 33
0.0
  0
LINE
  5
1AA
330
1A5
100
AcDbEntity
  8
VERMASSUNG
100
AcDbLine
 10
252.4618010583
 20
141.866461627
 30
0.0
 11
264.4618010583
 21
141.866461627
 31
0.0
  0
LINE
  5
1AB
330
1A5
100
AcDbEntity
  8
VERMASSUNG
100
AcDbLine
 10
252.4618010583
 20
109.866461627
 30
0.0
 11
264.4618010583
 21
109.866461627
 31
0.0
  0
LINE
  5
1AC
330
1A5
100
AcDbEntity
  8
VERMASSUNG
100
AcDbLine
 10
263.4618010583
 20
141.866461627
 30
0.0
 11
263.4618010583
 21
109.866461627
 31
0.0
  0
MTEXT
  5
1AD
330
1A5
100
AcDbEntity
  8
VERMASSUNG
100
AcDbMText
 10
260.8836657534
 20
122.6614616698
 30
0.0
 40
2.0
 41
0.0
 71
     1
 72
     1
  1
%%c
  7
SLDTEXTSTYLE0
 11
-7.044195017643634E-15
 21
1.0
 31
0.0
 73
     1
 44
1.0
  0
MTEXT
  5
1AE
330
1A5
100
AcDbEntity
  8
VERMASSUNG
100
AcDbMText
 10
260.6836658021
 20
126.2714616841
 30
0.0
 40
2.0
 41
0.0
 71
     1
 72
     1
  1
32
  7
SLDTEXTSTYLE0
 11
-7.044195017643634E-15
 21
1.0
 31
0.0
 73
     1
 44
1.0
  0
ENDBLK
  5
1A7
330
1A5
100
AcDbEntity
  8
0
100
AcDbBlockEnd
  0
BLOCK
  5
1B1
330
1B0
100
AcDbEntity
  8
0
100
AcDbBlockBegin
  2
_D_2
 70
     0
 10
0.0
 20
0.0
 30
0.0
  3
_D_2
  1

  0
SOLID
  5
1B3
330
1B0
100
AcDbEntity
  8
VERMASSUNG
100
AcDbTrace
 10
272.6618010583
 20
99.866461627
 30
0.0
 11
273.1118010583
 21
102.866461627
 31
0.0
 12
272.2118010583
 22
102.866461627
 32
0.0
 13
272.2118010583
 23
102.866461627
 33
0.0
  0
SOLID
  5
1B4
330
1B0
100
AcDbEntity
  8
VERMASSUNG
100
AcDbTrace
 10
272.6618010583
 20
151.866461627
 30
0.0
 11
272.2118010583
 21
148.866461627
 31
0.0
 12
273.1118010583
 22
148.866461627
 32
0.0
 13
273.1118010583
 23
148.866461627
 33
0.0
  0
LINE
  5
1B5
330
1B0
100
AcDbEntity
  8
VERMASSUNG
100
AcDbLine
 10
252.6618010583
 20
99.866461627
 30
0.0
 11
273.6618010583
 21
99.866461627
 31
0.0
  0
LINE
  5
1B6
330
1B0
100
AcDbEntity
  8
VERMASSUNG
100
AcDbLine
 10
252.6618010583
 20
151.866461627
 30
0.0
 11
273.6618010583
 21
151.866461627
 31
0.0
  0
LINE
  5
1B7
330
1B0
100
AcDbEntity
  8
VERMASSUNG
100
AcDbLine
 10
272.6618010583
 20
99.866461627
 30
0.0
 11
272.6618010583
 21
151.866461627
 31
0.0
  0
MTEXT
  5
1B8
330
1B0
100
AcDbEntity
  8
VERMASSUNG
100
AcDbMText
 10
270.0836657534
 20
122.6614616698
 30
0.0
 40
2.0
 41
0.0
 71
     1
 72
     1
  1
%%c
  7
SLDTEXTSTYLE0
 11
6.123233995736766E-17
 21
1.0
 31
0.0
 73
     1
 44
1.0
  0
MTEXT
  5
1B9
330
1B0
100
AcDbEntity
  8
VERMASSUNG
100
AcDbMText
 10
269.8836658021
 20
126.2714616841
 30
0.0
 40
2.0
 41
0.0
 71
     1
 72
     1
  1
52
  7
SLDTEXTSTYLE0
 11
6.123233995736766E-17
 21
1.0
 31
0.0
 73
     1
 44
1.0
  0
ENDBLK
  5
1B2
330
1B0
100
AcDbEntity
  8
0
100
AcDbBlockEnd
  0
BLOCK
  5
1BC
330
1BB
100
AcDbEntity
  8
0
100
AcDbBlockBegin
  2
_D_3
 70
     0
 10
0.0
 20
0.0
 30
0.0
  3
_D_3
  1

  0
SOLID
  5
1BE
330
1BB
100
AcDbEntity
  8
VERMASSUNG
100
AcDbTrace
 10
200.6618010583
 20
165.866461627
 30
0.0
 11
203.6618010583
 21
165.416461627
 31
0.0
 12
203.6618010583
 22
166.316461627
 32
0.0
 13
203.6618010583
 23
166.316461627
 33
0.0
  0
SOLID
  5
1BF
330
1BB
100
AcDbEntity
  8
VERMASSUNG
100
AcDbTrace
 10
253.6618010583
 20
165.866461627
 30
0.0
 11
250.6618010583
 21
166.316461627
 31
0.0
 12
250.6618010583
 22
165.416461627
 32
0.0
 13
250.6618010583
 23
165.416461627
 33
0.0
  0
LINE
  5
1C0
330
1BB
100
AcDbEntity
  8
VERMASSUNG
100
AcDbLine
 10
200.6618010583
 20
152.866461627
 30
0.0
 11
200.6618010583
 21
166.866461627
 31
0.0
  0
LINE
  5
1C1
330
1BB
100
AcDbEntity
  8
VERMASSUNG
100
AcDbLine
 10
253.6618010583
 20
150.866461627
 30
0.0
 11
253.6618010583
 21
166.866461627
 31
0.0
  0
LINE
  5
1C2
330
1BB
100
AcDbEntity
  8
VERMASSUNG
100
AcDbLine
 10
200.6618010583
 20
165.866461627
 30
0.0
 11
253.6618010583
 21
165.866461627
 31
0.0
  0
MTEXT
  5
1C3
330
1BB
100
AcDbEntity
  8
VERMASSUNG
100
AcDbMText
 10
225.7618011082
 20
168.444597223
 30
0.0
 40
2.0
 41
0.0
 71
     1
 72
     1
  1
53
  7
SLDTEXTSTYLE0
 73
     1
 44
1.0
  0
ENDBLK
  5
1BD
330
1BB
100
AcDbEntity
  8
0
100
AcDbBlockEnd
  0
BLOCK
  5
1C6
330
1C5
100
AcDbEntity
  8
0
100
AcDbBlockBegin
  2
_D_4
 70
     0
 10
0.0
 20
0.0
 30
0.0
  3
_D_4
  1

  0
SOLID
  5
1C8
330
1C5
100
AcDbEntity
  8
VERMASSUNG
100
AcDbTrace
 10
178.6618010583
 20
176.7975501114
 30
0.0
 11
181.6618010583
 21
176.3475501114
 31
0.0
 12
181.6618010583
 22
177.2475501114
 32
0.0
 13
181.6618010583
 23
177.2475501114
 33
0.0
  0
SOLID
  5
1C9
330
1C5
100
AcDbEntity
  8
VERMASSUNG
100
AcDbTrace
 10
253.6618010583
 20
176.7975501114
 30
0.0
 11
250.6618010583
 21
177.2475501114
 31
0.0
 12
250.6618010583
 22
176.3475501114
 32
0.0
 13
250.6618010583
 23
176.3475501114
 33
0.0
  0
LINE
  5
1CA
330
1C5
100
AcDbEntity
  8
VERMASSUNG
100
AcDbLine
 10
178.6618010583
 20
156.866461627
 30
0.0
 11
178.6618010583
 21
177.7975501114
 31
0.0
  0
LINE
  5
1CB
330
1C5
100
AcDbEntity
  8
VERMASSUNG
100
AcDbLine
 10
253.6618010583
 20
150.866461627
 30
0.0
 11
253.6618010583
 21
177.7975501114
 31
0.0
  0
LINE
  5
1CC
330
1C5
100
AcDbEntity
  8
VERMASSUNG
100
AcDbLine
 10
178.6618010583
 20
176.7975501114
 30
0.0
 11
253.6618010583
 21
176.7975501114
 31
0.0
  0
MTEXT
  5
1CD
330
1C5
100
AcDbEntity
  8
VERMASSUNG
100
AcDbMText
 10
214.7618011082
 20
179.3756857073
 30
0.0
 40
2.0
 41
0.0
 71
     1
 72
     1
  1
75
  7
SLDTEXTSTYLE0
 73
     1
 44
1.0
  0
ENDBLK
  5
1C7
330
1C5
100
AcDbEntity
  8
0
100
AcDbBlockEnd
  0
BLOCK
  5
1D0
330
1CF
100
AcDbEntity
  8
0
100
AcDbBlockBegin
  2
_D_5
 70
     0
 10
0.0
 20
0.0
 30
0.0
  3
_D_5
  1

  0
ARC
  5
1D2
330
1CF
100
AcDbEntity
  8
VERMASSUNG
100
AcDbCircle
 10
199.2618010125
 20
187.2664618919
 30
0.0
 40
4.24852922888762
100
AcDbArc
 50
153.4349488229
 51
206.5650511771
  0
ARC
  5
1D3
330
1CF
100
AcDbEntity
  8
VERMASSUNG
100
AcDbCircle
 10
195.0618009294
 20
187.2664618919
 30
0.0
 40
4.24852922888762
100
AcDbArc
 50
333.4349488229
 51
26.5650511771
  0
SOLID
  5
1D4
330
1CF
100
AcDbEntity
  8
VERMASSUNG
100
AcDbTrace
 10
140.6618010583
 20
185.366461627
 30
0.0
 11
143.6618010583
 21
184.916461627
 31
0.0
 12
143.6618010583
 22
185.816461627
 32
0.0
 13
143.6618010583
 23
185.816461627
 33
0.0
  0
SOLID
  5
1D5
330
1CF
100
AcDbEntity
  8
VERMASSUNG
100
AcDbTrace
 10
253.6618010583
 20
185.366461627
 30
0.0
 11
250.6618010583
 21
185.816461627
 31
0.0
 12
250.6618010583
 22
184.916461627
 32
0.0
 13
250.6618010583
 23
184.916461627
 33
0.0
  0
LINE
  5
1D6
330
1CF
100
AcDbEntity
  8
VERMASSUNG
100
AcDbLine
 10
140.6618010583
 20
146.1587996195
 30
0.0
 11
140.6618010583
 21
186.366461627
 31
0.0
  0
LINE
  5
1D7
330
1CF
100
AcDbEntity
  8
VERMASSUNG
100
AcDbLine
 10
253.6618010583
 20
150.866461627
 30
0.0
 11
253.6618010583
 21
186.366461627
 31
0.0
  0
LINE
  5
1D8
330
1CF
100
AcDbEntity
  8
VERMASSUNG
100
AcDbLine
 10
140.6618010583
 20
185.366461627
 30
0.0
 11
253.6618010583
 21
185.366461627
 31
0.0
  0
MTEXT
  5
1D9
330
1CF
100
AcDbEntity
  8
VERMASSUNG
100
AcDbMText
 10
195.4618009484
 20
187.9445974558
 30
0.0
 40
2.0
 41
0.0
 71
     1
 72
     1
  1
113
  7
SLDTEXTSTYLE0
 73
     1
 44
1.0
  0
ENDBLK
  5
1D1
330
1CF
100
AcDbEntity
  8
0
100
AcDbBlockEnd
  0
BLOCK
  5
1DC
330
1DB
100
AcDbEntity
  8
0
100
AcDbBlockBegin
  2
_D_6
 70
     0
 10
0.0
 20
0.0
 30
0.0
  3
_D_6
  1

  0
SOLID
  5
1DE
330
1DB
100
AcDbEntity
  8
VERMASSUNG
100
AcDbTrace
 10
190.6618010583
 20
84.366461627
 30
0.0
 11
193.6618010583
 21
83.916461627
 31
0.0
 12
193.6618010583
 22
84.816461627
 32
0.0
 13
193.6618010583
 23
84.816461627
 33
0.0
  0
SOLID
  5
1DF
330
1DB
100
AcDbEntity
  8
VERMASSUNG
100
AcDbTrace
 10
253.6618010583
 20
84.366461627
 30
0.0
 11
250.6618010583
 21
84.816461627
 31
0.0
 12
250.6618010583
 22
83.916461627
 32
0.0
 13
250.6618010583
 23
83.916461627
 33
0.0
  0
LINE
  5
1E0
330
1DB
100
AcDbEntity
  8
VERMASSUNG
100
AcDbLine
 10
190.6618010583
 20
109.966461627
 30
0.0
 11
190.6618010583
 21
83.366461627
 31
0.0
  0
LINE
  5
1E1
330
1DB
100
AcDbEntity
  8
VERMASSUNG
100
AcDbLine
 10
253.6618010583
 20
100.866461627
 30
0.0
 11
253.6618010583
 21
83.366461627
 31
0.0
  0
LINE
  5
1E2
330
1DB
100
AcDbEntity
  8
VERMASSUNG
100
AcDbLine
 10
190.6618010583
 20
84.366461627
 30
0.0
 11
253.6618010583
 21
84.366461627
 31
0.0
  0
MTEXT
  5
1E3
330
1DB
100
AcDbEntity
  8
VERMASSUNG
100
AcDbMText
 10
220.7618011082
 20
86.944597223
 30
0.0
 40
2.0
 41
0.0
 71
     1
 72
     1
  1
63
  7
SLDTEXTSTYLE0
 73
     1
 44
1.0
  0
ENDBLK
  5
1DD
330
1DB
100
AcDbEntity
  8
0
100
AcDbBlockEnd
  0
BLOCK
  5
1E7
330
1E6
100
AcDbEntity
  8
0
100
AcDbBlockBegin
  2
_D_7
 70
     0
 10
0.0
 20
0.0
 30
0.0
  3
_D_7
  1

  0
SOLID
  5
1E9
330
1E6
100
AcDbEntity
  8
VERMASSUNG
100
AcDbTrace
 10
200.9546942771
 20
152.1593548458
 30
0.0
 11
203.4112367001
 21
153.9392142009
 31
0.0
 12
202.7809166849
 22
154.5816289255
 32
0.0
 13
202.7809166849
 23
154.5816289255
 33
0.0
  0
LINE
  5
1EA
330
1E6
100
AcDbEntity
  8
VERMASSUNG
100
AcDbLine
 10
200.9546942771
 20
152.1593548458
 30
0.0
 11
206.9405767281
 21
158.0325413916
 31
0.0
  0
MTEXT
  5
1EB
330
1E6
100
AcDbEntity
  8
VERMASSUNG
100
AcDbMText
 10
203.2790819293
 20
158.0170809183
 30
0.0
 40
2.0
 41
0.0
 71
     1
 72
     1
  1
R1
  7
SLDTEXTSTYLE0
 11
0.707106781186545
 21
0.70710678118655
 31
0.0
 73
     1
 44
1.0
  0
ENDBLK
  5
1E8
330
1E6
100
AcDbEntity
  8
0
100
AcDbBlockEnd
  0
BLOCK
  5
1ED
330
1EC
100
AcDbEntity
  8
0
100
AcDbBlockBegin
  2
SW_CENTERMARKSYMBOL_0
 70
     0
 10
0.0
 20
0.0
 30
0.0
  3
SW_CENTERMARKSYMBOL_0
  1

  0
LINE
  5
1EF
330
1EC
100
AcDbEntity
  8
VERMASSUNG
 62
     0
100
AcDbLine
 10
0.0
 20
0.0
 30
0.0
 11
0.0
 21
2.5
 31
0.0
  0
LINE
  5
1F0
330
1EC
100
AcDbEntity
  8
VERMASSUNG
 62
     0
100
AcDbLine
 10
0.0
 20
0.0
 30
0.0
 11
-2.5
 21
0.0
 31
0.0
  0
LINE
  5
1F1
330
1EC
100
AcDbEntity
  8
VERMASSUNG
 62
     0
100
AcDbLine
 10
0.0
 20
0.0
 30
0.0
 11
0.0
 21
-2.5
 31
0.0
  0
LINE
  5
1F2
330
1EC
100
AcDbEntity
  8
VERMASSUNG
 62
     0
100
AcDbLine
 10
0.0
 20
0.0
 30
0.0
 11
2.5
 21
0.0
 31
0.0
  0
LINE
  5
1F3
330
1EC
100
AcDbEntity
  8
VERMASSUNG
 62
     0
100
AcDbLine
 10
0.0
 20
5.0
 30
0.0
 11
0.0
 21
8.5
 31
0.0
  0
LINE
  5
1F4
330
1EC
100
AcDbEntity
  8
VERMASSUNG
 62
     0
100
AcDbLine
 10
-5.0
 20
0.0
 30
0.0
 11
-8.5
 21
0.0
 31
0.0
  0
LINE
  5
1F5
330
1EC
100
AcDbEntity
  8
VERMASSUNG
 62
     0
100
AcDbLine
 10
0.0
 20
-5.0
 30
0.0
 11
0.0
 21
-8.5
 31
0.0
  0
LINE
  5
1F6
330
1EC
100
AcDbEntity
  8
VERMASSUNG
 62
     0
100
AcDbLine
 10
5.0
 20
0.0
 30
0.0
 11
8.5
 21
0.0
 31
0.0
  0
ENDBLK
  5
1EE
330
1EC
100
AcDbEntity
  8
0
100
AcDbBlockEnd
  0
BLOCK
  5
1F9
330
1F8
100
AcDbEntity
  8
0
100
AcDbBlockBegin
  2
SW_CENTERMARKSYMBOL_1
 70
     0
 10
0.0
 20
0.0
 30
0.0
  3
SW_CENTERMARKSYMBOL_1
  1

  0
LINE
  5
1FB
330
1F8
100
AcDbEntity
  8
VERMASSUNG
 62
     0
100
AcDbLine
 10
0.0
 20
0.0
 30
0.0
 11
0.0
 21
2.5
 31
0.0
  0
LINE
  5
1FC
330
1F8
100
AcDbEntity
  8
VERMASSUNG
 62
     0
100
AcDbLine
 10
0.0
 20
0.0
 30
0.0
 11
-2.5
 21
0.0
 31
0.0
  0
LINE
  5
1FD
330
1F8
100
AcDbEntity
  8
VERMASSUNG
 62
     0
100
AcDbLine
 10
0.0
 20
0.0
 30
0.0
 11
0.0
 21
-2.5
 31
0.0
  0
LINE
  5
1FE
330
1F8
100
AcDbEntity
  8
VERMASSUNG
 62
     0
100
AcDbLine
 10
0.0
 20
0.0
 30
0.0
 11
2.5
 21
0.0
 31
0.0
  0
LINE
  5
1FF
330
1F8
100
AcDbEntity
  8
VERMASSUNG
 62
     0
100
AcDbLine
 10
0.0
 20
5.0
 30
0.0
 11
0.0
 21
8.5
 31
0.0
  0
LINE
  5
200
330
1F8
100
AcDbEntity
  8
VERMASSUNG
 62
     0
100
AcDbLine
 10
-5.0
 20
0.0
 30
0.0
 11
-8.5
 21
0.0
 31
0.0
  0
LINE
  5
201
330
1F8
100
AcDbEntity
  8
VERMASSUNG
 62
     0
100
AcDbLine
 10
0.0
 20
-5.0
 30
0.0
 11
0.0
 21
-8.5
 31
0.0
  0
LINE
  5
202
330
1F8
100
AcDbEntity
  8
VERMASSUNG
 62
     0
100
AcDbLine
 10
5.0
 20
0.0
 30
0.0
 11
8.5
 21
0.0
 31
0.0
  0
ENDBLK
  5
1FA
330
1F8
100
AcDbEntity
  8
0
100
AcDbBlockEnd
  0
BLOCK
  5
222
330
221
100
AcDbEntity
  8
0
100
AcDbBlockBegin
  2
SW_CENTERMARKSYMBOL_2
 70
     0
 10
0.0
 20
0.0
 30
0.0
  3
SW_CENTERMARKSYMBOL_2
  1

  0
LINE
  5
224
330
221
100
AcDbEntity
  8
VERMASSUNG
 62
     0
100
AcDbLine
 10
0.0
 20
0.0
 30
0.0
 11
0.0
 21
2.5
 31
0.0
  0
LINE
  5
225
330
221
100
AcDbEntity
  8
VERMASSUNG
 62
     0
100
AcDbLine
 10
0.0
 20
0.0
 30
0.0
 11
-2.5
 21
0.0
 31
0.0
  0
LINE
  5
226
330
221
100
AcDbEntity
  8
VERMASSUNG
 62
     0
100
AcDbLine
 10
0.0
 20
0.0
 30
0.0
 11
0.0
 21
-2.5
 31
0.0
  0
LINE
  5
227
330
221
100
AcDbEntity
  8
VERMASSUNG
 62
     0
100
AcDbLine
 10
0.0
 20
0.0
 30
0.0
 11
2.5
 21
0.0
 31
0.0
  0
LINE
  5
228
330
221
100
AcDbEntity
  8
VERMASSUNG
 62
     0
100
AcDbLine
 10
0.0
 20
5.0
 30
0.0
 11
0.0
 21
34.0
 31
0.0
  0
LINE
  5
229
330
221
100
AcDbEntity
  8
VERMASSUNG
 62
     0
100
AcDbLine
 10
-5.0
 20
0.0
 30
0.0
 11
-34.0
 21
0.0
 31
0.0
  0
LINE
  5
22A
330
221
100
AcDbEntity
  8
VERMASSUNG
 62
     0
100
AcDbLine
 10
0.0
 20
-5.0
 30
0.0
 11
0.0
 21
-34.0
 31
0.0
  0
LINE
  5
22B
330
221
100
AcDbEntity
  8
VERMASSUNG
 62
     0
100
AcDbLine
 10
5.0
 20
0.0
 30
0.0
 11
34.0
 21
0.0
 31
0.0
  0
ENDBLK
  5
223
330
221
100
AcDbEntity
  8
0
100
AcDbBlockEnd
  0
ENDSEC
  0
SECTION
  2
ENTITIES
  0
MTEXT
  5
78
330
1F
100
AcDbEntity
  8
KOPF_DÜNN
100
AcDbMText
 10
13.8892156294
 20
23.8442973028
 30
0.0
 40
3.0
 41
0.0
 71
     1
 72
     1
  1
PS6.K32.K01.075
  7
SLDTEXTSTYLE0
 73
     1
 44
1.0
  0
MTEXT
  5
79
330
1F
100
AcDbEntity
  8
VERMASSUNG
100
AcDbMText
 10
13.9329988022
 20
28.8834360957
 30
0.0
 40
3.0
 41
0.0
 71
     1
 72
     1
  1
Werkzeughalter / Toolholder
  7
SLDTEXTSTYLE0
 73
     1
 44
1.0
  0
MTEXT
  5
7A
330
1F
100
AcDbEntity
  8
VERMASSUNG
100
AcDbMText
 10
98.8601118557
 20
13.8365368761
 30
0.0
 40
2.0
 41
0.0
 71
     1
 72
     1
  1
Datum: 29.11.2017
  7
SLDTEXTSTYLE0
 73
     1
 44
1.0
  0
MTEXT
  5
7B
330
1F
100
AcDbEntity
  8
VERMASSUNG
100
AcDbMText
 10
13.933048693
 20
18.0482802738
 30
0.0
 40
2.0
 41
0.0
 71
     1
 72
     1
  1
für Wendeplattenbohrer Schaft-Ø32 / for indexable insert drills shaft-Ø32
  7
SLDTEXTSTYLE0
 73
     1
 44
1.0
  0
MTEXT
  5
7C
330
1F
100
AcDbEntity
  8
VERMASSUNG
100
AcDbMText
 10
13.9808475933
 20
13.9090974274
 30
0.0
 40
2.0
 41
0.0
 71
     1
 72
     1
  1
Gewicht: 1245g
  7
SLDTEXTSTYLE0
 73
     1
 44
1.0
  0
LINE
  5
7D
330
1F
100
AcDbEntity
  8
0
  6
Continuous
 62
     7
370
    25
100
AcDbLine
 10
179.1618010583
 20
94.366461627
 30
0.0
 11
200.1618010583
 21
94.366461627
 31
0.0
  0
LINE
  5
7E
330
1F
100
AcDbEntity
  8
0
  6
Continuous
 62
     7
370
    25
100
AcDbLine
 10
200.1618010583
 20
157.366461627
 30
0.0
 11
179.1618010583
 21
157.366461627
 31
0.0
  0
ARC
  5
7F
330
1F
100
AcDbEntity
  8
0
  6
Continuous
 62
     7
370
    25
100
AcDbCircle
 10
200.1618010583
 20
94.866461627
 30
0.0
 40
0.5
100
AcDbArc
 50
270.0
 51
0.0
  0
ARC
  5
80
330
1F
100
AcDbEntity
  8
0
  6
Continuous
 62
     7
370
    25
100
AcDbCircle
 10
200.1618010583
 20
156.866461627
 30
0.0
 40
0.5
100
AcDbArc
 50
0.0
 51
90.0
  0
ARC
  5
81
330
1F
100
AcDbEntity
  8
0
  6
Continuous
 62
     7
370
    25
100
AcDbCircle
 10
179.1618010583
 20
94.866461627
 30
0.0
 40
0.5
100
AcDbArc
 50
180.0
 51
270.0
  0
ARC
  5
82
330
1F
100
AcDbEntity
  8
0
  6
Continuous
 62
     7
370
    25
100
AcDbCircle
 10
179.1618010583
 20
156.866461627
 30
0.0
 40
0.5
100
AcDbArc
 50
90.0
 51
180.0
  0
ARC
  5
83
330
1F
100
AcDbEntity
  8
0
  6
Continuous
 62
     7
370
    25
100
AcDbCircle
 10
201.6618010583
 20
98.866461627
 30
0.0
 40
1.0
100
AcDbArc
 50
90.0
 51
180.0
  0
ARC
  5
84
330
1F
100
AcDbEntity
  8
0
  6
Continuous
 62
     7
370
    25
100
AcDbCircle
 10
201.6618010583
 20
152.866461627
 30
0.0
 40
1.0
100
AcDbArc
 50
180.0
 51
270.0
  0
LINE
  5
85
330
1F
100
AcDbEntity
  8
0
  6
Continuous
 62
     7
370
    25
100
AcDbLine
 10
252.6618010583
 20
99.866461627
 30
0.0
 11
253.6618010583
 21
100.866461627
 31
0.0
  0
LINE
  5
86
330
1F
100
AcDbEntity
  8
0
  6
Continuous
 62
     7
370
    25
100
AcDbLine
 10
253.6618010583
 20
150.866461627
 30
0.0
 11
252.6618010583
 21
151.866461627
 31
0.0
  0
LINE
  5
87
330
1F
100
AcDbEntity
  8
0
  6
Continuous
 62
     7
370
    25
100
AcDbLine
 10
201.6618010583
 20
99.866461627
 30
0.0
 11
252.6618010583
 21
99.866461627
 31
0.0
  0
LINE
  5
88
330
1F
100
AcDbEntity
  8
0
  6
Continuous
 62
     7
370
    25
100
AcDbLine
 10
252.6618010583
 20
151.866461627
 30
0.0
 11
201.6618010583
 21
151.866461627
 31
0.0
  0
LWPOLYLINE
  5
89
330
1F
100
AcDbEntity
  8
0
  6
Continuous
 62
     7
370
    25
100
AcDbPolyline
 90
        3
 70
   128
 43
0.0
 10
178.4618010583
 20
103.3266413481
 10
178.5872560018
 20
103.2583392332
 10
178.6618010583
 20
103.2056014751
  0
LWPOLYLINE
  5
8A
330
1F
100
AcDbEntity
  8
0
  6
Continuous
 62
     7
370
    25
100
AcDbPolyline
 90
        3
 70
   128
 43
0.0
 10
178.6618010583
 20
148.5273217789
 10
178.5872560018
 20
148.4745840208
 10
178.4618010583
 20
148.4062819059
  0
SPLINE
  5
8B
330
1F
100
AcDbEntity
  8
0
  6
Continuous
 62
     7
370
    25
100
AcDbSpline
210
0.0
220
0.0
230
1.0
 70
     8
 71
     3
 72
    12
 73
     8
 74
     0
 42
0.000000001
 43
0.00000001
 40
0.0
 40
0.0
 40
0.0
 40
0.0
 40
0.2500000000000014
 40
0.2500000000000014
 40
0.5000000000000028
 40
0.5000000000000028
 40
1.0
 40
1.0
 40
1.0
 40
1.0
 10
189.1895578718487
 20
135.2545280583359
 30
0.0
 10
189.1264778333553
 20
135.2545280583359
 30
0.0
 10
189.0673292111739
 20
135.2798923775508
 30
0.0
 10
188.9688566611048
 20
135.3540572379237
 30
0.0
 10
188.9298200491201
 20
135.4005775784779
 30
0.0
 10
188.8299235823411
 20
135.5507199213231
 30
0.0
 10
188.7875027012744
 20
135.6624131282953
 30
0.0
 10
188.7565451699564
 20
135.775830947685
 30
0.0
  0
LINE
  5
8C
330
1F
100
AcDbEntity
  8
0
  6
Continuous
 62
     7
370
    25
100
AcDbLine
 10
192.1340442447
 20
135.2545280583
 30
0.0
 11
189.1895578718
 21
135.2545280583
 31
0.0
  0
SPLINE
  5
8D
330
1F
100
AcDbEntity
  8
0
  6
Continuous
 62
     7
370
    25
100
AcDbSpline
210
0.0
220
0.0
230
1.0
 70
     8
 71
     3
 72
    12
 73
     8
 74
     0
 42
0.000000001
 43
0.00000001
 40
0.0
 40
0.0
 40
0.0
 40
0.0
 40
0.4999999999999963
 40
0.4999999999999963
 40
0.7499999999999981
 40
0.7499999999999981
 40
1.0
 40
1.0
 40
1.0
 40
1.0
 10
192.567056946608
 20
135.775830947685
 30
0.0
 10
192.5363347046889
 20
135.6632751482758
 30
0.0
 10
192.4934974901538
 20
135.5505172885362
 30
0.0
 10
192.394070465954
 20
135.4009764027399
 30
0.0
 10
192.3543182711373
 20
135.353683671033
 30
0.0
 10
192.2562768142791
 20
135.2799473777116
 30
0.0
 10
192.1967207586916
 20
135.2545280583359
 30
0.0
 10
192.1340442447158
 20
135.2545280583359
 30
0.0
  0
ELLIPSE
  5
8E
330
1F
100
AcDbEntity
  8
0
  6
Continuous
 62
     7
370
    25
100
AcDbEllipse
 10
176.3146468689
 20
125.866461627
 30
0.0
 11
14.7536831606561
 21
31.09325491558114
 31
0.0
210
0.0
220
0.0
230
1.0
 40
0.3419987131
 41
5.193281737408619
 42
6.124043104552323
  0
SPLINE
  5
8F
330
1F
100
AcDbEntity
  8
0
  6
Continuous
 62
     7
370
    25
100
AcDbSpline
210
0.0
220
0.0
230
1.0
 70
     8
 71
     3
 72
    12
 73
     8
 74
     0
 42
0.000000001
 43
0.00000001
 40
0.0
 40
0.0
 40
0.0
 40
0.0
 40
0.2499999999999991
 40
0.2499999999999991
 40
0.4999999999999982
 40
0.4999999999999982
 40
1.0
 40
1.0
 40
1.0
 40
1.0
 10
192.1340442447158
 20
155.934953585873
 30
0.0
 10
192.1971242832091
 20
155.934953585873
 30
0.0
 10
192.2562729053906
 20
155.9270476596606
 30
0.0
 10
192.3547454554596
 20
155.9037224982244
 30
0.0
 10
192.3937820674444
 20
155.8890097083926
 30
0.0
 10
192.4936785342234
 20
155.8410539076617
 30
0.0
 10
192.53609941529
 20
155.8047917510816
 30
0.0
 10
192.567056946608
 20
155.7672040871172
 30
0.0
  0
LINE
  5
90
330
1F
100
AcDbEntity
  8
0
  6
Continuous
 62
     7
370
    25
100
AcDbLine
 10
189.1895578718
 20
155.9349535859
 30
0.0
 11
192.1340442447
 21
155.9349535859
 31
0.0
  0
SPLINE
  5
91
330
1F
100
AcDbEntity
  8
0
  6
Continuous
 62
     7
370
    25
100
AcDbSpline
210
0.0
220
0.0
230
1.0
 70
     8
 71
     3
 72
    12
 73
     8
 74
     0
 42
0.000000001
 43
0.00000001
 40
0.0
 40
0.0
 40
0.0
 40
0.0
 40
0.4999999999999971
 40
0.4999999999999971
 40
0.7499999999999986
 40
0.7499999999999986
 40
1.0
 40
1.0
 40
1.0
 40
1.0
 10
188.7565451699565
 20
155.7672040871172
 30
0.0
 10
188.7872674118756
 20
155.8045060700702
 30
0.0
 10
188.8301046264107
 20
155.8411179021166
 30
0.0
 10
188.9295316506105
 20
155.8888826854018
 30
0.0
 10
188.9692838454272
 20
155.9038402008842
 30
0.0
 10
189.0673253022854
 20
155.9270301466533
 30
0.0
 10
189.1268813578729
 20
155.934953585873
 30
0.0
 10
189.1895578718487
 20
155.934953585873
 30
0.0
  0
ELLIPSE
  5
92
330
1F
100
AcDbEntity
  8
0
  6
Continuous
 62
     7
370
    25
100
AcDbEllipse
 10
205.0089552476
 20
125.866461627
 30
0.0
 11
-14.75368316065606
 21
31.09325491558114
 31
0.0
210
0.0
220
0.0
230
1.0
 40
0.3419987131
 41
0.1591422026272998
 42
1.089903569770978
  0
SPLINE
  5
93
330
1F
100
AcDbEntity
  8
0
  6
Continuous
 62
     7
370
    25
100
AcDbSpline
210
0.0
220
0.0
230
1.0
 70
     8
 71
     3
 72
    12
 73
     8
 74
     0
 42
0.000000001
 43
0.00000001
 40
0.0
 40
0.0
 40
0.0
 40
0.0
 40
0.2500000000000001
 40
0.2500000000000001
 40
0.5000000000000001
 40
0.5000000000000001
 40
1.0
 40
1.0
 40
1.0
 40
1.0
 10
189.1895578718487
 20
95.79796966812687
 30
0.0
 10
189.1265009169509
 20
95.79796966812687
 30
0.0
 10
189.0673707672053
 20
95.80586999920642
 30
0.0
 10
188.968923216672
 20
95.82918074721145
 30
0.0
 10
188.9298909784839
 20
95.8438858734951
 30
0.0
 10
188.830001094027
 20
95.89181940168174
 30
0.0
 10
188.7877021204177
 20
95.92788937444651
 30
0.0
 10
188.7565451699564
 20
95.96571916688272
 30
0.0
  0
LINE
  5
94
330
1F
100
AcDbEntity
  8
0
  6
Continuous
 62
     7
370
    25
100
AcDbLine
 10
192.1340442447
 20
95.7979696681
 30
0.0
 11
189.1895578718
 21
95.7979696681
 31
0.0
  0
SPLINE
  5
95
330
1F
100
AcDbEntity
  8
0
  6
Continuous
 62
     7
370
    25
100
AcDbSpline
210
0.0
220
0.0
230
1.0
 70
     8
 71
     3
 72
    12
 73
     8
 74
     0
 42
0.000000001
 43
0.00000001
 40
0.0
 40
0.0
 40
0.0
 40
0.0
 40
0.5000000000000019
 40
0.5000000000000019
 40
0.7500000000000009
 40
0.7500000000000009
 40
1.0
 40
1.0
 40
1.0
 40
1.0
 10
192.567056946608
 20
95.96571916688274
 30
0.0
 10
192.5359117486459
 20
95.92790364396255
 30
0.0
 10
192.4936374823115
 20
95.89183678587892
 30
0.0
 10
192.3936919484862
 20
95.84387672086767
 30
0.0
 10
192.3539616437821
 20
95.82901574697
 30
0.0
 10
192.2570735937759
 20
95.80606460083888
 30
0.0
 10
192.1970083520293
 20
95.79796966812681
 30
0.0
 10
192.1340442447158
 20
95.79796966812681
 30
0.0
  0
ELLIPSE
  5
96
330
1F
100
AcDbEntity
  8
0
  6
Continuous
 62
     7
370
    25
100
AcDbEllipse
 10
176.3146468689
 20
125.866461627
 30
0.0
 11
-14.7536831606563
 21
31.09325491558115
 31
0.0
210
0.0
220
0.0
230
1.0
 40
0.3419987131
 41
3.300734856217118
 42
4.231496223360772
  0
SPLINE
  5
97
330
1F
100
AcDbEntity
  8
0
  6
Continuous
 62
     7
370
    25
100
AcDbSpline
210
0.0
220
0.0
230
1.0
 70
     8
 71
     3
 72
    12
 73
     8
 74
     0
 42
0.000000001
 43
0.00000001
 40
0.0
 40
0.0
 40
0.0
 40
0.0
 40
0.2500000000000009
 40
0.2500000000000009
 40
0.5000000000000018
 40
0.5000000000000018
 40
1.0
 40
1.0
 40
1.0
 40
1.0
 10
192.1340442447158
 20
116.4783951956638
 30
0.0
 10
192.1971011996136
 20
116.4783951956637
 30
0.0
 10
192.2562313493592
 20
116.4530488422831
 30
0.0
 10
192.3546788998925
 20
116.3789294601436
 30
0.0
 10
192.3937111380805
 20
116.3324329454456
 30
0.0
 10
192.4936010225375
 20
116.182358438437
 30
0.0
 10
192.5358999961468
 20
116.0712407293221
 30
0.0
 10
192.5670569466081
 20
115.9570923063146
 30
0.0
  0
LINE
  5
98
330
1F
100
AcDbEntity
  8
0
  6
Continuous
 62
     7
370
    25
100
AcDbLine
 10
189.1895578718
 20
116.4783951957
 30
0.0
 11
192.1340442447
 21
116.4783951957
 31
0.0
  0
SPLINE
  5
99
330
1F
100
AcDbEntity
  8
0
  6
Continuous
 62
     7
370
    25
100
AcDbSpline
210
0.0
220
0.0
230
1.0
 70
     8
 71
     3
 72
    12
 73
     8
 74
     0
 42
0.000000001
 43
0.00000001
 40
0.0
 40
0.0
 40
0.0
 40
0.0
 40
0.5000000000000019
 40
0.5000000000000019
 40
0.7500000000000009
 40
0.7500000000000009
 40
1.0
 40
1.0
 40
1.0
 40
1.0
 10
188.7565451699565
 20
115.9570923063146
 30
0.0
 10
188.7876903679186
 20
116.0711976721799
 30
0.0
 10
188.829964634253
 20
116.1823039993987
 30
0.0
 10
188.9299101680783
 20
116.332461606829
 30
0.0
 10
188.9696404727824
 20
116.3794542984463
 30
0.0
 10
189.0665285227886
 20
116.4524298829848
 30
0.0
 10
189.1265937645351
 20
116.4783951956638
 30
0.0
 10
189.1895578718486
 20
116.4783951956638
 30
0.0
  0
ELLIPSE
  5
9A
330
1F
100
AcDbEntity
  8
0
  6
Continuous
 62
     7
370
    25
100
AcDbEllipse
 10
205.0089552476
 20
125.866461627
 30
0.0
 11
14.75368316065624
 21
31.09325491558115
 31
0.0
210
0.0
220
0.0
230
1.0
 40
0.3419987131
 41
2.051689083818828
 42
2.982450450962508
  0
LINE
  5
9B
330
1F
100
AcDbEntity
  8
0
  6
Continuous
 62
     7
370
    25
100
AcDbLine
 10
200.6618010583
 20
94.866461627
 30
0.0
 11
200.6618010583
 21
156.8664616257
 31
0.0
  0
LINE
  5
9C
330
1F
100
AcDbEntity
  8
0
  6
Continuous
 62
     7
370
    25
100
AcDbLine
 10
178.6618010583
 20
94.866461627
 30
0.0
 11
178.6618010583
 21
156.8664616257
 31
0.0
  0
LINE
  5
9D
330
1F
100
AcDbEntity
  8
0
  6
Continuous
 62
     7
370
    25
100
AcDbLine
 10
188.75654517
 20
115.9570923063
 30
0.0
 11
188.75654517
 21
95.9657191669
 31
0.0
  0
LINE
  5
9E
330
1F
100
AcDbEntity
  8
0
  6
Continuous
 62
     7
370
    25
100
AcDbLine
 10
189.1895578718
 20
116.4783951957
 30
0.0
 11
189.1895578718
 21
95.7979696681
 31
0.0
  0
LINE
  5
9F
330
1F
100
AcDbEntity
  8
0
  6
Continuous
 62
     7
370
    25
100
AcDbLine
 10
189.1895578718
 20
155.9349535859
 30
0.0
 11
189.1895578718
 21
135.2545280583
 31
0.0
  0
LINE
  5
A0
330
1F
100
AcDbEntity
  8
0
  6
Continuous
 62
     7
370
    25
100
AcDbLine
 10
188.75654517
 20
155.7672040871
 30
0.0
 11
188.75654517
 21
135.7758309477
 31
0.0
  0
LINE
  5
A1
330
1F
100
AcDbEntity
  8
0
  6
Continuous
 62
     7
370
    25
100
AcDbLine
 10
192.1340442447
 20
116.4783951957
 30
0.0
 11
192.1340442447
 21
95.7979696681
 31
0.0
  0
LINE
  5
A2
330
1F
100
AcDbEntity
  8
0
  6
Continuous
 62
     7
370
    25
100
AcDbLine
 10
192.5670569466
 20
115.9570923063
 30
0.0
 11
192.5670569466
 21
95.9657191669
 31
0.0
  0
LINE
  5
A3
330
1F
100
AcDbEntity
  8
0
  6
Continuous
 62
     7
370
    25
100
AcDbLine
 10
192.5670569466
 20
155.7672040871
 30
0.0
 11
192.5670569466
 21
135.7758309477
 31
0.0
  0
LINE
  5
A4
330
1F
100
AcDbEntity
  8
0
  6
Continuous
 62
     7
370
    25
100
AcDbLine
 10
192.1340442447
 20
155.9349535859
 30
0.0
 11
192.1340442447
 21
135.2545280583
 31
0.0
  0
LINE
  5
A5
330
1F
100
AcDbEntity
  8
0
  6
Continuous
 62
     7
370
    25
100
AcDbLine
 10
253.6618010583
 20
100.866461627
 30
0.0
 11
253.6618010583
 21
150.866461627
 31
0.0
  0
LINE
  5
A6
330
1F
100
AcDbEntity
  8
0
  6
Continuous
 62
     7
370
    25
100
AcDbLine
 10
252.6618010583
 20
99.866461627
 30
0.0
 11
252.6618010583
 21
151.866461627
 31
0.0
  0
SPLINE
  5
A7
330
1F
100
AcDbEntity
  8
0
  6
Continuous
 62
     7
370
    25
100
AcDbSpline
210
0.0
220
0.0
230
1.0
 70
    11
 71
     3
 72
    93
 73
    89
 74
     0
 42
0.000000001
 43
0.00000001
 40
0.0
 40
0.0
 40
0.0
 40
0.0
 40
0.0312500000000006
 40
0.0312500000000006
 40
0.0625000000000011
 40
0.0625000000000011
 40
0.0937500000000016
 40
0.0937500000000016
 40
0.1093750000000019
 40
0.1093750000000019
 40
0.1250000000000022
 40
0.1406250000000026
 40
0.1406250000000026
 40
0.1562500000000029
 40
0.1562500000000029
 40
0.1875000000000035
 40
0.1875000000000035
 40
0.2031250000000039
 40
0.2031250000000039
 40
0.2187500000000042
 40
0.2187500000000042
 40
0.2500000000000051
 40
0.2500000000000051
 40
0.281250000000006
 40
0.281250000000006
 40
0.2968750000000064
 40
0.2968750000000064
 40
0.3125000000000069
 40
0.3125000000000069
 40
0.3437500000000075
 40
0.3437500000000075
 40
0.3750000000000082
 40
0.3750000000000082
 40
0.4062500000000089
 40
0.4062500000000089
 40
0.4375000000000095
 40
0.4375000000000095
 40
0.4531250000000096
 40
0.4531250000000096
 40
0.4687500000000097
 40
0.4687500000000097
 40
0.5000000000000099
 40
0.5000000000000099
 40
0.5156250000000099
 40
0.5156250000000099
 40
0.5312500000000098
 40
0.5312500000000098
 40
0.5625000000000093
 40
0.5625000000000093
 40
0.5781250000000092
 40
0.5781250000000092
 40
0.5937500000000092
 40
0.5937500000000092
 40
0.6250000000000089
 40
0.6250000000000089
 40
0.6406250000000087
 40
0.6406250000000087
 40
0.6562500000000085
 40
0.6562500000000085
 40
0.6718750000000083
 40
0.6718750000000083
 40
0.6875000000000082
 40
0.6875000000000082
 40
0.7187500000000079
 40
0.7187500000000079
 40
0.7500000000000075
 40
0.7500000000000075
 40
0.7812500000000072
 40
0.7812500000000072
 40
0.8125000000000069
 40
0.8125000000000069
 40
0.8281250000000064
 40
0.8281250000000064
 40
0.8437500000000061
 40
0.8437500000000061
 40
0.8750000000000053
 40
0.8750000000000053
 40
0.8906250000000048
 40
0.8906250000000048
 40
0.9062500000000043
 40
0.9062500000000043
 40
0.937500000000003
 40
0.937500000000003
 40
0.9531250000000022
 40
0.9531250000000022
 40
0.9687500000000014
 40
0.9687500000000014
 40
1.0
 40
1.0
 40
1.0
 40
1.0
 10
204.9586877999744
 20
130.4791281891453
 30
0.0
 10
204.6203713075395
 20
130.2048032896829
 30
0.0
 10
204.3127953293337
 20
129.9023707742727
 30
0.0
 10
203.7612282971024
 20
129.2385053030976
 30
0.0
 10
203.5159002846723
 20
128.8730072153105
 30
0.0
 10
203.1164341058182
 20
128.1099266714915
 30
0.0
 10
202.9590666725483
 20
127.7097794179237
 30
0.0
 10
202.7920428507141
 20
127.0790002649886
 30
0.0
 10
202.7480464484941
 20
126.8627867788813
 30
0.0
 10
202.6866201609779
 20
126.4324308808555
 30
0.0
 10
202.6507783182284
 20
126.0012040217613
 30
0.0
 10
202.6655699598577
 20
125.5682519230576
 30
0.0
 10
202.7062262152548
 20
125.1344188650584
 30
0.0
 10
202.7398237324601
 20
124.9162948338257
 30
0.0
 10
202.8767303420352
 20
124.2781040033557
 30
0.0
 10
203.0158989763195
 20
123.8684310572446
 30
0.0
 10
203.293473215625
 20
123.2764476281176
 30
0.0
 10
203.3973209590802
 20
123.083765647075
 30
0.0
 10
203.6227424910525
 20
122.7141811926255
 30
0.0
 10
203.7448030222221
 20
122.5362022578958
 30
0.0
 10
204.1378896242356
 20
122.0217503903365
 30
0.0
 10
204.4388569322131
 20
121.7022938613459
 30
0.0
 10
205.088798369225
 20
121.1335814670339
 30
0.0
 10
205.4386942857745
 20
120.8819302491364
 30
0.0
 10
205.9996729543678
 20
120.551149850049
 30
0.0
 10
206.1929478757425
 20
120.4487545327184
 30
0.0
 10
206.5844190497345
 20
120.2630690998075
 30
0.0
 10
206.7834761513729
 20
120.1792335185982
 30
0.0
 10
207.3903512318243
 20
119.9538744497682
 30
0.0
 10
207.808224016044
 20
119.838190550503
 30
0.0
 10
208.668603060779
 20
119.6775729030996
 30
0.0
 10
209.0998320119266
 20
119.6346736244051
 30
0.0
 10
209.9642807740935
 20
119.6202602652111
 30
0.0
 10
210.3996132434636
 20
119.6490848676508
 30
0.0
 10
211.2632072855881
 20
119.7806654734704
 30
0.0
 10
211.6834174453346
 20
119.8818131938703
 30
0.0
 10
212.2967715905592
 20
120.085722632713
 30
0.0
 10
212.4983785955546
 20
120.1624466987539
 30
0.0
 10
212.8957515535449
 20
120.3339791555323
 30
0.0
 10
213.0925016453121
 20
120.4293438084549
 30
0.0
 10
213.6654335431577
 20
120.7397391701654
 30
0.0
 10
214.0233206868187
 20
120.9776545054554
 30
0.0
 10
214.5237084112048
 20
121.3821478342022
 30
0.0
 10
214.6843882696523
 20
121.5249710832748
 30
0.0
 10
214.9928789980802
 20
121.8275620817584
 30
0.0
 10
215.1414942223159
 20
121.9883918097669
 30
0.0
 10
215.5575623059154
 20
122.4875755500599
 30
0.0
 10
215.7974720499423
 20
122.8435223769161
 30
0.0
 10
216.0986180270862
 20
123.4141711008849
 30
0.0
 10
216.1891408024535
 20
123.6105532220223
 30
0.0
 10
216.348989677515
 20
124.0166350263048
 30
0.0
 10
216.4176879706951
 20
124.2252937053473
 30
0.0
 10
216.5851616740095
 20
124.8536154693746
 30
0.0
 10
216.6479796679815
 20
125.2809988659156
 30
0.0
 10
216.6656853717186
 20
125.9354389413675
 30
0.0
 10
216.6584712787606
 20
126.1564141811267
 30
0.0
 10
216.6184741001896
 20
126.5902235480841
 30
0.0
 10
216.5858211541352
 20
126.8046294554168
 30
0.0
 10
216.4959035632122
 20
127.228589279968
 30
0.0
 10
216.4386376676629
 20
127.4381429336532
 30
0.0
 10
216.29938622165
 20
127.8523908534209
 30
0.0
 10
216.2175518482097
 20
128.0561283269335
 30
0.0
 10
215.9419274713275
 20
128.6458121521958
 30
0.0
 10
215.7168126096836
 20
129.0152460741497
 30
0.0
 10
215.1876770605474
 20
129.7094373076502
 30
0.0
 10
214.8908132410857
 20
130.0245844616215
 30
0.0
 10
214.2416123723805
 20
130.5941049199532
 30
0.0
 10
213.8851875634773
 20
130.8506990307671
 30
0.0
 10
213.1398205109869
 20
131.2904613328612
 30
0.0
 10
212.7496930049222
 20
131.4755590709281
 30
0.0
 10
212.1388973986234
 20
131.7028353451979
 30
0.0
 10
211.9300209306654
 20
131.7703687367715
 30
0.0
 10
211.5099426304313
 20
131.8864559454541
 30
0.0
 10
211.2985014617785
 20
131.9352049832462
 30
0.0
 10
210.6600853630986
 20
132.0544303285659
 30
0.0
 10
210.2290498518553
 20
132.0981087184651
 30
0.0
 10
209.574205482395
 20
132.1091064791567
 30
0.0
 10
209.354201388851
 20
132.1035066463051
 30
0.0
 10
208.9197518734881
 20
132.0741296841502
 30
0.0
 10
208.7042686865439
 20
132.0504092485012
 30
0.0
 10
208.0629565323809
 20
131.9525509165684
 30
0.0
 10
207.6422207573718
 20
131.8519604998235
 30
0.0
 10
207.0217419292249
 20
131.6454212902098
 30
0.0
 10
206.8170387300748
 20
131.5672284586298
 30
0.0
 10
206.4192653245969
 20
131.3949408706518
 30
0.0
 10
206.225172702861
 20
131.3005299221174
 30
0.0
 10
205.6572575638533
 20
130.9923611208484
 30
0.0
 10
205.2970042924092
 20
130.7534530886078
 30
0.0
 10
204.9586877999744
 20
130.4791281891453
 30
0.0
  0
SPLINE
  5
A8
330
1F
100
AcDbEntity
  8
0
  6
Continuous
 62
     7
370
    25
100
AcDbSpline
210
0.0
220
0.0
230
1.0
 70
    11
 71
     3
 72
    93
 73
    89
 74
     0
 42
0.000000001
 43
0.00000001
 40
0.0
 40
0.0
 40
0.0
 40
0.0
 40
0.0312500000000017
 40
0.0312500000000017
 40
0.0625000000000035
 40
0.0625000000000035
 40
0.0937500000000052
 40
0.0937500000000052
 40
0.109375000000006
 40
0.109375000000006
 40
0.1250000000000068
 40
0.1406250000000076
 40
0.1406250000000076
 40
0.1562500000000084
 40
0.1562500000000084
 40
0.18750000000001
 40
0.18750000000001
 40
0.2031250000000108
 40
0.2031250000000108
 40
0.2187500000000116
 40
0.2187500000000116
 40
0.2500000000000129
 40
0.2500000000000129
 40
0.2812500000000143
 40
0.2812500000000143
 40
0.2968750000000148
 40
0.2968750000000148
 40
0.3125000000000152
 40
0.3125000000000152
 40
0.3437500000000162
 40
0.3437500000000162
 40
0.3750000000000171
 40
0.3750000000000171
 40
0.4062500000000181
 40
0.4062500000000181
 40
0.437500000000019
 40
0.437500000000019
 40
0.4531250000000192
 40
0.4531250000000192
 40
0.4687500000000194
 40
0.4687500000000194
 40
0.5000000000000199
 40
0.5000000000000199
 40
0.5156250000000199
 40
0.5156250000000199
 40
0.5312500000000199
 40
0.5312500000000199
 40
0.5625000000000192
 40
0.5625000000000192
 40
0.5781250000000187
 40
0.5781250000000187
 40
0.5937500000000181
 40
0.5937500000000181
 40
0.625000000000017
 40
0.625000000000017
 40
0.6406250000000164
 40
0.6406250000000164
 40
0.6562500000000159
 40
0.6562500000000159
 40
0.6718750000000153
 40
0.6718750000000153
 40
0.6875000000000147
 40
0.6875000000000147
 40
0.7187500000000132
 40
0.7187500000000132
 40
0.7500000000000117
 40
0.7500000000000117
 40
0.7812500000000102
 40
0.7812500000000102
 40
0.8125000000000088
 40
0.8125000000000088
 40
0.8281250000000079
 40
0.8281250000000079
 40
0.8437500000000071
 40
0.8437500000000071
 40
0.8750000000000057
 40
0.8750000000000057
 40
0.8906250000000052
 40
0.8906250000000052
 40
0.9062500000000047
 40
0.9062500000000047
 40
0.9375000000000037
 40
0.9375000000000037
 40
0.9531250000000029
 40
0.9531250000000029
 40
0.968750000000002
 40
0.968750000000002
 40
1.0
 40
1.0
 40
1.0
 40
1.0
 10
231.9586877999744
 20
130.4791281891453
 30
0.0
 10
231.6203713075395
 20
130.2048032896829
 30
0.0
 10
231.3127953293337
 20
129.9023707742727
 30
0.0
 10
230.7612282971024
 20
129.2385053030976
 30
0.0
 10
230.5159002846723
 20
128.8730072153105
 30
0.0
 10
230.1164341058182
 20
128.1099266714915
 30
0.0
 10
229.9590666725483
 20
127.7097794179237
 30
0.0
 10
229.792042850714
 20
127.0790002649886
 30
0.0
 10
229.7480464484941
 20
126.8627867788813
 30
0.0
 10
229.686620160978
 20
126.4324308808555
 30
0.0
 10
229.6507783182284
 20
126.0012040217613
 30
0.0
 10
229.6655699598577
 20
125.5682519230576
 30
0.0
 10
229.7062262152548
 20
125.1344188650584
 30
0.0
 10
229.7398237324601
 20
124.9162948338257
 30
0.0
 10
229.8767303420352
 20
124.2781040033557
 30
0.0
 10
230.0158989763195
 20
123.8684310572446
 30
0.0
 10
230.293473215625
 20
123.2764476281176
 30
0.0
 10
230.3973209590802
 20
123.083765647075
 30
0.0
 10
230.6227424910525
 20
122.7141811926255
 30
0.0
 10
230.744803022222
 20
122.5362022578958
 30
0.0
 10
231.1378896242356
 20
122.0217503903366
 30
0.0
 10
231.4388569322131
 20
121.7022938613459
 30
0.0
 10
232.088798369225
 20
121.1335814670339
 30
0.0
 10
232.4386942857745
 20
120.8819302491364
 30
0.0
 10
232.9996729543678
 20
120.551149850049
 30
0.0
 10
233.1929478757425
 20
120.4487545327184
 30
0.0
 10
233.5844190497345
 20
120.2630690998075
 30
0.0
 10
233.7834761513728
 20
120.1792335185982
 30
0.0
 10
234.3903512318243
 20
119.9538744497682
 30
0.0
 10
234.808224016044
 20
119.838190550503
 30
0.0
 10
235.668603060779
 20
119.6775729030996
 30
0.0
 10
236.0998320119266
 20
119.6346736244051
 30
0.0
 10
236.9642807740935
 20
119.6202602652111
 30
0.0
 10
237.3996132434636
 20
119.6490848676508
 30
0.0
 10
238.2632072855881
 20
119.7806654734704
 30
0.0
 10
238.6834174453346
 20
119.8818131938703
 30
0.0
 10
239.2967715905592
 20
120.085722632713
 30
0.0
 10
239.4983785955546
 20
120.1624466987539
 30
0.0
 10
239.8957515535449
 20
120.3339791555323
 30
0.0
 10
240.0925016453121
 20
120.4293438084549
 30
0.0
 10
240.6654335431577
 20
120.7397391701654
 30
0.0
 10
241.0233206868186
 20
120.9776545054554
 30
0.0
 10
241.5237084112048
 20
121.3821478342021
 30
0.0
 10
241.6843882696523
 20
121.5249710832748
 30
0.0
 10
241.9928789980802
 20
121.8275620817584
 30
0.0
 10
242.1414942223159
 20
121.9883918097668
 30
0.0
 10
242.5575623059154
 20
122.4875755500598
 30
0.0
 10
242.7974720499424
 20
122.8435223769161
 30
0.0
 10
243.0986180270862
 20
123.4141711008849
 30
0.0
 10
243.1891408024535
 20
123.6105532220223
 30
0.0
 10
243.348989677515
 20
124.0166350263048
 30
0.0
 10
243.4176879706951
 20
124.2252937053472
 30
0.0
 10
243.5851616740095
 20
124.8536154693746
 30
0.0
 10
243.6479796679816
 20
125.2809988659156
 30
0.0
 10
243.6656853717186
 20
125.9354389413675
 30
0.0
 10
243.6584712787606
 20
126.1564141811267
 30
0.0
 10
243.6184741001897
 20
126.5902235480841
 30
0.0
 10
243.5858211541352
 20
126.8046294554168
 30
0.0
 10
243.4959035632123
 20
127.2285892799679
 30
0.0
 10
243.4386376676629
 20
127.4381429336532
 30
0.0
 10
243.29938622165
 20
127.8523908534209
 30
0.0
 10
243.2175518482097
 20
128.0561283269335
 30
0.0
 10
242.9419274713275
 20
128.6458121521958
 30
0.0
 10
242.7168126096836
 20
129.0152460741497
 30
0.0
 10
242.1876770605474
 20
129.7094373076502
 30
0.0
 10
241.8908132410857
 20
130.0245844616215
 30
0.0
 10
241.2416123723805
 20
130.5941049199532
 30
0.0
 10
240.8851875634773
 20
130.8506990307671
 30
0.0
 10
240.139820510987
 20
131.2904613328612
 30
0.0
 10
239.7496930049222
 20
131.4755590709281
 30
0.0
 10
239.1388973986234
 20
131.7028353451979
 30
0.0
 10
238.9300209306654
 20
131.7703687367715
 30
0.0
 10
238.5099426304313
 20
131.8864559454541
 30
0.0
 10
238.2985014617785
 20
131.9352049832462
 30
0.0
 10
237.6600853630986
 20
132.0544303285658
 30
0.0
 10
237.2290498518553
 20
132.0981087184651
 30
0.0
 10
236.574205482395
 20
132.1091064791567
 30
0.0
 10
236.354201388851
 20
132.1035066463051
 30
0.0
 10
235.9197518734881
 20
132.0741296841502
 30
0.0
 10
235.7042686865439
 20
132.0504092485012
 30
0.0
 10
235.0629565323809
 20
131.9525509165684
 30
0.0
 10
234.6422207573718
 20
131.8519604998235
 30
0.0
 10
234.0217419292249
 20
131.6454212902098
 30
0.0
 10
233.8170387300748
 20
131.5672284586298
 30
0.0
 10
233.4192653245969
 20
131.3949408706518
 30
0.0
 10
233.225172702861
 20
131.3005299221174
 30
0.0
 10
232.6572575638533
 20
130.9923611208484
 30
0.0
 10
232.2970042924092
 20
130.7534530886078
 30
0.0
 10
231.9586877999744
 20
130.4791281891453
 30
0.0
  0
SPLINE
  5
A9
330
1F
100
AcDbEntity
  8
0
  6
Continuous
 62
     7
370
    25
100
AcDbSpline
210
0.0
220
0.0
230
1.0
 70
     8
 71
     3
 72
    12
 73
     8
 74
     0
 42
0.000000001
 43
0.00000001
 40
0.0
 40
0.0
 40
0.0
 40
0.0
 40
0.5000000000000006
 40
0.5000000000000006
 40
0.7500000000000004
 40
0.7500000000000004
 40
1.0
 40
1.0
 40
1.0
 40
1.0
 10
177.8452887718258
 20
104.0116679245241
 30
0.0
 10
177.9017252727329
 20
104.0102500431824
 30
0.0
 10
177.9708099034217
 20
104.0086857069341
 30
0.0
 10
178.0896121751396
 20
104.0057415149597
 30
0.0
 10
178.1297974506097
 20
104.0047033118623
 30
0.0
 10
178.2031784980135
 20
104.0027694166476
 30
0.0
 10
178.2365880617562
 20
104.0018745293588
 30
0.0
 10
178.2668241694126
 20
104.0010907390865
 30
0.0
  0
SPLINE
  5
AA
330
1F
100
AcDbEntity
  8
0
  6
Continuous
 62
     7
370
    25
100
AcDbSpline
210
0.0
220
0.0
230
1.0
 70
     8
 71
     3
 72
    16
 73
    12
 74
     0
 42
0.000000001
 43
0.00000001
 40
0.0
 40
0.0
 40
0.0
 40
0.0
 40
0.0624999999999962
 40
0.0624999999999962
 40
0.1249999999999924
 40
0.1249999999999924
 40
0.24999999999999
 40
0.24999999999999
 40
0.4999999999999933
 40
0.4999999999999933
 40
1.0
 40
1.0
 40
1.0
 40
1.0
 10
178.2668241693754
 20
104.0010907391107
 30
0.0
 10
178.2784045769633
 20
104.0007905479994
 30
0.0
 10
178.2917141037246
 20
103.9994627997404
 30
0.0
 10
178.3210155338107
 20
103.9927641249654
 30
0.0
 10
178.3358296336951
 20
103.9874059418597
 30
0.0
 10
178.3716580353979
 20
103.9703602926923
 30
0.0
 10
178.3857776597609
 20
103.9588977549166
 30
0.0
 10
178.4202818038494
 20
103.9273344295444
 30
0.0
 10
178.431386354554
 20
103.9094371304991
 30
0.0
 10
178.4575625317702
 20
103.8592757128848
 30
0.0
 10
178.4618010582822
 20
103.8315313006883
 30
0.0
 10
178.4618010582822
 20
103.8068671387587
 30
0.0
  0
LINE
  5
AB
330
1F
100
AcDbEntity
  8
0
  6
Continuous
 62
     7
370
    25
100
AcDbLine
 10
178.4618010583
 20
118.8445743012
 30
0.0
 11
178.4618010583
 21
103.3266413481
 31
0.0
  0
SPLINE
  5
AC
330
1F
100
AcDbEntity
  8
0
  6
Continuous
 62
     7
370
    25
100
AcDbSpline
210
0.0
220
0.0
230
1.0
 70
     8
 71
     3
 72
    16
 73
    12
 74
     0
 42
0.000000001
 43
0.00000001
 40
0.0
 40
0.0
 40
0.0
 40
0.0
 40
0.5000000000000004
 40
0.5000000000000004
 40
0.7500000000000024
 40
0.7500000000000024
 40
0.8750000000000017
 40
0.8750000000000017
 40
0.9375000000000009
 40
0.9375000000000009
 40
1.0
 40
1.0
 40
1.0
 40
1.0
 10
178.4618010582822
 20
118.8445743012499
 30
0.0
 10
178.4618010582822
 20
118.9582668453778
 30
0.0
 10
178.4576547832043
 20
119.0725870067273
 30
0.0
 10
178.4316891878108
 20
119.2456352972244
 30
0.0
 10
178.4202282824334
 20
119.3048108043861
 30
0.0
 10
178.385916544659
 20
119.3879339238543
 30
0.0
 10
178.3718918087294
 20
119.4160552399549
 30
0.0
 10
178.3358688456956
 20
119.4446710539324
 30
0.0
 10
178.3211143366059
 20
119.4504641018342
 30
0.0
 10
178.291762175459
 20
119.4488706758971
 30
0.0
 10
178.2784223009549
 20
119.4423742725733
 30
0.0
 10
178.2668241694066
 20
119.4338585263702
 30
0.0
  0
SPLINE
  5
AD
330
1F
100
AcDbEntity
  8
0
  6
Continuous
 62
     7
370
    25
100
AcDbSpline
210
0.0
220
0.0
230
1.0
 70
     8
 71
     3
 72
    12
 73
     8
 74
     0
 42
0.000000001
 43
0.00000001
 40
0.0
 40
0.0
 40
0.0
 40
0.0
 40
0.2499999999999998
 40
0.2499999999999998
 40
0.4999999999999997
 40
0.4999999999999997
 40
1.0
 40
1.0
 40
1.0
 40
1.0
 10
178.2668241694137
 20
119.433858526361
 30
0.0
 10
178.236625727973
 20
119.411685794316
 30
0.0
 10
178.203258372637
 20
119.3926061384388
 30
0.0
 10
178.1301030968071
 20
119.3674330939961
 30
0.0
 10
178.0898503977832
 20
119.3618765575793
 30
0.0
 10
177.9721216545083
 20
119.372788368566
 30
0.0
 10
177.9016632064494
 20
119.4147241239768
 30
0.0
 10
177.8452887718311
 20
119.4639359063584
 30
0.0
  0
SPLINE
  5
AE
330
1F
100
AcDbEntity
  8
0
  6
Continuous
 62
     7
370
    25
100
AcDbSpline
210
0.0
220
0.0
230
1.0
 70
     8
 71
     3
 72
    12
 73
     8
 74
     0
 42
0.000000001
 43
0.00000001
 40
0.0
 40
0.0
 40
0.0
 40
0.0
 40
0.5000000000000016
 40
0.5000000000000016
 40
0.7500000000000009
 40
0.7500000000000009
 40
1.0
 40
1.0
 40
1.0
 40
1.0
 10
177.3404807147226
 20
120.680287298239
 30
0.0
 10
177.3842310453083
 20
120.4598404205833
 30
0.0
 10
177.4371211646887
 20
120.244295603545
 30
0.0
 10
177.5487324853029
 20
119.931881952435
 30
0.0
 10
177.5912919384859
 20
119.8298021792637
 30
0.0
 10
177.6962688616825
 20
119.6353625447994
 30
0.0
 10
177.7578360025174
 20
119.5402773664772
 30
0.0
 10
177.8452887718311
 20
119.4639359063584
 30
0.0
  0
LINE
  5
AF
330
1F
100
AcDbEntity
  8
0
  6
Continuous
 62
     7
370
    25
100
AcDbLine
 10
177.3404807147
 20
120.6802872982
 30
0.0
 11
177.3404807147
 21
131.0526359558
 31
0.0
  0
SPLINE
  5
B0
330
1F
100
AcDbEntity
  8
0
  6
Continuous
 62
     7
370
    25
100
AcDbSpline
210
0.0
220
0.0
230
1.0
 70
     8
 71
     3
 72
    12
 73
     8
 74
     0
 42
0.000000001
 43
0.00000001
 40
0.0
 40
0.0
 40
0.0
 40
0.0
 40
0.2500000000000004
 40
0.2500000000000004
 40
0.5000000000000008
 40
0.5000000000000008
 40
1.0
 40
1.0
 40
1.0
 40
1.0
 10
177.845288771831
 20
132.2689873476416
 30
0.0
 10
177.7567944814136
 20
132.1917366968541
 30
0.0
 10
177.6967371222518
 20
132.0984176878608
 30
0.0
 10
177.5908897830571
 20
131.9023865304296
 30
0.0
 10
177.548355679133
 20
131.8000591237337
 30
0.0
 10
177.437204186079
 20
131.4887142821107
 30
0.0
 10
177.3842733470013
 20
131.2732959809748
 30
0.0
 10
177.3404807147226
 20
131.0526359557611
 30
0.0
  0
SPLINE
  5
B1
330
1F
100
AcDbEntity
  8
0
  6
Continuous
 62
     7
370
    25
100
AcDbSpline
210
0.0
220
0.0
230
1.0
 70
     8
 71
     3
 72
    12
 73
     8
 74
     0
 42
0.000000001
 43
0.00000001
 40
0.0
 40
0.0
 40
0.0
 40
0.0
 40
0.4999999999999998
 40
0.4999999999999998
 40
0.7499999999999999
 40
0.7499999999999999
 40
1.0
 40
1.0
 40
1.0
 40
1.0
 10
177.845288771831
 20
132.2689873476416
 30
0.0
 10
177.9015973201266
 20
132.3181416148854
 30
0.0
 10
177.9718719808448
 20
132.3600989334892
 30
0.0
 10
178.0899098951683
 20
132.3710586110216
 30
0.0
 10
178.1300861360223
 20
132.3655498527743
 30
0.0
 10
178.2040432307002
 20
132.3399926239853
 30
0.0
 10
178.2366596184116
 20
132.321212576146
 30
0.0
 10
178.2668241694074
 20
132.2990647276293
 30
0.0
  0
SPLINE
  5
B2
330
1F
100
AcDbEntity
  8
0
  6
Continuous
 62
     7
370
    25
100
AcDbSpline
210
0.0
220
0.0
230
1.0
 70
     8
 71
     3
 72
    16
 73
    12
 74
     0
 42
0.000000001
 43
0.00000001
 40
0.0
 40
0.0
 40
0.0
 40
0.0
 40
0.0624999999999987
 40
0.0624999999999987
 40
0.1249999999999973
 40
0.1249999999999973
 40
0.2499999999999977
 40
0.2499999999999977
 40
0.4999999999999984
 40
0.4999999999999984
 40
1.0
 40
1.0
 40
1.0
 40
1.0
 10
178.2668241693756
 20
132.2990647275747
 30
0.0
 10
178.278437069215
 20
132.2905381379795
 30
0.0
 10
178.2917882536475
 20
132.2840378764467
 30
0.0
 10
178.3211880932667
 20
132.2824684793292
 30
0.0
 10
178.3360288178219
 20
132.2883518699598
 30
0.0
 10
178.3718620257905
 20
132.3168995060103
 30
0.0
 10
178.3859752336121
 20
132.3450665253161
 30
0.0
 10
178.420466604831
 20
132.4288207837381
 30
0.0
 10
178.4315506759414
 20
132.4865341973595
 30
0.0
 10
178.4576734937374
 20
132.6601247340053
 30
0.0
 10
178.4618010582822
 20
132.7751527866473
 30
0.0
 10
178.4618010582822
 20
132.8883489527501
 30
0.0
  0
LINE
  5
B3
330
1F
100
AcDbEntity
  8
0
  6
Continuous
 62
     7
370
    25
100
AcDbLine
 10
178.4618010583
 20
148.4062819059
 30
0.0
 11
178.4618010583
 21
132.8883489528
 31
0.0
  0
SPLINE
  5
B4
330
1F
100
AcDbEntity
  8
0
  6
Continuous
 62
     7
370
    25
100
AcDbSpline
210
0.0
220
0.0
230
1.0
 70
     8
 71
     3
 72
    16
 73
    12
 74
     0
 42
0.000000001
 43
0.00000001
 40
0.0
 40
0.0
 40
0.0
 40
0.0
 40
0.5000000000000026
 40
0.5000000000000026
 40
0.7500000000000041
 40
0.7500000000000041
 40
0.8750000000000048
 40
0.8750000000000048
 40
0.9375000000000024
 40
0.9375000000000024
 40
1.0
 40
1.0
 40
1.0
 40
1.0
 10
178.4618010582822
 20
147.9260561152413
 30
0.0
 10
178.4618010582822
 20
147.9013849591984
 30
0.0
 10
178.4576353598223
 20
147.8738031278071
 30
0.0
 10
178.4313770314973
 20
147.8234602569838
 30
0.0
 10
178.4198732497597
 20
147.8051707589219
 30
0.0
 10
178.3857424904132
 20
147.7740157278849
 30
0.0
 10
178.3713206037425
 20
147.7623763526731
 30
0.0
 10
178.3357536353047
 20
147.7454943267421
 30
0.0
 10
178.32080186701
 20
147.7401052229344
 30
0.0
 10
178.2917980486503
 20
147.7334847269899
 30
0.0
 10
178.278382694641
 20
147.7321321387834
 30
0.0
 10
178.2668241694044
 20
147.7318325149118
 30
0.0
  0
SPLINE
  5
B5
330
1F
100
AcDbEntity
  8
0
  6
Continuous
 62
     7
370
    25
100
AcDbSpline
210
0.0
220
0.0
230
1.0
 70
     8
 71
     3
 72
    12
 73
     8
 74
     0
 42
0.000000001
 43
0.00000001
 40
0.0
 40
0.0
 40
0.0
 40
0.0
 40
0.2500000000000001
 40
0.2500000000000001
 40
0.5000000000000002
 40
0.5000000000000002
 40
1.0
 40
1.0
 40
1.0
 40
1.0
 10
178.2668241694137
 20
147.7318325149136
 30
0.0
 10
178.236636392864
 20
147.731049977496
 30
0.0
 10
178.2032825887723
 20
147.7301566456775
 30
0.0
 10
178.1301563855764
 20
147.7282293368739
 30
0.0
 10
178.0899211825522
 20
147.7271898056613
 30
0.0
 10
177.9722295524191
 20
147.724271922314
 30
0.0
 10
177.9018488792591
 20
147.7226763162438
 30
0.0
 10
177.8452887718285
 20
147.7212553294759
 30
0.0
  0
SPLINE
  5
B6
330
1F
100
AcDbEntity
  8
0
  6
Continuous
 62
     7
370
    25
100
AcDbSpline
210
0.0
220
0.0
230
1.0
 70
     8
 71
     3
 72
    16
 73
    12
 74
     0
 42
0.000000001
 43
0.00000001
 40
0.0
 40
0.0
 40
0.0
 40
0.0
 40
0.2500000000000001
 40
0.2500000000000001
 40
0.3750000000000001
 40
0.3750000000000001
 40
0.5000000000000001
 40
0.5000000000000001
 40
0.7500000000000001
 40
0.7500000000000001
 40
1.0
 40
1.0
 40
1.0
 40
1.0
 10
177.3404807147226
 20
131.0526359557611
 30
0.0
 10
177.1792482372381
 20
130.2402261805143
 30
0.0
 10
177.0587683975985
 20
129.4001478861295
 30
0.0
 10
176.9363878802852
 20
128.0988528367668
 30
0.0
 10
176.9054102198877
 20
127.658171801182
 30
0.0
 10
176.8637964822598
 20
126.7623321602508
 30
0.0
 10
176.8535605693269
 20
126.3156740290484
 30
0.0
 10
176.8533721722708
 20
124.9803640719085
 30
0.0
 10
176.8935168749084
 20
124.095868698601
 30
0.0
 10
177.057670629848
 20
122.338618810575
 30
0.0
 10
177.1792222802576
 20
121.4928278641618
 30
0.0
 10
177.3404807147226
 20
120.680287298239
 30
0.0
  0
LINE
  5
B7
330
1F
100
AcDbEntity
  8
0
  6
Continuous
 62
     7
370
    25
100
AcDbLine
 10
176.6667610803
 20
119.4787402652
 30
0.0
 11
177.8452887718
 21
119.4639359064
 31
0.0
  0
LINE
  5
B8
330
1F
100
AcDbEntity
  8
0
  6
Continuous
 62
     7
370
    25
100
AcDbLine
 10
176.6667610803
 20
132.2541829888
 30
0.0
 11
176.6667610803
 21
119.4787402652
 31
0.0
  0
LINE
  5
B9
330
1F
100
AcDbEntity
  8
0
  6
Continuous
 62
     7
370
    25
100
AcDbLine
 10
176.6667610803
 20
132.2541829888
 30
0.0
 11
177.8452887718
 21
132.2689873476
 31
0.0
  0
LINE
  5
BA
330
1F
100
AcDbEntity
  8
0
  6
Continuous
 62
     7
370
    25
100
AcDbLine
 10
176.4618010583
 20
132.3516398887
 30
0.0
 11
176.4618010583
 21
119.3812833653
 31
0.0
  0
LINE
  5
BB
330
1F
100
AcDbEntity
  8
0
  6
Continuous
 62
     7
370
    25
100
AcDbLine
 10
142.1618010583
 20
119.8121510595
 30
0.0
 11
176.4618010583
 21
119.3812833653
 31
0.0
  0
LINE
  5
BC
330
1F
100
AcDbEntity
  8
0
  6
Continuous
 62
     7
370
    25
100
AcDbLine
 10
142.1618010583
 20
131.9207721945
 30
0.0
 11
142.1618010583
 21
119.8121510595
 31
0.0
  0
LINE
  5
BD
330
1F
100
AcDbEntity
  8
0
  6
Continuous
 62
     7
370
    25
100
AcDbLine
 10
142.1618010583
 20
131.9207721945
 30
0.0
 11
176.4618010583
 21
132.3516398887
 31
0.0
  0
LWPOLYLINE
  5
BE
330
1F
100
AcDbEntity
  8
0
  6
Continuous
 62
     7
370
    25
100
AcDbPolyline
 90
        9
 70
   128
 43
0.0
 10
176.4618010583
 20
119.3812833653
 10
176.4666227503
 20
119.4007379846
 10
176.4789426108
 20
119.4193484562
 10
176.4982871944
 20
119.43639959
 10
176.5239130996
 20
119.4512361205
 10
176.5548355373
 20
119.4632878882
 10
176.5898661754
 20
119.4720917504
 10
176.6276588063
 20
119.4773093796
 10
176.6667610803
 20
119.4787402652
  0
LWPOLYLINE
  5
BF
330
1F
100
AcDbEntity
  8
0
  6
Continuous
 62
     7
370
    25
100
AcDbPolyline
 90
        9
 70
   128
 43
0.0
 10
176.4618010583
 20
132.3516398887
 10
176.4666227503
 20
132.3321852694
 10
176.4789426108
 20
132.3135747978
 10
176.4982871944
 20
132.296523664
 10
176.5239130996
 20
132.2816871335
 10
176.5548355373
 20
132.2696353658
 10
176.5898661754
 20
132.2608315036
 10
176.6276588063
 20
132.2556138744
 10
176.6667610803
 20
132.2541829888
  0
LINE
  5
C0
330
1F
100
AcDbEntity
  8
0
  6
Continuous
 62
     7
370
    25
100
AcDbLine
 10
140.6618010583
 20
120.2451637613
 30
0.0
 11
142.1618010583
 21
119.8121510595
 31
0.0
  0
LINE
  5
C1
330
1F
100
AcDbEntity
  8
0
  6
Continuous
 62
     7
370
    25
100
AcDbLine
 10
140.6618010583
 20
131.4877594927
 30
0.0
 11
140.6618010583
 21
120.2451637613
 31
0.0
  0
LINE
  5
C2
330
1F
100
AcDbEntity
  8
0
  6
Continuous
 62
     7
370
    25
100
AcDbLine
 10
140.6618010583
 20
131.4877594927
 30
0.0
 11
142.1618010583
 21
131.9207721945
 31
0.0
  0
LINE
  5
C3
330
1F
100
AcDbEntity
  8
0
  6
Continuous
 62
     7
370
    25
100
AcDbLine
 10
142.1618010583
 20
131.9207721945
 30
0.0
 11
142.1618010583
 21
147.0248250233
 31
0.0
  0
LINE
  5
C4
330
1F
100
AcDbEntity
  8
0
  6
Continuous
 62
     7
370
    25
100
AcDbLine
 10
142.1618010583
 20
147.0248250233
 30
0.0
 11
176.4618010583
 21
147.8865604116
 31
0.0
  0
LINE
  5
C5
330
1F
100
AcDbEntity
  8
0
  6
Continuous
 62
     7
370
    25
100
AcDbLine
 10
176.4618010583
 20
132.3516398887
 30
0.0
 11
176.4618010583
 21
147.8865604116
 31
0.0
  0
ARC
  5
C6
330
1F
100
AcDbEntity
  8
0
  6
Continuous
 62
     7
370
    25
100
AcDbCircle
 10
176.6617379692
 20
147.8915835227
 30
0.0
 40
0.2000000000000059
100
AcDbArc
 50
181.4391666667
 51
271.4391666667
  0
LINE
  5
C7
330
1F
100
AcDbEntity
  8
0
  6
Continuous
 62
     7
370
    25
100
AcDbLine
 10
176.6667610803
 20
132.2541829888
 30
0.0
 11
176.6667610803
 21
147.6916466118
 31
0.0
  0
LINE
  5
C8
330
1F
100
AcDbEntity
  8
0
  6
Continuous
 62
     7
370
    25
100
AcDbLine
 10
142.1618010583
 20
104.7080982307
 30
0.0
 11
142.1618010583
 21
119.8121510595
 31
0.0
  0
LINE
  5
C9
330
1F
100
AcDbEntity
  8
0
  6
Continuous
 62
     7
370
    25
100
AcDbLine
 10
176.4618010583
 20
103.8463628424
 30
0.0
 11
176.4618010583
 21
119.3812833653
 31
0.0
  0
LINE
  5
CA
330
1F
100
AcDbEntity
  8
0
  6
Continuous
 62
     7
370
    25
100
AcDbLine
 10
142.1618010583
 20
104.7080982307
 30
0.0
 11
176.4618010583
 21
103.8463628424
 31
0.0
  0
LINE
  5
CB
330
1F
100
AcDbEntity
  8
0
  6
Continuous
 62
     7
370
    25
100
AcDbLine
 10
176.6667610803
 20
104.0412766422
 30
0.0
 11
176.6667610803
 21
119.4787402652
 31
0.0
  0
ARC
  5
CC
330
1F
100
AcDbEntity
  8
0
  6
Continuous
 62
     7
370
    25
100
AcDbCircle
 10
176.6617379692
 20
103.8413397313
 30
0.0
 40
0.2000000000000059
100
AcDbArc
 50
88.5608333333
 51
178.5608333333
  0
LINE
  5
CD
330
1F
100
AcDbEntity
  8
0
  6
Continuous
 62
     7
370
    25
100
AcDbLine
 10
178.2668241694
 20
104.0010907391
 30
0.0
 11
178.2668241694
 21
119.4338585264
 31
0.0
  0
LINE
  5
CE
330
1F
100
AcDbEntity
  8
0
  6
Continuous
 62
     7
370
    25
100
AcDbLine
 10
178.2668241694
 20
132.2990647276
 30
0.0
 11
178.2668241694
 21
147.7318325149
 31
0.0
  0
LINE
  5
CF
330
1F
100
AcDbEntity
  8
0
  6
Continuous
 62
     7
370
    25
100
AcDbLine
 10
176.6667610803
 20
147.6916466118
 30
0.0
 11
177.8452887718
 21
147.7212553295
 31
0.0
  0
LINE
  5
D0
330
1F
100
AcDbEntity
  8
0
  6
Continuous
 62
     7
370
    25
100
AcDbLine
 10
176.6667610803
 20
104.0412766422
 30
0.0
 11
177.8452887718
 21
104.0116679245
 31
0.0
  0
LINE
  5
D1
330
1F
100
AcDbEntity
  8
0
  6
Continuous
 62
     7
370
    25
100
AcDbLine
 10
140.6618010583
 20
146.1587996195
 30
0.0
 11
142.1618010583
 21
147.0248250233
 31
0.0
  0
LINE
  5
D2
330
1F
100
AcDbEntity
  8
0
  6
Continuous
 62
     7
370
    25
100
AcDbLine
 10
140.6618010583
 20
131.4877594927
 30
0.0
 11
140.6618010583
 21
146.1587996195
 31
0.0
  0
LINE
  5
D3
330
1F
100
AcDbEntity
  8
0
  6
Continuous
 62
     7
370
    25
100
AcDbLine
 10
140.6618010583
 20
105.5741236345
 30
0.0
 11
142.1618010583
 21
104.7080982307
 31
0.0
  0
LINE
  5
D4
330
1F
100
AcDbEntity
  8
0
  6
Continuous
 62
     7
370
    25
100
AcDbLine
 10
140.6618010583
 20
105.5741236345
 30
0.0
 11
140.6618010583
 21
120.2451637613
 31
0.0
  0
CIRCLE
  5
D5
330
1F
100
AcDbEntity
  8
0
  6
Continuous
 62
     7
370
    25
100
AcDbCircle
 10
236.6618010583
 20
125.866461627
 30
0.0
 40
4.000000000000001
  0
SPLINE
  5
D6
330
1F
100
AcDbEntity
  8
0
  6
Continuous
 62
     7
370
    25
100
AcDbSpline
210
0.0
220
0.0
230
1.0
 70
    24
 71
     3
 72
    11
 73
     7
 74
     0
 42
0.000000001
 43
0.00000001
 40
0.0
 40
0.0
 40
0.0
 40
0.0
 40
0.2164553779443427
 40
0.4403112895790605
 40
0.7519005688038691
 40
1.0
 40
1.0
 40
1.0
 40
1.0
 10
238.4513314156474
 20
128.8325332883171
 30
0.0
 10
238.5659971212517
 20
128.6247825509951
 30
0.0
 10
238.7992489128431
 20
128.2021781512801
 30
0.0
 10
239.2321019403483
 20
127.4179372560418
 30
0.0
 10
239.6964144570894
 20
126.5766982195534
 30
0.0
 10
239.9935465860326
 20
126.0383557522508
 30
0.0
 10
240.1252596451105
 20
125.7997187073369
 30
0.0
  0
SPLINE
  5
D7
330
1F
100
AcDbEntity
  8
0
  6
Continuous
 62
     7
370
    25
100
AcDbSpline
210
0.0
220
0.0
230
1.0
 70
    24
 71
     3
 72
    12
 73
     8
 74
     0
 42
0.000000001
 43
0.00000001
 40
0.0
 40
0.0
 40
0.0
 40
0.0
 40
0.1861377802533178
 40
0.5280437118986471
 40
0.7067704987460168
 40
0.8920530907708609
 40
0.9999999999999999
 40
0.9999999999999999
 40
0.9999999999999999
 40
0.9999999999999999
 10
234.9878728288191
 20
128.8992762079803
 30
0.0
 10
235.1909966326075
 20
128.8953618907225
 30
0.0
 10
235.7672270313014
 20
128.8842575860966
 30
0.0
 10
236.6296950427654
 20
128.8676373113746
 30
0.0
 10
237.4750250520201
 20
128.8513472962114
 30
0.0
 10
238.0157447351248
 20
128.8409273043262
 30
0.0
 10
238.3341255315647
 20
128.8347919158449
 30
0.0
 10
238.4513314156474
 20
128.8325332883171
 30
0.0
  0
SPLINE
  5
D8
330
1F
100
AcDbEntity
  8
0
  6
Continuous
 62
     7
370
    25
100
AcDbSpline
210
0.0
220
0.0
230
1.0
 70
    24
 71
     3
 72
    11
 73
     7
 74
     0
 42
0.000000001
 43
0.00000001
 40
0.0
 40
0.0
 40
0.0
 40
0.0
 40
0.216455377944342
 40
0.4403112895790431
 40
0.7519005688038658
 40
1.0
 40
1.0
 40
1.0
 40
1.0
 10
233.1983424714539
 20
125.9332045466631
 30
0.0
 10
233.3209270348276
 20
126.1363833293204
 30
0.0
 10
233.5702872849362
 20
126.5496875061743
 30
0.0
 10
234.0330333091465
 20
127.3166696717179
 30
0.0
 10
234.5294114270301
 20
128.139395624755
 30
0.0
 10
234.8470636151786
 20
128.6658908303517
 30
0.0
 10
234.9878728288191
 20
128.8992762079803
 30
0.0
  0
SPLINE
  5
D9
330
1F
100
AcDbEntity
  8
0
  6
Continuous
 62
     7
370
    25
100
AcDbSpline
210
0.0
220
0.0
230
1.0
 70
    24
 71
     3
 72
    11
 73
     7
 74
     0
 42
0.000000001
 43
0.00000001
 40
0.0
 40
0.0
 40
0.0
 40
0.0
 40
0.2164553779443407
 40
0.4403112895790607
 40
0.7519005688038751
 40
0.9999999999999999
 40
0.9999999999999999
 40
0.9999999999999999
 40
0.9999999999999999
 10
234.872270700917
 20
122.9003899656829
 30
0.0
 10
234.7576049953128
 20
123.1081407030049
 30
0.0
 10
234.5243532037213
 20
123.53074510272
 30
0.0
 10
234.0915001762161
 20
124.3149859979582
 30
0.0
 10
233.627187659475
 20
125.1562250344466
 30
0.0
 10
233.3300555305318
 20
125.6945675017493
 30
0.0
 10
233.1983424714539
 20
125.9332045466631
 30
0.0
  0
SPLINE
  5
DA
330
1F
100
AcDbEntity
  8
0
  6
Continuous
 62
     7
370
    25
100
AcDbSpline
210
0.0
220
0.0
230
1.0
 70
    24
 71
     3
 72
    12
 73
     8
 74
     0
 42
0.000000001
 43
0.00000001
 40
0.0
 40
0.0
 40
0.0
 40
0.0
 40
0.1079478804766386
 40
0.2872214144351724
 40
0.4719515370514587
 40
0.8138605449802325
 40
0.9999999999999999
 40
0.9999999999999999
 40
0.9999999999999999
 40
0.9999999999999999
 10
238.3357292877453
 20
122.8336470460198
 30
0.0
 10
238.218520255432
 20
122.8359057342158
 30
0.0
 10
237.9066573091937
 20
122.8419155198231
 30
0.0
 10
237.3666237592369
 20
122.852322289512
 30
0.0
 10
236.5213770103719
 20
122.8686107001977
 30
0.0
 10
235.6516310170785
 20
122.8853712259849
 30
0.0
 10
235.0753960981192
 20
122.8964756177191
 30
0.0
 10
234.872270700917
 20
122.9003899656829
 30
0.0
  0
SPLINE
  5
DB
330
1F
100
AcDbEntity
  8
0
  6
Continuous
 62
     7
370
    25
100
AcDbSpline
210
0.0
220
0.0
230
1.0
 70
    24
 71
     3
 72
    11
 73
     7
 74
     0
 42
0.000000001
 43
0.00000001
 40
0.0
 40
0.0
 40
0.0
 40
0.0
 40
0.2164553779443526
 40
0.4403112895790561
 40
0.7519005688038688
 40
1.0
 40
1.0
 40
1.0
 40
1.0
 10
240.1252596451105
 20
125.7997187073369
 30
0.0
 10
240.0026750817368
 20
125.5965399246797
 30
0.0
 10
239.7533148316282
 20
125.1832357478258
 30
0.0
 10
239.2905688074178
 20
124.4162535822822
 30
0.0
 10
238.7941906895343
 20
123.5935276292451
 30
0.0
 10
238.4765385013858
 20
123.0670324236483
 30
0.0
 10
238.3357292877453
 20
122.8336470460198
 30
0.0
  0
CIRCLE
  5
DC
330
1F
100
AcDbEntity
  8
0
  6
Continuous
 62
     7
370
    25
100
AcDbCircle
 10
236.6618010583
 20
125.866461627
 30
0.0
 40
4.999999999999966
  0
CIRCLE
  5
DD
330
1F
100
AcDbEntity
  8
0
  6
Continuous
 62
     7
370
    25
100
AcDbCircle
 10
236.6618010583
 20
125.866461627
 30
0.0
 40
5.999999999999987
  0
ARC
  5
DE
330
1F
100
AcDbEntity
  8
0
  6
Continuous
 62
     7
370
    25
100
AcDbCircle
 10
236.6618010583
 20
125.866461627
 30
0.0
 40
3.000000000000063
100
AcDbArc
 50
148.8960126842
 51
208.8960126842
  0
ARC
  5
DF
330
1F
100
AcDbEntity
  8
0
  6
Continuous
 62
     7
370
    25
100
AcDbCircle
 10
236.6618010583
 20
125.866461627
 30
0.0
 40
3.000000000000008
100
AcDbArc
 50
208.8960126842
 51
268.8960126842
  0
ARC
  5
E0
330
1F
100
AcDbEntity
  8
0
  6
Continuous
 62
     7
370
    25
100
AcDbCircle
 10
236.6618010583
 20
125.866461627
 30
0.0
 40
3.000000000000008
100
AcDbArc
 50
268.8960126842
 51
328.8960126842
  0
ARC
  5
E1
330
1F
100
AcDbEntity
  8
0
  6
Continuous
 62
     7
370
    25
100
AcDbCircle
 10
236.6618010583
 20
125.866461627
 30
0.0
 40
3.000000000000002
100
AcDbArc
 50
328.8960126842
 51
28.8960126842
  0
ARC
  5
E2
330
1F
100
AcDbEntity
  8
0
  6
Continuous
 62
     7
370
    25
100
AcDbCircle
 10
236.6618010583
 20
125.866461627
 30
0.0
 40
3.000000000000063
100
AcDbArc
 50
88.8960126842
 51
148.8960126842
  0
ARC
  5
E3
330
1F
100
AcDbEntity
  8
0
  6
Continuous
 62
     7
370
    25
100
AcDbCircle
 10
236.6618010583
 20
125.866461627
 30
0.0
 40
3.000000000000022
100
AcDbArc
 50
28.8960126842
 51
88.8960126842
  0
CIRCLE
  5
E4
330
1F
100
AcDbEntity
  8
0
  6
Continuous
 62
     7
370
    25
100
AcDbCircle
 10
209.6618010583
 20
125.866461627
 30
0.0
 40
3.999999999999988
  0
SPLINE
  5
E5
330
1F
100
AcDbEntity
  8
0
  6
Continuous
 62
     7
370
    25
100
AcDbSpline
210
0.0
220
0.0
230
1.0
 70
    24
 71
     3
 72
    12
 73
     8
 74
     0
 42
0.000000001
 43
0.00000001
 40
0.0
 40
0.0
 40
0.0
 40
0.0
 40
0.1861479003777266
 40
0.5280724211055577
 40
0.7098023923067979
 40
0.8920472218057062
 40
1.0
 40
1.0
 40
1.0
 40
1.0
 10
213.1252755996362
 20
125.9323714243962
 30
0.0
 10
213.0203687171998
 20
126.106344787994
 30
0.0
 10
212.7227643322651
 20
126.5998799561939
 30
0.0
 10
212.2753399197473
 20
127.3418706454006
 30
0.0
 10
211.839039014185
 20
128.0654145570928
 30
0.0
 10
211.5596918211742
 20
128.528672730923
 30
0.0
 10
211.3969852166127
 20
128.7984988340132
 30
0.0
 10
211.3364587700558
 20
128.8988734638713
 30
0.0
  0
SPLINE
  5
E6
330
1F
100
AcDbEntity
  8
0
  6
Continuous
 62
     7
370
    25
100
AcDbSpline
210
0.0
220
0.0
230
1.0
 70
    24
 71
     3
 72
    11
 73
     7
 74
     0
 42
0.000000001
 43
0.00000001
 40
0.0
 40
0.0
 40
0.0
 40
0.0
 40
0.21645537794435
 40
0.4403112895790631
 40
0.7519005688038922
 40
1.0
 40
1.0
 40
1.0
 40
1.0
 10
211.3364587700558
 20
128.8988734638713
 30
0.0
 10
211.0992074081774
 20
128.894358578889
 30
0.0
 10
210.6165931433106
 20
128.8851744465854
 30
0.0
 10
209.7209899659912
 20
128.8681311499595
 30
0.0
 10
208.7602949059164
 20
128.8498491571189
 30
0.0
 10
208.1455077568023
 20
128.8381497795268
 30
0.0
 10
207.8729842287019
 20
128.8329636664751
 30
0.0
  0
SPLINE
  5
E7
330
1F
100
AcDbEntity
  8
0
  6
Continuous
 62
     7
370
    25
100
AcDbSpline
210
0.0
220
0.0
230
1.0
 70
    24
 71
     3
 72
    11
 73
     7
 74
     0
 42
0.000000001
 43
0.00000001
 40
0.0
 40
0.0
 40
0.0
 40
0.0
 40
0.216455377944346
 40
0.4403112895790627
 40
0.7519005688038911
 40
1.0
 40
1.0
 40
1.0
 40
1.0
 10
206.1983265169282
 20
125.8005518296039
 30
0.0
 10
206.3130421927776
 20
126.0082749785642
 30
0.0
 10
206.5463956333244
 20
126.4308232583194
 30
0.0
 10
206.9794372941419
 20
127.214960009901
 30
0.0
 10
207.4439521539474
 20
128.0560873336364
 30
0.0
 10
207.7412137703012
 20
128.5943583114855
 30
0.0
 10
207.8729842287019
 20
128.8329636664751
 30
0.0
  0
SPLINE
  5
E8
330
1F
100
AcDbEntity
  8
0
  6
Continuous
 62
     7
370
    25
100
AcDbSpline
210
0.0
220
0.0
230
1.0
 70
    24
 71
     3
 72
    12
 73
     8
 74
     0
 42
0.000000001
 43
0.00000001
 40
0.0
 40
0.0
 40
0.0
 40
0.0
 40
0.1861479003777091
 40
0.5280724211055681
 40
0.7098023923068035
 40
0.8920472218057062
 40
1.0
 40
1.0
 40
1.0
 40
1.0
 10
207.9871433465086
 20
122.8340497901287
 30
0.0
 10
207.8822364640722
 20
123.0080231537265
 30
0.0
 10
207.5846320791374
 20
123.5015583219264
 30
0.0
 10
207.1372076666197
 20
124.2435490111331
 30
0.0
 10
206.7009067610574
 20
124.9670929228253
 30
0.0
 10
206.4215595680466
 20
125.4303510966555
 30
0.0
 10
206.2588529634851
 20
125.7001771997457
 30
0.0
 10
206.1983265169282
 20
125.8005518296039
 30
0.0
  0
SPLINE
  5
E9
330
1F
100
AcDbEntity
  8
0
  6
Continuous
 62
     7
370
    25
100
AcDbSpline
210
0.0
220
0.0
230
1.0
 70
    24
 71
     3
 72
    11
 73
     7
 74
     0
 42
0.000000001
 43
0.00000001
 40
0.0
 40
0.0
 40
0.0
 40
0.0
 40
0.2164553779443467
 40
0.4403112895790624
 40
0.751900568803892
 40
1.0
 40
1.0
 40
1.0
 40
1.0
 10
207.9871433465086
 20
122.8340497901287
 30
0.0
 10
208.224394708387
 20
122.838564675111
 30
0.0
 10
208.7070089732538
 20
122.8477488074146
 30
0.0
 10
209.6026121505733
 20
122.8647921040405
 30
0.0
 10
210.5633072106481
 20
122.8830740968812
 30
0.0
 10
211.1780943597622
 20
122.8947734744733
 30
0.0
 10
211.4506178878626
 20
122.8999595875249
 30
0.0
  0
SPLINE
  5
EA
330
1F
100
AcDbEntity
  8
0
  6
Continuous
 62
     7
370
    25
100
AcDbSpline
210
0.0
220
0.0
230
1.0
 70
    24
 71
     3
 72
    11
 73
     7
 74
     0
 42
0.000000001
 43
0.00000001
 40
0.0
 40
0.0
 40
0.0
 40
0.0
 40
0.2164553779443468
 40
0.4403112895790643
 40
0.7519005688038911
 40
1.0
 40
1.0
 40
1.0
 40
1.0
 10
213.1252755996362
 20
125.9323714243962
 30
0.0
 10
213.0105599237868
 20
125.7246482754358
 30
0.0
 10
212.77720648324
 20
125.3020999956806
 30
0.0
 10
212.3441648224226
 20
124.517963244099
 30
0.0
 10
211.879649962617
 20
123.6768359203637
 30
0.0
 10
211.5823883462632
 20
123.1385649425146
 30
0.0
 10
211.4506178878626
 20
122.8999595875249
 30
0.0
  0
CIRCLE
  5
EB
330
1F
100
AcDbEntity
  8
0
  6
Continuous
 62
     7
370
    25
100
AcDbCircle
 10
209.6618010583
 20
125.866461627
 30
0.0
 40
5.035999999999968
  0
CIRCLE
  5
EC
330
1F
100
AcDbEntity
  8
0
  6
Continuous
 62
     7
370
    25
100
AcDbCircle
 10
209.6618010583
 20
125.866461627
 30
0.0
 40
5.999999999999954
  0
ARC
  5
ED
330
1F
100
AcDbEntity
  8
0
  6
Continuous
 62
     7
370
    25
100
AcDbCircle
 10
209.6618010583
 20
125.866461627
 30
0.0
 40
3.000000000000012
100
AcDbArc
 50
331.0902050579
 51
31.0902050579
  0
ARC
  5
EE
330
1F
100
AcDbEntity
  8
0
  6
Continuous
 62
     7
370
    25
100
AcDbCircle
 10
209.6618010583
 20
125.866461627
 30
0.0
 40
3.000000000000016
100
AcDbArc
 50
31.0902050579
 51
91.0902050579
  0
ARC
  5
EF
330
1F
100
AcDbEntity
  8
0
  6
Continuous
 62
     7
370
    25
100
AcDbCircle
 10
209.6618010583
 20
125.866461627
 30
0.0
 40
3.000000000000003
100
AcDbArc
 50
271.0902050579
 51
331.0902050579
  0
ARC
  5
F0
330
1F
100
AcDbEntity
  8
0
  6
Continuous
 62
     7
370
    25
100
AcDbCircle
 10
209.6618010583
 20
125.866461627
 30
0.0
 40
3.000000000000017
100
AcDbArc
 50
151.0902050579
 51
211.0902050579
  0
ARC
  5
F1
330
1F
100
AcDbEntity
  8
0
  6
Continuous
 62
     7
370
    25
100
AcDbCircle
 10
209.6618010583
 20
125.866461627
 30
0.0
 40
3.000000000000003
100
AcDbArc
 50
211.0902050579
 51
271.0902050579
  0
ARC
  5
F2
330
1F
100
AcDbEntity
  8
0
  6
Continuous
 62
     7
370
    25
100
AcDbCircle
 10
209.6618010583
 20
125.866461627
 30
0.0
 40
3.000000000000017
100
AcDbArc
 50
91.0902050579
 51
151.0902050579
  0
LINE
  5
F3
330
1F
100
AcDbEntity
  8
0
  6
Continuous
 62
     7
370
    25
100
AcDbLine
 10
179.1618010583
 20
94.366461627
 30
0.0
 11
179.1618010583
 21
157.366461627
 31
0.0
  0
LINE
  5
F4
330
1F
100
AcDbEntity
  8
0
  6
Continuous
 62
     7
370
    25
100
AcDbLine
 10
200.1618010583
 20
94.366461627
 30
0.0
 11
200.1618010583
 21
157.366461627
 31
0.0
  0
LINE
  5
F5
330
1F
100
AcDbEntity
  8
0
  6
Continuous
 62
     7
370
    25
100
AcDbLine
 10
201.6618010583
 20
151.866461627
 30
0.0
 11
201.6618010583
 21
99.866461627
 31
0.0
  0
SPLINE
  5
F6
330
1F
100
AcDbEntity
  8
0
  6
HIDDEN
 62
     7
370
    18
100
AcDbSpline
210
0.0
220
0.0
230
1.0
 70
    11
 71
     3
 72
    60
 73
    56
 74
     0
 42
0.000000001
 43
0.00000001
 40
0.0
 40
0.0
 40
0.0
 40
0.0
 40
0.0312499999999998
 40
0.0312499999999998
 40
0.0624999999999997
 40
0.0624999999999997
 40
0.0937499999999995
 40
0.0937499999999995
 40
0.1249999999999994
 40
0.1249999999999994
 40
0.1874999999999989
 40
0.1874999999999989
 40
0.2499999999999984
 40
0.2499999999999984
 40
0.2812499999999983
 40
0.2812499999999983
 40
0.3124999999999983
 40
0.3124999999999983
 40
0.3437499999999983
 40
0.3437499999999983
 40
0.3749999999999982
 40
0.3749999999999982
 40
0.4062499999999982
 40
0.4062499999999982
 40
0.4374999999999981
 40
0.4374999999999981
 40
0.4687499999999981
 40
0.4687499999999981
 40
0.499999999999998
 40
0.499999999999998
 40
0.5624999999999979
 40
0.5624999999999979
 40
0.6249999999999978
 40
0.6249999999999978
 40
0.656249999999998
 40
0.656249999999998
 40
0.6874999999999982
 40
0.6874999999999982
 40
0.7187499999999983
 40
0.7187499999999983
 40
0.7499999999999986
 40
0.7499999999999986
 40
0.7812499999999988
 40
0.7812499999999988
 40
0.8124999999999989
 40
0.8124999999999989
 40
0.8437499999999991
 40
0.8437499999999991
 40
0.8749999999999992
 40
0.8749999999999992
 40
0.9062499999999994
 40
0.9062499999999994
 40
0.9374999999999997
 40
0.9374999999999997
 40
1.0
 40
1.0
 40
1.0
 40
1.0
 10
188.6618010582822
 20
125.866461627
 30
0.0
 10
188.6618010582822
 20
125.9986268895434
 30
0.0
 10
188.674772916771
 20
126.1285769505475
 30
0.0
 10
188.7255930864634
 20
126.3842298839076
 30
0.0
 10
188.7640604099304
 20
126.5112593904569
 30
0.0
 10
188.8644586460025
 20
126.7534475215814
 30
0.0
 10
188.9258916769757
 20
126.8683090141343
 30
0.0
 10
189.0710265085206
 20
127.0856892099584
 30
0.0
 10
189.1554816259284
 20
127.1885867771571
 30
0.0
 10
189.4322010762868
 20
127.4652538161649
 30
0.0
 10
189.6552779682048
 20
127.6142519066448
 30
0.0
 10
190.1365613304251
 20
127.8137630471095
 30
0.0
 10
190.3997917494161
 20
127.8663211501062
 30
0.0
 10
190.791193951104
 20
127.8665314324843
 30
0.0
 10
190.9237169792129
 20
127.8535456617572
 30
0.0
 10
191.180247432454
 20
127.8025185135433
 30
0.0
 10
191.3049342667506
 20
127.764763314393
 30
0.0
 10
191.5471135289861
 20
127.6646249814842
 30
0.0
 10
191.6642070611362
 20
127.6020193140727
 30
0.0
 10
191.8809220644916
 20
127.4572860208077
 30
0.0
 10
191.9819408913544
 20
127.3746586735281
 30
0.0
 10
192.1687257788065
 20
127.1880536202766
 30
0.0
 10
192.2515826600027
 20
127.0869385564004
 30
0.0
 10
192.3964669250765
 20
126.8704057524106
 30
0.0
 10
192.4591044328974
 20
126.7535355448095
 30
0.0
 10
192.5595532562972
 20
126.5112376741593
 30
0.0
 10
192.5974043573144
 20
126.3865736756983
 30
0.0
 10
192.6486259225708
 20
126.1302866316344
 30
0.0
 10
192.661754049188
 20
125.9977146358889
 30
0.0
 10
192.6618946895283
 20
125.6061104431149
 30
0.0
 10
192.6095699401564
 20
125.3429451117909
 30
0.0
 10
192.4104588780991
 20
124.8614397426178
 30
0.0
 10
192.2615965416419
 20
124.6381882031337
 30
0.0
 10
191.9852755823164
 20
124.3613319042448
 30
0.0
 10
191.8825119339428
 20
124.2768184574011
 30
0.0
 10
191.6651283765634
 20
124.1314011839609
 30
0.0
 10
191.5503296086069
 20
124.0698899849025
 30
0.0
 10
191.3084528851829
 20
123.9693601366477
 30
0.0
 10
191.1812992771827
 20
123.9307151134297
 30
0.0
 10
190.9256332677501
 20
123.8796587858787
 30
0.0
 10
190.7957672299941
 20
123.866593927333
 30
0.0
 10
190.5318147032624
 20
123.8663313065351
 30
0.0
 10
190.4014103798384
 20
123.8792083067791
 30
0.0
 10
190.1457596164591
 20
123.9297943105849
 30
0.0
 10
190.0188940673447
 20
123.9680706752068
 30
0.0
 10
189.7763736093987
 20
124.0683415426868
 30
0.0
 10
189.6614469707384
 20
124.1296975668277
 30
0.0
 10
189.4440755019064
 20
124.2745438620005
 30
0.0
 10
189.3410616892442
 20
124.3589213764951
 30
0.0
 10
189.1563611436623
 20
124.5433286966834
 30
0.0
 10
189.0735314094057
 20
124.6439017599528
 30
0.0
 10
188.9272789708081
 20
124.8621279005318
 30
0.0
 10
188.8649104900158
 20
124.9786830104531
 30
0.0
 10
188.714954338449
 20
125.3395326044868
 30
0.0
 10
188.6618010582822
 20
125.6021311019133
 30
0.0
 10
188.6618010582822
 20
125.866461627
 30
0.0
  0
SPLINE
  5
F7
330
1F
100
AcDbEntity
  8
0
  6
HIDDEN
 62
     7
370
    18
100
AcDbSpline
210
0.0
220
0.0
230
1.0
 70
     8
 71
     3
 72
    12
 73
     8
 74
     0
 42
0.000000001
 43
0.00000001
 40
0.0
 40
0.0
 40
0.0
 40
0.0
 40
0.2500000000000001
 40
0.2500000000000001
 40
0.5000000000000001
 40
0.5000000000000001
 40
1.0
 40
1.0
 40
1.0
 40
1.0
 10
189.1895578718487
 20
116.4783951956639
 30
0.0
 10
189.1264778333553
 20
116.4783951956639
 30
0.0
 10
189.0673292111739
 20
116.453030876449
 30
0.0
 10
188.9688566611048
 20
116.3788660160761
 30
0.0
 10
188.9298200491201
 20
116.332345675522
 30
0.0
 10
188.8299235823411
 20
116.1822033326767
 30
0.0
 10
188.7875027012744
 20
116.0705101257045
 30
0.0
 10
188.7565451699564
 20
115.9570923063148
 30
0.0
  0
LINE
  5
F8
330
1F
100
AcDbEntity
  8
0
  6
HIDDEN
 62
     7
370
    18
100
AcDbLine
 10
192.1340442447
 20
116.4783951957
 30
0.0
 11
189.1895578718
 21
116.4783951957
 31
0.0
  0
SPLINE
  5
F9
330
1F
100
AcDbEntity
  8
0
  6
HIDDEN
 62
     7
370
    18
100
AcDbSpline
210
0.0
220
0.0
230
1.0
 70
     8
 71
     3
 72
    12
 73
     8
 74
     0
 42
0.000000001
 43
0.00000001
 40
0.0
 40
0.0
 40
0.0
 40
0.0
 40
0.4999999999999981
 40
0.4999999999999981
 40
0.749999999999999
 40
0.749999999999999
 40
1.0
 40
1.0
 40
1.0
 40
1.0
 10
192.567056946608
 20
115.9570923063148
 30
0.0
 10
192.5363347046889
 20
116.069648105724
 30
0.0
 10
192.4934974901538
 20
116.1824059654636
 30
0.0
 10
192.394070465954
 20
116.3319468512599
 30
0.0
 10
192.3543182711373
 20
116.3792395829668
 30
0.0
 10
192.2562768142791
 20
116.4529758762882
 30
0.0
 10
192.1967207586916
 20
116.478395195664
 30
0.0
 10
192.1340442447158
 20
116.478395195664
 30
0.0
  0
ELLIPSE
  5
FA
330
1F
100
AcDbEntity
  8
0
  6
HIDDEN
 62
     7
370
    18
100
AcDbEllipse
 10
176.3146468689
 20
125.866461627
 30
0.0
 11
-14.75368316065624
 21
31.09325491558115
 31
0.0
210
0.0
220
0.0
230
1.0
 40
0.3419987131
 41
3.300734856217122
 42
4.231496223360775
  0
SPLINE
  5
FB
330
1F
100
AcDbEntity
  8
0
  6
HIDDEN
 62
     7
370
    18
100
AcDbSpline
210
0.0
220
0.0
230
1.0
 70
     8
 71
     3
 72
    12
 73
     8
 74
     0
 42
0.000000001
 43
0.00000001
 40
0.0
 40
0.0
 40
0.0
 40
0.0
 40
0.2499999999999982
 40
0.2499999999999982
 40
0.4999999999999963
 40
0.4999999999999963
 40
1.0
 40
1.0
 40
1.0
 40
1.0
 10
192.1340442447158
 20
95.79796966812692
 30
0.0
 10
192.1971242832091
 20
95.79796966812692
 30
0.0
 10
192.2562729053906
 20
95.80587559433937
 30
0.0
 10
192.3547454554596
 20
95.82920075577562
 30
0.0
 10
192.3937820674444
 20
95.84391354560732
 30
0.0
 10
192.4936785342234
 20
95.89186934633824
 30
0.0
 10
192.53609941529
 20
95.9281315029183
 30
0.0
 10
192.567056946608
 20
95.9657191668828
 30
0.0
  0
LINE
  5
FC
330
1F
100
AcDbEntity
  8
0
  6
HIDDEN
 62
     7
370
    18
100
AcDbLine
 10
189.1895578718
 20
95.7979696681
 30
0.0
 11
192.1340442447
 21
95.7979696681
 31
0.0
  0
SPLINE
  5
FD
330
1F
100
AcDbEntity
  8
0
  6
HIDDEN
 62
     7
370
    18
100
AcDbSpline
210
0.0
220
0.0
230
1.0
 70
     8
 71
     3
 72
    12
 73
     8
 74
     0
 42
0.000000001
 43
0.00000001
 40
0.0
 40
0.0
 40
0.0
 40
0.0
 40
0.4999999999999971
 40
0.4999999999999971
 40
0.7499999999999986
 40
0.7499999999999986
 40
1.0
 40
1.0
 40
1.0
 40
1.0
 10
188.7565451699565
 20
95.9657191668828
 30
0.0
 10
188.7872674118755
 20
95.92841718392975
 30
0.0
 10
188.8301046264107
 20
95.89180535188336
 30
0.0
 10
188.9295316506105
 20
95.84404056859816
 30
0.0
 10
188.9692838454272
 20
95.82908305311578
 30
0.0
 10
189.0673253022854
 20
95.80589310734665
 30
0.0
 10
189.1268813578728
 20
95.79796966812694
 30
0.0
 10
189.1895578718487
 20
95.79796966812694
 30
0.0
  0
ELLIPSE
  5
FE
330
1F
100
AcDbEntity
  8
0
  6
HIDDEN
 62
     7
370
    18
100
AcDbEllipse
 10
205.0089552476
 20
125.866461627
 30
0.0
 11
14.75368316065618
 21
31.09325491558114
 31
0.0
210
0.0
220
0.0
230
1.0
 40
0.3419987131
 41
2.051689083818822
 42
2.982450450962501
  0
SPLINE
  5
FF
330
1F
100
AcDbEntity
  8
0
  6
HIDDEN
 62
     7
370
    18
100
AcDbSpline
210
0.0
220
0.0
230
1.0
 70
     8
 71
     3
 72
    12
 73
     8
 74
     0
 42
0.000000001
 43
0.00000001
 40
0.0
 40
0.0
 40
0.0
 40
0.0
 40
0.2500000000000009
 40
0.2500000000000009
 40
0.5000000000000019
 40
0.5000000000000019
 40
1.0
 40
1.0
 40
1.0
 40
1.0
 10
189.1895578718487
 20
155.9349535858732
 30
0.0
 10
189.1264778333553
 20
155.9349535858732
 30
0.0
 10
189.0673292111739
 20
155.9270476596608
 30
0.0
 10
188.9688566611048
 20
155.9037224982245
 30
0.0
 10
188.9298200491201
 20
155.8890097083929
 30
0.0
 10
188.8299235823411
 20
155.8410539076619
 30
0.0
 10
188.7875027012744
 20
155.8047917510819
 30
0.0
 10
188.7565451699565
 20
155.7672040871174
 30
0.0
  0
LINE
  5
100
330
1F
100
AcDbEntity
  8
0
  6
HIDDEN
 62
     7
370
    18
100
AcDbLine
 10
192.1340442447
 20
155.9349535859
 30
0.0
 11
189.1895578718
 21
155.9349535859
 31
0.0
  0
SPLINE
  5
101
330
1F
100
AcDbEntity
  8
0
  6
HIDDEN
 62
     7
370
    18
100
AcDbSpline
210
0.0
220
0.0
230
1.0
 70
     8
 71
     3
 72
    12
 73
     8
 74
     0
 42
0.000000001
 43
0.00000001
 40
0.0
 40
0.0
 40
0.0
 40
0.0
 40
0.5000000000000037
 40
0.5000000000000037
 40
0.7500000000000018
 40
0.7500000000000018
 40
1.0
 40
1.0
 40
1.0
 40
1.0
 10
192.567056946608
 20
155.7672040871174
 30
0.0
 10
192.5363347046889
 20
155.8045060700704
 30
0.0
 10
192.4934974901538
 20
155.8411179021168
 30
0.0
 10
192.394070465954
 20
155.888882685402
 30
0.0
 10
192.3543182711373
 20
155.9038402008844
 30
0.0
 10
192.2562768142791
 20
155.9270301466535
 30
0.0
 10
192.1967207586916
 20
155.9349535858732
 30
0.0
 10
192.1340442447158
 20
155.9349535858732
 30
0.0
  0
ELLIPSE
  5
102
330
1F
100
AcDbEntity
  8
0
  6
HIDDEN
 62
     7
370
    18
100
AcDbEllipse
 10
176.3146468689
 20
125.866461627
 30
0.0
 11
14.75368316065632
 21
31.09325491558114
 31
0.0
210
0.0
220
0.0
230
1.0
 40
0.3419987131
 41
5.193281737408641
 42
6.124043104552347
  0
SPLINE
  5
103
330
1F
100
AcDbEntity
  8
0
  6
HIDDEN
 62
     7
370
    18
100
AcDbSpline
210
0.0
220
0.0
230
1.0
 70
     8
 71
     3
 72
    12
 73
     8
 74
     0
 42
0.000000001
 43
0.00000001
 40
0.0
 40
0.0
 40
0.0
 40
0.0
 40
0.2500000000000009
 40
0.2500000000000009
 40
0.5000000000000018
 40
0.5000000000000018
 40
1.0
 40
1.0
 40
1.0
 40
1.0
 10
192.1340442447158
 20
135.2545280583365
 30
0.0
 10
192.1971242832091
 20
135.2545280583365
 30
0.0
 10
192.2562729053906
 20
135.2798923775514
 30
0.0
 10
192.3547454554596
 20
135.3540572379243
 30
0.0
 10
192.3937820674444
 20
135.4005775784785
 30
0.0
 10
192.4936785342234
 20
135.5507199213237
 30
0.0
 10
192.53609941529
 20
135.6624131282959
 30
0.0
 10
192.567056946608
 20
135.7758309476856
 30
0.0
  0
LINE
  5
104
330
1F
100
AcDbEntity
  8
0
  6
HIDDEN
 62
     7
370
    18
100
AcDbLine
 10
189.1895578718
 20
135.2545280583
 30
0.0
 11
192.1340442447
 21
135.2545280583
 31
0.0
  0
SPLINE
  5
105
330
1F
100
AcDbEntity
  8
0
  6
HIDDEN
 62
     7
370
    18
100
AcDbSpline
210
0.0
220
0.0
230
1.0
 70
     8
 71
     3
 72
    12
 73
     8
 74
     0
 42
0.000000001
 43
0.00000001
 40
0.0
 40
0.0
 40
0.0
 40
0.0
 40
0.4999999999999971
 40
0.4999999999999971
 40
0.7499999999999986
 40
0.7499999999999986
 40
1.0
 40
1.0
 40
1.0
 40
1.0
 10
188.7565451699565
 20
135.7758309476856
 30
0.0
 10
188.7872674118756
 20
135.6632751482765
 30
0.0
 10
188.8301046264107
 20
135.5505172885369
 30
0.0
 10
188.9295316506105
 20
135.4009764027405
 30
0.0
 10
188.9692838454272
 20
135.3536836710337
 30
0.0
 10
189.0673253022854
 20
135.2799473777122
 30
0.0
 10
189.1268813578729
 20
135.2545280583365
 30
0.0
 10
189.1895578718487
 20
135.2545280583365
 30
0.0
  0
ELLIPSE
  5
106
330
1F
100
AcDbEntity
  8
0
  6
HIDDEN
 62
     7
370
    18
100
AcDbEllipse
 10
205.0089552476
 20
125.866461627
 30
0.0
 11
-14.75368316065626
 21
31.09325491558114
 31
0.0
210
0.0
220
0.0
230
1.0
 40
0.3419987131
 41
0.1591422026272808
 42
1.089903569770959
  0
LINE
  5
107
330
1F
100
AcDbEntity
  8
0
  6
HIDDEN
 62
     7
370
    18
100
AcDbLine
 10
200.6618010583
 20
94.866461627
 30
0.0
 11
200.6618010583
 21
156.866461627
 31
0.0
  0
LINE
  5
108
330
1F
100
AcDbEntity
  8
0
  6
HIDDEN
 62
     7
370
    18
100
AcDbLine
 10
178.6618010583
 20
94.866461627
 30
0.0
 11
178.6618010583
 21
156.866461627
 31
0.0
  0
LINE
  5
109
330
1F
100
AcDbEntity
  8
0
  6
HIDDEN
 62
     7
370
    18
100
AcDbLine
 10
200.6618010583
 20
98.866461627
 30
0.0
 11
200.6618010583
 21
152.866461627
 31
0.0
  0
LINE
  5
10A
330
1F
100
AcDbEntity
  8
0
  6
HIDDEN
 62
     7
370
    18
100
AcDbLine
 10
253.6618010583
 20
150.866461627
 30
0.0
 11
253.6618010583
 21
100.866461627
 31
0.0
  0
LINE
  5
10B
330
1F
100
AcDbEntity
  8
0
  6
HIDDEN
 62
     7
370
    18
100
AcDbLine
 10
252.6618010583
 20
151.866461627
 30
0.0
 11
252.6618010583
 21
99.866461627
 31
0.0
  0
CIRCLE
  5
10C
330
1F
100
AcDbEntity
  8
0
  6
HIDDEN
 62
     7
370
    18
100
AcDbCircle
 10
209.6618010583
 20
125.866461627
 30
0.0
 40
5.500000000000028
  0
CIRCLE
  5
10D
330
1F
100
AcDbEntity
  8
0
  6
HIDDEN
 62
     7
370
    18
100
AcDbCircle
 10
236.6618010583
 20
125.866461627
 30
0.0
 40
5.500000000000028
  0
LINE
  5
10E
330
1F
100
AcDbEntity
  8
0
  6
HIDDEN
 62
     7
370
    18
100
AcDbLine
 10
178.7546942771
 20
101.7093548458
 30
0.0
 11
178.7546942771
 21
150.0054011165
 31
0.0
  0
LINE
  5
10F
330
1F
100
AcDbEntity
  8
0
  6
HIDDEN
 62
     7
370
    18
100
AcDbLine
 10
178.6618010583
 20
101.616461627
 30
0.0
 11
178.6618010583
 21
150.0982244752
 31
0.0
  0
SPLINE
  5
110
330
1F
100
AcDbEntity
  8
0
  6
HIDDEN
 62
     7
370
    18
100
AcDbSpline
210
0.0
220
0.0
230
1.0
 70
     8
 71
     3
 72
    12
 73
     8
 74
     0
 42
0.000000001
 43
0.00000001
 40
0.0
 40
0.0
 40
0.0
 40
0.0
 40
0.5000000000000002
 40
0.5000000000000002
 40
0.75
 40
0.75
 40
1.0
 40
1.0
 40
1.0
 40
1.0
 10
177.8452887718268
 20
141.318729608838
 30
0.0
 10
177.9016949505075
 20
141.270907235176
 30
0.0
 10
177.9718578519796
 20
141.2306363882348
 30
0.0
 10
178.0898685653715
 20
141.2225905197551
 30
0.0
 10
178.1300743489681
 20
141.2291531180934
 30
0.0
 10
178.2037950457032
 20
141.256535212547
 30
0.0
 10
178.2366557674907
 20
141.2762967030779
 30
0.0
 10
178.2668241694207
 20
141.2992294142665
 30
0.0
  0
SPLINE
  5
111
330
1F
100
AcDbEntity
  8
0
  6
HIDDEN
 62
     7
370
    18
100
AcDbSpline
210
0.0
220
0.0
230
1.0
 70
     8
 71
     3
 72
    16
 73
    12
 74
     0
 42
0.000000001
 43
0.00000001
 40
0.0
 40
0.0
 40
0.0
 40
0.0
 40
0.0625000000000036
 40
0.0625000000000036
 40
0.1250000000000071
 40
0.1250000000000071
 40
0.2500000000000061
 40
0.2500000000000061
 40
0.500000000000004
 40
0.500000000000004
 40
1.0
 40
1.0
 40
1.0
 40
1.0
 10
178.2668241693756
 20
141.2992294143146
 30
0.0
 10
178.2784370692149
 20
141.3080570372959
 30
0.0
 10
178.2917882536474
 20
141.3158914191779
 30
0.0
 10
178.3211880932666
 20
141.3242015452502
 30
0.0
 10
178.3360288178218
 20
141.3237057260152
 30
0.0
 10
178.3718620257905
 20
141.3122547550459
 30
0.0
 10
178.385975233612
 20
141.2955742541872
 30
0.0
 10
178.4204666048309
 20
141.2434535684301
 30
0.0
 10
178.4315506759414
 20
141.2036640744052
 30
0.0
 10
178.4576734937374
 20
141.0803274423081
 30
0.0
 10
178.4618010582822
 20
140.9929060318094
 30
0.0
 10
178.4618010582822
 20
140.9041687894912
 30
0.0
  0
LINE
  5
112
330
1F
100
AcDbEntity
  8
0
  6
HIDDEN
 62
     7
370
    18
100
AcDbLine
 10
178.4618010583
 20
110.8287544645
 30
0.0
 11
178.4618010583
 21
140.9041687895
 31
0.0
  0
SPLINE
  5
113
330
1F
100
AcDbEntity
  8
0
  6
HIDDEN
 62
     7
370
    18
100
AcDbSpline
210
0.0
220
0.0
230
1.0
 70
     8
 71
     3
 72
    16
 73
    12
 74
     0
 42
0.000000001
 43
0.00000001
 40
0.0
 40
0.0
 40
0.0
 40
0.0
 40
0.4999999999999973
 40
0.4999999999999973
 40
0.7499999999999933
 40
0.7499999999999933
 40
0.8749999999999966
 40
0.8749999999999966
 40
0.9374999999999982
 40
0.9374999999999982
 40
1.0
 40
1.0
 40
1.0
 40
1.0
 10
178.4618010582822
 20
110.8287544645088
 30
0.0
 10
178.4618010582822
 20
110.7396280993201
 30
0.0
 10
178.4576547832043
 20
110.6527667317067
 30
0.0
 10
178.4316891878107
 20
110.5297844852127
 30
0.0
 10
178.4202282824333
 20
110.4890131899814
 30
0.0
 10
178.385916544659
 20
110.4373088699816
 30
0.0
 10
178.3718918087293
 20
110.4206385033912
 30
0.0
 10
178.3358688456956
 20
110.4091862829345
 30
0.0
 10
178.3211143366059
 20
110.4087332366594
 30
0.0
 10
178.291762175459
 20
110.4170485578756
 30
0.0
 10
178.278422300955
 20
110.4248774429539
 30
0.0
 10
178.2668241694066
 20
110.4336938397165
 30
0.0
  0
SPLINE
  5
114
330
1F
100
AcDbEntity
  8
0
  6
HIDDEN
 62
     7
370
    18
100
AcDbSpline
210
0.0
220
0.0
230
1.0
 70
     8
 71
     3
 72
    12
 73
     8
 74
     0
 42
0.000000001
 43
0.00000001
 40
0.0
 40
0.0
 40
0.0
 40
0.0
 40
0.2500000000000004
 40
0.2500000000000004
 40
0.5000000000000008
 40
0.5000000000000008
 40
1.0
 40
1.0
 40
1.0
 40
1.0
 10
178.2668241694137
 20
110.4336938397254
 30
0.0
 10
178.2366323276965
 20
110.4566443688232
 30
0.0
 10
178.2032733582818
 20
110.4766138428474
 30
0.0
 10
178.1301360737013
 20
110.5037149764729
 30
0.0
 10
178.0898942010473
 20
110.5103157171183
 30
0.0
 10
177.9721884240788
 20
110.5023468426116
 30
0.0
 10
177.9017779462993
 20
110.4620863844438
 30
0.0
 10
177.8452887718311
 20
110.4141936451656
 30
0.0
  0
SPLINE
  5
115
330
1F
100
AcDbEntity
  8
0
  6
HIDDEN
 62
     7
370
    18
100
AcDbSpline
210
0.0
220
0.0
230
1.0
 70
     8
 71
     3
 72
    12
 73
     8
 74
     0
 42
0.000000001
 43
0.00000001
 40
0.0
 40
0.0
 40
0.0
 40
0.0
 40
0.2499999999999977
 40
0.2499999999999977
 40
0.4999999999999953
 40
0.4999999999999953
 40
1.0
 40
1.0
 40
1.0
 40
1.0
 10
177.8452887718307
 20
110.4141936451658
 30
0.0
 10
177.757134834093
 20
110.3394548373117
 30
0.0
 10
177.6967814094643
 20
110.2484743368294
 30
0.0
 10
177.5905194513974
 20
110.0595605140768
 30
0.0
 10
177.5482872848353
 20
109.9630560545362
 30
0.0
 10
177.4372165895182
 20
109.672288300369
 30
0.0
 10
177.3842798130914
 20
109.4766214858253
 30
0.0
 10
177.3404807147226
 20
109.282555000759
 30
0.0
  0
LINE
  5
116
330
1F
100
AcDbEntity
  8
0
  6
HIDDEN
 62
     7
370
    18
100
AcDbLine
 10
177.3404807147
 20
109.2825550008
 30
0.0
 11
177.3404807147
 21
104.096380672
 31
0.0
  0
SPLINE
  5
117
330
1F
100
AcDbEntity
  8
0
  6
HIDDEN
 62
     7
370
    18
100
AcDbSpline
210
0.0
220
0.0
230
1.0
 70
     8
 71
     3
 72
    12
 73
     8
 74
     0
 42
0.000000001
 43
0.00000001
 40
0.0
 40
0.0
 40
0.0
 40
0.0
 40
0.4999999999999989
 40
0.4999999999999989
 40
0.7499999999999994
 40
0.7499999999999994
 40
1.0
 40
1.0
 40
1.0
 40
1.0
 10
177.3404807147226
 20
104.0963806719979
 30
0.0
 10
177.3842272555592
 20
104.0697865013567
 30
0.0
 10
177.4371116107907
 20
104.050026276031
 30
0.0
 10
177.5486786981268
 20
104.0295752858019
 30
0.0
 10
177.5912622946698
 20
104.0243150611455
 30
0.0
 10
177.6961790217516
 20
104.0164322672229
 30
0.0
 10
177.7577126295964
 20
104.0138681420437
 30
0.0
 10
177.8452887718226
 20
104.011667924524
 30
0.0
  0
LINE
  5
118
330
1F
100
AcDbEntity
  8
0
  6
HIDDEN
 62
     7
370
    18
100
AcDbLine
 10
178.4618010583
 20
103.3266413481
 30
0.0
 11
178.4618010583
 21
103.8068671388
 31
0.0
  0
LINE
  5
119
330
1F
100
AcDbEntity
  8
0
  6
HIDDEN
 62
     7
370
    18
100
AcDbLine
 10
178.4618010583
 20
147.9260561152
 30
0.0
 11
178.4618010583
 21
148.4062819059
 31
0.0
  0
SPLINE
  5
11A
330
1F
100
AcDbEntity
  8
0
  6
HIDDEN
 62
     7
370
    18
100
AcDbSpline
210
0.0
220
0.0
230
1.0
 70
     8
 71
     3
 72
    12
 73
     8
 74
     0
 42
0.000000001
 43
0.00000001
 40
0.0
 40
0.0
 40
0.0
 40
0.0
 40
0.2500000000000004
 40
0.2500000000000004
 40
0.5000000000000009
 40
0.5000000000000009
 40
1.0
 40
1.0
 40
1.0
 40
1.0
 10
177.8452887718305
 20
147.7212553294759
 30
0.0
 10
177.7566041119742
 20
147.7190272621349
 30
0.0
 10
177.6966856962507
 20
147.7165254781046
 30
0.0
 10
177.59102646893
 20
147.7085940422686
 30
0.0
 10
177.5483852308151
 20
147.7033018873717
 30
0.0
 10
177.4371958887126
 20
147.6828969468846
 30
0.0
 10
177.3842692065916
 20
147.6631622552977
 30
0.0
 10
177.3404807147226
 20
147.6365425820021
 30
0.0
  0
LINE
  5
11B
330
1F
100
AcDbEntity
  8
0
  6
HIDDEN
 62
     7
370
    18
100
AcDbLine
 10
177.3404807147
 20
147.636542582
 30
0.0
 11
177.3404807147
 21
142.4503682532
 31
0.0
  0
SPLINE
  5
11C
330
1F
100
AcDbEntity
  8
0
  6
HIDDEN
 62
     7
370
    18
100
AcDbSpline
210
0.0
220
0.0
230
1.0
 70
     8
 71
     3
 72
    12
 73
     8
 74
     0
 42
0.000000001
 43
0.00000001
 40
0.0
 40
0.0
 40
0.0
 40
0.0
 40
0.4999999999999987
 40
0.4999999999999987
 40
0.749999999999998
 40
0.749999999999998
 40
1.0
 40
1.0
 40
1.0
 40
1.0
 10
177.340480714721
 20
142.4503682532413
 30
0.0
 10
177.3842421910195
 20
142.2564684652804
 30
0.0
 10
177.4371485066721
 20
142.0606121013448
 30
0.0
 10
177.5488597043183
 20
141.7684699548477
 30
0.0
 10
177.5913791479042
 20
141.6717520181504
 30
0.0
 10
177.6965024904702
 20
141.4850275817268
 30
0.0
 10
177.758068454187
 20
141.3926768734576
 30
0.0
 10
177.8452887718277
 20
141.3187296088373
 30
0.0
  0
LINE
  5
11D
330
1F
100
AcDbEntity
  8
0
  6
HIDDEN
 62
     7
370
    18
100
AcDbLine
 10
178.4618010583
 20
103.8068671388
 30
0.0
 11
178.4618010583
 21
118.8445743012
 31
0.0
  0
LINE
  5
11E
330
1F
100
AcDbEntity
  8
0
  6
HIDDEN
 62
     7
370
    18
100
AcDbLine
 10
178.4618010583
 20
132.8883489528
 30
0.0
 11
178.4618010583
 21
147.9260561152
 31
0.0
  0
CIRCLE
  5
11F
330
1F
100
AcDbEntity
  8
0
  6
HIDDEN
 62
     7
370
    18
100
AcDbCircle
 10
163.1618010583
 20
125.866461627
 30
0.0
 40
4.049999999999997
  0
LINE
  5
120
330
1F
100
AcDbEntity
  8
0
  6
HIDDEN
 62
     7
370
    18
100
AcDbLine
 10
252.4618010583
 20
109.866461627
 30
0.0
 11
252.4618010583
 21
141.866461627
 31
0.0
  0
LINE
  5
121
330
1F
100
AcDbEntity
  8
0
  6
HIDDEN
 62
     7
370
    18
100
AcDbLine
 10
253.6618010583
 20
108.666461627
 30
0.0
 11
253.6618010583
 21
143.066461627
 31
0.0
  0
LINE
  5
122
330
1F
100
AcDbEntity
  8
0
  6
HIDDEN
 62
     7
370
    18
100
AcDbLine
 10
191.0618010583
 20
109.566461627
 30
0.0
 11
191.0618010583
 21
142.166461627
 31
0.0
  0
LINE
  5
123
330
1F
100
AcDbEntity
  8
0
  6
HIDDEN
 62
     7
370
    18
100
AcDbLine
 10
195.7670270402
 20
109.566461627
 30
0.0
 11
195.7670270402
 21
142.166461627
 31
0.0
  0
LINE
  5
124
330
1F
100
AcDbEntity
  8
0
  6
HIDDEN
 62
     7
370
    18
100
AcDbLine
 10
195.9038350975
 20
109.5905845787
 30
0.0
 11
195.9038350975
 21
142.1423386753
 31
0.0
  0
LINE
  5
125
330
1F
100
AcDbEntity
  8
0
  6
HIDDEN
 62
     7
370
    18
100
AcDbLine
 10
190.6618010583
 20
141.766461627
 30
0.0
 11
190.6618010583
 21
109.966461627
 31
0.0
  0
LINE
  5
126
330
1F
100
AcDbEntity
  8
0
  6
HIDDEN
 62
     7
370
    18
100
AcDbLine
 10
196.6618010583
 20
141.866461627
 30
0.0
 11
196.6618010583
 21
109.866461627
 31
0.0
  0
LINE
  5
127
330
1F
100
AcDbEntity
  8
0
  6
HIDDEN
 62
     7
370
    18
100
AcDbLine
 10
142.1920294979
 20
141.1794126699
 30
0.0
 11
142.1920294979
 21
110.5535105841
 31
0.0
  0
LINE
  5
128
330
1F
100
AcDbEntity
  8
0
  6
HIDDEN
 62
     7
370
    18
100
AcDbLine
 10
140.6618010583
 20
109.6700327825
 30
0.0
 11
140.6618010583
 21
142.0628904715
 31
0.0
  0
LINE
  5
129
330
1F
100
AcDbEntity
  8
0
  6
HIDDEN
 62
     7
370
    18
100
AcDbLine
 10
151.6636023732
 20
109.866461627
 30
0.0
 11
151.6636023732
 21
141.866461627
 31
0.0
  0
LINE
  5
12A
330
1F
100
AcDbEntity
  8
0
  6
HIDDEN
 62
     7
370
    18
100
AcDbLine
 10
153.0778159355
 20
110.4522480646
 30
0.0
 11
153.0778159355
 21
141.2626748844
 31
0.0
  0
LINE
  5
12B
330
1F
100
AcDbEntity
  8
0
  6
HIDDEN
 62
     7
370
    18
100
AcDbLine
 10
150.6618010583
 20
109.866461627
 30
0.0
 11
150.6618010583
 21
141.866461627
 31
0.0
  0
SPLINE
  5
12C
330
1F
100
AcDbEntity
  8
0
  6
HIDDEN
 62
     7
370
    18
100
AcDbSpline
210
0.0
220
0.0
230
1.0
 70
    11
 71
     3
 72
    85
 73
    81
 74
     0
 42
0.000000001
 43
0.00000001
 40
0.0
 40
0.0
 40
0.0
 40
0.0
 40
0.0312500000000007
 40
0.0312500000000007
 40
0.0625000000000014
 40
0.0625000000000014
 40
0.0937500000000021
 40
0.0937500000000021
 40
0.1093750000000022
 40
0.1093750000000022
 40
0.1250000000000023
 40
0.1250000000000023
 40
0.1562500000000021
 40
0.1562500000000021
 40
0.187500000000002
 40
0.187500000000002
 40
0.2031250000000019
 40
0.2031250000000019
 40
0.2187500000000019
 40
0.2187500000000019
 40
0.2500000000000017
 40
0.2500000000000017
 40
0.2812500000000016
 40
0.2812500000000016
 40
0.3125000000000014
 40
0.3125000000000014
 40
0.3437500000000013
 40
0.3437500000000013
 40
0.3593750000000014
 40
0.3593750000000014
 40
0.3750000000000015
 40
0.3750000000000015
 40
0.4062500000000018
 40
0.4062500000000018
 40
0.4375000000000022
 40
0.4375000000000022
 40
0.4687500000000024
 40
0.4687500000000024
 40
0.4843750000000027
 40
0.4843750000000027
 40
0.5000000000000028
 40
0.515625000000003
 40
0.515625000000003
 40
0.5312500000000031
 40
0.5312500000000031
 40
0.5625000000000036
 40
0.5625000000000036
 40
0.5937500000000039
 40
0.5937500000000039
 40
0.6250000000000042
 40
0.6250000000000042
 40
0.6562500000000046
 40
0.6562500000000046
 40
0.6718750000000043
 40
0.6718750000000043
 40
0.6875000000000041
 40
0.6875000000000041
 40
0.7187500000000037
 40
0.7187500000000037
 40
0.7500000000000032
 40
0.7500000000000032
 40
0.7812500000000029
 40
0.7812500000000029
 40
0.7968750000000027
 40
0.7968750000000027
 40
0.8125000000000024
 40
0.8125000000000024
 40
0.843750000000002
 40
0.843750000000002
 40
0.8750000000000017
 40
0.8750000000000017
 40
0.9062500000000012
 40
0.9062500000000012
 40
0.9375000000000008
 40
0.9375000000000008
 40
0.9531250000000007
 40
0.9531250000000007
 40
0.9687500000000004
 40
0.9687500000000004
 40
1.0
 40
1.0
 40
1.0
 40
1.0
 10
236.6618010582823
 20
120.366461627
 30
0.0
 10
236.2954050650477
 20
120.366461627
 30
0.0
 10
235.9357406696961
 20
120.4027024166588
 30
0.0
 10
235.2291199318381
 20
120.5441263137759
 30
0.0
 10
234.8784205711063
 20
120.6511847625952
 30
0.0
 10
234.2139243120004
 20
120.9280956857753
 30
0.0
 10
233.8992104120424
 20
121.0971258710096
 30
0.0
 10
233.4524892376065
 20
121.3962898970005
 30
0.0
 10
233.3071736974019
 20
121.5042822529694
 30
0.0
 10
233.0302465802006
 20
121.731979108678
 30
0.0
 10
232.898228341369
 20
121.8518428616034
 30
0.0
 10
232.5209005239118
 20
122.2292213995303
 30
0.0
 10
232.2941151591513
 20
122.5043290764534
 30
0.0
 10
231.8917162649084
 20
123.1047761878278
 30
0.0
 10
231.7227911635519
 20
123.4201706595143
 30
0.0
 10
231.5162119596253
 20
123.9158329111127
 30
0.0
 10
231.4552146928447
 20
124.0848421986335
 30
0.0
 10
231.3494183579895
 20
124.4307390166316
 30
0.0
 10
231.3045163317024
 20
124.6085280996356
 30
0.0
 10
231.1976616992624
 20
125.1420538213653
 30
0.0
 10
231.162043558816
 20
125.5008636463957
 30
0.0
 10
231.161561002005
 20
126.2247265564606
 30
0.0
 10
231.1979621490999
 20
126.5922514758048
 30
0.0
 10
231.339695388544
 20
127.3001623524873
 30
0.0
 10
231.4445360720835
 20
127.6445828793855
 30
0.0
 10
231.7232416636145
 20
128.314358730585
 30
0.0
 10
231.893915758769
 20
128.6313592635523
 30
0.0
 10
232.1919159754053
 20
129.0761305567116
 30
0.0
 10
232.2984454292689
 20
129.2195649269871
 30
0.0
 10
232.5261943257791
 20
129.4967413737552
 30
0.0
 10
232.6477740947763
 20
129.6307110640481
 30
0.0
 10
233.0273197407128
 20
130.0099493733939
 30
0.0
 10
233.3020715809609
 20
130.2356703368942
 30
0.0
 10
233.8958543080461
 20
130.6337780090179
 30
0.0
 10
234.2172835749127
 20
130.8063728914469
 30
0.0
 10
234.878876899121
 20
131.0817823716703
 30
0.0
 10
235.2219567584983
 20
131.1870629046703
 30
0.0
 10
235.7561477677855
 20
131.294424367136
 30
0.0
 10
235.9377666117628
 20
131.3216123314885
 30
0.0
 10
236.298730903154
 20
131.3574609924576
 30
0.0
 10
236.6596284523893
 20
131.3753166824391
 30
0.0
 10
237.0203943550799
 20
131.3577503818251
 30
0.0
 10
237.3810936752379
 20
131.3222346677863
 30
0.0
 10
237.5624671355451
 20
131.295264007423
 30
0.0
 10
238.0976189192491
 20
131.1881912089877
 30
0.0
 10
238.4415928586394
 20
131.082928545167
 30
0.0
 10
239.1053478760283
 20
130.8069337613645
 30
0.0
 10
239.4267651545136
 20
130.6343266207178
 30
0.0
 10
240.0201757261838
 20
130.2366884679963
 30
0.0
 10
240.2955795213562
 20
130.0107091186483
 30
0.0
 10
240.8039269621535
 20
129.50265829209
 30
0.0
 10
241.0318666100931
 20
129.2249549262692
 30
0.0
 10
241.3294624781506
 20
128.7810241004362
 30
0.0
 10
241.4216080979467
 20
128.6280649033696
 30
0.0
 10
241.5915335909361
 20
128.3118558421294
 30
0.0
 10
241.6696971553848
 20
128.1476269792348
 30
0.0
 10
241.8783481579865
 20
127.6465153034414
 30
0.0
 10
241.983146403096
 20
127.3028296542106
 30
0.0
 10
242.1250748007954
 20
126.596194045582
 30
0.0
 10
242.1618078327128
 20
126.2287999994304
 30
0.0
 10
242.1617942819296
 20
125.5039176231187
 30
0.0
 10
242.1263094881312
 20
125.1447486895616
 30
0.0
 10
242.0196447842453
 20
124.610897572821
 30
0.0
 10
241.9748221993782
 20
124.4330815225661
 30
0.0
 10
241.8690662043742
 20
124.086809450923
 30
0.0
 10
241.8080336370152
 20
123.9174922145546
 30
0.0
 10
241.6010875274045
 20
123.4206048699128
 30
0.0
 10
241.4300964544165
 20
123.1018667194265
 30
0.0
 10
241.0290025295727
 20
122.5038469751353
 30
0.0
 10
240.8024715454342
 20
122.2288886029624
 30
0.0
 10
240.2982407034781
 20
121.7247957429354
 30
0.0
 10
240.0174482328086
 20
121.4941373572934
 30
0.0
 10
239.423730246185
 20
121.096835369065
 30
0.0
 10
239.1094443371361
 20
120.9279530761643
 30
0.0
 10
238.6105374235344
 20
120.7201150917827
 30
0.0
 10
238.438613196634
 20
120.6582263377622
 30
0.0
 10
238.0922619744813
 20
120.5526534096964
 30
0.0
 10
237.9174179478354
 20
120.5086799006394
 30
0.0
 10
237.3879236116387
 20
120.4027320180124
 30
0.0
 10
237.0281970515167
 20
120.366461627
 30
0.0
 10
236.6618010582822
 20
120.366461627
 30
0.0
  0
SPLINE
  5
12D
330
1F
100
AcDbEntity
  8
0
  6
HIDDEN
 62
     7
370
    18
100
AcDbSpline
210
0.0
220
0.0
230
1.0
 70
    11
 71
     3
 72
    85
 73
    81
 74
     0
 42
0.000000001
 43
0.00000001
 40
0.0
 40
0.0
 40
0.0
 40
0.0
 40
0.0312499999999996
 40
0.0312499999999996
 40
0.0624999999999993
 40
0.0624999999999993
 40
0.0937499999999989
 40
0.0937499999999989
 40
0.1093749999999988
 40
0.1093749999999988
 40
0.1249999999999986
 40
0.1249999999999986
 40
0.1562499999999985
 40
0.1562499999999985
 40
0.1874999999999984
 40
0.1874999999999984
 40
0.2031249999999984
 40
0.2031249999999984
 40
0.2187499999999984
 40
0.2187499999999984
 40
0.2499999999999985
 40
0.2499999999999985
 40
0.2812499999999986
 40
0.2812499999999986
 40
0.3124999999999987
 40
0.3124999999999987
 40
0.3437499999999988
 40
0.3437499999999988
 40
0.3593749999999989
 40
0.3593749999999989
 40
0.3749999999999991
 40
0.3749999999999991
 40
0.4062499999999994
 40
0.4062499999999994
 40
0.4374999999999998
 40
0.4374999999999998
 40
0.4687500000000002
 40
0.4687500000000002
 40
0.4843750000000002
 40
0.4843750000000002
 40
0.5000000000000002
 40
0.5156250000000002
 40
0.5156250000000002
 40
0.5312500000000003
 40
0.5312500000000003
 40
0.5625000000000004
 40
0.5625000000000004
 40
0.5937500000000004
 40
0.5937500000000004
 40
0.6250000000000006
 40
0.6250000000000006
 40
0.6562500000000007
 40
0.6562500000000007
 40
0.6718750000000007
 40
0.6718750000000007
 40
0.6875000000000008
 40
0.6875000000000008
 40
0.7187500000000008
 40
0.7187500000000008
 40
0.7500000000000007
 40
0.7500000000000007
 40
0.7812500000000007
 40
0.7812500000000007
 40
0.7968750000000008
 40
0.7968750000000008
 40
0.8125000000000008
 40
0.8125000000000008
 40
0.8437500000000007
 40
0.8437500000000007
 40
0.8750000000000006
 40
0.8750000000000006
 40
0.9062500000000004
 40
0.9062500000000004
 40
0.9375000000000002
 40
0.9375000000000002
 40
0.9531250000000002
 40
0.9531250000000002
 40
0.9687500000000001
 40
0.9687500000000001
 40
1.0
 40
1.0
 40
1.0
 40
1.0
 10
209.6618010582822
 20
120.366461627
 30
0.0
 10
209.2954050650477
 20
120.366461627
 30
0.0
 10
208.9357406696962
 20
120.4027024166588
 30
0.0
 10
208.229119931838
 20
120.5441263137759
 30
0.0
 10
207.8784205711063
 20
120.6511847625952
 30
0.0
 10
207.2139243120004
 20
120.9280956857753
 30
0.0
 10
206.8992104120424
 20
121.0971258710096
 30
0.0
 10
206.4524892376065
 20
121.3962898970005
 30
0.0
 10
206.3071736974019
 20
121.5042822529694
 30
0.0
 10
206.0302465802006
 20
121.731979108678
 30
0.0
 10
205.898228341369
 20
121.8518428616034
 30
0.0
 10
205.5209005239118
 20
122.2292213995303
 30
0.0
 10
205.2941151591513
 20
122.5043290764534
 30
0.0
 10
204.8917162649084
 20
123.1047761878278
 30
0.0
 10
204.7227911635518
 20
123.4201706595143
 30
0.0
 10
204.5162119596252
 20
123.9158329111127
 30
0.0
 10
204.4552146928447
 20
124.0848421986335
 30
0.0
 10
204.3494183579895
 20
124.4307390166316
 30
0.0
 10
204.3045163317023
 20
124.6085280996356
 30
0.0
 10
204.1976616992624
 20
125.1420538213653
 30
0.0
 10
204.162043558816
 20
125.5008636463957
 30
0.0
 10
204.161561002005
 20
126.2247265564606
 30
0.0
 10
204.1979621490999
 20
126.5922514758048
 30
0.0
 10
204.339695388544
 20
127.3001623524873
 30
0.0
 10
204.4445360720835
 20
127.6445828793855
 30
0.0
 10
204.7232416636145
 20
128.314358730585
 30
0.0
 10
204.893915758769
 20
128.6313592635523
 30
0.0
 10
205.1919159754053
 20
129.0761305567116
 30
0.0
 10
205.2984454292689
 20
129.2195649269871
 30
0.0
 10
205.5261943257791
 20
129.4967413737552
 30
0.0
 10
205.6477740947763
 20
129.6307110640481
 30
0.0
 10
206.0273197407128
 20
130.0099493733939
 30
0.0
 10
206.3020715809609
 20
130.2356703368942
 30
0.0
 10
206.8958543080461
 20
130.6337780090179
 30
0.0
 10
207.2172835749127
 20
130.8063728914469
 30
0.0
 10
207.878876899121
 20
131.0817823716703
 30
0.0
 10
208.2219567584983
 20
131.1870629046703
 30
0.0
 10
208.7561477677855
 20
131.294424367136
 30
0.0
 10
208.9377666117628
 20
131.3216123314885
 30
0.0
 10
209.298730903497
 20
131.3574610944132
 30
0.0
 10
209.6596284523892
 20
131.3753166824391
 30
0.0
 10
210.0203943550799
 20
131.3577503818251
 30
0.0
 10
210.3810936752379
 20
131.3222346677863
 30
0.0
 10
210.5624671355451
 20
131.295264007423
 30
0.0
 10
211.0976189192491
 20
131.1881912089877
 30
0.0
 10
211.4415928586394
 20
131.082928545167
 30
0.0
 10
212.1053478760283
 20
130.8069337613645
 30
0.0
 10
212.4267651545136
 20
130.6343266207178
 30
0.0
 10
213.0201757261838
 20
130.2366884679963
 30
0.0
 10
213.2955795213562
 20
130.0107091186483
 30
0.0
 10
213.8039269621534
 20
129.50265829209
 30
0.0
 10
214.031866610093
 20
129.2249549262692
 30
0.0
 10
214.3294624781506
 20
128.7810241004362
 30
0.0
 10
214.4216080979467
 20
128.6280649033696
 30
0.0
 10
214.5915335909361
 20
128.3118558421294
 30
0.0
 10
214.6696971553848
 20
128.1476269792348
 30
0.0
 10
214.8783481579866
 20
127.6465153034414
 30
0.0
 10
214.983146403096
 20
127.3028296542106
 30
0.0
 10
215.1250748007955
 20
126.596194045582
 30
0.0
 10
215.1618078327128
 20
126.2287999994304
 30
0.0
 10
215.1617942819296
 20
125.5039176231187
 30
0.0
 10
215.1263094881311
 20
125.1447486895616
 30
0.0
 10
215.0196447842453
 20
124.610897572821
 30
0.0
 10
214.9748221993782
 20
124.4330815225661
 30
0.0
 10
214.8690662043742
 20
124.086809450923
 30
0.0
 10
214.8080336370153
 20
123.9174922145546
 30
0.0
 10
214.6010875274045
 20
123.4206048699128
 30
0.0
 10
214.4300964544166
 20
123.1018667194265
 30
0.0
 10
214.0290025295728
 20
122.5038469751353
 30
0.0
 10
213.8024715454343
 20
122.2288886029624
 30
0.0
 10
213.2982407034781
 20
121.7247957429354
 30
0.0
 10
213.0174482328087
 20
121.4941373572934
 30
0.0
 10
212.423730246185
 20
121.096835369065
 30
0.0
 10
212.1094443371361
 20
120.9279530761643
 30
0.0
 10
211.6105374235344
 20
120.7201150917827
 30
0.0
 10
211.438613196634
 20
120.6582263377622
 30
0.0
 10
211.0922619744813
 20
120.5526534096964
 30
0.0
 10
210.9174179478354
 20
120.5086799006394
 30
0.0
 10
210.3879236116387
 20
120.4027320180124
 30
0.0
 10
210.0281970515167
 20
120.366461627
 30
0.0
 10
209.6618010582822
 20
120.366461627
 30
0.0
  0
LINE
  5
12E
330
1F
100
AcDbEntity
  8
0
  6
HIDDEN
 62
     7
370
    18
100
AcDbLine
 10
148.6920294979
 20
140.2128717885
 30
0.0
 11
148.6920294979
 21
111.5200514655
 31
0.0
  0
LINE
  5
12F
330
1F
100
AcDbEntity
  8
0
  6
HIDDEN
 62
     7
370
    18
100
AcDbLine
 10
154.4920294979
 20
139.866461627
 30
0.0
 11
154.4920294979
 21
111.866461627
 31
0.0
  0
LINE
  5
130
330
1F
100
AcDbEntity
  8
0
  6
HIDDEN
 62
     7
370
    18
100
AcDbLine
 10
147.0920294979
 20
139.866461627
 30
0.0
 11
147.0920294979
 21
111.866461627
 31
0.0
  0
LINE
  5
131
330
1F
100
AcDbEntity
  8
0
  6
HIDDEN
 62
     7
370
    18
100
AcDbLine
 10
148.0920294979
 20
139.866461627
 30
0.0
 11
148.0920294979
 21
111.866461627
 31
0.0
  0
LINE
  5
132
330
1F
100
AcDbEntity
  8
0
  6
HIDDEN
 62
     7
370
    18
100
AcDbLine
 10
167.1618010583
 20
125.23203275
 30
0.0
 11
167.1618010583
 21
111.866461627
 31
0.0
  0
SPLINE
  5
133
330
1F
100
AcDbEntity
  8
0
  6
HIDDEN
 62
     7
370
    18
100
AcDbSpline
210
0.0
220
0.0
230
1.0
 70
     8
 71
     3
 72
    10
 73
     6
 74
     0
 42
0.000000001
 43
0.00000001
 40
0.0
 40
0.0
 40
0.0
 40
0.0
 40
0.5
 40
0.5
 40
1.0
 40
1.0
 40
1.0
 40
1.0
 10
167.1618010582822
 20
126.5008905040225
 30
0.0
 10
167.1949484763587
 20
126.2918999030145
 30
0.0
 10
167.2118073217203
 20
126.0803374369929
 30
0.0
 10
167.2117947913727
 20
125.6523486710253
 30
0.0
 10
167.1948798336323
 20
125.4405905666096
 30
0.0
 10
167.1618010582822
 20
125.2320327499775
 30
0.0
  0
LINE
  5
134
330
1F
100
AcDbEntity
  8
0
  6
HIDDEN
 62
     7
370
    18
100
AcDbLine
 10
167.1618010583
 20
126.500890504
 30
0.0
 11
167.1618010583
 21
139.866461627
 31
0.0
  0
LINE
  5
135
330
1F
100
AcDbEntity
  8
0
  6
HIDDEN
 62
     7
370
    18
100
AcDbLine
 10
167.6618010583
 20
139.366461627
 30
0.0
 11
167.6618010583
 21
112.366461627
 31
0.0
  0
SPLINE
  5
136
330
1F
100
AcDbEntity
  8
0
  6
HIDDEN
 62
     7
370
    18
100
AcDbSpline
210
0.0
220
0.0
230
1.0
 70
     8
 71
     3
 72
    10
 73
     6
 74
     0
 42
0.000000001
 43
0.00000001
 40
0.0
 40
0.0
 40
0.0
 40
0.0
 40
0.5
 40
0.5
 40
1.0
 40
1.0
 40
1.0
 40
1.0
 10
167.1618010582822
 20
125.2320327499775
 30
0.0
 10
167.1949900207559
 20
125.44128528356
 30
0.0
 10
167.2116907970106
 20
125.652102044459
 30
0.0
 10
167.2119102374552
 20
126.0766343256622
 30
0.0
 10
167.1950305220619
 20
126.2913826144348
 30
0.0
 10
167.1618010582822
 20
126.5008905040225
 30
0.0
  0
SPLINE
  5
137
330
1F
100
AcDbEntity
  8
0
  6
HIDDEN
 62
     7
370
    18
100
AcDbSpline
210
0.0
220
0.0
230
1.0
 70
     8
 71
     3
 72
    68
 73
    64
 74
     0
 42
0.000000001
 43
0.00000001
 40
0.0
 40
0.0
 40
0.0
 40
0.0
 40
0.03125
 40
0.03125
 40
0.0625000000000001
 40
0.0625000000000001
 40
0.0937500000000001
 40
0.0937500000000001
 40
0.1250000000000001
 40
0.1250000000000001
 40
0.1562500000000002
 40
0.1562500000000002
 40
0.1875000000000002
 40
0.1875000000000002
 40
0.2187500000000002
 40
0.2187500000000002
 40
0.2500000000000002
 40
0.2500000000000002
 40
0.2812500000000002
 40
0.2812500000000002
 40
0.3125000000000002
 40
0.3125000000000002
 40
0.3437500000000002
 40
0.3437500000000002
 40
0.3750000000000002
 40
0.3750000000000002
 40
0.4062500000000002
 40
0.4062500000000002
 40
0.4375000000000002
 40
0.4375000000000002
 40
0.4687500000000002
 40
0.4687500000000002
 40
0.5000000000000001
 40
0.5000000000000001
 40
0.5625000000000002
 40
0.5625000000000002
 40
0.5937500000000001
 40
0.5937500000000001
 40
0.6250000000000001
 40
0.6250000000000001
 40
0.65625
 40
0.65625
 40
0.6875
 40
0.6875
 40
0.7187499999999999
 40
0.7187499999999999
 40
0.7499999999999998
 40
0.7499999999999998
 40
0.7812499999999998
 40
0.7812499999999998
 40
0.8124999999999997
 40
0.8124999999999997
 40
0.8437499999999998
 40
0.8437499999999998
 40
0.8749999999999998
 40
0.8749999999999998
 40
0.9062499999999999
 40
0.9062499999999999
 40
0.9374999999999999
 40
0.9374999999999999
 40
0.96875
 40
0.96875
 40
1.0
 40
1.0
 40
1.0
 40
1.0
 10
167.1618010582822
 20
125.2320327499775
 30
0.0
 10
167.1217861059326
 20
124.979743147162
 30
0.0
 10
167.0588443045212
 20
124.7357442967862
 30
0.0
 10
166.8894576424492
 20
124.2633259077236
 30
0.0
 10
166.7817640798637
 20
124.0329125215637
 30
0.0
 10
166.5264793113258
 20
123.5982079257666
 30
0.0
 10
166.3804400808536
 20
123.3955659591153
 30
0.0
 10
166.0522186442944
 20
123.0185766683574
 30
0.0
 10
165.8679713565194
 20
122.8429187147801
 30
0.0
 10
165.4750111892111
 20
122.5326607458338
 30
0.0
 10
165.2657165922519
 20
122.3967155381839
 30
0.0
 10
164.8208311653146
 20
122.1633254427781
 30
0.0
 10
164.5840335728155
 20
122.0660788363637
 30
0.0
 10
164.1032985038963
 20
121.9194073784923
 30
0.0
 10
163.8570554107135
 20
121.8685150335499
 30
0.0
 10
163.352338630734
 20
121.8129876833144
 30
0.0
 10
163.0961439297975
 20
121.8091627962444
 30
0.0
 10
162.5937651805974
 20
121.8485865788888
 30
0.0
 10
162.3445154814139
 20
121.8916140281001
 30
0.0
 10
161.8529876839351
 20
122.0253189975514
 30
0.0
 10
161.6176920827092
 20
122.1139888434566
 30
0.0
 10
161.1667781880471
 20
122.333020207234
 30
0.0
 10
160.9491658375837
 20
122.4650217729175
 30
0.0
 10
160.5459586680354
 20
122.7643790539204
 30
0.0
 10
160.360347175601
 20
122.9309979813583
 30
0.0
 10
160.0203591051985
 20
123.2981094067858
 30
0.0
 10
159.8652861743756
 20
123.5004131523265
 30
0.0
 10
159.5989430977122
 20
123.9244938319205
 30
0.0
 10
159.4859589969955
 20
124.1476534373867
 30
0.0
 10
159.3011037400646
 20
124.6170086789809
 30
0.0
 10
159.2299629785612
 20
124.8632191823164
 30
0.0
 10
159.136002567273
 20
125.3577450086875
 30
0.0
 10
159.1119932373166
 20
125.6086760037796
 30
0.0
 10
159.111420116644
 20
126.3729213833358
 30
0.0
 10
159.2068192279627
 20
126.8751456853867
 30
0.0
 10
159.4846830201638
 20
127.5827101916591
 30
0.0
 10
159.5978449762443
 20
127.8064164553999
 30
0.0
 10
159.8639761582882
 20
128.2306863667205
 30
0.0
 10
160.0188039324879
 20
128.4329383287766
 30
0.0
 10
160.3589850382758
 20
128.8006490701448
 30
0.0
 10
160.5444874952255
 20
128.9672659453941
 30
0.0
 10
160.9467812962848
 20
129.2663153241895
 30
0.0
 10
161.1647893445368
 20
129.3987720322179
 30
0.0
 10
161.6153877116871
 20
129.6179784329226
 30
0.0
 10
161.8499367105679
 20
129.7064635629262
 30
0.0
 10
162.3383967041202
 20
129.8399497928649
 30
0.0
 10
162.5906620998341
 20
129.8838915053586
 30
0.0
 10
163.0928427379944
 20
129.9237005018321
 30
0.0
 10
163.3453248553461
 20
129.9203562890186
 30
0.0
 10
163.8531898984156
 20
129.8651769690281
 30
0.0
 10
164.1007353715994
 20
129.8141310405587
 30
0.0
 10
164.5817029090701
 20
129.6677206523231
 30
0.0
 10
164.8176627741754
 20
129.5710744475495
 30
0.0
 10
165.2642332236969
 20
129.3371695032365
 30
0.0
 10
165.4738780862704
 20
129.20104448941
 30
0.0
 10
165.8668647930249
 20
128.8909902250808
 30
0.0
 10
166.0512606968399
 20
128.7153329775057
 30
0.0
 10
166.3798111147003
 20
128.3381930548413
 30
0.0
 10
166.5257532112234
 20
128.1357268495714
 30
0.0
 10
166.7806385664256
 20
127.7021505514381
 30
0.0
 10
166.8889498792339
 20
127.4708587078566
 30
0.0
 10
167.0587848566509
 20
126.9974990277233
 30
0.0
 10
167.1217802177879
 20
126.7532172309025
 30
0.0
 10
167.1618010582822
 20
126.5008905040225
 30
0.0
  0
SPLINE
  5
138
330
1F
100
AcDbEntity
  8
0
  6
HIDDEN
 62
     7
370
    18
100
AcDbSpline
210
0.0
220
0.0
230
1.0
 70
     8
 71
     3
 72
    68
 73
    64
 74
     0
 42
0.000000001
 43
0.00000001
 40
0.0
 40
0.0
 40
0.0
 40
0.0
 40
0.03125
 40
0.03125
 40
0.0625000000000001
 40
0.0625000000000001
 40
0.0937500000000001
 40
0.0937500000000001
 40
0.1250000000000001
 40
0.1250000000000001
 40
0.1562500000000002
 40
0.1562500000000002
 40
0.1875000000000002
 40
0.1875000000000002
 40
0.2187500000000002
 40
0.2187500000000002
 40
0.2500000000000002
 40
0.2500000000000002
 40
0.2812500000000002
 40
0.2812500000000002
 40
0.3125000000000002
 40
0.3125000000000002
 40
0.3437500000000002
 40
0.3437500000000002
 40
0.3750000000000002
 40
0.3750000000000002
 40
0.4062500000000002
 40
0.4062500000000002
 40
0.4375000000000002
 40
0.4375000000000002
 40
0.4687500000000002
 40
0.4687500000000002
 40
0.5000000000000001
 40
0.5000000000000001
 40
0.5625000000000002
 40
0.5625000000000002
 40
0.5937500000000001
 40
0.5937500000000001
 40
0.6250000000000001
 40
0.6250000000000001
 40
0.65625
 40
0.65625
 40
0.6875
 40
0.6875
 40
0.7187499999999999
 40
0.7187499999999999
 40
0.7499999999999998
 40
0.7499999999999998
 40
0.7812499999999998
 40
0.7812499999999998
 40
0.8124999999999997
 40
0.8124999999999997
 40
0.8437499999999998
 40
0.8437499999999998
 40
0.8749999999999998
 40
0.8749999999999998
 40
0.9062499999999999
 40
0.9062499999999999
 40
0.9374999999999999
 40
0.9374999999999999
 40
0.96875
 40
0.96875
 40
1.0
 40
1.0
 40
1.0
 40
1.0
 10
167.1618010582822
 20
126.5008905040225
 30
0.0
 10
167.1217861059326
 20
126.7531801068381
 30
0.0
 10
167.0588443045212
 20
126.9971789572139
 30
0.0
 10
166.8894576424492
 20
127.4695973462764
 30
0.0
 10
166.7817640798637
 20
127.7000107324363
 30
0.0
 10
166.5264793113258
 20
128.1347153282335
 30
0.0
 10
166.3804400808536
 20
128.3373572948848
 30
0.0
 10
166.0522186442944
 20
128.7143465856426
 30
0.0
 10
165.8679713565194
 20
128.89000453922
 30
0.0
 10
165.4750111892111
 20
129.2002625081662
 30
0.0
 10
165.2657165922519
 20
129.3362077158161
 30
0.0
 10
164.8208311653146
 20
129.569597811222
 30
0.0
 10
164.5840335728155
 20
129.6668444176364
 30
0.0
 10
164.1032985038963
 20
129.8135158755078
 30
0.0
 10
163.8570554107135
 20
129.8644082204502
 30
0.0
 10
163.352338630734
 20
129.9199355706857
 30
0.0
 10
163.0961439297975
 20
129.9237604577556
 30
0.0
 10
162.5937651805974
 20
129.8843366751112
 30
0.0
 10
162.3445154814139
 20
129.8413092258999
 30
0.0
 10
161.8529876839351
 20
129.7076042564487
 30
0.0
 10
161.6176920827092
 20
129.6189344105435
 30
0.0
 10
161.1667781880471
 20
129.399903046766
 30
0.0
 10
160.9491658375837
 20
129.2679014810825
 30
0.0
 10
160.5459586680354
 20
128.9685442000796
 30
0.0
 10
160.360347175601
 20
128.8019252726417
 30
0.0
 10
160.0203591051985
 20
128.4348138472143
 30
0.0
 10
159.8652861743756
 20
128.2325101016735
 30
0.0
 10
159.5989430977122
 20
127.8084294220795
 30
0.0
 10
159.4859589969955
 20
127.5852698166133
 30
0.0
 10
159.3011037400646
 20
127.1159145750192
 30
0.0
 10
159.2299629785612
 20
126.8697040716837
 30
0.0
 10
159.136002567273
 20
126.3751782453125
 30
0.0
 10
159.1119932373166
 20
126.1242472502205
 30
0.0
 10
159.111420116644
 20
125.3600018706643
 30
0.0
 10
159.2068192279627
 20
124.8577775686133
 30
0.0
 10
159.4846830201638
 20
124.1502130623409
 30
0.0
 10
159.5978449762443
 20
123.9265067986001
 30
0.0
 10
159.8639761582882
 20
123.5022368872795
 30
0.0
 10
160.0188039324879
 20
123.2999849252235
 30
0.0
 10
160.3589850382758
 20
122.9322741838553
 30
0.0
 10
160.5444874952255
 20
122.7656573086059
 30
0.0
 10
160.9467812962848
 20
122.4666079298105
 30
0.0
 10
161.1647893445368
 20
122.3341512217821
 30
0.0
 10
161.6153877116871
 20
122.1149448210774
 30
0.0
 10
161.8499367105679
 20
122.0264596910738
 30
0.0
 10
162.3383967041202
 20
121.8929734611351
 30
0.0
 10
162.5906620998341
 20
121.8490317486414
 30
0.0
 10
163.0928427379944
 20
121.8092227521679
 30
0.0
 10
163.3453248553461
 20
121.8125669649814
 30
0.0
 10
163.8531898984156
 20
121.8677462849719
 30
0.0
 10
164.1007353715994
 20
121.9187922134413
 30
0.0
 10
164.5817029090701
 20
122.0652026016769
 30
0.0
 10
164.8176627741754
 20
122.1618488064505
 30
0.0
 10
165.2642332236969
 20
122.3957537507636
 30
0.0
 10
165.4738780862704
 20
122.5318787645901
 30
0.0
 10
165.8668647930249
 20
122.8419330289192
 30
0.0
 10
166.0512606968399
 20
123.0175902764943
 30
0.0
 10
166.3798111147003
 20
123.3947301991588
 30
0.0
 10
166.5257532112234
 20
123.5971964044286
 30
0.0
 10
166.7806385664256
 20
124.0307727025619
 30
0.0
 10
166.8889498792339
 20
124.2620645461435
 30
0.0
 10
167.0587848566509
 20
124.7354242262767
 30
0.0
 10
167.1217802177879
 20
124.9797060230975
 30
0.0
 10
167.1618010582822
 20
125.2320327499776
 30
0.0
  0
LINE
  5
139
330
1F
100
AcDbEntity
  8
0
  6
HIDDEN
 62
     7
370
    18
100
AcDbLine
 10
168.9118010583
 20
134.866461627
 30
0.0
 11
168.9118010583
 21
116.866461627
 31
0.0
  0
LINE
  5
13A
330
1F
100
AcDbEntity
  8
0
  6
HIDDEN
 62
     7
370
    18
100
AcDbLine
 10
167.6618010583
 20
115.616461627
 30
0.0
 11
167.6618010583
 21
136.116461627
 31
0.0
  0
LINE
  5
13B
330
1F
100
AcDbEntity
  8
0
  6
HIDDEN
 62
     7
370
    18
100
AcDbLine
 10
190.6618010583
 20
116.866461627
 30
0.0
 11
190.6618010583
 21
134.8479701618
 31
0.0
  0
LINE
  5
13C
330
1F
100
AcDbEntity
  8
0
  6
HIDDEN
 62
     7
370
    18
100
AcDbLine
 10
176.6667610803
 20
110.428998004
 30
0.0
 11
177.8452887718
 21
110.4141936452
 31
0.0
  0
LINE
  5
13D
330
1F
100
AcDbEntity
  8
0
  6
HIDDEN
 62
     7
370
    18
100
AcDbLine
 10
176.6667610803
 20
110.428998004
 30
0.0
 11
176.6667610803
 21
104.0412766422
 31
0.0
  0
SPLINE
  5
13E
330
1F
100
AcDbEntity
  8
0
  6
HIDDEN
 62
     7
370
    18
100
AcDbSpline
210
0.0
220
0.0
230
1.0
 70
     8
 71
     3
 72
    16
 73
    12
 74
     0
 42
0.000000001
 43
0.00000001
 40
0.0
 40
0.0
 40
0.0
 40
0.0
 40
0.2500000000000002
 40
0.2500000000000002
 40
0.3750000000000001
 40
0.3750000000000001
 40
0.5000000000000001
 40
0.5000000000000001
 40
0.75
 40
0.75
 40
1.0
 40
1.0
 40
1.0
 40
1.0
 10
177.3404807147226
 20
109.282555000759
 30
0.0
 10
177.1792482372381
 20
108.5681608385669
 30
0.0
 10
177.0587683975985
 20
107.9148185758582
 30
0.0
 10
176.9363878802852
 20
107.0265633340543
 30
0.0
 10
176.9054102198877
 20
106.7458827977025
 30
0.0
 10
176.8637964822598
 20
106.2168488078625
 30
0.0
 10
176.8535605693269
 20
105.973527829284
 30
0.0
 10
176.8533721722708
 20
105.3055051387708
 30
0.0
 10
176.8935168749084
 20
104.9418242293513
 30
0.0
 10
177.057670629848
 20
104.381933356803
 30
0.0
 10
177.1792222802576
 20
104.1944120646859
 30
0.0
 10
177.3404807147226
 20
104.0963806719979
 30
0.0
  0
LINE
  5
13F
330
1F
100
AcDbEntity
  8
0
  6
HIDDEN
 62
     7
370
    18
100
AcDbLine
 10
142.1618010583
 20
110.7624087983
 30
0.0
 11
142.1618010583
 21
104.7080982307
 31
0.0
  0
LINE
  5
140
330
1F
100
AcDbEntity
  8
0
  6
HIDDEN
 62
     7
370
    18
100
AcDbLine
 10
140.6618010583
 20
111.1954215002
 30
0.0
 11
142.1618010583
 21
110.7624087983
 31
0.0
  0
LINE
  5
141
330
1F
100
AcDbEntity
  8
0
  6
HIDDEN
 62
     7
370
    18
100
AcDbLine
 10
140.6618010583
 20
111.1954215002
 30
0.0
 11
140.6618010583
 21
105.5741236345
 31
0.0
  0
LINE
  5
142
330
1F
100
AcDbEntity
  8
0
  6
HIDDEN
 62
     7
370
    18
100
AcDbLine
 10
176.4618010583
 20
110.3315411041
 30
0.0
 11
176.4618010583
 21
103.8463628424
 31
0.0
  0
LWPOLYLINE
  5
143
330
1F
100
AcDbEntity
  8
0
  6
HIDDEN
 62
     7
370
    18
100
AcDbPolyline
 90
        9
 70
   128
 43
0.0
 10
176.4618010583
 20
110.3315411041
 10
176.4666227503
 20
110.3509957235
 10
176.4789426108
 20
110.369606195
 10
176.4982871944
 20
110.3866573288
 10
176.5239130996
 20
110.4014938593
 10
176.5548355373
 20
110.413545627
 10
176.5898661754
 20
110.4223494892
 10
176.6276588063
 20
110.4275671184
 10
176.6667610803
 20
110.428998004
  0
LINE
  5
144
330
1F
100
AcDbEntity
  8
0
  6
HIDDEN
 62
     7
370
    18
100
AcDbLine
 10
142.1618010583
 20
110.7624087983
 30
0.0
 11
176.4618010583
 21
110.3315411041
 31
0.0
  0
LINE
  5
145
330
1F
100
AcDbEntity
  8
0
  6
HIDDEN
 62
     7
370
    18
100
AcDbLine
 10
142.1618010583
 20
147.0248250233
 30
0.0
 11
142.1618010583
 21
140.9705144557
 31
0.0
  0
LINE
  5
146
330
1F
100
AcDbEntity
  8
0
  6
HIDDEN
 62
     7
370
    18
100
AcDbLine
 10
142.1618010583
 20
140.9705144557
 30
0.0
 11
176.4618010583
 21
141.4013821499
 31
0.0
  0
LINE
  5
147
330
1F
100
AcDbEntity
  8
0
  6
HIDDEN
 62
     7
370
    18
100
AcDbLine
 10
176.4618010583
 20
147.8865604116
 30
0.0
 11
176.4618010583
 21
141.4013821499
 31
0.0
  0
LWPOLYLINE
  5
148
330
1F
100
AcDbEntity
  8
0
  6
HIDDEN
 62
     7
370
    18
100
AcDbPolyline
 90
        9
 70
   128
 43
0.0
 10
176.4618010583
 20
141.4013821499
 10
176.4666227503
 20
141.3819275305
 10
176.4789426108
 20
141.363317059
 10
176.4982871944
 20
141.3462659252
 10
176.5239130996
 20
141.3314293947
 10
176.5548355373
 20
141.319377627
 10
176.5898661754
 20
141.3105737648
 10
176.6276588063
 20
141.3053561356
 10
176.6667610803
 20
141.30392525
  0
LINE
  5
149
330
1F
100
AcDbEntity
  8
0
  6
HIDDEN
 62
     7
370
    18
100
AcDbLine
 10
176.6667610803
 20
147.6916466118
 30
0.0
 11
176.6667610803
 21
141.30392525
 31
0.0
  0
LINE
  5
14A
330
1F
100
AcDbEntity
  8
0
  6
HIDDEN
 62
     7
370
    18
100
AcDbLine
 10
140.6618010583
 20
140.5375017538
 30
0.0
 11
142.1618010583
 21
140.9705144557
 31
0.0
  0
LINE
  5
14B
330
1F
100
AcDbEntity
  8
0
  6
HIDDEN
 62
     7
370
    18
100
AcDbLine
 10
140.6618010583
 20
146.1587996195
 30
0.0
 11
140.6618010583
 21
140.5375017538
 31
0.0
  0
LINE
  5
14C
330
1F
100
AcDbEntity
  8
0
  6
HIDDEN
 62
     7
370
    18
100
AcDbLine
 10
176.6667610803
 20
141.30392525
 30
0.0
 11
177.8452887718
 21
141.3187296088
 31
0.0
  0
SPLINE
  5
14D
330
1F
100
AcDbEntity
  8
0
  6
HIDDEN
 62
     7
370
    18
100
AcDbSpline
210
0.0
220
0.0
230
1.0
 70
     8
 71
     3
 72
    16
 73
    12
 74
     0
 42
0.000000001
 43
0.00000001
 40
0.0
 40
0.0
 40
0.0
 40
0.0
 40
0.25
 40
0.25
 40
0.375
 40
0.375
 40
0.5
 40
0.5
 40
0.75
 40
0.75
 40
1.0
 40
1.0
 40
1.0
 40
1.0
 10
177.3404807147226
 20
147.6365425820021
 30
0.0
 10
177.1792482372381
 20
147.5385269689474
 30
0.0
 10
177.0587683975985
 20
147.3517909372713
 30
0.0
 10
176.9363878802852
 20
146.9387511297124
 30
0.0
 10
176.9054102198877
 20
146.7787506304795
 30
0.0
 10
176.8637964822597
 20
146.4119449793884
 30
0.0
 10
176.8535605693269
 20
146.2086078267644
 30
0.0
 10
176.8533721722708
 20
145.5413205601377
 30
0.0
 10
176.8935168749084
 20
145.0205060962496
 30
0.0
 10
177.057670629848
 20
143.8231470807719
 30
0.0
 10
177.1792222802576
 20
143.164877426476
 30
0.0
 10
177.3404807147226
 20
142.4503682532411
 30
0.0
  0
LINE
  5
14E
330
1F
100
AcDbEntity
  8
0
  6
HIDDEN
 62
     7
370
    18
100
AcDbLine
 10
192.1340442447
 20
135.2545280583
 30
0.0
 11
192.1340442447
 21
155.9349535859
 31
0.0
  0
LINE
  5
14F
330
1F
100
AcDbEntity
  8
0
  6
HIDDEN
 62
     7
370
    18
100
AcDbLine
 10
189.1895578718
 20
135.2545280583
 30
0.0
 11
189.1895578718
 21
155.9349535859
 31
0.0
  0
LINE
  5
150
330
1F
100
AcDbEntity
  8
0
  6
HIDDEN
 62
     7
370
    18
100
AcDbLine
 10
189.1895578718
 20
95.7979696681
 30
0.0
 11
189.1895578718
 21
116.4783951957
 31
0.0
  0
LINE
  5
151
330
1F
100
AcDbEntity
  8
0
  6
HIDDEN
 62
     7
370
    18
100
AcDbLine
 10
192.1340442447
 20
95.7979696681
 30
0.0
 11
192.1340442447
 21
116.4783951957
 31
0.0
  0
LINE
  5
152
330
1F
100
AcDbEntity
  8
0
  6
HIDDEN
 62
     7
370
    18
100
AcDbLine
 10
188.75654517
 20
135.7758309477
 30
0.0
 11
188.75654517
 21
155.7672040871
 31
0.0
  0
LINE
  5
153
330
1F
100
AcDbEntity
  8
0
  6
HIDDEN
 62
     7
370
    18
100
AcDbLine
 10
192.5670569466
 20
135.7758309477
 30
0.0
 11
192.5670569466
 21
155.7672040871
 31
0.0
  0
LINE
  5
154
330
1F
100
AcDbEntity
  8
0
  6
HIDDEN
 62
     7
370
    18
100
AcDbLine
 10
192.5670569466
 20
95.9657191669
 30
0.0
 11
192.5670569466
 21
115.9570923063
 31
0.0
  0
LINE
  5
155
330
1F
100
AcDbEntity
  8
0
  6
HIDDEN
 62
     7
370
    18
100
AcDbLine
 10
188.75654517
 20
95.9657191669
 30
0.0
 11
188.75654517
 21
115.9570923063
 31
0.0
  0
LINE
  5
156
330
1F
100
AcDbEntity
  8
0
  6
HIDDEN
 62
     7
370
    18
100
AcDbLine
 10
140.6618010583
 20
140.5375017538
 30
0.0
 11
140.6618010583
 21
128.76844896
 31
0.0
  0
LINE
  5
157
330
1F
100
AcDbEntity
  8
0
  6
HIDDEN
 62
     7
370
    18
100
AcDbLine
 10
140.6618010583
 20
122.964474294
 30
0.0
 11
140.6618010583
 21
111.1954215002
 31
0.0
  0
LINE
  5
158
330
1F
100
AcDbEntity
  8
0
  6
HIDDEN
 62
     7
370
    18
100
AcDbLine
 10
142.1618010583
 20
121.9012507302
 30
0.0
 11
142.1618010583
 21
110.7624087983
 31
0.0
  0
LINE
  5
159
330
1F
100
AcDbEntity
  8
0
  6
HIDDEN
 62
     7
370
    18
100
AcDbLine
 10
142.1618010583
 20
140.9705144557
 30
0.0
 11
142.1618010583
 21
129.8316725238
 31
0.0
  0
LINE
  5
15A
330
1F
100
AcDbEntity
  8
0
  6
HIDDEN
 62
     7
370
    18
100
AcDbLine
 10
178.4618010583
 20
140.9041687895
 30
0.0
 11
178.4618010583
 21
110.8287544645
 31
0.0
  0
LINE
  5
15B
330
1F
100
AcDbEntity
  8
0
  6
HIDDEN
 62
     7
370
    18
100
AcDbLine
 10
178.2668241694
 20
141.2992294143
 30
0.0
 11
178.2668241694
 21
110.4336938397
 31
0.0
  0
LINE
  5
15C
330
1F
100
AcDbEntity
  8
0
  6
HIDDEN
 62
     7
370
    18
100
AcDbLine
 10
176.6667610803
 20
141.30392525
 30
0.0
 11
176.6667610803
 21
110.428998004
 31
0.0
  0
LINE
  5
15D
330
1F
100
AcDbEntity
  8
0
  6
HIDDEN
 62
     7
370
    18
100
AcDbLine
 10
176.4618010583
 20
141.4013821499
 30
0.0
 11
176.4618010583
 21
110.3315411041
 31
0.0
  0
SPLINE
  5
15E
330
1F
100
AcDbEntity
  8
0
  6
HIDDEN
 62
     7
370
    18
100
AcDbSpline
210
0.0
220
0.0
230
1.0
 70
     8
 71
     3
 72
    24
 73
    20
 74
     0
 42
0.000000001
 43
0.00000001
 40
0.0
 40
0.0
 40
0.0
 40
0.0
 40
0.1249999999999999
 40
0.1249999999999999
 40
0.2499999999999998
 40
0.2499999999999998
 40
0.3749999999999997
 40
0.3749999999999997
 40
0.4374999999999997
 40
0.4374999999999997
 40
0.4999999999999998
 40
0.4999999999999998
 40
0.6249999999999999
 40
0.6249999999999999
 40
0.75
 40
0.75
 40
0.875
 40
0.875
 40
1.0
 40
1.0
 40
1.0
 40
1.0
 10
147.1118010582823
 20
121.7805005739008
 30
0.0
 10
147.3496046905573
 20
122.0795076762309
 30
0.0
 10
147.5796903517686
 20
122.3838455275496
 30
0.0
 10
148.0144437503784
 20
123.0095790649456
 30
0.0
 10
148.2193765426646
 20
123.3308037922731
 30
0.0
 10
148.5844784931633
 20
124.0027295630059
 30
0.0
 10
148.7462788789548
 20
124.3580447948848
 30
0.0
 10
148.9181390835345
 20
124.9082760162372
 30
0.0
 10
148.9637242751947
 20
125.0946798012177
 30
0.0
 10
149.0261990147695
 20
125.4748143033139
 30
0.0
 10
149.042870160518
 20
125.6704840955998
 30
0.0
 10
149.0433912036945
 20
126.2489644742742
 30
0.0
 10
148.9789489028078
 20
126.626876313243
 30
0.0
 10
148.7490998094344
 20
127.3688443383415
 30
0.0
 10
148.5905791317713
 20
127.7175597985024
 30
0.0
 10
148.2263448018712
 20
128.3906521962356
 30
0.0
 10
148.0196085618076
 20
128.7156046834772
 30
0.0
 10
147.5816706160672
 20
129.346528493939
 30
0.0
 10
147.3503978887877
 20
129.6524182342797
 30
0.0
 10
147.1118010582823
 20
129.9524226800991
 30
0.0
  0
LINE
  5
15F
330
1F
100
AcDbEntity
  8
0
  6
HIDDEN
 62
     7
370
    18
100
AcDbLine
 10
147.1118010583
 20
121.7805005739
 30
0.0
 11
147.1118010583
 21
129.9524226801
 31
0.0
  0
SPLINE
  5
160
330
1F
100
AcDbEntity
  8
0
  6
HIDDEN
 62
     7
370
    18
100
AcDbSpline
210
0.0
220
0.0
230
1.0
 70
     8
 71
     3
 72
     8
 73
     4
 74
     0
 42
0.000000001
 43
0.00000001
 40
0.0000249638557296
 40
0.0000249638557296
 40
0.0000249638557296
 40
0.0000249638557296
 40
0.0049776420541172
 40
0.0049776420541172
 40
0.0049776420541172
 40
0.0049776420541172
 10
142.1618010582822
 20
121.9012507301635
 30
0.0
 10
143.8117772927918
 20
121.8599714923953
 30
0.0
 10
145.4617786125368
 20
121.8197498111558
 30
0.0
 10
147.1118010582822
 20
121.7805005739008
 30
0.0
  0
SPLINE
  5
161
330
1F
100
AcDbEntity
  8
0
  6
HIDDEN
 62
     7
370
    18
100
AcDbSpline
210
0.0
220
0.0
230
1.0
 70
     8
 71
     3
 72
     8
 73
     4
 74
     0
 42
0.000000001
 43
0.00000001
 40
0.0000249631533153
 40
0.0000249631533153
 40
0.0000249631533153
 40
0.0000249631533153
 40
0.0049776413517029
 40
0.0049776413517029
 40
0.0049776413517029
 40
0.0049776413517029
 10
147.1118010582822
 20
129.9524226800993
 30
0.0
 10
145.4617786125368
 20
129.9131734428443
 30
0.0
 10
143.8117772927918
 20
129.8729517616048
 30
0.0
 10
142.1618010582822
 20
129.8316725238366
 30
0.0
  0
SPLINE
  5
162
330
1F
100
AcDbEntity
  8
0
  6
HIDDEN
 62
     7
370
    18
100
AcDbSpline
210
0.0
220
0.0
230
1.0
 70
     8
 71
     3
 72
     8
 73
     4
 74
     0
 42
0.000000001
 43
0.00000001
 40
0.0
 40
0.0
 40
0.0
 40
0.0
 40
1.0
 40
1.0
 40
1.0
 40
1.0
 10
140.66180105828
 20
122.9644742940197
 30
0.0
 10
141.1285616696578
 20
122.5491110483966
 30
0.0
 10
141.6343092164379
 20
122.204520619092
 30
0.0
 10
142.1618010582822
 20
121.9012507301635
 30
0.0
  0
SPLINE
  5
163
330
1F
100
AcDbEntity
  8
0
  6
HIDDEN
 62
     7
370
    18
100
AcDbSpline
210
0.0
220
0.0
230
1.0
 70
     8
 71
     3
 72
     8
 73
     4
 74
     0
 42
0.000000001
 43
0.00000001
 40
0.0
 40
0.0
 40
0.0
 40
0.0
 40
1.0
 40
1.0
 40
1.0
 40
1.0
 10
142.1618010582822
 20
129.8316725238366
 30
0.0
 10
141.6343092164387
 20
129.5284026349085
 30
0.0
 10
141.1285616696594
 20
129.1838122056045
 30
0.0
 10
140.6618010582822
 20
128.7684489599824
 30
0.0
  0
LINE
  5
164
330
1F
100
AcDbEntity
  8
0
  6
HIDDEN
 62
     7
370
    18
100
AcDbLine
 10
140.6618010583
 20
122.964474294
 30
0.0
 11
140.6618010583
 21
128.76844896
 31
0.0
  0
SPLINE
  5
165
330
1F
100
AcDbEntity
  8
0
  6
HIDDEN
 62
     7
370
    18
100
AcDbSpline
210
0.0
220
0.0
230
1.0
 70
    11
 71
     3
 72
    72
 73
    68
 74
     0
 42
0.000000001
 43
0.00000001
 40
0.0
 40
0.0
 40
0.0
 40
0.0
 40
0.0312499999999998
 40
0.0312499999999998
 40
0.0624999999999996
 40
0.0624999999999996
 40
0.0937499999999994
 40
0.0937499999999994
 40
0.1249999999999993
 40
0.1249999999999993
 40
0.1562499999999993
 40
0.1562499999999993
 40
0.1874999999999993
 40
0.1874999999999993
 40
0.2187499999999993
 40
0.2187499999999993
 40
0.2499999999999992
 40
0.2499999999999992
 40
0.2812499999999992
 40
0.2812499999999992
 40
0.3124999999999992
 40
0.3124999999999992
 40
0.3437499999999992
 40
0.3437499999999992
 40
0.3749999999999992
 40
0.3749999999999992
 40
0.3906249999999993
 40
0.3906249999999993
 40
0.4062499999999993
 40
0.4062499999999993
 40
0.4374999999999993
 40
0.4374999999999993
 40
0.4687499999999994
 40
0.4687499999999994
 40
0.4999999999999994
 40
0.4999999999999994
 40
0.5312499999999994
 40
0.5312499999999994
 40
0.5624999999999996
 40
0.5624999999999996
 40
0.5937499999999996
 40
0.5937499999999996
 40
0.6249999999999996
 40
0.6249999999999996
 40
0.6562499999999997
 40
0.6562499999999997
 40
0.6874999999999997
 40
0.6874999999999997
 40
0.7187499999999997
 40
0.7187499999999997
 40
0.7499999999999997
 40
0.7499999999999997
 40
0.7812499999999998
 40
0.7812499999999998
 40
0.8124999999999998
 40
0.8124999999999998
 40
0.8437499999999998
 40
0.8437499999999998
 40
0.8749999999999999
 40
0.8749999999999999
 40
0.9062499999999999
 40
0.9062499999999999
 40
0.9374999999999999
 40
0.9374999999999999
 40
0.96875
 40
0.96875
 40
1.0
 40
1.0
 40
1.0
 40
1.0
 10
159.9729624870444
 20
128.5124731770575
 30
0.0
 10
160.1601775969813
 20
128.7176510773
 30
0.0
 10
160.3650301982469
 20
128.9013001599585
 30
0.0
 10
160.8078983950939
 20
129.2282550634538
 30
0.0
 10
161.0478538124122
 20
129.3720332716337
 30
0.0
 10
161.5434647951867
 20
129.6095506270796
 30
0.0
 10
161.8007310863412
 20
129.7048701919773
 30
0.0
 10
162.3340848541783
 20
129.8489557246118
 30
0.0
 10
162.6083649940766
 20
129.8966917315814
 30
0.0
 10
163.1547935286561
 20
129.9422738721152
 30
0.0
 10
163.4293698471239
 20
129.9408401120429
 30
0.0
 10
163.9813370213946
 20
129.8879268039521
 30
0.0
 10
164.2519539839663
 20
129.8369570777479
 30
0.0
 10
164.7782391550455
 20
129.6883504508043
 30
0.0
 10
165.0358707184531
 20
129.5900650800472
 30
0.0
 10
165.5317968831266
 20
129.3458117208615
 30
0.0
 10
165.7647805609183
 20
129.2027315898393
 30
0.0
 10
166.2011138362433
 20
128.8748730393705
 30
0.0
 10
166.4063950901015
 20
128.6878794016702
 30
0.0
 10
166.7744293879618
 20
128.2784487818472
 30
0.0
 10
166.9359443779469
 20
128.0583433408627
 30
0.0
 10
167.213102061094
 20
127.5865932594247
 30
0.0
 10
167.3294962405278
 20
127.3315767329835
 30
0.0
 10
167.5027702771744
 20
126.8103389095865
 30
0.0
 10
167.5612168316402
 20
126.5428547918056
 30
0.0
 10
167.605081557116
 20
126.1309391324731
 30
0.0
 10
167.6122617737454
 20
125.9912318293976
 30
0.0
 10
167.6112937464499
 20
125.7151087739352
 30
0.0
 10
167.6032909570363
 20
125.5779322076044
 30
0.0
 10
167.5572182251239
 20
125.1689987663412
 30
0.0
 10
167.4962833926719
 20
124.8970725173369
 30
0.0
 10
167.3181632362634
 20
124.3738920008818
 30
0.0
 10
167.202595324921
 20
124.1251800005185
 30
0.0
 10
166.9207485409817
 20
123.6522954755265
 30
0.0
 10
166.753878595567
 20
123.4286862582944
 30
0.0
 10
166.3845530407683
 20
123.0240288701067
 30
0.0
 10
166.1797678844707
 20
122.8396152819372
 30
0.0
 10
165.7351149369545
 20
122.5105892470428
 30
0.0
 10
165.5002658074438
 20
122.3694211710546
 30
0.0
 10
165.0068560449667
 20
122.1310116422741
 30
0.0
 10
164.7455690912621
 20
122.0332290858692
 30
0.0
 10
164.2148308107494
 20
121.8879010576791
 30
0.0
 10
163.9451911098521
 20
121.8396116674841
 30
0.0
 10
163.397439770107
 20
121.7911964436975
 30
0.0
 10
163.1175357282483
 20
121.7916546293334
 30
0.0
 10
162.5704578204133
 20
121.8418064849356
 30
0.0
 10
162.3008527157259
 20
121.8909800519676
 30
0.0
 10
161.7696979590698
 20
122.0386545752747
 30
0.0
 10
161.5084031426263
 20
122.1378097396402
 30
0.0
 10
161.0160891644509
 20
122.378822510117
 30
0.0
 10
160.7821322888722
 20
122.5213106347417
 30
0.0
 10
160.3399636683418
 20
122.8527980637266
 30
0.0
 10
160.1347701372301
 20
123.040231691715
 30
0.0
 10
159.7690759208721
 20
123.4471354107654
 30
0.0
 10
159.6063052984838
 20
123.6683144854344
 30
0.0
 10
159.3253528677182
 20
124.1480618146497
 30
0.0
 10
159.2121490154447
 20
124.39807378146
 30
0.0
 10
159.0395402913058
 20
124.9181489914804
 30
0.0
 10
158.9799340086294
 20
125.1918804561102
 30
0.0
 10
158.9220422385596
 20
125.7404981060087
 30
0.0
 10
158.9228317774195
 20
126.0148379699002
 30
0.0
 10
158.9840222530359
 20
126.5635799210392
 30
0.0
 10
159.04515097677
 20
126.8366452348964
 30
0.0
 10
159.2212306623998
 20
127.3568104836647
 30
0.0
 10
159.3375612573897
 20
127.6091296172236
 30
0.0
 10
159.6207624871305
 20
128.0855339586307
 30
0.0
 10
159.7857473771074
 20
128.3072952768149
 30
0.0
 10
159.9729624870444
 20
128.5124731770574
 30
0.0
  0
CIRCLE
  5
166
330
1F
100
AcDbEntity
  8
0
  6
HIDDEN
 62
     7
370
    18
100
AcDbCircle
 10
163.1618010583
 20
125.866461627
 30
0.0
 40
4.049999999999997
  0
CIRCLE
  5
167
330
1F
100
AcDbEntity
  8
0
  6
HIDDEN
 62
     7
370
    18
100
AcDbCircle
 10
190.6618010583
 20
125.866461627
 30
0.0
 40
2.0
  0
LINE
  5
168
330
1F
100
AcDbEntity
  8
0
  6
HIDDEN
 62
     7
370
    18
100
AcDbLine
 10
178.6618010583
 20
101.616461627
 30
0.0
 11
178.7546942771
 21
101.7093548458
 31
0.0
  0
LINE
  5
169
330
1F
100
AcDbEntity
  8
0
  6
HIDDEN
 62
     7
370
    18
100
AcDbLine
 10
178.7546942771
 20
150.0235684082
 30
0.0
 11
178.6618010583
 21
150.116461627
 31
0.0
  0
ARC
  5
16A
330
1F
100
AcDbEntity
  8
0
  6
HIDDEN
 62
     7
370
    18
100
AcDbCircle
 10
178.0475874959
 20
102.416461627
 30
0.0
 40
1.0
100
AcDbArc
 50
315.0
 51
0.0
  0
ARC
  5
16B
330
1F
100
AcDbEntity
  8
0
  6
HIDDEN
 62
     7
370
    18
100
AcDbCircle
 10
178.0475874959
 20
102.416461627
 30
0.0
 40
1.0
100
AcDbArc
 50
0.0
 51
52.1052014664
  0
ARC
  5
16C
330
1F
100
AcDbEntity
  8
0
  6
HIDDEN
 62
     7
370
    18
100
AcDbCircle
 10
178.0475874959
 20
149.316461627
 30
0.0
 40
1.000000000000008
100
AcDbArc
 50
351.8087250651
 51
45.0
  0
ARC
  5
16D
330
1F
100
AcDbEntity
  8
0
  6
HIDDEN
 62
     7
370
    18
100
AcDbCircle
 10
178.0475874959
 20
149.316461627
 30
0.0
 40
1.000000000000002
100
AcDbArc
 50
307.8947985336
 51
351.8087250651
  0
LINE
  5
16E
330
1F
100
AcDbEntity
  8
0
  6
HIDDEN
 62
     7
370
    18
100
AcDbLine
 10
179.0475874959
 20
102.416461627
 30
0.0
 11
179.0475874959
 21
149.316461627
 31
0.0
  0
LINE
  5
16F
330
1F
100
AcDbEntity
  8
0
  6
HIDDEN
 62
     7
370
    18
100
AcDbLine
 10
179.0475874959
 20
102.416461627
 30
0.0
 11
179.0475874959
 21
149.316461627
 31
0.0
  0
ARC
  5
170
330
1F
100
AcDbEntity
  8
0
  6
HIDDEN
 62
     7
370
    18
100
AcDbCircle
 10
252.4618010583
 20
108.666461627
 30
0.0
 40
1.200000000000045
100
AcDbArc
 50
0.0
 51
90.0
  0
ARC
  5
171
330
1F
100
AcDbEntity
  8
0
  6
HIDDEN
 62
     7
370
    18
100
AcDbCircle
 10
252.4618010583
 20
143.066461627
 30
0.0
 40
1.200000000000045
100
AcDbArc
 50
270.0
 51
0.0
  0
LINE
  5
172
330
1F
100
AcDbEntity
  8
0
  6
HIDDEN
 62
     7
370
    18
100
AcDbLine
 10
191.0618010583
 20
109.566461627
 30
0.0
 11
195.7670270402
 21
109.566461627
 31
0.0
  0
LINE
  5
173
330
1F
100
AcDbEntity
  8
0
  6
HIDDEN
 62
     7
370
    18
100
AcDbLine
 10
195.7670270402
 20
142.166461627
 30
0.0
 11
191.0618010583
 21
142.166461627
 31
0.0
  0
ARC
  5
174
330
1F
100
AcDbEntity
  8
0
  6
HIDDEN
 62
     7
370
    18
100
AcDbCircle
 10
195.7670270402
 20
109.966461627
 30
0.0
 40
0.4000000000000199
100
AcDbArc
 50
270.0
 51
290.0
  0
ARC
  5
175
330
1F
100
AcDbEntity
  8
0
  6
HIDDEN
 62
     7
370
    18
100
AcDbCircle
 10
195.7670270402
 20
141.766461627
 30
0.0
 40
0.4000000000000111
100
AcDbArc
 50
70.0
 51
90.0
  0
ARC
  5
176
330
1F
100
AcDbEntity
  8
0
  6
HIDDEN
 62
     7
370
    18
100
AcDbCircle
 10
191.0618010583
 20
109.966461627
 30
0.0
 40
0.4000000000000057
100
AcDbArc
 50
180.0
 51
270.0
  0
ARC
  5
177
330
1F
100
AcDbEntity
  8
0
  6
HIDDEN
 62
     7
370
    18
100
AcDbCircle
 10
191.0618010583
 20
141.766461627
 30
0.0
 40
0.4000000000000057
100
AcDbArc
 50
90.0
 51
180.0
  0
LINE
  5
178
330
1F
100
AcDbEntity
  8
0
  6
HIDDEN
 62
     7
370
    18
100
AcDbLine
 10
195.9038350975
 20
109.5905845787
 30
0.0
 11
196.6618010583
 21
109.866461627
 31
0.0
  0
LINE
  5
179
330
1F
100
AcDbEntity
  8
0
  6
HIDDEN
 62
     7
370
    18
100
AcDbLine
 10
196.6618010583
 20
141.866461627
 30
0.0
 11
195.9038350975
 21
142.1423386753
 31
0.0
  0
LINE
  5
17A
330
1F
100
AcDbEntity
  8
0
  6
HIDDEN
 62
     7
370
    18
100
AcDbLine
 10
140.6618010583
 20
109.6700327825
 30
0.0
 11
142.1920294979
 21
110.5535105841
 31
0.0
  0
LINE
  5
17B
330
1F
100
AcDbEntity
  8
0
  6
HIDDEN
 62
     7
370
    18
100
AcDbLine
 10
142.1920294979
 20
141.1794126699
 30
0.0
 11
140.6618010583
 21
142.0628904715
 31
0.0
  0
ARC
  5
17C
330
1F
100
AcDbEntity
  8
0
  6
HIDDEN
 62
     7
370
    18
100
AcDbCircle
 10
151.6636023732
 20
111.866461627
 30
0.0
 40
2.000000000000014
100
AcDbArc
 50
270.0
 51
315.0
  0
ARC
  5
17D
330
1F
100
AcDbEntity
  8
0
  6
HIDDEN
 62
     7
370
    18
100
AcDbCircle
 10
151.6636023732
 20
139.866461627
 30
0.0
 40
2.000000000000028
100
AcDbArc
 50
45.0
 51
90.0
  0
LINE
  5
17E
330
1F
100
AcDbEntity
  8
0
  6
HIDDEN
 62
     7
370
    18
100
AcDbLine
 10
150.6618010583
 20
109.866461627
 30
0.0
 11
151.6636023732
 21
109.866461627
 31
0.0
  0
LINE
  5
17F
330
1F
100
AcDbEntity
  8
0
  6
HIDDEN
 62
     7
370
    18
100
AcDbLine
 10
151.6636023732
 20
141.866461627
 30
0.0
 11
150.6618010583
 21
141.866461627
 31
0.0
  0
LINE
  5
180
330
1F
100
AcDbEntity
  8
0
  6
HIDDEN
 62
     7
370
    18
100
AcDbLine
 10
196.6618010583
 20
109.866461627
 30
0.0
 11
252.4618010583
 21
109.866461627
 31
0.0
  0
LINE
  5
181
330
1F
100
AcDbEntity
  8
0
  6
HIDDEN
 62
     7
370
    18
100
AcDbLine
 10
252.4618010583
 20
141.866461627
 30
0.0
 11
196.6618010583
 21
141.866461627
 31
0.0
  0
ARC
  5
182
330
1F
100
AcDbEntity
  8
0
  6
HIDDEN
 62
     7
370
    18
100
AcDbCircle
 10
150.6618010583
 20
111.866461627
 30
0.0
 40
2.000000000000057
100
AcDbArc
 50
189.9742217944
 51
270.0
  0
ARC
  5
183
330
1F
100
AcDbEntity
  8
0
  6
HIDDEN
 62
     7
370
    18
100
AcDbCircle
 10
150.6618010583
 20
139.866461627
 30
0.0
 40
2.00000000000006
100
AcDbArc
 50
90.0
 51
170.0257782056
  0
LINE
  5
184
330
1F
100
AcDbEntity
  8
0
  6
HIDDEN
 62
     7
370
    18
100
AcDbLine
 10
153.0778159355
 20
110.4522480646
 30
0.0
 11
154.4920294979
 21
111.866461627
 31
0.0
  0
LINE
  5
185
330
1F
100
AcDbEntity
  8
0
  6
HIDDEN
 62
     7
370
    18
100
AcDbLine
 10
154.4920294979
 20
139.866461627
 30
0.0
 11
153.0778159355
 21
141.2806751894
 31
0.0
  0
LINE
  5
186
330
1F
100
AcDbEntity
  8
0
  6
HIDDEN
 62
     7
370
    18
100
AcDbLine
 10
142.1920294979
 20
110.5535105841
 30
0.0
 11
147.0920294979
 21
111.866461627
 31
0.0
  0
LINE
  5
187
330
1F
100
AcDbEntity
  8
0
  6
HIDDEN
 62
     7
370
    18
100
AcDbLine
 10
147.0920294979
 20
139.866461627
 30
0.0
 11
142.1920294979
 21
141.1794126699
 31
0.0
  0
LINE
  5
188
330
1F
100
AcDbEntity
  8
0
  6
HIDDEN
 62
     7
370
    18
100
AcDbLine
 10
148.6920294979
 20
140.2128717885
 30
0.0
 11
148.0920294979
 21
139.866461627
 31
0.0
  0
LINE
  5
189
330
1F
100
AcDbEntity
  8
0
  6
HIDDEN
 62
     7
370
    18
100
AcDbLine
 10
148.0920294979
 20
111.866461627
 30
0.0
 11
148.6920294979
 21
111.5200514655
 31
0.0
  0
ARC
  5
18A
330
1F
100
AcDbEntity
  8
0
  6
HIDDEN
 62
     7
370
    18
100
AcDbCircle
 10
167.1618010583
 20
112.366461627
 30
0.0
 40
0.5
100
AcDbArc
 50
270.0
 51
0.0
  0
ARC
  5
18B
330
1F
100
AcDbEntity
  8
0
  6
HIDDEN
 62
     7
370
    18
100
AcDbCircle
 10
167.1618010583
 20
139.366461627
 30
0.0
 40
0.5
100
AcDbArc
 50
0.0
 51
90.0
  0
LINE
  5
18C
330
1F
100
AcDbEntity
  8
0
  6
HIDDEN
 62
     7
370
    18
100
AcDbLine
 10
154.4920294979
 20
111.866461627
 30
0.0
 11
167.1618010583
 21
111.866461627
 31
0.0
  0
LINE
  5
18D
330
1F
100
AcDbEntity
  8
0
  6
HIDDEN
 62
     7
370
    18
100
AcDbLine
 10
167.1618010583
 20
139.866461627
 30
0.0
 11
154.4920294979
 21
139.866461627
 31
0.0
  0
LINE
  5
18E
330
1F
100
AcDbEntity
  8
0
  6
HIDDEN
 62
     7
370
    18
100
AcDbLine
 10
147.0920294979
 20
111.866461627
 30
0.0
 11
148.0920294979
 21
111.866461627
 31
0.0
  0
LINE
  5
18F
330
1F
100
AcDbEntity
  8
0
  6
HIDDEN
 62
     7
370
    18
100
AcDbLine
 10
148.0920294979
 20
139.866461627
 30
0.0
 11
147.0920294979
 21
139.866461627
 31
0.0
  0
LINE
  5
190
330
1F
100
AcDbEntity
  8
0
  6
HIDDEN
 62
     7
370
    18
100
AcDbLine
 10
167.6618010583
 20
115.616461627
 30
0.0
 11
168.9118010583
 21
116.866461627
 31
0.0
  0
LINE
  5
191
330
1F
100
AcDbEntity
  8
0
  6
HIDDEN
 62
     7
370
    18
100
AcDbLine
 10
168.9118010583
 20
134.866461627
 30
0.0
 11
167.6618010583
 21
136.116461627
 31
0.0
  0
LINE
  5
192
330
1F
100
AcDbEntity
  8
0
  6
HIDDEN
 62
     7
370
    18
100
AcDbLine
 10
168.9118010583
 20
116.866461627
 30
0.0
 11
190.6618010583
 21
116.866461627
 31
0.0
  0
LINE
  5
193
330
1F
100
AcDbEntity
  8
0
  6
HIDDEN
 62
     7
370
    18
100
AcDbLine
 10
190.6618010583
 20
134.866461627
 30
0.0
 11
168.9118010583
 21
134.866461627
 31
0.0
  0
LINE
  5
194
330
1F
100
AcDbEntity
  8
0
  6
HIDDEN
 62
     7
370
    18
100
AcDbLine
 10
179.1618010583
 20
157.366461627
 30
0.0
 11
179.1618010583
 21
94.366461627
 31
0.0
  0
LINE
  5
195
330
1F
100
AcDbEntity
  8
0
  6
HIDDEN
 62
     7
370
    18
100
AcDbLine
 10
200.1618010583
 20
157.366461627
 30
0.0
 11
200.1618010583
 21
94.366461627
 31
0.0
  0
LINE
  5
196
330
1F
100
AcDbEntity
  8
0
  6
HIDDEN
 62
     7
370
    18
100
AcDbLine
 10
201.6618010583
 20
99.866461627
 30
0.0
 11
201.6618010583
 21
151.866461627
 31
0.0
  0
DIMENSION
  5
197
330
1F
100
AcDbEntity
  8
VERMASSUNG
100
AcDbDimension
  2
_D
 10
130.6618010583
 20
94.366461627
 30
0.0
 11
130.6618010583
 21
125.866461627
 31
0.0
 70
   160
  1
PSC %%c<>
 71
     2
 42
-1.0
  3
SLDDIMSTYLE0
100
AcDbAlignedDimension
 13
179.1618010583
 23
157.366461627
 33
0.0
 14
179.1618010583
 24
94.366461627
 34
0.0
 50
90.0
100
AcDbRotatedDimension
  0
DIMENSION
  5
1A4
330
1F
100
AcDbEntity
  8
VERMASSUNG
100
AcDbDimension
  2
_D_1
 10
263.4618010583
 20
109.866461627
 30
0.0
 11
263.4618010583
 21
125.866461627
 31
0.0
 70
   160
  1
%%c<>
 71
     2
 42
-1.0
  3
SLDDIMSTYLE0
100
AcDbAlignedDimension
 13
252.4618010583
 23
141.866461627
 33
0.0
 14
252.4618010583
 24
109.866461627
 34
0.0
 50
90.0
100
AcDbRotatedDimension
  0
DIMENSION
  5
1AF
330
1F
100
AcDbEntity
  8
VERMASSUNG
100
AcDbDimension
  2
_D_2
 10
272.6618010583
 20
151.866461627
 30
0.0
 11
272.6618010583
 21
125.866461627
 31
0.0
 70
   160
  1
%%c<>
 71
     2
 42
-1.0
  3
SLDDIMSTYLE0
100
AcDbAlignedDimension
 13
252.6618010583
 23
99.866461627
 33
0.0
 14
252.6618010583
 24
151.866461627
 34
0.0
 50
90.0
100
AcDbRotatedDimension
  0
DIMENSION
  5
1BA
330
1F
100
AcDbEntity
  8
VERMASSUNG
100
AcDbDimension
  2
_D_3
 10
253.6618010583
 20
165.866461627
 30
0.0
 11
227.1618010583
 21
165.866461627
 31
0.0
 70
   160
  1
<>
 71
     2
 42
-1.0
  3
SLDDIMSTYLE0
100
AcDbAlignedDimension
 13
200.6618010583
 23
152.866461627
 33
0.0
 14
253.6618010583
 24
150.866461627
 34
0.0
100
AcDbRotatedDimension
  0
DIMENSION
  5
1C4
330
1F
100
AcDbEntity
  8
VERMASSUNG
100
AcDbDimension
  2
_D_4
 10
253.6618010583
 20
176.7975501114
 30
0.0
 11
216.1618010583
 21
176.7975501114
 31
0.0
 70
   160
  1
<>
 71
     2
 42
-1.0
  3
SLDDIMSTYLE0
100
AcDbAlignedDimension
 13
178.6618010583
 23
156.866461627
 33
0.0
 14
253.6618010583
 24
150.866461627
 34
0.0
100
AcDbRotatedDimension
  0
DIMENSION
  5
1CE
330
1F
100
AcDbEntity
  8
VERMASSUNG
100
AcDbDimension
  2
_D_5
 10
253.6618010583
 20
185.366461627
 30
0.0
 11
197.1618010583
 21
185.366461627
 31
0.0
 70
   160
  1
(<>)
 71
     2
 42
-1.0
  3
SLDDIMSTYLE0
100
AcDbAlignedDimension
 13
140.6618010583
 23
146.1587996195
 33
0.0
 14
253.6618010583
 24
150.866461627
 34
0.0
100
AcDbRotatedDimension
  0
DIMENSION
  5
1DA
330
1F
100
AcDbEntity
  8
VERMASSUNG
100
AcDbDimension
  2
_D_6
 10
253.6618010583
 20
84.366461627
 30
0.0
 11
222.1618010583
 21
84.366461627
 31
0.0
 70
   160
  1
<>
 71
     2
 42
-1.0
  3
SLDDIMSTYLE0
100
AcDbAlignedDimension
 13
190.6618010583
 23
109.966461627
 33
0.0
 14
253.6618010583
 24
100.866461627
 34
0.0
100
AcDbRotatedDimension
  0
DIMENSION
  5
1E4
330
1F
100
AcDbEntity
  8
VERMASSUNG
100
AcDbDimension
  2
_D_7
 10
201.6618010583
 20
152.866461627
 30
0.0
 11
206.1533812268
 21
157.3580417955
 31
0.0
 70
   164
  1
<>
 71
     1
 42
-1.0
  3
SLDDIMSTYLE1
100
AcDbRadialDimension
 15
200.9546942771
 25
152.1593548458
 35
0.0
 40
0.0
  0
INSERT
  5
1F7
330
1F
100
AcDbEntity
  8
VERMASSUNG
100
AcDbBlockReference
  2
SW_CENTERMARKSYMBOL_0
 10
236.6618010583
 20
125.866461627
 30
0.0
  0
INSERT
  5
203
330
1F
100
AcDbEntity
  8
VERMASSUNG
100
AcDbBlockReference
  2
SW_CENTERMARKSYMBOL_1
 10
209.6618010583
 20
125.866461627
 30
0.0
  0
LINE
  5
204
330
1F
100
AcDbEntity
  8
VERMASSUNG
  6
CENTERX2
370
    18
100
AcDbLine
 10
137.5991880581
 20
125.866461627
 30
0.0
 11
252.6422866543
 21
125.866461627
 31
0.0
  0
LINE
  5
205
330
1F
100
AcDbEntity
  8
0
  6
Continuous
 62
     7
370
    25
100
AcDbLine
 10
55.1295964452
 20
121.872873992
 30
0.0
 11
58.6231840801
 21
125.366461627
 31
0.0
  0
LINE
  5
206
330
1F
100
AcDbEntity
  8
0
  6
Continuous
 62
     7
370
    25
100
AcDbLine
 10
58.6231840801
 20
126.366461627
 30
0.0
 11
55.1295964452
 21
129.860049262
 31
0.0
  0
LINE
  5
207
330
1F
100
AcDbEntity
  8
0
  6
Continuous
 62
     7
370
    25
100
AcDbLine
 10
45.2363241135
 20
131.4796016604
 30
0.0
 11
44.6231840801
 21
130.866461627
 31
0.0
  0
LINE
  5
208
330
1F
100
AcDbEntity
  8
0
  6
Continuous
 62
     7
370
    25
100
AcDbLine
 10
44.6231840801
 20
120.866461627
 30
0.0
 11
45.2363241135
 21
120.2533215936
 31
0.0
  0
LINE
  5
209
330
1F
100
AcDbEntity
  8
0
  6
Continuous
 62
     7
370
    25
100
AcDbLine
 10
55.53866034
 20
120.5319378869
 30
0.0
 11
56.6231840801
 21
121.616461627
 31
0.0
  0
LINE
  5
20A
330
1F
100
AcDbEntity
  8
0
  6
Continuous
 62
     7
370
    25
100
AcDbLine
 10
56.6231840801
 20
130.116461627
 30
0.0
 11
55.53866034
 21
131.2009853671
 31
0.0
  0
LINE
  5
20B
330
1F
100
AcDbEntity
  8
0
  6
Continuous
 62
     7
370
    25
100
AcDbLine
 10
45.3249627988
 20
131.866461627
 30
0.0
 11
45.1797497396
 21
131.866461627
 31
0.0
  0
LINE
  5
20C
330
1F
100
AcDbEntity
  8
0
  6
Continuous
 62
     7
370
    25
100
AcDbLine
 10
45.1797497396
 20
119.866461627
 30
0.0
 11
45.3249627988
 21
119.866461627
 31
0.0
  0
LINE
  5
20D
330
1F
100
AcDbEntity
  8
0
  6
Continuous
 62
     7
370
    25
100
AcDbLine
 10
45.1797497396
 20
131.866461627
 30
0.0
 11
44.6231840801
 21
130.902461627
 31
0.0
  0
LINE
  5
20E
330
1F
100
AcDbEntity
  8
0
  6
Continuous
 62
     7
370
    25
100
AcDbLine
 10
44.6231840801
 20
120.830461627
 30
0.0
 11
45.1797497396
 21
119.866461627
 31
0.0
  0
CIRCLE
  5
20F
330
1F
100
AcDbEntity
  8
0
  6
Continuous
 62
     7
370
    25
100
AcDbCircle
 10
70.6231840801
 20
125.866461627
 30
0.0
 40
25.0
  0
CIRCLE
  5
210
330
1F
100
AcDbEntity
  8
0
  6
Continuous
 62
     7
370
    25
100
AcDbCircle
 10
70.6231840801
 20
125.866461627
 30
0.0
 40
26.0
  0
CIRCLE
  5
211
330
1F
100
AcDbEntity
  8
0
  6
Continuous
 62
     7
370
    25
100
AcDbCircle
 10
70.6231840801
 20
125.866461627
 30
0.0
 40
17.19999999999999
  0
CIRCLE
  5
212
330
1F
100
AcDbEntity
  8
0
  6
Continuous
 62
     7
370
    25
100
AcDbCircle
 10
70.6231840801
 20
125.866461627
 30
0.0
 40
16.0
  0
CIRCLE
  5
213
330
1F
100
AcDbEntity
  8
0
  6
Continuous
 62
     7
370
    25
100
AcDbCircle
 10
70.6231840801
 20
125.866461627
 30
0.0
 40
27.0
  0
CIRCLE
  5
214
330
1F
100
AcDbEntity
  8
0
  6
Continuous
 62
     7
370
    25
100
AcDbCircle
 10
70.6231840801
 20
125.866461627
 30
0.0
 40
31.0
  0
CIRCLE
  5
215
330
1F
100
AcDbEntity
  8
0
  6
Continuous
 62
     7
370
    25
100
AcDbCircle
 10
70.6231840801
 20
125.866461627
 30
0.0
 40
31.5
  0
CIRCLE
  5
216
330
1F
100
AcDbEntity
  8
0
  6
Continuous
 62
     7
370
    25
100
AcDbCircle
 10
70.6231840801
 20
125.866461627
 30
0.0
 40
9.0
  0
LINE
  5
217
330
1F
100
AcDbEntity
  8
0
  6
Continuous
 62
     7
370
    25
100
AcDbLine
 10
58.6231840801
 20
125.366461627
 30
0.0
 11
58.6231840801
 21
126.366461627
 31
0.0
  0
LINE
  5
218
330
1F
100
AcDbEntity
  8
0
  6
Continuous
 62
     7
370
    25
100
AcDbLine
 10
44.6231840801
 20
120.866461627
 30
0.0
 11
44.6231840801
 21
130.866461627
 31
0.0
  0
LINE
  5
219
330
1F
100
AcDbEntity
  8
0
  6
Continuous
 62
     7
370
    25
100
AcDbLine
 10
56.6231840801
 20
130.116461627
 30
0.0
 11
56.6231840801
 21
128.366461627
 31
0.0
  0
LINE
  5
21A
330
1F
100
AcDbEntity
  8
0
  6
Continuous
 62
     7
370
    25
100
AcDbLine
 10
56.6231840801
 20
123.366461627
 30
0.0
 11
56.6231840801
 21
121.616461627
 31
0.0
  0
LINE
  5
21B
330
1F
100
AcDbEntity
  8
0
  6
Continuous
 62
     7
370
    25
100
AcDbLine
 10
45.1797497396
 20
131.866461627
 30
0.0
 11
45.1797497396
 21
131.4230272865
 31
0.0
  0
LINE
  5
21C
330
1F
100
AcDbEntity
  8
0
  6
Continuous
 62
     7
370
    25
100
AcDbLine
 10
45.1797497396
 20
120.3098959675
 30
0.0
 11
45.1797497396
 21
119.866461627
 31
0.0
  0
LINE
  5
21D
330
1F
100
AcDbEntity
  8
0
  6
Continuous
 62
     7
370
    25
100
AcDbLine
 10
44.6231840801
 20
130.902461627
 30
0.0
 11
44.6231840801
 21
130.866461627
 31
0.0
  0
LINE
  5
21E
330
1F
100
AcDbEntity
  8
0
  6
Continuous
 62
     7
370
    25
100
AcDbLine
 10
44.6231840801
 20
120.866461627
 30
0.0
 11
44.6231840801
 21
120.830461627
 31
0.0
  0
ARC
  5
21F
330
1F
100
AcDbEntity
  8
0
  6
Continuous
 62
     7
370
    25
100
AcDbCircle
 10
70.6231840801
 20
125.866461627
 30
0.0
 40
15.9
100
AcDbArc
 50
199.3035524719
 51
270.0
  0
ARC
  5
220
330
1F
100
AcDbEntity
  8
0
  6
Continuous
 62
     7
370
    25
100
AcDbCircle
 10
70.6231840801
 20
125.866461627
 30
0.0
 40
15.9
100
AcDbArc
 50
270.0
 51
160.6964475281
  0
INSERT
  5
22C
330
1F
100
AcDbEntity
  8
VERMASSUNG
100
AcDbBlockReference
  2
SW_CENTERMARKSYMBOL_2
 10
70.6231840801
 20
125.866461627
 30
0.0
  0
LINE
  5
22D
330
1F
100
AcDbEntity
  8
0
  6
Continuous
 62
     7
370
    25
100
AcDbLine
 10
223.0346508096
 20
23.869518008
 30
0.0
 11
223.3881467379
 21
24.0736532083
 31
0.0
  0
LINE
  5
22E
330
1F
100
AcDbEntity
  8
0
  6
Continuous
 62
     7
370
    25
100
AcDbLine
 10
232.2255449435
 20
39.382134613
 30
0.0
 11
232.2255449435
 21
39.7903386689
 31
0.0
  0
LINE
  5
22F
330
1F
100
AcDbEntity
  8
0
  6
Continuous
 62
     7
370
    25
100
AcDbLine
 10
198.5024621056
 20
33.6342541568
 30
0.0
 11
216.5336850259
 21
23.2250507311
 31
0.0
  0
LINE
  5
230
330
1F
100
AcDbEntity
  8
0
  6
Continuous
 62
     7
370
    25
100
AcDbLine
 10
229.5326285502
 20
45.742321153
 30
0.0
 11
211.5014056299
 21
56.1515245787
 31
0.0
  0
SPLINE
  5
231
330
1F
100
AcDbEntity
  8
0
  6
Continuous
 62
     7
370
    25
100
AcDbSpline
210
0.0
220
0.0
230
1.0
 70
     8
 71
     3
 72
    15
 73
    11
 74
     0
 42
0.000000001
 43
0.00000001
 40
0.0
 40
0.0
 40
0.0
 40
0.0
 40
0.1184851714529439
 40
0.269826496537529
 40
0.4177934376846588
 40
0.5613838756623633
 40
0.7018843319591381
 40
0.8407484984435832
 40
0.9712101781500646
 40
1.0
 40
1.0
 40
1.0
 40
1.0
 10
219.0062037160436
 20
27.58084537154554
 30
0.0
 10
218.8985653961516
 20
27.64321873088558
 30
0.0
 10
218.6534404544101
 20
27.78526169560106
 30
0.0
 10
218.3311314283257
 20
28.10824604874493
 30
0.0
 10
218.0331533064571
 20
28.53032662613784
 30
0.0
 10
217.7972890705658
 20
29.02950293939843
 30
0.0
 10
217.6237845102497
 20
29.59420358132631
 30
0.0
 10
217.5169647166408
 20
30.20794933389936
 30
0.0
 10
217.4833261374523
 20
30.6938610847427
 30
0.0
 10
217.4816337458376
 20
30.96494444585055
 30
0.0
 10
217.4813277917172
 20
31.01395146679855
 30
0.0
  0
SPLINE
  5
232
330
1F
100
AcDbEntity
  8
0
  6
Continuous
 62
     7
370
    25
100
AcDbSpline
210
0.0
220
0.0
230
1.0
 70
     8
 71
     3
 72
    29
 73
    25
 74
     0
 42
0.000000001
 43
0.00000001
 40
0.0
 40
0.0
 40
0.0
 40
0.0
 40
0.0241083096849907
 40
0.0702587183768456
 40
0.1164991034471439
 40
0.1628258861635286
 40
0.2092369090628089
 40
0.2557181158079319
 40
0.3022498596555834
 40
0.3488100645972704
 40
0.3953756521106435
 40
0.4419168334986837
 40
0.4884083541259441
 40
0.5348267671038066
 40
0.5811500335571596
 40
0.6273601593999757
 40
0.673448571623363
 40
0.7194262188898293
 40
0.7653412673874195
 40
0.8112705019450822
 40
0.857386831454518
 40
0.9040042385662203
 40
0.9515789936077138
 40
1.0
 40
1.0
 40
1.0
 40
1.0
 10
217.4813277917172
 20
31.01395146679855
 30
0.0
 10
217.483160680331
 20
31.13848757383254
 30
0.0
 10
217.4885022578457
 20
31.50142248657332
 30
0.0
 10
217.5485430578431
 20
32.13524780975066
 30
0.0
 10
217.6841085886319
 20
32.91800164340028
 30
0.0
 10
217.8872563230585
 20
33.723028090829
 30
0.0
 10
218.154886414855
 20
34.53892422963654
 30
0.0
 10
218.4843503892962
 20
35.35524361928492
 30
0.0
 10
218.8716344104471
 20
36.16121609772591
 30
0.0
 10
219.3119245045125
 20
36.94629744088822
 30
0.0
 10
219.7995267688886
 20
37.70019788268795
 30
0.0
 10
220.3279867089069
 20
38.4130889767093
 30
0.0
 10
220.8901649302276
 20
39.07575419327128
 30
0.0
 10
221.4783526991272
 20
39.67976183923675
 30
0.0
 10
222.0843469989227
 20
40.21758722864094
 30
0.0
 10
222.6995532362378
 20
40.68276709367493
 30
0.0
 10
223.3151350915311
 20
41.07008137859799
 30
0.0
 10
223.9222227810838
 20
41.37572069179273
 30
0.0
 10
224.5121201379336
 20
41.59743657025882
 30
0.0
 10
225.0766801713741
 20
41.7344770600849
 30
0.0
 10
225.60953258502
 20
41.78827015009208
 30
0.0
 10
226.1053500747516
 20
41.75865638807965
 30
0.0
 10
226.5650880242895
 20
41.65409210325475
 30
0.0
 10
226.8340873699067
 20
41.51699045470935
 30
0.0
 10
226.9697727255839
 20
41.44783532013406
 30
0.0
  0
SPLINE
  5
233
330
1F
100
AcDbEntity
  8
0
  6
Continuous
 62
     7
370
    25
100
AcDbSpline
210
0.0
220
0.0
230
1.0
 70
     8
 71
     3
 72
    11
 73
     7
 74
     0
 42
0.000000001
 43
0.00000001
 40
0.0
 40
0.0
 40
0.0
 40
0.0
 40
0.0731244145141844
 40
0.403613576348627
 40
0.7350410730910225
 40
1.0
 40
1.0
 40
1.0
 40
1.0
 10
199.8927960761557
 20
30.81434438676362
 30
0.0
 10
199.9525269386507
 20
30.81457394997894
 30
0.0
 10
200.2822141872962
 20
30.81584103472689
 30
0.0
 10
200.9095312674011
 20
30.91114592255508
 30
0.0
 10
201.7104337962326
 20
31.07972695990126
 30
0.0
 10
202.2382423367901
 20
31.26150555138304
 30
0.0
 10
202.4727338995981
 20
31.34226503654897
 30
0.0
  0
SPLINE
  5
234
330
1F
100
AcDbEntity
  8
0
  6
Continuous
 62
     7
370
    25
100
AcDbSpline
210
0.0
220
0.0
230
1.0
 70
     8
 71
     3
 72
    10
 73
     6
 74
     0
 42
0.000000001
 43
0.00000001
 40
0.0
 40
0.0
 40
0.0
 40
0.0
 40
0.3189887314852746
 40
0.6615483455501182
 40
1.0
 40
1.0
 40
1.0
 40
1.0
 10
215.4760606704957
 20
53.85700506402886
 30
0.0
 10
215.4177055504406
 20
54.13942606271668
 30
0.0
 10
215.296683303206
 20
54.72513686058909
 30
0.0
 10
215.0306097234572
 20
55.54268665232762
 30
0.0
 10
214.7951103048664
 20
56.04660009855027
 30
0.0
 10
214.6780708790462
 20
56.29703698184233
 30
0.0
  0
LINE
  5
235
330
1F
100
AcDbEntity
  8
0
  6
Continuous
 62
     7
370
    25
100
AcDbLine
 10
194.5959120963
 20
32.7141170059
 30
0.0
 11
196.5972437624
 21
31.5587728272
 31
0.0
  0
LINE
  5
236
330
1F
100
AcDbEntity
  8
0
  6
Continuous
 62
     7
370
    25
100
AcDbLine
 10
189.1726225599
 20
35.8449154143
 30
0.0
 11
191.8810610072
 21
34.2813671797
 31
0.0
  0
LINE
  5
237
330
1F
100
AcDbEntity
  8
0
  6
Continuous
 62
     7
370
    25
100
AcDbLine
 10
207.6297810462
 20
61.5619063447
 30
0.0
 11
204.9213425989
 21
63.1254545793
 31
0.0
  0
LINE
  5
238
330
1F
100
AcDbEntity
  8
0
  6
Continuous
 62
     7
370
    25
100
AcDbLine
 10
212.3459638014
 20
58.8393119922
 30
0.0
 11
210.3446321353
 21
59.9946561708
 31
0.0
  0
SPLINE
  5
239
330
1F
100
AcDbEntity
  8
0
  6
Continuous
 62
     7
370
    25
100
AcDbSpline
210
0.0
220
0.0
230
1.0
 70
     8
 71
     3
 72
    32
 73
    28
 74
     0
 42
0.000000001
 43
0.00000001
 40
0.0
 40
0.0
 40
0.0
 40
0.0
 40
0.0362091831389603
 40
0.076349109939402
 40
0.1165801043341036
 40
0.15687146931863
 40
0.1971967763066408
 40
0.2375363975601554
 40
0.2778750868611868
 40
0.3182058044047912
 40
0.3585256659773032
 40
0.398833968725712
 40
0.4391313627114788
 40
0.4794193003678795
 40
0.5196996896634746
 40
0.5599746862243974
 40
0.6002465756409007
 40
0.6405177115335293
 40
0.6807902145478315
 40
0.7210659719317711
 40
0.7613474100381152
 40
0.8016369426399492
 40
0.8419369193229502
 40
0.8822495249346609
 40
0.9225765974055752
 40
0.962919317168954
 40
1.0
 40
1.0
 40
1.0
 40
1.0
 10
201.5495614347251
 20
63.87001936363929
 30
0.0
 10
201.3000082950593
 20
63.85073334146595
 30
0.0
 10
200.773811390176
 20
63.81006767326916
 30
0.0
 10
199.9419051255084
 20
63.63454903718915
 30
0.0
 10
199.0664217315885
 20
63.37054190245969
 30
0.0
 10
198.177367999405
 20
63.01488310396114
 30
0.0
 10
197.2814519106359
 20
62.57281853217064
 30
0.0
 10
196.384342631003
 20
62.04660409365499
 30
0.0
 10
195.4919023729231
 20
61.44001505125691
 30
0.0
 10
194.6098089416622
 20
60.75705489415825
 30
0.0
 10
193.7436230721688
 20
60.00222778374506
 30
0.0
 10
192.8987736560072
 20
59.18043418315332
 30
0.0
 10
192.0805504948312
 20
58.29697249080926
 30
0.0
 10
191.2940781729585
 20
57.35750511489464
 30
0.0
 10
190.5442893640424
 20
56.36802972133094
 30
0.0
 10
189.8358961496198
 20
55.33484499532695
 30
0.0
 10
189.1733615122768
 20
54.26451382744439
 30
0.0
 10
188.560872719923
 20
53.16382579970023
 30
0.0
 10
188.0023167926373
 20
52.03975831636264
 30
0.0
 10
187.5012492278307
 20
50.89942580683793
 30
0.0
 10
187.0608857557909
 20
49.75003923153305
 30
0.0
 10
186.6840320827048
 20
48.59882846128135
 30
0.0
 10
186.3732663993741
 20
47.45311076156207
 30
0.0
 10
186.1302006652517
 20
46.31984033256769
 30
0.0
 10
185.9581887585134
 20
45.20708429238121
 30
0.0
 10
185.8550504577734
 20
44.1478045276683
 30
0.0
 10
185.8427287521081
 20
43.47855049399513
 30
0.0
 10
185.8368274710431
 20
43.15802213016137
 30
0.0
  0
SPLINE
  5
23A
330
1F
100
AcDbEntity
  8
0
  6
Continuous
 62
     7
370
    25
100
AcDbSpline
210
0.0
220
0.0
230
1.0
 70
     8
 71
     3
 72
    13
 73
     9
 74
     0
 42
0.000000001
 43
0.00000001
 40
0.0
 40
0.0
 40
0.0
 40
0.0
 40
0.0997614799963549
 40
0.2892258318931647
 40
0.4787558737671909
 40
0.6682281749002422
 40
0.8575416747638014
 40
1.0
 40
1.0
 40
1.0
 40
1.0
 10
185.8368274710431
 20
43.15802213016137
 30
0.0
 10
185.8388377322174
 20
42.97731591333375
 30
0.0
 10
185.8446658279962
 20
42.45341725132371
 30
0.0
 10
185.9097000774726
 20
41.61887192113643
 30
0.0
 10
186.0547693923245
 20
40.67505248885061
 30
0.0
 10
186.2745535116917
 20
39.78984347841286
 30
0.0
 10
186.5328912566064
 20
39.02596809240834
 30
0.0
 10
186.7487575464824
 20
38.59024950565183
 30
0.0
 10
186.8414476057466
 20
38.40315784973755
 30
0.0
  0
LINE
  5
23B
330
1F
100
AcDbEntity
  8
0
  6
Continuous
 62
     7
370
    25
100
AcDbLine
 10
177.6857224415
 20
47.8452778862
 30
0.0
 11
185.8435594623
 21
42.795073263
 31
0.0
  0
LINE
  5
23C
330
1F
100
AcDbEntity
  8
0
  6
Continuous
 62
     7
370
    25
100
AcDbLine
 10
196.200110636
 20
61.9074605149
 30
0.0
 11
188.1819774375
 21
66.2129746196
 31
0.0
  0
LINE
  5
23D
330
1F
100
AcDbEntity
  8
0
  6
Continuous
 62
     7
370
    25
100
AcDbLine
 10
185.4926078731
 20
66.803231152
 30
0.0
 11
184.8530574206
 21
66.7160200866
 31
0.0
  0
LINE
  5
23E
330
1F
100
AcDbEntity
  8
0
  6
Continuous
 62
     7
370
    25
100
AcDbLine
 10
176.5224713749
 20
49.5813199397
 30
0.0
 11
176.7667756677
 21
48.9838703906
 31
0.0
  0
LINE
  5
23F
330
1F
100
AcDbEntity
  8
0
  6
Continuous
 62
     7
370
    25
100
AcDbLine
 10
219.4979675723
 20
49.1804916879
 30
0.0
 11
219.1443567333
 21
49.3846932355
 31
0.0
  0
LINE
  5
240
330
1F
100
AcDbEntity
  8
0
  6
Continuous
 62
     7
370
    25
100
AcDbLine
 10
215.6082483438
 20
49.3846932355
 30
0.0
 11
215.2546375048
 21
49.1804916879
 31
0.0
  0
LINE
  5
241
330
1F
100
AcDbEntity
  8
0
  6
Continuous
 62
     7
370
    25
100
AcDbLine
 10
210.8303609925
 20
53.4668332927
 30
0.0
 11
210.8303609925
 21
53.6478744109
 31
0.0
  0
LINE
  5
242
330
1F
100
AcDbEntity
  8
0
  6
Continuous
 62
     7
370
    25
100
AcDbLine
 10
204.8303609925
 20
53.6478744109
 30
0.0
 11
204.8303609925
 21
53.4668332927
 31
0.0
  0
LWPOLYLINE
  5
243
330
1F
100
AcDbEntity
  8
0
  6
Continuous
 62
     7
370
    25
100
AcDbPolyline
 90
       67
 70
   128
 43
0.0
 10
214.5478754138
 20
29.1770332152
 10
214.587898342
 20
30.1703521945
 10
214.7076046727
 20
31.2008850126
 10
214.9059103268
 20
32.2592990047
 10
215.1810194177
 20
33.3360090098
 10
215.5304405148
 20
34.4212641753
 10
215.9510092066
 20
35.5052362625
 10
216.4389167578
 20
36.5781086522
 10
216.9897446021
 20
37.6301652459
 10
217.5985043573
 20
38.6518784562
 10
218.2596830007
 20
39.6339954901
 10
218.9672927962
 20
40.5676221436
 10
219.7149255199
 20
41.4443033492
 10
220.495810494
 20
42.2560997461
 10
221.3028759033
 20
42.9956595804
 10
222.1288128386
 20
43.6562852838
 10
222.9661414869
 20
44.2319941275
 10
223.8072788704
 20
44.7175724032
 10
224.6446075187
 20
45.1086226388
 10
225.4705444539
 20
45.4016034227
 10
226.2776098633
 20
45.5938614757
 10
227.0584948374
 20
45.6836556791
 10
227.806127561
 20
45.6701728425
 10
228.5137373565
 20
45.5535350688
 10
229.174916
 20
45.3347986476
 10
229.7836757551
 20
45.0159444898
 10
230.3345035994
 20
44.5998601881
 10
230.8224111507
 20
44.0903138663
 10
231.2429798424
 20
43.4919200548
 10
231.5924009395
 20
42.8100979007
 10
231.8675100304
 20
42.0510220909
 10
232.0658156846
 20
41.2215669336
 10
232.1855220153
 20
40.329244103
 10
232.2255449435
 20
39.382134613
 10
232.1855220153
 20
38.3888156337
 10
232.0658156846
 20
37.3582828156
 10
231.8675100304
 20
36.2998688235
 10
231.5924009395
 20
35.2231588184
 10
231.2429798424
 20
34.1379036528
 10
230.8224111507
 20
33.0539315657
 10
230.3345035994
 20
31.981059176
 10
229.7836757551
 20
30.9290025823
 10
229.174916
 20
29.9072893719
 10
228.5137373565
 20
28.925172338
 10
227.806127561
 20
27.9915456845
 10
227.0584948374
 20
27.114864479
 10
226.2776098633
 20
26.3030680821
 10
225.4705444539
 20
25.5635082478
 10
224.6446075187
 20
24.9028825444
 10
223.8072788704
 20
24.3271737006
 10
222.9661414869
 20
23.841595425
 10
222.1288128386
 20
23.4505451894
 10
221.3028759033
 20
23.1575644054
 10
220.495810494
 20
22.9653063525
 10
219.7149255199
 20
22.8755121491
 10
218.9672927962
 20
22.8889949856
 10
218.2596830007
 20
23.0056327594
 10
217.5985043573
 20
23.2243691806
 10
216.9897446021
 20
23.5432233384
 10
216.4389167578
 20
23.9593076401
 10
215.9510092066
 20
24.4688539619
 10
215.5304405148
 20
25.0672477734
 10
215.1810194177
 20
25.7490699275
 10
214.9059103268
 20
26.5081457373
 10
214.7076046727
 20
27.3376008946
 10
214.587898342
 20
28.2299237252
 10
214.5478754138
 20
29.1770332152
  0
LWPOLYLINE
  5
244
330
1F
100
AcDbEntity
  8
0
  6
Continuous
 62
     7
370
    25
100
AcDbPolyline
 90
       35
 70
   128
 43
0.0
 10
213.8407686326
 20
29.1770332152
 10
213.8811601514
 20
30.1943580153
 10
214.0019797458
 20
31.2493775834
 10
214.2021656487
 20
32.3328203696
 10
214.4799586192
 20
33.4351650399
 10
214.8329174028
 20
34.5467241495
 10
215.257940185
 20
35.6577292771
 10
215.7512918503
 20
36.7584168697
 10
216.3086368064
 20
37.8391140451
 10
216.925077086
 20
38.8903235976
 10
217.5951953896
 20
39.90280746
 10
218.3131026935
 20
40.8676678877
 10
219.0724900024
 20
41.7764256524
 10
219.8666837935
 20
42.6210945584
 10
220.6887046632
 20
43.3942516249
 10
221.5313286624
 20
44.0891023197
 10
222.3871507812
 20
44.6995402701
 10
223.248650024
 20
45.2202009252
 10
224.1082555045
 20
45.6465087007
 10
224.9584129788
 20
45.9747171884
 10
225.7916512324
 20
46.2019420803
 10
226.6006477378
 20
46.326186516
 10
227.3782930043
 20
46.3463586308
 10
228.1177530576
 20
46.2622811514
 10
228.8125294961
 20
46.0746929539
 10
229.4565165993
 20
45.7852425699
 10
230.0440549856
 20
45.3964737
 10
230.5699813465
 20
44.9118028588
 10
231.0296738221
 20
44.3354893513
 10
231.4190926185
 20
43.6725978411
 10
231.7348155093
 20
42.9289538428
 10
231.9740679104
 20
42.1110925265
 10
232.1347472631
 20
41.2262012869
 10
232.2154415114
 20
40.28205658
 10
232.2255449435
 20
39.7903386689
  0
LWPOLYLINE
  5
245
330
1F
100
AcDbEntity
  8
0
  6
Continuous
 62
     7
370
    25
100
AcDbPolyline
 90
       18
 70
   128
 43
0.0
 10
223.0346508096
 20
23.869518008
 10
222.3871507812
 20
23.5219689546
 10
221.5313286624
 20
23.1442957192
 10
220.6887046632
 20
22.8662734527
 10
219.8666837935
 20
22.690345425
 10
219.0724900024
 20
22.6180576977
 10
218.3131026935
 20
22.6500455381
 10
217.5951953896
 20
22.7860278358
 10
216.925077086
 20
23.0248095736
 10
216.3086368064
 20
23.3642923289
 10
215.7512918503
 20
23.8014927151
 10
215.257940185
 20
24.3325685995
 10
214.8329174028
 20
24.9528528681
 10
214.4799586192
 20
25.6568944404
 10
214.2021656487
 20
26.4385061739
 10
214.0019797458
 20
27.2908192364
 10
213.8811601514
 20
28.2063434701
 10
213.8407686326
 20
29.1770332152
  0
SPLINE
  5
246
330
1F
100
AcDbEntity
  8
0
  6
Continuous
 62
     7
370
    25
100
AcDbSpline
210
0.0
220
0.0
230
1.0
 70
    11
 71
     3
 72
    93
 73
    89
 74
     0
 42
0.000000001
 43
0.00000001
 40
0.0
 40
0.0
 40
0.0
 40
0.0
 40
0.0312500000000006
 40
0.0312500000000006
 40
0.0625000000000011
 40
0.0625000000000011
 40
0.0937500000000016
 40
0.0937500000000016
 40
0.1093750000000019
 40
0.1093750000000019
 40
0.1250000000000022
 40
0.1406250000000026
 40
0.1406250000000026
 40
0.1562500000000029
 40
0.1562500000000029
 40
0.1875000000000035
 40
0.1875000000000035
 40
0.2031250000000039
 40
0.2031250000000039
 40
0.2187500000000042
 40
0.2187500000000042
 40
0.2500000000000051
 40
0.2500000000000051
 40
0.281250000000006
 40
0.281250000000006
 40
0.2968750000000064
 40
0.2968750000000064
 40
0.3125000000000069
 40
0.3125000000000069
 40
0.3437500000000075
 40
0.3437500000000075
 40
0.3750000000000082
 40
0.3750000000000082
 40
0.4062500000000089
 40
0.4062500000000089
 40
0.4375000000000095
 40
0.4375000000000095
 40
0.4531250000000096
 40
0.4531250000000096
 40
0.4687500000000097
 40
0.4687500000000097
 40
0.5000000000000099
 40
0.5000000000000099
 40
0.5156250000000099
 40
0.5156250000000099
 40
0.5312500000000098
 40
0.5312500000000098
 40
0.5625000000000093
 40
0.5625000000000093
 40
0.5781250000000092
 40
0.5781250000000092
 40
0.5937500000000092
 40
0.5937500000000092
 40
0.6250000000000089
 40
0.6250000000000089
 40
0.6406250000000087
 40
0.6406250000000087
 40
0.6562500000000085
 40
0.6562500000000085
 40
0.6718750000000083
 40
0.6718750000000083
 40
0.6875000000000082
 40
0.6875000000000082
 40
0.7187500000000079
 40
0.7187500000000079
 40
0.7500000000000075
 40
0.7500000000000075
 40
0.7812500000000072
 40
0.7812500000000072
 40
0.8125000000000069
 40
0.8125000000000069
 40
0.8281250000000064
 40
0.8281250000000064
 40
0.8437500000000061
 40
0.8437500000000061
 40
0.8750000000000053
 40
0.8750000000000053
 40
0.8906250000000048
 40
0.8906250000000048
 40
0.9062500000000043
 40
0.9062500000000043
 40
0.937500000000003
 40
0.937500000000003
 40
0.9531250000000022
 40
0.9531250000000022
 40
0.9687500000000014
 40
0.9687500000000014
 40
1.0
 40
1.0
 40
1.0
 40
1.0
 10
207.7983832564332
 20
55.60808687333383
 30
0.0
 10
207.5817818151101
 20
55.64133768585033
 30
0.0
 10
207.3661112439015
 20
55.6628105586473
 30
0.0
 10
206.9363909612848
 20
55.6789001512674
 30
0.0
 10
206.7204313224902
 20
55.67308928812714
 30
0.0
 10
206.309408986966
 20
55.63049034905249
 30
0.0
 10
206.1122977791291
 20
55.59405517840797
 30
0.0
 10
205.8302318323739
 20
55.51351565695806
 30
0.0
 10
205.7382337440899
 20
55.48213452064467
 30
0.0
 10
205.5643624849582
 20
55.41211647337653
 30
0.0
 10
205.3992287617814
 20
55.33452553833605
 30
0.0
 10
205.2513867143707
 20
55.24185480330437
 30
0.0
 10
205.112377722708
 20
55.14150066109574
 30
0.0
 10
205.0471377480193
 20
55.08722788608418
 30
0.0
 10
204.869907012071
 20
54.91736348402002
 30
0.0
 10
204.7742692954546
 20
54.7935905951045
 30
0.0
 10
204.6631088603595
 20
54.59377553219193
 30
0.0
 10
204.6317012144597
 20
54.52504485684496
 30
0.0
 10
204.58073192442
 20
54.38626790117313
 30
0.0
 10
204.5609617832448
 20
54.31586285337762
 30
0.0
 10
204.5180526821108
 20
54.10208421432034
 30
0.0
 10
204.5115157553322
 20
53.95483539278433
 30
0.0
 10
204.5402345587934
 20
53.66578434006072
 30
0.0
 10
204.5749693051096
 20
53.52320329966685
 30
0.0
 10
204.6563566838022
 20
53.31359904142199
 30
0.0
 10
204.6884874759477
 20
53.24440437981551
 30
0.0
 10
204.7612437224427
 20
53.11016457257612
 30
0.0
 10
204.8019806816597
 20
53.04478740209786
 30
0.0
 10
204.9368669611341
 20
52.85401518314228
 30
0.0
 10
205.0437068660093
 20
52.73383549751181
 30
0.0
 10
205.2911098806422
 20
52.50959768424573
 30
0.0
 10
205.428405153006
 20
52.40846420861972
 30
0.0
 10
205.7289380518513
 20
52.22763210460138
 30
0.0
 10
205.8930423583576
 20
52.14760500107538
 30
0.0
 10
206.2448897293707
 20
52.01128123283164
 30
0.0
 10
206.429217575609
 20
51.95613484997746
 30
0.0
 10
206.7181638867644
 20
51.89178611130032
 30
0.0
 10
206.8165687806367
 20
51.87341361254372
 30
0.0
 10
207.0177072189551
 20
51.84281817375994
 30
0.0
 10
207.1209853773824
 20
51.83055542441391
 30
0.0
 10
207.4332887250019
 20
51.80353255562105
 30
0.0
 10
207.643936711559
 20
51.79835408825066
 30
0.0
 10
207.9638604759776
 20
51.80859526678583
 30
0.0
 10
208.071165028697
 20
51.81503082278618
 30
0.0
 10
208.2872150451762
 20
51.83400008494471
 30
0.0
 10
208.396620357244
 20
51.84664569677054
 30
0.0
 10
208.720210742828
 20
51.89300494365968
 30
0.0
 10
208.930877853771
 20
51.93497766610693
 30
0.0
 10
209.2391038262506
 20
52.01378576604449
 30
0.0
 10
209.3405400251876
 20
52.04271988529648
 30
0.0
 10
209.5406267357105
 20
52.10610780246869
 30
0.0
 10
209.6386872336444
 20
52.14042571708858
 30
0.0
 10
209.9200434193419
 20
52.24863313427787
 30
0.0
 10
210.0933557830313
 20
52.32851965968776
 30
0.0
 10
210.3309952022365
 20
52.46001139778019
 30
0.0
 10
210.4065711804652
 20
52.50595846334338
 30
0.0
 10
210.5458048149262
 20
52.59920998161297
 30
0.0
 10
210.6100641906365
 20
52.64682014271602
 30
0.0
 10
210.7281659549371
 20
52.74403916412255
 30
0.0
 10
210.7820078081719
 20
52.79364794589662
 30
0.0
 10
210.8792337438691
 20
52.89502031625267
 30
0.0
 10
210.9223329982235
 20
52.9465726869902
 30
0.0
 10
211.0333697810461
 20
53.10099460099187
 30
0.0
 10
211.084394274146
 20
53.20477476655154
 30
0.0
 10
211.1427502709896
 20
53.41600155795133
 30
0.0
 10
211.1492144058969
 20
53.52056825186299
 30
0.0
 10
211.1210431266454
 20
53.72898586335433
 30
0.0
 10
211.0857476448507
 20
53.83392390829768
 30
0.0
 10
210.9777000491666
 20
54.03913213130006
 30
0.0
 10
210.9052110795185
 20
54.13991883351091
 30
0.0
 10
210.7696165193215
 20
54.28988823044478
 30
0.0
 10
210.719644195429
 20
54.33989405126463
 30
0.0
 10
210.6121671143008
 20
54.43816106739191
 30
0.0
 10
210.5546467598121
 20
54.48649395837526
 30
0.0
 10
210.371085108597
 20
54.62936472773171
 30
0.0
 10
210.2341336849753
 20
54.72181515391814
 30
0.0
 10
210.0064995334231
 20
54.85660501747132
 30
0.0
 10
209.9267365003148
 20
54.90093230130529
 30
0.0
 10
209.7627490765415
 20
54.98656469856588
 30
0.0
 10
209.6781778247314
 20
55.02808736558708
 30
0.0
 10
209.4168415931458
 20
55.14873597207529
 30
0.0
 10
209.2325249504461
 20
55.22400457313377
 30
0.0
 10
208.9401299191141
 20
55.32795495259136
 30
0.0
 10
208.8401110682641
 20
55.36102433066279
 30
0.0
 10
208.6385640711827
 20
55.42260320206631
 30
0.0
 10
208.5365626557154
 20
55.45128720128996
 30
0.0
 10
208.2268202081863
 20
55.53066088457484
 30
0.0
 10
208.0149846977563
 20
55.57483606081733
 30
0.0
 10
207.7983832564332
 20
55.60808687333383
 30
0.0
  0
SPLINE
  5
247
330
1F
100
AcDbEntity
  8
0
  6
Continuous
 62
     7
370
    25
100
AcDbSpline
210
0.0
220
0.0
230
1.0
 70
    11
 71
     3
 72
    93
 73
    89
 74
     0
 42
0.000000001
 43
0.00000001
 40
0.0
 40
0.0
 40
0.0
 40
0.0
 40
0.0312500000000017
 40
0.0312500000000017
 40
0.0625000000000035
 40
0.0625000000000035
 40
0.0937500000000052
 40
0.0937500000000052
 40
0.109375000000006
 40
0.109375000000006
 40
0.1250000000000068
 40
0.1406250000000076
 40
0.1406250000000076
 40
0.1562500000000084
 40
0.1562500000000084
 40
0.18750000000001
 40
0.18750000000001
 40
0.2031250000000108
 40
0.2031250000000108
 40
0.2187500000000116
 40
0.2187500000000116
 40
0.2500000000000129
 40
0.2500000000000129
 40
0.2812500000000143
 40
0.2812500000000143
 40
0.2968750000000148
 40
0.2968750000000148
 40
0.3125000000000152
 40
0.3125000000000152
 40
0.3437500000000162
 40
0.3437500000000162
 40
0.3750000000000171
 40
0.3750000000000171
 40
0.4062500000000181
 40
0.4062500000000181
 40
0.437500000000019
 40
0.437500000000019
 40
0.4531250000000192
 40
0.4531250000000192
 40
0.4687500000000194
 40
0.4687500000000194
 40
0.5000000000000199
 40
0.5000000000000199
 40
0.5156250000000199
 40
0.5156250000000199
 40
0.5312500000000199
 40
0.5312500000000199
 40
0.5625000000000192
 40
0.5625000000000192
 40
0.5781250000000187
 40
0.5781250000000187
 40
0.5937500000000181
 40
0.5937500000000181
 40
0.625000000000017
 40
0.625000000000017
 40
0.6406250000000164
 40
0.6406250000000164
 40
0.6562500000000159
 40
0.6562500000000159
 40
0.6718750000000153
 40
0.6718750000000153
 40
0.6875000000000147
 40
0.6875000000000147
 40
0.7187500000000132
 40
0.7187500000000132
 40
0.7500000000000117
 40
0.7500000000000117
 40
0.7812500000000102
 40
0.7812500000000102
 40
0.8125000000000088
 40
0.8125000000000088
 40
0.8281250000000079
 40
0.8281250000000079
 40
0.8437500000000071
 40
0.8437500000000071
 40
0.8750000000000057
 40
0.8750000000000057
 40
0.8906250000000052
 40
0.8906250000000052
 40
0.9062500000000047
 40
0.9062500000000047
 40
0.9375000000000037
 40
0.9375000000000037
 40
0.9531250000000029
 40
0.9531250000000029
 40
0.968750000000002
 40
0.968750000000002
 40
1.0
 40
1.0
 40
1.0
 40
1.0
 10
217.3443248024516
 20
50.09733211853053
 30
0.0
 10
217.1277233611285
 20
50.13058293104704
 30
0.0
 10
216.9120527899198
 20
50.15205580384401
 30
0.0
 10
216.4823325073033
 20
50.16814539646411
 30
0.0
 10
216.2663728685086
 20
50.16233453332384
 30
0.0
 10
215.8553505329844
 20
50.11973559424919
 30
0.0
 10
215.6582393251474
 20
50.08330042360468
 30
0.0
 10
215.3761733783923
 20
50.00276090215476
 30
0.0
 10
215.2841752901083
 20
49.97137976584138
 30
0.0
 10
215.1103040309766
 20
49.90136171857323
 30
0.0
 10
214.9451703077997
 20
49.82377078353276
 30
0.0
 10
214.797328260389
 20
49.73110004850107
 30
0.0
 10
214.6583192687264
 20
49.63074590629245
 30
0.0
 10
214.5930792940377
 20
49.5764731312809
 30
0.0
 10
214.4158485580894
 20
49.40660872921673
 30
0.0
 10
214.3202108414729
 20
49.28283584030121
 30
0.0
 10
214.2090504063778
 20
49.08302077738864
 30
0.0
 10
214.1776427604781
 20
49.01429010204167
 30
0.0
 10
214.1266734704384
 20
48.87551314636983
 30
0.0
 10
214.1069033292632
 20
48.80510809857434
 30
0.0
 10
214.0639942281292
 20
48.59132945951705
 30
0.0
 10
214.0574573013506
 20
48.44408063798103
 30
0.0
 10
214.0861761048118
 20
48.15502958525742
 30
0.0
 10
214.120910851128
 20
48.01244854486355
 30
0.0
 10
214.2022982298205
 20
47.8028442866187
 30
0.0
 10
214.2344290219661
 20
47.73364962501222
 30
0.0
 10
214.307185268461
 20
47.59940981777282
 30
0.0
 10
214.347922227678
 20
47.53403264729456
 30
0.0
 10
214.4828085071525
 20
47.34326042833899
 30
0.0
 10
214.5896484120277
 20
47.22308074270851
 30
0.0
 10
214.8370514266606
 20
46.99884292944243
 30
0.0
 10
214.9743466990244
 20
46.89770945381643
 30
0.0
 10
215.2748795978697
 20
46.7168773497981
 30
0.0
 10
215.4389839043759
 20
46.63685024627208
 30
0.0
 10
215.790831275389
 20
46.50052647802836
 30
0.0
 10
215.9751591216273
 20
46.44538009517416
 30
0.0
 10
216.2641054327827
 20
46.38103135649703
 30
0.0
 10
216.3625103266551
 20
46.36265885774043
 30
0.0
 10
216.5636487649734
 20
46.33206341895664
 30
0.0
 10
216.6669269234008
 20
46.31980066961061
 30
0.0
 10
216.9792302710203
 20
46.29277780081775
 30
0.0
 10
217.1898782575773
 20
46.28759933344737
 30
0.0
 10
217.509802021996
 20
46.29784051198254
 30
0.0
 10
217.6171065747154
 20
46.30427606798288
 30
0.0
 10
217.8331565911946
 20
46.32324533014141
 30
0.0
 10
217.9425619032624
 20
46.33589094196724
 30
0.0
 10
218.2661522888463
 20
46.38225018885639
 30
0.0
 10
218.4768193997893
 20
46.42422291130362
 30
0.0
 10
218.7850453722689
 20
46.5030310112412
 30
0.0
 10
218.886481571206
 20
46.53196513049318
 30
0.0
 10
219.0865682817288
 20
46.59535304766539
 30
0.0
 10
219.1846287796628
 20
46.62967096228527
 30
0.0
 10
219.4659849653602
 20
46.73787837947457
 30
0.0
 10
219.6392973290497
 20
46.81776490488446
 30
0.0
 10
219.8769367482549
 20
46.9492566429769
 30
0.0
 10
219.9525127264835
 20
46.99520370854008
 30
0.0
 10
220.0917463609446
 20
47.08845522680966
 30
0.0
 10
220.1560057366549
 20
47.13606538791272
 30
0.0
 10
220.2741075009554
 20
47.23328440931925
 30
0.0
 10
220.3279493541902
 20
47.28289319109332
 30
0.0
 10
220.4251752898874
 20
47.38426556144938
 30
0.0
 10
220.4682745442418
 20
47.43581793218689
 30
0.0
 10
220.5793113270645
 20
47.59023984618857
 30
0.0
 10
220.6303358201643
 20
47.69402001174826
 30
0.0
 10
220.688691817008
 20
47.90524680314804
 30
0.0
 10
220.6951559519152
 20
48.00981349705969
 30
0.0
 10
220.6669846726638
 20
48.21823110855104
 30
0.0
 10
220.631689190869
 20
48.32316915349438
 30
0.0
 10
220.523641595185
 20
48.52837737649676
 30
0.0
 10
220.4511526255368
 20
48.6291640787076
 30
0.0
 10
220.3155580653399
 20
48.77913347564149
 30
0.0
 10
220.2655857414473
 20
48.82913929646134
 30
0.0
 10
220.1581086603192
 20
48.92740631258863
 30
0.0
 10
220.1005883058305
 20
48.97573920357197
 30
0.0
 10
219.9170266546153
 20
49.11860997292841
 30
0.0
 10
219.7800752309937
 20
49.21106039911484
 30
0.0
 10
219.5524410794415
 20
49.34585026266802
 30
0.0
 10
219.4726780463332
 20
49.39017754650198
 30
0.0
 10
219.3086906225599
 20
49.47580994376258
 30
0.0
 10
219.2241193707498
 20
49.51733261078379
 30
0.0
 10
218.9627831391642
 20
49.63798121727198
 30
0.0
 10
218.7784664964645
 20
49.71324981833047
 30
0.0
 10
218.4860714651324
 20
49.81720019778807
 30
0.0
 10
218.3860526142824
 20
49.85026957585949
 30
0.0
 10
218.1845056172011
 20
49.911848447263
 30
0.0
 10
218.0825042017338
 20
49.94053244648668
 30
0.0
 10
217.7727617542047
 20
50.01990612977153
 30
0.0
 10
217.5609262437746
 20
50.06408130601402
 30
0.0
 10
217.3443248024516
 20
50.09733211853053
 30
0.0
  0
LINE
  5
248
330
1F
100
AcDbEntity
  8
0
  6
Continuous
 62
     7
370
    25
100
AcDbLine
 10
219.0094102598
 20
27.569811896
 30
0.0
 11
218.9627711794
 21
27.5961154486
 31
0.0
  0
ARC
  5
249
330
1F
100
AcDbEntity
  8
0
  6
Continuous
 62
     7
370
    25
100
AcDbCircle
 10
219.6462339366
 20
36.4424675015
 30
0.0
 40
26.26687164470792
100
AcDbArc
 50
139.372199751
 51
161.5227626817
  0
ARC
  5
24A
330
1F
100
AcDbEntity
  8
0
  6
Continuous
 62
     7
370
    25
100
AcDbCircle
 10
209.5123467993
 20
53.9309445326
 30
0.0
 40
5.653327812577153
100
AcDbArc
 50
25.4566369677
 51
94.5783233326
  0
ARC
  5
24B
330
1F
100
AcDbEntity
  8
0
  6
Continuous
 62
     7
370
    25
100
AcDbCircle
 10
199.4438759845
 20
36.4928909113
 30
0.0
 40
5.676378398993027
100
AcDbArc
 50
205.5413349856
 51
273.6513176343
  0
ELLIPSE
  5
24C
330
1F
100
AcDbEntity
  8
0
  6
Continuous
 62
     7
370
    25
100
AcDbEllipse
 10
196.0403615622
 20
50.0662949407
 30
0.0
 11
-0.7461041289972175
 21
17.93477386060241
 31
0.0
210
0.0
220
0.0
230
1.0
 40
0.4444802122
 41
2.40140484569403
 42
2.866866793327963
  0
SPLINE
  5
24D
330
1F
100
AcDbEntity
  8
0
  6
Continuous
 62
     7
370
    25
100
AcDbSpline
210
0.0
220
0.0
230
1.0
 70
     8
 71
     3
 72
    12
 73
     8
 74
     0
 42
0.000000001
 43
0.00000001
 40
0.0
 40
0.0
 40
0.0
 40
0.0
 40
0.2499999999999982
 40
0.2499999999999982
 40
0.4999999999999963
 40
0.4999999999999963
 40
1.0
 40
1.0
 40
1.0
 40
1.0
 10
191.0025458595125
 20
36.86761397598671
 30
0.0
 10
191.0248480210005
 20
36.8547392122067
 30
0.0
 10
191.0485553839399
 20
36.83392497313915
 30
0.0
 10
191.0916173778091
 20
36.78830792107247
 30
0.0
 10
191.1106206610636
 20
36.76435050132078
 30
0.0
 10
191.1628943315487
 20
36.69245063078434
 30
0.0
 10
191.1907129862909
 20
36.64559259167544
 30
0.0
 10
191.2149473724919
 20
36.60064067603079
 30
0.0
  0
LINE
  5
24E
330
1F
100
AcDbEntity
  8
0
  6
Continuous
 62
     7
370
    25
100
AcDbLine
 10
189.9615127188
 20
37.468589616
 30
0.0
 11
191.0025458595
 21
36.867613976
 31
0.0
  0
SPLINE
  5
24F
330
1F
100
AcDbEntity
  8
0
  6
Continuous
 62
     7
370
    25
100
AcDbSpline
210
0.0
220
0.0
230
1.0
 70
     8
 71
     3
 72
    12
 73
     8
 74
     0
 42
0.000000001
 43
0.00000001
 40
0.0
 40
0.0
 40
0.0
 40
0.0
 40
0.4999999999999971
 40
0.4999999999999971
 40
0.7499999999999986
 40
0.7499999999999986
 40
1.0
 40
1.0
 40
1.0
 40
1.0
 10
189.8677280139611
 20
37.37837385719436
 30
0.0
 10
189.8654017242093
 20
37.41044317686386
 30
0.0
 10
189.867602729296
 20
37.44026316250655
 30
0.0
 10
189.885868089737
 20
37.47127413424954
 30
0.0
 10
189.8946343326843
 20
37.47941599420075
 30
0.0
 10
189.9210983382208
 20
37.48477676547967
 30
0.0
 10
189.9393532248029
 20
37.4813820195844
 30
0.0
 10
189.9615127188296
 20
37.46858961597675
 30
0.0
  0
ELLIPSE
  5
250
330
1F
100
AcDbEntity
  8
0
  6
Continuous
 62
     7
370
    25
100
AcDbEllipse
 10
206.1853315803
 20
44.2097284099
 30
0.0
 11
15.90471575942232
 21
8.322204981098963
 31
0.0
210
0.0
220
0.0
230
1.0
 40
0.4445305117
 41
2.95090828102153
 42
3.578705763440482
  0
SPLINE
  5
251
330
1F
100
AcDbEntity
  8
0
  6
Continuous
 62
     7
370
    25
100
AcDbSpline
210
0.0
220
0.0
230
1.0
 70
     8
 71
     3
 72
    12
 73
     8
 74
     0
 42
0.000000001
 43
0.00000001
 40
0.0
 40
0.0
 40
0.0
 40
0.0
 40
0.2500000000000014
 40
0.2500000000000014
 40
0.5000000000000028
 40
0.5000000000000028
 40
1.0
 40
1.0
 40
1.0
 40
1.0
 10
203.9115127188295
 20
61.63069831064959
 30
0.0
 10
203.8892105573414
 20
61.64357307442962
 30
0.0
 10
203.8772660024788
 20
61.657594581453
 30
0.0
 10
203.8686719363692
 20
61.68330725389697
 30
0.0
 10
203.8713178339792
 20
61.69476280473872
 30
0.0
 10
203.8890824338257
 20
61.72621729861893
 30
0.0
 10
203.9135738995239
 20
61.74286753113689
 30
0.0
 10
203.942728013961
 20
61.75698890217792
 30
0.0
  0
LINE
  5
252
330
1F
100
AcDbEntity
  8
0
  6
Continuous
 62
     7
370
    25
100
AcDbLine
 10
204.9525458595
 20
61.0297226707
 30
0.0
 11
203.9115127188
 21
61.6306983106
 31
0.0
  0
SPLINE
  5
253
330
1F
100
AcDbEntity
  8
0
  6
Continuous
 62
     7
370
    25
100
AcDbSpline
210
0.0
220
0.0
230
1.0
 70
     8
 71
     3
 72
    12
 73
     8
 74
     0
 42
0.000000001
 43
0.00000001
 40
0.0
 40
0.0
 40
0.0
 40
0.0
 40
0.4999999999999963
 40
0.4999999999999963
 40
0.7499999999999981
 40
0.7499999999999981
 40
1.0
 40
1.0
 40
1.0
 40
1.0
 10
205.2899473724917
 20
60.97925572101433
 30
0.0
 10
205.2392909351826
 20
60.97778262169849
 30
0.0
 10
205.1842797691131
 20
60.97845920374819
 30
0.0
 10
205.0962563203851
 20
60.98773181042927
 30
0.0
 10
205.0654812914787
 20
60.99229948247599
 30
0.0
 10
205.0047486854742
 20
61.0067279842166
 30
0.0
 10
204.9747053535391
 20
61.0169302670519
 30
0.0
 10
204.9525458595123
 20
61.02972267065956
 30
0.0
  0
ELLIPSE
  5
254
330
1F
100
AcDbEntity
  8
0
  6
Continuous
 62
     7
370
    25
100
AcDbEllipse
 10
196.0403615622
 20
50.0662949407
 30
0.0
 11
15.90471575942235
 21
8.32220498109897
 31
0.0
210
0.0
220
0.0
230
1.0
 40
0.4445305117
 41
0.2747775750656722
 42
0.7400769945754376
  0
ELLIPSE
  5
255
330
1F
100
AcDbEntity
  8
0
  6
Continuous
 62
     7
370
    25
100
AcDbEllipse
 10
206.1853315803
 20
44.2097284099
 30
0.0
 11
-0.7461041289972173
 21
17.9347738606024
 31
0.0
210
0.0
220
0.0
230
1.0
 40
0.4444802122
 41
5.846123912132792
 42
6.473758866427505
  0
SPLINE
  5
256
330
1F
100
AcDbEntity
  8
0
  6
Continuous
 62
     7
370
    25
100
AcDbSpline
210
0.0
220
0.0
230
1.0
 70
     8
 71
     3
 72
    12
 73
     8
 74
     0
 42
0.000000001
 43
0.00000001
 40
0.0
 40
0.0
 40
0.0
 40
0.0
 40
0.2500000000000001
 40
0.2500000000000001
 40
0.5000000000000001
 40
0.5000000000000001
 40
1.0
 40
1.0
 40
1.0
 40
1.0
 10
189.9615127188296
 20
45.1343290018574
 30
0.0
 10
189.939218718625
 20
45.14719905422876
 30
0.0
 10
189.9211062425361
 20
45.17122827728391
 30
0.0
 10
189.8945413712439
 20
45.22634014317035
 30
0.0
 10
189.8859404383468
 20
45.2562911991667
 30
0.0
 10
189.8675710924245
 20
45.34773323736466
 30
0.0
 10
189.8653688080559
 20
45.40909457045613
 30
0.0
 10
189.8677280139611
 20
45.46977832758256
 30
0.0
  0
LINE
  5
257
330
1F
100
AcDbEntity
  8
0
  6
Continuous
 62
     7
370
    25
100
AcDbLine
 10
191.0025458595
 20
44.5333533619
 30
0.0
 11
189.9615127188
 21
45.1343290019
 31
0.0
  0
SPLINE
  5
258
330
1F
100
AcDbEntity
  8
0
  6
Continuous
 62
     7
370
    25
100
AcDbSpline
210
0.0
220
0.0
230
1.0
 70
     8
 71
     3
 72
    12
 73
     8
 74
     0
 42
0.000000001
 43
0.00000001
 40
0.0
 40
0.0
 40
0.0
 40
0.0
 40
0.5000000000000019
 40
0.5000000000000019
 40
0.7500000000000009
 40
0.7500000000000009
 40
1.0
 40
1.0
 40
1.0
 40
1.0
 10
191.2149473724918
 20
44.69204514641898
 30
0.0
 10
191.1905660758061
 20
44.64409787552582
 30
0.0
 10
191.1628683056453
 20
44.60000339482173
 30
0.0
 10
191.1105757796889
 20
44.54930882708993
 30
0.0
 10
191.0912748480424
 20
44.53519898265846
 30
0.0
 10
191.0489052939221
 20
44.52049588315667
 30
0.0
 10
191.0248070331388
 20
44.5205022598762
 30
0.0
 10
191.0025458595124
 20
44.53335336186731
 30
0.0
  0
ELLIPSE
  5
259
330
1F
100
AcDbEntity
  8
0
  6
Continuous
 62
     7
370
    25
100
AcDbEllipse
 10
196.0403615622
 20
50.0662949407
 30
0.0
 11
7.874888476696726
 21
13.63996451050157
 31
0.0
210
0.0
220
0.0
230
1.0
 40
0.1059897947
 41
1.105338485463665
 42
2.036099852607335
  0
SPLINE
  5
25A
330
1F
100
AcDbEntity
  8
0
  6
Continuous
 62
     7
370
    25
100
AcDbSpline
210
0.0
220
0.0
230
1.0
 70
     8
 71
     3
 72
    12
 73
     8
 74
     0
 42
0.000000001
 43
0.00000001
 40
0.0
 40
0.0
 40
0.0
 40
0.0
 40
0.2500000000000009
 40
0.2500000000000009
 40
0.5000000000000018
 40
0.5000000000000018
 40
1.0
 40
1.0
 40
1.0
 40
1.0
 10
198.3141804236848
 20
57.1974758762229
 30
0.0
 10
198.3364744238894
 20
57.18460582385154
 30
0.0
 10
198.3484187996413
 20
57.16413852687193
 30
0.0
 10
198.3570201060639
 20
57.11940017740448
 30
0.0
 10
198.3543810857955
 20
57.09593991761465
 30
0.0
 10
198.3366381423367
 20
57.02535183738878
 30
0.0
 10
198.3123070450624
 20
56.97931287889954
 30
0.0
 10
198.2829651285533
 20
56.93421097278704
 30
0.0
  0
LINE
  5
25B
330
1F
100
AcDbEntity
  8
0
  6
Continuous
 62
     7
370
    25
100
AcDbLine
 10
197.273147283
 20
57.7984515162
 30
0.0
 11
198.3141804237
 21
57.1974758762
 31
0.0
  0
SPLINE
  5
25C
330
1F
100
AcDbEntity
  8
0
  6
Continuous
 62
     7
370
    25
100
AcDbSpline
210
0.0
220
0.0
230
1.0
 70
     8
 71
     3
 72
    12
 73
     8
 74
     0
 42
0.000000001
 43
0.00000001
 40
0.0
 40
0.0
 40
0.0
 40
0.0
 40
0.5000000000000019
 40
0.5000000000000019
 40
0.7500000000000009
 40
0.7500000000000009
 40
1.0
 40
1.0
 40
1.0
 40
1.0
 10
196.9357457700225
 20
57.71194415395062
 30
0.0
 10
196.9870995993493
 20
57.74431545135278
 30
0.0
 10
197.0413278282513
 20
57.77308924535852
 30
0.0
 10
197.1297526418402
 20
57.80291830662035
 30
0.0
 10
197.160413851232
 20
57.81046787036306
 30
0.0
 10
197.2204697151638
 20
57.81495756141548
 30
0.0
 10
197.2508861093756
 20
57.81130261820408
 30
0.0
 10
197.273147283002
 20
57.79845151621298
 30
0.0
  0
ELLIPSE
  5
25D
330
1F
100
AcDbEntity
  8
0
  6
Continuous
 62
     7
370
    25
100
AcDbEllipse
 10
206.1853315803
 20
44.2097284099
 30
0.0
 11
14.30238360604707
 21
-8.263902107297815
 31
0.0
210
0.0
220
0.0
230
1.0
 40
0.9534948969
 41
2.676532761479947
 42
3.607294128623639
  0
ARC
  5
25E
330
1F
100
AcDbEntity
  8
0
  6
Continuous
 62
     7
370
    25
100
AcDbCircle
 10
202.0665404695
 20
58.0103783244
 30
0.0
 40
5.857806781674334
100
AcDbArc
 50
60.8334469844
 51
94.2103813593
  0
ARC
  5
25F
330
1F
100
AcDbEntity
  8
0
  6
Continuous
 62
     7
370
    25
100
AcDbCircle
 10
192.2106685007
 20
40.9083978562
 30
0.0
 40
5.904962114893198
100
AcDbArc
 50
205.873099565
 51
239.0366056015
  0
ARC
  5
260
330
1F
100
AcDbEntity
  8
0
  6
Continuous
 62
     7
370
    25
100
AcDbCircle
 10
199.6434300125
 20
49.5177991149
 30
0.0
 40
23.18312597171943
100
AcDbArc
 50
140.2279276209
 51
177.3607126388
  0
LINE
  5
261
330
1F
100
AcDbEntity
  8
0
  6
Continuous
 62
     7
370
    25
100
AcDbLine
 10
189.9615127188
 20
37.468589616
 30
0.0
 11
191.004060425
 21
36.866543985
 31
0.0
  0
LWPOLYLINE
  5
262
330
1F
100
AcDbEntity
  8
0
  6
Continuous
 62
     7
370
    25
100
AcDbPolyline
 90
        9
 70
   128
 43
0.0
 10
186.1060291563
 20
66.8202535797
 10
185.6037917616
 20
66.8163252918
 10
185.0735228625
 20
66.7180672798
 10
184.5242955071
 20
66.5271607655
 10
183.9655071275
 20
66.2468722124
 10
183.4067187479
 20
65.8819974352
 10
182.8574913924
 20
65.4387795425
 10
182.3272224934
 20
64.9248021155
 10
181.8249850986
 20
64.3488594503
  0
ARC
  5
263
330
1F
100
AcDbEntity
  8
0
  6
Continuous
 62
     7
370
    25
100
AcDbCircle
 10
179.5558270636
 20
50.2980076308
 30
0.0
 40
3.084343446773501
100
AcDbArc
 50
174.6547638622
 51
232.6759834224
  0
ARC
  5
264
330
1F
100
AcDbEntity
  8
0
  6
Continuous
 62
     7
370
    25
100
AcDbCircle
 10
185.6708067489
 20
61.4805762279
 30
0.0
 40
5.357384881182207
100
AcDbArc
 50
62.0480659028
 51
85.3402793033
  0
ARC
  5
265
330
1F
100
AcDbEntity
  8
0
  6
Continuous
 62
     7
370
    25
100
AcDbCircle
 10
198.7553623954
 20
50.0313145005
 30
0.0
 40
22.51849720425183
100
AcDbArc
 50
140.2279276209
 51
177.3607126388
  0
ARC
  5
266
330
1F
100
AcDbEntity
  8
0
  6
Continuous
 62
     7
370
    25
100
AcDbCircle
 10
186.2271074662
 20
60.9790153244
 30
0.0
 40
5.899257340448183
100
AcDbArc
 50
103.4689958683
 51
144.1118487458
  0
ARC
  5
267
330
1F
100
AcDbEntity
  8
0
  6
Continuous
 62
     7
370
    25
100
AcDbCircle
 10
180.171789798
 20
50.9901457511
 30
0.0
 40
3.911817367876728
100
AcDbArc
 50
178.8560094402
 51
201.1091694604
  0
LWPOLYLINE
  5
268
330
1F
100
AcDbEntity
  8
0
  6
Continuous
 62
     7
370
    25
100
AcDbPolyline
 90
       30
 70
   128
 43
0.0
 10
215.6429233332
 20
49.4043318407
 10
215.2961798689
 20
49.1649056169
 10
215.0467006289
 20
48.8880462528
 10
214.9061509849
 20
48.5866993846
 10
214.8811028823
 20
48.2749556569
 10
214.9727275423
 20
47.96739186
 10
215.1767406978
 20
47.6783893351
 10
215.4836029203
 20
47.4214615191
 10
215.8789656734
 20
47.2086220712
 10
216.3443422341
 20
47.0498231273
 10
216.8579721117
 20
46.9524899496
 10
217.395838544
 20
46.9211737293
 10
217.9327914944
 20
46.9573387781
 10
218.4437236397
 20
47.0592940584
 10
218.9047443607
 20
47.2222722548
 10
219.2942968408
 20
47.4386526878
 10
219.5941660391
 20
47.6983176488
 10
219.790330405
 20
47.989125493
 10
219.8736175109
 20
48.2974783687
 10
219.8401329442
 20
48.6089580382
 10
219.6914424062
 20
48.9090000583
 10
219.434498501
 20
49.1835747977
 10
219.0813156401
 20
49.4198434466
 10
218.6484082616
 20
49.6067583456
 10
218.1560186333
 20
49.7355795619
 10
217.627170347
 20
49.8002835585
 10
217.0865917609
 20
49.7978448484
 10
216.5595597287
 20
49.7283774631
 10
216.0707176825
 20
49.5951296202
 10
215.6429233332
 20
49.4043318407
  0
ARC
  5
269
330
1F
100
AcDbEntity
  8
0
  6
Continuous
 62
     7
370
    25
100
AcDbCircle
 10
215.8214166047
 20
47.8466675298
 30
0.0
 40
1.449249955303388
100
AcDbArc
 50
113.0219929536
 51
175.6703402953
  0
LWPOLYLINE
  5
26A
330
1F
100
AcDbEntity
  8
0
  6
Continuous
 62
     7
370
    25
100
AcDbPolyline
 90
       10
 70
   128
 43
0.0
 10
219.5051327223
 20
46.7358171111
 10
219.838135797
 20
46.9663411878
 10
220.1253071376
 20
47.2626183653
 10
220.306835773
 20
47.5855448283
 10
220.3757456597
 20
47.9227106939
 10
220.3293886294
 20
48.2611588671
 10
220.1695461567
 20
48.5878829744
 10
219.9023608982
 20
48.8903271915
 10
219.5381006336
 20
49.1568687567
 10
219.4979675723
 20
49.1804916879
  0
LWPOLYLINE
  5
26B
330
1F
100
AcDbEntity
  8
0
  6
Continuous
 62
     7
370
    25
100
AcDbPolyline
 90
       27
 70
   128
 43
0.0
 10
215.9895991742
 20
49.1963352614
 10
215.6849928223
 20
48.9805806451
 10
215.4786792435
 20
48.7290128823
 10
215.3826486329
 20
48.4562521769
 10
215.4024819408
 20
48.1781503897
 10
215.5370265272
 20
47.9108697856
 10
215.7784631499
 20
47.6699437418
 10
216.11276039
 20
47.4693740044
 10
216.5204901069
 20
47.3208169573
 10
216.9779565316
 20
47.2329061962
 10
217.4585733784
 20
47.2107507749
 10
217.9344089429
 20
47.2556382861
 10
218.3778093919
 20
47.3649600307
 10
218.7630059029
 20
47.5323626263
 10
219.0676122548
 20
47.7481172426
 10
219.2739258336
 20
47.9996850054
 10
219.3699564442
 20
48.2724457108
 10
219.3501231363
 20
48.550547498
 10
219.2155785499
 20
48.8178281021
 10
218.9741419272
 20
49.0587541459
 10
218.6398446871
 20
49.2593238833
 10
218.2321149702
 20
49.4078809304
 10
217.7746485455
 20
49.4957916915
 10
217.2940316987
 20
49.5179471128
 10
216.8181961342
 20
49.4730596016
 10
216.3747956852
 20
49.363737857
 10
215.9895991742
 20
49.1963352614
  0
SPLINE
  5
26C
330
1F
100
AcDbEntity
  8
0
  6
Continuous
 62
     7
370
    25
100
AcDbSpline
210
0.0
220
0.0
230
1.0
 70
     8
 71
     3
 72
    11
 73
     7
 74
     0
 42
0.000000001
 43
0.00000001
 40
0.0
 40
0.0
 40
0.0
 40
0.0
 40
0.2835311412784003
 40
0.5767561131431754
 40
0.9849014999094051
 40
1.0
 40
1.0
 40
1.0
 40
1.0
 10
219.0576617565651
 20
48.385691958829
 30
0.0
 10
219.0247180557417
 20
48.27518484684127
 30
0.0
 10
218.9577043204822
 20
48.05039242334471
 30
0.0
 10
218.8340579192795
 20
47.73278030870858
 30
0.0
 10
218.7390106580782
 20
47.55776613002206
 30
0.0
 10
218.6890046062645
 20
47.51720840166149
 30
0.0
 10
218.6872207260921
 20
47.51576157423092
 30
0.0
  0
SPLINE
  5
26D
330
1F
100
AcDbEntity
  8
0
  6
Continuous
 62
     7
370
    25
100
AcDbSpline
210
0.0
220
0.0
230
1.0
 70
     8
 71
     3
 72
    12
 73
     8
 74
     0
 42
0.000000001
 43
0.00000001
 40
0.0
 40
0.0
 40
0.0
 40
0.0
 40
0.1861377802533143
 40
0.5280437118986435
 40
0.706770498746017
 40
0.8920530907708575
 40
0.9999999999999999
 40
0.9999999999999999
 40
0.9999999999999999
 40
0.9999999999999999
 10
217.8567414155576
 20
49.10621324539608
 30
0.0
 10
217.9271726049588
 20
49.02545380069588
 30
0.0
 10
218.1269748516293
 20
48.79635191234023
 30
0.0
 10
218.4260271868801
 20
48.55432255867002
 30
0.0
 10
218.7191370877286
 20
48.42926222227169
 30
0.0
 10
218.9066263415897
 20
48.39134105928874
 30
0.0
 10
219.0170217642707
 20
48.38721199569712
 30
0.0
 10
219.0576617565651
 20
48.385691958829
 30
0.0
  0
SPLINE
  5
26E
330
1F
100
AcDbEntity
  8
0
  6
Continuous
 62
     7
370
    25
100
AcDbSpline
210
0.0
220
0.0
230
1.0
 70
     8
 71
     3
 72
    11
 73
     7
 74
     0
 42
0.000000001
 43
0.00000001
 40
0.0
 40
0.0
 40
0.0
 40
0.0
 40
0.2164553779443414
 40
0.4403112895790408
 40
0.7519005688038638
 40
0.9999999999999999
 40
0.9999999999999999
 40
0.9999999999999999
 40
0.9999999999999999
 10
216.1753821975402
 20
48.86607877928586
 30
0.0
 10
216.2905569330605
 20
48.83816630760005
 30
0.0
 10
216.5248441880386
 20
48.78138704658081
 30
0.0
 10
216.9596187590342
 20
48.76826663397559
 30
0.0
 10
217.4259924758536
 20
48.88022389340647
 30
0.0
 10
217.7244436490728
 20
49.03680416794569
 30
0.0
 10
217.8567414155576
 20
49.10621324539608
 30
0.0
  0
SPLINE
  5
26F
330
1F
100
AcDbEntity
  8
0
  6
Continuous
 62
     7
370
    25
100
AcDbSpline
210
0.0
220
0.0
230
1.0
 70
     8
 71
     3
 72
    11
 73
     7
 74
     0
 42
0.000000001
 43
0.00000001
 40
0.0
 40
0.0
 40
0.0
 40
0.0
 40
0.2164553779443394
 40
0.4403112895790619
 40
0.7519005688038771
 40
1.0
 40
1.0
 40
1.0
 40
1.0
 10
215.6949433205304
 20
47.90542302660859
 30
0.0
 10
215.7278538491077
 20
47.926866961173
 30
0.0
 10
215.7948001057275
 20
47.97048799092695
 30
0.0
 10
215.9190344777779
 20
48.14368370274268
 30
0.0
 10
216.052298126839
 20
48.4554984268146
 30
0.0
 10
216.1375788598122
 20
48.73997547736749
 30
0.0
 10
216.1753821975403
 20
48.86607877928586
 30
0.0
  0
SPLINE
  5
270
330
1F
100
AcDbEntity
  8
0
  6
Continuous
 62
     7
370
    25
100
AcDbSpline
210
0.0
220
0.0
230
1.0
 70
     8
 71
     3
 72
     9
 73
     5
 74
     0
 42
0.000000001
 43
0.00000001
 40
0.0
 40
0.0
 40
0.0
 40
0.0
 40
0.5365728886916661
 40
1.0
 40
1.0
 40
1.0
 40
1.0
 10
216.1753821975402
 20
47.45837079548915
 30
0.0
 10
216.0850210453652
 20
47.52301219791672
 30
0.0
 10
215.9166168004257
 20
47.64348306737342
 30
0.0
 10
215.7651412139873
 20
47.82247384676454
 30
0.0
 10
215.6949433205304
 20
47.90542302660859
 30
0.0
  0
LINE
  5
271
330
1F
100
AcDbEntity
  8
0
  6
Continuous
 62
     7
370
    25
100
AcDbLine
 10
216.1753821975
 20
47.4410873195
 30
0.0
 11
216.1753821975
 21
48.8660787793
 31
0.0
  0
LINE
  5
272
330
1F
100
AcDbEntity
  8
0
  6
Continuous
 62
     7
370
    25
100
AcDbLine
 10
217.8567414156
 20
47.243581092
 30
0.0
 11
217.8567414156
 21
49.1062132454
 31
0.0
  0
LWPOLYLINE
  5
273
330
1F
100
AcDbEntity
  8
0
  6
Continuous
 62
     7
370
    25
100
AcDbPolyline
 90
       30
 70
   128
 43
0.0
 10
208.4356730513
 20
55.2860876116
 10
208.9469434839
 20
55.1779804903
 10
209.4060037602
 20
55.0089522982
 10
209.7913887318
 20
54.7869066058
 10
210.0850782259
 20
54.5222260228
 10
210.2733396481
 20
54.2272867192
 10
210.3473701035
 20
53.915879729
 10
210.3037080104
 20
53.6025660969
 10
210.1443949596
 20
53.3019960202
 10
209.8768802524
 20
53.0282238215
 10
209.5136725792
 20
52.7940507847
 10
209.071755127
 20
52.6104265806
 10
208.5717914648
 20
52.485937273
 10
208.0371593377
 20
52.4264038435
 10
207.4928575499
 20
52.4346100091
 10
206.964337048
 20
52.5101720586
 10
206.4763108631
 20
52.6495567946
 10
206.0515985574
 20
52.8462467418
 10
205.7100592063
 20
53.0910448967
 10
205.4676628101
 20
53.3725047698
 10
205.3357435549
 20
53.6774656103
 10
205.3204698386
 20
53.991667788
 10
205.4225558431
 20
54.3004195586
 10
205.6372281403
 20
54.5892840322
 10
205.9544488922
 20
54.8447542271
 10
206.3593852089
 20
55.0548846411
 10
206.8331027185
 20
55.2098498094
 10
207.3534509165
 20
55.302403733
 10
207.8960988997
 20
55.3282186934
 10
208.4356730513
 20
55.2860876116
  0
LWPOLYLINE
  5
274
330
1F
100
AcDbEntity
  8
0
  6
Continuous
 62
     7
370
    25
100
AcDbPolyline
 90
       33
 70
   128
 43
0.0
 10
208.551542953
 20
55.3289513525
 10
209.1057937726
 20
55.2154280774
 10
209.6110304257
 20
55.0416645939
 10
210.0478369512
 20
54.8143385354
 10
210.3994271191
 20
54.5421859147
 10
210.6522895165
 20
54.2356654045
 10
210.7967067833
 20
53.906556416
 10
210.8271290449
 20
53.5675064231
 10
210.7423871909
 20
53.231544927
 10
210.5457378031
 20
52.9115827394
 10
210.2447380073
 20
52.6199158278
 10
209.8509550569
 20
52.3677527881
 10
209.3795218097
 20
52.1647841045
 10
208.848555181
 20
52.0188097496
 10
208.2784599208
 20
51.9354394361
 10
207.69114447
 20
51.9178770383
 10
207.1091790321
 20
51.9667974693
 10
206.5549282125
 20
52.0803207445
 10
206.0496915593
 20
52.2540842279
 10
205.6128850339
 20
52.4814102865
 10
205.261294866
 20
52.7535629071
 10
205.0084324685
 20
53.0600834174
 10
204.8640152017
 20
53.3891924058
 10
204.8335929401
 20
53.7282423987
 10
204.9183347942
 20
54.0642038949
 10
205.1149841819
 20
54.3841660824
 10
205.4159839777
 20
54.675832994
 10
205.8097669282
 20
54.9279960337
 10
206.2812001754
 20
55.1309647173
 10
206.812166804
 20
55.2769390722
 10
207.3822620643
 20
55.3603093857
 10
207.9695775151
 20
55.3778717835
 10
208.551542953
 20
55.3289513525
  0
LWPOLYLINE
  5
275
330
1F
100
AcDbEntity
  8
0
  6
Continuous
 62
     7
370
    25
100
AcDbPolyline
 90
       27
 70
   128
 43
0.0
 10
208.3111489662
 20
54.9958216597
 10
208.7617737975
 20
54.8968328546
 10
209.1582683022
 20
54.7384648647
 10
209.4775896607
 20
54.5299214621
 10
209.7011800765
 20
54.2833224312
 10
209.8160452873
 20
54.0129992114
 10
209.8155097446
 20
53.7346620057
 10
209.6996045721
 20
53.4644867606
 10
209.4750657572
 20
53.2181750795
 10
209.1549426796
 20
53.0100417018
 10
208.757839729
 20
52.8521825831
 10
208.3068350855
 20
52.7537719214
 10
207.8281394997
 20
52.7205289867
 10
207.3495730189
 20
52.7543857376
 10
206.8989481875
 20
52.8533745427
 10
206.5024536829
 20
53.0117425326
 10
206.1831323243
 20
53.2202859352
 10
205.9595419085
 20
53.4668849661
 10
205.8446766977
 20
53.7372081859
 10
205.8452122405
 20
54.0155453916
 10
205.961117413
 20
54.2857206367
 10
206.1856562279
 20
54.5320323178
 10
206.5057793055
 20
54.7401656955
 10
206.902882256
 20
54.8980248142
 10
207.3538868995
 20
54.9964354759
 10
207.8325824854
 20
55.0296784106
 10
208.3111489662
 20
54.9958216597
  0
SPLINE
  5
276
330
1F
100
AcDbEntity
  8
0
  6
Continuous
 62
     7
370
    25
100
AcDbSpline
210
0.0
220
0.0
230
1.0
 70
     8
 71
     3
 72
    11
 73
     7
 74
     0
 42
0.000000001
 43
0.00000001
 40
0.0
 40
0.0
 40
0.0
 40
0.0
 40
0.186419156916391
 40
0.5288419333956338
 40
0.8918899119628728
 40
0.9999999999999999
 40
0.9999999999999999
 40
0.9999999999999999
 40
0.9999999999999999
 10
209.0781867922013
 20
52.96286239316962
 30
0.0
 10
209.1026113620346
 20
52.98129073556232
 30
0.0
 10
209.1719000389424
 20
53.03356905492305
 30
0.0
 10
209.3023597732887
 20
53.25888903062084
 30
0.0
 10
209.4191431217143
 20
53.6352604928476
 30
0.0
 10
209.4804859139221
 20
53.87778409929589
 30
0.0
 10
209.4945613912112
 20
53.93343261791974
 30
0.0
  0
SPLINE
  5
277
330
1F
100
AcDbEntity
  8
0
  6
Continuous
 62
     7
370
    25
100
AcDbSpline
210
0.0
220
0.0
230
1.0
 70
     8
 71
     3
 72
    11
 73
     7
 74
     0
 42
0.000000001
 43
0.00000001
 40
0.0
 40
0.0
 40
0.0
 40
0.0
 40
0.2164553779443503
 40
0.4403112895790638
 40
0.7519005688038934
 40
1.0
 40
1.0
 40
1.0
 40
1.0
 10
209.4945613912112
 20
53.93343261791974
 30
0.0
 10
209.4090841149025
 20
53.9365726895504
 30
0.0
 10
209.2352071240946
 20
53.9429601907629
 30
0.0
 10
208.9125378688182
 20
54.04706041806421
 30
0.0
 10
208.566417212447
 20
54.28475784071572
 30
0.0
 10
208.344920776769
 20
54.52180426907228
 30
0.0
 10
208.2467355915392
 20
54.62688247227224
 30
0.0
  0
SPLINE
  5
278
330
1F
100
AcDbEntity
  8
0
  6
Continuous
 62
     7
370
    25
100
AcDbSpline
210
0.0
220
0.0
230
1.0
 70
     8
 71
     3
 72
    11
 73
     7
 74
     0
 42
0.000000001
 43
0.00000001
 40
0.0
 40
0.0
 40
0.0
 40
0.0
 40
0.2164553779443459
 40
0.4403112895790621
 40
0.7519005688038898
 40
1.0
 40
1.0
 40
1.0
 40
1.0
 10
206.5825351928575
 20
54.34976210187463
 30
0.0
 10
206.6965345326279
 20
54.3243832004685
 30
0.0
 10
206.9284308097366
 20
54.2727577018907
 30
0.0
 10
207.3587683643972
 20
54.26920129589222
 30
0.0
 10
207.8203825852897
 20
54.39141766799079
 30
0.0
 10
208.1157879669214
 20
54.55456315858191
 30
0.0
 10
208.2467355915392
 20
54.62688247227224
 30
0.0
  0
SPLINE
  5
279
330
1F
100
AcDbEntity
  8
0
  6
Continuous
 62
     7
370
    25
100
AcDbSpline
210
0.0
220
0.0
230
1.0
 70
     8
 71
     3
 72
    11
 73
     7
 74
     0
 42
0.000000001
 43
0.00000001
 40
0.0
 40
0.0
 40
0.0
 40
0.0
 40
0.1864191569163722
 40
0.5288419333956444
 40
0.8918899119628731
 40
1.0
 40
1.0
 40
1.0
 40
1.0
 10
206.1661605938476
 20
53.37919187712451
 30
0.0
 10
206.1905851636809
 20
53.39762021951719
 30
0.0
 10
206.2598738405887
 20
53.44989853887792
 30
0.0
 10
206.390333574935
 20
53.67521851457573
 30
0.0
 10
206.5071169233606
 20
54.0515899768025
 30
0.0
 10
206.5684597155685
 20
54.29411358325078
 30
0.0
 10
206.5825351928575
 20
54.34976210187463
 30
0.0
  0
SPLINE
  5
27A
330
1F
100
AcDbEntity
  8
0
  6
Continuous
 62
     7
370
    25
100
AcDbSpline
210
0.0
220
0.0
230
1.0
 70
     8
 71
     3
 72
     9
 73
     5
 74
     0
 42
0.000000001
 43
0.00000001
 40
0.0
 40
0.0
 40
0.0
 40
0.0
 40
0.6384800675598054
 40
1.0
 40
1.0
 40
1.0
 40
1.0
 10
206.1661605938476
 20
53.37919187712451
 30
0.0
 10
206.2511536452442
 20
53.28496455768227
 30
0.0
 10
206.3842714287348
 20
53.13738388252923
 30
0.0
 10
206.5298908643367
 20
53.02961368965904
 30
0.0
 10
206.5825351928575
 20
52.99065261681354
 30
0.0
  0
LINE
  5
27B
330
1F
100
AcDbEntity
  8
0
  6
Continuous
 62
     7
370
    25
100
AcDbLine
 10
206.5825351929
 20
52.9906526168
 30
0.0
 11
206.5825351929
 21
54.3497621019
 31
0.0
  0
LINE
  5
27C
330
1F
100
AcDbEntity
  8
0
  6
Continuous
 62
     7
370
    25
100
AcDbLine
 10
208.2467355915
 20
52.7458262023
 30
0.0
 11
208.2467355915
 21
54.6268824723
 31
0.0
  0
LWPOLYLINE
  5
27D
330
1F
100
AcDbEntity
  8
0
  6
Continuous
 62
     7
370
    18
100
AcDbPolyline
 90
       10
 70
   128
 43
0.0
 10
195.8095457124
 20
39.5862366409
 10
195.8499372312
 20
38.6155468958
 10
195.9707568255
 20
37.7000226621
 10
196.1709427284
 20
36.8477095996
 10
196.448735699
 20
36.0660978662
 10
196.8016944826
 20
35.3620562938
 10
197.2267172648
 20
34.7417720253
 10
197.72006893
 20
34.2106961409
 10
198.2774138862
 20
33.7734957547
 10
198.5024621056
 20
33.6342541568
  0
LWPOLYLINE
  5
27E
330
1F
100
AcDbEntity
  8
0
  6
Continuous
 62
     7
370
    18
100
AcDbPolyline
 90
       27
 70
   128
 43
0.0
 10
211.5014056299
 20
56.1515245787
 10
211.4252936791
 20
56.1944459957
 10
210.7813065758
 20
56.4838963796
 10
210.0865301374
 20
56.6714845772
 10
209.3470700841
 20
56.7555620565
 10
208.5694248175
 20
56.7353899417
 10
207.7604283122
 20
56.6111455061
 10
206.9271900585
 20
56.3839206141
 10
206.0770325842
 20
56.0557121265
 10
205.2174271037
 20
55.629404351
 10
204.3559278609
 20
55.1087436958
 10
203.5001057421
 20
54.4983057454
 10
202.6574817429
 20
53.8034550506
 10
201.8354608733
 20
53.0302979841
 10
201.0412670822
 20
52.1856290782
 10
200.2818797732
 20
51.2768713134
 10
199.5639724693
 20
50.3120108858
 10
198.8938541657
 20
49.2995270234
 10
198.2774138862
 20
48.2483174708
 10
197.72006893
 20
47.1676202954
 10
197.2267172648
 20
46.0669327029
 10
196.8016944826
 20
44.9559275753
 10
196.448735699
 20
43.8443684656
 10
196.1709427284
 20
42.7420237954
 10
195.9707568255
 20
41.6585810091
 10
195.8499372312
 20
40.603561441
 10
195.8095457124
 20
39.5862366409
  0
LWPOLYLINE
  5
27F
330
1F
100
AcDbEntity
  8
0
  6
Continuous
 62
     7
370
    18
100
AcDbPolyline
 90
       56
 70
   128
 43
0.0
 10
217.3055918604
 20
30.7690290333
 10
217.345230199
 20
31.5923880491
 10
217.4636284684
 20
32.4507787726
 10
217.659243166
 20
33.3330107679
 10
217.9295241552
 20
34.2275827918
 10
218.2709479099
 20
35.1228327298
 10
218.6790634493
 20
36.0070896299
 10
219.1485503632
 20
36.8688258512
 10
219.6732881718
 20
37.696807344
 10
220.2464361152
 20
38.4802401035
 10
220.8605223334
 20
39.2089108855
 10
221.5075412735
 20
39.8733203519
 10
222.1790580541
 20
40.4648069094
 10
222.866318427
 20
40.9756596261
 10
223.5603629022
 20
41.3992187555
 10
224.2521435486
 20
41.7299625567
 10
224.9326419475
 20
41.9635792784
 10
225.5929867616
 20
42.0970233693
 10
226.2245693864
 20
42.1285551818
 10
226.8191561765
 20
42.0577636503
 10
227.3689957837
 20
41.8855716507
 10
227.8669202079
 20
41.6142239692
 10
228.3064382429
 20
41.2472580376
 10
228.6818200987
 20
40.7894578182
 10
228.9881720989
 20
40.2467914368
 10
229.2215004767
 20
39.6263333797
 10
229.3787634397
 20
38.9361722666
 10
229.4579108248
 20
38.1853054029
 10
229.4579108248
 20
37.3835214866
 10
229.3787634397
 20
36.5412729972
 10
229.2215004767
 20
35.6695399317
 10
228.9881720989
 20
34.779686664
 10
228.6818200987
 20
33.883313792
 10
228.3064382429
 20
32.9921069071
 10
227.8669202079
 20
32.117684254
 10
227.3689957837
 20
31.2714452691
 10
226.8191561765
 20
30.4644219718
 10
226.2245693864
 20
29.707135145
 10
225.5929867616
 20
29.0094571805
 10
224.9326419475
 20
28.3804833776
 10
224.2521435486
 20
27.8284133717
 10
223.5603629022
 20
27.3604442397
 10
222.866318427
 20
26.9826766747
 10
222.1790580541
 20
26.7000354548
 10
221.5075412735
 20
26.5162052405
 10
220.8605223334
 20
26.4335825398
 10
220.2464361152
 20
26.4532444659
 10
219.6732881718
 20
26.5749346955
 10
219.1485503632
 20
26.7970668105
 10
218.6790634493
 20
27.1167449789
 10
218.2709479099
 20
27.529801707
 10
217.9295241552
 20
28.0308521686
 10
217.659243166
 20
28.6133644047
 10
217.4636284684
 20
29.2697444775
 10
217.345230199
 20
29.991435469
 10
217.3055918604
 20
30.7690290333
  0
LWPOLYLINE
  5
280
330
1F
100
AcDbEntity
  8
0
  6
Continuous
 62
     7
370
    18
100
AcDbPolyline
 90
       29
 70
   128
 43
0.0
 10
226.9714945205
 20
41.4474606334
 10
227.021280086
 20
41.4177200697
 10
227.4588218346
 20
41.0840254721
 10
227.8332443241
 20
40.6582496047
 10
228.1392914837
 20
40.1463694272
 10
228.372667082
 20
39.5555706154
 10
228.5300950373
 20
38.8941466895
 10
228.609365406
 20
38.1713825916
 10
228.609365406
 20
37.3974243452
 10
228.5300950373
 20
36.5831366277
 10
228.372667082
 20
35.7399502536
 10
228.1392914837
 20
34.8797017114
 10
227.8332443241
 20
34.0144670048
 10
227.4588218346
 20
33.1563921326
 10
227.021280086
 20
32.3175225851
 10
226.5267612054
 20
31.5096342518
 10
225.982207154
 20
30.744068114
 10
225.395262277
 20
30.0315710422
 10
224.7741659937
 20
29.3821449335
 10
224.1276371347
 20
28.8049063069
 10
223.4647515477
 20
28.3079583272
 10
222.7948146935
 20
27.898277055
 10
222.1272310169
 20
27.5816135171
 10
221.4713719294
 20
27.3624129756
 10
220.836444255
 20
27.2437525255
 10
220.2313609863
 20
27.2272978995
 10
219.6646161661
 20
27.3132800844
 10
219.1441656494
 20
27.5004920789
 10
219.0094102598
 20
27.569811896
  0
ARC
  5
281
330
1F
100
AcDbEntity
  8
0
  6
Continuous
 62
     7
370
    18
100
AcDbCircle
 10
213.2757503775
 20
38.4459074539
 30
0.0
 40
19.59020318496148
100
AcDbArc
 50
161.1752401503
 51
179.0525796938
  0
LWPOLYLINE
  5
282
330
1F
100
AcDbEntity
  8
0
  6
Continuous
 62
     7
370
    18
100
AcDbPolyline
 90
       24
 70
   128
 43
0.0
 10
199.7108483242
 20
53.5459451153
 10
199.7140776036
 20
53.5496902592
 10
200.5618156475
 20
54.4815862601
 10
201.4389974847
 20
55.34586604
 10
202.3393029999
 20
56.1363024432
 10
203.2562454712
 20
56.8472003573
 10
204.1832183072
 20
57.4734377467
 10
205.1135426472
 20
58.0105025564
 10
206.0405154831
 20
58.4545252223
 10
206.9574579545
 20
58.802306551
 10
207.8577634697
 20
59.0513407698
 10
208.7349453068
 20
59.1998335817
 10
209.5826833508
 20
59.2467150925
 10
210.3948696294
 20
59.1916475197
 10
211.1656523221
 20
59.0350276267
 10
211.8894779217
 20
58.7779838632
 10
212.5611312484
 20
58.4223682354
 10
213.1757730244
 20
57.9707429622
 10
213.7289747417
 20
57.426362014
 10
214.2167505693
 20
56.7931476679
 10
214.635586071
 20
56.0756622478
 10
214.9824635276
 20
55.2790752527
 10
215.2548836791
 20
54.4091261101
 10
215.3686809532
 20
53.9189940553
  0
LWPOLYLINE
  5
283
330
1F
100
AcDbEntity
  8
0
  6
Continuous
 62
     7
370
    18
100
AcDbPolyline
 90
       18
 70
   128
 43
0.0
 10
202.369737429
 20
31.4017236334
 10
202.3393029999
 20
31.3916762405
 10
201.4389974847
 20
31.1426420216
 10
200.5618156475
 20
30.9941492098
 10
199.7140776036
 20
30.947267699
 10
198.9018913249
 20
31.0023352717
 10
198.1311086323
 20
31.1589551648
 10
197.4072830326
 20
31.4159989283
 10
196.735629706
 20
31.7716145561
 10
196.12098793
 20
32.2232398293
 10
195.5677862127
 20
32.7676207775
 10
195.0800103851
 20
33.4008351236
 10
194.6611748834
 20
34.1183205436
 10
194.3142974267
 20
34.9149075388
 10
194.0418772753
 20
35.7848566814
 10
193.8458772225
 20
36.721899968
 10
193.7277094532
 20
37.7192859803
 10
193.6882253688
 20
38.7698285291
  0
LWPOLYLINE
  5
284
330
1F
100
AcDbEntity
  8
0
  6
Continuous
 62
     7
370
    18
100
AcDbPolyline
 90
       25
 70
   128
 43
0.0
 10
193.3346719782
 20
38.7698285291
 10
193.3747929026
 20
39.883637946
 10
193.4948666037
 20
41.0357449738
 10
193.6940279477
 20
42.217848655
 10
193.9708419726
 20
43.4214319056
 10
194.3233142269
 20
44.6378228805
 10
194.74890514
 20
45.8582574551
 10
195.2445483196
 20
47.0739423701
 10
195.8066726452
 20
48.2761185879
 10
196.4312279983
 20
49.4561244014
 10
197.1137144431
 20
50.6054578416
 10
197.8492146492
 20
51.7158379347
 10
198.6324293207
 20
52.7792643667
 10
199.4577153781
 20
53.7880751258
 10
200.3191266163
 20
54.7350017074
 10
201.2104565476
 20
55.6132214837
 10
202.1252831195
 20
56.4164068612
 10
203.0570149855
 20
57.1387708707
 10
203.9989389962
 20
57.7751088631
 10
204.9442685676
 20
58.3208360085
 10
205.8861925783
 20
58.7720203303
 10
206.8179244443
 20
59.1254110352
 10
207.7327510162
 20
59.378461935
 10
208.6240809475
 20
59.5293497922
 10
209.0610879519
 20
59.5662334168
  0
ARC
  5
285
330
1F
100
AcDbEntity
  8
0
  6
Continuous
 62
     7
370
    18
100
AcDbCircle
 10
203.9243845606
 20
38.5180281297
 30
0.0
 40
10.59270579311917
100
AcDbArc
 50
178.6378872874
 51
204.9755673566
  0
LWPOLYLINE
  5
286
330
1F
100
AcDbEntity
  8
0
  6
Continuous
 62
     7
370
    18
100
AcDbPolyline
 90
       25
 70
   128
 43
0.0
 10
185.9100507757
 20
43.0559711162
 10
185.9501717002
 20
44.169780533
 10
186.0702454013
 20
45.3218875608
 10
186.2694067453
 20
46.5039912421
 10
186.5462207701
 20
47.7075744926
 10
186.8986930244
 20
48.9239654676
 10
187.3242839375
 20
50.1444000421
 10
187.8199271171
 20
51.3600849572
 10
188.3820514428
 20
52.562261175
 10
189.0066067958
 20
53.7422669885
 10
189.6890932406
 20
54.8916004287
 10
190.4245934467
 20
56.0019805218
 10
191.2078081183
 20
57.0654069538
 10
192.0330941756
 20
58.0742177129
 10
192.8945054138
 20
59.0211442945
 10
193.7858353452
 20
59.8993640708
 10
194.700661917
 20
60.7025494482
 10
195.6323937831
 20
61.4249134578
 10
196.5743177938
 20
62.0612514501
 10
197.5196473651
 20
62.6069785955
 10
198.4615713758
 20
63.0581629174
 10
199.3933032418
 20
63.4115536223
 10
200.3081298137
 20
63.6646045221
 10
201.199459745
 20
63.8154923793
 10
201.6364667495
 20
63.8523760039
  0
ARC
  5
287
330
1F
100
AcDbEntity
  8
0
  6
Continuous
 62
     7
370
    18
100
AcDbCircle
 10
196.4997633582
 20
42.8041707168
 30
0.0
 40
10.59270579311813
100
AcDbArc
 50
178.6378872874
 51
204.9755673566
  0
LWPOLYLINE
  5
288
330
1F
100
AcDbEntity
  8
0
  6
Continuous
 62
     7
370
    18
100
AcDbPolyline
 90
       30
 70
   128
 43
0.0
 10
195.1024389312
 20
39.5862366409
 10
195.1419892702
 20
40.6114709207
 10
195.2603125606
 20
41.6738736357
 10
195.4564283385
 20
42.7646413826
 10
195.7287115267
 20
43.8747357163
 10
196.0749059009
 20
44.9949580454
 10
196.4921427856
 20
46.116025855
 10
196.9769648245
 20
47.2286496241
 10
197.5253546295
 20
48.3236098019
 10
198.13276807
 20
49.3918332033
 10
198.7941719269
 20
50.4244681929
 10
199.5040855995
 20
51.412958032
 10
200.2566265196
 20
52.3491117823
 10
201.0455588962
 20
53.2251721792
 10
201.864345387
 20
54.0338799103
 10
202.7062012694
 20
54.7685337685
 10
203.5641506604
 20
55.4230461808
 10
204.4310843211
 20
55.991993651
 10
205.2998185661
 20
56.4706617013
 10
206.16315479
 20
56.8550839375
 10
207.0139391169
 20
57.1420749158
 10
207.8451216799
 20
57.3292565386
 10
208.6498150386
 20
57.41507776
 10
209.4213512502
 20
57.3988274385
 10
210.1533371228
 20
57.2806402291
 10
210.839707191
 20
57.0614954685
 10
211.4747739761
 20
56.743209059
 10
212.0532751148
 20
56.3284184222
 10
212.5704169645
 20
55.8205606438
 10
212.9680276085
 20
55.3048617322
  0
LWPOLYLINE
  5
289
330
1F
100
AcDbEntity
  8
0
  6
Continuous
 62
     7
370
    18
100
AcDbPolyline
 90
       13
 70
   128
 43
0.0
 10
199.9690840842
 20
32.7875913103
 10
199.5040855995
 20
32.8415483191
 10
198.7941719269
 20
33.0103892784
 10
198.13276807
 20
33.2793836294
 10
197.5253546295
 20
33.6463024001
 10
196.9769648245
 20
34.1081051861
 10
196.4921427856
 20
34.6609653441
 10
196.0749059009
 20
35.3003017006
 10
195.7287115267
 20
36.0208165132
 10
195.4564283385
 20
36.8165393694
 10
195.2603125606
 20
37.6808766588
 10
195.1419892702
 20
38.6066662106
 10
195.1024389312
 20
39.5862366409
  0
LINE
  5
28A
330
1F
100
AcDbEntity
  8
0
  6
Continuous
 62
     7
370
    18
100
AcDbLine
 10
198.3141804237
 20
57.1974758762
 30
0.0
 11
196.960704434
 21
54.8531867021
 31
0.0
  0
LINE
  5
28B
330
1F
100
AcDbEntity
  8
0
  6
Continuous
 62
     7
370
    18
100
AcDbLine
 10
192.3561122051
 20
46.877799037
 30
0.0
 11
191.0025458595
 21
44.5333533619
 31
0.0
  0
LINE
  5
28C
330
1F
100
AcDbEntity
  8
0
  6
Continuous
 62
     7
370
    18
100
AcDbLine
 10
197.273147283
 20
57.7984515162
 30
0.0
 11
189.9615127188
 21
45.1343290019
 31
0.0
  0
LINE
  5
28D
330
1F
100
AcDbEntity
  8
0
  6
Continuous
 62
     7
370
    18
100
AcDbLine
 10
196.93574577
 20
57.711944154
 30
0.0
 11
189.867728014
 21
45.4697783276
 31
0.0
  0
LINE
  5
28E
330
1F
100
AcDbEntity
  8
0
  6
Continuous
 62
     7
370
    18
100
AcDbLine
 10
181.8249850986
 20
64.3488594503
 30
0.0
 11
192.2365667907
 21
58.4503733001
 31
0.0
  0
LINE
  5
28F
330
1F
100
AcDbEntity
  8
0
  6
Continuous
 62
     7
370
    18
100
AcDbLine
 10
176.4848960093
 20
50.5853348963
 30
0.0
 11
185.9351508391
 21
44.8486313965
 31
0.0
  0
LINE
  5
290
330
1F
100
AcDbEntity
  8
0
  6
Continuous
 62
     7
370
    18
100
AcDbLine
 10
205.2895144294
 20
60.9792529074
 30
0.0
 11
203.942728014
 21
61.7569889022
 31
0.0
  0
LINE
  5
291
330
1F
100
AcDbEntity
  8
0
  6
Continuous
 62
     7
370
    18
100
AcDbLine
 10
189.867728014
 20
37.3783738572
 30
0.0
 11
191.2151453035
 21
36.6002735482
 31
0.0
  0
LINE
  5
292
330
1F
100
AcDbEntity
  8
0
  6
Continuous
 62
     7
370
    18
100
AcDbLine
 10
186.1060291563
 20
66.8202535797
 30
0.0
 11
195.7736558537
 21
61.6176104243
 31
0.0
  0
LINE
  5
293
330
1F
100
AcDbEntity
  8
0
  6
Continuous
 62
     7
370
    18
100
AcDbLine
 10
181.4477481217
 20
64.4371884584
 30
0.0
 11
181.8249850986
 21
64.3488594503
 31
0.0
  0
LINE
  5
294
330
1F
100
AcDbEntity
  8
0
  6
Continuous
 62
     7
370
    18
100
AcDbLine
 10
176.2607521413
 20
51.0682454794
 30
0.0
 11
176.4848960093
 21
50.5853348963
 31
0.0
  0
OLE2FRAME
  5
295
330
1F
100
AcDbEntity
  8
0
100
AcDbOle2Frame
 70
     2
  3
Paintbrush-Bild
 10
13.8511154363
 20
38.264191557
 30
0.0
 11
51.6290888628
 21
31.9806341108
 31
0.0
 71
     2
 72
     0
 73
     1
 90
    12928
310
80552BED0767C5B32B40DDAF6807D121434000000000000000006FFBDDFB85D0
310
4940DDAF6807D121434000000000000000006FFBDDFB85D04940416F4BD60AFB
310
3F4000000000000000002BED0767C5B32B40416F4BD60AFB3F40000000000000
310
0000000000000100000000010000010000000100000000000100000000320000
310
D0CF11E0A1B11AE1000000000000000000000000000000003E000300FEFF0900
310
0600000000000000000000000100000001000000000000000010000002000000
310
01000000FEFFFFFF0000000000000000FFFFFFFFFFFFFFFFFFFFFFFFFFFFFFFF
310
FFFFFFFFFFFFFFFFFFFFFFFFFFFFFFFFFFFFFFFFFFFFFFFFFFFFFFFFFFFFFFFF
310
FFFFFFFFFFFFFFFFFFFFFFFFFFFFFFFFFFFFFFFFFFFFFFFFFFFFFFFFFFFFFFFF
310
FFFFFFFFFFFFFFFFFFFFFFFFFFFFFFFFFFFFFFFFFFFFFFFFFFFFFFFFFFFFFFFF
310
FFFFFFFFFFFFFFFFFFFFFFFFFFFFFFFFFFFFFFFFFFFFFFFFFFFFFFFFFFFFFFFF
310
FFFFFFFFFFFFFFFFFFFFFFFFFFFFFFFFFFFFFFFFFFFFFFFFFFFFFFFFFFFFFFFF
310
FFFFFFFFFFFFFFFFFFFFFFFFFFFFFFFFFFFFFFFFFFFFFFFFFFFFFFFFFFFFFFFF
310
FFFFFFFFFFFFFFFFFFFFFFFFFFFFFFFFFFFFFFFFFFFFFFFFFFFFFFFFFFFFFFFF
310
FFFFFFFFFFFFFFFFFFFFFFFFFFFFFFFFFFFFFFFFFFFFFFFFFFFFFFFFFFFFFFFF
310
FFFFFFFFFFFFFFFFFFFFFFFFFFFFFFFFFFFFFFFFFFFFFFFFFFFFFFFFFFFFFFFF
310
FFFFFFFFFFFFFFFFFFFFFFFFFFFFFFFFFFFFFFFFFFFFFFFFFFFFFFFFFFFFFFFF
310
FFFFFFFFFFFFFFFFFFFFFFFFFFFFFFFFFFFFFFFFFFFFFFFFFFFFFFFFFFFFFFFF
310
FFFFFFFFFFFFFFFFFFFFFFFFFFFFFFFFFFFFFFFFFFFFFFFFFFFFFFFFFFFFFFFF
310
FFFFFFFFFFFFFFFFFFFFFFFFFFFFFFFFFFFFFFFFFFFFFFFFFFFFFFFFFFFFFFFF
310
FDFFFFFFFEFFFFFFFEFFFFFFFEFFFFFF05000000060000000700000008000000
310
090000000A0000000B0000000C0000000D0000000E0000000F00000010000000
310
11000000120000001300000014000000150000001600000017000000FEFFFFFF
310
FFFFFFFFFFFFFFFFFFFFFFFFFFFFFFFFFFFFFFFFFFFFFFFFFFFFFFFFFFFFFFFF
310
FFFFFFFFFFFFFFFFFFFFFFFFFFFFFFFFFFFFFFFFFFFFFFFFFFFFFFFFFFFFFFFF
310
FFFFFFFFFFFFFFFFFFFFFFFFFFFFFFFFFFFFFFFFFFFFFFFFFFFFFFFFFFFFFFFF
310
FFFFFFFFFFFFFFFFFFFFFFFFFFFFFFFFFFFFFFFFFFFFFFFFFFFFFFFFFFFFFFFF
310
FFFFFFFFFFFFFFFFFFFFFFFFFFFFFFFFFFFFFFFFFFFFFFFFFFFFFFFFFFFFFFFF
310
FFFFFFFFFFFFFFFFFFFFFFFFFFFFFFFFFFFFFFFFFFFFFFFFFFFFFFFFFFFFFFFF
310
FFFFFFFFFFFFFFFFFFFFFFFFFFFFFFFFFFFFFFFFFFFFFFFFFFFFFFFFFFFFFFFF
310
FFFFFFFFFFFFFFFFFFFFFFFFFFFFFFFFFFFFFFFFFFFFFFFFFFFFFFFFFFFFFFFF
310
FFFFFFFFFFFFFFFFFFFFFFFFFFFFFFFFFFFFFFFFFFFFFFFFFFFFFFFFFFFFFFFF
310
FFFFFFFFFFFFFFFFFFFFFFFFFFFFFFFFFFFFFFFFFFFFFFFFFFFFFFFFFFFFFFFF
310
FFFFFFFFFFFFFFFFFFFFFFFFFFFFFFFFFFFFFFFFFFFFFFFFFFFFFFFFFFFFFFFF
310
FFFFFFFFFFFFFFFFFFFFFFFFFFFFFFFFFFFFFFFFFFFFFFFFFFFFFFFFFFFFFFFF
310
FFFFFFFFFFFFFFFFFFFFFFFFFFFFFFFFFFFFFFFFFFFFFFFFFFFFFFFFFFFFFFFF
310
52006F006F007400200045006E00740072007900000000000000000000000000
310
0000000000000000000000000000000000000000000000000000000000000000
310
16000500FFFFFFFFFFFFFFFF020000000A00030000000000C000000000000046
310
00000000000000000000000040E77D1D988ED30103000000C000000000000000
310
01004F006C006500000000000000000000000000000000000000000000000000
310
0000000000000000000000000000000000000000000000000000000000000000
310
0A000200FFFFFFFFFFFFFFFFFFFFFFFF00000000000000000000000000000000
310
0000000000000000000000000000000000000000000000001400000000000000
310
010043006F006D0070004F0062006A0000000000000000000000000000000000
310
0000000000000000000000000000000000000000000000000000000000000000
310
120002010100000003000000FFFFFFFF00000000000000000000000000000000
310
0000000000000000000000000000000000000000010000004D00000000000000
310
01004F006C006500310030004E00610074006900760065000000000000000000
310
0000000000000000000000000000000000000000000000000000000000000000
310
1A000200FFFFFFFFFFFFFFFFFFFFFFFF00000000000000000000000000000000
310
0000000000000000000000000000000000000000040000002426000000000000
310
FEFFFFFF02000000FEFFFFFFFFFFFFFFFFFFFFFFFFFFFFFFFFFFFFFFFFFFFFFF
310
FFFFFFFFFFFFFFFFFFFFFFFFFFFFFFFFFFFFFFFFFFFFFFFFFFFFFFFFFFFFFFFF
310
FFFFFFFFFFFFFFFFFFFFFFFFFFFFFFFFFFFFFFFFFFFFFFFFFFFFFFFFFFFFFFFF
310
FFFFFFFFFFFFFFFFFFFFFFFFFFFFFFFFFFFFFFFFFFFFFFFFFFFFFFFFFFFFFFFF
310
FFFFFFFFFFFFFFFFFFFFFFFFFFFFFFFFFFFFFFFFFFFFFFFFFFFFFFFFFFFFFFFF
310
FFFFFFFFFFFFFFFFFFFFFFFFFFFFFFFFFFFFFFFFFFFFFFFFFFFFFFFFFFFFFFFF
310
FFFFFFFFFFFFFFFFFFFFFFFFFFFFFFFFFFFFFFFFFFFFFFFFFFFFFFFFFFFFFFFF
310
FFFFFFFFFFFFFFFFFFFFFFFFFFFFFFFFFFFFFFFFFFFFFFFFFFFFFFFFFFFFFFFF
310
FFFFFFFFFFFFFFFFFFFFFFFFFFFFFFFFFFFFFFFFFFFFFFFFFFFFFFFFFFFFFFFF
310
FFFFFFFFFFFFFFFFFFFFFFFFFFFFFFFFFFFFFFFFFFFFFFFFFFFFFFFFFFFFFFFF
310
FFFFFFFFFFFFFFFFFFFFFFFFFFFFFFFFFFFFFFFFFFFFFFFFFFFFFFFFFFFFFFFF
310
FFFFFFFFFFFFFFFFFFFFFFFFFFFFFFFFFFFFFFFFFFFFFFFFFFFFFFFFFFFFFFFF
310
FFFFFFFFFFFFFFFFFFFFFFFFFFFFFFFFFFFFFFFFFFFFFFFFFFFFFFFFFFFFFFFF
310
FFFFFFFFFFFFFFFFFFFFFFFFFFFFFFFFFFFFFFFFFFFFFFFFFFFFFFFFFFFFFFFF
310
FFFFFFFFFFFFFFFFFFFFFFFFFFFFFFFFFFFFFFFFFFFFFFFFFFFFFFFFFFFFFFFF
310
FFFFFFFFFFFFFFFFFFFFFFFFFFFFFFFFFFFFFFFFFFFFFFFFFFFFFFFFFFFFFFFF
310
0100000200000000000000000000000000000000000000000000000000000000
310
0000000000000000000000000000000000000000000000000000000000000000
310
0100FEFF030A0000FFFFFFFF0A00030000000000C00000000000004607000000
310
5042727573680007000000504272757368000700000050427275736800F439B2
310
7100000000000000000000000000000000000000000000000000000000000000
310
0000000000000000000000000000000000000000000000000000000000000000
310
0000000000000000000000000000000000000000000000000000000000000000
310
0000000000000000000000000000000000000000000000000000000000000000
310
0000000000000000000000000000000000000000000000000000000000000000
310
0000000000000000000000000000000000000000000000000000000000000000
310
0000000000000000000000000000000000000000000000000000000000000000
310
0000000000000000000000000000000000000000000000000000000000000000
310
0000000000000000000000000000000000000000000000000000000000000000
310
0000000000000000000000000000000000000000000000000000000000000000
310
0000000000000000000000000000000000000000000000000000000000000000
310
0000000000000000000000000000000000000000000000000000000000000000
310
20260000424D0E260000000000003E00000028000000B40200006E0000000100
310
01000000000000000000130B0000130B00000200000002000000000000FFFFFF
310
FFFFFFFFFFFFFFFFFFFFFFFFFFFFFFFFFFFFFFFFFFFFFFFFFFFFFFFFFFFFFFFF
310
FFFFFFFFFFFFFFFFFFFFFFFFFFFFFFFFFFFFFFFFFFFFFFFFFFFFFFFFFFFFFFFF
310
FFFFFFFFFFFFFFFFFFFFFFFFFFFFFFFFFFFFFFFFFFFFFFFFF000FFFFFFFFFFFF
310
FFFFFFFFFFFFFFFFFFFFFFFFFFFFFFFFFFFFFFFFFFFFFFFFFFFFFFFFFFFFFFFF
310
FFFFFFFFFFFFFFFFFFFFFFFFFFFFFFFFFFFFFFFFFFFFFFFFFFFFFFFFFFFFFFFF
310
FFFFFFFFFFFFFFFFFFFFFFFFFFFFFFFFF000FFFFFFFFFFFFFFFFFFFFFFFFFFFF
310
FFFFFFFFFFFFFFFFFFFFFFFFFFFFFFFFFFFFFFFFFFFFFFFFFFFFFFFFFFFFFFFF
310
FFFFFFFFFFFFFFFFFFFFFFFFFFFFFFFFFFFFFFFFFFFFFFFFFFFFFFFFFFFFFFFF
310
FFFFFFFFFFFFFFFFF000FFFFFFFFFFFFFFFFFFFFFFFFFFFFFFFFFFFFFFFFFFFF
310
FFFFFFFFFFFFFFFFFFFFFFFFFFFFFFFFFFFFFFFFFFFFFFFFFFFFFFFFFFFFFFFF
310
FFFFFFFFFFFFFFFFFFFFFFFFFFFFFFFFFFFFFFFFFFFFFFFFFFFFFFFFFFFFFFFF
310
F000FFFFFFFFFFFFFFFFFFFFFFFFFFFFFFFFFFFFFFFFFFFFFFFFFFFFFFFFFFFF
310
FFFFFFFFFFFFFFFFFFFFFFFFFFFFFFFFFFFFFFFFFFFFFFFFFFFFFFFFFFFFFFFF
310
FFFFFFFFFFFFFFFFFFFFFFFFFFFFFFFFFFFFFFFFFFFFFFFFF000FFFFFFFFFFFF
310
FFFFFFFFFFFFFFFFFFFFFFFFFFFFFFFFFFFFFFFFFFFFFFFFFFFFFFFFFFFFFFFF
310
FFFFFFFFFFFFFFFFFFFFFFFFFFFFFFFFFFFFFFFFFFFFFFFFFFFFFFFFFFFFFFFF
310
FFFFFFFFFFFFFFFFFFFFFFFFFFFFFFFFF000FFFFFFFFFFFFFFFFFFFFFFFFFFFF
310
FFFFFFFFFFFFFFFFFFFFFFFFFFFFFFFFFFFFFFFFFFFFFFFFFFFFFFFFFFFFFFFF
310
FFFFFFFFFFFFFFFFFFFFFFFFFFFFFFFFFFFFFFFFFFFFFFFFFFFFFFFFFFFFFFFF
310
FFFFFFFFFFFFFFFFF000FFFFFFFFFFFFFFFFFFFFFFFFFFFFFFFFFFFFFFFFFFFF
310
FFFFFFFFFFFFFFFFFFFFFFFFFFFFFFFFFFFFFFFFFFFFFFFFFFFFFFFFFFFFFFFF
310
FFFFFFFFFFFFFFFFFFFFFFFFFFFFFFFFFFFFFFFFFFFFFFFFFFFFFFFFFFFFFFFF
310
F000FFFFFFFFFFFFFFFFFFFFFFFFFFFFFFFFFFFFFFFFFFFFFFFFFFFFFFFFFFFF
310
FFFFFFFFFFFFFFFFFFFFFFFFFFFFFFFFFFFFFFFFFFFFFFFFFFFFFFFFFFFFFFFF
310
FFFFFFFFFFFFFFFFFFFFFFFFFFFFFFFFFFFFFFFFFFFFFFFFF000FFFFFFFFFFFF
310
FFFFFFFFFFFFFFFFFFFFFFFFFFFFFFFFFFFFFFFFFFFFFFFFFFFFFFFFFFFFFFFF
310
FFFFFFFFFFFFFFFFFFFFFFFFFFFFFFFFFFFFFFFFFFFFFFFFFFFFFFFFFFFFFFFF
310
FFFFFFFFFFFFFFFFFFFFFFFFFFFFFFFFF000FFFFFFFFFFFFFFFFFFFFFFFFFFFF
310
FFFFFFFFFFFFFFFFFFFFFFFFFFFFFFFFFFFFFFFFFFFFFFFFFFFFFFFFFFFFFFFF
310
FFFFFFFFFFFFFFFFFFFFFFFFFFFFFFFFFFFFFFFFFFFFFFFFFFFFFFFFFFFFFFFF
310
FFFFFFFFFFFFFFFFF000FFFFFFFFFFFFFFFFFFFFFFFFFFFFFFFFFFFFFFFFFFFF
310
FFFFFFFFFFFFFFFFFFFFFFFFFFFFFFFFFFFFFFFFFFFFFFFFFFFFFFFFFFFFFFFF
310
FFFFFFFFFFFFFFFFFFFFFFFFFFFFFFFFFFFFFFFFFFFFFFFFFFFFFFFFFFFFFFFF
310
F000FFFFFFFFFFFFFFFFFFFFFFFFFFFFFFFFFFFFFFFFFFFFFFFFFFFFFFFFFFFF
310
FFFFFFFFFFFFFFFFFFFFFFFFFFFFFFFFFFFFFFFFFFFFFFFFFFFFFFFFFFFFFFFF
310
FFFFFFFFFFFFFFFFFFFFFFFFFFFFFFFFFFFFFFFFFFFFFFFFF000FFFFFFFFFFFF
310
FFFFFFFFFFFFFFFFFFFFFFFFFFFFFFFFFFFFFFFFFFFFFFFFFFFFFFFFFFFFFFFF
310
FFFFFFFFFFFFFFFFFFFFFFFFFFFFFFFFFFFFFFFFFFFFFFFFFFFFFFFFFFFFFFFF
310
FFFFFFFFFFFFFFFFFFFFFFFFFFFFFFFFF000FFFFFFFFFFFFFFFFFFFFFFFFFFFF
310
FFFFFFFFFFFFFFFFFFFFFFFFFFFFFFFFFFFFFFFFFFFFFFFFFFFFFFFFFFFFFFFF
310
FFFFFFFFFFFFFFFFFFFFFFFFFFFFFFFFFFFFFFFFFFFFFFFFFFFFFFFFFFFFFFFF
310
FFFFFFFFFFFFFFFFF000FFFFFFFFFFFFFFFFFFFFFFFFFFFFFFFFFFFFFFFFFFFF
310
FFFFFFFFFFFFFFFFFFFFFFFFFFFFFFFFFFFFFFFFFFFFFFFFFFFFFFFFFFFFFFFF
310
FFFFFFFFFFFFFFFFFFFFFFFFFFFFFFFFFFFFFFFFFFFFFFFFFFFFFFFFFFFFFFFF
310
F000FFFFFFFFFFFFFFFFFFFFFFFFFFFFFFFFFFFFFFFFFFFFFFFFFFFFFFFFFFFF
310
FFFFFFFFFFFFFFFFFFFFFFFFFFFFFFFFFFFFFFFFFFFFFFFFFFFFFFFFFFFFFFFF
310
FFFFFFFFFFFFFFFFFFFFFFFFFFFFFFFFFFFFFFFFFFFFFFFFF000FFFFFFFFFFFF
310
FFFFFFFFFFFFFFFFFFFFFFFFFFFFFFFFFFFFFFFFFFFFFFFFFFFFFFFFFFFFFFFF
310
FFFFFFFFFFFFFFFFFFFFFFFFFFFFFFFFFFFFFFFFFFFFFFFFFFFFFFFFFFFFFFFF
310
FFFFFFFFFFFFFFFFFFFFFFFFFFFFFFFFF000FFFFFFFFFFFFFFFFFFFFFFFFFFFF
310
FFFFFFFFFFFFFFFFFFFFFFFFFFFFFFFFFFFFFFFFFFFFFFFFFFFFFFFFFFFFFFFF
310
FFFFFFFFFFFFFFFFFFFFFFFFFFFFFFFFFFFFFFFFFFFFFFFFFFFFFFFFFFFFFFFF
310
FFFFFFFFFFFFFFFFF000FFFFF80003FFFFFFFFFFFFFFFFFFFFFFFFFFFFFFFFFF
310
FFFFF00007FFFFFFFFFF00007FFFFFF800000000000000007FFFFFFFFFFFFFFF
310
FFFFFFFC001FFFFFFFFFFFFFFC001FFFFFFFFFFFFFFFFFFFFFFFFFFE0007FFFF
310
F000FFFF8000007FFFFFFFF8000FFFFFC0007FFFFF80007FFFFF0000007FFFFF
310
FFF8000007FFFFF800000000000000007FFFFFF0001FFFFFFFFFFFC00001FFFF
310
FFFFFFFFC00001FFFFFFFF000000000003FFFFE000007FFFF000FFFE0000000F
310
FFFFFFF0000FFFFF80007FFFFF80007FFFFC0000001FFFFFFFC0000001FFFFF8
310
00000000000000007FFFFFF0001FFFFFFFFFFE0000003FFFFFFFFFFE0000003F
310
FFFFFF000000000003FFFF0000000FFFF000FFF800000003FFFFFFF00007FFFF
310
80007FFFFF80007FFFF000000007FFFFFF000000003FFFF80000000000000000
310
7FFFFFF0001FFFFFFFFFF80000000FFFFFFFFFF80000000FFFFFFF0000000000
310
03FFFC00000003FFF000FFE000000000FFFFFFF00007FFFF80003FFFFF80007F
310
FFC000000001FFFFFC000000001FFFF800000000000000007FFFFFF0001FFFFF
310
FFFFE000000003FFFFFFFFE000000003FFFFFF000000000003FFF000000000FF
310
F000FF80000000007FFFFFF00007FFFF80003FFFFF80007FFF8000000000FFFF
310
F80000000007FFF800000000000000007FFFFFF0001FFFFFFFFFC000000001FF
310
FFFFFFC000000001FFFFFF000000000003FFC0000000007FF000FF0000000000
310
3FFFFFE00007FFFF00003FFFFF80007FFE00000000003FFFF00000000003FFF8
310
00000000000000007FFFFFF0001FFFFFFFFF8000000000FFFFFFFF8000000000
310
FFFFFF000000000003FF80000000003FF000FE00000000001FFFFFE00003FFFF
310
00003FFFFF80007FFC00000000001FFFE00000000001FFF8000001FFFE000000
310
7FFFFFF0001FFFFFFFFE00000000003FFFFFFE00000000003FFFFF0000000000
310
03FF00000000001FF000FC00000000000FFFFFE00003FFFF00001FFFFF80007F
310
F800000000001FFFC00000000000FFF8000001FFFE0000007FFFFFF0001FFFFF
310
FFFC00000000001FFFFFFC00000000001FFFFF000000000003FE00000000000F
310
F000F8000000000007FFFFE00003FFFF00001FFFFF80007FF800000000000FFF
310
800000000000FFF8000001FFFE0000007FFFFFF0001FFFFFFFF800000000000F
310
FFFFF800000000000FFFFF000000000003FC000000000007F000F80000000000
310
03FFFFC00003FFFE00001FFFFF80007FF0000000000007FF0000000000007FF8
310
000001FFFE0000007FFFFFF0001FFFFFFFF0000000000007FFFFF00000000000
310
07FFFF000000000003F8000000000003F000F0000000000003FFFFC00001FFFE
310
00001FFFFF80007FE0000000000007FE0000000000003FF8000001FFFE000000
310
7FFFFFF0001FFFFFFFF0000000000007FFFFF0000000000007FFFF0000000000
310
03F800001F800003F000E00001FFF00001FFFFC00001FFFE00000FFFFF80007F
310
E00001FFE00003FE00001FFF00003FF8000001FFFE0000007FFFFFF0001FFFFF
310
FFE000003E000003FFFFE000003E000003FFFF000000000003F00001FFF80001
310
F000E00007FFFC0001FFFFC00001FFFE00000FFFFF80007FC0000FFFFC0003FC
310
0000FFFFC0001FF8000001FFFE0000007FFFFFF0001FFFFFFFC00003FFE00001
310
FFFFC00003FFE00001FFFF0001FFFFFFFFF00007FFFE0001F000E0000FFFFF00
310
00FFFF800001FFFC00000FFFFF80007FC0001FFFFE0001FC0001FFFFE0001FF8
310
000001FFFE0000007FFFFFF0001FFFFFFF80000FFFF80000FFFF80000FFFF800
310
00FFFF0003FFFFFFFFE0000FFFFF8000F000C0003FFFFF8000FFFF800000FFFC
310
000007FFFF80007F80003FFFFF0001FC0003FFFFF0001FF8000001FFFE000000
310
7FFFFFF0001FFFFFFF80003FFFFE0000FFFF80003FFFFE0000FFFF0003FFFFFF
310
FFE0003FFFFF8000F000C0003FFFFF8000FFFF800000FFFC000007FFFF80007F
310
80007FFFFF8001F80007FFFFF8000FF8000001FFFE0000007FFFFFF0001FFFFF
310
FF00007FFFFF00007FFF00007FFFFF00007FFF0003FFFFFFFFE0003FFFFFC000
310
F000C0007FFFFFC000FFFF000000FFFC000007FFFF80007F8000FFFFFF8000F8
310
000FFFFFF8000FF8000001FFFE0000007FFFFFF0001FFFFFFF0000FFFFFF8000
310
7FFF0000FFFFFF80007FFF0003FFFFFFFFC0007FFFFFC00070008000FFFFFFC0
310
00FFFF000000FFF8000007FFFF80007F8000FFFFFF8000F8000FFFFFF8000FF8
310
000001FFFE0000007FFFFFF0001FFFFFFE0001FFFFFFC0003FFE0001FFFFFFC0
310
003FFF0003FFFFFFFFC0007FFFFFE00070008000FFFFFFC0007FFF0000007FF8
310
000003FFFF80007F0001FFFFFF8000F8000FFFFFF8000FF8000001FFFE000000
310
7FFFFFF0001FFFFFFE0001FFFFFFC0003FFE0001FFFFFFC0003FFF0003FFFFFF
310
FFC000FFFFFFE00070008000FFFFFFC0007FFF0000007FF8000003FFFF80007F
310
0001FFFFFF8000F8001FFFFFF8000FF8000001FFFE0000007FFFFFF0001FFFFF
310
FE0003FFFFFFE0003FFE0003FFFFFFE0003FFF0003FFFFFFFFC000FFFFFFE000
310
70008000FFFFFFC0007FFE0000007FF8000003FFFF80007F0001FFFFFF8000F0
310
001FFFFFF8000FF8000001FFFE0000007FFFFFF0001FFFFFFC0003FFFFFFE000
310
1FFC0003FFFFFFE0001FFF0003FFFFFFFFC000FFFFFFC00070008000FFFFFF80
310
007FFE0000007FF0000003FFFF80007F0001FFFFFF0000F0001FFFFFF8000FF8
310
000001FFFE0000007FFFFFF0001FFFFFFC0007FFFFFFF0001FFC0007FFFFFFF0
310
001FFF0003FFFFFFFFC000FFFFFFC00070008001FFFFFF0000FFFE0000003FF0
310
000001FFFF80007F0001FFFFFF0000F8001FFFFFF0000FF8000001FFFE000000
310
7FFFFFF0001FFFFFFC0007FFFFFFF0001FFC0007FFFFFFF0001FFF0003FFFFFF
310
FFC001FFFFFF80007000FFFFFFFFFE0000FFFE0008003FF0008001FFFF80007F
310
FFFFFFFFFC0000FFFFFFFFFFE0000FF8000001FFFE0000007FFFFFF0001FFFFF
310
F8000FFFFFFFF8000FF8000FFFFFFFF8000FFF0003FFFFFFFFFFFFFFFFFF0000
310
7000FFFFFFFFFC0000FFFC0008003FF0008001FFFF80007FFFFFFFFFF80001FF
310
FFFFFFFF80000FF8000001FFFE0000007FFFFFF0001FFFFFF8000FFFFFFFF800
310
0FF8000FFFFFFFF8000FFF0003FFFFFFFFFFFFFFFFFE0000F000FFFFFFFFE000
310
00FFFC000C003FE000C001FFFF80007FFFFFFFFFC00001FFFFFFFFFE00001FF8
310
000001FFFE0000007FFFFFF0001FFFFFF8000FFFFFFFF8000FF8000FFFFFFFF8
310
000FFF0003FFFFFFFFFFFFFFFFF00000F000FFFFFFFE000001FFFC000C001FE0
310
00C000FFFF80007FFFFFFFFE000001FFFFFFFFE000001FF80FFFFFFFFFFFFFC0
310
7FFFFFF0001FFFFFF8000FFFFFFFF8000FF8000FFFFFFFF8000FFF0003FFFFFF
310
FFFFFFFFFF800000F000FFFFFFC0000001FFFC001C001FE001C000FFFF80007F
310
FFFFFF80000003FFFFFFF80000001FF80FFFFFFFFFFFFFC07FFFFFF0001FFFFF
310
F8001FFFFFFFFC000FF8001FFFFFFFFC000FFF0003FFFFFFFFFFFFFFF0000001
310
F000FFFFF800000001FFF8001C001FE001C000FFFF80007FFFFFF800000003FF
310
FFFF800000003FF80FFFFFFFFFFFFFC07FFFFFF0001FFFFFF8001FFFFFFFFC00
310
0FF8001FFFFFFFFC000FFF0003FFFFFFFFFFFFFE00000001F000FFFFC0000000
310
03FFF8001E001FC001E000FFFF80007FFFFF8000000007FFFFFC000000003FF8
310
0FFFFFFFFFFFFFC07FFFFFF0001FFFFFF8001FFFFFFFFC000FF8001FFFFFFFFC
310
000FFF0003FFFFFFFFFFFFE000000003F000FFFE0000000007FFF8001E000FC0
310
01E0007FFF80007FFFFE0000000007FFFFE0000000007FF80FFFFFFFFFFFFFC0
310
7FFFFFF0001FFFFFF0001FFFFFFFFC0007F0001FFFFFFFFC0007FF0003FFFFFF
310
FFFFFF0000000003F000FFF80000000007FFF8001E000FC003E0007FFF80007F
310
FFF0000000000FFFFF8000000000FFF80FFFFFFFFFFFFFC07FFFFFF0001FFFFF
310
F0001FFFFFFFFC0007F0001FFFFFFFFC0007FF0003FFFFFFFFFFFC0000000007
310
F000FFE0000000000FFFF0003E000FC003E0007FFF80007FFFC0000000001FFF
310
FE0000000001FFF80FFFFFFFFFFFFFC07FFFFFF0001FFFFFF0001FFFFFFFFC00
310
07F0001FFFFFFFFC0007FF0003FFFFFFFFFFF0000000000FF000FFC000000000
310
1FFFF0003F000F8003F0003FFF80007FFF80000000003FFFF80000000003FFF8
310
0FFFFFFFFFFFFFC07FFFFFF0001FFFFFF0001FFFFFFFFC0007F0001FFFFFFFFC
310
0007FF0003FFFFFFFFFFE0000000001FF000FF00000000007FFFF0003F000780
310
03F0003FFF80007FFF00000000007FFFF00000000007FFF80FFFFFFFFFFFFFC0
310
7FFFFFF0001FFFFFF0001FFFFFFFFC0007F0001FFFFFFFFC0007FF0003FFFFFF
310
FFFF80000000007FF000FE0000000000FFFFE0003F00078007F0003FFF80007F
310
FE0000000001FFFFE0000000001FFFF80FFFFFFFFFFFFFC07FFFFFF0001FFFFF
310
F0001FFFFFFFFC0007F0001FFFFFFFFC0007FF0003FFFFFFFFFF0000000000FF
310
F000FC0000000003FFFFE0007F00078007F0003FFF80007FFC0000000007FFFF
310
C0000000007FFFF80FFFFFFFFFFFFFC07FFFFFF0001FFFFFF8001FFFFFFFFC00
310
0FF8001FFFFFFFFC000FFF0003FFFFFFFFFE0000000003FFF000FC000000000F
310
FFFFE0007F80070007F8001FFF80007FF8000000001FFFFF8000000001FFFFF8
310
0FFFFFFFFFFFFFC07FFFFFF0001FFFFFF8001FFFFFFFFC000FF8001FFFFFFFFC
310
000FFF0003FFFFFFFFFC000000000FFFF000F8000000007FFFFFE0007F800700
310
07F8001FFF80007FF000000000FFFFFF800000000FFFFFF80FFFFFFFFFFFFFC0
310
7FFFFFF0001FFFFFF8000FFFFFFFF8000FF8000FFFFFFFF8000FFF0003FFFFFF
310
FFFC000000007FFFF000F800000007FFFFFFC0007F8003000FF8001FFF80007F
310
F000000007FFFFFF000000007FFFFFF80FFFFFFFFFFFFFC07FFFFFF0001FFFFF
310
F8000FFFFFFFF8000FF8000FFFFFFFF8000FFF0003FFFFFFFFF80000000FFFFF
310
F000F0000000FFFFFFFFC000FF8003000FF8001FFF80007FE0000000FFFFFFFF
310
0000000FFFFFFFF8000001FFFE0000007FFFFFF0001FFFFFF8000FFFFFFFF800
310
0FF8000FFFFFFFF8000FFF0003FFFFFFFFF8000000FFFFFFF000F000000FFFFF
310
FFFFC000FFC002000FF8000FFF80007FE000001FFFFFFFFE000001FFFFFFFFF8
310
000001FFFE0000007FFFFFF0001FFFFFF8000FFFFFFFF8000FF8000FFFFFFFF8
310
000FFF0003FFFFFFFFF000001FFFFFFFF000E00000FFFFFFFFFFC000FFC00200
310
0FFC000FFF80007FE00001FFFFFFFFFE00001FFFFFFFFFF8000001FFFE000000
310
7FFFFFF0001FFFFFFC000FFFFFFFF8001FFC000FFFFFFFF8001FFF0003FFFFFF
310
FFF00001FFFFFFFFF000E00007FFFFFFFFFF8000FFC000001FFC000FFF80007F
310
C0000FFFFFFFFFFE0000FFFFFFFFFFF8000001FFFE0000007FFFFFF0001FFFFF
310
FC0007FFFFFFF0001FFC0007FFFFFFF0001FFF0003FFFFFFFFF00007FFFFFFFF
310
F000E0001FFFFFFFFFFF8000FFC000001FFC000FFF80007FC0003FFFFFFFFFFE
310
0001FFFFFFFFFFF8000001FFFE0000007FFFFFF0001FFFFFFC0007FFFFFFF000
310
1FFC0007FFFFFFF0001FFF0003FFFFFFFFF0001FFFFFFFFFF000E0003FFFFF00
310
03FF8001FFE000001FFC0007FF80007FC0007FFFFF0007FC0003FFFFF0003FF8
310
000001FFFE0000007FFFFFF0001FFFFFFC0003FFFFFFE0001FFC0003FFFFFFE0
310
001FFF0003FFFFFFFFF0003FFFFFFFFFF000E0003FFFFF0001FF8001FFE00000
310
1FFE0007FF80007FC0007FFFFE0003FC0007FFFFE0003FF8000001FFFE000000
310
7FFFFFF0001FFFFFFE0003FFFFFFE0003FFE0003FFFFFFE0003FFF0003FFFFFF
310
FFF0003FFFFF8001F000E0003FFFFF0001FF0001FFE000001FFE0007FF80007F
310
C0007FFFFE0003FC0007FFFFE0003FF8000001FFFE0000007FFFFFF0001FFFFF
310
FE0001FFFFFFC0003FFE0001FFFFFFC0003FFF0003FFFFFFFFF0003FFFFF0001
310
F000E0003FFFFF0003FF0001FFE000003FFE0007FF80007FC0007FFFFE0003FC
310
0007FFFFE0003FF8000001FFFE0000007FFFFFF0001FFFFFFF0001FFFFFFC000
310
7FFF0001FFFFFFC0007FFF0003FFFFFFFFF0003FFFFF0001F000E0003FFFFE00
310
03FF0003FFF000003FFE0003FF80007FC0007FFFFC0003FE0007FFFFE0003FF8
310
000001FFFE0000007FFFFFF0001FFFFFFF0000FFFFFF80007FFF0000FFFFFF80
310
007FFF0003FFFFFFFFF0003FFFFF0001F000E0003FFFFE0003FF0003FFF00000
310
3FFF0003FF80007FC0007FFFFC0007FE0007FFFFC0003FF8000001FFFE000000
310
7FFFFFF0001FFFFFFF80007FFFFF0000FFFF80007FFFFF0000FFFF0003FFFFFF
310
FFF0003FFFFF0003F000E0003FFFFC0003FE0003FFF000003FFF0003FF80007F
310
E0003FFFF80007FE0003FFFFC0007FF8000001FFFE0000007FFFFFF0001FFFFF
310
FF80003FFFFE0000FFFF80003FFFFE0000FFFF0003FFFFFFFFF0001FFFFE0003
310
F000F0001FFFF80003FE0003FFF000007FFF0001FF80007FE0003FFFF00007FE
310
0001FFFF80007FF8000001FFFE0000007FFFFFF0001FFFFFFFC0000FFFF80001
310
FFFFC0000FFFF80001FFFF0003FFFFFFFFF0001FFFFC0003F000F0000FFFF000
310
07FE0007FFF800007FFF0001FF80007FE0001FFFE00007FF0000FFFE00007FF8
310
000001FFFE0000007FFFFFF0001FFFFFFFC00003FFE00001FFFFC00003FFE000
310
01FFFF0003FFFFFFFFF8000FFFF80003F000F00003FFC00007FC0007FFF80000
310
7FFF8001FF80007FF00007FF80000FFF00007FF80000FFF8000001FFFE000000
310
7F80000000000001FFE000003E000003FFFFE000003E000003FFFF0003FFFFFF
310
FFF80003FFE00007F000F800000000000FFC0007FFF800007FFF8001FF80007F
310
F000000000000FFF000000000000FFF8000001FFFE0000007F80000000000001
310
FFF0000000000007FFFFF0000000000007FFFF0003FFFFFFFFFC00007E000007
310
F000F800000000000FFC0007FFF80000FFFF8000FF80007FF800000000001FFF
310
800000000001FFF8000001FFFE0000007F80000000000001FFF800000000000F
310
FFFFF800000000000FFFFF0003FFFFFFFFFC00000000000FF000FC0000000000
310
1FFC0007FFFC0000FFFF8000FF80007FF800000000003FFFC00000000001FFF8
310
000001FFFE0000007F80000000000001FFF800000000000FFFFFF80000000000
310
0FFFFF0003FFFFFFFFFE00000000001FF000FE00000000003FF8000FFFFC0000
310
FFFF8000FF80007FFC00000000003FFFC00000000003FFF8000001FFFE000000
310
7F80000000000001FFFC00000000001FFFFFFC00000000001FFFFF0003FFFFFF
310
FFFF00000000001FF000FF00000000003FF8000FFFFC0000FFFFC000FF80007F
310
FE00000000007FFFE00000000007FFF8000001FFFE0000007F80000000000001
310
FFFE00000000003FFFFFFE00000000003FFFFF0003FFFFFFFFFF80000000003F
310
F000FF80000000007FF8000FFFFC0001FFFFC0007F80007FFF0000000000FFFF
310
F0000000000FFFF800000000000000007F80000000000001FFFF8000000000FF
310
FFFFFF8000000000FFFFFF0003FFFFFFFFFFC0000000007FF000FFC000000000
310
FFF8000FFFFE0001FFFFC0007F80007FFF8000000001FFFFF8000000001FFFF8
310
00000000000000007F80000000000001FFFFC000000001FFFFFFFFC000000001
310
FFFFFF0003FFFFFFFFFFE000000000FFF000FFE000000003FFF0001FFFFE0001
310
FFFFC0007F80007FFFC000000007FFFFFE000000003FFFF80000000000000000
310
7F80000000000001FFFFE000000003FFFFFFFFE000000003FFFFFF0003FFFFFF
310
FFFFF000000003FFF000FFF80000000FFFF0001FFFFE0001FFFFE0007F80007F
310
FFF00000000FFFFFFF00000000FFFFF800000000000000007F80000000000001
310
FFFFF80000000FFFFFFFFFF80000000FFFFFFF0003FFFFFFFFFFFC0000000FFF
310
F000FFFE0000003FFFF0001FFFFE0003FFFFE0003F80007FFFFC0000003FFFFF
310
FFC0000003FFFFF800000000000000007F80000000000001FFFFFE0000003FFF
310
FFFFFFFE0000003FFFFFFF0003FFFFFFFFFFFF0000003FFFF000FFFF800000FF
310
FFF0001FFFFF0003FFFFE0003F80007FFFFF000001FFFFFFFFF800001FFFFFF8
310
00000000000000007F80000000000001FFFFFFC00001FFFFFFFFFFFFC00001FF
310
FFFFFF0003FFFFFFFFFFFFC00000FFFFF000FFFFF8000FFFFFFFFFFFFFFFFFFF
310
FFFFFFFFFFFFFFFFFFFFF0001FFFFFFFFFFF0000FFFFFFF80000000000000000
310
7FFFFFFFFFFFFFFFFFFFFFFC001FFFFFFFFFFFFFFC001FFFFFFFFFFFFFFFFFFF
310
FFFFFFFC001FFFFFF000FFFFFFFFFFFFFFFFFFFFFFFFFFFFFFFFFFFFFFFFFFFF
310
FFFFFFFFFFFFFFFFFFFFFFFFFFFFFFFFFFFFFFFFFFFFFFFFFFFFFFFFFFFFFFFF
310
FFFFFFFFFFFFFFFFFFFFFFFFFFFFFFFFFFFFFFFFFFFFFFFFFFFFFFFFFFFFFFFF
310
F000FFFFFFFFFFFFFFFFFFFFFFFFFFFFFFFFFFFFFFFFFFFFFFFFFFFFFFFFFFFF
310
FFFFFFFFFFFFFFFFFFFFFFFFFFFFFFFFFFFFFFFFFFFFFFFFFFFFFFFFFFFFFFFF
310
FFFFFFFFFFFFFFFFFFFFFFFFFFFFFFFFFFFFFFFFFFFFFFFFF000FFFFFFFFFFFF
310
FFFFFFFFFFFFFFFFFFFFFFFFFFFFFFFFFFFFFFFFFFFFFFFFFFFFFFFFFFFFFFFF
310
FFFFFFFFFFFFFFFFFFFFFFFFFFFFFFFFFFFFFFFFFFFFFFFFFFFFFFFFFFFFFFFF
310
FFFFFFFFFFFFFFFFFFFFFFFFFFFFFFFFF000FFFFFFFFFFFFFFFFFFFFFFFFFFFF
310
FFFFFFFFFFFFFFFFFFFFFFFFFFFFFFFFFFFFFFFFFFFFFFFFFFFFFFFFFFFFFFFF
310
FFFFFFFFFFFFFFFFFFFFFFFFFFFFFFFFFFFFFFFFFFFFFFFFFFFFFFFFFFFFFFFF
310
FFFFFFFFFFFFFFFFF000FFFFFFFFFFFFFFFFFFFFFFFFFFFFFFFFFFFFFFFFFFFF
310
FFFFFFFFFFFFFFFFFFFFFFFFFFFFFFFFFFFFFFFFFFFFFFFFFFFFFFFFFFFFFFFF
310
FFFFFFFFFFFFFFFFFFFFFFFFFFFFFFFFFFFFFFFFFFFFFFFFFFFFFFFFFFFFFFFF
310
F000FFFFFFFFFFFFFFFFFFFFFFFFFFFFFFFFFFFFFFFFFFFFFFFFFFFFFFFFFFFF
310
FFFFFFFFFFFFFFFFFFFFFFFFFFFFFFFFFFFFFFFFFFFFFFFFFFFFFFFFFFFFFFFF
310
FFFFFFFFFFFFFFFFFFFFFFFFFFFFFFFFFFFFFFFFFFFFFFFFF000FFFFFFFFFFFF
310
FFFFFFFFFFFFFFFFFFFFFFFFFFFFFFFFFFFFFFFFFFFFFFFFFFFFFFFFFFFFFFFF
310
FFFFFFFFFFFFFFFFFFFFFFFFFFFFFFFFFFFFFFFFFFFFFFFFFFFFFFFFFFFFFFFF
310
FFFFFFFFFFFFFFFFFFFFFFFFFFFFFFFFF000FFFFFFFFFFFFFFFFFFFFFFFFFFFF
310
FFFFFFFFFFFFFFFFFFFFFFFFFFFFFFFFFFFFFFFFFFFFFFFFFFFFFFFFFFFFFFFF
310
FFFFFFFFFFFFFFFFFFFFFFFFFFFFFFFFFFFFFFFFFFFFFFFFFFFFFFFFFFFFFFFF
310
FFFFFFFFFFFFFFFFF000FFFFFFFFFFFFFFFFFFFFFFFFFFFFFFFFFFFFFFFFFFFF
310
FFFFFFFFFFFFFFFFFFFFFFFFFFFFFFFFFFFFFFFFFFFFFFFFFFFFFFFFFFFFFFFF
310
FFFFFFFFFFFFFFFFFFFFFFFFFFFFFFFFFFFFFFFFFFFFFFFFFFFFFFFFFFFFFFFF
310
F000FFFFFFFFFFFFFFFFFFFFFFFFFFFFFFFFFFFFFFFFFFFFFFFFFFFFFFFFFFFF
310
FFFFFFFFFFFFFFFFFFFFFFFFFFFFFFFFFFFFFFFFFFFFFFFFFFFFFFFFFFFFFFFF
310
FFFFFFFFFFFFFFFFFFFFFFFFFFFFFFFFFFFFFFFFFFFFFFFFF000FFFFFFFFFFFF
310
FFFFFFFFFFFFFFFFFFFFFFFFFFFFFFFFFFFFFFFFFFFFFFFFFFFFFFFFFFFFFFFF
310
FFFFFFFFFFFFFFFFFFFFFFFFFFFFFFFFFFFFFFFFFFFFFFFFFFFFFFFFFFFFFFFF
310
FFFFFFFFFFFFFFFFFFFFFFFFFFFFFFFFF000FFFFFFFFFFFFFFFFFFFFFFFFFFFF
310
FFFFFFFFFFFFFFFFFFFFFFFFFFFFFFFFFFFFFFFFFFFFFFFFFFFFFFFFFFFFFFFF
310
FFFFFFFFFFFFFFFFFFFFFFFFFFFFFFFFFFFFFFFFFFFFFFFFFFFFFFFFFFFFFFFF
310
FFFFFFFFFFFFFFFFF000FFFFFFFFFFFFFFFFFFFFFFFFFFFFFFFFFFFFFFFFFFFF
310
FFFFFFFFFFFFFFFFFFFFFFFFFFFFFFFFFFFFFFFFFFFFFFFFFFFFFFFFFFFFFFFF
310
FFFFFFFFFFFFFFFFFFFFFFFFFFFFFFFFFFFFFFFFFFFFFFFFFFFFFFFFFFFFFFFF
310
F000FFFFFFFFFFFFFFFFFFFFFFFFFFFFFFFFFFFFFFFFFFFFFFFFFFFFFFFFFFFF
310
FFFFFFFFFFFFFFFFFFFFFFFFFFFFFFFFFFFFFFFFFFFFFFFFFFFFFFFFFFFFFFFF
310
FFFFFFFFFFFFFFFFFFFFFFFFFFFFFFFFFFFFFFFFFFFFFFFFF000FFFFFFFFFFFF
310
FFFFFFFFFFFFFFFFFFFFFFFFFFFFFFFFFFFFFFFFFFFFFFFFFFFFFFFFFFFFFFFF
310
FFFFFFFFFFFFFFFFFFFFFFFFFFFFFFFFFFFFFFFFFFFFFFFFFFFFFFFFFFFFFFFF
310
FFFFFFFFFFFFFFFFFFFFFFFFFFFFFFFFF000FFFFFFFFFFFFFFFFFFFFFFFFFFFF
310
FFFFFFFFFFFFFFFFFFFFFFFFFFFFFFFFFFFFFFFFFFFFFFFFFFFFFFFFFFFFFFFF
310
FFFFFFFFFFFFFFFFFFFFFFFFFFFFFFFFFFFFFFFFFFFFFFFFFFFFFFFFFFFFFFFF
310
FFFFFFFFFFFFFFFFF000FFFFFFFFFFFFFFFFFFFFFFFFFFFFFFFFFFFFFFFFFFFF
310
FFFFFFFFFFFFFFFFFFFFFFFFFFFFFFFFFFFFFFFFFFFFFFFFFFFFFFFFFFFFFFFF
310
FFFFFFFFFFFFFFFFFFFFFFFFFFFFFFFFFFFFFFFFFFFFFFFFFFFFFFFFFFFFFFFF
310
F000FFFFFFFFFFFFFFFFFFFFFFFFFFFFFFFFFFFFFFFFFFFFFFFFFFFFFFFFFFFF
310
FFFFFFFFFFFFFFFFFFFFFFFFFFFFFFFFFFFFFFFFFFFFFFFFFFFFFFFFFFFFFFFF
310
FFFFFFFFFFFFFFFFFFFFFFFFFFFFFFFFFFFFFFFFFFFFFFFFF000FFFFFFFFFFFF
310
FFFFFFFFFFFFFFFFFFFFFFFFFFFFFFFFFFFFFFFFFFFFFFFFFFFFFFFFFFFFFFFF
310
FFFFFFFFFFFFFFFFFFFFFFFFFFFFFFFFFFFFFFFFFFFFFFFFFFFFFFFFFFFFFFFF
310
FFFFFFFFFFFFFFFFFFFFFFFFFFFFFFFFF000FFFFFFFFFFFFFFFFFFFFFFFFFFFF
310
FFFFFFFFFFFFFFFFFFFFFFFFFFFFFFFFFFFFFFFFFFFFFFFFFFFFFFFFFFFFFFFF
310
FFFFFFFFFFFFFFFFFFFFFFFFFFFFFFFFFFFFFFFFFFFFFFFFFFFFFFFFFFFFFFFF
310
FFFFFFFFFFFFFFFFF000FFFFFFFFFFFFFFFFFFFFFFFFFFFFFFFFFFFFFFFFFFFF
310
FFFFFFFFFFFFFFFFFFFFFFFFFFFFFFFFFFFFFFFFFFFFFFFFFFFFFFFFFFFFFFFF
310
FFFFFFFFFFFFFFFFFFFFFFFFFFFFFFFFFFFFFFFFFFFFFFFFFFFFFFFFFFFFFFFF
310
F000FFFFFFFFFFFFFFFFFFFFFFFFFFFFFFFFFFFFFFFFFFFFFFFFFFFFFFFFFFFF
310
FFFFFFFFFFFFFFFFFFFFFFFFFFFFFFFFFFFFFFFFFFFFFFFFFFFFFFFFFFFFFFFF
310
FFFFFFFFFFFFFFFFFFFFFFFFFFFFFFFFFFFFFFFFFFFFFFFFF000FFFFFFFFFFFF
310
FFFFFFFFFFFFFFFFFFFFFFFFFFFFFFFFFFFFFFFFFFFFFFFFFFFFFFFFFFFFFFFF
310
FFFFFFFFFFFFFFFFFFFFFFFFFFFFFFFFFFFFFFFFFFFFFFFFFFFFFFFFFFFFFFFF
310
FFFFFFFFFFFFFFFFFFFFFFFFFFFFFFFFF0000000000000000000000000000000
310
0000000000000000000000000000000000000000000000000000000000000000
310
0000000000000000000000000000000000000000000000000000000000000000
310
0000000000000000000000000000000000000000000000000000000000000000
310
0000000000000000000000000000000000000000000000000000000000000000
310
0000000000000000000000000000000000000000000000000000000000000000
310
0000000000000000000000000000000000000000000000000000000000000000
310
0000000000000000000000000000000000000000000000000000000000000000
310
0000000000000000000000000000000000000000000000000000000000000000
310
0000000000000000000000000000000000000000000000000000000000000000
310
0000000000000000000000000000000000000000000000000000000000000000
310
0000000000000000000000000000000000000000000000000000000000000000
310
0000000000000000000000000000000000000000000000000000000000000000
310
0000000000000000000000000000000000000000000000000000000000000000
310
0000000000000000000000000000000000000000000000000000000000000000
310
0000000000000000000000000000000000000000000000000000000000000000
  1
OLE
  0
ENDSEC
  0
SECTION
  2
OBJECTS
  0
DICTIONARY
  5
C
330
0
100
AcDbDictionary
281
     1
  3
ACAD_GROUP
350
D
  3
ACAD_LAYOUT
350
1A
  3
ACAD_MLINESTYLE
350
17
  3
ACAD_PLOTSETTINGS
350
19
  3
ACAD_PLOTSTYLENAME
350
E
  3
ACAD_SCALELIST
350
47
  0
DICTIONARY
  5
D
102
{ACAD_REACTORS
330
C
102
}
330
C
100
AcDbDictionary
281
     1
  0
DICTIONARY
  5
1A
102
{ACAD_REACTORS
330
C
102
}
330
C
100
AcDbDictionary
281
     1
  3
Layout1
350
1E
  3
Layout2
350
26
  3
Model
350
22
  0
DICTIONARY
  5
17
102
{ACAD_REACTORS
330
C
102
}
330
C
100
AcDbDictionary
281
     1
  3
Standard
350
18
  0
DICTIONARY
  5
19
102
{ACAD_REACTORS
330
C
102
}
330
C
100
AcDbDictionary
281
     1
  0
ACDBDICTIONARYWDFLT
  5
E
102
{ACAD_REACTORS
330
C
102
}
330
C
100
AcDbDictionary
281
     1
  3
Normal
350
F
100
AcDbDictionaryWithDefault
340
F
  0
DICTIONARY
  5
47
102
{ACAD_REACTORS
330
C
102
}
330
C
100
AcDbDictionary
281
     1
  3
A0
350
48
  3
A1
350
49
  3
A2
350
4A
  3
A3
350
4B
  3
A4
350
4C
  3
A5
350
4D
  3
A6
350
4E
  3
A7
350
4F
  3
A8
350
50
  3
A9
350
51
  3
B0
350
52
  3
B1
350
53
  3
B2
350
54
  3
B3
350
55
  3
B4
350
56
  3
B5
350
57
  3
B6
350
58
  3
B7
350
59
  3
B8
350
5A
  3
B9
350
5B
  3
C0
350
5C
  3
C1
350
5D
  3
C2
350
5E
  3
C3
350
5F
  3
C4
350
60
  3
C5
350
61
  3
C6
350
62
  3
C7
350
63
  3
C8
350
64
  3
C9
350
65
  3
D0
350
66
  3
D1
350
67
  3
D2
350
68
  0
LAYOUT
  5
1E
102
{ACAD_REACTORS
330
1A
102
}
330
1A
100
AcDbPlotSettings
  1

  2
none_device
  4

  6

 40
0.0
 41
0.0
 42
0.0
 43
0.0
 44
0.0
 45
0.0
 46
0.0
 47
0.0
 48
0.0
 49
0.0
140
0.0
141
0.0
142
1.0
143
1.0
 70
   688
 72
     1
 73
     0
 74
     5
  7

 75
    16
147
1.0
148
0.0
149
0.0
100
AcDbLayout
  1
Layout1
 70
     1
 71
     1
 10
0.0
 20
0.0
 11
420.0
 21
297.0
 12
0.0
 22
0.0
 32
0.0
 14
1.0000000000E+20
 24
1.0000000000E+20
 34
1.0000000000E+20
 15
-1.0000000000E+20
 25
-1.0000000000E+20
 35
-1.0000000000E+20
146
0.0
 13
0.0
 23
0.0
 33
0.0
 16
1.0
 26
0.0
 36
0.0
 17
0.0
 27
1.0
 37
0.0
 76
     0
330
1B
  0
LAYOUT
  5
26
102
{ACAD_REACTORS
330
1A
102
}
330
1A
100
AcDbPlotSettings
  1

  2
none_device
  4

  6

 40
0.0
 41
0.0
 42
0.0
 43
0.0
 44
0.0
 45
0.0
 46
0.0
 47
0.0
 48
0.0
 49
0.0
140
0.0
141
0.0
142
1.0
143
1.0
 70
   688
 72
     1
 73
     0
 74
     5
  7

 75
    16
147
1.0
148
0.0
149
0.0
100
AcDbLayout
  1
Layout2
 70
     1
 71
     2
 10
0.0
 20
0.0
 11
0.0
 21
0.0
 12
0.0
 22
0.0
 32
0.0
 14
0.0
 24
0.0
 34
0.0
 15
0.0
 25
0.0
 35
0.0
146
0.0
 13
0.0
 23
0.0
 33
0.0
 16
1.0
 26
0.0
 36
0.0
 17
0.0
 27
1.0
 37
0.0
 76
     0
330
23
  0
LAYOUT
  5
22
102
{ACAD_REACTORS
330
1A
102
}
330
1A
100
AcDbPlotSettings
  1

  2
none_device
  4
Letter_(8.50_x_11.00_Inches)
  6

 40
6.35
 41
6.35
 42
6.35000508
 43
6.35000508
 44
215.9
 45
279.4
 46
0.0
 47
0.0
 48
0.0
 49
0.0
140
0.0
141
0.0
142
1.0
143
1.0
 70
  1712
 72
     1
 73
     0
 74
     0
  7

 75
     0
147
1.0
148
0.0
149
0.0
100
AcDbLayout
  1
Model
 70
     1
 71
     0
 10
0.0
 20
0.0
 11
297.0
 21
210.0
 12
0.0
 22
0.0
 32
0.0
 14
0.0
 24
0.0
 34
0.0
 15
297.0
 25
210.0
 35
0.0
146
0.0
 13
0.0
 23
0.0
 33
0.0
 16
1.0
 26
0.0
 36
0.0
 17
0.0
 27
1.0
 37
0.0
 76
     0
330
1F
331
29
  0
MLINESTYLE
  5
18
102
{ACAD_REACTORS
330
17
102
}
330
17
100
AcDbMlineStyle
  2
Standard
 70
     0
  3

 62
   256
 51
90.0
 52
90.0
 71
     2
 49
0.5
 62
   256
  6
BYLAYER
 49
-0.5
 62
   256
  6
BYLAYER
  0
ACDBPLACEHOLDER
  5
F
102
{ACAD_REACTORS
330
E
102
}
330
E
  0
SCALE
  5
48
102
{ACAD_REACTORS
330
47
102
}
330
47
100
AcDbScale
 70
     0
300
1:1
140
1.0
141
1.0
290
     1
  0
SCALE
  5
49
102
{ACAD_REACTORS
330
47
102
}
330
47
100
AcDbScale
 70
     0
300
1:2
140
1.0
141
2.0
290
     0
  0
SCALE
  5
4A
102
{ACAD_REACTORS
330
47
102
}
330
47
100
AcDbScale
 70
     0
300
1:4
140
1.0
141
4.0
290
     0
  0
SCALE
  5
4B
102
{ACAD_REACTORS
330
47
102
}
330
47
100
AcDbScale
 70
     0
300
1:5
140
1.0
141
5.0
290
     0
  0
SCALE
  5
4C
102
{ACAD_REACTORS
330
47
102
}
330
47
100
AcDbScale
 70
     0
300
1:8
140
1.0
141
8.0
290
     0
  0
SCALE
  5
4D
102
{ACAD_REACTORS
330
47
102
}
330
47
100
AcDbScale
 70
     0
300
1:10
140
1.0
141
10.0
290
     0
  0
SCALE
  5
4E
102
{ACAD_REACTORS
330
47
102
}
330
47
100
AcDbScale
 70
     0
300
1:16
140
1.0
141
16.0
290
     0
  0
SCALE
  5
4F
102
{ACAD_REACTORS
330
47
102
}
330
47
100
AcDbScale
 70
     0
300
1:20
140
1.0
141
20.0
290
     0
  0
SCALE
  5
50
102
{ACAD_REACTORS
330
47
102
}
330
47
100
AcDbScale
 70
     0
300
1:30
140
1.0
141
30.0
290
     0
  0
SCALE
  5
51
102
{ACAD_REACTORS
330
47
102
}
330
47
100
AcDbScale
 70
     0
300
1:40
140
1.0
141
40.0
290
     0
  0
SCALE
  5
52
102
{ACAD_REACTORS
330
47
102
}
330
47
100
AcDbScale
 70
     0
300
1:50
140
1.0
141
50.0
290
     0
  0
SCALE
  5
53
102
{ACAD_REACTORS
330
47
102
}
330
47
100
AcDbScale
 70
     0
300
1:100
140
1.0
141
100.0
290
     0
  0
SCALE
  5
54
102
{ACAD_REACTORS
330
47
102
}
330
47
100
AcDbScale
 70
     0
300
2:1
140
2.0
141
1.0
290
     0
  0
SCALE
  5
55
102
{ACAD_REACTORS
330
47
102
}
330
47
100
AcDbScale
 70
     0
300
4:1
140
4.0
141
1.0
290
     0
  0
SCALE
  5
56
102
{ACAD_REACTORS
330
47
102
}
330
47
100
AcDbScale
 70
     0
300
8:1
140
8.0
141
1.0
290
     0
  0
SCALE
  5
57
102
{ACAD_REACTORS
330
47
102
}
330
47
100
AcDbScale
 70
     0
300
10:1
140
10.0
141
1.0
290
     0
  0
SCALE
  5
58
102
{ACAD_REACTORS
330
47
102
}
330
47
100
AcDbScale
 70
     0
300
100:1
140
100.0
141
1.0
290
     0
  0
SCALE
  5
59
102
{ACAD_REACTORS
330
47
102
}
330
47
100
AcDbScale
 70
     0
300
1/128" = 1'-0"
140
0.0078125
141
12.0
290
     0
  0
SCALE
  5
5A
102
{ACAD_REACTORS
330
47
102
}
330
47
100
AcDbScale
 70
     0
300
1/64" = 1'-0"
140
0.015625
141
12.0
290
     0
  0
SCALE
  5
5B
102
{ACAD_REACTORS
330
47
102
}
330
47
100
AcDbScale
 70
     0
300
1/32" = 1'-0"
140
0.03125
141
12.0
290
     0
  0
SCALE
  5
5C
102
{ACAD_REACTORS
330
47
102
}
330
47
100
AcDbScale
 70
     0
300
1/16" = 1'-0"
140
0.0625
141
12.0
290
     0
  0
SCALE
  5
5D
102
{ACAD_REACTORS
330
47
102
}
330
47
100
AcDbScale
 70
     0
300
3/32" = 1'-0"
140
0.09375
141
12.0
290
     0
  0
SCALE
  5
5E
102
{ACAD_REACTORS
330
47
102
}
330
47
100
AcDbScale
 70
     0
300
1/8" = 1'-0"
140
0.125
141
12.0
290
     0
  0
SCALE
  5
5F
102
{ACAD_REACTORS
330
47
102
}
330
47
100
AcDbScale
 70
     0
300
3/16" = 1'-0"
140
0.1875
141
12.0
290
     0
  0
SCALE
  5
60
102
{ACAD_REACTORS
330
47
102
}
330
47
100
AcDbScale
 70
     0
300
1/4" = 1'-0"
140
0.25
141
12.0
290
     0
  0
SCALE
  5
61
102
{ACAD_REACTORS
330
47
102
}
330
47
100
AcDbScale
 70
     0
300
3/8" = 1'-0"
140
0.375
141
12.0
290
     0
  0
SCALE
  5
62
102
{ACAD_REACTORS
330
47
102
}
330
47
100
AcDbScale
 70
     0
300
1/2" = 1'-0"
140
0.5
141
12.0
290
     0
  0
SCALE
  5
63
102
{ACAD_REACTORS
330
47
102
}
330
47
100
AcDbScale
 70
     0
300
3/4" = 1'-0"
140
0.75
141
12.0
290
     0
  0
SCALE
  5
64
102
{ACAD_REACTORS
330
47
102
}
330
47
100
AcDbScale
 70
     0
300
1" = 1'-0"
140
1.0
141
12.0
290
     0
  0
SCALE
  5
65
102
{ACAD_REACTORS
330
47
102
}
330
47
100
AcDbScale
 70
     0
300
1-1/2" = 1'-0"
140
1.5
141
12.0
290
     0
  0
SCALE
  5
66
102
{ACAD_REACTORS
330
47
102
}
330
47
100
AcDbScale
 70
     0
300
3" = 1'-0"
140
3.0
141
12.0
290
     0
  0
SCALE
  5
67
102
{ACAD_REACTORS
330
47
102
}
330
47
100
AcDbScale
 70
     0
300
6" = 1'-0"
140
6.0
141
12.0
290
     0
  0
SCALE
  5
68
102
{ACAD_REACTORS
330
47
102
}
330
47
100
AcDbScale
 70
     0
300
1'-0" = 1'-0"
140
12.0
141
12.0
290
     0
  0
ENDSEC
  0
EOF
