  0
SECTION
  2
HEADER
  9
$ACADVER
  1
AC1015
  9
$ACADMAINTVER
 70
     6
  9
$DWGCODEPAGE
  3
ANSI_1252
  9
$INSBASE
 10
0.0
 20
0.0
 30
0.0
  9
$EXTMIN
 10
0.0
 20
0.0
 30
0.0
  9
$EXTMAX
 10
297.0
 20
210.0
 30
0.0
  9
$LIMMIN
 10
0.0
 20
0.0
  9
$LIMMAX
 10
297.0
 20
210.0
  9
$ORTHOMODE
 70
     0
  9
$REGENMODE
 70
     1
  9
$FILLMODE
 70
     1
  9
$QTEXTMODE
 70
     0
  9
$MIRRTEXT
 70
     1
  9
$LTSCALE
 40
1.0
  9
$ATTMODE
 70
     1
  9
$TEXTSIZE
 40
2.0
  9
$TRACEWID
 40
1.0
  9
$TEXTSTYLE
  7
Standard
  9
$CLAYER
  8
0
  9
$CELTYPE
  6
ByLayer
  9
$CECOLOR
 62
   256
  9
$CELTSCALE
 40
1.0
  9
$DISPSILH
 70
     0
  9
$DIMSCALE
 40
1.0
  9
$DIMASZ
 40
3.0
  9
$DIMEXO
 40
0.0
  9
$DIMDLI
 40
3.75
  9
$DIMRND
 40
0.0
  9
$DIMDLE
 40
0.0
  9
$DIMEXE
 40
1.0
  9
$DIMTP
 40
0.0
  9
$DIMTM
 40
0.0
  9
$DIMTXT
 40
2.0
  9
$DIMCEN
 40
2.5
  9
$DIMTSZ
 40
0.0
  9
$DIMTOL
 70
     0
  9
$DIMLIM
 70
     0
  9
$DIMTIH
 70
     1
  9
$DIMTOH
 70
     1
  9
$DIMSE1
 70
     0
  9
$DIMSE2
 70
     0
  9
$DIMTAD
 70
     1
  9
$DIMZIN
 70
     0
  9
$DIMBLK
  1

  9
$DIMASO
 70
     1
  9
$DIMSHO
 70
     1
  9
$DIMPOST
  1

  9
$DIMAPOST
  1

  9
$DIMALT
 70
     0
  9
$DIMALTD
 70
     3
  9
$DIMALTF
 40
0.0393700787
  9
$DIMLFAC
 40
1.0
  9
$DIMTOFL
 70
     1
  9
$DIMTVP
 40
0.0
  9
$DIMTIX
 70
     0
  9
$DIMSOXD
 70
     0
  9
$DIMSAH
 70
     0
  9
$DIMBLK1
  1

  9
$DIMBLK2
  1

  9
$DIMSTYLE
  2
ISO-25
  9
$DIMCLRD
 70
     0
  9
$DIMCLRE
 70
     0
  9
$DIMCLRT
 70
     0
  9
$DIMTFAC
 40
1.0
  9
$DIMGAP
 40
1.524
  9
$DIMJUST
 70
     0
  9
$DIMSD1
 70
     0
  9
$DIMSD2
 70
     0
  9
$DIMTOLJ
 70
     0
  9
$DIMTZIN
 70
     0
  9
$DIMALTZ
 70
     0
  9
$DIMALTTZ
 70
     0
  9
$DIMUPT
 70
     0
  9
$DIMDEC
 70
     2
  9
$DIMTDEC
 70
     3
  9
$DIMALTU
 70
     2
  9
$DIMALTTD
 70
     3
  9
$DIMTXSTY
  7
Standard
  9
$DIMAUNIT
 70
     0
  9
$DIMADEC
 70
     2
  9
$DIMALTRND
 40
0.0
  9
$DIMAZIN
 70
     0
  9
$DIMDSEP
 70
    44
  9
$DIMATFIT
 70
     3
  9
$DIMFRAC
 70
     0
  9
$DIMLDRBLK
  1

  9
$DIMLUNIT
 70
     2
  9
$DIMLWD
 70
    -2
  9
$DIMLWE
 70
    -2
  9
$DIMTMOVE
 70
     0
  9
$LUNITS
 70
     2
  9
$LUPREC
 70
     2
  9
$SKETCHINC
 40
1.0
  9
$FILLETRAD
 40
10.0
  9
$AUNITS
 70
     0
  9
$AUPREC
 70
     2
  9
$MENU
  1
.
  9
$ELEVATION
 40
0.0
  9
$PELEVATION
 40
0.0
  9
$THICKNESS
 40
0.0
  9
$LIMCHECK
 70
     0
  9
$CHAMFERA
 40
0.0
  9
$CHAMFERB
 40
0.0
  9
$CHAMFERC
 40
0.0
  9
$CHAMFERD
 40
0.0
  9
$SKPOLY
 70
     0
  9
$TDCREATE
 40
2458135.42910956
  9
$TDUCREATE
 40
2458135.387442893
  9
$TDUPDATE
 40
2458135.429111389
  9
$TDUUPDATE
 40
2458135.387444722
  9
$TDINDWG
 40
0.0000000116
  9
$TDUSRTIMER
 40
0.0000000116
  9
$USRTIMER
 70
     1
  9
$ANGBASE
 50
0.0
  9
$ANGDIR
 70
     0
  9
$PDMODE
 70
     0
  9
$PDSIZE
 40
-1.0
  9
$PLINEWID
 40
0.0
  9
$SPLFRAME
 70
     0
  9
$SPLINETYPE
 70
     6
  9
$SPLINESEGS
 70
     8
  9
$HANDSEED
  5
292
  9
$SURFTAB1
 70
     6
  9
$SURFTAB2
 70
     6
  9
$SURFTYPE
 70
     6
  9
$SURFU
 70
     6
  9
$SURFV
 70
     6
  9
$UCSBASE
  2

  9
$UCSNAME
  2

  9
$UCSORG
 10
0.0
 20
0.0
 30
0.0
  9
$UCSXDIR
 10
1.0
 20
0.0
 30
0.0
  9
$UCSYDIR
 10
0.0
 20
1.0
 30
0.0
  9
$UCSORTHOREF
  2

  9
$UCSORTHOVIEW
 70
     0
  9
$UCSORGTOP
 10
0.0
 20
0.0
 30
0.0
  9
$UCSORGBOTTOM
 10
0.0
 20
0.0
 30
0.0
  9
$UCSORGLEFT
 10
0.0
 20
0.0
 30
0.0
  9
$UCSORGRIGHT
 10
0.0
 20
0.0
 30
0.0
  9
$UCSORGFRONT
 10
0.0
 20
0.0
 30
0.0
  9
$UCSORGBACK
 10
0.0
 20
0.0
 30
0.0
  9
$PUCSBASE
  2

  9
$PUCSNAME
  2

  9
$PUCSORG
 10
0.0
 20
0.0
 30
0.0
  9
$PUCSXDIR
 10
1.0
 20
0.0
 30
0.0
  9
$PUCSYDIR
 10
0.0
 20
1.0
 30
0.0
  9
$PUCSORTHOREF
  2

  9
$PUCSORTHOVIEW
 70
     0
  9
$PUCSORGTOP
 10
0.0
 20
0.0
 30
0.0
  9
$PUCSORGBOTTOM
 10
0.0
 20
0.0
 30
0.0
  9
$PUCSORGLEFT
 10
0.0
 20
0.0
 30
0.0
  9
$PUCSORGRIGHT
 10
0.0
 20
0.0
 30
0.0
  9
$PUCSORGFRONT
 10
0.0
 20
0.0
 30
0.0
  9
$PUCSORGBACK
 10
0.0
 20
0.0
 30
0.0
  9
$USERI1
 70
     0
  9
$USERI2
 70
     0
  9
$USERI3
 70
     0
  9
$USERI4
 70
     0
  9
$USERI5
 70
     0
  9
$USERR1
 40
0.0
  9
$USERR2
 40
0.0
  9
$USERR3
 40
0.0
  9
$USERR4
 40
0.0
  9
$USERR5
 40
0.0
  9
$WORLDVIEW
 70
     1
  9
$SHADEDGE
 70
     3
  9
$SHADEDIF
 70
    70
  9
$TILEMODE
 70
     1
  9
$MAXACTVP
 70
    64
  9
$PINSBASE
 10
0.0
 20
0.0
 30
0.0
  9
$PLIMCHECK
 70
     0
  9
$PEXTMIN
 10
1.0000000000E+20
 20
1.0000000000E+20
 30
1.0000000000E+20
  9
$PEXTMAX
 10
-1.0000000000E+20
 20
-1.0000000000E+20
 30
-1.0000000000E+20
  9
$PLIMMIN
 10
0.0
 20
0.0
  9
$PLIMMAX
 10
420.0
 20
297.0
  9
$UNITMODE
 70
     0
  9
$VISRETAIN
 70
     1
  9
$PLINEGEN
 70
     0
  9
$PSLTSCALE
 70
     1
  9
$TREEDEPTH
 70
  3020
  9
$CMLSTYLE
  2
Standard
  9
$CMLJUST
 70
     0
  9
$CMLSCALE
 40
20.0
  9
$PROXYGRAPHICS
 70
     1
  9
$MEASUREMENT
 70
     1
  9
$CELWEIGHT
370
    -1
  9
$ENDCAPS
280
     0
  9
$JOINSTYLE
280
     0
  9
$LWDISPLAY
290
     1
  9
$INSUNITS
 70
     4
  9
$HYPERLINKBASE
  1

  9
$STYLESHEET
  1

  9
$XEDIT
290
     1
  9
$CEPSNTYPE
380
     0
  9
$PSTYLEMODE
290
     1
  9
$FINGERPRINTGUID
  2
{3471318E-0C69-4432-8926-FBE8C70F0C4C}
  9
$VERSIONGUID
  2
{FAEB1C32-E019-11D5-929B-00C0DF256EC4}
  9
$EXTNAMES
290
     1
  9
$PSVPSCALE
 40
0.0
  9
$OLESTARTUP
290
     0
  0
ENDSEC
  0
SECTION
  2
CLASSES
  0
CLASS
  1
ACDBDICTIONARYWDFLT
  2
AcDbDictionaryWithDefault
  3
ObjectDBX Classes
 90
        0
280
     0
281
     0
  0
CLASS
  1
VISUALSTYLE
  2
AcDbVisualStyle
  3
ObjectDBX Classes
 90
     4095
280
     0
281
     0
  0
CLASS
  1
MATERIAL
  2
AcDbMaterial
  3
ObjectDBX Classes
 90
     1153
280
     0
281
     0
  0
CLASS
  1
SCALE
  2
AcDbScale
  3
ObjectDBX Classes
 90
     1153
280
     0
281
     0
  0
CLASS
  1
TABLESTYLE
  2
AcDbTableStyle
  3
ObjectDBX Classes
 90
     4095
280
     0
281
     0
  0
CLASS
  1
MLEADERSTYLE
  2
AcDbMLeaderStyle
  3
ACDB_MLEADERSTYLE_CLASS
 90
     4095
280
     0
281
     0
  0
CLASS
  1
SUN
  2
AcDbSun
  3
SCENEOE
 90
     1153
280
     0
281
     0
  0
CLASS
  1
ACDBPLACEHOLDER
  2
AcDbPlaceHolder
  3
ObjectDBX Classes
 90
        0
280
     0
281
     0
  0
CLASS
  1
LAYOUT
  2
AcDbLayout
  3
ObjectDBX Classes
 90
        0
280
     0
281
     0
  0
ENDSEC
  0
SECTION
  2
TABLES
  0
TABLE
  2
VPORT
  5
8
330
0
100
AcDbSymbolTable
 70
     1
  0
VPORT
  5
29
330
8
100
AcDbSymbolTableRecord
100
AcDbViewportTableRecord
  2
*Active
 70
     0
 10
0.0
 20
0.0
 11
1.0
 21
1.0
 12
148.5
 22
105.0
 13
0.0
 23
0.0
 14
10.0
 24
10.0
 15
10.0
 25
10.0
 16
0.0
 26
0.0
 36
1.0
 17
0.0
 27
0.0
 37
0.0
 40
210.0
 41
1.4142857143
 42
50.0
 43
0.0
 44
0.0
 50
0.0
 51
0.0
 71
     0
 72
  2000
 73
     1
 74
     3
 75
     0
 76
     0
 77
     0
 78
     0
281
     0
 65
     1
110
0.0
120
0.0
130
0.0
111
1.0
121
0.0
131
0.0
112
0.0
122
1.0
132
0.0
 79
     0
146
0.0
  0
ENDTAB
  0
TABLE
  2
LTYPE
  5
5
330
0
100
AcDbSymbolTable
 70
     6
  0
LTYPE
  5
14
330
5
100
AcDbSymbolTableRecord
100
AcDbLinetypeTableRecord
  2
ByBlock
 70
     0
  3

 72
    65
 73
     0
 40
0.0
  0
LTYPE
  5
15
330
5
100
AcDbSymbolTableRecord
100
AcDbLinetypeTableRecord
  2
ByLayer
 70
     0
  3

 72
    65
 73
     0
 40
0.0
  0
LTYPE
  5
16
330
5
100
AcDbSymbolTableRecord
100
AcDbLinetypeTableRecord
  2
Continuous
 70
     0
  3
Solid line
 72
    65
 73
     0
 40
0.0
  0
LTYPE
  5
6E
330
5
100
AcDbSymbolTableRecord
100
AcDbLinetypeTableRecord
  2
HIDDEN
 70
     0
  3
Hidden __ __ __ __ __ __ __ __ __ __ __ __ __ __
 72
    65
 73
     2
 40
1.905
 49
1.27
 74
     0
 49
-0.635
 74
     0
  0
LTYPE
  5
6F
330
5
100
AcDbSymbolTableRecord
100
AcDbLinetypeTableRecord
  2
PHANTOM
 70
     0
  3
Phantom ______  __  __  ______  __  __  ______
 72
    65
 73
     6
 40
12.7
 49
6.35
 74
     0
 49
-1.27
 74
     0
 49
1.27
 74
     0
 49
-1.27
 74
     0
 49
1.27
 74
     0
 49
-1.27
 74
     0
  0
LTYPE
  5
70
330
5
100
AcDbSymbolTableRecord
100
AcDbLinetypeTableRecord
  2
CENTER
 70
     0
  3
Center ____ _ ____ _ ____ _ ____ _ ____ _ ____
 72
    65
 73
     4
 40
10.16
 49
6.35
 74
     0
 49
-1.27
 74
     0
 49
1.27
 74
     0
 49
-1.27
 74
     0
  0
LTYPE
  5
71
330
5
100
AcDbSymbolTableRecord
100
AcDbLinetypeTableRecord
  2
CENTERX2
 70
     0
  3
Center (2x) ________  __  ________  __  _____
 72
    65
 73
     4
 40
20.32
 49
12.7
 74
     0
 49
-2.54
 74
     0
 49
2.54
 74
     0
 49
-2.54
 74
     0
  0
LTYPE
  5
72
330
5
100
AcDbSymbolTableRecord
100
AcDbLinetypeTableRecord
  2
DOT2
 70
     0
  3
Dot (.5x) ........................................
 72
    65
 73
     2
 40
0.635
 49
0.0
 74
     0
 49
-0.635
 74
     0
  0
ENDTAB
  0
TABLE
  2
LAYER
  5
2
330
0
100
AcDbSymbolTable
 70
     5
  0
LAYER
  5
10
330
2
100
AcDbSymbolTableRecord
100
AcDbLayerTableRecord
  2
0
 70
     0
 62
     7
  6
Continuous
370
    -3
390
F
  0
LAYER
  5
73
330
2
100
AcDbSymbolTableRecord
100
AcDbLayerTableRecord
  2
FORMAT
 70
     0
 62
     7
  6
Continuous
370
    -3
390
F
  0
LAYER
  5
74
330
2
100
AcDbSymbolTableRecord
100
AcDbLayerTableRecord
  2
VERMASSUNG
 70
     0
 62
     7
  6
Continuous
370
    -3
390
F
  0
LAYER
  5
75
330
2
100
AcDbSymbolTableRecord
100
AcDbLayerTableRecord
  2
KOPF_DÜNN
 70
     0
 62
     7
  6
Continuous
370
    -3
390
F
  0
LAYER
  5
76
330
2
100
AcDbSymbolTableRecord
100
AcDbLayerTableRecord
  2
KOPF_DICK
 70
     0
 62
     7
  6
Continuous
370
    25
390
F
  0
ENDTAB
  0
TABLE
  2
STYLE
  5
3
330
0
100
AcDbSymbolTable
 70
     2
  0
STYLE
  5
11
330
3
100
AcDbSymbolTableRecord
100
AcDbTextStyleTableRecord
  2
Standard
 70
     0
 40
0.0
 41
1.0
 50
0.0
 71
     0
 42
2.0
  3
txt
  4

  0
STYLE
  5
77
330
3
100
AcDbSymbolTableRecord
100
AcDbTextStyleTableRecord
  2
SLDTEXTSTYLE0
 70
     0
 40
0.0
 41
0.7
 50
0.0
 71
     0
 42
2.0
  3
TXT
  4

  0
ENDTAB
  0
TABLE
  2
VIEW
  5
6
330
0
100
AcDbSymbolTable
 70
     0
  0
ENDTAB
  0
TABLE
  2
UCS
  5
7
330
0
100
AcDbSymbolTable
 70
     0
  0
ENDTAB
  0
TABLE
  2
APPID
  5
9
330
0
100
AcDbSymbolTable
 70
     1
  0
APPID
  5
12
330
9
100
AcDbSymbolTableRecord
100
AcDbRegAppTableRecord
  2
ACAD
 70
     0
  0
ENDTAB
  0
TABLE
  2
DIMSTYLE
  5
A
330
0
100
AcDbSymbolTable
 70
     3
100
AcDbDimStyleTable
  0
DIMSTYLE
105
27
330
A
100
AcDbSymbolTableRecord
100
AcDbDimStyleTableRecord
  2
ISO-25
 70
     0
 41
2.5
 42
0.625
 43
3.75
 44
1.25
 73
     0
 74
     0
 77
     1
 78
     8
140
2.5
141
2.5
143
0.0393700787
147
0.625
171
     3
172
     1
178
     0
271
     2
272
     2
274
     3
278
    44
283
     0
284
     8
340
11
  0
DIMSTYLE
105
19A
102
{ACAD_REACTORS
330
199
330
1A6
330
1B1
330
1BB
330
1C5
330
1CF
330
1DB
102
}
330
A
100
AcDbSymbolTableRecord
100
AcDbDimStyleTableRecord
  2
SLDDIMSTYLE0
 70
     0
 41
3.0
 44
0.0
 45
0.000000001
 73
     0
 74
     0
 77
     1
 78
    12
 79
     3
140
2.0
147
0.5
173
     1
178
     0
271
     2
272
     3
276
     2
284
    12
340
77
  0
DIMSTYLE
105
1E7
102
{ACAD_REACTORS
330
1E6
102
}
330
A
100
AcDbSymbolTableRecord
100
AcDbDimStyleTableRecord
  2
SLDDIMSTYLE1
 70
     0
 41
3.0
 44
0.0
 45
0.000000001
 73
     0
 74
     0
 77
     1
 78
    12
 79
     3
140
2.0
141
0.0
147
0.5
173
     1
178
     0
271
     2
272
     3
276
     2
279
     1
284
    12
340
77
  0
ENDTAB
  0
TABLE
  2
BLOCK_RECORD
  5
1
330
0
100
AcDbSymbolTable
 70
    12
  0
BLOCK_RECORD
  5
1F
330
1
100
AcDbSymbolTableRecord
100
AcDbBlockTableRecord
  2
*Model_Space
340
22
  0
BLOCK_RECORD
  5
1B
330
1
100
AcDbSymbolTableRecord
100
AcDbBlockTableRecord
  2
*Paper_Space
340
1E
  0
BLOCK_RECORD
  5
23
330
1
100
AcDbSymbolTableRecord
100
AcDbBlockTableRecord
  2
*Paper_Space0
340
26
  0
BLOCK_RECORD
  5
19B
330
1
100
AcDbSymbolTableRecord
100
AcDbBlockTableRecord
  2
_D
340
0
  0
BLOCK_RECORD
  5
1A7
330
1
100
AcDbSymbolTableRecord
100
AcDbBlockTableRecord
  2
_D_1
340
0
  0
BLOCK_RECORD
  5
1B2
330
1
100
AcDbSymbolTableRecord
100
AcDbBlockTableRecord
  2
_D_2
340
0
  0
BLOCK_RECORD
  5
1BC
330
1
100
AcDbSymbolTableRecord
100
AcDbBlockTableRecord
  2
_D_3
340
0
  0
BLOCK_RECORD
  5
1C6
330
1
100
AcDbSymbolTableRecord
100
AcDbBlockTableRecord
  2
_D_4
340
0
  0
BLOCK_RECORD
  5
1D0
330
1
100
AcDbSymbolTableRecord
100
AcDbBlockTableRecord
  2
_D_5
340
0
  0
BLOCK_RECORD
  5
1DC
330
1
100
AcDbSymbolTableRecord
100
AcDbBlockTableRecord
  2
_D_6
340
0
  0
BLOCK_RECORD
  5
1E8
330
1
100
AcDbSymbolTableRecord
100
AcDbBlockTableRecord
  2
_D_7
340
0
  0
BLOCK_RECORD
  5
1EE
330
1
100
AcDbSymbolTableRecord
100
AcDbBlockTableRecord
  2
SW_CENTERMARKSYMBOL_0
340
0
102
{BLKREFS
331
1F9
102
}
  0
BLOCK_RECORD
  5
1FA
330
1
100
AcDbSymbolTableRecord
100
AcDbBlockTableRecord
  2
SW_CENTERMARKSYMBOL_1
340
0
102
{BLKREFS
331
205
102
}
  0
BLOCK_RECORD
  5
21E
330
1
100
AcDbSymbolTableRecord
100
AcDbBlockTableRecord
  2
SW_CENTERMARKSYMBOL_2
340
0
102
{BLKREFS
331
229
102
}
  0
ENDTAB
  0
ENDSEC
  0
SECTION
  2
BLOCKS
  0
BLOCK
  5
20
330
1F
100
AcDbEntity
  8
0
100
AcDbBlockBegin
  2
*Model_Space
 70
     0
 10
0.0
 20
0.0
 30
0.0
  3
*Model_Space
  1

  0
ENDBLK
  5
21
330
1F
100
AcDbEntity
  8
0
100
AcDbBlockEnd
  0
BLOCK
  5
1C
330
1B
100
AcDbEntity
 67
     1
  8
0
100
AcDbBlockBegin
  2
*Paper_Space
 70
     0
 10
0.0
 20
0.0
 30
0.0
  3
*Paper_Space
  1

  0
ENDBLK
  5
1D
330
1B
100
AcDbEntity
 67
     1
  8
0
100
AcDbBlockEnd
  0
BLOCK
  5
24
330
23
100
AcDbEntity
  8
0
100
AcDbBlockBegin
  2
*Paper_Space0
 70
     0
 10
0.0
 20
0.0
 30
0.0
  3
*Paper_Space0
  1

  0
ENDBLK
  5
25
330
23
100
AcDbEntity
  8
0
100
AcDbBlockEnd
  0
BLOCK
  5
19C
330
19B
100
AcDbEntity
  8
0
100
AcDbBlockBegin
  2
_D
 70
     0
 10
0.0
 20
0.0
 30
0.0
  3
_D
  1

  0
SOLID
  5
19E
330
19B
100
AcDbEntity
  8
VERMASSUNG
100
AcDbTrace
 10
130.4232709915
 20
158.7976420279
 30
0.0
 11
129.9732709915
 21
155.7976420279
 31
0.0
 12
130.8732709915
 22
155.7976420279
 32
0.0
 13
130.8732709915
 23
155.7976420279
 33
0.0
  0
SOLID
  5
19F
330
19B
100
AcDbEntity
  8
VERMASSUNG
100
AcDbTrace
 10
130.4232709915
 20
95.7976420279
 30
0.0
 11
130.8732709915
 21
98.7976420279
 31
0.0
 12
129.9732709915
 22
98.7976420279
 32
0.0
 13
129.9732709915
 23
98.7976420279
 33
0.0
  0
LINE
  5
1A0
330
19B
100
AcDbEntity
  8
VERMASSUNG
100
AcDbLine
 10
178.9232709915
 20
158.7976420279
 30
0.0
 11
129.4232709915
 21
158.7976420279
 31
0.0
  0
LINE
  5
1A1
330
19B
100
AcDbEntity
  8
VERMASSUNG
100
AcDbLine
 10
178.9232709915
 20
95.7976420279
 30
0.0
 11
129.4232709915
 21
95.7976420279
 31
0.0
  0
LINE
  5
1A2
330
19B
100
AcDbEntity
  8
VERMASSUNG
100
AcDbLine
 10
130.4232709915
 20
158.7976420279
 30
0.0
 11
130.4232709915
 21
95.7976420279
 31
0.0
  0
MTEXT
  5
1A3
330
19B
100
AcDbEntity
  8
VERMASSUNG
100
AcDbMText
 10
127.6451357353
 20
121.1948502684
 30
0.0
 40
2.0
 41
0.0
 71
     1
 72
     1
  1
PSC
  7
SLDTEXTSTYLE0
 11
-7.044195017643634E-15
 21
1.0
 31
0.0
 73
     1
 44
1.0
  0
MTEXT
  5
1A4
330
19B
100
AcDbEntity
  8
VERMASSUNG
100
AcDbMText
 10
127.8451356865
 20
126.9948501947
 30
0.0
 40
2.0
 41
0.0
 71
     1
 72
     1
  1
%%c
  7
SLDTEXTSTYLE0
 11
-7.044195017643634E-15
 21
1.0
 31
0.0
 73
     1
 44
1.0
  0
MTEXT
  5
1A5
330
19B
100
AcDbEntity
  8
VERMASSUNG
100
AcDbMText
 10
127.8451353955
 20
130.6024761036
 30
0.0
 40
2.0
 41
0.0
 71
     1
 72
     1
  1
63
  7
SLDTEXTSTYLE0
 11
-7.044195017643634E-15
 21
1.0
 31
0.0
 73
     1
 44
1.0
  0
ENDBLK
  5
19D
330
19B
100
AcDbEntity
  8
0
100
AcDbBlockEnd
  0
BLOCK
  5
1A8
330
1A7
100
AcDbEntity
  8
0
100
AcDbBlockBegin
  2
_D_1
 70
     0
 10
0.0
 20
0.0
 30
0.0
  3
_D_1
  1

  0
SOLID
  5
1AA
330
1A7
100
AcDbEntity
  8
VERMASSUNG
100
AcDbTrace
 10
260.067955892
 20
137.2976420279
 30
0.0
 11
259.617955892
 21
134.2976420279
 31
0.0
 12
260.517955892
 22
134.2976420279
 32
0.0
 13
260.517955892
 23
134.2976420279
 33
0.0
  0
SOLID
  5
1AB
330
1A7
100
AcDbEntity
  8
VERMASSUNG
100
AcDbTrace
 10
260.067955892
 20
117.2976420279
 30
0.0
 11
260.517955892
 21
120.2976420279
 31
0.0
 12
259.617955892
 22
120.2976420279
 32
0.0
 13
259.617955892
 23
120.2976420279
 33
0.0
  0
LINE
  5
1AC
330
1A7
100
AcDbEntity
  8
VERMASSUNG
100
AcDbLine
 10
247.2232709915
 20
137.2976420279
 30
0.0
 11
261.067955892
 21
137.2976420279
 31
0.0
  0
LINE
  5
1AD
330
1A7
100
AcDbEntity
  8
VERMASSUNG
100
AcDbLine
 10
247.2232709915
 20
117.2976420279
 30
0.0
 11
261.067955892
 21
117.2976420279
 31
0.0
  0
LINE
  5
1AE
330
1A7
100
AcDbEntity
  8
VERMASSUNG
100
AcDbLine
 10
260.067955892
 20
137.2976420279
 30
0.0
 11
260.067955892
 21
117.2976420279
 31
0.0
  0
MTEXT
  5
1AF
330
1A7
100
AcDbEntity
  8
VERMASSUNG
100
AcDbMText
 10
257.4898205871
 20
124.0926420707
 30
0.0
 40
2.0
 41
0.0
 71
     1
 72
     1
  1
%%c
  7
SLDTEXTSTYLE0
 11
-7.044195017643634E-15
 21
1.0
 31
0.0
 73
     1
 44
1.0
  0
MTEXT
  5
1B0
330
1A7
100
AcDbEntity
  8
VERMASSUNG
100
AcDbMText
 10
257.2898206358
 20
127.702642085
 30
0.0
 40
2.0
 41
0.0
 71
     1
 72
     1
  1
20
  7
SLDTEXTSTYLE0
 11
-7.044195017643634E-15
 21
1.0
 31
0.0
 73
     1
 44
1.0
  0
ENDBLK
  5
1A9
330
1A7
100
AcDbEntity
  8
0
100
AcDbBlockEnd
  0
BLOCK
  5
1B3
330
1B2
100
AcDbEntity
  8
0
100
AcDbBlockBegin
  2
_D_2
 70
     0
 10
0.0
 20
0.0
 30
0.0
  3
_D_2
  1

  0
SOLID
  5
1B5
330
1B2
100
AcDbEntity
  8
VERMASSUNG
100
AcDbTrace
 10
178.4232709915
 20
178.2287305122
 30
0.0
 11
181.4232709915
 21
177.7787305122
 31
0.0
 12
181.4232709915
 22
178.6787305122
 32
0.0
 13
181.4232709915
 23
178.6787305122
 33
0.0
  0
SOLID
  5
1B6
330
1B2
100
AcDbEntity
  8
VERMASSUNG
100
AcDbTrace
 10
248.4232709915
 20
178.2287305122
 30
0.0
 11
245.4232709915
 21
178.6787305122
 31
0.0
 12
245.4232709915
 22
177.7787305122
 32
0.0
 13
245.4232709915
 23
177.7787305122
 33
0.0
  0
LINE
  5
1B7
330
1B2
100
AcDbEntity
  8
VERMASSUNG
100
AcDbLine
 10
178.4232709915
 20
158.2976420279
 30
0.0
 11
178.4232709915
 21
179.2287305122
 31
0.0
  0
LINE
  5
1B8
330
1B2
100
AcDbEntity
  8
VERMASSUNG
100
AcDbLine
 10
248.4232709915
 20
146.2976420279
 30
0.0
 11
248.4232709915
 21
179.2287305122
 31
0.0
  0
LINE
  5
1B9
330
1B2
100
AcDbEntity
  8
VERMASSUNG
100
AcDbLine
 10
178.4232709915
 20
178.2287305122
 30
0.0
 11
248.4232709915
 21
178.2287305122
 31
0.0
  0
MTEXT
  5
1BA
330
1B2
100
AcDbEntity
  8
VERMASSUNG
100
AcDbMText
 10
212.0232710414
 20
180.8068661082
 30
0.0
 40
2.0
 41
0.0
 71
     1
 72
     1
  1
70
  7
SLDTEXTSTYLE0
 73
     1
 44
1.0
  0
ENDBLK
  5
1B4
330
1B2
100
AcDbEntity
  8
0
100
AcDbBlockEnd
  0
BLOCK
  5
1BD
330
1BC
100
AcDbEntity
  8
0
100
AcDbBlockBegin
  2
_D_3
 70
     0
 10
0.0
 20
0.0
 30
0.0
  3
_D_3
  1

  0
SOLID
  5
1BF
330
1BC
100
AcDbEntity
  8
VERMASSUNG
100
AcDbTrace
 10
195.4232709915
 20
85.7976420279
 30
0.0
 11
198.4232709915
 21
85.3476420279
 31
0.0
 12
198.4232709915
 22
86.2476420279
 32
0.0
 13
198.4232709915
 23
86.2476420279
 33
0.0
  0
SOLID
  5
1C0
330
1BC
100
AcDbEntity
  8
VERMASSUNG
100
AcDbTrace
 10
248.4232709915
 20
85.7976420279
 30
0.0
 11
245.4232709915
 21
86.2476420279
 31
0.0
 12
245.4232709915
 22
85.3476420279
 32
0.0
 13
245.4232709915
 23
85.3476420279
 33
0.0
  0
LINE
  5
1C1
330
1BC
100
AcDbEntity
  8
VERMASSUNG
100
AcDbLine
 10
195.4232709915
 20
117.3976420279
 30
0.0
 11
195.4232709915
 21
84.7976420279
 31
0.0
  0
LINE
  5
1C2
330
1BC
100
AcDbEntity
  8
VERMASSUNG
100
AcDbLine
 10
248.4232709915
 20
108.2976420279
 30
0.0
 11
248.4232709915
 21
84.7976420279
 31
0.0
  0
LINE
  5
1C3
330
1BC
100
AcDbEntity
  8
VERMASSUNG
100
AcDbLine
 10
195.4232709915
 20
85.7976420279
 30
0.0
 11
248.4232709915
 21
85.7976420279
 31
0.0
  0
MTEXT
  5
1C4
330
1BC
100
AcDbEntity
  8
VERMASSUNG
100
AcDbMText
 10
220.5232710414
 20
88.3757776239
 30
0.0
 40
2.0
 41
0.0
 71
     1
 72
     1
  1
53
  7
SLDTEXTSTYLE0
 73
     1
 44
1.0
  0
ENDBLK
  5
1BE
330
1BC
100
AcDbEntity
  8
0
100
AcDbBlockEnd
  0
BLOCK
  5
1C7
330
1C6
100
AcDbEntity
  8
0
100
AcDbBlockBegin
  2
_D_4
 70
     0
 10
0.0
 20
0.0
 30
0.0
  3
_D_4
  1

  0
SOLID
  5
1C9
330
1C6
100
AcDbEntity
  8
VERMASSUNG
100
AcDbTrace
 10
200.4232709915
 20
168.7976420279
 30
0.0
 11
203.4232709915
 21
168.3476420279
 31
0.0
 12
203.4232709915
 22
169.2476420279
 32
0.0
 13
203.4232709915
 23
169.2476420279
 33
0.0
  0
SOLID
  5
1CA
330
1C6
100
AcDbEntity
  8
VERMASSUNG
100
AcDbTrace
 10
248.4232709915
 20
168.7976420279
 30
0.0
 11
245.4232709915
 21
169.2476420279
 31
0.0
 12
245.4232709915
 22
168.3476420279
 32
0.0
 13
245.4232709915
 23
168.3476420279
 33
0.0
  0
LINE
  5
1CB
330
1C6
100
AcDbEntity
  8
VERMASSUNG
100
AcDbLine
 10
200.4232709915
 20
157.7976420279
 30
0.0
 11
200.4232709915
 21
169.7976420279
 31
0.0
  0
LINE
  5
1CC
330
1C6
100
AcDbEntity
  8
VERMASSUNG
100
AcDbLine
 10
248.4232709915
 20
146.2976420279
 30
0.0
 11
248.4232709915
 21
169.7976420279
 31
0.0
  0
LINE
  5
1CD
330
1C6
100
AcDbEntity
  8
VERMASSUNG
100
AcDbLine
 10
200.4232709915
 20
168.7976420279
 30
0.0
 11
248.4232709915
 21
168.7976420279
 31
0.0
  0
MTEXT
  5
1CE
330
1C6
100
AcDbEntity
  8
VERMASSUNG
100
AcDbMText
 10
222.9232709784
 20
171.3757776239
 30
0.0
 40
2.0
 41
0.0
 71
     1
 72
     1
  1
48
  7
SLDTEXTSTYLE0
 73
     1
 44
1.0
  0
ENDBLK
  5
1C8
330
1C6
100
AcDbEntity
  8
0
100
AcDbBlockEnd
  0
BLOCK
  5
1D1
330
1D0
100
AcDbEntity
  8
0
100
AcDbBlockBegin
  2
_D_5
 70
     0
 10
0.0
 20
0.0
 30
0.0
  3
_D_5
  1

  0
ARC
  5
1D3
330
1D0
100
AcDbEntity
  8
VERMASSUNG
100
AcDbCircle
 10
196.3232710526
 20
188.6976422928
 30
0.0
 40
4.24852922888762
100
AcDbArc
 50
153.4349488229
 51
206.5650511771
  0
ARC
  5
1D4
330
1D0
100
AcDbEntity
  8
VERMASSUNG
100
AcDbCircle
 10
192.5232709885
 20
188.6976422928
 30
0.0
 40
4.24852922888762
100
AcDbArc
 50
333.4349488229
 51
26.5650511771
  0
SOLID
  5
1D5
330
1D0
100
AcDbEntity
  8
VERMASSUNG
100
AcDbTrace
 10
140.4232709915
 20
186.7976420279
 30
0.0
 11
143.4232709915
 21
186.3476420279
 31
0.0
 12
143.4232709915
 22
187.2476420279
 32
0.0
 13
143.4232709915
 23
187.2476420279
 33
0.0
  0
SOLID
  5
1D6
330
1D0
100
AcDbEntity
  8
VERMASSUNG
100
AcDbTrace
 10
248.4232709915
 20
186.7976420279
 30
0.0
 11
245.4232709915
 21
187.2476420279
 31
0.0
 12
245.4232709915
 22
186.3476420279
 32
0.0
 13
245.4232709915
 23
186.3476420279
 33
0.0
  0
LINE
  5
1D7
330
1D0
100
AcDbEntity
  8
VERMASSUNG
100
AcDbLine
 10
140.4232709915
 20
147.5899800204
 30
0.0
 11
140.4232709915
 21
187.7976420279
 31
0.0
  0
LINE
  5
1D8
330
1D0
100
AcDbEntity
  8
VERMASSUNG
100
AcDbLine
 10
248.4232709915
 20
146.2976420279
 30
0.0
 11
248.4232709915
 21
187.7976420279
 31
0.0
  0
LINE
  5
1D9
330
1D0
100
AcDbEntity
  8
VERMASSUNG
100
AcDbLine
 10
140.4232709915
 20
186.7976420279
 30
0.0
 11
248.4232709915
 21
186.7976420279
 31
0.0
  0
MTEXT
  5
1DA
330
1D0
100
AcDbEntity
  8
VERMASSUNG
100
AcDbMText
 10
192.5232709885
 20
189.3757778567
 30
0.0
 40
2.0
 41
0.0
 71
     1
 72
     1
  1
108
  7
SLDTEXTSTYLE0
 73
     1
 44
1.0
  0
ENDBLK
  5
1D2
330
1D0
100
AcDbEntity
  8
0
100
AcDbBlockEnd
  0
BLOCK
  5
1DD
330
1DC
100
AcDbEntity
  8
0
100
AcDbBlockBegin
  2
_D_6
 70
     0
 10
0.0
 20
0.0
 30
0.0
  3
_D_6
  1

  0
SOLID
  5
1DF
330
1DC
100
AcDbEntity
  8
VERMASSUNG
100
AcDbTrace
 10
270.4232709915
 20
107.2976420279
 30
0.0
 11
270.8732709915
 21
110.2976420279
 31
0.0
 12
269.9732709915
 22
110.2976420279
 32
0.0
 13
269.9732709915
 23
110.2976420279
 33
0.0
  0
SOLID
  5
1E0
330
1DC
100
AcDbEntity
  8
VERMASSUNG
100
AcDbTrace
 10
270.4232709915
 20
147.2976420279
 30
0.0
 11
269.9732709915
 21
144.2976420279
 31
0.0
 12
270.8732709915
 22
144.2976420279
 32
0.0
 13
270.8732709915
 23
144.2976420279
 33
0.0
  0
LINE
  5
1E1
330
1DC
100
AcDbEntity
  8
VERMASSUNG
100
AcDbLine
 10
247.4232709915
 20
107.2976420279
 30
0.0
 11
271.4232709915
 21
107.2976420279
 31
0.0
  0
LINE
  5
1E2
330
1DC
100
AcDbEntity
  8
VERMASSUNG
100
AcDbLine
 10
247.4232709915
 20
147.2976420279
 30
0.0
 11
271.4232709915
 21
147.2976420279
 31
0.0
  0
LINE
  5
1E3
330
1DC
100
AcDbEntity
  8
VERMASSUNG
100
AcDbLine
 10
270.4232709915
 20
107.2976420279
 30
0.0
 11
270.4232709915
 21
147.2976420279
 31
0.0
  0
MTEXT
  5
1E4
330
1DC
100
AcDbEntity
  8
VERMASSUNG
100
AcDbMText
 10
267.8451356865
 20
123.9926420077
 30
0.0
 40
2.0
 41
0.0
 71
     1
 72
     1
  1
%%c
  7
SLDTEXTSTYLE0
 11
6.123233995736766E-17
 21
1.0
 31
0.0
 73
     1
 44
1.0
  0
MTEXT
  5
1E5
330
1DC
100
AcDbEntity
  8
VERMASSUNG
100
AcDbMText
 10
267.6451357353
 20
127.602642022
 30
0.0
 40
2.0
 41
0.0
 71
     1
 72
     1
  1
40
  7
SLDTEXTSTYLE0
 11
6.123233995736766E-17
 21
1.0
 31
0.0
 73
     1
 44
1.0
  0
ENDBLK
  5
1DE
330
1DC
100
AcDbEntity
  8
0
100
AcDbBlockEnd
  0
BLOCK
  5
1E9
330
1E8
100
AcDbEntity
  8
0
100
AcDbBlockBegin
  2
_D_7
 70
     0
 10
0.0
 20
0.0
 30
0.0
  3
_D_7
  1

  0
SOLID
  5
1EB
330
1E8
100
AcDbEntity
  8
VERMASSUNG
100
AcDbTrace
 10
200.8251947801
 20
148.7976420279
 30
0.0
 11
203.6548847372
 21
149.8909648288
 31
0.0
 12
203.2095713989
 22
150.6730748152
 32
0.0
 13
203.2095713989
 23
150.6730748152
 33
0.0
  0
LINE
  5
1EC
330
1E8
100
AcDbEntity
  8
VERMASSUNG
100
AcDbLine
 10
200.8251947801
 20
148.7976420279
 30
0.0
 11
210.5617355279
 21
154.3413782525
 31
0.0
  0
MTEXT
  5
1ED
330
1E8
100
AcDbEntity
  8
VERMASSUNG
100
AcDbMText
 10
206.674591496
 20
155.07410916
 30
0.0
 40
2.0
 41
0.0
 71
     1
 72
     1
  1
R3
  7
SLDTEXTSTYLE0
 11
0.8660254037844358
 21
0.500000000000005
 31
0.0
 73
     1
 44
1.0
  0
ENDBLK
  5
1EA
330
1E8
100
AcDbEntity
  8
0
100
AcDbBlockEnd
  0
BLOCK
  5
1EF
330
1EE
100
AcDbEntity
  8
0
100
AcDbBlockBegin
  2
SW_CENTERMARKSYMBOL_0
 70
     0
 10
0.0
 20
0.0
 30
0.0
  3
SW_CENTERMARKSYMBOL_0
  1

  0
LINE
  5
1F1
330
1EE
100
AcDbEntity
  8
VERMASSUNG
 62
     0
100
AcDbLine
 10
0.0
 20
0.0
 30
0.0
 11
0.0
 21
2.5
 31
0.0
  0
LINE
  5
1F2
330
1EE
100
AcDbEntity
  8
VERMASSUNG
 62
     0
100
AcDbLine
 10
0.0
 20
0.0
 30
0.0
 11
-2.5
 21
0.0
 31
0.0
  0
LINE
  5
1F3
330
1EE
100
AcDbEntity
  8
VERMASSUNG
 62
     0
100
AcDbLine
 10
0.0
 20
0.0
 30
0.0
 11
0.0
 21
-2.5
 31
0.0
  0
LINE
  5
1F4
330
1EE
100
AcDbEntity
  8
VERMASSUNG
 62
     0
100
AcDbLine
 10
0.0
 20
0.0
 30
0.0
 11
2.5
 21
0.0
 31
0.0
  0
LINE
  5
1F5
330
1EE
100
AcDbEntity
  8
VERMASSUNG
 62
     0
100
AcDbLine
 10
0.0
 20
5.0
 30
0.0
 11
0.0
 21
7.5
 31
0.0
  0
LINE
  5
1F6
330
1EE
100
AcDbEntity
  8
VERMASSUNG
 62
     0
100
AcDbLine
 10
-5.0
 20
0.0
 30
0.0
 11
-7.5
 21
0.0
 31
0.0
  0
LINE
  5
1F7
330
1EE
100
AcDbEntity
  8
VERMASSUNG
 62
     0
100
AcDbLine
 10
0.0
 20
-5.0
 30
0.0
 11
0.0
 21
-7.5
 31
0.0
  0
LINE
  5
1F8
330
1EE
100
AcDbEntity
  8
VERMASSUNG
 62
     0
100
AcDbLine
 10
5.0
 20
0.0
 30
0.0
 11
7.5
 21
0.0
 31
0.0
  0
ENDBLK
  5
1F0
330
1EE
100
AcDbEntity
  8
0
100
AcDbBlockEnd
  0
BLOCK
  5
1FB
330
1FA
100
AcDbEntity
  8
0
100
AcDbBlockBegin
  2
SW_CENTERMARKSYMBOL_1
 70
     0
 10
0.0
 20
0.0
 30
0.0
  3
SW_CENTERMARKSYMBOL_1
  1

  0
LINE
  5
1FD
330
1FA
100
AcDbEntity
  8
VERMASSUNG
 62
     0
100
AcDbLine
 10
0.0
 20
0.0
 30
0.0
 11
0.0
 21
2.5
 31
0.0
  0
LINE
  5
1FE
330
1FA
100
AcDbEntity
  8
VERMASSUNG
 62
     0
100
AcDbLine
 10
0.0
 20
0.0
 30
0.0
 11
-2.5
 21
0.0
 31
0.0
  0
LINE
  5
1FF
330
1FA
100
AcDbEntity
  8
VERMASSUNG
 62
     0
100
AcDbLine
 10
0.0
 20
0.0
 30
0.0
 11
0.0
 21
-2.5
 31
0.0
  0
LINE
  5
200
330
1FA
100
AcDbEntity
  8
VERMASSUNG
 62
     0
100
AcDbLine
 10
0.0
 20
0.0
 30
0.0
 11
2.5
 21
0.0
 31
0.0
  0
LINE
  5
201
330
1FA
100
AcDbEntity
  8
VERMASSUNG
 62
     0
100
AcDbLine
 10
0.0
 20
5.0
 30
0.0
 11
0.0
 21
7.5
 31
0.0
  0
LINE
  5
202
330
1FA
100
AcDbEntity
  8
VERMASSUNG
 62
     0
100
AcDbLine
 10
-5.0
 20
0.0
 30
0.0
 11
-7.5
 21
0.0
 31
0.0
  0
LINE
  5
203
330
1FA
100
AcDbEntity
  8
VERMASSUNG
 62
     0
100
AcDbLine
 10
0.0
 20
-5.0
 30
0.0
 11
0.0
 21
-7.5
 31
0.0
  0
LINE
  5
204
330
1FA
100
AcDbEntity
  8
VERMASSUNG
 62
     0
100
AcDbLine
 10
5.0
 20
0.0
 30
0.0
 11
7.5
 21
0.0
 31
0.0
  0
ENDBLK
  5
1FC
330
1FA
100
AcDbEntity
  8
0
100
AcDbBlockEnd
  0
BLOCK
  5
21F
330
21E
100
AcDbEntity
  8
0
100
AcDbBlockBegin
  2
SW_CENTERMARKSYMBOL_2
 70
     0
 10
0.0
 20
0.0
 30
0.0
  3
SW_CENTERMARKSYMBOL_2
  1

  0
LINE
  5
221
330
21E
100
AcDbEntity
  8
VERMASSUNG
 62
     0
100
AcDbLine
 10
0.0
 20
0.0
 30
0.0
 11
0.0
 21
2.5
 31
0.0
  0
LINE
  5
222
330
21E
100
AcDbEntity
  8
VERMASSUNG
 62
     0
100
AcDbLine
 10
0.0
 20
0.0
 30
0.0
 11
-2.5
 21
0.0
 31
0.0
  0
LINE
  5
223
330
21E
100
AcDbEntity
  8
VERMASSUNG
 62
     0
100
AcDbLine
 10
0.0
 20
0.0
 30
0.0
 11
0.0
 21
-2.5
 31
0.0
  0
LINE
  5
224
330
21E
100
AcDbEntity
  8
VERMASSUNG
 62
     0
100
AcDbLine
 10
0.0
 20
0.0
 30
0.0
 11
2.5
 21
0.0
 31
0.0
  0
LINE
  5
225
330
21E
100
AcDbEntity
  8
VERMASSUNG
 62
     0
100
AcDbLine
 10
0.0
 20
5.0
 30
0.0
 11
0.0
 21
34.0
 31
0.0
  0
LINE
  5
226
330
21E
100
AcDbEntity
  8
VERMASSUNG
 62
     0
100
AcDbLine
 10
-5.0
 20
0.0
 30
0.0
 11
-34.0
 21
0.0
 31
0.0
  0
LINE
  5
227
330
21E
100
AcDbEntity
  8
VERMASSUNG
 62
     0
100
AcDbLine
 10
0.0
 20
-5.0
 30
0.0
 11
0.0
 21
-34.0
 31
0.0
  0
LINE
  5
228
330
21E
100
AcDbEntity
  8
VERMASSUNG
 62
     0
100
AcDbLine
 10
5.0
 20
0.0
 30
0.0
 11
34.0
 21
0.0
 31
0.0
  0
ENDBLK
  5
220
330
21E
100
AcDbEntity
  8
0
100
AcDbBlockEnd
  0
ENDSEC
  0
SECTION
  2
ENTITIES
  0
MTEXT
  5
78
330
1F
100
AcDbEntity
  8
KOPF_DÜNN
100
AcDbMText
 10
13.8892156294
 20
23.8442973028
 30
0.0
 40
3.0
 41
0.0
 71
     1
 72
     1
  1
PS6.K20.K01.070
  7
SLDTEXTSTYLE0
 73
     1
 44
1.0
  0
MTEXT
  5
79
330
1F
100
AcDbEntity
  8
VERMASSUNG
100
AcDbMText
 10
13.9329988022
 20
28.8834360957
 30
0.0
 40
3.0
 41
0.0
 71
     1
 72
     1
  1
Werkzeughalter / Toolholder
  7
SLDTEXTSTYLE0
 73
     1
 44
1.0
  0
MTEXT
  5
7A
330
1F
100
AcDbEntity
  8
VERMASSUNG
100
AcDbMText
 10
98.8601118557
 20
13.8365368761
 30
0.0
 40
2.0
 41
0.0
 71
     1
 72
     1
  1
Datum: 29.11.2017
  7
SLDTEXTSTYLE0
 73
     1
 44
1.0
  0
MTEXT
  5
7B
330
1F
100
AcDbEntity
  8
VERMASSUNG
100
AcDbMText
 10
13.933048693
 20
18.0482802738
 30
0.0
 40
2.0
 41
0.0
 71
     1
 72
     1
  1
für Wendeplattenbohrer Schaft-Ø20 / for indexable insert drills shaft-Ø20
  7
SLDTEXTSTYLE0
 73
     1
 44
1.0
  0
MTEXT
  5
7C
330
1F
100
AcDbEntity
  8
VERMASSUNG
100
AcDbMText
 10
13.9808475933
 20
13.9090974274
 30
0.0
 40
2.0
 41
0.0
 71
     1
 72
     1
  1
Gewicht: 1095g
  7
SLDTEXTSTYLE0
 73
     1
 44
1.0
  0
LINE
  5
7D
330
1F
100
AcDbEntity
  8
0
  6
Continuous
 62
     7
370
    25
100
AcDbLine
 10
178.9232709915
 20
95.7976420279
 30
0.0
 11
199.4232709915
 21
95.7976420279
 31
0.0
  0
LINE
  5
7E
330
1F
100
AcDbEntity
  8
0
  6
Continuous
 62
     7
370
    25
100
AcDbLine
 10
199.4232709915
 20
158.7976420279
 30
0.0
 11
178.9232709915
 21
158.7976420279
 31
0.0
  0
ARC
  5
7F
330
1F
100
AcDbEntity
  8
0
  6
Continuous
 62
     7
370
    25
100
AcDbCircle
 10
199.4232709915
 20
96.7976420279
 30
0.0
 40
1.0
100
AcDbArc
 50
270.0
 51
0.0
  0
ARC
  5
80
330
1F
100
AcDbEntity
  8
0
  6
Continuous
 62
     7
370
    25
100
AcDbCircle
 10
199.4232709915
 20
157.7976420279
 30
0.0
 40
1.0
100
AcDbArc
 50
0.0
 51
90.0
  0
ARC
  5
81
330
1F
100
AcDbEntity
  8
0
  6
Continuous
 62
     7
370
    25
100
AcDbCircle
 10
178.9232709915
 20
96.2976420279
 30
0.0
 40
0.5
100
AcDbArc
 50
180.0
 51
270.0
  0
ARC
  5
82
330
1F
100
AcDbEntity
  8
0
  6
Continuous
 62
     7
370
    25
100
AcDbCircle
 10
178.9232709915
 20
158.2976420279
 30
0.0
 40
0.5
100
AcDbArc
 50
90.0
 51
180.0
  0
LWPOLYLINE
  5
83
330
1F
100
AcDbEntity
  8
0
  6
Continuous
 62
     7
370
    25
100
AcDbPolyline
 90
        3
 70
   128
 43
0.0
 10
178.2232709915
 20
104.757821749
 10
178.348725935
 20
104.6895196341
 10
178.4232709915
 20
104.636781876
  0
LWPOLYLINE
  5
84
330
1F
100
AcDbEntity
  8
0
  6
Continuous
 62
     7
370
    25
100
AcDbPolyline
 90
        3
 70
   128
 43
0.0
 10
178.4232709915
 20
149.9585021798
 10
178.348725935
 20
149.9057644217
 10
178.2232709915
 20
149.8374623068
  0
ARC
  5
85
330
1F
100
AcDbEntity
  8
0
  6
Continuous
 62
     7
370
    25
100
AcDbCircle
 10
203.4232709915
 20
104.2976420279
 30
0.0
 40
3.000000000000014
100
AcDbArc
 50
90.0
 51
180.0
  0
ARC
  5
86
330
1F
100
AcDbEntity
  8
0
  6
Continuous
 62
     7
370
    25
100
AcDbCircle
 10
203.4232709915
 20
150.2976420279
 30
0.0
 40
3.0
100
AcDbArc
 50
180.0
 51
270.0
  0
LINE
  5
87
330
1F
100
AcDbEntity
  8
0
  6
Continuous
 62
     7
370
    25
100
AcDbLine
 10
203.4232709915
 20
107.2976420279
 30
0.0
 11
247.4232709915
 21
107.2976420279
 31
0.0
  0
LINE
  5
88
330
1F
100
AcDbEntity
  8
0
  6
Continuous
 62
     7
370
    25
100
AcDbLine
 10
247.4232709915
 20
147.2976420279
 30
0.0
 11
203.4232709915
 21
147.2976420279
 31
0.0
  0
LINE
  5
89
330
1F
100
AcDbEntity
  8
0
  6
Continuous
 62
     7
370
    25
100
AcDbLine
 10
247.4232709915
 20
107.2976420279
 30
0.0
 11
248.4232709915
 21
108.2976420279
 31
0.0
  0
LINE
  5
8A
330
1F
100
AcDbEntity
  8
0
  6
Continuous
 62
     7
370
    25
100
AcDbLine
 10
248.4232709915
 20
146.2976420279
 30
0.0
 11
247.4232709915
 21
147.2976420279
 31
0.0
  0
SPLINE
  5
8B
330
1F
100
AcDbEntity
  8
0
  6
Continuous
 62
     7
370
    25
100
AcDbSpline
210
0.0
220
0.0
230
1.0
 70
     8
 71
     3
 72
    12
 73
     8
 74
     0
 42
0.000000001
 43
0.00000001
 40
0.0
 40
0.0
 40
0.0
 40
0.0
 40
0.2500000000000014
 40
0.2500000000000014
 40
0.5000000000000028
 40
0.5000000000000028
 40
1.0
 40
1.0
 40
1.0
 40
1.0
 10
188.9510278050335
 20
136.6857084592268
 30
0.0
 10
188.8879477665402
 20
136.6857084592268
 30
0.0
 10
188.8287991443588
 20
136.7110727784417
 30
0.0
 10
188.7303265942897
 20
136.7852376388146
 30
0.0
 10
188.6912899823049
 20
136.8317579793688
 30
0.0
 10
188.5913935155259
 20
136.981900322214
 30
0.0
 10
188.5489726344593
 20
137.0935935291862
 30
0.0
 10
188.5180151031413
 20
137.2070113485759
 30
0.0
  0
LINE
  5
8C
330
1F
100
AcDbEntity
  8
0
  6
Continuous
 62
     7
370
    25
100
AcDbLine
 10
191.8955141779
 20
136.6857084592
 30
0.0
 11
188.951027805
 21
136.6857084592
 31
0.0
  0
SPLINE
  5
8D
330
1F
100
AcDbEntity
  8
0
  6
Continuous
 62
     7
370
    25
100
AcDbSpline
210
0.0
220
0.0
230
1.0
 70
     8
 71
     3
 72
    12
 73
     8
 74
     0
 42
0.000000001
 43
0.00000001
 40
0.0
 40
0.0
 40
0.0
 40
0.0
 40
0.4999999999999963
 40
0.4999999999999963
 40
0.7499999999999981
 40
0.7499999999999981
 40
1.0
 40
1.0
 40
1.0
 40
1.0
 10
192.3285268797929
 20
137.2070113485759
 30
0.0
 10
192.2978046378738
 20
137.0944555491668
 30
0.0
 10
192.2549674233386
 20
136.9816976894271
 30
0.0
 10
192.1555403991388
 20
136.8321568036308
 30
0.0
 10
192.1157882043222
 20
136.7848640719239
 30
0.0
 10
192.0177467474639
 20
136.7111277786025
 30
0.0
 10
191.9581906918765
 20
136.6857084592268
 30
0.0
 10
191.8955141779006
 20
136.6857084592268
 30
0.0
  0
ELLIPSE
  5
8E
330
1F
100
AcDbEntity
  8
0
  6
Continuous
 62
     7
370
    25
100
AcDbEllipse
 10
176.0761168021
 20
127.2976420279
 30
0.0
 11
14.75368316065615
 21
31.09325491558116
 31
0.0
210
0.0
220
0.0
230
1.0
 40
0.3419987131
 41
5.19328173740862
 42
6.124043104552323
  0
SPLINE
  5
8F
330
1F
100
AcDbEntity
  8
0
  6
Continuous
 62
     7
370
    25
100
AcDbSpline
210
0.0
220
0.0
230
1.0
 70
     8
 71
     3
 72
    12
 73
     8
 74
     0
 42
0.000000001
 43
0.00000001
 40
0.0
 40
0.0
 40
0.0
 40
0.0
 40
0.2499999999999991
 40
0.2499999999999991
 40
0.4999999999999982
 40
0.4999999999999982
 40
1.0
 40
1.0
 40
1.0
 40
1.0
 10
191.8955141779006
 20
157.3661339867639
 30
0.0
 10
191.958594216394
 20
157.366133986764
 30
0.0
 10
192.0177428385754
 20
157.3582280605515
 30
0.0
 10
192.1162153886445
 20
157.3349028991153
 30
0.0
 10
192.1552520006292
 20
157.3201901092835
 30
0.0
 10
192.2551484674082
 20
157.2722343085526
 30
0.0
 10
192.2975693484749
 20
157.2359721519726
 30
0.0
 10
192.3285268797929
 20
157.1983844880081
 30
0.0
  0
LINE
  5
90
330
1F
100
AcDbEntity
  8
0
  6
Continuous
 62
     7
370
    25
100
AcDbLine
 10
188.951027805
 20
157.3661339868
 30
0.0
 11
191.8955141779
 21
157.3661339868
 31
0.0
  0
SPLINE
  5
91
330
1F
100
AcDbEntity
  8
0
  6
Continuous
 62
     7
370
    25
100
AcDbSpline
210
0.0
220
0.0
230
1.0
 70
     8
 71
     3
 72
    12
 73
     8
 74
     0
 42
0.000000001
 43
0.00000001
 40
0.0
 40
0.0
 40
0.0
 40
0.0
 40
0.4999999999999971
 40
0.4999999999999971
 40
0.7499999999999986
 40
0.7499999999999986
 40
1.0
 40
1.0
 40
1.0
 40
1.0
 10
188.5180151031413
 20
157.1983844880081
 30
0.0
 10
188.5487373450604
 20
157.2356864709612
 30
0.0
 10
188.5915745595956
 20
157.2722983030075
 30
0.0
 10
188.6910015837954
 20
157.3200630862927
 30
0.0
 10
188.730753778612
 20
157.3350206017751
 30
0.0
 10
188.8287952354702
 20
157.3582105475442
 30
0.0
 10
188.8883512910577
 20
157.3661339867639
 30
0.0
 10
188.9510278050335
 20
157.3661339867639
 30
0.0
  0
ELLIPSE
  5
92
330
1F
100
AcDbEntity
  8
0
  6
Continuous
 62
     7
370
    25
100
AcDbEllipse
 10
204.7704251808
 20
127.2976420279
 30
0.0
 11
-14.7536831606561
 21
31.09325491558116
 31
0.0
210
0.0
220
0.0
230
1.0
 40
0.3419987131
 41
0.1591422026272981
 42
1.089903569770978
  0
SPLINE
  5
93
330
1F
100
AcDbEntity
  8
0
  6
Continuous
 62
     7
370
    25
100
AcDbSpline
210
0.0
220
0.0
230
1.0
 70
     8
 71
     3
 72
    12
 73
     8
 74
     0
 42
0.000000001
 43
0.00000001
 40
0.0
 40
0.0
 40
0.0
 40
0.0
 40
0.2500000000000001
 40
0.2500000000000001
 40
0.5000000000000001
 40
0.5000000000000001
 40
1.0
 40
1.0
 40
1.0
 40
1.0
 10
188.9510278050335
 20
97.22915006901778
 30
0.0
 10
188.8879708501357
 20
97.22915006901778
 30
0.0
 10
188.8288407003902
 20
97.23705040009733
 30
0.0
 10
188.7303931498568
 20
97.26036114810236
 30
0.0
 10
188.6913609116688
 20
97.275066274386
 30
0.0
 10
188.5914710272118
 20
97.32299980257265
 30
0.0
 10
188.5491720536025
 20
97.35906977533742
 30
0.0
 10
188.5180151031413
 20
97.39689956777363
 30
0.0
  0
LINE
  5
94
330
1F
100
AcDbEntity
  8
0
  6
Continuous
 62
     7
370
    25
100
AcDbLine
 10
191.8955141779
 20
97.229150069
 30
0.0
 11
188.951027805
 21
97.229150069
 31
0.0
  0
SPLINE
  5
95
330
1F
100
AcDbEntity
  8
0
  6
Continuous
 62
     7
370
    25
100
AcDbSpline
210
0.0
220
0.0
230
1.0
 70
     8
 71
     3
 72
    12
 73
     8
 74
     0
 42
0.000000001
 43
0.00000001
 40
0.0
 40
0.0
 40
0.0
 40
0.0
 40
0.5000000000000019
 40
0.5000000000000019
 40
0.7500000000000009
 40
0.7500000000000009
 40
1.0
 40
1.0
 40
1.0
 40
1.0
 10
192.3285268797929
 20
97.39689956777364
 30
0.0
 10
192.2973816818308
 20
97.35908404485345
 30
0.0
 10
192.2551074154963
 20
97.32301718676983
 30
0.0
 10
192.155161881671
 20
97.27505712175858
 30
0.0
 10
192.115431576967
 20
97.26019614786091
 30
0.0
 10
192.0185435269608
 20
97.23724500172979
 30
0.0
 10
191.9584782852142
 20
97.22915006901772
 30
0.0
 10
191.8955141779007
 20
97.22915006901772
 30
0.0
  0
ELLIPSE
  5
96
330
1F
100
AcDbEntity
  8
0
  6
Continuous
 62
     7
370
    25
100
AcDbEllipse
 10
176.0761168021
 20
127.2976420279
 30
0.0
 11
-14.75368316065627
 21
31.09325491558116
 31
0.0
210
0.0
220
0.0
230
1.0
 40
0.3419987131
 41
3.300734856217124
 42
4.231496223360772
  0
SPLINE
  5
97
330
1F
100
AcDbEntity
  8
0
  6
Continuous
 62
     7
370
    25
100
AcDbSpline
210
0.0
220
0.0
230
1.0
 70
     8
 71
     3
 72
    12
 73
     8
 74
     0
 42
0.000000001
 43
0.00000001
 40
0.0
 40
0.0
 40
0.0
 40
0.0
 40
0.2500000000000009
 40
0.2500000000000009
 40
0.5000000000000018
 40
0.5000000000000018
 40
1.0
 40
1.0
 40
1.0
 40
1.0
 10
191.8955141779006
 20
117.9095755965547
 30
0.0
 10
191.9585711327984
 20
117.9095755965546
 30
0.0
 10
192.017701282544
 20
117.884229243174
 30
0.0
 10
192.1161488330773
 20
117.8101098610345
 30
0.0
 10
192.1551810712654
 20
117.7636133463365
 30
0.0
 10
192.2550709557223
 20
117.6135388393279
 30
0.0
 10
192.2973699293317
 20
117.502421130213
 30
0.0
 10
192.3285268797929
 20
117.3882727072055
 30
0.0
  0
LINE
  5
98
330
1F
100
AcDbEntity
  8
0
  6
Continuous
 62
     7
370
    25
100
AcDbLine
 10
188.951027805
 20
117.9095755966
 30
0.0
 11
191.8955141779
 21
117.9095755966
 31
0.0
  0
SPLINE
  5
99
330
1F
100
AcDbEntity
  8
0
  6
Continuous
 62
     7
370
    25
100
AcDbSpline
210
0.0
220
0.0
230
1.0
 70
     8
 71
     3
 72
    12
 73
     8
 74
     0
 42
0.000000001
 43
0.00000001
 40
0.0
 40
0.0
 40
0.0
 40
0.0
 40
0.5000000000000019
 40
0.5000000000000019
 40
0.7500000000000009
 40
0.7500000000000009
 40
1.0
 40
1.0
 40
1.0
 40
1.0
 10
188.5180151031413
 20
117.3882727072055
 30
0.0
 10
188.5491603011034
 20
117.5023780730708
 30
0.0
 10
188.5914345674379
 20
117.6134844002896
 30
0.0
 10
188.6913801012631
 20
117.7636420077199
 30
0.0
 10
188.7311104059672
 20
117.8106346993372
 30
0.0
 10
188.8279984559734
 20
117.8836102838757
 30
0.0
 10
188.88806369772
 20
117.9095755965547
 30
0.0
 10
188.9510278050335
 20
117.9095755965547
 30
0.0
  0
ELLIPSE
  5
9A
330
1F
100
AcDbEntity
  8
0
  6
Continuous
 62
     7
370
    25
100
AcDbEllipse
 10
204.7704251808
 20
127.2976420279
 30
0.0
 11
14.75368316065621
 21
31.09325491558116
 31
0.0
210
0.0
220
0.0
230
1.0
 40
0.3419987131
 41
2.051689083818827
 42
2.982450450962506
  0
LINE
  5
9B
330
1F
100
AcDbEntity
  8
0
  6
Continuous
 62
     7
370
    25
100
AcDbLine
 10
200.4232709915
 20
96.7976420279
 30
0.0
 11
200.4232709915
 21
157.797642022
 31
0.0
  0
LINE
  5
9C
330
1F
100
AcDbEntity
  8
0
  6
Continuous
 62
     7
370
    25
100
AcDbLine
 10
178.4232709915
 20
96.2976420279
 30
0.0
 11
178.4232709915
 21
158.2976420255
 31
0.0
  0
LINE
  5
9D
330
1F
100
AcDbEntity
  8
0
  6
Continuous
 62
     7
370
    25
100
AcDbLine
 10
188.5180151031
 20
117.3882727072
 30
0.0
 11
188.5180151031
 21
97.3968995678
 31
0.0
  0
LINE
  5
9E
330
1F
100
AcDbEntity
  8
0
  6
Continuous
 62
     7
370
    25
100
AcDbLine
 10
188.951027805
 20
117.9095755966
 30
0.0
 11
188.951027805
 21
97.229150069
 31
0.0
  0
LINE
  5
9F
330
1F
100
AcDbEntity
  8
0
  6
Continuous
 62
     7
370
    25
100
AcDbLine
 10
188.951027805
 20
157.3661339868
 30
0.0
 11
188.951027805
 21
136.6857084592
 31
0.0
  0
LINE
  5
A0
330
1F
100
AcDbEntity
  8
0
  6
Continuous
 62
     7
370
    25
100
AcDbLine
 10
188.5180151031
 20
157.198384488
 30
0.0
 11
188.5180151031
 21
137.2070113486
 31
0.0
  0
LINE
  5
A1
330
1F
100
AcDbEntity
  8
0
  6
Continuous
 62
     7
370
    25
100
AcDbLine
 10
191.8955141779
 20
117.9095755966
 30
0.0
 11
191.8955141779
 21
97.229150069
 31
0.0
  0
LINE
  5
A2
330
1F
100
AcDbEntity
  8
0
  6
Continuous
 62
     7
370
    25
100
AcDbLine
 10
192.3285268798
 20
117.3882727072
 30
0.0
 11
192.3285268798
 21
97.3968995678
 31
0.0
  0
LINE
  5
A3
330
1F
100
AcDbEntity
  8
0
  6
Continuous
 62
     7
370
    25
100
AcDbLine
 10
192.3285268798
 20
157.198384488
 30
0.0
 11
192.3285268798
 21
137.2070113486
 31
0.0
  0
LINE
  5
A4
330
1F
100
AcDbEntity
  8
0
  6
Continuous
 62
     7
370
    25
100
AcDbLine
 10
191.8955141779
 20
157.3661339868
 30
0.0
 11
191.8955141779
 21
136.6857084592
 31
0.0
  0
SPLINE
  5
A5
330
1F
100
AcDbEntity
  8
0
  6
Continuous
 62
     7
370
    25
100
AcDbSpline
210
0.0
220
0.0
230
1.0
 70
     8
 71
     3
 72
    12
 73
     8
 74
     0
 42
0.000000001
 43
0.00000001
 40
0.0
 40
0.0
 40
0.0
 40
0.0
 40
0.5000000000000006
 40
0.5000000000000006
 40
0.7500000000000004
 40
0.7500000000000004
 40
1.0
 40
1.0
 40
1.0
 40
1.0
 10
177.6067587050106
 20
105.4428483254151
 30
0.0
 10
177.6631952059178
 20
105.4414304440733
 30
0.0
 10
177.7322798366065
 20
105.439866107825
 30
0.0
 10
177.8510821083244
 20
105.4369219158506
 30
0.0
 10
177.8912673837945
 20
105.4358837127532
 30
0.0
 10
177.9646484311984
 20
105.4339498175385
 30
0.0
 10
177.998057994941
 20
105.4330549302497
 30
0.0
 10
178.0282941025975
 20
105.4322711399774
 30
0.0
  0
SPLINE
  5
A6
330
1F
100
AcDbEntity
  8
0
  6
Continuous
 62
     7
370
    25
100
AcDbSpline
210
0.0
220
0.0
230
1.0
 70
     8
 71
     3
 72
    16
 73
    12
 74
     0
 42
0.000000001
 43
0.00000001
 40
0.0
 40
0.0
 40
0.0
 40
0.0
 40
0.0624999999999962
 40
0.0624999999999962
 40
0.1249999999999924
 40
0.1249999999999924
 40
0.24999999999999
 40
0.24999999999999
 40
0.4999999999999933
 40
0.4999999999999933
 40
1.0
 40
1.0
 40
1.0
 40
1.0
 10
178.0282941025602
 20
105.4322711400016
 30
0.0
 10
178.0398745101482
 20
105.4319709488903
 30
0.0
 10
178.0531840369094
 20
105.4306432006313
 30
0.0
 10
178.0824854669956
 20
105.4239445258563
 30
0.0
 10
178.0972995668799
 20
105.4185863427506
 30
0.0
 10
178.1331279685828
 20
105.4015406935832
 30
0.0
 10
178.1472475929457
 20
105.3900781558075
 30
0.0
 10
178.1817517370343
 20
105.3585148304353
 30
0.0
 10
178.1928562877389
 20
105.34061753139
 30
0.0
 10
178.2190324649551
 20
105.2904561137757
 30
0.0
 10
178.2232709914671
 20
105.2627117015792
 30
0.0
 10
178.2232709914671
 20
105.2380475396496
 30
0.0
  0
LINE
  5
A7
330
1F
100
AcDbEntity
  8
0
  6
Continuous
 62
     7
370
    25
100
AcDbLine
 10
178.2232709915
 20
120.2757547021
 30
0.0
 11
178.2232709915
 21
104.757821749
 31
0.0
  0
SPLINE
  5
A8
330
1F
100
AcDbEntity
  8
0
  6
Continuous
 62
     7
370
    25
100
AcDbSpline
210
0.0
220
0.0
230
1.0
 70
     8
 71
     3
 72
    16
 73
    12
 74
     0
 42
0.000000001
 43
0.00000001
 40
0.0
 40
0.0
 40
0.0
 40
0.0
 40
0.5000000000000004
 40
0.5000000000000004
 40
0.7500000000000024
 40
0.7500000000000024
 40
0.8750000000000017
 40
0.8750000000000017
 40
0.9375000000000009
 40
0.9375000000000009
 40
1.0
 40
1.0
 40
1.0
 40
1.0
 10
178.2232709914671
 20
120.2757547021408
 30
0.0
 10
178.2232709914671
 20
120.3894472462687
 30
0.0
 10
178.2191247163891
 20
120.5037674076182
 30
0.0
 10
178.1931591209956
 20
120.6768156981153
 30
0.0
 10
178.1816982156182
 20
120.735991205277
 30
0.0
 10
178.1473864778438
 20
120.8191143247452
 30
0.0
 10
178.1333617419143
 20
120.8472356408459
 30
0.0
 10
178.0973387788804
 20
120.8758514548233
 30
0.0
 10
178.0825842697908
 20
120.8816445027251
 30
0.0
 10
178.0532321086439
 20
120.880051076788
 30
0.0
 10
178.0398922341398
 20
120.8735546734643
 30
0.0
 10
178.0282941025914
 20
120.8650389272611
 30
0.0
  0
SPLINE
  5
A9
330
1F
100
AcDbEntity
  8
0
  6
Continuous
 62
     7
370
    25
100
AcDbSpline
210
0.0
220
0.0
230
1.0
 70
     8
 71
     3
 72
    12
 73
     8
 74
     0
 42
0.000000001
 43
0.00000001
 40
0.0
 40
0.0
 40
0.0
 40
0.0
 40
0.2499999999999998
 40
0.2499999999999998
 40
0.4999999999999997
 40
0.4999999999999997
 40
1.0
 40
1.0
 40
1.0
 40
1.0
 10
178.0282941025985
 20
120.8650389272519
 30
0.0
 10
177.9980956611579
 20
120.8428661952069
 30
0.0
 10
177.9647283058219
 20
120.8237865393297
 30
0.0
 10
177.891573029992
 20
120.798613494887
 30
0.0
 10
177.851320330968
 20
120.7930569584702
 30
0.0
 10
177.7335915876932
 20
120.8039687694569
 30
0.0
 10
177.6631331396342
 20
120.8459045248677
 30
0.0
 10
177.606758705016
 20
120.8951163072493
 30
0.0
  0
SPLINE
  5
AA
330
1F
100
AcDbEntity
  8
0
  6
Continuous
 62
     7
370
    25
100
AcDbSpline
210
0.0
220
0.0
230
1.0
 70
     8
 71
     3
 72
    12
 73
     8
 74
     0
 42
0.000000001
 43
0.00000001
 40
0.0
 40
0.0
 40
0.0
 40
0.0
 40
0.4999999999999984
 40
0.4999999999999984
 40
0.7499999999999992
 40
0.7499999999999992
 40
1.0
 40
1.0
 40
1.0
 40
1.0
 10
177.1019506479074
 20
122.1114676991299
 30
0.0
 10
177.1457009784932
 20
121.8910208214742
 30
0.0
 10
177.1985910978736
 20
121.6754760044359
 30
0.0
 10
177.3102024184877
 20
121.3630623533259
 30
0.0
 10
177.3527618716708
 20
121.2609825801545
 30
0.0
 10
177.4577387948674
 20
121.0665429456903
 30
0.0
 10
177.5193059357022
 20
120.9714577673681
 30
0.0
 10
177.606758705016
 20
120.8951163072493
 30
0.0
  0
LINE
  5
AB
330
1F
100
AcDbEntity
  8
0
  6
Continuous
 62
     7
370
    25
100
AcDbLine
 10
177.1019506479
 20
122.1114676991
 30
0.0
 11
177.1019506479
 21
132.4838163567
 31
0.0
  0
SPLINE
  5
AC
330
1F
100
AcDbEntity
  8
0
  6
Continuous
 62
     7
370
    25
100
AcDbSpline
210
0.0
220
0.0
230
1.0
 70
     8
 71
     3
 72
    12
 73
     8
 74
     0
 42
0.000000001
 43
0.00000001
 40
0.0
 40
0.0
 40
0.0
 40
0.0
 40
0.2500000000000004
 40
0.2500000000000004
 40
0.5000000000000008
 40
0.5000000000000008
 40
1.0
 40
1.0
 40
1.0
 40
1.0
 10
177.6067587050159
 20
133.7001677485325
 30
0.0
 10
177.5182644145984
 20
133.622917097745
 30
0.0
 10
177.4582070554366
 20
133.5295980887517
 30
0.0
 10
177.3523597162419
 20
133.3335669313205
 30
0.0
 10
177.3098256123178
 20
133.2312395246246
 30
0.0
 10
177.1986741192638
 20
132.9198946830017
 30
0.0
 10
177.1457432801861
 20
132.7044763818658
 30
0.0
 10
177.1019506479074
 20
132.483816356652
 30
0.0
  0
SPLINE
  5
AD
330
1F
100
AcDbEntity
  8
0
  6
Continuous
 62
     7
370
    25
100
AcDbSpline
210
0.0
220
0.0
230
1.0
 70
     8
 71
     3
 72
    12
 73
     8
 74
     0
 42
0.000000001
 43
0.00000001
 40
0.0
 40
0.0
 40
0.0
 40
0.0
 40
0.4999999999999998
 40
0.4999999999999998
 40
0.7499999999999999
 40
0.7499999999999999
 40
1.0
 40
1.0
 40
1.0
 40
1.0
 10
177.6067587050159
 20
133.7001677485325
 30
0.0
 10
177.6630672533115
 20
133.7493220157763
 30
0.0
 10
177.7333419140296
 20
133.7912793343801
 30
0.0
 10
177.8513798283532
 20
133.8022390119125
 30
0.0
 10
177.8915560692071
 20
133.7967302536651
 30
0.0
 10
177.9655131638851
 20
133.7711730248762
 30
0.0
 10
177.9981295515965
 20
133.7523929770369
 30
0.0
 10
178.0282941025922
 20
133.7302451285202
 30
0.0
  0
SPLINE
  5
AE
330
1F
100
AcDbEntity
  8
0
  6
Continuous
 62
     7
370
    25
100
AcDbSpline
210
0.0
220
0.0
230
1.0
 70
     8
 71
     3
 72
    16
 73
    12
 74
     0
 42
0.000000001
 43
0.00000001
 40
0.0
 40
0.0
 40
0.0
 40
0.0
 40
0.0624999999999987
 40
0.0624999999999987
 40
0.1249999999999973
 40
0.1249999999999973
 40
0.2499999999999977
 40
0.2499999999999977
 40
0.4999999999999984
 40
0.4999999999999984
 40
1.0
 40
1.0
 40
1.0
 40
1.0
 10
178.0282941025605
 20
133.7302451284656
 30
0.0
 10
178.0399070023998
 20
133.7217185388704
 30
0.0
 10
178.0532581868324
 20
133.7152182773376
 30
0.0
 10
178.0826580264515
 20
133.7136488802201
 30
0.0
 10
178.0974987510068
 20
133.7195322708507
 30
0.0
 10
178.1333319589754
 20
133.7480799069012
 30
0.0
 10
178.147445166797
 20
133.7762469262071
 30
0.0
 10
178.1819365380158
 20
133.860001184629
 30
0.0
 10
178.1930206091262
 20
133.9177145982504
 30
0.0
 10
178.2191434269222
 20
134.0913051348963
 30
0.0
 10
178.2232709914671
 20
134.2063331875382
 30
0.0
 10
178.2232709914671
 20
134.319529353641
 30
0.0
  0
LINE
  5
AF
330
1F
100
AcDbEntity
  8
0
  6
Continuous
 62
     7
370
    25
100
AcDbLine
 10
178.2232709915
 20
149.8374623068
 30
0.0
 11
178.2232709915
 21
134.3195293536
 31
0.0
  0
SPLINE
  5
B0
330
1F
100
AcDbEntity
  8
0
  6
Continuous
 62
     7
370
    25
100
AcDbSpline
210
0.0
220
0.0
230
1.0
 70
     8
 71
     3
 72
    16
 73
    12
 74
     0
 42
0.000000001
 43
0.00000001
 40
0.0
 40
0.0
 40
0.0
 40
0.0
 40
0.5000000000000026
 40
0.5000000000000026
 40
0.7500000000000041
 40
0.7500000000000041
 40
0.8750000000000048
 40
0.8750000000000048
 40
0.9375000000000024
 40
0.9375000000000024
 40
1.0
 40
1.0
 40
1.0
 40
1.0
 10
178.2232709914671
 20
149.3572365161322
 30
0.0
 10
178.2232709914671
 20
149.3325653600893
 30
0.0
 10
178.2191052930071
 20
149.304983528698
 30
0.0
 10
178.1928469646822
 20
149.2546406578747
 30
0.0
 10
178.1813431829446
 20
149.2363511598128
 30
0.0
 10
178.147212423598
 20
149.2051961287758
 30
0.0
 10
178.1327905369273
 20
149.193556753564
 30
0.0
 10
178.0972235684895
 20
149.176674727633
 30
0.0
 10
178.0822718001948
 20
149.1712856238253
 30
0.0
 10
178.0532679818351
 20
149.1646651278808
 30
0.0
 10
178.0398526278258
 20
149.1633125396744
 30
0.0
 10
178.0282941025893
 20
149.1630129158027
 30
0.0
  0
SPLINE
  5
B1
330
1F
100
AcDbEntity
  8
0
  6
Continuous
 62
     7
370
    25
100
AcDbSpline
210
0.0
220
0.0
230
1.0
 70
     8
 71
     3
 72
    12
 73
     8
 74
     0
 42
0.000000001
 43
0.00000001
 40
0.0
 40
0.0
 40
0.0
 40
0.0
 40
0.2500000000000001
 40
0.2500000000000001
 40
0.5000000000000002
 40
0.5000000000000002
 40
1.0
 40
1.0
 40
1.0
 40
1.0
 10
178.0282941025985
 20
149.1630129158045
 30
0.0
 10
177.9981063260489
 20
149.1622303783869
 30
0.0
 10
177.9647525219572
 20
149.1613370465684
 30
0.0
 10
177.8916263187612
 20
149.1594097377648
 30
0.0
 10
177.851391115737
 20
149.1583702065521
 30
0.0
 10
177.7336994856039
 20
149.1554523232049
 30
0.0
 10
177.6633188124439
 20
149.1538567171347
 30
0.0
 10
177.6067587050133
 20
149.1524357303668
 30
0.0
  0
SPLINE
  5
B2
330
1F
100
AcDbEntity
  8
0
  6
Continuous
 62
     7
370
    25
100
AcDbSpline
210
0.0
220
0.0
230
1.0
 70
     8
 71
     3
 72
    16
 73
    12
 74
     0
 42
0.000000001
 43
0.00000001
 40
0.0
 40
0.0
 40
0.0
 40
0.0
 40
0.2500000000000001
 40
0.2500000000000001
 40
0.3750000000000001
 40
0.3750000000000001
 40
0.5000000000000001
 40
0.5000000000000001
 40
0.7500000000000001
 40
0.7500000000000001
 40
1.0
 40
1.0
 40
1.0
 40
1.0
 10
177.1019506479074
 20
132.483816356652
 30
0.0
 10
176.940718170423
 20
131.6714065814051
 30
0.0
 10
176.8202383307833
 20
130.8313282870204
 30
0.0
 10
176.69785781347
 20
129.5300332376576
 30
0.0
 10
176.6668801530726
 20
129.0893522020729
 30
0.0
 10
176.6252664154446
 20
128.1935125611417
 30
0.0
 10
176.6150305025118
 20
127.7468544299393
 30
0.0
 10
176.6148421054557
 20
126.4115444727994
 30
0.0
 10
176.6549868080933
 20
125.5270490994919
 30
0.0
 10
176.8191405630329
 20
123.7697992114659
 30
0.0
 10
176.9406922134424
 20
122.9240082650527
 30
0.0
 10
177.1019506479074
 20
122.1114676991299
 30
0.0
  0
LINE
  5
B3
330
1F
100
AcDbEntity
  8
0
  6
Continuous
 62
     7
370
    25
100
AcDbLine
 10
176.2232709915
 20
133.7828202896
 30
0.0
 11
176.2232709915
 21
120.8124637662
 31
0.0
  0
LINE
  5
B4
330
1F
100
AcDbEntity
  8
0
  6
Continuous
 62
     7
370
    25
100
AcDbLine
 10
141.9232709915
 20
121.2433314603
 30
0.0
 11
176.2232709915
 21
120.8124637662
 31
0.0
  0
LINE
  5
B5
330
1F
100
AcDbEntity
  8
0
  6
Continuous
 62
     7
370
    25
100
AcDbLine
 10
141.9232709915
 20
133.3519525954
 30
0.0
 11
141.9232709915
 21
121.2433314603
 31
0.0
  0
LINE
  5
B6
330
1F
100
AcDbEntity
  8
0
  6
Continuous
 62
     7
370
    25
100
AcDbLine
 10
141.9232709915
 20
133.3519525954
 30
0.0
 11
176.2232709915
 21
133.7828202896
 31
0.0
  0
LWPOLYLINE
  5
B7
330
1F
100
AcDbEntity
  8
0
  6
Continuous
 62
     7
370
    25
100
AcDbPolyline
 90
        9
 70
   128
 43
0.0
 10
176.2232709915
 20
120.8124637662
 10
176.2280926835
 20
120.8319183855
 10
176.240412544
 20
120.8505288571
 10
176.2597571276
 20
120.8675799909
 10
176.2853830328
 20
120.8824165214
 10
176.3163054705
 20
120.8944682891
 10
176.3513361086
 20
120.9032721512
 10
176.3891287395
 20
120.9084897805
 10
176.4282310135
 20
120.9099206661
  0
LWPOLYLINE
  5
B8
330
1F
100
AcDbEntity
  8
0
  6
Continuous
 62
     7
370
    25
100
AcDbPolyline
 90
        9
 70
   128
 43
0.0
 10
176.2232709915
 20
133.7828202896
 10
176.2280926835
 20
133.7633656702
 10
176.240412544
 20
133.7447551987
 10
176.2597571276
 20
133.7277040649
 10
176.2853830328
 20
133.7128675344
 10
176.3163054705
 20
133.7008157667
 10
176.3513361086
 20
133.6920119045
 10
176.3891287395
 20
133.6867942753
 10
176.4282310135
 20
133.6853633897
  0
LINE
  5
B9
330
1F
100
AcDbEntity
  8
0
  6
Continuous
 62
     7
370
    25
100
AcDbLine
 10
176.4282310135
 20
133.6853633897
 30
0.0
 11
176.4282310135
 21
120.9099206661
 31
0.0
  0
LINE
  5
BA
330
1F
100
AcDbEntity
  8
0
  6
Continuous
 62
     7
370
    25
100
AcDbLine
 10
176.4282310135
 20
120.9099206661
 30
0.0
 11
177.606758705
 21
120.8951163072
 31
0.0
  0
LINE
  5
BB
330
1F
100
AcDbEntity
  8
0
  6
Continuous
 62
     7
370
    25
100
AcDbLine
 10
176.4282310135
 20
133.6853633897
 30
0.0
 11
177.606758705
 21
133.7001677485
 31
0.0
  0
LINE
  5
BC
330
1F
100
AcDbEntity
  8
0
  6
Continuous
 62
     7
370
    25
100
AcDbLine
 10
140.4232709915
 20
121.6763441622
 30
0.0
 11
141.9232709915
 21
121.2433314603
 31
0.0
  0
LINE
  5
BD
330
1F
100
AcDbEntity
  8
0
  6
Continuous
 62
     7
370
    25
100
AcDbLine
 10
140.4232709915
 20
132.9189398935
 30
0.0
 11
140.4232709915
 21
121.6763441622
 31
0.0
  0
LINE
  5
BE
330
1F
100
AcDbEntity
  8
0
  6
Continuous
 62
     7
370
    25
100
AcDbLine
 10
140.4232709915
 20
132.9189398935
 30
0.0
 11
141.9232709915
 21
133.3519525954
 31
0.0
  0
LINE
  5
BF
330
1F
100
AcDbEntity
  8
0
  6
Continuous
 62
     7
370
    25
100
AcDbLine
 10
141.9232709915
 20
133.3519525954
 30
0.0
 11
141.9232709915
 21
148.4560054242
 31
0.0
  0
LINE
  5
C0
330
1F
100
AcDbEntity
  8
0
  6
Continuous
 62
     7
370
    25
100
AcDbLine
 10
141.9232709915
 20
148.4560054242
 30
0.0
 11
176.2232709915
 21
149.3177408125
 31
0.0
  0
LINE
  5
C1
330
1F
100
AcDbEntity
  8
0
  6
Continuous
 62
     7
370
    25
100
AcDbLine
 10
176.2232709915
 20
133.7828202896
 30
0.0
 11
176.2232709915
 21
149.3177408125
 31
0.0
  0
ARC
  5
C2
330
1F
100
AcDbEntity
  8
0
  6
Continuous
 62
     7
370
    25
100
AcDbCircle
 10
176.4232079024
 20
149.3227639236
 30
0.0
 40
0.1999999999999775
100
AcDbArc
 50
181.4391666667
 51
271.4391666667
  0
LINE
  5
C3
330
1F
100
AcDbEntity
  8
0
  6
Continuous
 62
     7
370
    25
100
AcDbLine
 10
176.4282310135
 20
133.6853633897
 30
0.0
 11
176.4282310135
 21
149.1228270126
 31
0.0
  0
LINE
  5
C4
330
1F
100
AcDbEntity
  8
0
  6
Continuous
 62
     7
370
    25
100
AcDbLine
 10
141.9232709915
 20
106.1392786316
 30
0.0
 11
141.9232709915
 21
121.2433314603
 31
0.0
  0
LINE
  5
C5
330
1F
100
AcDbEntity
  8
0
  6
Continuous
 62
     7
370
    25
100
AcDbLine
 10
176.2232709915
 20
105.2775432433
 30
0.0
 11
176.2232709915
 21
120.8124637662
 31
0.0
  0
LINE
  5
C6
330
1F
100
AcDbEntity
  8
0
  6
Continuous
 62
     7
370
    25
100
AcDbLine
 10
141.9232709915
 20
106.1392786316
 30
0.0
 11
176.2232709915
 21
105.2775432433
 31
0.0
  0
LINE
  5
C7
330
1F
100
AcDbEntity
  8
0
  6
Continuous
 62
     7
370
    25
100
AcDbLine
 10
176.4282310135
 20
105.4724570431
 30
0.0
 11
176.4282310135
 21
120.9099206661
 31
0.0
  0
ARC
  5
C8
330
1F
100
AcDbEntity
  8
0
  6
Continuous
 62
     7
370
    25
100
AcDbCircle
 10
176.4232079024
 20
105.2725201322
 30
0.0
 40
0.1999999999999917
100
AcDbArc
 50
88.5608333333
 51
178.5608333333
  0
LINE
  5
C9
330
1F
100
AcDbEntity
  8
0
  6
Continuous
 62
     7
370
    25
100
AcDbLine
 10
178.0282941026
 20
105.43227114
 30
0.0
 11
178.0282941026
 21
120.8650389273
 31
0.0
  0
LINE
  5
CA
330
1F
100
AcDbEntity
  8
0
  6
Continuous
 62
     7
370
    25
100
AcDbLine
 10
178.0282941026
 20
133.7302451285
 30
0.0
 11
178.0282941026
 21
149.1630129158
 31
0.0
  0
LINE
  5
CB
330
1F
100
AcDbEntity
  8
0
  6
Continuous
 62
     7
370
    25
100
AcDbLine
 10
176.4282310135
 20
149.1228270126
 30
0.0
 11
177.606758705
 21
149.1524357304
 31
0.0
  0
LINE
  5
CC
330
1F
100
AcDbEntity
  8
0
  6
Continuous
 62
     7
370
    25
100
AcDbLine
 10
176.4282310135
 20
105.4724570431
 30
0.0
 11
177.606758705
 21
105.4428483254
 31
0.0
  0
LINE
  5
CD
330
1F
100
AcDbEntity
  8
0
  6
Continuous
 62
     7
370
    25
100
AcDbLine
 10
140.4232709915
 20
147.5899800204
 30
0.0
 11
141.9232709915
 21
148.4560054242
 31
0.0
  0
LINE
  5
CE
330
1F
100
AcDbEntity
  8
0
  6
Continuous
 62
     7
370
    25
100
AcDbLine
 10
140.4232709915
 20
132.9189398935
 30
0.0
 11
140.4232709915
 21
147.5899800204
 31
0.0
  0
LINE
  5
CF
330
1F
100
AcDbEntity
  8
0
  6
Continuous
 62
     7
370
    25
100
AcDbLine
 10
140.4232709915
 20
107.0053040354
 30
0.0
 11
141.9232709915
 21
106.1392786316
 31
0.0
  0
LINE
  5
D0
330
1F
100
AcDbEntity
  8
0
  6
Continuous
 62
     7
370
    25
100
AcDbLine
 10
140.4232709915
 20
107.0053040354
 30
0.0
 11
140.4232709915
 21
121.6763441622
 31
0.0
  0
SPLINE
  5
D1
330
1F
100
AcDbEntity
  8
0
  6
Continuous
 62
     7
370
    25
100
AcDbSpline
210
0.0
220
0.0
230
1.0
 70
    11
 71
     3
 72
    79
 73
    75
 74
     0
 42
0.000000001
 43
0.00000001
 40
0.0
 40
0.0
 40
0.0
 40
0.0
 40
0.0312499999999999
 40
0.0312499999999999
 40
0.0624999999999999
 40
0.0624999999999999
 40
0.0937499999999998
 40
0.0937499999999998
 40
0.1093749999999997
 40
0.1093749999999997
 40
0.1249999999999997
 40
0.1406249999999996
 40
0.1406249999999996
 40
0.1562499999999996
 40
0.1562499999999996
 40
0.1874999999999996
 40
0.1874999999999996
 40
0.2187499999999996
 40
0.2187499999999996
 40
0.2499999999999996
 40
0.2499999999999996
 40
0.2812499999999995
 40
0.2812499999999995
 40
0.3124999999999994
 40
0.3124999999999994
 40
0.3437499999999993
 40
0.3437499999999993
 40
0.3749999999999993
 40
0.3749999999999993
 40
0.4062499999999992
 40
0.4062499999999992
 40
0.4374999999999991
 40
0.4374999999999991
 40
0.4531249999999991
 40
0.4531249999999991
 40
0.4687499999999991
 40
0.4687499999999991
 40
0.499999999999999
 40
0.499999999999999
 40
0.5156249999999988
 40
0.5156249999999988
 40
0.5312499999999984
 40
0.5312499999999984
 40
0.5624999999999984
 40
0.5624999999999984
 40
0.5781249999999984
 40
0.5781249999999984
 40
0.5937499999999986
 40
0.5937499999999986
 40
0.6249999999999987
 40
0.6249999999999987
 40
0.6406249999999988
 40
0.6406249999999988
 40
0.6562499999999989
 40
0.6562499999999989
 40
0.687499999999999
 40
0.687499999999999
 40
0.7187499999999992
 40
0.7187499999999992
 40
0.7499999999999993
 40
0.7499999999999993
 40
0.7812499999999994
 40
0.7812499999999994
 40
0.8124999999999997
 40
0.8124999999999997
 40
0.8437499999999998
 40
0.8437499999999998
 40
0.8749999999999999
 40
0.8749999999999999
 40
0.9062500000000001
 40
0.9062500000000001
 40
0.9375000000000002
 40
0.9375000000000002
 40
1.0
 40
1.0
 40
1.0
 40
1.0
 10
209.4169030365712
 20
131.2253733587726
 30
0.0
 10
209.1261828061863
 20
130.9947993768405
 30
0.0
 10
208.8611975825143
 20
130.740173656863
 30
0.0
 10
208.3847430917981
 20
130.1800133178618
 30
0.0
 10
208.1720983429292
 20
129.8710169772164
 30
0.0
 10
207.8247439697115
 20
129.2246233102384
 30
0.0
 10
207.6872156247141
 20
128.8850378501662
 30
0.0
 10
207.5403382008472
 20
128.3484673659517
 30
0.0
 10
207.5014180980332
 20
128.1642550322835
 30
0.0
 10
207.446677570445
 20
127.7974884054383
 30
0.0
 10
207.4141501216906
 20
127.4298385602333
 30
0.0
 10
207.425630097316
 20
127.0604370124385
 30
0.0
 10
207.4596215637194
 20
126.6901397507127
 30
0.0
 10
207.4881554769288
 20
126.5040103535813
 30
0.0
 10
207.6050795254482
 20
125.9597791128142
 30
0.0
 10
207.724611150071
 20
125.6105483904208
 30
0.0
 10
208.0431641117079
 20
124.9378551044203
 30
0.0
 10
208.2384347862385
 20
124.6230983017506
 30
0.0
 10
208.6885829024555
 20
124.0405269784532
 30
0.0
 10
208.9466931412936
 20
123.7697870329842
 30
0.0
 10
209.5027055263561
 20
123.2885453788738
 30
0.0
 10
209.8021071066436
 20
123.0754014600414
 30
0.0
 10
210.4424862439589
 20
122.7015338475936
 30
0.0
 10
210.777882723598
 20
122.5444260003994
 30
0.0
 10
211.4684100480897
 20
122.2898165031487
 30
0.0
 10
211.8268000568699
 20
122.1911907752564
 30
0.0
 10
212.5589927636617
 20
122.054683191022
 30
0.0
 10
212.9264756852046
 20
122.0176581375911
 30
0.0
 10
213.6641196597999
 20
122.0036452769089
 30
0.0
 10
214.0369971094945
 20
122.0271012720119
 30
0.0
 10
214.7728828397433
 20
122.1357291769926
 30
0.0
 10
215.1315783205481
 20
122.2197569884344
 30
0.0
 10
215.6560185216149
 20
122.3899481039001
 30
0.0
 10
215.8285511405297
 20
122.4540833638982
 30
0.0
 10
216.1689239925284
 20
122.5976984915577
 30
0.0
 10
216.3375827216203
 20
122.6776529669579
 30
0.0
 10
216.8276321609791
 20
122.9373006700719
 30
0.0
 10
217.1345628054873
 20
123.1367289617054
 30
0.0
 10
217.5648304409045
 20
123.4767272257873
 30
0.0
 10
217.7031967693059
 20
123.5969168751046
 30
0.0
 10
217.9692493841513
 20
123.8519131025407
 30
0.0
 10
218.0975153717722
 20
123.9875138157769
 30
0.0
 10
218.4566274634518
 20
124.4081801745513
 30
0.0
 10
218.6645808989704
 20
124.7088347232799
 30
0.0
 10
218.9266775043141
 20
125.192297947372
 30
0.0
 10
219.0056748667065
 20
125.3589056924769
 30
0.0
 10
219.1455564636373
 20
125.7039903516053
 30
0.0
 10
219.2057705804341
 20
125.8812577806351
 30
0.0
 10
219.3531325606537
 20
126.4156663220674
 30
0.0
 10
219.4092444362936
 20
126.7798049781016
 30
0.0
 10
219.4268490655506
 20
127.3384880486273
 30
0.0
 10
219.4213002568088
 20
127.5270799586951
 30
0.0
 10
219.3879606847577
 20
127.8972010744215
 30
0.0
 10
219.3602804767319
 20
128.0801619398977
 30
0.0
 10
219.245105188305
 20
128.6229278633122
 30
0.0
 10
219.1234035353509
 20
128.9804305247667
 30
0.0
 10
218.8077115546966
 20
129.6494509057388
 30
0.0
 10
218.6135009936974
 20
129.9645700813233
 30
0.0
 10
218.1593324142479
 20
130.5536054984362
 30
0.0
 10
217.9054146378568
 20
130.820083453691
 30
0.0
 10
217.3488401856556
 20
131.3029928663339
 30
0.0
 10
217.0438422082372
 20
131.520112867388
 30
0.0
 10
216.4075287563034
 20
131.8918378017555
 30
0.0
 10
216.0741803953126
 20
132.0486635232195
 30
0.0
 10
215.3774635509515
 20
132.3058716881778
 30
0.0
 10
215.0169686907297
 20
132.4045887079667
 30
0.0
 10
214.29107569991
 20
132.5399649823503
 30
0.0
 10
213.9229585872601
 20
132.5776662292387
 30
0.0
 10
213.1760868733804
 20
132.5916634366311
 30
0.0
 10
212.8041881653629
 20
132.56752503752
 30
0.0
 10
212.0742801365172
 20
132.4595126960499
 30
0.0
 10
211.714480430124
 20
132.3756999112452
 30
0.0
 10
210.6512734691675
 20
132.0296720536479
 30
0.0
 10
209.998343497341
 20
131.6865213226367
 30
0.0
 10
209.4169030365712
 20
131.2253733587726
 30
0.0
  0
LINE
  5
D2
330
1F
100
AcDbEntity
  8
0
  6
Continuous
 62
     7
370
    25
100
AcDbLine
 10
247.4232709915
 20
107.2976420279
 30
0.0
 11
247.4232709915
 21
147.2976420279
 31
0.0
  0
SPLINE
  5
D3
330
1F
100
AcDbEntity
  8
0
  6
Continuous
 62
     7
370
    25
100
AcDbSpline
210
0.0
220
0.0
230
1.0
 70
    11
 71
     3
 72
    79
 73
    75
 74
     0
 42
0.000000001
 43
0.00000001
 40
0.0
 40
0.0
 40
0.0
 40
0.0
 40
0.0312499999999997
 40
0.0312499999999997
 40
0.0624999999999995
 40
0.0624999999999995
 40
0.0937499999999992
 40
0.0937499999999992
 40
0.1093749999999991
 40
0.1093749999999991
 40
0.124999999999999
 40
0.1406249999999989
 40
0.1406249999999989
 40
0.1562499999999988
 40
0.1562499999999988
 40
0.1874999999999985
 40
0.1874999999999985
 40
0.2187499999999982
 40
0.2187499999999982
 40
0.249999999999998
 40
0.249999999999998
 40
0.2812499999999977
 40
0.2812499999999977
 40
0.3124999999999975
 40
0.3124999999999975
 40
0.3437499999999972
 40
0.3437499999999972
 40
0.3749999999999969
 40
0.3749999999999969
 40
0.4062499999999967
 40
0.4062499999999967
 40
0.4374999999999964
 40
0.4374999999999964
 40
0.4531249999999963
 40
0.4531249999999963
 40
0.4687499999999962
 40
0.4687499999999962
 40
0.4999999999999959
 40
0.4999999999999959
 40
0.515624999999996
 40
0.515624999999996
 40
0.5312499999999961
 40
0.5312499999999961
 40
0.5624999999999966
 40
0.5624999999999966
 40
0.5781249999999967
 40
0.5781249999999967
 40
0.5937499999999968
 40
0.5937499999999968
 40
0.6249999999999971
 40
0.6249999999999971
 40
0.6406249999999972
 40
0.6406249999999972
 40
0.6562499999999972
 40
0.6562499999999972
 40
0.6874999999999976
 40
0.6874999999999976
 40
0.7187499999999979
 40
0.7187499999999979
 40
0.7499999999999981
 40
0.7499999999999981
 40
0.7812499999999984
 40
0.7812499999999984
 40
0.8124999999999988
 40
0.8124999999999988
 40
0.8437499999999991
 40
0.8437499999999991
 40
0.8749999999999993
 40
0.8749999999999993
 40
0.9062499999999997
 40
0.9062499999999997
 40
0.9375
 40
0.9375
 40
1.0
 40
1.0
 40
1.0
 40
1.0
 10
229.4169030365712
 20
131.2253733587726
 30
0.0
 10
229.1261828061863
 20
130.9947993768405
 30
0.0
 10
228.8611975825143
 20
130.740173656863
 30
0.0
 10
228.3847430917981
 20
130.1800133178618
 30
0.0
 10
228.1720983429292
 20
129.8710169772164
 30
0.0
 10
227.8247439697116
 20
129.2246233102384
 30
0.0
 10
227.6872156247141
 20
128.8850378501662
 30
0.0
 10
227.5403382008471
 20
128.3484673659517
 30
0.0
 10
227.5014180980332
 20
128.1642550322835
 30
0.0
 10
227.446677570445
 20
127.7974884054383
 30
0.0
 10
227.4141501216906
 20
127.4298385602333
 30
0.0
 10
227.425630097316
 20
127.0604370124385
 30
0.0
 10
227.4596215637194
 20
126.6901397507127
 30
0.0
 10
227.4881554769288
 20
126.5040103535813
 30
0.0
 10
227.6050795254482
 20
125.9597791128142
 30
0.0
 10
227.724611150071
 20
125.6105483904208
 30
0.0
 10
228.0431641117078
 20
124.9378551044203
 30
0.0
 10
228.2384347862385
 20
124.6230983017506
 30
0.0
 10
228.6885829024555
 20
124.0405269784532
 30
0.0
 10
228.9466931412936
 20
123.7697870329842
 30
0.0
 10
229.5027055263562
 20
123.2885453788738
 30
0.0
 10
229.8021071066436
 20
123.0754014600414
 30
0.0
 10
230.4424862439589
 20
122.7015338475936
 30
0.0
 10
230.777882723598
 20
122.5444260003994
 30
0.0
 10
231.4684100480897
 20
122.2898165031487
 30
0.0
 10
231.82680005687
 20
122.1911907752564
 30
0.0
 10
232.5589927636617
 20
122.054683191022
 30
0.0
 10
232.9264756852046
 20
122.0176581375911
 30
0.0
 10
233.6641196598
 20
122.0036452769089
 30
0.0
 10
234.0369971094945
 20
122.0271012720119
 30
0.0
 10
234.7728828397433
 20
122.1357291769926
 30
0.0
 10
235.1315783205481
 20
122.2197569884344
 30
0.0
 10
235.6560185216149
 20
122.3899481039001
 30
0.0
 10
235.8285511405298
 20
122.4540833638982
 30
0.0
 10
236.1689239925284
 20
122.5976984915577
 30
0.0
 10
236.3375827216203
 20
122.6776529669579
 30
0.0
 10
236.8276321609791
 20
122.9373006700719
 30
0.0
 10
237.1345628054872
 20
123.1367289617054
 30
0.0
 10
237.5648304409045
 20
123.4767272257873
 30
0.0
 10
237.7031967693059
 20
123.5969168751046
 30
0.0
 10
237.9692493841513
 20
123.8519131025407
 30
0.0
 10
238.0975153717722
 20
123.9875138157769
 30
0.0
 10
238.4566274634518
 20
124.4081801745513
 30
0.0
 10
238.6645808989705
 20
124.7088347232799
 30
0.0
 10
238.9266775043141
 20
125.192297947372
 30
0.0
 10
239.0056748667064
 20
125.3589056924769
 30
0.0
 10
239.1455564636373
 20
125.7039903516053
 30
0.0
 10
239.2057705804341
 20
125.8812577806351
 30
0.0
 10
239.3531325606536
 20
126.4156663220675
 30
0.0
 10
239.4092444362936
 20
126.7798049781016
 30
0.0
 10
239.4268490655506
 20
127.3384880486273
 30
0.0
 10
239.4213002568087
 20
127.5270799586951
 30
0.0
 10
239.3879606847577
 20
127.8972010744215
 30
0.0
 10
239.3602804767319
 20
128.0801619398977
 30
0.0
 10
239.245105188305
 20
128.6229278633122
 30
0.0
 10
239.1234035353509
 20
128.9804305247667
 30
0.0
 10
238.8077115546967
 20
129.6494509057388
 30
0.0
 10
238.6135009936974
 20
129.9645700813233
 30
0.0
 10
238.1593324142479
 20
130.5536054984362
 30
0.0
 10
237.9054146378568
 20
130.820083453691
 30
0.0
 10
237.3488401856557
 20
131.3029928663339
 30
0.0
 10
237.0438422082372
 20
131.5201128673879
 30
0.0
 10
236.4075287563034
 20
131.8918378017555
 30
0.0
 10
236.0741803953125
 20
132.0486635232195
 30
0.0
 10
235.3774635509515
 20
132.3058716881778
 30
0.0
 10
235.0169686907297
 20
132.4045887079667
 30
0.0
 10
234.29107569991
 20
132.5399649823503
 30
0.0
 10
233.9229585872602
 20
132.5776662292387
 30
0.0
 10
233.1760868733804
 20
132.5916634366311
 30
0.0
 10
232.8041881653629
 20
132.56752503752
 30
0.0
 10
232.0742801365172
 20
132.4595126960499
 30
0.0
 10
231.7144804301239
 20
132.3756999112452
 30
0.0
 10
230.6512734691675
 20
132.0296720536479
 30
0.0
 10
229.9983434973411
 20
131.6865213226367
 30
0.0
 10
229.4169030365712
 20
131.2253733587726
 30
0.0
  0
LINE
  5
D4
330
1F
100
AcDbEntity
  8
0
  6
Continuous
 62
     7
370
    25
100
AcDbLine
 10
248.4232709915
 20
108.2976420279
 30
0.0
 11
248.4232709915
 21
146.2976420279
 31
0.0
  0
CIRCLE
  5
D5
330
1F
100
AcDbEntity
  8
0
  6
Continuous
 62
     7
370
    25
100
AcDbCircle
 10
233.4232709915
 20
127.2976420279
 30
0.0
 40
3.999999999999988
  0
CIRCLE
  5
D6
330
1F
100
AcDbEntity
  8
0
  6
Continuous
 62
     7
370
    25
100
AcDbCircle
 10
233.4232709915
 20
127.2976420279
 30
0.0
 40
4.999999999999986
  0
CIRCLE
  5
D7
330
1F
100
AcDbEntity
  8
0
  6
Continuous
 62
     7
370
    25
100
AcDbCircle
 10
233.4232709915
 20
127.2976420279
 30
0.0
 40
3.499999999999978
  0
SPLINE
  5
D8
330
1F
100
AcDbEntity
  8
0
  6
Continuous
 62
     7
370
    25
100
AcDbSpline
210
0.0
220
0.0
230
1.0
 70
    24
 71
     3
 72
    11
 73
     7
 74
     0
 42
0.000000001
 43
0.00000001
 40
0.0
 40
0.0
 40
0.0
 40
0.0
 40
0.2164543009645039
 40
0.4403089937225363
 40
0.7518987489759472
 40
1.0
 40
1.0
 40
1.0
 40
1.0
 10
231.2969656844498
 20
125.3451669128937
 30
0.0
 10
231.2539650771743
 20
125.538179193929
 30
0.0
 10
231.1664937077697
 20
125.9308026847077
 30
0.0
 10
231.0041698342676
 20
126.6594086992794
 30
0.0
 10
230.8300475174636
 20
127.4409731392933
 30
0.0
 10
230.7186194187626
 20
127.9411286688177
 30
0.0
 10
230.6692252881139
 20
128.162838882471
 30
0.0
  0
SPLINE
  5
D9
330
1F
100
AcDbEntity
  8
0
  6
Continuous
 62
     7
370
    25
100
AcDbSpline
210
0.0
220
0.0
230
1.0
 70
    24
 71
     3
 72
    11
 73
     7
 74
     0
 42
0.000000001
 43
0.00000001
 40
0.0
 40
0.0
 40
0.0
 40
0.0
 40
0.1867063023916576
 40
0.5329901920211924
 40
0.9021226680075592
 40
1.0
 40
1.0
 40
1.0
 40
1.0
 10
234.051011387803
 20
124.4799700583137
 30
0.0
 10
233.8892364260353
 20
124.5307924494965
 30
0.0
 10
233.427417693447
 20
124.6758750508255
 30
0.0
 10
232.5536712458757
 20
124.9503667476114
 30
0.0
 10
231.7829763765426
 20
125.1924842898061
 30
0.0
 10
231.3811761868596
 20
125.3187117739253
 30
0.0
 10
231.2969656844498
 20
125.3451669128937
 30
0.0
  0
SPLINE
  5
DA
330
1F
100
AcDbEntity
  8
0
  6
Continuous
 62
     7
370
    25
100
AcDbSpline
210
0.0
220
0.0
230
1.0
 70
    24
 71
     3
 72
    11
 73
     7
 74
     0
 42
0.000000001
 43
0.00000001
 40
0.0
 40
0.0
 40
0.0
 40
0.0
 40
0.2164543009645034
 40
0.440308993722535
 40
0.7518987489759481
 40
1.0
 40
1.0
 40
1.0
 40
1.0
 10
236.1773166948203
 20
126.4324451733109
 30
0.0
 10
236.031663459839
 20
126.2986994145145
 30
0.0
 10
235.7353772274046
 20
126.0266352411169
 30
0.0
 10
235.1855478461863
 20
125.5217556357376
 30
0.0
 10
234.5957543448417
 20
124.9801790660126
 30
0.0
 10
234.2183209997808
 20
124.6336017370799
 30
0.0
 10
234.051011387803
 20
124.4799700583137
 30
0.0
  0
SPLINE
  5
DB
330
1F
100
AcDbEntity
  8
0
  6
Continuous
 62
     7
370
    25
100
AcDbSpline
210
0.0
220
0.0
230
1.0
 70
    24
 71
     3
 72
    11
 73
     7
 74
     0
 42
0.000000001
 43
0.00000001
 40
0.0
 40
0.0
 40
0.0
 40
0.0
 40
0.216454300964505
 40
0.4403089937225377
 40
0.7518987489759464
 40
1.0
 40
1.0
 40
1.0
 40
1.0
 10
235.5495762984844
 20
129.2501171428881
 30
0.0
 10
235.5925769057598
 20
129.0571048618528
 30
0.0
 10
235.6800482751645
 20
128.6644813710742
 30
0.0
 10
235.8423721486666
 20
127.9358753565024
 30
0.0
 10
236.0164944654705
 20
127.1543109164886
 30
0.0
 10
236.1279225641716
 20
126.6541553869642
 30
0.0
 10
236.1773166948203
 20
126.4324451733109
 30
0.0
  0
SPLINE
  5
DC
330
1F
100
AcDbEntity
  8
0
  6
Continuous
 62
     7
370
    25
100
AcDbSpline
210
0.0
220
0.0
230
1.0
 70
    24
 71
     3
 72
    11
 73
     7
 74
     0
 42
0.000000001
 43
0.00000001
 40
0.0
 40
0.0
 40
0.0
 40
0.0
 40
0.0978773319924409
 40
0.4670098079788087
 40
0.8132936976083417
 40
1.0
 40
1.0
 40
1.0
 40
1.0
 10
232.7955305951312
 20
130.1153139974682
 30
0.0
 10
232.8797410975411
 20
130.0888588584997
 30
0.0
 10
233.281541287224
 20
129.9626313743806
 30
0.0
 10
234.0522361565572
 20
129.7205138321858
 30
0.0
 10
234.9259826041284
 20
129.4460221354
 30
0.0
 10
235.3878013367167
 20
129.3009395340709
 30
0.0
 10
235.5495762984844
 20
129.2501171428881
 30
0.0
  0
SPLINE
  5
DD
330
1F
100
AcDbEntity
  8
0
  6
Continuous
 62
     7
370
    25
100
AcDbSpline
210
0.0
220
0.0
230
1.0
 70
    24
 71
     3
 72
    11
 73
     7
 74
     0
 42
0.000000001
 43
0.00000001
 40
0.0
 40
0.0
 40
0.0
 40
0.0
 40
0.2164543009645049
 40
0.4403089937225365
 40
0.7518987489759474
 40
1.0
 40
1.0
 40
1.0
 40
1.0
 10
230.6692252881139
 20
128.162838882471
 30
0.0
 10
230.8148785230951
 20
128.2965846412673
 30
0.0
 10
231.1111647555296
 20
128.5686488146649
 30
0.0
 10
231.6609941367479
 20
129.0735284200443
 30
0.0
 10
232.2507876380924
 20
129.6151049897692
 30
0.0
 10
232.6282209831533
 20
129.9616823187019
 30
0.0
 10
232.7955305951312
 20
130.1153139974682
 30
0.0
  0
ARC
  5
DE
330
1F
100
AcDbEntity
  8
0
  6
Continuous
 62
     7
370
    25
100
AcDbCircle
 10
233.4232709915
 20
127.2976420279
 30
0.0
 40
2.500000000000002
100
AcDbArc
 50
72.5596350132
 51
132.5596350132
  0
ARC
  5
DF
330
1F
100
AcDbEntity
  8
0
  6
Continuous
 62
     7
370
    25
100
AcDbCircle
 10
233.4232709915
 20
127.2976420279
 30
0.0
 40
2.500000000000002
100
AcDbArc
 50
132.5596350132
 51
192.5596350132
  0
ARC
  5
E0
330
1F
100
AcDbEntity
  8
0
  6
Continuous
 62
     7
370
    25
100
AcDbCircle
 10
233.4232709915
 20
127.2976420279
 30
0.0
 40
2.499999999999983
100
AcDbArc
 50
312.5596350132
 51
12.5596350132
  0
ARC
  5
E1
330
1F
100
AcDbEntity
  8
0
  6
Continuous
 62
     7
370
    25
100
AcDbCircle
 10
233.4232709915
 20
127.2976420279
 30
0.0
 40
2.499999999999977
100
AcDbArc
 50
12.5596350132
 51
72.5596350132
  0
ARC
  5
E2
330
1F
100
AcDbEntity
  8
0
  6
Continuous
 62
     7
370
    25
100
AcDbCircle
 10
233.4232709915
 20
127.2976420279
 30
0.0
 40
2.500000000000012
100
AcDbArc
 50
192.5596350132
 51
252.5596350132
  0
ARC
  5
E3
330
1F
100
AcDbEntity
  8
0
  6
Continuous
 62
     7
370
    25
100
AcDbCircle
 10
233.4232709915
 20
127.2976420279
 30
0.0
 40
2.500000000000012
100
AcDbArc
 50
252.5596350132
 51
312.5596350132
  0
CIRCLE
  5
E4
330
1F
100
AcDbEntity
  8
0
  6
Continuous
 62
     7
370
    25
100
AcDbCircle
 10
213.4232709915
 20
127.2976420279
 30
0.0
 40
4.000000000000004
  0
CIRCLE
  5
E5
330
1F
100
AcDbEntity
  8
0
  6
Continuous
 62
     7
370
    25
100
AcDbCircle
 10
213.4232709915
 20
127.2976420279
 30
0.0
 40
5.000000000000004
  0
CIRCLE
  5
E6
330
1F
100
AcDbEntity
  8
0
  6
Continuous
 62
     7
370
    25
100
AcDbCircle
 10
213.4232709915
 20
127.2976420279
 30
0.0
 40
3.500000000000015
  0
SPLINE
  5
E7
330
1F
100
AcDbEntity
  8
0
  6
Continuous
 62
     7
370
    25
100
AcDbSpline
210
0.0
220
0.0
230
1.0
 70
    24
 71
     3
 72
    11
 73
     7
 74
     0
 42
0.000000001
 43
0.00000001
 40
0.0
 40
0.0
 40
0.0
 40
0.0
 40
0.1867063023916575
 40
0.5329901920211904
 40
0.9021226680075584
 40
0.9999999999999999
 40
0.9999999999999999
 40
0.9999999999999999
 40
0.9999999999999999
 10
215.1364121182615
 20
129.6211051356288
 30
0.0
 10
214.9678994095204
 20
129.6400133532396
 30
0.0
 10
214.4868464410915
 20
129.6939906127434
 30
0.0
 10
213.5767094271538
 20
129.7961138819245
 30
0.0
 10
212.7739159749093
 20
129.8861925080708
 30
0.0
 10
212.3553812548493
 20
129.9331548150903
 30
0.0
 10
212.2676634788073
 20
129.9429973178317
 30
0.0
  0
SPLINE
  5
E8
330
1F
100
AcDbEntity
  8
0
  6
Continuous
 62
     7
370
    25
100
AcDbSpline
210
0.0
220
0.0
230
1.0
 70
    24
 71
     3
 72
    11
 73
     7
 74
     0
 42
0.000000001
 43
0.00000001
 40
0.0
 40
0.0
 40
0.0
 40
0.0
 40
0.2164543009645044
 40
0.4403089937225377
 40
0.7518987489759454
 40
1.0
 40
1.0
 40
1.0
 40
1.0
 10
212.2676634788073
 20
129.9429973178317
 30
0.0
 10
212.1503122469436
 20
129.783838650972
 30
0.0
 10
211.9115976425961
 20
129.4600798153428
 30
0.0
 10
211.4686060728642
 20
128.8592685025954
 30
0.0
 10
210.993415844944
 20
128.2147874692108
 30
0.0
 10
210.6893218919668
 20
127.8023573022047
 30
0.0
 10
210.554522352013
 20
127.6195342100939
 30
0.0
  0
SPLINE
  5
E9
330
1F
100
AcDbEntity
  8
0
  6
Continuous
 62
     7
370
    25
100
AcDbSpline
210
0.0
220
0.0
230
1.0
 70
    24
 71
     3
 72
    11
 73
     7
 74
     0
 42
0.000000001
 43
0.00000001
 40
0.0
 40
0.0
 40
0.0
 40
0.0
 40
0.2164543009645032
 40
0.4403089937225338
 40
0.7518987489759423
 40
1.0
 40
1.0
 40
1.0
 40
1.0
 10
211.7101298646726
 20
124.9741789201531
 30
0.0
 10
211.6309700318716
 20
125.1553874015424
 30
0.0
 10
211.4699439576907
 20
125.5239997309762
 30
0.0
 10
211.1711218828363
 20
126.2080473404001
 30
0.0
 10
210.8505800496281
 20
126.9418146661014
 30
0.0
 10
210.6454520242024
 20
127.41138283802
 30
0.0
 10
210.554522352013
 20
127.6195342100939
 30
0.0
  0
SPLINE
  5
EA
330
1F
100
AcDbEntity
  8
0
  6
Continuous
 62
     7
370
    25
100
AcDbSpline
210
0.0
220
0.0
230
1.0
 70
    24
 71
     3
 72
    11
 73
     7
 74
     0
 42
0.000000001
 43
0.00000001
 40
0.0
 40
0.0
 40
0.0
 40
0.0
 40
0.1867063023916609
 40
0.5329901920211924
 40
0.9021226680075568
 40
0.9999999999999999
 40
0.9999999999999999
 40
0.9999999999999999
 40
0.9999999999999999
 10
214.5788785041268
 20
124.6522867379501
 30
0.0
 10
214.4103657953858
 20
124.671194955561
 30
0.0
 10
213.9293128269568
 20
124.7251722150647
 30
0.0
 10
213.019175813019
 20
124.8272954842459
 30
0.0
 10
212.2163823607746
 20
124.9173741103922
 30
0.0
 10
211.7978476407146
 20
124.9643364174117
 30
0.0
 10
211.7101298646726
 20
124.9741789201531
 30
0.0
  0
SPLINE
  5
EB
330
1F
100
AcDbEntity
  8
0
  6
Continuous
 62
     7
370
    25
100
AcDbSpline
210
0.0
220
0.0
230
1.0
 70
    24
 71
     3
 72
    11
 73
     7
 74
     0
 42
0.000000001
 43
0.00000001
 40
0.0
 40
0.0
 40
0.0
 40
0.0
 40
0.2164543009645037
 40
0.4403089937225349
 40
0.7518987489759438
 40
1.0
 40
1.0
 40
1.0
 40
1.0
 10
214.5788785041268
 20
124.6522867379501
 30
0.0
 10
214.6962297359906
 20
124.8114454048098
 30
0.0
 10
214.934944340338
 20
125.1352042404391
 30
0.0
 10
215.3779359100699
 20
125.7360155531865
 30
0.0
 10
215.8531261379901
 20
126.3804965865711
 30
0.0
 10
216.1572200909673
 20
126.7929267535772
 30
0.0
 10
216.2920196309212
 20
126.975749845688
 30
0.0
  0
SPLINE
  5
EC
330
1F
100
AcDbEntity
  8
0
  6
Continuous
 62
     7
370
    25
100
AcDbSpline
210
0.0
220
0.0
230
1.0
 70
    24
 71
     3
 72
    11
 73
     7
 74
     0
 42
0.000000001
 43
0.00000001
 40
0.0
 40
0.0
 40
0.0
 40
0.0
 40
0.2164543009645055
 40
0.4403089937225386
 40
0.751898748975949
 40
1.0
 40
1.0
 40
1.0
 40
1.0
 10
215.1364121182615
 20
129.6211051356288
 30
0.0
 10
215.2155719510625
 20
129.4398966542395
 30
0.0
 10
215.3765980252434
 20
129.0712843248057
 30
0.0
 10
215.6754201000978
 20
128.3872367153817
 30
0.0
 10
215.9959619333061
 20
127.6534693896804
 30
0.0
 10
216.2010899587317
 20
127.1839012177619
 30
0.0
 10
216.2920196309212
 20
126.975749845688
 30
0.0
  0
ARC
  5
ED
330
1F
100
AcDbEntity
  8
0
  6
Continuous
 62
     7
370
    25
100
AcDbCircle
 10
213.4232709915
 20
127.2976420279
 30
0.0
 40
2.500000000000013
100
AcDbArc
 50
23.5978211737
 51
83.5978211737
  0
ARC
  5
EE
330
1F
100
AcDbEntity
  8
0
  6
Continuous
 62
     7
370
    25
100
AcDbCircle
 10
213.4232709915
 20
127.2976420279
 30
0.0
 40
2.500000000000013
100
AcDbArc
 50
323.5978211737
 51
23.5978211737
  0
ARC
  5
EF
330
1F
100
AcDbEntity
  8
0
  6
Continuous
 62
     7
370
    25
100
AcDbCircle
 10
213.4232709915
 20
127.2976420279
 30
0.0
 40
2.5
100
AcDbArc
 50
203.5978211737
 51
263.5978211737
  0
ARC
  5
F0
330
1F
100
AcDbEntity
  8
0
  6
Continuous
 62
     7
370
    25
100
AcDbCircle
 10
213.4232709915
 20
127.2976420279
 30
0.0
 40
2.5
100
AcDbArc
 50
263.5978211737
 51
323.5978211737
  0
ARC
  5
F1
330
1F
100
AcDbEntity
  8
0
  6
Continuous
 62
     7
370
    25
100
AcDbCircle
 10
213.4232709915
 20
127.2976420279
 30
0.0
 40
2.5
100
AcDbArc
 50
83.5978211737
 51
143.5978211737
  0
ARC
  5
F2
330
1F
100
AcDbEntity
  8
0
  6
Continuous
 62
     7
370
    25
100
AcDbCircle
 10
213.4232709915
 20
127.2976420279
 30
0.0
 40
2.499999999999992
100
AcDbArc
 50
143.5978211737
 51
203.5978211737
  0
LINE
  5
F3
330
1F
100
AcDbEntity
  8
0
  6
Continuous
 62
     7
370
    25
100
AcDbLine
 10
178.9232709915
 20
95.7976420279
 30
0.0
 11
178.9232709915
 21
158.7976420279
 31
0.0
  0
LINE
  5
F4
330
1F
100
AcDbEntity
  8
0
  6
Continuous
 62
     7
370
    25
100
AcDbLine
 10
199.4232709915
 20
95.7976420279
 30
0.0
 11
199.4232709915
 21
158.7976420279
 31
0.0
  0
LINE
  5
F5
330
1F
100
AcDbEntity
  8
0
  6
Continuous
 62
     7
370
    25
100
AcDbLine
 10
203.4232709915
 20
147.2976420279
 30
0.0
 11
203.4232709915
 21
107.2976420279
 31
0.0
  0
SPLINE
  5
F6
330
1F
100
AcDbEntity
  8
0
  6
HIDDEN
 62
     7
370
    18
100
AcDbSpline
210
0.0
220
0.0
230
1.0
 70
    11
 71
     3
 72
    30
 73
    26
 74
     0
 42
0.000000001
 43
0.00000001
 40
0.0
 40
0.0
 40
0.0
 40
0.0
 40
0.0200284200922053
 40
0.0564510748382554
 40
0.0736435094323818
 40
0.1272559928157508
 40
0.1809361562422927
 40
0.2346609768701301
 40
0.2883120557613568
 40
0.34188606396858
 40
0.3954999501466492
 40
0.4492083518229943
 40
0.5029185737955866
 40
0.5565352244504722
 40
0.6101089618523557
 40
0.6637569415505304
 40
0.7174810185302283
 40
0.7648871613627543
 40
0.7706160424355342
 40
0.771164178305736
 40
0.8247529460215383
 40
0.878341305944904
 40
0.9320236941967395
 40
0.9857479855980812
 40
1.0
 40
1.0
 40
1.0
 40
1.0
 10
188.4501376038678
 20
127.0485121474634
 30
0.0
 10
188.4363935377133
 20
127.131751231352
 30
0.0
 10
188.3976552196883
 20
127.3663646323308
 30
0.0
 10
188.4959990700518
 20
127.6663433061973
 30
0.0
 10
188.5438606508146
 20
128.1125783499922
 30
0.0
 10
188.8422932368337
 20
128.5675575655702
 30
0.0
 10
189.3380161415315
 20
129.0255335811437
 30
0.0
 10
189.9746894068953
 20
129.2856465391584
 30
0.0
 10
190.656780248064
 20
129.3224502460297
 30
0.0
 10
191.3132656506241
 20
129.1312347984084
 30
0.0
 10
191.8693645643196
 20
128.7340106363541
 30
0.0
 10
192.2632609089699
 20
128.1747172637849
 30
0.0
 10
192.4498191754986
 20
127.5161080089854
 30
0.0
 10
192.4078759567868
 20
126.8339774262145
 30
0.0
 10
192.1431488191162
 20
126.2022585462566
 30
0.0
 10
191.6839077103217
 20
125.7017873456073
 30
0.0
 10
191.1093779891345
 20
125.3631760859456
 30
0.0
 10
190.6567986662216
 20
125.3393613447489
 30
0.0
 10
190.436170864654
 20
125.3022958785743
 30
0.0
 10
190.1897641783013
 20
125.2618879089286
 30
0.0
 10
189.7337495789171
 20
125.3963149967085
 30
0.0
 10
189.1384479741601
 20
125.7097206316408
 30
0.0
 10
188.6941343985251
 20
126.2298731167784
 30
0.0
 10
188.4787284545796
 20
126.7061408575805
 30
0.0
 10
188.4550930403292
 20
126.9891715146736
 30
0.0
 10
188.4501376038678
 20
127.0485121474634
 30
0.0
  0
SPLINE
  5
F7
330
1F
100
AcDbEntity
  8
0
  6
HIDDEN
 62
     7
370
    18
100
AcDbSpline
210
0.0
220
0.0
230
1.0
 70
     8
 71
     3
 72
    12
 73
     8
 74
     0
 42
0.000000001
 43
0.00000001
 40
0.0
 40
0.0
 40
0.0
 40
0.0
 40
0.2500000000000001
 40
0.2500000000000001
 40
0.5000000000000001
 40
0.5000000000000001
 40
1.0
 40
1.0
 40
1.0
 40
1.0
 10
188.9510278050335
 20
117.9095755965549
 30
0.0
 10
188.8879477665402
 20
117.9095755965549
 30
0.0
 10
188.8287991443587
 20
117.8842112773399
 30
0.0
 10
188.7303265942897
 20
117.810046416967
 30
0.0
 10
188.6912899823049
 20
117.7635260764129
 30
0.0
 10
188.5913935155259
 20
117.6133837335676
 30
0.0
 10
188.5489726344593
 20
117.5016905265955
 30
0.0
 10
188.5180151031413
 20
117.3882727072057
 30
0.0
  0
LINE
  5
F8
330
1F
100
AcDbEntity
  8
0
  6
HIDDEN
 62
     7
370
    18
100
AcDbLine
 10
191.8955141779
 20
117.9095755966
 30
0.0
 11
188.951027805
 21
117.9095755966
 31
0.0
  0
SPLINE
  5
F9
330
1F
100
AcDbEntity
  8
0
  6
HIDDEN
 62
     7
370
    18
100
AcDbSpline
210
0.0
220
0.0
230
1.0
 70
     8
 71
     3
 72
    12
 73
     8
 74
     0
 42
0.000000001
 43
0.00000001
 40
0.0
 40
0.0
 40
0.0
 40
0.0
 40
0.4999999999999981
 40
0.4999999999999981
 40
0.749999999999999
 40
0.749999999999999
 40
1.0
 40
1.0
 40
1.0
 40
1.0
 10
192.3285268797929
 20
117.3882727072057
 30
0.0
 10
192.2978046378738
 20
117.5008285066149
 30
0.0
 10
192.2549674233386
 20
117.6135863663545
 30
0.0
 10
192.1555403991388
 20
117.7631272521509
 30
0.0
 10
192.1157882043221
 20
117.8104199838577
 30
0.0
 10
192.0177467474639
 20
117.8841562771792
 30
0.0
 10
191.9581906918765
 20
117.9095755965549
 30
0.0
 10
191.8955141779006
 20
117.9095755965549
 30
0.0
  0
ELLIPSE
  5
FA
330
1F
100
AcDbEntity
  8
0
  6
HIDDEN
 62
     7
370
    18
100
AcDbEllipse
 10
176.0761168021
 20
127.2976420279
 30
0.0
 11
-14.75368316065618
 21
31.09325491558116
 31
0.0
210
0.0
220
0.0
230
1.0
 40
0.3419987131
 41
3.300734856217132
 42
4.23149622336078
  0
SPLINE
  5
FB
330
1F
100
AcDbEntity
  8
0
  6
HIDDEN
 62
     7
370
    18
100
AcDbSpline
210
0.0
220
0.0
230
1.0
 70
     8
 71
     3
 72
    12
 73
     8
 74
     0
 42
0.000000001
 43
0.00000001
 40
0.0
 40
0.0
 40
0.0
 40
0.0
 40
0.2499999999999982
 40
0.2499999999999982
 40
0.4999999999999963
 40
0.4999999999999963
 40
1.0
 40
1.0
 40
1.0
 40
1.0
 10
191.8955141779006
 20
97.22915006901783
 30
0.0
 10
191.958594216394
 20
97.22915006901783
 30
0.0
 10
192.0177428385754
 20
97.23705599523028
 30
0.0
 10
192.1162153886445
 20
97.26038115666653
 30
0.0
 10
192.1552520006292
 20
97.27509394649823
 30
0.0
 10
192.2551484674083
 20
97.32304974722915
 30
0.0
 10
192.2975693484749
 20
97.35931190380921
 30
0.0
 10
192.3285268797929
 20
97.39689956777372
 30
0.0
  0
LINE
  5
FC
330
1F
100
AcDbEntity
  8
0
  6
HIDDEN
 62
     7
370
    18
100
AcDbLine
 10
188.951027805
 20
97.229150069
 30
0.0
 11
191.8955141779
 21
97.229150069
 31
0.0
  0
SPLINE
  5
FD
330
1F
100
AcDbEntity
  8
0
  6
HIDDEN
 62
     7
370
    18
100
AcDbSpline
210
0.0
220
0.0
230
1.0
 70
     8
 71
     3
 72
    12
 73
     8
 74
     0
 42
0.000000001
 43
0.00000001
 40
0.0
 40
0.0
 40
0.0
 40
0.0
 40
0.4999999999999971
 40
0.4999999999999971
 40
0.7499999999999986
 40
0.7499999999999986
 40
1.0
 40
1.0
 40
1.0
 40
1.0
 10
188.5180151031413
 20
97.39689956777372
 30
0.0
 10
188.5487373450604
 20
97.35959758482066
 30
0.0
 10
188.5915745595956
 20
97.32298575277427
 30
0.0
 10
188.6910015837954
 20
97.27522096948907
 30
0.0
 10
188.730753778612
 20
97.26026345400669
 30
0.0
 10
188.8287952354702
 20
97.23707350823756
 30
0.0
 10
188.8883512910577
 20
97.22915006901785
 30
0.0
 10
188.9510278050335
 20
97.22915006901785
 30
0.0
  0
ELLIPSE
  5
FE
330
1F
100
AcDbEntity
  8
0
  6
HIDDEN
 62
     7
370
    18
100
AcDbEllipse
 10
204.7704251808
 20
127.2976420279
 30
0.0
 11
14.75368316065615
 21
31.09325491558116
 31
0.0
210
0.0
220
0.0
230
1.0
 40
0.3419987131
 41
2.051689083818822
 42
2.982450450962497
  0
SPLINE
  5
FF
330
1F
100
AcDbEntity
  8
0
  6
HIDDEN
 62
     7
370
    18
100
AcDbSpline
210
0.0
220
0.0
230
1.0
 70
     8
 71
     3
 72
    12
 73
     8
 74
     0
 42
0.000000001
 43
0.00000001
 40
0.0
 40
0.0
 40
0.0
 40
0.0
 40
0.2500000000000009
 40
0.2500000000000009
 40
0.5000000000000019
 40
0.5000000000000019
 40
1.0
 40
1.0
 40
1.0
 40
1.0
 10
188.9510278050335
 20
157.3661339867641
 30
0.0
 10
188.8879477665402
 20
157.3661339867641
 30
0.0
 10
188.8287991443588
 20
157.3582280605517
 30
0.0
 10
188.7303265942897
 20
157.3349028991154
 30
0.0
 10
188.691289982305
 20
157.3201901092838
 30
0.0
 10
188.5913935155259
 20
157.2722343085528
 30
0.0
 10
188.5489726344593
 20
157.2359721519728
 30
0.0
 10
188.5180151031413
 20
157.1983844880083
 30
0.0
  0
LINE
  5
100
330
1F
100
AcDbEntity
  8
0
  6
HIDDEN
 62
     7
370
    18
100
AcDbLine
 10
191.8955141779
 20
157.3661339868
 30
0.0
 11
188.951027805
 21
157.3661339868
 31
0.0
  0
SPLINE
  5
101
330
1F
100
AcDbEntity
  8
0
  6
HIDDEN
 62
     7
370
    18
100
AcDbSpline
210
0.0
220
0.0
230
1.0
 70
     8
 71
     3
 72
    12
 73
     8
 74
     0
 42
0.000000001
 43
0.00000001
 40
0.0
 40
0.0
 40
0.0
 40
0.0
 40
0.5000000000000037
 40
0.5000000000000037
 40
0.7500000000000018
 40
0.7500000000000018
 40
1.0
 40
1.0
 40
1.0
 40
1.0
 10
192.3285268797929
 20
157.1983844880083
 30
0.0
 10
192.2978046378738
 20
157.2356864709613
 30
0.0
 10
192.2549674233386
 20
157.2722983030077
 30
0.0
 10
192.1555403991388
 20
157.3200630862929
 30
0.0
 10
192.1157882043222
 20
157.3350206017753
 30
0.0
 10
192.0177467474639
 20
157.3582105475444
 30
0.0
 10
191.9581906918764
 20
157.3661339867641
 30
0.0
 10
191.8955141779006
 20
157.3661339867641
 30
0.0
  0
ELLIPSE
  5
102
330
1F
100
AcDbEntity
  8
0
  6
HIDDEN
 62
     7
370
    18
100
AcDbEllipse
 10
176.0761168021
 20
127.2976420279
 30
0.0
 11
14.75368316065638
 21
31.09325491558116
 31
0.0
210
0.0
220
0.0
230
1.0
 40
0.3419987131
 41
5.193281737408638
 42
6.124043104552343
  0
SPLINE
  5
103
330
1F
100
AcDbEntity
  8
0
  6
HIDDEN
 62
     7
370
    18
100
AcDbSpline
210
0.0
220
0.0
230
1.0
 70
     8
 71
     3
 72
    12
 73
     8
 74
     0
 42
0.000000001
 43
0.00000001
 40
0.0
 40
0.0
 40
0.0
 40
0.0
 40
0.2500000000000009
 40
0.2500000000000009
 40
0.5000000000000018
 40
0.5000000000000018
 40
1.0
 40
1.0
 40
1.0
 40
1.0
 10
191.8955141779006
 20
136.6857084592274
 30
0.0
 10
191.958594216394
 20
136.6857084592274
 30
0.0
 10
192.0177428385754
 20
136.7110727784423
 30
0.0
 10
192.1162153886445
 20
136.7852376388153
 30
0.0
 10
192.1552520006292
 20
136.8317579793694
 30
0.0
 10
192.2551484674083
 20
136.9819003222146
 30
0.0
 10
192.2975693484749
 20
137.0935935291868
 30
0.0
 10
192.3285268797929
 20
137.2070113485765
 30
0.0
  0
LINE
  5
104
330
1F
100
AcDbEntity
  8
0
  6
HIDDEN
 62
     7
370
    18
100
AcDbLine
 10
188.951027805
 20
136.6857084592
 30
0.0
 11
191.8955141779
 21
136.6857084592
 31
0.0
  0
SPLINE
  5
105
330
1F
100
AcDbEntity
  8
0
  6
HIDDEN
 62
     7
370
    18
100
AcDbSpline
210
0.0
220
0.0
230
1.0
 70
     8
 71
     3
 72
    12
 73
     8
 74
     0
 42
0.000000001
 43
0.00000001
 40
0.0
 40
0.0
 40
0.0
 40
0.0
 40
0.4999999999999971
 40
0.4999999999999971
 40
0.7499999999999986
 40
0.7499999999999986
 40
1.0
 40
1.0
 40
1.0
 40
1.0
 10
188.5180151031413
 20
137.2070113485765
 30
0.0
 10
188.5487373450604
 20
137.0944555491673
 30
0.0
 10
188.5915745595956
 20
136.9816976894278
 30
0.0
 10
188.6910015837954
 20
136.8321568036314
 30
0.0
 10
188.730753778612
 20
136.7848640719245
 30
0.0
 10
188.8287952354702
 20
136.7111277786031
 30
0.0
 10
188.8883512910577
 20
136.6857084592274
 30
0.0
 10
188.9510278050335
 20
136.6857084592274
 30
0.0
  0
ELLIPSE
  5
106
330
1F
100
AcDbEntity
  8
0
  6
HIDDEN
 62
     7
370
    18
100
AcDbEllipse
 10
204.7704251808
 20
127.2976420279
 30
0.0
 11
-14.75368316065629
 21
31.09325491558115
 31
0.0
210
0.0
220
0.0
230
1.0
 40
0.3419987131
 41
0.1591422026272801
 42
1.08990356977096
  0
LINE
  5
107
330
1F
100
AcDbEntity
  8
0
  6
HIDDEN
 62
     7
370
    18
100
AcDbLine
 10
200.4232709915
 20
96.7976420279
 30
0.0
 11
200.4232709915
 21
157.7976420279
 31
0.0
  0
LINE
  5
108
330
1F
100
AcDbEntity
  8
0
  6
HIDDEN
 62
     7
370
    18
100
AcDbLine
 10
178.4232709915
 20
158.2976420255
 30
0.0
 11
178.4232709915
 21
96.2976420279
 31
0.0
  0
LINE
  5
109
330
1F
100
AcDbEntity
  8
0
  6
HIDDEN
 62
     7
370
    18
100
AcDbLine
 10
178.5161642103
 20
103.1405352467
 30
0.0
 11
178.5161642103
 21
151.4547488091
 31
0.0
  0
LINE
  5
10A
330
1F
100
AcDbEntity
  8
0
  6
HIDDEN
 62
     7
370
    18
100
AcDbLine
 10
178.4232709915
 20
103.0476420279
 30
0.0
 11
178.4232709915
 21
151.5476420279
 31
0.0
  0
SPLINE
  5
10B
330
1F
100
AcDbEntity
  8
0
  6
HIDDEN
 62
     7
370
    18
100
AcDbSpline
210
0.0
220
0.0
230
1.0
 70
     8
 71
     3
 72
    12
 73
     8
 74
     0
 42
0.000000001
 43
0.00000001
 40
0.0
 40
0.0
 40
0.0
 40
0.0
 40
0.5000000000000002
 40
0.5000000000000002
 40
0.75
 40
0.75
 40
1.0
 40
1.0
 40
1.0
 40
1.0
 10
177.6067587050117
 20
142.7499100097289
 30
0.0
 10
177.6631648836924
 20
142.7020876360669
 30
0.0
 10
177.7333277851644
 20
142.6618167891257
 30
0.0
 10
177.8513384985563
 20
142.653770920646
 30
0.0
 10
177.891544282153
 20
142.6603335189843
 30
0.0
 10
177.9652649788881
 20
142.687715613438
 30
0.0
 10
177.9981257006756
 20
142.7074771039688
 30
0.0
 10
178.0282941026056
 20
142.7304098151574
 30
0.0
  0
SPLINE
  5
10C
330
1F
100
AcDbEntity
  8
0
  6
HIDDEN
 62
     7
370
    18
100
AcDbSpline
210
0.0
220
0.0
230
1.0
 70
     8
 71
     3
 72
    16
 73
    12
 74
     0
 42
0.000000001
 43
0.00000001
 40
0.0
 40
0.0
 40
0.0
 40
0.0
 40
0.0625000000000036
 40
0.0625000000000036
 40
0.1250000000000071
 40
0.1250000000000071
 40
0.2500000000000061
 40
0.2500000000000061
 40
0.500000000000004
 40
0.500000000000004
 40
1.0
 40
1.0
 40
1.0
 40
1.0
 10
178.0282941025604
 20
142.7304098152055
 30
0.0
 10
178.0399070023998
 20
142.7392374381868
 30
0.0
 10
178.0532581868323
 20
142.7470718200688
 30
0.0
 10
178.0826580264514
 20
142.7553819461411
 30
0.0
 10
178.0974987510067
 20
142.7548861269061
 30
0.0
 10
178.1333319589753
 20
142.7434351559368
 30
0.0
 10
178.1474451667969
 20
142.7267546550781
 30
0.0
 10
178.1819365380158
 20
142.6746339693211
 30
0.0
 10
178.1930206091262
 20
142.6348444752961
 30
0.0
 10
178.2191434269222
 20
142.511507843199
 30
0.0
 10
178.2232709914671
 20
142.4240864327003
 30
0.0
 10
178.2232709914671
 20
142.3353491903821
 30
0.0
  0
LINE
  5
10D
330
1F
100
AcDbEntity
  8
0
  6
HIDDEN
 62
     7
370
    18
100
AcDbLine
 10
178.2232709915
 20
112.2599348654
 30
0.0
 11
178.2232709915
 21
142.3353491904
 31
0.0
  0
SPLINE
  5
10E
330
1F
100
AcDbEntity
  8
0
  6
HIDDEN
 62
     7
370
    18
100
AcDbSpline
210
0.0
220
0.0
230
1.0
 70
     8
 71
     3
 72
    16
 73
    12
 74
     0
 42
0.000000001
 43
0.00000001
 40
0.0
 40
0.0
 40
0.0
 40
0.0
 40
0.4999999999999973
 40
0.4999999999999973
 40
0.7499999999999933
 40
0.7499999999999933
 40
0.8749999999999966
 40
0.8749999999999966
 40
0.9374999999999982
 40
0.9374999999999982
 40
1.0
 40
1.0
 40
1.0
 40
1.0
 10
178.2232709914671
 20
112.2599348653998
 30
0.0
 10
178.2232709914671
 20
112.170808500211
 30
0.0
 10
178.2191247163892
 20
112.0839471325976
 30
0.0
 10
178.1931591209956
 20
111.9609648861036
 30
0.0
 10
178.1816982156182
 20
111.9201935908723
 30
0.0
 10
178.1473864778438
 20
111.8684892708725
 30
0.0
 10
178.1333617419142
 20
111.8518189042821
 30
0.0
 10
178.0973387788804
 20
111.8403666838254
 30
0.0
 10
178.0825842697907
 20
111.8399136375503
 30
0.0
 10
178.0532321086439
 20
111.8482289587665
 30
0.0
 10
178.0398922341398
 20
111.8560578438448
 30
0.0
 10
178.0282941025914
 20
111.8648742406074
 30
0.0
  0
SPLINE
  5
10F
330
1F
100
AcDbEntity
  8
0
  6
HIDDEN
 62
     7
370
    18
100
AcDbSpline
210
0.0
220
0.0
230
1.0
 70
     8
 71
     3
 72
    12
 73
     8
 74
     0
 42
0.000000001
 43
0.00000001
 40
0.0
 40
0.0
 40
0.0
 40
0.0
 40
0.2500000000000004
 40
0.2500000000000004
 40
0.5000000000000008
 40
0.5000000000000008
 40
1.0
 40
1.0
 40
1.0
 40
1.0
 10
178.0282941025985
 20
111.8648742406163
 30
0.0
 10
177.9981022608813
 20
111.8878247697141
 30
0.0
 10
177.9647432914667
 20
111.9077942437383
 30
0.0
 10
177.8916060068861
 20
111.9348953773638
 30
0.0
 10
177.8513641342321
 20
111.9414961180092
 30
0.0
 10
177.7336583572636
 20
111.9335272435025
 30
0.0
 10
177.6632478794842
 20
111.8932667853347
 30
0.0
 10
177.6067587050159
 20
111.8453740460565
 30
0.0
  0
SPLINE
  5
110
330
1F
100
AcDbEntity
  8
0
  6
HIDDEN
 62
     7
370
    18
100
AcDbSpline
210
0.0
220
0.0
230
1.0
 70
     8
 71
     3
 72
    12
 73
     8
 74
     0
 42
0.000000001
 43
0.00000001
 40
0.0
 40
0.0
 40
0.0
 40
0.0
 40
0.2499999999999977
 40
0.2499999999999977
 40
0.4999999999999953
 40
0.4999999999999953
 40
1.0
 40
1.0
 40
1.0
 40
1.0
 10
177.6067587050156
 20
111.8453740460567
 30
0.0
 10
177.5186047672778
 20
111.7706352382026
 30
0.0
 10
177.4582513426491
 20
111.6796547377203
 30
0.0
 10
177.3519893845823
 20
111.4907409149677
 30
0.0
 10
177.3097572180202
 20
111.3942364554271
 30
0.0
 10
177.198686522703
 20
111.1034687012599
 30
0.0
 10
177.1457497462762
 20
110.9078018867162
 30
0.0
 10
177.1019506479074
 20
110.7137354016499
 30
0.0
  0
LINE
  5
111
330
1F
100
AcDbEntity
  8
0
  6
HIDDEN
 62
     7
370
    18
100
AcDbLine
 10
177.1019506479
 20
110.7137354016
 30
0.0
 11
177.1019506479
 21
105.5275610729
 31
0.0
  0
SPLINE
  5
112
330
1F
100
AcDbEntity
  8
0
  6
HIDDEN
 62
     7
370
    18
100
AcDbSpline
210
0.0
220
0.0
230
1.0
 70
     8
 71
     3
 72
    12
 73
     8
 74
     0
 42
0.000000001
 43
0.00000001
 40
0.0
 40
0.0
 40
0.0
 40
0.0
 40
0.4999999999999991
 40
0.4999999999999991
 40
0.7499999999999996
 40
0.7499999999999996
 40
1.0
 40
1.0
 40
1.0
 40
1.0
 10
177.1019506479074
 20
105.5275610728888
 30
0.0
 10
177.145697188744
 20
105.5009669022476
 30
0.0
 10
177.1985815439755
 20
105.4812066769219
 30
0.0
 10
177.3101486313117
 20
105.4607556866928
 30
0.0
 10
177.3527322278547
 20
105.4554954620364
 30
0.0
 10
177.4576489549364
 20
105.4476126681137
 30
0.0
 10
177.5191825627813
 20
105.4450485429346
 30
0.0
 10
177.6067587050074
 20
105.442848325415
 30
0.0
  0
LINE
  5
113
330
1F
100
AcDbEntity
  8
0
  6
HIDDEN
 62
     7
370
    18
100
AcDbLine
 10
178.2232709915
 20
104.757821749
 30
0.0
 11
178.2232709915
 21
105.2380475396
 31
0.0
  0
LINE
  5
114
330
1F
100
AcDbEntity
  8
0
  6
HIDDEN
 62
     7
370
    18
100
AcDbLine
 10
178.2232709915
 20
149.3572365161
 30
0.0
 11
178.2232709915
 21
149.8374623068
 31
0.0
  0
SPLINE
  5
115
330
1F
100
AcDbEntity
  8
0
  6
HIDDEN
 62
     7
370
    18
100
AcDbSpline
210
0.0
220
0.0
230
1.0
 70
     8
 71
     3
 72
    12
 73
     8
 74
     0
 42
0.000000001
 43
0.00000001
 40
0.0
 40
0.0
 40
0.0
 40
0.0
 40
0.2499999999999997
 40
0.2499999999999997
 40
0.4999999999999992
 40
0.4999999999999992
 40
1.0
 40
1.0
 40
1.0
 40
1.0
 10
177.6067587050154
 20
149.1524357303668
 30
0.0
 10
177.518074045159
 20
149.1502076630258
 30
0.0
 10
177.4581556294356
 20
149.1477058789955
 30
0.0
 10
177.3524964021149
 20
149.1397744431595
 30
0.0
 10
177.3098551639999
 20
149.1344822882627
 30
0.0
 10
177.1986658218974
 20
149.1140773477755
 30
0.0
 10
177.1457391397764
 20
149.0943426561886
 30
0.0
 10
177.1019506479074
 20
149.067722982893
 30
0.0
  0
LINE
  5
116
330
1F
100
AcDbEntity
  8
0
  6
HIDDEN
 62
     7
370
    18
100
AcDbLine
 10
177.1019506479
 20
149.0677229829
 30
0.0
 11
177.1019506479
 21
143.8815486541
 31
0.0
  0
SPLINE
  5
117
330
1F
100
AcDbEntity
  8
0
  6
HIDDEN
 62
     7
370
    18
100
AcDbSpline
210
0.0
220
0.0
230
1.0
 70
     8
 71
     3
 72
    12
 73
     8
 74
     0
 42
0.000000001
 43
0.00000001
 40
0.0
 40
0.0
 40
0.0
 40
0.0
 40
0.4999999999999953
 40
0.4999999999999953
 40
0.7499999999999977
 40
0.7499999999999977
 40
1.0
 40
1.0
 40
1.0
 40
1.0
 10
177.1019506479059
 20
143.8815486541322
 30
0.0
 10
177.1457121242043
 20
143.6876488661713
 30
0.0
 10
177.198618439857
 20
143.4917925022358
 30
0.0
 10
177.3103296375032
 20
143.1996503557386
 30
0.0
 10
177.3528490810891
 20
143.1029324190413
 30
0.0
 10
177.457972423655
 20
142.9162079826177
 30
0.0
 10
177.5195383873719
 20
142.8238572743485
 30
0.0
 10
177.6067587050125
 20
142.7499100097282
 30
0.0
  0
LINE
  5
118
330
1F
100
AcDbEntity
  8
0
  6
HIDDEN
 62
     7
370
    18
100
AcDbLine
 10
200.4232709915
 20
104.2976420279
 30
0.0
 11
200.4232709915
 21
150.2976420279
 31
0.0
  0
LINE
  5
119
330
1F
100
AcDbEntity
  8
0
  6
HIDDEN
 62
     7
370
    18
100
AcDbLine
 10
178.2232709915
 20
105.2380475396
 30
0.0
 11
178.2232709915
 21
120.2757547021
 31
0.0
  0
LINE
  5
11A
330
1F
100
AcDbEntity
  8
0
  6
HIDDEN
 62
     7
370
    18
100
AcDbLine
 10
178.2232709915
 20
134.3195293536
 30
0.0
 11
178.2232709915
 21
149.3572365161
 31
0.0
  0
LINE
  5
11B
330
1F
100
AcDbEntity
  8
0
  6
HIDDEN
 62
     7
370
    18
100
AcDbLine
 10
247.4232709915
 20
127.2976420279
 30
0.0
 11
247.4232709915
 21
107.2976420279
 31
0.0
  0
LINE
  5
11C
330
1F
100
AcDbEntity
  8
0
  6
HIDDEN
 62
     7
370
    18
100
AcDbLine
 10
247.4232709915
 20
147.2976420279
 30
0.0
 11
247.4232709915
 21
127.2976420279
 31
0.0
  0
LINE
  5
11D
330
1F
100
AcDbEntity
  8
0
  6
HIDDEN
 62
     7
370
    18
100
AcDbLine
 10
248.4232709915
 20
127.2976420279
 30
0.0
 11
248.4232709915
 21
108.2976420279
 31
0.0
  0
LINE
  5
11E
330
1F
100
AcDbEntity
  8
0
  6
HIDDEN
 62
     7
370
    18
100
AcDbLine
 10
248.4232709915
 20
146.2976420279
 30
0.0
 11
248.4232709915
 21
127.2976420279
 31
0.0
  0
CIRCLE
  5
11F
330
1F
100
AcDbEntity
  8
0
  6
HIDDEN
 62
     7
370
    18
100
AcDbCircle
 10
213.4232709915
 20
127.2976420279
 30
0.0
 40
4.5
  0
CIRCLE
  5
120
330
1F
100
AcDbEntity
  8
0
  6
HIDDEN
 62
     7
370
    18
100
AcDbCircle
 10
233.4232709915
 20
127.2976420279
 30
0.0
 40
4.5
  0
CIRCLE
  5
121
330
1F
100
AcDbEntity
  8
0
  6
HIDDEN
 62
     7
370
    18
100
AcDbCircle
 10
162.9232709915
 20
127.2976420279
 30
0.0
 40
4.049999999999983
  0
LINE
  5
122
330
1F
100
AcDbEntity
  8
0
  6
HIDDEN
 62
     7
370
    18
100
AcDbLine
 10
141.9534994311
 20
142.6105930708
 30
0.0
 11
141.9534994311
 21
111.984690985
 31
0.0
  0
LINE
  5
123
330
1F
100
AcDbEntity
  8
0
  6
HIDDEN
 62
     7
370
    18
100
AcDbLine
 10
140.4232709915
 20
111.1012131834
 30
0.0
 11
140.4232709915
 21
143.4762692395
 31
0.0
  0
LINE
  5
124
330
1F
100
AcDbEntity
  8
0
  6
HIDDEN
 62
     7
370
    18
100
AcDbLine
 10
151.4250723064
 20
111.2976420279
 30
0.0
 11
151.4250723064
 21
143.2800562917
 31
0.0
  0
LINE
  5
125
330
1F
100
AcDbEntity
  8
0
  6
HIDDEN
 62
     7
370
    18
100
AcDbLine
 10
152.8392858687
 20
111.8834284655
 30
0.0
 11
152.8392858687
 21
142.6938552853
 31
0.0
  0
LINE
  5
126
330
1F
100
AcDbEntity
  8
0
  6
HIDDEN
 62
     7
370
    18
100
AcDbLine
 10
150.4232709915
 20
111.2976420279
 30
0.0
 11
150.4232709915
 21
143.2800562917
 31
0.0
  0
LINE
  5
127
330
1F
100
AcDbEntity
  8
0
  6
HIDDEN
 62
     7
370
    18
100
AcDbLine
 10
148.4534994311
 20
141.6440521894
 30
0.0
 11
148.4534994311
 21
112.9512318664
 31
0.0
  0
LINE
  5
128
330
1F
100
AcDbEntity
  8
0
  6
HIDDEN
 62
     7
370
    18
100
AcDbLine
 10
154.2534994311
 20
141.2976420279
 30
0.0
 11
154.2534994311
 21
113.2976420279
 31
0.0
  0
LINE
  5
129
330
1F
100
AcDbEntity
  8
0
  6
HIDDEN
 62
     7
370
    18
100
AcDbLine
 10
146.8534994311
 20
141.2976420279
 30
0.0
 11
146.8534994311
 21
113.2976420279
 31
0.0
  0
LINE
  5
12A
330
1F
100
AcDbEntity
  8
0
  6
HIDDEN
 62
     7
370
    18
100
AcDbLine
 10
147.8534994311
 20
141.2976420279
 30
0.0
 11
147.8534994311
 21
113.2976420279
 31
0.0
  0
LINE
  5
12B
330
1F
100
AcDbEntity
  8
0
  6
HIDDEN
 62
     7
370
    18
100
AcDbLine
 10
166.9232709915
 20
126.6632131509
 30
0.0
 11
166.9232709915
 21
113.2976420279
 31
0.0
  0
SPLINE
  5
12C
330
1F
100
AcDbEntity
  8
0
  6
HIDDEN
 62
     7
370
    18
100
AcDbSpline
210
0.0
220
0.0
230
1.0
 70
     8
 71
     3
 72
    10
 73
     6
 74
     0
 42
0.000000001
 43
0.00000001
 40
0.0
 40
0.0
 40
0.0
 40
0.0
 40
0.5
 40
0.5
 40
1.0
 40
1.0
 40
1.0
 40
1.0
 10
166.9232709914671
 20
127.9320709049134
 30
0.0
 10
166.9564184095435
 20
127.7230803039054
 30
0.0
 10
166.9732772549052
 20
127.5115178378838
 30
0.0
 10
166.9732647245575
 20
127.0835290719162
 30
0.0
 10
166.9563497668171
 20
126.8717709675006
 30
0.0
 10
166.9232709914671
 20
126.6632131508685
 30
0.0
  0
LINE
  5
12D
330
1F
100
AcDbEntity
  8
0
  6
HIDDEN
 62
     7
370
    18
100
AcDbLine
 10
166.9232709915
 20
127.9320709049
 30
0.0
 11
166.9232709915
 21
141.2976420279
 31
0.0
  0
LINE
  5
12E
330
1F
100
AcDbEntity
  8
0
  6
HIDDEN
 62
     7
370
    18
100
AcDbLine
 10
167.4232709915
 20
140.7976420225
 30
0.0
 11
167.4232709915
 21
113.7976420279
 31
0.0
  0
SPLINE
  5
12F
330
1F
100
AcDbEntity
  8
0
  6
HIDDEN
 62
     7
370
    18
100
AcDbSpline
210
0.0
220
0.0
230
1.0
 70
     8
 71
     3
 72
    10
 73
     6
 74
     0
 42
0.000000001
 43
0.00000001
 40
0.0
 40
0.0
 40
0.0
 40
0.0
 40
0.5
 40
0.5
 40
1.0
 40
1.0
 40
1.0
 40
1.0
 10
166.9232709914671
 20
126.6632131508685
 30
0.0
 10
166.9564599539408
 20
126.8724656844509
 30
0.0
 10
166.9731607301954
 20
127.0832824453499
 30
0.0
 10
166.9733801706401
 20
127.5078147265531
 30
0.0
 10
166.9565004552467
 20
127.7225630153257
 30
0.0
 10
166.9232709914671
 20
127.9320709049134
 30
0.0
  0
SPLINE
  5
130
330
1F
100
AcDbEntity
  8
0
  6
HIDDEN
 62
     7
370
    18
100
AcDbSpline
210
0.0
220
0.0
230
1.0
 70
     8
 71
     3
 72
    68
 73
    64
 74
     0
 42
0.000000001
 43
0.00000001
 40
0.0
 40
0.0
 40
0.0
 40
0.0
 40
0.03125
 40
0.03125
 40
0.0625000000000001
 40
0.0625000000000001
 40
0.0937500000000001
 40
0.0937500000000001
 40
0.1250000000000001
 40
0.1250000000000001
 40
0.1562500000000002
 40
0.1562500000000002
 40
0.1875000000000002
 40
0.1875000000000002
 40
0.2187500000000002
 40
0.2187500000000002
 40
0.2500000000000002
 40
0.2500000000000002
 40
0.2812500000000002
 40
0.2812500000000002
 40
0.3125000000000002
 40
0.3125000000000002
 40
0.3437500000000002
 40
0.3437500000000002
 40
0.3750000000000002
 40
0.3750000000000002
 40
0.4062500000000002
 40
0.4062500000000002
 40
0.4375000000000002
 40
0.4375000000000002
 40
0.4687500000000002
 40
0.4687500000000002
 40
0.5000000000000001
 40
0.5000000000000001
 40
0.5625000000000002
 40
0.5625000000000002
 40
0.5937500000000001
 40
0.5937500000000001
 40
0.6250000000000001
 40
0.6250000000000001
 40
0.65625
 40
0.65625
 40
0.6875
 40
0.6875
 40
0.7187499999999999
 40
0.7187499999999999
 40
0.7499999999999998
 40
0.7499999999999998
 40
0.7812499999999998
 40
0.7812499999999998
 40
0.8124999999999997
 40
0.8124999999999997
 40
0.8437499999999998
 40
0.8437499999999998
 40
0.8749999999999998
 40
0.8749999999999998
 40
0.9062499999999999
 40
0.9062499999999999
 40
0.9374999999999999
 40
0.9374999999999999
 40
0.96875
 40
0.96875
 40
1.0
 40
1.0
 40
1.0
 40
1.0
 10
166.9232709914671
 20
126.6632131508685
 30
0.0
 10
166.8832560391174
 20
126.4109235480529
 30
0.0
 10
166.8203142377061
 20
126.166924697677
 30
0.0
 10
166.6509275756341
 20
125.6945063086145
 30
0.0
 10
166.5432340130486
 20
125.4640929224546
 30
0.0
 10
166.2879492445107
 20
125.0293883266575
 30
0.0
 10
166.1419100140384
 20
124.8267463600062
 30
0.0
 10
165.8136885774792
 20
124.4497570692483
 30
0.0
 10
165.6294412897042
 20
124.274099115671
 30
0.0
 10
165.2364811223959
 20
123.9638411467247
 30
0.0
 10
165.0271865254368
 20
123.8278959390748
 30
0.0
 10
164.5823010984994
 20
123.594505843669
 30
0.0
 10
164.3455035060004
 20
123.4972592372546
 30
0.0
 10
163.8647684370811
 20
123.3505877793832
 30
0.0
 10
163.6185253438983
 20
123.2996954344408
 30
0.0
 10
163.1138085639189
 20
123.2441680842053
 30
0.0
 10
162.8576138629824
 20
123.2403431971353
 30
0.0
 10
162.3552351137823
 20
123.2797669797798
 30
0.0
 10
162.1059854145987
 20
123.322794428991
 30
0.0
 10
161.61445761712
 20
123.4564993984423
 30
0.0
 10
161.3791620158941
 20
123.5451692443475
 30
0.0
 10
160.928248121232
 20
123.7642006081249
 30
0.0
 10
160.7106357707686
 20
123.8962021738084
 30
0.0
 10
160.3074286012203
 20
124.1955594548113
 30
0.0
 10
160.1218171087859
 20
124.3621783822492
 30
0.0
 10
159.7818290383833
 20
124.7292898076767
 30
0.0
 10
159.6267561075605
 20
124.9315935532174
 30
0.0
 10
159.3604130308971
 20
125.3556742328114
 30
0.0
 10
159.2474289301803
 20
125.5788338382776
 30
0.0
 10
159.0625736732494
 20
126.0481890798718
 30
0.0
 10
158.991432911746
 20
126.2943995832073
 30
0.0
 10
158.8974725004579
 20
126.7889254095785
 30
0.0
 10
158.8734631705015
 20
127.0398564046705
 30
0.0
 10
158.8728900498289
 20
127.8041017842267
 30
0.0
 10
158.9682891611475
 20
128.3063260862776
 30
0.0
 10
159.2461529533487
 20
129.01389059255
 30
0.0
 10
159.3593149094292
 20
129.2375968562908
 30
0.0
 10
159.6254460914731
 20
129.6618667676114
 30
0.0
 10
159.7802738656728
 20
129.8641187296675
 30
0.0
 10
160.1204549714606
 20
130.2318294710357
 30
0.0
 10
160.3059574284104
 20
130.398446346285
 30
0.0
 10
160.7082512294697
 20
130.6974957250804
 30
0.0
 10
160.9262592777217
 20
130.8299524331088
 30
0.0
 10
161.376857644872
 20
131.0491588338135
 30
0.0
 10
161.6114066437528
 20
131.1376439638172
 30
0.0
 10
162.0998666373051
 20
131.2711301937558
 30
0.0
 10
162.352132033019
 20
131.3150719062496
 30
0.0
 10
162.8543126711792
 20
131.354880902723
 30
0.0
 10
163.1067947885309
 20
131.3515366899096
 30
0.0
 10
163.6146598316004
 20
131.296357369919
 30
0.0
 10
163.8622053047842
 20
131.2453114414496
 30
0.0
 10
164.3431728422549
 20
131.098901053214
 30
0.0
 10
164.5791327073602
 20
131.0022548484404
 30
0.0
 10
165.0257031568818
 20
130.7683499041274
 30
0.0
 10
165.2353480194553
 20
130.6322248903008
 30
0.0
 10
165.6283347262097
 20
130.3221706259717
 30
0.0
 10
165.8127306300248
 20
130.1465133783966
 30
0.0
 10
166.1412810478851
 20
129.7693734557322
 30
0.0
 10
166.2872231444083
 20
129.5669072504623
 30
0.0
 10
166.5421084996105
 20
129.133330952329
 30
0.0
 10
166.6504198124188
 20
128.9020391087475
 30
0.0
 10
166.8202547898357
 20
128.4286794286142
 30
0.0
 10
166.8832501509728
 20
128.1843976317934
 30
0.0
 10
166.9232709914671
 20
127.9320709049134
 30
0.0
  0
SPLINE
  5
131
330
1F
100
AcDbEntity
  8
0
  6
HIDDEN
 62
     7
370
    18
100
AcDbSpline
210
0.0
220
0.0
230
1.0
 70
     8
 71
     3
 72
    68
 73
    64
 74
     0
 42
0.000000001
 43
0.00000001
 40
0.0
 40
0.0
 40
0.0
 40
0.0
 40
0.03125
 40
0.03125
 40
0.0625000000000001
 40
0.0625000000000001
 40
0.0937500000000001
 40
0.0937500000000001
 40
0.1250000000000001
 40
0.1250000000000001
 40
0.1562500000000002
 40
0.1562500000000002
 40
0.1875000000000002
 40
0.1875000000000002
 40
0.2187500000000002
 40
0.2187500000000002
 40
0.2500000000000002
 40
0.2500000000000002
 40
0.2812500000000002
 40
0.2812500000000002
 40
0.3125000000000002
 40
0.3125000000000002
 40
0.3437500000000002
 40
0.3437500000000002
 40
0.3750000000000002
 40
0.3750000000000002
 40
0.4062500000000002
 40
0.4062500000000002
 40
0.4375000000000002
 40
0.4375000000000002
 40
0.4687500000000002
 40
0.4687500000000002
 40
0.5000000000000001
 40
0.5000000000000001
 40
0.5625000000000002
 40
0.5625000000000002
 40
0.5937500000000001
 40
0.5937500000000001
 40
0.6250000000000001
 40
0.6250000000000001
 40
0.65625
 40
0.65625
 40
0.6875
 40
0.6875
 40
0.7187499999999999
 40
0.7187499999999999
 40
0.7499999999999998
 40
0.7499999999999998
 40
0.7812499999999998
 40
0.7812499999999998
 40
0.8124999999999997
 40
0.8124999999999997
 40
0.8437499999999998
 40
0.8437499999999998
 40
0.8749999999999998
 40
0.8749999999999998
 40
0.9062499999999999
 40
0.9062499999999999
 40
0.9374999999999999
 40
0.9374999999999999
 40
0.96875
 40
0.96875
 40
1.0
 40
1.0
 40
1.0
 40
1.0
 10
166.9232709914671
 20
127.9320709049134
 30
0.0
 10
166.8832560391174
 20
128.184360507729
 30
0.0
 10
166.8203142377061
 20
128.4283593581048
 30
0.0
 10
166.6509275756341
 20
128.9007777471673
 30
0.0
 10
166.5432340130486
 20
129.1311911333272
 30
0.0
 10
166.2879492445107
 20
129.5658957291243
 30
0.0
 10
166.1419100140384
 20
129.7685376957757
 30
0.0
 10
165.8136885774792
 20
130.1455269865335
 30
0.0
 10
165.6294412897042
 20
130.3211849401109
 30
0.0
 10
165.2364811223959
 20
130.6314429090571
 30
0.0
 10
165.0271865254368
 20
130.7673881167071
 30
0.0
 10
164.5823010984994
 20
131.0007782121129
 30
0.0
 10
164.3455035060004
 20
131.0980248185273
 30
0.0
 10
163.8647684370811
 20
131.2446962763987
 30
0.0
 10
163.6185253438983
 20
131.2955886213411
 30
0.0
 10
163.1138085639189
 20
131.3511159715765
 30
0.0
 10
162.8576138629824
 20
131.3549408586465
 30
0.0
 10
162.3552351137823
 20
131.3155170760021
 30
0.0
 10
162.1059854145987
 20
131.2724896267909
 30
0.0
 10
161.61445761712
 20
131.1387846573396
 30
0.0
 10
161.3791620158941
 20
131.0501148114344
 30
0.0
 10
160.928248121232
 20
130.831083447657
 30
0.0
 10
160.7106357707686
 20
130.6990818819734
 30
0.0
 10
160.3074286012203
 20
130.3997246009705
 30
0.0
 10
160.1218171087859
 20
130.2331056735326
 30
0.0
 10
159.7818290383833
 20
129.8659942481052
 30
0.0
 10
159.6267561075605
 20
129.6636905025645
 30
0.0
 10
159.3604130308971
 20
129.2396098229704
 30
0.0
 10
159.2474289301803
 20
129.0164502175042
 30
0.0
 10
159.0625736732494
 20
128.5470949759101
 30
0.0
 10
158.991432911746
 20
128.3008844725746
 30
0.0
 10
158.8974725004579
 20
127.8063586462034
 30
0.0
 10
158.8734631705015
 20
127.5554276511114
 30
0.0
 10
158.8728900498289
 20
126.7911822715552
 30
0.0
 10
158.9682891611475
 20
126.2889579695042
 30
0.0
 10
159.2461529533487
 20
125.5813934632318
 30
0.0
 10
159.3593149094292
 20
125.357687199491
 30
0.0
 10
159.6254460914731
 20
124.9334172881704
 30
0.0
 10
159.7802738656728
 20
124.7311653261144
 30
0.0
 10
160.1204549714606
 20
124.3634545847462
 30
0.0
 10
160.3059574284104
 20
124.1968377094968
 30
0.0
 10
160.7082512294697
 20
123.8977883307014
 30
0.0
 10
160.9262592777217
 20
123.765331622673
 30
0.0
 10
161.376857644872
 20
123.5461252219683
 30
0.0
 10
161.6114066437528
 20
123.4576400919647
 30
0.0
 10
162.0998666373051
 20
123.3241538620261
 30
0.0
 10
162.352132033019
 20
123.2802121495323
 30
0.0
 10
162.8543126711792
 20
123.2404031530588
 30
0.0
 10
163.1067947885309
 20
123.2437473658723
 30
0.0
 10
163.6146598316004
 20
123.2989266858628
 30
0.0
 10
163.8622053047842
 20
123.3499726143323
 30
0.0
 10
164.3431728422549
 20
123.4963830025679
 30
0.0
 10
164.5791327073602
 20
123.5930292073415
 30
0.0
 10
165.0257031568818
 20
123.8269341516545
 30
0.0
 10
165.2353480194553
 20
123.963059165481
 30
0.0
 10
165.6283347262097
 20
124.2731134298101
 30
0.0
 10
165.8127306300248
 20
124.4487706773852
 30
0.0
 10
166.1412810478851
 20
124.8259106000497
 30
0.0
 10
166.2872231444083
 20
125.0283768053195
 30
0.0
 10
166.5421084996105
 20
125.4619531034529
 30
0.0
 10
166.6504198124188
 20
125.6932449470344
 30
0.0
 10
166.8202547898357
 20
126.1666046271676
 30
0.0
 10
166.8832501509728
 20
126.4108864239884
 30
0.0
 10
166.9232709914671
 20
126.6632131508685
 30
0.0
  0
LINE
  5
132
330
1F
100
AcDbEntity
  8
0
  6
HIDDEN
 62
     7
370
    18
100
AcDbLine
 10
247.2232709915
 20
137.293250393
 30
0.0
 11
247.2232709915
 21
117.3020336628
 31
0.0
  0
LINE
  5
133
330
1F
100
AcDbEntity
  8
0
  6
HIDDEN
 62
     7
370
    18
100
AcDbLine
 10
248.4232709915
 20
138.4976420279
 30
0.0
 11
248.4232709915
 21
116.0976420279
 31
0.0
  0
LINE
  5
134
330
1F
100
AcDbEntity
  8
0
  6
HIDDEN
 62
     7
370
    18
100
AcDbLine
 10
195.8232709915
 20
137.5931186439
 30
0.0
 11
195.8232709915
 21
117.0021654119
 31
0.0
  0
LINE
  5
135
330
1F
100
AcDbEntity
  8
0
  6
HIDDEN
 62
     7
370
    18
100
AcDbLine
 10
198.5284969733
 20
137.5931186439
 30
0.0
 11
198.5284969733
 21
117.0021654119
 31
0.0
  0
LINE
  5
136
330
1F
100
AcDbEntity
  8
0
  6
HIDDEN
 62
     7
370
    18
100
AcDbLine
 10
198.6653050307
 20
137.5690062862
 30
0.0
 11
198.6653050307
 21
117.0262777696
 31
0.0
  0
LINE
  5
137
330
1F
100
AcDbEntity
  8
0
  6
HIDDEN
 62
     7
370
    18
100
AcDbLine
 10
195.4232709915
 20
137.1976420279
 30
0.0
 11
195.4232709915
 21
117.3976420279
 31
0.0
  0
LINE
  5
138
330
1F
100
AcDbEntity
  8
0
  6
HIDDEN
 62
     7
370
    18
100
AcDbLine
 10
199.4232709915
 20
137.2976420279
 30
0.0
 11
199.4232709915
 21
117.2976420279
 31
0.0
  0
LINE
  5
139
330
1F
100
AcDbEntity
  8
0
  6
HIDDEN
 62
     7
370
    18
100
AcDbLine
 10
168.6732709915
 20
136.2976420279
 30
0.0
 11
168.6732709915
 21
118.2976420279
 31
0.0
  0
LINE
  5
13A
330
1F
100
AcDbEntity
  8
0
  6
HIDDEN
 62
     7
370
    18
100
AcDbLine
 10
167.4232709915
 20
117.0476420279
 30
0.0
 11
167.4232709915
 21
137.5296402785
 31
0.0
  0
SPLINE
  5
13B
330
1F
100
AcDbEntity
  8
0
  6
HIDDEN
 62
     7
370
    18
100
AcDbSpline
210
0.0
220
0.0
230
1.0
 70
    11
 71
     3
 72
    74
 73
    70
 74
     0
 42
0.000000001
 43
0.00000001
 40
0.0
 40
0.0
 40
0.0
 40
0.0
 40
0.0312500000000001
 40
0.0312500000000001
 40
0.0625000000000003
 40
0.0625000000000003
 40
0.0937500000000004
 40
0.0937500000000004
 40
0.1250000000000006
 40
0.1250000000000006
 40
0.1562500000000007
 40
0.1562500000000007
 40
0.1875000000000008
 40
0.1875000000000008
 40
0.2031250000000008
 40
0.2031250000000008
 40
0.2187500000000007
 40
0.2187500000000007
 40
0.2500000000000007
 40
0.2500000000000007
 40
0.2812500000000007
 40
0.2812500000000007
 40
0.3125000000000007
 40
0.3125000000000007
 40
0.3437500000000007
 40
0.3437500000000007
 40
0.3750000000000008
 40
0.3750000000000008
 40
0.4062500000000008
 40
0.4062500000000008
 40
0.4375000000000008
 40
0.4375000000000008
 40
0.4687500000000008
 40
0.4687500000000008
 40
0.5000000000000009
 40
0.5000000000000009
 40
0.5312500000000009
 40
0.5312500000000009
 40
0.5625000000000009
 40
0.5625000000000009
 40
0.593750000000001
 40
0.593750000000001
 40
0.625000000000001
 40
0.625000000000001
 40
0.656250000000001
 40
0.656250000000001
 40
0.687500000000001
 40
0.687500000000001
 40
0.7187500000000011
 40
0.7187500000000011
 40
0.734375000000001
 40
0.734375000000001
 40
0.750000000000001
 40
0.750000000000001
 40
0.7812500000000008
 40
0.7812500000000008
 40
0.8125000000000006
 40
0.8125000000000006
 40
0.8437500000000006
 40
0.8437500000000006
 40
0.8750000000000004
 40
0.8750000000000004
 40
0.9062500000000003
 40
0.9062500000000003
 40
0.9375000000000002
 40
0.9375000000000002
 40
0.9687500000000002
 40
0.9687500000000002
 40
1.0
 40
1.0
 40
1.0
 40
1.0
 10
233.4232709914671
 20
122.7976420278909
 30
0.0
 10
233.1216598029949
 20
122.7976420278909
 30
0.0
 10
232.8260329024451
 20
122.827648279091
 30
0.0
 10
232.2459153346048
 20
122.9443247747444
 30
0.0
 10
231.9584840301088
 20
123.032576802715
 30
0.0
 10
231.4161659422053
 20
123.2593364997767
 30
0.0
 10
231.1595959601289
 20
123.3974794895317
 30
0.0
 10
230.6739280543088
 20
123.7232041857929
 30
0.0
 10
230.4477243903756
 20
123.9094563828709
 30
0.0
 10
230.0384012137133
 20
124.3183239636293
 30
0.0
 10
229.8522213167043
 20
124.543797026866
 30
0.0
 10
229.5249164339939
 20
125.0307300724941
 30
0.0
 10
229.3866304355768
 20
125.2873389884641
 30
0.0
 10
229.2167341359382
 20
125.6924959270566
 30
0.0
 10
229.1664069964119
 20
125.8309452553468
 30
0.0
 10
229.0789040895342
 20
126.1150318992439
 30
0.0
 10
229.0418253815608
 20
126.2608047888183
 30
0.0
 10
228.9535138397998
 20
126.6979259478175
 30
0.0
 10
228.9237183603368
 20
126.9927244620485
 30
0.0
 10
228.9228335249547
 20
127.5892088509058
 30
0.0
 10
228.9527717472847
 20
127.8913470747464
 30
0.0
 10
229.0692635544693
 20
128.4725753934331
 30
0.0
 10
229.1561441185686
 20
128.7569871409831
 30
0.0
 10
229.3847331341012
 20
129.3046975535657
 30
0.0
 10
229.5235860953396
 20
129.5620311590311
 30
0.0
 10
229.8483738682094
 20
130.0462982421955
 30
0.0
 10
230.0361760237421
 20
130.2744931872374
 30
0.0
 10
230.4461736733615
 20
130.6845206356681
 30
0.0
 10
230.6693791223091
 20
130.868569024891
 30
0.0
 10
231.1544762935878
 20
131.1948218625654
 30
0.0
 10
231.4143391164708
 20
131.3349043260778
 30
0.0
 10
231.9530331104968
 20
131.5607036877895
 30
0.0
 10
232.2342770035808
 20
131.6480913606034
 30
0.0
 10
232.8226749256599
 20
131.7674742915744
 30
0.0
 10
233.1182378590861
 20
131.7970982144237
 30
0.0
 10
233.7120421991868
 20
131.7981711496687
 30
0.0
 10
234.0140644204043
 20
131.7685996041007
 30
0.0
 10
234.5974849563336
 20
131.6519180973031
 30
0.0
 10
234.8794768060308
 20
131.5657543521879
 30
0.0
 10
235.4251045059912
 20
131.3386791184548
 30
0.0
 10
235.6850407883063
 20
131.1987814240617
 30
0.0
 10
236.1681327107816
 20
130.8753822845462
 30
0.0
 10
236.3954211217864
 20
130.6889815336049
 30
0.0
 10
236.8078591275865
 20
130.2774781289228
 30
0.0
 10
236.9920990687738
 20
130.0541394696488
 30
0.0
 10
237.3176240600289
 20
129.5711472883144
 30
0.0
 10
237.4596271348863
 20
129.3086370404807
 30
0.0
 10
237.6867872628283
 20
128.7668938310266
 30
0.0
 10
237.7737619891881
 20
128.4858781349714
 30
0.0
 10
237.8627424215494
 20
128.0481502978905
 30
0.0
 10
237.8854719174689
 20
127.8986040909851
 30
0.0
 10
237.9155383608738
 20
127.6008356740209
 30
0.0
 10
237.92307293022
 20
127.4521047540778
 30
0.0
 10
237.9236555806799
 20
127.0063630614063
 30
0.0
 10
237.8945329456294
 20
126.7080285716018
 30
0.0
 10
237.7768468750261
 20
126.1202701594189
 30
0.0
 10
237.6900701104851
 20
125.8377721546882
 30
0.0
 10
237.463313839917
 20
125.2939333286469
 30
0.0
 10
237.3218460687756
 20
125.0313413692042
 30
0.0
 10
236.996808638592
 20
124.5472175163735
 30
0.0
 10
236.8124430319867
 20
124.3228840305138
 30
0.0
 10
236.3985361789642
 20
123.9089152275621
 30
0.0
 10
236.1733934955692
 20
123.7239943811595
 30
0.0
 10
235.6918534716699
 20
123.4005065643646
 30
0.0
 10
235.4320654527291
 20
123.2600746421173
 30
0.0
 10
234.887191485394
 20
123.0321828064564
 30
0.0
 10
234.6062483199494
 20
122.9458611574582
 30
0.0
 10
234.0266357201399
 20
122.8284829226273
 30
0.0
 10
233.7248821799392
 20
122.7976420278909
 30
0.0
 10
233.4232709914671
 20
122.7976420278909
 30
0.0
  0
SPLINE
  5
13C
330
1F
100
AcDbEntity
  8
0
  6
HIDDEN
 62
     7
370
    18
100
AcDbSpline
210
0.0
220
0.0
230
1.0
 70
    11
 71
     3
 72
    74
 73
    70
 74
     0
 42
0.000000001
 43
0.00000001
 40
0.0
 40
0.0
 40
0.0
 40
0.0
 40
0.0312499999999997
 40
0.0312499999999997
 40
0.0624999999999994
 40
0.0624999999999994
 40
0.0937499999999991
 40
0.0937499999999991
 40
0.1249999999999989
 40
0.1249999999999989
 40
0.1562499999999986
 40
0.1562499999999986
 40
0.1874999999999985
 40
0.1874999999999985
 40
0.2031249999999984
 40
0.2031249999999984
 40
0.2187499999999984
 40
0.2187499999999984
 40
0.2499999999999983
 40
0.2499999999999983
 40
0.2812499999999982
 40
0.2812499999999982
 40
0.3124999999999981
 40
0.3124999999999981
 40
0.3437499999999979
 40
0.3437499999999979
 40
0.3749999999999979
 40
0.3749999999999979
 40
0.406249999999998
 40
0.406249999999998
 40
0.4374999999999981
 40
0.4374999999999981
 40
0.4687499999999981
 40
0.4687499999999981
 40
0.4999999999999982
 40
0.4999999999999982
 40
0.5312499999999982
 40
0.5312499999999982
 40
0.5624999999999983
 40
0.5624999999999983
 40
0.5937499999999983
 40
0.5937499999999983
 40
0.6249999999999984
 40
0.6249999999999984
 40
0.6562499999999984
 40
0.6562499999999984
 40
0.6874999999999986
 40
0.6874999999999986
 40
0.7187499999999986
 40
0.7187499999999986
 40
0.7343749999999987
 40
0.7343749999999987
 40
0.7499999999999987
 40
0.7499999999999987
 40
0.7812499999999989
 40
0.7812499999999989
 40
0.812499999999999
 40
0.812499999999999
 40
0.8437499999999992
 40
0.8437499999999992
 40
0.8749999999999993
 40
0.8749999999999993
 40
0.9062499999999996
 40
0.9062499999999996
 40
0.9374999999999997
 40
0.9374999999999997
 40
0.9687499999999999
 40
0.9687499999999999
 40
1.0
 40
1.0
 40
1.0
 40
1.0
 10
213.4232709914671
 20
122.7976420278909
 30
0.0
 10
213.1216598029949
 20
122.7976420278909
 30
0.0
 10
212.8260329024451
 20
122.827648279091
 30
0.0
 10
212.2459153346048
 20
122.9443247747444
 30
0.0
 10
211.9584840301088
 20
123.032576802715
 30
0.0
 10
211.4161659422053
 20
123.2593364997767
 30
0.0
 10
211.1595959601289
 20
123.3974794895317
 30
0.0
 10
210.6739280543088
 20
123.7232041857929
 30
0.0
 10
210.4477243903755
 20
123.9094563828709
 30
0.0
 10
210.0384012137133
 20
124.3183239636293
 30
0.0
 10
209.8522213167044
 20
124.543797026866
 30
0.0
 10
209.5249164339939
 20
125.0307300724941
 30
0.0
 10
209.3866304355768
 20
125.2873389884641
 30
0.0
 10
209.2167341359382
 20
125.6924959270566
 30
0.0
 10
209.1664069964119
 20
125.8309452553468
 30
0.0
 10
209.0789040895342
 20
126.1150318992439
 30
0.0
 10
209.0418253815608
 20
126.2608047888183
 30
0.0
 10
208.9535138397998
 20
126.6979259478175
 30
0.0
 10
208.9237183603367
 20
126.9927244620485
 30
0.0
 10
208.9228335249547
 20
127.5892088509058
 30
0.0
 10
208.9527717472848
 20
127.8913470747464
 30
0.0
 10
209.0692635544693
 20
128.4725753934331
 30
0.0
 10
209.1561441185685
 20
128.7569871409831
 30
0.0
 10
209.3847331341012
 20
129.3046975535657
 30
0.0
 10
209.5235860953396
 20
129.5620311590311
 30
0.0
 10
209.8483738682094
 20
130.0462982421955
 30
0.0
 10
210.0361760237421
 20
130.2744931872374
 30
0.0
 10
210.4461736733615
 20
130.6845206356681
 30
0.0
 10
210.6693791223091
 20
130.868569024891
 30
0.0
 10
211.1544762935879
 20
131.1948218625654
 30
0.0
 10
211.4143391164708
 20
131.3349043260778
 30
0.0
 10
211.9530331104968
 20
131.5607036877895
 30
0.0
 10
212.2342770035808
 20
131.6480913606034
 30
0.0
 10
212.8226749256598
 20
131.7674742915744
 30
0.0
 10
213.1182378590861
 20
131.7970982144237
 30
0.0
 10
213.7120421991868
 20
131.7981711496687
 30
0.0
 10
214.0140644204043
 20
131.7685996041007
 30
0.0
 10
214.5974849563335
 20
131.6519180973031
 30
0.0
 10
214.8794768060309
 20
131.5657543521879
 30
0.0
 10
215.4251045059912
 20
131.3386791184548
 30
0.0
 10
215.6850407883063
 20
131.1987814240617
 30
0.0
 10
216.1681327107816
 20
130.8753822845462
 30
0.0
 10
216.3954211217864
 20
130.6889815336049
 30
0.0
 10
216.8078591275865
 20
130.2774781289228
 30
0.0
 10
216.9920990687738
 20
130.0541394696488
 30
0.0
 10
217.3176240600289
 20
129.5711472883144
 30
0.0
 10
217.4596271348863
 20
129.3086370404807
 30
0.0
 10
217.6867872628283
 20
128.7668938310266
 30
0.0
 10
217.7737619891881
 20
128.4858781349714
 30
0.0
 10
217.8627424215494
 20
128.0481502978905
 30
0.0
 10
217.8854719174689
 20
127.8986040909851
 30
0.0
 10
217.9155383608738
 20
127.6008356740209
 30
0.0
 10
217.92307293022
 20
127.4521047540778
 30
0.0
 10
217.9236555806799
 20
127.0063630614063
 30
0.0
 10
217.8945329456294
 20
126.7080285716018
 30
0.0
 10
217.7768468750261
 20
126.1202701594189
 30
0.0
 10
217.6900701104851
 20
125.8377721546882
 30
0.0
 10
217.463313839917
 20
125.2939333286469
 30
0.0
 10
217.3218460687756
 20
125.0313413692042
 30
0.0
 10
216.996808638592
 20
124.5472175163735
 30
0.0
 10
216.8124430319867
 20
124.3228840305138
 30
0.0
 10
216.3985361789642
 20
123.9089152275621
 30
0.0
 10
216.1733934955692
 20
123.7239943811595
 30
0.0
 10
215.6918534716699
 20
123.4005065643646
 30
0.0
 10
215.4320654527291
 20
123.2600746421173
 30
0.0
 10
214.887191485394
 20
123.0321828064564
 30
0.0
 10
214.6062483199494
 20
122.9458611574582
 30
0.0
 10
214.02663572014
 20
122.8284829226273
 30
0.0
 10
213.7248821799392
 20
122.7976420278909
 30
0.0
 10
213.4232709914671
 20
122.7976420278909
 30
0.0
  0
LINE
  5
13D
330
1F
100
AcDbEntity
  8
0
  6
HIDDEN
 62
     7
370
    18
100
AcDbLine
 10
195.4232709915
 20
136.2798825837
 30
0.0
 11
195.4232709915
 21
118.315401472
 31
0.0
  0
LINE
  5
13E
330
1F
100
AcDbEntity
  8
0
  6
HIDDEN
 62
     7
370
    18
100
AcDbLine
 10
176.4282310135
 20
111.8601784049
 30
0.0
 11
177.606758705
 21
111.8453740461
 31
0.0
  0
LINE
  5
13F
330
1F
100
AcDbEntity
  8
0
  6
HIDDEN
 62
     7
370
    18
100
AcDbLine
 10
176.4282310135
 20
111.8601784049
 30
0.0
 11
176.4282310135
 21
105.4724570431
 31
0.0
  0
SPLINE
  5
140
330
1F
100
AcDbEntity
  8
0
  6
HIDDEN
 62
     7
370
    18
100
AcDbSpline
210
0.0
220
0.0
230
1.0
 70
     8
 71
     3
 72
    16
 73
    12
 74
     0
 42
0.000000001
 43
0.00000001
 40
0.0
 40
0.0
 40
0.0
 40
0.0
 40
0.25
 40
0.25
 40
0.3750000000000002
 40
0.3750000000000002
 40
0.5000000000000003
 40
0.5000000000000003
 40
0.7500000000000002
 40
0.7500000000000002
 40
1.0
 40
1.0
 40
1.0
 40
1.0
 10
177.1019506479074
 20
110.7137354016499
 30
0.0
 10
176.940718170423
 20
109.9993412394578
 30
0.0
 10
176.8202383307833
 20
109.3459989767491
 30
0.0
 10
176.69785781347
 20
108.4577437349452
 30
0.0
 10
176.6668801530726
 20
108.1770631985934
 30
0.0
 10
176.6252664154446
 20
107.6480292087534
 30
0.0
 10
176.6150305025118
 20
107.4047082301749
 30
0.0
 10
176.6148421054557
 20
106.7366855396617
 30
0.0
 10
176.6549868080933
 20
106.3730046302422
 30
0.0
 10
176.8191405630329
 20
105.8131137576939
 30
0.0
 10
176.9406922134424
 20
105.6255924655768
 30
0.0
 10
177.1019506479074
 20
105.5275610728888
 30
0.0
  0
LINE
  5
141
330
1F
100
AcDbEntity
  8
0
  6
HIDDEN
 62
     7
370
    18
100
AcDbLine
 10
141.9232709915
 20
112.1935891992
 30
0.0
 11
141.9232709915
 21
106.1392786316
 31
0.0
  0
LINE
  5
142
330
1F
100
AcDbEntity
  8
0
  6
HIDDEN
 62
     7
370
    18
100
AcDbLine
 10
140.4232709915
 20
112.626601901
 30
0.0
 11
141.9232709915
 21
112.1935891992
 31
0.0
  0
LINE
  5
143
330
1F
100
AcDbEntity
  8
0
  6
HIDDEN
 62
     7
370
    18
100
AcDbLine
 10
140.4232709915
 20
112.626601901
 30
0.0
 11
140.4232709915
 21
107.0053040354
 31
0.0
  0
LINE
  5
144
330
1F
100
AcDbEntity
  8
0
  6
HIDDEN
 62
     7
370
    18
100
AcDbLine
 10
176.2232709915
 20
111.762721505
 30
0.0
 11
176.2232709915
 21
105.2775432433
 31
0.0
  0
LWPOLYLINE
  5
145
330
1F
100
AcDbEntity
  8
0
  6
HIDDEN
 62
     7
370
    18
100
AcDbPolyline
 90
        9
 70
   128
 43
0.0
 10
176.2232709915
 20
111.762721505
 10
176.2280926835
 20
111.7821761243
 10
176.240412544
 20
111.8007865959
 10
176.2597571276
 20
111.8178377297
 10
176.2853830328
 20
111.8326742602
 10
176.3163054705
 20
111.8447260279
 10
176.3513361086
 20
111.8535298901
 10
176.3891287395
 20
111.8587475193
 10
176.4282310135
 20
111.8601784049
  0
LINE
  5
146
330
1F
100
AcDbEntity
  8
0
  6
HIDDEN
 62
     7
370
    18
100
AcDbLine
 10
141.9232709915
 20
112.1935891992
 30
0.0
 11
176.2232709915
 21
111.762721505
 31
0.0
  0
LINE
  5
147
330
1F
100
AcDbEntity
  8
0
  6
HIDDEN
 62
     7
370
    18
100
AcDbLine
 10
141.9232709915
 20
148.4560054242
 30
0.0
 11
141.9232709915
 21
142.4016948566
 31
0.0
  0
LINE
  5
148
330
1F
100
AcDbEntity
  8
0
  6
HIDDEN
 62
     7
370
    18
100
AcDbLine
 10
141.9232709915
 20
142.4016948566
 30
0.0
 11
176.2232709915
 21
142.8325625508
 31
0.0
  0
LINE
  5
149
330
1F
100
AcDbEntity
  8
0
  6
HIDDEN
 62
     7
370
    18
100
AcDbLine
 10
176.2232709915
 20
149.3177408125
 30
0.0
 11
176.2232709915
 21
142.8325625508
 31
0.0
  0
LWPOLYLINE
  5
14A
330
1F
100
AcDbEntity
  8
0
  6
HIDDEN
 62
     7
370
    18
100
AcDbPolyline
 90
        9
 70
   128
 43
0.0
 10
176.2232709915
 20
142.8325625508
 10
176.2280926835
 20
142.8131079314
 10
176.240412544
 20
142.7944974599
 10
176.2597571276
 20
142.7774463261
 10
176.2853830328
 20
142.7626097956
 10
176.3163054705
 20
142.7505580279
 10
176.3513361086
 20
142.7417541657
 10
176.3891287395
 20
142.7365365365
 10
176.4282310135
 20
142.7351056509
  0
LINE
  5
14B
330
1F
100
AcDbEntity
  8
0
  6
HIDDEN
 62
     7
370
    18
100
AcDbLine
 10
176.4282310135
 20
149.1228270126
 30
0.0
 11
176.4282310135
 21
142.7351056509
 31
0.0
  0
LINE
  5
14C
330
1F
100
AcDbEntity
  8
0
  6
HIDDEN
 62
     7
370
    18
100
AcDbLine
 10
140.4232709915
 20
141.9686821547
 30
0.0
 11
141.9232709915
 21
142.4016948566
 31
0.0
  0
LINE
  5
14D
330
1F
100
AcDbEntity
  8
0
  6
HIDDEN
 62
     7
370
    18
100
AcDbLine
 10
140.4232709915
 20
147.5899800204
 30
0.0
 11
140.4232709915
 21
141.9686821547
 31
0.0
  0
LINE
  5
14E
330
1F
100
AcDbEntity
  8
0
  6
HIDDEN
 62
     7
370
    18
100
AcDbLine
 10
176.4282310135
 20
142.7351056509
 30
0.0
 11
177.606758705
 21
142.7499100097
 31
0.0
  0
SPLINE
  5
14F
330
1F
100
AcDbEntity
  8
0
  6
HIDDEN
 62
     7
370
    18
100
AcDbSpline
210
0.0
220
0.0
230
1.0
 70
     8
 71
     3
 72
    16
 73
    12
 74
     0
 42
0.000000001
 43
0.00000001
 40
0.0
 40
0.0
 40
0.0
 40
0.0
 40
0.2499999999999997
 40
0.2499999999999997
 40
0.3749999999999997
 40
0.3749999999999997
 40
0.4999999999999998
 40
0.4999999999999998
 40
0.7499999999999999
 40
0.7499999999999999
 40
1.0
 40
1.0
 40
1.0
 40
1.0
 10
177.1019506479074
 20
149.067722982893
 30
0.0
 10
176.940718170423
 20
148.9697073698383
 30
0.0
 10
176.8202383307833
 20
148.7829713381623
 30
0.0
 10
176.69785781347
 20
148.3699315306033
 30
0.0
 10
176.6668801530726
 20
148.2099310313704
 30
0.0
 10
176.6252664154446
 20
147.8431253802793
 30
0.0
 10
176.6150305025118
 20
147.6397882276553
 30
0.0
 10
176.6148421054557
 20
146.9725009610286
 30
0.0
 10
176.6549868080933
 20
146.4516864971406
 30
0.0
 10
176.8191405630329
 20
145.2543274816629
 30
0.0
 10
176.9406922134424
 20
144.5960578273669
 30
0.0
 10
177.1019506479074
 20
143.881548654132
 30
0.0
  0
LINE
  5
150
330
1F
100
AcDbEntity
  8
0
  6
HIDDEN
 62
     7
370
    18
100
AcDbLine
 10
191.8955141779
 20
136.6857084592
 30
0.0
 11
191.8955141779
 21
157.3661339868
 31
0.0
  0
LINE
  5
151
330
1F
100
AcDbEntity
  8
0
  6
HIDDEN
 62
     7
370
    18
100
AcDbLine
 10
188.951027805
 20
136.6857084592
 30
0.0
 11
188.951027805
 21
157.3661339868
 31
0.0
  0
LINE
  5
152
330
1F
100
AcDbEntity
  8
0
  6
HIDDEN
 62
     7
370
    18
100
AcDbLine
 10
188.951027805
 20
97.229150069
 30
0.0
 11
188.951027805
 21
117.9095755966
 31
0.0
  0
LINE
  5
153
330
1F
100
AcDbEntity
  8
0
  6
HIDDEN
 62
     7
370
    18
100
AcDbLine
 10
191.8955141779
 20
97.229150069
 30
0.0
 11
191.8955141779
 21
117.9095755966
 31
0.0
  0
LINE
  5
154
330
1F
100
AcDbEntity
  8
0
  6
HIDDEN
 62
     7
370
    18
100
AcDbLine
 10
188.5180151031
 20
137.2070113486
 30
0.0
 11
188.5180151031
 21
157.198384488
 31
0.0
  0
LINE
  5
155
330
1F
100
AcDbEntity
  8
0
  6
HIDDEN
 62
     7
370
    18
100
AcDbLine
 10
192.3285268798
 20
137.2070113486
 30
0.0
 11
192.3285268798
 21
157.198384488
 31
0.0
  0
LINE
  5
156
330
1F
100
AcDbEntity
  8
0
  6
HIDDEN
 62
     7
370
    18
100
AcDbLine
 10
192.3285268798
 20
97.3968995678
 30
0.0
 11
192.3285268798
 21
117.3882727072
 31
0.0
  0
LINE
  5
157
330
1F
100
AcDbEntity
  8
0
  6
HIDDEN
 62
     7
370
    18
100
AcDbLine
 10
188.5180151031
 20
97.3968995678
 30
0.0
 11
188.5180151031
 21
117.3882727072
 31
0.0
  0
LINE
  5
158
330
1F
100
AcDbEntity
  8
0
  6
HIDDEN
 62
     7
370
    18
100
AcDbLine
 10
140.4232709915
 20
141.9686821547
 30
0.0
 11
140.4232709915
 21
130.1996293609
 31
0.0
  0
LINE
  5
159
330
1F
100
AcDbEntity
  8
0
  6
HIDDEN
 62
     7
370
    18
100
AcDbLine
 10
140.4232709915
 20
124.3956546949
 30
0.0
 11
140.4232709915
 21
112.626601901
 31
0.0
  0
LINE
  5
15A
330
1F
100
AcDbEntity
  8
0
  6
HIDDEN
 62
     7
370
    18
100
AcDbLine
 10
141.9232709915
 20
123.3324311311
 30
0.0
 11
141.9232709915
 21
112.1935891992
 31
0.0
  0
LINE
  5
15B
330
1F
100
AcDbEntity
  8
0
  6
HIDDEN
 62
     7
370
    18
100
AcDbLine
 10
141.9232709915
 20
142.4016948566
 30
0.0
 11
141.9232709915
 21
131.2628529247
 31
0.0
  0
LINE
  5
15C
330
1F
100
AcDbEntity
  8
0
  6
HIDDEN
 62
     7
370
    18
100
AcDbLine
 10
176.4282310135
 20
142.7351056509
 30
0.0
 11
176.4282310135
 21
111.8601784049
 31
0.0
  0
LINE
  5
15D
330
1F
100
AcDbEntity
  8
0
  6
HIDDEN
 62
     7
370
    18
100
AcDbLine
 10
176.2232709915
 20
142.8325625508
 30
0.0
 11
176.2232709915
 21
111.762721505
 31
0.0
  0
LINE
  5
15E
330
1F
100
AcDbEntity
  8
0
  6
HIDDEN
 62
     7
370
    18
100
AcDbLine
 10
178.2232709915
 20
142.3353491904
 30
0.0
 11
178.2232709915
 21
112.2599348654
 31
0.0
  0
LINE
  5
15F
330
1F
100
AcDbEntity
  8
0
  6
HIDDEN
 62
     7
370
    18
100
AcDbLine
 10
178.0282941026
 20
142.7304098152
 30
0.0
 11
178.0282941026
 21
111.8648742406
 31
0.0
  0
SPLINE
  5
160
330
1F
100
AcDbEntity
  8
0
  6
HIDDEN
 62
     7
370
    18
100
AcDbSpline
210
0.0
220
0.0
230
1.0
 70
     8
 71
     3
 72
    24
 73
    20
 74
     0
 42
0.000000001
 43
0.00000001
 40
0.0
 40
0.0
 40
0.0
 40
0.0
 40
0.1249999999999999
 40
0.1249999999999999
 40
0.2499999999999998
 40
0.2499999999999998
 40
0.3749999999999997
 40
0.3749999999999997
 40
0.4374999999999997
 40
0.4374999999999997
 40
0.4999999999999998
 40
0.4999999999999998
 40
0.6249999999999999
 40
0.6249999999999999
 40
0.75
 40
0.75
 40
0.875
 40
0.875
 40
1.0
 40
1.0
 40
1.0
 40
1.0
 10
146.8732709914671
 20
123.2116809747917
 30
0.0
 10
147.1110746237422
 20
123.5106880771218
 30
0.0
 10
147.3411602849535
 20
123.8150259284405
 30
0.0
 10
147.7759136835633
 20
124.4407594658365
 30
0.0
 10
147.9808464758494
 20
124.7619841931641
 30
0.0
 10
148.3459484263481
 20
125.4339099638968
 30
0.0
 10
148.5077488121397
 20
125.7892251957757
 30
0.0
 10
148.6796090167194
 20
126.3394564171281
 30
0.0
 10
148.7251942083795
 20
126.5258602021086
 30
0.0
 10
148.7876689479544
 20
126.9059947042049
 30
0.0
 10
148.8043400937028
 20
127.1016644964907
 30
0.0
 10
148.8048611368793
 20
127.6801448751652
 30
0.0
 10
148.7404188359926
 20
128.058056714134
 30
0.0
 10
148.5105697426193
 20
128.8000247392324
 30
0.0
 10
148.3520490649562
 20
129.1487401993933
 30
0.0
 10
147.987814735056
 20
129.8218325971265
 30
0.0
 10
147.7810784949924
 20
130.1467850843681
 30
0.0
 10
147.3431405492521
 20
130.7777088948299
 30
0.0
 10
147.1118678219725
 20
131.0835986351705
 30
0.0
 10
146.8732709914672
 20
131.38360308099
 30
0.0
  0
LINE
  5
161
330
1F
100
AcDbEntity
  8
0
  6
HIDDEN
 62
     7
370
    18
100
AcDbLine
 10
146.8732709915
 20
123.2116809748
 30
0.0
 11
146.8732709915
 21
131.383603081
 31
0.0
  0
SPLINE
  5
162
330
1F
100
AcDbEntity
  8
0
  6
HIDDEN
 62
     7
370
    18
100
AcDbSpline
210
0.0
220
0.0
230
1.0
 70
     8
 71
     3
 72
     8
 73
     4
 74
     0
 42
0.000000001
 43
0.00000001
 40
0.0000249638557296
 40
0.0000249638557296
 40
0.0000249638557296
 40
0.0000249638557296
 40
0.0049776420541172
 40
0.0049776420541172
 40
0.0049776420541172
 40
0.0049776420541172
 10
141.9232709914671
 20
123.3324311310544
 30
0.0
 10
143.5732472259766
 20
123.2911518932862
 30
0.0
 10
145.2232485457217
 20
123.2509302120467
 30
0.0
 10
146.8732709914671
 20
123.2116809747917
 30
0.0
  0
SPLINE
  5
163
330
1F
100
AcDbEntity
  8
0
  6
HIDDEN
 62
     7
370
    18
100
AcDbSpline
210
0.0
220
0.0
230
1.0
 70
     8
 71
     3
 72
     8
 73
     4
 74
     0
 42
0.000000001
 43
0.00000001
 40
0.0000249631533153
 40
0.0000249631533153
 40
0.0000249631533153
 40
0.0000249631533153
 40
0.0049776413517029
 40
0.0049776413517029
 40
0.0049776413517029
 40
0.0049776413517029
 10
146.8732709914671
 20
131.3836030809902
 30
0.0
 10
145.2232485457217
 20
131.3443538437351
 30
0.0
 10
143.5732472259766
 20
131.3041321624957
 30
0.0
 10
141.9232709914671
 20
131.2628529247275
 30
0.0
  0
SPLINE
  5
164
330
1F
100
AcDbEntity
  8
0
  6
HIDDEN
 62
     7
370
    18
100
AcDbSpline
210
0.0
220
0.0
230
1.0
 70
     8
 71
     3
 72
     8
 73
     4
 74
     0
 42
0.000000001
 43
0.00000001
 40
0.0
 40
0.0
 40
0.0
 40
0.0
 40
1.0
 40
1.0
 40
1.0
 40
1.0
 10
140.4232709914648
 20
124.3956546949106
 30
0.0
 10
140.8900316028426
 20
123.9802914492875
 30
0.0
 10
141.3957791496227
 20
123.6357010199829
 30
0.0
 10
141.9232709914671
 20
123.3324311310544
 30
0.0
  0
SPLINE
  5
165
330
1F
100
AcDbEntity
  8
0
  6
HIDDEN
 62
     7
370
    18
100
AcDbSpline
210
0.0
220
0.0
230
1.0
 70
     8
 71
     3
 72
     8
 73
     4
 74
     0
 42
0.000000001
 43
0.00000001
 40
0.0
 40
0.0
 40
0.0
 40
0.0
 40
1.0
 40
1.0
 40
1.0
 40
1.0
 10
141.9232709914671
 20
131.2628529247275
 30
0.0
 10
141.3957791496236
 20
130.9595830357994
 30
0.0
 10
140.8900316028442
 20
130.6149926064954
 30
0.0
 10
140.4232709914671
 20
130.1996293608733
 30
0.0
  0
LINE
  5
166
330
1F
100
AcDbEntity
  8
0
  6
HIDDEN
 62
     7
370
    18
100
AcDbLine
 10
140.4232709915
 20
124.3956546949
 30
0.0
 11
140.4232709915
 21
130.1996293609
 31
0.0
  0
SPLINE
  5
167
330
1F
100
AcDbEntity
  8
0
  6
HIDDEN
 62
     7
370
    18
100
AcDbSpline
210
0.0
220
0.0
230
1.0
 70
    11
 71
     3
 72
    72
 73
    68
 74
     0
 42
0.000000001
 43
0.00000001
 40
0.0
 40
0.0
 40
0.0
 40
0.0
 40
0.0312499999999998
 40
0.0312499999999998
 40
0.0624999999999996
 40
0.0624999999999996
 40
0.0937499999999994
 40
0.0937499999999994
 40
0.1249999999999993
 40
0.1249999999999993
 40
0.1562499999999993
 40
0.1562499999999993
 40
0.1874999999999993
 40
0.1874999999999993
 40
0.2187499999999993
 40
0.2187499999999993
 40
0.2499999999999992
 40
0.2499999999999992
 40
0.2812499999999992
 40
0.2812499999999992
 40
0.3124999999999992
 40
0.3124999999999992
 40
0.3437499999999992
 40
0.3437499999999992
 40
0.3749999999999992
 40
0.3749999999999992
 40
0.3906249999999993
 40
0.3906249999999993
 40
0.4062499999999993
 40
0.4062499999999993
 40
0.4374999999999993
 40
0.4374999999999993
 40
0.4687499999999994
 40
0.4687499999999994
 40
0.4999999999999994
 40
0.4999999999999994
 40
0.5312499999999994
 40
0.5312499999999994
 40
0.5624999999999996
 40
0.5624999999999996
 40
0.5937499999999996
 40
0.5937499999999996
 40
0.6249999999999996
 40
0.6249999999999996
 40
0.6562499999999997
 40
0.6562499999999997
 40
0.6874999999999997
 40
0.6874999999999997
 40
0.7187499999999997
 40
0.7187499999999997
 40
0.7499999999999997
 40
0.7499999999999997
 40
0.7812499999999998
 40
0.7812499999999998
 40
0.8124999999999998
 40
0.8124999999999998
 40
0.8437499999999998
 40
0.8437499999999998
 40
0.8749999999999999
 40
0.8749999999999999
 40
0.9062499999999999
 40
0.9062499999999999
 40
0.9374999999999999
 40
0.9374999999999999
 40
0.96875
 40
0.96875
 40
1.0
 40
1.0
 40
1.0
 40
1.0
 10
159.7344324202292
 20
129.9436535779483
 30
0.0
 10
159.9216475301662
 20
130.1488314781909
 30
0.0
 10
160.1265001314318
 20
130.3324805608494
 30
0.0
 10
160.5693683282787
 20
130.6594354643447
 30
0.0
 10
160.809323745597
 20
130.8032136725246
 30
0.0
 10
161.3049347283716
 20
131.0407310279705
 30
0.0
 10
161.5622010195261
 20
131.1360505928682
 30
0.0
 10
162.0955547873631
 20
131.2801361255027
 30
0.0
 10
162.3698349272614
 20
131.3278721324723
 30
0.0
 10
162.916263461841
 20
131.3734542730061
 30
0.0
 10
163.1908397803087
 20
131.3720205129338
 30
0.0
 10
163.7428069545795
 20
131.319107204843
 30
0.0
 10
164.0134239171512
 20
131.2681374786388
 30
0.0
 10
164.5397090882304
 20
131.1195308516952
 30
0.0
 10
164.7973406516379
 20
131.0212454809381
 30
0.0
 10
165.2932668163114
 20
130.7769921217524
 30
0.0
 10
165.5262504941031
 20
130.6339119907302
 30
0.0
 10
165.9625837694281
 20
130.3060534402614
 30
0.0
 10
166.1678650232864
 20
130.1190598025612
 30
0.0
 10
166.5358993211466
 20
129.7096291827382
 30
0.0
 10
166.6974143111318
 20
129.4895237417537
 30
0.0
 10
166.9745719942789
 20
129.0177736603156
 30
0.0
 10
167.0909661737126
 20
128.7627571338744
 30
0.0
 10
167.2642402103592
 20
128.2415193104774
 30
0.0
 10
167.322686764825
 20
127.9740351926965
 30
0.0
 10
167.3665514903009
 20
127.5621195333641
 30
0.0
 10
167.3737317069303
 20
127.4224122302885
 30
0.0
 10
167.3727636796348
 20
127.1462891748261
 30
0.0
 10
167.3647608902211
 20
127.0091126084953
 30
0.0
 10
167.3186881583088
 20
126.6001791672321
 30
0.0
 10
167.2577533258567
 20
126.3282529182278
 30
0.0
 10
167.0796331694482
 20
125.8050724017727
 30
0.0
 10
166.9640652581058
 20
125.5563604014093
 30
0.0
 10
166.6822184741665
 20
125.0834758764174
 30
0.0
 10
166.5153485287519
 20
124.8598666591853
 30
0.0
 10
166.1460229739531
 20
124.4552092709976
 30
0.0
 10
165.9412378176556
 20
124.2707956828281
 30
0.0
 10
165.4965848701394
 20
123.9417696479337
 30
0.0
 10
165.2617357406286
 20
123.8006015719455
 30
0.0
 10
164.7683259781516
 20
123.562192043165
 30
0.0
 10
164.5070390244469
 20
123.4644094867601
 30
0.0
 10
163.9763007439342
 20
123.31908145857
 30
0.0
 10
163.706661043037
 20
123.270792068375
 30
0.0
 10
163.1589097032918
 20
123.2223768445884
 30
0.0
 10
162.8790056614332
 20
123.2228350302243
 30
0.0
 10
162.3319277535982
 20
123.2729868858265
 30
0.0
 10
162.0623226489107
 20
123.3221604528585
 30
0.0
 10
161.5311678922547
 20
123.4698349761656
 30
0.0
 10
161.2698730758111
 20
123.5689901405312
 30
0.0
 10
160.7775590976358
 20
123.8100029110079
 30
0.0
 10
160.5436022220571
 20
123.9524910356326
 30
0.0
 10
160.1014336015266
 20
124.2839784646175
 30
0.0
 10
159.896240070415
 20
124.4714120926059
 30
0.0
 10
159.530545854057
 20
124.8783158116563
 30
0.0
 10
159.3677752316686
 20
125.0994948863253
 30
0.0
 10
159.0868228009031
 20
125.5792422155406
 30
0.0
 10
158.9736189486296
 20
125.8292541823509
 30
0.0
 10
158.8010102244907
 20
126.3493293923713
 30
0.0
 10
158.7414039418142
 20
126.6230608570011
 30
0.0
 10
158.6835121717444
 20
127.1716785068996
 30
0.0
 10
158.6843017106044
 20
127.4460183707911
 30
0.0
 10
158.7454921862208
 20
127.9947603219301
 30
0.0
 10
158.8066209099548
 20
128.2678256357873
 30
0.0
 10
158.9827005955846
 20
128.7879908845557
 30
0.0
 10
159.0990311905746
 20
129.0403100181146
 30
0.0
 10
159.3822324203153
 20
129.5167143595216
 30
0.0
 10
159.5472173102923
 20
129.7384756777058
 30
0.0
 10
159.7344324202292
 20
129.9436535779483
 30
0.0
  0
CIRCLE
  5
168
330
1F
100
AcDbEntity
  8
0
  6
HIDDEN
 62
     7
370
    18
100
AcDbCircle
 10
162.9232709915
 20
127.2976420279
 30
0.0
 40
4.049999999999983
  0
CIRCLE
  5
169
330
1F
100
AcDbEntity
  8
0
  6
HIDDEN
 62
     7
370
    18
100
AcDbCircle
 10
190.4232709915
 20
127.2976420279
 30
0.0
 40
2.0
  0
LINE
  5
16A
330
1F
100
AcDbEntity
  8
0
  6
HIDDEN
 62
     7
370
    18
100
AcDbLine
 10
178.4232709915
 20
103.0476420279
 30
0.0
 11
178.5161642103
 21
103.1405352467
 31
0.0
  0
LINE
  5
16B
330
1F
100
AcDbEntity
  8
0
  6
HIDDEN
 62
     7
370
    18
100
AcDbLine
 10
178.5161642103
 20
151.4547488091
 30
0.0
 11
178.4232709915
 21
151.5476420279
 31
0.0
  0
ARC
  5
16C
330
1F
100
AcDbEntity
  8
0
  6
HIDDEN
 62
     7
370
    18
100
AcDbCircle
 10
177.8090574291
 20
103.8476420279
 30
0.0
 40
1.000000000000018
100
AcDbArc
 50
315.0
 51
0.0
  0
ARC
  5
16D
330
1F
100
AcDbEntity
  8
0
  6
HIDDEN
 62
     7
370
    18
100
AcDbCircle
 10
177.8090574291
 20
103.8476420279
 30
0.0
 40
1.000000000000016
100
AcDbArc
 50
0.0
 51
52.1052014664
  0
ARC
  5
16E
330
1F
100
AcDbEntity
  8
0
  6
HIDDEN
 62
     7
370
    18
100
AcDbCircle
 10
177.8090574291
 20
150.7476420279
 30
0.0
 40
1.000000000000028
100
AcDbArc
 50
351.8087250651
 51
45.0
  0
ARC
  5
16F
330
1F
100
AcDbEntity
  8
0
  6
HIDDEN
 62
     7
370
    18
100
AcDbCircle
 10
177.8090574291
 20
150.7476420279
 30
0.0
 40
1.000000000000016
100
AcDbArc
 50
307.8947985336
 51
351.8087250651
  0
LINE
  5
170
330
1F
100
AcDbEntity
  8
0
  6
HIDDEN
 62
     7
370
    18
100
AcDbLine
 10
178.8090574291
 20
103.8476420279
 30
0.0
 11
178.8090574291
 21
150.7476420279
 31
0.0
  0
LINE
  5
171
330
1F
100
AcDbEntity
  8
0
  6
HIDDEN
 62
     7
370
    18
100
AcDbLine
 10
178.8090574291
 20
103.8476420279
 30
0.0
 11
178.8090574291
 21
150.7476420279
 31
0.0
  0
LINE
  5
172
330
1F
100
AcDbEntity
  8
0
  6
HIDDEN
 62
     7
370
    18
100
AcDbLine
 10
140.4232709915
 20
111.1012131834
 30
0.0
 11
141.9534994311
 21
111.984690985
 31
0.0
  0
LINE
  5
173
330
1F
100
AcDbEntity
  8
0
  6
HIDDEN
 62
     7
370
    18
100
AcDbLine
 10
141.9534994311
 20
142.6105930708
 30
0.0
 11
140.4232709915
 21
143.4940708724
 31
0.0
  0
ARC
  5
174
330
1F
100
AcDbEntity
  8
0
  6
HIDDEN
 62
     7
370
    18
100
AcDbCircle
 10
151.4250723064
 20
113.2976420279
 30
0.0
 40
2.000000000000026
100
AcDbArc
 50
270.0
 51
315.0
  0
ARC
  5
175
330
1F
100
AcDbEntity
  8
0
  6
HIDDEN
 62
     7
370
    18
100
AcDbCircle
 10
151.4250723064
 20
141.2976420279
 30
0.0
 40
2.000000000000036
100
AcDbArc
 50
45.0
 51
90.0
  0
LINE
  5
176
330
1F
100
AcDbEntity
  8
0
  6
HIDDEN
 62
     7
370
    18
100
AcDbLine
 10
150.4232709915
 20
111.2976420279
 30
0.0
 11
151.4250723064
 21
111.2976420279
 31
0.0
  0
LINE
  5
177
330
1F
100
AcDbEntity
  8
0
  6
HIDDEN
 62
     7
370
    18
100
AcDbLine
 10
151.4250723064
 20
143.2976420279
 30
0.0
 11
150.4232709915
 21
143.2976420279
 31
0.0
  0
ARC
  5
178
330
1F
100
AcDbEntity
  8
0
  6
HIDDEN
 62
     7
370
    18
100
AcDbCircle
 10
150.4232709915
 20
113.2976420279
 30
0.0
 40
2.000000000000014
100
AcDbArc
 50
189.9742217944
 51
270.0
  0
ARC
  5
179
330
1F
100
AcDbEntity
  8
0
  6
HIDDEN
 62
     7
370
    18
100
AcDbCircle
 10
150.4232709915
 20
141.2976420279
 30
0.0
 40
2.0
100
AcDbArc
 50
90.0
 51
170.0257782056
  0
LINE
  5
17A
330
1F
100
AcDbEntity
  8
0
  6
HIDDEN
 62
     7
370
    18
100
AcDbLine
 10
152.8392858687
 20
111.8834284655
 30
0.0
 11
154.2534994311
 21
113.2976420279
 31
0.0
  0
LINE
  5
17B
330
1F
100
AcDbEntity
  8
0
  6
HIDDEN
 62
     7
370
    18
100
AcDbLine
 10
154.2534994311
 20
141.2976420279
 30
0.0
 11
152.8392858687
 21
142.7118555903
 31
0.0
  0
LINE
  5
17C
330
1F
100
AcDbEntity
  8
0
  6
HIDDEN
 62
     7
370
    18
100
AcDbLine
 10
141.9534994311
 20
111.984690985
 30
0.0
 11
146.8534994311
 21
113.2976420279
 31
0.0
  0
LINE
  5
17D
330
1F
100
AcDbEntity
  8
0
  6
HIDDEN
 62
     7
370
    18
100
AcDbLine
 10
146.8534994311
 20
141.2976420279
 30
0.0
 11
141.9534994311
 21
142.6105930708
 31
0.0
  0
LINE
  5
17E
330
1F
100
AcDbEntity
  8
0
  6
HIDDEN
 62
     7
370
    18
100
AcDbLine
 10
148.4534994311
 20
141.6440521894
 30
0.0
 11
147.8534994311
 21
141.2976420279
 31
0.0
  0
LINE
  5
17F
330
1F
100
AcDbEntity
  8
0
  6
HIDDEN
 62
     7
370
    18
100
AcDbLine
 10
147.8534994311
 20
113.2976420279
 30
0.0
 11
148.4534994311
 21
112.9512318664
 31
0.0
  0
ARC
  5
180
330
1F
100
AcDbEntity
  8
0
  6
HIDDEN
 62
     7
370
    18
100
AcDbCircle
 10
166.9232709915
 20
113.7976420279
 30
0.0
 40
0.5
100
AcDbArc
 50
270.0
 51
0.0
  0
ARC
  5
181
330
1F
100
AcDbEntity
  8
0
  6
HIDDEN
 62
     7
370
    18
100
AcDbCircle
 10
166.9232709915
 20
140.7976420279
 30
0.0
 40
0.5
100
AcDbArc
 50
0.0
 51
90.0
  0
LINE
  5
182
330
1F
100
AcDbEntity
  8
0
  6
HIDDEN
 62
     7
370
    18
100
AcDbLine
 10
154.2534994311
 20
113.2976420279
 30
0.0
 11
166.9232709915
 21
113.2976420279
 31
0.0
  0
LINE
  5
183
330
1F
100
AcDbEntity
  8
0
  6
HIDDEN
 62
     7
370
    18
100
AcDbLine
 10
166.9232709915
 20
141.2976420279
 30
0.0
 11
154.2534994311
 21
141.2976420279
 31
0.0
  0
LINE
  5
184
330
1F
100
AcDbEntity
  8
0
  6
HIDDEN
 62
     7
370
    18
100
AcDbLine
 10
146.8534994311
 20
113.2976420279
 30
0.0
 11
147.8534994311
 21
113.2976420279
 31
0.0
  0
LINE
  5
185
330
1F
100
AcDbEntity
  8
0
  6
HIDDEN
 62
     7
370
    18
100
AcDbLine
 10
147.8534994311
 20
141.2976420279
 30
0.0
 11
146.8534994311
 21
141.2976420279
 31
0.0
  0
ARC
  5
186
330
1F
100
AcDbEntity
  8
0
  6
HIDDEN
 62
     7
370
    18
100
AcDbCircle
 10
247.2232709915
 20
116.0976420279
 30
0.0
 40
1.200000000000017
100
AcDbArc
 50
0.0
 51
90.0
  0
ARC
  5
187
330
1F
100
AcDbEntity
  8
0
  6
HIDDEN
 62
     7
370
    18
100
AcDbCircle
 10
247.2232709915
 20
138.4976420279
 30
0.0
 40
1.200000000000017
100
AcDbArc
 50
270.0
 51
0.0
  0
LINE
  5
188
330
1F
100
AcDbEntity
  8
0
  6
HIDDEN
 62
     7
370
    18
100
AcDbLine
 10
195.8232709915
 20
116.9976420279
 30
0.0
 11
198.5284969733
 21
116.9976420279
 31
0.0
  0
LINE
  5
189
330
1F
100
AcDbEntity
  8
0
  6
HIDDEN
 62
     7
370
    18
100
AcDbLine
 10
198.5284969733
 20
137.5976420279
 30
0.0
 11
195.8232709915
 21
137.5976420279
 31
0.0
  0
ARC
  5
18A
330
1F
100
AcDbEntity
  8
0
  6
HIDDEN
 62
     7
370
    18
100
AcDbCircle
 10
198.5284969733
 20
117.3976420279
 30
0.0
 40
0.4000000000000057
100
AcDbArc
 50
270.0
 51
290.0
  0
ARC
  5
18B
330
1F
100
AcDbEntity
  8
0
  6
HIDDEN
 62
     7
370
    18
100
AcDbCircle
 10
198.5284969733
 20
137.1976420279
 30
0.0
 40
0.4000000000000341
100
AcDbArc
 50
70.0
 51
90.0
  0
ARC
  5
18C
330
1F
100
AcDbEntity
  8
0
  6
HIDDEN
 62
     7
370
    18
100
AcDbCircle
 10
195.8232709915
 20
117.3976420279
 30
0.0
 40
0.4000000000000057
100
AcDbArc
 50
180.0
 51
270.0
  0
ARC
  5
18D
330
1F
100
AcDbEntity
  8
0
  6
HIDDEN
 62
     7
370
    18
100
AcDbCircle
 10
195.8232709915
 20
137.1976420279
 30
0.0
 40
0.4000000000000341
100
AcDbArc
 50
90.0
 51
180.0
  0
LINE
  5
18E
330
1F
100
AcDbEntity
  8
0
  6
HIDDEN
 62
     7
370
    18
100
AcDbLine
 10
198.6653050307
 20
117.0217649796
 30
0.0
 11
199.4232709915
 21
117.2976420279
 31
0.0
  0
LINE
  5
18F
330
1F
100
AcDbEntity
  8
0
  6
HIDDEN
 62
     7
370
    18
100
AcDbLine
 10
199.4232709915
 20
137.2976420279
 30
0.0
 11
198.6653050307
 21
137.5735190762
 31
0.0
  0
LINE
  5
190
330
1F
100
AcDbEntity
  8
0
  6
HIDDEN
 62
     7
370
    18
100
AcDbLine
 10
167.4232709915
 20
117.0476420279
 30
0.0
 11
168.6732709915
 21
118.2976420279
 31
0.0
  0
LINE
  5
191
330
1F
100
AcDbEntity
  8
0
  6
HIDDEN
 62
     7
370
    18
100
AcDbLine
 10
168.6732709915
 20
136.2976420279
 30
0.0
 11
167.4232709915
 21
137.5476420279
 31
0.0
  0
LINE
  5
192
330
1F
100
AcDbEntity
  8
0
  6
HIDDEN
 62
     7
370
    18
100
AcDbLine
 10
199.4232709915
 20
117.2976420279
 30
0.0
 11
247.2232709915
 21
117.2976420279
 31
0.0
  0
LINE
  5
193
330
1F
100
AcDbEntity
  8
0
  6
HIDDEN
 62
     7
370
    18
100
AcDbLine
 10
247.2232709915
 20
137.2976420279
 30
0.0
 11
199.4232709915
 21
137.2976420279
 31
0.0
  0
LINE
  5
194
330
1F
100
AcDbEntity
  8
0
  6
HIDDEN
 62
     7
370
    18
100
AcDbLine
 10
168.6732709915
 20
118.2976420279
 30
0.0
 11
195.4232709915
 21
118.2976420279
 31
0.0
  0
LINE
  5
195
330
1F
100
AcDbEntity
  8
0
  6
HIDDEN
 62
     7
370
    18
100
AcDbLine
 10
195.4232709915
 20
136.2976420279
 30
0.0
 11
168.6732709915
 21
136.2976420279
 31
0.0
  0
LINE
  5
196
330
1F
100
AcDbEntity
  8
0
  6
HIDDEN
 62
     7
370
    18
100
AcDbLine
 10
178.9232709915
 20
158.7976420279
 30
0.0
 11
178.9232709915
 21
95.7976420279
 31
0.0
  0
LINE
  5
197
330
1F
100
AcDbEntity
  8
0
  6
HIDDEN
 62
     7
370
    18
100
AcDbLine
 10
199.4232709915
 20
158.7976420279
 30
0.0
 11
199.4232709915
 21
95.7976420279
 31
0.0
  0
LINE
  5
198
330
1F
100
AcDbEntity
  8
0
  6
HIDDEN
 62
     7
370
    18
100
AcDbLine
 10
203.4232709915
 20
107.2976420279
 30
0.0
 11
203.4232709915
 21
147.2976420279
 31
0.0
  0
DIMENSION
  5
199
330
1F
100
AcDbEntity
  8
VERMASSUNG
100
AcDbDimension
  2
_D
 10
130.4232709915
 20
95.7976420279
 30
0.0
 11
130.4232709915
 21
127.2976420279
 31
0.0
 70
   160
  1
PSC %%c<>
 71
     2
 42
-1.0
  3
SLDDIMSTYLE0
100
AcDbAlignedDimension
 13
178.9232709915
 23
158.7976420279
 33
0.0
 14
178.9232709915
 24
95.7976420279
 34
0.0
 50
90.0
100
AcDbRotatedDimension
  0
DIMENSION
  5
1A6
330
1F
100
AcDbEntity
  8
VERMASSUNG
100
AcDbDimension
  2
_D_1
 10
260.067955892
 20
117.2976420279
 30
0.0
 11
260.067955892
 21
127.2976420279
 31
0.0
 70
   160
  1
%%c<>
 71
     2
 42
-1.0
  3
SLDDIMSTYLE0
100
AcDbAlignedDimension
 13
247.2232709915
 23
137.2976420279
 33
0.0
 14
247.2232709915
 24
117.2976420279
 34
0.0
 50
90.0
100
AcDbRotatedDimension
  0
DIMENSION
  5
1B1
330
1F
100
AcDbEntity
  8
VERMASSUNG
100
AcDbDimension
  2
_D_2
 10
248.4232709915
 20
178.2287305122
 30
0.0
 11
213.4232709915
 21
178.2287305122
 31
0.0
 70
   160
  1
<>
 71
     2
 42
-1.0
  3
SLDDIMSTYLE0
100
AcDbAlignedDimension
 13
178.4232709915
 23
158.2976420279
 33
0.0
 14
248.4232709915
 24
146.2976420279
 34
0.0
100
AcDbRotatedDimension
  0
DIMENSION
  5
1BB
330
1F
100
AcDbEntity
  8
VERMASSUNG
100
AcDbDimension
  2
_D_3
 10
248.4232709915
 20
85.7976420279
 30
0.0
 11
221.9232709915
 21
85.7976420279
 31
0.0
 70
   160
  1
<>
 71
     2
 42
-1.0
  3
SLDDIMSTYLE0
100
AcDbAlignedDimension
 13
195.4232709915
 23
117.3976420279
 33
0.0
 14
248.4232709915
 24
108.2976420279
 34
0.0
100
AcDbRotatedDimension
  0
DIMENSION
  5
1C5
330
1F
100
AcDbEntity
  8
VERMASSUNG
100
AcDbDimension
  2
_D_4
 10
248.4232709915
 20
168.7976420279
 30
0.0
 11
224.4232709915
 21
168.7976420279
 31
0.0
 70
   160
  1
<>
 71
     2
 42
-1.0
  3
SLDDIMSTYLE0
100
AcDbAlignedDimension
 13
200.4232709915
 23
157.7976420279
 33
0.0
 14
248.4232709915
 24
146.2976420279
 34
0.0
100
AcDbRotatedDimension
  0
DIMENSION
  5
1CF
330
1F
100
AcDbEntity
  8
VERMASSUNG
100
AcDbDimension
  2
_D_5
 10
248.4232709915
 20
186.7976420279
 30
0.0
 11
194.4232709915
 21
186.7976420279
 31
0.0
 70
   160
  1
(<>)
 71
     2
 42
-1.0
  3
SLDDIMSTYLE0
100
AcDbAlignedDimension
 13
140.4232709915
 23
147.5899800204
 33
0.0
 14
248.4232709915
 24
146.2976420279
 34
0.0
100
AcDbRotatedDimension
  0
DIMENSION
  5
1DB
330
1F
100
AcDbEntity
  8
VERMASSUNG
100
AcDbDimension
  2
_D_6
 10
270.4232709915
 20
147.2976420279
 30
0.0
 11
270.4232709915
 21
127.2976420279
 31
0.0
 70
   160
  1
%%c<>
 71
     2
 42
-1.0
  3
SLDDIMSTYLE0
100
AcDbAlignedDimension
 13
247.4232709915
 23
107.2976420279
 33
0.0
 14
247.4232709915
 24
147.2976420279
 34
0.0
 50
90.0
100
AcDbRotatedDimension
  0
DIMENSION
  5
1E6
330
1F
100
AcDbEntity
  8
VERMASSUNG
100
AcDbDimension
  2
_D_7
 10
203.4232709915
 20
150.2976420279
 30
0.0
 11
209.442128527
 21
153.7726352728
 31
0.0
 70
   164
  1
<>
 71
     1
 42
-1.0
  3
SLDDIMSTYLE1
100
AcDbRadialDimension
 15
200.8251947801
 25
148.7976420279
 35
0.0
 40
0.0
  0
INSERT
  5
1F9
330
1F
100
AcDbEntity
  8
VERMASSUNG
100
AcDbBlockReference
  2
SW_CENTERMARKSYMBOL_0
 10
233.4232709915
 20
127.2976420279
 30
0.0
  0
INSERT
  5
205
330
1F
100
AcDbEntity
  8
VERMASSUNG
100
AcDbBlockReference
  2
SW_CENTERMARKSYMBOL_1
 10
213.4232709915
 20
127.2976420279
 30
0.0
  0
LINE
  5
206
330
1F
100
AcDbEntity
  8
VERMASSUNG
  6
CENTERX2
370
    18
100
AcDbLine
 10
137.3606579913
 20
127.2976420279
 30
0.0
 11
252.4037565875
 21
127.2976420279
 31
0.0
  0
LINE
  5
207
330
1F
100
AcDbEntity
  8
0
  6
Continuous
 62
     7
370
    25
100
AcDbLine
 10
61.3587769697
 20
123.5332349175
 30
0.0
 11
64.6231840801
 21
126.7976420279
 31
0.0
  0
LINE
  5
208
330
1F
100
AcDbEntity
  8
0
  6
Continuous
 62
     7
370
    25
100
AcDbLine
 10
64.6231840801
 20
127.7976420279
 30
0.0
 11
61.3587769697
 21
131.0620491383
 31
0.0
  0
LINE
  5
209
330
1F
100
AcDbEntity
  8
0
  6
Continuous
 62
     7
370
    25
100
AcDbLine
 10
51.1398693066
 20
131.8143272543
 30
0.0
 11
50.6231840801
 21
131.2976420279
 31
0.0
  0
LINE
  5
20A
330
1F
100
AcDbEntity
  8
0
  6
Continuous
 62
     7
370
    25
100
AcDbLine
 10
50.6231840801
 20
123.2976420279
 30
0.0
 11
51.1398693066
 21
122.7809568014
 31
0.0
  0
LINE
  5
20B
330
1F
100
AcDbEntity
  8
0
  6
Continuous
 62
     7
370
    25
100
AcDbLine
 10
61.6696402412
 20
122.844098189
 30
0.0
 11
62.6231840801
 21
123.7976420279
 31
0.0
  0
LINE
  5
20C
330
1F
100
AcDbEntity
  8
0
  6
Continuous
 62
     7
370
    25
100
AcDbLine
 10
62.6231840801
 20
130.7976420279
 30
0.0
 11
61.6696402412
 21
131.7511858668
 31
0.0
  0
CIRCLE
  5
20D
330
1F
100
AcDbEntity
  8
0
  6
Continuous
 62
     7
370
    25
100
AcDbCircle
 10
70.6231840801
 20
127.2976420279
 30
0.0
 40
11.19999999999999
  0
CIRCLE
  5
20E
330
1F
100
AcDbEntity
  8
0
  6
Continuous
 62
     7
370
    25
100
AcDbCircle
 10
70.6231840801
 20
127.2976420279
 30
0.0
 40
19.00000000000001
  0
CIRCLE
  5
20F
330
1F
100
AcDbEntity
  8
0
  6
Continuous
 62
     7
370
    25
100
AcDbCircle
 10
70.6231840801
 20
127.2976420279
 30
0.0
 40
20.00000000000001
  0
CIRCLE
  5
210
330
1F
100
AcDbEntity
  8
0
  6
Continuous
 62
     7
370
    25
100
AcDbCircle
 10
70.6231840801
 20
127.2976420279
 30
0.0
 40
10.0
  0
CIRCLE
  5
211
330
1F
100
AcDbEntity
  8
0
  6
Continuous
 62
     7
370
    25
100
AcDbCircle
 10
70.6231840801
 20
127.2976420279
 30
0.0
 40
23.0
  0
CIRCLE
  5
212
330
1F
100
AcDbEntity
  8
0
  6
Continuous
 62
     7
370
    25
100
AcDbCircle
 10
70.6231840801
 20
127.2976420279
 30
0.0
 40
30.5
  0
CIRCLE
  5
213
330
1F
100
AcDbEntity
  8
0
  6
Continuous
 62
     7
370
    25
100
AcDbCircle
 10
70.6231840801
 20
127.2976420279
 30
0.0
 40
31.5
  0
ARC
  5
214
330
1F
100
AcDbEntity
  8
0
  6
Continuous
 62
     7
370
    25
100
AcDbCircle
 10
70.6231840801
 20
127.2976420279
 30
0.0
 40
9.000000000000007
100
AcDbArc
 50
204.2951889454
 51
0.0
  0
ARC
  5
215
330
1F
100
AcDbEntity
  8
0
  6
Continuous
 62
     7
370
    25
100
AcDbCircle
 10
70.6231840801
 20
127.2976420279
 30
0.0
 40
9.0
100
AcDbArc
 50
0.0
 51
155.7048110546
  0
LINE
  5
216
330
1F
100
AcDbEntity
  8
0
  6
Continuous
 62
     7
370
    25
100
AcDbLine
 10
64.6231840801
 20
127.1477855368
 30
0.0
 11
64.6231840801
 21
127.7976420279
 31
0.0
  0
LINE
  5
217
330
1F
100
AcDbEntity
  8
0
  6
Continuous
 62
     7
370
    25
100
AcDbLine
 10
64.6231840801
 20
126.7976420279
 30
0.0
 11
64.6231840801
 21
127.1477855368
 31
0.0
  0
LINE
  5
218
330
1F
100
AcDbEntity
  8
0
  6
Continuous
 62
     7
370
    25
100
AcDbLine
 10
50.6231840801
 20
126.0987900993
 30
0.0
 11
50.6231840801
 21
131.2976420279
 31
0.0
  0
LINE
  5
219
330
1F
100
AcDbEntity
  8
0
  6
Continuous
 62
     7
370
    25
100
AcDbLine
 10
50.6231840801
 20
123.2976420279
 30
0.0
 11
50.6231840801
 21
126.0987900993
 31
0.0
  0
LINE
  5
21A
330
1F
100
AcDbEntity
  8
0
  6
Continuous
 62
     7
370
    25
100
AcDbLine
 10
62.6231840801
 20
123.7976420279
 30
0.0
 11
62.6231840801
 21
124.7976420279
 31
0.0
  0
LINE
  5
21B
330
1F
100
AcDbEntity
  8
0
  6
Continuous
 62
     7
370
    25
100
AcDbLine
 10
62.6231840801
 20
129.7976420279
 30
0.0
 11
62.6231840801
 21
130.7976420279
 31
0.0
  0
ARC
  5
21C
330
1F
100
AcDbEntity
  8
0
  6
Continuous
 62
     7
370
    25
100
AcDbCircle
 10
70.6231840801
 20
127.2976420279
 30
0.0
 40
9.900000000000007
100
AcDbArc
 50
206.2516513477
 51
0.0
  0
ARC
  5
21D
330
1F
100
AcDbEntity
  8
0
  6
Continuous
 62
     7
370
    25
100
AcDbCircle
 10
70.6231840801
 20
127.2976420279
 30
0.0
 40
9.900000000000013
100
AcDbArc
 50
0.0
 51
153.7483486523
  0
INSERT
  5
229
330
1F
100
AcDbEntity
  8
VERMASSUNG
100
AcDbBlockReference
  2
SW_CENTERMARKSYMBOL_2
 10
70.6231840801
 20
127.2976420279
 30
0.0
  0
LINE
  5
22A
330
1F
100
AcDbEntity
  8
0
  6
Continuous
 62
     7
370
    25
100
AcDbLine
 10
212.4409266103
 20
27.577981584
 30
0.0
 11
212.7944225385
 21
27.7821167843
 31
0.0
  0
LINE
  5
22B
330
1F
100
AcDbEntity
  8
0
  6
Continuous
 62
     7
370
    25
100
AcDbLine
 10
219.5108451748
 20
39.4165626518
 30
0.0
 11
219.5108451748
 21
39.8247667078
 31
0.0
  0
LINE
  5
22C
330
1F
100
AcDbEntity
  8
0
  6
Continuous
 62
     7
370
    25
100
AcDbLine
 10
191.8838345136
 20
36.0627267549
 30
0.0
 11
207.4401836997
 21
27.0822375248
 31
0.0
  0
LINE
  5
22D
330
1F
100
AcDbEntity
  8
0
  6
Continuous
 62
     7
370
    25
100
AcDbLine
 10
217.4393710261
 20
44.4032147724
 30
0.0
 11
201.88302184
 21
53.3837040025
 31
0.0
  0
SPLINE
  5
22E
330
1F
100
AcDbEntity
  8
0
  6
Continuous
 62
     7
370
    25
100
AcDbSpline
210
0.0
220
0.0
230
1.0
 70
     8
 71
     3
 72
    31
 73
    27
 74
     0
 42
0.000000001
 43
0.00000001
 40
0.0
 40
0.0
 40
0.0
 40
0.0
 40
0.0333536103632529
 40
0.0774972423002348
 40
0.1195268280184583
 40
0.1642214288070639
 40
0.2077633044924435
 40
0.2509175335430198
 40
0.2940318436370317
 40
0.3372470663910112
 40
0.3806199837496306
 40
0.4241416359589036
 40
0.4677751721989476
 40
0.5114729422353648
 40
0.555183513126472
 40
0.5988400095509755
 40
0.6423858987750364
 40
0.6857697262519179
 40
0.7289476150908648
 40
0.771897831173054
 40
0.8146523496986964
 40
0.8573452305727328
 40
0.9002163011462261
 40
0.9438847249748976
 40
0.9894473822681845
 40
1.0
 40
1.0
 40
1.0
 40
1.0
 10
209.8354096176291
 20
31.48539271528795
 30
0.0
 10
209.7697533734018
 20
31.52650022298026
 30
0.0
 10
209.6172008367502
 20
31.62201367562585
 30
0.0
 10
209.42270122223
 20
31.85580857734397
 30
0.0
 10
209.2391211203622
 20
32.17940210844171
 30
0.0
 10
209.1023510919643
 20
32.58186744568471
 30
0.0
 10
209.0200498229814
 20
33.05924104118495
 30
0.0
 10
208.9997180262169
 20
33.58977654713824
 30
0.0
 10
209.0430740812308
 20
34.16451299186811
 30
0.0
 10
209.1510122881302
 20
34.77279612717263
 30
0.0
 10
209.3228774489206
 20
35.40255018613527
 30
0.0
 10
209.5563738061843
 20
36.04092260595763
 30
0.0
 10
209.8475251949052
 20
36.67462722206209
 30
0.0
 10
210.1907946803949
 20
37.29043003890668
 30
0.0
 10
210.5791915654279
 20
37.87545692679066
 30
0.0
 10
211.0044343995717
 20
38.41757812201879
 30
0.0
 10
211.4571194766066
 20
38.90574505748707
 30
0.0
 10
211.9269417837668
 20
39.33034849678591
 30
0.0
 10
212.402871559009
 20
39.68353490250617
 30
0.0
 10
212.8733992195635
 20
39.95954365129693
 30
0.0
 10
213.3271080423814
 20
40.15536025190204
 30
0.0
 10
213.7527081149645
 20
40.27016864225715
 30
0.0
 10
214.1425006950348
 20
40.30878126238064
 30
0.0
 10
214.4883437391484
 20
40.26847240691654
 30
0.0
 10
214.7209850365418
 20
40.20497288921371
 30
0.0
 10
214.8286725022788
 20
40.13024951763482
 30
0.0
 10
214.8489233993816
 20
40.11619760083406
 30
0.0
  0
SPLINE
  5
22F
330
1F
100
AcDbEntity
  8
0
  6
Continuous
 62
     7
370
    25
100
AcDbSpline
210
0.0
220
0.0
230
1.0
 70
     8
 71
     3
 72
    17
 73
    13
 74
     0
 42
0.000000001
 43
0.00000001
 40
0.0
 40
0.0
 40
0.0
 40
0.0
 40
0.0546201026699265
 40
0.1630424279024636
 40
0.2720866699048042
 40
0.3818177818926832
 40
0.4921776434008018
 40
0.6030330974360718
 40
0.7142282781810543
 40
0.8256220990806871
 40
0.9371057330605777
 40
1.0
 40
1.0
 40
1.0
 40
1.0
 10
189.0262029136972
 20
31.32948517859877
 30
0.0
 10
189.1487678924472
 20
31.29547541555734
 30
0.0
 10
189.5146275436454
 20
31.19395538780912
 30
0.0
 10
190.1637756825436
 20
31.12228635456369
 30
0.0
 10
190.9660584055167
 20
31.10932384782831
 30
0.0
 10
191.7989628139126
 20
31.19181095530131
 30
0.0
 10
192.6550166684504
 20
31.36363223723413
 30
0.0
 10
193.5293106474515
 20
31.62595459293825
 30
0.0
 10
194.4159210574753
 20
31.97550224398148
 30
0.0
 10
195.3084432304371
 20
32.4145680742681
 30
0.0
 10
196.0728146145602
 20
32.84903856033223
 30
0.0
 10
196.534772101687
 20
33.16694818063731
 30
0.0
 10
196.7013899893714
 20
33.28161117644508
 30
0.0
  0
SPLINE
  5
230
330
1F
100
AcDbEntity
  8
0
  6
Continuous
 62
     7
370
    25
100
AcDbSpline
210
0.0
220
0.0
230
1.0
 70
     8
 71
     3
 72
    17
 73
    13
 74
     0
 42
0.000000001
 43
0.00000001
 40
0.0
 40
0.0
 40
0.0
 40
0.0
 40
0.0047294321612972
 40
0.1161921837203191
 40
0.2277314144624621
 40
0.3393215281419746
 40
0.4508933033638386
 40
0.5623492844870993
 40
0.6735557646250957
 40
0.7843468864741805
 40
0.8945522412376516
 40
1.0
 40
1.0
 40
1.0
 40
1.0
 10
206.7073271805863
 20
50.59869181002009
 30
0.0
 10
206.7089202725199
 20
50.61402877521522
 30
0.0
 10
206.7480591848296
 20
50.99082569647076
 30
0.0
 10
206.759313799726
 20
51.70152166677936
 30
0.0
 10
206.7345878190117
 20
52.72047719181646
 30
0.0
 10
206.6297369098347
 20
53.69252031667025
 30
0.0
 10
206.4552287866221
 20
54.61561190822109
 30
0.0
 10
206.2088120841788
 20
55.48216172377135
 30
0.0
 10
205.8929560130984
 20
56.28690759037872
 30
0.0
 10
205.5078677376902
 20
57.02169951957569
 30
0.0
 10
205.0681215060805
 20
57.68088806208587
 30
0.0
 10
204.7249131134774
 20
58.05345548019128
 30
0.0
 10
204.5570947351719
 20
58.23562952157087
 30
0.0
  0
LINE
  5
231
330
1F
100
AcDbEntity
  8
0
  6
Continuous
 62
     7
370
    25
100
AcDbLine
 10
185.7702996241
 20
32.9526470727
 30
0.0
 11
187.5948545949
 21
31.899353908
 31
0.0
  0
LINE
  5
232
330
1F
100
AcDbEntity
  8
0
  6
Continuous
 62
     7
370
    25
100
AcDbLine
 10
180.3470100878
 20
36.0834454811
 30
0.0
 11
183.055448535
 21
34.5198972466
 31
0.0
  0
LINE
  5
233
330
1F
100
AcDbEntity
  8
0
  6
Continuous
 62
     7
370
    25
100
AcDbLine
 10
198.804168574
 20
61.8004364116
 30
0.0
 11
196.0957301268
 21
63.3639846461
 31
0.0
  0
LINE
  5
234
330
1F
100
AcDbEntity
  8
0
  6
Continuous
 62
     7
370
    25
100
AcDbLine
 10
203.3435746339
 20
59.179893073
 30
0.0
 11
201.5190196632
 21
60.2331862377
 31
0.0
  0
SPLINE
  5
235
330
1F
100
AcDbEntity
  8
0
  6
Continuous
 62
     7
370
    25
100
AcDbSpline
210
0.0
220
0.0
230
1.0
 70
     8
 71
     3
 72
    33
 73
    29
 74
     0
 42
0.000000001
 43
0.00000001
 40
0.0
 40
0.0
 40
0.0
 40
0.0
 40
0.0201572963065638
 40
0.0594663872573858
 40
0.0988811211512947
 40
0.1383724029336103
 40
0.1779118118283572
 40
0.2174763121827471
 40
0.2570490389269559
 40
0.2966175261163943
 40
0.3361770276828751
 40
0.3757255680513165
 40
0.4152629559692557
 40
0.4547900966922583
 40
0.4943085408107196
 40
0.5338202027681362
 40
0.5733271937613297
 40
0.6128317282757859
 40
0.6523360756438105
 40
0.6918420968890535
 40
0.7313517859310151
 40
0.7708674702210613
 40
0.8103914574027745
 40
0.8499259794699334
 40
0.889473086262606
 40
0.9290344561582041
 40
0.9686110781936179
 40
1.0
 40
1.0
 40
1.0
 40
1.0
 10
192.8890850434446
 20
64.10854557578898
 30
0.0
 10
192.7515054577994
 20
64.10615417684002
 30
0.0
 10
192.3456295509188
 20
64.09909926958352
 30
0.0
 10
191.6429141327305
 20
63.98902910406236
 30
0.0
 10
190.7884394880012
 20
63.78532931665283
 30
0.0
 10
189.9163646965439
 20
63.48839682491733
 30
0.0
 10
189.0341348379755
 20
63.1060548040453
 30
0.0
 10
188.146980640041
 20
62.63925839402049
 30
0.0
 10
187.2607016639199
 20
62.09155170201211
 30
0.0
 10
186.3808414661406
 20
61.4664393517477
 30
0.0
 10
185.5128744893911
 20
60.76802007773662
 30
0.0
 10
184.6621314363943
 20
60.00075521801855
 30
0.0
 10
183.8338256139905
 20
59.16950961812036
 30
0.0
 10
183.0330286580769
 20
58.2795135625348
 30
0.0
 10
182.2646475700646
 20
57.33633952280229
 30
0.0
 10
181.5333981780334
 20
56.34587152515273
 30
0.0
 10
180.8437780396592
 20
55.31427258635333
 30
0.0
 10
180.200039537985
 20
54.24794895441721
 30
0.0
 10
179.6061659454479
 20
53.15351579059024
 30
0.0
 10
179.0658465192742
 20
52.03775675506215
 30
0.0
 10
178.5824487001427
 20
50.90757698506908
 30
0.0
 10
178.1590099138747
 20
49.7699626623169
 30
0.0
 10
177.7981751007694
 20
48.63191182867477
 30
0.0
 10
177.502361756514
 20
47.50049479432563
 30
0.0
 10
177.2730894119937
 20
46.38243940714973
 30
0.0
 10
177.1134386138638
 20
45.28548656947615
 30
0.0
 10
177.0253741741885
 20
44.2872342298548
 30
0.0
 10
177.0155571762728
 20
43.66969659284943
 30
0.0
 10
177.0112149988827
 20
43.39655219697651
 30
0.0
  0
SPLINE
  5
236
330
1F
100
AcDbEntity
  8
0
  6
Continuous
 62
     7
370
    25
100
AcDbSpline
210
0.0
220
0.0
230
1.0
 70
     8
 71
     3
 72
    13
 73
     9
 74
     0
 42
0.000000001
 43
0.00000001
 40
0.0
 40
0.0
 40
0.0
 40
0.0
 40
0.0961154257564538
 40
0.2786515511872968
 40
0.4612502023666423
 40
0.6437952671424281
 40
0.8261923838085234
 40
1.0
 40
1.0
 40
1.0
 40
1.0
 10
177.0112149988827
 20
43.39655219697651
 30
0.0
 10
177.013182366749
 20
43.21782188643102
 30
0.0
 10
177.0188860308945
 20
42.69965866876096
 30
0.0
 10
177.0824559953926
 20
41.87383089487997
 30
0.0
 10
177.2245164242094
 20
40.93944058813077
 30
0.0
 10
177.43889993976
 20
40.06144096144351
 30
0.0
 10
177.7122869578423
 20
39.25054223199128
 30
0.0
 10
177.9487041355313
 20
38.76875087552967
 30
0.0
 10
178.064062249252
 20
38.53366414185133
 30
0.0
  0
LINE
  5
237
330
1F
100
AcDbEntity
  8
0
  6
Continuous
 62
     7
370
    25
100
AcDbLine
 10
168.8601099693
 20
48.083807953
 30
0.0
 11
177.0178712926
 21
43.0336501913
 31
0.0
  0
LINE
  5
238
330
1F
100
AcDbEntity
  8
0
  6
Continuous
 62
     7
370
    25
100
AcDbLine
 10
187.372490521
 20
62.14706863
 30
0.0
 11
179.3563649653
 21
66.4515046865
 31
0.0
  0
LINE
  5
239
330
1F
100
AcDbEntity
  8
0
  6
Continuous
 62
     7
370
    25
100
AcDbLine
 10
176.666995401
 20
67.0417612188
 30
0.0
 11
176.0274449484
 21
66.9545501534
 31
0.0
  0
LINE
  5
23A
330
1F
100
AcDbEntity
  8
0
  6
Continuous
 62
     7
370
    25
100
AcDbLine
 10
167.6968589028
 20
49.8198500065
 30
0.0
 11
167.9411631955
 21
49.2224004574
 31
0.0
  0
LINE
  5
23B
330
1F
100
AcDbEntity
  8
0
  6
Continuous
 62
     7
370
    25
100
AcDbLine
 10
209.2580840894
 20
47.3776365446
 30
0.0
 11
208.9044732504
 21
47.5818380922
 31
0.0
  0
LINE
  5
23C
330
1F
100
AcDbEntity
  8
0
  6
Continuous
 62
     7
370
    25
100
AcDbLine
 10
206.0755865388
 20
47.5818380922
 30
0.0
 11
205.7219756998
 21
47.3776365446
 31
0.0
  0
LINE
  5
23D
330
1F
100
AcDbEntity
  8
0
  6
Continuous
 62
     7
370
    25
100
AcDbLine
 10
202.1870162775
 20
51.4596771037
 30
0.0
 11
201.8334054386
 21
51.6638786513
 31
0.0
  0
LINE
  5
23E
330
1F
100
AcDbEntity
  8
0
  6
Continuous
 62
     7
370
    25
100
AcDbLine
 10
199.0045187269
 20
51.6638786513
 30
0.0
 11
198.650907888
 21
51.4596771037
 31
0.0
  0
LWPOLYLINE
  5
23F
330
1F
100
AcDbEntity
  8
0
  6
Continuous
 62
     7
370
    25
100
AcDbPolyline
 90
       59
 70
   128
 43
0.0
 10
212.7933307535
 20
27.7814864078
 10
212.067039688
 20
27.4076801739
 10
211.3492637212
 20
27.1292018236
 10
210.6484181201
 20
26.949316261
 10
209.9727196584
 20
26.8701324797
 10
209.330090283
 20
26.8925788372
 10
208.7280642356
 20
27.0163921705
 10
208.1736997212
 20
27.2401208815
 10
207.6734961568
 20
27.5611419556
 10
207.2333179721
 20
27.9756917142
 10
206.8583258536
 20
28.4789099404
 10
206.5529162411
 20
29.0648968606
 10
206.3206697831
 20
29.7267823139
 10
206.164309357
 20
30.4568062986
 10
206.0856681458
 20
31.2464099509
 10
206.0856681458
 20
32.08633589
 10
206.164309357
 20
32.9667367521
 10
206.3206697831
 20
33.8772906421
 10
206.5529162411
 20
34.8073221481
 10
206.8583258536
 20
35.7459275012
 10
207.2333179721
 20
36.6821024116
 10
207.6734961568
 20
37.6048710846
 10
208.1736997212
 20
38.5034149011
 10
208.7280642356
 20
39.3671992565
 10
209.330090283
 20
40.1860970689
 10
209.9727196584
 20
40.9505075102
 10
210.6484181201
 20
41.6514685669
 10
211.3492637212
 20
42.2807621114
 10
212.067039688
 20
42.8310102525
 10
212.7933307535
 20
43.2957618336
 10
213.519621819
 20
43.6695680675
 10
214.2373977858
 20
43.9480464177
 10
214.9382433869
 20
44.1279319804
 10
215.6139418486
 20
44.2071157617
 10
216.256571224
 20
44.1846694041
 10
216.8585972715
 20
44.0608560708
 10
217.4129617859
 20
43.8371273598
 10
217.9131653502
 20
43.5161062858
 10
218.353343535
 20
43.1015565272
 10
218.7283356534
 20
42.598338301
 10
219.0337452659
 20
42.0123513808
 10
219.2659917239
 20
41.3504659274
 10
219.42235215
 20
40.6204419427
 10
219.5009933612
 20
39.8308382904
 10
219.5009933612
 20
38.9909123514
 10
219.42235215
 20
38.1105114893
 10
219.2659917239
 20
37.1999575993
 10
219.0337452659
 20
36.2699260932
 10
218.7283356534
 20
35.3313207402
 10
218.353343535
 20
34.3951458297
 10
217.9131653502
 20
33.4723771567
 10
217.4129617859
 20
32.5738333402
 10
216.8585972715
 20
31.7100489849
 10
216.256571224
 20
30.8911511725
 10
215.6139418486
 20
30.1267407312
 10
214.9382433869
 20
29.4257796745
 10
214.2373977858
 20
28.7964861299
 10
213.519621819
 20
28.2462379889
 10
212.7933307535
 20
27.7814864078
  0
LWPOLYLINE
  5
240
330
1F
100
AcDbEntity
  8
0
  6
Continuous
 62
     7
370
    25
100
AcDbPolyline
 90
       47
 70
   128
 43
0.0
 10
212.4397773629
 20
27.5773180298
 10
211.7006495109
 20
27.1953595632
 10
210.9696196983
 20
26.9070478335
 10
210.2546972407
 20
26.7155416445
 10
209.5637149782
 20
26.6229391779
 10
208.904243457
 20
26.6302550059
 10
208.2835079851
 20
26.7374089746
 10
207.7083094704
 20
26.9432270827
 10
207.1849499079
 20
27.245454344
 10
206.7191633347
 20
27.6407794934
 10
206.316053006
 20
28.1248712657
 10
205.9800354827
 20
28.6924258503
 10
205.7147922433
 20
29.3372250004
 10
205.5232293481
 20
30.0522041614
 10
205.4074456004
 20
30.8295298722
 10
205.368709551
 20
31.6606855895
 10
205.4074456004
 20
32.5365649974
 10
205.5232293481
 20
33.4475717779
 10
205.7147922433
 20
34.3837247498
 10
205.9800354827
 20
35.3347672256
 10
206.316053006
 20
36.2902793846
 10
206.7191633347
 20
37.2397924358
 10
207.1849499079
 20
38.1729033155
 10
207.7083094704
 20
39.0793886656
 10
208.2835079851
 20
39.9493168429
 10
208.904243457
 20
40.7731567323
 10
209.5637149782
 20
41.5418821715
 10
210.2546972407
 20
42.2470708438
 10
210.9696196983
 20
42.8809965545
 10
211.7006495109
 20
43.4367138808
 10
212.4397773629
 20
43.9081342675
 10
213.1789052149
 20
44.2900927341
 10
213.9099350276
 20
44.5784044637
 10
214.6248574852
 20
44.7699106528
 10
215.3158397477
 20
44.8625131193
 10
215.9753112688
 20
44.8551972914
 10
216.5960467407
 20
44.7480433227
 10
217.1712452555
 20
44.5422252146
 10
217.6946048179
 20
44.2399979533
 10
218.1603913911
 20
43.8446728039
 10
218.5635017199
 20
43.3605810315
 10
218.8995192431
 20
42.7930264469
 10
219.1647624826
 20
42.1482272969
 10
219.3563253777
 20
41.4332481358
 10
219.4721091254
 20
40.6559224251
 10
219.5108451748
 20
39.8247667078
 10
219.5108451748
 20
39.8247667078
  0
SPLINE
  5
241
330
1F
100
AcDbEntity
  8
0
  6
Continuous
 62
     7
370
    25
100
AcDbSpline
210
0.0
220
0.0
230
1.0
 70
    11
 71
     3
 72
    79
 73
    75
 74
     0
 42
0.000000001
 43
0.00000001
 40
0.0
 40
0.0
 40
0.0
 40
0.0
 40
0.0312499999999999
 40
0.0312499999999999
 40
0.0624999999999999
 40
0.0624999999999999
 40
0.0937499999999998
 40
0.0937499999999998
 40
0.1093749999999997
 40
0.1093749999999997
 40
0.1249999999999997
 40
0.1406249999999996
 40
0.1406249999999996
 40
0.1562499999999996
 40
0.1562499999999996
 40
0.1874999999999996
 40
0.1874999999999996
 40
0.2187499999999996
 40
0.2187499999999996
 40
0.2499999999999996
 40
0.2499999999999996
 40
0.2812499999999995
 40
0.2812499999999995
 40
0.3124999999999994
 40
0.3124999999999994
 40
0.3437499999999993
 40
0.3437499999999993
 40
0.3749999999999993
 40
0.3749999999999993
 40
0.4062499999999992
 40
0.4062499999999992
 40
0.4374999999999991
 40
0.4374999999999991
 40
0.4531249999999991
 40
0.4531249999999991
 40
0.4687499999999991
 40
0.4687499999999991
 40
0.499999999999999
 40
0.499999999999999
 40
0.5156249999999988
 40
0.5156249999999988
 40
0.5312499999999984
 40
0.5312499999999984
 40
0.5624999999999984
 40
0.5624999999999984
 40
0.5781249999999984
 40
0.5781249999999984
 40
0.5937499999999986
 40
0.5937499999999986
 40
0.6249999999999987
 40
0.6249999999999987
 40
0.6406249999999988
 40
0.6406249999999988
 40
0.6562499999999989
 40
0.6562499999999989
 40
0.687499999999999
 40
0.687499999999999
 40
0.7187499999999992
 40
0.7187499999999992
 40
0.7499999999999993
 40
0.7499999999999993
 40
0.7812499999999994
 40
0.7812499999999994
 40
0.8124999999999997
 40
0.8124999999999997
 40
0.8437499999999998
 40
0.8437499999999998
 40
0.8749999999999999
 40
0.8749999999999999
 40
0.9062500000000001
 40
0.9062500000000001
 40
0.9375000000000002
 40
0.9375000000000002
 40
1.0
 40
1.0
 40
1.0
 40
1.0
 10
200.391159837697
 20
52.30796037125195
 30
0.0
 10
200.2068545014357
 20
52.33909065136569
 30
0.0
 10
200.0231442905191
 20
52.36032291436273
 30
0.0
 10
199.6566456027332
 20
52.37986125588959
 30
0.0
 10
199.4722176268627
 20
52.37782415455781
 30
0.0
 10
199.1208746378561
 20
52.34667083583595
 30
0.0
 10
198.9521894343748
 20
52.31788961590759
 30
0.0
 10
198.7105541091788
 20
52.2518470713602
 30
0.0
 10
198.6316648797091
 20
52.22581777592247
 30
0.0
 10
198.4826395960999
 20
52.16725100147237
 30
0.0
 10
198.3411555569821
 20
52.10191964888904
 30
0.0
 10
198.2146111715751
 20
52.02309560785586
 30
0.0
 10
198.0957091173627
 20
51.9373861453868
 30
0.0
 10
198.0399906996799
 20
51.89089618380052
 30
0.0
 10
197.8889147930359
 20
51.74510775124464
 30
0.0
 10
197.8077038982028
 20
51.63843951406953
 30
0.0
 10
197.6824963857783
 20
51.40819487929009
 30
0.0
 10
197.6402516600458
 20
51.28751226945731
 30
0.0
 10
197.5934329861893
 20
51.0410671887914
 30
0.0
 10
197.5889677105878
 20
50.91382722456797
 30
0.0
 10
197.615403156033
 20
50.66442546248119
 30
0.0
 10
197.6458998447051
 20
50.54127275848659
 30
0.0
 10
197.7401258979542
 20
50.29976351016978
 30
0.0
 10
197.8031604484594
 20
50.18361880834775
 30
0.0
 10
197.9572806743005
 20
49.96455731070347
 30
0.0
 10
198.0491212165634
 20
49.86062696445204
 30
0.0
 10
198.2597277113695
 20
49.6683953087616
 30
0.0
 10
198.3765622110888
 20
49.58166028886868
 30
0.0
 10
198.6324044449515
 20
49.42667746787135
 30
0.0
 10
198.7725294781653
 20
49.35801514270129
 30
0.0
 10
199.0711101373029
 20
49.24197210043536
 30
0.0
 10
199.2276364583713
 20
49.1951081256808
 30
0.0
 10
199.4732257155436
 20
49.14060979547683
 30
0.0
 10
199.5569004465778
 20
49.12508896522152
 30
0.0
 10
199.7280160377923
 20
49.09933562220441
 30
0.0
 10
199.8159140791867
 20
49.08907737745533
 30
0.0
 10
200.0809720458261
 20
49.06672276802456
 30
0.0
 10
200.2599969645562
 20
49.0627615816416
 30
0.0
 10
200.5323270849825
 20
49.07218746220728
 30
0.0
 10
200.6237404275631
 20
49.07790781582917
 30
0.0
 10
200.8079590124164
 20
49.09455531149621
 30
0.0
 10
200.9012499791691
 20
49.10557383842466
 30
0.0
 10
201.1769432942387
 20
49.14570654844796
 30
0.0
 10
201.3567633715521
 20
49.18184968219039
 30
0.0
 10
201.6203585771393
 20
49.24954458649629
 30
0.0
 10
201.707193095642
 20
49.27437625874819
 30
0.0
 10
201.878654559795
 20
49.32874918383988
 30
0.0
 10
201.9626169655254
 20
49.35812039959816
 30
0.0
 10
202.2036592450619
 20
49.4506515976535
 30
0.0
 10
202.352240245434
 20
49.51884119112571
 30
0.0
 10
202.5559887156493
 20
49.63093447468827
 30
0.0
 10
202.6207042247478
 20
49.67003442945423
 30
0.0
 10
202.7397744814035
 20
49.74924916830774
 30
0.0
 10
202.7946744843386
 20
49.78964419039985
 30
0.0
 10
202.9458506031244
 20
49.91324421086054
 30
0.0
 10
203.029218849185
 20
49.99985841361486
 30
0.0
 10
203.1541393031103
 20
50.17314860850692
 30
0.0
 10
203.1968869537488
 20
50.26058421915098
 30
0.0
 10
203.2445695814833
 20
50.43749808556992
 30
0.0
 10
203.2490102753071
 20
50.52471379112414
 30
0.0
 10
203.222965750803
 20
50.69909546810248
 30
0.0
 10
203.1918961943009
 20
50.78677796681465
 30
0.0
 10
203.0983500268033
 20
50.95822581339815
 30
0.0
 10
203.0359398490822
 20
51.04269073367
 30
0.0
 10
202.8805500652842
 20
51.21096978796381
 30
0.0
 10
202.7879976222169
 20
51.29402802058537
 30
0.0
 10
202.5792184349189
 20
51.45501059247254
 30
0.0
 10
202.4623987852731
 20
51.53359066854455
 30
0.0
 10
202.2032885186252
 20
51.68731916315894
 30
0.0
 10
202.0632682565991
 20
51.761028790532
 30
0.0
 10
201.7670186686268
 20
51.89987175973209
 30
0.0
 10
201.6101779682542
 20
51.9653795928476
 30
0.0
 10
201.1119382200125
 20
52.14794389556405
 30
0.0
 10
200.7597705102197
 20
52.24569981102447
 30
0.0
 10
200.391159837697
 20
52.30796037125196
 30
0.0
  0
SPLINE
  5
242
330
1F
100
AcDbEntity
  8
0
  6
Continuous
 62
     7
370
    25
100
AcDbSpline
210
0.0
220
0.0
230
1.0
 70
    11
 71
     3
 72
    79
 73
    75
 74
     0
 42
0.000000001
 43
0.00000001
 40
0.0
 40
0.0
 40
0.0
 40
0.0
 40
0.0312499999999997
 40
0.0312499999999997
 40
0.0624999999999995
 40
0.0624999999999995
 40
0.0937499999999992
 40
0.0937499999999992
 40
0.1093749999999991
 40
0.1093749999999991
 40
0.124999999999999
 40
0.1406249999999989
 40
0.1406249999999989
 40
0.1562499999999988
 40
0.1562499999999988
 40
0.1874999999999985
 40
0.1874999999999985
 40
0.2187499999999982
 40
0.2187499999999982
 40
0.249999999999998
 40
0.249999999999998
 40
0.2812499999999977
 40
0.2812499999999977
 40
0.3124999999999975
 40
0.3124999999999975
 40
0.3437499999999972
 40
0.3437499999999972
 40
0.3749999999999969
 40
0.3749999999999969
 40
0.4062499999999967
 40
0.4062499999999967
 40
0.4374999999999964
 40
0.4374999999999964
 40
0.4531249999999963
 40
0.4531249999999963
 40
0.4687499999999962
 40
0.4687499999999962
 40
0.4999999999999959
 40
0.4999999999999959
 40
0.515624999999996
 40
0.515624999999996
 40
0.5312499999999961
 40
0.5312499999999961
 40
0.5624999999999966
 40
0.5624999999999966
 40
0.5781249999999967
 40
0.5781249999999967
 40
0.5937499999999968
 40
0.5937499999999968
 40
0.6249999999999971
 40
0.6249999999999971
 40
0.6406249999999972
 40
0.6406249999999972
 40
0.6562499999999972
 40
0.6562499999999972
 40
0.6874999999999976
 40
0.6874999999999976
 40
0.7187499999999979
 40
0.7187499999999979
 40
0.7499999999999981
 40
0.7499999999999981
 40
0.7812499999999984
 40
0.7812499999999984
 40
0.8124999999999988
 40
0.8124999999999988
 40
0.8437499999999991
 40
0.8437499999999991
 40
0.8749999999999993
 40
0.8749999999999993
 40
0.9062499999999997
 40
0.9062499999999997
 40
0.9375
 40
0.9375
 40
1.0
 40
1.0
 40
1.0
 40
1.0
 10
207.4622276495625
 20
48.22591981213839
 30
0.0
 10
207.2779223133012
 20
48.25705009225214
 30
0.0
 10
207.0942121023845
 20
48.27828235524917
 30
0.0
 10
206.7277134145987
 20
48.29782069677604
 30
0.0
 10
206.5432854387281
 20
48.29578359544426
 30
0.0
 10
206.1919424497215
 20
48.26463027672241
 30
0.0
 10
206.0232572462403
 20
48.23584905679404
 30
0.0
 10
205.7816219210442
 20
48.16980651224664
 30
0.0
 10
205.7027326915746
 20
48.14377721680891
 30
0.0
 10
205.5537074079654
 20
48.08521044235881
 30
0.0
 10
205.4122233688476
 20
48.01987908977549
 30
0.0
 10
205.2856789834406
 20
47.94105504874231
 30
0.0
 10
205.1667769292282
 20
47.85534558627324
 30
0.0
 10
205.1110585115454
 20
47.80885562468697
 30
0.0
 10
204.9599826049013
 20
47.66306719213109
 30
0.0
 10
204.8787717100683
 20
47.55639895495597
 30
0.0
 10
204.7535641976437
 20
47.32615432017653
 30
0.0
 10
204.7113194719113
 20
47.20547171034376
 30
0.0
 10
204.6645007980548
 20
46.95902662967784
 30
0.0
 10
204.6600355224533
 20
46.83178666545443
 30
0.0
 10
204.6864709678985
 20
46.58238490336763
 30
0.0
 10
204.7169676565706
 20
46.45923219937304
 30
0.0
 10
204.8111937098197
 20
46.21772295105623
 30
0.0
 10
204.8742282603248
 20
46.10157824923419
 30
0.0
 10
205.028348486166
 20
45.88251675158991
 30
0.0
 10
205.1201890284289
 20
45.77858640533848
 30
0.0
 10
205.330795523235
 20
45.58635474964804
 30
0.0
 10
205.4476300229542
 20
45.49961972975513
 30
0.0
 10
205.703472256817
 20
45.34463690875779
 30
0.0
 10
205.8435972900307
 20
45.27597458358774
 30
0.0
 10
206.1421779491684
 20
45.15993154132182
 30
0.0
 10
206.2987042702367
 20
45.11306756656725
 30
0.0
 10
206.5442935274091
 20
45.05856923636328
 30
0.0
 10
206.6279682584433
 20
45.04304840610797
 30
0.0
 10
206.7990838496578
 20
45.01729506309086
 30
0.0
 10
206.8869818910522
 20
45.00703681834177
 30
0.0
 10
207.1520398576916
 20
44.98468220891102
 30
0.0
 10
207.3310647764217
 20
44.98072102252804
 30
0.0
 10
207.603394896848
 20
44.99014690309372
 30
0.0
 10
207.6948082394286
 20
44.99586725671562
 30
0.0
 10
207.8790268242819
 20
45.01251475238266
 30
0.0
 10
207.9723177910346
 20
45.02353327931112
 30
0.0
 10
208.2480111061042
 20
45.06366598933442
 30
0.0
 10
208.4278311834176
 20
45.09980912307683
 30
0.0
 10
208.6914263890047
 20
45.16750402738275
 30
0.0
 10
208.7782609075074
 20
45.19233569963464
 30
0.0
 10
208.9497223716605
 20
45.24670862472632
 30
0.0
 10
209.0336847773908
 20
45.27607984048461
 30
0.0
 10
209.2747270569274
 20
45.36861103853995
 30
0.0
 10
209.4233080572994
 20
45.43680063201215
 30
0.0
 10
209.6270565275148
 20
45.54889391557472
 30
0.0
 10
209.6917720366133
 20
45.58799387034068
 30
0.0
 10
209.8108422932689
 20
45.6672086091942
 30
0.0
 10
209.865742296204
 20
45.7076036312863
 30
0.0
 10
210.0169184149899
 20
45.83120365174699
 30
0.0
 10
210.1002866610505
 20
45.9178178545013
 30
0.0
 10
210.2252071149758
 20
46.09110804939336
 30
0.0
 10
210.2679547656143
 20
46.17854366003743
 30
0.0
 10
210.3156373933488
 20
46.35545752645638
 30
0.0
 10
210.3200780871725
 20
46.44267323201058
 30
0.0
 10
210.2940335626685
 20
46.61705490898894
 30
0.0
 10
210.2629640061664
 20
46.7047374077011
 30
0.0
 10
210.1694178386688
 20
46.87618525428459
 30
0.0
 10
210.1070076609476
 20
46.96065017455645
 30
0.0
 10
209.9516178771496
 20
47.12892922885027
 30
0.0
 10
209.8590654340824
 20
47.21198746147181
 30
0.0
 10
209.6502862467844
 20
47.37297003335898
 30
0.0
 10
209.5334665971386
 20
47.451550109431
 30
0.0
 10
209.2743563304907
 20
47.60527860404539
 30
0.0
 10
209.1343360684646
 20
47.67898823141844
 30
0.0
 10
208.8380864804922
 20
47.81783120061854
 30
0.0
 10
208.6812457801197
 20
47.88333903373405
 30
0.0
 10
208.1830060318779
 20
48.0659033364505
 30
0.0
 10
207.8308383220851
 20
48.1636592519109
 30
0.0
 10
207.4622276495625
 20
48.2259198121384
 30
0.0
  0
LINE
  5
243
330
1F
100
AcDbEntity
  8
0
  6
Continuous
 62
     7
370
    25
100
AcDbLine
 10
209.8692698532
 20
31.4533022423
 30
0.0
 11
209.8183812967
 21
31.4839005656
 31
0.0
  0
ARC
  5
244
330
1F
100
AcDbEntity
  8
0
  6
Continuous
 62
     7
370
    25
100
AcDbCircle
 10
200.6693169387
 20
54.5472101364
 30
0.0
 40
5.347909782782498
100
AcDbArc
 50
44.4312704817
 51
75.124231068
  0
ARC
  5
245
330
1F
100
AcDbEntity
  8
0
  6
Continuous
 62
     7
370
    25
100
AcDbCircle
 10
190.2669669158
 20
36.5279949193
 30
0.0
 40
5.343525970539854
100
AcDbArc
 50
224.5480081031
 51
255.6052930708
  0
ELLIPSE
  5
246
330
1F
100
AcDbEntity
  8
0
  6
Continuous
 62
     7
370
    25
100
AcDbEllipse
 10
187.2147490901
 20
50.3048250076
 30
0.0
 11
-0.7461041289971889
 21
17.93477386060239
 31
0.0
210
0.0
220
0.0
230
1.0
 40
0.4444802122
 41
2.401404845694033
 42
2.866866793327969
  0
SPLINE
  5
247
330
1F
100
AcDbEntity
  8
0
  6
Continuous
 62
     7
370
    25
100
AcDbSpline
210
0.0
220
0.0
230
1.0
 70
     8
 71
     3
 72
    12
 73
     8
 74
     0
 42
0.000000001
 43
0.00000001
 40
0.0
 40
0.0
 40
0.0
 40
0.0
 40
0.2499999999999982
 40
0.2499999999999982
 40
0.4999999999999963
 40
0.4999999999999963
 40
1.0
 40
1.0
 40
1.0
 40
1.0
 10
182.176933387352
 20
37.10614404280185
 30
0.0
 10
182.1992355488401
 20
37.09326927902184
 30
0.0
 10
182.2229429117795
 20
37.07245503995431
 30
0.0
 10
182.2660049056487
 20
37.02683798788762
 30
0.0
 10
182.2850081889032
 20
37.00288056813592
 30
0.0
 10
182.3372818593883
 20
36.93098069759949
 30
0.0
 10
182.3651005141304
 20
36.88412265849058
 30
0.0
 10
182.3893349003314
 20
36.83917074284594
 30
0.0
  0
LINE
  5
248
330
1F
100
AcDbEntity
  8
0
  6
Continuous
 62
     7
370
    25
100
AcDbLine
 10
181.1359002467
 20
37.7071196828
 30
0.0
 11
182.1769333874
 21
37.1061440428
 31
0.0
  0
SPLINE
  5
249
330
1F
100
AcDbEntity
  8
0
  6
Continuous
 62
     7
370
    25
100
AcDbSpline
210
0.0
220
0.0
230
1.0
 70
     8
 71
     3
 72
    12
 73
     8
 74
     0
 42
0.000000001
 43
0.00000001
 40
0.0
 40
0.0
 40
0.0
 40
0.0
 40
0.4999999999999971
 40
0.4999999999999971
 40
0.7499999999999986
 40
0.7499999999999986
 40
1.0
 40
1.0
 40
1.0
 40
1.0
 10
181.0421155418007
 20
37.61690392400951
 30
0.0
 10
181.0397892520489
 20
37.648973243679
 30
0.0
 10
181.0419902571356
 20
37.6787932293217
 30
0.0
 10
181.0602556175766
 20
37.70980420106469
 30
0.0
 10
181.0690218605238
 20
37.71794606101589
 30
0.0
 10
181.0954858660604
 20
37.72330683229481
 30
0.0
 10
181.1137407526425
 20
37.71991208639955
 30
0.0
 10
181.1359002466692
 20
37.70711968279189
 30
0.0
  0
ELLIPSE
  5
24A
330
1F
100
AcDbEntity
  8
0
  6
Continuous
 62
     7
370
    25
100
AcDbEllipse
 10
197.3597191081
 20
44.4482584767
 30
0.0
 11
15.90471575942232
 21
8.322204981098963
 31
0.0
210
0.0
220
0.0
230
1.0
 40
0.4445305117
 41
2.950908281021531
 42
3.578705763440481
  0
SPLINE
  5
24B
330
1F
100
AcDbEntity
  8
0
  6
Continuous
 62
     7
370
    25
100
AcDbSpline
210
0.0
220
0.0
230
1.0
 70
     8
 71
     3
 72
    12
 73
     8
 74
     0
 42
0.000000001
 43
0.00000001
 40
0.0
 40
0.0
 40
0.0
 40
0.0
 40
0.2500000000000014
 40
0.2500000000000014
 40
0.5000000000000028
 40
0.5000000000000028
 40
1.0
 40
1.0
 40
1.0
 40
1.0
 10
195.085900246669
 20
61.86922837746474
 30
0.0
 10
195.063598085181
 20
61.88210314124476
 30
0.0
 10
195.0516535303183
 20
61.89612464826814
 30
0.0
 10
195.0430594642088
 20
61.92183732071211
 30
0.0
 10
195.0457053618188
 20
61.93329287155387
 30
0.0
 10
195.0634699616653
 20
61.96474736543407
 30
0.0
 10
195.0879614273635
 20
61.98139759795203
 30
0.0
 10
195.1171155418006
 20
61.99551896899306
 30
0.0
  0
LINE
  5
24C
330
1F
100
AcDbEntity
  8
0
  6
Continuous
 62
     7
370
    25
100
AcDbLine
 10
196.1269333874
 20
61.2682527375
 30
0.0
 11
195.0859002467
 21
61.8692283775
 31
0.0
  0
SPLINE
  5
24D
330
1F
100
AcDbEntity
  8
0
  6
Continuous
 62
     7
370
    25
100
AcDbSpline
210
0.0
220
0.0
230
1.0
 70
     8
 71
     3
 72
    12
 73
     8
 74
     0
 42
0.000000001
 43
0.00000001
 40
0.0
 40
0.0
 40
0.0
 40
0.0
 40
0.4999999999999963
 40
0.4999999999999963
 40
0.7499999999999981
 40
0.7499999999999981
 40
1.0
 40
1.0
 40
1.0
 40
1.0
 10
196.4643349003313
 20
61.21778578782948
 30
0.0
 10
196.4136784630221
 20
61.21631268851364
 30
0.0
 10
196.3586672969527
 20
61.21698927056333
 30
0.0
 10
196.2706438482246
 20
61.2262618772444
 30
0.0
 10
196.2398688193183
 20
61.23082954929113
 30
0.0
 10
196.1791362133138
 20
61.24525805103174
 30
0.0
 10
196.1490928813786
 20
61.25546033386704
 30
0.0
 10
196.1269333873519
 20
61.2682527374747
 30
0.0
  0
ELLIPSE
  5
24E
330
1F
100
AcDbEntity
  8
0
  6
Continuous
 62
     7
370
    25
100
AcDbEllipse
 10
187.2147490901
 20
50.3048250076
 30
0.0
 11
15.90471575942235
 21
8.32220498109897
 31
0.0
210
0.0
220
0.0
230
1.0
 40
0.4445305117
 41
0.2747775750656731
 42
0.7400769945754327
  0
ELLIPSE
  5
24F
330
1F
100
AcDbEntity
  8
0
  6
Continuous
 62
     7
370
    25
100
AcDbEllipse
 10
197.3597191081
 20
44.4482584767
 30
0.0
 11
-0.7461041289972173
 21
17.9347738606024
 31
0.0
210
0.0
220
0.0
230
1.0
 40
0.4444802122
 41
5.846123912132792
 42
6.473758866427505
  0
SPLINE
  5
250
330
1F
100
AcDbEntity
  8
0
  6
Continuous
 62
     7
370
    25
100
AcDbSpline
210
0.0
220
0.0
230
1.0
 70
     8
 71
     3
 72
    12
 73
     8
 74
     0
 42
0.000000001
 43
0.00000001
 40
0.0
 40
0.0
 40
0.0
 40
0.0
 40
0.2500000000000001
 40
0.2500000000000001
 40
0.5000000000000001
 40
0.5000000000000001
 40
1.0
 40
1.0
 40
1.0
 40
1.0
 10
181.1359002466691
 20
45.37285906867255
 30
0.0
 10
181.1136062464645
 20
45.3857291210439
 30
0.0
 10
181.0954937703757
 20
45.40975834409905
 30
0.0
 10
181.0689288990835
 20
45.46487020998549
 30
0.0
 10
181.0603279661863
 20
45.49482126598185
 30
0.0
 10
181.0419586202641
 20
45.58626330417981
 30
0.0
 10
181.0397563358955
 20
45.64762463727127
 30
0.0
 10
181.0421155418006
 20
45.7083083943977
 30
0.0
  0
LINE
  5
251
330
1F
100
AcDbEntity
  8
0
  6
Continuous
 62
     7
370
    25
100
AcDbLine
 10
182.1769333874
 20
44.7718834287
 30
0.0
 11
181.1359002467
 21
45.3728590687
 31
0.0
  0
SPLINE
  5
252
330
1F
100
AcDbEntity
  8
0
  6
Continuous
 62
     7
370
    25
100
AcDbSpline
210
0.0
220
0.0
230
1.0
 70
     8
 71
     3
 72
    12
 73
     8
 74
     0
 42
0.000000001
 43
0.00000001
 40
0.0
 40
0.0
 40
0.0
 40
0.0
 40
0.5000000000000019
 40
0.5000000000000019
 40
0.7500000000000009
 40
0.7500000000000009
 40
1.0
 40
1.0
 40
1.0
 40
1.0
 10
182.3893349003314
 20
44.93057521323413
 30
0.0
 10
182.3649536036457
 20
44.88262794234097
 30
0.0
 10
182.3372558334848
 20
44.83853346163688
 30
0.0
 10
182.2849633075284
 20
44.78783889390508
 30
0.0
 10
182.265662375882
 20
44.7737290494736
 30
0.0
 10
182.2232928217616
 20
44.75902594997181
 30
0.0
 10
182.1991945609784
 20
44.75903232669135
 30
0.0
 10
182.176933387352
 20
44.77188342868246
 30
0.0
  0
ELLIPSE
  5
253
330
1F
100
AcDbEntity
  8
0
  6
Continuous
 62
     7
370
    25
100
AcDbEllipse
 10
187.2147490901
 20
50.3048250076
 30
0.0
 11
7.874888476696754
 21
13.63996451050156
 31
0.0
210
0.0
220
0.0
230
1.0
 40
0.1059897947
 41
1.105338485463662
 42
2.036099852607344
  0
SPLINE
  5
254
330
1F
100
AcDbEntity
  8
0
  6
Continuous
 62
     7
370
    25
100
AcDbSpline
210
0.0
220
0.0
230
1.0
 70
     8
 71
     3
 72
    12
 73
     8
 74
     0
 42
0.000000001
 43
0.00000001
 40
0.0
 40
0.0
 40
0.0
 40
0.0
 40
0.2500000000000009
 40
0.2500000000000009
 40
0.5000000000000018
 40
0.5000000000000018
 40
1.0
 40
1.0
 40
1.0
 40
1.0
 10
189.4885679515243
 20
57.43600594303804
 30
0.0
 10
189.510861951729
 20
57.42313589066669
 30
0.0
 10
189.5228063274809
 20
57.40266859368707
 30
0.0
 10
189.5314076339035
 20
57.35793024421962
 30
0.0
 10
189.528768613635
 20
57.33446998442979
 30
0.0
 10
189.5110256701763
 20
57.26388190420393
 30
0.0
 10
189.4866945729019
 20
57.21784294571468
 30
0.0
 10
189.4573526563929
 20
57.17274103960218
 30
0.0
  0
LINE
  5
255
330
1F
100
AcDbEntity
  8
0
  6
Continuous
 62
     7
370
    25
100
AcDbLine
 10
188.4475348108
 20
58.036981583
 30
0.0
 11
189.4885679515
 21
57.436005943
 31
0.0
  0
SPLINE
  5
256
330
1F
100
AcDbEntity
  8
0
  6
Continuous
 62
     7
370
    25
100
AcDbSpline
210
0.0
220
0.0
230
1.0
 70
     8
 71
     3
 72
    12
 73
     8
 74
     0
 42
0.000000001
 43
0.00000001
 40
0.0
 40
0.0
 40
0.0
 40
0.0
 40
0.5000000000000019
 40
0.5000000000000019
 40
0.7500000000000009
 40
0.7500000000000009
 40
1.0
 40
1.0
 40
1.0
 40
1.0
 10
188.1101332978621
 20
57.95047422076577
 30
0.0
 10
188.1614871271889
 20
57.98284551816792
 30
0.0
 10
188.2157153560908
 20
58.01161931217366
 30
0.0
 10
188.3041401696798
 20
58.04144837343549
 30
0.0
 10
188.3348013790716
 20
58.0489979371782
 30
0.0
 10
188.3948572430034
 20
58.05348762823063
 30
0.0
 10
188.4252736372152
 20
58.04983268501923
 30
0.0
 10
188.4475348108415
 20
58.03698158302812
 30
0.0
  0
ELLIPSE
  5
257
330
1F
100
AcDbEntity
  8
0
  6
Continuous
 62
     7
370
    25
100
AcDbEllipse
 10
197.3597191081
 20
44.4482584767
 30
0.0
 11
14.30238360604707
 21
-8.263902107297815
 31
0.0
210
0.0
220
0.0
230
1.0
 40
0.9534948969
 41
2.676532761479947
 42
3.607294128623639
  0
ARC
  5
258
330
1F
100
AcDbEntity
  8
0
  6
Continuous
 62
     7
370
    25
100
AcDbCircle
 10
193.2754894766
 20
58.3747284147
 30
0.0
 40
5.731180948723203
100
AcDbArc
 50
60.5221418252
 51
92.9817209436
  0
ARC
  5
259
330
1F
100
AcDbEntity
  8
0
  6
Continuous
 62
     7
370
    25
100
AcDbCircle
 10
183.325911312
 20
41.0878019258
 30
0.0
 40
5.823867780855741
100
AcDbArc
 50
206.7070020623
 51
239.2362860762
  0
ARC
  5
25A
330
1F
100
AcDbEntity
  8
0
  6
Continuous
 62
     7
370
    25
100
AcDbCircle
 10
190.8178175403
 20
49.7563291817
 30
0.0
 40
23.1831259717194
100
AcDbArc
 50
140.2279276209
 51
177.3607126388
  0
LWPOLYLINE
  5
25B
330
1F
100
AcDbEntity
  8
0
  6
Continuous
 62
     7
370
    25
100
AcDbPolyline
 90
        9
 70
   128
 43
0.0
 10
177.2804166842
 20
67.0587836465
 10
176.7781792894
 20
67.0548553586
 10
176.2479103904
 20
66.9565973466
 10
175.6986830349
 20
66.7656908323
 10
175.1398946553
 20
66.4854022792
 10
174.5811062757
 20
66.120527502
 10
174.0318789203
 20
65.6773096093
 10
173.5016100212
 20
65.1633321823
 10
172.9993726265
 20
64.5873895171
  0
ARC
  5
25C
330
1F
100
AcDbEntity
  8
0
  6
Continuous
 62
     7
370
    25
100
AcDbCircle
 10
170.7302145914
 20
50.5365376976
 30
0.0
 40
3.084343446773474
100
AcDbArc
 50
174.6547638622
 51
232.6759834224
  0
ARC
  5
25D
330
1F
100
AcDbEntity
  8
0
  6
Continuous
 62
     7
370
    25
100
AcDbCircle
 10
176.8451942767
 20
61.7191062948
 30
0.0
 40
5.357384881182808
100
AcDbArc
 50
62.0480659028
 51
85.3402793033
  0
ARC
  5
25E
330
1F
100
AcDbEntity
  8
0
  6
Continuous
 62
     7
370
    25
100
AcDbCircle
 10
189.9297499232
 20
50.2698445673
 30
0.0
 40
22.51849720425174
100
AcDbArc
 50
140.2279276209
 51
177.3607126388
  0
ARC
  5
25F
330
1F
100
AcDbEntity
  8
0
  6
Continuous
 62
     7
370
    25
100
AcDbCircle
 10
177.4014949941
 20
61.2175453913
 30
0.0
 40
5.899257340447997
100
AcDbArc
 50
103.4689958683
 51
144.1118487458
  0
ARC
  5
260
330
1F
100
AcDbEntity
  8
0
  6
Continuous
 62
     7
370
    25
100
AcDbCircle
 10
171.3461773258
 20
51.2286758179
 30
0.0
 40
3.911817367876787
100
AcDbArc
 50
178.8560094402
 51
201.1091694604
  0
LWPOLYLINE
  5
261
330
1F
100
AcDbEntity
  8
0
  6
Continuous
 62
     7
370
    25
100
AcDbPolyline
 90
       27
 70
   128
 43
0.0
 10
208.4153730708
 20
45.7419971942
 10
208.8128051929
 20
45.8995800003
 10
209.1333624229
 20
46.1074905709
 10
209.3584151395
 20
46.3536458993
 10
209.474884097
 20
46.6237403324
 10
209.476000543
 20
46.9020769637
 10
209.3616995935
 20
47.1724798797
 10
209.1386240044
 20
47.419234246
 10
208.8197381181
 20
47.6279995957
 10
208.4235744231
 20
47.7866432454
 10
207.9731565133
 20
47.8859454029
 10
207.4946610406
 20
47.9201349877
 10
207.0158964225
 20
47.8872250255
 10
206.5646867185
 20
47.7891281236
 10
206.1672545963
 20
47.6315453174
 10
205.8466973664
 20
47.4236347468
 10
205.6216446497
 20
47.1774794185
 10
205.5051756922
 20
46.9073849853
 10
205.5040592462
 20
46.6290483541
 10
205.6183601957
 20
46.358645438
 10
205.8414357848
 20
46.1118910717
 10
206.1603216711
 20
45.9031257221
 10
206.5564853662
 20
45.7444820724
 10
207.0069032759
 20
45.6451799149
 10
207.4853987486
 20
45.6109903301
 10
207.9641633667
 20
45.6439002923
 10
208.4153730708
 20
45.7419971942
  0
LWPOLYLINE
  5
262
330
1F
100
AcDbEntity
  8
0
  6
Continuous
 62
     7
370
    25
100
AcDbPolyline
 90
        9
 70
   128
 43
0.0
 10
209.4323252413
 20
45.4486390494
 10
209.4481690523
 20
45.4600432022
 10
209.7285256237
 20
45.7146756334
 10
209.9110491903
 20
45.9973934945
 10
209.9877625963
 20
46.2958406583
 10
209.9553130978
 20
46.5969735517
 10
209.8151188936
 20
46.8876312222
 10
209.5733071431
 20
47.1551105349
 10
209.2580840894
 20
47.3776365446
  0
ARC
  5
263
330
1F
100
AcDbEntity
  8
0
  6
Continuous
 62
     7
370
    25
100
AcDbCircle
 10
206.216020772
 20
46.2505289641
 30
0.0
 40
1.230630745284691
100
AcDbArc
 50
113.6692812696
 51
175.0230519793
  0
LWPOLYLINE
  5
264
330
1F
100
AcDbEntity
  8
0
  6
Continuous
 62
     7
370
    25
100
AcDbPolyline
 90
       26
 70
   128
 43
0.0
 10
208.2997051737
 20
45.8699428772
 10
208.660091958
 20
46.0143219498
 10
208.9469594397
 20
46.205904239
 10
209.1422826799
 20
46.432651925
 10
209.2337888009
 20
46.6803176167
 10
209.2157281368
 20
46.933339568
 10
209.0892355055
 20
47.175819479
 10
208.8622589042
 20
47.3925214452
 10
208.5490601075
 20
47.5698292851
 10
208.1693185476
 20
47.6966020949
 10
207.7468947835
 20
47.7648742729
 10
207.3083312537
 20
47.7703560269
 10
206.8811845178
 20
47.7127029183
 10
206.492293776
 20
47.5955375038
 10
206.166094464
 20
47.4262217174
 10
205.9230828842
 20
47.2153942926
 10
205.7785283479
 20
46.9763022919
 10
205.7415137483
 20
46.723968745
 10
205.8143648487
 20
46.4742486966
 10
205.9925041466
 20
46.242832976
 10
206.2647384947
 20
46.0442622837
 10
206.6139624079
 20
45.8910135468
 10
207.0182328631
 20
45.792715947
 10
207.452148061
 20
45.7555458839
 10
207.8884435139
 20
45.7818388894
 10
208.2997051737
 20
45.8699428772
  0
SPLINE
  5
265
330
1F
100
AcDbEntity
  8
0
  6
Continuous
 62
     7
370
    25
100
AcDbSpline
210
0.0
220
0.0
230
1.0
 70
     8
 71
     3
 72
    11
 73
     7
 74
     0
 42
0.000000001
 43
0.00000001
 40
0.0
 40
0.0
 40
0.0
 40
0.0
 40
0.2164543009645056
 40
0.440308993722534
 40
0.7518987489759474
 40
1.0
 40
1.0
 40
1.0
 40
1.0
 10
206.0479632469188
 20
46.55067047665313
 30
0.0
 10
206.1010003828052
 20
46.56187309648848
 30
0.0
 10
206.2088879499637
 20
46.58466134437627
 30
0.0
 10
206.4090989209713
 20
46.70382185770121
 30
0.0
 10
206.6238621432213
 20
46.93666951320719
 30
0.0
 10
206.7612980444055
 20
47.15645781218776
 30
0.0
 10
206.8222209798056
 20
47.25388612767957
 30
0.0
  0
SPLINE
  5
266
330
1F
100
AcDbEntity
  8
0
  6
Continuous
 62
     7
370
    25
100
AcDbSpline
210
0.0
220
0.0
230
1.0
 70
     8
 71
     3
 72
    10
 73
     6
 74
     0
 42
0.000000001
 43
0.00000001
 40
0.0
 40
0.0
 40
0.0
 40
0.0
 40
0.2976351431875646
 40
0.852796243043415
 40
1.0
 40
1.0
 40
1.0
 40
1.0
 10
206.4946750988976
 20
45.93785072921785
 30
0.0
 10
206.4495119074777
 20
45.9698129301656
 30
0.0
 10
206.3201085058691
 20
46.06139232027297
 30
0.0
 10
206.1657094961804
 20
46.32170796329999
 30
0.0
 10
206.0683650013833
 20
46.5109984105933
 30
0.0
 10
206.0479632469188
 20
46.55067047665313
 30
0.0
  0
SPLINE
  5
267
330
1F
100
AcDbEntity
  8
0
  6
Continuous
 62
     7
370
    25
100
AcDbSpline
210
0.0
220
0.0
230
1.0
 70
     8
 71
     3
 72
    10
 73
     6
 74
     0
 42
0.000000001
 43
0.00000001
 40
0.0
 40
0.0
 40
0.0
 40
0.0
 40
0.4470358276071756
 40
0.9093554368499924
 40
0.9999999999999999
 40
0.9999999999999999
 40
0.9999999999999999
 40
0.9999999999999999
 10
208.9320965422962
 20
46.47971228723068
 30
0.0
 10
208.8791263392571
 20
46.39628660704684
 30
0.0
 10
208.7713749261712
 20
46.22658299234072
 30
0.0
 10
208.6416814099157
 20
46.04956549499877
 30
0.0
 10
208.5701275093076
 20
45.99928276863565
 30
0.0
 10
208.5583980476424
 20
45.9910401807923
 30
0.0
  0
SPLINE
  5
268
330
1F
100
AcDbEntity
  8
0
  6
Continuous
 62
     7
370
    25
100
AcDbSpline
210
0.0
220
0.0
230
1.0
 70
     8
 71
     3
 72
    11
 73
     7
 74
     0
 42
0.000000001
 43
0.00000001
 40
0.0
 40
0.0
 40
0.0
 40
0.0
 40
0.0978773319924409
 40
0.4670098079788087
 40
0.8132936976083417
 40
1.0
 40
1.0
 40
1.0
 40
1.0
 10
208.2642876274943
 20
47.21840703296834
 30
0.0
 10
208.2847072320639
 20
47.17853581112537
 30
0.0
 10
208.382136896471
 20
46.98829511618893
 30
0.0
 10
208.5690172026715
 20
46.69191964426094
 30
0.0
 10
208.7808857516408
 20
46.52310944558749
 30
0.0
 10
208.8928688847709
 20
46.49097053710963
 30
0.0
 10
208.9320965422962
 20
46.47971228723068
 30
0.0
  0
SPLINE
  5
269
330
1F
100
AcDbEntity
  8
0
  6
Continuous
 62
     7
370
    25
100
AcDbSpline
210
0.0
220
0.0
230
1.0
 70
     8
 71
     3
 72
    11
 73
     7
 74
     0
 42
0.000000001
 43
0.00000001
 40
0.0
 40
0.0
 40
0.0
 40
0.0
 40
0.2164543009645047
 40
0.4403089937225365
 40
0.7518987489759456
 40
1.0
 40
1.0
 40
1.0
 40
1.0
 10
206.8222209798056
 20
47.25388612767957
 30
0.0
 10
206.921003441384
 20
47.21448769834985
 30
0.0
 10
207.121945654411
 20
47.13434384029244
 30
0.0
 10
207.4948415927118
 20
47.06248941629032
 30
0.0
 10
207.8948413173541
 20
47.09043829311403
 30
0.0
 10
208.1508177459703
 20
47.1791033578429
 30
0.0
 10
208.2642876274943
 20
47.21840703296834
 30
0.0
  0
LINE
  5
26A
330
1F
100
AcDbEntity
  8
0
  6
Continuous
 62
     7
370
    25
100
AcDbLine
 10
206.8222209798
 20
45.8317596335
 30
0.0
 11
206.8222209798
 21
47.2538861277
 31
0.0
  0
LINE
  5
26B
330
1F
100
AcDbEntity
  8
0
  6
Continuous
 62
     7
370
    25
100
AcDbLine
 10
208.2642876275
 20
45.8595657413
 30
0.0
 11
208.2642876275
 21
47.218407033
 31
0.0
  0
LWPOLYLINE
  5
26C
330
1F
100
AcDbEntity
  8
0
  6
Continuous
 62
     7
370
    25
100
AcDbPolyline
 90
       27
 70
   128
 43
0.0
 10
198.8558736896
 20
50.1273214818
 10
199.1998882929
 20
49.9323046582
 10
199.6147510337
 20
49.7904816599
 10
200.0763515975
 20
49.710094724
 10
200.5578634373
 20
49.6958156472
 10
201.0313028353
 20
49.7484742774
 10
201.4691552146
 20
49.8650102864
 10
201.8459741863
 20
50.0386510251
 10
202.1398604015
 20
50.2593051248
 10
202.3337342616
 20
50.5141489713
 10
202.4163285227
 20
50.7883719665
 10
202.3828431063
 20
51.0660372668
 10
202.2352240633
 20
51.3310079741
 10
201.9820504759
 20
51.5678849542
 10
201.6380358726
 20
51.7629017778
 10
201.2231731318
 20
51.9047247761
 10
200.761572568
 20
51.9851117119
 10
200.2800607281
 20
51.9993907888
 10
199.8066213301
 20
51.9467321586
 10
199.3687689509
 20
51.8301961495
 10
198.9919499792
 20
51.6565554109
 10
198.698063764
 20
51.4359013112
 10
198.5041899038
 20
51.1810574647
 10
198.4215956428
 20
50.9068344695
 10
198.4550810591
 20
50.6291691692
 10
198.6027001022
 20
50.3641984618
 10
198.8558736896
 20
50.1273214818
  0
LWPOLYLINE
  5
26D
330
1F
100
AcDbEntity
  8
0
  6
Continuous
 62
     7
370
    25
100
AcDbPolyline
 90
        3
 70
   128
 43
0.0
 10
198.4651015914
 20
49.5389806418
 10
198.8320623377
 20
49.3241436566
 10
198.9814960892
 20
49.2585442417
  0
ARC
  5
26E
330
1F
100
AcDbEntity
  8
0
  6
Continuous
 62
     7
370
    25
100
AcDbCircle
 10
201.7973871384
 20
50.4420210726
 30
0.0
 40
1.089694757095685
100
AcDbArc
 50
292.5710869495
 51
69.0496965822
  0
LWPOLYLINE
  5
26F
330
1F
100
AcDbEntity
  8
0
  6
Continuous
 62
     7
370
    25
100
AcDbPolyline
 90
        8
 70
   128
 43
0.0
 10
198.650907888
 20
51.4596771037
 10
198.3318947599
 20
51.2338430473
 10
198.0913572333
 20
50.9659811202
 10
197.9525472078
 20
50.6751021349
 10
197.9215313474
 20
50.3739188988
 10
197.9996651942
 20
50.0755945646
 10
198.1835339241
 20
49.7931673373
 10
198.4651015914
 20
49.5389806418
  0
LWPOLYLINE
  5
270
330
1F
100
AcDbEntity
  8
0
  6
Continuous
 62
     7
370
    25
100
AcDbPolyline
 90
       26
 70
   128
 43
0.0
 10
199.0512597388
 20
50.2173566988
 10
199.365732645
 20
50.0408020227
 10
199.7463838304
 20
49.9149416329
 10
200.1692955809
 20
49.8476838005
 10
200.6078947959
 20
49.8432545826
 10
201.0346226737
 20
49.9019322832
 10
201.4226663323
 20
50.0200299665
 10
201.7476435616
 20
50.1901271209
 10
201.989134847
 20
50.4015359164
 10
202.1319664029
 20
50.6409727611
 10
202.1671635974
 20
50.8933929572
 10
202.0925148614
 20
51.1429360157
 10
201.9127106493
 20
51.3739222283
 10
201.6390487212
 20
51.5718378819
 10
201.2887242624
 20
51.7242472079
 10
200.8837494471
 20
51.821573768
 10
200.4495703323
 20
51.8577021764
 10
200.0134679887
 20
51.8303623524
 10
199.6028443302
 20
51.7412721576
 10
199.2435003517
 20
51.5960294567
 10
198.9580149567
 20
51.4037603827
 10
198.7643262427
 20
51.1765459086
 10
198.6746043838
 20
50.9286627555
 10
198.6944869345
 20
50.6756863335
 10
198.8227246008
 20
50.4335120817
 10
199.0512597388
 20
50.2173566988
  0
SPLINE
  5
271
330
1F
100
AcDbEntity
  8
0
  6
Continuous
 62
     7
370
    25
100
AcDbSpline
210
0.0
220
0.0
230
1.0
 70
     8
 71
     3
 72
    11
 73
     7
 74
     0
 42
0.000000001
 43
0.00000001
 40
0.0
 40
0.0
 40
0.0
 40
0.0
 40
0.1867063023916576
 40
0.5329901920211905
 40
0.9021226680075584
 40
0.9999999999999999
 40
0.9999999999999999
 40
0.9999999999999999
 40
0.9999999999999999
 10
201.8461171963441
 20
50.72179989507193
 30
0.0
 10
201.793224021257
 20
50.72791958522544
 30
0.0
 10
201.6422299563265
 20
50.7453894552204
 30
0.0
 10
201.3565539572218
 20
50.88644629665809
 30
0.0
 10
201.1045712139288
 20
51.15834170335908
 30
0.0
 10
200.9732005274474
 20
51.33581976649007
 30
0.0
 10
200.9456674605286
 20
51.37301615725031
 30
0.0
  0
SPLINE
  5
272
330
1F
100
AcDbEntity
  8
0
  6
Continuous
 62
     7
370
    25
100
AcDbSpline
210
0.0
220
0.0
230
1.0
 70
     8
 71
     3
 72
    11
 73
     7
 74
     0
 42
0.000000001
 43
0.00000001
 40
0.0
 40
0.0
 40
0.0
 40
0.0
 40
0.2164543009645044
 40
0.4403089937225405
 40
0.7518987489759432
 40
1.0
 40
1.0
 40
1.0
 40
1.0
 10
200.9456674605286
 20
51.37301615725031
 30
0.0
 10
200.8479064483023
 20
51.32751508569147
 30
0.0
 10
200.6490420564799
 20
51.2349572989342
 30
0.0
 10
200.2800020082683
 20
51.14006588573606
 30
0.0
 10
199.8841384374841
 20
51.14330333937558
 30
0.0
 10
199.6308089054222
 20
51.21615453858652
 30
0.0
 10
199.5185123469265
 20
51.24844820323383
 30
0.0
  0
SPLINE
  5
273
330
1F
100
AcDbEntity
  8
0
  6
Continuous
 62
     7
370
    25
100
AcDbSpline
210
0.0
220
0.0
230
1.0
 70
     8
 71
     3
 72
    11
 73
     7
 74
     0
 42
0.000000001
 43
0.00000001
 40
0.0
 40
0.0
 40
0.0
 40
0.0
 40
0.2164543009645029
 40
0.4403089937225337
 40
0.7518987489759401
 40
1.0
 40
1.0
 40
1.0
 40
1.0
 10
198.99180696914
 20
50.47266398703897
 30
0.0
 10
199.0278866148538
 20
50.48883759868807
 30
0.0
 10
199.1012794392391
 20
50.52173778426232
 30
0.0
 10
199.2374772331292
 20
50.65966339644243
 30
0.0
 10
199.3835745070798
 20
50.91264008421718
 30
0.0
 10
199.4770682174813
 20
51.1453097865444
 30
0.0
 10
199.5185123469265
 20
51.24844820323383
 30
0.0
  0
SPLINE
  5
274
330
1F
100
AcDbEntity
  8
0
  6
Continuous
 62
     7
370
    25
100
AcDbSpline
210
0.0
220
0.0
230
1.0
 70
     8
 71
     3
 72
     9
 73
     5
 74
     0
 42
0.000000001
 43
0.00000001
 40
0.0
 40
0.0
 40
0.0
 40
0.0
 40
0.7586588013728455
 40
0.9999999999999999
 40
0.9999999999999999
 40
0.9999999999999999
 40
0.9999999999999999
 10
199.3551235547609
 20
50.07056140066726
 30
0.0
 10
199.2593891329574
 20
50.16058261528787
 30
0.0
 10
199.1332000982685
 20
50.2792409824718
 30
0.0
 10
199.0192965806177
 20
50.43505874215067
 30
0.0
 10
198.99180696914
 20
50.47266398703897
 30
0.0
  0
SPLINE
  5
275
330
1F
100
AcDbEntity
  8
0
  6
Continuous
 62
     7
370
    25
100
AcDbSpline
210
0.0
220
0.0
230
1.0
 70
     8
 71
     3
 72
    10
 73
     6
 74
     0
 42
0.000000001
 43
0.00000001
 40
0.0
 40
0.0
 40
0.0
 40
0.0
 40
0.3084387258315952
 40
0.6274227141286545
 40
1.0
 40
1.0
 40
1.0
 40
1.0
 10
201.8461171963441
 20
50.72179989507193
 30
0.0
 10
201.8100801772601
 20
50.63215367786345
 30
0.0
 10
201.7367740635033
 20
50.44979631414181
 30
0.0
 10
201.6089505956065
 20
50.19639326488523
 30
0.0
 10
201.5207424458239
 20
50.10309276580213
 30
0.0
 10
201.4732204773949
 20
50.05282730413263
 30
0.0
  0
LINE
  5
276
330
1F
100
AcDbEntity
  8
0
  6
Continuous
 62
     7
370
    25
100
AcDbLine
 10
199.5185123469
 20
49.9813464529
 30
0.0
 11
199.5185123469
 21
51.2484482032
 31
0.0
  0
LINE
  5
277
330
1F
100
AcDbEntity
  8
0
  6
Continuous
 62
     7
370
    25
100
AcDbLine
 10
200.9456674605
 20
49.8841929663
 30
0.0
 11
200.9456674605
 21
51.3730161573
 31
0.0
  0
LWPOLYLINE
  5
278
330
1F
100
AcDbEntity
  8
0
  6
Continuous
 62
     7
370
    18
100
AcDbPolyline
 90
        9
 70
   128
 43
0.0
 10
189.8123603649
 20
40.6411748196
 10
189.8510964143
 20
39.8100191023
 10
189.966880162
 20
39.0326933915
 10
190.1584430572
 20
38.3177142304
 10
190.4236862966
 20
37.6729150804
 10
190.7597038199
 20
37.1053604958
 10
191.1628141486
 20
36.6212687234
 10
191.6286007218
 20
36.2259435741
 10
191.8838345136
 20
36.0627267549
  0
LWPOLYLINE
  5
279
330
1F
100
AcDbEntity
  8
0
  6
Continuous
 62
     7
370
    18
100
AcDbPolyline
 90
       24
 70
   128
 43
0.0
 10
201.88302184
 20
53.3837040025
 10
201.6148960694
 20
53.5227144446
 10
201.0396975546
 20
53.7285325528
 10
200.4189620827
 20
53.8356865214
 10
199.7594905616
 20
53.8430023494
 10
199.0685082991
 20
53.7503998828
 10
198.3535858415
 20
53.5588936938
 10
197.6225560288
 20
53.2705819642
 10
196.8834281768
 20
52.8886234975
 10
196.1443003248
 20
52.4172031109
 10
195.4132705122
 20
51.8614857845
 10
194.6983480546
 20
51.2275600738
 10
194.007365792
 20
50.5223714016
 10
193.3478942709
 20
49.7536459623
 10
192.727158799
 20
48.9298060729
 10
192.1519602843
 20
48.0598778956
 10
191.6286007218
 20
47.1533925455
 10
191.1628141486
 20
46.2202816659
 10
190.7597038199
 20
45.2707686146
 10
190.4236862966
 20
44.3152564556
 10
190.1584430572
 20
43.3642139799
 10
189.966880162
 20
42.4280610079
 10
189.8510964143
 20
41.5170542275
 10
189.8123603649
 20
40.6411748196
  0
LWPOLYLINE
  5
27A
330
1F
100
AcDbEntity
  8
0
  6
Continuous
 62
     7
370
    18
100
AcDbPolyline
 90
       45
 70
   128
 43
0.0
 10
212.7933307535
 20
30.9659955741
 10
212.2297927452
 20
30.687214772
 10
211.6777267455
 20
30.507194674
 10
211.1483712264
 20
30.42959997
 10
210.6525023395
 20
30.4560102645
 10
210.2002145456
 20
30.5858879201
 10
209.8007151196
 20
30.8165890022
 10
209.462136718
 20
31.1434171021
 10
209.1913718206
 20
31.5597189422
 10
208.9939324199
 20
32.0570198175
 10
208.8738378127
 20
32.6251961163
 10
208.8335327789
 20
33.2526814076
 10
208.8738378127
 20
33.9267019004
 10
208.9939324199
 20
34.6335364813
 10
209.1913718206
 20
35.3587960364
 10
209.462136718
 20
36.0877163728
 10
209.8007151196
 20
36.8054587743
 10
210.2002145456
 20
37.4974120756
 10
210.6525023395
 20
38.1494901027
 10
211.1483712264
 20
38.7484184276
 10
211.6777267455
 20
39.2820045967
 10
212.2297927452
 20
39.7393863343
 10
212.7933307535
 20
40.1112526672
 10
213.3568687619
 20
40.3900334693
 10
213.9089347615
 20
40.5700535674
 10
214.4382902806
 20
40.6476482714
 10
214.9341591675
 20
40.6212379769
 10
215.3864469615
 20
40.4913603213
 10
215.7859463874
 20
40.2606592392
 10
216.124524789
 20
39.9338311393
 10
216.3952896864
 20
39.5175292992
 10
216.5927290871
 20
39.0202284239
 10
216.7128236943
 20
38.4520521251
 10
216.7531287282
 20
37.8245668338
 10
216.7128236943
 20
37.1505463409
 10
216.5927290871
 20
36.4437117601
 10
216.3952896864
 20
35.7184522049
 10
216.124524789
 20
34.9895318686
 10
215.7859463874
 20
34.271789467
 10
215.3864469615
 20
33.5798361658
 10
214.9341591675
 20
32.9277581386
 10
214.4382902806
 20
32.3288298137
 10
213.9089347615
 20
31.7952436447
 10
213.3568687619
 20
31.3378619071
 10
212.7933307535
 20
30.9659955741
  0
ARC
  5
27B
330
1F
100
AcDbEntity
  8
0
  6
Continuous
 62
     7
370
    18
100
AcDbCircle
 10
210.9092284581
 20
33.6971593797
 30
0.0
 40
2.473137431097295
100
AcDbArc
 50
245.1337312137
 51
306.1767272154
  0
LWPOLYLINE
  5
27C
330
1F
100
AcDbEntity
  8
0
  6
Continuous
 62
     7
370
    18
100
AcDbPolyline
 90
       17
 70
   128
 43
0.0
 10
214.847251771
 20
40.1260532131
 10
215.1332583998
 20
39.9248048102
 10
215.4309288633
 20
39.5924739957
 10
215.6602023853
 20
39.1750580362
 10
215.8159573742
 20
38.6818813145
 10
215.8947145209
 20
38.1239605836
 10
215.8947145209
 20
37.5137588707
 10
215.8159573742
 20
36.8649070737
 10
215.6602023853
 20
36.1918994697
 10
215.4309288633
 20
35.5097699363
 10
215.1332583998
 20
34.8337561201
 10
214.7738404611
 20
34.1789590527
 10
214.36070385
 20
33.5600058187
 10
213.9030773557
 20
32.9907228103
 10
213.4111835979
 20
32.4838268694
 10
212.8960106703
 20
32.0506412137
 10
212.3690666848
 20
31.7008424948
  0
LWPOLYLINE
  5
27D
330
1F
100
AcDbEntity
  8
0
  6
Continuous
 62
     7
370
    18
100
AcDbPolyline
 90
       39
 70
   128
 43
0.0
 10
185.0393895919
 20
39.1104096099
 10
185.0782368362
 20
40.1888599976
 10
185.1944986738
 20
41.3043921992
 10
185.3873374354
 20
42.4489687794
 10
185.6553637135
 20
43.6143430379
 10
185.9966463724
 20
44.7921184264
 10
186.4087264628
 20
45.9738090461
 10
186.8886349383
 20
47.1509007893
 10
187.4329140473
 20
48.3149126827
 10
188.0376422463
 20
49.4574579942
 10
188.6984624547
 20
50.5703046585
 10
189.410613448
 20
51.6454345899
 10
190.1689641617
 20
52.6751014527
 10
190.9680506617
 20
53.6518864734
 10
191.8021155114
 20
54.5687518936
 10
192.6651492544
 20
55.4190916771
 10
193.5509337129
 20
56.196779106
 10
194.4530867895
 20
56.8962109248
 10
195.3651084507
 20
57.512347711
 10
196.2804275594
 20
58.0407501852
 10
197.1924492206
 20
58.4776111952
 10
198.0946022972
 20
58.8197831475
 10
198.9803867557
 20
59.0648006855
 10
199.8434204987
 20
59.210898452
 10
200.6774853484
 20
59.2570238093
 10
201.4765718484
 20
59.2028444233
 10
202.2349225621
 20
59.0487506575
 10
202.9470735553
 20
58.7958527611
 10
203.6078937638
 20
58.4459728693
 10
204.2126219628
 20
58.0016318747
 10
204.7569010717
 20
57.4660312643
 10
205.2368095472
 20
56.8430300529
 10
205.6488896377
 20
56.1371169783
 10
205.9901722966
 20
55.3533781606
 10
206.2581985746
 20
54.4974604557
 10
206.4510373363
 20
53.5755307705
 10
206.5672991738
 20
52.5942316294
 10
206.6061464181
 20
51.5606333152
 10
206.5796189391
 20
50.6724162085
  0
LWPOLYLINE
  5
27E
330
1F
100
AcDbEntity
  8
0
  6
Continuous
 62
     7
370
    18
100
AcDbPolyline
 90
       21
 70
   128
 43
0.0
 10
196.5804316128
 20
33.3514389609
 10
196.2804275594
 20
33.1586952141
 10
195.3651084507
 20
32.63029274
 10
194.4530867895
 20
32.1934317299
 10
193.5509337129
 20
31.8512597776
 10
192.6651492544
 20
31.6062422397
 10
191.8021155114
 20
31.4601444731
 10
190.9680506617
 20
31.4140191158
 10
190.1689641617
 20
31.4681985018
 10
189.410613448
 20
31.6222922676
 10
188.6984624547
 20
31.875190164
 10
188.0376422463
 20
32.2250700558
 10
187.4329140473
 20
32.6694110504
 10
186.8886349383
 20
33.2050116608
 10
186.4087264628
 20
33.8280128722
 10
185.9966463724
 20
34.5339259468
 10
185.6553637135
 20
35.3176647646
 10
185.3873374354
 20
36.1735824694
 10
185.1944986738
 20
37.0955121546
 10
185.0782368362
 20
38.0768112957
 10
185.0393895919
 20
39.1104096099
  0
LWPOLYLINE
  5
27F
330
1F
100
AcDbEntity
  8
0
  6
Continuous
 62
     7
370
    18
100
AcDbPolyline
 90
       28
 70
   128
 43
0.0
 10
184.3322828107
 20
39.1104096099
 10
184.3713415981
 20
40.2090981605
 10
184.4882439909
 20
41.3451765162
 10
184.6821700027
 20
42.5106759038
 10
184.9517593821
 20
43.6974211825
 10
185.2951211531
 20
44.8970881867
 10
185.7098468797
 20
46.1012621143
 10
186.1930275588
 20
47.3014965506
 10
186.7412740252
 20
48.4893727133
 10
187.3507407238
 20
49.6565585045
 10
188.0171526837
 20
50.7948669547
 10
188.7358355036
 20
51.8963136478
 10
189.5017481402
 20
52.9531727268
 10
190.3095182664
 20
53.9580310845
 10
191.1534799553
 20
54.9038403615
 10
192.0277134219
 20
55.7839663854
 10
192.9260865467
 20
56.5922357044
 10
193.8422978877
 20
57.32297889
 10
194.7699208805
 20
57.9710703038
 10
195.7024489165
 20
58.5319640502
 10
196.6333409814
 20
59.0017258626
 10
197.5560675363
 20
59.3770606993
 10
198.4641563173
 20
59.6553358562
 10
199.3512377341
 20
59.834599433
 10
200.211089548
 20
59.9135940245
 10
201.0376805163
 20
59.8917655404
 10
201.8252126972
 20
59.7692670917
 10
202.0422541481
 20
59.7158833186
  0
ARC
  5
280
330
1F
100
AcDbEntity
  8
0
  6
Continuous
 62
     7
370
    18
100
AcDbCircle
 10
193.1045257565
 20
38.5343735722
 30
0.0
 40
8.791135524790823
100
AcDbArc
 50
176.2430226709
 51
220.8912264513
  0
LWPOLYLINE
  5
281
330
1F
100
AcDbEntity
  8
0
  6
Continuous
 62
     7
370
    18
100
AcDbPolyline
 90
       26
 70
   128
 43
0.0
 10
177.0844383036
 20
43.294501183
 10
177.123497091
 20
44.3931897336
 10
177.2403994837
 20
45.5292680893
 10
177.4343254956
 20
46.6947674769
 10
177.7039148749
 20
47.8815127556
 10
178.0472766459
 20
49.0811797597
 10
178.4620023725
 20
50.2853536874
 10
178.9451830516
 20
51.4855881237
 10
179.493429518
 20
52.6734642864
 10
180.1028962167
 20
53.8406500776
 10
180.7693081765
 20
54.9789585278
 10
181.4879909965
 20
56.0804052209
 10
182.253903633
 20
57.1372642999
 10
183.0616737592
 20
58.1421226576
 10
183.9056354481
 20
59.0879319346
 10
184.7798689147
 20
59.9680579585
 10
185.6782420395
 20
60.7763272775
 10
186.5944533805
 20
61.5070704631
 10
187.5220763734
 20
62.1551618769
 10
188.4546044093
 20
62.7160556233
 10
189.3854964742
 20
63.1858174357
 10
190.3082230291
 20
63.5611522724
 10
191.2163118101
 20
63.8394274293
 10
192.103393227
 20
64.0186910061
 10
192.9632450409
 20
64.0976855976
 10
192.9773685678
 20
64.0981503798
  0
ARC
  5
282
330
1F
100
AcDbEntity
  8
0
  6
Continuous
 62
     7
370
    18
100
AcDbCircle
 10
187.3093326091
 20
42.9726006795
 30
0.0
 40
10.22996009244762
100
AcDbArc
 50
178.1968077032
 51
206.1102840051
  0
LWPOLYLINE
  5
283
330
1F
100
AcDbEntity
  8
0
  6
Continuous
 62
     7
370
    18
100
AcDbPolyline
 90
       31
 70
   128
 43
0.0
 10
187.6910400214
 20
40.6411748196
 10
187.7301965143
 20
41.5841818282
 10
187.8472888944
 20
42.5633162882
 10
188.0411894983
 20
43.5691485995
 10
188.310030957
 20
44.591992047
 10
188.6512241804
 20
45.6219960893
 10
189.0614832911
 20
46.6492412243
 10
189.5368572698
 20
47.6638345198
 10
190.072768005
 20
48.6560048879
 10
190.6640543836
 20
49.6161971853
 10
191.3050219943
 20
50.5351642356
 10
191.9894979688
 20
51.4040558834
 10
192.7108904292
 20
52.2145042275
 10
193.4622519718
 20
52.958704207
 10
194.2363465742
 20
53.6294887695
 10
195.0257192821
 20
54.2203978929
 10
195.822768005
 20
54.7257407992
 10
196.6198167279
 20
55.1406507602
 10
197.4091894359
 20
55.461131966
 10
198.1832840383
 20
55.6840980074
 10
198.9346455809
 20
55.8074015996
 10
199.6560380413
 20
55.8298552615
 10
200.3405140158
 20
55.7512427522
 10
200.9814816265
 20
55.572321153
 10
201.572768005
 20
55.2948135768
 10
202.1086787403
 20
54.9213925733
 10
202.5840527189
 20
54.4556543908
 10
202.9943118297
 20
53.9020843426
 10
203.3355050531
 20
53.2660136109
 10
203.6043465118
 20
52.5535679046
 10
203.6620465773
 20
52.3566948821
  0
LWPOLYLINE
  5
284
330
1F
100
AcDbEntity
  8
0
  6
Continuous
 62
     7
370
    18
100
AcDbPolyline
 90
       15
 70
   128
 43
0.0
 10
193.662859251
 20
35.0357176345
 10
193.4622519718
 20
34.9869449177
 10
192.7108904292
 20
34.8636413256
 10
191.9894979688
 20
34.8411876636
 10
191.3050219943
 20
34.9198001729
 10
190.6640543836
 20
35.0987217721
 10
190.072768005
 20
35.3762293483
 10
189.5368572698
 20
35.7496503518
 10
189.0614832911
 20
36.2153885343
 10
188.6512241804
 20
36.7689585825
 10
188.310030957
 20
37.4050293142
 10
188.0411894983
 20
38.1174750205
 10
187.8472888944
 20
38.8994344598
 10
187.7301965143
 20
39.7433769353
 10
187.6910400214
 20
40.6411748196
  0
LINE
  5
285
330
1F
100
AcDbEntity
  8
0
  6
Continuous
 62
     7
370
    18
100
AcDbLine
 10
189.4885679515
 20
57.436005943
 30
0.0
 11
188.1350919618
 21
55.0917167689
 31
0.0
  0
LINE
  5
286
330
1F
100
AcDbEntity
  8
0
  6
Continuous
 62
     7
370
    18
100
AcDbLine
 10
183.5304997329
 20
47.1163291038
 30
0.0
 11
182.1769333874
 21
44.7718834287
 31
0.0
  0
LINE
  5
287
330
1F
100
AcDbEntity
  8
0
  6
Continuous
 62
     7
370
    18
100
AcDbLine
 10
188.4475348108
 20
58.036981583
 30
0.0
 11
181.1359002467
 21
45.3728590687
 31
0.0
  0
LINE
  5
288
330
1F
100
AcDbEntity
  8
0
  6
Continuous
 62
     7
370
    18
100
AcDbLine
 10
188.1101332979
 20
57.9504742208
 30
0.0
 11
181.0421155418
 21
45.7083083944
 31
0.0
  0
LINE
  5
289
330
1F
100
AcDbEntity
  8
0
  6
Continuous
 62
     7
370
    18
100
AcDbLine
 10
172.9993726265
 20
64.5873895171
 30
0.0
 11
183.4134837785
 21
58.6874703489
 31
0.0
  0
LINE
  5
28A
330
1F
100
AcDbEntity
  8
0
  6
Continuous
 62
     7
370
    18
100
AcDbLine
 10
167.6592835372
 20
50.8238649631
 30
0.0
 11
177.1071946679
 21
45.0885841875
 31
0.0
  0
LINE
  5
28B
330
1F
100
AcDbEntity
  8
0
  6
Continuous
 62
     7
370
    18
100
AcDbLine
 10
181.1359002467
 20
37.7071196828
 30
0.0
 11
182.1784479528
 21
37.1050740518
 31
0.0
  0
LINE
  5
28C
330
1F
100
AcDbEntity
  8
0
  6
Continuous
 62
     7
370
    18
100
AcDbLine
 10
196.4639019572
 20
61.2177829743
 30
0.0
 11
195.1171155418
 21
61.995518969
 31
0.0
  0
LINE
  5
28D
330
1F
100
AcDbEntity
  8
0
  6
Continuous
 62
     7
370
    18
100
AcDbLine
 10
181.0421155418
 20
37.616903924
 30
0.0
 11
182.3895328314
 21
36.838803615
 31
0.0
  0
LINE
  5
28E
330
1F
100
AcDbEntity
  8
0
  6
Continuous
 62
     7
370
    18
100
AcDbLine
 10
177.2804166842
 20
67.0587836465
 30
0.0
 11
186.948341505
 21
61.8559800557
 31
0.0
  0
LINE
  5
28F
330
1F
100
AcDbEntity
  8
0
  6
Continuous
 62
     7
370
    18
100
AcDbLine
 10
172.6221356495
 20
64.6757185252
 30
0.0
 11
172.9993726265
 21
64.5873895171
 31
0.0
  0
LINE
  5
290
330
1F
100
AcDbEntity
  8
0
  6
Continuous
 62
     7
370
    18
100
AcDbLine
 10
167.4351396691
 20
51.3067755462
 30
0.0
 11
167.6592835372
 21
50.8238649631
 31
0.0
  0
OLE2FRAME
  5
291
330
1F
100
AcDbEntity
  8
0
100
AcDbOle2Frame
 70
     2
  3
Paintbrush-Bild
 10
13.8511154363
 20
38.264191557
 30
0.0
 11
51.6290888628
 21
31.9806341108
 31
0.0
 71
     2
 72
     0
 73
     1
 90
    12928
310
80552BED0767C5B32B40DDAF6807D121434000000000000000006FFBDDFB85D0
310
4940DDAF6807D121434000000000000000006FFBDDFB85D04940416F4BD60AFB
310
3F4000000000000000002BED0767C5B32B40416F4BD60AFB3F40000000000000
310
0000000000000100000000010000010000000100000000000100000000320000
310
D0CF11E0A1B11AE1000000000000000000000000000000003E000300FEFF0900
310
0600000000000000000000000100000001000000000000000010000002000000
310
01000000FEFFFFFF0000000000000000FFFFFFFFFFFFFFFFFFFFFFFFFFFFFFFF
310
FFFFFFFFFFFFFFFFFFFFFFFFFFFFFFFFFFFFFFFFFFFFFFFFFFFFFFFFFFFFFFFF
310
FFFFFFFFFFFFFFFFFFFFFFFFFFFFFFFFFFFFFFFFFFFFFFFFFFFFFFFFFFFFFFFF
310
FFFFFFFFFFFFFFFFFFFFFFFFFFFFFFFFFFFFFFFFFFFFFFFFFFFFFFFFFFFFFFFF
310
FFFFFFFFFFFFFFFFFFFFFFFFFFFFFFFFFFFFFFFFFFFFFFFFFFFFFFFFFFFFFFFF
310
FFFFFFFFFFFFFFFFFFFFFFFFFFFFFFFFFFFFFFFFFFFFFFFFFFFFFFFFFFFFFFFF
310
FFFFFFFFFFFFFFFFFFFFFFFFFFFFFFFFFFFFFFFFFFFFFFFFFFFFFFFFFFFFFFFF
310
FFFFFFFFFFFFFFFFFFFFFFFFFFFFFFFFFFFFFFFFFFFFFFFFFFFFFFFFFFFFFFFF
310
FFFFFFFFFFFFFFFFFFFFFFFFFFFFFFFFFFFFFFFFFFFFFFFFFFFFFFFFFFFFFFFF
310
FFFFFFFFFFFFFFFFFFFFFFFFFFFFFFFFFFFFFFFFFFFFFFFFFFFFFFFFFFFFFFFF
310
FFFFFFFFFFFFFFFFFFFFFFFFFFFFFFFFFFFFFFFFFFFFFFFFFFFFFFFFFFFFFFFF
310
FFFFFFFFFFFFFFFFFFFFFFFFFFFFFFFFFFFFFFFFFFFFFFFFFFFFFFFFFFFFFFFF
310
FFFFFFFFFFFFFFFFFFFFFFFFFFFFFFFFFFFFFFFFFFFFFFFFFFFFFFFFFFFFFFFF
310
FFFFFFFFFFFFFFFFFFFFFFFFFFFFFFFFFFFFFFFFFFFFFFFFFFFFFFFFFFFFFFFF
310
FDFFFFFFFEFFFFFFFEFFFFFFFEFFFFFF05000000060000000700000008000000
310
090000000A0000000B0000000C0000000D0000000E0000000F00000010000000
310
11000000120000001300000014000000150000001600000017000000FEFFFFFF
310
FFFFFFFFFFFFFFFFFFFFFFFFFFFFFFFFFFFFFFFFFFFFFFFFFFFFFFFFFFFFFFFF
310
FFFFFFFFFFFFFFFFFFFFFFFFFFFFFFFFFFFFFFFFFFFFFFFFFFFFFFFFFFFFFFFF
310
FFFFFFFFFFFFFFFFFFFFFFFFFFFFFFFFFFFFFFFFFFFFFFFFFFFFFFFFFFFFFFFF
310
FFFFFFFFFFFFFFFFFFFFFFFFFFFFFFFFFFFFFFFFFFFFFFFFFFFFFFFFFFFFFFFF
310
FFFFFFFFFFFFFFFFFFFFFFFFFFFFFFFFFFFFFFFFFFFFFFFFFFFFFFFFFFFFFFFF
310
FFFFFFFFFFFFFFFFFFFFFFFFFFFFFFFFFFFFFFFFFFFFFFFFFFFFFFFFFFFFFFFF
310
FFFFFFFFFFFFFFFFFFFFFFFFFFFFFFFFFFFFFFFFFFFFFFFFFFFFFFFFFFFFFFFF
310
FFFFFFFFFFFFFFFFFFFFFFFFFFFFFFFFFFFFFFFFFFFFFFFFFFFFFFFFFFFFFFFF
310
FFFFFFFFFFFFFFFFFFFFFFFFFFFFFFFFFFFFFFFFFFFFFFFFFFFFFFFFFFFFFFFF
310
FFFFFFFFFFFFFFFFFFFFFFFFFFFFFFFFFFFFFFFFFFFFFFFFFFFFFFFFFFFFFFFF
310
FFFFFFFFFFFFFFFFFFFFFFFFFFFFFFFFFFFFFFFFFFFFFFFFFFFFFFFFFFFFFFFF
310
FFFFFFFFFFFFFFFFFFFFFFFFFFFFFFFFFFFFFFFFFFFFFFFFFFFFFFFFFFFFFFFF
310
FFFFFFFFFFFFFFFFFFFFFFFFFFFFFFFFFFFFFFFFFFFFFFFFFFFFFFFFFFFFFFFF
310
52006F006F007400200045006E00740072007900000000000000000000000000
310
0000000000000000000000000000000000000000000000000000000000000000
310
16000500FFFFFFFFFFFFFFFF020000000A00030000000000C000000000000046
310
000000000000000000000000604373E4AA8ED30103000000C000000000000000
310
01004F006C006500000000000000000000000000000000000000000000000000
310
0000000000000000000000000000000000000000000000000000000000000000
310
0A000200FFFFFFFFFFFFFFFFFFFFFFFF00000000000000000000000000000000
310
0000000000000000000000000000000000000000000000001400000000000000
310
010043006F006D0070004F0062006A0000000000000000000000000000000000
310
0000000000000000000000000000000000000000000000000000000000000000
310
120002010100000003000000FFFFFFFF00000000000000000000000000000000
310
0000000000000000000000000000000000000000010000004D00000000000000
310
01004F006C006500310030004E00610074006900760065000000000000000000
310
0000000000000000000000000000000000000000000000000000000000000000
310
1A000200FFFFFFFFFFFFFFFFFFFFFFFF00000000000000000000000000000000
310
0000000000000000000000000000000000000000040000002426000000000000
310
FEFFFFFF02000000FEFFFFFFFFFFFFFFFFFFFFFFFFFFFFFFFFFFFFFFFFFFFFFF
310
FFFFFFFFFFFFFFFFFFFFFFFFFFFFFFFFFFFFFFFFFFFFFFFFFFFFFFFFFFFFFFFF
310
FFFFFFFFFFFFFFFFFFFFFFFFFFFFFFFFFFFFFFFFFFFFFFFFFFFFFFFFFFFFFFFF
310
FFFFFFFFFFFFFFFFFFFFFFFFFFFFFFFFFFFFFFFFFFFFFFFFFFFFFFFFFFFFFFFF
310
FFFFFFFFFFFFFFFFFFFFFFFFFFFFFFFFFFFFFFFFFFFFFFFFFFFFFFFFFFFFFFFF
310
FFFFFFFFFFFFFFFFFFFFFFFFFFFFFFFFFFFFFFFFFFFFFFFFFFFFFFFFFFFFFFFF
310
FFFFFFFFFFFFFFFFFFFFFFFFFFFFFFFFFFFFFFFFFFFFFFFFFFFFFFFFFFFFFFFF
310
FFFFFFFFFFFFFFFFFFFFFFFFFFFFFFFFFFFFFFFFFFFFFFFFFFFFFFFFFFFFFFFF
310
FFFFFFFFFFFFFFFFFFFFFFFFFFFFFFFFFFFFFFFFFFFFFFFFFFFFFFFFFFFFFFFF
310
FFFFFFFFFFFFFFFFFFFFFFFFFFFFFFFFFFFFFFFFFFFFFFFFFFFFFFFFFFFFFFFF
310
FFFFFFFFFFFFFFFFFFFFFFFFFFFFFFFFFFFFFFFFFFFFFFFFFFFFFFFFFFFFFFFF
310
FFFFFFFFFFFFFFFFFFFFFFFFFFFFFFFFFFFFFFFFFFFFFFFFFFFFFFFFFFFFFFFF
310
FFFFFFFFFFFFFFFFFFFFFFFFFFFFFFFFFFFFFFFFFFFFFFFFFFFFFFFFFFFFFFFF
310
FFFFFFFFFFFFFFFFFFFFFFFFFFFFFFFFFFFFFFFFFFFFFFFFFFFFFFFFFFFFFFFF
310
FFFFFFFFFFFFFFFFFFFFFFFFFFFFFFFFFFFFFFFFFFFFFFFFFFFFFFFFFFFFFFFF
310
FFFFFFFFFFFFFFFFFFFFFFFFFFFFFFFFFFFFFFFFFFFFFFFFFFFFFFFFFFFFFFFF
310
0100000200000000000000000000000000000000000000000000000000000000
310
0000000000000000000000000000000000000000000000000000000000000000
310
0100FEFF030A0000FFFFFFFF0A00030000000000C00000000000004607000000
310
5042727573680007000000504272757368000700000050427275736800F439B2
310
7100000000000000000000000000000000000000000000000000000000000000
310
0000000000000000000000000000000000000000000000000000000000000000
310
0000000000000000000000000000000000000000000000000000000000000000
310
0000000000000000000000000000000000000000000000000000000000000000
310
0000000000000000000000000000000000000000000000000000000000000000
310
0000000000000000000000000000000000000000000000000000000000000000
310
0000000000000000000000000000000000000000000000000000000000000000
310
0000000000000000000000000000000000000000000000000000000000000000
310
0000000000000000000000000000000000000000000000000000000000000000
310
0000000000000000000000000000000000000000000000000000000000000000
310
0000000000000000000000000000000000000000000000000000000000000000
310
0000000000000000000000000000000000000000000000000000000000000000
310
20260000424D0E260000000000003E00000028000000B40200006E0000000100
310
01000000000000000000130B0000130B00000200000002000000000000FFFFFF
310
FFFFFFFFFFFFFFFFFFFFFFFFFFFFFFFFFFFFFFFFFFFFFFFFFFFFFFFFFFFFFFFF
310
FFFFFFFFFFFFFFFFFFFFFFFFFFFFFFFFFFFFFFFFFFFFFFFFFFFFFFFFFFFFFFFF
310
FFFFFFFFFFFFFFFFFFFFFFFFFFFFFFFFFFFFFFFFFFFFFFFFF000FFFFFFFFFFFF
310
FFFFFFFFFFFFFFFFFFFFFFFFFFFFFFFFFFFFFFFFFFFFFFFFFFFFFFFFFFFFFFFF
310
FFFFFFFFFFFFFFFFFFFFFFFFFFFFFFFFFFFFFFFFFFFFFFFFFFFFFFFFFFFFFFFF
310
FFFFFFFFFFFFFFFFFFFFFFFFFFFFFFFFF000FFFFFFFFFFFFFFFFFFFFFFFFFFFF
310
FFFFFFFFFFFFFFFFFFFFFFFFFFFFFFFFFFFFFFFFFFFFFFFFFFFFFFFFFFFFFFFF
310
FFFFFFFFFFFFFFFFFFFFFFFFFFFFFFFFFFFFFFFFFFFFFFFFFFFFFFFFFFFFFFFF
310
FFFFFFFFFFFFFFFFF000FFFFFFFFFFFFFFFFFFFFFFFFFFFFFFFFFFFFFFFFFFFF
310
FFFFFFFFFFFFFFFFFFFFFFFFFFFFFFFFFFFFFFFFFFFFFFFFFFFFFFFFFFFFFFFF
310
FFFFFFFFFFFFFFFFFFFFFFFFFFFFFFFFFFFFFFFFFFFFFFFFFFFFFFFFFFFFFFFF
310
F000FFFFFFFFFFFFFFFFFFFFFFFFFFFFFFFFFFFFFFFFFFFFFFFFFFFFFFFFFFFF
310
FFFFFFFFFFFFFFFFFFFFFFFFFFFFFFFFFFFFFFFFFFFFFFFFFFFFFFFFFFFFFFFF
310
FFFFFFFFFFFFFFFFFFFFFFFFFFFFFFFFFFFFFFFFFFFFFFFFF000FFFFFFFFFFFF
310
FFFFFFFFFFFFFFFFFFFFFFFFFFFFFFFFFFFFFFFFFFFFFFFFFFFFFFFFFFFFFFFF
310
FFFFFFFFFFFFFFFFFFFFFFFFFFFFFFFFFFFFFFFFFFFFFFFFFFFFFFFFFFFFFFFF
310
FFFFFFFFFFFFFFFFFFFFFFFFFFFFFFFFF000FFFFFFFFFFFFFFFFFFFFFFFFFFFF
310
FFFFFFFFFFFFFFFFFFFFFFFFFFFFFFFFFFFFFFFFFFFFFFFFFFFFFFFFFFFFFFFF
310
FFFFFFFFFFFFFFFFFFFFFFFFFFFFFFFFFFFFFFFFFFFFFFFFFFFFFFFFFFFFFFFF
310
FFFFFFFFFFFFFFFFF000FFFFFFFFFFFFFFFFFFFFFFFFFFFFFFFFFFFFFFFFFFFF
310
FFFFFFFFFFFFFFFFFFFFFFFFFFFFFFFFFFFFFFFFFFFFFFFFFFFFFFFFFFFFFFFF
310
FFFFFFFFFFFFFFFFFFFFFFFFFFFFFFFFFFFFFFFFFFFFFFFFFFFFFFFFFFFFFFFF
310
F000FFFFFFFFFFFFFFFFFFFFFFFFFFFFFFFFFFFFFFFFFFFFFFFFFFFFFFFFFFFF
310
FFFFFFFFFFFFFFFFFFFFFFFFFFFFFFFFFFFFFFFFFFFFFFFFFFFFFFFFFFFFFFFF
310
FFFFFFFFFFFFFFFFFFFFFFFFFFFFFFFFFFFFFFFFFFFFFFFFF000FFFFFFFFFFFF
310
FFFFFFFFFFFFFFFFFFFFFFFFFFFFFFFFFFFFFFFFFFFFFFFFFFFFFFFFFFFFFFFF
310
FFFFFFFFFFFFFFFFFFFFFFFFFFFFFFFFFFFFFFFFFFFFFFFFFFFFFFFFFFFFFFFF
310
FFFFFFFFFFFFFFFFFFFFFFFFFFFFFFFFF000FFFFFFFFFFFFFFFFFFFFFFFFFFFF
310
FFFFFFFFFFFFFFFFFFFFFFFFFFFFFFFFFFFFFFFFFFFFFFFFFFFFFFFFFFFFFFFF
310
FFFFFFFFFFFFFFFFFFFFFFFFFFFFFFFFFFFFFFFFFFFFFFFFFFFFFFFFFFFFFFFF
310
FFFFFFFFFFFFFFFFF000FFFFFFFFFFFFFFFFFFFFFFFFFFFFFFFFFFFFFFFFFFFF
310
FFFFFFFFFFFFFFFFFFFFFFFFFFFFFFFFFFFFFFFFFFFFFFFFFFFFFFFFFFFFFFFF
310
FFFFFFFFFFFFFFFFFFFFFFFFFFFFFFFFFFFFFFFFFFFFFFFFFFFFFFFFFFFFFFFF
310
F000FFFFFFFFFFFFFFFFFFFFFFFFFFFFFFFFFFFFFFFFFFFFFFFFFFFFFFFFFFFF
310
FFFFFFFFFFFFFFFFFFFFFFFFFFFFFFFFFFFFFFFFFFFFFFFFFFFFFFFFFFFFFFFF
310
FFFFFFFFFFFFFFFFFFFFFFFFFFFFFFFFFFFFFFFFFFFFFFFFF000FFFFFFFFFFFF
310
FFFFFFFFFFFFFFFFFFFFFFFFFFFFFFFFFFFFFFFFFFFFFFFFFFFFFFFFFFFFFFFF
310
FFFFFFFFFFFFFFFFFFFFFFFFFFFFFFFFFFFFFFFFFFFFFFFFFFFFFFFFFFFFFFFF
310
FFFFFFFFFFFFFFFFFFFFFFFFFFFFFFFFF000FFFFFFFFFFFFFFFFFFFFFFFFFFFF
310
FFFFFFFFFFFFFFFFFFFFFFFFFFFFFFFFFFFFFFFFFFFFFFFFFFFFFFFFFFFFFFFF
310
FFFFFFFFFFFFFFFFFFFFFFFFFFFFFFFFFFFFFFFFFFFFFFFFFFFFFFFFFFFFFFFF
310
FFFFFFFFFFFFFFFFF000FFFFFFFFFFFFFFFFFFFFFFFFFFFFFFFFFFFFFFFFFFFF
310
FFFFFFFFFFFFFFFFFFFFFFFFFFFFFFFFFFFFFFFFFFFFFFFFFFFFFFFFFFFFFFFF
310
FFFFFFFFFFFFFFFFFFFFFFFFFFFFFFFFFFFFFFFFFFFFFFFFFFFFFFFFFFFFFFFF
310
F000FFFFFFFFFFFFFFFFFFFFFFFFFFFFFFFFFFFFFFFFFFFFFFFFFFFFFFFFFFFF
310
FFFFFFFFFFFFFFFFFFFFFFFFFFFFFFFFFFFFFFFFFFFFFFFFFFFFFFFFFFFFFFFF
310
FFFFFFFFFFFFFFFFFFFFFFFFFFFFFFFFFFFFFFFFFFFFFFFFF000FFFFFFFFFFFF
310
FFFFFFFFFFFFFFFFFFFFFFFFFFFFFFFFFFFFFFFFFFFFFFFFFFFFFFFFFFFFFFFF
310
FFFFFFFFFFFFFFFFFFFFFFFFFFFFFFFFFFFFFFFFFFFFFFFFFFFFFFFFFFFFFFFF
310
FFFFFFFFFFFFFFFFFFFFFFFFFFFFFFFFF000FFFFFFFFFFFFFFFFFFFFFFFFFFFF
310
FFFFFFFFFFFFFFFFFFFFFFFFFFFFFFFFFFFFFFFFFFFFFFFFFFFFFFFFFFFFFFFF
310
FFFFFFFFFFFFFFFFFFFFFFFFFFFFFFFFFFFFFFFFFFFFFFFFFFFFFFFFFFFFFFFF
310
FFFFFFFFFFFFFFFFF000FFFFF80003FFFFFFFFFFFFFFFFFFFFFFFFFFFFFFFFFF
310
FFFFF00007FFFFFFFFFF00007FFFFFF800000000000000007FFFFFFFFFFFFFFF
310
FFFFFFFC001FFFFFFFFFFFFFFC001FFFFFFFFFFFFFFFFFFFFFFFFFFE0007FFFF
310
F000FFFF8000007FFFFFFFF8000FFFFFC0007FFFFF80007FFFFF0000007FFFFF
310
FFF8000007FFFFF800000000000000007FFFFFF0001FFFFFFFFFFFC00001FFFF
310
FFFFFFFFC00001FFFFFFFF000000000003FFFFE000007FFFF000FFFE0000000F
310
FFFFFFF0000FFFFF80007FFFFF80007FFFFC0000001FFFFFFFC0000001FFFFF8
310
00000000000000007FFFFFF0001FFFFFFFFFFE0000003FFFFFFFFFFE0000003F
310
FFFFFF000000000003FFFF0000000FFFF000FFF800000003FFFFFFF00007FFFF
310
80007FFFFF80007FFFF000000007FFFFFF000000003FFFF80000000000000000
310
7FFFFFF0001FFFFFFFFFF80000000FFFFFFFFFF80000000FFFFFFF0000000000
310
03FFFC00000003FFF000FFE000000000FFFFFFF00007FFFF80003FFFFF80007F
310
FFC000000001FFFFFC000000001FFFF800000000000000007FFFFFF0001FFFFF
310
FFFFE000000003FFFFFFFFE000000003FFFFFF000000000003FFF000000000FF
310
F000FF80000000007FFFFFF00007FFFF80003FFFFF80007FFF8000000000FFFF
310
F80000000007FFF800000000000000007FFFFFF0001FFFFFFFFFC000000001FF
310
FFFFFFC000000001FFFFFF000000000003FFC0000000007FF000FF0000000000
310
3FFFFFE00007FFFF00003FFFFF80007FFE00000000003FFFF00000000003FFF8
310
00000000000000007FFFFFF0001FFFFFFFFF8000000000FFFFFFFF8000000000
310
FFFFFF000000000003FF80000000003FF000FE00000000001FFFFFE00003FFFF
310
00003FFFFF80007FFC00000000001FFFE00000000001FFF8000001FFFE000000
310
7FFFFFF0001FFFFFFFFE00000000003FFFFFFE00000000003FFFFF0000000000
310
03FF00000000001FF000FC00000000000FFFFFE00003FFFF00001FFFFF80007F
310
F800000000001FFFC00000000000FFF8000001FFFE0000007FFFFFF0001FFFFF
310
FFFC00000000001FFFFFFC00000000001FFFFF000000000003FE00000000000F
310
F000F8000000000007FFFFE00003FFFF00001FFFFF80007FF800000000000FFF
310
800000000000FFF8000001FFFE0000007FFFFFF0001FFFFFFFF800000000000F
310
FFFFF800000000000FFFFF000000000003FC000000000007F000F80000000000
310
03FFFFC00003FFFE00001FFFFF80007FF0000000000007FF0000000000007FF8
310
000001FFFE0000007FFFFFF0001FFFFFFFF0000000000007FFFFF00000000000
310
07FFFF000000000003F8000000000003F000F0000000000003FFFFC00001FFFE
310
00001FFFFF80007FE0000000000007FE0000000000003FF8000001FFFE000000
310
7FFFFFF0001FFFFFFFF0000000000007FFFFF0000000000007FFFF0000000000
310
03F800001F800003F000E00001FFF00001FFFFC00001FFFE00000FFFFF80007F
310
E00001FFE00003FE00001FFF00003FF8000001FFFE0000007FFFFFF0001FFFFF
310
FFE000003E000003FFFFE000003E000003FFFF000000000003F00001FFF80001
310
F000E00007FFFC0001FFFFC00001FFFE00000FFFFF80007FC0000FFFFC0003FC
310
0000FFFFC0001FF8000001FFFE0000007FFFFFF0001FFFFFFFC00003FFE00001
310
FFFFC00003FFE00001FFFF0001FFFFFFFFF00007FFFE0001F000E0000FFFFF00
310
00FFFF800001FFFC00000FFFFF80007FC0001FFFFE0001FC0001FFFFE0001FF8
310
000001FFFE0000007FFFFFF0001FFFFFFF80000FFFF80000FFFF80000FFFF800
310
00FFFF0003FFFFFFFFE0000FFFFF8000F000C0003FFFFF8000FFFF800000FFFC
310
000007FFFF80007F80003FFFFF0001FC0003FFFFF0001FF8000001FFFE000000
310
7FFFFFF0001FFFFFFF80003FFFFE0000FFFF80003FFFFE0000FFFF0003FFFFFF
310
FFE0003FFFFF8000F000C0003FFFFF8000FFFF800000FFFC000007FFFF80007F
310
80007FFFFF8001F80007FFFFF8000FF8000001FFFE0000007FFFFFF0001FFFFF
310
FF00007FFFFF00007FFF00007FFFFF00007FFF0003FFFFFFFFE0003FFFFFC000
310
F000C0007FFFFFC000FFFF000000FFFC000007FFFF80007F8000FFFFFF8000F8
310
000FFFFFF8000FF8000001FFFE0000007FFFFFF0001FFFFFFF0000FFFFFF8000
310
7FFF0000FFFFFF80007FFF0003FFFFFFFFC0007FFFFFC00070008000FFFFFFC0
310
00FFFF000000FFF8000007FFFF80007F8000FFFFFF8000F8000FFFFFF8000FF8
310
000001FFFE0000007FFFFFF0001FFFFFFE0001FFFFFFC0003FFE0001FFFFFFC0
310
003FFF0003FFFFFFFFC0007FFFFFE00070008000FFFFFFC0007FFF0000007FF8
310
000003FFFF80007F0001FFFFFF8000F8000FFFFFF8000FF8000001FFFE000000
310
7FFFFFF0001FFFFFFE0001FFFFFFC0003FFE0001FFFFFFC0003FFF0003FFFFFF
310
FFC000FFFFFFE00070008000FFFFFFC0007FFF0000007FF8000003FFFF80007F
310
0001FFFFFF8000F8001FFFFFF8000FF8000001FFFE0000007FFFFFF0001FFFFF
310
FE0003FFFFFFE0003FFE0003FFFFFFE0003FFF0003FFFFFFFFC000FFFFFFE000
310
70008000FFFFFFC0007FFE0000007FF8000003FFFF80007F0001FFFFFF8000F0
310
001FFFFFF8000FF8000001FFFE0000007FFFFFF0001FFFFFFC0003FFFFFFE000
310
1FFC0003FFFFFFE0001FFF0003FFFFFFFFC000FFFFFFC00070008000FFFFFF80
310
007FFE0000007FF0000003FFFF80007F0001FFFFFF0000F0001FFFFFF8000FF8
310
000001FFFE0000007FFFFFF0001FFFFFFC0007FFFFFFF0001FFC0007FFFFFFF0
310
001FFF0003FFFFFFFFC000FFFFFFC00070008001FFFFFF0000FFFE0000003FF0
310
000001FFFF80007F0001FFFFFF0000F8001FFFFFF0000FF8000001FFFE000000
310
7FFFFFF0001FFFFFFC0007FFFFFFF0001FFC0007FFFFFFF0001FFF0003FFFFFF
310
FFC001FFFFFF80007000FFFFFFFFFE0000FFFE0008003FF0008001FFFF80007F
310
FFFFFFFFFC0000FFFFFFFFFFE0000FF8000001FFFE0000007FFFFFF0001FFFFF
310
F8000FFFFFFFF8000FF8000FFFFFFFF8000FFF0003FFFFFFFFFFFFFFFFFF0000
310
7000FFFFFFFFFC0000FFFC0008003FF0008001FFFF80007FFFFFFFFFF80001FF
310
FFFFFFFF80000FF8000001FFFE0000007FFFFFF0001FFFFFF8000FFFFFFFF800
310
0FF8000FFFFFFFF8000FFF0003FFFFFFFFFFFFFFFFFE0000F000FFFFFFFFE000
310
00FFFC000C003FE000C001FFFF80007FFFFFFFFFC00001FFFFFFFFFE00001FF8
310
000001FFFE0000007FFFFFF0001FFFFFF8000FFFFFFFF8000FF8000FFFFFFFF8
310
000FFF0003FFFFFFFFFFFFFFFFF00000F000FFFFFFFE000001FFFC000C001FE0
310
00C000FFFF80007FFFFFFFFE000001FFFFFFFFE000001FF80FFFFFFFFFFFFFC0
310
7FFFFFF0001FFFFFF8000FFFFFFFF8000FF8000FFFFFFFF8000FFF0003FFFFFF
310
FFFFFFFFFF800000F000FFFFFFC0000001FFFC001C001FE001C000FFFF80007F
310
FFFFFF80000003FFFFFFF80000001FF80FFFFFFFFFFFFFC07FFFFFF0001FFFFF
310
F8001FFFFFFFFC000FF8001FFFFFFFFC000FFF0003FFFFFFFFFFFFFFF0000001
310
F000FFFFF800000001FFF8001C001FE001C000FFFF80007FFFFFF800000003FF
310
FFFF800000003FF80FFFFFFFFFFFFFC07FFFFFF0001FFFFFF8001FFFFFFFFC00
310
0FF8001FFFFFFFFC000FFF0003FFFFFFFFFFFFFE00000001F000FFFFC0000000
310
03FFF8001E001FC001E000FFFF80007FFFFF8000000007FFFFFC000000003FF8
310
0FFFFFFFFFFFFFC07FFFFFF0001FFFFFF8001FFFFFFFFC000FF8001FFFFFFFFC
310
000FFF0003FFFFFFFFFFFFE000000003F000FFFE0000000007FFF8001E000FC0
310
01E0007FFF80007FFFFE0000000007FFFFE0000000007FF80FFFFFFFFFFFFFC0
310
7FFFFFF0001FFFFFF0001FFFFFFFFC0007F0001FFFFFFFFC0007FF0003FFFFFF
310
FFFFFF0000000003F000FFF80000000007FFF8001E000FC003E0007FFF80007F
310
FFF0000000000FFFFF8000000000FFF80FFFFFFFFFFFFFC07FFFFFF0001FFFFF
310
F0001FFFFFFFFC0007F0001FFFFFFFFC0007FF0003FFFFFFFFFFFC0000000007
310
F000FFE0000000000FFFF0003E000FC003E0007FFF80007FFFC0000000001FFF
310
FE0000000001FFF80FFFFFFFFFFFFFC07FFFFFF0001FFFFFF0001FFFFFFFFC00
310
07F0001FFFFFFFFC0007FF0003FFFFFFFFFFF0000000000FF000FFC000000000
310
1FFFF0003F000F8003F0003FFF80007FFF80000000003FFFF80000000003FFF8
310
0FFFFFFFFFFFFFC07FFFFFF0001FFFFFF0001FFFFFFFFC0007F0001FFFFFFFFC
310
0007FF0003FFFFFFFFFFE0000000001FF000FF00000000007FFFF0003F000780
310
03F0003FFF80007FFF00000000007FFFF00000000007FFF80FFFFFFFFFFFFFC0
310
7FFFFFF0001FFFFFF0001FFFFFFFFC0007F0001FFFFFFFFC0007FF0003FFFFFF
310
FFFF80000000007FF000FE0000000000FFFFE0003F00078007F0003FFF80007F
310
FE0000000001FFFFE0000000001FFFF80FFFFFFFFFFFFFC07FFFFFF0001FFFFF
310
F0001FFFFFFFFC0007F0001FFFFFFFFC0007FF0003FFFFFFFFFF0000000000FF
310
F000FC0000000003FFFFE0007F00078007F0003FFF80007FFC0000000007FFFF
310
C0000000007FFFF80FFFFFFFFFFFFFC07FFFFFF0001FFFFFF8001FFFFFFFFC00
310
0FF8001FFFFFFFFC000FFF0003FFFFFFFFFE0000000003FFF000FC000000000F
310
FFFFE0007F80070007F8001FFF80007FF8000000001FFFFF8000000001FFFFF8
310
0FFFFFFFFFFFFFC07FFFFFF0001FFFFFF8001FFFFFFFFC000FF8001FFFFFFFFC
310
000FFF0003FFFFFFFFFC000000000FFFF000F8000000007FFFFFE0007F800700
310
07F8001FFF80007FF000000000FFFFFF800000000FFFFFF80FFFFFFFFFFFFFC0
310
7FFFFFF0001FFFFFF8000FFFFFFFF8000FF8000FFFFFFFF8000FFF0003FFFFFF
310
FFFC000000007FFFF000F800000007FFFFFFC0007F8003000FF8001FFF80007F
310
F000000007FFFFFF000000007FFFFFF80FFFFFFFFFFFFFC07FFFFFF0001FFFFF
310
F8000FFFFFFFF8000FF8000FFFFFFFF8000FFF0003FFFFFFFFF80000000FFFFF
310
F000F0000000FFFFFFFFC000FF8003000FF8001FFF80007FE0000000FFFFFFFF
310
0000000FFFFFFFF8000001FFFE0000007FFFFFF0001FFFFFF8000FFFFFFFF800
310
0FF8000FFFFFFFF8000FFF0003FFFFFFFFF8000000FFFFFFF000F000000FFFFF
310
FFFFC000FFC002000FF8000FFF80007FE000001FFFFFFFFE000001FFFFFFFFF8
310
000001FFFE0000007FFFFFF0001FFFFFF8000FFFFFFFF8000FF8000FFFFFFFF8
310
000FFF0003FFFFFFFFF000001FFFFFFFF000E00000FFFFFFFFFFC000FFC00200
310
0FFC000FFF80007FE00001FFFFFFFFFE00001FFFFFFFFFF8000001FFFE000000
310
7FFFFFF0001FFFFFFC000FFFFFFFF8001FFC000FFFFFFFF8001FFF0003FFFFFF
310
FFF00001FFFFFFFFF000E00007FFFFFFFFFF8000FFC000001FFC000FFF80007F
310
C0000FFFFFFFFFFE0000FFFFFFFFFFF8000001FFFE0000007FFFFFF0001FFFFF
310
FC0007FFFFFFF0001FFC0007FFFFFFF0001FFF0003FFFFFFFFF00007FFFFFFFF
310
F000E0001FFFFFFFFFFF8000FFC000001FFC000FFF80007FC0003FFFFFFFFFFE
310
0001FFFFFFFFFFF8000001FFFE0000007FFFFFF0001FFFFFFC0007FFFFFFF000
310
1FFC0007FFFFFFF0001FFF0003FFFFFFFFF0001FFFFFFFFFF000E0003FFFFF00
310
03FF8001FFE000001FFC0007FF80007FC0007FFFFF0007FC0003FFFFF0003FF8
310
000001FFFE0000007FFFFFF0001FFFFFFC0003FFFFFFE0001FFC0003FFFFFFE0
310
001FFF0003FFFFFFFFF0003FFFFFFFFFF000E0003FFFFF0001FF8001FFE00000
310
1FFE0007FF80007FC0007FFFFE0003FC0007FFFFE0003FF8000001FFFE000000
310
7FFFFFF0001FFFFFFE0003FFFFFFE0003FFE0003FFFFFFE0003FFF0003FFFFFF
310
FFF0003FFFFF8001F000E0003FFFFF0001FF0001FFE000001FFE0007FF80007F
310
C0007FFFFE0003FC0007FFFFE0003FF8000001FFFE0000007FFFFFF0001FFFFF
310
FE0001FFFFFFC0003FFE0001FFFFFFC0003FFF0003FFFFFFFFF0003FFFFF0001
310
F000E0003FFFFF0003FF0001FFE000003FFE0007FF80007FC0007FFFFE0003FC
310
0007FFFFE0003FF8000001FFFE0000007FFFFFF0001FFFFFFF0001FFFFFFC000
310
7FFF0001FFFFFFC0007FFF0003FFFFFFFFF0003FFFFF0001F000E0003FFFFE00
310
03FF0003FFF000003FFE0003FF80007FC0007FFFFC0003FE0007FFFFE0003FF8
310
000001FFFE0000007FFFFFF0001FFFFFFF0000FFFFFF80007FFF0000FFFFFF80
310
007FFF0003FFFFFFFFF0003FFFFF0001F000E0003FFFFE0003FF0003FFF00000
310
3FFF0003FF80007FC0007FFFFC0007FE0007FFFFC0003FF8000001FFFE000000
310
7FFFFFF0001FFFFFFF80007FFFFF0000FFFF80007FFFFF0000FFFF0003FFFFFF
310
FFF0003FFFFF0003F000E0003FFFFC0003FE0003FFF000003FFF0003FF80007F
310
E0003FFFF80007FE0003FFFFC0007FF8000001FFFE0000007FFFFFF0001FFFFF
310
FF80003FFFFE0000FFFF80003FFFFE0000FFFF0003FFFFFFFFF0001FFFFE0003
310
F000F0001FFFF80003FE0003FFF000007FFF0001FF80007FE0003FFFF00007FE
310
0001FFFF80007FF8000001FFFE0000007FFFFFF0001FFFFFFFC0000FFFF80001
310
FFFFC0000FFFF80001FFFF0003FFFFFFFFF0001FFFFC0003F000F0000FFFF000
310
07FE0007FFF800007FFF0001FF80007FE0001FFFE00007FF0000FFFE00007FF8
310
000001FFFE0000007FFFFFF0001FFFFFFFC00003FFE00001FFFFC00003FFE000
310
01FFFF0003FFFFFFFFF8000FFFF80003F000F00003FFC00007FC0007FFF80000
310
7FFF8001FF80007FF00007FF80000FFF00007FF80000FFF8000001FFFE000000
310
7F80000000000001FFE000003E000003FFFFE000003E000003FFFF0003FFFFFF
310
FFF80003FFE00007F000F800000000000FFC0007FFF800007FFF8001FF80007F
310
F000000000000FFF000000000000FFF8000001FFFE0000007F80000000000001
310
FFF0000000000007FFFFF0000000000007FFFF0003FFFFFFFFFC00007E000007
310
F000F800000000000FFC0007FFF80000FFFF8000FF80007FF800000000001FFF
310
800000000001FFF8000001FFFE0000007F80000000000001FFF800000000000F
310
FFFFF800000000000FFFFF0003FFFFFFFFFC00000000000FF000FC0000000000
310
1FFC0007FFFC0000FFFF8000FF80007FF800000000003FFFC00000000001FFF8
310
000001FFFE0000007F80000000000001FFF800000000000FFFFFF80000000000
310
0FFFFF0003FFFFFFFFFE00000000001FF000FE00000000003FF8000FFFFC0000
310
FFFF8000FF80007FFC00000000003FFFC00000000003FFF8000001FFFE000000
310
7F80000000000001FFFC00000000001FFFFFFC00000000001FFFFF0003FFFFFF
310
FFFF00000000001FF000FF00000000003FF8000FFFFC0000FFFFC000FF80007F
310
FE00000000007FFFE00000000007FFF8000001FFFE0000007F80000000000001
310
FFFE00000000003FFFFFFE00000000003FFFFF0003FFFFFFFFFF80000000003F
310
F000FF80000000007FF8000FFFFC0001FFFFC0007F80007FFF0000000000FFFF
310
F0000000000FFFF800000000000000007F80000000000001FFFF8000000000FF
310
FFFFFF8000000000FFFFFF0003FFFFFFFFFFC0000000007FF000FFC000000000
310
FFF8000FFFFE0001FFFFC0007F80007FFF8000000001FFFFF8000000001FFFF8
310
00000000000000007F80000000000001FFFFC000000001FFFFFFFFC000000001
310
FFFFFF0003FFFFFFFFFFE000000000FFF000FFE000000003FFF0001FFFFE0001
310
FFFFC0007F80007FFFC000000007FFFFFE000000003FFFF80000000000000000
310
7F80000000000001FFFFE000000003FFFFFFFFE000000003FFFFFF0003FFFFFF
310
FFFFF000000003FFF000FFF80000000FFFF0001FFFFE0001FFFFE0007F80007F
310
FFF00000000FFFFFFF00000000FFFFF800000000000000007F80000000000001
310
FFFFF80000000FFFFFFFFFF80000000FFFFFFF0003FFFFFFFFFFFC0000000FFF
310
F000FFFE0000003FFFF0001FFFFE0003FFFFE0003F80007FFFFC0000003FFFFF
310
FFC0000003FFFFF800000000000000007F80000000000001FFFFFE0000003FFF
310
FFFFFFFE0000003FFFFFFF0003FFFFFFFFFFFF0000003FFFF000FFFF800000FF
310
FFF0001FFFFF0003FFFFE0003F80007FFFFF000001FFFFFFFFF800001FFFFFF8
310
00000000000000007F80000000000001FFFFFFC00001FFFFFFFFFFFFC00001FF
310
FFFFFF0003FFFFFFFFFFFFC00000FFFFF000FFFFF8000FFFFFFFFFFFFFFFFFFF
310
FFFFFFFFFFFFFFFFFFFFF0001FFFFFFFFFFF0000FFFFFFF80000000000000000
310
7FFFFFFFFFFFFFFFFFFFFFFC001FFFFFFFFFFFFFFC001FFFFFFFFFFFFFFFFFFF
310
FFFFFFFC001FFFFFF000FFFFFFFFFFFFFFFFFFFFFFFFFFFFFFFFFFFFFFFFFFFF
310
FFFFFFFFFFFFFFFFFFFFFFFFFFFFFFFFFFFFFFFFFFFFFFFFFFFFFFFFFFFFFFFF
310
FFFFFFFFFFFFFFFFFFFFFFFFFFFFFFFFFFFFFFFFFFFFFFFFFFFFFFFFFFFFFFFF
310
F000FFFFFFFFFFFFFFFFFFFFFFFFFFFFFFFFFFFFFFFFFFFFFFFFFFFFFFFFFFFF
310
FFFFFFFFFFFFFFFFFFFFFFFFFFFFFFFFFFFFFFFFFFFFFFFFFFFFFFFFFFFFFFFF
310
FFFFFFFFFFFFFFFFFFFFFFFFFFFFFFFFFFFFFFFFFFFFFFFFF000FFFFFFFFFFFF
310
FFFFFFFFFFFFFFFFFFFFFFFFFFFFFFFFFFFFFFFFFFFFFFFFFFFFFFFFFFFFFFFF
310
FFFFFFFFFFFFFFFFFFFFFFFFFFFFFFFFFFFFFFFFFFFFFFFFFFFFFFFFFFFFFFFF
310
FFFFFFFFFFFFFFFFFFFFFFFFFFFFFFFFF000FFFFFFFFFFFFFFFFFFFFFFFFFFFF
310
FFFFFFFFFFFFFFFFFFFFFFFFFFFFFFFFFFFFFFFFFFFFFFFFFFFFFFFFFFFFFFFF
310
FFFFFFFFFFFFFFFFFFFFFFFFFFFFFFFFFFFFFFFFFFFFFFFFFFFFFFFFFFFFFFFF
310
FFFFFFFFFFFFFFFFF000FFFFFFFFFFFFFFFFFFFFFFFFFFFFFFFFFFFFFFFFFFFF
310
FFFFFFFFFFFFFFFFFFFFFFFFFFFFFFFFFFFFFFFFFFFFFFFFFFFFFFFFFFFFFFFF
310
FFFFFFFFFFFFFFFFFFFFFFFFFFFFFFFFFFFFFFFFFFFFFFFFFFFFFFFFFFFFFFFF
310
F000FFFFFFFFFFFFFFFFFFFFFFFFFFFFFFFFFFFFFFFFFFFFFFFFFFFFFFFFFFFF
310
FFFFFFFFFFFFFFFFFFFFFFFFFFFFFFFFFFFFFFFFFFFFFFFFFFFFFFFFFFFFFFFF
310
FFFFFFFFFFFFFFFFFFFFFFFFFFFFFFFFFFFFFFFFFFFFFFFFF000FFFFFFFFFFFF
310
FFFFFFFFFFFFFFFFFFFFFFFFFFFFFFFFFFFFFFFFFFFFFFFFFFFFFFFFFFFFFFFF
310
FFFFFFFFFFFFFFFFFFFFFFFFFFFFFFFFFFFFFFFFFFFFFFFFFFFFFFFFFFFFFFFF
310
FFFFFFFFFFFFFFFFFFFFFFFFFFFFFFFFF000FFFFFFFFFFFFFFFFFFFFFFFFFFFF
310
FFFFFFFFFFFFFFFFFFFFFFFFFFFFFFFFFFFFFFFFFFFFFFFFFFFFFFFFFFFFFFFF
310
FFFFFFFFFFFFFFFFFFFFFFFFFFFFFFFFFFFFFFFFFFFFFFFFFFFFFFFFFFFFFFFF
310
FFFFFFFFFFFFFFFFF000FFFFFFFFFFFFFFFFFFFFFFFFFFFFFFFFFFFFFFFFFFFF
310
FFFFFFFFFFFFFFFFFFFFFFFFFFFFFFFFFFFFFFFFFFFFFFFFFFFFFFFFFFFFFFFF
310
FFFFFFFFFFFFFFFFFFFFFFFFFFFFFFFFFFFFFFFFFFFFFFFFFFFFFFFFFFFFFFFF
310
F000FFFFFFFFFFFFFFFFFFFFFFFFFFFFFFFFFFFFFFFFFFFFFFFFFFFFFFFFFFFF
310
FFFFFFFFFFFFFFFFFFFFFFFFFFFFFFFFFFFFFFFFFFFFFFFFFFFFFFFFFFFFFFFF
310
FFFFFFFFFFFFFFFFFFFFFFFFFFFFFFFFFFFFFFFFFFFFFFFFF000FFFFFFFFFFFF
310
FFFFFFFFFFFFFFFFFFFFFFFFFFFFFFFFFFFFFFFFFFFFFFFFFFFFFFFFFFFFFFFF
310
FFFFFFFFFFFFFFFFFFFFFFFFFFFFFFFFFFFFFFFFFFFFFFFFFFFFFFFFFFFFFFFF
310
FFFFFFFFFFFFFFFFFFFFFFFFFFFFFFFFF000FFFFFFFFFFFFFFFFFFFFFFFFFFFF
310
FFFFFFFFFFFFFFFFFFFFFFFFFFFFFFFFFFFFFFFFFFFFFFFFFFFFFFFFFFFFFFFF
310
FFFFFFFFFFFFFFFFFFFFFFFFFFFFFFFFFFFFFFFFFFFFFFFFFFFFFFFFFFFFFFFF
310
FFFFFFFFFFFFFFFFF000FFFFFFFFFFFFFFFFFFFFFFFFFFFFFFFFFFFFFFFFFFFF
310
FFFFFFFFFFFFFFFFFFFFFFFFFFFFFFFFFFFFFFFFFFFFFFFFFFFFFFFFFFFFFFFF
310
FFFFFFFFFFFFFFFFFFFFFFFFFFFFFFFFFFFFFFFFFFFFFFFFFFFFFFFFFFFFFFFF
310
F000FFFFFFFFFFFFFFFFFFFFFFFFFFFFFFFFFFFFFFFFFFFFFFFFFFFFFFFFFFFF
310
FFFFFFFFFFFFFFFFFFFFFFFFFFFFFFFFFFFFFFFFFFFFFFFFFFFFFFFFFFFFFFFF
310
FFFFFFFFFFFFFFFFFFFFFFFFFFFFFFFFFFFFFFFFFFFFFFFFF000FFFFFFFFFFFF
310
FFFFFFFFFFFFFFFFFFFFFFFFFFFFFFFFFFFFFFFFFFFFFFFFFFFFFFFFFFFFFFFF
310
FFFFFFFFFFFFFFFFFFFFFFFFFFFFFFFFFFFFFFFFFFFFFFFFFFFFFFFFFFFFFFFF
310
FFFFFFFFFFFFFFFFFFFFFFFFFFFFFFFFF000FFFFFFFFFFFFFFFFFFFFFFFFFFFF
310
FFFFFFFFFFFFFFFFFFFFFFFFFFFFFFFFFFFFFFFFFFFFFFFFFFFFFFFFFFFFFFFF
310
FFFFFFFFFFFFFFFFFFFFFFFFFFFFFFFFFFFFFFFFFFFFFFFFFFFFFFFFFFFFFFFF
310
FFFFFFFFFFFFFFFFF000FFFFFFFFFFFFFFFFFFFFFFFFFFFFFFFFFFFFFFFFFFFF
310
FFFFFFFFFFFFFFFFFFFFFFFFFFFFFFFFFFFFFFFFFFFFFFFFFFFFFFFFFFFFFFFF
310
FFFFFFFFFFFFFFFFFFFFFFFFFFFFFFFFFFFFFFFFFFFFFFFFFFFFFFFFFFFFFFFF
310
F000FFFFFFFFFFFFFFFFFFFFFFFFFFFFFFFFFFFFFFFFFFFFFFFFFFFFFFFFFFFF
310
FFFFFFFFFFFFFFFFFFFFFFFFFFFFFFFFFFFFFFFFFFFFFFFFFFFFFFFFFFFFFFFF
310
FFFFFFFFFFFFFFFFFFFFFFFFFFFFFFFFFFFFFFFFFFFFFFFFF000FFFFFFFFFFFF
310
FFFFFFFFFFFFFFFFFFFFFFFFFFFFFFFFFFFFFFFFFFFFFFFFFFFFFFFFFFFFFFFF
310
FFFFFFFFFFFFFFFFFFFFFFFFFFFFFFFFFFFFFFFFFFFFFFFFFFFFFFFFFFFFFFFF
310
FFFFFFFFFFFFFFFFFFFFFFFFFFFFFFFFF000FFFFFFFFFFFFFFFFFFFFFFFFFFFF
310
FFFFFFFFFFFFFFFFFFFFFFFFFFFFFFFFFFFFFFFFFFFFFFFFFFFFFFFFFFFFFFFF
310
FFFFFFFFFFFFFFFFFFFFFFFFFFFFFFFFFFFFFFFFFFFFFFFFFFFFFFFFFFFFFFFF
310
FFFFFFFFFFFFFFFFF000FFFFFFFFFFFFFFFFFFFFFFFFFFFFFFFFFFFFFFFFFFFF
310
FFFFFFFFFFFFFFFFFFFFFFFFFFFFFFFFFFFFFFFFFFFFFFFFFFFFFFFFFFFFFFFF
310
FFFFFFFFFFFFFFFFFFFFFFFFFFFFFFFFFFFFFFFFFFFFFFFFFFFFFFFFFFFFFFFF
310
F000FFFFFFFFFFFFFFFFFFFFFFFFFFFFFFFFFFFFFFFFFFFFFFFFFFFFFFFFFFFF
310
FFFFFFFFFFFFFFFFFFFFFFFFFFFFFFFFFFFFFFFFFFFFFFFFFFFFFFFFFFFFFFFF
310
FFFFFFFFFFFFFFFFFFFFFFFFFFFFFFFFFFFFFFFFFFFFFFFFF000FFFFFFFFFFFF
310
FFFFFFFFFFFFFFFFFFFFFFFFFFFFFFFFFFFFFFFFFFFFFFFFFFFFFFFFFFFFFFFF
310
FFFFFFFFFFFFFFFFFFFFFFFFFFFFFFFFFFFFFFFFFFFFFFFFFFFFFFFFFFFFFFFF
310
FFFFFFFFFFFFFFFFFFFFFFFFFFFFFFFFF0000000000000000000000000000000
310
0000000000000000000000000000000000000000000000000000000000000000
310
0000000000000000000000000000000000000000000000000000000000000000
310
0000000000000000000000000000000000000000000000000000000000000000
310
0000000000000000000000000000000000000000000000000000000000000000
310
0000000000000000000000000000000000000000000000000000000000000000
310
0000000000000000000000000000000000000000000000000000000000000000
310
0000000000000000000000000000000000000000000000000000000000000000
310
0000000000000000000000000000000000000000000000000000000000000000
310
0000000000000000000000000000000000000000000000000000000000000000
310
0000000000000000000000000000000000000000000000000000000000000000
310
0000000000000000000000000000000000000000000000000000000000000000
310
0000000000000000000000000000000000000000000000000000000000000000
310
0000000000000000000000000000000000000000000000000000000000000000
310
0000000000000000000000000000000000000000000000000000000000000000
310
0000000000000000000000000000000000000000000000000000000000000000
  1
OLE
  0
ENDSEC
  0
SECTION
  2
OBJECTS
  0
DICTIONARY
  5
C
330
0
100
AcDbDictionary
281
     1
  3
ACAD_GROUP
350
D
  3
ACAD_LAYOUT
350
1A
  3
ACAD_MLINESTYLE
350
17
  3
ACAD_PLOTSETTINGS
350
19
  3
ACAD_PLOTSTYLENAME
350
E
  3
ACAD_SCALELIST
350
47
  0
DICTIONARY
  5
D
102
{ACAD_REACTORS
330
C
102
}
330
C
100
AcDbDictionary
281
     1
  0
DICTIONARY
  5
1A
102
{ACAD_REACTORS
330
C
102
}
330
C
100
AcDbDictionary
281
     1
  3
Layout1
350
1E
  3
Layout2
350
26
  3
Model
350
22
  0
DICTIONARY
  5
17
102
{ACAD_REACTORS
330
C
102
}
330
C
100
AcDbDictionary
281
     1
  3
Standard
350
18
  0
DICTIONARY
  5
19
102
{ACAD_REACTORS
330
C
102
}
330
C
100
AcDbDictionary
281
     1
  0
ACDBDICTIONARYWDFLT
  5
E
102
{ACAD_REACTORS
330
C
102
}
330
C
100
AcDbDictionary
281
     1
  3
Normal
350
F
100
AcDbDictionaryWithDefault
340
F
  0
DICTIONARY
  5
47
102
{ACAD_REACTORS
330
C
102
}
330
C
100
AcDbDictionary
281
     1
  3
A0
350
48
  3
A1
350
49
  3
A2
350
4A
  3
A3
350
4B
  3
A4
350
4C
  3
A5
350
4D
  3
A6
350
4E
  3
A7
350
4F
  3
A8
350
50
  3
A9
350
51
  3
B0
350
52
  3
B1
350
53
  3
B2
350
54
  3
B3
350
55
  3
B4
350
56
  3
B5
350
57
  3
B6
350
58
  3
B7
350
59
  3
B8
350
5A
  3
B9
350
5B
  3
C0
350
5C
  3
C1
350
5D
  3
C2
350
5E
  3
C3
350
5F
  3
C4
350
60
  3
C5
350
61
  3
C6
350
62
  3
C7
350
63
  3
C8
350
64
  3
C9
350
65
  3
D0
350
66
  3
D1
350
67
  3
D2
350
68
  0
LAYOUT
  5
1E
102
{ACAD_REACTORS
330
1A
102
}
330
1A
100
AcDbPlotSettings
  1

  2
none_device
  4

  6

 40
0.0
 41
0.0
 42
0.0
 43
0.0
 44
0.0
 45
0.0
 46
0.0
 47
0.0
 48
0.0
 49
0.0
140
0.0
141
0.0
142
1.0
143
1.0
 70
   688
 72
     1
 73
     0
 74
     5
  7

 75
    16
147
1.0
148
0.0
149
0.0
100
AcDbLayout
  1
Layout1
 70
     1
 71
     1
 10
0.0
 20
0.0
 11
420.0
 21
297.0
 12
0.0
 22
0.0
 32
0.0
 14
1.0000000000E+20
 24
1.0000000000E+20
 34
1.0000000000E+20
 15
-1.0000000000E+20
 25
-1.0000000000E+20
 35
-1.0000000000E+20
146
0.0
 13
0.0
 23
0.0
 33
0.0
 16
1.0
 26
0.0
 36
0.0
 17
0.0
 27
1.0
 37
0.0
 76
     0
330
1B
  0
LAYOUT
  5
26
102
{ACAD_REACTORS
330
1A
102
}
330
1A
100
AcDbPlotSettings
  1

  2
none_device
  4

  6

 40
0.0
 41
0.0
 42
0.0
 43
0.0
 44
0.0
 45
0.0
 46
0.0
 47
0.0
 48
0.0
 49
0.0
140
0.0
141
0.0
142
1.0
143
1.0
 70
   688
 72
     1
 73
     0
 74
     5
  7

 75
    16
147
1.0
148
0.0
149
0.0
100
AcDbLayout
  1
Layout2
 70
     1
 71
     2
 10
0.0
 20
0.0
 11
0.0
 21
0.0
 12
0.0
 22
0.0
 32
0.0
 14
0.0
 24
0.0
 34
0.0
 15
0.0
 25
0.0
 35
0.0
146
0.0
 13
0.0
 23
0.0
 33
0.0
 16
1.0
 26
0.0
 36
0.0
 17
0.0
 27
1.0
 37
0.0
 76
     0
330
23
  0
LAYOUT
  5
22
102
{ACAD_REACTORS
330
1A
102
}
330
1A
100
AcDbPlotSettings
  1

  2
none_device
  4
Letter_(8.50_x_11.00_Inches)
  6

 40
6.35
 41
6.35
 42
6.35000508
 43
6.35000508
 44
215.9
 45
279.4
 46
0.0
 47
0.0
 48
0.0
 49
0.0
140
0.0
141
0.0
142
1.0
143
1.0
 70
  1712
 72
     1
 73
     0
 74
     0
  7

 75
     0
147
1.0
148
0.0
149
0.0
100
AcDbLayout
  1
Model
 70
     1
 71
     0
 10
0.0
 20
0.0
 11
297.0
 21
210.0
 12
0.0
 22
0.0
 32
0.0
 14
0.0
 24
0.0
 34
0.0
 15
297.0
 25
210.0
 35
0.0
146
0.0
 13
0.0
 23
0.0
 33
0.0
 16
1.0
 26
0.0
 36
0.0
 17
0.0
 27
1.0
 37
0.0
 76
     0
330
1F
331
29
  0
MLINESTYLE
  5
18
102
{ACAD_REACTORS
330
17
102
}
330
17
100
AcDbMlineStyle
  2
Standard
 70
     0
  3

 62
   256
 51
90.0
 52
90.0
 71
     2
 49
0.5
 62
   256
  6
BYLAYER
 49
-0.5
 62
   256
  6
BYLAYER
  0
ACDBPLACEHOLDER
  5
F
102
{ACAD_REACTORS
330
E
102
}
330
E
  0
SCALE
  5
48
102
{ACAD_REACTORS
330
47
102
}
330
47
100
AcDbScale
 70
     0
300
1:1
140
1.0
141
1.0
290
     1
  0
SCALE
  5
49
102
{ACAD_REACTORS
330
47
102
}
330
47
100
AcDbScale
 70
     0
300
1:2
140
1.0
141
2.0
290
     0
  0
SCALE
  5
4A
102
{ACAD_REACTORS
330
47
102
}
330
47
100
AcDbScale
 70
     0
300
1:4
140
1.0
141
4.0
290
     0
  0
SCALE
  5
4B
102
{ACAD_REACTORS
330
47
102
}
330
47
100
AcDbScale
 70
     0
300
1:5
140
1.0
141
5.0
290
     0
  0
SCALE
  5
4C
102
{ACAD_REACTORS
330
47
102
}
330
47
100
AcDbScale
 70
     0
300
1:8
140
1.0
141
8.0
290
     0
  0
SCALE
  5
4D
102
{ACAD_REACTORS
330
47
102
}
330
47
100
AcDbScale
 70
     0
300
1:10
140
1.0
141
10.0
290
     0
  0
SCALE
  5
4E
102
{ACAD_REACTORS
330
47
102
}
330
47
100
AcDbScale
 70
     0
300
1:16
140
1.0
141
16.0
290
     0
  0
SCALE
  5
4F
102
{ACAD_REACTORS
330
47
102
}
330
47
100
AcDbScale
 70
     0
300
1:20
140
1.0
141
20.0
290
     0
  0
SCALE
  5
50
102
{ACAD_REACTORS
330
47
102
}
330
47
100
AcDbScale
 70
     0
300
1:30
140
1.0
141
30.0
290
     0
  0
SCALE
  5
51
102
{ACAD_REACTORS
330
47
102
}
330
47
100
AcDbScale
 70
     0
300
1:40
140
1.0
141
40.0
290
     0
  0
SCALE
  5
52
102
{ACAD_REACTORS
330
47
102
}
330
47
100
AcDbScale
 70
     0
300
1:50
140
1.0
141
50.0
290
     0
  0
SCALE
  5
53
102
{ACAD_REACTORS
330
47
102
}
330
47
100
AcDbScale
 70
     0
300
1:100
140
1.0
141
100.0
290
     0
  0
SCALE
  5
54
102
{ACAD_REACTORS
330
47
102
}
330
47
100
AcDbScale
 70
     0
300
2:1
140
2.0
141
1.0
290
     0
  0
SCALE
  5
55
102
{ACAD_REACTORS
330
47
102
}
330
47
100
AcDbScale
 70
     0
300
4:1
140
4.0
141
1.0
290
     0
  0
SCALE
  5
56
102
{ACAD_REACTORS
330
47
102
}
330
47
100
AcDbScale
 70
     0
300
8:1
140
8.0
141
1.0
290
     0
  0
SCALE
  5
57
102
{ACAD_REACTORS
330
47
102
}
330
47
100
AcDbScale
 70
     0
300
10:1
140
10.0
141
1.0
290
     0
  0
SCALE
  5
58
102
{ACAD_REACTORS
330
47
102
}
330
47
100
AcDbScale
 70
     0
300
100:1
140
100.0
141
1.0
290
     0
  0
SCALE
  5
59
102
{ACAD_REACTORS
330
47
102
}
330
47
100
AcDbScale
 70
     0
300
1/128" = 1'-0"
140
0.0078125
141
12.0
290
     0
  0
SCALE
  5
5A
102
{ACAD_REACTORS
330
47
102
}
330
47
100
AcDbScale
 70
     0
300
1/64" = 1'-0"
140
0.015625
141
12.0
290
     0
  0
SCALE
  5
5B
102
{ACAD_REACTORS
330
47
102
}
330
47
100
AcDbScale
 70
     0
300
1/32" = 1'-0"
140
0.03125
141
12.0
290
     0
  0
SCALE
  5
5C
102
{ACAD_REACTORS
330
47
102
}
330
47
100
AcDbScale
 70
     0
300
1/16" = 1'-0"
140
0.0625
141
12.0
290
     0
  0
SCALE
  5
5D
102
{ACAD_REACTORS
330
47
102
}
330
47
100
AcDbScale
 70
     0
300
3/32" = 1'-0"
140
0.09375
141
12.0
290
     0
  0
SCALE
  5
5E
102
{ACAD_REACTORS
330
47
102
}
330
47
100
AcDbScale
 70
     0
300
1/8" = 1'-0"
140
0.125
141
12.0
290
     0
  0
SCALE
  5
5F
102
{ACAD_REACTORS
330
47
102
}
330
47
100
AcDbScale
 70
     0
300
3/16" = 1'-0"
140
0.1875
141
12.0
290
     0
  0
SCALE
  5
60
102
{ACAD_REACTORS
330
47
102
}
330
47
100
AcDbScale
 70
     0
300
1/4" = 1'-0"
140
0.25
141
12.0
290
     0
  0
SCALE
  5
61
102
{ACAD_REACTORS
330
47
102
}
330
47
100
AcDbScale
 70
     0
300
3/8" = 1'-0"
140
0.375
141
12.0
290
     0
  0
SCALE
  5
62
102
{ACAD_REACTORS
330
47
102
}
330
47
100
AcDbScale
 70
     0
300
1/2" = 1'-0"
140
0.5
141
12.0
290
     0
  0
SCALE
  5
63
102
{ACAD_REACTORS
330
47
102
}
330
47
100
AcDbScale
 70
     0
300
3/4" = 1'-0"
140
0.75
141
12.0
290
     0
  0
SCALE
  5
64
102
{ACAD_REACTORS
330
47
102
}
330
47
100
AcDbScale
 70
     0
300
1" = 1'-0"
140
1.0
141
12.0
290
     0
  0
SCALE
  5
65
102
{ACAD_REACTORS
330
47
102
}
330
47
100
AcDbScale
 70
     0
300
1-1/2" = 1'-0"
140
1.5
141
12.0
290
     0
  0
SCALE
  5
66
102
{ACAD_REACTORS
330
47
102
}
330
47
100
AcDbScale
 70
     0
300
3" = 1'-0"
140
3.0
141
12.0
290
     0
  0
SCALE
  5
67
102
{ACAD_REACTORS
330
47
102
}
330
47
100
AcDbScale
 70
     0
300
6" = 1'-0"
140
6.0
141
12.0
290
     0
  0
SCALE
  5
68
102
{ACAD_REACTORS
330
47
102
}
330
47
100
AcDbScale
 70
     0
300
1'-0" = 1'-0"
140
12.0
141
12.0
290
     0
  0
ENDSEC
  0
EOF
