  0
SECTION
  2
HEADER
  9
$ACADVER
  1
AC1015
  9
$ACADMAINTVER
 70
     6
  9
$DWGCODEPAGE
  3
ANSI_1252
  9
$INSBASE
 10
0.0
 20
0.0
 30
0.0
  9
$EXTMIN
 10
0.0
 20
0.0
 30
0.0
  9
$EXTMAX
 10
297.0
 20
210.0
 30
0.0
  9
$LIMMIN
 10
0.0
 20
0.0
  9
$LIMMAX
 10
297.0
 20
210.0
  9
$ORTHOMODE
 70
     0
  9
$REGENMODE
 70
     1
  9
$FILLMODE
 70
     1
  9
$QTEXTMODE
 70
     0
  9
$MIRRTEXT
 70
     1
  9
$LTSCALE
 40
1.0
  9
$ATTMODE
 70
     1
  9
$TEXTSIZE
 40
2.0
  9
$TRACEWID
 40
1.0
  9
$TEXTSTYLE
  7
Standard
  9
$CLAYER
  8
0
  9
$CELTYPE
  6
ByLayer
  9
$CECOLOR
 62
   256
  9
$CELTSCALE
 40
1.0
  9
$DISPSILH
 70
     0
  9
$DIMSCALE
 40
1.0
  9
$DIMASZ
 40
3.0
  9
$DIMEXO
 40
0.0
  9
$DIMDLI
 40
3.75
  9
$DIMRND
 40
0.0
  9
$DIMDLE
 40
0.0
  9
$DIMEXE
 40
1.0
  9
$DIMTP
 40
0.0
  9
$DIMTM
 40
0.0
  9
$DIMTXT
 40
2.0
  9
$DIMCEN
 40
2.5
  9
$DIMTSZ
 40
0.0
  9
$DIMTOL
 70
     0
  9
$DIMLIM
 70
     0
  9
$DIMTIH
 70
     1
  9
$DIMTOH
 70
     1
  9
$DIMSE1
 70
     0
  9
$DIMSE2
 70
     0
  9
$DIMTAD
 70
     1
  9
$DIMZIN
 70
     0
  9
$DIMBLK
  1

  9
$DIMASO
 70
     1
  9
$DIMSHO
 70
     1
  9
$DIMPOST
  1

  9
$DIMAPOST
  1

  9
$DIMALT
 70
     0
  9
$DIMALTD
 70
     3
  9
$DIMALTF
 40
0.0393700787
  9
$DIMLFAC
 40
1.0
  9
$DIMTOFL
 70
     1
  9
$DIMTVP
 40
0.0
  9
$DIMTIX
 70
     0
  9
$DIMSOXD
 70
     0
  9
$DIMSAH
 70
     0
  9
$DIMBLK1
  1

  9
$DIMBLK2
  1

  9
$DIMSTYLE
  2
ISO-25
  9
$DIMCLRD
 70
     0
  9
$DIMCLRE
 70
     0
  9
$DIMCLRT
 70
     0
  9
$DIMTFAC
 40
1.0
  9
$DIMGAP
 40
1.524
  9
$DIMJUST
 70
     0
  9
$DIMSD1
 70
     0
  9
$DIMSD2
 70
     0
  9
$DIMTOLJ
 70
     0
  9
$DIMTZIN
 70
     0
  9
$DIMALTZ
 70
     0
  9
$DIMALTTZ
 70
     0
  9
$DIMUPT
 70
     0
  9
$DIMDEC
 70
     2
  9
$DIMTDEC
 70
     2
  9
$DIMALTU
 70
     2
  9
$DIMALTTD
 70
     3
  9
$DIMTXSTY
  7
Standard
  9
$DIMAUNIT
 70
     0
  9
$DIMADEC
 70
     0
  9
$DIMALTRND
 40
0.0
  9
$DIMAZIN
 70
     0
  9
$DIMDSEP
 70
    44
  9
$DIMATFIT
 70
     3
  9
$DIMFRAC
 70
     0
  9
$DIMLDRBLK
  1

  9
$DIMLUNIT
 70
     2
  9
$DIMLWD
 70
    -2
  9
$DIMLWE
 70
    -2
  9
$DIMTMOVE
 70
     0
  9
$LUNITS
 70
     2
  9
$LUPREC
 70
     2
  9
$SKETCHINC
 40
1.0
  9
$FILLETRAD
 40
10.0
  9
$AUNITS
 70
     0
  9
$AUPREC
 70
     0
  9
$MENU
  1
.
  9
$ELEVATION
 40
0.0
  9
$PELEVATION
 40
0.0
  9
$THICKNESS
 40
0.0
  9
$LIMCHECK
 70
     0
  9
$CHAMFERA
 40
10.0
  9
$CHAMFERB
 40
10.0
  9
$CHAMFERC
 40
20.0
  9
$CHAMFERD
 40
0.0
  9
$SKPOLY
 70
     0
  9
$TDCREATE
 40
2455358.660650463
  9
$TDUCREATE
 40
2455358.57731713
  9
$TDUPDATE
 40
2455358.660650474
  9
$TDUUPDATE
 40
2455358.577317141
  9
$TDINDWG
 40
0.0000000116
  9
$TDUSRTIMER
 40
0.0000000116
  9
$USRTIMER
 70
     1
  9
$ANGBASE
 50
0.0
  9
$ANGDIR
 70
     0
  9
$PDMODE
 70
     0
  9
$PDSIZE
 40
-1.0
  9
$PLINEWID
 40
0.0
  9
$SPLFRAME
 70
     0
  9
$SPLINETYPE
 70
     6
  9
$SPLINESEGS
 70
     8
  9
$HANDSEED
  5
2D6
  9
$SURFTAB1
 70
     6
  9
$SURFTAB2
 70
     6
  9
$SURFTYPE
 70
     6
  9
$SURFU
 70
     6
  9
$SURFV
 70
     6
  9
$UCSBASE
  2

  9
$UCSNAME
  2

  9
$UCSORG
 10
0.0
 20
0.0
 30
0.0
  9
$UCSXDIR
 10
1.0
 20
0.0
 30
0.0
  9
$UCSYDIR
 10
0.0
 20
1.0
 30
0.0
  9
$UCSORTHOREF
  2

  9
$UCSORTHOVIEW
 70
     0
  9
$UCSORGTOP
 10
0.0
 20
0.0
 30
0.0
  9
$UCSORGBOTTOM
 10
0.0
 20
0.0
 30
0.0
  9
$UCSORGLEFT
 10
0.0
 20
0.0
 30
0.0
  9
$UCSORGRIGHT
 10
0.0
 20
0.0
 30
0.0
  9
$UCSORGFRONT
 10
0.0
 20
0.0
 30
0.0
  9
$UCSORGBACK
 10
0.0
 20
0.0
 30
0.0
  9
$PUCSBASE
  2

  9
$PUCSNAME
  2

  9
$PUCSORG
 10
0.0
 20
0.0
 30
0.0
  9
$PUCSXDIR
 10
1.0
 20
0.0
 30
0.0
  9
$PUCSYDIR
 10
0.0
 20
1.0
 30
0.0
  9
$PUCSORTHOREF
  2

  9
$PUCSORTHOVIEW
 70
     0
  9
$PUCSORGTOP
 10
0.0
 20
0.0
 30
0.0
  9
$PUCSORGBOTTOM
 10
0.0
 20
0.0
 30
0.0
  9
$PUCSORGLEFT
 10
0.0
 20
0.0
 30
0.0
  9
$PUCSORGRIGHT
 10
0.0
 20
0.0
 30
0.0
  9
$PUCSORGFRONT
 10
0.0
 20
0.0
 30
0.0
  9
$PUCSORGBACK
 10
0.0
 20
0.0
 30
0.0
  9
$USERI1
 70
     0
  9
$USERI2
 70
     0
  9
$USERI3
 70
     0
  9
$USERI4
 70
     0
  9
$USERI5
 70
     0
  9
$USERR1
 40
0.0
  9
$USERR2
 40
0.0
  9
$USERR3
 40
0.0
  9
$USERR4
 40
0.0
  9
$USERR5
 40
0.0
  9
$WORLDVIEW
 70
     1
  9
$SHADEDGE
 70
     3
  9
$SHADEDIF
 70
    70
  9
$TILEMODE
 70
     1
  9
$MAXACTVP
 70
    64
  9
$PINSBASE
 10
0.0
 20
0.0
 30
0.0
  9
$PLIMCHECK
 70
     0
  9
$PEXTMIN
 10
1.0000000000E+20
 20
1.0000000000E+20
 30
1.0000000000E+20
  9
$PEXTMAX
 10
-1.0000000000E+20
 20
-1.0000000000E+20
 30
-1.0000000000E+20
  9
$PLIMMIN
 10
0.0
 20
0.0
  9
$PLIMMAX
 10
420.0
 20
297.0
  9
$UNITMODE
 70
     0
  9
$VISRETAIN
 70
     1
  9
$PLINEGEN
 70
     0
  9
$PSLTSCALE
 70
     1
  9
$TREEDEPTH
 70
  3020
  9
$CMLSTYLE
  2
Standard
  9
$CMLJUST
 70
     0
  9
$CMLSCALE
 40
20.0
  9
$PROXYGRAPHICS
 70
     1
  9
$MEASUREMENT
 70
     1
  9
$CELWEIGHT
370
    -1
  9
$ENDCAPS
280
     0
  9
$JOINSTYLE
280
     0
  9
$LWDISPLAY
290
     1
  9
$INSUNITS
 70
     4
  9
$HYPERLINKBASE
  1

  9
$STYLESHEET
  1

  9
$XEDIT
290
     1
  9
$CEPSNTYPE
380
     0
  9
$PSTYLEMODE
290
     1
  9
$FINGERPRINTGUID
  2
{20BFEE80-7CA0-470B-A800-9D77BECA3675}
  9
$VERSIONGUID
  2
{FAEB1C32-E019-11D5-929B-00C0DF256EC4}
  9
$EXTNAMES
290
     1
  9
$PSVPSCALE
 40
0.0
  9
$OLESTARTUP
290
     0
  0
ENDSEC
  0
SECTION
  2
CLASSES
  0
CLASS
  1
ACDBDICTIONARYWDFLT
  2
AcDbDictionaryWithDefault
  3
ObjectDBX Classes
 90
        0
280
     0
281
     0
  0
CLASS
  1
VISUALSTYLE
  2
AcDbVisualStyle
  3
ObjectDBX Classes
 90
     4095
280
     0
281
     0
  0
CLASS
  1
DICTIONARYVAR
  2
AcDbDictionaryVar
  3
ObjectDBX Classes
 90
        0
280
     0
281
     0
  0
CLASS
  1
ACDBPLACEHOLDER
  2
AcDbPlaceHolder
  3
ObjectDBX Classes
 90
        0
280
     0
281
     0
  0
CLASS
  1
LAYOUT
  2
AcDbLayout
  3
ObjectDBX Classes
 90
        0
280
     0
281
     0
  0
ENDSEC
  0
SECTION
  2
TABLES
  0
TABLE
  2
VPORT
  5
8
330
0
100
AcDbSymbolTable
 70
     1
  0
VPORT
  5
29
330
8
100
AcDbSymbolTableRecord
100
AcDbViewportTableRecord
  2
*Active
 70
     0
 10
0.0
 20
0.0
 11
1.0
 21
1.0
 12
148.5
 22
105.0
 13
0.0
 23
0.0
 14
10.0
 24
10.0
 15
10.0
 25
10.0
 16
0.0
 26
0.0
 36
1.0
 17
0.0
 27
0.0
 37
0.0
 40
210.0
 41
1.4142857143
 42
50.0
 43
0.0
 44
0.0
 50
0.0
 51
0.0
 71
     0
 72
  2000
 73
     1
 74
     3
 75
     0
 76
     0
 77
     0
 78
     0
281
     0
 65
     1
110
0.0
120
0.0
130
0.0
111
1.0
121
0.0
131
0.0
112
0.0
122
1.0
132
0.0
 79
     0
146
0.0
  0
ENDTAB
  0
TABLE
  2
LTYPE
  5
5
330
0
100
AcDbSymbolTable
 70
     6
  0
LTYPE
  5
14
330
5
100
AcDbSymbolTableRecord
100
AcDbLinetypeTableRecord
  2
ByBlock
 70
     0
  3

 72
    65
 73
     0
 40
0.0
  0
LTYPE
  5
15
330
5
100
AcDbSymbolTableRecord
100
AcDbLinetypeTableRecord
  2
ByLayer
 70
     0
  3

 72
    65
 73
     0
 40
0.0
  0
LTYPE
  5
16
330
5
100
AcDbSymbolTableRecord
100
AcDbLinetypeTableRecord
  2
Continuous
 70
     0
  3
Solid line
 72
    65
 73
     0
 40
0.0
  0
LTYPE
  5
3B
330
5
100
AcDbSymbolTableRecord
100
AcDbLinetypeTableRecord
  2
HIDDEN
 70
     0
  3
Hidden __ __ __ __ __ __ __ __ __ __ __ __ __ __
 72
    65
 73
     2
 40
1.905
 49
1.27
 74
     0
 49
-0.635
 74
     0
  0
LTYPE
  5
3C
330
5
100
AcDbSymbolTableRecord
100
AcDbLinetypeTableRecord
  2
PHANTOM
 70
     0
  3
Phantom ______  __  __  ______  __  __  ______
 72
    65
 73
     6
 40
12.7
 49
6.35
 74
     0
 49
-1.27
 74
     0
 49
1.27
 74
     0
 49
-1.27
 74
     0
 49
1.27
 74
     0
 49
-1.27
 74
     0
  0
LTYPE
  5
3D
330
5
100
AcDbSymbolTableRecord
100
AcDbLinetypeTableRecord
  2
CENTER
 70
     0
  3
Center ____ _ ____ _ ____ _ ____ _ ____ _ ____
 72
    65
 73
     4
 40
10.16
 49
6.35
 74
     0
 49
-1.27
 74
     0
 49
1.27
 74
     0
 49
-1.27
 74
     0
  0
LTYPE
  5
3E
330
5
100
AcDbSymbolTableRecord
100
AcDbLinetypeTableRecord
  2
CENTERX2
 70
     0
  3
Center (2x) ________  __  ________  __  _____
 72
    65
 73
     4
 40
20.32
 49
12.7
 74
     0
 49
-2.54
 74
     0
 49
2.54
 74
     0
 49
-2.54
 74
     0
  0
LTYPE
  5
3F
330
5
100
AcDbSymbolTableRecord
100
AcDbLinetypeTableRecord
  2
DOT2
 70
     0
  3
Dot (.5x) ........................................
 72
    65
 73
     2
 40
0.635
 49
0.0
 74
     0
 49
-0.635
 74
     0
  0
ENDTAB
  0
TABLE
  2
LAYER
  5
2
330
0
100
AcDbSymbolTable
 70
     5
  0
LAYER
  5
10
330
2
100
AcDbSymbolTableRecord
100
AcDbLayerTableRecord
  2
0
 70
     0
 62
     7
  6
Continuous
370
    -3
390
F
  0
LAYER
  5
40
330
2
100
AcDbSymbolTableRecord
100
AcDbLayerTableRecord
  2
FORMAT
 70
     0
 62
     7
  6
Continuous
370
    -3
390
F
  0
LAYER
  5
41
330
2
100
AcDbSymbolTableRecord
100
AcDbLayerTableRecord
  2
VERMASSUNG
 70
     0
 62
     7
  6
Continuous
370
    -3
390
F
  0
LAYER
  5
42
330
2
100
AcDbSymbolTableRecord
100
AcDbLayerTableRecord
  2
KOPF_DÜNN
 70
     0
 62
     7
  6
Continuous
370
    -3
390
F
  0
LAYER
  5
43
330
2
100
AcDbSymbolTableRecord
100
AcDbLayerTableRecord
  2
KOPF_DICK
 70
     0
 62
     7
  6
Continuous
370
    15
390
F
  0
ENDTAB
  0
TABLE
  2
STYLE
  5
3
330
0
100
AcDbSymbolTable
 70
     3
  0
STYLE
  5
11
330
3
100
AcDbSymbolTableRecord
100
AcDbTextStyleTableRecord
  2
Standard
 70
     0
 40
0.0
 41
1.0
 50
0.0
 71
     0
 42
2.5
  3
txt
  4

  0
STYLE
  5
44
330
3
100
AcDbSymbolTableRecord
100
AcDbTextStyleTableRecord
  2
SLDTEXTSTYLE0
 70
     0
 40
0.0
 41
0.7
 50
0.0
 71
     0
 42
0.2
  3
TXT
  4

  0
STYLE
  5
48
330
3
100
AcDbSymbolTableRecord
100
AcDbTextStyleTableRecord
  2
SLDTEXTSTYLE1
 70
     0
 40
0.0
 41
0.6384615385
 50
0.0
 71
     0
 42
0.2
  3
TXT
  4

  0
ENDTAB
  0
TABLE
  2
VIEW
  5
6
330
0
100
AcDbSymbolTable
 70
     0
  0
ENDTAB
  0
TABLE
  2
UCS
  5
7
330
0
100
AcDbSymbolTable
 70
     0
  0
ENDTAB
  0
TABLE
  2
APPID
  5
9
330
0
100
AcDbSymbolTable
 70
     1
  0
APPID
  5
12
330
9
100
AcDbSymbolTableRecord
100
AcDbRegAppTableRecord
  2
ACAD
 70
     0
  0
ENDTAB
  0
TABLE
  2
DIMSTYLE
  5
A
330
0
100
AcDbSymbolTable
 70
     3
100
AcDbDimStyleTable
  0
DIMSTYLE
105
27
330
A
100
AcDbSymbolTableRecord
100
AcDbDimStyleTableRecord
  2
ISO-25
 70
     0
 41
2.5
 42
0.625
 43
3.75
 44
1.25
 73
     0
 74
     0
 77
     1
 78
     8
140
2.5
141
2.5
143
0.0393700787
147
0.625
171
     3
172
     1
271
     2
272
     2
274
     3
278
    44
283
     0
284
     8
340
11
  0
DIMSTYLE
105
16D
102
{ACAD_REACTORS
330
16C
330
177
330
181
330
18B
330
195
330
19F
330
1A9
330
1B4
330
1BF
330
1CB
102
}
330
A
100
AcDbSymbolTableRecord
100
AcDbDimStyleTableRecord
  2
SLDDIMSTYLE0
 70
     0
 41
3.0
 44
0.0
 45
0.000000001
 73
     0
 74
     0
 77
     1
 78
    12
140
2.0
147
0.5
173
     1
271
     2
272
     3
284
    12
340
44
  0
DIMSTYLE
105
1D6
102
{ACAD_REACTORS
330
1D5
102
}
330
A
100
AcDbSymbolTableRecord
100
AcDbDimStyleTableRecord
  2
SLDDIMSTYLE1
 70
     0
 41
3.0
 44
0.0
 45
0.000000001
 73
     0
 74
     0
 77
     1
 78
    12
140
2.0
147
0.5
173
     1
271
     2
272
     3
284
    12
340
44
  0
ENDTAB
  0
TABLE
  2
BLOCK_RECORD
  5
1
330
0
100
AcDbSymbolTable
 70
    12
  0
BLOCK_RECORD
  5
1F
330
1
100
AcDbSymbolTableRecord
100
AcDbBlockTableRecord
  2
*Model_Space
340
22
  0
BLOCK_RECORD
  5
1B
330
1
100
AcDbSymbolTableRecord
100
AcDbBlockTableRecord
  2
*Paper_Space
340
1E
  0
BLOCK_RECORD
  5
23
330
1
100
AcDbSymbolTableRecord
100
AcDbBlockTableRecord
  2
*Paper_Space0
340
26
  0
BLOCK_RECORD
  5
16E
330
1
100
AcDbSymbolTableRecord
100
AcDbBlockTableRecord
  2
*D1
340
0
  0
BLOCK_RECORD
  5
178
330
1
100
AcDbSymbolTableRecord
100
AcDbBlockTableRecord
  2
*D2
340
0
  0
BLOCK_RECORD
  5
182
330
1
100
AcDbSymbolTableRecord
100
AcDbBlockTableRecord
  2
*D3
340
0
  0
BLOCK_RECORD
  5
18C
330
1
100
AcDbSymbolTableRecord
100
AcDbBlockTableRecord
  2
*D4
340
0
  0
BLOCK_RECORD
  5
196
330
1
100
AcDbSymbolTableRecord
100
AcDbBlockTableRecord
  2
*D5
340
0
  0
BLOCK_RECORD
  5
1A0
330
1
100
AcDbSymbolTableRecord
100
AcDbBlockTableRecord
  2
*D6
340
0
  0
BLOCK_RECORD
  5
1AA
330
1
100
AcDbSymbolTableRecord
100
AcDbBlockTableRecord
  2
*D7
340
0
  0
BLOCK_RECORD
  5
1B5
330
1
100
AcDbSymbolTableRecord
100
AcDbBlockTableRecord
  2
*D8
340
0
  0
BLOCK_RECORD
  5
1C0
330
1
100
AcDbSymbolTableRecord
100
AcDbBlockTableRecord
  2
*D9
340
0
  0
BLOCK_RECORD
  5
1CC
330
1
100
AcDbSymbolTableRecord
100
AcDbBlockTableRecord
  2
*D10
340
0
  0
BLOCK_RECORD
  5
1D7
330
1
100
AcDbSymbolTableRecord
100
AcDbBlockTableRecord
  2
*D11
340
0
  0
ENDTAB
  0
ENDSEC
  0
SECTION
  2
BLOCKS
  0
BLOCK
  5
20
330
1F
100
AcDbEntity
  8
0
100
AcDbBlockBegin
  2
*Model_Space
 70
     0
 10
0.0
 20
0.0
 30
0.0
  3
*Model_Space
  1

  0
ENDBLK
  5
21
330
1F
100
AcDbEntity
  8
0
100
AcDbBlockEnd
  0
BLOCK
  5
1C
330
1B
100
AcDbEntity
 67
     1
  8
0
100
AcDbBlockBegin
  2
*Paper_Space
 70
     0
 10
0.0
 20
0.0
 30
0.0
  3
*Paper_Space
  1

  0
ENDBLK
  5
1D
330
1B
100
AcDbEntity
 67
     1
  8
0
100
AcDbBlockEnd
  0
BLOCK
  5
24
330
23
100
AcDbEntity
  8
0
100
AcDbBlockBegin
  2
*Paper_Space0
 70
     0
 10
0.0
 20
0.0
 30
0.0
  3
*Paper_Space0
  1

  0
ENDBLK
  5
25
330
23
100
AcDbEntity
  8
0
100
AcDbBlockEnd
  0
BLOCK
  5
16F
330
16E
100
AcDbEntity
  8
0
100
AcDbBlockBegin
  2
*D1
 70
     1
 10
0.0
 20
0.0
 30
0.0
  3
*D1
  1

  0
SOLID
  5
171
330
16E
100
AcDbEntity
  8
VERMASSUNG
100
AcDbTrace
 10
93.7456139986
 20
153.7990599016
 30
0.0
 11
96.7456139986
 21
153.3490599016
 31
0.0
 12
96.7456139986
 22
154.2490599016
 32
0.0
 13
96.7456139986
 23
154.2490599016
 33
0.0
  0
SOLID
  5
172
330
16E
100
AcDbEntity
  8
VERMASSUNG
100
AcDbTrace
 10
151.7456139986
 20
153.7990599016
 30
0.0
 11
148.7456139986
 21
154.2490599016
 31
0.0
 12
148.7456139986
 22
153.3490599016
 32
0.0
 13
148.7456139986
 23
153.3490599016
 33
0.0
  0
LINE
  5
173
330
16E
100
AcDbEntity
  8
VERMASSUNG
100
AcDbLine
 10
93.7456139986
 20
149.2151309577
 30
0.0
 11
93.7456139986
 21
154.7990599016
 31
0.0
  0
LINE
  5
174
330
16E
100
AcDbEntity
  8
VERMASSUNG
100
AcDbLine
 10
151.7456139986
 20
134.7151309577
 30
0.0
 11
151.7456139986
 21
154.7990599016
 31
0.0
  0
LINE
  5
175
330
16E
100
AcDbEntity
  8
VERMASSUNG
100
AcDbLine
 10
93.7456139986
 20
153.7990599016
 30
0.0
 11
151.7456139986
 21
153.7990599016
 31
0.0
  0
MTEXT
  5
176
330
16E
100
AcDbEntity
  8
VERMASSUNG
100
AcDbMText
 10
121.3462556006
 20
156.3771954975
 30
0.0
 40
2.0
 41
0.0
 71
     1
 72
     1
  1
58
  7
SLDTEXTSTYLE0
 73
     1
 44
1.0
  0
ENDBLK
  5
170
330
16E
100
AcDbEntity
  8
0
100
AcDbBlockEnd
  0
BLOCK
  5
179
330
178
100
AcDbEntity
  8
0
100
AcDbBlockBegin
  2
*D2
 70
     1
 10
0.0
 20
0.0
 30
0.0
  3
*D2
  1

  0
SOLID
  5
17B
330
178
100
AcDbEntity
  8
VERMASSUNG
100
AcDbTrace
 10
33.7456139986
 20
165.7990599016
 30
0.0
 11
36.7456139986
 21
165.3490599016
 31
0.0
 12
36.7456139986
 22
166.2490599016
 32
0.0
 13
36.7456139986
 23
166.2490599016
 33
0.0
  0
SOLID
  5
17C
330
178
100
AcDbEntity
  8
VERMASSUNG
100
AcDbTrace
 10
151.7456139986
 20
165.7990599016
 30
0.0
 11
148.7456139986
 21
166.2490599016
 31
0.0
 12
148.7456139986
 22
165.3490599016
 32
0.0
 13
148.7456139986
 23
165.3490599016
 33
0.0
  0
LINE
  5
17D
330
178
100
AcDbEntity
  8
VERMASSUNG
100
AcDbLine
 10
33.7456139986
 20
138.0074689502
 30
0.0
 11
33.7456139986
 21
166.7990599016
 31
0.0
  0
LINE
  5
17E
330
178
100
AcDbEntity
  8
VERMASSUNG
100
AcDbLine
 10
151.7456139986
 20
134.7151309577
 30
0.0
 11
151.7456139986
 21
166.7990599016
 31
0.0
  0
LINE
  5
17F
330
178
100
AcDbEntity
  8
VERMASSUNG
100
AcDbLine
 10
33.7456139986
 20
165.7990599016
 30
0.0
 11
151.7456139986
 21
165.7990599016
 31
0.0
  0
MTEXT
  5
180
330
178
100
AcDbEntity
  8
VERMASSUNG
100
AcDbMText
 10
91.0464738904
 20
168.3771954975
 30
0.0
 40
2.0
 41
0.0
 71
     1
 72
     1
  1
118
  7
SLDTEXTSTYLE0
 73
     1
 44
1.0
  0
ENDBLK
  5
17A
330
178
100
AcDbEntity
  8
0
100
AcDbBlockEnd
  0
BLOCK
  5
183
330
182
100
AcDbEntity
  8
0
100
AcDbBlockBegin
  2
*D3
 70
     1
 10
0.0
 20
0.0
 30
0.0
  3
*D3
  1

  0
SOLID
  5
185
330
182
100
AcDbEntity
  8
VERMASSUNG
100
AcDbTrace
 10
71.7456139986
 20
159.7990599016
 30
0.0
 11
74.7456139986
 21
159.3490599016
 31
0.0
 12
74.7456139986
 22
160.2490599016
 32
0.0
 13
74.7456139986
 23
160.2490599016
 33
0.0
  0
SOLID
  5
186
330
182
100
AcDbEntity
  8
VERMASSUNG
100
AcDbTrace
 10
151.7456139986
 20
159.7990599016
 30
0.0
 11
148.7456139986
 21
160.2490599016
 31
0.0
 12
148.7456139986
 22
159.3490599016
 32
0.0
 13
148.7456139986
 23
159.3490599016
 33
0.0
  0
LINE
  5
187
330
182
100
AcDbEntity
  8
VERMASSUNG
100
AcDbLine
 10
71.7456139986
 20
148.9151309577
 30
0.0
 11
71.7456139986
 21
160.7990599016
 31
0.0
  0
LINE
  5
188
330
182
100
AcDbEntity
  8
VERMASSUNG
100
AcDbLine
 10
151.7456139986
 20
134.7151309577
 30
0.0
 11
151.7456139986
 21
160.7990599016
 31
0.0
  0
LINE
  5
189
330
182
100
AcDbEntity
  8
VERMASSUNG
100
AcDbLine
 10
71.7456139986
 20
159.7990599016
 30
0.0
 11
151.7456139986
 21
159.7990599016
 31
0.0
  0
MTEXT
  5
18A
330
182
100
AcDbEntity
  8
VERMASSUNG
100
AcDbMText
 10
110.3462556006
 20
162.3771954975
 30
0.0
 40
2.0
 41
0.0
 71
     1
 72
     1
  1
80
  7
SLDTEXTSTYLE0
 73
     1
 44
1.0
  0
ENDBLK
  5
184
330
182
100
AcDbEntity
  8
0
100
AcDbBlockEnd
  0
BLOCK
  5
18D
330
18C
100
AcDbEntity
  8
0
100
AcDbBlockBegin
  2
*D4
 70
     1
 10
0.0
 20
0.0
 30
0.0
  3
*D4
  1

  0
SOLID
  5
18F
330
18C
100
AcDbEntity
  8
VERMASSUNG
100
AcDbTrace
 10
151.7456139986
 20
90.3640619652
 30
0.0
 11
148.7456139986
 21
90.8140619652
 31
0.0
 12
148.7456139986
 22
89.9140619652
 32
0.0
 13
148.7456139986
 23
89.9140619652
 33
0.0
  0
SOLID
  5
190
330
18C
100
AcDbEntity
  8
VERMASSUNG
100
AcDbTrace
 10
143.7456139986
 20
90.3640619652
 30
0.0
 11
146.7456139986
 21
89.9140619652
 31
0.0
 12
146.7456139986
 22
90.8140619652
 32
0.0
 13
146.7456139986
 23
90.8140619652
 33
0.0
  0
LINE
  5
191
330
18C
100
AcDbEntity
  8
VERMASSUNG
100
AcDbLine
 10
151.7456139986
 20
100.7151309577
 30
0.0
 11
151.7456139986
 21
89.3640619652
 31
0.0
  0
LINE
  5
192
330
18C
100
AcDbEntity
  8
VERMASSUNG
100
AcDbLine
 10
143.7456139986
 20
120.5885405657
 30
0.0
 11
143.7456139986
 21
89.3640619652
 31
0.0
  0
LINE
  5
193
330
18C
100
AcDbEntity
  8
VERMASSUNG
100
AcDbLine
 10
151.7456139986
 20
90.3640619652
 30
0.0
 11
143.7456139986
 21
90.3640619652
 31
0.0
  0
MTEXT
  5
194
330
18C
100
AcDbEntity
  8
VERMASSUNG
100
AcDbMText
 10
147.0465004255
 20
92.9421975611
 30
0.0
 40
2.0
 41
0.0
 71
     1
 72
     1
  1
8
  7
SLDTEXTSTYLE0
 73
     1
 44
1.0
  0
ENDBLK
  5
18E
330
18C
100
AcDbEntity
  8
0
100
AcDbBlockEnd
  0
BLOCK
  5
197
330
196
100
AcDbEntity
  8
0
100
AcDbBlockBegin
  2
*D5
 70
     1
 10
0.0
 20
0.0
 30
0.0
  3
*D5
  1

  0
SOLID
  5
199
330
196
100
AcDbEntity
  8
VERMASSUNG
100
AcDbTrace
 10
143.7456139986
 20
90.3640619652
 30
0.0
 11
140.7456139986
 21
90.8140619652
 31
0.0
 12
140.7456139986
 22
89.9140619652
 32
0.0
 13
140.7456139986
 23
89.9140619652
 33
0.0
  0
SOLID
  5
19A
330
196
100
AcDbEntity
  8
VERMASSUNG
100
AcDbTrace
 10
133.7456139986
 20
90.3640619652
 30
0.0
 11
136.7456139986
 21
89.9140619652
 31
0.0
 12
136.7456139986
 22
90.8140619652
 32
0.0
 13
136.7456139986
 23
90.8140619652
 33
0.0
  0
LINE
  5
19B
330
196
100
AcDbEntity
  8
VERMASSUNG
100
AcDbLine
 10
143.7456139986
 20
120.5885405657
 30
0.0
 11
143.7456139986
 21
89.3640619652
 31
0.0
  0
LINE
  5
19C
330
196
100
AcDbEntity
  8
VERMASSUNG
100
AcDbLine
 10
133.7456139986
 20
120.5885405657
 30
0.0
 11
133.7456139986
 21
89.3640619652
 31
0.0
  0
LINE
  5
19D
330
196
100
AcDbEntity
  8
VERMASSUNG
100
AcDbLine
 10
143.7456139986
 20
90.3640619652
 30
0.0
 11
133.7456139986
 21
90.3640619652
 31
0.0
  0
MTEXT
  5
19E
330
196
100
AcDbEntity
  8
VERMASSUNG
100
AcDbMText
 10
137.5464871579
 20
92.9421975611
 30
0.0
 40
2.0
 41
0.0
 71
     1
 72
     1
  1
10
  7
SLDTEXTSTYLE0
 73
     1
 44
1.0
  0
ENDBLK
  5
198
330
196
100
AcDbEntity
  8
0
100
AcDbBlockEnd
  0
BLOCK
  5
1A1
330
1A0
100
AcDbEntity
  8
0
100
AcDbBlockBegin
  2
*D6
 70
     1
 10
0.0
 20
0.0
 30
0.0
  3
*D6
  1

  0
SOLID
  5
1A3
330
1A0
100
AcDbEntity
  8
VERMASSUNG
100
AcDbTrace
 10
133.7456139986
 20
90.3640619652
 30
0.0
 11
130.7456139986
 21
90.8140619652
 31
0.0
 12
130.7456139986
 22
89.9140619652
 32
0.0
 13
130.7456139986
 23
89.9140619652
 33
0.0
  0
SOLID
  5
1A4
330
1A0
100
AcDbEntity
  8
VERMASSUNG
100
AcDbTrace
 10
123.7456139986
 20
90.3640619652
 30
0.0
 11
126.7456139986
 21
89.9140619652
 31
0.0
 12
126.7456139986
 22
90.8140619652
 32
0.0
 13
126.7456139986
 23
90.8140619652
 33
0.0
  0
LINE
  5
1A5
330
1A0
100
AcDbEntity
  8
VERMASSUNG
100
AcDbLine
 10
133.7456139986
 20
120.5885405657
 30
0.0
 11
133.7456139986
 21
89.3640619652
 31
0.0
  0
LINE
  5
1A6
330
1A0
100
AcDbEntity
  8
VERMASSUNG
100
AcDbLine
 10
123.7456139986
 20
120.5885405657
 30
0.0
 11
123.7456139986
 21
89.3640619652
 31
0.0
  0
LINE
  5
1A7
330
1A0
100
AcDbEntity
  8
VERMASSUNG
100
AcDbLine
 10
133.7456139986
 20
90.3640619652
 30
0.0
 11
123.7456139986
 21
90.3640619652
 31
0.0
  0
MTEXT
  5
1A8
330
1A0
100
AcDbEntity
  8
VERMASSUNG
100
AcDbMText
 10
127.5464871579
 20
92.9421975611
 30
0.0
 40
2.0
 41
0.0
 71
     1
 72
     1
  1
10
  7
SLDTEXTSTYLE0
 73
     1
 44
1.0
  0
ENDBLK
  5
1A2
330
1A0
100
AcDbEntity
  8
0
100
AcDbBlockEnd
  0
BLOCK
  5
1AB
330
1AA
100
AcDbEntity
  8
0
100
AcDbBlockBegin
  2
*D7
 70
     1
 10
0.0
 20
0.0
 30
0.0
  3
*D7
  1

  0
SOLID
  5
1AD
330
1AA
100
AcDbEntity
  8
VERMASSUNG
100
AcDbTrace
 10
160.4037000785
 20
111.7151309577
 30
0.0
 11
160.8537000785
 21
114.7151309577
 31
0.0
 12
159.9537000785
 22
114.7151309577
 32
0.0
 13
159.9537000785
 23
114.7151309577
 33
0.0
  0
SOLID
  5
1AE
330
1AA
100
AcDbEntity
  8
VERMASSUNG
100
AcDbTrace
 10
160.4037000785
 20
123.7151309577
 30
0.0
 11
159.9537000785
 21
120.7151309577
 31
0.0
 12
160.8537000785
 22
120.7151309577
 32
0.0
 13
160.8537000785
 23
120.7151309577
 33
0.0
  0
LINE
  5
1AF
330
1AA
100
AcDbEntity
  8
VERMASSUNG
100
AcDbLine
 10
151.4456139986
 20
111.7151309577
 30
0.0
 11
161.4037000785
 21
111.7151309577
 31
0.0
  0
LINE
  5
1B0
330
1AA
100
AcDbEntity
  8
VERMASSUNG
100
AcDbLine
 10
151.4456139986
 20
123.7151309577
 30
0.0
 11
161.4037000785
 21
123.7151309577
 31
0.0
  0
LINE
  5
1B1
330
1AA
100
AcDbEntity
  8
VERMASSUNG
100
AcDbLine
 10
160.4037000785
 20
111.7151309577
 30
0.0
 11
160.4037000785
 21
123.7151309577
 31
0.0
  0
MTEXT
  5
1B2
330
1AA
100
AcDbEntity
  8
VERMASSUNG
100
AcDbMText
 10
157.8255645408
 20
114.7116575974
 30
0.0
 40
2.0
 41
0.0
 71
     1
 72
     1
  1
%%c
  7
SLDTEXTSTYLE0
 11
6.123233995736766E-17
 21
1.0
 31
0.0
 73
     1
 44
1.0
  0
MTEXT
  5
1B3
330
1AA
100
AcDbEntity
  8
VERMASSUNG
100
AcDbMText
 10
157.8255644825
 20
118.3203506367
 30
0.0
 40
2.0
 41
0.0
 71
     1
 72
     1
  1
12
  7
SLDTEXTSTYLE0
 11
6.123233995736766E-17
 21
1.0
 31
0.0
 73
     1
 44
1.0
  0
ENDBLK
  5
1AC
330
1AA
100
AcDbEntity
  8
0
100
AcDbBlockEnd
  0
BLOCK
  5
1B6
330
1B5
100
AcDbEntity
  8
0
100
AcDbBlockBegin
  2
*D8
 70
     1
 10
0.0
 20
0.0
 30
0.0
  3
*D8
  1

  0
SOLID
  5
1B8
330
1B5
100
AcDbEntity
  8
VERMASSUNG
100
AcDbTrace
 10
167.7456139986
 20
135.7151309577
 30
0.0
 11
167.2956139986
 21
132.7151309577
 31
0.0
 12
168.1956139986
 22
132.7151309577
 32
0.0
 13
168.1956139986
 23
132.7151309577
 33
0.0
  0
SOLID
  5
1B9
330
1B5
100
AcDbEntity
  8
VERMASSUNG
100
AcDbTrace
 10
167.7456139986
 20
99.7151309577
 30
0.0
 11
168.1956139986
 21
102.7151309577
 31
0.0
 12
167.2956139986
 22
102.7151309577
 32
0.0
 13
167.2956139986
 23
102.7151309577
 33
0.0
  0
LINE
  5
1BA
330
1B5
100
AcDbEntity
  8
VERMASSUNG
100
AcDbLine
 10
120.2456139986
 20
135.7151309577
 30
0.0
 11
168.7456139986
 21
135.7151309577
 31
0.0
  0
LINE
  5
1BB
330
1B5
100
AcDbEntity
  8
VERMASSUNG
100
AcDbLine
 10
150.7456139986
 20
99.7151309577
 30
0.0
 11
168.7456139986
 21
99.7151309577
 31
0.0
  0
LINE
  5
1BC
330
1B5
100
AcDbEntity
  8
VERMASSUNG
100
AcDbLine
 10
167.7456139986
 20
135.7151309577
 30
0.0
 11
167.7456139986
 21
99.7151309577
 31
0.0
  0
MTEXT
  5
1BD
330
1B5
100
AcDbEntity
  8
VERMASSUNG
100
AcDbMText
 10
165.1674784608
 20
114.51142604
 30
0.0
 40
2.0
 41
0.0
 71
     1
 72
     1
  1
%%c
  7
SLDTEXTSTYLE0
 11
-7.044195017643634E-15
 21
1.0
 31
0.0
 73
     1
 44
1.0
  0
MTEXT
  5
1BE
330
1B5
100
AcDbEntity
  8
VERMASSUNG
100
AcDbMText
 10
165.1674784026
 20
118.1201190794
 30
0.0
 40
2.0
 41
0.0
 71
     1
 72
     1
  1
36
  7
SLDTEXTSTYLE0
 11
-7.044195017643634E-15
 21
1.0
 31
0.0
 73
     1
 44
1.0
  0
ENDBLK
  5
1B7
330
1B5
100
AcDbEntity
  8
0
100
AcDbBlockEnd
  0
BLOCK
  5
1C1
330
1C0
100
AcDbEntity
  8
0
100
AcDbBlockBegin
  2
*D9
 70
     1
 10
0.0
 20
0.0
 30
0.0
  3
*D9
  1

  0
SOLID
  5
1C3
330
1C0
100
AcDbEntity
  8
VERMASSUNG
100
AcDbTrace
 10
20.3853494717
 20
149.2151309577
 30
0.0
 11
19.9353494717
 21
146.2151309577
 31
0.0
 12
20.8353494717
 22
146.2151309577
 32
0.0
 13
20.8353494717
 23
146.2151309577
 33
0.0
  0
SOLID
  5
1C4
330
1C0
100
AcDbEntity
  8
VERMASSUNG
100
AcDbTrace
 10
20.3853494717
 20
86.2151309577
 30
0.0
 11
20.8353494717
 21
89.2151309577
 31
0.0
 12
19.9353494717
 22
89.2151309577
 32
0.0
 13
19.9353494717
 23
89.2151309577
 33
0.0
  0
LINE
  5
1C5
330
1C0
100
AcDbEntity
  8
VERMASSUNG
100
AcDbLine
 10
72.0456139986
 20
149.2151309577
 30
0.0
 11
19.3853494717
 21
149.2151309577
 31
0.0
  0
LINE
  5
1C6
330
1C0
100
AcDbEntity
  8
VERMASSUNG
100
AcDbLine
 10
72.0456139986
 20
86.2151309577
 30
0.0
 11
19.3853494717
 21
86.2151309577
 31
0.0
  0
LINE
  5
1C7
330
1C0
100
AcDbEntity
  8
VERMASSUNG
100
AcDbLine
 10
20.3853494717
 20
149.2151309577
 30
0.0
 11
20.3853494717
 21
86.2151309577
 31
0.0
  0
MTEXT
  5
1C8
330
1C0
100
AcDbEntity
  8
VERMASSUNG
100
AcDbMText
 10
17.6072142155
 20
112.2115912598
 30
0.0
 40
2.0
 41
0.0
 71
     1
 72
     1
  1
PSC
  7
SLDTEXTSTYLE0
 11
-7.044195017643634E-15
 21
1.0
 31
0.0
 73
     1
 44
1.0
  0
MTEXT
  5
1C9
330
1C0
100
AcDbEntity
  8
VERMASSUNG
100
AcDbMText
 10
17.8072141668
 20
116.8115908962
 30
0.0
 40
2.0
 41
0.0
 71
     1
 72
     1
  1
%%c
  7
SLDTEXTSTYLE0
 11
-7.044195017643634E-15
 21
1.0
 31
0.0
 73
     1
 44
1.0
  0
MTEXT
  5
1CA
330
1C0
100
AcDbEntity
  8
VERMASSUNG
100
AcDbMText
 10
17.8072138757
 20
120.4199538596
 30
0.0
 40
2.0
 41
0.0
 71
     1
 72
     1
  1
63
  7
SLDTEXTSTYLE0
 11
-7.044195017643634E-15
 21
1.0
 31
0.0
 73
     1
 44
1.0
  0
ENDBLK
  5
1C2
330
1C0
100
AcDbEntity
  8
0
100
AcDbBlockEnd
  0
BLOCK
  5
1CD
330
1CC
100
AcDbEntity
  8
0
100
AcDbBlockBegin
  2
*D10
 70
     1
 10
0.0
 20
0.0
 30
0.0
  3
*D10
  1

  0
SOLID
  5
1CF
330
1CC
100
AcDbEntity
  8
VERMASSUNG
100
AcDbTrace
 10
33.7456139986
 20
76.2151309577
 30
0.0
 11
36.7456139986
 21
75.7651309577
 31
0.0
 12
36.7456139986
 22
76.6651309577
 32
0.0
 13
36.7456139986
 23
76.6651309577
 33
0.0
  0
SOLID
  5
1D0
330
1CC
100
AcDbEntity
  8
VERMASSUNG
100
AcDbTrace
 10
117.7456139986
 20
76.2151309577
 30
0.0
 11
114.7456139986
 21
76.6651309577
 31
0.0
 12
114.7456139986
 22
75.7651309577
 32
0.0
 13
114.7456139986
 23
75.7651309577
 33
0.0
  0
LINE
  5
1D1
330
1CC
100
AcDbEntity
  8
VERMASSUNG
100
AcDbLine
 10
33.7456139986
 20
97.4227929652
 30
0.0
 11
33.7456139986
 21
75.2151309577
 31
0.0
  0
LINE
  5
1D2
330
1CC
100
AcDbEntity
  8
VERMASSUNG
100
AcDbLine
 10
117.7456139986
 20
110.7151309577
 30
0.0
 11
117.7456139986
 21
75.2151309577
 31
0.0
  0
LINE
  5
1D3
330
1CC
100
AcDbEntity
  8
VERMASSUNG
100
AcDbLine
 10
33.7456139986
 20
76.2151309577
 30
0.0
 11
117.7456139986
 21
76.2151309577
 31
0.0
  0
MTEXT
  5
1D4
330
1CC
100
AcDbEntity
  8
VERMASSUNG
100
AcDbMText
 10
74.2467054478
 20
78.7932665537
 30
0.0
 40
2.0
 41
0.0
 71
     1
 72
     1
  1
84
  7
SLDTEXTSTYLE0
 73
     1
 44
1.0
  0
ENDBLK
  5
1CE
330
1CC
100
AcDbEntity
  8
0
100
AcDbBlockEnd
  0
BLOCK
  5
1D8
330
1D7
100
AcDbEntity
  8
0
100
AcDbBlockBegin
  2
*D11
 70
     1
 10
0.0
 20
0.0
 30
0.0
  3
*D11
  1

  0
SOLID
  5
1DA
330
1D7
100
AcDbEntity
  8
VERMASSUNG
100
AcDbTrace
 10
26.3853494717
 20
110.7151309577
 30
0.0
 11
26.8353494717
 21
113.7151309577
 31
0.0
 12
25.9353494717
 22
113.7151309577
 32
0.0
 13
25.9353494717
 23
113.7151309577
 33
0.0
  0
SOLID
  5
1DB
330
1D7
100
AcDbEntity
  8
VERMASSUNG
100
AcDbTrace
 10
26.3853494717
 20
124.7151309577
 30
0.0
 11
25.9353494717
 21
121.7151309577
 31
0.0
 12
26.8353494717
 22
121.7151309577
 32
0.0
 13
26.8353494717
 23
121.7151309577
 33
0.0
  0
LINE
  5
1DC
330
1D7
100
AcDbEntity
  8
VERMASSUNG
100
AcDbLine
 10
88.9473352367
 20
110.7151309577
 30
0.0
 11
25.3853494717
 21
110.7151309577
 31
0.0
  0
LINE
  5
1DD
330
1D7
100
AcDbEntity
  8
VERMASSUNG
100
AcDbLine
 10
88.9473352367
 20
124.7151309577
 30
0.0
 11
25.3853494717
 21
124.7151309577
 31
0.0
  0
LINE
  5
1DE
330
1D7
100
AcDbEntity
  8
VERMASSUNG
100
AcDbLine
 10
26.3853494717
 20
110.7151309577
 30
0.0
 11
26.3853494717
 21
124.7151309577
 31
0.0
  0
MTEXT
  5
1DF
330
1D7
100
AcDbEntity
  8
VERMASSUNG
100
AcDbMText
 10
23.8072139339
 20
112.5136354734
 30
0.0
 40
2.0
 41
0.0
 71
     1
 72
     1
  1
%%c
  7
SLDTEXTSTYLE0
 11
6.123233995736766E-17
 21
1.0
 31
0.0
 73
     1
 44
1.0
  0
MTEXT
  5
1E0
330
1D7
100
AcDbEntity
  8
VERMASSUNG
100
AcDbMText
 10
23.8072138757
 20
116.1223285128
 30
0.0
 40
2.0
 41
0.0
 71
     1
 72
     1
  1
14
  7
SLDTEXTSTYLE0
 11
6.123233995736766E-17
 21
1.0
 31
0.0
 73
     1
 44
1.0
  0
MTEXT
  5
1E1
330
1D7
100
AcDbEntity
  8
VERMASSUNG
100
AcDbMText
 10
24.302422691
 20
119.9210718438
 30
0.0
 40
1.5
 41
0.0
 71
     1
 72
     1
  1
min.
  7
SLDTEXTSTYLE0
 11
6.123233995736766E-17
 21
1.0
 31
0.0
 73
     1
 44
1.0
  0
ENDBLK
  5
1D9
330
1D7
100
AcDbEntity
  8
0
100
AcDbBlockEnd
  0
ENDSEC
  0
SECTION
  2
ENTITIES
  0
MTEXT
  5
45
330
1F
100
AcDbEntity
  8
KOPF_DÜNN
100
AcDbMText
 10
13.8892156294
 20
23.8442973028
 30
0.0
 40
3.0
 41
0.0
 71
     1
 72
     1
  1
PS6.B12.K01.080
  7
SLDTEXTSTYLE0
 73
     1
 44
1.0
  0
MTEXT
  5
46
330
1F
100
AcDbEntity
  8
VERMASSUNG
100
AcDbMText
 10
13.9329988022
 20
28.8834360957
 30
0.0
 40
3.0
 41
0.0
 71
     1
 72
     1
  1
Bohrstangenhalter / Boring bar holder
  7
SLDTEXTSTYLE0
 73
     1
 44
1.0
  0
MTEXT
  5
47
330
1F
100
AcDbEntity
  8
VERMASSUNG
100
AcDbMText
 10
98.8601118557
 20
13.8365368761
 30
0.0
 40
2.0
 41
0.0
 71
     1
 72
     1
  1
Datum: 08.03.2010
  7
SLDTEXTSTYLE0
 73
     1
 44
1.0
  0
MTEXT
  5
49
330
1F
100
AcDbEntity
  8
VERMASSUNG
100
AcDbMText
 10
13.933048693
 20
18.0482802738
 30
0.0
 40
2.0
 41
0.0
 71
     1
 72
     1
  1
PSC 63 / ø 12
  7
SLDTEXTSTYLE1
 73
     1
 44
1.0
  0
MTEXT
  5
4A
330
1F
100
AcDbEntity
  8
VERMASSUNG
100
AcDbMText
 10
13.9808475933
 20
13.9090974274
 30
0.0
 40
2.0
 41
0.0
 71
     1
 72
     1
  1
Gewicht: 1151g
  7
SLDTEXTSTYLE0
 73
     1
 44
1.0
  0
ARC
  5
4B
330
1F
100
AcDbEntity
  8
0
  6
Continuous
 62
     7
370
    15
100
AcDbCircle
 10
72.0456139986
 20
86.5151309577
 30
0.0
 40
0.3000000000000114
100
AcDbArc
 50
180.0
 51
270.0
  0
ARC
  5
4C
330
1F
100
AcDbEntity
  8
0
  6
Continuous
 62
     7
370
    15
100
AcDbCircle
 10
72.0456139986
 20
148.9151309577
 30
0.0
 40
0.3000000000000114
100
AcDbArc
 50
90.0
 51
180.0
  0
SPLINE
  5
4D
330
1F
100
AcDbEntity
  8
0
  6
Continuous
 62
     7
370
    15
100
AcDbSpline
210
0.0
220
0.0
230
1.0
 70
    24
 71
     1
 72
     4
 73
     2
 74
     0
 42
0.00000001
 43
0.00000001
 40
0.0
 40
0.0
 40
1.0
 40
1.0
 10
72.04561401284782
 20
86.215130451065
 30
0.0
 10
93.7456138793893
 20
86.215130451065
 30
0.0
  0
SPLINE
  5
4E
330
1F
100
AcDbEntity
  8
0
  6
Continuous
 62
     7
370
    15
100
AcDbSpline
210
0.0
220
0.0
230
1.0
 70
    24
 71
     1
 72
     4
 73
     2
 74
     0
 42
0.00000001
 43
0.00000001
 40
0.0
 40
0.0
 40
1.0
 40
1.0
 10
93.7456138793893
 20
149.215131464344
 30
0.0
 10
72.04561401284782
 20
149.215131464344
 30
0.0
  0
LWPOLYLINE
  5
4F
330
1F
100
AcDbEntity
  8
0
  6
Continuous
 62
     7
370
    15
100
AcDbPolyline
 90
        3
 70
   128
 43
0.0
 10
71.5456140037
 20
95.1753104356
 10
71.6710689388
 20
95.1070091007
 10
71.7456139986
 20
95.0542701659
  0
LWPOLYLINE
  5
50
330
1F
100
AcDbEntity
  8
0
  6
Continuous
 62
     7
370
    15
100
AcDbPolyline
 90
        3
 70
   128
 43
0.0
 10
71.7456139986
 20
140.3759917495
 10
71.6710689388
 20
140.3232528148
 10
71.5456140037
 20
140.2549514798
  0
ARC
  5
51
330
1F
100
AcDbEntity
  8
0
  6
Continuous
 62
     7
370
    15
100
AcDbCircle
 10
97.7456139986
 20
95.7151309577
 30
0.0
 40
4.000000000000014
100
AcDbArc
 50
90.0
 51
180.0
  0
ARC
  5
52
330
1F
100
AcDbEntity
  8
0
  6
Continuous
 62
     7
370
    15
100
AcDbCircle
 10
97.7456139986
 20
139.7151309577
 30
0.0
 40
3.999999999999986
100
AcDbArc
 50
180.0
 51
270.0
  0
SPLINE
  5
53
330
1F
100
AcDbEntity
  8
0
  6
Continuous
 62
     7
370
    15
100
AcDbSpline
210
0.0
220
0.0
230
1.0
 70
    24
 71
     1
 72
     4
 73
     2
 74
     0
 42
0.00000001
 43
0.00000001
 40
0.0
 40
0.0
 40
1.0
 40
1.0
 10
120.2560127143331
 20
135.7151301828441
 30
0.0
 10
97.74561453504039
 20
135.7151301828441
 30
0.0
  0
SPLINE
  5
54
330
1F
100
AcDbEntity
  8
0
  6
Continuous
 62
     7
370
    15
100
AcDbSpline
210
0.0
220
0.0
230
1.0
 70
    24
 71
     1
 72
     4
 73
     2
 74
     0
 42
0.00000001
 43
0.00000001
 40
0.0
 40
0.0
 40
1.0
 40
1.0
 10
130.2560106281705
 20
135.7151301828441
 30
0.0
 10
127.2027701501317
 20
135.7151301828441
 30
0.0
  0
SPLINE
  5
55
330
1F
100
AcDbEntity
  8
0
  6
Continuous
 62
     7
370
    15
100
AcDbSpline
210
0.0
220
0.0
230
1.0
 70
    24
 71
     1
 72
     4
 73
     2
 74
     0
 42
0.00000001
 43
0.00000001
 40
0.0
 40
0.0
 40
1.0
 40
1.0
 10
140.2560122672982
 20
135.7151301828441
 30
0.0
 10
137.2027717892594
 20
135.7151301828441
 30
0.0
  0
SPLINE
  5
56
330
1F
100
AcDbEntity
  8
0
  6
Continuous
 62
     7
370
    15
100
AcDbSpline
210
0.0
220
0.0
230
1.0
 70
    24
 71
     1
 72
     4
 73
     2
 74
     0
 42
0.00000001
 43
0.00000001
 40
0.0
 40
0.0
 40
1.0
 40
1.0
 10
150.7456176344819
 20
135.7151301828441
 30
0.0
 10
147.2027697030969
 20
135.7151301828441
 30
0.0
  0
SPLINE
  5
57
330
1F
100
AcDbEntity
  8
0
  6
Continuous
 62
     7
370
    15
100
AcDbSpline
210
0.0
220
0.0
230
1.0
 70
    24
 71
     1
 72
     4
 73
     2
 74
     0
 42
0.00000001
 43
0.00000001
 40
0.0
 40
0.0
 40
1.0
 40
1.0
 10
97.74561453504039
 20
99.71513173256486
 30
0.0
 10
150.7456176344819
 20
99.71513173256486
 30
0.0
  0
ARC
  5
58
330
1F
100
AcDbEntity
  8
0
  6
Continuous
 62
     7
370
    15
100
AcDbCircle
 10
150.7456139986
 20
134.7151309577
 30
0.0
 40
1.000000000000028
100
AcDbArc
 50
0.0
 51
90.0
  0
ARC
  5
59
330
1F
100
AcDbEntity
  8
0
  6
Continuous
 62
     7
370
    15
100
AcDbCircle
 10
150.7456139986
 20
100.7151309577
 30
0.0
 40
1.0
100
AcDbArc
 50
270.0
 51
0.0
  0
LINE
  5
5A
330
1F
100
AcDbEntity
  8
0
  6
Continuous
 62
     7
370
    15
100
AcDbLine
 10
143.7456108992
 20
135.7151301828
 30
0.0
 11
147.1456162993
 21
135.7151301828
 31
0.0
  0
LINE
  5
5B
330
1F
100
AcDbEntity
  8
0
  6
Continuous
 62
     7
370
    15
100
AcDbLine
 10
140.3456129496
 20
135.7151301828
 30
0.0
 11
143.7456108992
 21
135.7151301828
 31
0.0
  0
LINE
  5
5C
330
1F
100
AcDbEntity
  8
0
  6
Continuous
 62
     7
370
    15
100
AcDbLine
 10
133.7456129853
 20
135.7151301828
 30
0.0
 11
137.1456109349
 21
135.7151301828
 31
0.0
  0
LINE
  5
5D
330
1F
100
AcDbEntity
  8
0
  6
Continuous
 62
     7
370
    15
100
AcDbLine
 10
130.3456150357
 20
135.7151301828
 30
0.0
 11
133.7456129853
 21
135.7151301828
 31
0.0
  0
LINE
  5
5E
330
1F
100
AcDbEntity
  8
0
  6
Continuous
 62
     7
370
    15
100
AcDbLine
 10
135.7456170384
 20
118.8698314847
 30
0.0
 11
133.7456129853
 21
120.0245320116
 31
0.0
  0
LINE
  5
5F
330
1F
100
AcDbEntity
  8
0
  6
Continuous
 62
     7
370
    15
100
AcDbLine
 10
131.7456126575
 20
118.8698314847
 30
0.0
 11
133.7456129853
 21
120.0245320116
 31
0.0
  0
LINE
  5
60
330
1F
100
AcDbEntity
  8
0
  6
Continuous
 62
     7
370
    15
100
AcDbLine
 10
131.7456126575
 20
116.5604304307
 30
0.0
 11
131.7456126575
 21
118.8698314847
 31
0.0
  0
LINE
  5
61
330
1F
100
AcDbEntity
  8
0
  6
Continuous
 62
     7
370
    15
100
AcDbLine
 10
131.7456126575
 20
116.5604304307
 30
0.0
 11
133.7456129853
 21
115.4057299038
 31
0.0
  0
LINE
  5
62
330
1F
100
AcDbEntity
  8
0
  6
Continuous
 62
     7
370
    15
100
AcDbLine
 10
135.7456170384
 20
116.5604304307
 30
0.0
 11
133.7456129853
 21
115.4057299038
 31
0.0
  0
LINE
  5
63
330
1F
100
AcDbEntity
  8
0
  6
Continuous
 62
     7
370
    15
100
AcDbLine
 10
135.7456170384
 20
116.5604304307
 30
0.0
 11
135.7456170384
 21
118.8698314847
 31
0.0
  0
CIRCLE
  5
64
330
1F
100
AcDbEntity
  8
0
  6
Continuous
 62
     7
370
    15
100
AcDbCircle
 10
133.7456139986
 20
117.7151309577
 30
0.0
 40
3.400000000000077
  0
LINE
  5
65
330
1F
100
AcDbEntity
  8
0
  6
Continuous
 62
     7
370
    15
100
AcDbLine
 10
145.7456149523
 20
118.8698314847
 30
0.0
 11
143.7456108992
 21
120.0245320116
 31
0.0
  0
LINE
  5
66
330
1F
100
AcDbEntity
  8
0
  6
Continuous
 62
     7
370
    15
100
AcDbLine
 10
141.7456142966
 20
118.8698314847
 30
0.0
 11
143.7456108992
 21
120.0245320116
 31
0.0
  0
LINE
  5
67
330
1F
100
AcDbEntity
  8
0
  6
Continuous
 62
     7
370
    15
100
AcDbLine
 10
141.7456142966
 20
116.5604304307
 30
0.0
 11
141.7456142966
 21
118.8698314847
 31
0.0
  0
LINE
  5
68
330
1F
100
AcDbEntity
  8
0
  6
Continuous
 62
     7
370
    15
100
AcDbLine
 10
141.7456142966
 20
116.5604304307
 30
0.0
 11
143.7456108992
 21
115.4057299038
 31
0.0
  0
LINE
  5
69
330
1F
100
AcDbEntity
  8
0
  6
Continuous
 62
     7
370
    15
100
AcDbLine
 10
145.7456149523
 20
116.5604304307
 30
0.0
 11
143.7456108992
 21
115.4057299038
 31
0.0
  0
LINE
  5
6A
330
1F
100
AcDbEntity
  8
0
  6
Continuous
 62
     7
370
    15
100
AcDbLine
 10
145.7456149523
 20
116.5604304307
 30
0.0
 11
145.7456149523
 21
118.8698314847
 31
0.0
  0
CIRCLE
  5
6B
330
1F
100
AcDbEntity
  8
0
  6
Continuous
 62
     7
370
    15
100
AcDbCircle
 10
143.7456139986
 20
117.7151309577
 30
0.0
 40
3.400000000000077
  0
LINE
  5
6C
330
1F
100
AcDbEntity
  8
0
  6
Continuous
 62
     7
370
    15
100
AcDbLine
 10
123.7456150715
 20
135.7151301828
 30
0.0
 11
127.1456130211
 21
135.7151301828
 31
0.0
  0
LINE
  5
6D
330
1F
100
AcDbEntity
  8
0
  6
Continuous
 62
     7
370
    15
100
AcDbLine
 10
120.3456133966
 20
135.7151301828
 30
0.0
 11
123.7456150715
 21
135.7151301828
 31
0.0
  0
CIRCLE
  5
6E
330
1F
100
AcDbEntity
  8
0
  6
Continuous
 62
     7
370
    15
100
AcDbCircle
 10
123.7456139986
 20
117.7151309577
 30
0.0
 40
3.399999999999991
  0
LINE
  5
6F
330
1F
100
AcDbEntity
  8
0
  6
Continuous
 62
     7
370
    15
100
AcDbLine
 10
125.7456153993
 20
118.8698314847
 30
0.0
 11
123.7456150715
 21
120.0245320116
 31
0.0
  0
LINE
  5
70
330
1F
100
AcDbEntity
  8
0
  6
Continuous
 62
     7
370
    15
100
AcDbLine
 10
121.7456147437
 20
118.8698314847
 30
0.0
 11
123.7456150715
 21
120.0245320116
 31
0.0
  0
LINE
  5
71
330
1F
100
AcDbEntity
  8
0
  6
Continuous
 62
     7
370
    15
100
AcDbLine
 10
121.7456147437
 20
116.5604304307
 30
0.0
 11
121.7456147437
 21
118.8698314847
 31
0.0
  0
LINE
  5
72
330
1F
100
AcDbEntity
  8
0
  6
Continuous
 62
     7
370
    15
100
AcDbLine
 10
121.7456147437
 20
116.5604304307
 30
0.0
 11
123.7456150715
 21
115.4057299038
 31
0.0
  0
LINE
  5
73
330
1F
100
AcDbEntity
  8
0
  6
Continuous
 62
     7
370
    15
100
AcDbLine
 10
125.7456153993
 20
116.5604304307
 30
0.0
 11
123.7456150715
 21
115.4057299038
 31
0.0
  0
LINE
  5
74
330
1F
100
AcDbEntity
  8
0
  6
Continuous
 62
     7
370
    15
100
AcDbLine
 10
125.7456153993
 20
116.5604304307
 30
0.0
 11
125.7456153993
 21
118.8698314847
 31
0.0
  0
LINE
  5
75
330
1F
100
AcDbEntity
  8
0
  6
Continuous
 62
     7
370
    15
100
AcDbLine
 10
71.7456139986
 20
86.5151318041
 30
0.0
 11
71.7456139986
 21
148.9151301113
 31
0.0
  0
SPLINE
  5
76
330
1F
100
AcDbEntity
  8
0
  6
Continuous
 62
     7
370
    15
100
AcDbSpline
210
0.0
220
0.0
230
1.0
 70
     8
 71
     3
 72
    12
 73
     8
 74
     0
 42
0.00000001
 43
0.00000001
 40
0.0
 40
0.0
 40
0.0
 40
0.0
 40
0.2500000000000009
 40
0.2500000000000009
 40
0.5000000000000018
 40
0.5000000000000018
 40
1.0
 40
1.0
 40
1.0
 40
1.0
 10
82.27337081216503
 20
127.1031973890403
 30
0.0
 10
82.21029077367167
 20
127.1031973890403
 30
0.0
 10
82.15114215149028
 20
127.1285617082553
 30
0.0
 10
82.05266960142117
 20
127.2027265686282
 30
0.0
 10
82.01363298943646
 20
127.2492469091823
 30
0.0
 10
81.91373652265742
 20
127.3993892520276
 30
0.0
 10
81.87131564159078
 20
127.5110824589997
 30
0.0
 10
81.8403581102728
 20
127.6245002783895
 30
0.0
  0
LINE
  5
77
330
1F
100
AcDbEntity
  8
0
  6
Continuous
 62
     7
370
    15
100
AcDbLine
 10
85.2178572108
 20
127.103197786
 30
0.0
 11
82.2733709951
 21
127.103197786
 31
0.0
  0
SPLINE
  5
78
330
1F
100
AcDbEntity
  8
0
  6
Continuous
 62
     7
370
    15
100
AcDbSpline
210
0.0
220
0.0
230
1.0
 70
     8
 71
     3
 72
    12
 73
     8
 74
     0
 42
0.00000001
 43
0.00000001
 40
0.0
 40
0.0
 40
0.0
 40
0.0
 40
0.5000000000000018
 40
0.5000000000000018
 40
0.7500000000000009
 40
0.7500000000000009
 40
1.0
 40
1.0
 40
1.0
 40
1.0
 10
85.65086988692437
 20
127.6245002783894
 30
0.0
 10
85.62014764500526
 20
127.5119444789803
 30
0.0
 10
85.57731043047012
 20
127.3991866192407
 30
0.0
 10
85.47788340627032
 20
127.2496457334443
 30
0.0
 10
85.43813121145367
 20
127.2023530017375
 30
0.0
 10
85.34008975459544
 20
127.128616708416
 30
0.0
 10
85.28053369900798
 20
127.1031973890403
 30
0.0
 10
85.21785718503214
 20
127.1031973890403
 30
0.0
  0
ELLIPSE
  5
79
330
1F
100
AcDbEntity
  8
0
  6
Continuous
 62
     7
370
    15
100
AcDbEllipse
 10
69.3984598092
 20
117.7151309577
 30
0.0
 11
14.75368316065614
 21
31.09325491558113
 31
0.0
210
0.0
220
0.0
230
0.9999999999999998
 40
0.3419987131
 41
5.19328173740862
 42
6.124043104552325
  0
SPLINE
  5
7A
330
1F
100
AcDbEntity
  8
0
  6
Continuous
 62
     7
370
    15
100
AcDbSpline
210
0.0
220
0.0
230
1.0
 70
     8
 71
     3
 72
    12
 73
     8
 74
     0
 42
0.00000001
 43
0.00000001
 40
0.0
 40
0.0
 40
0.0
 40
0.0
 40
0.2499999999999999
 40
0.2499999999999999
 40
0.4999999999999999
 40
0.4999999999999999
 40
1.0
 40
1.0
 40
1.0
 40
1.0
 10
85.21785718503214
 20
147.7836229165775
 30
0.0
 10
85.2809372235255
 20
147.7836229165775
 30
0.0
 10
85.34008584570692
 20
147.7757169903651
 30
0.0
 10
85.438558395776
 20
147.7523918289288
 30
0.0
 10
85.47759500776073
 20
147.7376790390971
 30
0.0
 10
85.57749147453976
 20
147.6897232383662
 30
0.0
 10
85.6199123556064
 20
147.6534610817861
 30
0.0
 10
85.65086988692437
 20
147.6158734178216
 30
0.0
  0
LINE
  5
7B
330
1F
100
AcDbEntity
  8
0
  6
Continuous
 62
     7
370
    15
100
AcDbLine
 10
82.2733709951
 20
147.7836234746
 30
0.0
 11
85.2178572108
 21
147.7836234746
 31
0.0
  0
SPLINE
  5
7C
330
1F
100
AcDbEntity
  8
0
  6
Continuous
 62
     7
370
    15
100
AcDbSpline
210
0.0
220
0.0
230
1.0
 70
     8
 71
     3
 72
    12
 73
     8
 74
     0
 42
0.00000001
 43
0.00000001
 40
0.0
 40
0.0
 40
0.0
 40
0.0
 40
0.5
 40
0.5
 40
0.75
 40
0.75
 40
1.0
 40
1.0
 40
1.0
 40
1.0
 10
81.84035811027282
 20
147.6158734178216
 30
0.0
 10
81.87108035219191
 20
147.6531754007747
 30
0.0
 10
81.91391756672705
 20
147.6897872328211
 30
0.0
 10
82.01334459092685
 20
147.7375520161063
 30
0.0
 10
82.05309678574352
 20
147.7525095315886
 30
0.0
 10
82.15113824260173
 20
147.7756994773578
 30
0.0
 10
82.21069429818921
 20
147.7836229165775
 30
0.0
 10
82.27337081216503
 20
147.7836229165775
 30
0.0
  0
ELLIPSE
  5
7D
330
1F
100
AcDbEntity
  8
0
  6
Continuous
 62
     7
370
    15
100
AcDbEllipse
 10
98.092768188
 20
117.7151309577
 30
0.0
 11
-14.75368316065608
 21
31.09325491558116
 31
0.0
210
0.0
220
0.0
230
1.0
 40
0.3419987131
 41
0.1591422026273013
 42
1.089903569770979
  0
SPLINE
  5
7E
330
1F
100
AcDbEntity
  8
0
  6
Continuous
 62
     7
370
    15
100
AcDbSpline
210
0.0
220
0.0
230
1.0
 70
     8
 71
     3
 72
    12
 73
     8
 74
     0
 42
0.00000001
 43
0.00000001
 40
0.0
 40
0.0
 40
0.0
 40
0.0
 40
0.2500000000000018
 40
0.2500000000000018
 40
0.5000000000000037
 40
0.5000000000000037
 40
1.0
 40
1.0
 40
1.0
 40
1.0
 10
82.27337081216503
 20
87.64663899883132
 30
0.0
 10
82.21031385726724
 20
87.64663899883134
 30
0.0
 10
82.15118370752167
 20
87.65453932991088
 30
0.0
 10
82.05273615698837
 20
87.67785007791592
 30
0.0
 10
82.01370391880027
 20
87.69255520419955
 30
0.0
 10
81.9138140343433
 20
87.7404887323862
 30
0.0
 10
81.87151506073401
 20
87.77655870515096
 30
0.0
 10
81.84035811027275
 20
87.81438849758717
 30
0.0
  0
LINE
  5
7F
330
1F
100
AcDbEntity
  8
0
  6
Continuous
 62
     7
370
    15
100
AcDbLine
 10
85.2178572108
 20
87.6466384408
 30
0.0
 11
82.2733709951
 21
87.6466384408
 31
0.0
  0
SPLINE
  5
80
330
1F
100
AcDbEntity
  8
0
  6
Continuous
 62
     7
370
    15
100
AcDbSpline
210
0.0
220
0.0
230
1.0
 70
     8
 71
     3
 72
    12
 73
     8
 74
     0
 42
0.00000001
 43
0.00000001
 40
0.0
 40
0.0
 40
0.0
 40
0.0
 40
0.5000000000000046
 40
0.5000000000000046
 40
0.7500000000000022
 40
0.7500000000000022
 40
1.0
 40
1.0
 40
1.0
 40
1.0
 10
85.65086988692437
 20
87.81438849758719
 30
0.0
 10
85.61972468896226
 20
87.77657297466699
 30
0.0
 10
85.57745042262783
 20
87.74050611658338
 30
0.0
 10
85.47750488880254
 20
87.69254605157212
 30
0.0
 10
85.43777458409848
 20
87.67768507767445
 30
0.0
 10
85.34088653409228
 20
87.65473393154332
 30
0.0
 10
85.2808212923457
 20
87.64663899883126
 30
0.0
 10
85.21785718503216
 20
87.64663899883126
 30
0.0
  0
ELLIPSE
  5
81
330
1F
100
AcDbEntity
  8
0
  6
Continuous
 62
     7
370
    15
100
AcDbEllipse
 10
69.3984598092
 20
117.7151309577
 30
0.0
 11
-14.75368316065629
 21
31.09325491558116
 31
0.0
210
0.0
220
0.0
230
1.0
 40
0.3419987131
 41
3.300734856217121
 42
4.231496223360772
  0
SPLINE
  5
82
330
1F
100
AcDbEntity
  8
0
  6
Continuous
 62
     7
370
    15
100
AcDbSpline
210
0.0
220
0.0
230
1.0
 70
     8
 71
     3
 72
    12
 73
     8
 74
     0
 42
0.00000001
 43
0.00000001
 40
0.0
 40
0.0
 40
0.0
 40
0.0
 40
0.2499999999999991
 40
0.2499999999999991
 40
0.4999999999999982
 40
0.4999999999999982
 40
1.0
 40
1.0
 40
1.0
 40
1.0
 10
85.21785718503214
 20
108.3270645263682
 30
0.0
 10
85.28091413992995
 20
108.3270645263682
 30
0.0
 10
85.34004428967553
 20
108.3017181729875
 30
0.0
 10
85.43849184020883
 20
108.227598790848
 30
0.0
 10
85.4775240783969
 20
108.18110227615
 30
0.0
 10
85.57741396285385
 20
108.0310277691414
 30
0.0
 10
85.61971293646316
 20
107.9199100600266
 30
0.0
 10
85.65086988692443
 20
107.8057616370191
 30
0.0
  0
LINE
  5
83
330
1F
100
AcDbEntity
  8
0
  6
Continuous
 62
     7
370
    15
100
AcDbLine
 10
82.2733709951
 20
108.3270641295
 30
0.0
 11
85.2178572108
 21
108.3270641295
 31
0.0
  0
SPLINE
  5
84
330
1F
100
AcDbEntity
  8
0
  6
Continuous
 62
     7
370
    15
100
AcDbSpline
210
0.0
220
0.0
230
1.0
 70
     8
 71
     3
 72
    12
 73
     8
 74
     0
 42
0.00000001
 43
0.00000001
 40
0.0
 40
0.0
 40
0.0
 40
0.0
 40
0.4999999999999982
 40
0.4999999999999982
 40
0.7499999999999991
 40
0.7499999999999991
 40
1.0
 40
1.0
 40
1.0
 40
1.0
 10
81.84035811027282
 20
107.8057616370191
 30
0.0
 10
81.87150330823492
 20
107.9198670028844
 30
0.0
 10
81.91377757456935
 20
108.0309733301031
 30
0.0
 10
82.01372310839466
 20
108.1811309375334
 30
0.0
 10
82.05345341309871
 20
108.2281236291508
 30
0.0
 10
82.15034146310491
 20
108.3010992136893
 30
0.0
 10
82.21040670485147
 20
108.3270645263683
 30
0.0
 10
82.27337081216501
 20
108.3270645263683
 30
0.0
  0
ELLIPSE
  5
85
330
1F
100
AcDbEntity
  8
0
  6
Continuous
 62
     7
370
    15
100
AcDbEllipse
 10
98.092768188
 20
117.7151309577
 30
0.0
 11
14.75368316065621
 21
31.09325491558116
 31
0.0
210
0.0
220
0.0
230
1.0
 40
0.3419987131
 41
2.051689083818827
 42
2.982450450962504
  0
LINE
  5
86
330
1F
100
AcDbEntity
  8
0
  6
Continuous
 62
     7
370
    15
100
AcDbLine
 10
93.7456138794
 20
86.2151304511
 30
0.0
 11
93.7456138794
 21
149.2151314643
 31
0.0
  0
SPLINE
  5
87
330
1F
100
AcDbEntity
  8
0
  6
Continuous
 62
     7
370
    15
100
AcDbSpline
210
0.0
220
0.0
230
1.0
 70
     8
 71
     3
 72
    12
 73
     8
 74
     0
 42
0.00000001
 43
0.00000001
 40
0.0
 40
0.0
 40
0.0
 40
0.0
 40
0.5000000000000003
 40
0.5000000000000003
 40
0.7500000000000001
 40
0.7500000000000001
 40
1.0
 40
1.0
 40
1.0
 40
1.0
 10
70.9291017121421
 20
95.8603372552286
 30
0.0
 10
70.98553821304928
 20
95.85891937388685
 30
0.0
 10
71.05462284373803
 20
95.85735503763856
 30
0.0
 10
71.17342511545597
 20
95.8544108456641
 30
0.0
 10
71.21361039092605
 20
95.85337264256673
 30
0.0
 10
71.28699143832986
 20
95.85143874735209
 30
0.0
 10
71.32040100207251
 20
95.85054386006328
 30
0.0
 10
71.35063710972896
 20
95.84976006979095
 30
0.0
  0
SPLINE
  5
88
330
1F
100
AcDbEntity
  8
0
  6
Continuous
 62
     7
370
    15
100
AcDbSpline
210
0.0
220
0.0
230
1.0
 70
     8
 71
     3
 72
    16
 73
    12
 74
     0
 42
0.00000001
 43
0.00000001
 40
0.0
 40
0.0
 40
0.0
 40
0.0
 40
0.0625000000000014
 40
0.0625000000000014
 40
0.1250000000000028
 40
0.1250000000000028
 40
0.2500000000000003
 40
0.2500000000000003
 40
0.5000000000000002
 40
0.5000000000000002
 40
1.0
 40
1.0
 40
1.0
 40
1.0
 10
71.35063710969175
 20
95.84976006981519
 30
0.0
 10
71.3622175172797
 20
95.84945987870383
 30
0.0
 10
71.37552704404096
 20
95.84813213044484
 30
0.0
 10
71.4048284741271
 20
95.84143345566984
 30
0.0
 10
71.4196425740114
 20
95.83607527256414
 30
0.0
 10
71.45547097571425
 20
95.8190296233968
 30
0.0
 10
71.46959060007728
 20
95.80756708562106
 30
0.0
 10
71.50409474416577
 20
95.77600376024883
 30
0.0
 10
71.51519929487038
 20
95.75810646120355
 30
0.0
 10
71.54137547208657
 20
95.7079450435893
 30
0.0
 10
71.5456139985986
 20
95.68020063139274
 30
0.0
 10
71.5456139985986
 20
95.65553646946319
 30
0.0
  0
LINE
  5
89
330
1F
100
AcDbEntity
  8
0
  6
Continuous
 62
     7
370
    15
100
AcDbLine
 10
71.5456140037
 20
110.6932437298
 30
0.0
 11
71.5456140037
 21
95.1753104356
 31
0.0
  0
SPLINE
  5
8A
330
1F
100
AcDbEntity
  8
0
  6
Continuous
 62
     7
370
    15
100
AcDbSpline
210
0.0
220
0.0
230
1.0
 70
     8
 71
     3
 72
    16
 73
    12
 74
     0
 42
0.00000001
 43
0.00000001
 40
0.0
 40
0.0
 40
0.0
 40
0.0
 40
0.4999999999999996
 40
0.4999999999999996
 40
0.7499999999999993
 40
0.7499999999999993
 40
0.8750000000000002
 40
0.8750000000000002
 40
0.9375000000000001
 40
0.9375000000000001
 40
1.0
 40
1.0
 40
1.0
 40
1.0
 10
71.5456139985986
 20
110.6932436319544
 30
0.0
 10
71.5456139985986
 20
110.8069361760823
 30
0.0
 10
71.54146772352064
 20
110.9212563374318
 30
0.0
 10
71.51550212812712
 20
111.0943046279288
 30
0.0
 10
71.5040412227497
 20
111.1534801350906
 30
0.0
 10
71.46972948497535
 20
111.2366032545587
 30
0.0
 10
71.45570474904578
 20
111.2647245706594
 30
0.0
 10
71.41968178601194
 20
111.2933403846368
 30
0.0
 10
71.40492727692228
 20
111.2991334325386
 30
0.0
 10
71.37557511577539
 20
111.2975400066016
 30
0.0
 10
71.3622352412713
 20
111.2910436032778
 30
0.0
 10
71.35063710972295
 20
111.2825278570747
 30
0.0
  0
SPLINE
  5
8B
330
1F
100
AcDbEntity
  8
0
  6
Continuous
 62
     7
370
    15
100
AcDbSpline
210
0.0
220
0.0
230
1.0
 70
     8
 71
     3
 72
    12
 73
     8
 74
     0
 42
0.00000001
 43
0.00000001
 40
0.0
 40
0.0
 40
0.0
 40
0.0
 40
0.25
 40
0.25
 40
0.5
 40
0.5
 40
1.0
 40
1.0
 40
1.0
 40
1.0
 10
71.35063710973003
 20
111.2825278570655
 30
0.0
 10
71.3204386682894
 20
111.2603551250204
 30
0.0
 10
71.28707131295339
 20
111.2412754691432
 30
0.0
 10
71.2139160371235
 20
111.2161024247005
 30
0.0
 10
71.17366333809953
 20
111.2105458882837
 30
0.0
 10
71.05593459482468
 20
111.2214576992705
 30
0.0
 10
70.98547614676573
 20
111.2633934546813
 30
0.0
 10
70.92910171214746
 20
111.3126052370628
 30
0.0
  0
SPLINE
  5
8C
330
1F
100
AcDbEntity
  8
0
  6
Continuous
 62
     7
370
    15
100
AcDbSpline
210
0.0
220
0.0
230
1.0
 70
     8
 71
     3
 72
    12
 73
     8
 74
     0
 42
0.00000001
 43
0.00000001
 40
0.0
 40
0.0
 40
0.0
 40
0.0
 40
0.4999999999999978
 40
0.4999999999999978
 40
0.7499999999999989
 40
0.7499999999999989
 40
1.0
 40
1.0
 40
1.0
 40
1.0
 10
70.42429365503894
 20
112.5289566289434
 30
0.0
 10
70.4680440069234
 20
112.3085096439689
 30
0.0
 10
70.5209341580479
 20
112.0929646541633
 30
0.0
 10
70.63254570118957
 20
111.7805505775914
 30
0.0
 10
70.67510504509309
 20
111.6784711019755
 30
0.0
 10
70.78008228043052
 20
111.4840310893337
 30
0.0
 10
70.84164952352509
 20
111.38894619027
 30
0.0
 10
70.92910171214747
 20
111.3126052370629
 30
0.0
  0
SPLINE
  5
8D
330
1F
100
AcDbEntity
  8
0
  6
Continuous
 62
     7
370
    15
100
AcDbSpline
210
0.0
220
0.0
230
1.0
 70
     8
 71
     3
 72
    12
 73
     8
 74
     0
 42
0.00000001
 43
0.00000001
 40
0.0
 40
0.0
 40
0.0
 40
0.0
 40
0.2499999999999991
 40
0.2499999999999991
 40
0.4999999999999983
 40
0.4999999999999983
 40
1.0
 40
1.0
 40
1.0
 40
1.0
 10
70.92910171214737
 20
124.117656678346
 30
0.0
 10
70.8406083045795
 20
124.0404067982377
 30
0.0
 10
70.78055026381362
 20
123.9470874743485
 30
0.0
 10
70.67470199083105
 20
123.751054421379
 30
0.0
 10
70.63216846955356
 20
123.6487280631673
 30
0.0
 10
70.52101716272992
 20
123.3373836573914
 30
0.0
 10
70.46808630568214
 20
123.1219654042134
 30
0.0
 10
70.42429365503894
 20
122.9013052864655
 30
0.0
  0
SPLINE
  5
8E
330
1F
100
AcDbEntity
  8
0
  6
Continuous
 62
     7
370
    15
100
AcDbSpline
210
0.0
220
0.0
230
1.0
 70
     8
 71
     3
 72
    12
 73
     8
 74
     0
 42
0.00000001
 43
0.00000001
 40
0.0
 40
0.0
 40
0.0
 40
0.0
 40
0.4999999999999997
 40
0.4999999999999997
 40
0.7499999999999998
 40
0.7499999999999998
 40
1.0
 40
1.0
 40
1.0
 40
1.0
 10
70.92910171214736
 20
124.117656678346
 30
0.0
 10
70.985410260443
 20
124.1668109455899
 30
0.0
 10
71.05568492116112
 20
124.2087682641936
 30
0.0
 10
71.17372283548468
 20
124.2197279417261
 30
0.0
 10
71.21389907633862
 20
124.2142191834787
 30
0.0
 10
71.28785617101656
 20
124.1886619546897
 30
0.0
 10
71.320472558728
 20
124.1698819068504
 30
0.0
 10
71.35063710972375
 20
124.1477340583337
 30
0.0
  0
SPLINE
  5
8F
330
1F
100
AcDbEntity
  8
0
  6
Continuous
 62
     7
370
    15
100
AcDbSpline
210
0.0
220
0.0
230
1.0
 70
     8
 71
     3
 72
    16
 73
    12
 74
     0
 42
0.00000001
 43
0.00000001
 40
0.0
 40
0.0
 40
0.0
 40
0.0
 40
0.0625000000000001
 40
0.0625000000000001
 40
0.1250000000000002
 40
0.1250000000000002
 40
0.2500000000000002
 40
0.2500000000000002
 40
0.5000000000000001
 40
0.5000000000000001
 40
1.0
 40
1.0
 40
1.0
 40
1.0
 10
71.350637109692
 20
124.1477340582792
 30
0.0
 10
71.36225000953137
 20
124.1392074686839
 30
0.0
 10
71.37560119396385
 20
124.1327072071512
 30
0.0
 10
71.40500103358299
 20
124.1311378100336
 30
0.0
 10
71.41984175813828
 20
124.1370212006643
 30
0.0
 10
71.45567496610687
 20
124.1655688367148
 30
0.0
 10
71.46978817392845
 20
124.1937358560206
 30
0.0
 10
71.50427954514734
 20
124.2774901144425
 30
0.0
 10
71.51536361625774
 20
124.3352035280639
 30
0.0
 10
71.54148643405372
 20
124.5087940647098
 30
0.0
 10
71.5456139985986
 20
124.6238221173517
 30
0.0
 10
71.5456139985986
 20
124.7370182834546
 30
0.0
  0
LINE
  5
90
330
1F
100
AcDbEntity
  8
0
  6
Continuous
 62
     7
370
    15
100
AcDbLine
 10
71.5456140037
 20
140.2549514798
 30
0.0
 11
71.5456140037
 21
124.7370181856
 31
0.0
  0
SPLINE
  5
91
330
1F
100
AcDbEntity
  8
0
  6
Continuous
 62
     7
370
    15
100
AcDbSpline
210
0.0
220
0.0
230
1.0
 70
     8
 71
     3
 72
    16
 73
    12
 74
     0
 42
0.00000001
 43
0.00000001
 40
0.0
 40
0.0
 40
0.0
 40
0.0
 40
0.4999999999999959
 40
0.4999999999999959
 40
0.7499999999999938
 40
0.7499999999999938
 40
0.8749999999999943
 40
0.8749999999999943
 40
0.9374999999999972
 40
0.9374999999999972
 40
1.0
 40
1.0
 40
1.0
 40
1.0
 10
71.5456139985986
 20
139.7747254459458
 30
0.0
 10
71.5456139985986
 20
139.7500542899028
 30
0.0
 10
71.54144830013861
 20
139.7224724585116
 30
0.0
 10
71.51518997181367
 20
139.6721295876883
 30
0.0
 10
71.50368619007608
 20
139.6538400896263
 30
0.0
 10
71.46955543072956
 20
139.6226850585893
 30
0.0
 10
71.45513354405885
 20
139.6110456833776
 30
0.0
 10
71.41956657562103
 20
139.5941636574465
 30
0.0
 10
71.40461480732637
 20
139.5887745536388
 30
0.0
 10
71.3756109889666
 20
139.5821540576944
 30
0.0
 10
71.36219563495736
 20
139.5808014694879
 30
0.0
 10
71.35063710972076
 20
139.5805018456163
 30
0.0
  0
SPLINE
  5
92
330
1F
100
AcDbEntity
  8
0
  6
Continuous
 62
     7
370
    15
100
AcDbSpline
210
0.0
220
0.0
230
1.0
 70
     8
 71
     3
 72
    12
 73
     8
 74
     0
 42
0.00000001
 43
0.00000001
 40
0.0
 40
0.0
 40
0.0
 40
0.0
 40
0.2500000000000001
 40
0.2500000000000001
 40
0.5000000000000001
 40
0.5000000000000001
 40
1.0
 40
1.0
 40
1.0
 40
1.0
 10
71.35063710973003
 20
139.580501845618
 30
0.0
 10
71.32044933318036
 20
139.5797193082005
 30
0.0
 10
71.28709552908869
 20
139.5788259763819
 30
0.0
 10
71.21396932589272
 20
139.5768986675783
 30
0.0
 10
71.17373412286854
 20
139.5758591363657
 30
0.0
 10
71.05604249273546
 20
139.5729412530184
 30
0.0
 10
70.98566181957541
 20
139.5713456469482
 30
0.0
 10
70.92910171214481
 20
139.5699246601803
 30
0.0
  0
SPLINE
  5
93
330
1F
100
AcDbEntity
  8
0
  6
Continuous
 62
     7
370
    15
100
AcDbSpline
210
0.0
220
0.0
230
1.0
 70
     8
 71
     3
 72
    16
 73
    12
 74
     0
 42
0.00000001
 43
0.00000001
 40
0.0
 40
0.0
 40
0.0
 40
0.0
 40
0.2500000000000002
 40
0.2500000000000002
 40
0.3750000000000002
 40
0.3750000000000002
 40
0.5000000000000002
 40
0.5000000000000002
 40
0.7500000000000001
 40
0.7500000000000001
 40
1.0
 40
1.0
 40
1.0
 40
1.0
 10
70.42429365503894
 20
122.9013052864655
 30
0.0
 10
70.26306117755449
 20
122.0888955112187
 30
0.0
 10
70.14258133791485
 20
121.248817216834
 30
0.0
 10
70.02020082060153
 20
119.9475221674712
 30
0.0
 10
69.98922316020408
 20
119.5068411318864
 30
0.0
 10
69.94760942257612
 20
118.6110014909553
 30
0.0
 10
69.93737350964331
 20
118.1643433597528
 30
0.0
 10
69.9371851125872
 20
116.8290334026129
 30
0.0
 10
69.9773298152248
 20
115.9445380293054
 30
0.0
 10
70.14148357016438
 20
114.1872881412794
 30
0.0
 10
70.26303522057394
 20
113.3414971948663
 30
0.0
 10
70.42429365503894
 20
112.5289566289434
 30
0.0
  0
LINE
  5
94
330
1F
100
AcDbEntity
  8
0
  6
Continuous
 62
     7
370
    15
100
AcDbLine
 10
69.5456140105
 20
124.200309093
 30
0.0
 11
69.5456140105
 21
111.2299528224
 31
0.0
  0
LINE
  5
95
330
1F
100
AcDbEntity
  8
0
  6
Continuous
 62
     7
370
    15
100
AcDbLine
 10
35.245614535
 20
123.7694415515
 30
0.0
 11
35.245614535
 21
111.660820364
 31
0.0
  0
LINE
  5
96
330
1F
100
AcDbEntity
  8
0
  6
Continuous
 62
     7
370
    15
100
AcDbLine
 10
33.7456152205
 20
123.3364287083
 30
0.0
 11
33.7456152205
 21
112.0938332071
 31
0.0
  0
LINE
  5
97
330
1F
100
AcDbEntity
  8
0
  6
Continuous
 62
     7
370
    15
100
AcDbLine
 10
35.245614535
 20
123.7694415515
 30
0.0
 11
35.245614535
 21
138.8734946278
 31
0.0
  0
LINE
  5
98
330
1F
100
AcDbEntity
  8
0
  6
Continuous
 62
     7
370
    15
100
AcDbLine
 10
35.245614535
 20
138.8734946278
 30
0.0
 11
69.5456140105
 21
139.7352306423
 31
0.0
  0
LINE
  5
99
330
1F
100
AcDbEntity
  8
0
  6
Continuous
 62
     7
370
    15
100
AcDbLine
 10
69.5456140105
 20
124.200309093
 30
0.0
 11
69.5456140105
 21
139.7352306423
 31
0.0
  0
ARC
  5
9A
330
1F
100
AcDbEntity
  8
0
  6
Continuous
 62
     7
370
    15
100
AcDbCircle
 10
69.7455509095
 20
139.7402528534
 30
0.0
 40
0.2000000000000059
100
AcDbArc
 50
181.4391666667
 51
271.4391666667
  0
LINE
  5
9B
330
1F
100
AcDbEntity
  8
0
  6
Continuous
 62
     7
370
    15
100
AcDbLine
 10
69.5456140105
 20
95.6950312731
 30
0.0
 11
69.5456140105
 21
111.2299528224
 31
0.0
  0
ARC
  5
9C
330
1F
100
AcDbEntity
  8
0
  6
Continuous
 62
     7
370
    15
100
AcDbCircle
 10
69.7455509095
 20
95.690009062
 30
0.0
 40
0.1999999999999917
100
AcDbArc
 50
88.5608333333
 51
178.5608333333
  0
LINE
  5
9D
330
1F
100
AcDbEntity
  8
0
  6
Continuous
 62
     7
370
    15
100
AcDbLine
 10
35.245614535
 20
96.5567672876
 30
0.0
 11
35.245614535
 21
111.660820364
 31
0.0
  0
LINE
  5
9E
330
1F
100
AcDbEntity
  8
0
  6
Continuous
 62
     7
370
    15
100
AcDbLine
 10
35.245614535
 20
96.5567672876
 30
0.0
 11
69.5456140105
 21
95.6950312731
 31
0.0
  0
LINE
  5
9F
330
1F
100
AcDbEntity
  8
0
  6
Continuous
 62
     7
370
    15
100
AcDbLine
 10
69.7505741276
 20
139.5403160033
 30
0.0
 11
70.9291017278
 21
139.5699246106
 31
0.0
  0
LINE
  5
A0
330
1F
100
AcDbEntity
  8
0
  6
Continuous
 62
     7
370
    15
100
AcDbLine
 10
69.7505741276
 20
95.8899459121
 30
0.0
 11
70.9291017278
 21
95.8603373048
 31
0.0
  0
LINE
  5
A1
330
1F
100
AcDbEntity
  8
0
  6
Continuous
 62
     7
370
    15
100
AcDbLine
 10
33.7456152205
 20
138.0074689416
 30
0.0
 11
35.245614535
 21
138.8734946278
 31
0.0
  0
LINE
  5
A2
330
1F
100
AcDbEntity
  8
0
  6
Continuous
 62
     7
370
    15
100
AcDbLine
 10
33.7456152205
 20
123.3364287083
 30
0.0
 11
33.7456152205
 21
138.0074689416
 31
0.0
  0
LINE
  5
A3
330
1F
100
AcDbEntity
  8
0
  6
Continuous
 62
     7
370
    15
100
AcDbLine
 10
33.7456152205
 20
97.4227929739
 30
0.0
 11
35.245614535
 21
96.5567672876
 31
0.0
  0
LINE
  5
A4
330
1F
100
AcDbEntity
  8
0
  6
Continuous
 62
     7
370
    15
100
AcDbLine
 10
33.7456152205
 20
97.4227929739
 30
0.0
 11
33.7456152205
 21
112.0938332071
 31
0.0
  0
SPLINE
  5
A5
330
1F
100
AcDbEntity
  8
0
  6
Continuous
 62
     7
370
    15
100
AcDbSpline
210
0.0
220
0.0
230
1.0
 70
     8
 71
     3
 72
    12
 73
     8
 74
     0
 42
0.00000001
 43
0.00000001
 40
0.0
 40
0.0
 40
0.0
 40
0.0
 40
0.212064039961918
 40
0.4240300207278061
 40
0.6385312223242974
 40
0.8547600168047199
 40
1.0
 40
1.0
 40
1.0
 40
1.0
 10
143.7456108991571
 20
135.3715745982942
 30
0.0
 10
144.1348075925683
 20
135.3792760183994
 30
0.0
 10
144.913021013401
 20
135.3946752974446
 30
0.0
 10
145.9552081365061
 20
135.502454424793
 30
0.0
 10
146.743312463499
 20
135.6201196701846
 30
0.0
 10
147.1996226025199
 20
135.706086582935
 30
0.0
 10
147.2018676369196
 20
135.7066516271924
 30
0.0
 10
147.2027697030969
 20
135.706878664833
 30
0.0
  0
SPLINE
  5
A6
330
1F
100
AcDbEntity
  8
0
  6
Continuous
 62
     7
370
    15
100
AcDbSpline
210
0.0
220
0.0
230
1.0
 70
     8
 71
     3
 72
    12
 73
     8
 74
     0
 42
0.00000001
 43
0.00000001
 40
0.0
 40
0.0
 40
0.0
 40
0.0
 40
0.1991234110129358
 40
0.409987889998415
 40
0.6241046182811181
 40
0.8402708712241586
 40
1.0
 40
1.0
 40
1.0
 40
1.0
 10
140.2560122672982
 20
135.7131539163408
 30
0.0
 10
140.2853186745601
 20
135.7072988519801
 30
0.0
 10
140.3456595054831
 20
135.6952434865622
 30
0.0
 10
140.905278602002
 20
135.5937148825065
 30
0.0
 10
141.7605320628664
 20
135.4745671284599
 30
0.0
 10
142.7642058813837
 20
135.3861679969049
 30
0.0
 10
143.4529451129697
 20
135.3759265105019
 30
0.0
 10
143.7456108991571
 20
135.3715745982942
 30
0.0
  0
SPLINE
  5
A7
330
1F
100
AcDbEntity
  8
0
  6
Continuous
 62
     7
370
    15
100
AcDbSpline
210
0.0
220
0.0
230
1.0
 70
     8
 71
     3
 72
    12
 73
     8
 74
     0
 42
0.00000001
 43
0.00000001
 40
0.0
 40
0.0
 40
0.0
 40
0.0
 40
0.212064039961918
 40
0.4240300207278061
 40
0.6385312223242974
 40
0.8547600168047199
 40
1.0
 40
1.0
 40
1.0
 40
1.0
 10
133.7456129853196
 20
135.3715745982942
 30
0.0
 10
134.1348096787309
 20
135.3792760183994
 30
0.0
 10
134.9130230995635
 20
135.3946752974446
 30
0.0
 10
135.9552102226687
 20
135.502454424793
 30
0.0
 10
136.7433145496615
 20
135.6201196701846
 30
0.0
 10
137.1996246886825
 20
135.706086582935
 30
0.0
 10
137.2018697230822
 20
135.7066516271924
 30
0.0
 10
137.2027717892594
 20
135.706878664833
 30
0.0
  0
SPLINE
  5
A8
330
1F
100
AcDbEntity
  8
0
  6
Continuous
 62
     7
370
    15
100
AcDbSpline
210
0.0
220
0.0
230
1.0
 70
     8
 71
     3
 72
    12
 73
     8
 74
     0
 42
0.00000001
 43
0.00000001
 40
0.0
 40
0.0
 40
0.0
 40
0.0
 40
0.1991234553131102
 40
0.4099875634801957
 40
0.6241047228974651
 40
0.8402709156787562
 40
1.0
 40
1.0
 40
1.0
 40
1.0
 10
130.2560106281705
 20
135.7131539163408
 30
0.0
 10
130.2853189051572
 20
135.7072988808324
 30
0.0
 10
130.3456635242914
 20
135.6952435871034
 30
0.0
 10
130.905275816411
 20
135.5937146052152
 30
0.0
 10
131.760534428604
 20
135.4745673144083
 30
0.0
 10
132.7642077711961
 20
135.3861679770955
 30
0.0
 10
133.4529471405784
 20
135.3759265045945
 30
0.0
 10
133.7456129853196
 20
135.3715745982942
 30
0.0
  0
SPLINE
  5
A9
330
1F
100
AcDbEntity
  8
0
  6
Continuous
 62
     7
370
    15
100
AcDbSpline
210
0.0
220
0.0
230
1.0
 70
     8
 71
     3
 72
    12
 73
     8
 74
     0
 42
0.00000001
 43
0.00000001
 40
0.0
 40
0.0
 40
0.0
 40
0.0
 40
0.2120635123280341
 40
0.424029635034942
 40
0.6385309802701398
 40
0.8547599195461351
 40
1.0
 40
1.0
 40
1.0
 40
1.0
 10
123.7456150714822
 20
135.3715745982942
 30
0.0
 10
124.1348104804303
 20
135.3792760505298
 30
0.0
 10
124.9130225613386
 20
135.394675418129
 30
0.0
 10
125.9552085813845
 20
135.5024544227144
 30
0.0
 10
126.7433129111246
 20
135.6201196707541
 30
0.0
 10
127.1996230494617
 20
135.7060865828454
 30
0.0
 10
127.2018680839278
 20
135.7066516271667
 30
0.0
 10
127.2027701501317
 20
135.706878664833
 30
0.0
  0
SPLINE
  5
AA
330
1F
100
AcDbEntity
  8
0
  6
Continuous
 62
     7
370
    15
100
AcDbSpline
210
0.0
220
0.0
230
1.0
 70
     8
 71
     3
 72
    12
 73
     8
 74
     0
 42
0.00000001
 43
0.00000001
 40
0.0
 40
0.0
 40
0.0
 40
0.0
 40
0.199123277735577
 40
0.4099873034530894
 40
0.6241048698755611
 40
0.8402709781341211
 40
1.0
 40
1.0
 40
1.0
 40
1.0
 10
120.2560127143331
 20
135.7131539163408
 30
0.0
 10
120.2853194943402
 20
135.7072988835148
 30
0.0
 10
120.3456610467928
 20
135.6952435922036
 30
0.0
 10
120.9052743392925
 20
135.5937144309151
 30
0.0
 10
121.7605363217582
 20
135.4745674880313
 30
0.0
 10
122.7642097442781
 20
135.3861679594579
 30
0.0
 10
123.4529491930192
 20
135.3759264993348
 30
0.0
 10
123.7456150714822
 20
135.3715745982942
 30
0.0
  0
SPLINE
  5
AB
330
1F
100
AcDbEntity
  8
0
  6
Continuous
 62
     7
370
    15
100
AcDbSpline
210
0.0
220
0.0
230
1.0
 70
     8
 71
     3
 72
    12
 73
     8
 74
     0
 42
0.00000001
 43
0.00000001
 40
0.0
 40
0.0
 40
0.0
 40
0.0
 40
0.002956136313925
 40
0.3000324053220014
 40
0.5933750933099703
 40
0.882802843573173
 40
1.0
 40
1.0
 40
1.0
 40
1.0
 10
126.6869441036649
 20
115.8217316744146
 30
0.0
 10
126.6895788524066
 20
115.8246273386203
 30
0.0
 10
126.9569920967416
 20
116.1185221406129
 30
0.0
 10
127.1989805942481
 20
116.921041788491
 30
0.0
 10
127.2852044752796
 20
118.0774901045088
 30
0.0
 10
127.069455472045
 20
119.0269402415962
 30
0.0
 10
126.7441680332675
 20
119.4587972886737
 30
0.0
 10
126.6504139069982
 20
119.5832668355894
 30
0.0
  0
SPLINE
  5
AC
330
1F
100
AcDbEntity
  8
0
  6
Continuous
 62
     7
370
    15
100
AcDbSpline
210
0.0
220
0.0
230
1.0
 70
     8
 71
     3
 72
    11
 73
     7
 74
     0
 42
0.00000001
 43
0.00000001
 40
0.0
 40
0.0
 40
0.0
 40
0.0
 40
0.188430729073448
 40
0.4834929013174323
 40
0.7737142866023728
 40
1.0
 40
1.0
 40
1.0
 40
1.0
 10
120.8428651456304
 20
119.5861778007117
 30
0.0
 10
120.7041031004497
 20
119.3759480581552
 30
0.0
 10
120.3480546780557
 20
118.8365212424141
 30
0.0
 10
120.1950670189362
 20
117.7874328459613
 30
0.0
 10
120.3189764663713
 20
116.6878638541303
 30
0.0
 10
120.6755421671937
 20
116.0953311712131
 30
0.0
 10
120.8317563299604
 20
115.8357380674449
 30
0.0
  0
SPLINE
  5
AD
330
1F
100
AcDbEntity
  8
0
  6
Continuous
 62
     7
370
    15
100
AcDbSpline
210
0.0
220
0.0
230
1.0
 70
     8
 71
     3
 72
    12
 73
     8
 74
     0
 42
0.00000001
 43
0.00000001
 40
0.0
 40
0.0
 40
0.0
 40
0.0
 40
0.002956136313925
 40
0.3000324053220014
 40
0.5933750933099703
 40
0.882802843573173
 40
1.0
 40
1.0
 40
1.0
 40
1.0
 10
146.68694365663
 20
115.8217316744146
 30
0.0
 10
146.6895784053718
 20
115.8246273386203
 30
0.0
 10
146.9569916497069
 20
116.1185221406129
 30
0.0
 10
147.1989801472133
 20
116.921041788491
 30
0.0
 10
147.2852040282448
 20
118.0774901045088
 30
0.0
 10
147.0694550250101
 20
119.0269402415962
 30
0.0
 10
146.7441675862327
 20
119.4587972886737
 30
0.0
 10
146.6504134599633
 20
119.5832668355894
 30
0.0
  0
SPLINE
  5
AE
330
1F
100
AcDbEntity
  8
0
  6
Continuous
 62
     7
370
    15
100
AcDbSpline
210
0.0
220
0.0
230
1.0
 70
     8
 71
     3
 72
    11
 73
     7
 74
     0
 42
0.00000001
 43
0.00000001
 40
0.0
 40
0.0
 40
0.0
 40
0.0
 40
0.1884303758340003
 40
0.4834927263096497
 40
0.7737141499149786
 40
1.0
 40
1.0
 40
1.0
 40
1.0
 10
140.8428646985955
 20
119.5861778007117
 30
0.0
 10
140.7041040869016
 20
119.375947912865
 30
0.0
 10
140.3480588040997
 20
118.8365199083467
 30
0.0
 10
140.1950713418176
 20
117.7874334450919
 30
0.0
 10
140.3189752287498
 20
116.6878635139091
 30
0.0
 10
140.6755414505039
 20
116.0953311154421
 30
0.0
 10
140.8317558829255
 20
115.8357380674449
 30
0.0
  0
SPLINE
  5
AF
330
1F
100
AcDbEntity
  8
0
  6
Continuous
 62
     7
370
    15
100
AcDbSpline
210
0.0
220
0.0
230
1.0
 70
     8
 71
     3
 72
    12
 73
     8
 74
     0
 42
0.00000001
 43
0.00000001
 40
0.0
 40
0.0
 40
0.0
 40
0.0
 40
0.002956136313925
 40
0.3000324053220014
 40
0.5933750933099703
 40
0.882802843573173
 40
1.0
 40
1.0
 40
1.0
 40
1.0
 10
136.6869457427926
 20
115.8217316744146
 30
0.0
 10
136.6895804915343
 20
115.8246273386203
 30
0.0
 10
136.9569937358695
 20
116.1185221406129
 30
0.0
 10
137.1989822333758
 20
116.921041788491
 30
0.0
 10
137.2852061144074
 20
118.0774901045088
 30
0.0
 10
137.0694571111727
 20
119.0269402415962
 30
0.0
 10
136.7441696723953
 20
119.4587972886737
 30
0.0
 10
136.6504155461259
 20
119.5832668355894
 30
0.0
  0
SPLINE
  5
B0
330
1F
100
AcDbEntity
  8
0
  6
Continuous
 62
     7
370
    15
100
AcDbSpline
210
0.0
220
0.0
230
1.0
 70
     8
 71
     3
 72
    11
 73
     7
 74
     0
 42
0.00000001
 43
0.00000001
 40
0.0
 40
0.0
 40
0.0
 40
0.0
 40
0.1884303500214524
 40
0.4834926600773392
 40
0.7737141809132416
 40
1.0
 40
1.0
 40
1.0
 40
1.0
 10
130.8428630594678
 20
119.5861778007117
 30
0.0
 10
130.7041025051957
 20
119.3759479214063
 30
0.0
 10
130.3480573697324
 20
118.8365199388042
 30
0.0
 10
130.1950683011827
 20
117.7874330549082
 30
0.0
 10
130.3189781717221
 20
116.687863815358
 30
0.0
 10
130.6755438264958
 20
116.0953311594014
 30
0.0
 10
130.8317579690881
 20
115.8357380674449
 30
0.0
  0
LINE
  5
B1
330
1F
100
AcDbEntity
  8
0
  6
Continuous
 62
     7
370
    15
100
AcDbLine
 10
151.7456122105
 20
117.7151309577
 30
0.0
 11
151.7456122105
 21
100.7151300338
 31
0.0
  0
LINE
  5
B2
330
1F
100
AcDbEntity
  8
0
  6
Continuous
 62
     7
370
    15
100
AcDbLine
 10
151.7456122105
 20
134.7151318816
 30
0.0
 11
151.7456122105
 21
117.7151309577
 31
0.0
  0
LINE
  5
B3
330
1F
100
AcDbEntity
  8
0
  6
HIDDEN
 62
     7
370
     0
100
AcDbLine
 10
143.7456108992
 20
135.1151312021
 30
0.0
 11
147.7456115548
 21
135.1151312021
 31
0.0
  0
LINE
  5
B4
330
1F
100
AcDbEntity
  8
0
  6
HIDDEN
 62
     7
370
     0
100
AcDbLine
 10
139.7456176941
 20
135.1151312021
 30
0.0
 11
143.7456108992
 21
135.1151312021
 31
0.0
  0
LINE
  5
B5
330
1F
100
AcDbEntity
  8
0
  6
HIDDEN
 62
     7
370
     0
100
AcDbLine
 10
143.7456108992
 20
126.465130995
 30
0.0
 11
147.7456115548
 21
126.465130995
 31
0.0
  0
LINE
  5
B6
330
1F
100
AcDbEntity
  8
0
  6
HIDDEN
 62
     7
370
     0
100
AcDbLine
 10
139.7456176941
 20
126.465130995
 30
0.0
 11
143.7456108992
 21
126.465130995
 31
0.0
  0
LINE
  5
B7
330
1F
100
AcDbEntity
  8
0
  6
HIDDEN
 62
     7
370
     0
100
AcDbLine
 10
143.7456108992
 20
125.2151307901
 30
0.0
 11
146.4956127469
 21
125.2151307901
 31
0.0
  0
LINE
  5
B8
330
1F
100
AcDbEntity
  8
0
  6
HIDDEN
 62
     7
370
     0
100
AcDbLine
 10
140.995616502
 20
125.2151307901
 30
0.0
 11
143.7456108992
 21
125.2151307901
 31
0.0
  0
LINE
  5
B9
330
1F
100
AcDbEntity
  8
0
  6
HIDDEN
 62
     7
370
     0
100
AcDbLine
 10
145.7456149523
 20
130.7151312259
 30
0.0
 11
143.7456108992
 21
130.7151312259
 31
0.0
  0
LINE
  5
BA
330
1F
100
AcDbEntity
  8
0
  6
HIDDEN
 62
     7
370
     0
100
AcDbLine
 10
141.7456142966
 20
130.7151312259
 30
0.0
 11
143.7456108992
 21
130.7151312259
 31
0.0
  0
LINE
  5
BB
330
1F
100
AcDbEntity
  8
0
  6
HIDDEN
 62
     7
370
     0
100
AcDbLine
 10
143.7456108992
 20
130.7151312259
 30
0.0
 11
143.7456108992
 21
135.7151301828
 31
0.0
  0
LINE
  5
BC
330
1F
100
AcDbEntity
  8
0
  6
HIDDEN
 62
     7
370
     0
100
AcDbLine
 10
145.7456149523
 20
130.7151312259
 30
0.0
 11
145.7456149523
 21
135.7151301828
 31
0.0
  0
LINE
  5
BD
330
1F
100
AcDbEntity
  8
0
  6
HIDDEN
 62
     7
370
     0
100
AcDbLine
 10
141.7456142966
 20
130.7151312259
 30
0.0
 11
141.7456142966
 21
135.7151301828
 31
0.0
  0
LINE
  5
BE
330
1F
100
AcDbEntity
  8
0
  6
HIDDEN
 62
     7
370
     0
100
AcDbLine
 10
133.7456129853
 20
135.1151312021
 30
0.0
 11
137.745613641
 21
135.1151312021
 31
0.0
  0
LINE
  5
BF
330
1F
100
AcDbEntity
  8
0
  6
HIDDEN
 62
     7
370
     0
100
AcDbLine
 10
129.7456123297
 20
135.1151312021
 30
0.0
 11
133.7456129853
 21
135.1151312021
 31
0.0
  0
LINE
  5
C0
330
1F
100
AcDbEntity
  8
0
  6
HIDDEN
 62
     7
370
     0
100
AcDbLine
 10
133.7456129853
 20
126.465130995
 30
0.0
 11
137.745613641
 21
126.465130995
 31
0.0
  0
LINE
  5
C1
330
1F
100
AcDbEntity
  8
0
  6
HIDDEN
 62
     7
370
     0
100
AcDbLine
 10
129.7456123297
 20
126.465130995
 30
0.0
 11
133.7456129853
 21
126.465130995
 31
0.0
  0
LINE
  5
C2
330
1F
100
AcDbEntity
  8
0
  6
HIDDEN
 62
     7
370
     0
100
AcDbLine
 10
133.7456129853
 20
125.2151307901
 30
0.0
 11
136.4956148331
 21
125.2151307901
 31
0.0
  0
LINE
  5
C3
330
1F
100
AcDbEntity
  8
0
  6
HIDDEN
 62
     7
370
     0
100
AcDbLine
 10
130.9956148629
 20
125.2151307901
 30
0.0
 11
133.7456129853
 21
125.2151307901
 31
0.0
  0
LINE
  5
C4
330
1F
100
AcDbEntity
  8
0
  6
HIDDEN
 62
     7
370
     0
100
AcDbLine
 10
135.7456170384
 20
130.7151312259
 30
0.0
 11
133.7456129853
 21
130.7151312259
 31
0.0
  0
LINE
  5
C5
330
1F
100
AcDbEntity
  8
0
  6
HIDDEN
 62
     7
370
     0
100
AcDbLine
 10
131.7456126575
 20
130.7151312259
 30
0.0
 11
133.7456129853
 21
130.7151312259
 31
0.0
  0
LINE
  5
C6
330
1F
100
AcDbEntity
  8
0
  6
HIDDEN
 62
     7
370
     0
100
AcDbLine
 10
133.7456129853
 20
130.7151312259
 30
0.0
 11
133.7456129853
 21
135.7151301828
 31
0.0
  0
LINE
  5
C7
330
1F
100
AcDbEntity
  8
0
  6
HIDDEN
 62
     7
370
     0
100
AcDbLine
 10
135.7456170384
 20
130.7151312259
 30
0.0
 11
135.7456170384
 21
135.7151301828
 31
0.0
  0
LINE
  5
C8
330
1F
100
AcDbEntity
  8
0
  6
HIDDEN
 62
     7
370
     0
100
AcDbLine
 10
131.7456126575
 20
130.7151312259
 30
0.0
 11
131.7456126575
 21
135.7151301828
 31
0.0
  0
CIRCLE
  5
C9
330
1F
100
AcDbEntity
  8
0
  6
HIDDEN
 62
     7
370
     0
100
AcDbCircle
 10
133.7456139986
 20
117.7151309577
 30
0.0
 40
4.000000000000085
  0
CIRCLE
  5
CA
330
1F
100
AcDbEntity
  8
0
  6
HIDDEN
 62
     7
370
     0
100
AcDbCircle
 10
133.7456139986
 20
117.7151309577
 30
0.0
 40
1.850000000000037
  0
CIRCLE
  5
CB
330
1F
100
AcDbEntity
  8
0
  6
HIDDEN
 62
     7
370
     0
100
AcDbCircle
 10
133.7456139986
 20
117.7151309577
 30
0.0
 40
2.750000000000043
  0
CIRCLE
  5
CC
330
1F
100
AcDbEntity
  8
0
  6
HIDDEN
 62
     7
370
     0
100
AcDbCircle
 10
143.7456139986
 20
117.7151309577
 30
0.0
 40
4.000000000000085
  0
CIRCLE
  5
CD
330
1F
100
AcDbEntity
  8
0
  6
HIDDEN
 62
     7
370
     0
100
AcDbCircle
 10
143.7456139986
 20
117.7151309577
 30
0.0
 40
1.850000000000037
  0
CIRCLE
  5
CE
330
1F
100
AcDbEntity
  8
0
  6
HIDDEN
 62
     7
370
     0
100
AcDbCircle
 10
143.7456139986
 20
117.7151309577
 30
0.0
 40
2.750000000000043
  0
LINE
  5
CF
330
1F
100
AcDbEntity
  8
0
  6
HIDDEN
 62
     7
370
     0
100
AcDbLine
 10
123.7456150715
 20
135.1151312021
 30
0.0
 11
127.7456157271
 21
135.1151312021
 31
0.0
  0
LINE
  5
D0
330
1F
100
AcDbEntity
  8
0
  6
HIDDEN
 62
     7
370
     0
100
AcDbLine
 10
119.7456144158
 20
135.1151312021
 30
0.0
 11
123.7456150715
 21
135.1151312021
 31
0.0
  0
LINE
  5
D1
330
1F
100
AcDbEntity
  8
0
  6
HIDDEN
 62
     7
370
     0
100
AcDbLine
 10
123.7456150715
 20
126.465130995
 30
0.0
 11
127.7456157271
 21
126.465130995
 31
0.0
  0
LINE
  5
D2
330
1F
100
AcDbEntity
  8
0
  6
HIDDEN
 62
     7
370
     0
100
AcDbLine
 10
119.7456144158
 20
126.465130995
 30
0.0
 11
123.7456150715
 21
126.465130995
 31
0.0
  0
LINE
  5
D3
330
1F
100
AcDbEntity
  8
0
  6
HIDDEN
 62
     7
370
     0
100
AcDbLine
 10
123.7456150715
 20
125.2151307901
 30
0.0
 11
126.4956131939
 21
125.2151307901
 31
0.0
  0
LINE
  5
D4
330
1F
100
AcDbEntity
  8
0
  6
HIDDEN
 62
     7
370
     0
100
AcDbLine
 10
120.9956132237
 20
125.2151307901
 30
0.0
 11
123.7456150715
 21
125.2151307901
 31
0.0
  0
LINE
  5
D5
330
1F
100
AcDbEntity
  8
0
  6
HIDDEN
 62
     7
370
     0
100
AcDbLine
 10
125.7456153993
 20
130.7151312259
 30
0.0
 11
123.7456150715
 21
130.7151312259
 31
0.0
  0
LINE
  5
D6
330
1F
100
AcDbEntity
  8
0
  6
HIDDEN
 62
     7
370
     0
100
AcDbLine
 10
121.7456147437
 20
130.7151312259
 30
0.0
 11
123.7456150715
 21
130.7151312259
 31
0.0
  0
LINE
  5
D7
330
1F
100
AcDbEntity
  8
0
  6
HIDDEN
 62
     7
370
     0
100
AcDbLine
 10
123.7456150715
 20
130.7151312259
 30
0.0
 11
123.7456150715
 21
135.7151301828
 31
0.0
  0
LINE
  5
D8
330
1F
100
AcDbEntity
  8
0
  6
HIDDEN
 62
     7
370
     0
100
AcDbLine
 10
125.7456153993
 20
130.7151312259
 30
0.0
 11
125.7456153993
 21
135.7151301828
 31
0.0
  0
LINE
  5
D9
330
1F
100
AcDbEntity
  8
0
  6
HIDDEN
 62
     7
370
     0
100
AcDbLine
 10
121.7456147437
 20
130.7151312259
 30
0.0
 11
121.7456147437
 21
135.7151301828
 31
0.0
  0
CIRCLE
  5
DA
330
1F
100
AcDbEntity
  8
0
  6
HIDDEN
 62
     7
370
     0
100
AcDbCircle
 10
123.7456139986
 20
117.7151309577
 30
0.0
 40
4.000000000000014
  0
CIRCLE
  5
DB
330
1F
100
AcDbEntity
  8
0
  6
HIDDEN
 62
     7
370
     0
100
AcDbCircle
 10
123.7456139986
 20
117.7151309577
 30
0.0
 40
1.849999999999994
  0
CIRCLE
  5
DC
330
1F
100
AcDbEntity
  8
0
  6
HIDDEN
 62
     7
370
     0
100
AcDbCircle
 10
123.7456139986
 20
117.7151309577
 30
0.0
 40
2.749999999999986
  0
SPLINE
  5
DD
330
1F
100
AcDbEntity
  8
0
  6
HIDDEN
 62
     7
370
     0
100
AcDbSpline
210
0.0
220
0.0
230
1.0
 70
     8
 71
     3
 72
     9
 73
     5
 74
     0
 42
0.00000001
 43
0.00000001
 40
0.0
 40
0.0
 40
0.0
 40
0.0
 40
0.3547925647816709
 40
1.0
 40
1.0
 40
1.0
 40
1.0
 10
81.77248056871368
 20
117.4660010630493
 30
0.0
 10
81.75945171439295
 20
117.5491692047505
 30
0.0
 10
81.72272925847355
 20
117.7835826337703
 30
0.0
 10
81.78308327530839
 20
118.0150207124468
 30
0.0
 10
81.8220241357155
 20
118.1643462816016
 30
0.0
  0
SPLINE
  5
DE
330
1F
100
AcDbEntity
  8
0
  6
HIDDEN
 62
     7
370
     0
100
AcDbSpline
210
0.0
220
0.0
230
1.0
 70
     8
 71
     3
 72
    12
 73
     8
 74
     0
 42
0.00000001
 43
0.00000001
 40
0.0
 40
0.0
 40
0.0
 40
0.0
 40
0.5000000000000003
 40
0.5000000000000003
 40
0.7500000000000001
 40
0.7500000000000001
 40
1.0
 40
1.0
 40
1.0
 40
1.0
 10
70.92910171215158
 20
133.1673989395353
 30
0.0
 10
70.98550789083183
 20
133.1195765658755
 30
0.0
 10
71.05567079230363
 20
133.079305718937
 30
0.0
 10
71.17368150569278
 20
133.0712598504601
 30
0.0
 10
71.21388728928827
 20
133.0778224487989
 30
0.0
 10
71.2876079860213
 20
133.1052045432525
 30
0.0
 10
71.3204687078078
 20
133.1249660337829
 30
0.0
 10
71.35063710973708
 20
133.1478987449709
 30
0.0
  0
SPLINE
  5
DF
330
1F
100
AcDbEntity
  8
0
  6
HIDDEN
 62
     7
370
     0
100
AcDbSpline
210
0.0
220
0.0
230
1.0
 70
     8
 71
     3
 72
    16
 73
    12
 74
     0
 42
0.00000001
 43
0.00000001
 40
0.0
 40
0.0
 40
0.0
 40
0.0
 40
0.0624999999999984
 40
0.0624999999999984
 40
0.1249999999999968
 40
0.1249999999999968
 40
0.2499999999999939
 40
0.2499999999999939
 40
0.4999999999999942
 40
0.4999999999999942
 40
1.0
 40
1.0
 40
1.0
 40
1.0
 10
71.35063710969193
 20
133.147898745019
 30
0.0
 10
71.3622500095313
 20
133.1567263680004
 30
0.0
 10
71.37560119396377
 20
133.1645607498823
 30
0.0
 10
71.40500103358293
 20
133.1728708759547
 30
0.0
 10
71.4198417581382
 20
133.1723750567197
 30
0.0
 10
71.45567496610683
 20
133.1609240857503
 30
0.0
 10
71.46978817392842
 20
133.1442435848917
 30
0.0
 10
71.50427954514733
 20
133.0921228991346
 30
0.0
 10
71.51536361625773
 20
133.0523334051096
 30
0.0
 10
71.54148643405372
 20
132.9289967730125
 30
0.0
 10
71.5456139985986
 20
132.8415753625139
 30
0.0
 10
71.5456139985986
 20
132.7528381201956
 30
0.0
  0
SPLINE
  5
E0
330
1F
100
AcDbEntity
  8
0
  6
HIDDEN
 62
     7
370
     0
100
AcDbSpline
210
0.0
220
0.0
230
1.0
 70
     8
 71
     3
 72
    15
 73
    11
 74
     0
 42
0.00000001
 43
0.00000001
 40
0.0
 40
0.0
 40
0.0
 40
0.0
 40
0.4473636574799171
 40
0.5992470226073511
 40
0.7520169596383259
 40
0.8185648881248611
 40
0.8609323033594692
 40
0.9036118850751194
 40
0.9411960428053343
 40
1.0
 40
1.0
 40
1.0
 40
1.0
 10
71.52755056575889
 20
102.5224555534539
 30
0.0
 10
71.52599968751039
 20
102.4670175698524
 30
0.0
 10
71.52392227429789
 20
102.3927579690622
 30
0.0
 10
71.4898107448085
 20
102.3138987533046
 30
0.0
 10
71.46485518243246
 20
102.2785952735525
 30
0.0
 10
71.43578071795051
 20
102.2617459099209
 30
0.0
 10
71.41391660145334
 20
102.2575877451536
 30
0.0
 10
71.3937672000205
 20
102.2598162741925
 30
0.0
 10
71.37144979070717
 20
102.2679611714088
 30
0.0
 10
71.3585232520985
 20
102.276906231931
 30
0.0
 10
71.35063709700962
 20
102.2823633876857
 30
0.0
  0
SPLINE
  5
E1
330
1F
100
AcDbEntity
  8
0
  6
HIDDEN
 62
     7
370
     0
100
AcDbSpline
210
0.0
220
0.0
230
1.0
 70
     8
 71
     3
 72
    12
 73
     8
 74
     0
 42
0.00000001
 43
0.00000001
 40
0.0
 40
0.0
 40
0.0
 40
0.0
 40
0.2500000000000004
 40
0.2500000000000004
 40
0.5000000000000008
 40
0.5000000000000008
 40
1.0
 40
1.0
 40
1.0
 40
1.0
 10
71.35063710973002
 20
102.2823631704299
 30
0.0
 10
71.3204452680128
 20
102.3053136995277
 30
0.0
 10
71.2870862985982
 20
102.3252831735519
 30
0.0
 10
71.21394901401759
 20
102.3523843071774
 30
0.0
 10
71.17370714136362
 20
102.3589850478228
 30
0.0
 10
71.0560013643951
 20
102.3510161733161
 30
0.0
 10
70.98559088661571
 20
102.3107557151482
 30
0.0
 10
70.92910171214741
 20
102.2628629758701
 30
0.0
  0
SPLINE
  5
E2
330
1F
100
AcDbEntity
  8
0
  6
HIDDEN
 62
     7
370
     0
100
AcDbSpline
210
0.0
220
0.0
230
1.0
 70
     8
 71
     3
 72
    12
 73
     8
 74
     0
 42
0.00000001
 43
0.00000001
 40
0.0
 40
0.0
 40
0.0
 40
0.0
 40
0.2499999999999986
 40
0.2499999999999986
 40
0.4999999999999971
 40
0.4999999999999971
 40
1.0
 40
1.0
 40
1.0
 40
1.0
 10
70.92910171214706
 20
102.2628629758703
 30
0.0
 10
70.84094777440932
 20
102.1881241680162
 30
0.0
 10
70.7805943497806
 20
102.0971436675338
 30
0.0
 10
70.67433239171375
 20
101.9082298447812
 30
0.0
 10
70.63210022515167
 20
101.8117253852406
 30
0.0
 10
70.52102952983451
 20
101.5209576310735
 30
0.0
 10
70.46809275340773
 20
101.3252908165297
 30
0.0
 10
70.42429365503894
 20
101.1312243314634
 30
0.0
  0
SPLINE
  5
E3
330
1F
100
AcDbEntity
  8
0
  6
HIDDEN
 62
     7
370
     0
100
AcDbSpline
210
0.0
220
0.0
230
1.0
 70
     8
 71
     3
 72
    12
 73
     8
 74
     0
 42
0.00000001
 43
0.00000001
 40
0.0
 40
0.0
 40
0.0
 40
0.0
 40
0.5
 40
0.5
 40
0.75
 40
0.75
 40
1.0
 40
1.0
 40
1.0
 40
1.0
 10
70.42429365503894
 20
95.94505000270236
 30
0.0
 10
70.46804019587552
 20
95.91845583206118
 30
0.0
 10
70.52092455110703
 20
95.89869560673546
 30
0.0
 10
70.6324916384432
 20
95.87824461650638
 30
0.0
 10
70.67507523498617
 20
95.87298439184994
 30
0.0
 10
70.77999196206798
 20
95.86510159792728
 30
0.0
 10
70.84152556991278
 20
95.86253747274814
 30
0.0
 10
70.92910171213892
 20
95.8603372552285
 30
0.0
  0
SPLINE
  5
E4
330
1F
100
AcDbEntity
  8
0
  6
HIDDEN
 62
     7
370
     0
100
AcDbSpline
210
0.0
220
0.0
230
1.0
 70
     8
 71
     3
 72
    12
 73
     8
 74
     0
 42
0.00000001
 43
0.00000001
 40
0.0
 40
0.0
 40
0.0
 40
0.0
 40
0.25
 40
0.25
 40
0.5
 40
0.5
 40
1.0
 40
1.0
 40
1.0
 40
1.0
 10
70.92910171214689
 20
139.5699246601804
 30
0.0
 10
70.84041705229052
 20
139.5676965928394
 30
0.0
 10
70.78049863656712
 20
139.5651948088091
 30
0.0
 10
70.67483940924637
 20
139.557263372973
 30
0.0
 10
70.63219817113144
 20
139.5519712180762
 30
0.0
 10
70.5210088290289
 20
139.5315662775891
 30
0.0
 10
70.46808214690792
 20
139.5118315860022
 30
0.0
 10
70.42429365503894
 20
139.4852119127066
 30
0.0
  0
SPLINE
  5
E5
330
1F
100
AcDbEntity
  8
0
  6
HIDDEN
 62
     7
370
     0
100
AcDbSpline
210
0.0
220
0.0
230
1.0
 70
     8
 71
     3
 72
    12
 73
     8
 74
     0
 42
0.00000001
 43
0.00000001
 40
0.0
 40
0.0
 40
0.0
 40
0.0
 40
0.5000000000000013
 40
0.5000000000000013
 40
0.7499999999999993
 40
0.7499999999999993
 40
1.0
 40
1.0
 40
1.0
 40
1.0
 10
70.42429365503736
 20
134.2990375839457
 30
0.0
 10
70.46805513133611
 20
134.1051377959837
 30
0.0
 10
70.52096144698913
 20
133.9092814320468
 30
0.0
 10
70.63267264463651
 20
133.6171392855478
 30
0.0
 10
70.6751920882229
 20
133.5204213488499
 30
0.0
 10
70.78031543079032
 20
133.3336969124254
 30
0.0
 10
70.84188139450802
 20
133.2413462041557
 30
0.0
 10
70.92910171215077
 20
133.167398939536
 30
0.0
  0
SPLINE
  5
E6
330
1F
100
AcDbEntity
  8
0
  6
HIDDEN
 62
     7
370
     0
100
AcDbSpline
210
0.0
220
0.0
230
1.0
 70
    24
 71
     1
 72
     4
 73
     2
 74
     0
 42
0.00000001
 43
0.00000001
 40
0.0
 40
0.0
 40
1.0
 40
1.0
 10
143.9639278118081
 20
135.3786526498613
 30
0.0
 10
143.1904755894608
 20
135.3852296498832
 30
0.0
  0
SPLINE
  5
E7
330
1F
100
AcDbEntity
  8
0
  6
HIDDEN
 62
     7
370
     0
100
AcDbSpline
210
0.0
220
0.0
230
1.0
 70
    24
 71
     1
 72
     4
 73
     2
 74
     0
 42
0.00000001
 43
0.00000001
 40
0.0
 40
0.0
 40
1.0
 40
1.0
 10
133.9639224473901
 20
135.3786526498613
 30
0.0
 10
133.1904776756234
 20
135.3852296498832
 30
0.0
  0
SPLINE
  5
E8
330
1F
100
AcDbEntity
  8
0
  6
HIDDEN
 62
     7
370
     0
100
AcDbSpline
210
0.0
220
0.0
230
1.0
 70
    24
 71
     1
 72
     4
 73
     2
 74
     0
 42
0.00000001
 43
0.00000001
 40
0.0
 40
0.0
 40
1.0
 40
1.0
 10
123.9639245335527
 20
135.3786526498613
 30
0.0
 10
123.190479761786
 20
135.3852296498832
 30
0.0
  0
SPLINE
  5
E9
330
1F
100
AcDbEntity
  8
0
  6
HIDDEN
 62
     7
370
     0
100
AcDbSpline
210
0.0
220
0.0
230
1.0
 70
     8
 71
     3
 72
    10
 73
     6
 74
     0
 42
0.00000001
 43
0.00000001
 40
0.0
 40
0.0
 40
0.0
 40
0.0
 40
0.3332344406366098
 40
0.6663158442157668
 40
1.0
 40
1.0
 40
1.0
 40
1.0
 10
123.7456150714822
 20
114.2151308496711
 30
0.0
 10
124.1337734263368
 20
114.2539247336419
 30
0.0
 10
124.9099118753226
 20
114.3314946855923
 30
0.0
 10
125.96414220477
 20
114.9073546570743
 30
0.0
 10
126.445864979167
 20
115.5167557036286
 30
0.0
 10
126.6869441036649
 20
115.8217316744146
 30
0.0
  0
SPLINE
  5
EA
330
1F
100
AcDbEntity
  8
0
  6
HIDDEN
 62
     7
370
     0
100
AcDbSpline
210
0.0
220
0.0
230
1.0
 70
     8
 71
     3
 72
    14
 73
    10
 74
     0
 42
0.00000001
 43
0.00000001
 40
0.0
 40
0.0
 40
0.0
 40
0.0
 40
0.099521811579768
 40
0.2688098439676869
 40
0.4383929926498021
 40
0.6052255861311776
 40
0.7705875420010275
 40
0.9380106945665142
 40
1.0
 40
1.0
 40
1.0
 40
1.0
 10
126.6504139069982
 20
119.5832668355894
 30
0.0
 10
126.5288443942193
 20
119.780968446463
 30
0.0
 10
126.2004833923187
 20
120.3149633399191
 30
0.0
 10
125.3290307404599
 20
120.9013668934882
 30
0.0
 10
124.1952562703173
 20
121.2550270257342
 30
0.0
 10
122.9987299847541
 20
121.2038976318229
 30
0.0
 10
121.9186203410402
 20
120.7596570087573
 30
0.0
 10
121.1604032182709
 20
120.1860861385195
 30
0.0
 10
120.910414375051
 20
119.7137950832786
 30
0.0
 10
120.8428651456304
 20
119.5861778007117
 30
0.0
  0
SPLINE
  5
EB
330
1F
100
AcDbEntity
  8
0
  6
HIDDEN
 62
     7
370
     0
100
AcDbSpline
210
0.0
220
0.0
230
1.0
 70
     8
 71
     3
 72
    11
 73
     7
 74
     0
 42
0.00000001
 43
0.00000001
 40
0.0
 40
0.0
 40
0.0
 40
0.0
 40
0.0725350622519789
 40
0.4091151673497447
 40
0.7489154586190991
 40
1.0
 40
1.0
 40
1.0
 40
1.0
 10
120.8317563299604
 20
115.8357380674449
 30
0.0
 10
120.8686997685717
 20
115.7598545696625
 30
0.0
 10
121.0770696327548
 20
115.3318534219352
 30
0.0
 10
121.7800595835593
 20
114.7651095900719
 30
0.0
 10
122.7607697258355
 20
114.2861280468934
 30
0.0
 10
123.4519233416288
 20
114.236302995896
 30
0.0
 10
123.7456150714822
 20
114.2151308496711
 30
0.0
  0
SPLINE
  5
EC
330
1F
100
AcDbEntity
  8
0
  6
HIDDEN
 62
     7
370
     0
100
AcDbSpline
210
0.0
220
0.0
230
1.0
 70
     8
 71
     3
 72
    10
 73
     6
 74
     0
 42
0.00000001
 43
0.00000001
 40
0.0
 40
0.0
 40
0.0
 40
0.0
 40
0.3332351422508394
 40
0.6663161953400092
 40
1.0
 40
1.0
 40
1.0
 40
1.0
 10
143.745610899157
 20
114.2151308496711
 30
0.0
 10
144.133770533684
 20
114.2539245612756
 30
0.0
 10
144.909910316288
 20
114.3314940461291
 30
0.0
 10
145.9641417584036
 20
114.9073546654667
 30
0.0
 10
146.4458645323551
 20
115.5167557064277
 30
0.0
 10
146.68694365663
 20
115.8217316744146
 30
0.0
  0
SPLINE
  5
ED
330
1F
100
AcDbEntity
  8
0
  6
HIDDEN
 62
     7
370
     0
100
AcDbSpline
210
0.0
220
0.0
230
1.0
 70
     8
 71
     3
 72
    14
 73
    10
 74
     0
 42
0.00000001
 43
0.00000001
 40
0.0
 40
0.0
 40
0.0
 40
0.0
 40
0.0995218092914624
 40
0.2688098377869407
 40
0.4383924722279247
 40
0.6052255952082278
 40
0.7705875472759094
 40
0.9380106959918345
 40
0.9999999999999999
 40
0.9999999999999999
 40
0.9999999999999999
 40
0.9999999999999999
 10
146.6504134599633
 20
119.5832668355894
 30
0.0
 10
146.5288439500527
 20
119.780968454351
 30
0.0
 10
146.200482955899
 20
120.3149633691127
 30
0.0
 10
145.3290312287731
 20
120.9013659932316
 30
0.0
 10
144.1952572699041
 20
121.2550276432262
 30
0.0
 10
142.9987306750513
 20
121.2038979014961
 30
0.0
 10
141.9186198983586
 20
120.7596570655814
 30
0.0
 10
141.1604027708929
 20
120.1860861340403
 30
0.0
 10
140.9104139279432
 20
119.7137950823258
 30
0.0
 10
140.8428646985955
 20
119.5861778007117
 30
0.0
  0
SPLINE
  5
EE
330
1F
100
AcDbEntity
  8
0
  6
HIDDEN
 62
     7
370
     0
100
AcDbSpline
210
0.0
220
0.0
230
1.0
 70
     8
 71
     3
 72
    11
 73
     7
 74
     0
 42
0.00000001
 43
0.00000001
 40
0.0
 40
0.0
 40
0.0
 40
0.0
 40
0.0725356292311115
 40
0.4091145456660246
 40
0.7489151944471943
 40
1.0
 40
1.0
 40
1.0
 40
1.0
 10
140.8317558829255
 20
115.8357380674449
 30
0.0
 10
140.8687006637269
 20
115.7598546331494
 30
0.0
 10
141.0770761527453
 20
115.3318578393746
 30
0.0
 10
141.7800536717517
 20
114.765106178119
 30
0.0
 10
142.7607661474565
 20
114.2861285076942
 30
0.0
 10
143.4519193464249
 20
114.2363031333119
 30
0.0
 10
143.745610899157
 20
114.2151308496711
 30
0.0
  0
SPLINE
  5
EF
330
1F
100
AcDbEntity
  8
0
  6
HIDDEN
 62
     7
370
     0
100
AcDbSpline
210
0.0
220
0.0
230
1.0
 70
     8
 71
     3
 72
    10
 73
     6
 74
     0
 42
0.00000001
 43
0.00000001
 40
0.0
 40
0.0
 40
0.0
 40
0.0
 40
0.3332351422508394
 40
0.6663161953400092
 40
1.0
 40
1.0
 40
1.0
 40
1.0
 10
133.7456129853196
 20
114.2151308496711
 30
0.0
 10
134.1337726198466
 20
114.2539245612756
 30
0.0
 10
134.9099124024505
 20
114.3314940461291
 30
0.0
 10
135.9641438445662
 20
114.9073546654667
 30
0.0
 10
136.4458666185176
 20
115.5167557064277
 30
0.0
 10
136.6869457427926
 20
115.8217316744146
 30
0.0
  0
SPLINE
  5
F0
330
1F
100
AcDbEntity
  8
0
  6
HIDDEN
 62
     7
370
     0
100
AcDbSpline
210
0.0
220
0.0
230
1.0
 70
     8
 71
     3
 72
    14
 73
    10
 74
     0
 42
0.00000001
 43
0.00000001
 40
0.0
 40
0.0
 40
0.0
 40
0.0
 40
0.0995217849792943
 40
0.2688097721194251
 40
0.4383928754748725
 40
0.6052254243647566
 40
0.7705873360361912
 40
0.9380104438523401
 40
1.0
 40
1.0
 40
1.0
 40
1.0
 10
136.6504155461259
 20
119.5832668355894
 30
0.0
 10
136.5288460327341
 20
119.7809684468198
 30
0.0
 10
136.2004850291776
 20
120.3149633412396
 30
0.0
 10
135.3290323964997
 20
120.9013668836454
 30
0.0
 10
134.1952578474313
 20
121.2550270618263
 30
0.0
 10
132.9987318500824
 20
121.203897500174
 30
0.0
 10
131.9186211394598
 20
120.7596574980504
 30
0.0
 10
131.1604066782935
 20
120.1860843916474
 30
0.0
 10
130.9104136360592
 20
119.7137950278143
 30
0.0
 10
130.8428630594678
 20
119.5861778007117
 30
0.0
  0
SPLINE
  5
F1
330
1F
100
AcDbEntity
  8
0
  6
HIDDEN
 62
     7
370
     0
100
AcDbSpline
210
0.0
220
0.0
230
1.0
 70
     8
 71
     3
 72
    11
 73
     7
 74
     0
 42
0.00000001
 43
0.00000001
 40
0.0
 40
0.0
 40
0.0
 40
0.0
 40
0.0725351182050842
 40
0.4091147115447835
 40
0.7489152649340131
 40
1.0
 40
1.0
 40
1.0
 40
1.0
 10
130.8317579690881
 20
115.8357380674449
 30
0.0
 10
130.8687014203275
 20
115.7598545838062
 30
0.0
 10
131.0770709628508
 20
115.3318543228561
 30
0.0
 10
131.7800575074887
 20
114.7651083411378
 30
0.0
 10
132.7607677816182
 20
114.2861281967621
 30
0.0
 10
133.4519212977958
 20
114.2363030405885
 30
0.0
 10
133.7456129853196
 20
114.2151308496711
 30
0.0
  0
CIRCLE
  5
F2
330
1F
100
AcDbEntity
  8
0
  6
HIDDEN
 62
     7
370
     0
100
AcDbCircle
 10
56.2456139986
 20
117.7151309577
 30
0.0
 40
4.049999999999997
  0
LINE
  5
F3
330
1F
100
AcDbEntity
  8
0
  6
HIDDEN
 62
     7
370
     0
100
AcDbLine
 10
35.2758415405
 20
102.4021798996
 30
0.0
 11
35.2758415405
 21
133.0280820159
 31
0.0
  0
LINE
  5
F4
330
1F
100
AcDbEntity
  8
0
  6
HIDDEN
 62
     7
370
     0
100
AcDbLine
 10
41.7758416746
 20
103.3687204373
 30
0.0
 11
41.7758416746
 21
132.0615414781
 31
0.0
  0
LINE
  5
F5
330
1F
100
AcDbEntity
  8
0
  6
HIDDEN
 62
     7
370
     0
100
AcDbLine
 10
47.5758429979
 20
103.7151305256
 30
0.0
 11
47.5758429979
 21
131.7151313898
 31
0.0
  0
LINE
  5
F6
330
1F
100
AcDbEntity
  8
0
  6
HIDDEN
 62
     7
370
     0
100
AcDbLine
 10
40.17584253
 20
103.7151305256
 30
0.0
 11
40.17584253
 21
131.7151313898
 31
0.0
  0
LINE
  5
F7
330
1F
100
AcDbEntity
  8
0
  6
HIDDEN
 62
     7
370
     0
100
AcDbLine
 10
41.1758426939
 20
103.7151305256
 30
0.0
 11
41.1758426939
 21
131.7151313898
 31
0.0
  0
LINE
  5
F8
330
1F
100
AcDbEntity
  8
0
  6
HIDDEN
 62
     7
370
     0
100
AcDbLine
 10
60.7456140582
 20
104.2151306075
 30
0.0
 11
60.7456140582
 21
131.2151313079
 31
0.0
  0
SPLINE
  5
F9
330
1F
100
AcDbEntity
  8
0
  6
HIDDEN
 62
     7
370
     0
100
AcDbSpline
210
0.0
220
0.0
230
1.0
 70
    24
 71
     1
 72
     4
 73
     2
 74
     0
 42
0.00000001
 43
0.00000001
 40
0.0
 40
0.0
 40
1.0
 40
1.0
 10
60.24561397624685
 20
117.0807020873059
 30
0.0
 10
60.10868068677856
 20
116.6730931046647
 30
0.0
  0
SPLINE
  5
FA
330
1F
100
AcDbEntity
  8
0
  6
HIDDEN
 62
     7
370
     0
100
AcDbSpline
210
0.0
220
0.0
230
1.0
 70
     8
 71
     3
 72
     9
 73
     5
 74
     0
 42
0.00000001
 43
0.00000001
 40
0.0
 40
0.0
 40
0.0
 40
0.0
 40
0.6182753458841797
 40
1.0
 40
1.0
 40
1.0
 40
1.0
 10
55.49164343518688
 20
121.6732449149009
 30
0.0
 10
55.89909249061335
 20
121.7358084067449
 30
0.0
 10
56.55810155209191
 20
121.8369987457427
 30
0.0
 10
57.17947837447766
 20
121.6207897103671
 30
0.0
 10
57.41667322707845
 20
121.5382573911217
 30
0.0
  0
SPLINE
  5
FB
330
1F
100
AcDbEntity
  8
0
  6
HIDDEN
 62
     7
370
     0
100
AcDbSpline
210
0.0
220
0.0
230
1.0
 70
    24
 71
     1
 72
     4
 73
     2
 74
     0
 42
0.00000001
 43
0.00000001
 40
0.0
 40
0.0
 40
1.0
 40
1.0
 10
60.01157540721371
 20
119.0692416177359
 30
0.0
 10
60.24561397624685
 20
118.349559828103
 30
0.0
  0
LINE
  5
FC
330
1F
100
AcDbEntity
  8
0
  6
HIDDEN
 62
     7
370
     0
100
AcDbLine
 10
61.9956137974
 20
108.7151313451
 30
0.0
 11
61.9956137974
 21
126.7151305703
 31
0.0
  0
LINE
  5
FD
330
1F
100
AcDbEntity
  8
0
  6
HIDDEN
 62
     7
370
     0
100
AcDbLine
 10
87.7456147586
 20
108.7151313451
 30
0.0
 11
87.7456147586
 21
126.7151305703
 31
0.0
  0
LINE
  5
FE
330
1F
100
AcDbEntity
  8
0
  6
HIDDEN
 62
     7
370
     0
100
AcDbLine
 10
88.9473356668
 20
110.7151307416
 30
0.0
 11
88.9473356668
 21
124.7151311738
 31
0.0
  0
LINE
  5
FF
330
1F
100
AcDbEntity
  8
0
  6
HIDDEN
 62
     7
370
     0
100
AcDbLine
 10
117.745614088
 20
117.7151309577
 30
0.0
 11
117.745614088
 21
110.7151307416
 31
0.0
  0
LINE
  5
100
330
1F
100
AcDbEntity
  8
0
  6
HIDDEN
 62
     7
370
     0
100
AcDbLine
 10
117.745614088
 20
124.7151311738
 30
0.0
 11
117.745614088
 21
117.7151309577
 31
0.0
  0
LINE
  5
101
330
1F
100
AcDbEntity
  8
0
  6
HIDDEN
 62
     7
370
     0
100
AcDbLine
 10
118.3464736108
 20
117.7151309577
 30
0.0
 11
118.3464736108
 21
111.7151309056
 31
0.0
  0
LINE
  5
102
330
1F
100
AcDbEntity
  8
0
  6
HIDDEN
 62
     7
370
     0
100
AcDbLine
 10
118.3464736108
 20
123.7151310099
 30
0.0
 11
118.3464736108
 21
117.7151309577
 31
0.0
  0
SPLINE
  5
103
330
1F
100
AcDbEntity
  8
0
  6
HIDDEN
 62
     7
370
     0
100
AcDbSpline
210
0.0
220
0.0
230
1.0
 70
     8
 71
     3
 72
    12
 73
     8
 74
     0
 42
0.00000001
 43
0.00000001
 40
0.0
 40
0.0
 40
0.0
 40
0.0
 40
0.1887386532553915
 40
0.3765721752816769
 40
0.5860631407045162
 40
0.8161893158273983
 40
1.0
 40
1.0
 40
1.0
 40
1.0
 10
143.745610899157
 20
122.5885282521364
 30
0.0
 10
143.3913934971714
 20
122.6121128403732
 30
0.0
 10
142.6846574084706
 20
122.6591689125782
 30
0.0
 10
141.7205933153686
 20
122.9748481434079
 30
0.0
 10
140.9054875931
 20
123.3426813354496
 30
0.0
 10
140.3383460539811
 20
123.6604493648293
 30
0.0
 10
140.2884298156415
 20
123.69008188401
 30
0.0
 10
140.2662642661996
 20
123.7032403488871
 30
0.0
  0
SPLINE
  5
104
330
1F
100
AcDbEntity
  8
0
  6
HIDDEN
 62
     7
370
     0
100
AcDbSpline
210
0.0
220
0.0
230
1.0
 70
    24
 71
     1
 72
     4
 73
     2
 74
     0
 42
0.00000001
 43
0.00000001
 40
0.0
 40
0.0
 40
1.0
 40
1.0
 10
143.4993170563645
 20
122.6145335723874
 30
0.0
 10
143.7643416587777
 20
122.5905073126075
 30
0.0
  0
SPLINE
  5
105
330
1F
100
AcDbEntity
  8
0
  6
HIDDEN
 62
     7
370
     0
100
AcDbSpline
210
0.0
220
0.0
230
1.0
 70
     8
 71
     3
 72
    13
 73
     9
 74
     0
 42
0.00000001
 43
0.00000001
 40
0.0
 40
0.0
 40
0.0
 40
0.0
 40
0.0073455808117511
 40
0.1929218207919189
 40
0.3776873758501996
 40
0.5828918744801467
 40
0.8112417629525053
 40
1.0
 40
1.0
 40
1.0
 40
1.0
 10
147.2389124695725
 20
123.7112893042382
 30
0.0
 10
147.2411427654871
 20
123.7125681169499
 30
0.0
 10
147.2997184941814
 20
123.7461544163994
 30
0.0
 10
147.102135264338
 20
123.6310007796773
 30
0.0
 10
146.6651867127169
 20
123.3884584326869
 30
0.0
 10
145.8898294795233
 20
123.0207864384554
 30
0.0
 10
144.8839659530678
 20
122.6658014196116
 30
0.0
 10
144.1002664905317
 20
122.6126027803903
 30
0.0
 10
143.745610899157
 20
122.5885282521364
 30
0.0
  0
SPLINE
  5
106
330
1F
100
AcDbEntity
  8
0
  6
HIDDEN
 62
     7
370
     0
100
AcDbSpline
210
0.0
220
0.0
230
1.0
 70
     8
 71
     3
 72
    12
 73
     8
 74
     0
 42
0.00000001
 43
0.00000001
 40
0.0
 40
0.0
 40
0.0
 40
0.0
 40
0.1887385661928727
 40
0.3765720015741637
 40
0.5860633316478392
 40
0.8161894006167136
 40
1.0
 40
1.0
 40
1.0
 40
1.0
 10
133.7456129853196
 20
122.5885282521364
 30
0.0
 10
133.391395530109
 20
122.6121128200842
 30
0.0
 10
132.6846593352137
 20
122.6591688518084
 30
0.0
 10
131.720595307285
 20
122.974848645204
 30
0.0
 10
130.905485639225
 20
123.3426807705992
 30
0.0
 10
130.3383445616364
 20
123.6604494307325
 30
0.0
 10
130.2884282216503
 20
123.6900819042756
 30
0.0
 10
130.2662626270719
 20
123.7032403488871
 30
0.0
  0
SPLINE
  5
107
330
1F
100
AcDbEntity
  8
0
  6
HIDDEN
 62
     7
370
     0
100
AcDbSpline
210
0.0
220
0.0
230
1.0
 70
    24
 71
     1
 72
     4
 73
     2
 74
     0
 42
0.00000001
 43
0.00000001
 40
0.0
 40
0.0
 40
1.0
 40
1.0
 10
133.4993191425271
 20
122.6145335723874
 30
0.0
 10
133.7643437449403
 20
122.5905073126075
 30
0.0
  0
SPLINE
  5
108
330
1F
100
AcDbEntity
  8
0
  6
HIDDEN
 62
     7
370
     0
100
AcDbSpline
210
0.0
220
0.0
230
1.0
 70
     8
 71
     3
 72
    13
 73
     9
 74
     0
 42
0.00000001
 43
0.00000001
 40
0.0
 40
0.0
 40
0.0
 40
0.0
 40
0.0073455853832983
 40
0.1929221519945895
 40
0.3776872556082833
 40
0.5828927509431836
 40
0.8112416454781746
 40
1.0
 40
1.0
 40
1.0
 40
1.0
 10
137.2389145557351
 20
123.7112893042382
 30
0.0
 10
137.2411448548886
 20
123.7125681167401
 30
0.0
 10
137.2997207327554
 20
123.7461544474377
 30
0.0
 10
137.1021243920847
 20
123.6310015601067
 30
0.0
 10
136.6651924112465
 20
123.3884568189999
 30
0.0
 10
135.8898233735517
 20
123.0207888201283
 30
0.0
 10
134.8839671742578
 20
122.6658005575394
 30
0.0
 10
134.1002689722214
 20
122.6126025569522
 30
0.0
 10
133.7456129853196
 20
122.5885282521364
 30
0.0
  0
SPLINE
  5
109
330
1F
100
AcDbEntity
  8
0
  6
HIDDEN
 62
     7
370
     0
100
AcDbSpline
210
0.0
220
0.0
230
1.0
 70
     8
 71
     3
 72
    12
 73
     8
 74
     0
 42
0.00000001
 43
0.00000001
 40
0.0
 40
0.0
 40
0.0
 40
0.0
 40
0.1887391672437759
 40
0.3765725507316297
 40
0.5860633616423805
 40
0.8161893670334756
 40
1.0
 40
1.0
 40
1.0
 40
1.0
 10
123.7456150714822
 20
122.5885282521364
 30
0.0
 10
123.3913963734907
 20
122.612112740323
 30
0.0
 10
122.6846589190056
 20
122.6591685316769
 30
0.0
 10
121.7205938372554
 20
122.9748481521918
 30
0.0
 10
120.9054877004018
 20
123.3426813325665
 30
0.0
 10
120.3383477090815
 20
123.6604494089646
 30
0.0
 10
120.2884280583373
 20
123.6900818952568
 30
0.0
 10
120.2662609879441
 20
123.7032403488871
 30
0.0
  0
SPLINE
  5
10A
330
1F
100
AcDbEntity
  8
0
  6
HIDDEN
 62
     7
370
     0
100
AcDbSpline
210
0.0
220
0.0
230
1.0
 70
    24
 71
     1
 72
     4
 73
     2
 74
     0
 42
0.00000001
 43
0.00000001
 40
0.0
 40
0.0
 40
1.0
 40
1.0
 10
123.4993175033994
 20
122.6145335723874
 30
0.0
 10
123.7643458311029
 20
122.5905073126075
 30
0.0
  0
SPLINE
  5
10B
330
1F
100
AcDbEntity
  8
0
  6
HIDDEN
 62
     7
370
     0
100
AcDbSpline
210
0.0
220
0.0
230
1.0
 70
     8
 71
     3
 72
    13
 73
     9
 74
     0
 42
0.00000001
 43
0.00000001
 40
0.0
 40
0.0
 40
0.0
 40
0.0
 40
0.0073456904071579
 40
0.1929222814999385
 40
0.3776876927041636
 40
0.5828927806117369
 40
0.8112422732964608
 40
1.0
 40
1.0
 40
1.0
 40
1.0
 10
127.2389129166074
 20
123.7112893042382
 30
0.0
 10
127.2411444857888
 20
123.7125681176558
 30
0.0
 10
127.2997529206585
 20
123.7461540147526
 30
0.0
 10
127.1021142294147
 20
123.6310014430904
 30
0.0
 10
126.6651934857122
 20
123.3884575594545
 30
0.0
 10
125.8898244026114
 20
123.0207876407685
 30
0.0
 10
124.8839673310907
 20
122.6658013958906
 30
0.0
 10
124.1002696625715
 20
122.6126027641945
 30
0.0
 10
123.7456150714822
 20
122.5885282521364
 30
0.0
  0
SPLINE
  5
10C
330
1F
100
AcDbEntity
  8
0
  6
HIDDEN
 62
     7
370
     0
100
AcDbSpline
210
0.0
220
0.0
230
1.0
 70
    24
 71
     1
 72
     4
 73
     2
 74
     0
 42
0.00000001
 43
0.00000001
 40
0.0
 40
0.0
 40
1.0
 40
1.0
 10
123.7456150714822
 20
121.2151310657379
 30
0.0
 10
123.3267695073552
 20
121.1514183570859
 30
0.0
  0
SPLINE
  5
10D
330
1F
100
AcDbEntity
  8
0
  6
HIDDEN
 62
     7
370
     0
100
AcDbSpline
210
0.0
220
0.0
230
1.0
 70
     8
 71
     3
 72
    10
 73
     6
 74
     0
 42
0.00000001
 43
0.00000001
 40
0.0
 40
0.0
 40
0.0
 40
0.0
 40
0.469640346383329
 40
0.9572864720975265
 40
1.0
 40
1.0
 40
1.0
 40
1.0
 10
122.850193119473
 20
114.3365310755786
 30
0.0
 10
123.1578892186886
 20
114.2819807376861
 30
0.0
 10
123.7850783338585
 20
114.1707886288414
 30
0.0
 10
124.4887962568999
 20
114.2389494145338
 30
0.0
 10
124.800812947224
 20
114.3852351199308
 30
0.0
 10
124.8259418074555
 20
114.397016518679
 30
0.0
  0
SPLINE
  5
10E
330
1F
100
AcDbEntity
  8
0
  6
HIDDEN
 62
     7
370
     0
100
AcDbSpline
210
0.0
220
0.0
230
1.0
 70
    24
 71
     1
 72
     4
 73
     2
 74
     0
 42
0.00000001
 43
0.00000001
 40
0.0
 40
0.0
 40
1.0
 40
1.0
 10
123.9778049652047
 20
121.1797824845877
 30
0.0
 10
123.7456150714822
 20
121.2151310657379
 30
0.0
  0
SPLINE
  5
10F
330
1F
100
AcDbEntity
  8
0
  6
HIDDEN
 62
     7
370
     0
100
AcDbSpline
210
0.0
220
0.0
230
1.0
 70
    24
 71
     1
 72
     4
 73
     2
 74
     0
 42
0.00000001
 43
0.00000001
 40
0.0
 40
0.0
 40
1.0
 40
1.0
 10
143.745610899157
 20
121.2151310657379
 30
0.0
 10
143.3267690603204
 20
121.1514183570859
 30
0.0
  0
SPLINE
  5
110
330
1F
100
AcDbEntity
  8
0
  6
HIDDEN
 62
     7
370
     0
100
AcDbSpline
210
0.0
220
0.0
230
1.0
 70
     8
 71
     3
 72
    10
 73
     6
 74
     0
 42
0.00000001
 43
0.00000001
 40
0.0
 40
0.0
 40
0.0
 40
0.0
 40
0.469641111582524
 40
0.9572880318332764
 40
1.0
 40
1.0
 40
1.0
 40
1.0
 10
142.8501926724381
 20
114.3365310755786
 30
0.0
 10
143.157888366813
 20
114.2819813816049
 30
0.0
 10
143.7850766567799
 20
114.1707905852854
 30
0.0
 10
144.4887978424909
 20
114.2389442467863
 30
0.0
 10
144.8008100197134
 20
114.3852351171864
 30
0.0
 10
144.8259376351304
 20
114.397016518679
 30
0.0
  0
SPLINE
  5
111
330
1F
100
AcDbEntity
  8
0
  6
HIDDEN
 62
     7
370
     0
100
AcDbSpline
210
0.0
220
0.0
230
1.0
 70
    24
 71
     1
 72
     4
 73
     2
 74
     0
 42
0.00000001
 43
0.00000001
 40
0.0
 40
0.0
 40
1.0
 40
1.0
 10
143.9778007928796
 20
121.1797824845877
 30
0.0
 10
143.745610899157
 20
121.2151310657379
 30
0.0
  0
SPLINE
  5
112
330
1F
100
AcDbEntity
  8
0
  6
HIDDEN
 62
     7
370
     0
100
AcDbSpline
210
0.0
220
0.0
230
1.0
 70
    24
 71
     1
 72
     4
 73
     2
 74
     0
 42
0.00000001
 43
0.00000001
 40
0.0
 40
0.0
 40
1.0
 40
1.0
 10
133.7456129853196
 20
121.2151310657379
 30
0.0
 10
133.3267711464829
 20
121.1514183570859
 30
0.0
  0
SPLINE
  5
113
330
1F
100
AcDbEntity
  8
0
  6
HIDDEN
 62
     7
370
     0
100
AcDbSpline
210
0.0
220
0.0
230
1.0
 70
     8
 71
     3
 72
    10
 73
     6
 74
     0
 42
0.00000001
 43
0.00000001
 40
0.0
 40
0.0
 40
0.0
 40
0.0
 40
0.4696420804832886
 40
0.9572881098628135
 40
1.0
 40
1.0
 40
1.0
 40
1.0
 10
132.8501910333104
 20
114.3365310755786
 30
0.0
 10
133.1578879569284
 20
114.2819813457334
 30
0.0
 10
133.7850775096997
 20
114.1707906966261
 30
0.0
 10
134.4887999278123
 20
114.2389442429981
 30
0.0
 10
134.8008121058133
 20
114.385235116904
 30
0.0
 10
134.825939721293
 20
114.397016518679
 30
0.0
  0
SPLINE
  5
114
330
1F
100
AcDbEntity
  8
0
  6
HIDDEN
 62
     7
370
     0
100
AcDbSpline
210
0.0
220
0.0
230
1.0
 70
    24
 71
     1
 72
     4
 73
     2
 74
     0
 42
0.00000001
 43
0.00000001
 40
0.0
 40
0.0
 40
1.0
 40
1.0
 10
133.9778028790421
 20
121.1797824845877
 30
0.0
 10
133.7456129853196
 20
121.2151310657379
 30
0.0
  0
SPLINE
  5
115
330
1F
100
AcDbEntity
  8
0
  6
HIDDEN
 62
     7
370
     0
100
AcDbSpline
210
0.0
220
0.0
230
1.0
 70
     8
 71
     3
 72
    16
 73
    12
 74
     0
 42
0.00000001
 43
0.00000001
 40
0.0
 40
0.0
 40
0.0
 40
0.0
 40
0.2499999999999994
 40
0.2499999999999994
 40
0.3749999999999994
 40
0.3749999999999994
 40
0.4999999999999993
 40
0.4999999999999993
 40
0.7499999999999997
 40
0.7499999999999997
 40
1.0
 40
1.0
 40
1.0
 40
1.0
 10
70.42429365503894
 20
101.1312243314634
 30
0.0
 10
70.26306117755449
 20
100.4168301692713
 30
0.0
 10
70.14258133791485
 20
99.76348790656264
 30
0.0
 10
70.02020082060152
 20
98.87523266475876
 30
0.0
 10
69.98922316020408
 20
98.5945521284069
 30
0.0
 10
69.94760942257612
 20
98.06551813856693
 30
0.0
 10
69.93737350964331
 20
97.82219715998846
 30
0.0
 10
69.93718511258719
 20
97.15417446947524
 30
0.0
 10
69.9773298152248
 20
96.79049356005576
 30
0.0
 10
70.14148357016438
 20
96.23060268750746
 30
0.0
 10
70.26303522057394
 20
96.0430813953903
 30
0.0
 10
70.42429365503894
 20
95.94505000270236
 30
0.0
  0
SPLINE
  5
116
330
1F
100
AcDbEntity
  8
0
  6
HIDDEN
 62
     7
370
     0
100
AcDbSpline
210
0.0
220
0.0
230
1.0
 70
     8
 71
     3
 72
    16
 73
    12
 74
     0
 42
0.00000001
 43
0.00000001
 40
0.0
 40
0.0
 40
0.0
 40
0.0
 40
0.2499999999999994
 40
0.2499999999999994
 40
0.3749999999999994
 40
0.3749999999999994
 40
0.4999999999999993
 40
0.4999999999999993
 40
0.7499999999999997
 40
0.7499999999999997
 40
1.0
 40
1.0
 40
1.0
 40
1.0
 10
70.42429365503894
 20
139.4852119127066
 30
0.0
 10
70.26306117755449
 20
139.3871962996519
 30
0.0
 10
70.14258133791485
 20
139.2004602679758
 30
0.0
 10
70.02020082060153
 20
138.7874204604169
 30
0.0
 10
69.98922316020408
 20
138.627419961184
 30
0.0
 10
69.94760942257612
 20
138.2606143100928
 30
0.0
 10
69.93737350964331
 20
138.0572771574688
 30
0.0
 10
69.93718511258719
 20
137.3899898908422
 30
0.0
 10
69.9773298152248
 20
136.8691754269541
 30
0.0
 10
70.14148357016438
 20
135.6718164114764
 30
0.0
 10
70.26303522057394
 20
135.0135467571804
 30
0.0
 10
70.42429365503894
 20
134.2990375839455
 30
0.0
  0
LINE
  5
117
330
1F
100
AcDbEntity
  8
0
  6
HIDDEN
 62
     7
370
     0
100
AcDbLine
 10
71.5456140037
 20
124.7370181856
 30
0.0
 11
71.5456140037
 21
110.6778131117
 31
0.0
  0
SPLINE
  5
118
330
1F
100
AcDbEntity
  8
0
  6
HIDDEN
 62
     7
370
     0
100
AcDbSpline
210
0.0
220
0.0
230
1.0
 70
     8
 71
     3
 72
     8
 73
     4
 74
     0
 42
0.00000001
 43
0.00000001
 40
0.0000249638557296
 40
0.0000249638557296
 40
0.0000249638557296
 40
0.0000249638557296
 40
0.0049776420541172
 40
0.0049776420541172
 40
0.0049776420541172
 40
0.0049776420541172
 10
35.24561399859859
 20
113.7499200608679
 30
0.0
 10
36.89559023310814
 20
113.7086408230997
 30
0.0
 10
38.54559155285317
 20
113.6684191418602
 30
0.0
 10
40.19561399859859
 20
113.6291699046052
 30
0.0
  0
SPLINE
  5
119
330
1F
100
AcDbEntity
  8
0
  6
HIDDEN
 62
     7
370
     0
100
AcDbSpline
210
0.0
220
0.0
230
1.0
 70
     8
 71
     3
 72
     8
 73
     4
 74
     0
 42
0.00000001
 43
0.00000001
 40
0.0000249631533153
 40
0.0000249631533153
 40
0.0000249631533153
 40
0.0000249631533153
 40
0.0049776413517028
 40
0.0049776413517028
 40
0.0049776413517028
 40
0.0049776413517028
 10
40.19561399859858
 20
121.8010920108037
 30
0.0
 10
38.54559155285316
 20
121.7618427735487
 30
0.0
 10
36.89559023310813
 20
121.7216210923092
 30
0.0
 10
35.24561399859859
 20
121.680341854541
 30
0.0
  0
SPLINE
  5
11A
330
1F
100
AcDbEntity
  8
0
  6
HIDDEN
 62
     7
370
     0
100
AcDbSpline
210
0.0
220
0.0
230
1.0
 70
     8
 71
     3
 72
     8
 73
     4
 74
     0
 42
0.00000001
 43
0.00000001
 40
0.0
 40
0.0
 40
0.0
 40
0.0
 40
1.0
 40
1.0
 40
1.0
 40
1.0
 10
33.7456139985986
 20
114.8131436247221
 30
0.0
 10
34.21237460997578
 20
114.3977803791
 30
0.0
 10
34.71812215675507
 20
114.053189949796
 30
0.0
 10
35.24561399859859
 20
113.7499200608679
 30
0.0
  0
SPLINE
  5
11B
330
1F
100
AcDbEntity
  8
0
  6
HIDDEN
 62
     7
370
     0
100
AcDbSpline
210
0.0
220
0.0
230
1.0
 70
     8
 71
     3
 72
     8
 73
     4
 74
     0
 42
0.00000001
 43
0.00000001
 40
0.0
 40
0.0
 40
0.0
 40
0.0
 40
1.0
 40
1.0
 40
1.0
 40
1.0
 10
35.24561399859859
 20
121.680341854541
 30
0.0
 10
34.71812215675507
 20
121.3770719656129
 30
0.0
 10
34.21237460997577
 20
121.0324815363089
 30
0.0
 10
33.74561399859859
 20
120.6171182906868
 30
0.0
  0
LINE
  5
11C
330
1F
100
AcDbEntity
  8
0
  6
HIDDEN
 62
     7
370
     0
100
AcDbLine
 10
40.1956126456
 20
113.6291696941
 30
0.0
 11
40.1956126456
 21
121.8010922213
 31
0.0
  0
SPLINE
  5
11D
330
1F
100
AcDbEntity
  8
0
  6
HIDDEN
 62
     7
370
     0
100
AcDbSpline
210
0.0
220
0.0
230
1.0
 70
     8
 71
     3
 72
    24
 73
    20
 74
     0
 42
0.00000001
 43
0.00000001
 40
0.0
 40
0.0
 40
0.0
 40
0.0
 40
0.1249999999999999
 40
0.1249999999999999
 40
0.2499999999999997
 40
0.2499999999999997
 40
0.3749999999999997
 40
0.3749999999999997
 40
0.4374999999999997
 40
0.4374999999999997
 40
0.4999999999999998
 40
0.4999999999999998
 40
0.6249999999999999
 40
0.6249999999999999
 40
0.7499999999999999
 40
0.7499999999999999
 40
0.875
 40
0.875
 40
1.0
 40
1.0
 40
1.0
 40
1.0
 10
40.19561399859859
 20
113.6291699046052
 30
0.0
 10
40.43341763087368
 20
113.9281770069354
 30
0.0
 10
40.66350329208497
 20
114.2325148582541
 30
0.0
 10
41.09825669069479
 20
114.8582483956501
 30
0.0
 10
41.30318948298095
 20
115.1794731229776
 30
0.0
 10
41.66829143347965
 20
115.8513988937103
 30
0.0
 10
41.83009181927117
 20
116.2067141255892
 30
0.0
 10
42.00195202385089
 20
116.7569453469417
 30
0.0
 10
42.04753721551102
 20
116.9433491319221
 30
0.0
 10
42.11001195508588
 20
117.3234836340184
 30
0.0
 10
42.12668310083434
 20
117.5191534263043
 30
0.0
 10
42.12720414401083
 20
118.0976338049787
 30
0.0
 10
42.06276184312413
 20
118.4755456439475
 30
0.0
 10
41.83291274975079
 20
119.2175136690459
 30
0.0
 10
41.67439207208768
 20
119.5662291292069
 30
0.0
 10
41.31015774218752
 20
120.23932152694
 30
0.0
 10
41.10342150212394
 20
120.5642740141817
 30
0.0
 10
40.66548355638356
 20
121.1951978246435
 30
0.0
 10
40.434210829104
 20
121.5010875649841
 30
0.0
 10
40.19561399859869
 20
121.8010920108036
 30
0.0
  0
SPLINE
  5
11E
330
1F
100
AcDbEntity
  8
0
  6
HIDDEN
 62
     7
370
     0
100
AcDbSpline
210
0.0
220
0.0
230
1.0
 70
     8
 71
     3
 72
    19
 73
    15
 74
     0
 42
0.00000001
 43
0.00000001
 40
0.0
 40
0.0
 40
0.0
 40
0.0
 40
0.0737825572974566
 40
0.16005456007438
 40
0.2501413105303152
 40
0.3423644242035593
 40
0.434346897480226
 40
0.52282841024173
 40
0.6051098910825604
 40
0.6821925132024842
 40
0.7583150963244203
 40
0.8377524284751746
 40
0.9227254546054744
 40
1.0
 40
1.0
 40
1.0
 40
1.0
 10
53.05677506966068
 20
120.3611424909201
 30
0.0
 10
53.35909731800835
 20
120.6397656742813
 30
0.0
 10
54.01491701621838
 20
121.2441756144195
 30
0.0
 10
55.34326072757753
 20
121.7497627405588
 30
0.0
 10
56.8501987371645
 20
121.842402535932
 30
0.0
 10
58.34140777162648
 20
121.4270736176163
 30
0.0
 10
59.59827831145406
 20
120.5439414743842
 30
0.0
 10
60.43799988270053
 20
119.319808001761
 30
0.0
 10
60.76726111282495
 20
117.9556796003309
 30
0.0
 10
60.61319784181308
 20
116.6345853038714
 30
0.0
 10
60.04547434688627
 20
115.4527450132996
 30
0.0
 10
59.10723691369765
 20
114.4897910563246
 30
0.0
 10
57.91068491757238
 20
113.8200479970349
 30
0.0
 10
57.00978460044378
 20
113.7261546290085
 30
0.0
 10
56.58070783955528
 20
113.6814355169651
 30
0.0
  0
SPLINE
  5
11F
330
1F
100
AcDbEntity
  8
0
  6
HIDDEN
 62
     7
370
     0
100
AcDbSpline
210
0.0
220
0.0
230
1.0
 70
     8
 71
     3
 72
    13
 73
     9
 74
     0
 42
0.00000001
 43
0.00000001
 40
0.0
 40
0.0
 40
0.0
 40
0.0
 40
0.071014348096028
 40
0.2845446691340678
 40
0.4859797195079917
 40
0.6752848981794662
 40
0.8594837670013883
 40
1.0
 40
1.0
 40
1.0
 40
1.0
 10
53.95271111173107
 20
114.393873072159
 30
0.0
 10
53.8056169481784
 20
114.4677886131941
 30
0.0
 10
53.21623098292179
 20
114.7639579611018
 30
0.0
 10
52.50511157396178
 20
115.6967226516574
 30
0.0
 10
51.99223242378149
 20
117.0100281412097
 30
0.0
 10
51.99821634420997
 20
118.3663850207368
 30
0.0
 10
52.38678274756607
 20
119.5167240038225
 30
0.0
 10
52.85441381367321
 20
120.1060983956477
 30
0.0
 10
53.05677506966068
 20
120.3611424909201
 30
0.0
  0
CIRCLE
  5
120
330
1F
100
AcDbEntity
  8
0
  6
HIDDEN
 62
     7
370
     0
100
AcDbCircle
 10
83.7456139986
 20
117.7151309577
 30
0.0
 40
2.0
  0
SPLINE
  5
121
330
1F
100
AcDbEntity
  8
0
  6
HIDDEN
 62
     7
370
     0
100
AcDbSpline
210
0.0
220
0.0
230
1.0
 70
    24
 71
     1
 72
     4
 73
     2
 74
     0
 42
0.00000001
 43
0.00000001
 40
0.0
 40
0.0
 40
1.0
 40
1.0
 10
139.7456176940865
 20
135.1151312020835
 30
0.0
 10
139.7456176940865
 20
126.4651309949574
 30
0.0
  0
SPLINE
  5
122
330
1F
100
AcDbEntity
  8
0
  6
HIDDEN
 62
     7
370
     0
100
AcDbSpline
210
0.0
220
0.0
230
1.0
 70
    24
 71
     1
 72
     4
 73
     2
 74
     0
 42
0.00000001
 43
0.00000001
 40
0.0
 40
0.0
 40
1.0
 40
1.0
 10
147.7456115548081
 20
126.4651309949574
 30
0.0
 10
147.7456115548081
 20
135.1151312020835
 30
0.0
  0
SPLINE
  5
123
330
1F
100
AcDbEntity
  8
0
  6
HIDDEN
 62
     7
370
     0
100
AcDbSpline
210
0.0
220
0.0
230
1.0
 70
    24
 71
     1
 72
     4
 73
     2
 74
     0
 42
0.00000001
 43
0.00000001
 40
0.0
 40
0.0
 40
1.0
 40
1.0
 10
139.7456176940865
 20
126.4651309949574
 30
0.0
 10
140.9956165019937
 20
125.2151307900664
 30
0.0
  0
SPLINE
  5
124
330
1F
100
AcDbEntity
  8
0
  6
HIDDEN
 62
     7
370
     0
100
AcDbSpline
210
0.0
220
0.0
230
1.0
 70
    24
 71
     1
 72
     4
 73
     2
 74
     0
 42
0.00000001
 43
0.00000001
 40
0.0
 40
0.0
 40
1.0
 40
1.0
 10
146.495612746901
 20
125.2151307900664
 30
0.0
 10
147.7456115548081
 20
126.4651309949574
 30
0.0
  0
SPLINE
  5
125
330
1F
100
AcDbEntity
  8
0
  6
HIDDEN
 62
     7
370
     0
100
AcDbSpline
210
0.0
220
0.0
230
1.0
 70
    24
 71
     1
 72
     4
 73
     2
 74
     0
 42
0.00000001
 43
0.00000001
 40
0.0
 40
0.0
 40
1.0
 40
1.0
 10
147.7456115548081
 20
135.1151312020835
 30
0.0
 10
147.1456162993379
 20
135.7151301828441
 30
0.0
  0
SPLINE
  5
126
330
1F
100
AcDbEntity
  8
0
  6
HIDDEN
 62
     7
370
     0
100
AcDbSpline
210
0.0
220
0.0
230
1.0
 70
    24
 71
     1
 72
     4
 73
     2
 74
     0
 42
0.00000001
 43
0.00000001
 40
0.0
 40
0.0
 40
1.0
 40
1.0
 10
140.3456129495568
 20
135.7151301828441
 30
0.0
 10
139.7456176940865
 20
135.1151312020835
 30
0.0
  0
SPLINE
  5
127
330
1F
100
AcDbEntity
  8
0
  6
HIDDEN
 62
     7
370
     0
100
AcDbSpline
210
0.0
220
0.0
230
1.0
 70
    24
 71
     1
 72
     4
 73
     2
 74
     0
 42
0.00000001
 43
0.00000001
 40
0.0
 40
0.0
 40
1.0
 40
1.0
 10
145.595612413115
 20
125.2151307900664
 30
0.0
 10
143.745610899157
 20
126.2832287949738
 30
0.0
  0
SPLINE
  5
128
330
1F
100
AcDbEntity
  8
0
  6
HIDDEN
 62
     7
370
     0
100
AcDbSpline
210
0.0
220
0.0
230
1.0
 70
    24
 71
     1
 72
     4
 73
     2
 74
     0
 42
0.00000001
 43
0.00000001
 40
0.0
 40
0.0
 40
1.0
 40
1.0
 10
143.745610899157
 20
126.2832287949738
 30
0.0
 10
141.8956168357797
 20
125.2151307900664
 30
0.0
  0
SPLINE
  5
129
330
1F
100
AcDbEntity
  8
0
  6
HIDDEN
 62
     7
370
     0
100
AcDbSpline
210
0.0
220
0.0
230
1.0
 70
    24
 71
     1
 72
     4
 73
     2
 74
     0
 42
0.00000001
 43
0.00000001
 40
0.0
 40
0.0
 40
1.0
 40
1.0
 10
129.7456123296685
 20
135.1151312020835
 30
0.0
 10
129.7456123296685
 20
126.4651309949574
 30
0.0
  0
SPLINE
  5
12A
330
1F
100
AcDbEntity
  8
0
  6
HIDDEN
 62
     7
370
     0
100
AcDbSpline
210
0.0
220
0.0
230
1.0
 70
    24
 71
     1
 72
     4
 73
     2
 74
     0
 42
0.00000001
 43
0.00000001
 40
0.0
 40
0.0
 40
1.0
 40
1.0
 10
137.7456136409707
 20
126.4651309949574
 30
0.0
 10
137.7456136409707
 20
135.1151312020835
 30
0.0
  0
SPLINE
  5
12B
330
1F
100
AcDbEntity
  8
0
  6
HIDDEN
 62
     7
370
     0
100
AcDbSpline
210
0.0
220
0.0
230
1.0
 70
    24
 71
     1
 72
     4
 73
     2
 74
     0
 42
0.00000001
 43
0.00000001
 40
0.0
 40
0.0
 40
1.0
 40
1.0
 10
129.7456123296685
 20
126.4651309949574
 30
0.0
 10
130.9956148628659
 20
125.2151307900664
 30
0.0
  0
SPLINE
  5
12C
330
1F
100
AcDbEntity
  8
0
  6
HIDDEN
 62
     7
370
     0
100
AcDbSpline
210
0.0
220
0.0
230
1.0
 70
    24
 71
     1
 72
     4
 73
     2
 74
     0
 42
0.00000001
 43
0.00000001
 40
0.0
 40
0.0
 40
1.0
 40
1.0
 10
136.4956148330636
 20
125.2151307900664
 30
0.0
 10
137.7456136409707
 20
126.4651309949574
 30
0.0
  0
SPLINE
  5
12D
330
1F
100
AcDbEntity
  8
0
  6
HIDDEN
 62
     7
370
     0
100
AcDbSpline
210
0.0
220
0.0
230
1.0
 70
    24
 71
     1
 72
     4
 73
     2
 74
     0
 42
0.00000001
 43
0.00000001
 40
0.0
 40
0.0
 40
1.0
 40
1.0
 10
137.7456136409707
 20
135.1151312020835
 30
0.0
 10
137.1456109349198
 20
135.7151301828441
 30
0.0
  0
SPLINE
  5
12E
330
1F
100
AcDbEntity
  8
0
  6
HIDDEN
 62
     7
370
     0
100
AcDbSpline
210
0.0
220
0.0
230
1.0
 70
    24
 71
     1
 72
     4
 73
     2
 74
     0
 42
0.00000001
 43
0.00000001
 40
0.0
 40
0.0
 40
1.0
 40
1.0
 10
130.3456150357194
 20
135.7151301828441
 30
0.0
 10
129.7456123296685
 20
135.1151312020835
 30
0.0
  0
SPLINE
  5
12F
330
1F
100
AcDbEntity
  8
0
  6
HIDDEN
 62
     7
370
     0
100
AcDbSpline
210
0.0
220
0.0
230
1.0
 70
    24
 71
     1
 72
     4
 73
     2
 74
     0
 42
0.00000001
 43
0.00000001
 40
0.0
 40
0.0
 40
1.0
 40
1.0
 10
135.5956144992776
 20
125.2151307900664
 30
0.0
 10
133.7456129853196
 20
126.2832287949738
 30
0.0
  0
SPLINE
  5
130
330
1F
100
AcDbEntity
  8
0
  6
HIDDEN
 62
     7
370
     0
100
AcDbSpline
210
0.0
220
0.0
230
1.0
 70
    24
 71
     1
 72
     4
 73
     2
 74
     0
 42
0.00000001
 43
0.00000001
 40
0.0
 40
0.0
 40
1.0
 40
1.0
 10
133.7456129853196
 20
126.2832287949738
 30
0.0
 10
131.8956151966519
 20
125.2151307900664
 30
0.0
  0
SPLINE
  5
131
330
1F
100
AcDbEntity
  8
0
  6
HIDDEN
 62
     7
370
     0
100
AcDbSpline
210
0.0
220
0.0
230
1.0
 70
    24
 71
     1
 72
     4
 73
     2
 74
     0
 42
0.00000001
 43
0.00000001
 40
0.0
 40
0.0
 40
1.0
 40
1.0
 10
119.7456144158311
 20
135.1151312020835
 30
0.0
 10
119.7456144158311
 20
126.4651309949574
 30
0.0
  0
SPLINE
  5
132
330
1F
100
AcDbEntity
  8
0
  6
HIDDEN
 62
     7
370
     0
100
AcDbSpline
210
0.0
220
0.0
230
1.0
 70
    24
 71
     1
 72
     4
 73
     2
 74
     0
 42
0.00000001
 43
0.00000001
 40
0.0
 40
0.0
 40
1.0
 40
1.0
 10
127.7456157271333
 20
126.4651309949574
 30
0.0
 10
127.7456157271333
 20
135.1151312020835
 30
0.0
  0
SPLINE
  5
133
330
1F
100
AcDbEntity
  8
0
  6
HIDDEN
 62
     7
370
     0
100
AcDbSpline
210
0.0
220
0.0
230
1.0
 70
    24
 71
     1
 72
     4
 73
     2
 74
     0
 42
0.00000001
 43
0.00000001
 40
0.0
 40
0.0
 40
1.0
 40
1.0
 10
119.7456144158311
 20
126.4651309949574
 30
0.0
 10
120.9956132237382
 20
125.2151307900664
 30
0.0
  0
SPLINE
  5
134
330
1F
100
AcDbEntity
  8
0
  6
HIDDEN
 62
     7
370
     0
100
AcDbSpline
210
0.0
220
0.0
230
1.0
 70
    24
 71
     1
 72
     4
 73
     2
 74
     0
 42
0.00000001
 43
0.00000001
 40
0.0
 40
0.0
 40
1.0
 40
1.0
 10
126.4956131939359
 20
125.2151307900664
 30
0.0
 10
127.7456157271333
 20
126.4651309949574
 30
0.0
  0
SPLINE
  5
135
330
1F
100
AcDbEntity
  8
0
  6
HIDDEN
 62
     7
370
     0
100
AcDbSpline
210
0.0
220
0.0
230
1.0
 70
    24
 71
     1
 72
     4
 73
     2
 74
     0
 42
0.00000001
 43
0.00000001
 40
0.0
 40
0.0
 40
1.0
 40
1.0
 10
127.7456157271333
 20
135.1151312020835
 30
0.0
 10
127.1456130210824
 20
135.7151301828441
 30
0.0
  0
SPLINE
  5
136
330
1F
100
AcDbEntity
  8
0
  6
HIDDEN
 62
     7
370
     0
100
AcDbSpline
210
0.0
220
0.0
230
1.0
 70
    24
 71
     1
 72
     4
 73
     2
 74
     0
 42
0.00000001
 43
0.00000001
 40
0.0
 40
0.0
 40
1.0
 40
1.0
 10
120.3456133965917
 20
135.7151301828441
 30
0.0
 10
119.7456144158311
 20
135.1151312020835
 30
0.0
  0
SPLINE
  5
137
330
1F
100
AcDbEntity
  8
0
  6
HIDDEN
 62
     7
370
     0
100
AcDbSpline
210
0.0
220
0.0
230
1.0
 70
    24
 71
     1
 72
     4
 73
     2
 74
     0
 42
0.00000001
 43
0.00000001
 40
0.0
 40
0.0
 40
1.0
 40
1.0
 10
125.5956128601499
 20
125.2151307900664
 30
0.0
 10
123.7456150714822
 20
126.2832287949738
 30
0.0
  0
SPLINE
  5
138
330
1F
100
AcDbEntity
  8
0
  6
HIDDEN
 62
     7
370
     0
100
AcDbSpline
210
0.0
220
0.0
230
1.0
 70
    24
 71
     1
 72
     4
 73
     2
 74
     0
 42
0.00000001
 43
0.00000001
 40
0.0
 40
0.0
 40
1.0
 40
1.0
 10
123.7456150714822
 20
126.2832287949738
 30
0.0
 10
121.8956135575242
 20
125.2151307900664
 30
0.0
  0
SPLINE
  5
139
330
1F
100
AcDbEntity
  8
0
  6
HIDDEN
 62
     7
370
     0
100
AcDbSpline
210
0.0
220
0.0
230
1.0
 70
    24
 71
     1
 72
     4
 73
     2
 74
     0
 42
0.00000001
 43
0.00000001
 40
0.0
 40
0.0
 40
1.0
 40
1.0
 10
71.74561399859859
 20
93.46513024244874
 30
0.0
 10
71.83850721902463
 20
93.55802408133118
 30
0.0
  0
SPLINE
  5
13A
330
1F
100
AcDbEntity
  8
0
  6
HIDDEN
 62
     7
370
     0
100
AcDbSpline
210
0.0
220
0.0
230
1.0
 70
    24
 71
     1
 72
     4
 73
     2
 74
     0
 42
0.00000001
 43
0.00000001
 40
0.0
 40
0.0
 40
1.0
 40
1.0
 10
71.83850721902463
 20
141.8722378340778
 30
0.0
 10
71.74561399859859
 20
141.9651316729602
 30
0.0
  0
ARC
  5
13B
330
1F
100
AcDbEntity
  8
0
  6
HIDDEN
 62
     7
370
     0
100
AcDbCircle
 10
71.1314004362
 20
94.2651309577
 30
0.0
 40
1.000000000000014
100
AcDbArc
 50
315.0
 51
0.0
  0
ARC
  5
13C
330
1F
100
AcDbEntity
  8
0
  6
HIDDEN
 62
     7
370
     0
100
AcDbCircle
 10
71.1314004362
 20
94.2651309577
 30
0.0
 40
1.000000000000014
100
AcDbArc
 50
0.0
 51
52.1052014664
  0
ARC
  5
13D
330
1F
100
AcDbEntity
  8
0
  6
HIDDEN
 62
     7
370
     0
100
AcDbCircle
 10
71.1314004362
 20
141.1651309577
 30
0.0
 40
1.000000000000018
100
AcDbArc
 50
351.8087250651
 51
45.0
  0
ARC
  5
13E
330
1F
100
AcDbEntity
  8
0
  6
HIDDEN
 62
     7
370
     0
100
AcDbCircle
 10
71.1314004362
 20
141.1651309577
 30
0.0
 40
1.000000000000006
100
AcDbArc
 50
307.8947985336
 51
351.8087250651
  0
LINE
  5
13F
330
1F
100
AcDbEntity
  8
0
  6
HIDDEN
 62
     7
370
     0
100
AcDbLine
 10
72.1314004344
 20
94.2651307461
 30
0.0
 11
72.1314004344
 21
141.1651311693
 31
0.0
  0
SPLINE
  5
140
330
1F
100
AcDbEntity
  8
0
  6
HIDDEN
 62
     7
370
     0
100
AcDbSpline
210
0.0
220
0.0
230
1.0
 70
    24
 71
     1
 72
     4
 73
     2
 74
     0
 42
0.00000001
 43
0.00000001
 40
0.0
 40
0.0
 40
1.0
 40
1.0
 10
33.74561522049381
 20
101.5187012282428
 30
0.0
 10
35.27584154052212
 20
102.4021798995551
 30
0.0
  0
SPLINE
  5
141
330
1F
100
AcDbEntity
  8
0
  6
HIDDEN
 62
     7
370
     0
100
AcDbSpline
210
0.0
220
0.0
230
1.0
 70
    24
 71
     1
 72
     4
 73
     2
 74
     0
 42
0.00000001
 43
0.00000001
 40
0.0
 40
0.0
 40
1.0
 40
1.0
 10
35.27584154052212
 20
133.0280820158538
 30
0.0
 10
33.74561522049381
 20
133.9115606871661
 30
0.0
  0
ARC
  5
142
330
1F
100
AcDbEntity
  8
0
  6
HIDDEN
 62
     7
370
     0
100
AcDbCircle
 10
44.7474153135
 20
103.7151309577
 30
0.0
 40
2.000000000000014
100
AcDbArc
 50
270.0
 51
315.0
  0
ARC
  5
143
330
1F
100
AcDbEntity
  8
0
  6
HIDDEN
 62
     7
370
     0
100
AcDbCircle
 10
44.7474153135
 20
131.7151309577
 30
0.0
 40
2.000000000000028
100
AcDbArc
 50
45.0
 51
90.0
  0
SPLINE
  5
144
330
1F
100
AcDbEntity
  8
0
  6
HIDDEN
 62
     7
370
     0
100
AcDbSpline
210
0.0
220
0.0
230
1.0
 70
    24
 71
     1
 72
     4
 73
     2
 74
     0
 42
0.00000001
 43
0.00000001
 40
0.0
 40
0.0
 40
1.0
 40
1.0
 10
43.74561313433124
 20
101.7151301977453
 30
0.0
 10
44.74741447610332
 20
101.7151301977453
 30
0.0
  0
SPLINE
  5
145
330
1F
100
AcDbEntity
  8
0
  6
HIDDEN
 62
     7
370
     0
100
AcDbSpline
210
0.0
220
0.0
230
1.0
 70
    24
 71
     1
 72
     4
 73
     2
 74
     0
 42
0.00000001
 43
0.00000001
 40
0.0
 40
0.0
 40
1.0
 40
1.0
 10
44.74741447610332
 20
133.7151317176637
 30
0.0
 10
43.74561313433124
 20
133.7151317176637
 30
0.0
  0
ARC
  5
146
330
1F
100
AcDbEntity
  8
0
  6
HIDDEN
 62
     7
370
     0
100
AcDbCircle
 10
43.7456139986
 20
103.7151309577
 30
0.0
 40
2.000000000000014
100
AcDbArc
 50
189.9742217944
 51
270.0
  0
ARC
  5
147
330
1F
100
AcDbEntity
  8
0
  6
HIDDEN
 62
     7
370
     0
100
AcDbCircle
 10
43.7456139986
 20
131.7151309577
 30
0.0
 40
2.000000000000028
100
AcDbArc
 50
90.0
 51
170.0257782056
  0
SPLINE
  5
148
330
1F
100
AcDbEntity
  8
0
  6
HIDDEN
 62
     7
370
     0
100
AcDbSpline
210
0.0
220
0.0
230
1.0
 70
    24
 71
     1
 72
     4
 73
     2
 74
     0
 42
0.00000001
 43
0.00000001
 40
0.0
 40
0.0
 40
1.0
 40
1.0
 10
46.16162966830208
 20
102.3009171960172
 30
0.0
 10
47.57584299785568
 20
103.7151305255708
 30
0.0
  0
SPLINE
  5
149
330
1F
100
AcDbEntity
  8
0
  6
HIDDEN
 62
     7
370
     0
100
AcDbSpline
210
0.0
220
0.0
230
1.0
 70
    24
 71
     1
 72
     4
 73
     2
 74
     0
 42
0.00000001
 43
0.00000001
 40
0.0
 40
0.0
 40
1.0
 40
1.0
 10
47.57584299785568
 20
131.7151313898381
 30
0.0
 10
46.16162966830208
 20
133.1293447193918
 30
0.0
  0
SPLINE
  5
14A
330
1F
100
AcDbEntity
  8
0
  6
HIDDEN
 62
     7
370
     0
100
AcDbSpline
210
0.0
220
0.0
230
1.0
 70
    24
 71
     1
 72
     4
 73
     2
 74
     0
 42
0.00000001
 43
0.00000001
 40
0.0
 40
0.0
 40
1.0
 40
1.0
 10
35.27584154052212
 20
102.4021798995551
 30
0.0
 10
40.17584252995922
 20
103.7151305255708
 30
0.0
  0
SPLINE
  5
14B
330
1F
100
AcDbEntity
  8
0
  6
HIDDEN
 62
     7
370
     0
100
AcDbSpline
210
0.0
220
0.0
230
1.0
 70
    24
 71
     1
 72
     4
 73
     2
 74
     0
 42
0.00000001
 43
0.00000001
 40
0.0
 40
0.0
 40
1.0
 40
1.0
 10
40.17584252995922
 20
131.7151313898381
 30
0.0
 10
35.27584154052212
 20
133.0280820158538
 30
0.0
  0
SPLINE
  5
14C
330
1F
100
AcDbEntity
  8
0
  6
HIDDEN
 62
     7
370
     0
100
AcDbSpline
210
0.0
220
0.0
230
1.0
 70
    24
 71
     1
 72
     4
 73
     2
 74
     0
 42
0.00000001
 43
0.00000001
 40
0.0
 40
0.0
 40
1.0
 40
1.0
 10
41.77584167463257
 20
132.0615414780792
 30
0.0
 10
41.17584269387199
 20
131.7151313898381
 30
0.0
  0
SPLINE
  5
14D
330
1F
100
AcDbEntity
  8
0
  6
HIDDEN
 62
     7
370
     0
100
AcDbSpline
210
0.0
220
0.0
230
1.0
 70
    24
 71
     1
 72
     4
 73
     2
 74
     0
 42
0.00000001
 43
0.00000001
 40
0.0
 40
0.0
 40
1.0
 40
1.0
 10
41.17584269387199
 20
103.7151305255708
 30
0.0
 10
41.77584167463257
 20
103.3687204373297
 30
0.0
  0
ARC
  5
14E
330
1F
100
AcDbEntity
  8
0
  6
HIDDEN
 62
     7
370
     0
100
AcDbCircle
 10
60.2456139986
 20
104.2151309577
 30
0.0
 40
0.5
100
AcDbArc
 50
270.0
 51
0.0
  0
ARC
  5
14F
330
1F
100
AcDbEntity
  8
0
  6
HIDDEN
 62
     7
370
     0
100
AcDbCircle
 10
60.2456139986
 20
131.2151309577
 30
0.0
 40
0.5
100
AcDbArc
 50
0.0
 51
90.0
  0
SPLINE
  5
150
330
1F
100
AcDbEntity
  8
0
  6
HIDDEN
 62
     7
370
     0
100
AcDbSpline
210
0.0
220
0.0
230
1.0
 70
    24
 71
     1
 72
     4
 73
     2
 74
     0
 42
0.00000001
 43
0.00000001
 40
0.0
 40
0.0
 40
1.0
 40
1.0
 10
47.57584299785568
 20
103.7151305255708
 30
0.0
 10
60.24561397624685
 20
103.7151305255708
 30
0.0
  0
SPLINE
  5
151
330
1F
100
AcDbEntity
  8
0
  6
HIDDEN
 62
     7
370
     0
100
AcDbSpline
210
0.0
220
0.0
230
1.0
 70
    24
 71
     1
 72
     4
 73
     2
 74
     0
 42
0.00000001
 43
0.00000001
 40
0.0
 40
0.0
 40
1.0
 40
1.0
 10
60.24561397624685
 20
131.7151313898381
 30
0.0
 10
47.57584299785568
 20
131.7151313898381
 30
0.0
  0
SPLINE
  5
152
330
1F
100
AcDbEntity
  8
0
  6
HIDDEN
 62
     7
370
     0
100
AcDbSpline
210
0.0
220
0.0
230
1.0
 70
    24
 71
     1
 72
     4
 73
     2
 74
     0
 42
0.00000001
 43
0.00000001
 40
0.0
 40
0.0
 40
1.0
 40
1.0
 10
40.17584252995922
 20
103.7151305255708
 30
0.0
 10
41.17584269387199
 20
103.7151305255708
 30
0.0
  0
SPLINE
  5
153
330
1F
100
AcDbEntity
  8
0
  6
HIDDEN
 62
     7
370
     0
100
AcDbSpline
210
0.0
220
0.0
230
1.0
 70
    24
 71
     1
 72
     4
 73
     2
 74
     0
 42
0.00000001
 43
0.00000001
 40
0.0
 40
0.0
 40
1.0
 40
1.0
 10
41.17584269387199
 20
131.7151313898381
 30
0.0
 10
40.17584252995922
 20
131.7151313898381
 30
0.0
  0
SPLINE
  5
154
330
1F
100
AcDbEntity
  8
0
  6
HIDDEN
 62
     7
370
     0
100
AcDbSpline
210
0.0
220
0.0
230
1.0
 70
    24
 71
     1
 72
     4
 73
     2
 74
     0
 42
0.00000001
 43
0.00000001
 40
0.0
 40
0.0
 40
1.0
 40
1.0
 10
60.74561405820324
 20
107.4651306745824
 30
0.0
 10
61.99561379743292
 20
108.7151313451347
 30
0.0
  0
SPLINE
  5
155
330
1F
100
AcDbEntity
  8
0
  6
HIDDEN
 62
     7
370
     0
100
AcDbSpline
210
0.0
220
0.0
230
1.0
 70
    24
 71
     1
 72
     4
 73
     2
 74
     0
 42
0.00000001
 43
0.00000001
 40
0.0
 40
0.0
 40
1.0
 40
1.0
 10
61.99561379743292
 20
126.7151305702743
 30
0.0
 10
60.74561405820324
 20
127.9651312408265
 30
0.0
  0
SPLINE
  5
156
330
1F
100
AcDbEntity
  8
0
  6
HIDDEN
 62
     7
370
     0
100
AcDbSpline
210
0.0
220
0.0
230
1.0
 70
    24
 71
     1
 72
     4
 73
     2
 74
     0
 42
0.00000001
 43
0.00000001
 40
0.0
 40
0.0
 40
1.0
 40
1.0
 10
87.7456147585578
 20
108.7151313451347
 30
0.0
 10
88.947335666842
 20
110.7151307416376
 30
0.0
  0
SPLINE
  5
157
330
1F
100
AcDbEntity
  8
0
  6
HIDDEN
 62
     7
370
     0
100
AcDbSpline
210
0.0
220
0.0
230
1.0
 70
    24
 71
     1
 72
     4
 73
     2
 74
     0
 42
0.00000001
 43
0.00000001
 40
0.0
 40
0.0
 40
1.0
 40
1.0
 10
88.947335666842
 20
124.7151311737713
 30
0.0
 10
87.7456147585578
 20
126.7151305702743
 30
0.0
  0
SPLINE
  5
158
330
1F
100
AcDbEntity
  8
0
  6
HIDDEN
 62
     7
370
     0
100
AcDbSpline
210
0.0
220
0.0
230
1.0
 70
    24
 71
     1
 72
     4
 73
     2
 74
     0
 42
0.00000001
 43
0.00000001
 40
0.0
 40
0.0
 40
1.0
 40
1.0
 10
61.99561379743292
 20
108.7151313451347
 30
0.0
 10
87.7456147585578
 20
108.7151313451347
 30
0.0
  0
SPLINE
  5
159
330
1F
100
AcDbEntity
  8
0
  6
HIDDEN
 62
     7
370
     0
100
AcDbSpline
210
0.0
220
0.0
230
1.0
 70
    24
 71
     1
 72
     4
 73
     2
 74
     0
 42
0.00000001
 43
0.00000001
 40
0.0
 40
0.0
 40
1.0
 40
1.0
 10
87.7456147585578
 20
126.7151305702743
 30
0.0
 10
61.99561379743292
 20
126.7151305702743
 30
0.0
  0
SPLINE
  5
15A
330
1F
100
AcDbEntity
  8
0
  6
HIDDEN
 62
     7
370
     0
100
AcDbSpline
210
0.0
220
0.0
230
1.0
 70
    24
 71
     1
 72
     4
 73
     2
 74
     0
 42
0.00000001
 43
0.00000001
 40
0.0
 40
0.0
 40
1.0
 40
1.0
 10
88.947335666842
 20
110.7151307416376
 30
0.0
 10
117.7456140880056
 20
110.7151307416376
 30
0.0
  0
SPLINE
  5
15B
330
1F
100
AcDbEntity
  8
0
  6
HIDDEN
 62
     7
370
     0
100
AcDbSpline
210
0.0
220
0.0
230
1.0
 70
    24
 71
     1
 72
     4
 73
     2
 74
     0
 42
0.00000001
 43
0.00000001
 40
0.0
 40
0.0
 40
1.0
 40
1.0
 10
117.7456140880056
 20
124.7151311737713
 30
0.0
 10
88.947335666842
 20
124.7151311737713
 30
0.0
  0
SPLINE
  5
15C
330
1F
100
AcDbEntity
  8
0
  6
HIDDEN
 62
     7
370
     0
100
AcDbSpline
210
0.0
220
0.0
230
1.0
 70
    24
 71
     1
 72
     4
 73
     2
 74
     0
 42
0.00000001
 43
0.00000001
 40
0.0
 40
0.0
 40
1.0
 40
1.0
 10
117.7456140880056
 20
110.7151307416376
 30
0.0
 10
118.3464736108251
 20
111.7151309055504
 30
0.0
  0
SPLINE
  5
15D
330
1F
100
AcDbEntity
  8
0
  6
HIDDEN
 62
     7
370
     0
100
AcDbSpline
210
0.0
220
0.0
230
1.0
 70
    24
 71
     1
 72
     4
 73
     2
 74
     0
 42
0.00000001
 43
0.00000001
 40
0.0
 40
0.0
 40
1.0
 40
1.0
 10
118.3464736108251
 20
123.7151310098585
 30
0.0
 10
117.7456140880056
 20
124.7151311737713
 30
0.0
  0
ARC
  5
15E
330
1F
100
AcDbEntity
  8
0
  6
HIDDEN
 62
     7
370
     0
100
AcDbCircle
 10
151.4456139986
 20
124.0151309577
 30
0.0
 40
0.3000000000000114
100
AcDbArc
 50
270.0
 51
0.0
  0
ARC
  5
15F
330
1F
100
AcDbEntity
  8
0
  6
HIDDEN
 62
     7
370
     0
100
AcDbCircle
 10
151.4456139986
 20
111.4151309577
 30
0.0
 40
0.3000000000000114
100
AcDbArc
 50
0.0
 51
90.0
  0
SPLINE
  5
160
330
1F
100
AcDbEntity
  8
0
  6
HIDDEN
 62
     7
370
     0
100
AcDbSpline
210
0.0
220
0.0
230
1.0
 70
    24
 71
     1
 72
     4
 73
     2
 74
     0
 42
0.00000001
 43
0.00000001
 40
0.0
 40
0.0
 40
1.0
 40
1.0
 10
120.2662609879441
 20
123.7151310098585
 30
0.0
 10
118.3464736108251
 20
123.7151310098585
 30
0.0
  0
SPLINE
  5
161
330
1F
100
AcDbEntity
  8
0
  6
HIDDEN
 62
     7
370
     0
100
AcDbSpline
210
0.0
220
0.0
230
1.0
 70
    24
 71
     1
 72
     4
 73
     2
 74
     0
 42
0.00000001
 43
0.00000001
 40
0.0
 40
0.0
 40
1.0
 40
1.0
 10
130.2662626270719
 20
123.7151310098585
 30
0.0
 10
127.2389129166074
 20
123.7151310098585
 30
0.0
  0
SPLINE
  5
162
330
1F
100
AcDbEntity
  8
0
  6
HIDDEN
 62
     7
370
     0
100
AcDbSpline
210
0.0
220
0.0
230
1.0
 70
    24
 71
     1
 72
     4
 73
     2
 74
     0
 42
0.00000001
 43
0.00000001
 40
0.0
 40
0.0
 40
1.0
 40
1.0
 10
140.2662642661996
 20
123.7151310098585
 30
0.0
 10
137.2389145557351
 20
123.7151310098585
 30
0.0
  0
SPLINE
  5
163
330
1F
100
AcDbEntity
  8
0
  6
HIDDEN
 62
     7
370
     0
100
AcDbSpline
210
0.0
220
0.0
230
1.0
 70
    24
 71
     1
 72
     4
 73
     2
 74
     0
 42
0.00000001
 43
0.00000001
 40
0.0
 40
0.0
 40
1.0
 40
1.0
 10
151.4456145827241
 20
123.7151310098585
 30
0.0
 10
147.2389124695725
 20
123.7151310098585
 30
0.0
  0
SPLINE
  5
164
330
1F
100
AcDbEntity
  8
0
  6
HIDDEN
 62
     7
370
     0
100
AcDbSpline
210
0.0
220
0.0
230
1.0
 70
    24
 71
     1
 72
     4
 73
     2
 74
     0
 42
0.00000001
 43
0.00000001
 40
0.0
 40
0.0
 40
1.0
 40
1.0
 10
118.3464736108251
 20
111.7151309055504
 30
0.0
 10
151.4456145827241
 20
111.7151309055504
 30
0.0
  0
SPLINE
  5
165
330
1F
100
AcDbEntity
  8
0
  6
HIDDEN
 62
     7
370
     0
100
AcDbSpline
210
0.0
220
0.0
230
1.0
 70
    24
 71
     1
 72
     4
 73
     2
 74
     0
 42
0.00000001
 43
0.00000001
 40
0.0
 40
0.0
 40
1.0
 40
1.0
 10
120.2456154291101
 20
135.7151301828441
 30
0.0
 10
120.2456154291101
 20
123.7033693370637
 30
0.0
  0
SPLINE
  5
166
330
1F
100
AcDbEntity
  8
0
  6
HIDDEN
 62
     7
370
     0
100
AcDbSpline
210
0.0
220
0.0
230
1.0
 70
    24
 71
     1
 72
     4
 73
     2
 74
     0
 42
0.00000001
 43
0.00000001
 40
0.0
 40
0.0
 40
1.0
 40
1.0
 10
127.2456147138543
 20
123.7113530998346
 30
0.0
 10
127.2456147138543
 20
135.7151301828441
 30
0.0
  0
SPLINE
  5
167
330
1F
100
AcDbEntity
  8
0
  6
HIDDEN
 62
     7
370
     0
100
AcDbSpline
210
0.0
220
0.0
230
1.0
 70
    24
 71
     1
 72
     4
 73
     2
 74
     0
 42
0.00000001
 43
0.00000001
 40
0.0
 40
0.0
 40
1.0
 40
1.0
 10
140.2456112567849
 20
135.7151301828441
 30
0.0
 10
140.2456112567849
 20
123.7033693370637
 30
0.0
  0
SPLINE
  5
168
330
1F
100
AcDbEntity
  8
0
  6
HIDDEN
 62
     7
370
     0
100
AcDbSpline
210
0.0
220
0.0
230
1.0
 70
    24
 71
     1
 72
     4
 73
     2
 74
     0
 42
0.00000001
 43
0.00000001
 40
0.0
 40
0.0
 40
1.0
 40
1.0
 10
147.2456105415292
 20
123.7113530998346
 30
0.0
 10
147.2456105415292
 20
135.7151301828441
 30
0.0
  0
SPLINE
  5
169
330
1F
100
AcDbEntity
  8
0
  6
HIDDEN
 62
     7
370
     0
100
AcDbSpline
210
0.0
220
0.0
230
1.0
 70
    24
 71
     1
 72
     4
 73
     2
 74
     0
 42
0.00000001
 43
0.00000001
 40
0.0
 40
0.0
 40
1.0
 40
1.0
 10
130.2456133429475
 20
135.7151301828441
 30
0.0
 10
130.2456133429475
 20
123.7033693370637
 30
0.0
  0
SPLINE
  5
16A
330
1F
100
AcDbEntity
  8
0
  6
HIDDEN
 62
     7
370
     0
100
AcDbSpline
210
0.0
220
0.0
230
1.0
 70
    24
 71
     1
 72
     4
 73
     2
 74
     0
 42
0.00000001
 43
0.00000001
 40
0.0
 40
0.0
 40
1.0
 40
1.0
 10
137.2456126276917
 20
123.7113530998346
 30
0.0
 10
137.2456126276917
 20
135.7151301828441
 30
0.0
  0
LINE
  5
16B
330
1F
100
AcDbEntity
  8
VERMASSUNG
100
AcDbLine
 10
154.8503903913
 20
117.7151309577
 30
0.0
 11
30.220036693
 21
117.7151309577
 31
0.0
  0
DIMENSION
  5
16C
330
1F
100
AcDbEntity
  8
VERMASSUNG
100
AcDbDimension
  2
*D1
 10
151.7456139986
 20
153.7990599016
 30
0.0
 11
122.7456139986
 21
153.7990599016
 31
0.0
 70
   160
 71
     2
 42
-1.0
  3
SLDDIMSTYLE0
100
AcDbAlignedDimension
 13
93.7456139986
 23
149.2151309577
 33
0.0
 14
151.7456139986
 24
134.7151309577
 34
0.0
100
AcDbRotatedDimension
  0
DIMENSION
  5
177
330
1F
100
AcDbEntity
  8
VERMASSUNG
100
AcDbDimension
  2
*D2
 10
151.7456139986
 20
165.7990599016
 30
0.0
 11
92.7456139986
 21
165.7990599016
 31
0.0
 70
   160
 71
     2
 42
-1.0
  3
SLDDIMSTYLE0
100
AcDbAlignedDimension
 13
33.7456139986
 23
138.0074689502
 33
0.0
 14
151.7456139986
 24
134.7151309577
 34
0.0
100
AcDbRotatedDimension
  0
DIMENSION
  5
181
330
1F
100
AcDbEntity
  8
VERMASSUNG
100
AcDbDimension
  2
*D3
 10
151.7456139986
 20
159.7990599016
 30
0.0
 11
111.7456139986
 21
159.7990599016
 31
0.0
 70
   160
 71
     2
 42
-1.0
  3
SLDDIMSTYLE0
100
AcDbAlignedDimension
 13
71.7456139986
 23
148.9151309577
 33
0.0
 14
151.7456139986
 24
134.7151309577
 34
0.0
100
AcDbRotatedDimension
  0
DIMENSION
  5
18B
330
1F
100
AcDbEntity
  8
VERMASSUNG
100
AcDbDimension
  2
*D4
 10
143.7456139986
 20
90.3640619652
 30
0.0
 11
147.7456139986
 21
90.3640619652
 31
0.0
 70
   160
 71
     2
 42
-1.0
  3
SLDDIMSTYLE0
100
AcDbAlignedDimension
 13
151.7456139986
 23
100.7151309577
 33
0.0
 14
143.7456139986
 24
120.5885405657
 34
0.0
100
AcDbRotatedDimension
  0
DIMENSION
  5
195
330
1F
100
AcDbEntity
  8
VERMASSUNG
100
AcDbDimension
  2
*D5
 10
133.7456139986
 20
90.3640619652
 30
0.0
 11
138.7456139986
 21
90.3640619652
 31
0.0
 70
   160
 71
     2
 42
-1.0
  3
SLDDIMSTYLE0
100
AcDbAlignedDimension
 13
143.7456139986
 23
120.5885405657
 33
0.0
 14
133.7456139986
 24
120.5885405657
 34
0.0
100
AcDbRotatedDimension
  0
DIMENSION
  5
19F
330
1F
100
AcDbEntity
  8
VERMASSUNG
100
AcDbDimension
  2
*D6
 10
123.7456139986
 20
90.3640619652
 30
0.0
 11
128.7456139986
 21
90.3640619652
 31
0.0
 70
   160
 71
     2
 42
-1.0
  3
SLDDIMSTYLE0
100
AcDbAlignedDimension
 13
133.7456139986
 23
120.5885405657
 33
0.0
 14
123.7456139986
 24
120.5885405657
 34
0.0
100
AcDbRotatedDimension
  0
DIMENSION
  5
1A9
330
1F
100
AcDbEntity
  8
VERMASSUNG
100
AcDbDimension
  2
*D7
 10
160.4037000785
 20
123.7151309577
 30
0.0
 11
160.4037000785
 21
117.7151309577
 31
0.0
 70
   160
  1
%%c<>
 71
     2
 42
-1.0
  3
SLDDIMSTYLE0
100
AcDbAlignedDimension
 13
151.4456139986
 23
111.7151309577
 33
0.0
 14
151.4456139986
 24
123.7151309577
 34
0.0
 50
90.0
100
AcDbRotatedDimension
  0
DIMENSION
  5
1B4
330
1F
100
AcDbEntity
  8
VERMASSUNG
100
AcDbDimension
  2
*D8
 10
167.7456139986
 20
99.7151309577
 30
0.0
 11
167.7456139986
 21
117.7151309577
 31
0.0
 70
   160
  1
%%c<>
 71
     2
 42
-1.0
  3
SLDDIMSTYLE0
100
AcDbAlignedDimension
 13
120.2456139986
 23
135.7151309577
 33
0.0
 14
150.7456139986
 24
99.7151309577
 34
0.0
 50
90.0
100
AcDbRotatedDimension
  0
DIMENSION
  5
1BF
330
1F
100
AcDbEntity
  8
VERMASSUNG
100
AcDbDimension
  2
*D9
 10
20.3853494717
 20
86.2151309577
 30
0.0
 11
20.3853494717
 21
117.7151309577
 31
0.0
 70
   160
  1
PSC%%c<>
 71
     2
 42
-1.0
  3
SLDDIMSTYLE0
100
AcDbAlignedDimension
 13
72.0456139986
 23
149.2151309577
 33
0.0
 14
72.0456139986
 24
86.2151309577
 34
0.0
 50
90.0
100
AcDbRotatedDimension
  0
DIMENSION
  5
1CB
330
1F
100
AcDbEntity
  8
VERMASSUNG
100
AcDbDimension
  2
*D10
 10
117.7456139986
 20
76.2151309577
 30
0.0
 11
75.7456139986
 21
76.2151309577
 31
0.0
 70
   160
 71
     2
 42
-1.0
  3
SLDDIMSTYLE0
100
AcDbAlignedDimension
 13
33.7456139986
 23
97.4227929652
 33
0.0
 14
117.7456139986
 24
110.7151309577
 34
0.0
100
AcDbRotatedDimension
  0
DIMENSION
  5
1D5
330
1F
100
AcDbEntity
  8
VERMASSUNG
100
AcDbDimension
  2
*D11
 10
26.3853494717
 20
124.7151309577
 30
0.0
 11
26.3853494717
 21
117.7151309577
 31
0.0
 70
   160
  1
%%c<> min. 
 71
     2
 42
-1.0
  3
SLDDIMSTYLE1
100
AcDbAlignedDimension
 13
88.9473352367
 23
110.7151309577
 33
0.0
 14
88.9473352367
 24
124.7151309577
 34
0.0
 50
90.0
100
AcDbRotatedDimension
  0
LINE
  5
1E2
330
1F
100
AcDbEntity
  8
VERMASSUNG
  6
CENTERX2
370
     0
100
AcDbLine
 10
143.7456139986
 20
120.5885405657
 30
0.0
 11
143.7456139986
 21
137.3715745974
 31
0.0
  0
LINE
  5
1E3
330
1F
100
AcDbEntity
  8
VERMASSUNG
  6
CENTERX2
370
     0
100
AcDbLine
 10
133.7456139986
 20
120.5885405657
 30
0.0
 11
133.7456139986
 21
137.3715745974
 31
0.0
  0
LINE
  5
1E4
330
1F
100
AcDbEntity
  8
VERMASSUNG
  6
CENTERX2
370
     0
100
AcDbLine
 10
123.7456139986
 20
120.5885405657
 30
0.0
 11
123.7456139986
 21
137.3715745974
 31
0.0
  0
ARC
  5
1E5
330
1F
100
AcDbEntity
  8
0
  6
Continuous
 62
     7
370
    15
100
AcDbCircle
 10
237.4006449284
 20
117.7151309577
 30
0.0
 40
30.20810565747712
100
AcDbArc
 50
187.542590616
 51
210.0
  0
SPLINE
  5
1E6
330
1F
100
AcDbEntity
  8
0
  6
Continuous
 62
     7
370
    15
100
AcDbSpline
210
0.0
220
0.0
230
1.0
 70
     8
 71
     3
 72
     8
 73
     4
 74
     0
 42
0.00000001
 43
0.00000001
 40
0.0
 40
0.0
 40
0.0
 40
0.0
 40
1.0
 40
1.0
 40
1.0
 40
1.0
 10
208.2024233536089
 20
114.8131436247221
 30
0.0
 10
207.9728938612251
 20
114.3977803791
 30
0.0
 10
207.7209630861342
 20
114.053189949796
 30
0.0
 10
207.4539130540522
 20
113.7499200608679
 30
0.0
  0
ARC
  5
1E7
330
1F
100
AcDbEntity
  8
0
  6
Continuous
 62
     7
370
    15
100
AcDbCircle
 10
237.4006449284
 20
117.7151309577
 30
0.0
 40
29.3420802536927
100
AcDbArc
 50
185.6759402115
 51
210.0
  0
ARC
  5
1E8
330
1F
100
AcDbEntity
  8
0
  6
Continuous
 62
     7
370
    15
100
AcDbCircle
 10
237.4006449284
 20
117.7151309577
 30
0.0
 40
29.3420802536927
100
AcDbArc
 50
150.0
 51
174.3240597885
  0
ARC
  5
1E9
330
1F
100
AcDbEntity
  8
0
  6
Continuous
 62
     7
370
    15
100
AcDbCircle
 10
237.4006449284
 20
117.7151309577
 30
0.0
 40
30.20810565747713
100
AcDbArc
 50
150.0
 51
172.457409384
  0
SPLINE
  5
1EA
330
1F
100
AcDbEntity
  8
0
  6
Continuous
 62
     7
370
    15
100
AcDbSpline
210
0.0
220
0.0
230
1.0
 70
     8
 71
     3
 72
     8
 73
     4
 74
     0
 42
0.00000001
 43
0.00000001
 40
0.0
 40
0.0
 40
0.0
 40
0.0
 40
1.0
 40
1.0
 40
1.0
 40
1.0
 10
207.4539130540522
 20
121.680341854541
 30
0.0
 10
207.7209630861342
 20
121.3770719656129
 30
0.0
 10
207.9728938612251
 20
121.0324815363089
 30
0.0
 10
208.2024233536089
 20
120.6171182906868
 30
0.0
  0
ARC
  5
1EB
330
1F
100
AcDbEntity
  8
0
  6
Continuous
 62
     7
370
    15
100
AcDbCircle
 10
221.7260315367
 20
126.7648732189
 30
0.0
 40
11.24259573130696
100
AcDbArc
 50
90.0
 51
150.0
  0
ARC
  5
1EC
330
1F
100
AcDbEntity
  8
0
  6
Continuous
 62
     7
370
    15
100
AcDbCircle
 10
221.7260315367
 20
108.6653886965
 30
0.0
 40
29.34208025369269
100
AcDbArc
 50
30.0
 51
90.0
  0
ARC
  5
1ED
330
1F
100
AcDbEntity
  8
0
  6
Continuous
 62
     7
370
    15
100
AcDbCircle
 10
237.4006449284
 20
117.7151309577
 30
0.0
 40
11.24259573130696
100
AcDbArc
 50
330.0
 51
30.0
  0
ARC
  5
1EE
330
1F
100
AcDbEntity
  8
0
  6
Continuous
 62
     7
370
    15
100
AcDbCircle
 10
221.7260315367
 20
126.7648732189
 30
0.0
 40
29.3420802536927
100
AcDbArc
 50
270.0
 51
330.0
  0
ARC
  5
1EF
330
1F
100
AcDbEntity
  8
0
  6
Continuous
 62
     7
370
    15
100
AcDbCircle
 10
221.7260315367
 20
108.6653886965
 30
0.0
 40
11.24259573130696
100
AcDbArc
 50
210.0
 51
270.0
  0
CIRCLE
  5
1F0
330
1F
100
AcDbEntity
  8
0
  6
Continuous
 62
     7
370
    15
100
AcDbCircle
 10
226.9509026673
 20
117.7151309577
 30
0.0
 40
16.19642884446073
  0
ARC
  5
1F1
330
1F
100
AcDbEntity
  8
0
  6
Continuous
 62
     7
370
    15
100
AcDbCircle
 10
202.9509026673
 20
117.7151309577
 30
0.0
 40
5.999999999999988
100
AcDbArc
 50
331.0749852843
 51
28.9250147157
  0
ARC
  5
1F2
330
1F
100
AcDbEntity
  8
0
  6
Continuous
 62
     7
370
    15
100
AcDbCircle
 10
221.7260315367
 20
108.6653886965
 30
0.0
 40
12.10862113509141
100
AcDbArc
 50
210.0
 51
270.0
  0
CIRCLE
  5
1F3
330
1F
100
AcDbEntity
  8
0
  6
Continuous
 62
     7
370
    15
100
AcDbCircle
 10
226.9509026673
 20
117.7151309577
 30
0.0
 40
15.3129510429125
  0
ARC
  5
1F4
330
1F
100
AcDbEntity
  8
0
  6
Continuous
 62
     7
370
    15
100
AcDbCircle
 10
221.7260315367
 20
126.7648732189
 30
0.0
 40
12.10862113509141
100
AcDbArc
 50
90.0
 51
150.0
  0
ARC
  5
1F5
330
1F
100
AcDbEntity
  8
0
  6
Continuous
 62
     7
370
    15
100
AcDbCircle
 10
221.7260315367
 20
126.7648732189
 30
0.0
 40
30.20810565747715
100
AcDbArc
 50
270.0
 51
330.0
  0
ARC
  5
1F6
330
1F
100
AcDbEntity
  8
0
  6
Continuous
 62
     7
370
    15
100
AcDbCircle
 10
221.7260315367
 20
108.6653886965
 30
0.0
 40
30.20810565747713
100
AcDbArc
 50
30.0
 51
90.0
  0
ARC
  5
1F7
330
1F
100
AcDbEntity
  8
0
  6
Continuous
 62
     7
370
    15
100
AcDbCircle
 10
237.4006449284
 20
117.7151309577
 30
0.0
 40
12.1086211350914
100
AcDbArc
 50
330.0
 51
30.0
  0
ARC
  5
1F8
330
1F
100
AcDbEntity
  8
0
  6
Continuous
 62
     7
370
    15
100
AcDbCircle
 10
237.4006449284
 20
117.7151309577
 30
0.0
 40
31.0698410457592
100
AcDbArc
 50
150.0
 51
210.0
  0
SPLINE
  5
1F9
330
1F
100
AcDbEntity
  8
0
  6
Continuous
 62
     7
370
    15
100
AcDbSpline
210
0.0
220
0.0
230
1.0
 70
     8
 71
     3
 72
    24
 73
    20
 74
     0
 42
0.00000001
 43
0.00000001
 40
0.0
 40
0.0
 40
0.0
 40
0.0
 40
0.1249999999999999
 40
0.1249999999999999
 40
0.2499999999999997
 40
0.2499999999999997
 40
0.3749999999999997
 40
0.3749999999999997
 40
0.4374999999999997
 40
0.4374999999999997
 40
0.4999999999999998
 40
0.4999999999999998
 40
0.6249999999999999
 40
0.6249999999999999
 40
0.7499999999999999
 40
0.7499999999999999
 40
0.875
 40
0.875
 40
1.0
 40
1.0
 40
1.0
 40
1.0
 10
207.3446393767712
 20
113.6291699046052
 30
0.0
 10
207.2979614730895
 20
113.9281770069354
 30
0.0
 10
207.2552885069106
 20
114.2325148582541
 30
0.0
 10
207.1785943583231
 20
114.8582483956501
 30
0.0
 10
207.1445459769411
 20
115.1794731229776
 30
0.0
 10
207.0865452563753
 20
115.8513988937103
 30
0.0
 10
207.0623709059274
 20
116.2067141255892
 30
0.0
 10
207.0373569033224
 20
116.7569453469417
 30
0.0
 10
207.030861389998
 20
116.9433491319221
 30
0.0
 10
207.022011336808
 20
117.3234836340184
 30
0.0
 10
207.0196830251076
 20
117.5191534263043
 30
0.0
 10
207.0196099418902
 20
118.0976338049787
 30
0.0
 10
207.0285168437441
 20
118.4755456439475
 30
0.0
 10
207.061949894387
 20
119.2175136690459
 30
0.0
 10
207.0856112401207
 20
119.5662291292069
 30
0.0
 10
207.1434050844033
 20
120.23932152694
 30
0.0
 10
207.1777061207434
 20
120.5642740141817
 30
0.0
 10
207.2549166634088
 20
121.1951978246435
 30
0.0
 10
207.2978057781144
 20
121.5010875649841
 30
0.0
 10
207.3446393767712
 20
121.8010920108036
 30
0.0
  0
SPLINE
  5
1FA
330
1F
100
AcDbEntity
  8
0
  6
Continuous
 62
     7
370
    15
100
AcDbSpline
210
0.0
220
0.0
230
1.0
 70
     8
 71
     3
 72
    72
 73
    68
 74
     0
 42
0.00000001
 43
0.00000001
 40
-0.03125
 40
-0.03125
 40
0.0
 40
0.0
 40
0.0312499999999998
 40
0.0312499999999998
 40
0.0624999999999996
 40
0.0624999999999996
 40
0.0937499999999995
 40
0.0937499999999995
 40
0.1249999999999993
 40
0.1249999999999993
 40
0.1562499999999993
 40
0.1562499999999993
 40
0.1874999999999993
 40
0.1874999999999993
 40
0.2187499999999992
 40
0.2187499999999992
 40
0.2499999999999992
 40
0.2499999999999992
 40
0.2812499999999992
 40
0.2812499999999992
 40
0.3124999999999992
 40
0.3124999999999992
 40
0.3437499999999992
 40
0.3437499999999992
 40
0.3749999999999992
 40
0.3749999999999992
 40
0.3906249999999992
 40
0.3906249999999992
 40
0.4062499999999992
 40
0.4062499999999992
 40
0.4374999999999992
 40
0.4374999999999992
 40
0.4687499999999993
 40
0.4687499999999993
 40
0.4999999999999993
 40
0.4999999999999993
 40
0.5312499999999993
 40
0.5312499999999993
 40
0.5624999999999994
 40
0.5624999999999994
 40
0.5937499999999994
 40
0.5937499999999994
 40
0.6249999999999994
 40
0.6249999999999994
 40
0.6562499999999996
 40
0.6562499999999996
 40
0.6874999999999996
 40
0.6874999999999996
 40
0.7187499999999997
 40
0.7187499999999997
 40
0.7499999999999997
 40
0.7499999999999997
 40
0.7812499999999997
 40
0.7812499999999997
 40
0.8124999999999998
 40
0.8124999999999998
 40
0.8437499999999998
 40
0.8437499999999998
 40
0.8749999999999998
 40
0.8749999999999998
 40
0.9062499999999999
 40
0.9062499999999999
 40
0.9374999999999999
 40
0.9374999999999999
 40
0.96875
 40
0.96875
 40
1.0
 40
1.0
 40
1.03125
 40
1.03125
 10
206.8464135551745
 20
120.1559646075193
 30
0.0
 10
206.8725235318447
 20
120.5663204080045
 30
0.0
 10
206.885313815389
 20
120.749969490663
 30
0.0
 10
206.908407592626
 20
121.0769243941583
 30
0.0
 10
206.9187426884509
 20
121.2207026023381
 30
0.0
 10
206.9344518062862
 20
121.458219957784
 30
0.0
 10
206.9399470509072
 20
121.5535395226817
 30
0.0
 10
206.9449361386693
 20
121.6976250553162
 30
0.0
 10
206.9443419550003
 20
121.7453610622858
 30
0.0
 10
206.9365579147771
 20
121.7909432028196
 30
0.0
 10
206.9294018964742
 20
121.7895094427474
 30
0.0
 10
206.9083860240958
 20
121.7365961346565
 30
0.0
 10
206.8947694727127
 20
121.6856264084524
 30
0.0
 10
206.8624701587889
 20
121.5370197815088
 30
0.0
 10
206.843653224714
 20
121.4387344107517
 30
0.0
 10
206.8023392192005
 20
121.1944810515659
 30
0.0
 10
206.7803235221638
 20
121.0514009205438
 30
0.0
 10
206.7353606902855
 20
120.7235423700749
 30
0.0
 10
206.7121671171607
 20
120.5365487323747
 30
0.0
 10
206.6680016534641
 20
120.1271181125517
 30
0.0
 10
206.6472307446047
 20
119.9070126715672
 30
0.0
 10
206.6102668684148
 20
119.4352625901292
 30
0.0
 10
206.5939551414851
 20
119.1802460636879
 30
0.0
 10
206.5692271158867
 20
118.6590082402909
 30
0.0
 10
206.5606114426248
 20
118.39152412251
 30
0.0
 10
206.5541436439753
 20
117.9796084631776
 30
0.0
 10
206.553078488744
 20
117.8399011601021
 30
0.0
 10
206.5532217826864
 20
117.5637781046396
 30
0.0
 10
206.5544086315509
 20
117.4266015383089
 30
0.0
 10
206.5611988407336
 20
117.0176680970456
 30
0.0
 10
206.5701733977753
 20
116.7457418480414
 30
0.0
 10
206.5955497824192
 20
116.2225613315863
 30
0.0
 10
206.6117155952681
 20
115.9738493312229
 30
0.0
 10
206.6492053748752
 20
115.5009648062309
 30
0.0
 10
206.6705702234252
 20
115.2773555889988
 30
0.0
 10
206.7146733748922
 20
114.8726982008112
 30
0.0
 10
206.7377104175941
 20
114.6882846126416
 30
0.0
 10
206.7832121192026
 20
114.3592585777472
 30
0.0
 10
206.8051650314909
 20
114.218090501759
 30
0.0
 10
206.8458452619557
 20
113.9796809729785
 30
0.0
 10
206.8647232282306
 20
113.8818984165737
 30
0.0
 10
206.8967648622358
 20
113.7365703883835
 30
0.0
 10
206.9100146496458
 20
113.6882809981886
 30
0.0
 10
206.9303317854105
 20
113.6398657744019
 30
0.0
 10
206.9373660635732
 20
113.6403239600379
 30
0.0
 10
206.9445636303563
 20
113.6904758156401
 30
0.0
 10
206.9448576412553
 20
113.7396493826721
 30
0.0
 10
206.9393944749533
 20
113.8873239059791
 30
0.0
 10
206.9335620454679
 20
113.9864790703447
 30
0.0
 10
206.9174820249248
 20
114.2274918408214
 30
0.0
 10
206.90721626483
 20
114.3699799654461
 30
0.0
 10
206.8838358541038
 20
114.7014673944311
 30
0.0
 10
206.8708553725646
 20
114.8889010224195
 30
0.0
 10
206.8451347988703
 20
115.2958047414699
 30
0.0
 10
206.8322633479243
 20
115.5169838161389
 30
0.0
 10
206.8086145905402
 20
115.9967311453541
 30
0.0
 10
206.7982790724722
 20
116.2467431121644
 30
0.0
 10
206.7820889739468
 20
116.7668183221849
 30
0.0
 10
206.7762096460433
 20
117.0405497868146
 30
0.0
 10
206.7704942527506
 20
117.5891674367131
 30
0.0
 10
206.7705742170083
 20
117.8635073006047
 30
0.0
 10
206.7766110758936
 20
118.4122492517436
 30
0.0
 10
206.7826327334425
 20
118.6853145656008
 30
0.0
 10
206.7991118792239
 20
119.2054798143692
 30
0.0
 10
206.8096932700903
 20
119.4577989479281
 30
0.0
 10
206.8334241595047
 20
119.9342032893351
 30
0.0
 10
206.8464135551745
 20
120.1559646075193
 30
0.0
 10
206.8725235318447
 20
120.5663204080045
 30
0.0
  0
SPLINE
  5
1FB
330
1F
100
AcDbEntity
  8
0
  6
Continuous
 62
     7
370
    15
100
AcDbSpline
210
0.0
220
0.0
230
1.0
 70
     8
 71
     3
 72
     8
 73
     4
 74
     0
 42
0.00000001
 43
0.00000001
 40
0.0000249631533153
 40
0.0000249631533153
 40
0.0000249631533153
 40
0.0000249631533153
 40
0.0049776413517028
 40
0.0049776413517028
 40
0.0049776413517028
 40
0.0049776413517028
 10
207.3446393767712
 20
121.8010920108037
 30
0.0
 10
207.381139254982
 20
121.7618427735487
 30
0.0
 10
207.4175638411141
 20
121.7216210923092
 30
0.0
 10
207.4539130540522
 20
121.680341854541
 30
0.0
  0
SPLINE
  5
1FC
330
1F
100
AcDbEntity
  8
0
  6
Continuous
 62
     7
370
    15
100
AcDbSpline
210
0.0
220
0.0
230
1.0
 70
     8
 71
     3
 72
     8
 73
     4
 74
     0
 42
0.00000001
 43
0.00000001
 40
0.0000249638557296
 40
0.0000249638557296
 40
0.0000249638557296
 40
0.0000249638557296
 40
0.0049776420541172
 40
0.0049776420541172
 40
0.0049776420541172
 40
0.0049776420541172
 10
207.4539130540522
 20
113.7499200608679
 30
0.0
 10
207.4175638411141
 20
113.7086408230997
 30
0.0
 10
207.381139254982
 20
113.6684191418602
 30
0.0
 10
207.3446393767712
 20
113.6291699046052
 30
0.0
  0
ARC
  5
1FD
330
1F
100
AcDbEntity
  8
0
  6
Continuous
 62
     7
370
    15
100
AcDbCircle
 10
221.7260315367
 20
108.6653886965
 30
0.0
 40
12.97035652337348
100
AcDbArc
 50
210.0
 51
270.0
  0
ARC
  5
1FE
330
1F
100
AcDbEntity
  8
0
  6
Continuous
 62
     7
370
    15
100
AcDbCircle
 10
221.7260315367
 20
126.7648732189
 30
0.0
 40
12.97035652337346
100
AcDbArc
 50
90.0
 51
150.0
  0
ARC
  5
1FF
330
1F
100
AcDbEntity
  8
0
  6
Continuous
 62
     7
370
    15
100
AcDbCircle
 10
221.7260315367
 20
108.6653886965
 30
0.0
 40
31.06984104575922
100
AcDbArc
 50
30.0
 51
90.0
  0
ARC
  5
200
330
1F
100
AcDbEntity
  8
0
  6
Continuous
 62
     7
370
    15
100
AcDbCircle
 10
221.7260315367
 20
126.7648732189
 30
0.0
 40
31.06984104575923
100
AcDbArc
 50
270.0
 51
330.0
  0
ARC
  5
201
330
1F
100
AcDbEntity
  8
0
  6
Continuous
 62
     7
370
    15
100
AcDbCircle
 10
237.4006449284
 20
117.7151309577
 30
0.0
 40
12.97035652337349
100
AcDbArc
 50
330.0
 51
30.0
  0
CIRCLE
  5
202
330
1F
100
AcDbEntity
  8
0
  6
Continuous
 62
     7
370
    15
100
AcDbCircle
 10
226.9509026673
 20
117.7151309577
 30
0.0
 40
14.0
  0
SPLINE
  5
203
330
1F
100
AcDbEntity
  8
0
  6
Continuous
 62
     7
370
    15
100
AcDbSpline
210
0.0
220
0.0
230
1.0
 70
    24
 71
     1
 72
     4
 73
     2
 74
     0
 42
0.00000001
 43
0.00000001
 40
0.0
 40
0.0
 40
1.0
 40
1.0
 10
212.959253393085
 20
117.3945330329435
 30
0.0
 10
212.965285054864
 20
117.080702080682
 30
0.0
  0
SPLINE
  5
204
330
1F
100
AcDbEntity
  8
0
  6
Continuous
 62
     7
370
    15
100
AcDbSpline
210
0.0
220
0.0
230
1.0
 70
     8
 71
     3
 72
    10
 73
     6
 74
     0
 42
0.00000001
 43
0.00000001
 40
0.0
 40
0.0
 40
0.0
 40
0.0
 40
0.5
 40
0.5
 40
1.0
 40
1.0
 40
1.0
 40
1.0
 10
240.9365202796445
 20
117.080702080682
 30
0.0
 10
240.9460125919309
 20
117.2899546142645
 30
0.0
 10
240.9483755646437
 20
117.5007713751634
 30
0.0
 10
240.9484170026342
 20
117.9253036563667
 30
0.0
 10
240.9460241756327
 20
118.1400519451393
 30
0.0
 10
240.9365202796445
 20
118.3495598347269
 30
0.0
  0
CIRCLE
  5
205
330
1F
100
AcDbEntity
  8
0
  6
Continuous
 62
     7
370
    15
100
AcDbCircle
 10
226.9509026673
 20
117.7151309577
 30
0.0
 40
10.25
  0
CIRCLE
  5
206
330
1F
100
AcDbEntity
  8
0
  6
Continuous
 62
     7
370
    15
100
AcDbCircle
 10
226.9509026673
 20
117.7151309577
 30
0.0
 40
9.0
  0
SPLINE
  5
207
330
1F
100
AcDbEntity
  8
0
  6
Continuous
 62
     7
370
    15
100
AcDbSpline
210
0.0
220
0.0
230
1.0
 70
    24
 71
     1
 72
     4
 73
     2
 74
     0
 42
0.00000001
 43
0.00000001
 40
0.0
 40
0.0
 40
1.0
 40
1.0
 10
210.345244941396
 20
132.9469703405295
 30
0.0
 10
210.1607013135131
 20
132.7528381201957
 30
0.0
  0
ARC
  5
208
330
1F
100
AcDbEntity
  8
0
  6
Continuous
 62
     7
370
    15
100
AcDbCircle
 10
226.9509026673
 20
117.7151309577
 30
0.0
 40
22.53982027887557
100
AcDbArc
 50
138.1516123933
 51
221.8483876067
  0
SPLINE
  5
209
330
1F
100
AcDbEntity
  8
0
  6
Continuous
 62
     7
370
    15
100
AcDbSpline
210
0.0
220
0.0
230
1.0
 70
    24
 71
     1
 72
     4
 73
     2
 74
     0
 42
0.00000001
 43
0.00000001
 40
0.0
 40
0.0
 40
1.0
 40
1.0
 10
210.1607013135131
 20
102.6774237952133
 30
0.0
 10
210.3151506372598
 20
102.5200603456793
 30
0.0
  0
SPLINE
  5
20A
330
1F
100
AcDbEntity
  8
0
  6
Continuous
 62
     7
370
    15
100
AcDbSpline
210
0.0
220
0.0
230
1.0
 70
    24
 71
     1
 72
     4
 73
     2
 74
     0
 42
0.00000001
 43
0.00000001
 40
0.0
 40
0.0
 40
1.0
 40
1.0
 10
222.0625716782926
 20
95.71828982914944
 30
0.0
 10
222.3229669267362
 20
95.65553646946317
 30
0.0
  0
ARC
  5
20B
330
1F
100
AcDbEntity
  8
0
  6
Continuous
 62
     7
370
    15
100
AcDbCircle
 10
226.9509026673
 20
117.7151309577
 30
0.0
 40
22.53982027887556
100
AcDbArc
 50
258.1516123933
 51
341.8483876067
  0
SPLINE
  5
20C
330
1F
100
AcDbEntity
  8
0
  6
Continuous
 62
     7
370
    15
100
AcDbSpline
210
0.0
220
0.0
230
1.0
 70
    24
 71
     1
 72
     4
 73
     2
 74
     0
 42
0.00000001
 43
0.00000001
 40
0.0
 40
0.0
 40
1.0
 40
1.0
 10
248.3690397615134
 20
110.6932436319544
 30
0.0
 10
248.428095844563
 20
110.9056823946824
 30
0.0
  0
SPLINE
  5
20D
330
1F
100
AcDbEntity
  8
0
  6
Continuous
 62
     7
370
    15
100
AcDbSpline
210
0.0
220
0.0
230
1.0
 70
    24
 71
     1
 72
     4
 73
     2
 74
     0
 42
0.00000001
 43
0.00000001
 40
0.0
 40
0.0
 40
1.0
 40
1.0
 10
248.444891382074
 20
124.4801327034345
 30
0.0
 10
248.3690397615134
 20
124.7370182834546
 30
0.0
  0
ARC
  5
20E
330
1F
100
AcDbEntity
  8
0
  6
Continuous
 62
     7
370
    15
100
AcDbCircle
 10
226.9509026673
 20
117.7151309577
 30
0.0
 40
22.53982027887555
100
AcDbArc
 50
18.1516123933
 51
101.8483876067
  0
SPLINE
  5
20F
330
1F
100
AcDbEntity
  8
0
  6
Continuous
 62
     7
370
    15
100
AcDbSpline
210
0.0
220
0.0
230
1.0
 70
    24
 71
     1
 72
     4
 73
     2
 74
     0
 42
0.00000001
 43
0.00000001
 40
0.0
 40
0.0
 40
1.0
 40
1.0
 10
222.3229669267362
 20
139.7747254459458
 30
0.0
 10
222.1019373972651
 20
139.719955854521
 30
0.0
  0
CIRCLE
  5
210
330
1F
100
AcDbEntity
  8
0
  6
Continuous
 62
     7
370
    15
100
AcDbCircle
 10
226.9509026673
 20
117.7151309577
 30
0.0
 40
31.5
  0
CIRCLE
  5
211
330
1F
100
AcDbEntity
  8
0
  6
Continuous
 62
     7
370
    15
100
AcDbCircle
 10
226.9509026673
 20
117.7151309577
 30
0.0
 40
24.25
  0
CIRCLE
  5
212
330
1F
100
AcDbEntity
  8
0
  6
Continuous
 62
     7
370
    15
100
AcDbCircle
 10
226.9509026673
 20
117.7151309577
 30
0.0
 40
7.000000000000014
  0
CIRCLE
  5
213
330
1F
100
AcDbEntity
  8
0
  6
Continuous
 62
     7
370
    15
100
AcDbCircle
 10
226.9509026673
 20
117.7151309577
 30
0.0
 40
5.999999999999972
  0
LINE
  5
214
330
1F
100
AcDbEntity
  8
0
  6
HIDDEN
 62
     7
370
     0
100
AcDbLine
 10
230.9509026673
 20
135.1151309577
 30
0.0
 11
222.9509026673
 21
135.1151309577
 31
0.0
  0
LINE
  5
215
330
1F
100
AcDbEntity
  8
0
  6
HIDDEN
 62
     7
370
     0
100
AcDbLine
 10
230.9509026673
 20
126.4651309577
 30
0.0
 11
222.9509026673
 21
126.4651309577
 31
0.0
  0
LINE
  5
216
330
1F
100
AcDbEntity
  8
0
  6
HIDDEN
 62
     7
370
     0
100
AcDbLine
 10
229.7009026673
 20
125.2151309577
 30
0.0
 11
224.2194971835
 21
125.2151309577
 31
0.0
  0
LINE
  5
217
330
1F
100
AcDbEntity
  8
0
  6
HIDDEN
 62
     7
370
     0
100
AcDbLine
 10
230.3509026673
 20
135.7151309577
 30
0.0
 11
223.5509026673
 21
135.7151309577
 31
0.0
  0
LINE
  5
218
330
1F
100
AcDbEntity
  8
0
  6
HIDDEN
 62
     7
370
     0
100
AcDbLine
 10
228.1056032056
 20
130.7151309577
 30
0.0
 11
225.7962021289
 21
130.7151309577
 31
0.0
  0
LINE
  5
219
330
1F
100
AcDbEntity
  8
0
  6
HIDDEN
 62
     7
370
     0
100
AcDbLine
 10
228.1056032056
 20
135.7151309577
 30
0.0
 11
225.7962021289
 21
135.7151309577
 31
0.0
  0
LINE
  5
21A
330
1F
100
AcDbEntity
  8
0
  6
HIDDEN
 62
     7
370
     0
100
AcDbLine
 10
225.7962021289
 20
130.7151309577
 30
0.0
 11
225.7962021289
 21
135.7151309577
 31
0.0
  0
LINE
  5
21B
330
1F
100
AcDbEntity
  8
0
  6
HIDDEN
 62
     7
370
     0
100
AcDbLine
 10
225.7962021289
 20
130.7151309577
 30
0.0
 11
224.6415015905
 21
130.7151309577
 31
0.0
  0
LINE
  5
21C
330
1F
100
AcDbEntity
  8
0
  6
HIDDEN
 62
     7
370
     0
100
AcDbLine
 10
225.7962021289
 20
135.7151309577
 30
0.0
 11
224.6415015905
 21
135.7151309577
 31
0.0
  0
LINE
  5
21D
330
1F
100
AcDbEntity
  8
0
  6
HIDDEN
 62
     7
370
     0
100
AcDbLine
 10
228.1056032056
 20
130.7151309577
 30
0.0
 11
228.1056032056
 21
135.7151309577
 31
0.0
  0
LINE
  5
21E
330
1F
100
AcDbEntity
  8
0
  6
HIDDEN
 62
     7
370
     0
100
AcDbLine
 10
228.1056032056
 20
130.7151309577
 30
0.0
 11
229.260303744
 21
130.7151309577
 31
0.0
  0
LINE
  5
21F
330
1F
100
AcDbEntity
  8
0
  6
HIDDEN
 62
     7
370
     0
100
AcDbLine
 10
228.1056032056
 20
135.7151309577
 30
0.0
 11
229.260303744
 21
135.7151309577
 31
0.0
  0
LINE
  5
220
330
1F
100
AcDbEntity
  8
0
  6
HIDDEN
 62
     7
370
     0
100
AcDbLine
 10
228.8009026673
 20
125.2151309577
 30
0.0
 11
225.1009026673
 21
125.2151309577
 31
0.0
  0
LINE
  5
221
330
1F
100
AcDbEntity
  8
0
  6
HIDDEN
 62
     7
370
     0
100
AcDbLine
 10
225.7962021289
 20
130.7151309577
 30
0.0
 11
225.7962021289
 21
135.7151309577
 31
0.0
  0
LINE
  5
222
330
1F
100
AcDbEntity
  8
0
  6
HIDDEN
 62
     7
370
     0
100
AcDbLine
 10
224.6415015905
 20
130.7151309577
 30
0.0
 11
224.6415015905
 21
135.7151309577
 31
0.0
  0
LINE
  5
223
330
1F
100
AcDbEntity
  8
0
  6
HIDDEN
 62
     7
370
     0
100
AcDbLine
 10
225.7962021289
 20
130.7151309577
 30
0.0
 11
224.6415015905
 21
130.7151309577
 31
0.0
  0
LINE
  5
224
330
1F
100
AcDbEntity
  8
0
  6
HIDDEN
 62
     7
370
     0
100
AcDbLine
 10
225.7962021289
 20
135.7151309577
 30
0.0
 11
224.6415015905
 21
135.7151309577
 31
0.0
  0
LINE
  5
225
330
1F
100
AcDbEntity
  8
0
  6
HIDDEN
 62
     7
370
     0
100
AcDbLine
 10
228.1056032056
 20
130.7151309577
 30
0.0
 11
228.1056032056
 21
135.7151309577
 31
0.0
  0
LINE
  5
226
330
1F
100
AcDbEntity
  8
0
  6
HIDDEN
 62
     7
370
     0
100
AcDbLine
 10
229.260303744
 20
130.7151309577
 30
0.0
 11
229.260303744
 21
135.7151309577
 31
0.0
  0
LINE
  5
227
330
1F
100
AcDbEntity
  8
0
  6
HIDDEN
 62
     7
370
     0
100
AcDbLine
 10
228.1056032056
 20
130.7151309577
 30
0.0
 11
229.260303744
 21
130.7151309577
 31
0.0
  0
LINE
  5
228
330
1F
100
AcDbEntity
  8
0
  6
HIDDEN
 62
     7
370
     0
100
AcDbLine
 10
228.1056032056
 20
135.7151309577
 30
0.0
 11
229.260303744
 21
135.7151309577
 31
0.0
  0
LINE
  5
229
330
1F
100
AcDbEntity
  8
0
  6
HIDDEN
 62
     7
370
     0
100
AcDbLine
 10
228.1056032056
 20
130.7151309577
 30
0.0
 11
225.7962021289
 21
130.7151309577
 31
0.0
  0
LINE
  5
22A
330
1F
100
AcDbEntity
  8
0
  6
HIDDEN
 62
     7
370
     0
100
AcDbLine
 10
228.1056032056
 20
135.7151309577
 30
0.0
 11
225.7962021289
 21
135.7151309577
 31
0.0
  0
LINE
  5
22B
330
1F
100
AcDbEntity
  8
0
  6
HIDDEN
 62
     7
370
     0
100
AcDbLine
 10
209.5509026673
 20
121.7151309577
 30
0.0
 11
209.5509026673
 21
113.7151309577
 31
0.0
  0
LINE
  5
22C
330
1F
100
AcDbEntity
  8
0
  6
HIDDEN
 62
     7
370
     0
100
AcDbLine
 10
218.2009026673
 20
121.7151309577
 30
0.0
 11
218.2009026673
 21
113.7151309577
 31
0.0
  0
LINE
  5
22D
330
1F
100
AcDbEntity
  8
0
  6
HIDDEN
 62
     7
370
     0
100
AcDbLine
 10
208.9509026673
 20
121.1151309577
 30
0.0
 11
208.9509026673
 21
114.3151309577
 31
0.0
  0
LINE
  5
22E
330
1F
100
AcDbEntity
  8
0
  6
HIDDEN
 62
     7
370
     0
100
AcDbLine
 10
219.4509026673
 20
120.4651309577
 30
0.0
 11
219.4509026673
 21
114.9837254739
 31
0.0
  0
LINE
  5
22F
330
1F
100
AcDbEntity
  8
0
  6
HIDDEN
 62
     7
370
     0
100
AcDbLine
 10
208.9509026673
 20
118.8698314961
 30
0.0
 11
208.9509026673
 21
116.5604304193
 31
0.0
  0
LINE
  5
230
330
1F
100
AcDbEntity
  8
0
  6
HIDDEN
 62
     7
370
     0
100
AcDbLine
 10
213.9509026673
 20
118.8698314961
 30
0.0
 11
213.9509026673
 21
116.5604304193
 31
0.0
  0
LINE
  5
231
330
1F
100
AcDbEntity
  8
0
  6
HIDDEN
 62
     7
370
     0
100
AcDbLine
 10
213.9509026673
 20
116.5604304193
 30
0.0
 11
213.9509026673
 21
115.4057298809
 31
0.0
  0
LINE
  5
232
330
1F
100
AcDbEntity
  8
0
  6
HIDDEN
 62
     7
370
     0
100
AcDbLine
 10
213.9509026673
 20
116.5604304193
 30
0.0
 11
208.9509026673
 21
116.5604304193
 31
0.0
  0
LINE
  5
233
330
1F
100
AcDbEntity
  8
0
  6
HIDDEN
 62
     7
370
     0
100
AcDbLine
 10
208.9509026673
 20
116.5604304193
 30
0.0
 11
208.9509026673
 21
115.4057298809
 31
0.0
  0
LINE
  5
234
330
1F
100
AcDbEntity
  8
0
  6
HIDDEN
 62
     7
370
     0
100
AcDbLine
 10
213.9509026673
 20
118.8698314961
 30
0.0
 11
213.9509026673
 21
120.0245320345
 31
0.0
  0
LINE
  5
235
330
1F
100
AcDbEntity
  8
0
  6
HIDDEN
 62
     7
370
     0
100
AcDbLine
 10
213.9509026673
 20
118.8698314961
 30
0.0
 11
208.9509026673
 21
118.8698314961
 31
0.0
  0
LINE
  5
236
330
1F
100
AcDbEntity
  8
0
  6
HIDDEN
 62
     7
370
     0
100
AcDbLine
 10
208.9509026673
 20
118.8698314961
 30
0.0
 11
208.9509026673
 21
120.0245320345
 31
0.0
  0
LINE
  5
237
330
1F
100
AcDbEntity
  8
0
  6
HIDDEN
 62
     7
370
     0
100
AcDbLine
 10
219.4509026673
 20
119.5651309577
 30
0.0
 11
219.4509026673
 21
115.8651309577
 31
0.0
  0
LINE
  5
238
330
1F
100
AcDbEntity
  8
0
  6
HIDDEN
 62
     7
370
     0
100
AcDbLine
 10
213.9509026673
 20
118.8698314961
 30
0.0
 11
208.9509026673
 21
118.8698314961
 31
0.0
  0
LINE
  5
239
330
1F
100
AcDbEntity
  8
0
  6
HIDDEN
 62
     7
370
     0
100
AcDbLine
 10
213.9509026673
 20
120.0245320345
 30
0.0
 11
208.9509026673
 21
120.0245320345
 31
0.0
  0
LINE
  5
23A
330
1F
100
AcDbEntity
  8
0
  6
HIDDEN
 62
     7
370
     0
100
AcDbLine
 10
213.9509026673
 20
118.8698314961
 30
0.0
 11
213.9509026673
 21
120.0245320345
 31
0.0
  0
LINE
  5
23B
330
1F
100
AcDbEntity
  8
0
  6
HIDDEN
 62
     7
370
     0
100
AcDbLine
 10
208.9509026673
 20
118.8698314961
 30
0.0
 11
208.9509026673
 21
120.0245320345
 31
0.0
  0
LINE
  5
23C
330
1F
100
AcDbEntity
  8
0
  6
HIDDEN
 62
     7
370
     0
100
AcDbLine
 10
213.9509026673
 20
116.5604304193
 30
0.0
 11
208.9509026673
 21
116.5604304193
 31
0.0
  0
LINE
  5
23D
330
1F
100
AcDbEntity
  8
0
  6
HIDDEN
 62
     7
370
     0
100
AcDbLine
 10
213.9509026673
 20
115.4057298809
 30
0.0
 11
208.9509026673
 21
115.4057298809
 31
0.0
  0
LINE
  5
23E
330
1F
100
AcDbEntity
  8
0
  6
HIDDEN
 62
     7
370
     0
100
AcDbLine
 10
213.9509026673
 20
116.5604304193
 30
0.0
 11
213.9509026673
 21
115.4057298809
 31
0.0
  0
LINE
  5
23F
330
1F
100
AcDbEntity
  8
0
  6
HIDDEN
 62
     7
370
     0
100
AcDbLine
 10
208.9509026673
 20
116.5604304193
 30
0.0
 11
208.9509026673
 21
115.4057298809
 31
0.0
  0
LINE
  5
240
330
1F
100
AcDbEntity
  8
0
  6
HIDDEN
 62
     7
370
     0
100
AcDbLine
 10
213.9509026673
 20
118.8698314961
 30
0.0
 11
213.9509026673
 21
116.5604304193
 31
0.0
  0
LINE
  5
241
330
1F
100
AcDbEntity
  8
0
  6
HIDDEN
 62
     7
370
     0
100
AcDbLine
 10
208.9509026673
 20
118.8698314961
 30
0.0
 11
208.9509026673
 21
116.5604304193
 31
0.0
  0
LINE
  5
242
330
1F
100
AcDbEntity
  8
0
  6
HIDDEN
 62
     7
370
     0
100
AcDbLine
 10
244.3509026673
 20
113.7151309577
 30
0.0
 11
244.3509026673
 21
121.7151309577
 31
0.0
  0
LINE
  5
243
330
1F
100
AcDbEntity
  8
0
  6
HIDDEN
 62
     7
370
     0
100
AcDbLine
 10
235.7009026673
 20
113.7151309577
 30
0.0
 11
235.7009026673
 21
121.7151309577
 31
0.0
  0
LINE
  5
244
330
1F
100
AcDbEntity
  8
0
  6
HIDDEN
 62
     7
370
     0
100
AcDbLine
 10
234.4509026673
 20
114.9651309577
 30
0.0
 11
234.4509026673
 21
120.4465364415
 31
0.0
  0
LINE
  5
245
330
1F
100
AcDbEntity
  8
0
  6
HIDDEN
 62
     7
370
     0
100
AcDbLine
 10
244.9509026673
 20
114.3151309577
 30
0.0
 11
244.9509026673
 21
121.1151309577
 31
0.0
  0
LINE
  5
246
330
1F
100
AcDbEntity
  8
0
  6
HIDDEN
 62
     7
370
     0
100
AcDbLine
 10
239.9509026673
 20
116.5604304193
 30
0.0
 11
239.9509026673
 21
118.8698314961
 31
0.0
  0
LINE
  5
247
330
1F
100
AcDbEntity
  8
0
  6
HIDDEN
 62
     7
370
     0
100
AcDbLine
 10
244.9509026673
 20
116.5604304193
 30
0.0
 11
244.9509026673
 21
118.8698314961
 31
0.0
  0
LINE
  5
248
330
1F
100
AcDbEntity
  8
0
  6
HIDDEN
 62
     7
370
     0
100
AcDbLine
 10
239.9509026673
 20
118.8698314961
 30
0.0
 11
244.9509026673
 21
118.8698314961
 31
0.0
  0
LINE
  5
249
330
1F
100
AcDbEntity
  8
0
  6
HIDDEN
 62
     7
370
     0
100
AcDbLine
 10
239.9509026673
 20
118.8698314961
 30
0.0
 11
239.9509026673
 21
120.0245320345
 31
0.0
  0
LINE
  5
24A
330
1F
100
AcDbEntity
  8
0
  6
HIDDEN
 62
     7
370
     0
100
AcDbLine
 10
244.9509026673
 20
118.8698314961
 30
0.0
 11
244.9509026673
 21
120.0245320345
 31
0.0
  0
LINE
  5
24B
330
1F
100
AcDbEntity
  8
0
  6
HIDDEN
 62
     7
370
     0
100
AcDbLine
 10
239.9509026673
 20
116.5604304193
 30
0.0
 11
244.9509026673
 21
116.5604304193
 31
0.0
  0
LINE
  5
24C
330
1F
100
AcDbEntity
  8
0
  6
HIDDEN
 62
     7
370
     0
100
AcDbLine
 10
239.9509026673
 20
116.5604304193
 30
0.0
 11
239.9509026673
 21
115.4057298809
 31
0.0
  0
LINE
  5
24D
330
1F
100
AcDbEntity
  8
0
  6
HIDDEN
 62
     7
370
     0
100
AcDbLine
 10
244.9509026673
 20
116.5604304193
 30
0.0
 11
244.9509026673
 21
115.4057298809
 31
0.0
  0
LINE
  5
24E
330
1F
100
AcDbEntity
  8
0
  6
HIDDEN
 62
     7
370
     0
100
AcDbLine
 10
234.4509026673
 20
115.8651309577
 30
0.0
 11
234.4509026673
 21
119.5651309577
 31
0.0
  0
LINE
  5
24F
330
1F
100
AcDbEntity
  8
0
  6
HIDDEN
 62
     7
370
     0
100
AcDbLine
 10
239.9509026673
 20
118.8698314961
 30
0.0
 11
244.9509026673
 21
118.8698314961
 31
0.0
  0
LINE
  5
250
330
1F
100
AcDbEntity
  8
0
  6
HIDDEN
 62
     7
370
     0
100
AcDbLine
 10
239.9509026673
 20
120.0245320345
 30
0.0
 11
244.9509026673
 21
120.0245320345
 31
0.0
  0
LINE
  5
251
330
1F
100
AcDbEntity
  8
0
  6
HIDDEN
 62
     7
370
     0
100
AcDbLine
 10
239.9509026673
 20
118.8698314961
 30
0.0
 11
239.9509026673
 21
120.0245320345
 31
0.0
  0
LINE
  5
252
330
1F
100
AcDbEntity
  8
0
  6
HIDDEN
 62
     7
370
     0
100
AcDbLine
 10
244.9509026673
 20
118.8698314961
 30
0.0
 11
244.9509026673
 21
120.0245320345
 31
0.0
  0
LINE
  5
253
330
1F
100
AcDbEntity
  8
0
  6
HIDDEN
 62
     7
370
     0
100
AcDbLine
 10
239.9509026673
 20
116.5604304193
 30
0.0
 11
244.9509026673
 21
116.5604304193
 31
0.0
  0
LINE
  5
254
330
1F
100
AcDbEntity
  8
0
  6
HIDDEN
 62
     7
370
     0
100
AcDbLine
 10
239.9509026673
 20
115.4057298809
 30
0.0
 11
244.9509026673
 21
115.4057298809
 31
0.0
  0
LINE
  5
255
330
1F
100
AcDbEntity
  8
0
  6
HIDDEN
 62
     7
370
     0
100
AcDbLine
 10
239.9509026673
 20
116.5604304193
 30
0.0
 11
239.9509026673
 21
115.4057298809
 31
0.0
  0
LINE
  5
256
330
1F
100
AcDbEntity
  8
0
  6
HIDDEN
 62
     7
370
     0
100
AcDbLine
 10
244.9509026673
 20
116.5604304193
 30
0.0
 11
244.9509026673
 21
115.4057298809
 31
0.0
  0
LINE
  5
257
330
1F
100
AcDbEntity
  8
0
  6
HIDDEN
 62
     7
370
     0
100
AcDbLine
 10
239.9509026673
 20
116.5604304193
 30
0.0
 11
239.9509026673
 21
118.8698314961
 31
0.0
  0
LINE
  5
258
330
1F
100
AcDbEntity
  8
0
  6
HIDDEN
 62
     7
370
     0
100
AcDbLine
 10
244.9509026673
 20
116.5604304193
 30
0.0
 11
244.9509026673
 21
118.8698314961
 31
0.0
  0
LINE
  5
259
330
1F
100
AcDbEntity
  8
0
  6
HIDDEN
 62
     7
370
     0
100
AcDbLine
 10
208.9509026673
 20
114.3151309577
 30
0.0
 11
208.9509026673
 21
121.1151309577
 31
0.0
  0
LINE
  5
25A
330
1F
100
AcDbEntity
  8
0
  6
HIDDEN
 62
     7
370
     0
100
AcDbLine
 10
209.5509026673
 20
113.7151309577
 30
0.0
 11
209.5509026673
 21
121.7151309577
 31
0.0
  0
LINE
  5
25B
330
1F
100
AcDbEntity
  8
0
  6
HIDDEN
 62
     7
370
     0
100
AcDbLine
 10
218.2009026673
 20
113.7151309577
 30
0.0
 11
218.2009026673
 21
121.7151309577
 31
0.0
  0
LINE
  5
25C
330
1F
100
AcDbEntity
  8
0
  6
HIDDEN
 62
     7
370
     0
100
AcDbLine
 10
219.4509026673
 20
114.9651309577
 30
0.0
 11
219.4509026673
 21
120.4651309577
 31
0.0
  0
LINE
  5
25D
330
1F
100
AcDbEntity
  8
0
  6
HIDDEN
 62
     7
370
     0
100
AcDbLine
 10
208.9509026673
 20
118.8698314961
 30
0.0
 11
208.9509026673
 21
120.0245320345
 31
0.0
  0
LINE
  5
25E
330
1F
100
AcDbEntity
  8
0
  6
HIDDEN
 62
     7
370
     0
100
AcDbLine
 10
213.9509026673
 20
118.8698314961
 30
0.0
 11
208.9509026673
 21
118.8698314961
 31
0.0
  0
LINE
  5
25F
330
1F
100
AcDbEntity
  8
0
  6
HIDDEN
 62
     7
370
     0
100
AcDbLine
 10
208.9509026673
 20
118.8698314961
 30
0.0
 11
208.9509026673
 21
116.5604304193
 31
0.0
  0
LINE
  5
260
330
1F
100
AcDbEntity
  8
0
  6
HIDDEN
 62
     7
370
     0
100
AcDbLine
 10
213.9509026673
 20
118.8698314961
 30
0.0
 11
213.9509026673
 21
116.5604304193
 31
0.0
  0
LINE
  5
261
330
1F
100
AcDbEntity
  8
0
  6
HIDDEN
 62
     7
370
     0
100
AcDbLine
 10
213.9509026673
 20
118.8698314961
 30
0.0
 11
213.9509026673
 21
120.0245320345
 31
0.0
  0
LINE
  5
262
330
1F
100
AcDbEntity
  8
0
  6
HIDDEN
 62
     7
370
     0
100
AcDbLine
 10
213.9509026673
 20
116.5604304193
 30
0.0
 11
213.9509026673
 21
115.4057298809
 31
0.0
  0
LINE
  5
263
330
1F
100
AcDbEntity
  8
0
  6
HIDDEN
 62
     7
370
     0
100
AcDbLine
 10
213.9509026673
 20
116.5604304193
 30
0.0
 11
208.9509026673
 21
116.5604304193
 31
0.0
  0
LINE
  5
264
330
1F
100
AcDbEntity
  8
0
  6
HIDDEN
 62
     7
370
     0
100
AcDbLine
 10
208.9509026673
 20
116.5604304193
 30
0.0
 11
208.9509026673
 21
115.4057298809
 31
0.0
  0
LINE
  5
265
330
1F
100
AcDbEntity
  8
0
  6
HIDDEN
 62
     7
370
     0
100
AcDbLine
 10
219.4509026673
 20
119.5651309577
 30
0.0
 11
219.4509026673
 21
115.8651309577
 31
0.0
  0
LINE
  5
266
330
1F
100
AcDbEntity
  8
0
  6
HIDDEN
 62
     7
370
     0
100
AcDbLine
 10
213.9509026673
 20
118.8698314961
 30
0.0
 11
208.9509026673
 21
118.8698314961
 31
0.0
  0
LINE
  5
267
330
1F
100
AcDbEntity
  8
0
  6
HIDDEN
 62
     7
370
     0
100
AcDbLine
 10
213.9509026673
 20
118.8698314961
 30
0.0
 11
213.9509026673
 21
120.0245320345
 31
0.0
  0
LINE
  5
268
330
1F
100
AcDbEntity
  8
0
  6
HIDDEN
 62
     7
370
     0
100
AcDbLine
 10
213.9509026673
 20
120.0245320345
 30
0.0
 11
208.9509026673
 21
120.0245320345
 31
0.0
  0
LINE
  5
269
330
1F
100
AcDbEntity
  8
0
  6
HIDDEN
 62
     7
370
     0
100
AcDbLine
 10
208.9509026673
 20
118.8698314961
 30
0.0
 11
208.9509026673
 21
120.0245320345
 31
0.0
  0
LINE
  5
26A
330
1F
100
AcDbEntity
  8
0
  6
HIDDEN
 62
     7
370
     0
100
AcDbLine
 10
213.9509026673
 20
116.5604304193
 30
0.0
 11
208.9509026673
 21
116.5604304193
 31
0.0
  0
LINE
  5
26B
330
1F
100
AcDbEntity
  8
0
  6
HIDDEN
 62
     7
370
     0
100
AcDbLine
 10
213.9509026673
 20
115.4057298809
 30
0.0
 11
208.9509026673
 21
115.4057298809
 31
0.0
  0
LINE
  5
26C
330
1F
100
AcDbEntity
  8
0
  6
HIDDEN
 62
     7
370
     0
100
AcDbLine
 10
213.9509026673
 20
116.5604304193
 30
0.0
 11
213.9509026673
 21
115.4057298809
 31
0.0
  0
LINE
  5
26D
330
1F
100
AcDbEntity
  8
0
  6
HIDDEN
 62
     7
370
     0
100
AcDbLine
 10
208.9509026673
 20
116.5604304193
 30
0.0
 11
208.9509026673
 21
115.4057298809
 31
0.0
  0
LINE
  5
26E
330
1F
100
AcDbEntity
  8
0
  6
HIDDEN
 62
     7
370
     0
100
AcDbLine
 10
213.9509026673
 20
118.8698314961
 30
0.0
 11
213.9509026673
 21
116.5604304193
 31
0.0
  0
LINE
  5
26F
330
1F
100
AcDbEntity
  8
0
  6
HIDDEN
 62
     7
370
     0
100
AcDbLine
 10
208.9509026673
 20
118.8698314961
 30
0.0
 11
208.9509026673
 21
116.5604304193
 31
0.0
  0
LINE
  5
270
330
1F
100
AcDbEntity
  8
0
  6
HIDDEN
 62
     7
370
     0
100
AcDbLine
 10
223.5509026673
 20
135.7151309577
 30
0.0
 11
230.3509026673
 21
135.7151309577
 31
0.0
  0
LINE
  5
271
330
1F
100
AcDbEntity
  8
0
  6
HIDDEN
 62
     7
370
     0
100
AcDbLine
 10
222.9509026673
 20
135.1151309577
 30
0.0
 11
230.9509026673
 21
135.1151309577
 31
0.0
  0
LINE
  5
272
330
1F
100
AcDbEntity
  8
0
  6
HIDDEN
 62
     7
370
     0
100
AcDbLine
 10
222.9509026673
 20
126.4651309577
 30
0.0
 11
230.9509026673
 21
126.4651309577
 31
0.0
  0
LINE
  5
273
330
1F
100
AcDbEntity
  8
0
  6
HIDDEN
 62
     7
370
     0
100
AcDbLine
 10
224.2009026673
 20
125.2151309577
 30
0.0
 11
229.7009026673
 21
125.2151309577
 31
0.0
  0
LINE
  5
274
330
1F
100
AcDbEntity
  8
0
  6
HIDDEN
 62
     7
370
     0
100
AcDbLine
 10
228.1056032056
 20
135.7151309577
 30
0.0
 11
229.260303744
 21
135.7151309577
 31
0.0
  0
LINE
  5
275
330
1F
100
AcDbEntity
  8
0
  6
HIDDEN
 62
     7
370
     0
100
AcDbLine
 10
228.1056032056
 20
130.7151309577
 30
0.0
 11
229.260303744
 21
130.7151309577
 31
0.0
  0
LINE
  5
276
330
1F
100
AcDbEntity
  8
0
  6
HIDDEN
 62
     7
370
     0
100
AcDbLine
 10
228.1056032056
 20
130.7151309577
 30
0.0
 11
225.7962021289
 21
130.7151309577
 31
0.0
  0
LINE
  5
277
330
1F
100
AcDbEntity
  8
0
  6
HIDDEN
 62
     7
370
     0
100
AcDbLine
 10
228.1056032056
 20
130.7151309577
 30
0.0
 11
228.1056032056
 21
135.7151309577
 31
0.0
  0
LINE
  5
278
330
1F
100
AcDbEntity
  8
0
  6
HIDDEN
 62
     7
370
     0
100
AcDbLine
 10
228.1056032056
 20
135.7151309577
 30
0.0
 11
225.7962021289
 21
135.7151309577
 31
0.0
  0
LINE
  5
279
330
1F
100
AcDbEntity
  8
0
  6
HIDDEN
 62
     7
370
     0
100
AcDbLine
 10
225.7962021289
 20
130.7151309577
 30
0.0
 11
225.7962021289
 21
135.7151309577
 31
0.0
  0
LINE
  5
27A
330
1F
100
AcDbEntity
  8
0
  6
HIDDEN
 62
     7
370
     0
100
AcDbLine
 10
225.7962021289
 20
130.7151309577
 30
0.0
 11
224.6415015905
 21
130.7151309577
 31
0.0
  0
LINE
  5
27B
330
1F
100
AcDbEntity
  8
0
  6
HIDDEN
 62
     7
370
     0
100
AcDbLine
 10
225.7962021289
 20
135.7151309577
 30
0.0
 11
224.6415015905
 21
135.7151309577
 31
0.0
  0
LINE
  5
27C
330
1F
100
AcDbEntity
  8
0
  6
HIDDEN
 62
     7
370
     0
100
AcDbLine
 10
228.8009026673
 20
125.2151309577
 30
0.0
 11
225.1009026673
 21
125.2151309577
 31
0.0
  0
LINE
  5
27D
330
1F
100
AcDbEntity
  8
0
  6
HIDDEN
 62
     7
370
     0
100
AcDbLine
 10
228.1056032056
 20
130.7151309577
 30
0.0
 11
228.1056032056
 21
135.7151309577
 31
0.0
  0
LINE
  5
27E
330
1F
100
AcDbEntity
  8
0
  6
HIDDEN
 62
     7
370
     0
100
AcDbLine
 10
228.1056032056
 20
130.7151309577
 30
0.0
 11
229.260303744
 21
130.7151309577
 31
0.0
  0
LINE
  5
27F
330
1F
100
AcDbEntity
  8
0
  6
HIDDEN
 62
     7
370
     0
100
AcDbLine
 10
229.260303744
 20
130.7151309577
 30
0.0
 11
229.260303744
 21
135.7151309577
 31
0.0
  0
LINE
  5
280
330
1F
100
AcDbEntity
  8
0
  6
HIDDEN
 62
     7
370
     0
100
AcDbLine
 10
228.1056032056
 20
135.7151309577
 30
0.0
 11
229.260303744
 21
135.7151309577
 31
0.0
  0
LINE
  5
281
330
1F
100
AcDbEntity
  8
0
  6
HIDDEN
 62
     7
370
     0
100
AcDbLine
 10
225.7962021289
 20
130.7151309577
 30
0.0
 11
225.7962021289
 21
135.7151309577
 31
0.0
  0
LINE
  5
282
330
1F
100
AcDbEntity
  8
0
  6
HIDDEN
 62
     7
370
     0
100
AcDbLine
 10
224.6415015905
 20
130.7151309577
 30
0.0
 11
224.6415015905
 21
135.7151309577
 31
0.0
  0
LINE
  5
283
330
1F
100
AcDbEntity
  8
0
  6
HIDDEN
 62
     7
370
     0
100
AcDbLine
 10
225.7962021289
 20
130.7151309577
 30
0.0
 11
224.6415015905
 21
130.7151309577
 31
0.0
  0
LINE
  5
284
330
1F
100
AcDbEntity
  8
0
  6
HIDDEN
 62
     7
370
     0
100
AcDbLine
 10
225.7962021289
 20
135.7151309577
 30
0.0
 11
224.6415015905
 21
135.7151309577
 31
0.0
  0
LINE
  5
285
330
1F
100
AcDbEntity
  8
0
  6
HIDDEN
 62
     7
370
     0
100
AcDbLine
 10
228.1056032056
 20
130.7151309577
 30
0.0
 11
225.7962021289
 21
130.7151309577
 31
0.0
  0
LINE
  5
286
330
1F
100
AcDbEntity
  8
0
  6
HIDDEN
 62
     7
370
     0
100
AcDbLine
 10
228.1056032056
 20
135.7151309577
 30
0.0
 11
225.7962021289
 21
135.7151309577
 31
0.0
  0
LINE
  5
287
330
1F
100
AcDbEntity
  8
0
  6
HIDDEN
 62
     7
370
     0
100
AcDbLine
 10
244.3509026673
 20
121.7151309577
 30
0.0
 11
244.3509026673
 21
113.7151309577
 31
0.0
  0
LINE
  5
288
330
1F
100
AcDbEntity
  8
0
  6
HIDDEN
 62
     7
370
     0
100
AcDbLine
 10
235.7009026673
 20
121.7151309577
 30
0.0
 11
235.7009026673
 21
113.7151309577
 31
0.0
  0
LINE
  5
289
330
1F
100
AcDbEntity
  8
0
  6
HIDDEN
 62
     7
370
     0
100
AcDbLine
 10
234.4509026673
 20
120.4651309577
 30
0.0
 11
234.4509026673
 21
114.9651309577
 31
0.0
  0
LINE
  5
28A
330
1F
100
AcDbEntity
  8
0
  6
HIDDEN
 62
     7
370
     0
100
AcDbLine
 10
244.9509026673
 20
121.1151309577
 30
0.0
 11
244.9509026673
 21
114.3151309577
 31
0.0
  0
LINE
  5
28B
330
1F
100
AcDbEntity
  8
0
  6
HIDDEN
 62
     7
370
     0
100
AcDbLine
 10
244.9509026673
 20
116.5604304193
 30
0.0
 11
244.9509026673
 21
115.4057298809
 31
0.0
  0
LINE
  5
28C
330
1F
100
AcDbEntity
  8
0
  6
HIDDEN
 62
     7
370
     0
100
AcDbLine
 10
239.9509026673
 20
116.5604304193
 30
0.0
 11
239.9509026673
 21
115.4057298809
 31
0.0
  0
LINE
  5
28D
330
1F
100
AcDbEntity
  8
0
  6
HIDDEN
 62
     7
370
     0
100
AcDbLine
 10
239.9509026673
 20
116.5604304193
 30
0.0
 11
239.9509026673
 21
118.8698314961
 31
0.0
  0
LINE
  5
28E
330
1F
100
AcDbEntity
  8
0
  6
HIDDEN
 62
     7
370
     0
100
AcDbLine
 10
239.9509026673
 20
116.5604304193
 30
0.0
 11
244.9509026673
 21
116.5604304193
 31
0.0
  0
LINE
  5
28F
330
1F
100
AcDbEntity
  8
0
  6
HIDDEN
 62
     7
370
     0
100
AcDbLine
 10
244.9509026673
 20
116.5604304193
 30
0.0
 11
244.9509026673
 21
118.8698314961
 31
0.0
  0
LINE
  5
290
330
1F
100
AcDbEntity
  8
0
  6
HIDDEN
 62
     7
370
     0
100
AcDbLine
 10
239.9509026673
 20
118.8698314961
 30
0.0
 11
244.9509026673
 21
118.8698314961
 31
0.0
  0
LINE
  5
291
330
1F
100
AcDbEntity
  8
0
  6
HIDDEN
 62
     7
370
     0
100
AcDbLine
 10
239.9509026673
 20
118.8698314961
 30
0.0
 11
239.9509026673
 21
120.0245320345
 31
0.0
  0
LINE
  5
292
330
1F
100
AcDbEntity
  8
0
  6
HIDDEN
 62
     7
370
     0
100
AcDbLine
 10
244.9509026673
 20
118.8698314961
 30
0.0
 11
244.9509026673
 21
120.0245320345
 31
0.0
  0
LINE
  5
293
330
1F
100
AcDbEntity
  8
0
  6
HIDDEN
 62
     7
370
     0
100
AcDbLine
 10
234.4509026673
 20
115.8651309577
 30
0.0
 11
234.4509026673
 21
119.5651309577
 31
0.0
  0
LINE
  5
294
330
1F
100
AcDbEntity
  8
0
  6
HIDDEN
 62
     7
370
     0
100
AcDbLine
 10
239.9509026673
 20
116.5604304193
 30
0.0
 11
244.9509026673
 21
116.5604304193
 31
0.0
  0
LINE
  5
295
330
1F
100
AcDbEntity
  8
0
  6
HIDDEN
 62
     7
370
     0
100
AcDbLine
 10
239.9509026673
 20
116.5604304193
 30
0.0
 11
239.9509026673
 21
115.4057298809
 31
0.0
  0
LINE
  5
296
330
1F
100
AcDbEntity
  8
0
  6
HIDDEN
 62
     7
370
     0
100
AcDbLine
 10
239.9509026673
 20
115.4057298809
 30
0.0
 11
244.9509026673
 21
115.4057298809
 31
0.0
  0
LINE
  5
297
330
1F
100
AcDbEntity
  8
0
  6
HIDDEN
 62
     7
370
     0
100
AcDbLine
 10
244.9509026673
 20
116.5604304193
 30
0.0
 11
244.9509026673
 21
115.4057298809
 31
0.0
  0
LINE
  5
298
330
1F
100
AcDbEntity
  8
0
  6
HIDDEN
 62
     7
370
     0
100
AcDbLine
 10
239.9509026673
 20
118.8698314961
 30
0.0
 11
244.9509026673
 21
118.8698314961
 31
0.0
  0
LINE
  5
299
330
1F
100
AcDbEntity
  8
0
  6
HIDDEN
 62
     7
370
     0
100
AcDbLine
 10
239.9509026673
 20
120.0245320345
 30
0.0
 11
244.9509026673
 21
120.0245320345
 31
0.0
  0
LINE
  5
29A
330
1F
100
AcDbEntity
  8
0
  6
HIDDEN
 62
     7
370
     0
100
AcDbLine
 10
239.9509026673
 20
118.8698314961
 30
0.0
 11
239.9509026673
 21
120.0245320345
 31
0.0
  0
LINE
  5
29B
330
1F
100
AcDbEntity
  8
0
  6
HIDDEN
 62
     7
370
     0
100
AcDbLine
 10
244.9509026673
 20
118.8698314961
 30
0.0
 11
244.9509026673
 21
120.0245320345
 31
0.0
  0
LINE
  5
29C
330
1F
100
AcDbEntity
  8
0
  6
HIDDEN
 62
     7
370
     0
100
AcDbLine
 10
239.9509026673
 20
116.5604304193
 30
0.0
 11
239.9509026673
 21
118.8698314961
 31
0.0
  0
LINE
  5
29D
330
1F
100
AcDbEntity
  8
0
  6
HIDDEN
 62
     7
370
     0
100
AcDbLine
 10
244.9509026673
 20
116.5604304193
 30
0.0
 11
244.9509026673
 21
118.8698314961
 31
0.0
  0
SPLINE
  5
29E
330
1F
100
AcDbEntity
  8
0
  6
HIDDEN
 62
     7
370
     0
100
AcDbSpline
210
0.0
220
0.0
230
1.0
 70
    24
 71
     1
 72
     4
 73
     2
 74
     0
 42
0.00000001
 43
0.00000001
 40
0.0
 40
0.0
 40
1.0
 40
1.0
 10
222.950902667254
 20
135.1151309577045
 30
0.0
 10
222.950902667254
 20
126.4651309577045
 30
0.0
  0
SPLINE
  5
29F
330
1F
100
AcDbEntity
  8
0
  6
HIDDEN
 62
     7
370
     0
100
AcDbSpline
210
0.0
220
0.0
230
1.0
 70
    24
 71
     1
 72
     4
 73
     2
 74
     0
 42
0.00000001
 43
0.00000001
 40
0.0
 40
0.0
 40
1.0
 40
1.0
 10
230.950902667254
 20
126.4651309577045
 30
0.0
 10
230.950902667254
 20
135.1151309577045
 30
0.0
  0
SPLINE
  5
2A0
330
1F
100
AcDbEntity
  8
0
  6
HIDDEN
 62
     7
370
     0
100
AcDbSpline
210
0.0
220
0.0
230
1.0
 70
    24
 71
     1
 72
     4
 73
     2
 74
     0
 42
0.00000001
 43
0.00000001
 40
0.0
 40
0.0
 40
1.0
 40
1.0
 10
222.950902667254
 20
126.4651309577045
 30
0.0
 10
224.200902667254
 20
125.2151309577045
 30
0.0
  0
SPLINE
  5
2A1
330
1F
100
AcDbEntity
  8
0
  6
HIDDEN
 62
     7
370
     0
100
AcDbSpline
210
0.0
220
0.0
230
1.0
 70
    24
 71
     1
 72
     4
 73
     2
 74
     0
 42
0.00000001
 43
0.00000001
 40
0.0
 40
0.0
 40
1.0
 40
1.0
 10
229.700902667254
 20
125.2151309577045
 30
0.0
 10
230.950902667254
 20
126.4651309577045
 30
0.0
  0
SPLINE
  5
2A2
330
1F
100
AcDbEntity
  8
0
  6
HIDDEN
 62
     7
370
     0
100
AcDbSpline
210
0.0
220
0.0
230
1.0
 70
    24
 71
     1
 72
     4
 73
     2
 74
     0
 42
0.00000001
 43
0.00000001
 40
0.0
 40
0.0
 40
1.0
 40
1.0
 10
230.950902667254
 20
135.1151309577045
 30
0.0
 10
230.350902667254
 20
135.7151309577045
 30
0.0
  0
SPLINE
  5
2A3
330
1F
100
AcDbEntity
  8
0
  6
HIDDEN
 62
     7
370
     0
100
AcDbSpline
210
0.0
220
0.0
230
1.0
 70
    24
 71
     1
 72
     4
 73
     2
 74
     0
 42
0.00000001
 43
0.00000001
 40
0.0
 40
0.0
 40
1.0
 40
1.0
 10
223.550902667254
 20
135.7151309577045
 30
0.0
 10
222.950902667254
 20
135.1151309577045
 30
0.0
  0
SPLINE
  5
2A4
330
1F
100
AcDbEntity
  8
0
  6
HIDDEN
 62
     7
370
     0
100
AcDbSpline
210
0.0
220
0.0
230
1.0
 70
    24
 71
     1
 72
     4
 73
     2
 74
     0
 42
0.00000001
 43
0.00000001
 40
0.0
 40
0.0
 40
1.0
 40
1.0
 10
228.800902667254
 20
125.2151309577045
 30
0.0
 10
226.950902667254
 20
126.2832289557053
 30
0.0
  0
SPLINE
  5
2A5
330
1F
100
AcDbEntity
  8
0
  6
HIDDEN
 62
     7
370
     0
100
AcDbSpline
210
0.0
220
0.0
230
1.0
 70
    24
 71
     1
 72
     4
 73
     2
 74
     0
 42
0.00000001
 43
0.00000001
 40
0.0
 40
0.0
 40
1.0
 40
1.0
 10
226.950902667254
 20
126.2832289557053
 30
0.0
 10
225.100902667254
 20
125.2151309577045
 30
0.0
  0
SPLINE
  5
2A6
330
1F
100
AcDbEntity
  8
0
  6
HIDDEN
 62
     7
370
     0
100
AcDbSpline
210
0.0
220
0.0
230
1.0
 70
    24
 71
     1
 72
     4
 73
     2
 74
     0
 42
0.00000001
 43
0.00000001
 40
0.0
 40
0.0
 40
1.0
 40
1.0
 10
209.550902667254
 20
113.7151309577047
 30
0.0
 10
218.200902667254
 20
113.7151309577046
 30
0.0
  0
SPLINE
  5
2A7
330
1F
100
AcDbEntity
  8
0
  6
HIDDEN
 62
     7
370
     0
100
AcDbSpline
210
0.0
220
0.0
230
1.0
 70
    24
 71
     1
 72
     4
 73
     2
 74
     0
 42
0.00000001
 43
0.00000001
 40
0.0
 40
0.0
 40
1.0
 40
1.0
 10
218.200902667254
 20
121.7151309577046
 30
0.0
 10
209.550902667254
 20
121.7151309577047
 30
0.0
  0
SPLINE
  5
2A8
330
1F
100
AcDbEntity
  8
0
  6
HIDDEN
 62
     7
370
     0
100
AcDbSpline
210
0.0
220
0.0
230
1.0
 70
    24
 71
     1
 72
     4
 73
     2
 74
     0
 42
0.00000001
 43
0.00000001
 40
0.0
 40
0.0
 40
1.0
 40
1.0
 10
209.550902667254
 20
121.7151309577046
 30
0.0
 10
208.950902667254
 20
121.1151309577047
 30
0.0
  0
SPLINE
  5
2A9
330
1F
100
AcDbEntity
  8
0
  6
HIDDEN
 62
     7
370
     0
100
AcDbSpline
210
0.0
220
0.0
230
1.0
 70
    24
 71
     1
 72
     4
 73
     2
 74
     0
 42
0.00000001
 43
0.00000001
 40
0.0
 40
0.0
 40
1.0
 40
1.0
 10
208.950902667254
 20
114.3151309577047
 30
0.0
 10
209.550902667254
 20
113.7151309577047
 30
0.0
  0
SPLINE
  5
2AA
330
1F
100
AcDbEntity
  8
0
  6
HIDDEN
 62
     7
370
     0
100
AcDbSpline
210
0.0
220
0.0
230
1.0
 70
    24
 71
     1
 72
     4
 73
     2
 74
     0
 42
0.00000001
 43
0.00000001
 40
0.0
 40
0.0
 40
1.0
 40
1.0
 10
218.200902667254
 20
113.7151309577046
 30
0.0
 10
219.450902667254
 20
114.9651309577046
 30
0.0
  0
SPLINE
  5
2AB
330
1F
100
AcDbEntity
  8
0
  6
HIDDEN
 62
     7
370
     0
100
AcDbSpline
210
0.0
220
0.0
230
1.0
 70
    24
 71
     1
 72
     4
 73
     2
 74
     0
 42
0.00000001
 43
0.00000001
 40
0.0
 40
0.0
 40
1.0
 40
1.0
 10
219.450902667254
 20
120.4651309577046
 30
0.0
 10
218.200902667254
 20
121.7151309577046
 30
0.0
  0
SPLINE
  5
2AC
330
1F
100
AcDbEntity
  8
0
  6
HIDDEN
 62
     7
370
     0
100
AcDbSpline
210
0.0
220
0.0
230
1.0
 70
    24
 71
     1
 72
     4
 73
     2
 74
     0
 42
0.00000001
 43
0.00000001
 40
0.0
 40
0.0
 40
1.0
 40
1.0
 10
219.450902667254
 20
119.5651309577046
 30
0.0
 10
218.3828046692532
 20
117.7151309577046
 30
0.0
  0
SPLINE
  5
2AD
330
1F
100
AcDbEntity
  8
0
  6
HIDDEN
 62
     7
370
     0
100
AcDbSpline
210
0.0
220
0.0
230
1.0
 70
    24
 71
     1
 72
     4
 73
     2
 74
     0
 42
0.00000001
 43
0.00000001
 40
0.0
 40
0.0
 40
1.0
 40
1.0
 10
218.3828046692532
 20
117.7151309577046
 30
0.0
 10
219.450902667254
 20
115.8651309577046
 30
0.0
  0
SPLINE
  5
2AE
330
1F
100
AcDbEntity
  8
0
  6
HIDDEN
 62
     7
370
     0
100
AcDbSpline
210
0.0
220
0.0
230
1.0
 70
    24
 71
     1
 72
     4
 73
     2
 74
     0
 42
0.00000001
 43
0.00000001
 40
0.0
 40
0.0
 40
1.0
 40
1.0
 10
244.350902667254
 20
121.7151309577047
 30
0.0
 10
235.700902667254
 20
121.7151309577046
 30
0.0
  0
SPLINE
  5
2AF
330
1F
100
AcDbEntity
  8
0
  6
HIDDEN
 62
     7
370
     0
100
AcDbSpline
210
0.0
220
0.0
230
1.0
 70
    24
 71
     1
 72
     4
 73
     2
 74
     0
 42
0.00000001
 43
0.00000001
 40
0.0
 40
0.0
 40
1.0
 40
1.0
 10
235.7009026672541
 20
113.7151309577045
 30
0.0
 10
244.3509026672541
 20
113.7151309577046
 30
0.0
  0
SPLINE
  5
2B0
330
1F
100
AcDbEntity
  8
0
  6
HIDDEN
 62
     7
370
     0
100
AcDbSpline
210
0.0
220
0.0
230
1.0
 70
    24
 71
     1
 72
     4
 73
     2
 74
     0
 42
0.00000001
 43
0.00000001
 40
0.0
 40
0.0
 40
1.0
 40
1.0
 10
235.700902667254
 20
121.7151309577046
 30
0.0
 10
234.450902667254
 20
120.4651309577045
 30
0.0
  0
SPLINE
  5
2B1
330
1F
100
AcDbEntity
  8
0
  6
HIDDEN
 62
     7
370
     0
100
AcDbSpline
210
0.0
220
0.0
230
1.0
 70
    24
 71
     1
 72
     4
 73
     2
 74
     0
 42
0.00000001
 43
0.00000001
 40
0.0
 40
0.0
 40
1.0
 40
1.0
 10
234.4509026672541
 20
114.9651309577045
 30
0.0
 10
235.7009026672541
 20
113.7151309577045
 30
0.0
  0
SPLINE
  5
2B2
330
1F
100
AcDbEntity
  8
0
  6
HIDDEN
 62
     7
370
     0
100
AcDbSpline
210
0.0
220
0.0
230
1.0
 70
    24
 71
     1
 72
     4
 73
     2
 74
     0
 42
0.00000001
 43
0.00000001
 40
0.0
 40
0.0
 40
1.0
 40
1.0
 10
244.3509026672541
 20
113.7151309577047
 30
0.0
 10
244.9509026672541
 20
114.3151309577047
 30
0.0
  0
SPLINE
  5
2B3
330
1F
100
AcDbEntity
  8
0
  6
HIDDEN
 62
     7
370
     0
100
AcDbSpline
210
0.0
220
0.0
230
1.0
 70
    24
 71
     1
 72
     4
 73
     2
 74
     0
 42
0.00000001
 43
0.00000001
 40
0.0
 40
0.0
 40
1.0
 40
1.0
 10
244.950902667254
 20
121.1151309577047
 30
0.0
 10
244.350902667254
 20
121.7151309577047
 30
0.0
  0
SPLINE
  5
2B4
330
1F
100
AcDbEntity
  8
0
  6
HIDDEN
 62
     7
370
     0
100
AcDbSpline
210
0.0
220
0.0
230
1.0
 70
    24
 71
     1
 72
     4
 73
     2
 74
     0
 42
0.00000001
 43
0.00000001
 40
0.0
 40
0.0
 40
1.0
 40
1.0
 10
234.450902667254
 20
115.8651309577045
 30
0.0
 10
235.5190006652548
 20
117.7151309577046
 30
0.0
  0
SPLINE
  5
2B5
330
1F
100
AcDbEntity
  8
0
  6
HIDDEN
 62
     7
370
     0
100
AcDbSpline
210
0.0
220
0.0
230
1.0
 70
    24
 71
     1
 72
     4
 73
     2
 74
     0
 42
0.00000001
 43
0.00000001
 40
0.0
 40
0.0
 40
1.0
 40
1.0
 10
235.5190006652548
 20
117.7151309577046
 30
0.0
 10
234.450902667254
 20
119.5651309577045
 30
0.0
  0
SPLINE
  5
2B6
330
1F
100
AcDbEntity
  8
0
  6
HIDDEN
 62
     7
370
     0
100
AcDbSpline
210
0.0
220
0.0
230
1.0
 70
    24
 71
     1
 72
     4
 73
     2
 74
     0
 42
0.00000001
 43
0.00000001
 40
0.0
 40
0.0
 40
1.0
 40
1.0
 10
209.5509026672541
 20
121.7151309577047
 30
0.0
 10
208.9509026672541
 20
121.1151309577047
 30
0.0
  0
SPLINE
  5
2B7
330
1F
100
AcDbEntity
  8
0
  6
HIDDEN
 62
     7
370
     0
100
AcDbSpline
210
0.0
220
0.0
230
1.0
 70
    24
 71
     1
 72
     4
 73
     2
 74
     0
 42
0.00000001
 43
0.00000001
 40
0.0
 40
0.0
 40
1.0
 40
1.0
 10
208.950902667254
 20
114.3151309577047
 30
0.0
 10
209.550902667254
 20
113.7151309577047
 30
0.0
  0
SPLINE
  5
2B8
330
1F
100
AcDbEntity
  8
0
  6
HIDDEN
 62
     7
370
     0
100
AcDbSpline
210
0.0
220
0.0
230
1.0
 70
    24
 71
     1
 72
     4
 73
     2
 74
     0
 42
0.00000001
 43
0.00000001
 40
0.0
 40
0.0
 40
1.0
 40
1.0
 10
209.550902667254
 20
113.7151309577047
 30
0.0
 10
218.200902667254
 20
113.7151309577046
 30
0.0
  0
SPLINE
  5
2B9
330
1F
100
AcDbEntity
  8
0
  6
HIDDEN
 62
     7
370
     0
100
AcDbSpline
210
0.0
220
0.0
230
1.0
 70
    24
 71
     1
 72
     4
 73
     2
 74
     0
 42
0.00000001
 43
0.00000001
 40
0.0
 40
0.0
 40
1.0
 40
1.0
 10
218.2009026672541
 20
121.7151309577046
 30
0.0
 10
209.5509026672541
 20
121.7151309577047
 30
0.0
  0
SPLINE
  5
2BA
330
1F
100
AcDbEntity
  8
0
  6
HIDDEN
 62
     7
370
     0
100
AcDbSpline
210
0.0
220
0.0
230
1.0
 70
    24
 71
     1
 72
     4
 73
     2
 74
     0
 42
0.00000001
 43
0.00000001
 40
0.0
 40
0.0
 40
1.0
 40
1.0
 10
218.200902667254
 20
113.7151309577046
 30
0.0
 10
219.450902667254
 20
114.9651309577046
 30
0.0
  0
SPLINE
  5
2BB
330
1F
100
AcDbEntity
  8
0
  6
HIDDEN
 62
     7
370
     0
100
AcDbSpline
210
0.0
220
0.0
230
1.0
 70
    24
 71
     1
 72
     4
 73
     2
 74
     0
 42
0.00000001
 43
0.00000001
 40
0.0
 40
0.0
 40
1.0
 40
1.0
 10
219.4509026672541
 20
120.4651309577046
 30
0.0
 10
218.2009026672541
 20
121.7151309577046
 30
0.0
  0
SPLINE
  5
2BC
330
1F
100
AcDbEntity
  8
0
  6
HIDDEN
 62
     7
370
     0
100
AcDbSpline
210
0.0
220
0.0
230
1.0
 70
    24
 71
     1
 72
     4
 73
     2
 74
     0
 42
0.00000001
 43
0.00000001
 40
0.0
 40
0.0
 40
1.0
 40
1.0
 10
219.4509026672541
 20
119.5651309577046
 30
0.0
 10
218.3828046692533
 20
117.7151309577046
 30
0.0
  0
SPLINE
  5
2BD
330
1F
100
AcDbEntity
  8
0
  6
HIDDEN
 62
     7
370
     0
100
AcDbSpline
210
0.0
220
0.0
230
1.0
 70
    24
 71
     1
 72
     4
 73
     2
 74
     0
 42
0.00000001
 43
0.00000001
 40
0.0
 40
0.0
 40
1.0
 40
1.0
 10
218.3828046692533
 20
117.7151309577046
 30
0.0
 10
219.450902667254
 20
115.8651309577046
 30
0.0
  0
SPLINE
  5
2BE
330
1F
100
AcDbEntity
  8
0
  6
HIDDEN
 62
     7
370
     0
100
AcDbSpline
210
0.0
220
0.0
230
1.0
 70
    24
 71
     1
 72
     4
 73
     2
 74
     0
 42
0.00000001
 43
0.00000001
 40
0.0
 40
0.0
 40
1.0
 40
1.0
 10
230.950902667254
 20
135.1151309577045
 30
0.0
 10
230.350902667254
 20
135.7151309577045
 30
0.0
  0
SPLINE
  5
2BF
330
1F
100
AcDbEntity
  8
0
  6
HIDDEN
 62
     7
370
     0
100
AcDbSpline
210
0.0
220
0.0
230
1.0
 70
    24
 71
     1
 72
     4
 73
     2
 74
     0
 42
0.00000001
 43
0.00000001
 40
0.0
 40
0.0
 40
1.0
 40
1.0
 10
223.5509026672541
 20
135.7151309577045
 30
0.0
 10
222.950902667254
 20
135.1151309577045
 30
0.0
  0
SPLINE
  5
2C0
330
1F
100
AcDbEntity
  8
0
  6
HIDDEN
 62
     7
370
     0
100
AcDbSpline
210
0.0
220
0.0
230
1.0
 70
    24
 71
     1
 72
     4
 73
     2
 74
     0
 42
0.00000001
 43
0.00000001
 40
0.0
 40
0.0
 40
1.0
 40
1.0
 10
222.950902667254
 20
126.4651309577044
 30
0.0
 10
224.200902667254
 20
125.2151309577045
 30
0.0
  0
SPLINE
  5
2C1
330
1F
100
AcDbEntity
  8
0
  6
HIDDEN
 62
     7
370
     0
100
AcDbSpline
210
0.0
220
0.0
230
1.0
 70
    24
 71
     1
 72
     4
 73
     2
 74
     0
 42
0.00000001
 43
0.00000001
 40
0.0
 40
0.0
 40
1.0
 40
1.0
 10
229.700902667254
 20
125.2151309577045
 30
0.0
 10
230.950902667254
 20
126.4651309577044
 30
0.0
  0
SPLINE
  5
2C2
330
1F
100
AcDbEntity
  8
0
  6
HIDDEN
 62
     7
370
     0
100
AcDbSpline
210
0.0
220
0.0
230
1.0
 70
    24
 71
     1
 72
     4
 73
     2
 74
     0
 42
0.00000001
 43
0.00000001
 40
0.0
 40
0.0
 40
1.0
 40
1.0
 10
222.950902667254
 20
135.1151309577045
 30
0.0
 10
222.950902667254
 20
126.4651309577044
 30
0.0
  0
SPLINE
  5
2C3
330
1F
100
AcDbEntity
  8
0
  6
HIDDEN
 62
     7
370
     0
100
AcDbSpline
210
0.0
220
0.0
230
1.0
 70
    24
 71
     1
 72
     4
 73
     2
 74
     0
 42
0.00000001
 43
0.00000001
 40
0.0
 40
0.0
 40
1.0
 40
1.0
 10
230.950902667254
 20
126.4651309577044
 30
0.0
 10
230.950902667254
 20
135.1151309577045
 30
0.0
  0
SPLINE
  5
2C4
330
1F
100
AcDbEntity
  8
0
  6
HIDDEN
 62
     7
370
     0
100
AcDbSpline
210
0.0
220
0.0
230
1.0
 70
    24
 71
     1
 72
     4
 73
     2
 74
     0
 42
0.00000001
 43
0.00000001
 40
0.0
 40
0.0
 40
1.0
 40
1.0
 10
228.8009026672541
 20
125.2151309577045
 30
0.0
 10
226.950902667254
 20
126.2832289557053
 30
0.0
  0
SPLINE
  5
2C5
330
1F
100
AcDbEntity
  8
0
  6
HIDDEN
 62
     7
370
     0
100
AcDbSpline
210
0.0
220
0.0
230
1.0
 70
    24
 71
     1
 72
     4
 73
     2
 74
     0
 42
0.00000001
 43
0.00000001
 40
0.0
 40
0.0
 40
1.0
 40
1.0
 10
226.950902667254
 20
126.2832289557053
 30
0.0
 10
225.100902667254
 20
125.2151309577045
 30
0.0
  0
SPLINE
  5
2C6
330
1F
100
AcDbEntity
  8
0
  6
HIDDEN
 62
     7
370
     0
100
AcDbSpline
210
0.0
220
0.0
230
1.0
 70
    24
 71
     1
 72
     4
 73
     2
 74
     0
 42
0.00000001
 43
0.00000001
 40
0.0
 40
0.0
 40
1.0
 40
1.0
 10
244.350902667254
 20
121.7151309577047
 30
0.0
 10
235.700902667254
 20
121.7151309577046
 30
0.0
  0
SPLINE
  5
2C7
330
1F
100
AcDbEntity
  8
0
  6
HIDDEN
 62
     7
370
     0
100
AcDbSpline
210
0.0
220
0.0
230
1.0
 70
    24
 71
     1
 72
     4
 73
     2
 74
     0
 42
0.00000001
 43
0.00000001
 40
0.0
 40
0.0
 40
1.0
 40
1.0
 10
235.7009026672541
 20
113.7151309577046
 30
0.0
 10
244.3509026672541
 20
113.7151309577046
 30
0.0
  0
SPLINE
  5
2C8
330
1F
100
AcDbEntity
  8
0
  6
HIDDEN
 62
     7
370
     0
100
AcDbSpline
210
0.0
220
0.0
230
1.0
 70
    24
 71
     1
 72
     4
 73
     2
 74
     0
 42
0.00000001
 43
0.00000001
 40
0.0
 40
0.0
 40
1.0
 40
1.0
 10
235.700902667254
 20
121.7151309577046
 30
0.0
 10
234.450902667254
 20
120.4651309577045
 30
0.0
  0
SPLINE
  5
2C9
330
1F
100
AcDbEntity
  8
0
  6
HIDDEN
 62
     7
370
     0
100
AcDbSpline
210
0.0
220
0.0
230
1.0
 70
    24
 71
     1
 72
     4
 73
     2
 74
     0
 42
0.00000001
 43
0.00000001
 40
0.0
 40
0.0
 40
1.0
 40
1.0
 10
234.4509026672541
 20
114.9651309577046
 30
0.0
 10
235.7009026672541
 20
113.7151309577046
 30
0.0
  0
SPLINE
  5
2CA
330
1F
100
AcDbEntity
  8
0
  6
HIDDEN
 62
     7
370
     0
100
AcDbSpline
210
0.0
220
0.0
230
1.0
 70
    24
 71
     1
 72
     4
 73
     2
 74
     0
 42
0.00000001
 43
0.00000001
 40
0.0
 40
0.0
 40
1.0
 40
1.0
 10
244.3509026672541
 20
113.7151309577046
 30
0.0
 10
244.9509026672541
 20
114.3151309577047
 30
0.0
  0
SPLINE
  5
2CB
330
1F
100
AcDbEntity
  8
0
  6
HIDDEN
 62
     7
370
     0
100
AcDbSpline
210
0.0
220
0.0
230
1.0
 70
    24
 71
     1
 72
     4
 73
     2
 74
     0
 42
0.00000001
 43
0.00000001
 40
0.0
 40
0.0
 40
1.0
 40
1.0
 10
244.950902667254
 20
121.1151309577047
 30
0.0
 10
244.350902667254
 20
121.7151309577047
 30
0.0
  0
SPLINE
  5
2CC
330
1F
100
AcDbEntity
  8
0
  6
HIDDEN
 62
     7
370
     0
100
AcDbSpline
210
0.0
220
0.0
230
1.0
 70
    24
 71
     1
 72
     4
 73
     2
 74
     0
 42
0.00000001
 43
0.00000001
 40
0.0
 40
0.0
 40
1.0
 40
1.0
 10
234.450902667254
 20
115.8651309577046
 30
0.0
 10
235.5190006652548
 20
117.7151309577046
 30
0.0
  0
SPLINE
  5
2CD
330
1F
100
AcDbEntity
  8
0
  6
HIDDEN
 62
     7
370
     0
100
AcDbSpline
210
0.0
220
0.0
230
1.0
 70
    24
 71
     1
 72
     4
 73
     2
 74
     0
 42
0.00000001
 43
0.00000001
 40
0.0
 40
0.0
 40
1.0
 40
1.0
 10
235.5190006652548
 20
117.7151309577046
 30
0.0
 10
234.450902667254
 20
119.5651309577045
 30
0.0
  0
LINE
  5
2CE
330
1F
100
AcDbEntity
  8
VERMASSUNG
100
AcDbLine
 10
226.9509026673
 20
78.7803174351
 30
0.0
 11
226.9509026673
 21
157.8787961291
 31
0.0
  0
LINE
  5
2CF
330
1F
100
AcDbEntity
  8
VERMASSUNG
100
AcDbLine
 10
189.89171711
 20
117.7151309577
 30
0.0
 11
264.293114622
 21
117.7151309577
 31
0.0
  0
OLE2FRAME
  5
2D0
330
1F
100
AcDbEntity
  8
0
100
AcDbOle2Frame
 70
     2
  3
Bitmap
 10
13.8511154363
 20
38.264191557
 30
0.0
 11
51.6290888628
 21
31.9806341108
 31
0.0
 71
     2
 72
     0
 73
     1
 90
    12928
310
80552BED0767C5B32B40DDAF6807D121434000000000000000006FFBDDFB85D0
310
4940DDAF6807D121434000000000000000006FFBDDFB85D04940416F4BD60AFB
310
3F4000000000000000002BED0767C5B32B40416F4BD60AFB3F40000000000000
310
0000000000000100000000010000010000000100000000000100000000320000
310
D0CF11E0A1B11AE1000000000000000000000000000000003E000300FEFF0900
310
0600000000000000000000000100000001000000000000000010000002000000
310
01000000FEFFFFFF0000000000000000FFFFFFFFFFFFFFFFFFFFFFFFFFFFFFFF
310
FFFFFFFFFFFFFFFFFFFFFFFFFFFFFFFFFFFFFFFFFFFFFFFFFFFFFFFFFFFFFFFF
310
FFFFFFFFFFFFFFFFFFFFFFFFFFFFFFFFFFFFFFFFFFFFFFFFFFFFFFFFFFFFFFFF
310
FFFFFFFFFFFFFFFFFFFFFFFFFFFFFFFFFFFFFFFFFFFFFFFFFFFFFFFFFFFFFFFF
310
FFFFFFFFFFFFFFFFFFFFFFFFFFFFFFFFFFFFFFFFFFFFFFFFFFFFFFFFFFFFFFFF
310
FFFFFFFFFFFFFFFFFFFFFFFFFFFFFFFFFFFFFFFFFFFFFFFFFFFFFFFFFFFFFFFF
310
FFFFFFFFFFFFFFFFFFFFFFFFFFFFFFFFFFFFFFFFFFFFFFFFFFFFFFFFFFFFFFFF
310
FFFFFFFFFFFFFFFFFFFFFFFFFFFFFFFFFFFFFFFFFFFFFFFFFFFFFFFFFFFFFFFF
310
FFFFFFFFFFFFFFFFFFFFFFFFFFFFFFFFFFFFFFFFFFFFFFFFFFFFFFFFFFFFFFFF
310
FFFFFFFFFFFFFFFFFFFFFFFFFFFFFFFFFFFFFFFFFFFFFFFFFFFFFFFFFFFFFFFF
310
FFFFFFFFFFFFFFFFFFFFFFFFFFFFFFFFFFFFFFFFFFFFFFFFFFFFFFFFFFFFFFFF
310
FFFFFFFFFFFFFFFFFFFFFFFFFFFFFFFFFFFFFFFFFFFFFFFFFFFFFFFFFFFFFFFF
310
FFFFFFFFFFFFFFFFFFFFFFFFFFFFFFFFFFFFFFFFFFFFFFFFFFFFFFFFFFFFFFFF
310
FFFFFFFFFFFFFFFFFFFFFFFFFFFFFFFFFFFFFFFFFFFFFFFFFFFFFFFFFFFFFFFF
310
FDFFFFFFFEFFFFFFFEFFFFFFFEFFFFFF05000000060000000700000008000000
310
090000000A0000000B0000000C0000000D0000000E0000000F00000010000000
310
11000000120000001300000014000000150000001600000017000000FEFFFFFF
310
FFFFFFFFFFFFFFFFFFFFFFFFFFFFFFFFFFFFFFFFFFFFFFFFFFFFFFFFFFFFFFFF
310
FFFFFFFFFFFFFFFFFFFFFFFFFFFFFFFFFFFFFFFFFFFFFFFFFFFFFFFFFFFFFFFF
310
FFFFFFFFFFFFFFFFFFFFFFFFFFFFFFFFFFFFFFFFFFFFFFFFFFFFFFFFFFFFFFFF
310
FFFFFFFFFFFFFFFFFFFFFFFFFFFFFFFFFFFFFFFFFFFFFFFFFFFFFFFFFFFFFFFF
310
FFFFFFFFFFFFFFFFFFFFFFFFFFFFFFFFFFFFFFFFFFFFFFFFFFFFFFFFFFFFFFFF
310
FFFFFFFFFFFFFFFFFFFFFFFFFFFFFFFFFFFFFFFFFFFFFFFFFFFFFFFFFFFFFFFF
310
FFFFFFFFFFFFFFFFFFFFFFFFFFFFFFFFFFFFFFFFFFFFFFFFFFFFFFFFFFFFFFFF
310
FFFFFFFFFFFFFFFFFFFFFFFFFFFFFFFFFFFFFFFFFFFFFFFFFFFFFFFFFFFFFFFF
310
FFFFFFFFFFFFFFFFFFFFFFFFFFFFFFFFFFFFFFFFFFFFFFFFFFFFFFFFFFFFFFFF
310
FFFFFFFFFFFFFFFFFFFFFFFFFFFFFFFFFFFFFFFFFFFFFFFFFFFFFFFFFFFFFFFF
310
FFFFFFFFFFFFFFFFFFFFFFFFFFFFFFFFFFFFFFFFFFFFFFFFFFFFFFFFFFFFFFFF
310
FFFFFFFFFFFFFFFFFFFFFFFFFFFFFFFFFFFFFFFFFFFFFFFFFFFFFFFFFFFFFFFF
310
FFFFFFFFFFFFFFFFFFFFFFFFFFFFFFFFFFFFFFFFFFFFFFFFFFFFFFFFFFFFFFFF
310
52006F006F007400200045006E00740072007900000000000000000000000000
310
0000000000000000000000000000000000000000000000000000000000000000
310
16000500FFFFFFFFFFFFFFFF020000000A00030000000000C000000000000046
310
00000000000000000000000040BF8A01A408CB0103000000C000000000000000
310
01004F006C006500000000000000000000000000000000000000000000000000
310
0000000000000000000000000000000000000000000000000000000000000000
310
0A000200FFFFFFFFFFFFFFFFFFFFFFFF00000000000000000000000000000000
310
0000000000000000000000000000000000000000000000001400000000000000
310
010043006F006D0070004F0062006A0000000000000000000000000000000000
310
0000000000000000000000000000000000000000000000000000000000000000
310
120002010100000003000000FFFFFFFF00000000000000000000000000000000
310
0000000000000000000000000000000000000000010000004D00000000000000
310
01004F006C006500310030004E00610074006900760065000000000000000000
310
0000000000000000000000000000000000000000000000000000000000000000
310
1A000200FFFFFFFFFFFFFFFFFFFFFFFF00000000000000000000000000000000
310
0000000000000000000000000000000000000000040000002426000000000000
310
FEFFFFFF02000000FEFFFFFFFFFFFFFFFFFFFFFFFFFFFFFFFFFFFFFFFFFFFFFF
310
FFFFFFFFFFFFFFFFFFFFFFFFFFFFFFFFFFFFFFFFFFFFFFFFFFFFFFFFFFFFFFFF
310
FFFFFFFFFFFFFFFFFFFFFFFFFFFFFFFFFFFFFFFFFFFFFFFFFFFFFFFFFFFFFFFF
310
FFFFFFFFFFFFFFFFFFFFFFFFFFFFFFFFFFFFFFFFFFFFFFFFFFFFFFFFFFFFFFFF
310
FFFFFFFFFFFFFFFFFFFFFFFFFFFFFFFFFFFFFFFFFFFFFFFFFFFFFFFFFFFFFFFF
310
FFFFFFFFFFFFFFFFFFFFFFFFFFFFFFFFFFFFFFFFFFFFFFFFFFFFFFFFFFFFFFFF
310
FFFFFFFFFFFFFFFFFFFFFFFFFFFFFFFFFFFFFFFFFFFFFFFFFFFFFFFFFFFFFFFF
310
FFFFFFFFFFFFFFFFFFFFFFFFFFFFFFFFFFFFFFFFFFFFFFFFFFFFFFFFFFFFFFFF
310
FFFFFFFFFFFFFFFFFFFFFFFFFFFFFFFFFFFFFFFFFFFFFFFFFFFFFFFFFFFFFFFF
310
FFFFFFFFFFFFFFFFFFFFFFFFFFFFFFFFFFFFFFFFFFFFFFFFFFFFFFFFFFFFFFFF
310
FFFFFFFFFFFFFFFFFFFFFFFFFFFFFFFFFFFFFFFFFFFFFFFFFFFFFFFFFFFFFFFF
310
FFFFFFFFFFFFFFFFFFFFFFFFFFFFFFFFFFFFFFFFFFFFFFFFFFFFFFFFFFFFFFFF
310
FFFFFFFFFFFFFFFFFFFFFFFFFFFFFFFFFFFFFFFFFFFFFFFFFFFFFFFFFFFFFFFF
310
FFFFFFFFFFFFFFFFFFFFFFFFFFFFFFFFFFFFFFFFFFFFFFFFFFFFFFFFFFFFFFFF
310
FFFFFFFFFFFFFFFFFFFFFFFFFFFFFFFFFFFFFFFFFFFFFFFFFFFFFFFFFFFFFFFF
310
FFFFFFFFFFFFFFFFFFFFFFFFFFFFFFFFFFFFFFFFFFFFFFFFFFFFFFFFFFFFFFFF
310
0100000200000000000000000000000000000000C0B56B35904E8B1AD056A41A
310
6830A31A3057A41AE030A31AF830A31A6057A41A0032A31A1031A31AD02EA31A
310
0100FEFF030A0000FFFFFFFF0A00030000000000C00000000000004607000000
310
5042727573680007000000504272757368000700000050427275736800F439B2
310
7100000000000000000000000052A41AA84A8B1AB055A41A1832A31A5867501A
310
F86A501A1866501AB82EA31A282BA11A6032A31AB04C8B1A9054A41A582EA31A
310
4053A41A5030A31AC035A31A4056A41A702EA31A5831A31A402EA31A902FA31A
310
8055A41A2058A41A485A8B1A0057A41AD829A11A102AA11AD089D70FC057A41A
310
E052A41A504D8B1A3866501A586D501A303CA21A202EA21A586A501AA053A41A
310
3032A31AF86B501AE055A41AD0598B1A7053A41A002FA31A186C501A08AC6F1A
310
28AE6F1A9830A31A402CA11A302FA31A584A8B1A6076751A982DA31A1078751A
310
C82DA31AB02DA31A507A751AF82DA31AE02DA31A282EA31A782FA31A6079751A
310
2077751A48468B1A4075751A202DA11A082CA11AD82DA21A3076751A284B3F1A
310
185D8B1A1024A61AF02AA61A7035A21A803AA21A102BA61A7078751A482FA31A
310
7025A61AF076751A004D8B1A807A751AB030A31A10E9A21A984A991A9848991A
310
002CA31A0833A11A302CA31A58408B1A307C751A182CA31A907C751A482CA31A
310
20260000424D0E260000000000003E00000028000000B40200006E0000000100
310
01000000000000000000130B0000130B00000200000002000000000000FFFFFF
310
FFFFFFFFFFFFFFFFFFFFFFFFFFFFFFFFFFFFFFFFFFFFFFFFFFFFFFFFFFFFFFFF
310
FFFFFFFFFFFFFFFFFFFFFFFFFFFFFFFFFFFFFFFFFFFFFFFFFFFFFFFFFFFFFFFF
310
FFFFFFFFFFFFFFFFFFFFFFFFFFFFFFFFFFFFFFFFFFFFFFFFF000FFFFFFFFFFFF
310
FFFFFFFFFFFFFFFFFFFFFFFFFFFFFFFFFFFFFFFFFFFFFFFFFFFFFFFFFFFFFFFF
310
FFFFFFFFFFFFFFFFFFFFFFFFFFFFFFFFFFFFFFFFFFFFFFFFFFFFFFFFFFFFFFFF
310
FFFFFFFFFFFFFFFFFFFFFFFFFFFFFFFFF000FFFFFFFFFFFFFFFFFFFFFFFFFFFF
310
FFFFFFFFFFFFFFFFFFFFFFFFFFFFFFFFFFFFFFFFFFFFFFFFFFFFFFFFFFFFFFFF
310
FFFFFFFFFFFFFFFFFFFFFFFFFFFFFFFFFFFFFFFFFFFFFFFFFFFFFFFFFFFFFFFF
310
FFFFFFFFFFFFFFFFF000FFFFFFFFFFFFFFFFFFFFFFFFFFFFFFFFFFFFFFFFFFFF
310
FFFFFFFFFFFFFFFFFFFFFFFFFFFFFFFFFFFFFFFFFFFFFFFFFFFFFFFFFFFFFFFF
310
FFFFFFFFFFFFFFFFFFFFFFFFFFFFFFFFFFFFFFFFFFFFFFFFFFFFFFFFFFFFFFFF
310
F000FFFFFFFFFFFFFFFFFFFFFFFFFFFFFFFFFFFFFFFFFFFFFFFFFFFFFFFFFFFF
310
FFFFFFFFFFFFFFFFFFFFFFFFFFFFFFFFFFFFFFFFFFFFFFFFFFFFFFFFFFFFFFFF
310
FFFFFFFFFFFFFFFFFFFFFFFFFFFFFFFFFFFFFFFFFFFFFFFFF000FFFFFFFFFFFF
310
FFFFFFFFFFFFFFFFFFFFFFFFFFFFFFFFFFFFFFFFFFFFFFFFFFFFFFFFFFFFFFFF
310
FFFFFFFFFFFFFFFFFFFFFFFFFFFFFFFFFFFFFFFFFFFFFFFFFFFFFFFFFFFFFFFF
310
FFFFFFFFFFFFFFFFFFFFFFFFFFFFFFFFF000FFFFFFFFFFFFFFFFFFFFFFFFFFFF
310
FFFFFFFFFFFFFFFFFFFFFFFFFFFFFFFFFFFFFFFFFFFFFFFFFFFFFFFFFFFFFFFF
310
FFFFFFFFFFFFFFFFFFFFFFFFFFFFFFFFFFFFFFFFFFFFFFFFFFFFFFFFFFFFFFFF
310
FFFFFFFFFFFFFFFFF000FFFFFFFFFFFFFFFFFFFFFFFFFFFFFFFFFFFFFFFFFFFF
310
FFFFFFFFFFFFFFFFFFFFFFFFFFFFFFFFFFFFFFFFFFFFFFFFFFFFFFFFFFFFFFFF
310
FFFFFFFFFFFFFFFFFFFFFFFFFFFFFFFFFFFFFFFFFFFFFFFFFFFFFFFFFFFFFFFF
310
F000FFFFFFFFFFFFFFFFFFFFFFFFFFFFFFFFFFFFFFFFFFFFFFFFFFFFFFFFFFFF
310
FFFFFFFFFFFFFFFFFFFFFFFFFFFFFFFFFFFFFFFFFFFFFFFFFFFFFFFFFFFFFFFF
310
FFFFFFFFFFFFFFFFFFFFFFFFFFFFFFFFFFFFFFFFFFFFFFFFF000FFFFFFFFFFFF
310
FFFFFFFFFFFFFFFFFFFFFFFFFFFFFFFFFFFFFFFFFFFFFFFFFFFFFFFFFFFFFFFF
310
FFFFFFFFFFFFFFFFFFFFFFFFFFFFFFFFFFFFFFFFFFFFFFFFFFFFFFFFFFFFFFFF
310
FFFFFFFFFFFFFFFFFFFFFFFFFFFFFFFFF000FFFFFFFFFFFFFFFFFFFFFFFFFFFF
310
FFFFFFFFFFFFFFFFFFFFFFFFFFFFFFFFFFFFFFFFFFFFFFFFFFFFFFFFFFFFFFFF
310
FFFFFFFFFFFFFFFFFFFFFFFFFFFFFFFFFFFFFFFFFFFFFFFFFFFFFFFFFFFFFFFF
310
FFFFFFFFFFFFFFFFF000FFFFFFFFFFFFFFFFFFFFFFFFFFFFFFFFFFFFFFFFFFFF
310
FFFFFFFFFFFFFFFFFFFFFFFFFFFFFFFFFFFFFFFFFFFFFFFFFFFFFFFFFFFFFFFF
310
FFFFFFFFFFFFFFFFFFFFFFFFFFFFFFFFFFFFFFFFFFFFFFFFFFFFFFFFFFFFFFFF
310
F000FFFFFFFFFFFFFFFFFFFFFFFFFFFFFFFFFFFFFFFFFFFFFFFFFFFFFFFFFFFF
310
FFFFFFFFFFFFFFFFFFFFFFFFFFFFFFFFFFFFFFFFFFFFFFFFFFFFFFFFFFFFFFFF
310
FFFFFFFFFFFFFFFFFFFFFFFFFFFFFFFFFFFFFFFFFFFFFFFFF000FFFFFFFFFFFF
310
FFFFFFFFFFFFFFFFFFFFFFFFFFFFFFFFFFFFFFFFFFFFFFFFFFFFFFFFFFFFFFFF
310
FFFFFFFFFFFFFFFFFFFFFFFFFFFFFFFFFFFFFFFFFFFFFFFFFFFFFFFFFFFFFFFF
310
FFFFFFFFFFFFFFFFFFFFFFFFFFFFFFFFF000FFFFFFFFFFFFFFFFFFFFFFFFFFFF
310
FFFFFFFFFFFFFFFFFFFFFFFFFFFFFFFFFFFFFFFFFFFFFFFFFFFFFFFFFFFFFFFF
310
FFFFFFFFFFFFFFFFFFFFFFFFFFFFFFFFFFFFFFFFFFFFFFFFFFFFFFFFFFFFFFFF
310
FFFFFFFFFFFFFFFFF000FFFFFFFFFFFFFFFFFFFFFFFFFFFFFFFFFFFFFFFFFFFF
310
FFFFFFFFFFFFFFFFFFFFFFFFFFFFFFFFFFFFFFFFFFFFFFFFFFFFFFFFFFFFFFFF
310
FFFFFFFFFFFFFFFFFFFFFFFFFFFFFFFFFFFFFFFFFFFFFFFFFFFFFFFFFFFFFFFF
310
F000FFFFFFFFFFFFFFFFFFFFFFFFFFFFFFFFFFFFFFFFFFFFFFFFFFFFFFFFFFFF
310
FFFFFFFFFFFFFFFFFFFFFFFFFFFFFFFFFFFFFFFFFFFFFFFFFFFFFFFFFFFFFFFF
310
FFFFFFFFFFFFFFFFFFFFFFFFFFFFFFFFFFFFFFFFFFFFFFFFF000FFFFFFFFFFFF
310
FFFFFFFFFFFFFFFFFFFFFFFFFFFFFFFFFFFFFFFFFFFFFFFFFFFFFFFFFFFFFFFF
310
FFFFFFFFFFFFFFFFFFFFFFFFFFFFFFFFFFFFFFFFFFFFFFFFFFFFFFFFFFFFFFFF
310
FFFFFFFFFFFFFFFFFFFFFFFFFFFFFFFFF000FFFFFFFFFFFFFFFFFFFFFFFFFFFF
310
FFFFFFFFFFFFFFFFFFFFFFFFFFFFFFFFFFFFFFFFFFFFFFFFFFFFFFFFFFFFFFFF
310
FFFFFFFFFFFFFFFFFFFFFFFFFFFFFFFFFFFFFFFFFFFFFFFFFFFFFFFFFFFFFFFF
310
FFFFFFFFFFFFFFFFF000FFFFF80003FFFFFFFFFFFFFFFFFFFFFFFFFFFFFFFFFF
310
FFFFF00007FFFFFFFFFF00007FFFFFF800000000000000007FFFFFFFFFFFFFFF
310
FFFFFFFC001FFFFFFFFFFFFFFC001FFFFFFFFFFFFFFFFFFFFFFFFFFE0007FFFF
310
F000FFFF8000007FFFFFFFF8000FFFFFC0007FFFFF80007FFFFF0000007FFFFF
310
FFF8000007FFFFF800000000000000007FFFFFF0001FFFFFFFFFFFC00001FFFF
310
FFFFFFFFC00001FFFFFFFF000000000003FFFFE000007FFFF000FFFE0000000F
310
FFFFFFF0000FFFFF80007FFFFF80007FFFFC0000001FFFFFFFC0000001FFFFF8
310
00000000000000007FFFFFF0001FFFFFFFFFFE0000003FFFFFFFFFFE0000003F
310
FFFFFF000000000003FFFF0000000FFFF000FFF800000003FFFFFFF00007FFFF
310
80007FFFFF80007FFFF000000007FFFFFF000000003FFFF80000000000000000
310
7FFFFFF0001FFFFFFFFFF80000000FFFFFFFFFF80000000FFFFFFF0000000000
310
03FFFC00000003FFF000FFE000000000FFFFFFF00007FFFF80003FFFFF80007F
310
FFC000000001FFFFFC000000001FFFF800000000000000007FFFFFF0001FFFFF
310
FFFFE000000003FFFFFFFFE000000003FFFFFF000000000003FFF000000000FF
310
F000FF80000000007FFFFFF00007FFFF80003FFFFF80007FFF8000000000FFFF
310
F80000000007FFF800000000000000007FFFFFF0001FFFFFFFFFC000000001FF
310
FFFFFFC000000001FFFFFF000000000003FFC0000000007FF000FF0000000000
310
3FFFFFE00007FFFF00003FFFFF80007FFE00000000003FFFF00000000003FFF8
310
00000000000000007FFFFFF0001FFFFFFFFF8000000000FFFFFFFF8000000000
310
FFFFFF000000000003FF80000000003FF000FE00000000001FFFFFE00003FFFF
310
00003FFFFF80007FFC00000000001FFFE00000000001FFF8000001FFFE000000
310
7FFFFFF0001FFFFFFFFE00000000003FFFFFFE00000000003FFFFF0000000000
310
03FF00000000001FF000FC00000000000FFFFFE00003FFFF00001FFFFF80007F
310
F800000000001FFFC00000000000FFF8000001FFFE0000007FFFFFF0001FFFFF
310
FFFC00000000001FFFFFFC00000000001FFFFF000000000003FE00000000000F
310
F000F8000000000007FFFFE00003FFFF00001FFFFF80007FF800000000000FFF
310
800000000000FFF8000001FFFE0000007FFFFFF0001FFFFFFFF800000000000F
310
FFFFF800000000000FFFFF000000000003FC000000000007F000F80000000000
310
03FFFFC00003FFFE00001FFFFF80007FF0000000000007FF0000000000007FF8
310
000001FFFE0000007FFFFFF0001FFFFFFFF0000000000007FFFFF00000000000
310
07FFFF000000000003F8000000000003F000F0000000000003FFFFC00001FFFE
310
00001FFFFF80007FE0000000000007FE0000000000003FF8000001FFFE000000
310
7FFFFFF0001FFFFFFFF0000000000007FFFFF0000000000007FFFF0000000000
310
03F800001F800003F000E00001FFF00001FFFFC00001FFFE00000FFFFF80007F
310
E00001FFE00003FE00001FFF00003FF8000001FFFE0000007FFFFFF0001FFFFF
310
FFE000003E000003FFFFE000003E000003FFFF000000000003F00001FFF80001
310
F000E00007FFFC0001FFFFC00001FFFE00000FFFFF80007FC0000FFFFC0003FC
310
0000FFFFC0001FF8000001FFFE0000007FFFFFF0001FFFFFFFC00003FFE00001
310
FFFFC00003FFE00001FFFF0001FFFFFFFFF00007FFFE0001F000E0000FFFFF00
310
00FFFF800001FFFC00000FFFFF80007FC0001FFFFE0001FC0001FFFFE0001FF8
310
000001FFFE0000007FFFFFF0001FFFFFFF80000FFFF80000FFFF80000FFFF800
310
00FFFF0003FFFFFFFFE0000FFFFF8000F000C0003FFFFF8000FFFF800000FFFC
310
000007FFFF80007F80003FFFFF0001FC0003FFFFF0001FF8000001FFFE000000
310
7FFFFFF0001FFFFFFF80003FFFFE0000FFFF80003FFFFE0000FFFF0003FFFFFF
310
FFE0003FFFFF8000F000C0003FFFFF8000FFFF800000FFFC000007FFFF80007F
310
80007FFFFF8001F80007FFFFF8000FF8000001FFFE0000007FFFFFF0001FFFFF
310
FF00007FFFFF00007FFF00007FFFFF00007FFF0003FFFFFFFFE0003FFFFFC000
310
F000C0007FFFFFC000FFFF000000FFFC000007FFFF80007F8000FFFFFF8000F8
310
000FFFFFF8000FF8000001FFFE0000007FFFFFF0001FFFFFFF0000FFFFFF8000
310
7FFF0000FFFFFF80007FFF0003FFFFFFFFC0007FFFFFC00070008000FFFFFFC0
310
00FFFF000000FFF8000007FFFF80007F8000FFFFFF8000F8000FFFFFF8000FF8
310
000001FFFE0000007FFFFFF0001FFFFFFE0001FFFFFFC0003FFE0001FFFFFFC0
310
003FFF0003FFFFFFFFC0007FFFFFE00070008000FFFFFFC0007FFF0000007FF8
310
000003FFFF80007F0001FFFFFF8000F8000FFFFFF8000FF8000001FFFE000000
310
7FFFFFF0001FFFFFFE0001FFFFFFC0003FFE0001FFFFFFC0003FFF0003FFFFFF
310
FFC000FFFFFFE00070008000FFFFFFC0007FFF0000007FF8000003FFFF80007F
310
0001FFFFFF8000F8001FFFFFF8000FF8000001FFFE0000007FFFFFF0001FFFFF
310
FE0003FFFFFFE0003FFE0003FFFFFFE0003FFF0003FFFFFFFFC000FFFFFFE000
310
70008000FFFFFFC0007FFE0000007FF8000003FFFF80007F0001FFFFFF8000F0
310
001FFFFFF8000FF8000001FFFE0000007FFFFFF0001FFFFFFC0003FFFFFFE000
310
1FFC0003FFFFFFE0001FFF0003FFFFFFFFC000FFFFFFC00070008000FFFFFF80
310
007FFE0000007FF0000003FFFF80007F0001FFFFFF0000F0001FFFFFF8000FF8
310
000001FFFE0000007FFFFFF0001FFFFFFC0007FFFFFFF0001FFC0007FFFFFFF0
310
001FFF0003FFFFFFFFC000FFFFFFC00070008001FFFFFF0000FFFE0000003FF0
310
000001FFFF80007F0001FFFFFF0000F8001FFFFFF0000FF8000001FFFE000000
310
7FFFFFF0001FFFFFFC0007FFFFFFF0001FFC0007FFFFFFF0001FFF0003FFFFFF
310
FFC001FFFFFF80007000FFFFFFFFFE0000FFFE0008003FF0008001FFFF80007F
310
FFFFFFFFFC0000FFFFFFFFFFE0000FF8000001FFFE0000007FFFFFF0001FFFFF
310
F8000FFFFFFFF8000FF8000FFFFFFFF8000FFF0003FFFFFFFFFFFFFFFFFF0000
310
7000FFFFFFFFFC0000FFFC0008003FF0008001FFFF80007FFFFFFFFFF80001FF
310
FFFFFFFF80000FF8000001FFFE0000007FFFFFF0001FFFFFF8000FFFFFFFF800
310
0FF8000FFFFFFFF8000FFF0003FFFFFFFFFFFFFFFFFE0000F000FFFFFFFFE000
310
00FFFC000C003FE000C001FFFF80007FFFFFFFFFC00001FFFFFFFFFE00001FF8
310
000001FFFE0000007FFFFFF0001FFFFFF8000FFFFFFFF8000FF8000FFFFFFFF8
310
000FFF0003FFFFFFFFFFFFFFFFF00000F000FFFFFFFE000001FFFC000C001FE0
310
00C000FFFF80007FFFFFFFFE000001FFFFFFFFE000001FF80FFFFFFFFFFFFFC0
310
7FFFFFF0001FFFFFF8000FFFFFFFF8000FF8000FFFFFFFF8000FFF0003FFFFFF
310
FFFFFFFFFF800000F000FFFFFFC0000001FFFC001C001FE001C000FFFF80007F
310
FFFFFF80000003FFFFFFF80000001FF80FFFFFFFFFFFFFC07FFFFFF0001FFFFF
310
F8001FFFFFFFFC000FF8001FFFFFFFFC000FFF0003FFFFFFFFFFFFFFF0000001
310
F000FFFFF800000001FFF8001C001FE001C000FFFF80007FFFFFF800000003FF
310
FFFF800000003FF80FFFFFFFFFFFFFC07FFFFFF0001FFFFFF8001FFFFFFFFC00
310
0FF8001FFFFFFFFC000FFF0003FFFFFFFFFFFFFE00000001F000FFFFC0000000
310
03FFF8001E001FC001E000FFFF80007FFFFF8000000007FFFFFC000000003FF8
310
0FFFFFFFFFFFFFC07FFFFFF0001FFFFFF8001FFFFFFFFC000FF8001FFFFFFFFC
310
000FFF0003FFFFFFFFFFFFE000000003F000FFFE0000000007FFF8001E000FC0
310
01E0007FFF80007FFFFE0000000007FFFFE0000000007FF80FFFFFFFFFFFFFC0
310
7FFFFFF0001FFFFFF0001FFFFFFFFC0007F0001FFFFFFFFC0007FF0003FFFFFF
310
FFFFFF0000000003F000FFF80000000007FFF8001E000FC003E0007FFF80007F
310
FFF0000000000FFFFF8000000000FFF80FFFFFFFFFFFFFC07FFFFFF0001FFFFF
310
F0001FFFFFFFFC0007F0001FFFFFFFFC0007FF0003FFFFFFFFFFFC0000000007
310
F000FFE0000000000FFFF0003E000FC003E0007FFF80007FFFC0000000001FFF
310
FE0000000001FFF80FFFFFFFFFFFFFC07FFFFFF0001FFFFFF0001FFFFFFFFC00
310
07F0001FFFFFFFFC0007FF0003FFFFFFFFFFF0000000000FF000FFC000000000
310
1FFFF0003F000F8003F0003FFF80007FFF80000000003FFFF80000000003FFF8
310
0FFFFFFFFFFFFFC07FFFFFF0001FFFFFF0001FFFFFFFFC0007F0001FFFFFFFFC
310
0007FF0003FFFFFFFFFFE0000000001FF000FF00000000007FFFF0003F000780
310
03F0003FFF80007FFF00000000007FFFF00000000007FFF80FFFFFFFFFFFFFC0
310
7FFFFFF0001FFFFFF0001FFFFFFFFC0007F0001FFFFFFFFC0007FF0003FFFFFF
310
FFFF80000000007FF000FE0000000000FFFFE0003F00078007F0003FFF80007F
310
FE0000000001FFFFE0000000001FFFF80FFFFFFFFFFFFFC07FFFFFF0001FFFFF
310
F0001FFFFFFFFC0007F0001FFFFFFFFC0007FF0003FFFFFFFFFF0000000000FF
310
F000FC0000000003FFFFE0007F00078007F0003FFF80007FFC0000000007FFFF
310
C0000000007FFFF80FFFFFFFFFFFFFC07FFFFFF0001FFFFFF8001FFFFFFFFC00
310
0FF8001FFFFFFFFC000FFF0003FFFFFFFFFE0000000003FFF000FC000000000F
310
FFFFE0007F80070007F8001FFF80007FF8000000001FFFFF8000000001FFFFF8
310
0FFFFFFFFFFFFFC07FFFFFF0001FFFFFF8001FFFFFFFFC000FF8001FFFFFFFFC
310
000FFF0003FFFFFFFFFC000000000FFFF000F8000000007FFFFFE0007F800700
310
07F8001FFF80007FF000000000FFFFFF800000000FFFFFF80FFFFFFFFFFFFFC0
310
7FFFFFF0001FFFFFF8000FFFFFFFF8000FF8000FFFFFFFF8000FFF0003FFFFFF
310
FFFC000000007FFFF000F800000007FFFFFFC0007F8003000FF8001FFF80007F
310
F000000007FFFFFF000000007FFFFFF80FFFFFFFFFFFFFC07FFFFFF0001FFFFF
310
F8000FFFFFFFF8000FF8000FFFFFFFF8000FFF0003FFFFFFFFF80000000FFFFF
310
F000F0000000FFFFFFFFC000FF8003000FF8001FFF80007FE0000000FFFFFFFF
310
0000000FFFFFFFF8000001FFFE0000007FFFFFF0001FFFFFF8000FFFFFFFF800
310
0FF8000FFFFFFFF8000FFF0003FFFFFFFFF8000000FFFFFFF000F000000FFFFF
310
FFFFC000FFC002000FF8000FFF80007FE000001FFFFFFFFE000001FFFFFFFFF8
310
000001FFFE0000007FFFFFF0001FFFFFF8000FFFFFFFF8000FF8000FFFFFFFF8
310
000FFF0003FFFFFFFFF000001FFFFFFFF000E00000FFFFFFFFFFC000FFC00200
310
0FFC000FFF80007FE00001FFFFFFFFFE00001FFFFFFFFFF8000001FFFE000000
310
7FFFFFF0001FFFFFFC000FFFFFFFF8001FFC000FFFFFFFF8001FFF0003FFFFFF
310
FFF00001FFFFFFFFF000E00007FFFFFFFFFF8000FFC000001FFC000FFF80007F
310
C0000FFFFFFFFFFE0000FFFFFFFFFFF8000001FFFE0000007FFFFFF0001FFFFF
310
FC0007FFFFFFF0001FFC0007FFFFFFF0001FFF0003FFFFFFFFF00007FFFFFFFF
310
F000E0001FFFFFFFFFFF8000FFC000001FFC000FFF80007FC0003FFFFFFFFFFE
310
0001FFFFFFFFFFF8000001FFFE0000007FFFFFF0001FFFFFFC0007FFFFFFF000
310
1FFC0007FFFFFFF0001FFF0003FFFFFFFFF0001FFFFFFFFFF000E0003FFFFF00
310
03FF8001FFE000001FFC0007FF80007FC0007FFFFF0007FC0003FFFFF0003FF8
310
000001FFFE0000007FFFFFF0001FFFFFFC0003FFFFFFE0001FFC0003FFFFFFE0
310
001FFF0003FFFFFFFFF0003FFFFFFFFFF000E0003FFFFF0001FF8001FFE00000
310
1FFE0007FF80007FC0007FFFFE0003FC0007FFFFE0003FF8000001FFFE000000
310
7FFFFFF0001FFFFFFE0003FFFFFFE0003FFE0003FFFFFFE0003FFF0003FFFFFF
310
FFF0003FFFFF8001F000E0003FFFFF0001FF0001FFE000001FFE0007FF80007F
310
C0007FFFFE0003FC0007FFFFE0003FF8000001FFFE0000007FFFFFF0001FFFFF
310
FE0001FFFFFFC0003FFE0001FFFFFFC0003FFF0003FFFFFFFFF0003FFFFF0001
310
F000E0003FFFFF0003FF0001FFE000003FFE0007FF80007FC0007FFFFE0003FC
310
0007FFFFE0003FF8000001FFFE0000007FFFFFF0001FFFFFFF0001FFFFFFC000
310
7FFF0001FFFFFFC0007FFF0003FFFFFFFFF0003FFFFF0001F000E0003FFFFE00
310
03FF0003FFF000003FFE0003FF80007FC0007FFFFC0003FE0007FFFFE0003FF8
310
000001FFFE0000007FFFFFF0001FFFFFFF0000FFFFFF80007FFF0000FFFFFF80
310
007FFF0003FFFFFFFFF0003FFFFF0001F000E0003FFFFE0003FF0003FFF00000
310
3FFF0003FF80007FC0007FFFFC0007FE0007FFFFC0003FF8000001FFFE000000
310
7FFFFFF0001FFFFFFF80007FFFFF0000FFFF80007FFFFF0000FFFF0003FFFFFF
310
FFF0003FFFFF0003F000E0003FFFFC0003FE0003FFF000003FFF0003FF80007F
310
E0003FFFF80007FE0003FFFFC0007FF8000001FFFE0000007FFFFFF0001FFFFF
310
FF80003FFFFE0000FFFF80003FFFFE0000FFFF0003FFFFFFFFF0001FFFFE0003
310
F000F0001FFFF80003FE0003FFF000007FFF0001FF80007FE0003FFFF00007FE
310
0001FFFF80007FF8000001FFFE0000007FFFFFF0001FFFFFFFC0000FFFF80001
310
FFFFC0000FFFF80001FFFF0003FFFFFFFFF0001FFFFC0003F000F0000FFFF000
310
07FE0007FFF800007FFF0001FF80007FE0001FFFE00007FF0000FFFE00007FF8
310
000001FFFE0000007FFFFFF0001FFFFFFFC00003FFE00001FFFFC00003FFE000
310
01FFFF0003FFFFFFFFF8000FFFF80003F000F00003FFC00007FC0007FFF80000
310
7FFF8001FF80007FF00007FF80000FFF00007FF80000FFF8000001FFFE000000
310
7F80000000000001FFE000003E000003FFFFE000003E000003FFFF0003FFFFFF
310
FFF80003FFE00007F000F800000000000FFC0007FFF800007FFF8001FF80007F
310
F000000000000FFF000000000000FFF8000001FFFE0000007F80000000000001
310
FFF0000000000007FFFFF0000000000007FFFF0003FFFFFFFFFC00007E000007
310
F000F800000000000FFC0007FFF80000FFFF8000FF80007FF800000000001FFF
310
800000000001FFF8000001FFFE0000007F80000000000001FFF800000000000F
310
FFFFF800000000000FFFFF0003FFFFFFFFFC00000000000FF000FC0000000000
310
1FFC0007FFFC0000FFFF8000FF80007FF800000000003FFFC00000000001FFF8
310
000001FFFE0000007F80000000000001FFF800000000000FFFFFF80000000000
310
0FFFFF0003FFFFFFFFFE00000000001FF000FE00000000003FF8000FFFFC0000
310
FFFF8000FF80007FFC00000000003FFFC00000000003FFF8000001FFFE000000
310
7F80000000000001FFFC00000000001FFFFFFC00000000001FFFFF0003FFFFFF
310
FFFF00000000001FF000FF00000000003FF8000FFFFC0000FFFFC000FF80007F
310
FE00000000007FFFE00000000007FFF8000001FFFE0000007F80000000000001
310
FFFE00000000003FFFFFFE00000000003FFFFF0003FFFFFFFFFF80000000003F
310
F000FF80000000007FF8000FFFFC0001FFFFC0007F80007FFF0000000000FFFF
310
F0000000000FFFF800000000000000007F80000000000001FFFF8000000000FF
310
FFFFFF8000000000FFFFFF0003FFFFFFFFFFC0000000007FF000FFC000000000
310
FFF8000FFFFE0001FFFFC0007F80007FFF8000000001FFFFF8000000001FFFF8
310
00000000000000007F80000000000001FFFFC000000001FFFFFFFFC000000001
310
FFFFFF0003FFFFFFFFFFE000000000FFF000FFE000000003FFF0001FFFFE0001
310
FFFFC0007F80007FFFC000000007FFFFFE000000003FFFF80000000000000000
310
7F80000000000001FFFFE000000003FFFFFFFFE000000003FFFFFF0003FFFFFF
310
FFFFF000000003FFF000FFF80000000FFFF0001FFFFE0001FFFFE0007F80007F
310
FFF00000000FFFFFFF00000000FFFFF800000000000000007F80000000000001
310
FFFFF80000000FFFFFFFFFF80000000FFFFFFF0003FFFFFFFFFFFC0000000FFF
310
F000FFFE0000003FFFF0001FFFFE0003FFFFE0003F80007FFFFC0000003FFFFF
310
FFC0000003FFFFF800000000000000007F80000000000001FFFFFE0000003FFF
310
FFFFFFFE0000003FFFFFFF0003FFFFFFFFFFFF0000003FFFF000FFFF800000FF
310
FFF0001FFFFF0003FFFFE0003F80007FFFFF000001FFFFFFFFF800001FFFFFF8
310
00000000000000007F80000000000001FFFFFFC00001FFFFFFFFFFFFC00001FF
310
FFFFFF0003FFFFFFFFFFFFC00000FFFFF000FFFFF8000FFFFFFFFFFFFFFFFFFF
310
FFFFFFFFFFFFFFFFFFFFF0001FFFFFFFFFFF0000FFFFFFF80000000000000000
310
7FFFFFFFFFFFFFFFFFFFFFFC001FFFFFFFFFFFFFFC001FFFFFFFFFFFFFFFFFFF
310
FFFFFFFC001FFFFFF000FFFFFFFFFFFFFFFFFFFFFFFFFFFFFFFFFFFFFFFFFFFF
310
FFFFFFFFFFFFFFFFFFFFFFFFFFFFFFFFFFFFFFFFFFFFFFFFFFFFFFFFFFFFFFFF
310
FFFFFFFFFFFFFFFFFFFFFFFFFFFFFFFFFFFFFFFFFFFFFFFFFFFFFFFFFFFFFFFF
310
F000FFFFFFFFFFFFFFFFFFFFFFFFFFFFFFFFFFFFFFFFFFFFFFFFFFFFFFFFFFFF
310
FFFFFFFFFFFFFFFFFFFFFFFFFFFFFFFFFFFFFFFFFFFFFFFFFFFFFFFFFFFFFFFF
310
FFFFFFFFFFFFFFFFFFFFFFFFFFFFFFFFFFFFFFFFFFFFFFFFF000FFFFFFFFFFFF
310
FFFFFFFFFFFFFFFFFFFFFFFFFFFFFFFFFFFFFFFFFFFFFFFFFFFFFFFFFFFFFFFF
310
FFFFFFFFFFFFFFFFFFFFFFFFFFFFFFFFFFFFFFFFFFFFFFFFFFFFFFFFFFFFFFFF
310
FFFFFFFFFFFFFFFFFFFFFFFFFFFFFFFFF000FFFFFFFFFFFFFFFFFFFFFFFFFFFF
310
FFFFFFFFFFFFFFFFFFFFFFFFFFFFFFFFFFFFFFFFFFFFFFFFFFFFFFFFFFFFFFFF
310
FFFFFFFFFFFFFFFFFFFFFFFFFFFFFFFFFFFFFFFFFFFFFFFFFFFFFFFFFFFFFFFF
310
FFFFFFFFFFFFFFFFF000FFFFFFFFFFFFFFFFFFFFFFFFFFFFFFFFFFFFFFFFFFFF
310
FFFFFFFFFFFFFFFFFFFFFFFFFFFFFFFFFFFFFFFFFFFFFFFFFFFFFFFFFFFFFFFF
310
FFFFFFFFFFFFFFFFFFFFFFFFFFFFFFFFFFFFFFFFFFFFFFFFFFFFFFFFFFFFFFFF
310
F000FFFFFFFFFFFFFFFFFFFFFFFFFFFFFFFFFFFFFFFFFFFFFFFFFFFFFFFFFFFF
310
FFFFFFFFFFFFFFFFFFFFFFFFFFFFFFFFFFFFFFFFFFFFFFFFFFFFFFFFFFFFFFFF
310
FFFFFFFFFFFFFFFFFFFFFFFFFFFFFFFFFFFFFFFFFFFFFFFFF000FFFFFFFFFFFF
310
FFFFFFFFFFFFFFFFFFFFFFFFFFFFFFFFFFFFFFFFFFFFFFFFFFFFFFFFFFFFFFFF
310
FFFFFFFFFFFFFFFFFFFFFFFFFFFFFFFFFFFFFFFFFFFFFFFFFFFFFFFFFFFFFFFF
310
FFFFFFFFFFFFFFFFFFFFFFFFFFFFFFFFF000FFFFFFFFFFFFFFFFFFFFFFFFFFFF
310
FFFFFFFFFFFFFFFFFFFFFFFFFFFFFFFFFFFFFFFFFFFFFFFFFFFFFFFFFFFFFFFF
310
FFFFFFFFFFFFFFFFFFFFFFFFFFFFFFFFFFFFFFFFFFFFFFFFFFFFFFFFFFFFFFFF
310
FFFFFFFFFFFFFFFFF000FFFFFFFFFFFFFFFFFFFFFFFFFFFFFFFFFFFFFFFFFFFF
310
FFFFFFFFFFFFFFFFFFFFFFFFFFFFFFFFFFFFFFFFFFFFFFFFFFFFFFFFFFFFFFFF
310
FFFFFFFFFFFFFFFFFFFFFFFFFFFFFFFFFFFFFFFFFFFFFFFFFFFFFFFFFFFFFFFF
310
F000FFFFFFFFFFFFFFFFFFFFFFFFFFFFFFFFFFFFFFFFFFFFFFFFFFFFFFFFFFFF
310
FFFFFFFFFFFFFFFFFFFFFFFFFFFFFFFFFFFFFFFFFFFFFFFFFFFFFFFFFFFFFFFF
310
FFFFFFFFFFFFFFFFFFFFFFFFFFFFFFFFFFFFFFFFFFFFFFFFF000FFFFFFFFFFFF
310
FFFFFFFFFFFFFFFFFFFFFFFFFFFFFFFFFFFFFFFFFFFFFFFFFFFFFFFFFFFFFFFF
310
FFFFFFFFFFFFFFFFFFFFFFFFFFFFFFFFFFFFFFFFFFFFFFFFFFFFFFFFFFFFFFFF
310
FFFFFFFFFFFFFFFFFFFFFFFFFFFFFFFFF000FFFFFFFFFFFFFFFFFFFFFFFFFFFF
310
FFFFFFFFFFFFFFFFFFFFFFFFFFFFFFFFFFFFFFFFFFFFFFFFFFFFFFFFFFFFFFFF
310
FFFFFFFFFFFFFFFFFFFFFFFFFFFFFFFFFFFFFFFFFFFFFFFFFFFFFFFFFFFFFFFF
310
FFFFFFFFFFFFFFFFF000FFFFFFFFFFFFFFFFFFFFFFFFFFFFFFFFFFFFFFFFFFFF
310
FFFFFFFFFFFFFFFFFFFFFFFFFFFFFFFFFFFFFFFFFFFFFFFFFFFFFFFFFFFFFFFF
310
FFFFFFFFFFFFFFFFFFFFFFFFFFFFFFFFFFFFFFFFFFFFFFFFFFFFFFFFFFFFFFFF
310
F000FFFFFFFFFFFFFFFFFFFFFFFFFFFFFFFFFFFFFFFFFFFFFFFFFFFFFFFFFFFF
310
FFFFFFFFFFFFFFFFFFFFFFFFFFFFFFFFFFFFFFFFFFFFFFFFFFFFFFFFFFFFFFFF
310
FFFFFFFFFFFFFFFFFFFFFFFFFFFFFFFFFFFFFFFFFFFFFFFFF000FFFFFFFFFFFF
310
FFFFFFFFFFFFFFFFFFFFFFFFFFFFFFFFFFFFFFFFFFFFFFFFFFFFFFFFFFFFFFFF
310
FFFFFFFFFFFFFFFFFFFFFFFFFFFFFFFFFFFFFFFFFFFFFFFFFFFFFFFFFFFFFFFF
310
FFFFFFFFFFFFFFFFFFFFFFFFFFFFFFFFF000FFFFFFFFFFFFFFFFFFFFFFFFFFFF
310
FFFFFFFFFFFFFFFFFFFFFFFFFFFFFFFFFFFFFFFFFFFFFFFFFFFFFFFFFFFFFFFF
310
FFFFFFFFFFFFFFFFFFFFFFFFFFFFFFFFFFFFFFFFFFFFFFFFFFFFFFFFFFFFFFFF
310
FFFFFFFFFFFFFFFFF000FFFFFFFFFFFFFFFFFFFFFFFFFFFFFFFFFFFFFFFFFFFF
310
FFFFFFFFFFFFFFFFFFFFFFFFFFFFFFFFFFFFFFFFFFFFFFFFFFFFFFFFFFFFFFFF
310
FFFFFFFFFFFFFFFFFFFFFFFFFFFFFFFFFFFFFFFFFFFFFFFFFFFFFFFFFFFFFFFF
310
F000FFFFFFFFFFFFFFFFFFFFFFFFFFFFFFFFFFFFFFFFFFFFFFFFFFFFFFFFFFFF
310
FFFFFFFFFFFFFFFFFFFFFFFFFFFFFFFFFFFFFFFFFFFFFFFFFFFFFFFFFFFFFFFF
310
FFFFFFFFFFFFFFFFFFFFFFFFFFFFFFFFFFFFFFFFFFFFFFFFF000FFFFFFFFFFFF
310
FFFFFFFFFFFFFFFFFFFFFFFFFFFFFFFFFFFFFFFFFFFFFFFFFFFFFFFFFFFFFFFF
310
FFFFFFFFFFFFFFFFFFFFFFFFFFFFFFFFFFFFFFFFFFFFFFFFFFFFFFFFFFFFFFFF
310
FFFFFFFFFFFFFFFFFFFFFFFFFFFFFFFFF000FFFFFFFFFFFFFFFFFFFFFFFFFFFF
310
FFFFFFFFFFFFFFFFFFFFFFFFFFFFFFFFFFFFFFFFFFFFFFFFFFFFFFFFFFFFFFFF
310
FFFFFFFFFFFFFFFFFFFFFFFFFFFFFFFFFFFFFFFFFFFFFFFFFFFFFFFFFFFFFFFF
310
FFFFFFFFFFFFFFFFF000FFFFFFFFFFFFFFFFFFFFFFFFFFFFFFFFFFFFFFFFFFFF
310
FFFFFFFFFFFFFFFFFFFFFFFFFFFFFFFFFFFFFFFFFFFFFFFFFFFFFFFFFFFFFFFF
310
FFFFFFFFFFFFFFFFFFFFFFFFFFFFFFFFFFFFFFFFFFFFFFFFFFFFFFFFFFFFFFFF
310
F000FFFFFFFFFFFFFFFFFFFFFFFFFFFFFFFFFFFFFFFFFFFFFFFFFFFFFFFFFFFF
310
FFFFFFFFFFFFFFFFFFFFFFFFFFFFFFFFFFFFFFFFFFFFFFFFFFFFFFFFFFFFFFFF
310
FFFFFFFFFFFFFFFFFFFFFFFFFFFFFFFFFFFFFFFFFFFFFFFFF000FFFFFFFFFFFF
310
FFFFFFFFFFFFFFFFFFFFFFFFFFFFFFFFFFFFFFFFFFFFFFFFFFFFFFFFFFFFFFFF
310
FFFFFFFFFFFFFFFFFFFFFFFFFFFFFFFFFFFFFFFFFFFFFFFFFFFFFFFFFFFFFFFF
310
FFFFFFFFFFFFFFFFFFFFFFFFFFFFFFFFF0000000000000000000000000000000
310
00000000000000000000000042006F006C00640020004900740061006C006900
310
6300200053007500620068006500610064000000000000000000000000000000
310
0000000000000000000000000000000000000000000000000000000000000000
310
0000000000000000000000000000000000000000000000000000000000000000
310
00000000000000000000000064760008000000000000000020FF002028000000
310
1C0000000C0000000800000000000000120000002F000000BC02000000000000
310
6000000060000000200006FB00002000FF00001B0000000021002200E8030000
310
D604000034020000870200600100000000000000000000009F01002000000000
310
616C000800000000E40100007001000002000000270000001000000000000000
310
000000002C0100000000000003020112410072006E006F002000500072006F00
310
20004C006900670068007400200044006900730070006C006100790000000000
310
00000000000000000000000000000000410072006E006F00500072006F002D00
310
4C00690067006800740044006900730070006C00610079000000000000000000
310
0000000000000000000000000000000000000000000000000000000000000000
310
0000000000000000000000000000000000000000000000000000000000000000
  1
OLE
  0
ENDSEC
  0
SECTION
  2
OBJECTS
  0
DICTIONARY
  5
C
330
0
100
AcDbDictionary
281
     1
  3
ACAD_GROUP
350
D
  3
ACAD_LAYOUT
350
1A
  3
ACAD_MLEADERSTYLE
350
2D2
  3
ACAD_MLINESTYLE
350
17
  3
ACAD_PLOTSETTINGS
350
19
  3
ACAD_PLOTSTYLENAME
350
E
  3
ACAD_TABLESTYLE
350
2D1
  3
ACAD_VISUALSTYLE
350
2A
  3
AcDbVariableDictionary
350
2D3
  0
DICTIONARY
  5
D
102
{ACAD_REACTORS
330
C
102
}
330
C
100
AcDbDictionary
281
     1
  0
DICTIONARY
  5
1A
102
{ACAD_REACTORS
330
C
102
}
330
C
100
AcDbDictionary
281
     1
  3
Layout1
350
1E
  3
Layout2
350
26
  3
Model
350
22
  0
DICTIONARY
  5
2D2
102
{ACAD_REACTORS
330
C
102
}
330
C
100
AcDbDictionary
281
     1
  0
DICTIONARY
  5
17
102
{ACAD_REACTORS
330
C
102
}
330
C
100
AcDbDictionary
281
     1
  3
Standard
350
18
  0
DICTIONARY
  5
19
102
{ACAD_REACTORS
330
C
102
}
330
C
100
AcDbDictionary
281
     1
  0
ACDBDICTIONARYWDFLT
  5
E
102
{ACAD_REACTORS
330
C
102
}
330
C
100
AcDbDictionary
281
     1
  3
Normal
350
F
100
AcDbDictionaryWithDefault
340
F
  0
DICTIONARY
  5
2D1
102
{ACAD_REACTORS
330
C
102
}
330
C
100
AcDbDictionary
281
     1
  0
DICTIONARY
  5
2A
102
{ACAD_REACTORS
330
C
102
}
330
C
100
AcDbDictionary
281
     1
  3
2dWireframe
350
2F
  3
3D Hidden
350
31
  3
3dWireframe
350
30
  3
Basic
350
32
  3
Brighten
350
36
  3
ColorChange
350
3A
  3
Conceptual
350
34
  3
Dim
350
35
  3
Facepattern
350
39
  3
Flat
350
2B
  3
FlatWithEdges
350
2C
  3
Gouraud
350
2D
  3
GouraudWithEdges
350
2E
  3
Linepattern
350
38
  3
Realistic
350
33
  3
Thicken
350
37
  0
DICTIONARY
  5
2D3
102
{ACAD_REACTORS
330
C
102
}
330
C
100
AcDbDictionary
281
     1
  3
PSOLHEIGHT
350
2D5
  3
PSOLWIDTH
350
2D4
  0
LAYOUT
  5
1E
102
{ACAD_REACTORS
330
1A
102
}
330
1A
100
AcDbPlotSettings
  1

  2
none_device
  4

  6

 40
0.0
 41
0.0
 42
0.0
 43
0.0
 44
0.0
 45
0.0
 46
0.0
 47
0.0
 48
0.0
 49
0.0
140
0.0
141
0.0
142
1.0
143
1.0
 70
   688
 72
     0
 73
     0
 74
     5
  7

 75
    16
147
1.0
148
0.0
149
0.0
100
AcDbLayout
  1
Layout1
 70
     1
 71
     1
 10
0.0
 20
0.0
 11
420.0
 21
297.0
 12
0.0
 22
0.0
 32
0.0
 14
1.0000000000E+20
 24
1.0000000000E+20
 34
1.0000000000E+20
 15
-1.0000000000E+20
 25
-1.0000000000E+20
 35
-1.0000000000E+20
146
0.0
 13
0.0
 23
0.0
 33
0.0
 16
1.0
 26
0.0
 36
0.0
 17
0.0
 27
1.0
 37
0.0
 76
     0
330
1B
  0
LAYOUT
  5
26
102
{ACAD_REACTORS
330
1A
102
}
330
1A
100
AcDbPlotSettings
  1

  2
none_device
  4

  6

 40
0.0
 41
0.0
 42
0.0
 43
0.0
 44
0.0
 45
0.0
 46
0.0
 47
0.0
 48
0.0
 49
0.0
140
0.0
141
0.0
142
1.0
143
1.0
 70
   688
 72
     0
 73
     0
 74
     5
  7

 75
    16
147
1.0
148
0.0
149
0.0
100
AcDbLayout
  1
Layout2
 70
     1
 71
     2
 10
0.0
 20
0.0
 11
0.0
 21
0.0
 12
0.0
 22
0.0
 32
0.0
 14
0.0
 24
0.0
 34
0.0
 15
0.0
 25
0.0
 35
0.0
146
0.0
 13
0.0
 23
0.0
 33
0.0
 16
1.0
 26
0.0
 36
0.0
 17
0.0
 27
1.0
 37
0.0
 76
     0
330
23
  0
LAYOUT
  5
22
102
{ACAD_REACTORS
330
1A
102
}
330
1A
100
AcDbPlotSettings
  1

  2
none_device
  4

  6

 40
0.0
 41
0.0
 42
0.0
 43
0.0
 44
0.0
 45
0.0
 46
0.0
 47
0.0
 48
0.0
 49
0.0
140
0.0
141
0.0
142
1.0
143
1.0
 70
  1712
 72
     0
 73
     0
 74
     0
  7

 75
     0
147
1.0
148
0.0
149
0.0
100
AcDbLayout
  1
Model
 70
     1
 71
     0
 10
0.0
 20
0.0
 11
297.0
 21
210.0
 12
0.0
 22
0.0
 32
0.0
 14
0.0
 24
0.0
 34
0.0
 15
297.0
 25
210.0
 35
0.0
146
0.0
 13
0.0
 23
0.0
 33
0.0
 16
1.0
 26
0.0
 36
0.0
 17
0.0
 27
1.0
 37
0.0
 76
     0
330
1F
331
29
  0
MLINESTYLE
  5
18
102
{ACAD_REACTORS
330
17
102
}
330
17
100
AcDbMlineStyle
  2
Standard
 70
     0
  3

 62
   256
 51
90.0
 52
90.0
 71
     2
 49
0.5
 62
   256
  6
BYLAYER
 49
-0.5
 62
   256
  6
BYLAYER
  0
ACDBPLACEHOLDER
  5
F
102
{ACAD_REACTORS
330
E
102
}
330
E
  0
VISUALSTYLE
  5
2F
102
{ACAD_REACTORS
330
2A
102
}
330
2A
100
AcDbVisualStyle
  2
2dWireframe
 70
     4
 71
     0
 72
     2
 73
     0
 90
        0
 40
-0.6
 41
-30.0
 62
     5
 63
     7
 74
     1
 91
        4
 64
     7
 65
   257
 75
     1
175
     1
 42
1.0
 92
        0
 66
   257
 43
1.0
 76
     1
 77
     6
 78
     2
 67
     7
 79
     5
170
     0
171
     0
290
     0
174
     0
 93
        1
 44
0.0
173
     0
291
     0
 45
0.0
1001
ACAD
1000
AcDbSavedByObjectVersion
1070
     0
  0
VISUALSTYLE
  5
31
102
{ACAD_REACTORS
330
2A
102
}
330
2A
100
AcDbVisualStyle
  2
3D Hidden
 70
     6
 71
     1
 72
     2
 73
     2
 90
        0
 40
-0.6
 41
-30.0
 62
     5
 63
     7
 74
     2
 91
        2
 64
     7
 65
   257
 75
     2
175
     1
 42
40.0
 92
        0
 66
   257
 43
1.0
 76
     1
 77
     6
 78
     2
 67
     7
 79
     3
170
     0
171
     0
290
     0
174
     0
 93
        1
 44
0.0
173
     0
291
     0
 45
0.0
1001
ACAD
1000
AcDbSavedByObjectVersion
1070
     0
  0
VISUALSTYLE
  5
30
102
{ACAD_REACTORS
330
2A
102
}
330
2A
100
AcDbVisualStyle
  2
3dWireframe
 70
     5
 71
     0
 72
     2
 73
     0
 90
        0
 40
-0.6
 41
-30.0
 62
     5
 63
     7
 74
     1
 91
        4
 64
     7
 65
   257
 75
     1
175
     1
 42
1.0
 92
        0
 66
   257
 43
1.0
 76
     1
 77
     6
 78
     2
 67
     7
 79
     5
170
     0
171
     0
290
     0
174
     0
 93
        1
 44
0.0
173
     0
291
     0
 45
0.0
1001
ACAD
1000
AcDbSavedByObjectVersion
1070
     0
  0
VISUALSTYLE
  5
32
102
{ACAD_REACTORS
330
2A
102
}
330
2A
100
AcDbVisualStyle
  2
Basic
 70
     7
 71
     1
 72
     0
 73
     1
 90
        0
 40
-0.6
 41
-30.0
 62
     5
 63
     7
 74
     0
 91
        4
 64
     7
 65
   257
 75
     1
175
     1
 42
1.0
 92
        8
 66
     7
 43
1.0
 76
     1
 77
     6
 78
     2
 67
     7
 79
     5
170
     0
171
     0
290
     0
174
     0
 93
        1
 44
0.0
173
     0
291
     1
 45
0.0
1001
ACAD
1000
AcDbSavedByObjectVersion
1070
     0
  0
VISUALSTYLE
  5
36
102
{ACAD_REACTORS
330
2A
102
}
330
2A
100
AcDbVisualStyle
  2
Brighten
 70
    12
 71
     2
 72
     2
 73
     0
 90
        0
 40
-0.6
 41
-30.0
 62
     5
 63
     7
 74
     1
 91
        4
 64
     7
 65
   257
 75
     1
175
     1
 42
1.0
 92
        8
 66
     7
 43
1.0
 76
     1
 77
     6
 78
     2
 67
     7
 79
     5
170
     0
171
     0
290
     0
174
     0
 93
        1
 44
50.0
173
     0
291
     1
 45
0.0
1001
ACAD
1000
AcDbSavedByObjectVersion
1070
     0
  0
VISUALSTYLE
  5
3A
102
{ACAD_REACTORS
330
2A
102
}
330
2A
100
AcDbVisualStyle
  2
ColorChange
 70
    16
 71
     2
 72
     2
 73
     3
 90
        0
 40
-0.6
 41
-30.0
 62
     5
 63
     8
 74
     1
 91
        4
 64
     7
 65
   257
 75
     1
175
     1
 42
1.0
 92
        8
 66
     8
 43
1.0
 76
     1
 77
     6
 78
     2
 67
     7
 79
     5
170
     0
171
     0
290
     0
174
     0
 93
        1
 44
0.0
173
     0
291
     1
 45
0.0
1001
ACAD
1000
AcDbSavedByObjectVersion
1070
     0
  0
VISUALSTYLE
  5
34
102
{ACAD_REACTORS
330
2A
102
}
330
2A
100
AcDbVisualStyle
  2
Conceptual
 70
     9
 71
     3
 72
     2
 73
     0
 90
        0
 40
-0.6
 41
-30.0
 62
     5
 63
     7
 74
     2
 91
        2
 64
     7
 65
   257
 75
     1
175
     1
 42
40.0
 92
        8
 66
     7
 43
1.0
 76
     1
 77
     6
 78
     2
 67
     7
 79
     3
170
     0
171
     0
290
     0
174
     0
 93
        1
 44
0.0
173
     0
291
     0
 45
0.0
1001
ACAD
1000
AcDbSavedByObjectVersion
1070
     0
  0
VISUALSTYLE
  5
35
102
{ACAD_REACTORS
330
2A
102
}
330
2A
100
AcDbVisualStyle
  2
Dim
 70
    11
 71
     2
 72
     2
 73
     0
 90
        0
 40
-0.6
 41
-30.0
 62
     5
 63
     7
 74
     1
 91
        4
 64
     7
 65
   257
 75
     1
175
     1
 42
1.0
 92
        8
 66
     7
 43
1.0
 76
     1
 77
     6
 78
     2
 67
     7
 79
     5
170
     0
171
     0
290
     0
174
     0
 93
        1
 44
-50.0
173
     0
291
     1
 45
0.0
1001
ACAD
1000
AcDbSavedByObjectVersion
1070
     0
  0
VISUALSTYLE
  5
39
102
{ACAD_REACTORS
330
2A
102
}
330
2A
100
AcDbVisualStyle
  2
Facepattern
 70
    15
 71
     2
 72
     2
 73
     0
 90
        0
 40
-0.6
 41
-30.0
 62
     5
 63
     7
 74
     1
 91
        4
 64
     7
 65
   257
 75
     1
175
     1
 42
1.0
 92
        8
 66
     7
 43
1.0
 76
     1
 77
     6
 78
     2
 67
     7
 79
     5
170
     0
171
     0
290
     0
174
     0
 93
        1
 44
0.0
173
     0
291
     1
 45
0.0
1001
ACAD
1000
AcDbSavedByObjectVersion
1070
     0
  0
VISUALSTYLE
  5
2B
102
{ACAD_REACTORS
330
2A
102
}
330
2A
100
AcDbVisualStyle
  2
Flat
 70
     0
 71
     2
 72
     1
 73
     1
 90
        2
 40
-0.6
 41
30.0
 62
     5
 63
     7
 74
     0
 91
        4
 64
     7
 65
   257
 75
     1
175
     1
 42
1.0
 92
        8
 66
     7
 43
1.0
 76
     1
 77
     6
 78
     2
 67
     7
 79
     5
170
     0
171
     0
290
     0
174
     0
 93
       13
 44
0.0
173
     0
291
     1
 45
0.0
1001
ACAD
1000
AcDbSavedByObjectVersion
1070
     0
  0
VISUALSTYLE
  5
2C
102
{ACAD_REACTORS
330
2A
102
}
330
2A
100
AcDbVisualStyle
  2
FlatWithEdges
 70
     1
 71
     2
 72
     1
 73
     1
 90
        2
 40
-0.6
 41
30.0
 62
     5
 63
     7
 74
     1
 91
        4
 64
     7
 65
   257
 75
     1
175
     1
 42
1.0
 92
        0
 66
   257
 43
1.0
 76
     1
 77
     6
 78
     2
 67
     7
 79
     5
170
     0
171
     0
290
     0
174
     0
 93
       13
 44
0.0
173
     0
291
     1
 45
0.0
1001
ACAD
1000
AcDbSavedByObjectVersion
1070
     0
  0
VISUALSTYLE
  5
2D
102
{ACAD_REACTORS
330
2A
102
}
330
2A
100
AcDbVisualStyle
  2
Gouraud
 70
     2
 71
     2
 72
     2
 73
     1
 90
        2
 40
-0.6
 41
30.0
 62
     5
 63
     7
 74
     0
 91
        4
 64
     7
 65
   257
 75
     1
175
     1
 42
1.0
 92
        0
 66
     7
 43
1.0
 76
     1
 77
     6
 78
     2
 67
     7
 79
     5
170
     0
171
     0
290
     0
174
     0
 93
       13
 44
0.0
173
     0
291
     1
 45
0.0
1001
ACAD
1000
AcDbSavedByObjectVersion
1070
     0
  0
VISUALSTYLE
  5
2E
102
{ACAD_REACTORS
330
2A
102
}
330
2A
100
AcDbVisualStyle
  2
GouraudWithEdges
 70
     3
 71
     2
 72
     2
 73
     1
 90
        2
 40
-0.6
 41
30.0
 62
     5
 63
     7
 74
     1
 91
        4
 64
     7
 65
   257
 75
     1
175
     1
 42
1.0
 92
        0
 66
   257
 43
1.0
 76
     1
 77
     6
 78
     2
 67
     7
 79
     5
170
     0
171
     0
290
     0
174
     0
 93
       13
 44
0.0
173
     0
291
     1
 45
0.0
1001
ACAD
1000
AcDbSavedByObjectVersion
1070
     0
  0
VISUALSTYLE
  5
38
102
{ACAD_REACTORS
330
2A
102
}
330
2A
100
AcDbVisualStyle
  2
Linepattern
 70
    14
 71
     2
 72
     2
 73
     0
 90
        0
 40
-0.6
 41
-30.0
 62
     5
 63
     7
 74
     1
 91
        4
 64
     7
 65
   257
 75
     7
175
     7
 42
1.0
 92
        8
 66
     7
 43
1.0
 76
     1
 77
     6
 78
     2
 67
     7
 79
     5
170
     0
171
     0
290
     0
174
     0
 93
        1
 44
0.0
173
     0
291
     1
 45
0.0
1001
ACAD
1000
AcDbSavedByObjectVersion
1070
     0
  0
VISUALSTYLE
  5
33
102
{ACAD_REACTORS
330
2A
102
}
330
2A
100
AcDbVisualStyle
  2
Realistic
 70
     8
 71
     2
 72
     2
 73
     0
 90
        0
 40
-0.6
 41
-30.0
 62
     5
 63
     7
 74
     1
 91
        0
 64
     7
 65
   257
 75
     1
175
     1
 42
1.0
 92
        8
 66
     8
 43
1.0
 76
     1
 77
     6
 78
     2
 67
     7
 79
     5
170
     0
171
     0
290
     0
174
     0
 93
       13
 44
0.0
173
     0
291
     0
 45
0.0
1001
ACAD
1000
AcDbSavedByObjectVersion
1070
     0
  0
VISUALSTYLE
  5
37
102
{ACAD_REACTORS
330
2A
102
}
330
2A
100
AcDbVisualStyle
  2
Thicken
 70
    13
 71
     2
 72
     2
 73
     0
 90
        0
 40
-0.6
 41
-30.0
 62
     5
 63
     7
 74
     1
 91
        4
 64
     7
 65
   257
 75
     1
175
     1
 42
1.0
 92
       12
 66
     7
 43
1.0
 76
     1
 77
     6
 78
     2
 67
     7
 79
     5
170
     0
171
     0
290
     0
174
     0
 93
        1
 44
0.0
173
     0
291
     1
 45
0.0
1001
ACAD
1000
AcDbSavedByObjectVersion
1070
     0
  0
DICTIONARYVAR
  5
2D5
102
{ACAD_REACTORS
330
2D3
102
}
330
2D3
100
DictionaryVariables
280
     0
  1
80.000000
  0
DICTIONARYVAR
  5
2D4
102
{ACAD_REACTORS
330
2D3
102
}
330
2D3
100
DictionaryVariables
280
     0
  1
5.000000
  0
ENDSEC
  0
EOF
