  0
SECTION
  2
HEADER
  9
$ACADVER
  1
AC1015
  9
$ACADMAINTVER
 70
     6
  9
$DWGCODEPAGE
  3
ANSI_1252
  9
$INSBASE
 10
0.0
 20
0.0
 30
0.0
  9
$EXTMIN
 10
0.0
 20
0.0
 30
0.0
  9
$EXTMAX
 10
297.0
 20
210.0
 30
0.0
  9
$LIMMIN
 10
0.0
 20
0.0
  9
$LIMMAX
 10
297.0
 20
210.0
  9
$ORTHOMODE
 70
     0
  9
$REGENMODE
 70
     1
  9
$FILLMODE
 70
     1
  9
$QTEXTMODE
 70
     0
  9
$MIRRTEXT
 70
     1
  9
$LTSCALE
 40
1.0
  9
$ATTMODE
 70
     1
  9
$TEXTSIZE
 40
2.0
  9
$TRACEWID
 40
1.0
  9
$TEXTSTYLE
  7
STANDARD
  9
$CLAYER
  8
0
  9
$CELTYPE
  6
ByLayer
  9
$CECOLOR
 62
   256
  9
$CELTSCALE
 40
1.0
  9
$DISPSILH
 70
     0
  9
$DIMSCALE
 40
1.0
  9
$DIMASZ
 40
3.0
  9
$DIMEXO
 40
0.0
  9
$DIMDLI
 40
3.75
  9
$DIMRND
 40
0.0
  9
$DIMDLE
 40
0.0
  9
$DIMEXE
 40
1.0
  9
$DIMTP
 40
0.0
  9
$DIMTM
 40
0.0
  9
$DIMTXT
 40
2.0
  9
$DIMCEN
 40
2.5
  9
$DIMTSZ
 40
0.0
  9
$DIMTOL
 70
     0
  9
$DIMLIM
 70
     0
  9
$DIMTIH
 70
     1
  9
$DIMTOH
 70
     1
  9
$DIMSE1
 70
     0
  9
$DIMSE2
 70
     0
  9
$DIMTAD
 70
     1
  9
$DIMZIN
 70
     0
  9
$DIMBLK
  1

  9
$DIMASO
 70
     1
  9
$DIMSHO
 70
     1
  9
$DIMPOST
  1

  9
$DIMAPOST
  1

  9
$DIMALT
 70
     0
  9
$DIMALTD
 70
     3
  9
$DIMALTF
 40
0.0393700787
  9
$DIMLFAC
 40
1.0
  9
$DIMTOFL
 70
     1
  9
$DIMTVP
 40
0.0
  9
$DIMTIX
 70
     0
  9
$DIMSOXD
 70
     0
  9
$DIMSAH
 70
     0
  9
$DIMBLK1
  1

  9
$DIMBLK2
  1

  9
$DIMSTYLE
  2
ISO-25
  9
$DIMCLRD
 70
     0
  9
$DIMCLRE
 70
     0
  9
$DIMCLRT
 70
     0
  9
$DIMTFAC
 40
1.0
  9
$DIMGAP
 40
1.524
  9
$DIMJUST
 70
     0
  9
$DIMSD1
 70
     0
  9
$DIMSD2
 70
     0
  9
$DIMTOLJ
 70
     0
  9
$DIMTZIN
 70
     0
  9
$DIMALTZ
 70
     0
  9
$DIMALTTZ
 70
     0
  9
$DIMUPT
 70
     0
  9
$DIMDEC
 70
     2
  9
$DIMTDEC
 70
     3
  9
$DIMALTU
 70
     2
  9
$DIMALTTD
 70
     3
  9
$DIMTXSTY
  7
STANDARD
  9
$DIMAUNIT
 70
     0
  9
$DIMADEC
 70
     2
  9
$DIMALTRND
 40
0.0
  9
$DIMAZIN
 70
     0
  9
$DIMDSEP
 70
    44
  9
$DIMATFIT
 70
     3
  9
$DIMFRAC
 70
     0
  9
$DIMLDRBLK
  1

  9
$DIMLUNIT
 70
     2
  9
$DIMLWD
 70
    -2
  9
$DIMLWE
 70
    -2
  9
$DIMTMOVE
 70
     0
  9
$LUNITS
 70
     2
  9
$LUPREC
 70
     2
  9
$SKETCHINC
 40
1.0
  9
$FILLETRAD
 40
10.0
  9
$AUNITS
 70
     0
  9
$AUPREC
 70
     2
  9
$MENU
  1
.
  9
$ELEVATION
 40
0.0
  9
$PELEVATION
 40
0.0
  9
$THICKNESS
 40
0.0
  9
$LIMCHECK
 70
     0
  9
$CHAMFERA
 40
10.0
  9
$CHAMFERB
 40
10.0
  9
$CHAMFERC
 40
20.0
  9
$CHAMFERD
 40
0.0
  9
$SKPOLY
 70
     0
  9
$TDCREATE
 40
2457149.399260231
  9
$TDUCREATE
 40
2457149.315926898
  9
$TDUPDATE
 40
2457149.399261134
  9
$TDUUPDATE
 40
2457149.315927801
  9
$TDINDWG
 40
0.0000000116
  9
$TDUSRTIMER
 40
0.0000000116
  9
$USRTIMER
 70
     1
  9
$ANGBASE
 50
0.0
  9
$ANGDIR
 70
     0
  9
$PDMODE
 70
     0
  9
$PDSIZE
 40
-1.0
  9
$PLINEWID
 40
0.0
  9
$SPLFRAME
 70
     0
  9
$SPLINETYPE
 70
     6
  9
$SPLINESEGS
 70
     8
  9
$HANDSEED
  5
3FE
  9
$SURFTAB1
 70
     6
  9
$SURFTAB2
 70
     6
  9
$SURFTYPE
 70
     6
  9
$SURFU
 70
     6
  9
$SURFV
 70
     6
  9
$UCSBASE
  2

  9
$UCSNAME
  2

  9
$UCSORG
 10
0.0
 20
0.0
 30
0.0
  9
$UCSXDIR
 10
1.0
 20
0.0
 30
0.0
  9
$UCSYDIR
 10
0.0
 20
1.0
 30
0.0
  9
$UCSORTHOREF
  2

  9
$UCSORTHOVIEW
 70
     0
  9
$UCSORGTOP
 10
0.0
 20
0.0
 30
0.0
  9
$UCSORGBOTTOM
 10
0.0
 20
0.0
 30
0.0
  9
$UCSORGLEFT
 10
0.0
 20
0.0
 30
0.0
  9
$UCSORGRIGHT
 10
0.0
 20
0.0
 30
0.0
  9
$UCSORGFRONT
 10
0.0
 20
0.0
 30
0.0
  9
$UCSORGBACK
 10
0.0
 20
0.0
 30
0.0
  9
$PUCSBASE
  2

  9
$PUCSNAME
  2

  9
$PUCSORG
 10
0.0
 20
0.0
 30
0.0
  9
$PUCSXDIR
 10
1.0
 20
0.0
 30
0.0
  9
$PUCSYDIR
 10
0.0
 20
1.0
 30
0.0
  9
$PUCSORTHOREF
  2

  9
$PUCSORTHOVIEW
 70
     0
  9
$PUCSORGTOP
 10
0.0
 20
0.0
 30
0.0
  9
$PUCSORGBOTTOM
 10
0.0
 20
0.0
 30
0.0
  9
$PUCSORGLEFT
 10
0.0
 20
0.0
 30
0.0
  9
$PUCSORGRIGHT
 10
0.0
 20
0.0
 30
0.0
  9
$PUCSORGFRONT
 10
0.0
 20
0.0
 30
0.0
  9
$PUCSORGBACK
 10
0.0
 20
0.0
 30
0.0
  9
$USERI1
 70
     0
  9
$USERI2
 70
     0
  9
$USERI3
 70
     0
  9
$USERI4
 70
     0
  9
$USERI5
 70
     0
  9
$USERR1
 40
0.0
  9
$USERR2
 40
0.0
  9
$USERR3
 40
0.0
  9
$USERR4
 40
0.0
  9
$USERR5
 40
0.0
  9
$WORLDVIEW
 70
     1
  9
$SHADEDGE
 70
     3
  9
$SHADEDIF
 70
    70
  9
$TILEMODE
 70
     1
  9
$MAXACTVP
 70
    64
  9
$PINSBASE
 10
0.0
 20
0.0
 30
0.0
  9
$PLIMCHECK
 70
     0
  9
$PEXTMIN
 10
1.0000000000E+20
 20
1.0000000000E+20
 30
1.0000000000E+20
  9
$PEXTMAX
 10
-1.0000000000E+20
 20
-1.0000000000E+20
 30
-1.0000000000E+20
  9
$PLIMMIN
 10
0.0
 20
0.0
  9
$PLIMMAX
 10
420.0
 20
297.0
  9
$UNITMODE
 70
     0
  9
$VISRETAIN
 70
     1
  9
$PLINEGEN
 70
     0
  9
$PSLTSCALE
 70
     1
  9
$TREEDEPTH
 70
  3020
  9
$CMLSTYLE
  2
Standard
  9
$CMLJUST
 70
     0
  9
$CMLSCALE
 40
20.0
  9
$PROXYGRAPHICS
 70
     1
  9
$MEASUREMENT
 70
     1
  9
$CELWEIGHT
370
    -1
  9
$ENDCAPS
280
     0
  9
$JOINSTYLE
280
     0
  9
$LWDISPLAY
290
     1
  9
$INSUNITS
 70
     4
  9
$HYPERLINKBASE
  1

  9
$STYLESHEET
  1

  9
$XEDIT
290
     1
  9
$CEPSNTYPE
380
     0
  9
$PSTYLEMODE
290
     1
  9
$FINGERPRINTGUID
  2
{FD5B140B-AF41-4DCA-B0F7-F386BC933C59}
  9
$VERSIONGUID
  2
{FAEB1C32-E019-11D5-929B-00C0DF256EC4}
  9
$EXTNAMES
290
     1
  9
$PSVPSCALE
 40
0.0
  9
$OLESTARTUP
290
     0
  0
ENDSEC
  0
SECTION
  2
CLASSES
  0
CLASS
  1
ACDBDICTIONARYWDFLT
  2
AcDbDictionaryWithDefault
  3
ObjectDBX Classes
 90
        0
280
     0
281
     0
  0
CLASS
  1
VISUALSTYLE
  2
AcDbVisualStyle
  3
ObjectDBX Classes
 90
     4095
280
     0
281
     0
  0
CLASS
  1
MATERIAL
  2
AcDbMaterial
  3
ObjectDBX Classes
 90
     1153
280
     0
281
     0
  0
CLASS
  1
ACDBPLACEHOLDER
  2
AcDbPlaceHolder
  3
ObjectDBX Classes
 90
        0
280
     0
281
     0
  0
CLASS
  1
LAYOUT
  2
AcDbLayout
  3
ObjectDBX Classes
 90
        0
280
     0
281
     0
  0
ENDSEC
  0
SECTION
  2
TABLES
  0
TABLE
  2
VPORT
  5
8
330
0
100
AcDbSymbolTable
 70
     1
  0
VPORT
  5
29
330
8
100
AcDbSymbolTableRecord
100
AcDbViewportTableRecord
  2
*Active
 70
     0
 10
0.0
 20
0.0
 11
1.0
 21
1.0
 12
148.5
 22
105.0
 13
0.0
 23
0.0
 14
10.0
 24
10.0
 15
10.0
 25
10.0
 16
0.0
 26
0.0
 36
1.0
 17
0.0
 27
0.0
 37
0.0
 40
210.0
 41
1.4142857143
 42
50.0
 43
0.0
 44
0.0
 50
0.0
 51
0.0
 71
     0
 72
  2000
 73
     1
 74
     3
 75
     0
 76
     0
 77
     0
 78
     0
281
     0
 65
     1
110
0.0
120
0.0
130
0.0
111
1.0
121
0.0
131
0.0
112
0.0
122
1.0
132
0.0
 79
     0
146
0.0
  0
ENDTAB
  0
TABLE
  2
LTYPE
  5
5
330
0
100
AcDbSymbolTable
 70
     8
  0
LTYPE
  5
14
330
5
100
AcDbSymbolTableRecord
100
AcDbLinetypeTableRecord
  2
ByBlock
 70
     0
  3

 72
    65
 73
     0
 40
0.0
  0
LTYPE
  5
15
330
5
100
AcDbSymbolTableRecord
100
AcDbLinetypeTableRecord
  2
ByLayer
 70
     0
  3

 72
    65
 73
     0
 40
0.0
  0
LTYPE
  5
16
330
5
100
AcDbSymbolTableRecord
100
AcDbLinetypeTableRecord
  2
Continuous
 70
     0
  3
Solid line
 72
    65
 73
     0
 40
0.0
  0
LTYPE
  5
3F
330
5
100
AcDbSymbolTableRecord
100
AcDbLinetypeTableRecord
  2
SLD-Durchgehend
 70
     0
  3
SolidWorks Line Style
 72
    65
 73
     0
 40
0.0
  0
LTYPE
  5
40
330
5
100
AcDbSymbolTableRecord
100
AcDbLinetypeTableRecord
  2
SLD-Gestrichelt
 70
     0
  3
SolidWorks Line Style
 72
    65
 73
     2
 40
1.905
 49
1.27
 74
     0
 49
-0.635
 74
     0
  0
LTYPE
  5
41
330
5
100
AcDbSymbolTableRecord
100
AcDbLinetypeTableRecord
  2
SLD-Phantom
 70
     0
  3
SolidWorks Line Style
 72
    65
 73
     6
 40
12.7
 49
6.35
 74
     0
 49
-1.27
 74
     0
 49
1.27
 74
     0
 49
-1.27
 74
     0
 49
1.27
 74
     0
 49
-1.27
 74
     0
  0
LTYPE
  5
42
330
5
100
AcDbSymbolTableRecord
100
AcDbLinetypeTableRecord
  2
SLD-Kette
 70
     0
  3
SolidWorks Line Style
 72
    65
 73
     4
 40
10.16
 49
6.35
 74
     0
 49
-1.27
 74
     0
 49
1.27
 74
     0
 49
-1.27
 74
     0
  0
LTYPE
  5
43
330
5
100
AcDbSymbolTableRecord
100
AcDbLinetypeTableRecord
  2
SLD-Punktstrich
 70
     0
  3
SolidWorks Line Style
 72
    65
 73
     4
 40
19.05
 49
15.24
 74
     0
 49
-1.27
 74
     0
 49
1.27
 74
     0
 49
-1.27
 74
     0
  0
LTYPE
  5
44
330
5
100
AcDbSymbolTableRecord
100
AcDbLinetypeTableRecord
  2
SLD-Naht
 70
     0
  3
SolidWorks Line Style
 72
    65
 73
     2
 40
0.635
 49
0.0
 74
     0
 49
-0.635
 74
     0
  0
LTYPE
  5
45
330
5
100
AcDbSymbolTableRecord
100
AcDbLinetypeTableRecord
  2
SLD-Dicke-Dünne-Kette
 70
     0
  3
SolidWorks Line Style
 72
    65
 73
     4
 40
10.16
 49
6.35
 74
     0
 49
-1.27
 74
     0
 49
1.27
 74
     0
 49
-1.27
 74
     0
  0
ENDTAB
  0
TABLE
  2
LAYER
  5
2
330
0
100
AcDbSymbolTable
 70
     5
  0
LAYER
  5
10
330
2
100
AcDbSymbolTableRecord
100
AcDbLayerTableRecord
  2
0
 70
     0
 62
     7
  6
Continuous
370
    -3
390
F
  0
LAYER
  5
46
330
2
100
AcDbSymbolTableRecord
100
AcDbLayerTableRecord
  2
FORMAT
 70
     0
 62
     7
  6
SLD-Durchgehend
370
    -3
390
F
  0
LAYER
  5
47
330
2
100
AcDbSymbolTableRecord
100
AcDbLayerTableRecord
  2
VERMASSUNG
 70
     0
 62
     7
  6
SLD-Durchgehend
370
    -3
390
F
  0
LAYER
  5
48
330
2
100
AcDbSymbolTableRecord
100
AcDbLayerTableRecord
  2
KOPF_DÜNN
 70
     0
 62
     7
  6
SLD-Durchgehend
370
    -3
390
F
  0
LAYER
  5
49
330
2
100
AcDbSymbolTableRecord
100
AcDbLayerTableRecord
  2
KOPF_DICK
 70
     0
 62
     7
  6
SLD-Durchgehend
370
    15
390
F
  0
ENDTAB
  0
TABLE
  2
STYLE
  5
3
330
0
100
AcDbSymbolTable
 70
     2
  0
STYLE
  5
11
330
3
100
AcDbSymbolTableRecord
100
AcDbTextStyleTableRecord
  2
STANDARD
 70
     0
 40
0.0
 41
1.0
 50
0.0
 71
     0
 42
2.0
  3
ISOCPEUR.TTF
  4

1001
ACAD
1000
ISOCPEUR
1071
       34
  0
STYLE
  5
4A
330
3
100
AcDbSymbolTableRecord
100
AcDbTextStyleTableRecord
  2
SLDTEXTSTYLE0
 70
     0
 40
0.0
 41
1.0
 50
0.0
 71
     0
 42
0.2
  3
ISOCPEUR.TTF
  4

1001
ACAD
1000
ISOCPEUR
1071
      290
  0
ENDTAB
  0
TABLE
  2
VIEW
  5
6
330
0
100
AcDbSymbolTable
 70
     0
  0
ENDTAB
  0
TABLE
  2
UCS
  5
7
330
0
100
AcDbSymbolTable
 70
     0
  0
ENDTAB
  0
TABLE
  2
APPID
  5
9
330
0
100
AcDbSymbolTable
 70
     1
  0
APPID
  5
12
330
9
100
AcDbSymbolTableRecord
100
AcDbRegAppTableRecord
  2
ACAD
 70
     0
  0
ENDTAB
  0
TABLE
  2
DIMSTYLE
  5
A
330
0
100
AcDbSymbolTable
 70
     4
100
AcDbDimStyleTable
  0
DIMSTYLE
105
27
330
A
100
AcDbSymbolTableRecord
100
AcDbDimStyleTableRecord
  2
ISO-25
 70
     0
 41
2.5
 42
0.625
 43
3.75
 44
1.25
 73
     0
 74
     0
 77
     1
 78
     8
140
2.5
141
2.5
143
0.0393700787
147
0.625
171
     3
172
     1
178
     0
271
     2
272
     2
274
     3
278
    44
283
     0
284
     8
340
11
  0
DIMSTYLE
105
257
102
{ACAD_REACTORS
330
256
330
261
330
28A
102
}
330
A
100
AcDbSymbolTableRecord
100
AcDbDimStyleTableRecord
  2
SLDDIMSTYLE0
 70
     0
 41
3.0
 44
0.0
 45
0.000000001
 73
     0
 74
     0
 77
     1
 78
    12
 79
     3
140
2.0
147
0.5
173
     1
178
     0
271
     2
272
     3
276
     2
284
    12
340
4A
  0
DIMSTYLE
105
26C
102
{ACAD_REACTORS
330
26B
330
277
102
}
330
A
100
AcDbSymbolTableRecord
100
AcDbDimStyleTableRecord
  2
SLDDIMSTYLE1
 70
     0
 41
3.0
 44
0.0
 45
0.000000001
 73
     0
 74
     0
 77
     1
 78
    12
 79
     3
140
2.0
147
0.5
172
     1
173
     1
178
     0
271
     2
272
     3
276
     2
284
    12
289
     0
340
4A
  0
DIMSTYLE
105
283
102
{ACAD_REACTORS
330
282
102
}
330
A
100
AcDbSymbolTableRecord
100
AcDbDimStyleTableRecord
  2
SLDDIMSTYLE2
 70
     0
 41
3.0
 44
0.0
 45
0.000000001
 73
     0
 74
     0
 77
     1
 78
    12
 79
     3
140
2.0
141
0.0
147
0.5
173
     1
178
     0
271
     2
272
     3
276
     2
279
     1
284
    12
340
4A
  0
ENDTAB
  0
TABLE
  2
BLOCK_RECORD
  5
1
330
0
100
AcDbSymbolTable
 70
     8
  0
BLOCK_RECORD
  5
1F
330
1
100
AcDbSymbolTableRecord
100
AcDbBlockTableRecord
  2
*Model_Space
340
22
  0
BLOCK_RECORD
  5
1B
330
1
100
AcDbSymbolTableRecord
100
AcDbBlockTableRecord
  2
*Paper_Space
340
1E
  0
BLOCK_RECORD
  5
23
330
1
100
AcDbSymbolTableRecord
100
AcDbBlockTableRecord
  2
*Paper_Space0
340
26
  0
BLOCK_RECORD
  5
258
330
1
100
AcDbSymbolTableRecord
100
AcDbBlockTableRecord
  2
_D
340
0
  0
BLOCK_RECORD
  5
262
330
1
100
AcDbSymbolTableRecord
100
AcDbBlockTableRecord
  2
_D_1
340
0
  0
BLOCK_RECORD
  5
26D
330
1
100
AcDbSymbolTableRecord
100
AcDbBlockTableRecord
  2
_D_2
340
0
  0
BLOCK_RECORD
  5
278
330
1
100
AcDbSymbolTableRecord
100
AcDbBlockTableRecord
  2
_D_3
340
0
  0
BLOCK_RECORD
  5
284
330
1
100
AcDbSymbolTableRecord
100
AcDbBlockTableRecord
  2
_D_4
340
0
  0
BLOCK_RECORD
  5
28B
330
1
100
AcDbSymbolTableRecord
100
AcDbBlockTableRecord
  2
_D_5
340
0
  0
BLOCK_RECORD
  5
3F1
330
1
100
AcDbSymbolTableRecord
100
AcDbBlockTableRecord
  2
SW_CENTERMARKSYMBOL_0
340
0
102
{BLKREFS
331
3FC
102
}
  0
ENDTAB
  0
ENDSEC
  0
SECTION
  2
BLOCKS
  0
BLOCK
  5
20
330
1F
100
AcDbEntity
  8
0
100
AcDbBlockBegin
  2
*Model_Space
 70
     0
 10
0.0
 20
0.0
 30
0.0
  3
*Model_Space
  1

  0
ENDBLK
  5
21
330
1F
100
AcDbEntity
  8
0
100
AcDbBlockEnd
  0
BLOCK
  5
1C
330
1B
100
AcDbEntity
 67
     1
  8
0
100
AcDbBlockBegin
  2
*Paper_Space
 70
     0
 10
0.0
 20
0.0
 30
0.0
  3
*Paper_Space
  1

  0
ENDBLK
  5
1D
330
1B
100
AcDbEntity
 67
     1
  8
0
100
AcDbBlockEnd
  0
BLOCK
  5
24
330
23
100
AcDbEntity
  8
0
100
AcDbBlockBegin
  2
*Paper_Space0
 70
     0
 10
0.0
 20
0.0
 30
0.0
  3
*Paper_Space0
  1

  0
ENDBLK
  5
25
330
23
100
AcDbEntity
  8
0
100
AcDbBlockEnd
  0
BLOCK
  5
259
330
258
100
AcDbEntity
  8
0
100
AcDbBlockBegin
  2
_D
 70
     0
 10
0.0
 20
0.0
 30
0.0
  3
_D
  1

  0
SOLID
  5
25B
330
258
100
AcDbEntity
  8
VERMASSUNG
100
AcDbTrace
 10
174.32446466
 20
154.3533886812
 30
0.0
 11
177.32446466
 21
153.9033886812
 31
0.0
 12
177.32446466
 22
154.8033886812
 32
0.0
 13
177.32446466
 23
154.8033886812
 33
0.0
  0
SOLID
  5
25C
330
258
100
AcDbEntity
  8
VERMASSUNG
100
AcDbTrace
 10
264.32446466
 20
154.3533886812
 30
0.0
 11
261.32446466
 21
154.8033886812
 31
0.0
 12
261.32446466
 22
153.9033886812
 32
0.0
 13
261.32446466
 23
153.9033886812
 33
0.0
  0
LINE
  5
25D
330
258
100
AcDbEntity
  8
VERMASSUNG
100
AcDbLine
 10
174.32446466
 20
142.6616929487
 30
0.0
 11
174.32446466
 21
155.3533886812
 31
0.0
  0
LINE
  5
25E
330
258
100
AcDbEntity
  8
VERMASSUNG
100
AcDbLine
 10
264.32446466
 20
140.9071416731
 30
0.0
 11
264.32446466
 21
155.3533886812
 31
0.0
  0
LINE
  5
25F
330
258
100
AcDbEntity
  8
VERMASSUNG
100
AcDbLine
 10
174.32446466
 20
154.3533886812
 30
0.0
 11
264.32446466
 21
154.3533886812
 31
0.0
  0
MTEXT
  5
260
330
258
100
AcDbEntity
  8
VERMASSUNG
100
AcDbMText
 10
217.024464609
 20
156.9533885648
 30
0.1
 40
2.0
 41
0.0
 71
     1
 72
     1
  1
90
  7
SLDTEXTSTYLE0
 73
     1
 44
1.0
  0
ENDBLK
  5
25A
330
258
100
AcDbEntity
  8
0
100
AcDbBlockEnd
  0
BLOCK
  5
263
330
262
100
AcDbEntity
  8
0
100
AcDbBlockBegin
  2
_D_1
 70
     0
 10
0.0
 20
0.0
 30
0.0
  3
_D_1
  1

  0
SOLID
  5
265
330
262
100
AcDbEntity
  8
VERMASSUNG
100
AcDbTrace
 10
174.32446466
 20
148.949572013
 30
0.0
 11
177.32446466
 21
148.499572013
 31
0.0
 12
177.32446466
 22
149.399572013
 32
0.0
 13
177.32446466
 23
149.399572013
 33
0.0
  0
SOLID
  5
266
330
262
100
AcDbEntity
  8
VERMASSUNG
100
AcDbTrace
 10
229.32446466
 20
148.949572013
 30
0.0
 11
226.32446466
 21
149.399572013
 31
0.0
 12
226.32446466
 22
148.499572013
 32
0.0
 13
226.32446466
 23
148.499572013
 33
0.0
  0
LINE
  5
267
330
262
100
AcDbEntity
  8
VERMASSUNG
100
AcDbLine
 10
174.32446466
 20
142.6616929487
 30
0.0
 11
174.32446466
 21
149.949572013
 31
0.0
  0
LINE
  5
268
330
262
100
AcDbEntity
  8
VERMASSUNG
100
AcDbLine
 10
229.32446466
 20
135.2326077063
 30
0.0
 11
229.32446466
 21
149.949572013
 31
0.0
  0
LINE
  5
269
330
262
100
AcDbEntity
  8
VERMASSUNG
100
AcDbLine
 10
174.32446466
 20
148.949572013
 30
0.0
 11
229.32446466
 21
148.949572013
 31
0.0
  0
MTEXT
  5
26A
330
262
100
AcDbEntity
  8
VERMASSUNG
100
AcDbMText
 10
199.524464609
 20
151.5495718966
 30
0.1
 40
2.0
 41
0.0
 71
     1
 72
     1
  1
55
  7
SLDTEXTSTYLE0
 73
     1
 44
1.0
  0
ENDBLK
  5
264
330
262
100
AcDbEntity
  8
0
100
AcDbBlockEnd
  0
BLOCK
  5
26E
330
26D
100
AcDbEntity
  8
0
100
AcDbBlockBegin
  2
_D_2
 70
     0
 10
0.0
 20
0.0
 30
0.0
  3
_D_2
  1

  0
SOLID
  5
270
330
26D
100
AcDbEntity
  8
VERMASSUNG
100
AcDbTrace
 10
233.7087872547
 20
121.6185471982
 30
0.0
 11
233.2587872547
 21
118.6185471982
 31
0.0
 12
234.1587872547
 22
118.6185471982
 32
0.0
 13
234.1587872547
 23
118.6185471982
 33
0.0
  0
SOLID
  5
271
330
26D
100
AcDbEntity
  8
VERMASSUNG
100
AcDbTrace
 10
233.7087872547
 20
125.6185471982
 30
0.0
 11
234.1587872547
 21
128.6185471982
 31
0.0
 12
233.2587872547
 22
128.6185471982
 32
0.0
 13
233.2587872547
 23
128.6185471982
 33
0.0
  0
LINE
  5
272
330
26D
100
AcDbEntity
  8
VERMASSUNG
100
AcDbLine
 10
233.7087872547
 20
121.6185471982
 30
0.0
 11
233.7087872547
 21
115.6185471982
 31
0.0
  0
LINE
  5
273
330
26D
100
AcDbEntity
  8
VERMASSUNG
100
AcDbLine
 10
233.7087872547
 20
121.6185471982
 30
0.0
 11
233.7087872547
 21
125.6185471982
 31
0.0
  0
LINE
  5
274
330
26D
100
AcDbEntity
  8
VERMASSUNG
100
AcDbLine
 10
233.7087872547
 20
125.6185471982
 30
0.0
 11
233.7087872547
 21
136.8726945641
 31
0.0
  0
MTEXT
  5
275
330
26D
100
AcDbEntity
  8
VERMASSUNG
100
AcDbMText
 10
231.1087873711
 20
131.6726940843
 30
0.1
 40
2.0
 41
0.0
 71
     1
 72
     1
  1
M
  7
SLDTEXTSTYLE0
 11
6.123233995736766E-17
 21
1.0
 31
0.0
 73
     1
 44
1.0
  0
MTEXT
  5
276
330
26D
100
AcDbEntity
  8
VERMASSUNG
100
AcDbMText
 10
231.1087873711
 20
133.4726941698
 30
0.1
 40
2.0
 41
0.0
 71
     1
 72
     1
  1
4
  7
SLDTEXTSTYLE0
 11
6.123233995736766E-17
 21
1.0
 31
0.0
 73
     1
 44
1.0
  0
ENDBLK
  5
26F
330
26D
100
AcDbEntity
  8
0
100
AcDbBlockEnd
  0
BLOCK
  5
279
330
278
100
AcDbEntity
  8
0
100
AcDbBlockBegin
  2
_D_3
 70
     0
 10
0.0
 20
0.0
 30
0.0
  3
_D_3
  1

  0
SOLID
  5
27B
330
278
100
AcDbEntity
  8
VERMASSUNG
100
AcDbTrace
 10
212.6334346143
 20
105.4616929487
 30
0.0
 11
212.1834346143
 21
102.4616929487
 31
0.0
 12
213.0834346143
 22
102.4616929487
 32
0.0
 13
213.0834346143
 23
102.4616929487
 33
0.0
  0
SOLID
  5
27C
330
278
100
AcDbEntity
  8
VERMASSUNG
100
AcDbTrace
 10
212.6334346143
 20
130.4616929487
 30
0.0
 11
213.0834346143
 21
133.4616929487
 31
0.0
 12
212.1834346143
 22
133.4616929487
 32
0.0
 13
212.1834346143
 23
133.4616929487
 33
0.0
  0
LINE
  5
27D
330
278
100
AcDbEntity
  8
VERMASSUNG
100
AcDbLine
 10
212.6334346143
 20
105.4616929487
 30
0.0
 11
212.6334346143
 21
99.4616929487
 31
0.0
  0
LINE
  5
27E
330
278
100
AcDbEntity
  8
VERMASSUNG
100
AcDbLine
 10
212.6334346143
 20
105.4616929487
 30
0.0
 11
212.6334346143
 21
130.4616929487
 31
0.0
  0
LINE
  5
27F
330
278
100
AcDbEntity
  8
VERMASSUNG
100
AcDbLine
 10
212.6334346143
 20
130.4616929487
 30
0.0
 11
212.6334346143
 21
141.1937288731
 31
0.0
  0
MTEXT
  5
280
330
278
100
AcDbEntity
  8
VERMASSUNG
100
AcDbMText
 10
210.0334346143
 20
132.9837292223
 30
0.1
 40
2.0
 41
0.0
 71
     1
 72
     1
  1
%%c
  7
SLDTEXTSTYLE0
 11
6.123233995736766E-17
 21
1.0
 31
0.0
 73
     1
 44
1.0
  0
MTEXT
  5
281
330
278
100
AcDbEntity
  8
VERMASSUNG
100
AcDbMText
 10
209.8334346048
 20
136.5937292367
 30
0.1
 40
2.0
 41
0.0
 71
     1
 72
     1
  1
25
  7
SLDTEXTSTYLE0
 11
6.123233995736766E-17
 21
1.0
 31
0.0
 73
     1
 44
1.0
  0
ENDBLK
  5
27A
330
278
100
AcDbEntity
  8
0
100
AcDbBlockEnd
  0
BLOCK
  5
285
330
284
100
AcDbEntity
  8
0
100
AcDbBlockBegin
  2
_D_4
 70
     0
 10
0.0
 20
0.0
 30
0.0
  3
_D_4
  1

  0
SOLID
  5
287
330
284
100
AcDbEntity
  8
VERMASSUNG
100
AcDbTrace
 10
195.4960375353
 20
131.6332658239
 30
0.0
 11
197.9558581892
 21
133.4085918082
 31
0.0
 12
197.3267239841
 22
134.0521678736
 32
0.0
 13
197.3267239841
 23
134.0521678736
 33
0.0
  0
LINE
  5
288
330
284
100
AcDbEntity
  8
VERMASSUNG
100
AcDbLine
 10
195.4960375353
 20
131.6332658239
 30
0.0
 11
203.4490022038
 21
139.4077657996
 31
0.0
  0
MTEXT
  5
289
330
284
100
AcDbEntity
  8
VERMASSUNG
100
AcDbMText
 10
198.0749904989
 20
137.7107091922
 30
0.1
 40
2.0
 41
0.0
 71
     1
 72
     1
  1
R4
  7
SLDTEXTSTYLE0
 11
0.7071067811865486
 21
0.7071067811865465
 31
0.0
 73
     1
 44
1.0
  0
ENDBLK
  5
286
330
284
100
AcDbEntity
  8
0
100
AcDbBlockEnd
  0
BLOCK
  5
28C
330
28B
100
AcDbEntity
  8
0
100
AcDbBlockBegin
  2
_D_5
 70
     0
 10
0.0
 20
0.0
 30
0.0
  3
_D_5
  1

  0
SOLID
  5
28E
330
28B
100
AcDbEntity
  8
VERMASSUNG
100
AcDbTrace
 10
134.32446466
 20
92.9616929487
 30
0.0
 11
134.77446466
 21
95.9616929487
 31
0.0
 12
133.87446466
 22
95.9616929487
 32
0.0
 13
133.87446466
 23
95.9616929487
 33
0.0
  0
SOLID
  5
28F
330
28B
100
AcDbEntity
  8
VERMASSUNG
100
AcDbTrace
 10
134.32446466
 20
142.9616929487
 30
0.0
 11
133.87446466
 21
139.9616929487
 31
0.0
 12
134.77446466
 22
139.9616929487
 32
0.0
 13
134.77446466
 23
139.9616929487
 33
0.0
  0
LINE
  5
290
330
28B
100
AcDbEntity
  8
VERMASSUNG
100
AcDbLine
 10
174.62446466
 20
92.9616929487
 30
0.0
 11
133.32446466
 21
92.9616929487
 31
0.0
  0
LINE
  5
291
330
28B
100
AcDbEntity
  8
VERMASSUNG
100
AcDbLine
 10
174.62446466
 20
142.9616929487
 30
0.0
 11
133.32446466
 21
142.9616929487
 31
0.0
  0
LINE
  5
292
330
28B
100
AcDbEntity
  8
VERMASSUNG
100
AcDbLine
 10
134.32446466
 20
92.9616929487
 30
0.0
 11
134.32446466
 21
142.9616929487
 31
0.0
  0
MTEXT
  5
293
330
28B
100
AcDbEntity
  8
VERMASSUNG
100
AcDbMText
 10
131.5244646505
 20
110.9566924617
 30
0.1
 40
2.0
 41
0.0
 71
     1
 72
     1
  1
PSC 
  7
SLDTEXTSTYLE0
 11
6.123233995736766E-17
 21
1.0
 31
0.0
 73
     1
 44
1.0
  0
MTEXT
  5
294
330
28B
100
AcDbEntity
  8
VERMASSUNG
100
AcDbMText
 10
131.72446466
 20
116.7566928536
 30
0.1
 40
2.0
 41
0.0
 71
     1
 72
     1
  1
%%c
  7
SLDTEXTSTYLE0
 11
6.123233995736766E-17
 21
1.0
 31
0.0
 73
     1
 44
1.0
  0
MTEXT
  5
295
330
28B
100
AcDbEntity
  8
VERMASSUNG
100
AcDbMText
 10
131.5244646505
 20
120.3666928679
 30
0.1
 40
2.0
 41
0.0
 71
     1
 72
     1
  1
50
  7
SLDTEXTSTYLE0
 11
6.123233995736766E-17
 21
1.0
 31
0.0
 73
     1
 44
1.0
  0
ENDBLK
  5
28D
330
28B
100
AcDbEntity
  8
0
100
AcDbBlockEnd
  0
BLOCK
  5
3F2
330
3F1
100
AcDbEntity
  8
0
100
AcDbBlockBegin
  2
SW_CENTERMARKSYMBOL_0
 70
     0
 10
0.0
 20
0.0
 30
0.0
  3
SW_CENTERMARKSYMBOL_0
  1

  0
LINE
  5
3F4
330
3F1
100
AcDbEntity
  8
VERMASSUNG
 62
     0
100
AcDbLine
 10
0.0
 20
0.0
 30
0.0
 11
0.0
 21
2.5
 31
0.0
  0
LINE
  5
3F5
330
3F1
100
AcDbEntity
  8
VERMASSUNG
 62
     0
100
AcDbLine
 10
0.0
 20
0.0
 30
0.0
 11
-2.5
 21
0.0
 31
0.0
  0
LINE
  5
3F6
330
3F1
100
AcDbEntity
  8
VERMASSUNG
 62
     0
100
AcDbLine
 10
0.0
 20
0.0
 30
0.0
 11
0.0
 21
-2.5
 31
0.0
  0
LINE
  5
3F7
330
3F1
100
AcDbEntity
  8
VERMASSUNG
 62
     0
100
AcDbLine
 10
0.0
 20
0.0
 30
0.0
 11
2.5
 21
0.0
 31
0.0
  0
LINE
  5
3F8
330
3F1
100
AcDbEntity
  8
VERMASSUNG
 62
     0
100
AcDbLine
 10
0.0
 20
5.0
 30
0.0
 11
0.0
 21
34.0
 31
0.0
  0
LINE
  5
3F9
330
3F1
100
AcDbEntity
  8
VERMASSUNG
 62
     0
100
AcDbLine
 10
-5.0
 20
0.0
 30
0.0
 11
-34.0
 21
0.0
 31
0.0
  0
LINE
  5
3FA
330
3F1
100
AcDbEntity
  8
VERMASSUNG
 62
     0
100
AcDbLine
 10
0.0
 20
-5.0
 30
0.0
 11
0.0
 21
-34.0
 31
0.0
  0
LINE
  5
3FB
330
3F1
100
AcDbEntity
  8
VERMASSUNG
 62
     0
100
AcDbLine
 10
5.0
 20
0.0
 30
0.0
 11
34.0
 21
0.0
 31
0.0
  0
ENDBLK
  5
3F3
330
3F1
100
AcDbEntity
  8
0
100
AcDbBlockEnd
  0
ENDSEC
  0
SECTION
  2
ENTITIES
  0
MTEXT
  5
4B
330
1F
100
AcDbEntity
  8
KOPF_DÜNN
100
AcDbMText
 10
13.8892156294
 20
23.8770940835
 30
0.0
 40
3.0
 41
0.0
 71
     1
 72
     1
  1
PS5.WK3.025.090
  7
SLDTEXTSTYLE0
 73
     1
 44
1.0
  0
MTEXT
  5
4C
330
1F
100
AcDbEntity
  8
VERMASSUNG
100
AcDbMText
 10
13.9329988022
 20
28.9162328764
 30
0.0
 40
3.0
 41
0.0
 71
     1
 72
     1
  1
Bohrstange  ø25
  7
SLDTEXTSTYLE0
 73
     1
 44
1.0
  0
MTEXT
  5
4D
330
1F
100
AcDbEntity
  8
VERMASSUNG
100
AcDbMText
 10
98.8601118557
 20
13.8584013384
 30
0.0
 40
2.0
 41
0.0
 71
     1
 72
     1
  1
Datum: 06.05.2015
  7
SLDTEXTSTYLE0
 73
     1
 44
1.0
  0
MTEXT
  5
4E
330
1F
100
AcDbEntity
  8
VERMASSUNG
100
AcDbMText
 10
13.933048693
 20
18.0701447943
 30
0.0
 40
2.0
 41
0.0
 71
     1
 72
     1
  1
PSC ø50 / Wechselkopf-Bohrstange
  7
SLDTEXTSTYLE0
 73
     1
 44
1.0
  0
MTEXT
  5
4F
330
1F
100
AcDbEntity
  8
VERMASSUNG
100
AcDbMText
 10
13.9808475933
 20
13.9309618897
 30
0.0
 40
2.0
 41
0.0
 71
     1
 72
     1
  1
Gewicht: 544g
  7
SLDTEXTSTYLE0
 73
     1
 44
1.0
  0
LINE
  5
50
330
1F
100
AcDbEntity
  8
0
  6
SLD-Durchgehend
 62
     7
370
    15
100
AcDbLine
 10
188.2997313883
 20
92.9616929487
 30
0.0
 11
193.72446466
 21
92.9616929487
 31
0.0
  0
LINE
  5
51
330
1F
100
AcDbEntity
  8
0
  6
SLD-Durchgehend
 62
     7
370
    15
100
AcDbLine
 10
174.62446466
 20
92.9616929487
 30
0.0
 11
184.32446466
 21
92.9616929487
 31
0.0
  0
LINE
  5
52
330
1F
100
AcDbEntity
  8
0
  6
SLD-Durchgehend
 62
     7
370
    15
100
AcDbLine
 10
193.72446466
 20
142.9616929487
 30
0.0
 11
174.62446466
 21
142.9616929487
 31
0.0
  0
ARC
  5
53
330
1F
100
AcDbEntity
  8
0
  6
SLD-Durchgehend
 62
     7
370
    15
100
AcDbCircle
 10
174.62446466
 20
93.2616929487
 30
0.0
 40
0.3000000000000114
100
AcDbArc
 50
180.0
 51
270.0
  0
ARC
  5
54
330
1F
100
AcDbEntity
  8
0
  6
SLD-Durchgehend
 62
     7
370
    15
100
AcDbCircle
 10
174.62446466
 20
142.6616929487
 30
0.0
 40
0.3000000000000114
100
AcDbArc
 50
90.0
 51
180.0
  0
ARC
  5
55
330
1F
100
AcDbEntity
  8
0
  6
SLD-Durchgehend
 62
     7
370
    15
100
AcDbCircle
 10
193.72446466
 20
93.5616929487
 30
0.0
 40
0.5999999999999943
100
AcDbArc
 50
270.0
 51
0.0
  0
ARC
  5
56
330
1F
100
AcDbEntity
  8
0
  6
SLD-Durchgehend
 62
     7
370
    15
100
AcDbCircle
 10
193.72446466
 20
142.3616929487
 30
0.0
 40
0.6000000000000227
100
AcDbArc
 50
0.0
 51
90.0
  0
LWPOLYLINE
  5
57
330
1F
100
AcDbEntity
  8
0
  6
SLD-Durchgehend
 62
     7
370
    15
100
AcDbPolyline
 90
        3
 70
   128
 43
0.0
 10
174.12446466
 20
100.1218726698
 10
174.2499196035
 20
100.0535705548
 10
174.32446466
 20
100.0008327967
  0
ARC
  5
58
330
1F
100
AcDbEntity
  8
0
  6
SLD-Durchgehend
 62
     7
370
    15
100
AcDbCircle
 10
173.7102510976
 20
136.7116929487
 30
0.0
 40
1.000000000000028
100
AcDbArc
 50
225.0
 51
307.8947985336
  0
ARC
  5
59
330
1F
100
AcDbEntity
  8
0
  6
SLD-Durchgehend
 62
     7
370
    15
100
AcDbCircle
 10
198.32446466
 20
101.4616929487
 30
0.0
 40
4.000000000000014
100
AcDbArc
 50
90.0
 51
180.0
  0
ARC
  5
5A
330
1F
100
AcDbEntity
  8
0
  6
SLD-Durchgehend
 62
     7
370
    15
100
AcDbCircle
 10
198.32446466
 20
134.4616929487
 30
0.0
 40
4.0
100
AcDbArc
 50
180.0
 51
270.0
  0
LINE
  5
5B
330
1F
100
AcDbEntity
  8
0
  6
SLD-Durchgehend
 62
     7
370
    15
100
AcDbLine
 10
228.82446466
 20
130.4616929487
 30
0.0
 11
198.32446466
 21
130.4616929487
 31
0.0
  0
LINE
  5
5C
330
1F
100
AcDbEntity
  8
0
  6
SLD-Durchgehend
 62
     7
370
    15
100
AcDbLine
 10
198.32446466
 20
105.4616929487
 30
0.0
 11
228.82446466
 21
105.4616929487
 31
0.0
  0
LINE
  5
5D
330
1F
100
AcDbEntity
  8
0
  6
SLD-Durchgehend
 62
     7
370
    15
100
AcDbLine
 10
228.82446466
 20
105.4616929487
 30
0.0
 11
229.599281145
 21
106.2365094337
 31
0.0
  0
LINE
  5
5E
330
1F
100
AcDbEntity
  8
0
  6
SLD-Durchgehend
 62
     7
370
    15
100
AcDbLine
 10
229.599281145
 20
129.6868764637
 30
0.0
 11
228.82446466
 21
130.4616929487
 31
0.0
  0
ARC
  5
5F
330
1F
100
AcDbEntity
  8
0
  6
SLD-Durchgehend
 62
     7
370
    15
100
AcDbCircle
 10
172.324401571
 20
101.556571053
 30
0.0
 40
0.2000000000000052
100
AcDbArc
 50
88.5608333333
 51
178.5608333333
  0
LINE
  5
60
330
1F
100
AcDbEntity
  8
0
  6
SLD-Durchgehend
 62
     7
370
    15
100
AcDbLine
 10
163.7652818971
 20
101.771605931
 30
0.0
 11
172.12446466
 21
101.5615941641
 31
0.0
  0
LINE
  5
61
330
1F
100
AcDbEntity
  8
0
  6
SLD-Durchgehend
 62
     7
370
    15
100
AcDbLine
 10
151.7023757531
 20
102.0746681208
 30
0.0
 11
157.044622802
 21
101.9404522801
 31
0.0
  0
LINE
  5
62
330
1F
100
AcDbEntity
  8
0
  6
SLD-Durchgehend
 62
     7
370
    15
100
AcDbLine
 10
172.3294246821
 20
101.7565079639
 30
0.0
 11
173.9294877711
 21
101.7163088098
 31
0.0
  0
ARC
  5
63
330
1F
100
AcDbEntity
  8
0
  6
SLD-Durchgehend
 62
     7
370
    15
100
AcDbCircle
 10
173.92446466
 20
101.5163718988
 30
0.0
 40
0.2000000000000171
100
AcDbArc
 50
0.0
 51
88.5608333333
  0
ARC
  5
64
330
1F
100
AcDbEntity
  8
0
  6
SLD-Durchgehend
 62
     7
370
    15
100
AcDbCircle
 10
172.324401571
 20
136.6068148444
 30
0.0
 40
0.2000000000000066
100
AcDbArc
 50
181.4391666666
 51
271.4391666667
  0
LINE
  5
65
330
1F
100
AcDbEntity
  8
0
  6
SLD-Durchgehend
 62
     7
370
    15
100
AcDbLine
 10
172.12446466
 20
136.6017917332
 30
0.0
 11
145.82446466
 21
135.9410441906
 31
0.0
  0
LINE
  5
66
330
1F
100
AcDbEntity
  8
0
  6
SLD-Durchgehend
 62
     7
370
    15
100
AcDbLine
 10
172.6037383776
 20
136.4137696483
 30
0.0
 11
172.3294246821
 21
136.4068779334
 31
0.0
  0
LINE
  5
67
330
1F
100
AcDbEntity
  8
0
  6
SLD-Durchgehend
 62
     7
370
    15
100
AcDbLine
 10
145.82446466
 20
135.9410441906
 30
0.0
 11
144.32446466
 21
135.0750187868
 31
0.0
  0
LINE
  5
68
330
1F
100
AcDbEntity
  8
0
  6
SLD-Durchgehend
 62
     7
370
    15
100
AcDbLine
 10
173.0031443165
 20
136.0045861675
 30
0.0
 11
172.6105832942
 21
136.3971471897
 31
0.0
  0
LINE
  5
69
330
1F
100
AcDbEntity
  8
0
  6
SLD-Durchgehend
 62
     7
370
    15
100
AcDbLine
 10
238.62446466
 20
127.1185471982
 30
0.0
 11
234.82446466
 21
127.1185471982
 31
0.0
  0
LINE
  5
6A
330
1F
100
AcDbEntity
  8
0
  6
SLD-Durchgehend
 62
     7
370
    15
100
AcDbLine
 10
234.82446466
 20
120.1185471982
 30
0.0
 11
238.62446466
 21
120.1185471982
 31
0.0
  0
ARC
  5
6B
330
1F
100
AcDbEntity
  8
0
  6
SLD-Durchgehend
 62
     7
370
    15
100
AcDbCircle
 10
238.62446466
 20
126.9185471982
 30
0.0
 40
0.2000000000000171
100
AcDbArc
 50
0.0
 51
90.0
  0
ARC
  5
6C
330
1F
100
AcDbEntity
  8
0
  6
SLD-Durchgehend
 62
     7
370
    15
100
AcDbCircle
 10
238.62446466
 20
120.3185471982
 30
0.0
 40
0.2000000000000171
100
AcDbArc
 50
270.0
 51
0.0
  0
ARC
  5
6D
330
1F
100
AcDbEntity
  8
0
  6
SLD-Durchgehend
 62
     7
370
    15
100
AcDbCircle
 10
234.62446466
 20
121.4185471982
 30
0.0
 40
0.2000000000000171
100
AcDbArc
 50
0.0
 51
90.0
  0
ARC
  5
6E
330
1F
100
AcDbEntity
  8
0
  6
SLD-Durchgehend
 62
     7
370
    15
100
AcDbCircle
 10
234.62446466
 20
125.8185471982
 30
0.0
 40
0.2000000000000171
100
AcDbArc
 50
270.0
 51
0.0
  0
LINE
  5
6F
330
1F
100
AcDbEntity
  8
0
  6
SLD-Durchgehend
 62
     7
370
    15
100
AcDbLine
 10
234.62446466
 20
125.6185471982
 30
0.0
 11
229.0561441895
 21
125.6185471982
 31
0.0
  0
LINE
  5
70
330
1F
100
AcDbEntity
  8
0
  6
SLD-Durchgehend
 62
     7
370
    15
100
AcDbLine
 10
228.9496652633
 20
121.6185471982
 30
0.0
 11
234.62446466
 21
121.6185471982
 31
0.0
  0
LINE
  5
71
330
1F
100
AcDbEntity
  8
0
  6
SLD-Durchgehend
 62
     7
370
    15
100
AcDbLine
 10
238.62446466
 20
115.8048386992
 30
0.0
 11
234.82446466
 21
115.8048386992
 31
0.0
  0
LINE
  5
72
330
1F
100
AcDbEntity
  8
0
  6
SLD-Durchgehend
 62
     7
370
    15
100
AcDbLine
 10
234.82446466
 20
108.8048386992
 30
0.0
 11
238.62446466
 21
108.8048386992
 31
0.0
  0
ARC
  5
73
330
1F
100
AcDbEntity
  8
0
  6
SLD-Durchgehend
 62
     7
370
    15
100
AcDbCircle
 10
238.62446466
 20
115.6048386992
 30
0.0
 40
0.2000000000000171
100
AcDbArc
 50
0.0
 51
90.0
  0
ARC
  5
74
330
1F
100
AcDbEntity
  8
0
  6
SLD-Durchgehend
 62
     7
370
    15
100
AcDbCircle
 10
238.62446466
 20
109.0048386992
 30
0.0
 40
0.2000000000000171
100
AcDbArc
 50
270.0
 51
0.0
  0
ARC
  5
75
330
1F
100
AcDbEntity
  8
0
  6
SLD-Durchgehend
 62
     7
370
    15
100
AcDbCircle
 10
234.62446466
 20
110.1048386992
 30
0.0
 40
0.2000000000000171
100
AcDbArc
 50
0.0
 51
90.0
  0
ARC
  5
76
330
1F
100
AcDbEntity
  8
0
  6
SLD-Durchgehend
 62
     7
370
    15
100
AcDbCircle
 10
234.62446466
 20
114.5048386992
 30
0.0
 40
0.2000000000000171
100
AcDbArc
 50
270.0
 51
0.0
  0
LINE
  5
77
330
1F
100
AcDbEntity
  8
0
  6
SLD-Durchgehend
 62
     7
370
    15
100
AcDbLine
 10
234.62446466
 20
114.3048386992
 30
0.0
 11
228.9501831942
 21
114.3048386992
 31
0.0
  0
LINE
  5
78
330
1F
100
AcDbEntity
  8
0
  6
SLD-Durchgehend
 62
     7
370
    15
100
AcDbLine
 10
229.0561441895
 20
110.3048386992
 30
0.0
 11
234.62446466
 21
110.3048386992
 31
0.0
  0
ARC
  5
79
330
1F
100
AcDbEntity
  8
0
  6
SLD-Durchgehend
 62
     7
370
    15
100
AcDbCircle
 10
186.3243999615
 20
68.0052607576
 30
0.0
 40
25.03643842314929
100
AcDbArc
 50
85.4747594988
 51
94.5817246457
  0
ARC
  5
7A
330
1F
100
AcDbEntity
  8
0
  6
SLD-Durchgehend
 62
     7
370
    15
100
AcDbCircle
 10
182.8177073713
 20
94.6746754963
 30
0.0
 40
0.5408161068199695
100
AcDbArc
 50
222.5365033277
 51
273.6590204613
  0
LINE
  5
7B
330
1F
100
AcDbEntity
  8
0
  6
SLD-Durchgehend
 62
     7
370
    15
100
AcDbLine
 10
185.7967078465
 20
94.1349618332
 30
0.0
 11
182.8522214736
 21
94.1349618332
 31
0.0
  0
ARC
  5
7C
330
1F
100
AcDbEntity
  8
0
  6
SLD-Durchgehend
 62
     7
370
    15
100
AcDbCircle
 10
185.8147795776
 20
94.715572563
 30
0.0
 40
0.5808919065627164
100
AcDbArc
 50
268.2172224997
 51
315.5872537113
  0
ELLIPSE
  5
7D
330
1F
100
AcDbEntity
  8
0
  6
SLD-Durchgehend
 62
     7
370
    15
100
AcDbEllipse
 10
173.268207005
 20
117.9616929487
 30
0.0
 11
-11.70927234972723
 21
24.67718644093744
 31
0.0
210
0.0
220
0.0
230
1.0
 40
0.3419987131
 41
3.310521928178948
 42
4.221709151398938
  0
ARC
  5
7E
330
1F
100
AcDbEntity
  8
0
  6
SLD-Durchgehend
 62
     7
370
    15
100
AcDbCircle
 10
185.6156122343
 20
109.8027675677
 30
0.0
 40
0.6172777494618004
100
AcDbArc
 50
5.8086374981
 51
72.9397090458
  0
LINE
  5
7F
330
1F
100
AcDbEntity
  8
0
  6
SLD-Durchgehend
 62
     7
370
    15
100
AcDbLine
 10
182.8522214736
 20
110.3928829795
 30
0.0
 11
185.7967078465
 21
110.3928829795
 31
0.0
  0
LWPOLYLINE
  5
80
330
1F
100
AcDbEntity
  8
0
  6
SLD-Durchgehend
 62
     7
370
    15
100
AcDbPolyline
 90
        6
 70
   128
 43
0.0
 10
182.4192087717
 20
109.8652399506
 10
182.5522033778
 20
110.184115554
 10
182.6313041503
 20
110.2858559598
 10
182.7367045952
 20
110.3648200383
 10
182.8170215127
 20
110.3903115434
 10
182.8522214736
 20
110.3928829795
  0
ELLIPSE
  5
81
330
1F
100
AcDbEntity
  8
0
  6
SLD-Durchgehend
 62
     7
370
    15
100
AcDbEllipse
 10
195.380722315
 20
117.9616929487
 30
0.0
 11
11.70927234972711
 21
24.67718644093743
 31
0.0
210
0.0
220
0.0
230
1.0
 40
0.3419987131
 41
2.061476155780661
 42
2.97266337900068
  0
ARC
  5
82
330
1F
100
AcDbEntity
  8
0
  6
SLD-Durchgehend
 62
     7
370
    15
100
AcDbCircle
 10
183.0333170857
 20
126.1206183297
 30
0.0
 40
0.6172777494633326
100
AcDbArc
 50
185.8086374982
 51
252.9397090457
  0
LINE
  5
83
330
1F
100
AcDbEntity
  8
0
  6
SLD-Durchgehend
 62
     7
370
    15
100
AcDbLine
 10
185.7967078465
 20
125.5305029179
 30
0.0
 11
182.8522214736
 21
125.5305029179
 31
0.0
  0
LWPOLYLINE
  5
84
330
1F
100
AcDbEntity
  8
0
  6
SLD-Durchgehend
 62
     7
370
    15
100
AcDbPolyline
 90
        6
 70
   128
 43
0.0
 10
186.2297205483
 20
126.0581459467
 10
186.1057951159
 20
125.7539233872
 10
186.0269414192
 20
125.6473663442
 10
185.9209881301
 20
125.5630616173
 10
185.8405537764
 20
125.5344956398
 10
185.7967078465
 20
125.5305029179
  0
ELLIPSE
  5
85
330
1F
100
AcDbEntity
  8
0
  6
SLD-Durchgehend
 62
     7
370
    15
100
AcDbEllipse
 10
173.268207005
 20
117.9616929487
 30
0.0
 11
11.70927234972717
 21
24.67718644093743
 31
0.0
210
0.0
220
0.0
230
1.0
 40
0.3419987131
 41
5.20306880937046
 42
6.114256032590506
  0
ARC
  5
86
330
1F
100
AcDbEntity
  8
0
  6
SLD-Durchgehend
 62
     7
370
    15
100
AcDbCircle
 10
185.8312219488
 20
141.2487104011
 30
0.0
 40
0.540816106821851
100
AcDbArc
 50
42.5365033278
 51
93.6590204612
  0
LINE
  5
87
330
1F
100
AcDbEntity
  8
0
  6
SLD-Durchgehend
 62
     7
370
    15
100
AcDbLine
 10
182.8522214736
 20
141.7884240642
 30
0.0
 11
185.7967078465
 21
141.7884240642
 31
0.0
  0
ARC
  5
88
330
1F
100
AcDbEntity
  8
0
  6
SLD-Durchgehend
 62
     7
370
    15
100
AcDbCircle
 10
182.8329826246
 20
141.2107163035
 30
0.0
 40
0.5780280184239593
100
AcDbArc
 50
88.0926383514
 51
135.7118378596
  0
ELLIPSE
  5
89
330
1F
100
AcDbEntity
  8
0
  6
SLD-Durchgehend
 62
     7
370
    15
100
AcDbEllipse
 10
195.380722315
 20
117.9616929487
 30
0.0
 11
-11.70927234972703
 21
24.67718644093743
 31
0.0
210
0.0
220
0.0
230
1.0
 40
0.3419987131
 41
0.168929274589123
 42
1.080116497809139
  0
LINE
  5
8A
330
1F
100
AcDbEntity
  8
0
  6
SLD-Durchgehend
 62
     7
370
    15
100
AcDbLine
 10
174.32446466
 20
117.9616929487
 30
0.0
 11
174.32446466
 21
142.6616929487
 31
0.0
  0
LINE
  5
8B
330
1F
100
AcDbEntity
  8
0
  6
SLD-Durchgehend
 62
     7
370
    15
100
AcDbLine
 10
174.32446466
 20
93.2616929487
 30
0.0
 11
174.32446466
 21
117.9616929487
 31
0.0
  0
LINE
  5
8C
330
1F
100
AcDbEntity
  8
0
  6
SLD-Durchgehend
 62
     7
370
    15
100
AcDbLine
 10
194.32446466
 20
117.9616929487
 30
0.0
 11
194.32446466
 21
93.5616929487
 31
0.0
  0
LINE
  5
8D
330
1F
100
AcDbEntity
  8
0
  6
SLD-Durchgehend
 62
     7
370
    15
100
AcDbLine
 10
194.32446466
 20
142.3616929487
 30
0.0
 11
194.32446466
 21
117.9616929487
 31
0.0
  0
LINE
  5
8E
330
1F
100
AcDbEntity
  8
0
  6
SLD-Durchgehend
 62
     7
370
    15
100
AcDbLine
 10
174.12446466
 20
104.3759282613
 30
0.0
 11
174.12446466
 21
100.1218726698
 31
0.0
  0
LWPOLYLINE
  5
8F
330
1F
100
AcDbEntity
  8
0
  6
SLD-Durchgehend
 62
     7
370
    15
100
AcDbPolyline
 90
        9
 70
   128
 43
0.0
 10
174.12446466
 20
104.3759282613
 10
174.087478532
 20
104.68493894
 10
174.0666613972
 20
104.7405552669
 10
174.0324789957
 20
104.7959088099
 10
174.0102528773
 20
104.8167811281
 10
173.9922406818
 20
104.8272065612
 10
173.9719368367
 20
104.8330168795
 10
173.9543981744
 20
104.8334578066
 10
173.9294877711
 20
104.8272850859
  0
ARC
  5
90
330
1F
100
AcDbEntity
  8
0
  6
SLD-Durchgehend
 62
     7
370
    15
100
AcDbCircle
 10
173.7402758796
 20
105.3599127111
 30
0.0
 40
0.5652374076975512
100
AcDbArc
 50
216.1058248502
 51
289.5571931525
  0
LINE
  5
91
330
1F
100
AcDbEntity
  8
0
  6
SLD-Durchgehend
 62
     7
370
    15
100
AcDbLine
 10
173.2836036319
 20
105.0268304611
 30
0.0
 11
173.0031443165
 21
105.5493705627
 31
0.0
  0
ARC
  5
92
330
1F
100
AcDbEntity
  8
0
  6
SLD-Durchgehend
 62
     7
370
    15
100
AcDbCircle
 10
177.1232603383
 20
112.1352036021
 30
0.0
 40
4.177826024833909
100
AcDbArc
 50
156.7884854033
 51
170.4656915548
  0
LWPOLYLINE
  5
93
330
1F
100
AcDbEntity
  8
0
  6
SLD-Durchgehend
 62
     7
370
    15
100
AcDbPolyline
 90
        8
 70
   128
 43
0.0
 10
173.2836036319
 20
113.7817960442
 10
173.4462942088
 20
114.0576711596
 10
173.5390846683
 20
114.1577056074
 10
173.6572507742
 20
114.2288202752
 10
173.7358569888
 20
114.2420195015
 10
173.8144468655
 20
114.2280482764
 10
173.9071208228
 20
114.1761503507
 10
173.9294877711
 20
114.1577562844
  0
LWPOLYLINE
  5
94
330
1F
100
AcDbEntity
  8
0
  6
SLD-Durchgehend
 62
     7
370
    15
100
AcDbPolyline
 90
       10
 70
   128
 43
0.0
 10
173.9294877711
 20
114.1577562844
 10
173.9508647277
 20
114.1428989205
 10
173.9707378447
 20
114.1361235737
 10
173.9913365431
 20
114.136768695
 10
174.0075111811
 20
114.1433528633
 10
174.0296299794
 20
114.1625152548
 10
174.0593619691
 20
114.2125433253
 10
174.0891776201
 20
114.3087903937
 10
174.1067680366
 20
114.4117400455
 10
174.12446466
 20
114.741352081
  0
LINE
  5
95
330
1F
100
AcDbEntity
  8
0
  6
SLD-Durchgehend
 62
     7
370
    15
100
AcDbLine
 10
174.12446466
 20
134.7677985038
 30
0.0
 11
174.12446466
 21
114.741352081
 31
0.0
  0
LWPOLYLINE
  5
96
330
1F
100
AcDbEntity
  8
0
  6
SLD-Durchgehend
 62
     7
370
    15
100
AcDbPolyline
 90
       10
 70
   128
 43
0.0
 10
174.12446466
 20
134.7677985038
 10
174.1173588565
 20
134.8391404957
 10
174.087478532
 20
134.8988008697
 10
174.0666613972
 20
134.9139117606
 10
174.0324789957
 20
134.9232036924
 10
174.0102528773
 20
134.9232450575
 10
173.9922406818
 20
134.920883538
 10
173.9719368367
 20
134.9161215513
 10
173.9543981744
 20
134.9104320057
 10
173.9294877711
 20
134.9000374757
  0
ARC
  5
97
330
1F
100
AcDbEntity
  8
0
  6
SLD-Durchgehend
 62
     7
370
    15
100
AcDbCircle
 10
173.7181738065
 20
135.3969339524
 30
0.0
 40
0.5399626840421946
100
AcDbArc
 50
216.4075882099
 51
293.0384766656
  0
LINE
  5
98
330
1F
100
AcDbEntity
  8
0
  6
SLD-Durchgehend
 62
     7
370
    15
100
AcDbLine
 10
173.0031443165
 20
135.508497268
 30
0.0
 11
173.2836036319
 21
135.0764523407
 31
0.0
  0
ARC
  5
99
330
1F
100
AcDbEntity
  8
0
  6
SLD-Durchgehend
 62
     7
370
    15
100
AcDbCircle
 10
188.8345675526
 20
109.188290789
 30
0.0
 40
16.24425135537934
100
AcDbArc
 50
167.0551659611
 51
192.9448340389
  0
LINE
  5
9A
330
1F
100
AcDbEntity
  8
0
  6
SLD-Durchgehend
 62
     7
370
    15
100
AcDbLine
 10
145.82446466
 20
105.4510149341
 30
0.0
 11
145.82446466
 21
113.7817960442
 31
0.0
  0
LINE
  5
9B
330
1F
100
AcDbEntity
  8
0
  6
SLD-Durchgehend
 62
     7
370
    15
100
AcDbLine
 10
172.12446466
 20
104.8787907767
 30
0.0
 11
172.12446466
 21
113.7817960442
 31
0.0
  0
LINE
  5
9C
330
1F
100
AcDbEntity
  8
0
  6
SLD-Durchgehend
 62
     7
370
    15
100
AcDbLine
 10
145.82446466
 20
113.7817960442
 30
0.0
 11
145.82446466
 21
134.6522678678
 31
0.0
  0
LINE
  5
9D
330
1F
100
AcDbEntity
  8
0
  6
SLD-Durchgehend
 62
     7
370
    15
100
AcDbLine
 10
172.12446466
 20
113.7817960442
 30
0.0
 11
172.12446466
 21
135.2244920252
 31
0.0
  0
LINE
  5
9E
330
1F
100
AcDbEntity
  8
0
  6
SLD-Durchgehend
 62
     7
370
    15
100
AcDbLine
 10
144.32446466
 20
113.7817960442
 30
0.0
 11
144.32446466
 21
133.9022678678
 31
0.0
  0
LINE
  5
9F
330
1F
100
AcDbEntity
  8
0
  6
SLD-Durchgehend
 62
     7
370
    15
100
AcDbLine
 10
144.32446466
 20
106.2010149341
 30
0.0
 11
144.32446466
 21
113.7817960442
 31
0.0
  0
LINE
  5
A0
330
1F
100
AcDbEntity
  8
0
  6
SLD-Durchgehend
 62
     7
370
    15
100
AcDbLine
 10
228.82446466
 20
130.4616929487
 30
0.0
 11
228.82446466
 21
105.4616929487
 31
0.0
  0
LINE
  5
A1
330
1F
100
AcDbEntity
  8
0
  6
SLD-Durchgehend
 62
     7
370
    15
100
AcDbLine
 10
229.5880448949
 20
129.6756402136
 30
0.0
 11
228.96446466
 21
129.3156159971
 31
0.0
  0
ARC
  5
A2
330
1F
100
AcDbEntity
  8
0
  6
SLD-Durchgehend
 62
     7
370
    15
100
AcDbCircle
 10
229.02446466
 20
129.2116929487
 30
0.0
 40
0.1199999999889044
100
AcDbArc
 50
119.9999999908
 51
240.0000000092
  0
LINE
  5
A3
330
1F
100
AcDbEntity
  8
0
  6
SLD-Durchgehend
 62
     7
370
    15
100
AcDbLine
 10
228.96446466
 20
129.1077699002
 30
0.0
 11
229.62446466
 21
128.7267187226
 31
0.0
  0
LINE
  5
A4
330
1F
100
AcDbEntity
  8
0
  6
SLD-Durchgehend
 62
     7
370
    15
100
AcDbLine
 10
229.62446466
 20
128.7267187226
 30
0.0
 11
229.62446466
 21
128.4466671748
 31
0.0
  0
LINE
  5
A5
330
1F
100
AcDbEntity
  8
0
  6
SLD-Durchgehend
 62
     7
370
    15
100
AcDbLine
 10
229.62446466
 20
128.4466671748
 30
0.0
 11
228.96446466
 21
128.0656159971
 31
0.0
  0
LWPOLYLINE
  5
A6
330
1F
100
AcDbEntity
  8
0
  6
SLD-Durchgehend
 62
     7
370
    15
100
AcDbPolyline
 90
        9
 70
   128
 43
0.0
 10
228.96446466
 20
128.0656159971
 10
228.9082968256
 20
127.9917767358
 10
228.9045561668
 20
127.9570075197
 10
228.9088298921
 20
127.9296211473
 10
228.9161041918
 20
127.910137067
 10
228.9252149387
 20
127.8942430205
 10
228.9373908415
 20
127.8791208582
 10
228.9494676083
 20
127.8680156183
 10
228.96446466
 20
127.8577699002
  0
LINE
  5
A7
330
1F
100
AcDbEntity
  8
0
  6
SLD-Durchgehend
 62
     7
370
    15
100
AcDbLine
 10
228.96446466
 20
127.8577699002
 30
0.0
 11
229.62446466
 21
127.4767187226
 31
0.0
  0
LINE
  5
A8
330
1F
100
AcDbEntity
  8
0
  6
SLD-Durchgehend
 62
     7
370
    15
100
AcDbLine
 10
229.62446466
 20
127.4767187226
 30
0.0
 11
229.62446466
 21
127.1966671748
 31
0.0
  0
LINE
  5
A9
330
1F
100
AcDbEntity
  8
0
  6
SLD-Durchgehend
 62
     7
370
    15
100
AcDbLine
 10
229.62446466
 20
127.1966671748
 30
0.0
 11
228.96446466
 21
126.8156159971
 31
0.0
  0
ARC
  5
AA
330
1F
100
AcDbEntity
  8
0
  6
SLD-Durchgehend
 62
     7
370
    15
100
AcDbCircle
 10
229.02446466
 20
126.7116929487
 30
0.0
 40
0.1199999999986673
100
AcDbArc
 50
119.9999999989
 51
240.0000000011
  0
LINE
  5
AB
330
1F
100
AcDbEntity
  8
0
  6
SLD-Durchgehend
 62
     7
370
    15
100
AcDbLine
 10
228.96446466
 20
126.6077699002
 30
0.0
 11
229.62446466
 21
126.2267187226
 31
0.0
  0
LINE
  5
AC
330
1F
100
AcDbEntity
  8
0
  6
SLD-Durchgehend
 62
     7
370
    15
100
AcDbLine
 10
229.62446466
 20
126.2267187226
 30
0.0
 11
229.62446466
 21
125.9466671748
 31
0.0
  0
LINE
  5
AD
330
1F
100
AcDbEntity
  8
0
  6
SLD-Durchgehend
 62
     7
370
    15
100
AcDbLine
 10
229.62446466
 20
125.9466671748
 30
0.0
 11
228.96446466
 21
125.5656159971
 31
0.0
  0
ARC
  5
AE
330
1F
100
AcDbEntity
  8
0
  6
SLD-Durchgehend
 62
     7
370
    15
100
AcDbCircle
 10
229.02446466
 20
125.4616929487
 30
0.0
 40
0.1199999999999889
100
AcDbArc
 50
120.0
 51
240.0
  0
LINE
  5
AF
330
1F
100
AcDbEntity
  8
0
  6
SLD-Durchgehend
 62
     7
370
    15
100
AcDbLine
 10
228.96446466
 20
125.3577699002
 30
0.0
 11
229.62446466
 21
124.9767187226
 31
0.0
  0
LINE
  5
B0
330
1F
100
AcDbEntity
  8
0
  6
SLD-Durchgehend
 62
     7
370
    15
100
AcDbLine
 10
229.62446466
 20
124.9767187226
 30
0.0
 11
229.62446466
 21
124.6966671748
 31
0.0
  0
LINE
  5
B1
330
1F
100
AcDbEntity
  8
0
  6
SLD-Durchgehend
 62
     7
370
    15
100
AcDbLine
 10
229.62446466
 20
124.6966671748
 30
0.0
 11
228.96446466
 21
124.3156159971
 31
0.0
  0
ARC
  5
B2
330
1F
100
AcDbEntity
  8
0
  6
SLD-Durchgehend
 62
     7
370
    15
100
AcDbCircle
 10
229.02446466
 20
124.2116929487
 30
0.0
 40
0.1199999999999889
100
AcDbArc
 50
120.0
 51
240.0
  0
LINE
  5
B3
330
1F
100
AcDbEntity
  8
0
  6
SLD-Durchgehend
 62
     7
370
    15
100
AcDbLine
 10
228.96446466
 20
124.1077699002
 30
0.0
 11
229.62446466
 21
123.7267187226
 31
0.0
  0
LINE
  5
B4
330
1F
100
AcDbEntity
  8
0
  6
SLD-Durchgehend
 62
     7
370
    15
100
AcDbLine
 10
229.62446466
 20
123.7267187226
 30
0.0
 11
229.62446466
 21
123.4466671748
 31
0.0
  0
LINE
  5
B5
330
1F
100
AcDbEntity
  8
0
  6
SLD-Durchgehend
 62
     7
370
    15
100
AcDbLine
 10
229.62446466
 20
123.4466671748
 30
0.0
 11
228.96446466
 21
123.0656159971
 31
0.0
  0
ARC
  5
B6
330
1F
100
AcDbEntity
  8
0
  6
SLD-Durchgehend
 62
     7
370
    15
100
AcDbCircle
 10
229.02446466
 20
122.9616929487
 30
0.0
 40
0.1200000000000173
100
AcDbArc
 50
120.0
 51
240.0
  0
LINE
  5
B7
330
1F
100
AcDbEntity
  8
0
  6
SLD-Durchgehend
 62
     7
370
    15
100
AcDbLine
 10
228.96446466
 20
122.8577699002
 30
0.0
 11
229.62446466
 21
122.4767187226
 31
0.0
  0
LINE
  5
B8
330
1F
100
AcDbEntity
  8
0
  6
SLD-Durchgehend
 62
     7
370
    15
100
AcDbLine
 10
229.62446466
 20
122.4767187226
 30
0.0
 11
229.62446466
 21
122.1966671748
 31
0.0
  0
LINE
  5
B9
330
1F
100
AcDbEntity
  8
0
  6
SLD-Durchgehend
 62
     7
370
    15
100
AcDbLine
 10
229.62446466
 20
122.1966671748
 30
0.0
 11
228.96446466
 21
121.8156159971
 31
0.0
  0
ARC
  5
BA
330
1F
100
AcDbEntity
  8
0
  6
SLD-Durchgehend
 62
     7
370
    15
100
AcDbCircle
 10
229.02446466
 20
121.7116929487
 30
0.0
 40
0.1200000000000173
100
AcDbArc
 50
120.0
 51
240.0
  0
LINE
  5
BB
330
1F
100
AcDbEntity
  8
0
  6
SLD-Durchgehend
 62
     7
370
    15
100
AcDbLine
 10
228.96446466
 20
121.6077699002
 30
0.0
 11
229.62446466
 21
121.2267187226
 31
0.0
  0
LINE
  5
BC
330
1F
100
AcDbEntity
  8
0
  6
SLD-Durchgehend
 62
     7
370
    15
100
AcDbLine
 10
229.62446466
 20
121.2267187226
 30
0.0
 11
229.62446466
 21
120.9466671748
 31
0.0
  0
LINE
  5
BD
330
1F
100
AcDbEntity
  8
0
  6
SLD-Durchgehend
 62
     7
370
    15
100
AcDbLine
 10
229.62446466
 20
120.9466671748
 30
0.0
 11
228.96446466
 21
120.5656159971
 31
0.0
  0
ARC
  5
BE
330
1F
100
AcDbEntity
  8
0
  6
SLD-Durchgehend
 62
     7
370
    15
100
AcDbCircle
 10
229.02446466
 20
120.4616929487
 30
0.0
 40
0.1200000000000315
100
AcDbArc
 50
120.0
 51
240.0
  0
LINE
  5
BF
330
1F
100
AcDbEntity
  8
0
  6
SLD-Durchgehend
 62
     7
370
    15
100
AcDbLine
 10
228.96446466
 20
120.3577699002
 30
0.0
 11
229.62446466
 21
119.9767187226
 31
0.0
  0
LINE
  5
C0
330
1F
100
AcDbEntity
  8
0
  6
SLD-Durchgehend
 62
     7
370
    15
100
AcDbLine
 10
229.62446466
 20
119.9767187226
 30
0.0
 11
229.62446466
 21
119.6966671748
 31
0.0
  0
LINE
  5
C1
330
1F
100
AcDbEntity
  8
0
  6
SLD-Durchgehend
 62
     7
370
    15
100
AcDbLine
 10
229.62446466
 20
119.6966671748
 30
0.0
 11
228.96446466
 21
119.3156159971
 31
0.0
  0
ARC
  5
C2
330
1F
100
AcDbEntity
  8
0
  6
SLD-Durchgehend
 62
     7
370
    15
100
AcDbCircle
 10
229.02446466
 20
119.2116929487
 30
0.0
 40
0.1200000000000438
100
AcDbArc
 50
120.0
 51
240.0
  0
LINE
  5
C3
330
1F
100
AcDbEntity
  8
0
  6
SLD-Durchgehend
 62
     7
370
    15
100
AcDbLine
 10
228.96446466
 20
119.1077699002
 30
0.0
 11
229.62446466
 21
118.7267187226
 31
0.0
  0
LINE
  5
C4
330
1F
100
AcDbEntity
  8
0
  6
SLD-Durchgehend
 62
     7
370
    15
100
AcDbLine
 10
229.62446466
 20
118.7267187226
 30
0.0
 11
229.62446466
 21
118.4466671748
 31
0.0
  0
LINE
  5
C5
330
1F
100
AcDbEntity
  8
0
  6
SLD-Durchgehend
 62
     7
370
    15
100
AcDbLine
 10
229.62446466
 20
118.4466671748
 30
0.0
 11
228.96446466
 21
118.0656159971
 31
0.0
  0
ARC
  5
C6
330
1F
100
AcDbEntity
  8
0
  6
SLD-Durchgehend
 62
     7
370
    15
100
AcDbCircle
 10
229.02446466
 20
117.9616929487
 30
0.0
 40
0.1200000000000315
100
AcDbArc
 50
120.0
 51
240.0
  0
LINE
  5
C7
330
1F
100
AcDbEntity
  8
0
  6
SLD-Durchgehend
 62
     7
370
    15
100
AcDbLine
 10
228.96446466
 20
117.8577699002
 30
0.0
 11
229.62446466
 21
117.4767187226
 31
0.0
  0
LINE
  5
C8
330
1F
100
AcDbEntity
  8
0
  6
SLD-Durchgehend
 62
     7
370
    15
100
AcDbLine
 10
229.62446466
 20
117.4767187226
 30
0.0
 11
229.62446466
 21
117.1966671748
 31
0.0
  0
LINE
  5
C9
330
1F
100
AcDbEntity
  8
0
  6
SLD-Durchgehend
 62
     7
370
    15
100
AcDbLine
 10
229.62446466
 20
117.1966671748
 30
0.0
 11
228.96446466
 21
116.8156159971
 31
0.0
  0
ARC
  5
CA
330
1F
100
AcDbEntity
  8
0
  6
SLD-Durchgehend
 62
     7
370
    15
100
AcDbCircle
 10
229.02446466
 20
116.7116929487
 30
0.0
 40
0.1199999999999851
100
AcDbArc
 50
120.0
 51
240.0
  0
LINE
  5
CB
330
1F
100
AcDbEntity
  8
0
  6
SLD-Durchgehend
 62
     7
370
    15
100
AcDbLine
 10
228.96446466
 20
116.6077699002
 30
0.0
 11
229.62446466
 21
116.2267187226
 31
0.0
  0
LINE
  5
CC
330
1F
100
AcDbEntity
  8
0
  6
SLD-Durchgehend
 62
     7
370
    15
100
AcDbLine
 10
229.62446466
 20
116.2267187226
 30
0.0
 11
229.62446466
 21
115.9466671748
 31
0.0
  0
LINE
  5
CD
330
1F
100
AcDbEntity
  8
0
  6
SLD-Durchgehend
 62
     7
370
    15
100
AcDbLine
 10
229.62446466
 20
115.9466671748
 30
0.0
 11
228.96446466
 21
115.5656159971
 31
0.0
  0
ARC
  5
CE
330
1F
100
AcDbEntity
  8
0
  6
SLD-Durchgehend
 62
     7
370
    15
100
AcDbCircle
 10
229.02446466
 20
115.4616929487
 30
0.0
 40
0.1200000000000315
100
AcDbArc
 50
120.0
 51
240.0
  0
LINE
  5
CF
330
1F
100
AcDbEntity
  8
0
  6
SLD-Durchgehend
 62
     7
370
    15
100
AcDbLine
 10
228.96446466
 20
115.3577699002
 30
0.0
 11
229.62446466
 21
114.9767187226
 31
0.0
  0
LINE
  5
D0
330
1F
100
AcDbEntity
  8
0
  6
SLD-Durchgehend
 62
     7
370
    15
100
AcDbLine
 10
229.62446466
 20
114.9767187226
 30
0.0
 11
229.62446466
 21
114.6966671748
 31
0.0
  0
LINE
  5
D1
330
1F
100
AcDbEntity
  8
0
  6
SLD-Durchgehend
 62
     7
370
    15
100
AcDbLine
 10
229.62446466
 20
114.6966671748
 30
0.0
 11
228.96446466
 21
114.3156159971
 31
0.0
  0
ARC
  5
D2
330
1F
100
AcDbEntity
  8
0
  6
SLD-Durchgehend
 62
     7
370
    15
100
AcDbCircle
 10
229.02446466
 20
114.2116929487
 30
0.0
 40
0.1199999999998165
100
AcDbArc
 50
119.9999999998
 51
240.0000000002
  0
LINE
  5
D3
330
1F
100
AcDbEntity
  8
0
  6
SLD-Durchgehend
 62
     7
370
    15
100
AcDbLine
 10
228.96446466
 20
114.1077699002
 30
0.0
 11
229.62446466
 21
113.7267187226
 31
0.0
  0
LINE
  5
D4
330
1F
100
AcDbEntity
  8
0
  6
SLD-Durchgehend
 62
     7
370
    15
100
AcDbLine
 10
229.62446466
 20
113.7267187226
 30
0.0
 11
229.62446466
 21
113.4466671748
 31
0.0
  0
LINE
  5
D5
330
1F
100
AcDbEntity
  8
0
  6
SLD-Durchgehend
 62
     7
370
    15
100
AcDbLine
 10
229.62446466
 20
113.4466671748
 30
0.0
 11
228.96446466
 21
113.0656159971
 31
0.0
  0
ARC
  5
D6
330
1F
100
AcDbEntity
  8
0
  6
SLD-Durchgehend
 62
     7
370
    15
100
AcDbCircle
 10
229.02446466
 20
112.9616929487
 30
0.0
 40
0.1199999999999178
100
AcDbArc
 50
119.9999999999
 51
240.0000000001
  0
LINE
  5
D7
330
1F
100
AcDbEntity
  8
0
  6
SLD-Durchgehend
 62
     7
370
    15
100
AcDbLine
 10
228.96446466
 20
112.8577699002
 30
0.0
 11
229.62446466
 21
112.4767187226
 31
0.0
  0
LINE
  5
D8
330
1F
100
AcDbEntity
  8
0
  6
SLD-Durchgehend
 62
     7
370
    15
100
AcDbLine
 10
229.62446466
 20
112.4767187226
 30
0.0
 11
229.62446466
 21
112.1966671748
 31
0.0
  0
LINE
  5
D9
330
1F
100
AcDbEntity
  8
0
  6
SLD-Durchgehend
 62
     7
370
    15
100
AcDbLine
 10
229.62446466
 20
112.1966671748
 30
0.0
 11
228.96446466
 21
111.8156159971
 31
0.0
  0
ARC
  5
DA
330
1F
100
AcDbEntity
  8
0
  6
SLD-Durchgehend
 62
     7
370
    15
100
AcDbCircle
 10
229.02446466
 20
111.7116929487
 30
0.0
 40
0.1200000000000012
100
AcDbArc
 50
120.0
 51
240.0
  0
LINE
  5
DB
330
1F
100
AcDbEntity
  8
0
  6
SLD-Durchgehend
 62
     7
370
    15
100
AcDbLine
 10
228.96446466
 20
111.6077699002
 30
0.0
 11
229.62446466
 21
111.2267187226
 31
0.0
  0
LINE
  5
DC
330
1F
100
AcDbEntity
  8
0
  6
SLD-Durchgehend
 62
     7
370
    15
100
AcDbLine
 10
229.62446466
 20
111.2267187226
 30
0.0
 11
229.62446466
 21
110.9466671748
 31
0.0
  0
LINE
  5
DD
330
1F
100
AcDbEntity
  8
0
  6
SLD-Durchgehend
 62
     7
370
    15
100
AcDbLine
 10
229.62446466
 20
110.9466671748
 30
0.0
 11
228.96446466
 21
110.5656159971
 31
0.0
  0
ARC
  5
DE
330
1F
100
AcDbEntity
  8
0
  6
SLD-Durchgehend
 62
     7
370
    15
100
AcDbCircle
 10
229.02446466
 20
110.4616929487
 30
0.0
 40
0.1200000000000315
100
AcDbArc
 50
120.0
 51
240.0
  0
LINE
  5
DF
330
1F
100
AcDbEntity
  8
0
  6
SLD-Durchgehend
 62
     7
370
    15
100
AcDbLine
 10
228.96446466
 20
110.3577699002
 30
0.0
 11
229.62446466
 21
109.9767187226
 31
0.0
  0
LINE
  5
E0
330
1F
100
AcDbEntity
  8
0
  6
SLD-Durchgehend
 62
     7
370
    15
100
AcDbLine
 10
229.62446466
 20
109.9767187226
 30
0.0
 11
229.62446466
 21
109.6966671748
 31
0.0
  0
LINE
  5
E1
330
1F
100
AcDbEntity
  8
0
  6
SLD-Durchgehend
 62
     7
370
    15
100
AcDbLine
 10
229.62446466
 20
109.6966671748
 30
0.0
 11
228.96446466
 21
109.3156159971
 31
0.0
  0
ARC
  5
E2
330
1F
100
AcDbEntity
  8
0
  6
SLD-Durchgehend
 62
     7
370
    15
100
AcDbCircle
 10
229.02446466
 20
109.2116929487
 30
0.0
 40
0.1199999999999889
100
AcDbArc
 50
120.0
 51
240.0
  0
LINE
  5
E3
330
1F
100
AcDbEntity
  8
0
  6
SLD-Durchgehend
 62
     7
370
    15
100
AcDbLine
 10
228.96446466
 20
109.1077699002
 30
0.0
 11
229.62446466
 21
108.7267187226
 31
0.0
  0
LINE
  5
E4
330
1F
100
AcDbEntity
  8
0
  6
SLD-Durchgehend
 62
     7
370
    15
100
AcDbLine
 10
229.62446466
 20
108.7267187226
 30
0.0
 11
229.62446466
 21
108.4466671748
 31
0.0
  0
LINE
  5
E5
330
1F
100
AcDbEntity
  8
0
  6
SLD-Durchgehend
 62
     7
370
    15
100
AcDbLine
 10
229.62446466
 20
108.4466671748
 30
0.0
 11
228.96446466
 21
108.0656159971
 31
0.0
  0
LWPOLYLINE
  5
E6
330
1F
100
AcDbEntity
  8
0
  6
SLD-Durchgehend
 62
     7
370
    15
100
AcDbPolyline
 90
        9
 70
   128
 43
0.0
 10
228.96446466
 20
108.0656159971
 10
228.9548732643
 20
108.0594530512
 10
228.938547963
 20
108.0454683697
 10
228.9273726214
 20
108.0322134141
 10
228.918465302
 20
108.0179436028
 10
228.9101131628
 20
107.998076119
 10
228.9046649833
 20
107.9686238543
 10
228.9115059347
 20
107.9211920059
 10
228.96446466
 20
107.8577699002
  0
LINE
  5
E7
330
1F
100
AcDbEntity
  8
0
  6
SLD-Durchgehend
 62
     7
370
    15
100
AcDbLine
 10
228.96446466
 20
107.8577699002
 30
0.0
 11
229.62446466
 21
107.4767187226
 31
0.0
  0
LINE
  5
E8
330
1F
100
AcDbEntity
  8
0
  6
SLD-Durchgehend
 62
     7
370
    15
100
AcDbLine
 10
229.62446466
 20
107.4767187226
 30
0.0
 11
229.62446466
 21
107.1966671748
 31
0.0
  0
LINE
  5
E9
330
1F
100
AcDbEntity
  8
0
  6
SLD-Durchgehend
 62
     7
370
    15
100
AcDbLine
 10
229.62446466
 20
107.1966671748
 30
0.0
 11
228.96446466
 21
106.8156159971
 31
0.0
  0
LWPOLYLINE
  5
EA
330
1F
100
AcDbEntity
  8
0
  6
SLD-Durchgehend
 62
     7
370
    15
100
AcDbPolyline
 90
        9
 70
   128
 43
0.0
 10
228.96446466
 20
106.8156159971
 10
228.9510357543
 20
106.8066044643
 10
228.9413526094
 20
106.7982515244
 10
228.9319627477
 20
106.7881350589
 10
228.9247710549
 20
106.7784850522
 10
228.9166678881
 20
106.764417288
 10
228.9084098086
 20
106.7422096892
 10
228.9060828452
 20
106.6920525331
 10
228.96446466
 20
106.6077699002
  0
LINE
  5
EB
330
1F
100
AcDbEntity
  8
0
  6
SLD-Durchgehend
 62
     7
370
    15
100
AcDbLine
 10
228.96446466
 20
106.6077699002
 30
0.0
 11
229.5939929342
 21
106.2443115817
 31
0.0
  0
LINE
  5
EC
330
1F
100
AcDbEntity
  8
0
  6
SLD-Durchgehend
 62
     7
370
    15
100
AcDbLine
 10
172.12446466
 20
101.5615941641
 30
0.0
 11
172.12446466
 21
104.8787907767
 31
0.0
  0
LINE
  5
ED
330
1F
100
AcDbEntity
  8
0
  6
SLD-Durchgehend
 62
     7
370
    15
100
AcDbLine
 10
145.82446466
 20
102.4288961903
 30
0.0
 11
149.82446466
 21
102.3368291902
 31
0.0
  0
LINE
  5
EE
330
1F
100
AcDbEntity
  8
0
  6
SLD-Durchgehend
 62
     7
370
    15
100
AcDbLine
 10
145.82446466
 20
102.4288961903
 30
0.0
 11
145.82446466
 21
105.4510149341
 31
0.0
  0
LWPOLYLINE
  5
EF
330
1F
100
AcDbEntity
  8
0
  6
SLD-Durchgehend
 62
     7
370
    15
100
AcDbPolyline
 90
        7
 70
   128
 43
0.0
 10
149.82446466
 20
102.3368291902
 10
150.3559926902
 20
102.2492678746
 10
150.8608841822
 20
102.1760139775
 10
151.3103907334
 20
102.1189282042
 10
151.6408821847
 20
102.0818435441
 10
151.7049879642
 20
102.0751297111
 10
151.7023941033
 20
102.0753985198
  0
LWPOLYLINE
  5
F0
330
1F
100
AcDbEntity
  8
0
  6
SLD-Durchgehend
 62
     7
370
    15
100
AcDbPolyline
 90
       21
 70
   128
 43
0.0
 10
163.7653094539
 20
101.7727027867
 10
163.7560992565
 20
101.774036877
 10
163.6567112197
 20
101.7882403379
 10
163.4838180525
 20
101.8121391499
 10
163.2339222529
 20
101.844856492
 10
162.9137877756
 20
101.8835949358
 10
162.5263372846
 20
101.9256699349
 10
162.0710804453
 20
101.9683175791
 10
161.5619949989
 20
102.0072390266
 10
161.0074055887
 20
102.0390148362
 10
160.4209086218
 20
102.0604831458
 10
159.8349349261
 20
102.0694169369
 10
159.2481701119
 20
102.0658031383
 10
158.7135435309
 20
102.0515756109
 10
158.2131443478
 20
102.0288412022
 10
157.8056939263
 20
102.0036347252
 10
157.4639451849
 20
101.9778840949
 10
157.2336931253
 20
101.9581763965
 10
157.0884459973
 20
101.9447720775
 10
157.0435938965
 20
101.9404812533
 10
157.0446260113
 20
101.9405800205
  0
LWPOLYLINE
  5
F1
330
1F
100
AcDbEntity
  8
0
  6
SLD-Durchgehend
 62
     7
370
    15
100
AcDbPolyline
 90
        3
 70
   128
 43
0.0
 10
144.32446466
 20
103.206423965
 10
145.0526766848
 20
102.8325074662
 10
145.82446466
 20
102.4288961903
  0
LINE
  5
F2
330
1F
100
AcDbEntity
  8
0
  6
SLD-Durchgehend
 62
     7
370
    15
100
AcDbLine
 10
144.32446466
 20
103.206423965
 30
0.0
 11
144.32446466
 21
106.2010149341
 31
0.0
  0
LINE
  5
F3
330
1F
100
AcDbEntity
  8
0
  6
SLD-Durchgehend
 62
     7
370
    15
100
AcDbLine
 10
172.12446466
 20
136.6017917332
 30
0.0
 11
172.12446466
 21
135.2244920252
 31
0.0
  0
LINE
  5
F4
330
1F
100
AcDbEntity
  8
0
  6
SLD-Durchgehend
 62
     7
370
    15
100
AcDbLine
 10
145.82446466
 20
135.9410441906
 30
0.0
 11
145.82446466
 21
134.6522678678
 31
0.0
  0
LWPOLYLINE
  5
F5
330
1F
100
AcDbEntity
  8
0
  6
SLD-Durchgehend
 62
     7
370
    15
100
AcDbPolyline
 90
        5
 70
   128
 43
0.0
 10
172.6043124869
 20
136.3909181441
 10
172.5975874866
 20
136.4059520991
 10
172.682265798
 20
136.2169437549
 10
172.8128575736
 20
135.9271334635
 10
173.0031443165
 20
135.508497268
  0
LINE
  5
F6
330
1F
100
AcDbEntity
  8
0
  6
SLD-Durchgehend
 62
     7
370
    15
100
AcDbLine
 10
144.32446466
 20
135.0750187868
 30
0.0
 11
144.32446466
 21
133.9022678678
 31
0.0
  0
LINE
  5
F7
330
1F
100
AcDbEntity
  8
0
  6
SLD-Durchgehend
 62
     7
370
    15
100
AcDbLine
 10
234.82446466
 20
120.351831221
 30
0.0
 11
234.82446466
 21
120.1185471982
 31
0.0
  0
LINE
  5
F8
330
1F
100
AcDbEntity
  8
0
  6
SLD-Durchgehend
 62
     7
370
    15
100
AcDbLine
 10
234.82446466
 20
127.1185471982
 30
0.0
 11
234.82446466
 21
120.351831221
 31
0.0
  0
LINE
  5
F9
330
1F
100
AcDbEntity
  8
0
  6
SLD-Durchgehend
 62
     7
370
    15
100
AcDbLine
 10
238.82446466
 20
120.5385007054
 30
0.0
 11
238.82446466
 21
120.3185471982
 31
0.0
  0
LINE
  5
FA
330
1F
100
AcDbEntity
  8
0
  6
SLD-Durchgehend
 62
     7
370
    15
100
AcDbLine
 10
238.82446466
 20
126.9185471982
 30
0.0
 11
238.82446466
 21
120.5385007054
 31
0.0
  0
LINE
  5
FB
330
1F
100
AcDbEntity
  8
0
  6
SLD-Durchgehend
 62
     7
370
    15
100
AcDbLine
 10
234.82446466
 20
115.8048386992
 30
0.0
 11
234.82446466
 21
108.8048386992
 31
0.0
  0
LINE
  5
FC
330
1F
100
AcDbEntity
  8
0
  6
SLD-Durchgehend
 62
     7
370
    15
100
AcDbLine
 10
238.82446466
 20
115.6048386992
 30
0.0
 11
238.82446466
 21
109.0048386992
 31
0.0
  0
LWPOLYLINE
  5
FD
330
1F
100
AcDbEntity
  8
0
  6
SLD-Gestrichelt
 62
     7
370
     0
100
AcDbPolyline
 90
       11
 70
   128
 43
0.0
 10
184.32446466
 20
92.9616929487
 10
184.4367876358
 20
92.9704279837
 10
184.7609068629
 20
92.9928180644
 10
185.2614853472
 20
93.0191604987
 10
185.8828913285
 20
93.0379093874
 10
186.5529721659
 20
93.0407737104
 10
187.1957944564
 20
93.0265928764
 10
187.741349411
 20
93.0015735099
 10
188.1287885807
 20
92.9765856883
 10
188.3127276078
 20
92.9626291752
 10
188.2997313883
 20
92.963652426
  0
ARC
  5
FE
330
1F
100
AcDbEntity
  8
0
  6
SLD-Gestrichelt
 62
     7
370
     0
100
AcDbCircle
 10
183.0333170857
 20
109.8027675677
 30
0.0
 40
0.6172777494616991
100
AcDbArc
 50
107.0602909542
 51
174.1913625019
  0
LINE
  5
FF
330
1F
100
AcDbEntity
  8
0
  6
SLD-Gestrichelt
 62
     7
370
     0
100
AcDbLine
 10
185.7967078465
 20
110.3928829795
 30
0.0
 11
182.8522214736
 21
110.3928829795
 31
0.0
  0
LWPOLYLINE
  5
100
330
1F
100
AcDbEntity
  8
0
  6
SLD-Gestrichelt
 62
     7
370
     0
100
AcDbPolyline
 90
        6
 70
   128
 43
0.0
 10
186.2297205483
 20
109.8652399506
 10
186.0967259422
 20
110.184115554
 10
186.0176251698
 20
110.2858559598
 10
185.9122247249
 20
110.3648200383
 10
185.8319078073
 20
110.3903115434
 10
185.7967078465
 20
110.3928829795
  0
ELLIPSE
  5
101
330
1F
100
AcDbEntity
  8
0
  6
SLD-Gestrichelt
 62
     7
370
     0
100
AcDbEllipse
 10
173.268207005
 20
117.9616929487
 30
0.0
 11
-11.70927234972712
 21
24.6771864409374
 31
0.0
210
0.0
220
0.0
230
1.0
 40
0.3419987131
 41
3.31052192817896
 42
4.221709151398951
  0
ARC
  5
102
330
1F
100
AcDbEntity
  8
0
  6
SLD-Gestrichelt
 62
     7
370
     0
100
AcDbCircle
 10
185.8312219488
 20
94.6746754963
 30
0.0
 40
0.5408161068201343
100
AcDbArc
 50
266.3409795387
 51
317.4634966723
  0
LINE
  5
103
330
1F
100
AcDbEntity
  8
0
  6
SLD-Gestrichelt
 62
     7
370
     0
100
AcDbLine
 10
182.8522214736
 20
94.1349618332
 30
0.0
 11
185.7967078465
 21
94.1349618332
 31
0.0
  0
ARC
  5
104
330
1F
100
AcDbEntity
  8
0
  6
SLD-Gestrichelt
 62
     7
370
     0
100
AcDbCircle
 10
182.8341497424
 20
94.715572563
 30
0.0
 40
0.5808919065624994
100
AcDbArc
 50
224.4127462887
 51
271.7827775003
  0
ELLIPSE
  5
105
330
1F
100
AcDbEntity
  8
0
  6
SLD-Gestrichelt
 62
     7
370
     0
100
AcDbEllipse
 10
195.380722315
 20
117.9616929487
 30
0.0
 11
11.709272349727
 21
24.67718644093743
 31
0.0
210
0.0
220
0.0
230
1.0
 40
0.3419987131
 41
2.061476155780645
 42
2.972663379000664
  0
ARC
  5
106
330
1F
100
AcDbEntity
  8
0
  6
SLD-Gestrichelt
 62
     7
370
     0
100
AcDbCircle
 10
182.8177073713
 20
141.2487104011
 30
0.0
 40
0.5408161068193676
100
AcDbArc
 50
86.3409795386
 51
137.4634966724
  0
LINE
  5
107
330
1F
100
AcDbEntity
  8
0
  6
SLD-Gestrichelt
 62
     7
370
     0
100
AcDbLine
 10
185.7967078465
 20
141.7884240642
 30
0.0
 11
182.8522214736
 21
141.7884240642
 31
0.0
  0
ARC
  5
108
330
1F
100
AcDbEntity
  8
0
  6
SLD-Gestrichelt
 62
     7
370
     0
100
AcDbCircle
 10
185.8147795776
 20
141.2078133343
 30
0.0
 40
0.5808919065624293
100
AcDbArc
 50
44.4127462887
 51
91.7827775003
  0
ELLIPSE
  5
109
330
1F
100
AcDbEntity
  8
0
  6
SLD-Gestrichelt
 62
     7
370
     0
100
AcDbEllipse
 10
173.268207005
 20
117.9616929487
 30
0.0
 11
11.70927234972726
 21
24.67718644093744
 31
0.0
210
0.0
220
0.0
230
1.0
 40
0.3419987131
 41
5.203068809370476
 42
6.114256032590518
  0
ARC
  5
10A
330
1F
100
AcDbEntity
  8
0
  6
SLD-Gestrichelt
 62
     7
370
     0
100
AcDbCircle
 10
185.6156122343
 20
126.1206183297
 30
0.0
 40
0.617277749461814
100
AcDbArc
 50
287.0602909542
 51
354.1913625019
  0
LINE
  5
10B
330
1F
100
AcDbEntity
  8
0
  6
SLD-Gestrichelt
 62
     7
370
     0
100
AcDbLine
 10
182.8522214736
 20
125.5305029179
 30
0.0
 11
185.7967078465
 21
125.5305029179
 31
0.0
  0
LWPOLYLINE
  5
10C
330
1F
100
AcDbEntity
  8
0
  6
SLD-Gestrichelt
 62
     7
370
     0
100
AcDbPolyline
 90
        6
 70
   128
 43
0.0
 10
182.4192087717
 20
126.0581459467
 10
182.5522033778
 20
125.7392703433
 10
182.6313041503
 20
125.6375299376
 10
182.7367045952
 20
125.5585658591
 10
182.8170215127
 20
125.5330743539
 10
182.8522214736
 20
125.5305029179
  0
ELLIPSE
  5
10D
330
1F
100
AcDbEntity
  8
0
  6
SLD-Gestrichelt
 62
     7
370
     0
100
AcDbEllipse
 10
195.380722315
 20
117.9616929487
 30
0.0
 11
-11.70927234972714
 21
24.67718644093743
 31
0.0
210
0.0
220
0.0
230
1.0
 40
0.3419987131
 41
0.1689292745891112
 42
1.080116497809129
  0
LINE
  5
10E
330
1F
100
AcDbEntity
  8
0
  6
SLD-Gestrichelt
 62
     7
370
     0
100
AcDbLine
 10
174.32446466
 20
142.6616929487
 30
0.0
 11
174.32446466
 21
93.2616929487
 31
0.0
  0
LINE
  5
10F
330
1F
100
AcDbEntity
  8
0
  6
SLD-Gestrichelt
 62
     7
370
     0
100
AcDbLine
 10
194.32446466
 20
93.5616929487
 30
0.0
 11
194.32446466
 21
142.3616929487
 31
0.0
  0
LINE
  5
110
330
1F
100
AcDbEntity
  8
0
  6
SLD-Gestrichelt
 62
     7
370
     0
100
AcDbLine
 10
174.32446466
 20
98.4116929487
 30
0.0
 11
174.32446466
 21
137.5116929487
 31
0.0
  0
ARC
  5
111
330
1F
100
AcDbEntity
  8
0
  6
SLD-Gestrichelt
 62
     7
370
     0
100
AcDbCircle
 10
173.7362290595
 20
105.3468140517
 30
0.0
 40
0.5543097292873115
100
AcDbArc
 50
215.2584043986
 51
290.4046136039
  0
LWPOLYLINE
  5
112
330
1F
100
AcDbEntity
  8
0
  6
SLD-Gestrichelt
 62
     7
370
     0
100
AcDbPolyline
 90
        9
 70
   128
 43
0.0
 10
173.9294877711
 20
104.8272850859
 10
173.9508647277
 20
104.833059907
 10
173.9707378447
 20
104.8331779356
 10
173.9913365431
 20
104.8275937791
 10
174.0075111811
 20
104.8187150137
 10
174.0296299794
 20
104.7991422676
 10
174.0593619691
 20
104.7553871855
 10
174.1067680366
 20
104.602839391
 10
174.12446466
 20
104.3759282613
  0
LINE
  5
113
330
1F
100
AcDbEntity
  8
0
  6
SLD-Gestrichelt
 62
     7
370
     0
100
AcDbLine
 10
174.12446466
 20
100.1218726698
 30
0.0
 11
174.12446466
 21
104.3759282613
 31
0.0
  0
LINE
  5
114
330
1F
100
AcDbEntity
  8
0
  6
SLD-Gestrichelt
 62
     7
370
     0
100
AcDbLine
 10
173.2836036319
 20
135.0764523407
 30
0.0
 11
173.0031443165
 21
135.508497268
 31
0.0
  0
ARC
  5
115
330
1F
100
AcDbEntity
  8
0
  6
SLD-Gestrichelt
 62
     7
370
     0
100
AcDbCircle
 10
173.7146958051
 20
135.3842004113
 30
0.0
 40
0.5296690823635434
100
AcDbArc
 50
215.5222815203
 51
293.9237833557
  0
LWPOLYLINE
  5
116
330
1F
100
AcDbEntity
  8
0
  6
SLD-Gestrichelt
 62
     7
370
     0
100
AcDbPolyline
 90
       12
 70
   128
 43
0.0
 10
173.9294877711
 20
134.9000374757
 10
173.9508647277
 20
134.9091200186
 10
173.9707378447
 20
134.9157773367
 10
173.9913365431
 20
134.9207163719
 10
174.0075111811
 20
134.923010969
 10
174.0296299794
 20
134.9234213236
 10
174.0593619691
 20
134.9171483352
 10
174.0891776201
 20
134.8970417884
 10
174.1067680366
 20
134.8704994095
 10
174.1094508372
 20
134.8549299959
 10
174.1152388601
 20
134.8213396786
 10
174.12446466
 20
134.7677985038
  0
LINE
  5
117
330
1F
100
AcDbEntity
  8
0
  6
SLD-Gestrichelt
 62
     7
370
     0
100
AcDbLine
 10
174.12446466
 20
114.741352081
 30
0.0
 11
174.12446466
 21
134.7677985038
 31
0.0
  0
LWPOLYLINE
  5
118
330
1F
100
AcDbEntity
  8
0
  6
SLD-Gestrichelt
 62
     7
370
     0
100
AcDbPolyline
 90
       11
 70
   128
 43
0.0
 10
174.12446466
 20
114.741352081
 10
174.1146367422
 20
114.5188742182
 10
174.1118648791
 20
114.4561266252
 10
174.0907326198
 20
114.3159006971
 10
174.0445242262
 20
114.1834552575
 10
174.025531639
 20
114.157972401
 10
173.99942316
 20
114.1393463792
 10
173.9816942503
 20
114.1354466576
 10
173.9632061266
 20
114.1378702446
 10
173.941310269
 20
114.148588705
 10
173.9294877711
 20
114.1577562844
  0
LWPOLYLINE
  5
119
330
1F
100
AcDbEntity
  8
0
  6
SLD-Gestrichelt
 62
     7
370
     0
100
AcDbPolyline
 90
        7
 70
   128
 43
0.0
 10
173.9294877711
 20
114.1577562844
 10
173.8498996744
 20
114.2127717195
 10
173.756102462
 20
114.2410258218
 10
173.6685413146
 20
114.2323840265
 10
173.5780996127
 20
114.1880537682
 10
173.4546855313
 20
114.068362114
 10
173.2836036319
 20
113.7817960442
  0
LINE
  5
11A
330
1F
100
AcDbEntity
  8
0
  6
SLD-Gestrichelt
 62
     7
370
     0
100
AcDbLine
 10
173.2836036319
 20
113.7817960442
 30
0.0
 11
173.0031443165
 21
112.8272110153
 31
0.0
  0
LINE
  5
11B
330
1F
100
AcDbEntity
  8
0
  6
SLD-Gestrichelt
 62
     7
370
     0
100
AcDbLine
 10
173.0031443165
 20
105.5493705627
 30
0.0
 11
173.2836036319
 21
105.0268304611
 31
0.0
  0
LINE
  5
11C
330
1F
100
AcDbEntity
  8
0
  6
SLD-Gestrichelt
 62
     7
370
     0
100
AcDbLine
 10
174.12446466
 20
114.741352081
 30
0.0
 11
174.12446466
 21
134.7677985038
 31
0.0
  0
LINE
  5
11D
330
1F
100
AcDbEntity
  8
0
  6
SLD-Gestrichelt
 62
     7
370
     0
100
AcDbLine
 10
194.32446466
 20
101.4765600063
 30
0.0
 11
194.32446466
 21
134.446825891
 31
0.0
  0
LINE
  5
11E
330
1F
100
AcDbEntity
  8
0
  6
SLD-Gestrichelt
 62
     7
370
     0
100
AcDbLine
 10
228.82446466
 20
117.9616929487
 30
0.0
 11
228.82446466
 21
130.4616929487
 31
0.0
  0
LINE
  5
11F
330
1F
100
AcDbEntity
  8
0
  6
SLD-Gestrichelt
 62
     7
370
     0
100
AcDbLine
 10
228.82446466
 20
105.4616929487
 30
0.0
 11
228.82446466
 21
117.9616929487
 31
0.0
  0
LINE
  5
120
330
1F
100
AcDbEntity
  8
0
  6
SLD-Gestrichelt
 62
     7
370
     0
100
AcDbLine
 10
229.62446466
 20
118.7267187226
 30
0.0
 11
228.96446466
 21
119.1077699002
 31
0.0
  0
ARC
  5
121
330
1F
100
AcDbEntity
  8
0
  6
SLD-Gestrichelt
 62
     7
370
     0
100
AcDbCircle
 10
229.02446466
 20
119.2116929487
 30
0.0
 40
0.119999999999987
100
AcDbArc
 50
120.0
 51
240.0
  0
LINE
  5
122
330
1F
100
AcDbEntity
  8
0
  6
SLD-Gestrichelt
 62
     7
370
     0
100
AcDbLine
 10
228.96446466
 20
119.3156159971
 30
0.0
 11
229.62446466
 21
119.6966671748
 31
0.0
  0
LINE
  5
123
330
1F
100
AcDbEntity
  8
0
  6
SLD-Gestrichelt
 62
     7
370
     0
100
AcDbLine
 10
229.62446466
 20
119.6966671748
 30
0.0
 11
229.62446466
 21
119.9767187226
 31
0.0
  0
LINE
  5
124
330
1F
100
AcDbEntity
  8
0
  6
SLD-Gestrichelt
 62
     7
370
     0
100
AcDbLine
 10
229.62446466
 20
119.9767187226
 30
0.0
 11
228.96446466
 21
120.3577699002
 31
0.0
  0
ARC
  5
125
330
1F
100
AcDbEntity
  8
0
  6
SLD-Gestrichelt
 62
     7
370
     0
100
AcDbCircle
 10
229.02446466
 20
120.4616929487
 30
0.0
 40
0.1200000000000315
100
AcDbArc
 50
120.0
 51
240.0
  0
LINE
  5
126
330
1F
100
AcDbEntity
  8
0
  6
SLD-Gestrichelt
 62
     7
370
     0
100
AcDbLine
 10
228.96446466
 20
120.5656159971
 30
0.0
 11
229.62446466
 21
120.9466671748
 31
0.0
  0
LINE
  5
127
330
1F
100
AcDbEntity
  8
0
  6
SLD-Gestrichelt
 62
     7
370
     0
100
AcDbLine
 10
229.62446466
 20
120.9466671748
 30
0.0
 11
229.62446466
 21
121.2267187226
 31
0.0
  0
LINE
  5
128
330
1F
100
AcDbEntity
  8
0
  6
SLD-Gestrichelt
 62
     7
370
     0
100
AcDbLine
 10
229.62446466
 20
121.2267187226
 30
0.0
 11
228.96446466
 21
121.6077699002
 31
0.0
  0
ARC
  5
129
330
1F
100
AcDbEntity
  8
0
  6
SLD-Gestrichelt
 62
     7
370
     0
100
AcDbCircle
 10
229.02446466
 20
121.7116929487
 30
0.0
 40
0.1199999999998042
100
AcDbArc
 50
119.9999999998
 51
240.0000000002
  0
LINE
  5
12A
330
1F
100
AcDbEntity
  8
0
  6
SLD-Gestrichelt
 62
     7
370
     0
100
AcDbLine
 10
228.96446466
 20
121.8156159971
 30
0.0
 11
229.62446466
 21
122.1966671748
 31
0.0
  0
LINE
  5
12B
330
1F
100
AcDbEntity
  8
0
  6
SLD-Gestrichelt
 62
     7
370
     0
100
AcDbLine
 10
229.62446466
 20
122.1966671748
 30
0.0
 11
229.62446466
 21
122.4767187226
 31
0.0
  0
LINE
  5
12C
330
1F
100
AcDbEntity
  8
0
  6
SLD-Gestrichelt
 62
     7
370
     0
100
AcDbLine
 10
229.62446466
 20
122.4767187226
 30
0.0
 11
228.96446466
 21
122.8577699002
 31
0.0
  0
ARC
  5
12D
330
1F
100
AcDbEntity
  8
0
  6
SLD-Gestrichelt
 62
     7
370
     0
100
AcDbCircle
 10
229.02446466
 20
122.9616929487
 30
0.0
 40
0.1199999999999178
100
AcDbArc
 50
119.9999999999
 51
240.0000000001
  0
LINE
  5
12E
330
1F
100
AcDbEntity
  8
0
  6
SLD-Gestrichelt
 62
     7
370
     0
100
AcDbLine
 10
228.96446466
 20
123.0656159971
 30
0.0
 11
229.62446466
 21
123.4466671748
 31
0.0
  0
LINE
  5
12F
330
1F
100
AcDbEntity
  8
0
  6
SLD-Gestrichelt
 62
     7
370
     0
100
AcDbLine
 10
229.62446466
 20
123.4466671748
 30
0.0
 11
229.62446466
 21
123.7267187226
 31
0.0
  0
LINE
  5
130
330
1F
100
AcDbEntity
  8
0
  6
SLD-Gestrichelt
 62
     7
370
     0
100
AcDbLine
 10
229.62446466
 20
123.7267187226
 30
0.0
 11
228.96446466
 21
124.1077699002
 31
0.0
  0
ARC
  5
131
330
1F
100
AcDbEntity
  8
0
  6
SLD-Gestrichelt
 62
     7
370
     0
100
AcDbCircle
 10
229.02446466
 20
124.2116929487
 30
0.0
 40
0.1200000000000173
100
AcDbArc
 50
120.0
 51
240.0
  0
LINE
  5
132
330
1F
100
AcDbEntity
  8
0
  6
SLD-Gestrichelt
 62
     7
370
     0
100
AcDbLine
 10
228.96446466
 20
124.3156159971
 30
0.0
 11
229.62446466
 21
124.6966671748
 31
0.0
  0
LINE
  5
133
330
1F
100
AcDbEntity
  8
0
  6
SLD-Gestrichelt
 62
     7
370
     0
100
AcDbLine
 10
229.62446466
 20
124.6966671748
 30
0.0
 11
229.62446466
 21
124.9767187226
 31
0.0
  0
LINE
  5
134
330
1F
100
AcDbEntity
  8
0
  6
SLD-Gestrichelt
 62
     7
370
     0
100
AcDbLine
 10
229.62446466
 20
124.9767187226
 30
0.0
 11
228.96446466
 21
125.3577699002
 31
0.0
  0
ARC
  5
135
330
1F
100
AcDbEntity
  8
0
  6
SLD-Gestrichelt
 62
     7
370
     0
100
AcDbCircle
 10
229.02446466
 20
125.4616929487
 30
0.0
 40
0.1200000000000315
100
AcDbArc
 50
120.0
 51
240.0
  0
LINE
  5
136
330
1F
100
AcDbEntity
  8
0
  6
SLD-Gestrichelt
 62
     7
370
     0
100
AcDbLine
 10
228.96446466
 20
125.5656159971
 30
0.0
 11
229.62446466
 21
125.9466671748
 31
0.0
  0
LINE
  5
137
330
1F
100
AcDbEntity
  8
0
  6
SLD-Gestrichelt
 62
     7
370
     0
100
AcDbLine
 10
229.62446466
 20
125.9466671748
 30
0.0
 11
229.62446466
 21
126.2267187226
 31
0.0
  0
LINE
  5
138
330
1F
100
AcDbEntity
  8
0
  6
SLD-Gestrichelt
 62
     7
370
     0
100
AcDbLine
 10
229.62446466
 20
126.2267187226
 30
0.0
 11
228.96446466
 21
126.6077699002
 31
0.0
  0
ARC
  5
139
330
1F
100
AcDbEntity
  8
0
  6
SLD-Gestrichelt
 62
     7
370
     0
100
AcDbCircle
 10
229.02446466
 20
126.7116929487
 30
0.0
 40
0.1200000000000419
100
AcDbArc
 50
120.0
 51
240.0
  0
LINE
  5
13A
330
1F
100
AcDbEntity
  8
0
  6
SLD-Gestrichelt
 62
     7
370
     0
100
AcDbLine
 10
228.96446466
 20
126.8156159971
 30
0.0
 11
229.62446466
 21
127.1966671748
 31
0.0
  0
LINE
  5
13B
330
1F
100
AcDbEntity
  8
0
  6
SLD-Gestrichelt
 62
     7
370
     0
100
AcDbLine
 10
229.62446466
 20
127.1966671748
 30
0.0
 11
229.62446466
 21
127.4767187226
 31
0.0
  0
LINE
  5
13C
330
1F
100
AcDbEntity
  8
0
  6
SLD-Gestrichelt
 62
     7
370
     0
100
AcDbLine
 10
229.62446466
 20
127.4767187226
 30
0.0
 11
228.96446466
 21
127.8577699002
 31
0.0
  0
LWPOLYLINE
  5
13D
330
1F
100
AcDbEntity
  8
0
  6
SLD-Gestrichelt
 62
     7
370
     0
100
AcDbPolyline
 90
        9
 70
   128
 43
0.0
 10
228.96446466
 20
127.8577699002
 10
228.9548732643
 20
127.8639328462
 10
228.938547963
 20
127.8779175276
 10
228.9273726214
 20
127.8911724833
 10
228.918465302
 20
127.9054422945
 10
228.9101131628
 20
127.9253097784
 10
228.9046649833
 20
127.9547620431
 10
228.9115059347
 20
128.0021938915
 10
228.96446466
 20
128.0656159971
  0
LINE
  5
13E
330
1F
100
AcDbEntity
  8
0
  6
SLD-Gestrichelt
 62
     7
370
     0
100
AcDbLine
 10
228.96446466
 20
128.0656159971
 30
0.0
 11
229.62446466
 21
128.4466671748
 31
0.0
  0
LINE
  5
13F
330
1F
100
AcDbEntity
  8
0
  6
SLD-Gestrichelt
 62
     7
370
     0
100
AcDbLine
 10
229.62446466
 20
128.4466671748
 30
0.0
 11
229.62446466
 21
128.7267187226
 31
0.0
  0
LINE
  5
140
330
1F
100
AcDbEntity
  8
0
  6
SLD-Gestrichelt
 62
     7
370
     0
100
AcDbLine
 10
229.62446466
 20
128.7267187226
 30
0.0
 11
228.96446466
 21
129.1077699002
 31
0.0
  0
LWPOLYLINE
  5
141
330
1F
100
AcDbEntity
  8
0
  6
SLD-Gestrichelt
 62
     7
370
     0
100
AcDbPolyline
 90
        9
 70
   128
 43
0.0
 10
228.96446466
 20
129.1077699002
 10
228.9510357543
 20
129.116781433
 10
228.9413526094
 20
129.1251343729
 10
228.9319627477
 20
129.1352508385
 10
228.9247710549
 20
129.1449008451
 10
228.9166678881
 20
129.1589686094
 10
228.9084098086
 20
129.1811762082
 10
228.9060828452
 20
129.2313333642
 10
228.96446466
 20
129.3156159971
  0
LINE
  5
142
330
1F
100
AcDbEntity
  8
0
  6
SLD-Gestrichelt
 62
     7
370
     0
100
AcDbLine
 10
228.96446466
 20
129.3156159971
 30
0.0
 11
229.5939929342
 21
129.6790743157
 31
0.0
  0
LINE
  5
143
330
1F
100
AcDbEntity
  8
0
  6
SLD-Gestrichelt
 62
     7
370
     0
100
AcDbLine
 10
229.5880448949
 20
106.2477456837
 30
0.0
 11
228.96446466
 21
106.6077699002
 31
0.0
  0
ARC
  5
144
330
1F
100
AcDbEntity
  8
0
  6
SLD-Gestrichelt
 62
     7
370
     0
100
AcDbCircle
 10
229.02446466
 20
106.7116929487
 30
0.0
 40
0.1199999999889755
100
AcDbArc
 50
119.9999999909
 51
240.0000000091
  0
LINE
  5
145
330
1F
100
AcDbEntity
  8
0
  6
SLD-Gestrichelt
 62
     7
370
     0
100
AcDbLine
 10
228.96446466
 20
106.8156159971
 30
0.0
 11
229.62446466
 21
107.1966671748
 31
0.0
  0
LINE
  5
146
330
1F
100
AcDbEntity
  8
0
  6
SLD-Gestrichelt
 62
     7
370
     0
100
AcDbLine
 10
229.62446466
 20
107.1966671748
 30
0.0
 11
229.62446466
 21
107.4767187226
 31
0.0
  0
LINE
  5
147
330
1F
100
AcDbEntity
  8
0
  6
SLD-Gestrichelt
 62
     7
370
     0
100
AcDbLine
 10
229.62446466
 20
107.4767187226
 30
0.0
 11
228.96446466
 21
107.8577699002
 31
0.0
  0
LWPOLYLINE
  5
148
330
1F
100
AcDbEntity
  8
0
  6
SLD-Gestrichelt
 62
     7
370
     0
100
AcDbPolyline
 90
        9
 70
   128
 43
0.0
 10
228.96446466
 20
107.8577699002
 10
228.9082968256
 20
107.9316091616
 10
228.9045561668
 20
107.9663783777
 10
228.9088298921
 20
107.99376475
 10
228.9161041918
 20
108.0132488303
 10
228.9252149387
 20
108.0291428769
 10
228.9373908415
 20
108.0442650392
 10
228.9494676083
 20
108.0553702791
 10
228.96446466
 20
108.0656159971
  0
LINE
  5
149
330
1F
100
AcDbEntity
  8
0
  6
SLD-Gestrichelt
 62
     7
370
     0
100
AcDbLine
 10
228.96446466
 20
108.0656159971
 30
0.0
 11
229.62446466
 21
108.4466671748
 31
0.0
  0
LINE
  5
14A
330
1F
100
AcDbEntity
  8
0
  6
SLD-Gestrichelt
 62
     7
370
     0
100
AcDbLine
 10
229.62446466
 20
108.4466671748
 30
0.0
 11
229.62446466
 21
108.7267187226
 31
0.0
  0
LINE
  5
14B
330
1F
100
AcDbEntity
  8
0
  6
SLD-Gestrichelt
 62
     7
370
     0
100
AcDbLine
 10
229.62446466
 20
108.7267187226
 30
0.0
 11
228.96446466
 21
109.1077699002
 31
0.0
  0
ARC
  5
14C
330
1F
100
AcDbEntity
  8
0
  6
SLD-Gestrichelt
 62
     7
370
     0
100
AcDbCircle
 10
229.02446466
 20
109.2116929487
 30
0.0
 40
0.1199999999986531
100
AcDbArc
 50
119.9999999989
 51
240.0000000011
  0
LINE
  5
14D
330
1F
100
AcDbEntity
  8
0
  6
SLD-Gestrichelt
 62
     7
370
     0
100
AcDbLine
 10
228.96446466
 20
109.3156159971
 30
0.0
 11
229.62446466
 21
109.6966671748
 31
0.0
  0
LINE
  5
14E
330
1F
100
AcDbEntity
  8
0
  6
SLD-Gestrichelt
 62
     7
370
     0
100
AcDbLine
 10
229.62446466
 20
109.6966671748
 30
0.0
 11
229.62446466
 21
109.9767187226
 31
0.0
  0
LINE
  5
14F
330
1F
100
AcDbEntity
  8
0
  6
SLD-Gestrichelt
 62
     7
370
     0
100
AcDbLine
 10
229.62446466
 20
109.9767187226
 30
0.0
 11
228.96446466
 21
110.3577699002
 31
0.0
  0
ARC
  5
150
330
1F
100
AcDbEntity
  8
0
  6
SLD-Gestrichelt
 62
     7
370
     0
100
AcDbCircle
 10
229.02446466
 20
110.4616929487
 30
0.0
 40
0.1199999999999889
100
AcDbArc
 50
120.0
 51
240.0
  0
LINE
  5
151
330
1F
100
AcDbEntity
  8
0
  6
SLD-Gestrichelt
 62
     7
370
     0
100
AcDbLine
 10
228.96446466
 20
110.5656159971
 30
0.0
 11
229.62446466
 21
110.9466671748
 31
0.0
  0
LINE
  5
152
330
1F
100
AcDbEntity
  8
0
  6
SLD-Gestrichelt
 62
     7
370
     0
100
AcDbLine
 10
229.62446466
 20
110.9466671748
 30
0.0
 11
229.62446466
 21
111.2267187226
 31
0.0
  0
LINE
  5
153
330
1F
100
AcDbEntity
  8
0
  6
SLD-Gestrichelt
 62
     7
370
     0
100
AcDbLine
 10
229.62446466
 20
111.2267187226
 30
0.0
 11
228.96446466
 21
111.6077699002
 31
0.0
  0
ARC
  5
154
330
1F
100
AcDbEntity
  8
0
  6
SLD-Gestrichelt
 62
     7
370
     0
100
AcDbCircle
 10
229.02446466
 20
111.7116929487
 30
0.0
 40
0.1200000000000173
100
AcDbArc
 50
120.0
 51
240.0
  0
LINE
  5
155
330
1F
100
AcDbEntity
  8
0
  6
SLD-Gestrichelt
 62
     7
370
     0
100
AcDbLine
 10
228.96446466
 20
111.8156159971
 30
0.0
 11
229.62446466
 21
112.1966671748
 31
0.0
  0
LINE
  5
156
330
1F
100
AcDbEntity
  8
0
  6
SLD-Gestrichelt
 62
     7
370
     0
100
AcDbLine
 10
229.62446466
 20
112.1966671748
 30
0.0
 11
229.62446466
 21
112.4767187226
 31
0.0
  0
LINE
  5
157
330
1F
100
AcDbEntity
  8
0
  6
SLD-Gestrichelt
 62
     7
370
     0
100
AcDbLine
 10
229.62446466
 20
112.4767187226
 30
0.0
 11
228.96446466
 21
112.8577699002
 31
0.0
  0
ARC
  5
158
330
1F
100
AcDbEntity
  8
0
  6
SLD-Gestrichelt
 62
     7
370
     0
100
AcDbCircle
 10
229.02446466
 20
112.9616929487
 30
0.0
 40
0.1200000000000296
100
AcDbArc
 50
120.0
 51
240.0
  0
LINE
  5
159
330
1F
100
AcDbEntity
  8
0
  6
SLD-Gestrichelt
 62
     7
370
     0
100
AcDbLine
 10
228.96446466
 20
113.0656159971
 30
0.0
 11
229.62446466
 21
113.4466671748
 31
0.0
  0
LINE
  5
15A
330
1F
100
AcDbEntity
  8
0
  6
SLD-Gestrichelt
 62
     7
370
     0
100
AcDbLine
 10
229.62446466
 20
113.4466671748
 30
0.0
 11
229.62446466
 21
113.7267187226
 31
0.0
  0
LINE
  5
15B
330
1F
100
AcDbEntity
  8
0
  6
SLD-Gestrichelt
 62
     7
370
     0
100
AcDbLine
 10
229.62446466
 20
113.7267187226
 30
0.0
 11
228.96446466
 21
114.1077699002
 31
0.0
  0
ARC
  5
15C
330
1F
100
AcDbEntity
  8
0
  6
SLD-Gestrichelt
 62
     7
370
     0
100
AcDbCircle
 10
229.02446466
 20
114.2116929487
 30
0.0
 40
0.1200000000000315
100
AcDbArc
 50
120.0
 51
240.0
  0
LINE
  5
15D
330
1F
100
AcDbEntity
  8
0
  6
SLD-Gestrichelt
 62
     7
370
     0
100
AcDbLine
 10
228.96446466
 20
114.3156159971
 30
0.0
 11
229.62446466
 21
114.6966671748
 31
0.0
  0
LINE
  5
15E
330
1F
100
AcDbEntity
  8
0
  6
SLD-Gestrichelt
 62
     7
370
     0
100
AcDbLine
 10
229.62446466
 20
114.6966671748
 30
0.0
 11
229.62446466
 21
114.9767187226
 31
0.0
  0
LINE
  5
15F
330
1F
100
AcDbEntity
  8
0
  6
SLD-Gestrichelt
 62
     7
370
     0
100
AcDbLine
 10
229.62446466
 20
114.9767187226
 30
0.0
 11
228.96446466
 21
115.3577699002
 31
0.0
  0
ARC
  5
160
330
1F
100
AcDbEntity
  8
0
  6
SLD-Gestrichelt
 62
     7
370
     0
100
AcDbCircle
 10
229.02446466
 20
115.4616929487
 30
0.0
 40
0.1199999999999889
100
AcDbArc
 50
120.0
 51
240.0
  0
LINE
  5
161
330
1F
100
AcDbEntity
  8
0
  6
SLD-Gestrichelt
 62
     7
370
     0
100
AcDbLine
 10
228.96446466
 20
115.5656159971
 30
0.0
 11
229.62446466
 21
115.9466671748
 31
0.0
  0
LINE
  5
162
330
1F
100
AcDbEntity
  8
0
  6
SLD-Gestrichelt
 62
     7
370
     0
100
AcDbLine
 10
229.62446466
 20
115.9466671748
 30
0.0
 11
229.62446466
 21
116.2267187226
 31
0.0
  0
LINE
  5
163
330
1F
100
AcDbEntity
  8
0
  6
SLD-Gestrichelt
 62
     7
370
     0
100
AcDbLine
 10
229.62446466
 20
116.2267187226
 30
0.0
 11
228.96446466
 21
116.6077699002
 31
0.0
  0
ARC
  5
164
330
1F
100
AcDbEntity
  8
0
  6
SLD-Gestrichelt
 62
     7
370
     0
100
AcDbCircle
 10
229.02446466
 20
116.7116929487
 30
0.0
 40
0.1200000000000438
100
AcDbArc
 50
120.0
 51
240.0
  0
LINE
  5
165
330
1F
100
AcDbEntity
  8
0
  6
SLD-Gestrichelt
 62
     7
370
     0
100
AcDbLine
 10
228.96446466
 20
116.8156159971
 30
0.0
 11
229.62446466
 21
117.1966671748
 31
0.0
  0
LINE
  5
166
330
1F
100
AcDbEntity
  8
0
  6
SLD-Gestrichelt
 62
     7
370
     0
100
AcDbLine
 10
229.62446466
 20
117.1966671748
 30
0.0
 11
229.62446466
 21
117.4767187226
 31
0.0
  0
LINE
  5
167
330
1F
100
AcDbEntity
  8
0
  6
SLD-Gestrichelt
 62
     7
370
     0
100
AcDbLine
 10
229.62446466
 20
117.4767187226
 30
0.0
 11
228.96446466
 21
117.8577699002
 31
0.0
  0
ARC
  5
168
330
1F
100
AcDbEntity
  8
0
  6
SLD-Gestrichelt
 62
     7
370
     0
100
AcDbCircle
 10
229.02446466
 20
117.9616929487
 30
0.0
 40
0.1200000000000438
100
AcDbArc
 50
120.0
 51
240.0
  0
LINE
  5
169
330
1F
100
AcDbEntity
  8
0
  6
SLD-Gestrichelt
 62
     7
370
     0
100
AcDbLine
 10
228.96446466
 20
118.0656159971
 30
0.0
 11
229.62446466
 21
118.4466671748
 31
0.0
  0
LINE
  5
16A
330
1F
100
AcDbEntity
  8
0
  6
SLD-Gestrichelt
 62
     7
370
     0
100
AcDbLine
 10
229.62446466
 20
118.4466671748
 30
0.0
 11
229.62446466
 21
118.7267187226
 31
0.0
  0
LINE
  5
16B
330
1F
100
AcDbEntity
  8
0
  6
SLD-Gestrichelt
 62
     7
370
     0
100
AcDbLine
 10
172.12446466
 20
104.8787907767
 30
0.0
 11
172.12446466
 21
101.5615941641
 31
0.0
  0
LINE
  5
16C
330
1F
100
AcDbEntity
  8
0
  6
SLD-Gestrichelt
 62
     7
370
     0
100
AcDbLine
 10
145.82446466
 20
105.4510149341
 30
0.0
 11
145.82446466
 21
102.4288961903
 31
0.0
  0
LINE
  5
16D
330
1F
100
AcDbEntity
  8
0
  6
SLD-Gestrichelt
 62
     7
370
     0
100
AcDbLine
 10
149.82446466
 20
102.3368291902
 30
0.0
 11
145.82446466
 21
102.4288961903
 31
0.0
  0
ARC
  5
16E
330
1F
100
AcDbEntity
  8
0
  6
SLD-Gestrichelt
 62
     7
370
     0
100
AcDbCircle
 10
154.4965998671
 20
129.022518981
 30
0.0
 40
27.09160177990554
100
AcDbArc
 50
260.0692974319
 51
264.0800323141
  0
LWPOLYLINE
  5
16F
330
1F
100
AcDbEntity
  8
0
  6
SLD-Gestrichelt
 62
     7
370
     0
100
AcDbPolyline
 90
       17
 70
   128
 43
0.0
 10
157.8535231885
 20
102.0069038377
 10
158.1956766517
 20
102.0278836259
 10
158.204557069
 20
102.0283099596
 10
158.5890748972
 20
102.0467700035
 10
159.0814917404
 20
102.0624849679
 10
159.6210772749
 20
102.0695556251
 10
160.1895907222
 20
102.0655064009
 10
160.7793275941
 20
102.0488496273
 10
161.3556796194
 20
102.0203586189
 10
161.9209542003
 20
101.980761357
 10
162.4251940352
 20
101.9357810606
 10
162.8839146314
 20
101.8870269166
 10
163.2406498272
 20
101.8440040686
 10
163.5225766787
 20
101.8068711665
 10
163.6904037512
 20
101.7834633354
 10
163.769903744
 20
101.7720373072
 10
163.7653094539
 20
101.7727027867
  0
ARC
  5
170
330
1F
100
AcDbEntity
  8
0
  6
SLD-Gestrichelt
 62
     7
370
     0
100
AcDbCircle
 10
159.7566525545
 20
73.8301070452
 30
0.0
 40
28.2409946507988
100
AcDbArc
 50
93.8640275194
 51
95.5106948523
  0
LINE
  5
171
330
1F
100
AcDbEntity
  8
0
  6
SLD-Gestrichelt
 62
     7
370
     0
100
AcDbLine
 10
174.12446466
 20
104.3759282613
 30
0.0
 11
174.12446466
 21
101.5163718988
 31
0.0
  0
LINE
  5
172
330
1F
100
AcDbEntity
  8
0
  6
SLD-Gestrichelt
 62
     7
370
     0
100
AcDbLine
 10
149.3525045156
 20
107.1730178141
 30
0.0
 11
149.3525045156
 21
128.7503680833
 31
0.0
  0
LINE
  5
173
330
1F
100
AcDbEntity
  8
0
  6
SLD-Gestrichelt
 62
     7
370
     0
100
AcDbLine
 10
145.3525045156
 20
106.7918199676
 30
0.0
 11
145.3525045156
 21
129.1315659297
 31
0.0
  0
LINE
  5
174
330
1F
100
AcDbEntity
  8
0
  6
SLD-Gestrichelt
 62
     7
370
     0
100
AcDbLine
 10
144.32446466
 20
106.2133791353
 30
0.0
 11
144.32446466
 21
129.7100067621
 31
0.0
  0
LINE
  5
175
330
1F
100
AcDbEntity
  8
0
  6
SLD-Gestrichelt
 62
     7
370
     0
100
AcDbLine
 10
153.9525045156
 20
107.4616929487
 30
0.0
 11
153.9525045156
 21
128.4616929487
 31
0.0
  0
LINE
  5
176
330
1F
100
AcDbEntity
  8
0
  6
SLD-Gestrichelt
 62
     7
370
     0
100
AcDbLine
 10
147.8525045156
 20
107.4616929487
 30
0.0
 11
147.8525045156
 21
128.4616929487
 31
0.0
  0
LINE
  5
177
330
1F
100
AcDbEntity
  8
0
  6
SLD-Gestrichelt
 62
     7
370
     0
100
AcDbLine
 10
148.8525045156
 20
107.4616929487
 30
0.0
 11
148.8525045156
 21
128.4616929487
 31
0.0
  0
LWPOLYLINE
  5
178
330
1F
100
AcDbEntity
  8
0
  6
SLD-Gestrichelt
 62
     7
370
     0
100
AcDbPolyline
 90
       42
 70
   128
 43
0.0
 10
159.8613554695
 20
107.9037622409
 10
160.32446466
 20
107.9144296397
 10
160.5532924682
 20
107.9088238208
 10
160.8170355767
 20
107.9023626475
 10
161.3096064934
 20
107.866248212
 10
161.7602688226
 20
107.8123563401
 10
162.1831985639
 20
107.7439440907
 10
162.5547248611
 20
107.6698728684
 10
162.8737414248
 20
107.5960616595
 10
163.1182142824
 20
107.5332445045
 10
163.2879449594
 20
107.4864977006
 10
163.3661222933
 20
107.4641131725
 10
163.3636338348
 20
107.4648335786
 10
163.3604045157
 20
107.4657684631
 10
163.2750391067
 20
107.4901415084
 10
163.1092596124
 20
107.5356398639
 10
162.8740159139
 20
107.5959941494
 10
162.5647854628
 20
107.6676880284
 10
162.191758441
 20
107.7423834777
 10
161.7538401756
 20
107.8132637912
 10
161.2828773275
 20
107.8688214623
 10
160.7672326665
 20
107.9046783068
 10
160.2712594853
 20
107.914288767
 10
159.7618938077
 20
107.8986921058
 10
159.2943258901
 20
107.8617580041
 10
158.842486018
 20
107.8057212721
 10
158.4317166996
 20
107.7377018081
 10
158.0620271945
 20
107.6628520777
 10
157.7526526619
 20
107.5904964433
 10
157.5088810643
 20
107.5273740449
 10
157.3530623663
 20
107.4842537772
 10
157.2790275238
 20
107.4630174441
 10
157.2833894465
 20
107.4642802908
 10
157.2919112673
 20
107.4667474948
 10
157.387657633
 20
107.4940124265
 10
157.5558768672
 20
107.5399570872
 10
157.8010588112
 20
107.6023938856
 10
158.1137948176
 20
107.6741003657
 10
158.4963554965
 20
107.749470707
 10
158.9305777972
 20
107.8182014104
 10
159.4205430803
 20
107.8738500562
 10
159.8613554695
 20
107.9037622409
  0
LWPOLYLINE
  5
179
330
1F
100
AcDbEntity
  8
0
  6
SLD-Gestrichelt
 62
     7
370
     0
100
AcDbPolyline
 90
       64
 70
   128
 43
0.0
 10
160.5574872927
 20
128.0116581002
 10
160.32446466
 20
128.0089562577
 10
160.1554421312
 20
128.011027545
 10
160.0781792017
 20
128.011974364
 10
159.5837581955
 20
128.0362225192
 10
159.3393228267
 20
128.0571376854
 10
159.1106053383
 20
128.0820167801
 10
158.6721456868
 20
128.1439155935
 10
158.4657307561
 20
128.1794418067
 10
158.2736028642
 20
128.2161326752
 10
157.9267240717
 20
128.2911004791
 10
157.7751878952
 20
128.3273242379
 10
157.6440030389
 20
128.3603647149
 10
157.5307150377
 20
128.3901413928
 10
157.4353221197
 20
128.4161008524
 10
157.3609843606
 20
128.4368881967
 10
157.3118389281
 20
128.4508975801
 10
157.2770268334
 20
128.4609526121
 10
157.2746395301
 20
128.4616421544
 10
157.2885248044
 20
128.4576174343
 10
157.3214822856
 20
128.4481319601
 10
157.4468817472
 20
128.4129121799
 10
157.5396697077
 20
128.3877460335
 10
157.648344401
 20
128.3592464898
 10
157.9209211794
 20
128.2924490325
 10
158.0841438572
 20
128.255697869
 10
158.2629011567
 20
128.2182783492
 10
158.6691338251
 20
128.1444047767
 10
158.8950891444
 20
128.1101221062
 10
159.1252680914
 20
128.0802685604
 10
159.6199721485
 20
128.0336247246
 10
159.8816966536
 20
128.0187075906
 10
160.1280743232
 20
128.0108754609
 10
160.6325580849
 20
128.0136788996
 10
160.8870355124
 20
128.0246937916
 10
161.1227375084
 20
128.0406184638
 10
161.5841265595
 20
128.0876125662
 10
161.806443302
 20
128.1176646252
 10
162.0168340376
 20
128.1504914112
 10
162.4086432762
 20
128.222847879
 10
162.5869021255
 20
128.2605338196
 10
162.7494807886
 20
128.2974659349
 10
163.0276946923
 20
128.3662569764
 10
163.1400482558
 20
128.3960118524
 10
163.2277364283
 20
128.4200143704
 10
163.3439821111
 20
128.4528790417
 10
163.3699017962
 20
128.4603684533
 10
163.372306342
 20
128.4610663311
 10
163.3734439126
 20
128.4613964913
 10
163.3196391725
 20
128.4458987059
 10
163.261271687
 20
128.4293734708
 10
163.1864853166
 20
128.4086380638
 10
162.9796450133
 20
128.3538766801
 10
162.8478705089
 20
128.3209920117
 10
162.69989975
 20
128.2859455544
 10
162.3516978394
 20
128.2114331582
 10
162.1525738236
 20
128.1739151904
 10
161.9420855663
 20
128.1383425642
 10
161.7183515228
 20
128.1051844869
 10
161.4789061281
 20
128.0750620759
 10
161.2283862398
 20
128.0495358411
 10
161.0106615295
 20
128.0323615533
 10
160.5974497349
 20
128.013483801
 10
160.5574872927
 20
128.0116581002
  0
LINE
  5
17A
330
1F
100
AcDbEntity
  8
0
  6
SLD-Gestrichelt
 62
     7
370
     0
100
AcDbLine
 10
164.32446466
 20
107.9616929487
 30
0.0
 11
164.32446466
 21
127.9616929487
 31
0.0
  0
LINE
  5
17B
330
1F
100
AcDbEntity
  8
0
  6
SLD-Gestrichelt
 62
     7
370
     0
100
AcDbLine
 10
228.47446466
 20
121.9685471982
 30
0.0
 11
228.47446466
 21
125.2685471982
 31
0.0
  0
LINE
  5
17C
330
1F
100
AcDbEntity
  8
0
  6
SLD-Gestrichelt
 62
     7
370
     0
100
AcDbLine
 10
229.62446466
 20
125.9466671748
 30
0.0
 11
229.62446466
 21
126.2267187226
 31
0.0
  0
LWPOLYLINE
  5
17D
330
1F
100
AcDbEntity
  8
0
  6
SLD-Gestrichelt
 62
     7
370
     0
100
AcDbPolyline
 90
       11
 70
   128
 43
0.0
 10
228.96446466
 20
125.3577699002
 10
228.9099196722
 20
125.4259236075
 10
228.9045957611
 20
125.4673007178
 10
228.9092316075
 20
125.4951794175
 10
228.9161685474
 20
125.5133838761
 10
228.9238768344
 20
125.5271306239
 10
228.9314228594
 20
125.5374770059
 10
228.9406499312
 20
125.5475713
 10
228.9490927773
 20
125.5550689589
 10
228.9625074878
 20
125.5644611773
 10
228.96446466
 20
125.5656159971
  0
LINE
  5
17E
330
1F
100
AcDbEntity
  8
0
  6
SLD-Gestrichelt
 62
     7
370
     0
100
AcDbLine
 10
229.62446466
 20
124.6966671748
 30
0.0
 11
229.62446466
 21
124.9767187226
 31
0.0
  0
ARC
  5
17F
330
1F
100
AcDbEntity
  8
0
  6
SLD-Gestrichelt
 62
     7
370
     0
100
AcDbCircle
 10
229.02446466
 20
124.2116929487
 30
0.0
 40
0.1199999999998468
100
AcDbArc
 50
119.9999999999
 51
240.0000000001
  0
LINE
  5
180
330
1F
100
AcDbEntity
  8
0
  6
SLD-Gestrichelt
 62
     7
370
     0
100
AcDbLine
 10
229.62446466
 20
123.4466671748
 30
0.0
 11
229.62446466
 21
123.7267187226
 31
0.0
  0
ARC
  5
181
330
1F
100
AcDbEntity
  8
0
  6
SLD-Gestrichelt
 62
     7
370
     0
100
AcDbCircle
 10
229.02446466
 20
122.9616929487
 30
0.0
 40
0.1199999999997047
100
AcDbArc
 50
119.9999999998
 51
240.0000000002
  0
LINE
  5
182
330
1F
100
AcDbEntity
  8
0
  6
SLD-Gestrichelt
 62
     7
370
     0
100
AcDbLine
 10
229.62446466
 20
122.1966671748
 30
0.0
 11
229.62446466
 21
122.4767187226
 31
0.0
  0
LWPOLYLINE
  5
183
330
1F
100
AcDbEntity
  8
0
  6
SLD-Gestrichelt
 62
     7
370
     0
100
AcDbPolyline
 90
       10
 70
   128
 43
0.0
 10
228.96446466
 20
121.6077699002
 10
228.9528615975
 20
121.6153965238
 10
228.9450140954
 20
121.6217618207
 10
228.9368196605
 20
121.6297273824
 10
228.9302461733
 20
121.6373768888
 10
228.9231888734
 20
121.6473251381
 10
228.914711119
 20
121.6631732595
 10
228.9047765
 20
121.7030474669
 10
228.937661474
 20
121.7945494928
 10
228.96446466
 20
121.8156159971
  0
LINE
  5
184
330
1F
100
AcDbEntity
  8
0
  6
SLD-Gestrichelt
 62
     7
370
     0
100
AcDbLine
 10
229.62446466
 20
120.9466671748
 30
0.0
 11
229.62446466
 21
121.2267187226
 31
0.0
  0
LINE
  5
185
330
1F
100
AcDbEntity
  8
0
  6
SLD-Gestrichelt
 62
     7
370
     0
100
AcDbLine
 10
229.62446466
 20
126.2267187226
 30
0.0
 11
229.62446466
 21
125.9466671748
 31
0.0
  0
LINE
  5
186
330
1F
100
AcDbEntity
  8
0
  6
SLD-Gestrichelt
 62
     7
370
     0
100
AcDbLine
 10
229.62446466
 20
126.2267187226
 30
0.0
 11
229.5128883678
 21
126.2911373249
 31
0.0
  0
LINE
  5
187
330
1F
100
AcDbEntity
  8
0
  6
SLD-Gestrichelt
 62
     7
370
     0
100
AcDbLine
 10
229.62446466
 20
124.9767187226
 30
0.0
 11
229.62446466
 21
124.6966671748
 31
0.0
  0
LWPOLYLINE
  5
188
330
1F
100
AcDbEntity
  8
0
  6
SLD-Gestrichelt
 62
     7
370
     0
100
AcDbPolyline
 90
        9
 70
   128
 43
0.0
 10
228.96446466
 20
125.5656159971
 10
228.9513229664
 20
125.5568259748
 10
228.9420182267
 20
125.5488857559
 10
228.9328779372
 20
125.5392292124
 10
228.9258364971
 20
125.5300485298
 10
228.9176373796
 20
125.5163549296
 10
228.9088130239
 20
125.4937038697
 10
228.9067056859
 20
125.4386099674
 10
228.96446466
 20
125.3577699002
  0
LINE
  5
189
330
1F
100
AcDbEntity
  8
0
  6
SLD-Gestrichelt
 62
     7
370
     0
100
AcDbLine
 10
229.62446466
 20
123.7267187226
 30
0.0
 11
229.62446466
 21
123.4466671748
 31
0.0
  0
ARC
  5
18A
330
1F
100
AcDbEntity
  8
0
  6
SLD-Gestrichelt
 62
     7
370
     0
100
AcDbCircle
 10
229.02446466
 20
124.2116929487
 30
0.0
 40
0.1199999999995341
100
AcDbArc
 50
119.9999999996
 51
240.0000000004
  0
LINE
  5
18B
330
1F
100
AcDbEntity
  8
0
  6
SLD-Gestrichelt
 62
     7
370
     0
100
AcDbLine
 10
229.62446466
 20
122.4767187226
 30
0.0
 11
229.62446466
 21
122.1966671748
 31
0.0
  0
LINE
  5
18C
330
1F
100
AcDbEntity
  8
0
  6
SLD-Gestrichelt
 62
     7
370
     0
100
AcDbLine
 10
229.62446466
 20
121.2267187226
 30
0.0
 11
229.62446466
 21
120.9466671748
 31
0.0
  0
ARC
  5
18D
330
1F
100
AcDbEntity
  8
0
  6
SLD-Gestrichelt
 62
     7
370
     0
100
AcDbCircle
 10
229.02446466
 20
122.9616929487
 30
0.0
 40
0.1199999999998042
100
AcDbArc
 50
119.9999999998
 51
240.0000000002
  0
LWPOLYLINE
  5
18E
330
1F
100
AcDbEntity
  8
0
  6
SLD-Gestrichelt
 62
     7
370
     0
100
AcDbPolyline
 90
       10
 70
   128
 43
0.0
 10
228.96446466
 20
121.8156159971
 10
228.9126654673
 20
121.7552927251
 10
228.9048055417
 20
121.7026543974
 10
228.9121309204
 20
121.6694895016
 10
228.9226266929
 20
121.6482183203
 10
228.9285215644
 20
121.6396171385
 10
228.9362026154
 20
121.6303922015
 10
228.9438293265
 20
121.6228225769
 10
228.9527951621
 20
121.6154459587
 10
228.96446466
 20
121.6077699002
  0
LINE
  5
18F
330
1F
100
AcDbEntity
  8
0
  6
SLD-Gestrichelt
 62
     7
370
     0
100
AcDbLine
 10
229.62446466
 20
120.9466671748
 30
0.0
 11
229.56737165
 21
120.9137045101
 31
0.0
  0
LINE
  5
190
330
1F
100
AcDbEntity
  8
0
  6
SLD-Gestrichelt
 62
     7
370
     0
100
AcDbLine
 10
228.47446466
 20
110.6548386992
 30
0.0
 11
228.47446466
 21
113.9548386992
 31
0.0
  0
LWPOLYLINE
  5
191
330
1F
100
AcDbEntity
  8
0
  6
SLD-Gestrichelt
 62
     7
370
     0
100
AcDbPolyline
 90
       11
 70
   128
 43
0.0
 10
228.96446466
 20
114.1077699002
 10
228.9126654673
 20
114.1680931722
 10
228.9048055417
 20
114.2207315
 10
228.9082264233
 20
114.2415035562
 10
228.9178072002
 20
114.2666855506
 10
228.927619512
 20
114.2825520857
 10
228.9339093611
 20
114.2904313626
 10
228.9412666877
 20
114.2981689419
 10
228.9481244711
 20
114.3042789927
 10
228.9591017257
 20
114.3123293576
 10
228.96446466
 20
114.3156159971
  0
LINE
  5
192
330
1F
100
AcDbEntity
  8
0
  6
SLD-Gestrichelt
 62
     7
370
     0
100
AcDbLine
 10
229.62446466
 20
113.4466671748
 30
0.0
 11
229.62446466
 21
113.7267187226
 31
0.0
  0
ARC
  5
193
330
1F
100
AcDbEntity
  8
0
  6
SLD-Gestrichelt
 62
     7
370
     0
100
AcDbCircle
 10
229.02446466
 20
112.9616929487
 30
0.0
 40
0.1199999999998042
100
AcDbArc
 50
119.9999999998
 51
240.0000000002
  0
LINE
  5
194
330
1F
100
AcDbEntity
  8
0
  6
SLD-Gestrichelt
 62
     7
370
     0
100
AcDbLine
 10
229.62446466
 20
112.1966671748
 30
0.0
 11
229.62446466
 21
112.4767187226
 31
0.0
  0
ARC
  5
195
330
1F
100
AcDbEntity
  8
0
  6
SLD-Gestrichelt
 62
     7
370
     0
100
AcDbCircle
 10
229.02446466
 20
111.7116929487
 30
0.0
 40
0.1199999999995341
100
AcDbArc
 50
119.9999999996
 51
240.0000000004
  0
LINE
  5
196
330
1F
100
AcDbEntity
  8
0
  6
SLD-Gestrichelt
 62
     7
370
     0
100
AcDbLine
 10
229.62446466
 20
110.9466671748
 30
0.0
 11
229.62446466
 21
111.2267187226
 31
0.0
  0
LWPOLYLINE
  5
197
330
1F
100
AcDbEntity
  8
0
  6
SLD-Gestrichelt
 62
     7
370
     0
100
AcDbPolyline
 90
        9
 70
   128
 43
0.0
 10
228.96446466
 20
110.3577699002
 10
228.9513229664
 20
110.3665599226
 10
228.9420182267
 20
110.3745001414
 10
228.9328779372
 20
110.3841566849
 10
228.9258364971
 20
110.3933373675
 10
228.9176373796
 20
110.4070309678
 10
228.9088130239
 20
110.4296820276
 10
228.9067056859
 20
110.4847759299
 10
228.96446466
 20
110.5656159971
  0
LINE
  5
198
330
1F
100
AcDbEntity
  8
0
  6
SLD-Gestrichelt
 62
     7
370
     0
100
AcDbLine
 10
229.62446466
 20
109.6966671748
 30
0.0
 11
229.62446466
 21
109.9767187226
 31
0.0
  0
LINE
  5
199
330
1F
100
AcDbEntity
  8
0
  6
SLD-Gestrichelt
 62
     7
370
     0
100
AcDbLine
 10
229.62446466
 20
114.6966671748
 30
0.0
 11
229.62446466
 21
114.9767187226
 31
0.0
  0
LINE
  5
19A
330
1F
100
AcDbEntity
  8
0
  6
SLD-Gestrichelt
 62
     7
370
     0
100
AcDbLine
 10
229.62446466
 20
109.9767187226
 30
0.0
 11
229.62446466
 21
109.6966671748
 31
0.0
  0
LINE
  5
19B
330
1F
100
AcDbEntity
  8
0
  6
SLD-Gestrichelt
 62
     7
370
     0
100
AcDbLine
 10
229.62446466
 20
109.6966671748
 30
0.0
 11
229.5128883678
 21
109.6322485725
 31
0.0
  0
LINE
  5
19C
330
1F
100
AcDbEntity
  8
0
  6
SLD-Gestrichelt
 62
     7
370
     0
100
AcDbLine
 10
229.62446466
 20
111.2267187226
 30
0.0
 11
229.62446466
 21
110.9466671748
 31
0.0
  0
LWPOLYLINE
  5
19D
330
1F
100
AcDbEntity
  8
0
  6
SLD-Gestrichelt
 62
     7
370
     0
100
AcDbPolyline
 90
       11
 70
   128
 43
0.0
 10
228.96446466
 20
110.5656159971
 10
228.9099196722
 20
110.4974622898
 10
228.9045957611
 20
110.4560851795
 10
228.9092316075
 20
110.4282064798
 10
228.9161685474
 20
110.4100020212
 10
228.9238768344
 20
110.3962552734
 10
228.9314228594
 20
110.3859088914
 10
228.9406499312
 20
110.3758145973
 10
228.9490927773
 20
110.3683169384
 10
228.9625074878
 20
110.35892472
 10
228.96446466
 20
110.3577699002
  0
LINE
  5
19E
330
1F
100
AcDbEntity
  8
0
  6
SLD-Gestrichelt
 62
     7
370
     0
100
AcDbLine
 10
229.62446466
 20
112.4767187226
 30
0.0
 11
229.62446466
 21
112.1966671748
 31
0.0
  0
ARC
  5
19F
330
1F
100
AcDbEntity
  8
0
  6
SLD-Gestrichelt
 62
     7
370
     0
100
AcDbCircle
 10
229.02446466
 20
111.7116929487
 30
0.0
 40
0.1199999999998042
100
AcDbArc
 50
119.9999999998
 51
240.0000000002
  0
LINE
  5
1A0
330
1F
100
AcDbEntity
  8
0
  6
SLD-Gestrichelt
 62
     7
370
     0
100
AcDbLine
 10
229.62446466
 20
113.7267187226
 30
0.0
 11
229.62446466
 21
113.4466671748
 31
0.0
  0
LINE
  5
1A1
330
1F
100
AcDbEntity
  8
0
  6
SLD-Gestrichelt
 62
     7
370
     0
100
AcDbLine
 10
229.62446466
 20
114.9767187226
 30
0.0
 11
229.62446466
 21
114.6966671748
 31
0.0
  0
ARC
  5
1A2
330
1F
100
AcDbEntity
  8
0
  6
SLD-Gestrichelt
 62
     7
370
     0
100
AcDbCircle
 10
229.02446466
 20
112.9616929487
 30
0.0
 40
0.1199999999997331
100
AcDbArc
 50
119.9999999998
 51
240.0000000002
  0
LWPOLYLINE
  5
1A3
330
1F
100
AcDbEntity
  8
0
  6
SLD-Gestrichelt
 62
     7
370
     0
100
AcDbPolyline
 90
       10
 70
   128
 43
0.0
 10
228.96446466
 20
114.3156159971
 10
228.9528615975
 20
114.3079893735
 10
228.9450140954
 20
114.3016240766
 10
228.9368196605
 20
114.293658515
 10
228.9302461733
 20
114.2860090085
 10
228.9231888734
 20
114.2760607593
 10
228.914711119
 20
114.2602126379
 10
228.9047765
 20
114.2203384305
 10
228.937661474
 20
114.1288364046
 10
228.96446466
 20
114.1077699002
  0
LINE
  5
1A4
330
1F
100
AcDbEntity
  8
0
  6
SLD-Gestrichelt
 62
     7
370
     0
100
AcDbLine
 10
229.62446466
 20
114.9767187226
 30
0.0
 11
229.5480551739
 21
115.0208337599
 31
0.0
  0
LINE
  5
1A5
330
1F
100
AcDbEntity
  8
0
  6
SLD-Gestrichelt
 62
     7
370
     0
100
AcDbLine
 10
165.32446466
 20
110.7116929487
 30
0.0
 11
165.32446466
 21
125.2116929487
 31
0.0
  0
LINE
  5
1A6
330
1F
100
AcDbEntity
  8
0
  6
SLD-Gestrichelt
 62
     7
370
     0
100
AcDbLine
 10
164.32446466
 20
109.7116929487
 30
0.0
 11
164.32446466
 21
126.2116929487
 31
0.0
  0
LINE
  5
1A7
330
1F
100
AcDbEntity
  8
0
  6
SLD-Gestrichelt
 62
     7
370
     0
100
AcDbLine
 10
218.32446466
 20
121.9685471982
 30
0.0
 11
218.32446466
 21
125.2685471982
 31
0.0
  0
LINE
  5
1A8
330
1F
100
AcDbEntity
  8
0
  6
SLD-Gestrichelt
 62
     7
370
     0
100
AcDbLine
 10
218.32446466
 20
110.6548386992
 30
0.0
 11
218.32446466
 21
113.9548386992
 31
0.0
  0
LINE
  5
1A9
330
1F
100
AcDbEntity
  8
0
  6
SLD-Gestrichelt
 62
     7
370
     0
100
AcDbLine
 10
189.32446466
 20
110.7116929487
 30
0.0
 11
189.32446466
 21
125.2116929487
 31
0.0
  0
LINE
  5
1AA
330
1F
100
AcDbEntity
  8
0
  6
SLD-Gestrichelt
 62
     7
370
     0
100
AcDbLine
 10
191.6377780433
 20
114.5616929487
 30
0.0
 11
191.6377780433
 21
121.3616929487
 31
0.0
  0
LINE
  5
1AB
330
1F
100
AcDbEntity
  8
0
  6
SLD-Gestrichelt
 62
     7
370
     0
100
AcDbLine
 10
172.12446466
 20
135.2244920252
 30
0.0
 11
172.12446466
 21
136.6017917332
 31
0.0
  0
LINE
  5
1AC
330
1F
100
AcDbEntity
  8
0
  6
SLD-Gestrichelt
 62
     7
370
     0
100
AcDbLine
 10
145.82446466
 20
134.6522678678
 30
0.0
 11
145.82446466
 21
135.9410441906
 31
0.0
  0
ARC
  5
1AD
330
1F
100
AcDbEntity
  8
0
  6
SLD-Gestrichelt
 62
     7
370
     0
100
AcDbCircle
 10
281.4270013317
 20
185.044668909
 30
0.0
 40
119.2038802678634
100
AcDbArc
 50
204.0890352871
 51
204.5544853932
  0
LINE
  5
1AE
330
1F
100
AcDbEntity
  8
0
  6
SLD-Gestrichelt
 62
     7
370
     0
100
AcDbLine
 10
144.32446466
 20
133.9022678678
 30
0.0
 11
144.32446466
 21
135.0750187868
 31
0.0
  0
LINE
  5
1AF
330
1F
100
AcDbEntity
  8
0
  6
SLD-Gestrichelt
 62
     7
370
     0
100
AcDbLine
 10
228.82446466
 20
113.9616929487
 30
0.0
 11
228.82446466
 21
121.9616929487
 31
0.0
  0
LINE
  5
1B0
330
1F
100
AcDbEntity
  8
0
  6
SLD-Gestrichelt
 62
     7
370
     0
100
AcDbLine
 10
229.62446466
 20
122.1966671748
 30
0.0
 11
229.62446466
 21
122.4767187226
 31
0.0
  0
LINE
  5
1B1
330
1F
100
AcDbEntity
  8
0
  6
SLD-Gestrichelt
 62
     7
370
     0
100
AcDbLine
 10
229.62446466
 20
122.4767187226
 30
0.0
 11
229.4438652236
 21
122.5809878558
 31
0.0
  0
LINE
  5
1B2
330
1F
100
AcDbEntity
  8
0
  6
SLD-Gestrichelt
 62
     7
370
     0
100
AcDbLine
 10
229.62446466
 20
122.4767187226
 30
0.0
 11
229.62446466
 21
122.1966671748
 31
0.0
  0
LWPOLYLINE
  5
1B3
330
1F
100
AcDbEntity
  8
0
  6
SLD-Gestrichelt
 62
     7
370
     0
100
AcDbPolyline
 90
       10
 70
   128
 43
0.0
 10
228.96446466
 20
121.8156159971
 10
228.9522846642
 20
121.8075576878
 10
228.9439434245
 20
121.8006667124
 10
228.9354300798
 20
121.7921469325
 10
228.9287161465
 20
121.7840270496
 10
228.9212991869
 20
121.7729863836
 10
228.9127224336
 20
121.755438518
 10
228.9044696803
 20
121.7127906008
 10
228.9465563348
 20
121.6204225107
 10
228.96446466
 20
121.6077699002
  0
LINE
  5
1B4
330
1F
100
AcDbEntity
  8
0
  6
SLD-Gestrichelt
 62
     7
370
     0
100
AcDbLine
 10
229.62446466
 20
121.2267187226
 30
0.0
 11
229.62446466
 21
120.9466671748
 31
0.0
  0
ARC
  5
1B5
330
1F
100
AcDbEntity
  8
0
  6
SLD-Gestrichelt
 62
     7
370
     0
100
AcDbCircle
 10
229.02446466
 20
120.4616929487
 30
0.0
 40
0.1199999999999889
100
AcDbArc
 50
120.0
 51
240.0
  0
LINE
  5
1B6
330
1F
100
AcDbEntity
  8
0
  6
SLD-Gestrichelt
 62
     7
370
     0
100
AcDbLine
 10
229.62446466
 20
119.9767187226
 30
0.0
 11
229.62446466
 21
119.6966671748
 31
0.0
  0
ARC
  5
1B7
330
1F
100
AcDbEntity
  8
0
  6
SLD-Gestrichelt
 62
     7
370
     0
100
AcDbCircle
 10
229.02446466
 20
119.2116929487
 30
0.0
 40
0.1199999999998165
100
AcDbArc
 50
119.9999999998
 51
240.0000000002
  0
LINE
  5
1B8
330
1F
100
AcDbEntity
  8
0
  6
SLD-Gestrichelt
 62
     7
370
     0
100
AcDbLine
 10
229.62446466
 20
118.7267187226
 30
0.0
 11
229.62446466
 21
118.4466671748
 31
0.0
  0
ARC
  5
1B9
330
1F
100
AcDbEntity
  8
0
  6
SLD-Gestrichelt
 62
     7
370
     0
100
AcDbCircle
 10
229.02446466
 20
117.9616929487
 30
0.0
 40
0.119999999999987
100
AcDbArc
 50
120.0
 51
240.0
  0
LINE
  5
1BA
330
1F
100
AcDbEntity
  8
0
  6
SLD-Gestrichelt
 62
     7
370
     0
100
AcDbLine
 10
229.62446466
 20
117.4767187226
 30
0.0
 11
229.62446466
 21
117.1966671748
 31
0.0
  0
ARC
  5
1BB
330
1F
100
AcDbEntity
  8
0
  6
SLD-Gestrichelt
 62
     7
370
     0
100
AcDbCircle
 10
229.02446466
 20
116.7116929487
 30
0.0
 40
0.119999999999987
100
AcDbArc
 50
120.0
 51
240.0
  0
LINE
  5
1BC
330
1F
100
AcDbEntity
  8
0
  6
SLD-Gestrichelt
 62
     7
370
     0
100
AcDbLine
 10
229.62446466
 20
116.2267187226
 30
0.0
 11
229.62446466
 21
115.9466671748
 31
0.0
  0
ARC
  5
1BD
330
1F
100
AcDbEntity
  8
0
  6
SLD-Gestrichelt
 62
     7
370
     0
100
AcDbCircle
 10
229.02446466
 20
115.4616929487
 30
0.0
 40
0.1199999999993617
100
AcDbArc
 50
119.9999999995
 51
240.0000000005
  0
LINE
  5
1BE
330
1F
100
AcDbEntity
  8
0
  6
SLD-Gestrichelt
 62
     7
370
     0
100
AcDbLine
 10
229.62446466
 20
114.9767187226
 30
0.0
 11
229.62446466
 21
114.6966671748
 31
0.0
  0
ARC
  5
1BF
330
1F
100
AcDbEntity
  8
0
  6
SLD-Gestrichelt
 62
     7
370
     0
100
AcDbCircle
 10
229.02446466
 20
114.2116929487
 30
0.0
 40
0.1199999999999889
100
AcDbArc
 50
120.0
 51
240.0
  0
LINE
  5
1C0
330
1F
100
AcDbEntity
  8
0
  6
SLD-Gestrichelt
 62
     7
370
     0
100
AcDbLine
 10
229.62446466
 20
113.7267187226
 30
0.0
 11
229.62446466
 21
113.4466671748
 31
0.0
  0
LINE
  5
1C1
330
1F
100
AcDbEntity
  8
0
  6
SLD-Gestrichelt
 62
     7
370
     0
100
AcDbLine
 10
229.62446466
 20
113.4466671748
 30
0.0
 11
229.4635720413
 21
113.353775778
 31
0.0
  0
LINE
  5
1C2
330
1F
100
AcDbEntity
  8
0
  6
SLD-Gestrichelt
 62
     7
370
     0
100
AcDbLine
 10
229.62446466
 20
113.4466671748
 30
0.0
 11
229.62446466
 21
113.7267187226
 31
0.0
  0
LINE
  5
1C3
330
1F
100
AcDbEntity
  8
0
  6
SLD-Gestrichelt
 62
     7
370
     0
100
AcDbLine
 10
229.62446466
 20
120.9466671748
 30
0.0
 11
229.62446466
 21
121.2267187226
 31
0.0
  0
LINE
  5
1C4
330
1F
100
AcDbEntity
  8
0
  6
SLD-Gestrichelt
 62
     7
370
     0
100
AcDbLine
 10
229.62446466
 20
114.6966671748
 30
0.0
 11
229.62446466
 21
114.9767187226
 31
0.0
  0
LWPOLYLINE
  5
1C5
330
1F
100
AcDbEntity
  8
0
  6
SLD-Gestrichelt
 62
     7
370
     0
100
AcDbPolyline
 90
       10
 70
   128
 43
0.0
 10
228.96446466
 20
114.1077699002
 10
228.9522846642
 20
114.1158282096
 10
228.9439434245
 20
114.122719185
 10
228.9354300798
 20
114.1312389648
 10
228.9287161465
 20
114.1393588477
 10
228.9212991869
 20
114.1503995137
 10
228.9127224336
 20
114.1679473794
 10
228.9044696803
 20
114.2105952966
 10
228.9465563348
 20
114.3029633867
 10
228.96446466
 20
114.3156159971
  0
ARC
  5
1C6
330
1F
100
AcDbEntity
  8
0
  6
SLD-Gestrichelt
 62
     7
370
     0
100
AcDbCircle
 10
229.02446466
 20
121.7116929487
 30
0.0
 40
0.1199999999999889
100
AcDbArc
 50
120.0
 51
240.0
  0
LINE
  5
1C7
330
1F
100
AcDbEntity
  8
0
  6
SLD-Gestrichelt
 62
     7
370
     0
100
AcDbLine
 10
229.62446466
 20
115.9466671748
 30
0.0
 11
229.62446466
 21
116.2267187226
 31
0.0
  0
LINE
  5
1C8
330
1F
100
AcDbEntity
  8
0
  6
SLD-Gestrichelt
 62
     7
370
     0
100
AcDbLine
 10
229.62446466
 20
119.6966671748
 30
0.0
 11
229.62446466
 21
119.9767187226
 31
0.0
  0
LINE
  5
1C9
330
1F
100
AcDbEntity
  8
0
  6
SLD-Gestrichelt
 62
     7
370
     0
100
AcDbLine
 10
229.62446466
 20
117.1966671748
 30
0.0
 11
229.62446466
 21
117.4767187226
 31
0.0
  0
LINE
  5
1CA
330
1F
100
AcDbEntity
  8
0
  6
SLD-Gestrichelt
 62
     7
370
     0
100
AcDbLine
 10
229.62446466
 20
118.4466671748
 30
0.0
 11
229.62446466
 21
118.7267187226
 31
0.0
  0
ARC
  5
1CB
330
1F
100
AcDbEntity
  8
0
  6
SLD-Gestrichelt
 62
     7
370
     0
100
AcDbCircle
 10
229.02446466
 20
120.4616929487
 30
0.0
 40
0.1199999999993494
100
AcDbArc
 50
119.9999999995
 51
240.0000000005
  0
ARC
  5
1CC
330
1F
100
AcDbEntity
  8
0
  6
SLD-Gestrichelt
 62
     7
370
     0
100
AcDbCircle
 10
229.02446466
 20
115.4616929487
 30
0.0
 40
0.1200000000000296
100
AcDbArc
 50
120.0
 51
240.0
  0
ARC
  5
1CD
330
1F
100
AcDbEntity
  8
0
  6
SLD-Gestrichelt
 62
     7
370
     0
100
AcDbCircle
 10
229.02446466
 20
119.2116929487
 30
0.0
 40
0.119999999999987
100
AcDbArc
 50
120.0
 51
240.0
  0
ARC
  5
1CE
330
1F
100
AcDbEntity
  8
0
  6
SLD-Gestrichelt
 62
     7
370
     0
100
AcDbCircle
 10
229.02446466
 20
116.7116929487
 30
0.0
 40
0.1199999999998288
100
AcDbArc
 50
119.9999999998
 51
240.0000000002
  0
ARC
  5
1CF
330
1F
100
AcDbEntity
  8
0
  6
SLD-Gestrichelt
 62
     7
370
     0
100
AcDbCircle
 10
229.02446466
 20
117.9616929487
 30
0.0
 40
0.1200000000000012
100
AcDbArc
 50
120.0
 51
240.0
  0
LINE
  5
1D0
330
1F
100
AcDbEntity
  8
0
  6
SLD-Gestrichelt
 62
     7
370
     0
100
AcDbLine
 10
227.27446466
 20
114.2616929487
 30
0.0
 11
227.27446466
 21
121.6616929487
 31
0.0
  0
LINE
  5
1D1
330
1F
100
AcDbEntity
  8
0
  6
SLD-Gestrichelt
 62
     7
370
     0
100
AcDbLine
 10
225.77446466
 20
114.2616929487
 30
0.0
 11
225.77446466
 21
121.6616929487
 31
0.0
  0
LINE
  5
1D2
330
1F
100
AcDbEntity
  8
0
  6
SLD-Gestrichelt
 62
     7
370
     0
100
AcDbLine
 10
223.32446466
 20
114.5616929487
 30
0.0
 11
223.32446466
 21
121.3616929487
 31
0.0
  0
LINE
  5
1D3
330
1F
100
AcDbEntity
  8
0
  6
SLD-Gestrichelt
 62
     7
370
     0
100
AcDbLine
 10
223.5648089076
 20
114.9616929487
 30
0.0
 11
223.5648089076
 21
120.9616929487
 31
0.0
  0
LINE
  5
1D4
330
1F
100
AcDbEntity
  8
0
  6
SLD-Gestrichelt
 62
     7
370
     0
100
AcDbLine
 10
157.27446466
 20
102.171375228
 30
0.0
 11
163.37446466
 21
102.171375228
 31
0.0
  0
LINE
  5
1D5
330
1F
100
AcDbEntity
  8
0
  6
SLD-Gestrichelt
 62
     7
370
     0
100
AcDbLine
 10
228.3048494178
 20
114.9616929487
 30
0.0
 11
228.3048494178
 21
120.9616929487
 31
0.0
  0
LINE
  5
1D6
330
1F
100
AcDbEntity
  8
0
  6
SLD-Gestrichelt
 62
     7
370
     0
100
AcDbLine
 10
228.82446466
 20
121.257955168
 30
0.0
 11
228.82446466
 21
114.6654307294
 31
0.0
  0
LWPOLYLINE
  5
1D7
330
1F
100
AcDbEntity
  8
0
  6
SLD-Gestrichelt
 62
     7
370
     0
100
AcDbPolyline
 90
        3
 70
   128
 43
0.0
 10
145.82446466
 20
102.4288961903
 10
145.0609967451
 20
102.8281966023
 10
144.32446466
 20
103.206423965
  0
LINE
  5
1D8
330
1F
100
AcDbEntity
  8
0
  6
SLD-Gestrichelt
 62
     7
370
     0
100
AcDbLine
 10
149.82446466
 20
102.3368291902
 30
0.0
 11
149.82446466
 21
103.9616929487
 31
0.0
  0
LINE
  5
1D9
330
1F
100
AcDbEntity
  8
0
  6
SLD-Gestrichelt
 62
     7
370
     0
100
AcDbLine
 10
144.32446466
 20
103.206423965
 30
0.0
 11
144.32446466
 21
103.9616929487
 31
0.0
  0
LINE
  5
1DA
330
1F
100
AcDbEntity
  8
0
  6
SLD-Gestrichelt
 62
     7
370
     0
100
AcDbLine
 10
157.27446466
 20
131.9616929487
 30
0.0
 11
163.37446466
 21
131.9616929487
 31
0.0
  0
LINE
  5
1DB
330
1F
100
AcDbEntity
  8
0
  6
SLD-Gestrichelt
 62
     7
370
     0
100
AcDbLine
 10
225.77446466
 20
114.9655434272
 30
0.0
 11
225.77446466
 21
120.9578424702
 31
0.0
  0
LINE
  5
1DC
330
1F
100
AcDbEntity
  8
0
  6
SLD-Gestrichelt
 62
     7
370
     0
100
AcDbLine
 10
227.27446466
 20
114.9655434272
 30
0.0
 11
227.27446466
 21
120.9578424702
 31
0.0
  0
LINE
  5
1DD
330
1F
100
AcDbEntity
  8
0
  6
SLD-Gestrichelt
 62
     7
370
     0
100
AcDbLine
 10
184.32446466
 20
93.4616929487
 30
0.0
 11
188.32446466
 21
93.4616929487
 31
0.0
  0
LINE
  5
1DE
330
1F
100
AcDbEntity
  8
0
  6
SLD-Gestrichelt
 62
     7
370
     0
100
AcDbLine
 10
144.32446466
 20
106.2010149341
 30
0.0
 11
144.32446466
 21
103.206423965
 31
0.0
  0
LINE
  5
1DF
330
1F
100
AcDbEntity
  8
0
  6
SLD-Gestrichelt
 62
     7
370
     0
100
AcDbLine
 10
228.47446466
 20
121.972393729
 30
0.0
 11
228.47446466
 21
125.2647006673
 31
0.0
  0
LINE
  5
1E0
330
1F
100
AcDbEntity
  8
0
  6
SLD-Gestrichelt
 62
     7
370
     0
100
AcDbLine
 10
229.62446466
 20
125.9466671748
 30
0.0
 11
229.62446466
 21
126.2267187226
 31
0.0
  0
LWPOLYLINE
  5
1E1
330
1F
100
AcDbEntity
  8
0
  6
SLD-Gestrichelt
 62
     7
370
     0
100
AcDbPolyline
 90
       11
 70
   128
 43
0.0
 10
228.96446466
 20
125.3577699002
 10
228.9099196722
 20
125.4259236075
 10
228.9045957611
 20
125.4673007178
 10
228.9092316075
 20
125.4951794175
 10
228.9161685474
 20
125.5133838761
 10
228.9238768344
 20
125.5271306239
 10
228.9314228594
 20
125.5374770059
 10
228.9406499312
 20
125.5475713
 10
228.9490927773
 20
125.5550689589
 10
228.9625074878
 20
125.5644611773
 10
228.96446466
 20
125.5656159971
  0
LINE
  5
1E2
330
1F
100
AcDbEntity
  8
0
  6
SLD-Gestrichelt
 62
     7
370
     0
100
AcDbLine
 10
229.62446466
 20
124.6966671748
 30
0.0
 11
229.62446466
 21
124.9767187226
 31
0.0
  0
LINE
  5
1E3
330
1F
100
AcDbEntity
  8
0
  6
SLD-Gestrichelt
 62
     7
370
     0
100
AcDbLine
 10
229.62446466
 20
123.4466671748
 30
0.0
 11
229.62446466
 21
123.7267187226
 31
0.0
  0
LINE
  5
1E4
330
1F
100
AcDbEntity
  8
0
  6
SLD-Gestrichelt
 62
     7
370
     0
100
AcDbLine
 10
229.62446466
 20
122.1966671748
 30
0.0
 11
229.62446466
 21
122.4767187226
 31
0.0
  0
LWPOLYLINE
  5
1E5
330
1F
100
AcDbEntity
  8
0
  6
SLD-Gestrichelt
 62
     7
370
     0
100
AcDbPolyline
 90
       10
 70
   128
 43
0.0
 10
228.96446466
 20
121.6077699002
 10
228.9528615975
 20
121.6153965238
 10
228.9450140954
 20
121.6217618207
 10
228.9368196605
 20
121.6297273824
 10
228.9302461733
 20
121.6373768888
 10
228.9231888734
 20
121.6473251381
 10
228.914711119
 20
121.6631732595
 10
228.9047765
 20
121.7030474669
 10
228.937661474
 20
121.7945494928
 10
228.96446466
 20
121.8156159971
  0
LINE
  5
1E6
330
1F
100
AcDbEntity
  8
0
  6
SLD-Gestrichelt
 62
     7
370
     0
100
AcDbLine
 10
229.62446466
 20
120.9466671748
 30
0.0
 11
229.62446466
 21
121.2267187226
 31
0.0
  0
LINE
  5
1E7
330
1F
100
AcDbEntity
  8
0
  6
SLD-Gestrichelt
 62
     7
370
     0
100
AcDbLine
 10
229.62446466
 20
121.2267187226
 30
0.0
 11
229.62446466
 21
120.9466671748
 31
0.0
  0
LINE
  5
1E8
330
1F
100
AcDbEntity
  8
0
  6
SLD-Gestrichelt
 62
     7
370
     0
100
AcDbLine
 10
229.62446466
 20
122.4767187226
 30
0.0
 11
229.62446466
 21
122.1966671748
 31
0.0
  0
LWPOLYLINE
  5
1E9
330
1F
100
AcDbEntity
  8
0
  6
SLD-Gestrichelt
 62
     7
370
     0
100
AcDbPolyline
 90
       10
 70
   128
 43
0.0
 10
228.96446466
 20
121.8156159971
 10
228.9126654673
 20
121.7552927251
 10
228.9048055417
 20
121.7026543974
 10
228.9121309204
 20
121.6694895016
 10
228.9226266929
 20
121.6482183203
 10
228.9285215644
 20
121.6396171385
 10
228.9362026154
 20
121.6303922015
 10
228.9438293265
 20
121.6228225769
 10
228.9527951621
 20
121.6154459587
 10
228.96446466
 20
121.6077699002
  0
LINE
  5
1EA
330
1F
100
AcDbEntity
  8
0
  6
SLD-Gestrichelt
 62
     7
370
     0
100
AcDbLine
 10
229.62446466
 20
123.7267187226
 30
0.0
 11
229.62446466
 21
123.4466671748
 31
0.0
  0
LINE
  5
1EB
330
1F
100
AcDbEntity
  8
0
  6
SLD-Gestrichelt
 62
     7
370
     0
100
AcDbLine
 10
229.62446466
 20
124.9767187226
 30
0.0
 11
229.62446466
 21
124.6966671748
 31
0.0
  0
LINE
  5
1EC
330
1F
100
AcDbEntity
  8
0
  6
SLD-Gestrichelt
 62
     7
370
     0
100
AcDbLine
 10
229.62446466
 20
126.2267187226
 30
0.0
 11
229.62446466
 21
125.9466671748
 31
0.0
  0
LWPOLYLINE
  5
1ED
330
1F
100
AcDbEntity
  8
0
  6
SLD-Gestrichelt
 62
     7
370
     0
100
AcDbPolyline
 90
        9
 70
   128
 43
0.0
 10
228.96446466
 20
125.5656159971
 10
228.9513229664
 20
125.5568259748
 10
228.9420182267
 20
125.5488857559
 10
228.9328779372
 20
125.5392292124
 10
228.9258364971
 20
125.5300485298
 10
228.9176373796
 20
125.5163549296
 10
228.9088130239
 20
125.4937038697
 10
228.9067056859
 20
125.4386099674
 10
228.96446466
 20
125.3577699002
  0
LINE
  5
1EE
330
1F
100
AcDbEntity
  8
0
  6
SLD-Gestrichelt
 62
     7
370
     0
100
AcDbLine
 10
228.47446466
 20
110.65868523
 30
0.0
 11
228.47446466
 21
113.9509921683
 31
0.0
  0
LWPOLYLINE
  5
1EF
330
1F
100
AcDbEntity
  8
0
  6
SLD-Gestrichelt
 62
     7
370
     0
100
AcDbPolyline
 90
       11
 70
   128
 43
0.0
 10
228.96446466
 20
114.1077699002
 10
228.9126654673
 20
114.1680931722
 10
228.9048055417
 20
114.2207315
 10
228.9082264233
 20
114.2415035562
 10
228.9178072002
 20
114.2666855506
 10
228.927619512
 20
114.2825520857
 10
228.9339093611
 20
114.2904313626
 10
228.9412666877
 20
114.2981689419
 10
228.9481244711
 20
114.3042789927
 10
228.9591017257
 20
114.3123293576
 10
228.96446466
 20
114.3156159971
  0
LINE
  5
1F0
330
1F
100
AcDbEntity
  8
0
  6
SLD-Gestrichelt
 62
     7
370
     0
100
AcDbLine
 10
229.62446466
 20
113.4466671748
 30
0.0
 11
229.62446466
 21
113.7267187226
 31
0.0
  0
LINE
  5
1F1
330
1F
100
AcDbEntity
  8
0
  6
SLD-Gestrichelt
 62
     7
370
     0
100
AcDbLine
 10
229.62446466
 20
112.1966671748
 30
0.0
 11
229.62446466
 21
112.4767187226
 31
0.0
  0
LINE
  5
1F2
330
1F
100
AcDbEntity
  8
0
  6
SLD-Gestrichelt
 62
     7
370
     0
100
AcDbLine
 10
229.62446466
 20
110.9466671748
 30
0.0
 11
229.62446466
 21
111.2267187226
 31
0.0
  0
LWPOLYLINE
  5
1F3
330
1F
100
AcDbEntity
  8
0
  6
SLD-Gestrichelt
 62
     7
370
     0
100
AcDbPolyline
 90
        9
 70
   128
 43
0.0
 10
228.96446466
 20
110.3577699002
 10
228.9513229664
 20
110.3665599226
 10
228.9420182267
 20
110.3745001414
 10
228.9328779372
 20
110.3841566849
 10
228.9258364971
 20
110.3933373675
 10
228.9176373796
 20
110.4070309678
 10
228.9088130239
 20
110.4296820276
 10
228.9067056859
 20
110.4847759299
 10
228.96446466
 20
110.5656159971
  0
LINE
  5
1F4
330
1F
100
AcDbEntity
  8
0
  6
SLD-Gestrichelt
 62
     7
370
     0
100
AcDbLine
 10
229.62446466
 20
109.6966671748
 30
0.0
 11
229.62446466
 21
109.9767187226
 31
0.0
  0
LINE
  5
1F5
330
1F
100
AcDbEntity
  8
0
  6
SLD-Gestrichelt
 62
     7
370
     0
100
AcDbLine
 10
229.62446466
 20
114.9767187226
 30
0.0
 11
229.62446466
 21
114.6966671748
 31
0.0
  0
LINE
  5
1F6
330
1F
100
AcDbEntity
  8
0
  6
SLD-Gestrichelt
 62
     7
370
     0
100
AcDbLine
 10
229.62446466
 20
114.6966671748
 30
0.0
 11
229.62446466
 21
114.9767187226
 31
0.0
  0
LINE
  5
1F7
330
1F
100
AcDbEntity
  8
0
  6
SLD-Gestrichelt
 62
     7
370
     0
100
AcDbLine
 10
229.62446466
 20
113.7267187226
 30
0.0
 11
229.62446466
 21
113.4466671748
 31
0.0
  0
LWPOLYLINE
  5
1F8
330
1F
100
AcDbEntity
  8
0
  6
SLD-Gestrichelt
 62
     7
370
     0
100
AcDbPolyline
 90
       10
 70
   128
 43
0.0
 10
228.96446466
 20
114.3156159971
 10
228.9528615975
 20
114.3079893735
 10
228.9450140954
 20
114.3016240766
 10
228.9368196605
 20
114.293658515
 10
228.9302461733
 20
114.2860090085
 10
228.9231888734
 20
114.2760607593
 10
228.914711119
 20
114.2602126379
 10
228.9047765
 20
114.2203384305
 10
228.937661474
 20
114.1288364046
 10
228.96446466
 20
114.1077699002
  0
LINE
  5
1F9
330
1F
100
AcDbEntity
  8
0
  6
SLD-Gestrichelt
 62
     7
370
     0
100
AcDbLine
 10
229.62446466
 20
112.4767187226
 30
0.0
 11
229.62446466
 21
112.1966671748
 31
0.0
  0
LINE
  5
1FA
330
1F
100
AcDbEntity
  8
0
  6
SLD-Gestrichelt
 62
     7
370
     0
100
AcDbLine
 10
229.62446466
 20
111.2267187226
 30
0.0
 11
229.62446466
 21
110.9466671748
 31
0.0
  0
LINE
  5
1FB
330
1F
100
AcDbEntity
  8
0
  6
SLD-Gestrichelt
 62
     7
370
     0
100
AcDbLine
 10
229.62446466
 20
109.9767187226
 30
0.0
 11
229.62446466
 21
109.6966671748
 31
0.0
  0
LWPOLYLINE
  5
1FC
330
1F
100
AcDbEntity
  8
0
  6
SLD-Gestrichelt
 62
     7
370
     0
100
AcDbPolyline
 90
       11
 70
   128
 43
0.0
 10
228.96446466
 20
110.5656159971
 10
228.9099196722
 20
110.4974622898
 10
228.9045957611
 20
110.4560851795
 10
228.9092316075
 20
110.4282064798
 10
228.9161685474
 20
110.4100020212
 10
228.9238768344
 20
110.3962552734
 10
228.9314228594
 20
110.3859088914
 10
228.9406499312
 20
110.3758145973
 10
228.9490927773
 20
110.3683169384
 10
228.9625074878
 20
110.35892472
 10
228.96446466
 20
110.3577699002
  0
LINE
  5
1FD
330
1F
100
AcDbEntity
  8
0
  6
SLD-Gestrichelt
 62
     7
370
     0
100
AcDbLine
 10
218.32446466
 20
121.972393729
 30
0.0
 11
218.32446466
 21
125.2647006673
 31
0.0
  0
LINE
  5
1FE
330
1F
100
AcDbEntity
  8
0
  6
SLD-Gestrichelt
 62
     7
370
     0
100
AcDbLine
 10
218.32446466
 20
110.65868523
 30
0.0
 11
218.32446466
 21
113.9509921683
 31
0.0
  0
LINE
  5
1FF
330
1F
100
AcDbEntity
  8
0
  6
SLD-Gestrichelt
 62
     7
370
     0
100
AcDbLine
 10
144.32446466
 20
133.9022678678
 30
0.0
 11
144.32446466
 21
113.7817960442
 31
0.0
  0
LINE
  5
200
330
1F
100
AcDbEntity
  8
0
  6
SLD-Gestrichelt
 62
     7
370
     0
100
AcDbLine
 10
145.82446466
 20
134.6522678678
 30
0.0
 11
145.82446466
 21
113.7817960442
 31
0.0
  0
LINE
  5
201
330
1F
100
AcDbEntity
  8
0
  6
SLD-Gestrichelt
 62
     7
370
     0
100
AcDbLine
 10
172.12446466
 20
135.2244920252
 30
0.0
 11
172.12446466
 21
113.7817960442
 31
0.0
  0
LINE
  5
202
330
1F
100
AcDbEntity
  8
0
  6
SLD-Gestrichelt
 62
     7
370
     0
100
AcDbLine
 10
174.12446466
 20
134.7677985038
 30
0.0
 11
174.12446466
 21
114.741352081
 31
0.0
  0
LINE
  5
203
330
1F
100
AcDbEntity
  8
0
  6
SLD-Gestrichelt
 62
     7
370
     0
100
AcDbLine
 10
144.32446466
 20
113.7817960442
 30
0.0
 11
144.32446466
 21
106.2010149341
 31
0.0
  0
LINE
  5
204
330
1F
100
AcDbEntity
  8
0
  6
SLD-Gestrichelt
 62
     7
370
     0
100
AcDbLine
 10
145.82446466
 20
113.7817960442
 30
0.0
 11
145.82446466
 21
105.4510149341
 31
0.0
  0
LINE
  5
205
330
1F
100
AcDbEntity
  8
0
  6
SLD-Gestrichelt
 62
     7
370
     0
100
AcDbLine
 10
172.12446466
 20
113.7817960442
 30
0.0
 11
172.12446466
 21
104.8787907767
 31
0.0
  0
ARC
  5
206
330
1F
100
AcDbEntity
  8
0
  6
SLD-Gestrichelt
 62
     7
370
     0
100
AcDbCircle
 10
188.3478577387
 20
109.188290789
 30
0.0
 40
15.77028758220568
100
AcDbArc
 50
166.6590435476
 51
193.3409564524
  0
LINE
  5
207
330
1F
100
AcDbEntity
  8
0
  6
SLD-Gestrichelt
 62
     7
370
     0
100
AcDbLine
 10
174.32446466
 20
98.4116929487
 30
0.0
 11
174.4173578788
 21
98.5045861675
 31
0.0
  0
LINE
  5
208
330
1F
100
AcDbEntity
  8
0
  6
SLD-Gestrichelt
 62
     7
370
     0
100
AcDbLine
 10
174.4173578788
 20
137.4187997299
 30
0.0
 11
174.32446466
 21
137.5116929487
 31
0.0
  0
ARC
  5
209
330
1F
100
AcDbEntity
  8
0
  6
SLD-Gestrichelt
 62
     7
370
     0
100
AcDbCircle
 10
173.7102510976
 20
99.2116929487
 30
0.0
 40
1.000000000000028
100
AcDbArc
 50
315.0
 51
0.0
  0
ARC
  5
20A
330
1F
100
AcDbEntity
  8
0
  6
SLD-Gestrichelt
 62
     7
370
     0
100
AcDbCircle
 10
173.7102510976
 20
99.2116929487
 30
0.0
 40
1.000000000000028
100
AcDbArc
 50
0.0
 51
52.1052014664
  0
ARC
  5
20B
330
1F
100
AcDbEntity
  8
0
  6
SLD-Gestrichelt
 62
     7
370
     0
100
AcDbCircle
 10
173.7102510976
 20
136.7116929487
 30
0.0
 40
1.000000000000008
100
AcDbArc
 50
343.125
 51
45.0
  0
ARC
  5
20C
330
1F
100
AcDbEntity
  8
0
  6
SLD-Gestrichelt
 62
     7
370
     0
100
AcDbCircle
 10
173.7102510976
 20
136.7116929487
 30
0.0
 40
1.000000000000021
100
AcDbArc
 50
307.8947985336
 51
343.125
  0
LINE
  5
20D
330
1F
100
AcDbEntity
  8
0
  6
SLD-Gestrichelt
 62
     7
370
     0
100
AcDbLine
 10
174.7102510976
 20
99.2116929487
 30
0.0
 11
174.7102510976
 21
136.7116929487
 31
0.0
  0
LINE
  5
20E
330
1F
100
AcDbEntity
  8
0
  6
SLD-Gestrichelt
 62
     7
370
     0
100
AcDbLine
 10
174.7102510976
 20
99.2116929487
 30
0.0
 11
174.7102510976
 21
136.7116929487
 31
0.0
  0
LINE
  5
20F
330
1F
100
AcDbEntity
  8
0
  6
SLD-Gestrichelt
 62
     7
370
     0
100
AcDbLine
 10
150.82446466
 20
105.9616929487
 30
0.0
 11
151.8311841721
 21
105.9616929487
 31
0.0
  0
LINE
  5
210
330
1F
100
AcDbEntity
  8
0
  6
SLD-Gestrichelt
 62
     7
370
     0
100
AcDbLine
 10
151.8311841721
 20
129.9616929487
 30
0.0
 11
150.82446466
 21
129.9616929487
 31
0.0
  0
ARC
  5
211
330
1F
100
AcDbEntity
  8
0
  6
SLD-Gestrichelt
 62
     7
370
     0
100
AcDbCircle
 10
150.82446466
 20
107.4616929487
 30
0.0
 40
1.50000000000002
100
AcDbArc
 50
191.0958032831
 51
270.0
  0
ARC
  5
212
330
1F
100
AcDbEntity
  8
0
  6
SLD-Gestrichelt
 62
     7
370
     0
100
AcDbCircle
 10
150.82446466
 20
128.4616929487
 30
0.0
 40
1.500000000000014
100
AcDbArc
 50
90.0
 51
168.9041967169
  0
ARC
  5
213
330
1F
100
AcDbEntity
  8
0
  6
SLD-Gestrichelt
 62
     7
370
     0
100
AcDbCircle
 10
151.8311841721
 20
107.4616929487
 30
0.0
 40
1.5
100
AcDbArc
 50
270.0
 51
315.0
  0
ARC
  5
214
330
1F
100
AcDbEntity
  8
0
  6
SLD-Gestrichelt
 62
     7
370
     0
100
AcDbCircle
 10
151.8311841721
 20
128.4616929487
 30
0.0
 40
1.5
100
AcDbArc
 50
45.0
 51
90.0
  0
LINE
  5
215
330
1F
100
AcDbEntity
  8
0
  6
SLD-Gestrichelt
 62
     7
370
     0
100
AcDbLine
 10
144.32446466
 20
106.1982808802
 30
0.0
 11
145.3525045156
 21
106.7918199676
 31
0.0
  0
LINE
  5
216
330
1F
100
AcDbEntity
  8
0
  6
SLD-Gestrichelt
 62
     7
370
     0
100
AcDbLine
 10
145.3525045156
 20
129.1315659297
 30
0.0
 11
144.32446466
 21
129.7251050171
 31
0.0
  0
LINE
  5
217
330
1F
100
AcDbEntity
  8
0
  6
SLD-Gestrichelt
 62
     7
370
     0
100
AcDbLine
 10
152.8918443439
 20
106.4010327769
 30
0.0
 11
153.9525045156
 21
107.4616929487
 31
0.0
  0
LINE
  5
218
330
1F
100
AcDbEntity
  8
0
  6
SLD-Gestrichelt
 62
     7
370
     0
100
AcDbLine
 10
153.9525045156
 20
128.4616929487
 30
0.0
 11
152.8918443439
 21
129.5223531205
 31
0.0
  0
LINE
  5
219
330
1F
100
AcDbEntity
  8
0
  6
SLD-Gestrichelt
 62
     7
370
     0
100
AcDbLine
 10
145.3525045156
 20
106.7918199676
 30
0.0
 11
147.8525045156
 21
107.4616929487
 31
0.0
  0
LINE
  5
21A
330
1F
100
AcDbEntity
  8
0
  6
SLD-Gestrichelt
 62
     7
370
     0
100
AcDbLine
 10
147.8525045156
 20
128.4616929487
 30
0.0
 11
145.3525045156
 21
129.1315659297
 31
0.0
  0
LINE
  5
21B
330
1F
100
AcDbEntity
  8
0
  6
SLD-Gestrichelt
 62
     7
370
     0
100
AcDbLine
 10
149.3525045156
 20
128.7503680833
 30
0.0
 11
148.8525045156
 21
128.4616929487
 31
0.0
  0
LINE
  5
21C
330
1F
100
AcDbEntity
  8
0
  6
SLD-Gestrichelt
 62
     7
370
     0
100
AcDbLine
 10
148.8525045156
 20
107.4616929487
 30
0.0
 11
149.3525045156
 21
107.1730178141
 31
0.0
  0
LINE
  5
21D
330
1F
100
AcDbEntity
  8
0
  6
SLD-Gestrichelt
 62
     7
370
     0
100
AcDbLine
 10
163.3636338348
 20
107.4616929487
 30
0.0
 11
163.82446466
 21
107.4616929487
 31
0.0
  0
LINE
  5
21E
330
1F
100
AcDbEntity
  8
0
  6
SLD-Gestrichelt
 62
     7
370
     0
100
AcDbLine
 10
153.9525045156
 20
107.4616929487
 30
0.0
 11
157.2833894465
 21
107.4616929487
 31
0.0
  0
LINE
  5
21F
330
1F
100
AcDbEntity
  8
0
  6
SLD-Gestrichelt
 62
     7
370
     0
100
AcDbLine
 10
157.2770268334
 20
128.4616929487
 30
0.0
 11
153.9525045156
 21
128.4616929487
 31
0.0
  0
LINE
  5
220
330
1F
100
AcDbEntity
  8
0
  6
SLD-Gestrichelt
 62
     7
370
     0
100
AcDbLine
 10
163.82446466
 20
128.4616929487
 30
0.0
 11
163.372306342
 21
128.4616929487
 31
0.0
  0
ARC
  5
221
330
1F
100
AcDbEntity
  8
0
  6
SLD-Gestrichelt
 62
     7
370
     0
100
AcDbCircle
 10
163.82446466
 20
107.9616929487
 30
0.0
 40
0.5
100
AcDbArc
 50
270.0
 51
0.0
  0
ARC
  5
222
330
1F
100
AcDbEntity
  8
0
  6
SLD-Gestrichelt
 62
     7
370
     0
100
AcDbCircle
 10
163.82446466
 20
127.9616929487
 30
0.0
 40
0.5000000000000142
100
AcDbArc
 50
0.0
 51
90.0
  0
LINE
  5
223
330
1F
100
AcDbEntity
  8
0
  6
SLD-Gestrichelt
 62
     7
370
     0
100
AcDbLine
 10
147.8525045156
 20
107.4616929487
 30
0.0
 11
148.8525045156
 21
107.4616929487
 31
0.0
  0
LINE
  5
224
330
1F
100
AcDbEntity
  8
0
  6
SLD-Gestrichelt
 62
     7
370
     0
100
AcDbLine
 10
148.8525045156
 20
128.4616929487
 30
0.0
 11
147.8525045156
 21
128.4616929487
 31
0.0
  0
LINE
  5
225
330
1F
100
AcDbEntity
  8
0
  6
SLD-Gestrichelt
 62
     7
370
     0
100
AcDbLine
 10
229.505608592
 20
126.2996911301
 30
0.0
 11
228.47446466
 21
125.2685471982
 31
0.0
  0
LINE
  5
226
330
1F
100
AcDbEntity
  8
0
  6
SLD-Gestrichelt
 62
     7
370
     0
100
AcDbLine
 10
228.47446466
 20
121.9685471982
 30
0.0
 11
229.5525671207
 21
120.8904447375
 31
0.0
  0
LINE
  5
227
330
1F
100
AcDbEntity
  8
0
  6
SLD-Gestrichelt
 62
     7
370
     0
100
AcDbLine
 10
229.5455147858
 20
115.025888825
 30
0.0
 11
228.47446466
 21
113.9548386992
 31
0.0
  0
LINE
  5
228
330
1F
100
AcDbEntity
  8
0
  6
SLD-Gestrichelt
 62
     7
370
     0
100
AcDbLine
 10
228.47446466
 20
110.6548386992
 30
0.0
 11
229.505608592
 21
109.6236947672
 31
0.0
  0
LINE
  5
229
330
1F
100
AcDbEntity
  8
0
  6
SLD-Gestrichelt
 62
     7
370
     0
100
AcDbLine
 10
164.32446466
 20
109.7116929487
 30
0.0
 11
165.32446466
 21
110.7116929487
 31
0.0
  0
LINE
  5
22A
330
1F
100
AcDbEntity
  8
0
  6
SLD-Gestrichelt
 62
     7
370
     0
100
AcDbLine
 10
165.32446466
 20
125.2116929487
 30
0.0
 11
164.32446466
 21
126.2116929487
 31
0.0
  0
LINE
  5
22B
330
1F
100
AcDbEntity
  8
0
  6
SLD-Gestrichelt
 62
     7
370
     0
100
AcDbLine
 10
228.47446466
 20
125.2685471982
 30
0.0
 11
218.32446466
 21
125.2685471982
 31
0.0
  0
LINE
  5
22C
330
1F
100
AcDbEntity
  8
0
  6
SLD-Gestrichelt
 62
     7
370
     0
100
AcDbLine
 10
218.32446466
 20
121.9685471982
 30
0.0
 11
228.47446466
 21
121.9685471982
 31
0.0
  0
LINE
  5
22D
330
1F
100
AcDbEntity
  8
0
  6
SLD-Gestrichelt
 62
     7
370
     0
100
AcDbLine
 10
218.32446466
 20
125.2685471982
 30
0.0
 11
217.3330446386
 21
123.6185471982
 31
0.0
  0
LINE
  5
22E
330
1F
100
AcDbEntity
  8
0
  6
SLD-Gestrichelt
 62
     7
370
     0
100
AcDbLine
 10
217.3330446386
 20
123.6185471982
 30
0.0
 11
218.32446466
 21
121.9685471982
 31
0.0
  0
LINE
  5
22F
330
1F
100
AcDbEntity
  8
0
  6
SLD-Gestrichelt
 62
     7
370
     0
100
AcDbLine
 10
228.47446466
 20
113.9548386992
 30
0.0
 11
218.32446466
 21
113.9548386992
 31
0.0
  0
LINE
  5
230
330
1F
100
AcDbEntity
  8
0
  6
SLD-Gestrichelt
 62
     7
370
     0
100
AcDbLine
 10
218.32446466
 20
110.6548386992
 30
0.0
 11
228.47446466
 21
110.6548386992
 31
0.0
  0
LINE
  5
231
330
1F
100
AcDbEntity
  8
0
  6
SLD-Gestrichelt
 62
     7
370
     0
100
AcDbLine
 10
218.32446466
 20
113.9548386992
 30
0.0
 11
217.3330446386
 21
112.3048386992
 31
0.0
  0
LINE
  5
232
330
1F
100
AcDbEntity
  8
0
  6
SLD-Gestrichelt
 62
     7
370
     0
100
AcDbLine
 10
217.3330446386
 20
112.3048386992
 30
0.0
 11
218.32446466
 21
110.6548386992
 31
0.0
  0
LINE
  5
233
330
1F
100
AcDbEntity
  8
0
  6
SLD-Gestrichelt
 62
     7
370
     0
100
AcDbLine
 10
189.32446466
 20
110.7116929487
 30
0.0
 11
191.6377780433
 21
114.5616929487
 31
0.0
  0
LINE
  5
234
330
1F
100
AcDbEntity
  8
0
  6
SLD-Gestrichelt
 62
     7
370
     0
100
AcDbLine
 10
191.6377780433
 20
121.3616929487
 30
0.0
 11
189.32446466
 21
125.2116929487
 31
0.0
  0
LINE
  5
235
330
1F
100
AcDbEntity
  8
0
  6
SLD-Gestrichelt
 62
     7
370
     0
100
AcDbLine
 10
165.32446466
 20
110.7116929487
 30
0.0
 11
189.32446466
 21
110.7116929487
 31
0.0
  0
LINE
  5
236
330
1F
100
AcDbEntity
  8
0
  6
SLD-Gestrichelt
 62
     7
370
     0
100
AcDbLine
 10
189.32446466
 20
125.2116929487
 30
0.0
 11
165.32446466
 21
125.2116929487
 31
0.0
  0
LINE
  5
237
330
1F
100
AcDbEntity
  8
0
  6
SLD-Gestrichelt
 62
     7
370
     0
100
AcDbLine
 10
229.4440409884
 20
122.5812692771
 30
0.0
 11
228.82446466
 21
121.9616929487
 31
0.0
  0
LINE
  5
238
330
1F
100
AcDbEntity
  8
0
  6
SLD-Gestrichelt
 62
     7
370
     0
100
AcDbLine
 10
228.82446466
 20
113.9616929487
 30
0.0
 11
229.4484964902
 21
113.3376611185
 31
0.0
  0
LINE
  5
239
330
1F
100
AcDbEntity
  8
0
  6
SLD-Gestrichelt
 62
     7
370
     0
100
AcDbLine
 10
227.27446466
 20
121.6616929487
 30
0.0
 11
225.77446466
 21
121.6616929487
 31
0.0
  0
LINE
  5
23A
330
1F
100
AcDbEntity
  8
0
  6
SLD-Gestrichelt
 62
     7
370
     0
100
AcDbLine
 10
225.77446466
 20
114.2616929487
 30
0.0
 11
227.27446466
 21
114.2616929487
 31
0.0
  0
LINE
  5
23B
330
1F
100
AcDbEntity
  8
0
  6
SLD-Gestrichelt
 62
     7
370
     0
100
AcDbLine
 10
223.32446466
 20
114.5616929487
 30
0.0
 11
223.5648089076
 21
114.9616929487
 31
0.0
  0
LINE
  5
23C
330
1F
100
AcDbEntity
  8
0
  6
SLD-Gestrichelt
 62
     7
370
     0
100
AcDbLine
 10
223.5648089076
 20
120.9616929487
 30
0.0
 11
223.32446466
 21
121.3616929487
 31
0.0
  0
LINE
  5
23D
330
1F
100
AcDbEntity
  8
0
  6
SLD-Gestrichelt
 62
     7
370
     0
100
AcDbLine
 10
223.32446466
 20
121.3616929487
 30
0.0
 11
191.6377780433
 21
121.3616929487
 31
0.0
  0
LINE
  5
23E
330
1F
100
AcDbEntity
  8
0
  6
SLD-Gestrichelt
 62
     7
370
     0
100
AcDbLine
 10
191.6377780433
 20
114.5616929487
 30
0.0
 11
223.32446466
 21
114.5616929487
 31
0.0
  0
LINE
  5
23F
330
1F
100
AcDbEntity
  8
0
  6
SLD-Gestrichelt
 62
     7
370
     0
100
AcDbLine
 10
163.7692247226
 20
101.7766151655
 30
0.0
 11
163.37446466
 21
102.171375228
 31
0.0
  0
LINE
  5
240
330
1F
100
AcDbEntity
  8
0
  6
SLD-Gestrichelt
 62
     7
370
     0
100
AcDbLine
 10
157.27446466
 20
102.171375228
 30
0.0
 11
157.044146138
 21
101.941056706
 31
0.0
  0
LINE
  5
241
330
1F
100
AcDbEntity
  8
0
  6
SLD-Gestrichelt
 62
     7
370
     0
100
AcDbLine
 10
228.82446466
 20
121.2616929487
 30
0.0
 11
228.3048494178
 21
120.9616929487
 31
0.0
  0
LINE
  5
242
330
1F
100
AcDbEntity
  8
0
  6
SLD-Gestrichelt
 62
     7
370
     0
100
AcDbLine
 10
228.3048494178
 20
114.9616929487
 30
0.0
 11
228.82446466
 21
114.6616929487
 31
0.0
  0
LINE
  5
243
330
1F
100
AcDbEntity
  8
0
  6
SLD-Gestrichelt
 62
     7
370
     0
100
AcDbLine
 10
149.82446466
 20
103.9616929487
 30
0.0
 11
144.32446466
 21
103.9616929487
 31
0.0
  0
LINE
  5
244
330
1F
100
AcDbEntity
  8
0
  6
SLD-Gestrichelt
 62
     7
370
     0
100
AcDbLine
 10
151.7065771322
 20
102.0795804765
 30
0.0
 11
149.82446466
 21
103.9616929487
 31
0.0
  0
LINE
  5
245
330
1F
100
AcDbEntity
  8
0
  6
SLD-Gestrichelt
 62
     7
370
     0
100
AcDbLine
 10
163.37446466
 20
102.171375228
 30
0.0
 11
163.37446466
 21
107.4648332286
 31
0.0
  0
LINE
  5
246
330
1F
100
AcDbEntity
  8
0
  6
SLD-Gestrichelt
 62
     7
370
     0
100
AcDbLine
 10
157.27446466
 20
107.4642786723
 30
0.0
 11
157.27446466
 21
102.171375228
 31
0.0
  0
LINE
  5
247
330
1F
100
AcDbEntity
  8
0
  6
SLD-Gestrichelt
 62
     7
370
     0
100
AcDbLine
 10
163.37446466
 20
128.4610664503
 30
0.0
 11
163.37446466
 21
131.9616929487
 31
0.0
  0
LINE
  5
248
330
1F
100
AcDbEntity
  8
0
  6
SLD-Gestrichelt
 62
     7
370
     0
100
AcDbLine
 10
157.27446466
 20
131.9616929487
 30
0.0
 11
157.27446466
 21
128.4609562204
 31
0.0
  0
LINE
  5
249
330
1F
100
AcDbEntity
  8
0
  6
SLD-Gestrichelt
 62
     7
370
     0
100
AcDbLine
 10
163.37446466
 20
131.9616929487
 30
0.0
 11
160.32446466
 21
133.7943178367
 31
0.0
  0
LINE
  5
24A
330
1F
100
AcDbEntity
  8
0
  6
SLD-Gestrichelt
 62
     7
370
     0
100
AcDbLine
 10
160.32446466
 20
133.7943178367
 30
0.0
 11
157.27446466
 21
131.9616929487
 31
0.0
  0
LINE
  5
24B
330
1F
100
AcDbEntity
  8
0
  6
SLD-Gestrichelt
 62
     7
370
     0
100
AcDbLine
 10
225.77446466
 20
120.9616929487
 30
0.0
 11
223.5648089076
 21
120.9616929487
 31
0.0
  0
LINE
  5
24C
330
1F
100
AcDbEntity
  8
0
  6
SLD-Gestrichelt
 62
     7
370
     0
100
AcDbLine
 10
223.5648089076
 20
114.9616929487
 30
0.0
 11
225.77446466
 21
114.9616929487
 31
0.0
  0
LINE
  5
24D
330
1F
100
AcDbEntity
  8
0
  6
SLD-Gestrichelt
 62
     7
370
     0
100
AcDbLine
 10
228.3048494178
 20
120.9616929487
 30
0.0
 11
227.27446466
 21
120.9616929487
 31
0.0
  0
LINE
  5
24E
330
1F
100
AcDbEntity
  8
0
  6
SLD-Gestrichelt
 62
     7
370
     0
100
AcDbLine
 10
227.27446466
 20
114.9616929487
 30
0.0
 11
228.3048494178
 21
114.9616929487
 31
0.0
  0
LINE
  5
24F
330
1F
100
AcDbEntity
  8
0
  6
SLD-Gestrichelt
 62
     7
370
     0
100
AcDbLine
 10
188.32446466
 20
93.4616929487
 30
0.0
 11
186.32446466
 21
94.6634141867
 31
0.0
  0
LINE
  5
250
330
1F
100
AcDbEntity
  8
0
  6
SLD-Gestrichelt
 62
     7
370
     0
100
AcDbLine
 10
186.32446466
 20
94.6634141867
 30
0.0
 11
184.32446466
 21
93.4616929487
 31
0.0
  0
LINE
  5
251
330
1F
100
AcDbEntity
  8
0
  6
SLD-Gestrichelt
 62
     7
370
     0
100
AcDbLine
 10
184.32446466
 20
93.4616929487
 30
0.0
 11
184.32446466
 21
92.9616929487
 31
0.0
  0
LINE
  5
252
330
1F
100
AcDbEntity
  8
0
  6
SLD-Gestrichelt
 62
     7
370
     0
100
AcDbLine
 10
188.32446466
 20
92.9616929487
 30
0.0
 11
188.32446466
 21
93.4616929487
 31
0.0
  0
LINE
  5
253
330
1F
100
AcDbEntity
  8
VERMASSUNG
  6
SLD-Punktstrich
100
AcDbLine
 10
144.9003225701
 20
117.9616929487
 30
0.0
 11
264.32446466
 21
117.9616929487
 31
0.0
  0
LINE
  5
254
330
1F
100
AcDbEntity
  8
VERMASSUNG
  6
SLD-Punktstrich
100
AcDbLine
 10
264.32446466
 20
140.9071416731
 30
0.0
 11
264.32446466
 21
117.9616929487
 31
0.0
  0
LINE
  5
255
330
1F
100
AcDbEntity
  8
VERMASSUNG
  6
SLD-Punktstrich
100
AcDbLine
 10
229.32446466
 20
135.2326077063
 30
0.0
 11
229.32446466
 21
99.8763760489
 31
0.0
  0
DIMENSION
  5
256
330
1F
100
AcDbEntity
  8
VERMASSUNG
100
AcDbDimension
  2
_D
 10
264.32446466
 20
154.3533886812
 30
0.0
 11
219.32446466
 21
154.3533886812
 31
0.0
 70
   160
  1
<>
 71
     2
 42
-1.0
  3
SLDDIMSTYLE0
100
AcDbAlignedDimension
 13
174.32446466
 23
142.6616929487
 33
0.0
 14
264.32446466
 24
140.9071416731
 34
0.0
100
AcDbRotatedDimension
  0
DIMENSION
  5
261
330
1F
100
AcDbEntity
  8
VERMASSUNG
100
AcDbDimension
  2
_D_1
 10
229.32446466
 20
148.949572013
 30
0.0
 11
201.82446466
 21
148.949572013
 31
0.0
 70
   160
  1
<>
 71
     2
 42
-1.0
  3
SLDDIMSTYLE0
100
AcDbAlignedDimension
 13
174.32446466
 23
142.6616929487
 33
0.0
 14
229.32446466
 24
135.2326077063
 34
0.0
100
AcDbRotatedDimension
  0
DIMENSION
  5
26B
330
1F
100
AcDbEntity
  8
VERMASSUNG
100
AcDbDimension
  2
_D_2
 10
233.7087872547
 20
125.6185471982
 30
0.0
 11
233.7087872547
 21
134.2726943242
 31
0.0
 70
   160
  1
M<>
 71
     2
 42
-1.0
  3
SLDDIMSTYLE1
100
AcDbAlignedDimension
 13
234.62446466
 23
121.6185471982
 33
0.0
 14
234.62446466
 24
125.6185471982
 34
0.0
 50
90.0
100
AcDbRotatedDimension
  0
DIMENSION
  5
277
330
1F
100
AcDbEntity
  8
VERMASSUNG
100
AcDbDimension
  2
_D_3
 10
212.6334346143
 20
130.4616929487
 30
0.0
 11
212.6334346143
 21
137.0887290477
 31
0.0
 70
   160
  1
%%c<>
 71
     2
 42
-1.0
  3
SLDDIMSTYLE1
100
AcDbAlignedDimension
 13
198.32446466
 23
105.4616929487
 33
0.0
 14
198.32446466
 24
130.4616929487
 34
0.0
 50
90.0
100
AcDbRotatedDimension
  0
DIMENSION
  5
282
330
1F
100
AcDbEntity
  8
VERMASSUNG
100
AcDbDimension
  2
_D_4
 10
198.32446466
 20
134.4616929487
 30
0.0
 11
201.82447466
 21
137.9617029487
 31
0.0
 70
   164
  1
<>
 71
     1
 42
-1.0
  3
SLDDIMSTYLE2
100
AcDbRadialDimension
 15
195.4960375353
 25
131.6332658239
 35
0.0
 40
0.0
  0
DIMENSION
  5
28A
330
1F
100
AcDbEntity
  8
VERMASSUNG
100
AcDbDimension
  2
_D_5
 10
134.32446466
 20
142.9616929487
 30
0.0
 11
134.32446466
 21
117.9616929487
 31
0.0
 70
   160
  1
PSC %%c<>
 71
     2
 42
-1.0
  3
SLDDIMSTYLE0
100
AcDbAlignedDimension
 13
174.62446466
 23
92.9616929487
 33
0.0
 14
174.62446466
 24
142.9616929487
 34
0.0
 50
90.0
100
AcDbRotatedDimension
  0
LINE
  5
296
330
1F
100
AcDbEntity
  8
VERMASSUNG
  6
SLD-Punktstrich
370
     0
100
AcDbLine
 10
214.0707942485
 20
123.6185471982
 30
0.0
 11
243.75760031
 21
123.6185471982
 31
0.0
  0
LINE
  5
297
330
1F
100
AcDbEntity
  8
VERMASSUNG
  6
SLD-Punktstrich
370
     0
100
AcDbLine
 10
215.7602872764
 20
112.3048386992
 30
0.0
 11
244.7230248974
 21
112.3048386992
 31
0.0
  0
CIRCLE
  5
298
330
1F
100
AcDbEntity
  8
0
  6
SLD-Durchgehend
 62
     7
370
    15
100
AcDbCircle
 10
86.6274078325
 20
117.9616929487
 30
0.0
 40
12.49999999999999
  0
LINE
  5
299
330
1F
100
AcDbEntity
  8
0
  6
SLD-Durchgehend
 62
     7
370
    15
100
AcDbLine
 10
98.302369839
 20
118.726718739
 30
0.0
 11
98.9341585845
 21
119.1077698943
 31
0.0
  0
ARC
  5
29A
330
1F
100
AcDbEntity
  8
0
  6
SLD-Durchgehend
 62
     7
370
    15
100
AcDbCircle
 10
98.8628326621
 20
119.2055158942
 30
0.0
 40
0.121002759069441
100
AcDbArc
 50
306.1184841636
 51
65.4911279164
  0
LINE
  5
29B
330
1F
100
AcDbEntity
  8
0
  6
SLD-Durchgehend
 62
     7
370
    15
100
AcDbLine
 10
98.9130287379
 20
119.3156159472
 30
0.0
 11
98.19805426
 21
119.6966671607
 31
0.0
  0
ARC
  5
29C
330
1F
100
AcDbEntity
  8
0
  6
SLD-Durchgehend
 62
     7
370
    15
100
AcDbCircle
 10
86.6274078325
 20
117.9616929487
 30
0.0
 40
11.70000000000026
100
AcDbArc
 50
8.5277495763
 51
9.9171770882
  0
LINE
  5
29D
330
1F
100
AcDbEntity
  8
0
  6
SLD-Durchgehend
 62
     7
370
    15
100
AcDbLine
 10
98.1525833667
 20
119.9767187693
 30
0.0
 11
98.7529353187
 21
120.3577698663
 31
0.0
  0
LWPOLYLINE
  5
29E
330
1F
100
AcDbEntity
  8
0
  6
SLD-Durchgehend
 62
     7
370
    15
100
AcDbPolyline
 90
        9
 70
   128
 43
0.0
 10
98.7529353187
 20
120.3577698663
 10
98.7751957908
 20
120.3777092498
 10
98.7895372272
 20
120.4031802237
 10
98.7953058392
 20
120.4298428249
 10
98.7937272474
 20
120.4589517776
 10
98.7857420877
 20
120.4857431341
 10
98.7667747721
 20
120.5184979819
 10
98.7317998842
 20
120.5524228037
 10
98.7100060046
 20
120.5656159193
  0
LINE
  5
29F
330
1F
100
AcDbEntity
  8
0
  6
SLD-Durchgehend
 62
     7
370
    15
100
AcDbLine
 10
98.7100060046
 20
120.5656159193
 30
0.0
 11
97.9402297124
 21
120.9466672492
 31
0.0
  0
ARC
  5
2A0
330
1F
100
AcDbEntity
  8
0
  6
SLD-Durchgehend
 62
     7
370
    15
100
AcDbCircle
 10
86.6274078325
 20
117.9616929487
 30
0.0
 40
11.70000000000045
100
AcDbArc
 50
14.7810515008
 51
16.2042318296
  0
LINE
  5
2A1
330
1F
100
AcDbEntity
  8
0
  6
SLD-Durchgehend
 62
     7
370
    15
100
AcDbLine
 10
97.8626030445
 20
121.2267187413
 30
0.0
 11
98.4373920545
 21
121.6077698384
 31
0.0
  0
LWPOLYLINE
  5
2A2
330
1F
100
AcDbEntity
  8
0
  6
SLD-Durchgehend
 62
     7
370
    15
100
AcDbPolyline
 90
        9
 70
   128
 43
0.0
 10
98.4373920545
 20
121.6077698384
 10
98.4564878926
 20
121.6254870862
 10
98.469007662
 20
121.6492765572
 10
98.4732973337
 20
121.6794486147
 10
98.4691697121
 20
121.7069200695
 10
98.4589996696
 20
121.7329768453
 10
98.4354195133
 20
121.7675638374
 10
98.3927099914
 20
121.8039063726
 10
98.3712094784
 20
121.8156158913
  0
LINE
  5
2A3
330
1F
100
AcDbEntity
  8
0
  6
SLD-Durchgehend
 62
     7
370
    15
100
AcDbLine
 10
98.3712094784
 20
121.8156158913
 30
0.0
 11
97.5340566546
 21
122.1966672212
 31
0.0
  0
ARC
  5
2A4
330
1F
100
AcDbEntity
  8
0
  6
SLD-Durchgehend
 62
     7
370
    15
100
AcDbCircle
 10
86.6274078325
 20
117.9616929487
 30
0.0
 40
11.70000000000063
100
AcDbArc
 50
21.2208370458
 51
22.6996022985
  0
LINE
  5
2A5
330
1F
100
AcDbEntity
  8
0
  6
SLD-Durchgehend
 62
     7
370
    15
100
AcDbLine
 10
97.4211347237
 20
122.4767187134
 30
0.0
 11
97.9763296381
 21
122.8577698104
 31
0.0
  0
LWPOLYLINE
  5
2A6
330
1F
100
AcDbEntity
  8
0
  6
SLD-Durchgehend
 62
     7
370
    15
100
AcDbPolyline
 90
        9
 70
   128
 43
0.0
 10
97.9763296381
 20
122.8577698104
 10
97.992665036
 20
122.8732926295
 10
98.0036257714
 20
122.8952695139
 10
98.0064467475
 20
122.9230960355
 10
98.0014511332
 20
122.9486687564
 10
97.987332283
 20
122.9792915739
 10
97.9585031927
 20
123.0157398142
 10
97.9062373698
 20
123.0549550139
 10
97.8843866795
 20
123.0656158634
  0
LINE
  5
2A7
330
1F
100
AcDbEntity
  8
0
  6
SLD-Durchgehend
 62
     7
370
    15
100
AcDbLine
 10
97.8843866795
 20
123.0656158634
 30
0.0
 11
96.962060681
 21
123.4466669605
 31
0.0
  0
ARC
  5
2A8
330
1F
100
AcDbEntity
  8
0
  6
SLD-Durchgehend
 62
     7
370
    15
100
AcDbCircle
 10
86.6274078325
 20
117.9616929487
 30
0.0
 40
11.70000000000082
100
AcDbArc
 50
27.9565089687
 51
29.5206521197
  0
LINE
  5
2A9
330
1F
100
AcDbEntity
  8
0
  6
SLD-Durchgehend
 62
     7
370
    15
100
AcDbLine
 10
96.8084921077
 20
123.7267189183
 30
0.0
 11
97.3509958893
 21
124.1077700153
 31
0.0
  0
LWPOLYLINE
  5
2AA
330
1F
100
AcDbEntity
  8
0
  6
SLD-Durchgehend
 62
     7
370
    15
100
AcDbPolyline
 90
        9
 70
   128
 43
0.0
 10
97.3509958893
 20
124.1077700153
 10
97.3648940161
 20
124.1210883938
 10
97.374568595
 20
124.1410927371
 10
97.3762505636
 20
124.1663977027
 10
97.3706430704
 20
124.1897953198
 10
97.3553330586
 20
124.219610215
 10
97.3234743759
 20
124.2569613725
 10
97.2633975506
 20
124.2999237486
 10
97.2291649267
 20
124.3156160683
  0
LINE
  5
2AB
330
1F
100
AcDbEntity
  8
0
  6
SLD-Durchgehend
 62
     7
370
    15
100
AcDbLine
 10
97.2291649267
 20
124.3156160683
 30
0.0
 11
96.1945456401
 21
124.6966671653
 31
0.0
  0
ARC
  5
2AC
330
1F
100
AcDbEntity
  8
0
  6
SLD-Durchgehend
 62
     7
370
    15
100
AcDbCircle
 10
86.6274078325
 20
117.9616929487
 30
0.0
 40
11.700000000001
100
AcDbArc
 50
35.1443816259
 51
36.8394547611
  0
LINE
  5
2AD
330
1F
100
AcDbEntity
  8
0
  6
SLD-Durchgehend
 62
     7
370
    15
100
AcDbLine
 10
95.9911364079
 20
124.9767186575
 30
0.0
 11
96.5303190932
 21
125.3577697546
 31
0.0
  0
LWPOLYLINE
  5
2AE
330
1F
100
AcDbEntity
  8
0
  6
SLD-Durchgehend
 62
     7
370
    15
100
AcDbPolyline
 90
        9
 70
   128
 43
0.0
 10
96.5303190932
 20
125.3577697546
 10
96.5420341999
 20
125.3688329354
 10
96.5507355467
 20
125.386670091
 10
96.5516566247
 20
125.4092546635
 10
96.5457743913
 20
125.4301204801
 10
96.5297491238
 20
125.4582804151
 10
96.495222202
 20
125.4956646346
 10
96.4257846534
 20
125.5425902538
 10
96.371634765
 20
125.5656158075
  0
LINE
  5
2AF
330
1F
100
AcDbEntity
  8
0
  6
SLD-Durchgehend
 62
     7
370
    15
100
AcDbLine
 10
96.371634765
 20
125.5656158075
 30
0.0
 11
95.1790268481
 21
125.9466673702
 31
0.0
  0
ARC
  5
2B0
330
1F
100
AcDbEntity
  8
0
  6
SLD-Durchgehend
 62
     7
370
    15
100
AcDbCircle
 10
86.6274078325
 20
117.9616929487
 30
0.0
 40
11.70000000000118
100
AcDbArc
 50
43.0374643913
 51
44.9437677466
  0
LINE
  5
2B1
330
1F
100
AcDbEntity
  8
0
  6
SLD-Durchgehend
 62
     7
370
    15
100
AcDbLine
 10
94.9086732179
 20
126.2267188624
 30
0.0
 11
95.4600152508
 21
126.6077694938
 31
0.0
  0
LWPOLYLINE
  5
2B2
330
1F
100
AcDbEntity
  8
0
  6
SLD-Durchgehend
 62
     7
370
    15
100
AcDbPolyline
 90
        9
 70
   128
 43
0.0
 10
95.4600152508
 20
126.6077694938
 10
95.4697270826
 20
126.6164727033
 10
95.4784563691
 20
126.6345133528
 10
95.4778910563
 20
126.6545833543
 10
95.471362485
 20
126.6724181816
 10
95.4536003009
 20
126.6988286272
 10
95.4135366664
 20
126.7364438147
 10
95.3258880362
 20
126.7882523582
 10
95.2516551078
 20
126.8156155467
  0
LINE
  5
2B3
330
1F
100
AcDbEntity
  8
0
  6
SLD-Durchgehend
 62
     7
370
    15
100
AcDbLine
 10
95.2516551078
 20
126.8156155467
 30
0.0
 11
93.811087212
 21
127.1966671095
 31
0.0
  0
ARC
  5
2B4
330
1F
100
AcDbEntity
  8
0
  6
SLD-Durchgehend
 62
     7
370
    15
100
AcDbCircle
 10
86.6274078325
 20
117.9616929487
 30
0.0
 40
11.70000000000136
100
AcDbArc
 50
52.1214532678
 51
54.4146980712
  0
LINE
  5
2B5
330
1F
100
AcDbEntity
  8
0
  6
SLD-Durchgehend
 62
     7
370
    15
100
AcDbLine
 10
93.4358061239
 20
127.4767186016
 30
0.0
 11
94.0326265007
 21
127.8577701643
 31
0.0
  0
LWPOLYLINE
  5
2B6
330
1F
100
AcDbEntity
  8
0
  6
SLD-Durchgehend
 62
     7
370
    15
100
AcDbPolyline
 90
        9
 70
   128
 43
0.0
 10
94.0326265007
 20
127.8577701643
 10
94.0403988533
 20
127.8639327258
 10
94.0489591047
 20
127.8779174656
 10
94.0498955496
 20
127.8911720485
 10
94.0456738644
 20
127.9054427043
 10
94.0329776094
 20
127.9253096775
 10
94.0023650363
 20
127.9547618226
 10
93.9260301128
 20
128.0021940813
 10
93.7464203634
 20
128.0656162173
  0
LINE
  5
2B7
330
1F
100
AcDbEntity
  8
0
  6
SLD-Durchgehend
 62
     7
370
    15
100
AcDbLine
 10
93.7464203634
 20
128.0656162173
 30
0.0
 11
91.8192587741
 21
128.4466668487
 31
0.0
  0
ARC
  5
2B8
330
1F
100
AcDbEntity
  8
0
  6
SLD-Durchgehend
 62
     7
370
    15
100
AcDbCircle
 10
86.6274078325
 20
117.9616929487
 30
0.0
 40
11.70000000000917
100
AcDbArc
 50
63.6567400211
 51
66.9389024908
  0
LINE
  5
2B9
330
1F
100
AcDbEntity
  8
0
  6
SLD-Durchgehend
 62
     7
370
    15
100
AcDbLine
 10
91.2104438938
 20
128.7267183408
 30
0.0
 11
91.9691835478
 21
129.1077699036
 31
0.0
  0
LWPOLYLINE
  5
2BA
330
1F
100
AcDbEntity
  8
0
  6
SLD-Durchgehend
 62
     7
370
    15
100
AcDbPolyline
 90
        9
 70
   128
 43
0.0
 10
91.9691835478
 20
129.1077699036
 10
91.9814476691
 20
129.1167813808
 10
91.9864227943
 20
129.125134413
 10
91.9870449178
 20
129.1352504388
 10
91.9835501299
 20
129.1449008033
 10
91.972914426
 20
129.1589684308
 10
91.9454539143
 20
129.1811758176
 10
91.8438638509
 20
129.2313331262
 10
91.511876224
 20
129.3156159565
  0
ARC
  5
2BB
330
1F
100
AcDbEntity
  8
0
  6
SLD-Durchgehend
 62
     7
370
    15
100
AcDbCircle
 10
86.6274078325
 20
96.9315013593
 30
0.0
 40
32.75040319924214
100
AcDbArc
 50
81.4227787871
 51
98.5772212129
  0
LWPOLYLINE
  5
2BC
330
1F
100
AcDbEntity
  8
0
  6
SLD-Durchgehend
 62
     7
370
    15
100
AcDbPolyline
 90
       11
 70
   128
 43
0.0
 10
81.7429394409
 20
129.3156159565
 10
81.5355623089
 20
129.2720794201
 10
81.3561062277
 20
129.2074903369
 10
81.3063801214
 20
129.1791520536
 10
81.2858630851
 20
129.1628855735
 10
81.2727635674
 20
129.1474852234
 10
81.2681069546
 20
129.1368681461
 10
81.2680049747
 20
129.1264988005
 10
81.2718825363
 20
129.1185695201
 10
81.2835436262
 20
129.1089079798
 10
81.2856321171
 20
129.1077699036
  0
LINE
  5
2BD
330
1F
100
AcDbEntity
  8
0
  6
SLD-Durchgehend
 62
     7
370
    15
100
AcDbLine
 10
81.2856321171
 20
129.1077699036
 30
0.0
 11
82.0443717711
 21
128.7267183408
 31
0.0
  0
ARC
  5
2BE
330
1F
100
AcDbEntity
  8
0
  6
SLD-Durchgehend
 62
     7
370
    15
100
AcDbCircle
 10
86.6274078325
 20
117.9616929487
 30
0.0
 40
11.70000000000154
100
AcDbArc
 50
113.0610975091
 51
116.3432599789
  0
LINE
  5
2BF
330
1F
100
AcDbEntity
  8
0
  6
SLD-Durchgehend
 62
     7
370
    15
100
AcDbLine
 10
81.4355568908
 20
128.4466668487
 30
0.0
 11
79.5083953016
 21
128.0656162173
 31
0.0
  0
LWPOLYLINE
  5
2C0
330
1F
100
AcDbEntity
  8
0
  6
SLD-Durchgehend
 62
     7
370
    15
100
AcDbPolyline
 90
        9
 70
   128
 43
0.0
 10
79.5083953016
 20
128.0656162173
 10
79.3090308033
 20
127.991776307
 10
79.2553107202
 20
127.9570072413
 10
79.2254897714
 20
127.9296207697
 10
79.2114878021
 20
127.9101375014
 10
79.2054239609
 20
127.894242619
 10
79.2055333913
 20
127.8791207344
 10
79.2108503118
 20
127.868015644
 10
79.2221891642
 20
127.8577701643
  0
LINE
  5
2C1
330
1F
100
AcDbEntity
  8
0
  6
SLD-Durchgehend
 62
     7
370
    15
100
AcDbLine
 10
79.2221891642
 20
127.8577701643
 30
0.0
 11
79.819009541
 21
127.4767186016
 31
0.0
  0
ARC
  5
2C2
330
1F
100
AcDbEntity
  8
0
  6
SLD-Durchgehend
 62
     7
370
    15
100
AcDbCircle
 10
86.6274078325
 20
117.9616929487
 30
0.0
 40
11.70000000000135
100
AcDbArc
 50
125.5853019288
 51
127.8785467322
  0
LINE
  5
2C3
330
1F
100
AcDbEntity
  8
0
  6
SLD-Durchgehend
 62
     7
370
    15
100
AcDbLine
 10
79.4437284529
 20
127.1966671095
 30
0.0
 11
78.0031605572
 21
126.8156155467
 31
0.0
  0
LWPOLYLINE
  5
2C4
330
1F
100
AcDbEntity
  8
0
  6
SLD-Durchgehend
 62
     7
370
    15
100
AcDbPolyline
 90
        9
 70
   128
 43
0.0
 10
78.0031605572
 20
126.8156155467
 10
77.8784816101
 20
126.761753437
 10
77.8190399468
 20
126.7175752193
 10
77.7957308054
 20
126.6919405654
 10
77.7810457111
 20
126.6672055692
 10
77.7758796647
 20
126.6483788833
 10
77.7772086621
 20
126.6310171679
 10
77.784053883
 20
126.6177439586
 10
77.7948004142
 20
126.6077694938
  0
LINE
  5
2C5
330
1F
100
AcDbEntity
  8
0
  6
SLD-Durchgehend
 62
     7
370
    15
100
AcDbLine
 10
77.7948004142
 20
126.6077694938
 30
0.0
 11
78.346142447
 21
126.2267188624
 31
0.0
  0
ARC
  5
2C6
330
1F
100
AcDbEntity
  8
0
  6
SLD-Durchgehend
 62
     7
370
    15
100
AcDbCircle
 10
86.6274078325
 20
117.9616929487
 30
0.0
 40
11.70000000000116
100
AcDbArc
 50
135.0562322534
 51
136.9625356087
  0
LINE
  5
2C7
330
1F
100
AcDbEntity
  8
0
  6
SLD-Durchgehend
 62
     7
370
    15
100
AcDbLine
 10
78.0757888168
 20
125.9466673702
 30
0.0
 11
76.8831808999
 21
125.5656158075
 31
0.0
  0
LWPOLYLINE
  5
2C8
330
1F
100
AcDbEntity
  8
0
  6
SLD-Durchgehend
 62
     7
370
    15
100
AcDbPolyline
 90
        9
 70
   128
 43
0.0
 10
76.8831808999
 20
125.5656158075
 10
76.7934787035
 20
125.5216098845
 10
76.7514406651
 20
125.488187977
 10
76.7163232848
 20
125.4448209413
 10
76.7058645323
 20
125.4212566175
 10
76.7025313288
 20
125.3975176707
 10
76.706614247
 20
125.3792111285
 10
76.719424589
 20
125.3617804952
 10
76.7244965717
 20
125.3577697546
  0
LINE
  5
2C9
330
1F
100
AcDbEntity
  8
0
  6
SLD-Durchgehend
 62
     7
370
    15
100
AcDbLine
 10
76.7244965717
 20
125.3577697546
 30
0.0
 11
77.2636792571
 21
124.9767186575
 31
0.0
  0
ARC
  5
2CA
330
1F
100
AcDbEntity
  8
0
  6
SLD-Durchgehend
 62
     7
370
    15
100
AcDbCircle
 10
86.6274078325
 20
117.9616929487
 30
0.0
 40
11.70000000000097
100
AcDbArc
 50
143.1605452389
 51
144.8556183741
  0
LINE
  5
2CB
330
1F
100
AcDbEntity
  8
0
  6
SLD-Durchgehend
 62
     7
370
    15
100
AcDbLine
 10
77.0602700249
 20
124.6966671653
 30
0.0
 11
76.0256507382
 21
124.3156160683
 31
0.0
  0
LWPOLYLINE
  5
2CC
330
1F
100
AcDbEntity
  8
0
  6
SLD-Durchgehend
 62
     7
370
    15
100
AcDbPolyline
 90
        9
 70
   128
 43
0.0
 10
76.0256507382
 20
124.3156160683
 10
75.95156589
 20
124.2741652288
 10
75.9151223064
 20
124.2401123502
 10
75.8916613594
 20
124.2064767041
 10
75.8810647711
 20
124.1798846506
 10
75.8782884985
 20
124.1530555755
 10
75.8830978483
 20
124.1328249209
 10
75.8970658243
 20
124.1132108018
 10
75.9038197756
 20
124.1077700153
  0
LINE
  5
2CD
330
1F
100
AcDbEntity
  8
0
  6
SLD-Durchgehend
 62
     7
370
    15
100
AcDbLine
 10
75.9038197756
 20
124.1077700153
 30
0.0
 11
76.4463235572
 21
123.7267189183
 31
0.0
  0
ARC
  5
2CE
330
1F
100
AcDbEntity
  8
0
  6
SLD-Durchgehend
 62
     7
370
    15
100
AcDbCircle
 10
86.6274078325
 20
117.9616929487
 30
0.0
 40
11.7000000000008
100
AcDbArc
 50
150.4793478803
 51
152.0434910313
  0
LINE
  5
2CF
330
1F
100
AcDbEntity
  8
0
  6
SLD-Durchgehend
 62
     7
370
    15
100
AcDbLine
 10
76.2927549839
 20
123.4466669605
 30
0.0
 11
75.3704289854
 21
123.0656158634
 31
0.0
  0
LWPOLYLINE
  5
2D0
330
1F
100
AcDbEntity
  8
0
  6
SLD-Durchgehend
 62
     7
370
    15
100
AcDbPolyline
 90
        9
 70
   128
 43
0.0
 10
75.3704289854
 20
123.0656158634
 10
75.3104834765
 20
123.0287555129
 10
75.2780874208
 20
122.9948865705
 10
75.2585678309
 20
122.9622767762
 10
75.2498217806
 20
122.9346439697
 10
75.2487749741
 20
122.9071368918
 10
75.2547484771
 20
122.8856959835
 10
75.2705586091
 20
122.8640608944
 10
75.2784860268
 20
122.8577698104
  0
LINE
  5
2D1
330
1F
100
AcDbEntity
  8
0
  6
SLD-Durchgehend
 62
     7
370
    15
100
AcDbLine
 10
75.2784860268
 20
122.8577698104
 30
0.0
 11
75.8336809412
 21
122.4767187134
 31
0.0
  0
ARC
  5
2D2
330
1F
100
AcDbEntity
  8
0
  6
SLD-Durchgehend
 62
     7
370
    15
100
AcDbCircle
 10
86.6274078325
 20
117.9616929487
 30
0.0
 40
11.70000000000061
100
AcDbArc
 50
157.3003977015
 51
158.7791629542
  0
LINE
  5
2D3
330
1F
100
AcDbEntity
  8
0
  6
SLD-Durchgehend
 62
     7
370
    15
100
AcDbLine
 10
75.7207590103
 20
122.1966672212
 30
0.0
 11
74.8836061865
 21
121.8156158913
 31
0.0
  0
LWPOLYLINE
  5
2D4
330
1F
100
AcDbEntity
  8
0
  6
SLD-Durchgehend
 62
     7
370
    15
100
AcDbPolyline
 90
        9
 70
   128
 43
0.0
 10
74.8836061865
 20
121.8156158913
 10
74.8339750752
 20
121.782464533
 10
74.8055892945
 20
121.7496102665
 10
74.7891467944
 20
121.7177744013
 10
74.7822242737
 20
121.6895224981
 10
74.7827774793
 20
121.6616515059
 10
74.7899197921
 20
121.6390760139
 10
74.8075897753
 20
121.6154385813
 10
74.8174236104
 20
121.6077698384
  0
LINE
  5
2D5
330
1F
100
AcDbEntity
  8
0
  6
SLD-Durchgehend
 62
     7
370
    15
100
AcDbLine
 10
74.8174236104
 20
121.6077698384
 30
0.0
 11
75.3922126204
 21
121.2267187413
 31
0.0
  0
ARC
  5
2D6
330
1F
100
AcDbEntity
  8
0
  6
SLD-Durchgehend
 62
     7
370
    15
100
AcDbCircle
 10
86.6274078325
 20
117.9616929487
 30
0.0
 40
11.70000000000042
100
AcDbArc
 50
163.7957681704
 51
165.2189484992
  0
LINE
  5
2D7
330
1F
100
AcDbEntity
  8
0
  6
SLD-Durchgehend
 62
     7
370
    15
100
AcDbLine
 10
75.3145859525
 20
120.9466672492
 30
0.0
 11
74.5448096603
 21
120.5656159193
 31
0.0
  0
LWPOLYLINE
  5
2D8
330
1F
100
AcDbEntity
  8
0
  6
SLD-Durchgehend
 62
     7
370
    15
100
AcDbPolyline
 90
        9
 70
   128
 43
0.0
 10
74.5448096603
 20
120.5656159193
 10
74.5102948457
 20
120.5423286639
 10
74.4822024316
 20
120.5102753349
 10
74.4664276898
 20
120.4788809166
 10
74.4597966731
 20
120.4499137577
 10
74.4606087864
 20
120.4208443862
 10
74.4679755479
 20
120.3966404766
 10
74.4858243451
 20
120.3707301513
 10
74.5018803463
 20
120.3577698663
  0
LINE
  5
2D9
330
1F
100
AcDbEntity
  8
0
  6
SLD-Durchgehend
 62
     7
370
    15
100
AcDbLine
 10
74.5018803463
 20
120.3577698663
 30
0.0
 11
75.1022322983
 21
119.9767187693
 31
0.0
  0
ARC
  5
2DA
330
1F
100
AcDbEntity
  8
0
  6
SLD-Durchgehend
 62
     7
370
    15
100
AcDbCircle
 10
86.6274078325
 20
117.9616929487
 30
0.0
 40
11.70000000000024
100
AcDbArc
 50
170.0828229118
 51
171.4722504237
  0
LINE
  5
2DB
330
1F
100
AcDbEntity
  8
0
  6
SLD-Durchgehend
 62
     7
370
    15
100
AcDbLine
 10
75.0567614049
 20
119.6966671607
 30
0.0
 11
74.341786927
 21
119.3156159472
 31
0.0
  0
ARC
  5
2DC
330
1F
100
AcDbEntity
  8
0
  6
SLD-Durchgehend
 62
     7
370
    15
100
AcDbCircle
 10
74.3896617845
 20
119.2057518716
 30
0.0
 40
0.1198420505527513
100
AcDbArc
 50
113.5458600199
 51
234.8445279001
  0
LINE
  5
2DD
330
1F
100
AcDbEntity
  8
0
  6
SLD-Durchgehend
 62
     7
370
    15
100
AcDbLine
 10
74.3206570804
 20
119.1077698943
 30
0.0
 11
74.952445826
 21
118.726718739
 31
0.0
  0
ARC
  5
2DE
330
1F
100
AcDbEntity
  8
0
  6
SLD-Durchgehend
 62
     7
370
    15
100
AcDbCircle
 10
86.6274078325
 20
117.9616929487
 30
0.0
 40
11.70000000000004
100
AcDbArc
 50
176.2509365533
 51
177.6243641365
  0
LINE
  5
2DF
330
1F
100
AcDbEntity
  8
0
  6
SLD-Durchgehend
 62
     7
370
    15
100
AcDbLine
 10
74.9374636397
 20
118.4466671886
 30
0.0
 11
74.2678445712
 21
118.065615997
 31
0.0
  0
ARC
  5
2E0
330
1F
100
AcDbEntity
  8
0
  6
SLD-Durchgehend
 62
     7
370
    15
100
AcDbCircle
 10
74.3270889892
 20
117.9616929487
 30
0.0
 40
0.1196239985686675
100
AcDbArc
 50
119.6865858065
 51
240.3134141935
  0
LINE
  5
2E1
330
1F
100
AcDbEntity
  8
0
  6
SLD-Durchgehend
 62
     7
370
    15
100
AcDbLine
 10
74.2678445712
 20
117.8577699004
 30
0.0
 11
74.9374636397
 21
117.4767187087
 31
0.0
  0
ARC
  5
2E2
330
1F
100
AcDbEntity
  8
0
  6
SLD-Durchgehend
 62
     7
370
    15
100
AcDbCircle
 10
86.6274078325
 20
117.9616929487
 30
0.0
 40
11.69999999999986
100
AcDbArc
 50
182.3756358635
 51
183.7490634467
  0
LINE
  5
2E3
330
1F
100
AcDbEntity
  8
0
  6
SLD-Durchgehend
 62
     7
370
    15
100
AcDbLine
 10
74.952445826
 20
117.1966671584
 30
0.0
 11
74.3206570804
 21
116.8156160031
 31
0.0
  0
ARC
  5
2E4
330
1F
100
AcDbEntity
  8
0
  6
SLD-Durchgehend
 62
     7
370
    15
100
AcDbCircle
 10
74.3919830028
 20
116.7178700032
 30
0.0
 40
0.121002759069448
100
AcDbArc
 50
126.1184841636
 51
245.4911279164
  0
LINE
  5
2E5
330
1F
100
AcDbEntity
  8
0
  6
SLD-Durchgehend
 62
     7
370
    15
100
AcDbLine
 10
74.341786927
 20
116.6077699501
 30
0.0
 11
75.0567614049
 21
116.2267187367
 31
0.0
  0
ARC
  5
2E6
330
1F
100
AcDbEntity
  8
0
  6
SLD-Durchgehend
 62
     7
370
    15
100
AcDbCircle
 10
86.6274078325
 20
117.9616929487
 30
0.0
 40
11.69999999999967
100
AcDbArc
 50
188.5277495763
 51
189.9171770882
  0
LINE
  5
2E7
330
1F
100
AcDbEntity
  8
0
  6
SLD-Durchgehend
 62
     7
370
    15
100
AcDbLine
 10
75.1022322983
 20
115.9466671281
 30
0.0
 11
74.5018803463
 21
115.565616031
 31
0.0
  0
LWPOLYLINE
  5
2E8
330
1F
100
AcDbEntity
  8
0
  6
SLD-Durchgehend
 62
     7
370
    15
100
AcDbPolyline
 90
        9
 70
   128
 43
0.0
 10
74.5018803463
 20
115.565616031
 10
74.4796198741
 20
115.5456766475
 10
74.4652784378
 20
115.5202056736
 10
74.4595098257
 20
115.4935430724
 10
74.4610884175
 20
115.4644341197
 10
74.4690735772
 20
115.4376427632
 10
74.4880408928
 20
115.4048879154
 10
74.5230157808
 20
115.3709630937
 10
74.5448096603
 20
115.3577699781
  0
LINE
  5
2E9
330
1F
100
AcDbEntity
  8
0
  6
SLD-Durchgehend
 62
     7
370
    15
100
AcDbLine
 10
74.5448096603
 20
115.3577699781
 30
0.0
 11
75.3145859525
 21
114.9767186482
 31
0.0
  0
ARC
  5
2EA
330
1F
100
AcDbEntity
  8
0
  6
SLD-Durchgehend
 62
     7
370
    15
100
AcDbCircle
 10
86.6274078325
 20
117.9616929487
 30
0.0
 40
11.69999999999949
100
AcDbArc
 50
194.7810515008
 51
196.2042318296
  0
LINE
  5
2EB
330
1F
100
AcDbEntity
  8
0
  6
SLD-Durchgehend
 62
     7
370
    15
100
AcDbLine
 10
75.3922126204
 20
114.696667156
 30
0.0
 11
74.8174236104
 21
114.315616059
 31
0.0
  0
LWPOLYLINE
  5
2EC
330
1F
100
AcDbEntity
  8
0
  6
SLD-Durchgehend
 62
     7
370
    15
100
AcDbPolyline
 90
        9
 70
   128
 43
0.0
 10
74.8174236104
 20
114.315616059
 10
74.7983277723
 20
114.2978988111
 10
74.785808003
 20
114.2741093401
 10
74.7815183312
 20
114.2439372827
 10
74.7856459528
 20
114.2164658279
 10
74.7958159954
 20
114.190409052
 10
74.8193961516
 20
114.1558220599
 10
74.8621056736
 20
114.1194795247
 10
74.8836061865
 20
114.107770006
  0
LINE
  5
2ED
330
1F
100
AcDbEntity
  8
0
  6
SLD-Durchgehend
 62
     7
370
    15
100
AcDbLine
 10
74.8836061865
 20
114.107770006
 30
0.0
 11
75.7207590103
 21
113.7267186761
 31
0.0
  0
ARC
  5
2EE
330
1F
100
AcDbEntity
  8
0
  6
SLD-Durchgehend
 62
     7
370
    15
100
AcDbCircle
 10
86.6274078325
 20
117.9616929487
 30
0.0
 40
11.6999999999993
100
AcDbArc
 50
201.2208370458
 51
202.6996022985
  0
LINE
  5
2EF
330
1F
100
AcDbEntity
  8
0
  6
SLD-Durchgehend
 62
     7
370
    15
100
AcDbLine
 10
75.8336809412
 20
113.446667184
 30
0.0
 11
75.2784860268
 21
113.0656160869
 31
0.0
  0
LWPOLYLINE
  5
2F0
330
1F
100
AcDbEntity
  8
0
  6
SLD-Durchgehend
 62
     7
370
    15
100
AcDbPolyline
 90
        9
 70
   128
 43
0.0
 10
75.2784860268
 20
113.0656160869
 10
75.2621506289
 20
113.0500932679
 10
75.2511898935
 20
113.0281163834
 10
75.2483689174
 20
113.0002898619
 10
75.2533645317
 20
112.974717141
 10
75.2674833819
 20
112.9440943234
 10
75.2963124722
 20
112.9076460831
 10
75.3485782951
 20
112.8684308835
 10
75.3704289854
 20
112.857770034
  0
LINE
  5
2F1
330
1F
100
AcDbEntity
  8
0
  6
SLD-Durchgehend
 62
     7
370
    15
100
AcDbLine
 10
75.3704289854
 20
112.857770034
 30
0.0
 11
76.2927549839
 21
112.4767189369
 31
0.0
  0
ARC
  5
2F2
330
1F
100
AcDbEntity
  8
0
  6
SLD-Durchgehend
 62
     7
370
    15
100
AcDbCircle
 10
86.6274078325
 20
117.9616929487
 30
0.0
 40
11.69999999999912
100
AcDbArc
 50
207.9565089686
 51
209.5206521197
  0
LINE
  5
2F3
330
1F
100
AcDbEntity
  8
0
  6
SLD-Durchgehend
 62
     7
370
    15
100
AcDbLine
 10
76.4463235572
 20
112.1966669791
 30
0.0
 11
75.9038197756
 21
111.815615882
 31
0.0
  0
LWPOLYLINE
  5
2F4
330
1F
100
AcDbEntity
  8
0
  6
SLD-Durchgehend
 62
     7
370
    15
100
AcDbPolyline
 90
        9
 70
   128
 43
0.0
 10
75.9038197756
 20
111.815615882
 10
75.8899216488
 20
111.8022975035
 10
75.8802470699
 20
111.7822931603
 10
75.8785651013
 20
111.7569881946
 10
75.8841725946
 20
111.7335905776
 10
75.8994826064
 20
111.7037756823
 10
75.931341289
 20
111.6664245248
 10
75.9914181143
 20
111.6234621488
 10
76.0256507382
 20
111.6077698291
  0
LINE
  5
2F5
330
1F
100
AcDbEntity
  8
0
  6
SLD-Durchgehend
 62
     7
370
    15
100
AcDbLine
 10
76.0256507382
 20
111.6077698291
 30
0.0
 11
77.0602700249
 21
111.226718732
 31
0.0
  0
ARC
  5
2F6
330
1F
100
AcDbEntity
  8
0
  6
SLD-Durchgehend
 62
     7
370
    15
100
AcDbCircle
 10
86.6274078325
 20
117.9616929487
 30
0.0
 40
11.69999999999893
100
AcDbArc
 50
215.1443816259
 51
216.8394547611
  0
LINE
  5
2F7
330
1F
100
AcDbEntity
  8
0
  6
SLD-Durchgehend
 62
     7
370
    15
100
AcDbLine
 10
77.2636792571
 20
110.9466672398
 30
0.0
 11
76.7244965717
 21
110.5656161428
 31
0.0
  0
LWPOLYLINE
  5
2F8
330
1F
100
AcDbEntity
  8
0
  6
SLD-Durchgehend
 62
     7
370
    15
100
AcDbPolyline
 90
        9
 70
   128
 43
0.0
 10
76.7244965717
 20
110.5656161428
 10
76.7127814651
 20
110.5545529619
 10
76.7040801183
 20
110.5367158063
 10
76.7031590402
 20
110.5141312339
 10
76.7090412736
 20
110.4932654173
 10
76.7250665412
 20
110.4651054822
 10
76.759593463
 20
110.4277212628
 10
76.8290310115
 20
110.3807956435
 10
76.8831808999
 20
110.3577700898
  0
LINE
  5
2F9
330
1F
100
AcDbEntity
  8
0
  6
SLD-Durchgehend
 62
     7
370
    15
100
AcDbLine
 10
76.8831808999
 20
110.3577700898
 30
0.0
 11
78.0757888168
 21
109.9767185271
 31
0.0
  0
ARC
  5
2FA
330
1F
100
AcDbEntity
  8
0
  6
SLD-Durchgehend
 62
     7
370
    15
100
AcDbCircle
 10
86.6274078325
 20
117.9616929487
 30
0.0
 40
11.69999999999874
100
AcDbArc
 50
223.0374643913
 51
224.9437677466
  0
LINE
  5
2FB
330
1F
100
AcDbEntity
  8
0
  6
SLD-Durchgehend
 62
     7
370
    15
100
AcDbLine
 10
78.346142447
 20
109.696667035
 30
0.0
 11
77.7948004142
 21
109.3156164036
 31
0.0
  0
LWPOLYLINE
  5
2FC
330
1F
100
AcDbEntity
  8
0
  6
SLD-Durchgehend
 62
     7
370
    15
100
AcDbPolyline
 90
        9
 70
   128
 43
0.0
 10
77.7948004142
 20
109.3156164036
 10
77.7850885824
 20
109.3069131941
 10
77.7763592959
 20
109.2888725445
 10
77.7769246087
 20
109.268802543
 10
77.7834531799
 20
109.2509677157
 10
77.8012153641
 20
109.2245572701
 10
77.8412789986
 20
109.1869420827
 10
77.9289276287
 20
109.1351335392
 10
78.0031605572
 20
109.1077703506
  0
LINE
  5
2FD
330
1F
100
AcDbEntity
  8
0
  6
SLD-Durchgehend
 62
     7
370
    15
100
AcDbLine
 10
78.0031605572
 20
109.1077703506
 30
0.0
 11
79.4437284529
 21
108.7267187879
 31
0.0
  0
ARC
  5
2FE
330
1F
100
AcDbEntity
  8
0
  6
SLD-Durchgehend
 62
     7
370
    15
100
AcDbCircle
 10
86.6274078325
 20
117.9616929487
 30
0.0
 40
11.69999999999856
100
AcDbArc
 50
232.1214532678
 51
234.4146980712
  0
LINE
  5
2FF
330
1F
100
AcDbEntity
  8
0
  6
SLD-Durchgehend
 62
     7
370
    15
100
AcDbLine
 10
79.819009541
 20
108.4466672957
 30
0.0
 11
79.2221891642
 21
108.065615733
 31
0.0
  0
LWPOLYLINE
  5
300
330
1F
100
AcDbEntity
  8
0
  6
SLD-Durchgehend
 62
     7
370
    15
100
AcDbPolyline
 90
        9
 70
   128
 43
0.0
 10
79.2221891642
 20
108.065615733
 10
79.2144168116
 20
108.0594531715
 10
79.2058565602
 20
108.0454684317
 10
79.2049201153
 20
108.0322138489
 10
79.2091418006
 20
108.0179431931
 10
79.2218380556
 20
107.9980762199
 10
79.2524506286
 20
107.9686240748
 10
79.3287855521
 20
107.9211918161
 10
79.5083953016
 20
107.8577696801
  0
LINE
  5
301
330
1F
100
AcDbEntity
  8
0
  6
SLD-Durchgehend
 62
     7
370
    15
100
AcDbLine
 10
79.5083953016
 20
107.8577696801
 30
0.0
 11
81.4355568908
 21
107.4767190487
 31
0.0
  0
ARC
  5
302
330
1F
100
AcDbEntity
  8
0
  6
SLD-Durchgehend
 62
     7
370
    15
100
AcDbCircle
 10
86.6274078325
 20
117.9616929487
 30
0.0
 40
11.700000000006
100
AcDbArc
 50
243.6567400211
 51
246.9389024908
  0
LINE
  5
303
330
1F
100
AcDbEntity
  8
0
  6
SLD-Durchgehend
 62
     7
370
    15
100
AcDbLine
 10
82.0443717711
 20
107.1966675565
 30
0.0
 11
81.2856321171
 21
106.8156159938
 31
0.0
  0
LWPOLYLINE
  5
304
330
1F
100
AcDbEntity
  8
0
  6
SLD-Durchgehend
 62
     7
370
    15
100
AcDbPolyline
 90
        9
 70
   128
 43
0.0
 10
81.2856321171
 20
106.8156159938
 10
81.2733679958
 20
106.8066045165
 10
81.2683928706
 20
106.7982514844
 10
81.2677707471
 20
106.7881354586
 10
81.2712655351
 20
106.778485094
 10
81.2819012389
 20
106.7644174666
 10
81.3093617507
 20
106.7422100798
 10
81.4109518141
 20
106.6920527712
 10
81.7429394409
 20
106.6077699408
  0
ARC
  5
305
330
1F
100
AcDbEntity
  8
0
  6
SLD-Durchgehend
 62
     7
370
    15
100
AcDbCircle
 10
86.6274078325
 20
138.991884538
 30
0.0
 40
32.75040319924217
100
AcDbArc
 50
261.4227787871
 51
278.5772212129
  0
LWPOLYLINE
  5
306
330
1F
100
AcDbEntity
  8
0
  6
SLD-Durchgehend
 62
     7
370
    15
100
AcDbPolyline
 90
       11
 70
   128
 43
0.0
 10
91.511876224
 20
106.6077699408
 10
91.719253356
 20
106.6513064772
 10
91.8987094373
 20
106.7158955604
 10
91.9484355435
 20
106.7442338437
 10
91.9689525798
 20
106.7605003238
 10
91.9820520975
 20
106.7759006739
 10
91.9867087104
 20
106.7865177512
 10
91.9868106902
 20
106.7968870968
 10
91.9829331286
 20
106.8048163772
 10
91.9712720387
 20
106.8144779176
 10
91.9691835478
 20
106.8156159938
  0
LINE
  5
307
330
1F
100
AcDbEntity
  8
0
  6
SLD-Durchgehend
 62
     7
370
    15
100
AcDbLine
 10
91.9691835478
 20
106.8156159938
 30
0.0
 11
91.2104438938
 21
107.1966675565
 31
0.0
  0
ARC
  5
308
330
1F
100
AcDbEntity
  8
0
  6
SLD-Durchgehend
 62
     7
370
    15
100
AcDbCircle
 10
86.6274078325
 20
117.9616929487
 30
0.0
 40
11.69999999999839
100
AcDbArc
 50
293.0610975091
 51
296.3432599789
  0
LINE
  5
309
330
1F
100
AcDbEntity
  8
0
  6
SLD-Durchgehend
 62
     7
370
    15
100
AcDbLine
 10
91.8192587741
 20
107.4767190487
 30
0.0
 11
93.7464203634
 21
107.8577696801
 31
0.0
  0
LWPOLYLINE
  5
30A
330
1F
100
AcDbEntity
  8
0
  6
SLD-Durchgehend
 62
     7
370
    15
100
AcDbPolyline
 90
        9
 70
   128
 43
0.0
 10
93.7464203634
 20
107.8577696801
 10
93.9457848616
 20
107.9316095904
 10
93.9995049447
 20
107.9663786561
 10
94.0293258935
 20
107.9937651277
 10
94.0433278628
 20
108.013248396
 10
94.0493917041
 20
108.0291432783
 10
94.0492822737
 20
108.044265163
 10
94.0439653531
 20
108.0553702534
 10
94.0326265007
 20
108.065615733
  0
LINE
  5
30B
330
1F
100
AcDbEntity
  8
0
  6
SLD-Durchgehend
 62
     7
370
    15
100
AcDbLine
 10
94.0326265007
 20
108.065615733
 30
0.0
 11
93.4358061239
 21
108.4466672957
 31
0.0
  0
ARC
  5
30C
330
1F
100
AcDbEntity
  8
0
  6
SLD-Durchgehend
 62
     7
370
    15
100
AcDbCircle
 10
86.6274078325
 20
117.9616929487
 30
0.0
 40
11.69999999999857
100
AcDbArc
 50
305.5853019288
 51
307.8785467322
  0
LINE
  5
30D
330
1F
100
AcDbEntity
  8
0
  6
SLD-Durchgehend
 62
     7
370
    15
100
AcDbLine
 10
93.811087212
 20
108.7267187879
 30
0.0
 11
95.2516551078
 21
109.1077703506
 31
0.0
  0
LWPOLYLINE
  5
30E
330
1F
100
AcDbEntity
  8
0
  6
SLD-Durchgehend
 62
     7
370
    15
100
AcDbPolyline
 90
        9
 70
   128
 43
0.0
 10
95.2516551078
 20
109.1077703506
 10
95.3763340548
 20
109.1616324604
 10
95.4357757181
 20
109.205810678
 10
95.4590848595
 20
109.2314453319
 10
95.4737699539
 20
109.2561803282
 10
95.4789360002
 20
109.275007014
 10
95.4776070029
 20
109.2923687294
 10
95.470761782
 20
109.3056419388
 10
95.4600152508
 20
109.3156164036
  0
LINE
  5
30F
330
1F
100
AcDbEntity
  8
0
  6
SLD-Durchgehend
 62
     7
370
    15
100
AcDbLine
 10
95.4600152508
 20
109.3156164036
 30
0.0
 11
94.9086732179
 21
109.696667035
 31
0.0
  0
ARC
  5
310
330
1F
100
AcDbEntity
  8
0
  6
SLD-Durchgehend
 62
     7
370
    15
100
AcDbCircle
 10
86.6274078325
 20
117.9616929487
 30
0.0
 40
11.69999999999876
100
AcDbArc
 50
315.0562322534
 51
316.9625356087
  0
LINE
  5
311
330
1F
100
AcDbEntity
  8
0
  6
SLD-Durchgehend
 62
     7
370
    15
100
AcDbLine
 10
95.1790268481
 20
109.9767185271
 30
0.0
 11
96.371634765
 21
110.3577700898
 31
0.0
  0
LWPOLYLINE
  5
312
330
1F
100
AcDbEntity
  8
0
  6
SLD-Durchgehend
 62
     7
370
    15
100
AcDbPolyline
 90
        9
 70
   128
 43
0.0
 10
96.371634765
 20
110.3577700898
 10
96.4613369614
 20
110.4017760128
 10
96.5033749998
 20
110.4351979204
 10
96.5384923801
 20
110.4785649561
 10
96.5489511326
 20
110.5021292799
 10
96.5522843361
 20
110.5258682266
 10
96.5482014179
 20
110.5441747688
 10
96.5353910759
 20
110.5616054021
 10
96.5303190932
 20
110.5656161428
  0
LINE
  5
313
330
1F
100
AcDbEntity
  8
0
  6
SLD-Durchgehend
 62
     7
370
    15
100
AcDbLine
 10
96.5303190932
 20
110.5656161428
 30
0.0
 11
95.9911364079
 21
110.9466672398
 31
0.0
  0
ARC
  5
314
330
1F
100
AcDbEntity
  8
0
  6
SLD-Durchgehend
 62
     7
370
    15
100
AcDbCircle
 10
86.6274078325
 20
117.9616929487
 30
0.0
 40
11.69999999999895
100
AcDbArc
 50
323.1605452389
 51
324.8556183741
  0
LINE
  5
315
330
1F
100
AcDbEntity
  8
0
  6
SLD-Durchgehend
 62
     7
370
    15
100
AcDbLine
 10
96.1945456401
 20
111.226718732
 30
0.0
 11
97.2291649267
 21
111.6077698291
 31
0.0
  0
LWPOLYLINE
  5
316
330
1F
100
AcDbEntity
  8
0
  6
SLD-Durchgehend
 62
     7
370
    15
100
AcDbPolyline
 90
        9
 70
   128
 43
0.0
 10
97.2291649267
 20
111.6077698291
 10
97.3032497749
 20
111.6492206686
 10
97.3396933586
 20
111.6832735472
 10
97.3631543055
 20
111.7169091933
 10
97.3737508938
 20
111.7435012468
 10
97.3765271664
 20
111.7703303218
 10
97.3717178166
 20
111.7905609764
 10
97.3577498406
 20
111.8101750955
 10
97.3509958893
 20
111.815615882
  0
LINE
  5
317
330
1F
100
AcDbEntity
  8
0
  6
SLD-Durchgehend
 62
     7
370
    15
100
AcDbLine
 10
97.3509958893
 20
111.815615882
 30
0.0
 11
96.8084921077
 21
112.1966669791
 31
0.0
  0
ARC
  5
318
330
1F
100
AcDbEntity
  8
0
  6
SLD-Durchgehend
 62
     7
370
    15
100
AcDbCircle
 10
86.6274078325
 20
117.9616929487
 30
0.0
 40
11.69999999999915
100
AcDbArc
 50
330.4793478803
 51
332.0434910314
  0
LINE
  5
319
330
1F
100
AcDbEntity
  8
0
  6
SLD-Durchgehend
 62
     7
370
    15
100
AcDbLine
 10
96.962060681
 20
112.4767189369
 30
0.0
 11
97.8843866795
 21
112.857770034
 31
0.0
  0
LWPOLYLINE
  5
31A
330
1F
100
AcDbEntity
  8
0
  6
SLD-Durchgehend
 62
     7
370
    15
100
AcDbPolyline
 90
        9
 70
   128
 43
0.0
 10
97.8843866795
 20
112.857770034
 10
97.9443321884
 20
112.8946303845
 10
97.9767282441
 20
112.9284993269
 10
97.996247834
 20
112.9611091212
 10
98.0049938843
 20
112.9887419276
 10
98.0060406909
 20
113.0162490055
 10
98.0000671879
 20
113.0376899138
 10
97.9842570558
 20
113.0593250029
 10
97.9763296381
 20
113.0656160869
  0
LINE
  5
31B
330
1F
100
AcDbEntity
  8
0
  6
SLD-Durchgehend
 62
     7
370
    15
100
AcDbLine
 10
97.9763296381
 20
113.0656160869
 30
0.0
 11
97.4211347237
 21
113.446667184
 31
0.0
  0
ARC
  5
31C
330
1F
100
AcDbEntity
  8
0
  6
SLD-Durchgehend
 62
     7
370
    15
100
AcDbCircle
 10
86.6274078325
 20
117.9616929487
 30
0.0
 40
11.69999999999933
100
AcDbArc
 50
337.3003977015
 51
338.7791629543
  0
LINE
  5
31D
330
1F
100
AcDbEntity
  8
0
  6
SLD-Durchgehend
 62
     7
370
    15
100
AcDbLine
 10
97.5340566546
 20
113.7267186761
 30
0.0
 11
98.3712094784
 21
114.107770006
 31
0.0
  0
LWPOLYLINE
  5
31E
330
1F
100
AcDbEntity
  8
0
  6
SLD-Durchgehend
 62
     7
370
    15
100
AcDbPolyline
 90
        9
 70
   128
 43
0.0
 10
98.3712094784
 20
114.107770006
 10
98.4208405897
 20
114.1409213644
 10
98.4492263705
 20
114.1737756308
 10
98.4656688705
 20
114.2056114961
 10
98.4725913912
 20
114.2338633992
 10
98.4720381856
 20
114.2617343914
 10
98.4648958728
 20
114.2843098834
 10
98.4472258896
 20
114.3079473161
 10
98.4373920545
 20
114.315616059
  0
LINE
  5
31F
330
1F
100
AcDbEntity
  8
0
  6
SLD-Durchgehend
 62
     7
370
    15
100
AcDbLine
 10
98.4373920545
 20
114.315616059
 30
0.0
 11
97.8626030445
 21
114.696667156
 31
0.0
  0
ARC
  5
320
330
1F
100
AcDbEntity
  8
0
  6
SLD-Durchgehend
 62
     7
370
    15
100
AcDbCircle
 10
86.6274078325
 20
117.9616929487
 30
0.0
 40
11.69999999999952
100
AcDbArc
 50
343.7957681704
 51
345.2189484992
  0
LINE
  5
321
330
1F
100
AcDbEntity
  8
0
  6
SLD-Durchgehend
 62
     7
370
    15
100
AcDbLine
 10
97.9402297124
 20
114.9767186482
 30
0.0
 11
98.7100060046
 21
115.3577699781
 31
0.0
  0
LWPOLYLINE
  5
322
330
1F
100
AcDbEntity
  8
0
  6
SLD-Durchgehend
 62
     7
370
    15
100
AcDbPolyline
 90
        9
 70
   128
 43
0.0
 10
98.7100060046
 20
115.3577699781
 10
98.7445208192
 20
115.3810572334
 10
98.7726132333
 20
115.4131105624
 10
98.7883879751
 20
115.4445049808
 10
98.7950189918
 20
115.4734721396
 10
98.7942068786
 20
115.5025415112
 10
98.786840117
 20
115.5267454207
 10
98.7689913199
 20
115.5526557461
 10
98.7529353187
 20
115.565616031
  0
LINE
  5
323
330
1F
100
AcDbEntity
  8
0
  6
SLD-Durchgehend
 62
     7
370
    15
100
AcDbLine
 10
98.7529353187
 20
115.565616031
 30
0.0
 11
98.1525833667
 21
115.9466671281
 31
0.0
  0
ARC
  5
324
330
1F
100
AcDbEntity
  8
0
  6
SLD-Durchgehend
 62
     7
370
    15
100
AcDbCircle
 10
86.6274078325
 20
117.9616929487
 30
0.0
 40
11.6999999999997
100
AcDbArc
 50
350.0828229118
 51
351.4722504237
  0
LINE
  5
325
330
1F
100
AcDbEntity
  8
0
  6
SLD-Durchgehend
 62
     7
370
    15
100
AcDbLine
 10
98.19805426
 20
116.2267187367
 30
0.0
 11
98.9130287379
 21
116.6077699501
 31
0.0
  0
ARC
  5
326
330
1F
100
AcDbEntity
  8
0
  6
SLD-Durchgehend
 62
     7
370
    15
100
AcDbCircle
 10
98.8651538804
 20
116.7176340257
 30
0.0
 40
0.1198420505527431
100
AcDbArc
 50
293.5458600199
 51
54.8445279001
  0
LINE
  5
327
330
1F
100
AcDbEntity
  8
0
  6
SLD-Durchgehend
 62
     7
370
    15
100
AcDbLine
 10
98.9341585845
 20
116.8156160031
 30
0.0
 11
98.302369839
 21
117.1966671584
 31
0.0
  0
ARC
  5
328
330
1F
100
AcDbEntity
  8
0
  6
SLD-Durchgehend
 62
     7
370
    15
100
AcDbCircle
 10
86.6274078325
 20
117.9616929487
 30
0.0
 40
11.69999999999988
100
AcDbArc
 50
356.2509365533
 51
357.6243641365
  0
LINE
  5
329
330
1F
100
AcDbEntity
  8
0
  6
SLD-Durchgehend
 62
     7
370
    15
100
AcDbLine
 10
98.3173520252
 20
117.4767187087
 30
0.0
 11
98.9869710937
 21
117.8577699004
 31
0.0
  0
ARC
  5
32A
330
1F
100
AcDbEntity
  8
0
  6
SLD-Durchgehend
 62
     7
370
    15
100
AcDbCircle
 10
98.9277266757
 20
117.9616929487
 30
0.0
 40
0.1196239985686745
100
AcDbArc
 50
299.6865858065
 51
60.3134141935
  0
LINE
  5
32B
330
1F
100
AcDbEntity
  8
0
  6
SLD-Durchgehend
 62
     7
370
    15
100
AcDbLine
 10
98.9869710937
 20
118.065615997
 30
0.0
 11
98.3173520252
 21
118.4466671886
 31
0.0
  0
ARC
  5
32C
330
1F
100
AcDbEntity
  8
0
  6
SLD-Durchgehend
 62
     7
370
    15
100
AcDbCircle
 10
86.6274078325
 20
117.9616929487
 30
0.0
 40
11.70000000000007
100
AcDbArc
 50
2.3756358635
 51
3.7490634467
  0
LINE
  5
32D
330
1F
100
AcDbEntity
  8
0
  6
SLD-Durchgehend
 62
     7
370
    15
100
AcDbLine
 10
84.9981312821
 20
122.4767187134
 30
0.0
 11
84.2790618953
 21
122.4767187134
 31
0.0
  0
LINE
  5
32E
330
1F
100
AcDbEntity
  8
0
  6
SLD-Durchgehend
 62
     7
370
    15
100
AcDbLine
 10
88.9757537697
 20
122.4767187134
 30
0.0
 11
88.2566843828
 21
122.4767187134
 31
0.0
  0
ARC
  5
32F
330
1F
100
AcDbEntity
  8
0
  6
SLD-Durchgehend
 62
     7
370
    15
100
AcDbCircle
 10
86.6274078325
 20
109.7849254381
 30
0.0
 40
12.79594305312463
100
AcDbArc
 50
82.6848090695
 51
97.3151909305
  0
CIRCLE
  5
330
330
1F
100
AcDbEntity
  8
0
  6
SLD-Durchgehend
 62
     7
370
    15
100
AcDbCircle
 10
86.6274078325
 20
117.9616929487
 30
0.0
 40
4.0
  0
LINE
  5
331
330
1F
100
AcDbEntity
  8
0
  6
SLD-Durchgehend
 62
     7
370
    15
100
AcDbLine
 10
81.8887649983
 20
118.726718739
 30
0.0
 11
82.6492038503
 21
119.1077698943
 31
0.0
  0
LWPOLYLINE
  5
332
330
1F
100
AcDbEntity
  8
0
  6
SLD-Durchgehend
 62
     7
370
    15
100
AcDbPolyline
 90
        9
 70
   128
 43
0.0
 10
82.6492038503
 20
119.1077698943
 10
82.6965802297
 20
119.1401321896
 10
82.7252598427
 20
119.1739120743
 10
82.7417435538
 20
119.2062843813
 10
82.7487841197
 20
119.2350216199
 10
82.7482958738
 20
119.2632820214
 10
82.7411202662
 20
119.2859050108
 10
82.7235250216
 20
119.3090551289
 10
82.7150567383
 20
119.3156159472
  0
LINE
  5
333
330
1F
100
AcDbEntity
  8
0
  6
SLD-Durchgehend
 62
     7
370
    15
100
AcDbLine
 10
82.7150567383
 20
119.3156159472
 30
0.0
 11
82.1519344062
 21
119.6966671607
 31
0.0
  0
ARC
  5
334
330
1F
100
AcDbEntity
  8
0
  6
SLD-Durchgehend
 62
     7
370
    15
100
AcDbCircle
 10
86.6274078325
 20
117.9616929487
 30
0.0
 40
4.800000000000427
100
AcDbArc
 50
155.1782257964
 51
158.8105456562
  0
LINE
  5
335
330
1F
100
AcDbEntity
  8
0
  6
SLD-Durchgehend
 62
     7
370
    15
100
AcDbLine
 10
82.2708414816
 20
119.9767187693
 30
0.0
 11
83.2512538362
 21
120.3577698663
 31
0.0
  0
LWPOLYLINE
  5
336
330
1F
100
AcDbEntity
  8
0
  6
SLD-Durchgehend
 62
     7
370
    15
100
AcDbPolyline
 90
        9
 70
   128
 43
0.0
 10
83.2512538362
 20
120.3577698663
 10
83.3390898951
 20
120.4028670665
 10
83.3829568181
 20
120.4390859686
 10
83.4120145481
 20
120.4742690072
 10
83.4249063809
 20
120.4994261254
 10
83.429811424
 20
120.5208262883
 10
83.4277997673
 20
120.5403544929
 10
83.4199948184
 20
120.555176026
 10
83.4088392038
 20
120.5656159193
  0
LINE
  5
337
330
1F
100
AcDbEntity
  8
0
  6
SLD-Durchgehend
 62
     7
370
    15
100
AcDbLine
 10
83.4088392038
 20
120.5656159193
 30
0.0
 11
83.0138038326
 21
120.8441607643
 31
0.0
  0
LINE
  5
338
330
1F
100
AcDbEntity
  8
0
  6
SLD-Durchgehend
 62
     7
370
    15
100
AcDbLine
 10
83.5717696645
 20
121.339958486
 30
0.0
 11
84.666356346
 21
121.6077698384
 31
0.0
  0
LWPOLYLINE
  5
339
330
1F
100
AcDbEntity
  8
0
  6
SLD-Durchgehend
 62
     7
370
    15
100
AcDbPolyline
 90
       11
 70
   128
 43
0.0
 10
84.666356346
 20
121.6077698384
 10
84.8759031104
 20
121.6597176146
 10
85.0190512318
 20
121.7113054347
 10
85.0874020433
 20
121.7449743755
 10
85.1179503551
 20
121.7663982872
 10
85.1277548535
 20
121.7765541271
 10
85.1340694534
 20
121.7879323278
 10
85.1347665483
 20
121.7958059617
 10
85.1320888795
 20
121.8028088089
 10
85.1235861372
 20
121.8109946687
 10
85.1151654678
 20
121.8156158913
  0
LINE
  5
33A
330
1F
100
AcDbEntity
  8
0
  6
SLD-Durchgehend
 62
     7
370
    15
100
AcDbLine
 10
85.1151654678
 20
121.8156158913
 30
0.0
 11
84.3679845747
 21
122.1966672212
 31
0.0
  0
ARC
  5
33B
330
1F
100
AcDbEntity
  8
0
  6
SLD-Durchgehend
 62
     7
370
    15
100
AcDbCircle
 10
86.6274078325
 20
117.9616929487
 30
0.0
 40
4.800000000000934
100
AcDbArc
 50
109.8423103834
 51
118.0806000095
  0
ARC
  5
33C
330
1F
100
AcDbEntity
  8
0
  6
SLD-Durchgehend
 62
     7
370
    15
100
AcDbCircle
 10
86.6274078325
 20
117.9616929487
 30
0.0
 40
4.800000000000944
100
AcDbArc
 50
61.9193999905
 51
70.1576896166
  0
LINE
  5
33D
330
1F
100
AcDbEntity
  8
0
  6
SLD-Durchgehend
 62
     7
370
    15
100
AcDbLine
 10
88.8868310902
 20
122.1966672212
 30
0.0
 11
88.1396501972
 21
121.8156158913
 31
0.0
  0
LWPOLYLINE
  5
33E
330
1F
100
AcDbEntity
  8
0
  6
SLD-Durchgehend
 62
     7
370
    15
100
AcDbPolyline
 90
       10
 70
   128
 43
0.0
 10
88.1396501972
 20
121.8156158913
 10
88.1268151751
 20
121.8075576227
 10
88.1215249136
 20
121.800666767
 10
88.1199422473
 20
121.7921470281
 10
88.122279867
 20
121.7840270594
 10
88.1301039079
 20
121.7729864631
 10
88.1510042999
 20
121.7554384832
 10
88.2323088771
 20
121.7127906613
 10
88.5261804978
 20
121.620422554
 10
88.5884593189
 20
121.6077698384
  0
LINE
  5
33F
330
1F
100
AcDbEntity
  8
0
  6
SLD-Durchgehend
 62
     7
370
    15
100
AcDbLine
 10
88.5884593189
 20
121.6077698384
 30
0.0
 11
89.7095463187
 21
121.3334746182
 31
0.0
  0
LINE
  5
340
330
1F
100
AcDbEntity
  8
0
  6
SLD-Durchgehend
 62
     7
370
    15
100
AcDbLine
 10
90.2195583511
 20
120.8290335246
 30
0.0
 11
89.8459764611
 21
120.5656159193
 31
0.0
  0
LWPOLYLINE
  5
341
330
1F
100
AcDbEntity
  8
0
  6
SLD-Durchgehend
 62
     7
370
    15
100
AcDbPolyline
 90
        9
 70
   128
 43
0.0
 10
89.8459764611
 20
120.5656159193
 10
89.8348322552
 20
120.5551904615
 10
89.8255721148
 20
120.5342852965
 10
89.8262789887
 20
120.5119100388
 10
89.8331800889
 20
120.4915685568
 10
89.8516123597
 20
120.4618742679
 10
89.8908110284
 20
120.4218271643
 10
89.9654819112
 20
120.3737560183
 10
90.0035618287
 20
120.3577698663
  0
LINE
  5
342
330
1F
100
AcDbEntity
  8
0
  6
SLD-Durchgehend
 62
     7
370
    15
100
AcDbLine
 10
90.0035618287
 20
120.3577698663
 30
0.0
 11
90.9839741834
 21
119.9767187693
 31
0.0
  0
ARC
  5
343
330
1F
100
AcDbEntity
  8
0
  6
SLD-Durchgehend
 62
     7
370
    15
100
AcDbCircle
 10
86.6274078325
 20
117.9616929487
 30
0.0
 40
4.800000000000439
100
AcDbArc
 50
21.1894543438
 51
24.8217742036
  0
LINE
  5
344
330
1F
100
AcDbEntity
  8
0
  6
SLD-Durchgehend
 62
     7
370
    15
100
AcDbLine
 10
91.1028812587
 20
119.6966671607
 30
0.0
 11
90.5397589266
 21
119.3156159472
 31
0.0
  0
LWPOLYLINE
  5
345
330
1F
100
AcDbEntity
  8
0
  6
SLD-Durchgehend
 62
     7
370
    15
100
AcDbPolyline
 90
        9
 70
   128
 43
0.0
 10
90.5397589266
 20
119.3156159472
 10
90.5214447011
 20
119.2984450365
 10
90.5092830252
 20
119.2748584774
 10
90.5052969646
 20
119.2449772254
 10
90.5094942026
 20
119.2174537329
 10
90.519733163
 20
119.1909175588
 10
90.5431875907
 20
119.155810423
 10
90.5847473949
 20
119.119467655
 10
90.6056118146
 20
119.1077698943
  0
LINE
  5
346
330
1F
100
AcDbEntity
  8
0
  6
SLD-Durchgehend
 62
     7
370
    15
100
AcDbLine
 10
90.6056118146
 20
119.1077698943
 30
0.0
 11
91.3660506666
 21
118.726718739
 31
0.0
  0
ARC
  5
347
330
1F
100
AcDbEntity
  8
0
  6
SLD-Durchgehend
 62
     7
370
    15
100
AcDbCircle
 10
86.6274078325
 20
117.9616929487
 30
0.0
 40
4.800000000000193
100
AcDbArc
 50
5.7988481848
 51
9.1709324956
  0
LINE
  5
348
330
1F
100
AcDbEntity
  8
0
  6
SLD-Durchgehend
 62
     7
370
    15
100
AcDbLine
 10
91.4028448932
 20
118.4466671886
 30
0.0
 11
90.7661033742
 21
118.065615997
 31
0.0
  0
ARC
  5
349
330
1F
100
AcDbEntity
  8
0
  6
SLD-Durchgehend
 62
     7
370
    15
100
AcDbCircle
 10
90.8283906325
 20
117.9616929487
 30
0.0
 40
0.1211598221575559
100
AcDbArc
 50
120.9367618605
 51
239.0632381395
  0
LINE
  5
34A
330
1F
100
AcDbEntity
  8
0
  6
SLD-Durchgehend
 62
     7
370
    15
100
AcDbLine
 10
90.7661033742
 20
117.8577699004
 30
0.0
 11
91.4028448932
 21
117.4767187087
 31
0.0
  0
ARC
  5
34B
330
1F
100
AcDbEntity
  8
0
  6
SLD-Durchgehend
 62
     7
370
    15
100
AcDbCircle
 10
86.6274078325
 20
117.9616929487
 30
0.0
 40
4.800000000000126
100
AcDbArc
 50
350.8290675044
 51
354.2011518152
  0
LINE
  5
34C
330
1F
100
AcDbEntity
  8
0
  6
SLD-Durchgehend
 62
     7
370
    15
100
AcDbLine
 10
91.3660506666
 20
117.1966671584
 30
0.0
 11
90.6056118146
 21
116.8156160031
 31
0.0
  0
LWPOLYLINE
  5
34D
330
1F
100
AcDbEntity
  8
0
  6
SLD-Durchgehend
 62
     7
370
    15
100
AcDbPolyline
 90
        9
 70
   128
 43
0.0
 10
90.6056118146
 20
116.8156160031
 10
90.5582354352
 20
116.7832537078
 10
90.5295558222
 20
116.7494738231
 10
90.5130721111
 20
116.717101516
 10
90.5060315453
 20
116.6883642774
 10
90.5065197911
 20
116.660103876
 10
90.5136953987
 20
116.6374808865
 10
90.5312906433
 20
116.6143307684
 10
90.5397589266
 20
116.6077699501
  0
LINE
  5
34E
330
1F
100
AcDbEntity
  8
0
  6
SLD-Durchgehend
 62
     7
370
    15
100
AcDbLine
 10
90.5397589266
 20
116.6077699501
 30
0.0
 11
91.1028812587
 21
116.2267187367
 31
0.0
  0
ARC
  5
34F
330
1F
100
AcDbEntity
  8
0
  6
SLD-Durchgehend
 62
     7
370
    15
100
AcDbCircle
 10
86.6274078325
 20
117.9616929487
 30
0.0
 40
4.799999999999697
100
AcDbArc
 50
335.1782257965
 51
338.8105456562
  0
LINE
  5
350
330
1F
100
AcDbEntity
  8
0
  6
SLD-Durchgehend
 62
     7
370
    15
100
AcDbLine
 10
90.9839741834
 20
115.9466671281
 30
0.0
 11
90.0035618287
 21
115.565616031
 31
0.0
  0
LWPOLYLINE
  5
351
330
1F
100
AcDbEntity
  8
0
  6
SLD-Durchgehend
 62
     7
370
    15
100
AcDbPolyline
 90
        9
 70
   128
 43
0.0
 10
90.0035618287
 20
115.565616031
 10
89.9157257699
 20
115.5205188308
 10
89.8718588468
 20
115.4842999287
 10
89.8428011168
 20
115.4491168902
 10
89.8299092841
 20
115.4239597719
 10
89.8250042409
 20
115.402559609
 10
89.8270158977
 20
115.3830314044
 10
89.8348208465
 20
115.3682098713
 10
89.8459764611
 20
115.3577699781
  0
LINE
  5
352
330
1F
100
AcDbEntity
  8
0
  6
SLD-Durchgehend
 62
     7
370
    15
100
AcDbLine
 10
89.8459764611
 20
115.3577699781
 30
0.0
 11
90.2226554644
 21
115.0921684213
 31
0.0
  0
LINE
  5
353
330
1F
100
AcDbEntity
  8
0
  6
SLD-Durchgehend
 62
     7
370
    15
100
AcDbLine
 10
89.7080878675
 20
114.5895543497
 30
0.0
 11
88.5884593189
 21
114.315616059
 31
0.0
  0
LWPOLYLINE
  5
354
330
1F
100
AcDbEntity
  8
0
  6
SLD-Durchgehend
 62
     7
370
    15
100
AcDbPolyline
 90
       11
 70
   128
 43
0.0
 10
88.5884593189
 20
114.315616059
 10
88.3789125545
 20
114.2636682827
 10
88.2357644331
 20
114.2120804627
 10
88.1674136216
 20
114.1784115218
 10
88.1368653098
 20
114.1569876101
 10
88.1270608114
 20
114.1468317703
 10
88.1207462115
 20
114.1354535695
 10
88.1200491166
 20
114.1275799357
 10
88.1227267854
 20
114.1205770884
 10
88.1312295277
 20
114.1123912286
 10
88.1396501972
 20
114.107770006
  0
LINE
  5
355
330
1F
100
AcDbEntity
  8
0
  6
SLD-Durchgehend
 62
     7
370
    15
100
AcDbLine
 10
88.1396501972
 20
114.107770006
 30
0.0
 11
88.8868310902
 21
113.7267186761
 31
0.0
  0
ARC
  5
356
330
1F
100
AcDbEntity
  8
0
  6
SLD-Durchgehend
 62
     7
370
    15
100
AcDbCircle
 10
86.6274078325
 20
117.9616929487
 30
0.0
 40
4.80000000000555
100
AcDbArc
 50
289.8423103834
 51
298.0806000097
  0
ARC
  5
357
330
1F
100
AcDbEntity
  8
0
  6
SLD-Durchgehend
 62
     7
370
    15
100
AcDbCircle
 10
86.6274078325
 20
126.1384604592
 30
0.0
 40
12.79594305312465
100
AcDbArc
 50
262.6848090695
 51
277.3151909305
  0
ARC
  5
358
330
1F
100
AcDbEntity
  8
0
  6
SLD-Durchgehend
 62
     7
370
    15
100
AcDbCircle
 10
86.6274078325
 20
117.9616929487
 30
0.0
 40
4.799999999999189
100
AcDbArc
 50
241.9193999905
 51
250.1576896166
  0
LINE
  5
359
330
1F
100
AcDbEntity
  8
0
  6
SLD-Durchgehend
 62
     7
370
    15
100
AcDbLine
 10
84.3679845747
 20
113.7267186761
 30
0.0
 11
85.1151654678
 21
114.107770006
 31
0.0
  0
LWPOLYLINE
  5
35A
330
1F
100
AcDbEntity
  8
0
  6
SLD-Durchgehend
 62
     7
370
    15
100
AcDbPolyline
 90
       10
 70
   128
 43
0.0
 10
85.1151654678
 20
114.107770006
 10
85.1280004898
 20
114.1158282746
 10
85.1332907513
 20
114.1227191303
 10
85.1348734176
 20
114.1312388692
 10
85.1325357979
 20
114.1393588379
 10
85.124711757
 20
114.1503994342
 10
85.103811365
 20
114.1679474142
 10
85.0225067878
 20
114.210595236
 10
84.7286351672
 20
114.3029633433
 10
84.666356346
 20
114.315616059
  0
LINE
  5
35B
330
1F
100
AcDbEntity
  8
0
  6
SLD-Durchgehend
 62
     7
370
    15
100
AcDbLine
 10
84.666356346
 20
114.315616059
 30
0.0
 11
83.5679265619
 21
114.5843678143
 31
0.0
  0
LINE
  5
35C
330
1F
100
AcDbEntity
  8
0
  6
SLD-Durchgehend
 62
     7
370
    15
100
AcDbLine
 10
83.0316859245
 20
115.0918340765
 30
0.0
 11
83.4088392038
 21
115.3577699781
 31
0.0
  0
LWPOLYLINE
  5
35D
330
1F
100
AcDbEntity
  8
0
  6
SLD-Durchgehend
 62
     7
370
    15
100
AcDbPolyline
 90
        9
 70
   128
 43
0.0
 10
83.4088392038
 20
115.3577699781
 10
83.4199834097
 20
115.3681954358
 10
83.4292435501
 20
115.3891006008
 10
83.4285366763
 20
115.4114758585
 10
83.421635576
 20
115.4318173405
 10
83.4032033052
 20
115.4615116295
 10
83.3640046366
 20
115.501558733
 10
83.2893337537
 20
115.549629879
 10
83.2512538362
 20
115.565616031
  0
LINE
  5
35E
330
1F
100
AcDbEntity
  8
0
  6
SLD-Durchgehend
 62
     7
370
    15
100
AcDbLine
 10
83.2512538362
 20
115.565616031
 30
0.0
 11
82.2708414816
 21
115.9466671281
 31
0.0
  0
ARC
  5
35F
330
1F
100
AcDbEntity
  8
0
  6
SLD-Durchgehend
 62
     7
370
    15
100
AcDbCircle
 10
86.6274078325
 20
117.9616929487
 30
0.0
 40
4.79999999999967
100
AcDbArc
 50
201.1894543438
 51
204.8217742035
  0
LINE
  5
360
330
1F
100
AcDbEntity
  8
0
  6
SLD-Durchgehend
 62
     7
370
    15
100
AcDbLine
 10
82.1519344062
 20
116.2267187367
 30
0.0
 11
82.7150567383
 21
116.6077699501
 31
0.0
  0
LWPOLYLINE
  5
361
330
1F
100
AcDbEntity
  8
0
  6
SLD-Durchgehend
 62
     7
370
    15
100
AcDbPolyline
 90
        9
 70
   128
 43
0.0
 10
82.7150567383
 20
116.6077699501
 10
82.7333709639
 20
116.6249408609
 10
82.7455326397
 20
116.64852742
 10
82.7495187003
 20
116.6784086719
 10
82.7453214623
 20
116.7059321644
 10
82.7350825019
 20
116.7324683385
 10
82.7116280742
 20
116.7675754743
 10
82.67006827
 20
116.8039182423
 10
82.6492038503
 20
116.8156160031
  0
LINE
  5
362
330
1F
100
AcDbEntity
  8
0
  6
SLD-Durchgehend
 62
     7
370
    15
100
AcDbLine
 10
82.6492038503
 20
116.8156160031
 30
0.0
 11
81.8887649983
 21
117.1966671584
 31
0.0
  0
ARC
  5
363
330
1F
100
AcDbEntity
  8
0
  6
SLD-Durchgehend
 62
     7
370
    15
100
AcDbCircle
 10
86.6274078325
 20
117.9616929487
 30
0.0
 40
4.800000000000083
100
AcDbArc
 50
185.7988481848
 51
189.1709324956
  0
LINE
  5
364
330
1F
100
AcDbEntity
  8
0
  6
SLD-Durchgehend
 62
     7
370
    15
100
AcDbLine
 10
81.8519707717
 20
117.4767187087
 30
0.0
 11
82.4887122907
 21
117.8577699004
 31
0.0
  0
ARC
  5
365
330
1F
100
AcDbEntity
  8
0
  6
SLD-Durchgehend
 62
     7
370
    15
100
AcDbCircle
 10
82.4264250325
 20
117.9616929487
 30
0.0
 40
0.1211598221575559
100
AcDbArc
 50
300.9367618605
 51
59.0632381395
  0
LINE
  5
366
330
1F
100
AcDbEntity
  8
0
  6
SLD-Durchgehend
 62
     7
370
    15
100
AcDbLine
 10
82.4887122907
 20
118.065615997
 30
0.0
 11
81.8519707717
 21
118.4466671886
 31
0.0
  0
ARC
  5
367
330
1F
100
AcDbEntity
  8
0
  6
SLD-Durchgehend
 62
     7
370
    15
100
AcDbCircle
 10
86.6274078325
 20
117.9616929487
 30
0.0
 40
4.800000000000178
100
AcDbArc
 50
170.8290675044
 51
174.2011518152
  0
LINE
  5
368
330
1F
100
AcDbEntity
  8
0
  6
SLD-Durchgehend
 62
     7
370
    15
100
AcDbLine
 10
88.9757537697
 20
113.446667184
 30
0.0
 11
88.2566843828
 21
113.446667184
 31
0.0
  0
LINE
  5
369
330
1F
100
AcDbEntity
  8
0
  6
SLD-Durchgehend
 62
     7
370
    15
100
AcDbLine
 10
84.9981312821
 20
113.446667184
 30
0.0
 11
84.2790618953
 21
113.446667184
 31
0.0
  0
LINE
  5
36A
330
1F
100
AcDbEntity
  8
0
  6
SLD-Durchgehend
 62
     7
370
    15
100
AcDbLine
 10
94.9086732179
 20
126.2267188624
 30
0.0
 11
94.6182374791
 21
126.2267188624
 31
0.0
  0
LINE
  5
36B
330
1F
100
AcDbEntity
  8
0
  6
SLD-Durchgehend
 62
     7
370
    15
100
AcDbLine
 10
89.9502866849
 20
126.2267188624
 30
0.0
 11
83.30452898
 21
126.2267188624
 31
0.0
  0
LINE
  5
36C
330
1F
100
AcDbEntity
  8
0
  6
SLD-Durchgehend
 62
     7
370
    15
100
AcDbLine
 10
78.6365781859
 20
126.2267188624
 30
0.0
 11
78.346142447
 21
126.2267188624
 31
0.0
  0
LINE
  5
36D
330
1F
100
AcDbEntity
  8
0
  6
SLD-Durchgehend
 62
     7
370
    15
100
AcDbLine
 10
78.6365781859
 20
109.696667035
 30
0.0
 11
78.346142447
 21
109.696667035
 31
0.0
  0
LINE
  5
36E
330
1F
100
AcDbEntity
  8
0
  6
SLD-Durchgehend
 62
     7
370
    15
100
AcDbLine
 10
89.9502866849
 20
109.696667035
 30
0.0
 11
83.30452898
 21
109.696667035
 31
0.0
  0
LINE
  5
36F
330
1F
100
AcDbEntity
  8
0
  6
SLD-Durchgehend
 62
     7
370
    15
100
AcDbLine
 10
94.9086732179
 20
109.696667035
 30
0.0
 11
94.6182374791
 21
109.696667035
 31
0.0
  0
LINE
  5
370
330
1F
100
AcDbEntity
  8
0
  6
SLD-Durchgehend
 62
     7
370
    15
100
AcDbLine
 10
97.9402297124
 20
120.9466672492
 30
0.0
 11
94.5450271428
 21
120.9466672492
 31
0.0
  0
LINE
  5
371
330
1F
100
AcDbEntity
  8
0
  6
SLD-Durchgehend
 62
     7
370
    15
100
AcDbLine
 10
78.7097885221
 20
120.9466672492
 30
0.0
 11
75.3145859525
 21
120.9466672492
 31
0.0
  0
LINE
  5
372
330
1F
100
AcDbEntity
  8
0
  6
SLD-Durchgehend
 62
     7
370
    15
100
AcDbLine
 10
97.9402297124
 20
114.9767186482
 30
0.0
 11
94.5450271428
 21
114.9767186482
 31
0.0
  0
LINE
  5
373
330
1F
100
AcDbEntity
  8
0
  6
SLD-Durchgehend
 62
     7
370
    15
100
AcDbLine
 10
78.7097885221
 20
114.9767186482
 30
0.0
 11
75.3145859525
 21
114.9767186482
 31
0.0
  0
LINE
  5
374
330
1F
100
AcDbEntity
  8
0
  6
SLD-Durchgehend
 62
     7
370
    15
100
AcDbLine
 10
96.962060681
 20
112.4767189369
 30
0.0
 11
95.7800391078
 21
112.4767189369
 31
0.0
  0
LINE
  5
375
330
1F
100
AcDbEntity
  8
0
  6
SLD-Durchgehend
 62
     7
370
    15
100
AcDbLine
 10
98.302369839
 20
117.1966671584
 30
0.0
 11
91.3660506666
 21
117.1966671584
 31
0.0
  0
LINE
  5
376
330
1F
100
AcDbEntity
  8
0
  6
SLD-Durchgehend
 62
     7
370
    15
100
AcDbLine
 10
98.3173520252
 20
117.4767187087
 30
0.0
 11
91.4028448932
 21
117.4767187087
 31
0.0
  0
LINE
  5
377
330
1F
100
AcDbEntity
  8
0
  6
SLD-Durchgehend
 62
     7
370
    15
100
AcDbLine
 10
97.8626030445
 20
121.2267187413
 30
0.0
 11
94.8394834012
 21
121.2267187413
 31
0.0
  0
LINE
  5
378
330
1F
100
AcDbEntity
  8
0
  6
SLD-Durchgehend
 62
     7
370
    15
100
AcDbLine
 10
98.19805426
 20
119.6966671607
 30
0.0
 11
91.1028812587
 21
119.6966671607
 31
0.0
  0
LINE
  5
379
330
1F
100
AcDbEntity
  8
0
  6
SLD-Durchgehend
 62
     7
370
    15
100
AcDbLine
 10
98.1525833667
 20
119.9767187693
 30
0.0
 11
90.9839741834
 21
119.9767187693
 31
0.0
  0
LINE
  5
37A
330
1F
100
AcDbEntity
  8
0
  6
SLD-Durchgehend
 62
     7
370
    15
100
AcDbLine
 10
98.302369839
 20
118.726718739
 30
0.0
 11
91.3660506666
 21
118.726718739
 31
0.0
  0
LINE
  5
37B
330
1F
100
AcDbEntity
  8
0
  6
SLD-Durchgehend
 62
     7
370
    15
100
AcDbLine
 10
98.19805426
 20
116.2267187367
 30
0.0
 11
91.1028812587
 21
116.2267187367
 31
0.0
  0
LINE
  5
37C
330
1F
100
AcDbEntity
  8
0
  6
SLD-Durchgehend
 62
     7
370
    15
100
AcDbLine
 10
98.3173520252
 20
118.4466671886
 30
0.0
 11
91.4028448932
 21
118.4466671886
 31
0.0
  0
LINE
  5
37D
330
1F
100
AcDbEntity
  8
0
  6
SLD-Durchgehend
 62
     7
370
    15
100
AcDbLine
 10
97.5340566546
 20
113.7267186761
 30
0.0
 11
95.4824265972
 21
113.7267186761
 31
0.0
  0
LINE
  5
37E
330
1F
100
AcDbEntity
  8
0
  6
SLD-Durchgehend
 62
     7
370
    15
100
AcDbLine
 10
98.1525833667
 20
115.9466671281
 30
0.0
 11
90.9839741834
 21
115.9466671281
 31
0.0
  0
LINE
  5
37F
330
1F
100
AcDbEntity
  8
0
  6
SLD-Durchgehend
 62
     7
370
    15
100
AcDbLine
 10
97.8626030445
 20
114.696667156
 30
0.0
 11
94.8394834012
 21
114.696667156
 31
0.0
  0
LINE
  5
380
330
1F
100
AcDbEntity
  8
0
  6
SLD-Durchgehend
 62
     7
370
    15
100
AcDbLine
 10
97.4211347237
 20
122.4767187134
 30
0.0
 11
95.5927706272
 21
122.4767187134
 31
0.0
  0
LINE
  5
381
330
1F
100
AcDbEntity
  8
0
  6
SLD-Durchgehend
 62
     7
370
    15
100
AcDbLine
 10
95.9911364079
 20
110.9466672398
 30
0.0
 11
95.5099974707
 21
110.9466672398
 31
0.0
  0
LINE
  5
382
330
1F
100
AcDbEntity
  8
0
  6
SLD-Durchgehend
 62
     7
370
    15
100
AcDbLine
 10
96.1945456401
 20
111.226718732
 30
0.0
 11
95.6140755624
 21
111.226718732
 31
0.0
  0
LINE
  5
383
330
1F
100
AcDbEntity
  8
0
  6
SLD-Durchgehend
 62
     7
370
    15
100
AcDbLine
 10
96.8084921077
 20
112.1966669791
 30
0.0
 11
95.7825900004
 21
112.1966669791
 31
0.0
  0
LINE
  5
384
330
1F
100
AcDbEntity
  8
0
  6
SLD-Durchgehend
 62
     7
370
    15
100
AcDbLine
 10
96.8084921077
 20
123.7267189183
 30
0.0
 11
95.7825900004
 21
123.7267189183
 31
0.0
  0
LINE
  5
385
330
1F
100
AcDbEntity
  8
0
  6
SLD-Durchgehend
 62
     7
370
    15
100
AcDbLine
 10
95.1790268481
 20
109.9767185271
 30
0.0
 11
94.8976612598
 21
109.9767185271
 31
0.0
  0
LINE
  5
386
330
1F
100
AcDbEntity
  8
0
  6
SLD-Durchgehend
 62
     7
370
    15
100
AcDbLine
 10
97.5340566546
 20
122.1966672212
 30
0.0
 11
95.4824265972
 21
122.1966672212
 31
0.0
  0
LINE
  5
387
330
1F
100
AcDbEntity
  8
0
  6
SLD-Durchgehend
 62
     7
370
    15
100
AcDbLine
 10
96.1945456401
 20
124.6966671653
 30
0.0
 11
95.6140755624
 21
124.6966671653
 31
0.0
  0
LINE
  5
388
330
1F
100
AcDbEntity
  8
0
  6
SLD-Durchgehend
 62
     7
370
    15
100
AcDbLine
 10
95.9911364079
 20
124.9767186575
 30
0.0
 11
95.5099974707
 21
124.9767186575
 31
0.0
  0
LINE
  5
389
330
1F
100
AcDbEntity
  8
0
  6
SLD-Durchgehend
 62
     7
370
    15
100
AcDbLine
 10
96.962060681
 20
123.4466669605
 30
0.0
 11
95.7800391078
 21
123.4466669605
 31
0.0
  0
LINE
  5
38A
330
1F
100
AcDbEntity
  8
0
  6
SLD-Durchgehend
 62
     7
370
    15
100
AcDbLine
 10
97.4211347237
 20
113.446667184
 30
0.0
 11
95.5927706272
 21
113.446667184
 31
0.0
  0
LINE
  5
38B
330
1F
100
AcDbEntity
  8
0
  6
SLD-Durchgehend
 62
     7
370
    15
100
AcDbLine
 10
93.811087212
 20
108.7267187879
 30
0.0
 11
79.4437284529
 21
108.7267187879
 31
0.0
  0
LINE
  5
38C
330
1F
100
AcDbEntity
  8
0
  6
SLD-Durchgehend
 62
     7
370
    15
100
AcDbLine
 10
93.4358061239
 20
108.4466672957
 30
0.0
 11
79.819009541
 21
108.4466672957
 31
0.0
  0
LINE
  5
38D
330
1F
100
AcDbEntity
  8
0
  6
SLD-Durchgehend
 62
     7
370
    15
100
AcDbLine
 10
95.1790268481
 20
125.9466673702
 30
0.0
 11
94.8976612598
 21
125.9466673702
 31
0.0
  0
LINE
  5
38E
330
1F
100
AcDbEntity
  8
0
  6
SLD-Durchgehend
 62
     7
370
    15
100
AcDbLine
 10
93.4358061239
 20
127.4767186016
 30
0.0
 11
79.819009541
 21
127.4767186016
 31
0.0
  0
LINE
  5
38F
330
1F
100
AcDbEntity
  8
0
  6
SLD-Durchgehend
 62
     7
370
    15
100
AcDbLine
 10
93.811087212
 20
127.1966671095
 30
0.0
 11
79.4437284529
 21
127.1966671095
 31
0.0
  0
LINE
  5
390
330
1F
100
AcDbEntity
  8
0
  6
SLD-Durchgehend
 62
     7
370
    15
100
AcDbLine
 10
91.8192587741
 20
107.4767190487
 30
0.0
 11
81.4355568908
 21
107.4767190487
 31
0.0
  0
LINE
  5
391
330
1F
100
AcDbEntity
  8
0
  6
SLD-Durchgehend
 62
     7
370
    15
100
AcDbLine
 10
91.2104438938
 20
128.7267183408
 30
0.0
 11
82.0443717711
 21
128.7267183408
 31
0.0
  0
LINE
  5
392
330
1F
100
AcDbEntity
  8
0
  6
SLD-Durchgehend
 62
     7
370
    15
100
AcDbLine
 10
91.2104438938
 20
107.1966675565
 30
0.0
 11
82.0443717711
 21
107.1966675565
 31
0.0
  0
LINE
  5
393
330
1F
100
AcDbEntity
  8
0
  6
SLD-Durchgehend
 62
     7
370
    15
100
AcDbLine
 10
91.8192587741
 20
128.4466668487
 30
0.0
 11
81.4355568908
 21
128.4466668487
 31
0.0
  0
LINE
  5
394
330
1F
100
AcDbEntity
  8
0
  6
SLD-Durchgehend
 62
     7
370
    15
100
AcDbLine
 10
89.086097334
 20
113.7267186761
 30
0.0
 11
88.8868310902
 21
113.7267186761
 31
0.0
  0
LINE
  5
395
330
1F
100
AcDbEntity
  8
0
  6
SLD-Durchgehend
 62
     7
370
    15
100
AcDbLine
 10
88.9544486016
 20
111.226718732
 30
0.0
 11
84.3003670633
 21
111.226718732
 31
0.0
  0
LINE
  5
396
330
1F
100
AcDbEntity
  8
0
  6
SLD-Durchgehend
 62
     7
370
    15
100
AcDbLine
 10
88.7884850562
 20
112.4767189369
 30
0.0
 11
84.4663306087
 21
112.4767189369
 31
0.0
  0
LINE
  5
397
330
1F
100
AcDbEntity
  8
0
  6
SLD-Durchgehend
 62
     7
370
    15
100
AcDbLine
 10
89.0585264605
 20
124.9767186575
 30
0.0
 11
84.1962892045
 21
124.9767186575
 31
0.0
  0
LINE
  5
398
330
1F
100
AcDbEntity
  8
0
  6
SLD-Durchgehend
 62
     7
370
    15
100
AcDbLine
 10
89.086097334
 20
122.1966672212
 30
0.0
 11
88.8868310902
 21
122.1966672212
 31
0.0
  0
LINE
  5
399
330
1F
100
AcDbEntity
  8
0
  6
SLD-Durchgehend
 62
     7
370
    15
100
AcDbLine
 10
88.9544486016
 20
124.6966671653
 30
0.0
 11
84.3003670633
 21
124.6966671653
 31
0.0
  0
LINE
  5
39A
330
1F
100
AcDbEntity
  8
0
  6
SLD-Durchgehend
 62
     7
370
    15
100
AcDbLine
 10
89.0585264605
 20
110.9466672398
 30
0.0
 11
84.1962892045
 21
110.9466672398
 31
0.0
  0
LINE
  5
39B
330
1F
100
AcDbEntity
  8
0
  6
SLD-Durchgehend
 62
     7
370
    15
100
AcDbLine
 10
89.6708624385
 20
125.9466673702
 30
0.0
 11
83.5839532264
 21
125.9466673702
 31
0.0
  0
LINE
  5
39C
330
1F
100
AcDbEntity
  8
0
  6
SLD-Durchgehend
 62
     7
370
    15
100
AcDbLine
 10
88.7859341636
 20
123.7267189183
 30
0.0
 11
84.4688815013
 21
123.7267189183
 31
0.0
  0
LINE
  5
39D
330
1F
100
AcDbEntity
  8
0
  6
SLD-Durchgehend
 62
     7
370
    15
100
AcDbLine
 10
89.6708624385
 20
109.9767185271
 30
0.0
 11
83.5839532264
 21
109.9767185271
 31
0.0
  0
LINE
  5
39E
330
1F
100
AcDbEntity
  8
0
  6
SLD-Durchgehend
 62
     7
370
    15
100
AcDbLine
 10
88.7884850562
 20
123.4466669605
 30
0.0
 11
84.4663306087
 21
123.4466669605
 31
0.0
  0
LINE
  5
39F
330
1F
100
AcDbEntity
  8
0
  6
SLD-Durchgehend
 62
     7
370
    15
100
AcDbLine
 10
88.7859341636
 20
112.1966669791
 30
0.0
 11
84.4688815013
 21
112.1966669791
 31
0.0
  0
LINE
  5
3A0
330
1F
100
AcDbEntity
  8
0
  6
SLD-Durchgehend
 62
     7
370
    15
100
AcDbLine
 10
84.3679845747
 20
113.7267186761
 30
0.0
 11
84.168718331
 21
113.7267186761
 31
0.0
  0
LINE
  5
3A1
330
1F
100
AcDbEntity
  8
0
  6
SLD-Durchgehend
 62
     7
370
    15
100
AcDbLine
 10
84.3679845747
 20
122.1966672212
 30
0.0
 11
84.168718331
 21
122.1966672212
 31
0.0
  0
LINE
  5
3A2
330
1F
100
AcDbEntity
  8
0
  6
SLD-Durchgehend
 62
     7
370
    15
100
AcDbLine
 10
81.8519707717
 20
117.4767187087
 30
0.0
 11
74.9374636397
 21
117.4767187087
 31
0.0
  0
LINE
  5
3A3
330
1F
100
AcDbEntity
  8
0
  6
SLD-Durchgehend
 62
     7
370
    15
100
AcDbLine
 10
81.8887649983
 20
117.1966671584
 30
0.0
 11
74.952445826
 21
117.1966671584
 31
0.0
  0
LINE
  5
3A4
330
1F
100
AcDbEntity
  8
0
  6
SLD-Durchgehend
 62
     7
370
    15
100
AcDbLine
 10
82.1519344062
 20
116.2267187367
 30
0.0
 11
75.0567614049
 21
116.2267187367
 31
0.0
  0
LINE
  5
3A5
330
1F
100
AcDbEntity
  8
0
  6
SLD-Durchgehend
 62
     7
370
    15
100
AcDbLine
 10
81.8519707717
 20
118.4466671886
 30
0.0
 11
74.9374636397
 21
118.4466671886
 31
0.0
  0
LINE
  5
3A6
330
1F
100
AcDbEntity
  8
0
  6
SLD-Durchgehend
 62
     7
370
    15
100
AcDbLine
 10
82.2708414816
 20
119.9767187693
 30
0.0
 11
75.1022322983
 21
119.9767187693
 31
0.0
  0
LINE
  5
3A7
330
1F
100
AcDbEntity
  8
0
  6
SLD-Durchgehend
 62
     7
370
    15
100
AcDbLine
 10
81.8887649983
 20
118.726718739
 30
0.0
 11
74.952445826
 21
118.726718739
 31
0.0
  0
LINE
  5
3A8
330
1F
100
AcDbEntity
  8
0
  6
SLD-Durchgehend
 62
     7
370
    15
100
AcDbLine
 10
82.1519344062
 20
119.6966671607
 30
0.0
 11
75.0567614049
 21
119.6966671607
 31
0.0
  0
LINE
  5
3A9
330
1F
100
AcDbEntity
  8
0
  6
SLD-Durchgehend
 62
     7
370
    15
100
AcDbLine
 10
82.2708414816
 20
115.9466671281
 30
0.0
 11
75.1022322983
 21
115.9466671281
 31
0.0
  0
LINE
  5
3AA
330
1F
100
AcDbEntity
  8
0
  6
SLD-Durchgehend
 62
     7
370
    15
100
AcDbLine
 10
78.3571544051
 20
125.9466673702
 30
0.0
 11
78.0757888168
 21
125.9466673702
 31
0.0
  0
LINE
  5
3AB
330
1F
100
AcDbEntity
  8
0
  6
SLD-Durchgehend
 62
     7
370
    15
100
AcDbLine
 10
77.7448181942
 20
124.9767186575
 30
0.0
 11
77.2636792571
 21
124.9767186575
 31
0.0
  0
LINE
  5
3AC
330
1F
100
AcDbEntity
  8
0
  6
SLD-Durchgehend
 62
     7
370
    15
100
AcDbLine
 10
78.4153322637
 20
114.696667156
 30
0.0
 11
75.3922126204
 21
114.696667156
 31
0.0
  0
LINE
  5
3AD
330
1F
100
AcDbEntity
  8
0
  6
SLD-Durchgehend
 62
     7
370
    15
100
AcDbLine
 10
78.4153322637
 20
121.2267187413
 30
0.0
 11
75.3922126204
 21
121.2267187413
 31
0.0
  0
LINE
  5
3AE
330
1F
100
AcDbEntity
  8
0
  6
SLD-Durchgehend
 62
     7
370
    15
100
AcDbLine
 10
78.3571544051
 20
109.9767185271
 30
0.0
 11
78.0757888168
 21
109.9767185271
 31
0.0
  0
LINE
  5
3AF
330
1F
100
AcDbEntity
  8
0
  6
SLD-Durchgehend
 62
     7
370
    15
100
AcDbLine
 10
77.7723890677
 20
113.7267186761
 30
0.0
 11
75.7207590103
 21
113.7267186761
 31
0.0
  0
LINE
  5
3B0
330
1F
100
AcDbEntity
  8
0
  6
SLD-Durchgehend
 62
     7
370
    15
100
AcDbLine
 10
77.4722256646
 20
123.7267189183
 30
0.0
 11
76.4463235572
 21
123.7267189183
 31
0.0
  0
LINE
  5
3B1
330
1F
100
AcDbEntity
  8
0
  6
SLD-Durchgehend
 62
     7
370
    15
100
AcDbLine
 10
77.6620450378
 20
122.4767187134
 30
0.0
 11
75.8336809412
 21
122.4767187134
 31
0.0
  0
LINE
  5
3B2
330
1F
100
AcDbEntity
  8
0
  6
SLD-Durchgehend
 62
     7
370
    15
100
AcDbLine
 10
77.6407401025
 20
111.226718732
 30
0.0
 11
77.0602700249
 21
111.226718732
 31
0.0
  0
LINE
  5
3B3
330
1F
100
AcDbEntity
  8
0
  6
SLD-Durchgehend
 62
     7
370
    15
100
AcDbLine
 10
77.7448181942
 20
110.9466672398
 30
0.0
 11
77.2636792571
 21
110.9466672398
 31
0.0
  0
LINE
  5
3B4
330
1F
100
AcDbEntity
  8
0
  6
SLD-Durchgehend
 62
     7
370
    15
100
AcDbLine
 10
77.6407401025
 20
124.6966671653
 30
0.0
 11
77.0602700249
 21
124.6966671653
 31
0.0
  0
LINE
  5
3B5
330
1F
100
AcDbEntity
  8
0
  6
SLD-Durchgehend
 62
     7
370
    15
100
AcDbLine
 10
77.4747765571
 20
112.4767189369
 30
0.0
 11
76.2927549839
 21
112.4767189369
 31
0.0
  0
LINE
  5
3B6
330
1F
100
AcDbEntity
  8
0
  6
SLD-Durchgehend
 62
     7
370
    15
100
AcDbLine
 10
77.4722256646
 20
112.1966669791
 30
0.0
 11
76.4463235572
 21
112.1966669791
 31
0.0
  0
LINE
  5
3B7
330
1F
100
AcDbEntity
  8
0
  6
SLD-Durchgehend
 62
     7
370
    15
100
AcDbLine
 10
77.6620450378
 20
113.446667184
 30
0.0
 11
75.8336809412
 21
113.446667184
 31
0.0
  0
LINE
  5
3B8
330
1F
100
AcDbEntity
  8
0
  6
SLD-Durchgehend
 62
     7
370
    15
100
AcDbLine
 10
77.4747765571
 20
123.4466669605
 30
0.0
 11
76.2927549839
 21
123.4466669605
 31
0.0
  0
LINE
  5
3B9
330
1F
100
AcDbEntity
  8
0
  6
SLD-Durchgehend
 62
     7
370
    15
100
AcDbLine
 10
77.7723890677
 20
122.1966672212
 30
0.0
 11
75.7207590103
 21
122.1966672212
 31
0.0
  0
CIRCLE
  5
3BA
330
1F
100
AcDbEntity
  8
0
  6
SLD-Durchgehend
 62
     7
370
    15
100
AcDbCircle
 10
86.6274078325
 20
117.9616929487
 30
0.0
 40
2.999999999999986
  0
CIRCLE
  5
3BB
330
1F
100
AcDbEntity
  8
0
  6
SLD-Durchgehend
 62
     7
370
    15
100
AcDbCircle
 10
86.6274078325
 20
117.9616929487
 30
0.0
 40
3.299999999999983
  0
CIRCLE
  5
3BC
330
1F
100
AcDbEntity
  8
0
  6
SLD-Durchgehend
 62
     7
370
    15
100
AcDbCircle
 10
86.6274078325
 20
117.9616929487
 30
0.0
 40
24.99999999999999
  0
CIRCLE
  5
3BD
330
1F
100
AcDbEntity
  8
0
  6
SLD-Durchgehend
 62
     7
370
    15
100
AcDbCircle
 10
80.970553583
 20
123.6185471982
 30
0.0
 40
3.500000000000006
  0
LINE
  5
3BE
330
1F
100
AcDbEntity
  8
0
  6
SLD-Durchgehend
 62
     7
370
    15
100
AcDbLine
 10
82.6254183375
 20
122.9820701748
 30
0.0
 11
82.3491913215
 21
124.7334637203
 31
0.0
  0
LINE
  5
3BF
330
1F
100
AcDbEntity
  8
0
  6
SLD-Durchgehend
 62
     7
370
    15
100
AcDbLine
 10
82.3491913215
 20
124.7334637203
 30
0.0
 11
80.6943261013
 21
125.3699407436
 31
0.0
  0
LINE
  5
3C0
330
1F
100
AcDbEntity
  8
0
  6
SLD-Durchgehend
 62
     7
370
    15
100
AcDbLine
 10
79.3156888284
 20
124.2550242216
 30
0.0
 11
80.6943261013
 21
125.3699407436
 31
0.0
  0
LINE
  5
3C1
330
1F
100
AcDbEntity
  8
0
  6
SLD-Durchgehend
 62
     7
370
    15
100
AcDbLine
 10
79.5919158444
 20
122.5036306762
 30
0.0
 11
79.3156888284
 21
124.2550242216
 31
0.0
  0
LINE
  5
3C2
330
1F
100
AcDbEntity
  8
0
  6
SLD-Durchgehend
 62
     7
370
    15
100
AcDbLine
 10
79.5919158444
 20
122.5036306762
 30
0.0
 11
81.2467810646
 21
121.8671538856
 31
0.0
  0
LINE
  5
3C3
330
1F
100
AcDbEntity
  8
0
  6
SLD-Durchgehend
 62
     7
370
    15
100
AcDbLine
 10
82.6254183375
 20
122.9820701748
 30
0.0
 11
81.2467810646
 21
121.8671538856
 31
0.0
  0
ARC
  5
3C4
330
1F
100
AcDbEntity
  8
0
  6
SLD-Durchgehend
 62
     7
370
    15
100
AcDbCircle
 10
80.970553583
 20
123.6185471982
 30
0.0
 40
1.5355
100
AcDbArc
 50
128.9627788002
 51
188.9627788002
  0
ARC
  5
3C5
330
1F
100
AcDbEntity
  8
0
  6
SLD-Durchgehend
 62
     7
370
    15
100
AcDbCircle
 10
80.970553583
 20
123.6185471982
 30
0.0
 40
1.5355
100
AcDbArc
 50
188.9627788002
 51
248.9627788002
  0
ARC
  5
3C6
330
1F
100
AcDbEntity
  8
0
  6
SLD-Durchgehend
 62
     7
370
    15
100
AcDbCircle
 10
80.970553583
 20
123.6185471982
 30
0.0
 40
1.535499999999995
100
AcDbArc
 50
248.9627788002
 51
308.9627788002
  0
ARC
  5
3C7
330
1F
100
AcDbEntity
  8
0
  6
SLD-Durchgehend
 62
     7
370
    15
100
AcDbCircle
 10
80.970553583
 20
123.6185471982
 30
0.0
 40
1.535500000000004
100
AcDbArc
 50
68.9627788002
 51
128.9627788002
  0
ARC
  5
3C8
330
1F
100
AcDbEntity
  8
0
  6
SLD-Durchgehend
 62
     7
370
    15
100
AcDbCircle
 10
80.970553583
 20
123.6185471982
 30
0.0
 40
1.535500000000004
100
AcDbArc
 50
8.9627788002
 51
68.9627788002
  0
ARC
  5
3C9
330
1F
100
AcDbEntity
  8
0
  6
SLD-Durchgehend
 62
     7
370
    15
100
AcDbCircle
 10
80.970553583
 20
123.6185471982
 30
0.0
 40
1.535499999999998
100
AcDbArc
 50
308.9627788002
 51
8.9627788002
  0
CIRCLE
  5
3CA
330
1F
100
AcDbEntity
  8
0
  6
SLD-Durchgehend
 62
     7
370
    15
100
AcDbCircle
 10
92.284262082
 20
123.6185471982
 30
0.0
 40
3.499999999999992
  0
LINE
  5
3CB
330
1F
100
AcDbEntity
  8
0
  6
SLD-Durchgehend
 62
     7
370
    15
100
AcDbLine
 10
92.3810674757
 20
125.3889453121
 30
0.0
 11
90.799454967
 21
124.5875822835
 31
0.0
  0
LINE
  5
3CC
330
1F
100
AcDbEntity
  8
0
  6
SLD-Durchgehend
 62
     7
370
    15
100
AcDbLine
 10
90.799454967
 20
124.5875822835
 30
0.0
 11
90.7026495733
 21
122.8171841696
 31
0.0
  0
LINE
  5
3CD
330
1F
100
AcDbEntity
  8
0
  6
SLD-Durchgehend
 62
     7
370
    15
100
AcDbLine
 10
92.1874566883
 20
121.8481493172
 30
0.0
 11
90.7026495733
 21
122.8171841696
 31
0.0
  0
LINE
  5
3CE
330
1F
100
AcDbEntity
  8
0
  6
SLD-Durchgehend
 62
     7
370
    15
100
AcDbLine
 10
93.769069197
 20
122.6495121129
 30
0.0
 11
92.1874566883
 21
121.8481493172
 31
0.0
  0
LINE
  5
3CF
330
1F
100
AcDbEntity
  8
0
  6
SLD-Durchgehend
 62
     7
370
    15
100
AcDbLine
 10
93.769069197
 20
122.6495121129
 30
0.0
 11
93.8658745907
 21
124.4199102268
 31
0.0
  0
LINE
  5
3D0
330
1F
100
AcDbEntity
  8
0
  6
SLD-Durchgehend
 62
     7
370
    15
100
AcDbLine
 10
92.3810674757
 20
125.3889453121
 30
0.0
 11
93.8658745907
 21
124.4199102268
 31
0.0
  0
ARC
  5
3D1
330
1F
100
AcDbEntity
  8
0
  6
SLD-Durchgehend
 62
     7
370
    15
100
AcDbCircle
 10
92.284262082
 20
123.6185471982
 30
0.0
 40
1.535500000000003
100
AcDbArc
 50
356.8701833941
 51
56.8701833941
  0
ARC
  5
3D2
330
1F
100
AcDbEntity
  8
0
  6
SLD-Durchgehend
 62
     7
370
    15
100
AcDbCircle
 10
92.284262082
 20
123.6185471982
 30
0.0
 40
1.535500000000003
100
AcDbArc
 50
236.8701833941
 51
296.8701833941
  0
ARC
  5
3D3
330
1F
100
AcDbEntity
  8
0
  6
SLD-Durchgehend
 62
     7
370
    15
100
AcDbCircle
 10
92.284262082
 20
123.6185471982
 30
0.0
 40
1.535499999999994
100
AcDbArc
 50
296.8701833941
 51
356.8701833941
  0
ARC
  5
3D4
330
1F
100
AcDbEntity
  8
0
  6
SLD-Durchgehend
 62
     7
370
    15
100
AcDbCircle
 10
92.284262082
 20
123.6185471982
 30
0.0
 40
1.535500000000003
100
AcDbArc
 50
56.8701833941
 51
116.8701833941
  0
ARC
  5
3D5
330
1F
100
AcDbEntity
  8
0
  6
SLD-Durchgehend
 62
     7
370
    15
100
AcDbCircle
 10
92.284262082
 20
123.6185471982
 30
0.0
 40
1.535500000000009
100
AcDbArc
 50
176.8701833941
 51
236.8701833941
  0
ARC
  5
3D6
330
1F
100
AcDbEntity
  8
0
  6
SLD-Durchgehend
 62
     7
370
    15
100
AcDbCircle
 10
92.284262082
 20
123.6185471982
 30
0.0
 40
1.535500000000009
100
AcDbArc
 50
116.8701833941
 51
176.8701833941
  0
LINE
  5
3D7
330
1F
100
AcDbEntity
  8
0
  6
SLD-Durchgehend
 62
     7
370
    15
100
AcDbLine
 10
93.2835404709
 20
110.8402147413
 30
0.0
 11
94.0523025528
 21
112.437927489
 31
0.0
  0
LINE
  5
3D8
330
1F
100
AcDbEntity
  8
0
  6
SLD-Durchgehend
 62
     7
370
    15
100
AcDbLine
 10
94.0523025528
 20
112.437927489
 30
0.0
 11
93.0530241639
 21
113.9025509812
 31
0.0
  0
LINE
  5
3D9
330
1F
100
AcDbEntity
  8
0
  6
SLD-Durchgehend
 62
     7
370
    15
100
AcDbLine
 10
91.2849836931
 20
113.769462657
 30
0.0
 11
93.0530241639
 21
113.9025509812
 31
0.0
  0
LINE
  5
3DA
330
1F
100
AcDbEntity
  8
0
  6
SLD-Durchgehend
 62
     7
370
    15
100
AcDbLine
 10
90.5162213784
 20
112.1717499093
 30
0.0
 11
91.2849836931
 21
113.769462657
 31
0.0
  0
LINE
  5
3DB
330
1F
100
AcDbEntity
  8
0
  6
SLD-Durchgehend
 62
     7
370
    15
100
AcDbLine
 10
90.5162213784
 20
112.1717499093
 30
0.0
 11
91.5155000001
 21
110.707126417
 31
0.0
  0
LINE
  5
3DC
330
1F
100
AcDbEntity
  8
0
  6
SLD-Durchgehend
 62
     7
370
    15
100
AcDbLine
 10
93.2835404709
 20
110.8402147413
 30
0.0
 11
91.5155000001
 21
110.707126417
 31
0.0
  0
CIRCLE
  5
3DD
330
1F
100
AcDbEntity
  8
0
  6
SLD-Durchgehend
 62
     7
370
    15
100
AcDbCircle
 10
92.284262082
 20
112.3048386992
 30
0.0
 40
3.500000000000012
  0
ARC
  5
3DE
330
1F
100
AcDbEntity
  8
0
  6
SLD-Durchgehend
 62
     7
370
    15
100
AcDbCircle
 10
92.284262082
 20
112.3048386992
 30
0.0
 40
1.535500000000007
100
AcDbArc
 50
154.3048024535
 51
214.3048024535
  0
ARC
  5
3DF
330
1F
100
AcDbEntity
  8
0
  6
SLD-Durchgehend
 62
     7
370
    15
100
AcDbCircle
 10
92.284262082
 20
112.3048386992
 30
0.0
 40
1.535500000000003
100
AcDbArc
 50
94.3048024535
 51
154.3048024535
  0
ARC
  5
3E0
330
1F
100
AcDbEntity
  8
0
  6
SLD-Durchgehend
 62
     7
370
    15
100
AcDbCircle
 10
92.284262082
 20
112.3048386992
 30
0.0
 40
1.535500000000002
100
AcDbArc
 50
34.3048024535
 51
94.3048024535
  0
ARC
  5
3E1
330
1F
100
AcDbEntity
  8
0
  6
SLD-Durchgehend
 62
     7
370
    15
100
AcDbCircle
 10
92.284262082
 20
112.3048386992
 30
0.0
 40
1.535499999999996
100
AcDbArc
 50
334.3048024535
 51
34.3048024535
  0
ARC
  5
3E2
330
1F
100
AcDbEntity
  8
0
  6
SLD-Durchgehend
 62
     7
370
    15
100
AcDbCircle
 10
92.284262082
 20
112.3048386992
 30
0.0
 40
1.535500000000001
100
AcDbArc
 50
274.3048024535
 51
334.3048024535
  0
ARC
  5
3E3
330
1F
100
AcDbEntity
  8
0
  6
SLD-Durchgehend
 62
     7
370
    15
100
AcDbCircle
 10
92.284262082
 20
112.3048386992
 30
0.0
 40
1.535500000000007
100
AcDbArc
 50
214.3048024535
 51
274.3048024535
  0
CIRCLE
  5
3E4
330
1F
100
AcDbEntity
  8
0
  6
SLD-Durchgehend
 62
     7
370
    15
100
AcDbCircle
 10
80.970553583
 20
112.3048386992
 30
0.0
 40
3.499999999999995
  0
LINE
  5
3E5
330
1F
100
AcDbEntity
  8
0
  6
SLD-Durchgehend
 62
     7
370
    15
100
AcDbLine
 10
80.5654892646
 20
114.0309915401
 30
0.0
 11
79.2731292494
 21
112.8171192006
 31
0.0
  0
LINE
  5
3E6
330
1F
100
AcDbEntity
  8
0
  6
SLD-Durchgehend
 62
     7
370
    15
100
AcDbLine
 10
79.2731292494
 20
112.8171192006
 30
0.0
 11
79.6781935677
 21
111.0909663596
 31
0.0
  0
LINE
  5
3E7
330
1F
100
AcDbEntity
  8
0
  6
SLD-Durchgehend
 62
     7
370
    15
100
AcDbLine
 10
81.3756179013
 20
110.5786858581
 30
0.0
 11
79.6781935677
 21
111.0909663596
 31
0.0
  0
LINE
  5
3E8
330
1F
100
AcDbEntity
  8
0
  6
SLD-Durchgehend
 62
     7
370
    15
100
AcDbLine
 10
82.6679779165
 20
111.7925581977
 30
0.0
 11
81.3756179013
 21
110.5786858581
 31
0.0
  0
LINE
  5
3E9
330
1F
100
AcDbEntity
  8
0
  6
SLD-Durchgehend
 62
     7
370
    15
100
AcDbLine
 10
82.6679779165
 20
111.7925581977
 30
0.0
 11
82.2629135981
 21
113.5187110387
 31
0.0
  0
LINE
  5
3EA
330
1F
100
AcDbEntity
  8
0
  6
SLD-Durchgehend
 62
     7
370
    15
100
AcDbLine
 10
80.5654892646
 20
114.0309915401
 30
0.0
 11
82.2629135981
 21
113.5187110387
 31
0.0
  0
ARC
  5
3EB
330
1F
100
AcDbEntity
  8
0
  6
SLD-Durchgehend
 62
     7
370
    15
100
AcDbCircle
 10
80.970553583
 20
112.3048386992
 30
0.0
 40
1.535499999999999
100
AcDbArc
 50
313.2062589409
 51
13.2062589409
  0
ARC
  5
3EC
330
1F
100
AcDbEntity
  8
0
  6
SLD-Durchgehend
 62
     7
370
    15
100
AcDbCircle
 10
80.970553583
 20
112.3048386992
 30
0.0
 40
1.535500000000007
100
AcDbArc
 50
253.2062589409
 51
313.2062589409
  0
ARC
  5
3ED
330
1F
100
AcDbEntity
  8
0
  6
SLD-Durchgehend
 62
     7
370
    15
100
AcDbCircle
 10
80.970553583
 20
112.3048386992
 30
0.0
 40
1.53550000000002
100
AcDbArc
 50
193.2062589409
 51
253.2062589409
  0
ARC
  5
3EE
330
1F
100
AcDbEntity
  8
0
  6
SLD-Durchgehend
 62
     7
370
    15
100
AcDbCircle
 10
80.970553583
 20
112.3048386992
 30
0.0
 40
1.53550000000002
100
AcDbArc
 50
133.2062589409
 51
193.2062589409
  0
ARC
  5
3EF
330
1F
100
AcDbEntity
  8
0
  6
SLD-Durchgehend
 62
     7
370
    15
100
AcDbCircle
 10
80.970553583
 20
112.3048386992
 30
0.0
 40
1.535499999999998
100
AcDbArc
 50
73.2062589409
 51
133.2062589409
  0
ARC
  5
3F0
330
1F
100
AcDbEntity
  8
0
  6
SLD-Durchgehend
 62
     7
370
    15
100
AcDbCircle
 10
80.970553583
 20
112.3048386992
 30
0.0
 40
1.53549999999999
100
AcDbArc
 50
13.2062589409
 51
73.2062589409
  0
INSERT
  5
3FC
330
1F
100
AcDbEntity
  8
VERMASSUNG
100
AcDbBlockReference
  2
SW_CENTERMARKSYMBOL_0
 10
86.6274078325
 20
117.9616929487
 30
0.0
  0
OLE2FRAME
  5
3FD
330
1F
100
AcDbEntity
  8
0
100
AcDbOle2Frame
 70
     2
  3
Paintbrush-Bild
 10
13.8511154363
 20
38.264191557
 30
0.0
 11
51.6290888628
 21
31.9806341108
 31
0.0
 71
     2
 72
     0
 73
     1
 90
    12928
310
80552BED0767C5B32B40DDAF6807D121434000000000000000006FFBDDFB85D0
310
4940DDAF6807D121434000000000000000006FFBDDFB85D04940416F4BD60AFB
310
3F4000000000000000002BED0767C5B32B40416F4BD60AFB3F40000000000000
310
0000000000000100000000010000010000000100000000000100000000320000
310
D0CF11E0A1B11AE1000000000000000000000000000000003E000300FEFF0900
310
0600000000000000000000000100000001000000000000000010000002000000
310
01000000FEFFFFFF0000000000000000FFFFFFFFFFFFFFFFFFFFFFFFFFFFFFFF
310
FFFFFFFFFFFFFFFFFFFFFFFFFFFFFFFFFFFFFFFFFFFFFFFFFFFFFFFFFFFFFFFF
310
FFFFFFFFFFFFFFFFFFFFFFFFFFFFFFFFFFFFFFFFFFFFFFFFFFFFFFFFFFFFFFFF
310
FFFFFFFFFFFFFFFFFFFFFFFFFFFFFFFFFFFFFFFFFFFFFFFFFFFFFFFFFFFFFFFF
310
FFFFFFFFFFFFFFFFFFFFFFFFFFFFFFFFFFFFFFFFFFFFFFFFFFFFFFFFFFFFFFFF
310
FFFFFFFFFFFFFFFFFFFFFFFFFFFFFFFFFFFFFFFFFFFFFFFFFFFFFFFFFFFFFFFF
310
FFFFFFFFFFFFFFFFFFFFFFFFFFFFFFFFFFFFFFFFFFFFFFFFFFFFFFFFFFFFFFFF
310
FFFFFFFFFFFFFFFFFFFFFFFFFFFFFFFFFFFFFFFFFFFFFFFFFFFFFFFFFFFFFFFF
310
FFFFFFFFFFFFFFFFFFFFFFFFFFFFFFFFFFFFFFFFFFFFFFFFFFFFFFFFFFFFFFFF
310
FFFFFFFFFFFFFFFFFFFFFFFFFFFFFFFFFFFFFFFFFFFFFFFFFFFFFFFFFFFFFFFF
310
FFFFFFFFFFFFFFFFFFFFFFFFFFFFFFFFFFFFFFFFFFFFFFFFFFFFFFFFFFFFFFFF
310
FFFFFFFFFFFFFFFFFFFFFFFFFFFFFFFFFFFFFFFFFFFFFFFFFFFFFFFFFFFFFFFF
310
FFFFFFFFFFFFFFFFFFFFFFFFFFFFFFFFFFFFFFFFFFFFFFFFFFFFFFFFFFFFFFFF
310
FFFFFFFFFFFFFFFFFFFFFFFFFFFFFFFFFFFFFFFFFFFFFFFFFFFFFFFFFFFFFFFF
310
FDFFFFFFFEFFFFFFFEFFFFFFFEFFFFFF05000000060000000700000008000000
310
090000000A0000000B0000000C0000000D0000000E0000000F00000010000000
310
11000000120000001300000014000000150000001600000017000000FEFFFFFF
310
FFFFFFFFFFFFFFFFFFFFFFFFFFFFFFFFFFFFFFFFFFFFFFFFFFFFFFFFFFFFFFFF
310
FFFFFFFFFFFFFFFFFFFFFFFFFFFFFFFFFFFFFFFFFFFFFFFFFFFFFFFFFFFFFFFF
310
FFFFFFFFFFFFFFFFFFFFFFFFFFFFFFFFFFFFFFFFFFFFFFFFFFFFFFFFFFFFFFFF
310
FFFFFFFFFFFFFFFFFFFFFFFFFFFFFFFFFFFFFFFFFFFFFFFFFFFFFFFFFFFFFFFF
310
FFFFFFFFFFFFFFFFFFFFFFFFFFFFFFFFFFFFFFFFFFFFFFFFFFFFFFFFFFFFFFFF
310
FFFFFFFFFFFFFFFFFFFFFFFFFFFFFFFFFFFFFFFFFFFFFFFFFFFFFFFFFFFFFFFF
310
FFFFFFFFFFFFFFFFFFFFFFFFFFFFFFFFFFFFFFFFFFFFFFFFFFFFFFFFFFFFFFFF
310
FFFFFFFFFFFFFFFFFFFFFFFFFFFFFFFFFFFFFFFFFFFFFFFFFFFFFFFFFFFFFFFF
310
FFFFFFFFFFFFFFFFFFFFFFFFFFFFFFFFFFFFFFFFFFFFFFFFFFFFFFFFFFFFFFFF
310
FFFFFFFFFFFFFFFFFFFFFFFFFFFFFFFFFFFFFFFFFFFFFFFFFFFFFFFFFFFFFFFF
310
FFFFFFFFFFFFFFFFFFFFFFFFFFFFFFFFFFFFFFFFFFFFFFFFFFFFFFFFFFFFFFFF
310
FFFFFFFFFFFFFFFFFFFFFFFFFFFFFFFFFFFFFFFFFFFFFFFFFFFFFFFFFFFFFFFF
310
FFFFFFFFFFFFFFFFFFFFFFFFFFFFFFFFFFFFFFFFFFFFFFFFFFFFFFFFFFFFFFFF
310
52006F006F007400200045006E00740072007900000000000000000000000000
310
0000000000000000000000000000000000000000000000000000000000000000
310
16000500FFFFFFFFFFFFFFFF020000000A00030000000000C000000000000046
310
00000000000000000000000020082426CF87D00103000000C000000000000000
310
01004F006C006500000000000000000000000000000000000000000000000000
310
0000000000000000000000000000000000000000000000000000000000000000
310
0A000200FFFFFFFFFFFFFFFFFFFFFFFF00000000000000000000000000000000
310
0000000000000000000000000000000000000000000000001400000000000000
310
010043006F006D0070004F0062006A0000000000000000000000000000000000
310
0000000000000000000000000000000000000000000000000000000000000000
310
120002010100000003000000FFFFFFFF00000000000000000000000000000000
310
0000000000000000000000000000000000000000010000004D00000000000000
310
01004F006C006500310030004E00610074006900760065000000000000000000
310
0000000000000000000000000000000000000000000000000000000000000000
310
1A000200FFFFFFFFFFFFFFFFFFFFFFFF00000000000000000000000000000000
310
0000000000000000000000000000000000000000040000002426000000000000
310
FEFFFFFF02000000FEFFFFFFFFFFFFFFFFFFFFFFFFFFFFFFFFFFFFFFFFFFFFFF
310
FFFFFFFFFFFFFFFFFFFFFFFFFFFFFFFFFFFFFFFFFFFFFFFFFFFFFFFFFFFFFFFF
310
FFFFFFFFFFFFFFFFFFFFFFFFFFFFFFFFFFFFFFFFFFFFFFFFFFFFFFFFFFFFFFFF
310
FFFFFFFFFFFFFFFFFFFFFFFFFFFFFFFFFFFFFFFFFFFFFFFFFFFFFFFFFFFFFFFF
310
FFFFFFFFFFFFFFFFFFFFFFFFFFFFFFFFFFFFFFFFFFFFFFFFFFFFFFFFFFFFFFFF
310
FFFFFFFFFFFFFFFFFFFFFFFFFFFFFFFFFFFFFFFFFFFFFFFFFFFFFFFFFFFFFFFF
310
FFFFFFFFFFFFFFFFFFFFFFFFFFFFFFFFFFFFFFFFFFFFFFFFFFFFFFFFFFFFFFFF
310
FFFFFFFFFFFFFFFFFFFFFFFFFFFFFFFFFFFFFFFFFFFFFFFFFFFFFFFFFFFFFFFF
310
FFFFFFFFFFFFFFFFFFFFFFFFFFFFFFFFFFFFFFFFFFFFFFFFFFFFFFFFFFFFFFFF
310
FFFFFFFFFFFFFFFFFFFFFFFFFFFFFFFFFFFFFFFFFFFFFFFFFFFFFFFFFFFFFFFF
310
FFFFFFFFFFFFFFFFFFFFFFFFFFFFFFFFFFFFFFFFFFFFFFFFFFFFFFFFFFFFFFFF
310
FFFFFFFFFFFFFFFFFFFFFFFFFFFFFFFFFFFFFFFFFFFFFFFFFFFFFFFFFFFFFFFF
310
FFFFFFFFFFFFFFFFFFFFFFFFFFFFFFFFFFFFFFFFFFFFFFFFFFFFFFFFFFFFFFFF
310
FFFFFFFFFFFFFFFFFFFFFFFFFFFFFFFFFFFFFFFFFFFFFFFFFFFFFFFFFFFFFFFF
310
FFFFFFFFFFFFFFFFFFFFFFFFFFFFFFFFFFFFFFFFFFFFFFFFFFFFFFFFFFFFFFFF
310
FFFFFFFFFFFFFFFFFFFFFFFFFFFFFFFFFFFFFFFFFFFFFFFFFFFFFFFFFFFFFFFF
310
0100000200000000000000000000000000000000000000000000000000000000
310
0000000000000000000000000000000000000000000000000000000000000000
310
0100FEFF030A0000FFFFFFFF0A00030000000000C00000000000004607000000
310
5042727573680007000000504272757368000700000050427275736800F439B2
310
7100000000000000000000000000000000000000000000000000000000000000
310
0000000000000000000000000000000000000000000000000000000000000000
310
0000000000000000000000000000000000000000000000000000000000000000
310
0000000000000000000000000000000000000000000000000000000000000000
310
0000000000000000000000000000000000000000000000000000000000000000
310
0000000000000000000000000000000000000000000000000000000000000000
310
0000000000000000000000000000000000000000000000000000000000000000
310
0000000000000000000000000000000000000000000000000000000000000000
310
0000000000000000000000000000000000000000000000000000000000000000
310
0000000000000000000000000000000000000000000000000000000000000000
310
0000000000000000000000000000000000000000000000000000000000000000
310
0000000000000000000000000000000000000000000000000000000000000000
310
20260000424D0E260000000000003E00000028000000B40200006E0000000100
310
01000000000000000000130B0000130B00000200000002000000000000FFFFFF
310
FFFFFFFFFFFFFFFFFFFFFFFFFFFFFFFFFFFFFFFFFFFFFFFFFFFFFFFFFFFFFFFF
310
FFFFFFFFFFFFFFFFFFFFFFFFFFFFFFFFFFFFFFFFFFFFFFFFFFFFFFFFFFFFFFFF
310
FFFFFFFFFFFFFFFFFFFFFFFFFFFFFFFFFFFFFFFFFFFFFFFFF000FFFFFFFFFFFF
310
FFFFFFFFFFFFFFFFFFFFFFFFFFFFFFFFFFFFFFFFFFFFFFFFFFFFFFFFFFFFFFFF
310
FFFFFFFFFFFFFFFFFFFFFFFFFFFFFFFFFFFFFFFFFFFFFFFFFFFFFFFFFFFFFFFF
310
FFFFFFFFFFFFFFFFFFFFFFFFFFFFFFFFF000FFFFFFFFFFFFFFFFFFFFFFFFFFFF
310
FFFFFFFFFFFFFFFFFFFFFFFFFFFFFFFFFFFFFFFFFFFFFFFFFFFFFFFFFFFFFFFF
310
FFFFFFFFFFFFFFFFFFFFFFFFFFFFFFFFFFFFFFFFFFFFFFFFFFFFFFFFFFFFFFFF
310
FFFFFFFFFFFFFFFFF000FFFFFFFFFFFFFFFFFFFFFFFFFFFFFFFFFFFFFFFFFFFF
310
FFFFFFFFFFFFFFFFFFFFFFFFFFFFFFFFFFFFFFFFFFFFFFFFFFFFFFFFFFFFFFFF
310
FFFFFFFFFFFFFFFFFFFFFFFFFFFFFFFFFFFFFFFFFFFFFFFFFFFFFFFFFFFFFFFF
310
F000FFFFFFFFFFFFFFFFFFFFFFFFFFFFFFFFFFFFFFFFFFFFFFFFFFFFFFFFFFFF
310
FFFFFFFFFFFFFFFFFFFFFFFFFFFFFFFFFFFFFFFFFFFFFFFFFFFFFFFFFFFFFFFF
310
FFFFFFFFFFFFFFFFFFFFFFFFFFFFFFFFFFFFFFFFFFFFFFFFF000FFFFFFFFFFFF
310
FFFFFFFFFFFFFFFFFFFFFFFFFFFFFFFFFFFFFFFFFFFFFFFFFFFFFFFFFFFFFFFF
310
FFFFFFFFFFFFFFFFFFFFFFFFFFFFFFFFFFFFFFFFFFFFFFFFFFFFFFFFFFFFFFFF
310
FFFFFFFFFFFFFFFFFFFFFFFFFFFFFFFFF000FFFFFFFFFFFFFFFFFFFFFFFFFFFF
310
FFFFFFFFFFFFFFFFFFFFFFFFFFFFFFFFFFFFFFFFFFFFFFFFFFFFFFFFFFFFFFFF
310
FFFFFFFFFFFFFFFFFFFFFFFFFFFFFFFFFFFFFFFFFFFFFFFFFFFFFFFFFFFFFFFF
310
FFFFFFFFFFFFFFFFF000FFFFFFFFFFFFFFFFFFFFFFFFFFFFFFFFFFFFFFFFFFFF
310
FFFFFFFFFFFFFFFFFFFFFFFFFFFFFFFFFFFFFFFFFFFFFFFFFFFFFFFFFFFFFFFF
310
FFFFFFFFFFFFFFFFFFFFFFFFFFFFFFFFFFFFFFFFFFFFFFFFFFFFFFFFFFFFFFFF
310
F000FFFFFFFFFFFFFFFFFFFFFFFFFFFFFFFFFFFFFFFFFFFFFFFFFFFFFFFFFFFF
310
FFFFFFFFFFFFFFFFFFFFFFFFFFFFFFFFFFFFFFFFFFFFFFFFFFFFFFFFFFFFFFFF
310
FFFFFFFFFFFFFFFFFFFFFFFFFFFFFFFFFFFFFFFFFFFFFFFFF000FFFFFFFFFFFF
310
FFFFFFFFFFFFFFFFFFFFFFFFFFFFFFFFFFFFFFFFFFFFFFFFFFFFFFFFFFFFFFFF
310
FFFFFFFFFFFFFFFFFFFFFFFFFFFFFFFFFFFFFFFFFFFFFFFFFFFFFFFFFFFFFFFF
310
FFFFFFFFFFFFFFFFFFFFFFFFFFFFFFFFF000FFFFFFFFFFFFFFFFFFFFFFFFFFFF
310
FFFFFFFFFFFFFFFFFFFFFFFFFFFFFFFFFFFFFFFFFFFFFFFFFFFFFFFFFFFFFFFF
310
FFFFFFFFFFFFFFFFFFFFFFFFFFFFFFFFFFFFFFFFFFFFFFFFFFFFFFFFFFFFFFFF
310
FFFFFFFFFFFFFFFFF000FFFFFFFFFFFFFFFFFFFFFFFFFFFFFFFFFFFFFFFFFFFF
310
FFFFFFFFFFFFFFFFFFFFFFFFFFFFFFFFFFFFFFFFFFFFFFFFFFFFFFFFFFFFFFFF
310
FFFFFFFFFFFFFFFFFFFFFFFFFFFFFFFFFFFFFFFFFFFFFFFFFFFFFFFFFFFFFFFF
310
F000FFFFFFFFFFFFFFFFFFFFFFFFFFFFFFFFFFFFFFFFFFFFFFFFFFFFFFFFFFFF
310
FFFFFFFFFFFFFFFFFFFFFFFFFFFFFFFFFFFFFFFFFFFFFFFFFFFFFFFFFFFFFFFF
310
FFFFFFFFFFFFFFFFFFFFFFFFFFFFFFFFFFFFFFFFFFFFFFFFF000FFFFFFFFFFFF
310
FFFFFFFFFFFFFFFFFFFFFFFFFFFFFFFFFFFFFFFFFFFFFFFFFFFFFFFFFFFFFFFF
310
FFFFFFFFFFFFFFFFFFFFFFFFFFFFFFFFFFFFFFFFFFFFFFFFFFFFFFFFFFFFFFFF
310
FFFFFFFFFFFFFFFFFFFFFFFFFFFFFFFFF000FFFFFFFFFFFFFFFFFFFFFFFFFFFF
310
FFFFFFFFFFFFFFFFFFFFFFFFFFFFFFFFFFFFFFFFFFFFFFFFFFFFFFFFFFFFFFFF
310
FFFFFFFFFFFFFFFFFFFFFFFFFFFFFFFFFFFFFFFFFFFFFFFFFFFFFFFFFFFFFFFF
310
FFFFFFFFFFFFFFFFF000FFFFFFFFFFFFFFFFFFFFFFFFFFFFFFFFFFFFFFFFFFFF
310
FFFFFFFFFFFFFFFFFFFFFFFFFFFFFFFFFFFFFFFFFFFFFFFFFFFFFFFFFFFFFFFF
310
FFFFFFFFFFFFFFFFFFFFFFFFFFFFFFFFFFFFFFFFFFFFFFFFFFFFFFFFFFFFFFFF
310
F000FFFFFFFFFFFFFFFFFFFFFFFFFFFFFFFFFFFFFFFFFFFFFFFFFFFFFFFFFFFF
310
FFFFFFFFFFFFFFFFFFFFFFFFFFFFFFFFFFFFFFFFFFFFFFFFFFFFFFFFFFFFFFFF
310
FFFFFFFFFFFFFFFFFFFFFFFFFFFFFFFFFFFFFFFFFFFFFFFFF000FFFFFFFFFFFF
310
FFFFFFFFFFFFFFFFFFFFFFFFFFFFFFFFFFFFFFFFFFFFFFFFFFFFFFFFFFFFFFFF
310
FFFFFFFFFFFFFFFFFFFFFFFFFFFFFFFFFFFFFFFFFFFFFFFFFFFFFFFFFFFFFFFF
310
FFFFFFFFFFFFFFFFFFFFFFFFFFFFFFFFF000FFFFFFFFFFFFFFFFFFFFFFFFFFFF
310
FFFFFFFFFFFFFFFFFFFFFFFFFFFFFFFFFFFFFFFFFFFFFFFFFFFFFFFFFFFFFFFF
310
FFFFFFFFFFFFFFFFFFFFFFFFFFFFFFFFFFFFFFFFFFFFFFFFFFFFFFFFFFFFFFFF
310
FFFFFFFFFFFFFFFFF000FFFFF80003FFFFFFFFFFFFFFFFFFFFFFFFFFFFFFFFFF
310
FFFFF00007FFFFFFFFFF00007FFFFFF800000000000000007FFFFFFFFFFFFFFF
310
FFFFFFFC001FFFFFFFFFFFFFFC001FFFFFFFFFFFFFFFFFFFFFFFFFFE0007FFFF
310
F000FFFF8000007FFFFFFFF8000FFFFFC0007FFFFF80007FFFFF0000007FFFFF
310
FFF8000007FFFFF800000000000000007FFFFFF0001FFFFFFFFFFFC00001FFFF
310
FFFFFFFFC00001FFFFFFFF000000000003FFFFE000007FFFF000FFFE0000000F
310
FFFFFFF0000FFFFF80007FFFFF80007FFFFC0000001FFFFFFFC0000001FFFFF8
310
00000000000000007FFFFFF0001FFFFFFFFFFE0000003FFFFFFFFFFE0000003F
310
FFFFFF000000000003FFFF0000000FFFF000FFF800000003FFFFFFF00007FFFF
310
80007FFFFF80007FFFF000000007FFFFFF000000003FFFF80000000000000000
310
7FFFFFF0001FFFFFFFFFF80000000FFFFFFFFFF80000000FFFFFFF0000000000
310
03FFFC00000003FFF000FFE000000000FFFFFFF00007FFFF80003FFFFF80007F
310
FFC000000001FFFFFC000000001FFFF800000000000000007FFFFFF0001FFFFF
310
FFFFE000000003FFFFFFFFE000000003FFFFFF000000000003FFF000000000FF
310
F000FF80000000007FFFFFF00007FFFF80003FFFFF80007FFF8000000000FFFF
310
F80000000007FFF800000000000000007FFFFFF0001FFFFFFFFFC000000001FF
310
FFFFFFC000000001FFFFFF000000000003FFC0000000007FF000FF0000000000
310
3FFFFFE00007FFFF00003FFFFF80007FFE00000000003FFFF00000000003FFF8
310
00000000000000007FFFFFF0001FFFFFFFFF8000000000FFFFFFFF8000000000
310
FFFFFF000000000003FF80000000003FF000FE00000000001FFFFFE00003FFFF
310
00003FFFFF80007FFC00000000001FFFE00000000001FFF8000001FFFE000000
310
7FFFFFF0001FFFFFFFFE00000000003FFFFFFE00000000003FFFFF0000000000
310
03FF00000000001FF000FC00000000000FFFFFE00003FFFF00001FFFFF80007F
310
F800000000001FFFC00000000000FFF8000001FFFE0000007FFFFFF0001FFFFF
310
FFFC00000000001FFFFFFC00000000001FFFFF000000000003FE00000000000F
310
F000F8000000000007FFFFE00003FFFF00001FFFFF80007FF800000000000FFF
310
800000000000FFF8000001FFFE0000007FFFFFF0001FFFFFFFF800000000000F
310
FFFFF800000000000FFFFF000000000003FC000000000007F000F80000000000
310
03FFFFC00003FFFE00001FFFFF80007FF0000000000007FF0000000000007FF8
310
000001FFFE0000007FFFFFF0001FFFFFFFF0000000000007FFFFF00000000000
310
07FFFF000000000003F8000000000003F000F0000000000003FFFFC00001FFFE
310
00001FFFFF80007FE0000000000007FE0000000000003FF8000001FFFE000000
310
7FFFFFF0001FFFFFFFF0000000000007FFFFF0000000000007FFFF0000000000
310
03F800001F800003F000E00001FFF00001FFFFC00001FFFE00000FFFFF80007F
310
E00001FFE00003FE00001FFF00003FF8000001FFFE0000007FFFFFF0001FFFFF
310
FFE000003E000003FFFFE000003E000003FFFF000000000003F00001FFF80001
310
F000E00007FFFC0001FFFFC00001FFFE00000FFFFF80007FC0000FFFFC0003FC
310
0000FFFFC0001FF8000001FFFE0000007FFFFFF0001FFFFFFFC00003FFE00001
310
FFFFC00003FFE00001FFFF0001FFFFFFFFF00007FFFE0001F000E0000FFFFF00
310
00FFFF800001FFFC00000FFFFF80007FC0001FFFFE0001FC0001FFFFE0001FF8
310
000001FFFE0000007FFFFFF0001FFFFFFF80000FFFF80000FFFF80000FFFF800
310
00FFFF0003FFFFFFFFE0000FFFFF8000F000C0003FFFFF8000FFFF800000FFFC
310
000007FFFF80007F80003FFFFF0001FC0003FFFFF0001FF8000001FFFE000000
310
7FFFFFF0001FFFFFFF80003FFFFE0000FFFF80003FFFFE0000FFFF0003FFFFFF
310
FFE0003FFFFF8000F000C0003FFFFF8000FFFF800000FFFC000007FFFF80007F
310
80007FFFFF8001F80007FFFFF8000FF8000001FFFE0000007FFFFFF0001FFFFF
310
FF00007FFFFF00007FFF00007FFFFF00007FFF0003FFFFFFFFE0003FFFFFC000
310
F000C0007FFFFFC000FFFF000000FFFC000007FFFF80007F8000FFFFFF8000F8
310
000FFFFFF8000FF8000001FFFE0000007FFFFFF0001FFFFFFF0000FFFFFF8000
310
7FFF0000FFFFFF80007FFF0003FFFFFFFFC0007FFFFFC00070008000FFFFFFC0
310
00FFFF000000FFF8000007FFFF80007F8000FFFFFF8000F8000FFFFFF8000FF8
310
000001FFFE0000007FFFFFF0001FFFFFFE0001FFFFFFC0003FFE0001FFFFFFC0
310
003FFF0003FFFFFFFFC0007FFFFFE00070008000FFFFFFC0007FFF0000007FF8
310
000003FFFF80007F0001FFFFFF8000F8000FFFFFF8000FF8000001FFFE000000
310
7FFFFFF0001FFFFFFE0001FFFFFFC0003FFE0001FFFFFFC0003FFF0003FFFFFF
310
FFC000FFFFFFE00070008000FFFFFFC0007FFF0000007FF8000003FFFF80007F
310
0001FFFFFF8000F8001FFFFFF8000FF8000001FFFE0000007FFFFFF0001FFFFF
310
FE0003FFFFFFE0003FFE0003FFFFFFE0003FFF0003FFFFFFFFC000FFFFFFE000
310
70008000FFFFFFC0007FFE0000007FF8000003FFFF80007F0001FFFFFF8000F0
310
001FFFFFF8000FF8000001FFFE0000007FFFFFF0001FFFFFFC0003FFFFFFE000
310
1FFC0003FFFFFFE0001FFF0003FFFFFFFFC000FFFFFFC00070008000FFFFFF80
310
007FFE0000007FF0000003FFFF80007F0001FFFFFF0000F0001FFFFFF8000FF8
310
000001FFFE0000007FFFFFF0001FFFFFFC0007FFFFFFF0001FFC0007FFFFFFF0
310
001FFF0003FFFFFFFFC000FFFFFFC00070008001FFFFFF0000FFFE0000003FF0
310
000001FFFF80007F0001FFFFFF0000F8001FFFFFF0000FF8000001FFFE000000
310
7FFFFFF0001FFFFFFC0007FFFFFFF0001FFC0007FFFFFFF0001FFF0003FFFFFF
310
FFC001FFFFFF80007000FFFFFFFFFE0000FFFE0008003FF0008001FFFF80007F
310
FFFFFFFFFC0000FFFFFFFFFFE0000FF8000001FFFE0000007FFFFFF0001FFFFF
310
F8000FFFFFFFF8000FF8000FFFFFFFF8000FFF0003FFFFFFFFFFFFFFFFFF0000
310
7000FFFFFFFFFC0000FFFC0008003FF0008001FFFF80007FFFFFFFFFF80001FF
310
FFFFFFFF80000FF8000001FFFE0000007FFFFFF0001FFFFFF8000FFFFFFFF800
310
0FF8000FFFFFFFF8000FFF0003FFFFFFFFFFFFFFFFFE0000F000FFFFFFFFE000
310
00FFFC000C003FE000C001FFFF80007FFFFFFFFFC00001FFFFFFFFFE00001FF8
310
000001FFFE0000007FFFFFF0001FFFFFF8000FFFFFFFF8000FF8000FFFFFFFF8
310
000FFF0003FFFFFFFFFFFFFFFFF00000F000FFFFFFFE000001FFFC000C001FE0
310
00C000FFFF80007FFFFFFFFE000001FFFFFFFFE000001FF80FFFFFFFFFFFFFC0
310
7FFFFFF0001FFFFFF8000FFFFFFFF8000FF8000FFFFFFFF8000FFF0003FFFFFF
310
FFFFFFFFFF800000F000FFFFFFC0000001FFFC001C001FE001C000FFFF80007F
310
FFFFFF80000003FFFFFFF80000001FF80FFFFFFFFFFFFFC07FFFFFF0001FFFFF
310
F8001FFFFFFFFC000FF8001FFFFFFFFC000FFF0003FFFFFFFFFFFFFFF0000001
310
F000FFFFF800000001FFF8001C001FE001C000FFFF80007FFFFFF800000003FF
310
FFFF800000003FF80FFFFFFFFFFFFFC07FFFFFF0001FFFFFF8001FFFFFFFFC00
310
0FF8001FFFFFFFFC000FFF0003FFFFFFFFFFFFFE00000001F000FFFFC0000000
310
03FFF8001E001FC001E000FFFF80007FFFFF8000000007FFFFFC000000003FF8
310
0FFFFFFFFFFFFFC07FFFFFF0001FFFFFF8001FFFFFFFFC000FF8001FFFFFFFFC
310
000FFF0003FFFFFFFFFFFFE000000003F000FFFE0000000007FFF8001E000FC0
310
01E0007FFF80007FFFFE0000000007FFFFE0000000007FF80FFFFFFFFFFFFFC0
310
7FFFFFF0001FFFFFF0001FFFFFFFFC0007F0001FFFFFFFFC0007FF0003FFFFFF
310
FFFFFF0000000003F000FFF80000000007FFF8001E000FC003E0007FFF80007F
310
FFF0000000000FFFFF8000000000FFF80FFFFFFFFFFFFFC07FFFFFF0001FFFFF
310
F0001FFFFFFFFC0007F0001FFFFFFFFC0007FF0003FFFFFFFFFFFC0000000007
310
F000FFE0000000000FFFF0003E000FC003E0007FFF80007FFFC0000000001FFF
310
FE0000000001FFF80FFFFFFFFFFFFFC07FFFFFF0001FFFFFF0001FFFFFFFFC00
310
07F0001FFFFFFFFC0007FF0003FFFFFFFFFFF0000000000FF000FFC000000000
310
1FFFF0003F000F8003F0003FFF80007FFF80000000003FFFF80000000003FFF8
310
0FFFFFFFFFFFFFC07FFFFFF0001FFFFFF0001FFFFFFFFC0007F0001FFFFFFFFC
310
0007FF0003FFFFFFFFFFE0000000001FF000FF00000000007FFFF0003F000780
310
03F0003FFF80007FFF00000000007FFFF00000000007FFF80FFFFFFFFFFFFFC0
310
7FFFFFF0001FFFFFF0001FFFFFFFFC0007F0001FFFFFFFFC0007FF0003FFFFFF
310
FFFF80000000007FF000FE0000000000FFFFE0003F00078007F0003FFF80007F
310
FE0000000001FFFFE0000000001FFFF80FFFFFFFFFFFFFC07FFFFFF0001FFFFF
310
F0001FFFFFFFFC0007F0001FFFFFFFFC0007FF0003FFFFFFFFFF0000000000FF
310
F000FC0000000003FFFFE0007F00078007F0003FFF80007FFC0000000007FFFF
310
C0000000007FFFF80FFFFFFFFFFFFFC07FFFFFF0001FFFFFF8001FFFFFFFFC00
310
0FF8001FFFFFFFFC000FFF0003FFFFFFFFFE0000000003FFF000FC000000000F
310
FFFFE0007F80070007F8001FFF80007FF8000000001FFFFF8000000001FFFFF8
310
0FFFFFFFFFFFFFC07FFFFFF0001FFFFFF8001FFFFFFFFC000FF8001FFFFFFFFC
310
000FFF0003FFFFFFFFFC000000000FFFF000F8000000007FFFFFE0007F800700
310
07F8001FFF80007FF000000000FFFFFF800000000FFFFFF80FFFFFFFFFFFFFC0
310
7FFFFFF0001FFFFFF8000FFFFFFFF8000FF8000FFFFFFFF8000FFF0003FFFFFF
310
FFFC000000007FFFF000F800000007FFFFFFC0007F8003000FF8001FFF80007F
310
F000000007FFFFFF000000007FFFFFF80FFFFFFFFFFFFFC07FFFFFF0001FFFFF
310
F8000FFFFFFFF8000FF8000FFFFFFFF8000FFF0003FFFFFFFFF80000000FFFFF
310
F000F0000000FFFFFFFFC000FF8003000FF8001FFF80007FE0000000FFFFFFFF
310
0000000FFFFFFFF8000001FFFE0000007FFFFFF0001FFFFFF8000FFFFFFFF800
310
0FF8000FFFFFFFF8000FFF0003FFFFFFFFF8000000FFFFFFF000F000000FFFFF
310
FFFFC000FFC002000FF8000FFF80007FE000001FFFFFFFFE000001FFFFFFFFF8
310
000001FFFE0000007FFFFFF0001FFFFFF8000FFFFFFFF8000FF8000FFFFFFFF8
310
000FFF0003FFFFFFFFF000001FFFFFFFF000E00000FFFFFFFFFFC000FFC00200
310
0FFC000FFF80007FE00001FFFFFFFFFE00001FFFFFFFFFF8000001FFFE000000
310
7FFFFFF0001FFFFFFC000FFFFFFFF8001FFC000FFFFFFFF8001FFF0003FFFFFF
310
FFF00001FFFFFFFFF000E00007FFFFFFFFFF8000FFC000001FFC000FFF80007F
310
C0000FFFFFFFFFFE0000FFFFFFFFFFF8000001FFFE0000007FFFFFF0001FFFFF
310
FC0007FFFFFFF0001FFC0007FFFFFFF0001FFF0003FFFFFFFFF00007FFFFFFFF
310
F000E0001FFFFFFFFFFF8000FFC000001FFC000FFF80007FC0003FFFFFFFFFFE
310
0001FFFFFFFFFFF8000001FFFE0000007FFFFFF0001FFFFFFC0007FFFFFFF000
310
1FFC0007FFFFFFF0001FFF0003FFFFFFFFF0001FFFFFFFFFF000E0003FFFFF00
310
03FF8001FFE000001FFC0007FF80007FC0007FFFFF0007FC0003FFFFF0003FF8
310
000001FFFE0000007FFFFFF0001FFFFFFC0003FFFFFFE0001FFC0003FFFFFFE0
310
001FFF0003FFFFFFFFF0003FFFFFFFFFF000E0003FFFFF0001FF8001FFE00000
310
1FFE0007FF80007FC0007FFFFE0003FC0007FFFFE0003FF8000001FFFE000000
310
7FFFFFF0001FFFFFFE0003FFFFFFE0003FFE0003FFFFFFE0003FFF0003FFFFFF
310
FFF0003FFFFF8001F000E0003FFFFF0001FF0001FFE000001FFE0007FF80007F
310
C0007FFFFE0003FC0007FFFFE0003FF8000001FFFE0000007FFFFFF0001FFFFF
310
FE0001FFFFFFC0003FFE0001FFFFFFC0003FFF0003FFFFFFFFF0003FFFFF0001
310
F000E0003FFFFF0003FF0001FFE000003FFE0007FF80007FC0007FFFFE0003FC
310
0007FFFFE0003FF8000001FFFE0000007FFFFFF0001FFFFFFF0001FFFFFFC000
310
7FFF0001FFFFFFC0007FFF0003FFFFFFFFF0003FFFFF0001F000E0003FFFFE00
310
03FF0003FFF000003FFE0003FF80007FC0007FFFFC0003FE0007FFFFE0003FF8
310
000001FFFE0000007FFFFFF0001FFFFFFF0000FFFFFF80007FFF0000FFFFFF80
310
007FFF0003FFFFFFFFF0003FFFFF0001F000E0003FFFFE0003FF0003FFF00000
310
3FFF0003FF80007FC0007FFFFC0007FE0007FFFFC0003FF8000001FFFE000000
310
7FFFFFF0001FFFFFFF80007FFFFF0000FFFF80007FFFFF0000FFFF0003FFFFFF
310
FFF0003FFFFF0003F000E0003FFFFC0003FE0003FFF000003FFF0003FF80007F
310
E0003FFFF80007FE0003FFFFC0007FF8000001FFFE0000007FFFFFF0001FFFFF
310
FF80003FFFFE0000FFFF80003FFFFE0000FFFF0003FFFFFFFFF0001FFFFE0003
310
F000F0001FFFF80003FE0003FFF000007FFF0001FF80007FE0003FFFF00007FE
310
0001FFFF80007FF8000001FFFE0000007FFFFFF0001FFFFFFFC0000FFFF80001
310
FFFFC0000FFFF80001FFFF0003FFFFFFFFF0001FFFFC0003F000F0000FFFF000
310
07FE0007FFF800007FFF0001FF80007FE0001FFFE00007FF0000FFFE00007FF8
310
000001FFFE0000007FFFFFF0001FFFFFFFC00003FFE00001FFFFC00003FFE000
310
01FFFF0003FFFFFFFFF8000FFFF80003F000F00003FFC00007FC0007FFF80000
310
7FFF8001FF80007FF00007FF80000FFF00007FF80000FFF8000001FFFE000000
310
7F80000000000001FFE000003E000003FFFFE000003E000003FFFF0003FFFFFF
310
FFF80003FFE00007F000F800000000000FFC0007FFF800007FFF8001FF80007F
310
F000000000000FFF000000000000FFF8000001FFFE0000007F80000000000001
310
FFF0000000000007FFFFF0000000000007FFFF0003FFFFFFFFFC00007E000007
310
F000F800000000000FFC0007FFF80000FFFF8000FF80007FF800000000001FFF
310
800000000001FFF8000001FFFE0000007F80000000000001FFF800000000000F
310
FFFFF800000000000FFFFF0003FFFFFFFFFC00000000000FF000FC0000000000
310
1FFC0007FFFC0000FFFF8000FF80007FF800000000003FFFC00000000001FFF8
310
000001FFFE0000007F80000000000001FFF800000000000FFFFFF80000000000
310
0FFFFF0003FFFFFFFFFE00000000001FF000FE00000000003FF8000FFFFC0000
310
FFFF8000FF80007FFC00000000003FFFC00000000003FFF8000001FFFE000000
310
7F80000000000001FFFC00000000001FFFFFFC00000000001FFFFF0003FFFFFF
310
FFFF00000000001FF000FF00000000003FF8000FFFFC0000FFFFC000FF80007F
310
FE00000000007FFFE00000000007FFF8000001FFFE0000007F80000000000001
310
FFFE00000000003FFFFFFE00000000003FFFFF0003FFFFFFFFFF80000000003F
310
F000FF80000000007FF8000FFFFC0001FFFFC0007F80007FFF0000000000FFFF
310
F0000000000FFFF800000000000000007F80000000000001FFFF8000000000FF
310
FFFFFF8000000000FFFFFF0003FFFFFFFFFFC0000000007FF000FFC000000000
310
FFF8000FFFFE0001FFFFC0007F80007FFF8000000001FFFFF8000000001FFFF8
310
00000000000000007F80000000000001FFFFC000000001FFFFFFFFC000000001
310
FFFFFF0003FFFFFFFFFFE000000000FFF000FFE000000003FFF0001FFFFE0001
310
FFFFC0007F80007FFFC000000007FFFFFE000000003FFFF80000000000000000
310
7F80000000000001FFFFE000000003FFFFFFFFE000000003FFFFFF0003FFFFFF
310
FFFFF000000003FFF000FFF80000000FFFF0001FFFFE0001FFFFE0007F80007F
310
FFF00000000FFFFFFF00000000FFFFF800000000000000007F80000000000001
310
FFFFF80000000FFFFFFFFFF80000000FFFFFFF0003FFFFFFFFFFFC0000000FFF
310
F000FFFE0000003FFFF0001FFFFE0003FFFFE0003F80007FFFFC0000003FFFFF
310
FFC0000003FFFFF800000000000000007F80000000000001FFFFFE0000003FFF
310
FFFFFFFE0000003FFFFFFF0003FFFFFFFFFFFF0000003FFFF000FFFF800000FF
310
FFF0001FFFFF0003FFFFE0003F80007FFFFF000001FFFFFFFFF800001FFFFFF8
310
00000000000000007F80000000000001FFFFFFC00001FFFFFFFFFFFFC00001FF
310
FFFFFF0003FFFFFFFFFFFFC00000FFFFF000FFFFF8000FFFFFFFFFFFFFFFFFFF
310
FFFFFFFFFFFFFFFFFFFFF0001FFFFFFFFFFF0000FFFFFFF80000000000000000
310
7FFFFFFFFFFFFFFFFFFFFFFC001FFFFFFFFFFFFFFC001FFFFFFFFFFFFFFFFFFF
310
FFFFFFFC001FFFFFF000FFFFFFFFFFFFFFFFFFFFFFFFFFFFFFFFFFFFFFFFFFFF
310
FFFFFFFFFFFFFFFFFFFFFFFFFFFFFFFFFFFFFFFFFFFFFFFFFFFFFFFFFFFFFFFF
310
FFFFFFFFFFFFFFFFFFFFFFFFFFFFFFFFFFFFFFFFFFFFFFFFFFFFFFFFFFFFFFFF
310
F000FFFFFFFFFFFFFFFFFFFFFFFFFFFFFFFFFFFFFFFFFFFFFFFFFFFFFFFFFFFF
310
FFFFFFFFFFFFFFFFFFFFFFFFFFFFFFFFFFFFFFFFFFFFFFFFFFFFFFFFFFFFFFFF
310
FFFFFFFFFFFFFFFFFFFFFFFFFFFFFFFFFFFFFFFFFFFFFFFFF000FFFFFFFFFFFF
310
FFFFFFFFFFFFFFFFFFFFFFFFFFFFFFFFFFFFFFFFFFFFFFFFFFFFFFFFFFFFFFFF
310
FFFFFFFFFFFFFFFFFFFFFFFFFFFFFFFFFFFFFFFFFFFFFFFFFFFFFFFFFFFFFFFF
310
FFFFFFFFFFFFFFFFFFFFFFFFFFFFFFFFF000FFFFFFFFFFFFFFFFFFFFFFFFFFFF
310
FFFFFFFFFFFFFFFFFFFFFFFFFFFFFFFFFFFFFFFFFFFFFFFFFFFFFFFFFFFFFFFF
310
FFFFFFFFFFFFFFFFFFFFFFFFFFFFFFFFFFFFFFFFFFFFFFFFFFFFFFFFFFFFFFFF
310
FFFFFFFFFFFFFFFFF000FFFFFFFFFFFFFFFFFFFFFFFFFFFFFFFFFFFFFFFFFFFF
310
FFFFFFFFFFFFFFFFFFFFFFFFFFFFFFFFFFFFFFFFFFFFFFFFFFFFFFFFFFFFFFFF
310
FFFFFFFFFFFFFFFFFFFFFFFFFFFFFFFFFFFFFFFFFFFFFFFFFFFFFFFFFFFFFFFF
310
F000FFFFFFFFFFFFFFFFFFFFFFFFFFFFFFFFFFFFFFFFFFFFFFFFFFFFFFFFFFFF
310
FFFFFFFFFFFFFFFFFFFFFFFFFFFFFFFFFFFFFFFFFFFFFFFFFFFFFFFFFFFFFFFF
310
FFFFFFFFFFFFFFFFFFFFFFFFFFFFFFFFFFFFFFFFFFFFFFFFF000FFFFFFFFFFFF
310
FFFFFFFFFFFFFFFFFFFFFFFFFFFFFFFFFFFFFFFFFFFFFFFFFFFFFFFFFFFFFFFF
310
FFFFFFFFFFFFFFFFFFFFFFFFFFFFFFFFFFFFFFFFFFFFFFFFFFFFFFFFFFFFFFFF
310
FFFFFFFFFFFFFFFFFFFFFFFFFFFFFFFFF000FFFFFFFFFFFFFFFFFFFFFFFFFFFF
310
FFFFFFFFFFFFFFFFFFFFFFFFFFFFFFFFFFFFFFFFFFFFFFFFFFFFFFFFFFFFFFFF
310
FFFFFFFFFFFFFFFFFFFFFFFFFFFFFFFFFFFFFFFFFFFFFFFFFFFFFFFFFFFFFFFF
310
FFFFFFFFFFFFFFFFF000FFFFFFFFFFFFFFFFFFFFFFFFFFFFFFFFFFFFFFFFFFFF
310
FFFFFFFFFFFFFFFFFFFFFFFFFFFFFFFFFFFFFFFFFFFFFFFFFFFFFFFFFFFFFFFF
310
FFFFFFFFFFFFFFFFFFFFFFFFFFFFFFFFFFFFFFFFFFFFFFFFFFFFFFFFFFFFFFFF
310
F000FFFFFFFFFFFFFFFFFFFFFFFFFFFFFFFFFFFFFFFFFFFFFFFFFFFFFFFFFFFF
310
FFFFFFFFFFFFFFFFFFFFFFFFFFFFFFFFFFFFFFFFFFFFFFFFFFFFFFFFFFFFFFFF
310
FFFFFFFFFFFFFFFFFFFFFFFFFFFFFFFFFFFFFFFFFFFFFFFFF000FFFFFFFFFFFF
310
FFFFFFFFFFFFFFFFFFFFFFFFFFFFFFFFFFFFFFFFFFFFFFFFFFFFFFFFFFFFFFFF
310
FFFFFFFFFFFFFFFFFFFFFFFFFFFFFFFFFFFFFFFFFFFFFFFFFFFFFFFFFFFFFFFF
310
FFFFFFFFFFFFFFFFFFFFFFFFFFFFFFFFF000FFFFFFFFFFFFFFFFFFFFFFFFFFFF
310
FFFFFFFFFFFFFFFFFFFFFFFFFFFFFFFFFFFFFFFFFFFFFFFFFFFFFFFFFFFFFFFF
310
FFFFFFFFFFFFFFFFFFFFFFFFFFFFFFFFFFFFFFFFFFFFFFFFFFFFFFFFFFFFFFFF
310
FFFFFFFFFFFFFFFFF000FFFFFFFFFFFFFFFFFFFFFFFFFFFFFFFFFFFFFFFFFFFF
310
FFFFFFFFFFFFFFFFFFFFFFFFFFFFFFFFFFFFFFFFFFFFFFFFFFFFFFFFFFFFFFFF
310
FFFFFFFFFFFFFFFFFFFFFFFFFFFFFFFFFFFFFFFFFFFFFFFFFFFFFFFFFFFFFFFF
310
F000FFFFFFFFFFFFFFFFFFFFFFFFFFFFFFFFFFFFFFFFFFFFFFFFFFFFFFFFFFFF
310
FFFFFFFFFFFFFFFFFFFFFFFFFFFFFFFFFFFFFFFFFFFFFFFFFFFFFFFFFFFFFFFF
310
FFFFFFFFFFFFFFFFFFFFFFFFFFFFFFFFFFFFFFFFFFFFFFFFF000FFFFFFFFFFFF
310
FFFFFFFFFFFFFFFFFFFFFFFFFFFFFFFFFFFFFFFFFFFFFFFFFFFFFFFFFFFFFFFF
310
FFFFFFFFFFFFFFFFFFFFFFFFFFFFFFFFFFFFFFFFFFFFFFFFFFFFFFFFFFFFFFFF
310
FFFFFFFFFFFFFFFFFFFFFFFFFFFFFFFFF000FFFFFFFFFFFFFFFFFFFFFFFFFFFF
310
FFFFFFFFFFFFFFFFFFFFFFFFFFFFFFFFFFFFFFFFFFFFFFFFFFFFFFFFFFFFFFFF
310
FFFFFFFFFFFFFFFFFFFFFFFFFFFFFFFFFFFFFFFFFFFFFFFFFFFFFFFFFFFFFFFF
310
FFFFFFFFFFFFFFFFF000FFFFFFFFFFFFFFFFFFFFFFFFFFFFFFFFFFFFFFFFFFFF
310
FFFFFFFFFFFFFFFFFFFFFFFFFFFFFFFFFFFFFFFFFFFFFFFFFFFFFFFFFFFFFFFF
310
FFFFFFFFFFFFFFFFFFFFFFFFFFFFFFFFFFFFFFFFFFFFFFFFFFFFFFFFFFFFFFFF
310
F000FFFFFFFFFFFFFFFFFFFFFFFFFFFFFFFFFFFFFFFFFFFFFFFFFFFFFFFFFFFF
310
FFFFFFFFFFFFFFFFFFFFFFFFFFFFFFFFFFFFFFFFFFFFFFFFFFFFFFFFFFFFFFFF
310
FFFFFFFFFFFFFFFFFFFFFFFFFFFFFFFFFFFFFFFFFFFFFFFFF000FFFFFFFFFFFF
310
FFFFFFFFFFFFFFFFFFFFFFFFFFFFFFFFFFFFFFFFFFFFFFFFFFFFFFFFFFFFFFFF
310
FFFFFFFFFFFFFFFFFFFFFFFFFFFFFFFFFFFFFFFFFFFFFFFFFFFFFFFFFFFFFFFF
310
FFFFFFFFFFFFFFFFFFFFFFFFFFFFFFFFF000FFFFFFFFFFFFFFFFFFFFFFFFFFFF
310
FFFFFFFFFFFFFFFFFFFFFFFFFFFFFFFFFFFFFFFFFFFFFFFFFFFFFFFFFFFFFFFF
310
FFFFFFFFFFFFFFFFFFFFFFFFFFFFFFFFFFFFFFFFFFFFFFFFFFFFFFFFFFFFFFFF
310
FFFFFFFFFFFFFFFFF000FFFFFFFFFFFFFFFFFFFFFFFFFFFFFFFFFFFFFFFFFFFF
310
FFFFFFFFFFFFFFFFFFFFFFFFFFFFFFFFFFFFFFFFFFFFFFFFFFFFFFFFFFFFFFFF
310
FFFFFFFFFFFFFFFFFFFFFFFFFFFFFFFFFFFFFFFFFFFFFFFFFFFFFFFFFFFFFFFF
310
F000FFFFFFFFFFFFFFFFFFFFFFFFFFFFFFFFFFFFFFFFFFFFFFFFFFFFFFFFFFFF
310
FFFFFFFFFFFFFFFFFFFFFFFFFFFFFFFFFFFFFFFFFFFFFFFFFFFFFFFFFFFFFFFF
310
FFFFFFFFFFFFFFFFFFFFFFFFFFFFFFFFFFFFFFFFFFFFFFFFF000FFFFFFFFFFFF
310
FFFFFFFFFFFFFFFFFFFFFFFFFFFFFFFFFFFFFFFFFFFFFFFFFFFFFFFFFFFFFFFF
310
FFFFFFFFFFFFFFFFFFFFFFFFFFFFFFFFFFFFFFFFFFFFFFFFFFFFFFFFFFFFFFFF
310
FFFFFFFFFFFFFFFFFFFFFFFFFFFFFFFFF0000000000000000000000000000000
310
0000000000000000000000000000000000000000000000000000000000000000
310
0000000000000000000000000000000000000000000000000000000000000000
310
0000000000000000000000000000000000000000000000000000000000000000
310
0000000000000000000000000000000000000000000000000000000000000000
310
0000000000000000000000000000000000000000000000000000000000000000
310
0000000000000000000000000000000000000000000000000000000000000000
310
0000000000000000000000000000000000000000000000000000000000000000
310
0000000000000000000000000000000000000000000000000000000000000000
310
0000000000000000000000000000000000000000000000000000000000000000
310
0000000000000000000000000000000000000000000000000000000000000000
310
0000000000000000000000000000000000000000000000000000000000000000
310
0000000000000000000000000000000000000000000000000000000000000000
310
0000000000000000000000000000000000000000000000000000000000000000
310
0000000000000000000000000000000000000000000000000000000000000000
310
0000000000000000000000000000000000000000000000000000000000000000
  1
OLE
  0
ENDSEC
  0
SECTION
  2
OBJECTS
  0
DICTIONARY
  5
C
330
0
100
AcDbDictionary
281
     1
  3
ACAD_GROUP
350
D
  3
ACAD_LAYOUT
350
1A
  3
ACAD_MLINESTYLE
350
17
  3
ACAD_PLOTSETTINGS
350
19
  3
ACAD_PLOTSTYLENAME
350
E
  0
DICTIONARY
  5
D
102
{ACAD_REACTORS
330
C
102
}
330
C
100
AcDbDictionary
281
     1
  0
DICTIONARY
  5
1A
102
{ACAD_REACTORS
330
C
102
}
330
C
100
AcDbDictionary
281
     1
  3
Layout1
350
1E
  3
Layout2
350
26
  3
Model
350
22
  0
DICTIONARY
  5
17
102
{ACAD_REACTORS
330
C
102
}
330
C
100
AcDbDictionary
281
     1
  3
Standard
350
18
  0
DICTIONARY
  5
19
102
{ACAD_REACTORS
330
C
102
}
330
C
100
AcDbDictionary
281
     1
  0
ACDBDICTIONARYWDFLT
  5
E
102
{ACAD_REACTORS
330
C
102
}
330
C
100
AcDbDictionary
281
     1
  3
Normal
350
F
100
AcDbDictionaryWithDefault
340
F
  0
LAYOUT
  5
1E
102
{ACAD_REACTORS
330
1A
102
}
330
1A
100
AcDbPlotSettings
  1

  2
none_device
  4

  6

 40
0.0
 41
0.0
 42
0.0
 43
0.0
 44
0.0
 45
0.0
 46
0.0
 47
0.0
 48
0.0
 49
0.0
140
0.0
141
0.0
142
1.0
143
1.0
 70
   688
 72
     0
 73
     0
 74
     5
  7

 75
    16
147
1.0
148
0.0
149
0.0
100
AcDbLayout
  1
Layout1
 70
     1
 71
     1
 10
0.0
 20
0.0
 11
420.0
 21
297.0
 12
0.0
 22
0.0
 32
0.0
 14
1.0000000000E+20
 24
1.0000000000E+20
 34
1.0000000000E+20
 15
-1.0000000000E+20
 25
-1.0000000000E+20
 35
-1.0000000000E+20
146
0.0
 13
0.0
 23
0.0
 33
0.0
 16
1.0
 26
0.0
 36
0.0
 17
0.0
 27
1.0
 37
0.0
 76
     0
330
1B
  0
LAYOUT
  5
26
102
{ACAD_REACTORS
330
1A
102
}
330
1A
100
AcDbPlotSettings
  1

  2
none_device
  4

  6

 40
0.0
 41
0.0
 42
0.0
 43
0.0
 44
0.0
 45
0.0
 46
0.0
 47
0.0
 48
0.0
 49
0.0
140
0.0
141
0.0
142
1.0
143
1.0
 70
   688
 72
     0
 73
     0
 74
     5
  7

 75
    16
147
1.0
148
0.0
149
0.0
100
AcDbLayout
  1
Layout2
 70
     1
 71
     2
 10
0.0
 20
0.0
 11
0.0
 21
0.0
 12
0.0
 22
0.0
 32
0.0
 14
0.0
 24
0.0
 34
0.0
 15
0.0
 25
0.0
 35
0.0
146
0.0
 13
0.0
 23
0.0
 33
0.0
 16
1.0
 26
0.0
 36
0.0
 17
0.0
 27
1.0
 37
0.0
 76
     0
330
23
  0
LAYOUT
  5
22
102
{ACAD_REACTORS
330
1A
102
}
330
1A
100
AcDbPlotSettings
  1

  2
none_device
  4

  6

 40
0.0
 41
0.0
 42
0.0
 43
0.0
 44
0.0
 45
0.0
 46
0.0
 47
0.0
 48
0.0
 49
0.0
140
0.0
141
0.0
142
1.0
143
1.0
 70
  1712
 72
     0
 73
     0
 74
     0
  7

 75
     0
147
1.0
148
0.0
149
0.0
100
AcDbLayout
  1
Model
 70
     1
 71
     0
 10
0.0
 20
0.0
 11
297.0
 21
210.0
 12
0.0
 22
0.0
 32
0.0
 14
0.0
 24
0.0
 34
0.0
 15
297.0
 25
210.0
 35
0.0
146
0.0
 13
0.0
 23
0.0
 33
0.0
 16
1.0
 26
0.0
 36
0.0
 17
0.0
 27
1.0
 37
0.0
 76
     0
330
1F
331
29
  0
MLINESTYLE
  5
18
102
{ACAD_REACTORS
330
17
102
}
330
17
100
AcDbMlineStyle
  2
Standard
 70
     0
  3

 62
   256
 51
90.0
 52
90.0
 71
     2
 49
0.5
 62
   256
  6
BYLAYER
 49
-0.5
 62
   256
  6
BYLAYER
  0
ACDBPLACEHOLDER
  5
F
102
{ACAD_REACTORS
330
E
102
}
330
E
  0
ENDSEC
  0
EOF
