  0
SECTION
  2
HEADER
  9
$ACADVER
  1
AC1015
  9
$ACADMAINTVER
 70
     6
  9
$DWGCODEPAGE
  3
ANSI_1252
  9
$INSBASE
 10
0.0
 20
0.0
 30
0.0
  9
$EXTMIN
 10
0.0
 20
0.0
 30
0.0
  9
$EXTMAX
 10
297.0
 20
210.0
 30
0.0
  9
$LIMMIN
 10
0.0
 20
0.0
  9
$LIMMAX
 10
297.0
 20
210.0
  9
$ORTHOMODE
 70
     0
  9
$REGENMODE
 70
     1
  9
$FILLMODE
 70
     1
  9
$QTEXTMODE
 70
     0
  9
$MIRRTEXT
 70
     1
  9
$LTSCALE
 40
1.0
  9
$ATTMODE
 70
     1
  9
$TEXTSIZE
 40
2.0
  9
$TRACEWID
 40
1.0
  9
$TEXTSTYLE
  7
STANDARD
  9
$CLAYER
  8
0
  9
$CELTYPE
  6
ByLayer
  9
$CECOLOR
 62
   256
  9
$CELTSCALE
 40
1.0
  9
$DISPSILH
 70
     0
  9
$DIMSCALE
 40
1.0
  9
$DIMASZ
 40
3.0
  9
$DIMEXO
 40
0.0
  9
$DIMDLI
 40
3.75
  9
$DIMRND
 40
0.0
  9
$DIMDLE
 40
0.0
  9
$DIMEXE
 40
1.0
  9
$DIMTP
 40
0.0
  9
$DIMTM
 40
0.0
  9
$DIMTXT
 40
2.0
  9
$DIMCEN
 40
2.5
  9
$DIMTSZ
 40
0.0
  9
$DIMTOL
 70
     0
  9
$DIMLIM
 70
     0
  9
$DIMTIH
 70
     1
  9
$DIMTOH
 70
     1
  9
$DIMSE1
 70
     0
  9
$DIMSE2
 70
     0
  9
$DIMTAD
 70
     1
  9
$DIMZIN
 70
     0
  9
$DIMBLK
  1

  9
$DIMASO
 70
     1
  9
$DIMSHO
 70
     1
  9
$DIMPOST
  1

  9
$DIMAPOST
  1

  9
$DIMALT
 70
     0
  9
$DIMALTD
 70
     3
  9
$DIMALTF
 40
0.0393700787
  9
$DIMLFAC
 40
1.0
  9
$DIMTOFL
 70
     1
  9
$DIMTVP
 40
0.0
  9
$DIMTIX
 70
     0
  9
$DIMSOXD
 70
     0
  9
$DIMSAH
 70
     0
  9
$DIMBLK1
  1

  9
$DIMBLK2
  1

  9
$DIMSTYLE
  2
ISO-25
  9
$DIMCLRD
 70
     0
  9
$DIMCLRE
 70
     0
  9
$DIMCLRT
 70
     0
  9
$DIMTFAC
 40
1.0
  9
$DIMGAP
 40
1.524
  9
$DIMJUST
 70
     0
  9
$DIMSD1
 70
     0
  9
$DIMSD2
 70
     0
  9
$DIMTOLJ
 70
     0
  9
$DIMTZIN
 70
     0
  9
$DIMALTZ
 70
     0
  9
$DIMALTTZ
 70
     0
  9
$DIMUPT
 70
     0
  9
$DIMDEC
 70
     2
  9
$DIMTDEC
 70
     3
  9
$DIMALTU
 70
     2
  9
$DIMALTTD
 70
     3
  9
$DIMTXSTY
  7
STANDARD
  9
$DIMAUNIT
 70
     0
  9
$DIMADEC
 70
     2
  9
$DIMALTRND
 40
0.0
  9
$DIMAZIN
 70
     0
  9
$DIMDSEP
 70
    44
  9
$DIMATFIT
 70
     3
  9
$DIMFRAC
 70
     0
  9
$DIMLDRBLK
  1

  9
$DIMLUNIT
 70
     2
  9
$DIMLWD
 70
    -2
  9
$DIMLWE
 70
    -2
  9
$DIMTMOVE
 70
     0
  9
$LUNITS
 70
     2
  9
$LUPREC
 70
     2
  9
$SKETCHINC
 40
1.0
  9
$FILLETRAD
 40
10.0
  9
$AUNITS
 70
     0
  9
$AUPREC
 70
     2
  9
$MENU
  1
.
  9
$ELEVATION
 40
0.0
  9
$PELEVATION
 40
0.0
  9
$THICKNESS
 40
0.0
  9
$LIMCHECK
 70
     0
  9
$CHAMFERA
 40
10.0
  9
$CHAMFERB
 40
10.0
  9
$CHAMFERC
 40
20.0
  9
$CHAMFERD
 40
0.0
  9
$SKPOLY
 70
     0
  9
$TDCREATE
 40
2457149.477186088
  9
$TDUCREATE
 40
2457149.393852754
  9
$TDUPDATE
 40
2457149.477187349
  9
$TDUUPDATE
 40
2457149.393854016
  9
$TDINDWG
 40
0.0000000116
  9
$TDUSRTIMER
 40
0.0000000116
  9
$USRTIMER
 70
     1
  9
$ANGBASE
 50
0.0
  9
$ANGDIR
 70
     0
  9
$PDMODE
 70
     0
  9
$PDSIZE
 40
-1.0
  9
$PLINEWID
 40
0.0
  9
$SPLFRAME
 70
     0
  9
$SPLINETYPE
 70
     6
  9
$SPLINESEGS
 70
     8
  9
$HANDSEED
  5
428
  9
$SURFTAB1
 70
     6
  9
$SURFTAB2
 70
     6
  9
$SURFTYPE
 70
     6
  9
$SURFU
 70
     6
  9
$SURFV
 70
     6
  9
$UCSBASE
  2

  9
$UCSNAME
  2

  9
$UCSORG
 10
0.0
 20
0.0
 30
0.0
  9
$UCSXDIR
 10
1.0
 20
0.0
 30
0.0
  9
$UCSYDIR
 10
0.0
 20
1.0
 30
0.0
  9
$UCSORTHOREF
  2

  9
$UCSORTHOVIEW
 70
     0
  9
$UCSORGTOP
 10
0.0
 20
0.0
 30
0.0
  9
$UCSORGBOTTOM
 10
0.0
 20
0.0
 30
0.0
  9
$UCSORGLEFT
 10
0.0
 20
0.0
 30
0.0
  9
$UCSORGRIGHT
 10
0.0
 20
0.0
 30
0.0
  9
$UCSORGFRONT
 10
0.0
 20
0.0
 30
0.0
  9
$UCSORGBACK
 10
0.0
 20
0.0
 30
0.0
  9
$PUCSBASE
  2

  9
$PUCSNAME
  2

  9
$PUCSORG
 10
0.0
 20
0.0
 30
0.0
  9
$PUCSXDIR
 10
1.0
 20
0.0
 30
0.0
  9
$PUCSYDIR
 10
0.0
 20
1.0
 30
0.0
  9
$PUCSORTHOREF
  2

  9
$PUCSORTHOVIEW
 70
     0
  9
$PUCSORGTOP
 10
0.0
 20
0.0
 30
0.0
  9
$PUCSORGBOTTOM
 10
0.0
 20
0.0
 30
0.0
  9
$PUCSORGLEFT
 10
0.0
 20
0.0
 30
0.0
  9
$PUCSORGRIGHT
 10
0.0
 20
0.0
 30
0.0
  9
$PUCSORGFRONT
 10
0.0
 20
0.0
 30
0.0
  9
$PUCSORGBACK
 10
0.0
 20
0.0
 30
0.0
  9
$USERI1
 70
     0
  9
$USERI2
 70
     0
  9
$USERI3
 70
     0
  9
$USERI4
 70
     0
  9
$USERI5
 70
     0
  9
$USERR1
 40
0.0
  9
$USERR2
 40
0.0
  9
$USERR3
 40
0.0
  9
$USERR4
 40
0.0
  9
$USERR5
 40
0.0
  9
$WORLDVIEW
 70
     1
  9
$SHADEDGE
 70
     3
  9
$SHADEDIF
 70
    70
  9
$TILEMODE
 70
     1
  9
$MAXACTVP
 70
    64
  9
$PINSBASE
 10
0.0
 20
0.0
 30
0.0
  9
$PLIMCHECK
 70
     0
  9
$PEXTMIN
 10
1.0000000000E+20
 20
1.0000000000E+20
 30
1.0000000000E+20
  9
$PEXTMAX
 10
-1.0000000000E+20
 20
-1.0000000000E+20
 30
-1.0000000000E+20
  9
$PLIMMIN
 10
0.0
 20
0.0
  9
$PLIMMAX
 10
420.0
 20
297.0
  9
$UNITMODE
 70
     0
  9
$VISRETAIN
 70
     1
  9
$PLINEGEN
 70
     0
  9
$PSLTSCALE
 70
     1
  9
$TREEDEPTH
 70
  3020
  9
$CMLSTYLE
  2
Standard
  9
$CMLJUST
 70
     0
  9
$CMLSCALE
 40
20.0
  9
$PROXYGRAPHICS
 70
     1
  9
$MEASUREMENT
 70
     1
  9
$CELWEIGHT
370
    -1
  9
$ENDCAPS
280
     0
  9
$JOINSTYLE
280
     0
  9
$LWDISPLAY
290
     1
  9
$INSUNITS
 70
     4
  9
$HYPERLINKBASE
  1

  9
$STYLESHEET
  1

  9
$XEDIT
290
     1
  9
$CEPSNTYPE
380
     0
  9
$PSTYLEMODE
290
     1
  9
$FINGERPRINTGUID
  2
{6BFE1E64-78E0-4595-8F13-934675ADC35E}
  9
$VERSIONGUID
  2
{FAEB1C32-E019-11D5-929B-00C0DF256EC4}
  9
$EXTNAMES
290
     1
  9
$PSVPSCALE
 40
0.0
  9
$OLESTARTUP
290
     0
  0
ENDSEC
  0
SECTION
  2
CLASSES
  0
CLASS
  1
ACDBDICTIONARYWDFLT
  2
AcDbDictionaryWithDefault
  3
ObjectDBX Classes
 90
        0
280
     0
281
     0
  0
CLASS
  1
VISUALSTYLE
  2
AcDbVisualStyle
  3
ObjectDBX Classes
 90
     4095
280
     0
281
     0
  0
CLASS
  1
MATERIAL
  2
AcDbMaterial
  3
ObjectDBX Classes
 90
     1153
280
     0
281
     0
  0
CLASS
  1
ACDBPLACEHOLDER
  2
AcDbPlaceHolder
  3
ObjectDBX Classes
 90
        0
280
     0
281
     0
  0
CLASS
  1
LAYOUT
  2
AcDbLayout
  3
ObjectDBX Classes
 90
        0
280
     0
281
     0
  0
ENDSEC
  0
SECTION
  2
TABLES
  0
TABLE
  2
VPORT
  5
8
330
0
100
AcDbSymbolTable
 70
     1
  0
VPORT
  5
29
330
8
100
AcDbSymbolTableRecord
100
AcDbViewportTableRecord
  2
*Active
 70
     0
 10
0.0
 20
0.0
 11
1.0
 21
1.0
 12
148.5
 22
105.0
 13
0.0
 23
0.0
 14
10.0
 24
10.0
 15
10.0
 25
10.0
 16
0.0
 26
0.0
 36
1.0
 17
0.0
 27
0.0
 37
0.0
 40
210.0
 41
1.4142857143
 42
50.0
 43
0.0
 44
0.0
 50
0.0
 51
0.0
 71
     0
 72
  2000
 73
     1
 74
     3
 75
     0
 76
     0
 77
     0
 78
     0
281
     0
 65
     1
110
0.0
120
0.0
130
0.0
111
1.0
121
0.0
131
0.0
112
0.0
122
1.0
132
0.0
 79
     0
146
0.0
  0
ENDTAB
  0
TABLE
  2
LTYPE
  5
5
330
0
100
AcDbSymbolTable
 70
     8
  0
LTYPE
  5
14
330
5
100
AcDbSymbolTableRecord
100
AcDbLinetypeTableRecord
  2
ByBlock
 70
     0
  3

 72
    65
 73
     0
 40
0.0
  0
LTYPE
  5
15
330
5
100
AcDbSymbolTableRecord
100
AcDbLinetypeTableRecord
  2
ByLayer
 70
     0
  3

 72
    65
 73
     0
 40
0.0
  0
LTYPE
  5
16
330
5
100
AcDbSymbolTableRecord
100
AcDbLinetypeTableRecord
  2
Continuous
 70
     0
  3
Solid line
 72
    65
 73
     0
 40
0.0
  0
LTYPE
  5
3F
330
5
100
AcDbSymbolTableRecord
100
AcDbLinetypeTableRecord
  2
SLD-Durchgehend
 70
     0
  3
SolidWorks Line Style
 72
    65
 73
     0
 40
0.0
  0
LTYPE
  5
40
330
5
100
AcDbSymbolTableRecord
100
AcDbLinetypeTableRecord
  2
SLD-Gestrichelt
 70
     0
  3
SolidWorks Line Style
 72
    65
 73
     2
 40
1.905
 49
1.27
 74
     0
 49
-0.635
 74
     0
  0
LTYPE
  5
41
330
5
100
AcDbSymbolTableRecord
100
AcDbLinetypeTableRecord
  2
SLD-Phantom
 70
     0
  3
SolidWorks Line Style
 72
    65
 73
     6
 40
12.7
 49
6.35
 74
     0
 49
-1.27
 74
     0
 49
1.27
 74
     0
 49
-1.27
 74
     0
 49
1.27
 74
     0
 49
-1.27
 74
     0
  0
LTYPE
  5
42
330
5
100
AcDbSymbolTableRecord
100
AcDbLinetypeTableRecord
  2
SLD-Kette
 70
     0
  3
SolidWorks Line Style
 72
    65
 73
     4
 40
10.16
 49
6.35
 74
     0
 49
-1.27
 74
     0
 49
1.27
 74
     0
 49
-1.27
 74
     0
  0
LTYPE
  5
43
330
5
100
AcDbSymbolTableRecord
100
AcDbLinetypeTableRecord
  2
SLD-Punktstrich
 70
     0
  3
SolidWorks Line Style
 72
    65
 73
     4
 40
19.05
 49
15.24
 74
     0
 49
-1.27
 74
     0
 49
1.27
 74
     0
 49
-1.27
 74
     0
  0
LTYPE
  5
44
330
5
100
AcDbSymbolTableRecord
100
AcDbLinetypeTableRecord
  2
SLD-Naht
 70
     0
  3
SolidWorks Line Style
 72
    65
 73
     2
 40
0.635
 49
0.0
 74
     0
 49
-0.635
 74
     0
  0
LTYPE
  5
45
330
5
100
AcDbSymbolTableRecord
100
AcDbLinetypeTableRecord
  2
SLD-Dicke-Dünne-Kette
 70
     0
  3
SolidWorks Line Style
 72
    65
 73
     4
 40
10.16
 49
6.35
 74
     0
 49
-1.27
 74
     0
 49
1.27
 74
     0
 49
-1.27
 74
     0
  0
ENDTAB
  0
TABLE
  2
LAYER
  5
2
330
0
100
AcDbSymbolTable
 70
     5
  0
LAYER
  5
10
330
2
100
AcDbSymbolTableRecord
100
AcDbLayerTableRecord
  2
0
 70
     0
 62
     7
  6
Continuous
370
    -3
390
F
  0
LAYER
  5
46
330
2
100
AcDbSymbolTableRecord
100
AcDbLayerTableRecord
  2
FORMAT
 70
     0
 62
     7
  6
SLD-Durchgehend
370
    -3
390
F
  0
LAYER
  5
47
330
2
100
AcDbSymbolTableRecord
100
AcDbLayerTableRecord
  2
VERMASSUNG
 70
     0
 62
     7
  6
SLD-Durchgehend
370
    -3
390
F
  0
LAYER
  5
48
330
2
100
AcDbSymbolTableRecord
100
AcDbLayerTableRecord
  2
KOPF_DÜNN
 70
     0
 62
     7
  6
SLD-Durchgehend
370
    -3
390
F
  0
LAYER
  5
49
330
2
100
AcDbSymbolTableRecord
100
AcDbLayerTableRecord
  2
KOPF_DICK
 70
     0
 62
     7
  6
SLD-Durchgehend
370
    15
390
F
  0
ENDTAB
  0
TABLE
  2
STYLE
  5
3
330
0
100
AcDbSymbolTable
 70
     2
  0
STYLE
  5
11
330
3
100
AcDbSymbolTableRecord
100
AcDbTextStyleTableRecord
  2
STANDARD
 70
     0
 40
0.0
 41
1.0
 50
0.0
 71
     0
 42
2.0
  3
ISOCPEUR.TTF
  4

1001
ACAD
1000
ISOCPEUR
1071
       34
  0
STYLE
  5
4A
330
3
100
AcDbSymbolTableRecord
100
AcDbTextStyleTableRecord
  2
SLDTEXTSTYLE0
 70
     0
 40
0.0
 41
1.0
 50
0.0
 71
     0
 42
0.2
  3
ISOCPEUR.TTF
  4

1001
ACAD
1000
ISOCPEUR
1071
      290
  0
ENDTAB
  0
TABLE
  2
VIEW
  5
6
330
0
100
AcDbSymbolTable
 70
     0
  0
ENDTAB
  0
TABLE
  2
UCS
  5
7
330
0
100
AcDbSymbolTable
 70
     0
  0
ENDTAB
  0
TABLE
  2
APPID
  5
9
330
0
100
AcDbSymbolTable
 70
     1
  0
APPID
  5
12
330
9
100
AcDbSymbolTableRecord
100
AcDbRegAppTableRecord
  2
ACAD
 70
     0
  0
ENDTAB
  0
TABLE
  2
DIMSTYLE
  5
A
330
0
100
AcDbSymbolTable
 70
     4
100
AcDbDimStyleTable
  0
DIMSTYLE
105
27
330
A
100
AcDbSymbolTableRecord
100
AcDbDimStyleTableRecord
  2
ISO-25
 70
     0
 41
2.5
 42
0.625
 43
3.75
 44
1.25
 73
     0
 74
     0
 77
     1
 78
     8
140
2.5
141
2.5
143
0.0393700787
147
0.625
171
     3
172
     1
178
     0
271
     2
272
     2
274
     3
278
    44
283
     0
284
     8
340
11
  0
DIMSTYLE
105
269
102
{ACAD_REACTORS
330
268
330
273
330
294
102
}
330
A
100
AcDbSymbolTableRecord
100
AcDbDimStyleTableRecord
  2
SLDDIMSTYLE0
 70
     0
 41
3.0
 44
0.0
 45
0.000000001
 73
     0
 74
     0
 77
     1
 78
    12
 79
     3
140
2.0
147
0.5
173
     1
178
     0
271
     2
272
     3
276
     2
284
    12
340
4A
  0
DIMSTYLE
105
27E
102
{ACAD_REACTORS
330
27D
330
289
102
}
330
A
100
AcDbSymbolTableRecord
100
AcDbDimStyleTableRecord
  2
SLDDIMSTYLE1
 70
     0
 41
3.0
 44
0.0
 45
0.000000001
 73
     0
 74
     0
 77
     1
 78
    12
 79
     3
140
2.0
147
0.5
172
     1
173
     1
178
     0
271
     2
272
     3
276
     2
284
    12
289
     0
340
4A
  0
DIMSTYLE
105
2A1
102
{ACAD_REACTORS
330
2A0
102
}
330
A
100
AcDbSymbolTableRecord
100
AcDbDimStyleTableRecord
  2
SLDDIMSTYLE2
 70
     0
 41
3.0
 44
0.0
 45
0.000000001
 73
     0
 74
     0
 77
     1
 78
    12
 79
     3
140
2.0
141
0.0
147
0.5
173
     1
178
     0
271
     2
272
     3
276
     2
279
     1
284
    12
340
4A
  0
ENDTAB
  0
TABLE
  2
BLOCK_RECORD
  5
1
330
0
100
AcDbSymbolTable
 70
     8
  0
BLOCK_RECORD
  5
1F
330
1
100
AcDbSymbolTableRecord
100
AcDbBlockTableRecord
  2
*Model_Space
340
22
  0
BLOCK_RECORD
  5
1B
330
1
100
AcDbSymbolTableRecord
100
AcDbBlockTableRecord
  2
*Paper_Space
340
1E
  0
BLOCK_RECORD
  5
23
330
1
100
AcDbSymbolTableRecord
100
AcDbBlockTableRecord
  2
*Paper_Space0
340
26
  0
BLOCK_RECORD
  5
26A
330
1
100
AcDbSymbolTableRecord
100
AcDbBlockTableRecord
  2
_D
340
0
  0
BLOCK_RECORD
  5
274
330
1
100
AcDbSymbolTableRecord
100
AcDbBlockTableRecord
  2
_D_1
340
0
  0
BLOCK_RECORD
  5
27F
330
1
100
AcDbSymbolTableRecord
100
AcDbBlockTableRecord
  2
_D_2
340
0
  0
BLOCK_RECORD
  5
28A
330
1
100
AcDbSymbolTableRecord
100
AcDbBlockTableRecord
  2
_D_3
340
0
  0
BLOCK_RECORD
  5
295
330
1
100
AcDbSymbolTableRecord
100
AcDbBlockTableRecord
  2
_D_4
340
0
  0
BLOCK_RECORD
  5
2A2
330
1
100
AcDbSymbolTableRecord
100
AcDbBlockTableRecord
  2
_D_5
340
0
  0
BLOCK_RECORD
  5
41B
330
1
100
AcDbSymbolTableRecord
100
AcDbBlockTableRecord
  2
SW_CENTERMARKSYMBOL_0
340
0
102
{BLKREFS
331
426
102
}
  0
ENDTAB
  0
ENDSEC
  0
SECTION
  2
BLOCKS
  0
BLOCK
  5
20
330
1F
100
AcDbEntity
  8
0
100
AcDbBlockBegin
  2
*Model_Space
 70
     0
 10
0.0
 20
0.0
 30
0.0
  3
*Model_Space
  1

  0
ENDBLK
  5
21
330
1F
100
AcDbEntity
  8
0
100
AcDbBlockEnd
  0
BLOCK
  5
1C
330
1B
100
AcDbEntity
 67
     1
  8
0
100
AcDbBlockBegin
  2
*Paper_Space
 70
     0
 10
0.0
 20
0.0
 30
0.0
  3
*Paper_Space
  1

  0
ENDBLK
  5
1D
330
1B
100
AcDbEntity
 67
     1
  8
0
100
AcDbBlockEnd
  0
BLOCK
  5
24
330
23
100
AcDbEntity
  8
0
100
AcDbBlockBegin
  2
*Paper_Space0
 70
     0
 10
0.0
 20
0.0
 30
0.0
  3
*Paper_Space0
  1

  0
ENDBLK
  5
25
330
23
100
AcDbEntity
  8
0
100
AcDbBlockEnd
  0
BLOCK
  5
26B
330
26A
100
AcDbEntity
  8
0
100
AcDbBlockBegin
  2
_D
 70
     0
 10
0.0
 20
0.0
 30
0.0
  3
_D
  1

  0
SOLID
  5
26D
330
26A
100
AcDbEntity
  8
VERMASSUNG
100
AcDbTrace
 10
164.1831856685
 20
150.1925625654
 30
0.0
 11
167.1831856685
 21
149.7425625654
 31
0.0
 12
167.1831856685
 22
150.6425625654
 32
0.0
 13
167.1831856685
 23
150.6425625654
 33
0.0
  0
SOLID
  5
26E
330
26A
100
AcDbEntity
  8
VERMASSUNG
100
AcDbTrace
 10
239.1831856685
 20
150.1925625654
 30
0.0
 11
236.1831856685
 21
150.6425625654
 31
0.0
 12
236.1831856685
 22
149.7425625654
 32
0.0
 13
236.1831856685
 23
149.7425625654
 33
0.0
  0
LINE
  5
26F
330
26A
100
AcDbEntity
  8
VERMASSUNG
100
AcDbLine
 10
164.1831856685
 20
138.2762750064
 30
0.0
 11
164.1831856685
 21
151.1925625654
 31
0.0
  0
LINE
  5
270
330
26A
100
AcDbEntity
  8
VERMASSUNG
100
AcDbLine
 10
239.1831856685
 20
130.847189764
 30
0.0
 11
239.1831856685
 21
151.1925625654
 31
0.0
  0
LINE
  5
271
330
26A
100
AcDbEntity
  8
VERMASSUNG
100
AcDbLine
 10
164.1831856685
 20
150.1925625654
 30
0.0
 11
239.1831856685
 21
150.1925625654
 31
0.0
  0
MTEXT
  5
272
330
26A
100
AcDbEntity
  8
VERMASSUNG
100
AcDbMText
 10
199.3831856175
 20
152.792562449
 30
0.1
 40
2.0
 41
0.0
 71
     1
 72
     1
  1
75
  7
SLDTEXTSTYLE0
 73
     1
 44
1.0
  0
ENDBLK
  5
26C
330
26A
100
AcDbEntity
  8
0
100
AcDbBlockEnd
  0
BLOCK
  5
275
330
274
100
AcDbEntity
  8
0
100
AcDbBlockBegin
  2
_D_1
 70
     0
 10
0.0
 20
0.0
 30
0.0
  3
_D_1
  1

  0
SOLID
  5
277
330
274
100
AcDbEntity
  8
VERMASSUNG
100
AcDbTrace
 10
164.1831856685
 20
154.5762750064
 30
0.0
 11
167.1831856685
 21
154.1262750064
 31
0.0
 12
167.1831856685
 22
155.0262750064
 32
0.0
 13
167.1831856685
 23
155.0262750064
 33
0.0
  0
SOLID
  5
278
330
274
100
AcDbEntity
  8
VERMASSUNG
100
AcDbTrace
 10
274.1831856685
 20
154.5762750064
 30
0.0
 11
271.1831856685
 21
155.0262750064
 31
0.0
 12
271.1831856685
 22
154.1262750064
 32
0.0
 13
271.1831856685
 23
154.1262750064
 33
0.0
  0
LINE
  5
279
330
274
100
AcDbEntity
  8
VERMASSUNG
100
AcDbLine
 10
164.1831856685
 20
138.2762750064
 30
0.0
 11
164.1831856685
 21
155.5762750064
 31
0.0
  0
LINE
  5
27A
330
274
100
AcDbEntity
  8
VERMASSUNG
100
AcDbLine
 10
274.1831856685
 20
144.0146326685
 30
0.0
 11
274.1831856685
 21
155.5762750064
 31
0.0
  0
LINE
  5
27B
330
274
100
AcDbEntity
  8
VERMASSUNG
100
AcDbLine
 10
164.1831856685
 20
154.5762750064
 30
0.0
 11
274.1831856685
 21
154.5762750064
 31
0.0
  0
MTEXT
  5
27C
330
274
100
AcDbEntity
  8
VERMASSUNG
100
AcDbMText
 10
216.5831854286
 20
157.17627489
 30
0.1
 40
2.0
 41
0.0
 71
     1
 72
     1
  1
110
  7
SLDTEXTSTYLE0
 73
     1
 44
1.0
  0
ENDBLK
  5
276
330
274
100
AcDbEntity
  8
0
100
AcDbBlockEnd
  0
BLOCK
  5
280
330
27F
100
AcDbEntity
  8
0
100
AcDbBlockBegin
  2
_D_2
 70
     0
 10
0.0
 20
0.0
 30
0.0
  3
_D_2
  1

  0
SOLID
  5
282
330
27F
100
AcDbEntity
  8
VERMASSUNG
100
AcDbTrace
 10
243.2579875229
 20
118.8544495994
 30
0.0
 11
242.8079875229
 21
115.8544495994
 31
0.0
 12
243.7079875229
 22
115.8544495994
 32
0.0
 13
243.7079875229
 23
115.8544495994
 33
0.0
  0
SOLID
  5
283
330
27F
100
AcDbEntity
  8
VERMASSUNG
100
AcDbTrace
 10
243.2579875229
 20
123.8544495994
 30
0.0
 11
243.7079875229
 21
126.8544495994
 31
0.0
 12
242.8079875229
 22
126.8544495994
 32
0.0
 13
242.8079875229
 23
126.8544495994
 33
0.0
  0
LINE
  5
284
330
27F
100
AcDbEntity
  8
VERMASSUNG
100
AcDbLine
 10
243.2579875229
 20
118.8544495994
 30
0.0
 11
243.2579875229
 21
112.8544495994
 31
0.0
  0
LINE
  5
285
330
27F
100
AcDbEntity
  8
VERMASSUNG
100
AcDbLine
 10
243.2579875229
 20
118.8544495994
 30
0.0
 11
243.2579875229
 21
123.8544495994
 31
0.0
  0
LINE
  5
286
330
27F
100
AcDbEntity
  8
VERMASSUNG
100
AcDbLine
 10
243.2579875229
 20
123.8544495994
 30
0.0
 11
243.2579875229
 21
136.0762751833
 31
0.0
  0
MTEXT
  5
287
330
27F
100
AcDbEntity
  8
VERMASSUNG
100
AcDbMText
 10
240.6579876393
 20
131.0762748294
 30
0.1
 40
2.0
 41
0.0
 71
     1
 72
     1
  1
M
  7
SLDTEXTSTYLE0
 11
6.123233995736766E-17
 21
1.0
 31
0.0
 73
     1
 44
1.0
  0
MTEXT
  5
288
330
27F
100
AcDbEntity
  8
VERMASSUNG
100
AcDbMText
 10
240.6579876393
 20
132.8762749149
 30
0.1
 40
2.0
 41
0.0
 71
     1
 72
     1
  1
5
  7
SLDTEXTSTYLE0
 11
6.123233995736766E-17
 21
1.0
 31
0.0
 73
     1
 44
1.0
  0
ENDBLK
  5
281
330
27F
100
AcDbEntity
  8
0
100
AcDbBlockEnd
  0
BLOCK
  5
28B
330
28A
100
AcDbEntity
  8
0
100
AcDbBlockBegin
  2
_D_3
 70
     0
 10
0.0
 20
0.0
 30
0.0
  3
_D_3
  1

  0
SOLID
  5
28D
330
28A
100
AcDbEntity
  8
VERMASSUNG
100
AcDbTrace
 10
202.4921556227
 20
97.5762750064
 30
0.0
 11
202.0421556227
 21
94.5762750064
 31
0.0
 12
202.9421556227
 22
94.5762750064
 32
0.0
 13
202.9421556227
 23
94.5762750064
 33
0.0
  0
SOLID
  5
28E
330
28A
100
AcDbEntity
  8
VERMASSUNG
100
AcDbTrace
 10
202.4921556227
 20
129.5762750064
 30
0.0
 11
202.9421556227
 21
132.5762750064
 31
0.0
 12
202.0421556227
 22
132.5762750064
 32
0.0
 13
202.0421556227
 23
132.5762750064
 33
0.0
  0
LINE
  5
28F
330
28A
100
AcDbEntity
  8
VERMASSUNG
100
AcDbLine
 10
202.4921556227
 20
97.5762750064
 30
0.0
 11
202.4921556227
 21
91.5762750064
 31
0.0
  0
LINE
  5
290
330
28A
100
AcDbEntity
  8
VERMASSUNG
100
AcDbLine
 10
202.4921556227
 20
97.5762750064
 30
0.0
 11
202.4921556227
 21
129.5762750064
 31
0.0
  0
LINE
  5
291
330
28A
100
AcDbEntity
  8
VERMASSUNG
100
AcDbLine
 10
202.4921556227
 20
129.5762750064
 30
0.0
 11
202.4921556227
 21
142.1638810385
 31
0.0
  0
MTEXT
  5
292
330
28A
100
AcDbEntity
  8
VERMASSUNG
100
AcDbMText
 10
199.8921556227
 20
133.9538813878
 30
0.1
 40
2.0
 41
0.0
 71
     1
 72
     1
  1
%%c
  7
SLDTEXTSTYLE0
 11
6.123233995736766E-17
 21
1.0
 31
0.0
 73
     1
 44
1.0
  0
MTEXT
  5
293
330
28A
100
AcDbEntity
  8
VERMASSUNG
100
AcDbMText
 10
199.6921556132
 20
137.5638814021
 30
0.1
 40
2.0
 41
0.0
 71
     1
 72
     1
  1
32
  7
SLDTEXTSTYLE0
 11
6.123233995736766E-17
 21
1.0
 31
0.0
 73
     1
 44
1.0
  0
ENDBLK
  5
28C
330
28A
100
AcDbEntity
  8
0
100
AcDbBlockEnd
  0
BLOCK
  5
296
330
295
100
AcDbEntity
  8
0
100
AcDbBlockBegin
  2
_D_4
 70
     0
 10
0.0
 20
0.0
 30
0.0
  3
_D_4
  1

  0
SOLID
  5
298
330
295
100
AcDbEntity
  8
VERMASSUNG
100
AcDbTrace
 10
127.919601507
 20
138.5762750064
 30
0.0
 11
127.469601507
 21
135.5762750064
 31
0.0
 12
128.369601507
 22
135.5762750064
 32
0.0
 13
128.369601507
 23
135.5762750064
 33
0.0
  0
SOLID
  5
299
330
295
100
AcDbEntity
  8
VERMASSUNG
100
AcDbTrace
 10
127.919601507
 20
88.5762750064
 30
0.0
 11
128.369601507
 21
91.5762750064
 31
0.0
 12
127.469601507
 22
91.5762750064
 32
0.0
 13
127.469601507
 23
91.5762750064
 33
0.0
  0
LINE
  5
29A
330
295
100
AcDbEntity
  8
VERMASSUNG
100
AcDbLine
 10
164.4831856685
 20
138.5762750064
 30
0.0
 11
126.919601507
 21
138.5762750064
 31
0.0
  0
LINE
  5
29B
330
295
100
AcDbEntity
  8
VERMASSUNG
100
AcDbLine
 10
164.4831856685
 20
88.5762750064
 30
0.0
 11
126.919601507
 21
88.5762750064
 31
0.0
  0
LINE
  5
29C
330
295
100
AcDbEntity
  8
VERMASSUNG
100
AcDbLine
 10
127.919601507
 20
138.5762750064
 30
0.0
 11
127.919601507
 21
88.5762750064
 31
0.0
  0
MTEXT
  5
29D
330
295
100
AcDbEntity
  8
VERMASSUNG
100
AcDbMText
 10
125.1196014975
 20
106.5712745194
 30
0.1
 40
2.0
 41
0.0
 71
     1
 72
     1
  1
PSC 
  7
SLDTEXTSTYLE0
 11
-7.044195017643634E-15
 21
1.0
 31
0.0
 73
     1
 44
1.0
  0
MTEXT
  5
29E
330
295
100
AcDbEntity
  8
VERMASSUNG
100
AcDbMText
 10
125.319601507
 20
112.3712749113
 30
0.1
 40
2.0
 41
0.0
 71
     1
 72
     1
  1
%%c
  7
SLDTEXTSTYLE0
 11
-7.044195017643634E-15
 21
1.0
 31
0.0
 73
     1
 44
1.0
  0
MTEXT
  5
29F
330
295
100
AcDbEntity
  8
VERMASSUNG
100
AcDbMText
 10
125.1196014975
 20
115.9812749256
 30
0.1
 40
2.0
 41
0.0
 71
     1
 72
     1
  1
50
  7
SLDTEXTSTYLE0
 11
-7.044195017643634E-15
 21
1.0
 31
0.0
 73
     1
 44
1.0
  0
ENDBLK
  5
297
330
295
100
AcDbEntity
  8
0
100
AcDbBlockEnd
  0
BLOCK
  5
2A3
330
2A2
100
AcDbEntity
  8
0
100
AcDbBlockBegin
  2
_D_5
 70
     0
 10
0.0
 20
0.0
 30
0.0
  3
_D_5
  1

  0
SOLID
  5
2A5
330
2A2
100
AcDbEntity
  8
VERMASSUNG
100
AcDbTrace
 10
185.1630214377
 20
130.953564954
 30
0.0
 11
187.7231994917
 21
132.5808290173
 31
0.0
 12
187.1330897299
 22
133.2603659693
 32
0.0
 13
187.1330897299
 23
133.2603659693
 33
0.0
  0
LINE
  5
2A6
330
2A2
100
AcDbEntity
  8
VERMASSUNG
100
AcDbLine
 10
185.1630214377
 20
130.953564954
 30
0.0
 11
191.5808705618
 21
136.5268239313
 31
0.0
  0
MTEXT
  5
2A7
330
2A2
100
AcDbEntity
  8
VERMASSUNG
100
AcDbMText
 10
186.1009035483
 20
135.211542796
 30
0.1
 40
2.0
 41
0.0
 71
     1
 72
     1
  1
R4
  7
SLDTEXTSTYLE0
 11
0.7550410577080355
 21
0.6556775130924736
 31
0.0
 73
     1
 44
1.0
  0
ENDBLK
  5
2A4
330
2A2
100
AcDbEntity
  8
0
100
AcDbBlockEnd
  0
BLOCK
  5
41C
330
41B
100
AcDbEntity
  8
0
100
AcDbBlockBegin
  2
SW_CENTERMARKSYMBOL_0
 70
     0
 10
0.0
 20
0.0
 30
0.0
  3
SW_CENTERMARKSYMBOL_0
  1

  0
LINE
  5
41E
330
41B
100
AcDbEntity
  8
VERMASSUNG
 62
     0
100
AcDbLine
 10
0.0
 20
0.0
 30
0.0
 11
0.0
 21
2.5
 31
0.0
  0
LINE
  5
41F
330
41B
100
AcDbEntity
  8
VERMASSUNG
 62
     0
100
AcDbLine
 10
0.0
 20
0.0
 30
0.0
 11
-2.5
 21
0.0
 31
0.0
  0
LINE
  5
420
330
41B
100
AcDbEntity
  8
VERMASSUNG
 62
     0
100
AcDbLine
 10
0.0
 20
0.0
 30
0.0
 11
0.0
 21
-2.5
 31
0.0
  0
LINE
  5
421
330
41B
100
AcDbEntity
  8
VERMASSUNG
 62
     0
100
AcDbLine
 10
0.0
 20
0.0
 30
0.0
 11
2.5
 21
0.0
 31
0.0
  0
LINE
  5
422
330
41B
100
AcDbEntity
  8
VERMASSUNG
 62
     0
100
AcDbLine
 10
0.0
 20
5.0
 30
0.0
 11
0.0
 21
34.0
 31
0.0
  0
LINE
  5
423
330
41B
100
AcDbEntity
  8
VERMASSUNG
 62
     0
100
AcDbLine
 10
-5.0
 20
0.0
 30
0.0
 11
-34.0
 21
0.0
 31
0.0
  0
LINE
  5
424
330
41B
100
AcDbEntity
  8
VERMASSUNG
 62
     0
100
AcDbLine
 10
0.0
 20
-5.0
 30
0.0
 11
0.0
 21
-34.0
 31
0.0
  0
LINE
  5
425
330
41B
100
AcDbEntity
  8
VERMASSUNG
 62
     0
100
AcDbLine
 10
5.0
 20
0.0
 30
0.0
 11
34.0
 21
0.0
 31
0.0
  0
ENDBLK
  5
41D
330
41B
100
AcDbEntity
  8
0
100
AcDbBlockEnd
  0
ENDSEC
  0
SECTION
  2
ENTITIES
  0
MTEXT
  5
4B
330
1F
100
AcDbEntity
  8
KOPF_DÜNN
100
AcDbMText
 10
13.8892156294
 20
23.8770940835
 30
0.0
 40
3.0
 41
0.0
 71
     1
 72
     1
  1
PS5.WK2.032.110
  7
SLDTEXTSTYLE0
 73
     1
 44
1.0
  0
MTEXT
  5
4C
330
1F
100
AcDbEntity
  8
VERMASSUNG
100
AcDbMText
 10
13.9329988022
 20
28.9162328764
 30
0.0
 40
3.0
 41
0.0
 71
     1
 72
     1
  1
Bohrstange  ø32
  7
SLDTEXTSTYLE0
 73
     1
 44
1.0
  0
MTEXT
  5
4D
330
1F
100
AcDbEntity
  8
VERMASSUNG
100
AcDbMText
 10
98.8601118557
 20
13.8584013384
 30
0.0
 40
2.0
 41
0.0
 71
     1
 72
     1
  1
Datum: 06.05.2015
  7
SLDTEXTSTYLE0
 73
     1
 44
1.0
  0
MTEXT
  5
4E
330
1F
100
AcDbEntity
  8
VERMASSUNG
100
AcDbMText
 10
13.933048693
 20
18.0701447943
 30
0.0
 40
2.0
 41
0.0
 71
     1
 72
     1
  1
PSC ø50 / Wechselkopf-Bohrstange
  7
SLDTEXTSTYLE0
 73
     1
 44
1.0
  0
MTEXT
  5
4F
330
1F
100
AcDbEntity
  8
VERMASSUNG
100
AcDbMText
 10
13.9808475933
 20
13.9309618897
 30
0.0
 40
2.0
 41
0.0
 71
     1
 72
     1
  1
Gewicht: 749g
  7
SLDTEXTSTYLE0
 73
     1
 44
1.0
  0
LINE
  5
50
330
1F
100
AcDbEntity
  8
0
  6
SLD-Durchgehend
 62
     7
370
    15
100
AcDbLine
 10
249.3331891017
 20
110.0481005278
 30
0.0
 11
244.5831832009
 21
110.0481005278
 31
0.0
  0
LINE
  5
51
330
1F
100
AcDbEntity
  8
0
  6
SLD-Durchgehend
 62
     7
370
    15
100
AcDbLine
 10
244.5831832009
 20
101.5481005316
 30
0.0
 11
249.3331891017
 21
101.5481005316
 31
0.0
  0
ARC
  5
52
330
1F
100
AcDbEntity
  8
0
  6
SLD-Durchgehend
 62
     7
370
    15
100
AcDbCircle
 10
249.3331856685
 20
109.7981004133
 30
0.0
 40
0.25
100
AcDbArc
 50
0.0
 51
90.0
  0
ARC
  5
53
330
1F
100
AcDbEntity
  8
0
  6
SLD-Durchgehend
 62
     7
370
    15
100
AcDbCircle
 10
249.3331856685
 20
101.7981004133
 30
0.0
 40
0.25
100
AcDbArc
 50
270.0
 51
0.0
  0
ARC
  5
54
330
1F
100
AcDbEntity
  8
0
  6
SLD-Durchgehend
 62
     7
370
    15
100
AcDbCircle
 10
244.3831856685
 20
103.0981004133
 30
0.0
 40
0.2000000000000028
100
AcDbArc
 50
0.0
 51
90.0
  0
ARC
  5
55
330
1F
100
AcDbEntity
  8
0
  6
SLD-Durchgehend
 62
     7
370
    15
100
AcDbCircle
 10
244.3831856685
 20
108.4981004133
 30
0.0
 40
0.1999999999999886
100
AcDbArc
 50
270.0
 51
0.0
  0
LINE
  5
56
330
1F
100
AcDbEntity
  8
0
  6
SLD-Durchgehend
 62
     7
370
    15
100
AcDbLine
 10
244.3831872659
 20
108.298100241
 30
0.0
 11
239.5831879692
 21
108.298100241
 31
0.0
  0
LINE
  5
57
330
1F
100
AcDbEntity
  8
0
  6
SLD-Durchgehend
 62
     7
370
    15
100
AcDbLine
 10
238.9173966365
 20
103.2981003527
 30
0.0
 11
244.3831872659
 21
103.2981003527
 31
0.0
  0
ARC
  5
58
330
1F
100
AcDbEntity
  8
0
  6
SLD-Durchgehend
 62
     7
370
    15
100
AcDbCircle
 10
249.3331856685
 20
125.3544495994
 30
0.0
 40
0.25
100
AcDbArc
 50
0.0
 51
90.0
  0
ARC
  5
59
330
1F
100
AcDbEntity
  8
0
  6
SLD-Durchgehend
 62
     7
370
    15
100
AcDbCircle
 10
249.3331856685
 20
117.3544495994
 30
0.0
 40
0.25
100
AcDbArc
 50
270.0
 51
0.0
  0
LINE
  5
5A
330
1F
100
AcDbEntity
  8
0
  6
SLD-Durchgehend
 62
     7
370
    15
100
AcDbLine
 10
249.3331891017
 20
125.6044494812
 30
0.0
 11
244.5831832009
 21
125.6044494812
 31
0.0
  0
LINE
  5
5B
330
1F
100
AcDbEntity
  8
0
  6
SLD-Durchgehend
 62
     7
370
    15
100
AcDbLine
 10
244.5831832009
 20
117.1044494849
 30
0.0
 11
249.3331891017
 21
117.1044494849
 31
0.0
  0
ARC
  5
5C
330
1F
100
AcDbEntity
  8
0
  6
SLD-Durchgehend
 62
     7
370
    15
100
AcDbCircle
 10
244.3831856685
 20
118.6544495994
 30
0.0
 40
0.1999999999999886
100
AcDbArc
 50
0.0
 51
90.0
  0
ARC
  5
5D
330
1F
100
AcDbEntity
  8
0
  6
SLD-Durchgehend
 62
     7
370
    15
100
AcDbCircle
 10
244.3831856685
 20
124.0544495994
 30
0.0
 40
0.2000000000000028
100
AcDbArc
 50
270.0
 51
0.0
  0
LINE
  5
5E
330
1F
100
AcDbEntity
  8
0
  6
SLD-Durchgehend
 62
     7
370
    15
100
AcDbLine
 10
244.3831872659
 20
123.85444966
 30
0.0
 11
238.9173966365
 21
123.85444966
 31
0.0
  0
LINE
  5
5F
330
1F
100
AcDbEntity
  8
0
  6
SLD-Durchgehend
 62
     7
370
    15
100
AcDbLine
 10
239.5831879692
 20
118.8544497718
 30
0.0
 11
244.3831872659
 21
118.8544497718
 31
0.0
  0
ARC
  5
60
330
1F
100
AcDbEntity
  8
0
  6
SLD-Durchgehend
 62
     7
370
    15
100
AcDbCircle
 10
183.5831856685
 20
89.1762750064
 30
0.0
 40
0.6000000000000227
100
AcDbArc
 50
270.0
 51
0.0
  0
ARC
  5
61
330
1F
100
AcDbEntity
  8
0
  6
SLD-Durchgehend
 62
     7
370
    15
100
AcDbCircle
 10
183.5831856685
 20
137.9762750064
 30
0.0
 40
0.6000000000000227
100
AcDbArc
 50
0.0
 51
90.0
  0
ARC
  5
62
330
1F
100
AcDbEntity
  8
0
  6
SLD-Durchgehend
 62
     7
370
    15
100
AcDbCircle
 10
164.4831856685
 20
88.8762750064
 30
0.0
 40
0.3000000000000114
100
AcDbArc
 50
180.0
 51
270.0
  0
ARC
  5
63
330
1F
100
AcDbEntity
  8
0
  6
SLD-Durchgehend
 62
     7
370
    15
100
AcDbCircle
 10
164.4831856685
 20
138.2762750064
 30
0.0
 40
0.3000000000000114
100
AcDbArc
 50
90.0
 51
180.0
  0
LINE
  5
64
330
1F
100
AcDbEntity
  8
0
  6
SLD-Durchgehend
 62
     7
370
    15
100
AcDbLine
 10
178.1584520357
 20
88.5762746339
 30
0.0
 11
183.5831862407
 21
88.5762746339
 31
0.0
  0
LINE
  5
65
330
1F
100
AcDbEntity
  8
0
  6
SLD-Durchgehend
 62
     7
370
    15
100
AcDbLine
 10
164.4831856827
 20
88.5762746339
 30
0.0
 11
174.183185445
 21
88.5762746339
 31
0.0
  0
LINE
  5
66
330
1F
100
AcDbEntity
  8
0
  6
SLD-Durchgehend
 62
     7
370
    15
100
AcDbLine
 10
183.5831862407
 20
138.5762753789
 30
0.0
 11
164.4831856827
 21
138.5762753789
 31
0.0
  0
ARC
  5
67
330
1F
100
AcDbEntity
  8
0
  6
SLD-Durchgehend
 62
     7
370
    15
100
AcDbCircle
 10
188.1831856685
 20
93.5762750064
 30
0.0
 40
4.000000000000014
100
AcDbArc
 50
90.0
 51
180.0
  0
ARC
  5
68
330
1F
100
AcDbEntity
  8
0
  6
SLD-Durchgehend
 62
     7
370
    15
100
AcDbCircle
 10
188.1831856685
 20
133.5762750064
 30
0.0
 40
4.0
100
AcDbArc
 50
180.0
 51
270.0
  0
LWPOLYLINE
  5
69
330
1F
100
AcDbEntity
  8
0
  6
SLD-Durchgehend
 62
     7
370
    15
100
AcDbPolyline
 90
        3
 70
   128
 43
0.0
 10
163.9831856735
 20
95.7364539509
 10
164.1086406087
 20
95.6681526159
 10
164.1831856685
 20
95.6154155438
  0
ARC
  5
6A
330
1F
100
AcDbEntity
  8
0
  6
SLD-Durchgehend
 62
     7
370
    15
100
AcDbCircle
 10
163.5689721061
 20
132.3262750064
 30
0.0
 40
0.999999999999988
100
AcDbArc
 50
225.0
 51
307.8947985336
  0
LINE
  5
6B
330
1F
100
AcDbEntity
  8
0
  6
SLD-Durchgehend
 62
     7
370
    15
100
AcDbLine
 10
238.4831842499
 20
97.5762742464
 30
0.0
 11
239.1316753345
 21
98.2247671937
 31
0.0
  0
LINE
  5
6C
330
1F
100
AcDbEntity
  8
0
  6
SLD-Durchgehend
 62
     7
370
    15
100
AcDbLine
 10
239.1316753345
 20
128.9277828191
 30
0.0
 11
238.4831842499
 21
129.5762757663
 31
0.0
  0
LINE
  5
6D
330
1F
100
AcDbEntity
  8
0
  6
SLD-Durchgehend
 62
     7
370
    15
100
AcDbLine
 10
238.4831842499
 20
129.5762757663
 30
0.0
 11
188.1831858771
 21
129.5762757663
 31
0.0
  0
LINE
  5
6E
330
1F
100
AcDbEntity
  8
0
  6
SLD-Durchgehend
 62
     7
370
    15
100
AcDbLine
 10
188.1831858771
 20
97.5762742464
 30
0.0
 11
238.4831842499
 21
97.5762742464
 31
0.0
  0
LINE
  5
6F
330
1F
100
AcDbEntity
  8
0
  6
SLD-Durchgehend
 62
     7
370
    15
100
AcDbLine
 10
153.6098162176
 20
97.3865452115
 30
0.0
 11
161.9831856804
 21
97.1761762057
 31
0.0
  0
LINE
  5
70
330
1F
100
AcDbEntity
  8
0
  6
SLD-Durchgehend
 62
     7
370
    15
100
AcDbLine
 10
141.5402099954
 20
97.6897745286
 30
0.0
 11
146.9462376552
 21
97.5539560323
 31
0.0
  0
ARC
  5
71
330
1F
100
AcDbEntity
  8
0
  6
SLD-Durchgehend
 62
     7
370
    15
100
AcDbCircle
 10
162.1831225794
 20
97.1711531107
 30
0.0
 40
0.2000000000000048
100
AcDbArc
 50
88.5608333333
 51
178.5608333333
  0
LINE
  5
72
330
1F
100
AcDbEntity
  8
0
  6
SLD-Durchgehend
 62
     7
370
    15
100
AcDbLine
 10
162.1881457975
 20
97.3710908447
 30
0.0
 11
163.7882087669
 21
97.3308912371
 31
0.0
  0
ARC
  5
73
330
1F
100
AcDbEntity
  8
0
  6
SLD-Durchgehend
 62
     7
370
    15
100
AcDbCircle
 10
163.7831856685
 20
97.1309539565
 30
0.0
 40
0.2000000000000208
100
AcDbArc
 50
0.0
 51
88.5608333333
  0
LINE
  5
74
330
1F
100
AcDbEntity
  8
0
  6
SLD-Durchgehend
 62
     7
370
    15
100
AcDbLine
 10
161.9831856804
 20
132.2163740997
 30
0.0
 11
135.6831856536
 21
131.55562681
 31
0.0
  0
ARC
  5
75
330
1F
100
AcDbEntity
  8
0
  6
SLD-Durchgehend
 62
     7
370
    15
100
AcDbCircle
 10
162.1831225794
 20
132.2213969021
 30
0.0
 40
0.2000000000000045
100
AcDbArc
 50
181.4391666666
 51
271.4391666667
  0
LINE
  5
76
330
1F
100
AcDbEntity
  8
0
  6
SLD-Durchgehend
 62
     7
370
    15
100
AcDbLine
 10
162.4624594113
 20
132.0283512478
 30
0.0
 11
162.1881457975
 21
132.0214594607
 31
0.0
  0
LINE
  5
77
330
1F
100
AcDbEntity
  8
0
  6
SLD-Durchgehend
 62
     7
370
    15
100
AcDbLine
 10
135.6831856536
 20
131.55562681
 30
0.0
 11
134.183186339
 21
130.6896011238
 31
0.0
  0
LINE
  5
78
330
1F
100
AcDbEntity
  8
0
  6
SLD-Durchgehend
 62
     7
370
    15
100
AcDbLine
 10
162.8618653629
 20
131.6191690867
 30
0.0
 11
162.469304283
 21
132.0117290025
 31
0.0
  0
LINE
  5
79
330
1F
100
AcDbEntity
  8
0
  6
SLD-Durchgehend
 62
     7
370
    15
100
AcDbLine
 10
244.5831832009
 20
110.0481005278
 30
0.0
 11
244.5831832009
 21
101.5481005316
 31
0.0
  0
LINE
  5
7A
330
1F
100
AcDbEntity
  8
0
  6
SLD-Durchgehend
 62
     7
370
    15
100
AcDbLine
 10
249.5831858831
 20
109.7981004868
 30
0.0
 11
249.5831858831
 21
101.7981001069
 31
0.0
  0
LINE
  5
7B
330
1F
100
AcDbEntity
  8
0
  6
SLD-Durchgehend
 62
     7
370
    15
100
AcDbLine
 10
249.5831858831
 20
117.8979707775
 30
0.0
 11
249.5831858831
 21
117.3544495259
 31
0.0
  0
LINE
  5
7C
330
1F
100
AcDbEntity
  8
0
  6
SLD-Durchgehend
 62
     7
370
    15
100
AcDbLine
 10
249.5831858831
 20
125.3544499059
 30
0.0
 11
249.5831858831
 21
117.8979707775
 31
0.0
  0
LINE
  5
7D
330
1F
100
AcDbEntity
  8
0
  6
SLD-Durchgehend
 62
     7
370
    15
100
AcDbLine
 10
244.5831832009
 20
117.6819407274
 30
0.0
 11
244.5831832009
 21
117.1044494849
 31
0.0
  0
LINE
  5
7E
330
1F
100
AcDbEntity
  8
0
  6
SLD-Durchgehend
 62
     7
370
    15
100
AcDbLine
 10
244.5831832009
 20
125.6044494812
 30
0.0
 11
244.5831832009
 21
117.6819407274
 31
0.0
  0
LINE
  5
7F
330
1F
100
AcDbEntity
  8
0
  6
SLD-Durchgehend
 62
     7
370
    15
100
AcDbLine
 10
184.1831852215
 20
113.5762750064
 30
0.0
 11
184.1831852215
 21
89.1762754773
 31
0.0
  0
LINE
  5
80
330
1F
100
AcDbEntity
  8
0
  6
SLD-Durchgehend
 62
     7
370
    15
100
AcDbLine
 10
184.1831852215
 20
137.9762745355
 30
0.0
 11
184.1831852215
 21
113.5762750064
 31
0.0
  0
LINE
  5
81
330
1F
100
AcDbEntity
  8
0
  6
SLD-Durchgehend
 62
     7
370
    15
100
AcDbLine
 10
164.1831856685
 20
113.5762750064
 30
0.0
 11
164.1831856685
 21
138.2762758885
 31
0.0
  0
LINE
  5
82
330
1F
100
AcDbEntity
  8
0
  6
SLD-Durchgehend
 62
     7
370
    15
100
AcDbLine
 10
164.1831856685
 20
88.8762741242
 30
0.0
 11
164.1831856685
 21
113.5762750064
 31
0.0
  0
ARC
  5
83
330
1F
100
AcDbEntity
  8
0
  6
SLD-Durchgehend
 62
     7
370
    15
100
AcDbCircle
 10
176.1831208456
 20
63.6198260265
 30
0.0
 40
25.03645479494861
100
AcDbArc
 50
85.4747630076
 51
94.581721871
  0
ARC
  5
84
330
1F
100
AcDbEntity
  8
0
  6
SLD-Durchgehend
 62
     7
370
    15
100
AcDbCircle
 10
172.6764295354
 20
90.2892595399
 30
0.0
 40
0.540818258592134
100
AcDbArc
 50
222.5365258507
 51
273.658867817
  0
LINE
  5
85
330
1F
100
AcDbEntity
  8
0
  6
SLD-Durchgehend
 62
     7
370
    15
100
AcDbLine
 10
175.6554285528
 20
89.7495436375
 30
0.0
 11
172.7109423371
 21
89.7495436375
 31
0.0
  0
ARC
  5
86
330
1F
100
AcDbEntity
  8
0
  6
SLD-Durchgehend
 62
     7
370
    15
100
AcDbCircle
 10
175.6734949617
 20
90.3301664758
 30
0.0
 40
0.5809038435612908
100
AcDbArc
 50
268.2177843505
 51
315.5868219818
  0
ELLIPSE
  5
87
330
1F
100
AcDbEntity
  8
0
  6
SLD-Durchgehend
 62
     7
370
    15
100
AcDbEllipse
 10
163.1269280135
 20
113.5762750064
 30
0.0
 11
-11.70927234972723
 21
24.6771864409374
 31
0.0
210
0.0
220
0.0
230
1.0
 40
0.3419987131
 41
3.310521928178947
 42
4.221709151398937
  0
ARC
  5
88
330
1F
100
AcDbEntity
  8
0
  6
SLD-Durchgehend
 62
     7
370
    15
100
AcDbCircle
 10
175.4743329241
 20
105.4173492386
 30
0.0
 40
0.6172779654842481
100
AcDbArc
 50
5.8086897983
 51
72.9397135828
  0
LINE
  5
89
330
1F
100
AcDbEntity
  8
0
  6
SLD-Durchgehend
 62
     7
370
    15
100
AcDbLine
 10
172.7109423371
 20
106.0074648713
 30
0.0
 11
175.6554285528
 21
106.0074648713
 31
0.0
  0
LWPOLYLINE
  5
8A
330
1F
100
AcDbEntity
  8
0
  6
SLD-Durchgehend
 62
     7
370
    15
100
AcDbPolyline
 90
        6
 70
   128
 43
0.0
 10
172.277929494
 20
105.479822204
 10
172.4109242203
 20
105.7986977403
 10
172.4900251718
 20
105.9004382123
 10
172.5954257416
 20
105.9794022594
 10
172.6757420691
 20
106.0048934896
 10
172.7109423371
 20
106.0074648713
  0
ELLIPSE
  5
8B
330
1F
100
AcDbEntity
  8
0
  6
SLD-Durchgehend
 62
     7
370
    15
100
AcDbEllipse
 10
185.2394433235
 20
113.5762750064
 30
0.0
 11
11.70927234972711
 21
24.67718644093743
 31
0.0
210
0.0
220
0.0
230
1.0
 40
0.3419987131
 41
2.06147615578066
 42
2.972663379000677
  0
ARC
  5
8C
330
1F
100
AcDbEntity
  8
0
  6
SLD-Durchgehend
 62
     7
370
    15
100
AcDbCircle
 10
172.8920379659
 20
121.7352007742
 30
0.0
 40
0.6172779654842209
100
AcDbArc
 50
185.8086897983
 51
252.9397135828
  0
LINE
  5
8D
330
1F
100
AcDbEntity
  8
0
  6
SLD-Durchgehend
 62
     7
370
    15
100
AcDbLine
 10
175.6554285528
 20
121.1450851415
 30
0.0
 11
172.7109423371
 21
121.1450851415
 31
0.0
  0
LWPOLYLINE
  5
8E
330
1F
100
AcDbEntity
  8
0
  6
SLD-Durchgehend
 62
     7
370
    15
100
AcDbPolyline
 90
        6
 70
   128
 43
0.0
 10
176.088441396
 20
121.6727278088
 10
175.9645158889
 20
121.3685052362
 10
175.8856626691
 20
121.2619484295
 10
175.7797088938
 20
121.1776437131
 10
175.6992752196
 20
121.1490777214
 10
175.6554285528
 20
121.1450851415
  0
ELLIPSE
  5
8F
330
1F
100
AcDbEntity
  8
0
  6
SLD-Durchgehend
 62
     7
370
    15
100
AcDbEllipse
 10
163.1269280135
 20
113.5762750064
 30
0.0
 11
11.70927234972717
 21
24.6771864409374
 31
0.0
210
0.0
220
0.0
230
1.0
 40
0.3419987131
 41
5.20306880937046
 42
6.114256032590505
  0
ARC
  5
90
330
1F
100
AcDbEntity
  8
0
  6
SLD-Durchgehend
 62
     7
370
    15
100
AcDbCircle
 10
175.6899413546
 20
136.8632904729
 30
0.0
 40
0.5408182585921131
100
AcDbArc
 50
42.5365258507
 51
93.658867817
  0
LINE
  5
91
330
1F
100
AcDbEntity
  8
0
  6
SLD-Durchgehend
 62
     7
370
    15
100
AcDbLine
 10
172.7109423371
 20
137.4030063753
 30
0.0
 11
175.6554285528
 21
137.4030063753
 31
0.0
  0
ARC
  5
92
330
1F
100
AcDbEntity
  8
0
  6
SLD-Durchgehend
 62
     7
370
    15
100
AcDbCircle
 10
172.6917034441
 20
136.8252998443
 30
0.0
 40
0.5780267908219665
100
AcDbArc
 50
88.0926299303
 51
135.7119764019
  0
ELLIPSE
  5
93
330
1F
100
AcDbEntity
  8
0
  6
SLD-Durchgehend
 62
     7
370
    15
100
AcDbEllipse
 10
185.2394433235
 20
113.5762750064
 30
0.0
 11
-11.70927234972703
 21
24.67718644093741
 31
0.0
210
0.0
220
0.0
230
1.0
 40
0.3419987131
 41
0.1689292745891252
 42
1.08011649780914
  0
LINE
  5
94
330
1F
100
AcDbEntity
  8
0
  6
SLD-Durchgehend
 62
     7
370
    15
100
AcDbLine
 10
163.9831856735
 20
99.9905100916
 30
0.0
 11
163.9831856735
 21
95.7364539509
 31
0.0
  0
LWPOLYLINE
  5
95
330
1F
100
AcDbEntity
  8
0
  6
SLD-Durchgehend
 62
     7
370
    15
100
AcDbPolyline
 90
        9
 70
   128
 43
0.0
 10
163.9831856735
 20
99.9905100916
 10
163.9461995363
 20
100.2995210592
 10
163.9253823958
 20
100.3551377808
 10
163.8912000051
 20
100.410490938
 10
163.8689738755
 20
100.4313628082
 10
163.8509616894
 20
100.4417889644
 10
163.8306578387
 20
100.4475985546
 10
163.8131191719
 20
100.4480400015
 10
163.7882087669
 20
100.4418671955
  0
ARC
  5
96
330
1F
100
AcDbEntity
  8
0
  6
SLD-Durchgehend
 62
     7
370
    15
100
AcDbCircle
 10
163.5989962007
 20
100.9744929024
 30
0.0
 40
0.5652358258371976
100
AcDbArc
 50
216.1057262632
 51
289.5573226844
  0
LINE
  5
97
330
1F
100
AcDbEntity
  8
0
  6
SLD-Durchgehend
 62
     7
370
    15
100
AcDbLine
 10
163.1423246579
 20
100.6414123704
 30
0.0
 11
162.8618653629
 21
101.1639523213
 31
0.0
  0
LINE
  5
98
330
1F
100
AcDbEntity
  8
0
  6
SLD-Durchgehend
 62
     7
370
    15
100
AcDbLine
 10
162.8618653629
 20
108.4417930697
 30
0.0
 11
163.1423246579
 21
109.3963782196
 31
0.0
  0
LWPOLYLINE
  5
99
330
1F
100
AcDbEntity
  8
0
  6
SLD-Durchgehend
 62
     7
370
    15
100
AcDbPolyline
 90
        8
 70
   128
 43
0.0
 10
163.1423246579
 20
109.3963782196
 10
163.3050152448
 20
109.6722531956
 10
163.3978056487
 20
109.7722877175
 10
163.5159717987
 20
109.8434023452
 10
163.5945779852
 20
109.8566015144
 10
163.6731678735
 20
109.8426302788
 10
163.7658418329
 20
109.7907323283
 10
163.7882087669
 20
109.7723382418
  0
LWPOLYLINE
  5
9A
330
1F
100
AcDbEntity
  8
0
  6
SLD-Durchgehend
 62
     7
370
    15
100
AcDbPolyline
 90
        9
 70
   128
 43
0.0
 10
163.7882087669
 20
109.7723382418
 10
163.8095857341
 20
109.7574810856
 10
163.8294588482
 20
109.7507057139
 10
163.8500575498
 20
109.7513506547
 10
163.8662321782
 20
109.7579348725
 10
163.8883510021
 20
109.7770973001
 10
163.9180829805
 20
109.8271253877
 10
163.9654890458
 20
110.0263220151
 10
163.9831856735
 20
110.3559340709
  0
LINE
  5
9B
330
1F
100
AcDbEntity
  8
0
  6
SLD-Durchgehend
 62
     7
370
    15
100
AcDbLine
 10
163.9831856735
 20
130.3823801582
 30
0.0
 11
163.9831856735
 21
110.3559340709
 31
0.0
  0
LINE
  5
9C
330
1F
100
AcDbEntity
  8
0
  6
SLD-Durchgehend
 62
     7
370
    15
100
AcDbLine
 10
163.9831856735
 20
130.3823801582
 30
0.0
 11
163.9638708146
 21
130.4507932518
 31
0.0
  0
ARC
  5
9D
330
1F
100
AcDbEntity
  8
0
  6
SLD-Durchgehend
 62
     7
370
    15
100
AcDbCircle
 10
163.8661973274
 20
130.3851935223
 30
0.0
 40
0.1511061857987154
100
AcDbArc
 50
58.0321285503
 51
121.0721855782
  0
ARC
  5
9E
330
1F
100
AcDbEntity
  8
0
  6
SLD-Durchgehend
 62
     7
370
    15
100
AcDbCircle
 10
163.5768959569
 20
131.0115193116
 30
0.0
 40
0.5399660829020169
100
AcDbArc
 50
216.4078762495
 51
293.0381901599
  0
LINE
  5
9F
330
1F
100
AcDbEntity
  8
0
  6
SLD-Durchgehend
 62
     7
370
    15
100
AcDbLine
 10
162.8618653629
 20
131.1230796282
 30
0.0
 11
163.1423246579
 21
130.6910334979
 31
0.0
  0
ARC
  5
A0
330
1F
100
AcDbEntity
  8
0
  6
SLD-Durchgehend
 62
     7
370
    15
100
AcDbCircle
 10
178.6878960128
 20
104.8028726955
 30
0.0
 40
16.23899589323122
100
AcDbArc
 50
167.0509032568
 51
192.9490967432
  0
LINE
  5
A1
330
1F
100
AcDbEntity
  8
0
  6
SLD-Durchgehend
 62
     7
370
    15
100
AcDbLine
 10
161.9831856804
 20
100.4933730592
 30
0.0
 11
161.9831856804
 21
109.3963782196
 31
0.0
  0
LINE
  5
A2
330
1F
100
AcDbEntity
  8
0
  6
SLD-Durchgehend
 62
     7
370
    15
100
AcDbLine
 10
135.6831856536
 20
109.3963782196
 30
0.0
 11
135.6831856536
 21
130.2668495928
 31
0.0
  0
LINE
  5
A3
330
1F
100
AcDbEntity
  8
0
  6
SLD-Durchgehend
 62
     7
370
    15
100
AcDbLine
 10
161.9831856804
 20
109.3963782196
 30
0.0
 11
161.9831856804
 21
130.8390746717
 31
0.0
  0
LINE
  5
A4
330
1F
100
AcDbEntity
  8
0
  6
SLD-Durchgehend
 62
     7
370
    15
100
AcDbLine
 10
135.6831856536
 20
101.0655972068
 30
0.0
 11
135.6831856536
 21
109.3963782196
 31
0.0
  0
LINE
  5
A5
330
1F
100
AcDbEntity
  8
0
  6
SLD-Durchgehend
 62
     7
370
    15
100
AcDbLine
 10
134.183186339
 20
101.8155968641
 30
0.0
 11
134.183186339
 21
109.3963782196
 31
0.0
  0
LINE
  5
A6
330
1F
100
AcDbEntity
  8
0
  6
SLD-Durchgehend
 62
     7
370
    15
100
AcDbLine
 10
134.183186339
 20
109.3963782196
 30
0.0
 11
134.183186339
 21
129.5168499355
 31
0.0
  0
LINE
  5
A7
330
1F
100
AcDbEntity
  8
0
  6
SLD-Durchgehend
 62
     7
370
    15
100
AcDbLine
 10
238.4831842499
 20
129.5762757663
 30
0.0
 11
238.4831842499
 21
97.5762742464
 31
0.0
  0
LWPOLYLINE
  5
A8
330
1F
100
AcDbEntity
  8
0
  6
SLD-Durchgehend
 62
     7
370
    15
100
AcDbPolyline
 90
        4
 70
   128
 43
0.0
 10
239.1175564842
 20
128.9136621063
 10
239.1187783795
 20
128.9143671174
 10
238.9809873419
 20
128.8348154058
 10
238.7131836729
 20
128.6801981632
  0
ARC
  5
A9
330
1F
100
AcDbEntity
  8
0
  6
SLD-Durchgehend
 62
     7
370
    15
100
AcDbCircle
 10
238.7731886685
 20
128.5762751368
 30
0.0
 40
0.1200024788242716
100
AcDbArc
 50
120.0020708546
 51
239.9979291454
  0
LINE
  5
AA
330
1F
100
AcDbEntity
  8
0
  6
SLD-Durchgehend
 62
     7
370
    15
100
AcDbLine
 10
238.7131836729
 20
128.4723521103
 30
0.0
 11
239.5831879692
 21
127.9700572495
 31
0.0
  0
LINE
  5
AB
330
1F
100
AcDbEntity
  8
0
  6
SLD-Durchgehend
 62
     7
370
    15
100
AcDbLine
 10
239.5831879692
 20
127.9700572495
 30
0.0
 11
239.5831879692
 21
127.6824927782
 31
0.0
  0
LINE
  5
AC
330
1F
100
AcDbEntity
  8
0
  6
SLD-Durchgehend
 62
     7
370
    15
100
AcDbLine
 10
239.5831879692
 20
127.6824927782
 30
0.0
 11
238.7131836729
 21
127.1801979174
 31
0.0
  0
LWPOLYLINE
  5
AD
330
1F
100
AcDbEntity
  8
0
  6
SLD-Durchgehend
 62
     7
370
    15
100
AcDbPolyline
 90
       10
 70
   128
 43
0.0
 10
238.7131836729
 20
127.1801979174
 10
238.6605900245
 20
127.1177788158
 10
238.6533629613
 20
127.082729422
 10
238.6570584493
 20
127.0460269307
 10
238.6623483615
 20
127.0302885105
 10
238.6714678722
 20
127.0126138707
 10
238.6804830747
 20
127.0000726809
 10
238.6912119107
 20
126.9886379023
 10
238.7049656825
 20
126.9775523697
 10
238.7131836729
 20
126.9723518644
  0
LINE
  5
AE
330
1F
100
AcDbEntity
  8
0
  6
SLD-Durchgehend
 62
     7
370
    15
100
AcDbLine
 10
238.7131836729
 20
126.9723518644
 30
0.0
 11
239.5831879692
 21
126.4700570037
 31
0.0
  0
LINE
  5
AF
330
1F
100
AcDbEntity
  8
0
  6
SLD-Durchgehend
 62
     7
370
    15
100
AcDbLine
 10
239.5831879692
 20
126.4700570037
 30
0.0
 11
239.5831879692
 21
126.1824925323
 31
0.0
  0
LINE
  5
B0
330
1F
100
AcDbEntity
  8
0
  6
SLD-Durchgehend
 62
     7
370
    15
100
AcDbLine
 10
239.5831879692
 20
126.1824925323
 30
0.0
 11
238.7131836729
 21
125.6801976715
 31
0.0
  0
LWPOLYLINE
  5
B1
330
1F
100
AcDbEntity
  8
0
  6
SLD-Durchgehend
 62
     7
370
    15
100
AcDbPolyline
 90
        8
 70
   128
 43
0.0
 10
238.7131836729
 20
125.6801976715
 10
238.6606794315
 20
125.6180114006
 10
238.6541080194
 20
125.5614251722
 10
238.6599492746
 20
125.5365663101
 10
238.6684056835
 20
125.517788053
 10
238.6811536269
 20
125.4992677723
 10
238.6941548901
 20
125.4859768678
 10
238.7131836729
 20
125.4723516186
  0
LINE
  5
B2
330
1F
100
AcDbEntity
  8
0
  6
SLD-Durchgehend
 62
     7
370
    15
100
AcDbLine
 10
238.7131836729
 20
125.4723516186
 30
0.0
 11
239.5831879692
 21
124.9700576891
 31
0.0
  0
LINE
  5
B3
330
1F
100
AcDbEntity
  8
0
  6
SLD-Durchgehend
 62
     7
370
    15
100
AcDbLine
 10
239.5831879692
 20
124.9700576891
 30
0.0
 11
239.5831879692
 21
124.6824932177
 31
0.0
  0
LINE
  5
B4
330
1F
100
AcDbEntity
  8
0
  6
SLD-Durchgehend
 62
     7
370
    15
100
AcDbLine
 10
239.5831879692
 20
124.6824932177
 30
0.0
 11
238.7131836729
 21
124.180198357
 31
0.0
  0
ARC
  5
B5
330
1F
100
AcDbEntity
  8
0
  6
SLD-Durchgehend
 62
     7
370
    15
100
AcDbCircle
 10
238.7731871701
 20
124.0762753305
 30
0.0
 40
0.1200017295927449
100
AcDbArc
 50
120.0014513
 51
239.9985487
  0
LINE
  5
B6
330
1F
100
AcDbEntity
  8
0
  6
SLD-Durchgehend
 62
     7
370
    15
100
AcDbLine
 10
238.7131836729
 20
123.972352304
 30
0.0
 11
239.5831879692
 21
123.4700574432
 31
0.0
  0
LINE
  5
B7
330
1F
100
AcDbEntity
  8
0
  6
SLD-Durchgehend
 62
     7
370
    15
100
AcDbLine
 10
239.5831879692
 20
123.4700574432
 30
0.0
 11
239.5831879692
 21
123.1824929719
 31
0.0
  0
LINE
  5
B8
330
1F
100
AcDbEntity
  8
0
  6
SLD-Durchgehend
 62
     7
370
    15
100
AcDbLine
 10
239.5831879692
 20
123.1824929719
 30
0.0
 11
238.7131836729
 21
122.6801981111
 31
0.0
  0
ARC
  5
B9
330
1F
100
AcDbEntity
  8
0
  6
SLD-Durchgehend
 62
     7
370
    15
100
AcDbCircle
 10
238.7731944185
 20
122.5762750846
 30
0.0
 40
0.1200053541357098
100
AcDbArc
 50
120.0044483281
 51
239.9955516719
  0
LINE
  5
BA
330
1F
100
AcDbEntity
  8
0
  6
SLD-Durchgehend
 62
     7
370
    15
100
AcDbLine
 10
238.7131836729
 20
122.4723520581
 30
0.0
 11
239.5831879692
 21
121.9700571974
 31
0.0
  0
LINE
  5
BB
330
1F
100
AcDbEntity
  8
0
  6
SLD-Durchgehend
 62
     7
370
    15
100
AcDbLine
 10
239.5831879692
 20
121.9700571974
 30
0.0
 11
239.5831879692
 21
121.682492726
 31
0.0
  0
LINE
  5
BC
330
1F
100
AcDbEntity
  8
0
  6
SLD-Durchgehend
 62
     7
370
    15
100
AcDbLine
 10
239.5831879692
 20
121.682492726
 30
0.0
 11
238.7131836729
 21
121.1801978652
 31
0.0
  0
ARC
  5
BD
330
1F
100
AcDbEntity
  8
0
  6
SLD-Durchgehend
 62
     7
370
    15
100
AcDbCircle
 10
238.7731916415
 20
121.0762748388
 30
0.0
 40
0.1200039654414337
100
AcDbArc
 50
120.0033001111
 51
239.9966998889
  0
LINE
  5
BE
330
1F
100
AcDbEntity
  8
0
  6
SLD-Durchgehend
 62
     7
370
    15
100
AcDbLine
 10
238.7131836729
 20
120.9723518123
 30
0.0
 11
239.5831879692
 21
120.4700574172
 31
0.0
  0
LINE
  5
BF
330
1F
100
AcDbEntity
  8
0
  6
SLD-Durchgehend
 62
     7
370
    15
100
AcDbLine
 10
239.5831879692
 20
120.4700574172
 30
0.0
 11
239.5831879692
 21
120.1824929458
 31
0.0
  0
LINE
  5
C0
330
1F
100
AcDbEntity
  8
0
  6
SLD-Durchgehend
 62
     7
370
    15
100
AcDbLine
 10
239.5831879692
 20
120.1824929458
 30
0.0
 11
238.7131836729
 21
119.680198085
 31
0.0
  0
ARC
  5
C1
330
1F
100
AcDbEntity
  8
0
  6
SLD-Durchgehend
 62
     7
370
    15
100
AcDbCircle
 10
238.7731902608
 20
119.5762750585
 30
0.0
 40
0.1200032750521062
100
AcDbArc
 50
120.0027292503
 51
239.9972707497
  0
LINE
  5
C2
330
1F
100
AcDbEntity
  8
0
  6
SLD-Durchgehend
 62
     7
370
    15
100
AcDbLine
 10
238.7131836729
 20
119.4723520321
 30
0.0
 11
239.5831879692
 21
118.9700571713
 31
0.0
  0
LINE
  5
C3
330
1F
100
AcDbEntity
  8
0
  6
SLD-Durchgehend
 62
     7
370
    15
100
AcDbLine
 10
239.5831879692
 20
118.9700571713
 30
0.0
 11
239.5831879692
 21
118.6824926999
 31
0.0
  0
LINE
  5
C4
330
1F
100
AcDbEntity
  8
0
  6
SLD-Durchgehend
 62
     7
370
    15
100
AcDbLine
 10
239.5831879692
 20
118.6824926999
 30
0.0
 11
238.7131836729
 21
118.1801978391
 31
0.0
  0
ARC
  5
C5
330
1F
100
AcDbEntity
  8
0
  6
SLD-Durchgehend
 62
     7
370
    15
100
AcDbCircle
 10
238.7731847323
 20
118.0762748127
 30
0.0
 40
0.1200005106291798
100
AcDbArc
 50
120.0004432732
 51
239.9995567268
  0
LINE
  5
C6
330
1F
100
AcDbEntity
  8
0
  6
SLD-Durchgehend
 62
     7
370
    15
100
AcDbLine
 10
238.7131836729
 20
117.9723517862
 30
0.0
 11
239.5831879692
 21
117.4700571583
 31
0.0
  0
LINE
  5
C7
330
1F
100
AcDbEntity
  8
0
  6
SLD-Durchgehend
 62
     7
370
    15
100
AcDbLine
 10
239.5831879692
 20
117.4700571583
 30
0.0
 11
239.5831879692
 21
117.1824926869
 31
0.0
  0
LINE
  5
C8
330
1F
100
AcDbEntity
  8
0
  6
SLD-Durchgehend
 62
     7
370
    15
100
AcDbLine
 10
239.5831879692
 20
117.1824926869
 30
0.0
 11
238.7131836729
 21
116.6801980589
 31
0.0
  0
ARC
  5
C9
330
1F
100
AcDbEntity
  8
0
  6
SLD-Durchgehend
 62
     7
370
    15
100
AcDbCircle
 10
238.7731860972
 20
116.5762750325
 30
0.0
 40
0.1200011931218376
100
AcDbArc
 50
120.0010076695
 51
239.9989923305
  0
LINE
  5
CA
330
1F
100
AcDbEntity
  8
0
  6
SLD-Durchgehend
 62
     7
370
    15
100
AcDbLine
 10
238.7131836729
 20
116.472352006
 30
0.0
 11
239.5831879692
 21
115.9700571452
 31
0.0
  0
LINE
  5
CB
330
1F
100
AcDbEntity
  8
0
  6
SLD-Durchgehend
 62
     7
370
    15
100
AcDbLine
 10
239.5831879692
 20
115.9700571452
 30
0.0
 11
239.5831879692
 21
115.6824926738
 31
0.0
  0
LINE
  5
CC
330
1F
100
AcDbEntity
  8
0
  6
SLD-Durchgehend
 62
     7
370
    15
100
AcDbLine
 10
239.5831879692
 20
115.6824926738
 30
0.0
 11
238.7131836729
 21
115.1801980459
 31
0.0
  0
ARC
  5
CD
330
1F
100
AcDbEntity
  8
0
  6
SLD-Durchgehend
 62
     7
370
    15
100
AcDbCircle
 10
238.7731884235
 20
115.0762750194
 30
0.0
 40
0.1200023563327383
100
AcDbArc
 50
120.0019695653
 51
239.9980304347
  0
LINE
  5
CE
330
1F
100
AcDbEntity
  8
0
  6
SLD-Durchgehend
 62
     7
370
    15
100
AcDbLine
 10
238.7131836729
 20
114.972351993
 30
0.0
 11
239.5831879692
 21
114.4700572486
 31
0.0
  0
LINE
  5
CF
330
1F
100
AcDbEntity
  8
0
  6
SLD-Durchgehend
 62
     7
370
    15
100
AcDbLine
 10
239.5831879692
 20
114.4700572486
 30
0.0
 11
239.5831879692
 21
114.1824927772
 31
0.0
  0
LINE
  5
D0
330
1F
100
AcDbEntity
  8
0
  6
SLD-Durchgehend
 62
     7
370
    15
100
AcDbLine
 10
239.5831879692
 20
114.1824927772
 30
0.0
 11
238.7131836729
 21
113.6801980547
 31
0.0
  0
ARC
  5
D1
330
1F
100
AcDbEntity
  8
0
  6
SLD-Durchgehend
 62
     7
370
    15
100
AcDbCircle
 10
238.7731880567
 20
113.5762750064
 30
0.0
 40
0.1200021918053713
100
AcDbArc
 50
120.0018126727
 51
239.9981873273
  0
LINE
  5
D2
330
1F
100
AcDbEntity
  8
0
  6
SLD-Durchgehend
 62
     7
370
    15
100
AcDbLine
 10
238.7131836729
 20
113.4723519581
 30
0.0
 11
239.5831879692
 21
112.9700572356
 31
0.0
  0
LINE
  5
D3
330
1F
100
AcDbEntity
  8
0
  6
SLD-Durchgehend
 62
     7
370
    15
100
AcDbLine
 10
239.5831879692
 20
112.9700572356
 30
0.0
 11
239.5831879692
 21
112.6824927642
 31
0.0
  0
LINE
  5
D4
330
1F
100
AcDbEntity
  8
0
  6
SLD-Durchgehend
 62
     7
370
    15
100
AcDbLine
 10
239.5831879692
 20
112.6824927642
 30
0.0
 11
238.7131836729
 21
112.1801980198
 31
0.0
  0
ARC
  5
D5
330
1F
100
AcDbEntity
  8
0
  6
SLD-Durchgehend
 62
     7
370
    15
100
AcDbCircle
 10
238.7731903293
 20
112.0762749933
 30
0.0
 40
0.120003309309786
100
AcDbArc
 50
120.0027575773
 51
239.9972424227
  0
LINE
  5
D6
330
1F
100
AcDbEntity
  8
0
  6
SLD-Durchgehend
 62
     7
370
    15
100
AcDbLine
 10
238.7131836729
 20
111.9723519669
 30
0.0
 11
239.5831879692
 21
111.4700573389
 31
0.0
  0
LINE
  5
D7
330
1F
100
AcDbEntity
  8
0
  6
SLD-Durchgehend
 62
     7
370
    15
100
AcDbLine
 10
239.5831879692
 20
111.4700573389
 30
0.0
 11
239.5831879692
 21
111.1824928676
 31
0.0
  0
LINE
  5
D8
330
1F
100
AcDbEntity
  8
0
  6
SLD-Durchgehend
 62
     7
370
    15
100
AcDbLine
 10
239.5831879692
 20
111.1824928676
 30
0.0
 11
238.7131836729
 21
110.6801980068
 31
0.0
  0
ARC
  5
D9
330
1F
100
AcDbEntity
  8
0
  6
SLD-Durchgehend
 62
     7
370
    15
100
AcDbCircle
 10
238.7731908215
 20
110.5762749803
 30
0.0
 40
0.1200035554328353
100
AcDbArc
 50
120.0029610901
 51
239.9970389099
  0
LINE
  5
DA
330
1F
100
AcDbEntity
  8
0
  6
SLD-Durchgehend
 62
     7
370
    15
100
AcDbLine
 10
238.7131836729
 20
110.4723519538
 30
0.0
 11
239.5831879692
 21
109.9700573259
 31
0.0
  0
LINE
  5
DB
330
1F
100
AcDbEntity
  8
0
  6
SLD-Durchgehend
 62
     7
370
    15
100
AcDbLine
 10
239.5831879692
 20
109.9700573259
 30
0.0
 11
239.5831879692
 21
109.6824928545
 31
0.0
  0
LINE
  5
DC
330
1F
100
AcDbEntity
  8
0
  6
SLD-Durchgehend
 62
     7
370
    15
100
AcDbLine
 10
239.5831879692
 20
109.6824928545
 30
0.0
 11
238.7131836729
 21
109.1801982266
 31
0.0
  0
ARC
  5
DD
330
1F
100
AcDbEntity
  8
0
  6
SLD-Durchgehend
 62
     7
370
    15
100
AcDbCircle
 10
238.7731922359
 20
109.0762752001
 30
0.0
 40
0.1200042626650979
100
AcDbArc
 50
120.0035458707
 51
239.9964541293
  0
LINE
  5
DE
330
1F
100
AcDbEntity
  8
0
  6
SLD-Durchgehend
 62
     7
370
    15
100
AcDbLine
 10
238.7131836729
 20
108.9723521736
 30
0.0
 11
239.5831879692
 21
108.4700573129
 31
0.0
  0
LINE
  5
DF
330
1F
100
AcDbEntity
  8
0
  6
SLD-Durchgehend
 62
     7
370
    15
100
AcDbLine
 10
239.5831879692
 20
108.4700573129
 30
0.0
 11
239.5831879692
 21
108.1824928415
 31
0.0
  0
LINE
  5
E0
330
1F
100
AcDbEntity
  8
0
  6
SLD-Durchgehend
 62
     7
370
    15
100
AcDbLine
 10
239.5831879692
 20
108.1824928415
 30
0.0
 11
238.7131836729
 21
107.6801979807
 31
0.0
  0
ARC
  5
E1
330
1F
100
AcDbEntity
  8
0
  6
SLD-Durchgehend
 62
     7
370
    15
100
AcDbCircle
 10
238.7731872052
 20
107.5762749542
 30
0.0
 40
0.120001747159628
100
AcDbArc
 50
120.0014658266
 51
239.9985341734
  0
LINE
  5
E2
330
1F
100
AcDbEntity
  8
0
  6
SLD-Durchgehend
 62
     7
370
    15
100
AcDbLine
 10
238.7131836729
 20
107.4723519278
 30
0.0
 11
239.5831879692
 21
106.970057067
 31
0.0
  0
LINE
  5
E3
330
1F
100
AcDbEntity
  8
0
  6
SLD-Durchgehend
 62
     7
370
    15
100
AcDbLine
 10
239.5831879692
 20
106.970057067
 30
0.0
 11
239.5831879692
 21
106.6824925956
 31
0.0
  0
LINE
  5
E4
330
1F
100
AcDbEntity
  8
0
  6
SLD-Durchgehend
 62
     7
370
    15
100
AcDbLine
 10
239.5831879692
 20
106.6824925956
 30
0.0
 11
238.7131836729
 21
106.1801982005
 31
0.0
  0
ARC
  5
E5
330
1F
100
AcDbEntity
  8
0
  6
SLD-Durchgehend
 62
     7
370
    15
100
AcDbCircle
 10
238.773186725
 20
106.076275174
 30
0.0
 40
0.1200015070412461
100
AcDbArc
 50
120.001267264
 51
239.998732736
  0
LINE
  5
E6
330
1F
100
AcDbEntity
  8
0
  6
SLD-Durchgehend
 62
     7
370
    15
100
AcDbLine
 10
238.7131836729
 20
105.9723521476
 30
0.0
 11
239.5831879692
 21
105.4700572868
 31
0.0
  0
LINE
  5
E7
330
1F
100
AcDbEntity
  8
0
  6
SLD-Durchgehend
 62
     7
370
    15
100
AcDbLine
 10
239.5831879692
 20
105.4700572868
 30
0.0
 11
239.5831879692
 21
105.1824928154
 31
0.0
  0
LINE
  5
E8
330
1F
100
AcDbEntity
  8
0
  6
SLD-Durchgehend
 62
     7
370
    15
100
AcDbLine
 10
239.5831879692
 20
105.1824928154
 30
0.0
 11
238.7131836729
 21
104.6801979546
 31
0.0
  0
ARC
  5
E9
330
1F
100
AcDbEntity
  8
0
  6
SLD-Durchgehend
 62
     7
370
    15
100
AcDbCircle
 10
238.7731931077
 20
104.5762749282
 30
0.0
 40
0.1200046986166045
100
AcDbArc
 50
120.0039063321
 51
239.9960936679
  0
LINE
  5
EA
330
1F
100
AcDbEntity
  8
0
  6
SLD-Durchgehend
 62
     7
370
    15
100
AcDbLine
 10
238.7131836729
 20
104.4723519017
 30
0.0
 11
239.5831879692
 21
103.9700570409
 31
0.0
  0
LINE
  5
EB
330
1F
100
AcDbEntity
  8
0
  6
SLD-Durchgehend
 62
     7
370
    15
100
AcDbLine
 10
239.5831879692
 20
103.9700570409
 30
0.0
 11
239.5831879692
 21
103.6824925695
 31
0.0
  0
LINE
  5
EC
330
1F
100
AcDbEntity
  8
0
  6
SLD-Durchgehend
 62
     7
370
    15
100
AcDbLine
 10
239.5831879692
 20
103.6824925695
 30
0.0
 11
238.7131836729
 21
103.1801977088
 31
0.0
  0
ARC
  5
ED
330
1F
100
AcDbEntity
  8
0
  6
SLD-Durchgehend
 62
     7
370
    15
100
AcDbCircle
 10
238.7731856388
 20
103.0762746823
 30
0.0
 40
0.1200009639157705
100
AcDbArc
 50
120.0008181263
 51
239.9991818737
  0
LINE
  5
EE
330
1F
100
AcDbEntity
  8
0
  6
SLD-Durchgehend
 62
     7
370
    15
100
AcDbLine
 10
238.7131836729
 20
102.9723516558
 30
0.0
 11
239.5831879692
 21
102.470056795
 31
0.0
  0
LINE
  5
EF
330
1F
100
AcDbEntity
  8
0
  6
SLD-Durchgehend
 62
     7
370
    15
100
AcDbLine
 10
239.5831879692
 20
102.470056795
 30
0.0
 11
239.5831879692
 21
102.1824923237
 31
0.0
  0
LINE
  5
F0
330
1F
100
AcDbEntity
  8
0
  6
SLD-Durchgehend
 62
     7
370
    15
100
AcDbLine
 10
239.5831879692
 20
102.1824923237
 30
0.0
 11
238.7131836729
 21
101.6801983942
 31
0.0
  0
ARC
  5
F1
330
1F
100
AcDbEntity
  8
0
  6
SLD-Durchgehend
 62
     7
370
    15
100
AcDbCircle
 10
238.7731918199
 20
101.5762753677
 30
0.0
 40
0.1200040546652413
100
AcDbArc
 50
120.0033738862
 51
239.9966261138
  0
LINE
  5
F2
330
1F
100
AcDbEntity
  8
0
  6
SLD-Durchgehend
 62
     7
370
    15
100
AcDbLine
 10
238.7131836729
 20
101.4723523413
 30
0.0
 11
239.5831879692
 21
100.9700574805
 31
0.0
  0
LINE
  5
F3
330
1F
100
AcDbEntity
  8
0
  6
SLD-Durchgehend
 62
     7
370
    15
100
AcDbLine
 10
239.5831879692
 20
100.9700574805
 30
0.0
 11
239.5831879692
 21
100.6824930091
 31
0.0
  0
LINE
  5
F4
330
1F
100
AcDbEntity
  8
0
  6
SLD-Durchgehend
 62
     7
370
    15
100
AcDbLine
 10
239.5831879692
 20
100.6824930091
 30
0.0
 11
238.7131836729
 21
100.1801981483
 31
0.0
  0
LWPOLYLINE
  5
F5
330
1F
100
AcDbEntity
  8
0
  6
SLD-Durchgehend
 62
     7
370
    15
100
AcDbPolyline
 90
        9
 70
   128
 43
0.0
 10
238.7131836729
 20
100.1801981483
 10
238.7054574208
 20
100.1753357132
 10
238.6906084137
 20
100.163344935
 10
238.6801776009
 20
100.1521010776
 10
238.6713859158
 20
100.1398132075
 10
238.6628102975
 20
100.1233669822
 10
238.6553150134
 20
100.0987921734
 10
238.6562686877
 20
100.0492541944
 10
238.7131836729
 20
99.9723520954
  0
LINE
  5
F6
330
1F
100
AcDbEntity
  8
0
  6
SLD-Durchgehend
 62
     7
370
    15
100
AcDbLine
 10
238.7131836729
 20
99.9723520954
 30
0.0
 11
239.5831879692
 21
99.4700572346
 31
0.0
  0
LINE
  5
F7
330
1F
100
AcDbEntity
  8
0
  6
SLD-Durchgehend
 62
     7
370
    15
100
AcDbLine
 10
239.5831879692
 20
99.4700572346
 30
0.0
 11
239.5831879692
 21
99.1824927633
 31
0.0
  0
LINE
  5
F8
330
1F
100
AcDbEntity
  8
0
  6
SLD-Durchgehend
 62
     7
370
    15
100
AcDbLine
 10
239.5831879692
 20
99.1824927633
 30
0.0
 11
238.7131836729
 21
98.6801979025
 31
0.0
  0
LWPOLYLINE
  5
F9
330
1F
100
AcDbEntity
  8
0
  6
SLD-Durchgehend
 62
     7
370
    15
100
AcDbPolyline
 90
       10
 70
   128
 43
0.0
 10
238.7131836729
 20
98.6801979025
 10
238.7019332962
 20
98.6728311409
 10
238.6942666488
 20
98.66667603
 10
238.6861902194
 20
98.6589302202
 10
238.6795815544
 20
98.6513641556
 10
238.6728685813
 20
98.6421319549
 10
238.6650007682
 20
98.6282040258
 10
238.6549052315
 20
98.5965092559
 10
238.6672061401
 20
98.5199917932
 10
238.7131836729
 20
98.4723518495
  0
LWPOLYLINE
  5
FA
330
1F
100
AcDbEntity
  8
0
  6
SLD-Durchgehend
 62
     7
370
    15
100
AcDbPolyline
 90
        4
 70
   128
 43
0.0
 10
238.7131836729
 20
98.4723518495
 10
238.9782827811
 20
98.3192973663
 10
239.1162302809
 20
98.2396525224
 10
239.1175564842
 20
98.2388879065
  0
LINE
  5
FB
330
1F
100
AcDbEntity
  8
0
  6
SLD-Durchgehend
 62
     7
370
    15
100
AcDbLine
 10
135.6831856536
 20
98.0434778039
 30
0.0
 11
139.6831863092
 21
97.9514109795
 31
0.0
  0
LINE
  5
FC
330
1F
100
AcDbEntity
  8
0
  6
SLD-Durchgehend
 62
     7
370
    15
100
AcDbLine
 10
135.6831856536
 20
98.0434778039
 30
0.0
 11
135.6831856536
 21
101.0655972068
 31
0.0
  0
LINE
  5
FD
330
1F
100
AcDbEntity
  8
0
  6
SLD-Durchgehend
 62
     7
370
    15
100
AcDbLine
 10
161.9831856804
 20
97.1761762057
 30
0.0
 11
161.9831856804
 21
100.4933730592
 31
0.0
  0
ARC
  5
FE
330
1F
100
AcDbEntity
  8
0
  6
SLD-Durchgehend
 62
     7
370
    15
100
AcDbCircle
 10
144.3411062653
 20
124.5365606909
 30
0.0
 40
26.9901167744061
100
AcDbArc
 50
260.0622144145
 51
264.0435401664
  0
ARC
  5
FF
330
1F
100
AcDbEntity
  8
0
  6
SLD-Durchgehend
 62
     7
370
    15
100
AcDbCircle
 10
149.5715151213
 20
69.7734120547
 30
0.0
 40
27.90960060216386
100
AcDbArc
 50
81.6804022927
 51
95.3971500737
  0
LINE
  5
100
330
1F
100
AcDbEntity
  8
0
  6
SLD-Durchgehend
 62
     7
370
    15
100
AcDbLine
 10
134.183186339
 20
98.8210064252
 30
0.0
 11
135.6831856536
 21
98.0434778039
 31
0.0
  0
LINE
  5
101
330
1F
100
AcDbEntity
  8
0
  6
SLD-Durchgehend
 62
     7
370
    15
100
AcDbLine
 10
134.183186339
 20
98.8210064252
 30
0.0
 11
134.183186339
 21
101.8155968641
 31
0.0
  0
LINE
  5
102
330
1F
100
AcDbEntity
  8
0
  6
SLD-Durchgehend
 62
     7
370
    15
100
AcDbLine
 10
161.9831856804
 20
132.2163740997
 30
0.0
 11
161.9831856804
 21
130.8390746717
 31
0.0
  0
LINE
  5
103
330
1F
100
AcDbEntity
  8
0
  6
SLD-Durchgehend
 62
     7
370
    15
100
AcDbLine
 10
135.6831856536
 20
131.55562681
 30
0.0
 11
135.6831856536
 21
130.2668495928
 31
0.0
  0
LWPOLYLINE
  5
104
330
1F
100
AcDbEntity
  8
0
  6
SLD-Durchgehend
 62
     7
370
    15
100
AcDbPolyline
 90
        5
 70
   128
 43
0.0
 10
162.4630334553
 20
132.0055003171
 10
162.4563084914
 20
132.0205337261
 10
162.5409867846
 20
131.8315255348
 10
162.6715785822
 20
131.5417147134
 10
162.8618653629
 20
131.1230796282
  0
LINE
  5
105
330
1F
100
AcDbEntity
  8
0
  6
SLD-Durchgehend
 62
     7
370
    15
100
AcDbLine
 10
134.183186339
 20
130.6896011238
 30
0.0
 11
134.183186339
 21
129.5168499355
 31
0.0
  0
LINE
  5
106
330
1F
100
AcDbEntity
  8
0
  6
SLD-Gestrichelt
 62
     7
370
     0
100
AcDbLine
 10
184.1831852215
 20
89.1762754773
 30
0.0
 11
184.1831852215
 21
137.9762745355
 31
0.0
  0
LINE
  5
107
330
1F
100
AcDbEntity
  8
0
  6
SLD-Gestrichelt
 62
     7
370
     0
100
AcDbLine
 10
164.1831856685
 20
138.2762758885
 30
0.0
 11
164.1831856685
 21
88.8762741242
 31
0.0
  0
LWPOLYLINE
  5
108
330
1F
100
AcDbEntity
  8
0
  6
SLD-Gestrichelt
 62
     7
370
     0
100
AcDbPolyline
 90
       11
 70
   128
 43
0.0
 10
174.183185445
 20
88.5762746339
 10
174.2955085354
 20
88.5850104396
 10
174.6196274178
 20
88.6073994343
 10
175.1202067824
 20
88.6337428246
 10
175.7416122126
 20
88.6524922107
 10
176.4116932171
 20
88.6553550963
 10
177.0545153411
 20
88.6411747788
 10
177.6000701355
 20
88.6161557291
 10
177.9875096398
 20
88.5911683445
 10
178.1714486422
 20
88.5772115444
 10
178.1584520357
 20
88.5782341366
  0
ARC
  5
109
330
1F
100
AcDbEntity
  8
0
  6
SLD-Gestrichelt
 62
     7
370
     0
100
AcDbCircle
 10
172.8920379659
 20
105.4173492386
 30
0.0
 40
0.6172779654842481
100
AcDbArc
 50
107.0602864172
 51
174.1913102017
  0
LINE
  5
10A
330
1F
100
AcDbEntity
  8
0
  6
SLD-Gestrichelt
 62
     7
370
     0
100
AcDbLine
 10
175.6554285528
 20
106.0074648713
 30
0.0
 11
172.7109423371
 21
106.0074648713
 31
0.0
  0
LWPOLYLINE
  5
10B
330
1F
100
AcDbEntity
  8
0
  6
SLD-Gestrichelt
 62
     7
370
     0
100
AcDbPolyline
 90
        6
 70
   128
 43
0.0
 10
176.088441396
 20
105.479822204
 10
175.9554466697
 20
105.7986977403
 10
175.8763457181
 20
105.9004382123
 10
175.7709460797
 20
105.9794022594
 10
175.6906288209
 20
106.0048934896
 10
175.6554285528
 20
106.0074648713
  0
ELLIPSE
  5
10C
330
1F
100
AcDbEntity
  8
0
  6
SLD-Gestrichelt
 62
     7
370
     0
100
AcDbEllipse
 10
163.1269280135
 20
113.5762750064
 30
0.0
 11
-11.70927234972712
 21
24.6771864409374
 31
0.0
210
0.0
220
0.0
230
1.0
 40
0.3419987131
 41
3.31052192817896
 42
4.22170915139895
  0
ARC
  5
10D
330
1F
100
AcDbEntity
  8
0
  6
SLD-Gestrichelt
 62
     7
370
     0
100
AcDbCircle
 10
175.6899413546
 20
90.2892595399
 30
0.0
 40
0.5408182585921131
100
AcDbArc
 50
266.341132183
 51
317.4634741493
  0
LINE
  5
10E
330
1F
100
AcDbEntity
  8
0
  6
SLD-Gestrichelt
 62
     7
370
     0
100
AcDbLine
 10
172.7109423371
 20
89.7495436375
 30
0.0
 11
175.6554285528
 21
89.7495436375
 31
0.0
  0
ARC
  5
10F
330
1F
100
AcDbEntity
  8
0
  6
SLD-Gestrichelt
 62
     7
370
     0
100
AcDbCircle
 10
172.6928762726
 20
90.3301673321
 30
0.0
 40
0.5809046888071283
100
AcDbArc
 50
224.4132145875
 51
271.7821790802
  0
ELLIPSE
  5
110
330
1F
100
AcDbEntity
  8
0
  6
SLD-Gestrichelt
 62
     7
370
     0
100
AcDbEllipse
 10
185.2394433235
 20
113.5762750064
 30
0.0
 11
11.709272349727
 21
24.67718644093743
 31
0.0
210
0.0
220
0.0
230
1.0
 40
0.3419987131
 41
2.061476155780646
 42
2.972663379000663
  0
ARC
  5
111
330
1F
100
AcDbEntity
  8
0
  6
SLD-Gestrichelt
 62
     7
370
     0
100
AcDbCircle
 10
172.6764295354
 20
136.8632904729
 30
0.0
 40
0.540818258592134
100
AcDbArc
 50
86.341132183
 51
137.4634741493
  0
LINE
  5
112
330
1F
100
AcDbEntity
  8
0
  6
SLD-Gestrichelt
 62
     7
370
     0
100
AcDbLine
 10
175.6554285528
 20
137.4030063753
 30
0.0
 11
172.7109423371
 21
137.4030063753
 31
0.0
  0
ARC
  5
113
330
1F
100
AcDbEntity
  8
0
  6
SLD-Gestrichelt
 62
     7
370
     0
100
AcDbCircle
 10
175.6734949617
 20
136.822383537
 30
0.0
 40
0.5809038435613222
100
AcDbArc
 50
44.4131780183
 51
91.7822156495
  0
ELLIPSE
  5
114
330
1F
100
AcDbEntity
  8
0
  6
SLD-Gestrichelt
 62
     7
370
     0
100
AcDbEllipse
 10
163.1269280135
 20
113.5762750064
 30
0.0
 11
11.70927234972731
 21
24.67718644093743
 31
0.0
210
0.0
220
0.0
230
1.0
 40
0.3419987131
 41
5.203068809370473
 42
6.11425603259052
  0
ARC
  5
115
330
1F
100
AcDbEntity
  8
0
  6
SLD-Gestrichelt
 62
     7
370
     0
100
AcDbCircle
 10
175.4743329241
 20
121.7352007742
 30
0.0
 40
0.6172779654842209
100
AcDbArc
 50
287.0602864172
 51
354.1913102018
  0
LINE
  5
116
330
1F
100
AcDbEntity
  8
0
  6
SLD-Gestrichelt
 62
     7
370
     0
100
AcDbLine
 10
172.7109423371
 20
121.1450851415
 30
0.0
 11
175.6554285528
 21
121.1450851415
 31
0.0
  0
LWPOLYLINE
  5
117
330
1F
100
AcDbEntity
  8
0
  6
SLD-Gestrichelt
 62
     7
370
     0
100
AcDbPolyline
 90
        6
 70
   128
 43
0.0
 10
172.277929494
 20
121.6727278088
 10
172.4109242203
 20
121.3538522725
 10
172.4900251718
 20
121.2521118005
 10
172.5954257416
 20
121.1731477533
 10
172.6757420691
 20
121.1476565231
 10
172.7109423371
 20
121.1450851415
  0
ELLIPSE
  5
118
330
1F
100
AcDbEntity
  8
0
  6
SLD-Gestrichelt
 62
     7
370
     0
100
AcDbEllipse
 10
185.2394433235
 20
113.5762750064
 30
0.0
 11
-11.70927234972714
 21
24.67718644093743
 31
0.0
210
0.0
220
0.0
230
1.0
 40
0.3419987131
 41
0.1689292745891134
 42
1.080116497809129
  0
LINE
  5
119
330
1F
100
AcDbEntity
  8
0
  6
SLD-Gestrichelt
 62
     7
370
     0
100
AcDbLine
 10
184.1831852215
 20
93.5762754534
 30
0.0
 11
184.1831852215
 21
133.5762745594
 31
0.0
  0
LINE
  5
11A
330
1F
100
AcDbEntity
  8
0
  6
SLD-Gestrichelt
 62
     7
370
     0
100
AcDbLine
 10
164.1831856685
 20
94.0305634294
 30
0.0
 11
164.1831856685
 21
133.1219865833
 31
0.0
  0
ARC
  5
11B
330
1F
100
AcDbEntity
  8
0
  6
SLD-Gestrichelt
 62
     7
370
     0
100
AcDbCircle
 10
163.5949496245
 20
100.9613950198
 30
0.0
 40
0.5543088095406883
100
AcDbArc
 50
215.2583524742
 51
290.4046964735
  0
LWPOLYLINE
  5
11C
330
1F
100
AcDbEntity
  8
0
  6
SLD-Gestrichelt
 62
     7
370
     0
100
AcDbPolyline
 90
        9
 70
   128
 43
0.0
 10
163.7882087669
 20
100.4418671955
 10
163.8095857341
 20
100.4476423268
 10
163.8294588482
 20
100.4477596735
 10
163.8500575498
 20
100.4421754633
 10
163.8662321782
 20
100.4332971652
 10
163.8883510021
 20
100.41372449
 10
163.9180829805
 20
100.3699690928
 10
163.9654890458
 20
100.217421249
 10
163.9831856735
 20
99.9905100916
  0
LINE
  5
11D
330
1F
100
AcDbEntity
  8
0
  6
SLD-Gestrichelt
 62
     7
370
     0
100
AcDbLine
 10
163.9831856735
 20
95.7364539509
 30
0.0
 11
163.9831856735
 21
99.9905100916
 31
0.0
  0
LINE
  5
11E
330
1F
100
AcDbEntity
  8
0
  6
SLD-Gestrichelt
 62
     7
370
     0
100
AcDbLine
 10
163.9638708146
 20
130.4507932518
 30
0.0
 11
163.9461995363
 21
130.5133837168
 31
0.0
  0
LINE
  5
11F
330
1F
100
AcDbEntity
  8
0
  6
SLD-Gestrichelt
 62
     7
370
     0
100
AcDbLine
 10
163.1423246579
 20
130.6910334979
 30
0.0
 11
162.8618653629
 21
131.1230796282
 31
0.0
  0
ARC
  5
120
330
1F
100
AcDbEntity
  8
0
  6
SLD-Gestrichelt
 62
     7
370
     0
100
AcDbCircle
 10
163.5734209078
 20
130.9987965789
 30
0.0
 40
0.5296811217101597
100
AcDbArc
 50
215.5233468001
 51
293.9227196092
  0
LWPOLYLINE
  5
121
330
1F
100
AcDbEntity
  8
0
  6
SLD-Gestrichelt
 62
     7
370
     0
100
AcDbPolyline
 90
        9
 70
   128
 43
0.0
 10
163.7882087669
 20
130.5146186505
 10
163.8095857341
 20
130.5237027709
 10
163.8294588482
 20
130.5303598647
 10
163.8500575498
 20
130.535297737
 10
163.8662321782
 20
130.5375925158
 10
163.8883510021
 20
130.5380041604
 10
163.9180829805
 20
130.5317307715
 10
163.9654890458
 20
130.4850808238
 10
163.9831856735
 20
130.3823801582
  0
LINE
  5
122
330
1F
100
AcDbEntity
  8
0
  6
SLD-Gestrichelt
 62
     7
370
     0
100
AcDbLine
 10
163.9831856735
 20
110.3559340709
 30
0.0
 11
163.9831856735
 21
130.3823801582
 31
0.0
  0
LWPOLYLINE
  5
123
330
1F
100
AcDbEntity
  8
0
  6
SLD-Gestrichelt
 62
     7
370
     0
100
AcDbPolyline
 90
       10
 70
   128
 43
0.0
 10
163.9831856735
 20
110.3559340709
 10
163.9705858832
 20
110.0707086162
 10
163.949453621
 20
109.9304828686
 10
163.9032452366
 20
109.7980373897
 10
163.8842526589
 20
109.7725545415
 10
163.8581441655
 20
109.7539283228
 10
163.8404152471
 20
109.7500286423
 10
163.8219271261
 20
109.7524524093
 10
163.8000312667
 20
109.763170768
 10
163.7882087669
 20
109.7723382418
  0
LWPOLYLINE
  5
124
330
1F
100
AcDbEntity
  8
0
  6
SLD-Gestrichelt
 62
     7
370
     0
100
AcDbPolyline
 90
        7
 70
   128
 43
0.0
 10
163.7882087669
 20
109.7723382418
 10
163.7086206754
 20
109.8273537946
 10
163.6148234828
 20
109.8556077932
 10
163.5272623387
 20
109.846966051
 10
163.436820614
 20
109.802635795
 10
163.3134065194
 20
109.6829440803
 10
163.1423246579
 20
109.3963782196
  0
LINE
  5
125
330
1F
100
AcDbEntity
  8
0
  6
SLD-Gestrichelt
 62
     7
370
     0
100
AcDbLine
 10
163.1423246579
 20
109.3963782196
 30
0.0
 11
162.8618653629
 21
108.4417930697
 31
0.0
  0
LINE
  5
126
330
1F
100
AcDbEntity
  8
0
  6
SLD-Gestrichelt
 62
     7
370
     0
100
AcDbLine
 10
162.8618653629
 20
101.1639523213
 30
0.0
 11
163.1423246579
 21
100.6414123704
 31
0.0
  0
LINE
  5
127
330
1F
100
AcDbEntity
  8
0
  6
SLD-Gestrichelt
 62
     7
370
     0
100
AcDbLine
 10
163.9831856735
 20
110.3559340709
 30
0.0
 11
163.9831856735
 21
130.3823801582
 31
0.0
  0
LINE
  5
128
330
1F
100
AcDbEntity
  8
0
  6
SLD-Gestrichelt
 62
     7
370
     0
100
AcDbLine
 10
238.4831842499
 20
113.5762750064
 30
0.0
 11
238.4831842499
 21
129.5762757663
 31
0.0
  0
LINE
  5
129
330
1F
100
AcDbEntity
  8
0
  6
SLD-Gestrichelt
 62
     7
370
     0
100
AcDbLine
 10
238.4831842499
 20
97.5762742464
 30
0.0
 11
238.4831842499
 21
113.5762750064
 31
0.0
  0
LINE
  5
12A
330
1F
100
AcDbEntity
  8
0
  6
SLD-Gestrichelt
 62
     7
370
     0
100
AcDbLine
 10
239.5831879692
 20
114.4700572486
 30
0.0
 11
238.7131836729
 21
114.972351993
 31
0.0
  0
ARC
  5
12B
330
1F
100
AcDbEntity
  8
0
  6
SLD-Gestrichelt
 62
     7
370
     0
100
AcDbCircle
 10
238.7731903293
 20
115.0762750194
 30
0.0
 40
0.120003309309786
100
AcDbArc
 50
120.0027575773
 51
239.9972424227
  0
LINE
  5
12C
330
1F
100
AcDbEntity
  8
0
  6
SLD-Gestrichelt
 62
     7
370
     0
100
AcDbLine
 10
238.7131836729
 20
115.1801980459
 30
0.0
 11
239.5831879692
 21
115.6824926738
 31
0.0
  0
LINE
  5
12D
330
1F
100
AcDbEntity
  8
0
  6
SLD-Gestrichelt
 62
     7
370
     0
100
AcDbLine
 10
239.5831879692
 20
115.6824926738
 30
0.0
 11
239.5831879692
 21
115.9700571452
 31
0.0
  0
LINE
  5
12E
330
1F
100
AcDbEntity
  8
0
  6
SLD-Gestrichelt
 62
     7
370
     0
100
AcDbLine
 10
239.5831879692
 20
115.9700571452
 30
0.0
 11
238.7131836729
 21
116.472352006
 31
0.0
  0
ARC
  5
12F
330
1F
100
AcDbEntity
  8
0
  6
SLD-Gestrichelt
 62
     7
370
     0
100
AcDbCircle
 10
238.7731908215
 20
116.5762750325
 30
0.0
 40
0.1200035554328353
100
AcDbArc
 50
120.0029610901
 51
239.9970389099
  0
LINE
  5
130
330
1F
100
AcDbEntity
  8
0
  6
SLD-Gestrichelt
 62
     7
370
     0
100
AcDbLine
 10
238.7131836729
 20
116.6801980589
 30
0.0
 11
239.5831879692
 21
117.1824926869
 31
0.0
  0
LINE
  5
131
330
1F
100
AcDbEntity
  8
0
  6
SLD-Gestrichelt
 62
     7
370
     0
100
AcDbLine
 10
239.5831879692
 20
117.1824926869
 30
0.0
 11
239.5831879692
 21
117.4700571583
 31
0.0
  0
LINE
  5
132
330
1F
100
AcDbEntity
  8
0
  6
SLD-Gestrichelt
 62
     7
370
     0
100
AcDbLine
 10
239.5831879692
 20
117.4700571583
 30
0.0
 11
238.7131836729
 21
117.9723517862
 31
0.0
  0
ARC
  5
133
330
1F
100
AcDbEntity
  8
0
  6
SLD-Gestrichelt
 62
     7
370
     0
100
AcDbCircle
 10
238.7731922359
 20
118.0762748127
 30
0.0
 40
0.1200042626650979
100
AcDbArc
 50
120.0035458707
 51
239.9964541293
  0
LINE
  5
134
330
1F
100
AcDbEntity
  8
0
  6
SLD-Gestrichelt
 62
     7
370
     0
100
AcDbLine
 10
238.7131836729
 20
118.1801978391
 30
0.0
 11
239.5831879692
 21
118.6824926999
 31
0.0
  0
LINE
  5
135
330
1F
100
AcDbEntity
  8
0
  6
SLD-Gestrichelt
 62
     7
370
     0
100
AcDbLine
 10
239.5831879692
 20
118.6824926999
 30
0.0
 11
239.5831879692
 21
118.9700571713
 31
0.0
  0
LINE
  5
136
330
1F
100
AcDbEntity
  8
0
  6
SLD-Gestrichelt
 62
     7
370
     0
100
AcDbLine
 10
239.5831879692
 20
118.9700571713
 30
0.0
 11
238.7131836729
 21
119.4723520321
 31
0.0
  0
ARC
  5
137
330
1F
100
AcDbEntity
  8
0
  6
SLD-Gestrichelt
 62
     7
370
     0
100
AcDbCircle
 10
238.7731872052
 20
119.5762750585
 30
0.0
 40
0.120001747159628
100
AcDbArc
 50
120.0014658266
 51
239.9985341734
  0
LINE
  5
138
330
1F
100
AcDbEntity
  8
0
  6
SLD-Gestrichelt
 62
     7
370
     0
100
AcDbLine
 10
238.7131836729
 20
119.680198085
 30
0.0
 11
239.5831879692
 21
120.1824929458
 31
0.0
  0
LINE
  5
139
330
1F
100
AcDbEntity
  8
0
  6
SLD-Gestrichelt
 62
     7
370
     0
100
AcDbLine
 10
239.5831879692
 20
120.1824929458
 30
0.0
 11
239.5831879692
 21
120.4700574172
 31
0.0
  0
LINE
  5
13A
330
1F
100
AcDbEntity
  8
0
  6
SLD-Gestrichelt
 62
     7
370
     0
100
AcDbLine
 10
239.5831879692
 20
120.4700574172
 30
0.0
 11
238.7131836729
 21
120.9723518123
 31
0.0
  0
ARC
  5
13B
330
1F
100
AcDbEntity
  8
0
  6
SLD-Gestrichelt
 62
     7
370
     0
100
AcDbCircle
 10
238.773186725
 20
121.0762748388
 30
0.0
 40
0.1200015070412461
100
AcDbArc
 50
120.001267264
 51
239.998732736
  0
LINE
  5
13C
330
1F
100
AcDbEntity
  8
0
  6
SLD-Gestrichelt
 62
     7
370
     0
100
AcDbLine
 10
238.7131836729
 20
121.1801978652
 30
0.0
 11
239.5831879692
 21
121.682492726
 31
0.0
  0
LINE
  5
13D
330
1F
100
AcDbEntity
  8
0
  6
SLD-Gestrichelt
 62
     7
370
     0
100
AcDbLine
 10
239.5831879692
 20
121.682492726
 30
0.0
 11
239.5831879692
 21
121.9700571974
 31
0.0
  0
LINE
  5
13E
330
1F
100
AcDbEntity
  8
0
  6
SLD-Gestrichelt
 62
     7
370
     0
100
AcDbLine
 10
239.5831879692
 20
121.9700571974
 30
0.0
 11
238.7131836729
 21
122.4723520581
 31
0.0
  0
ARC
  5
13F
330
1F
100
AcDbEntity
  8
0
  6
SLD-Gestrichelt
 62
     7
370
     0
100
AcDbCircle
 10
238.7731931077
 20
122.5762750846
 30
0.0
 40
0.1200046986166045
100
AcDbArc
 50
120.0039063321
 51
239.9960936679
  0
LINE
  5
140
330
1F
100
AcDbEntity
  8
0
  6
SLD-Gestrichelt
 62
     7
370
     0
100
AcDbLine
 10
238.7131836729
 20
122.6801981111
 30
0.0
 11
239.5831879692
 21
123.1824929719
 31
0.0
  0
LINE
  5
141
330
1F
100
AcDbEntity
  8
0
  6
SLD-Gestrichelt
 62
     7
370
     0
100
AcDbLine
 10
239.5831879692
 20
123.1824929719
 30
0.0
 11
239.5831879692
 21
123.4700574432
 31
0.0
  0
LINE
  5
142
330
1F
100
AcDbEntity
  8
0
  6
SLD-Gestrichelt
 62
     7
370
     0
100
AcDbLine
 10
239.5831879692
 20
123.4700574432
 30
0.0
 11
238.7131836729
 21
123.972352304
 31
0.0
  0
ARC
  5
143
330
1F
100
AcDbEntity
  8
0
  6
SLD-Gestrichelt
 62
     7
370
     0
100
AcDbCircle
 10
238.7731856388
 20
124.0762753305
 30
0.0
 40
0.1200009639157705
100
AcDbArc
 50
120.0008181263
 51
239.9991818737
  0
LINE
  5
144
330
1F
100
AcDbEntity
  8
0
  6
SLD-Gestrichelt
 62
     7
370
     0
100
AcDbLine
 10
238.7131836729
 20
124.180198357
 30
0.0
 11
239.5831879692
 21
124.6824932177
 31
0.0
  0
LINE
  5
145
330
1F
100
AcDbEntity
  8
0
  6
SLD-Gestrichelt
 62
     7
370
     0
100
AcDbLine
 10
239.5831879692
 20
124.6824932177
 30
0.0
 11
239.5831879692
 21
124.9700576891
 31
0.0
  0
LINE
  5
146
330
1F
100
AcDbEntity
  8
0
  6
SLD-Gestrichelt
 62
     7
370
     0
100
AcDbLine
 10
239.5831879692
 20
124.9700576891
 30
0.0
 11
238.7131836729
 21
125.4723516186
 31
0.0
  0
ARC
  5
147
330
1F
100
AcDbEntity
  8
0
  6
SLD-Gestrichelt
 62
     7
370
     0
100
AcDbCircle
 10
238.7731918199
 20
125.576274645
 30
0.0
 40
0.1200040546652413
100
AcDbArc
 50
120.0033738862
 51
239.9966261138
  0
LINE
  5
148
330
1F
100
AcDbEntity
  8
0
  6
SLD-Gestrichelt
 62
     7
370
     0
100
AcDbLine
 10
238.7131836729
 20
125.6801976715
 30
0.0
 11
239.5831879692
 21
126.1824925323
 31
0.0
  0
LINE
  5
149
330
1F
100
AcDbEntity
  8
0
  6
SLD-Gestrichelt
 62
     7
370
     0
100
AcDbLine
 10
239.5831879692
 20
126.1824925323
 30
0.0
 11
239.5831879692
 21
126.4700570037
 31
0.0
  0
LINE
  5
14A
330
1F
100
AcDbEntity
  8
0
  6
SLD-Gestrichelt
 62
     7
370
     0
100
AcDbLine
 10
239.5831879692
 20
126.4700570037
 30
0.0
 11
238.7131836729
 21
126.9723518644
 31
0.0
  0
LWPOLYLINE
  5
14B
330
1F
100
AcDbEntity
  8
0
  6
SLD-Gestrichelt
 62
     7
370
     0
100
AcDbPolyline
 90
        9
 70
   128
 43
0.0
 10
238.7131836729
 20
126.9723518644
 10
238.7054574208
 20
126.9772142996
 10
238.6906084137
 20
126.9892050777
 10
238.6801776009
 20
127.0004489352
 10
238.6713859158
 20
127.0127368052
 10
238.6628102975
 20
127.0291830306
 10
238.6553150134
 20
127.0537578394
 10
238.6562686877
 20
127.1032958184
 10
238.7131836729
 20
127.1801979174
  0
LINE
  5
14C
330
1F
100
AcDbEntity
  8
0
  6
SLD-Gestrichelt
 62
     7
370
     0
100
AcDbLine
 10
238.7131836729
 20
127.1801979174
 30
0.0
 11
239.5831879692
 21
127.6824927782
 31
0.0
  0
LINE
  5
14D
330
1F
100
AcDbEntity
  8
0
  6
SLD-Gestrichelt
 62
     7
370
     0
100
AcDbLine
 10
239.5831879692
 20
127.6824927782
 30
0.0
 11
239.5831879692
 21
127.9700572495
 31
0.0
  0
LINE
  5
14E
330
1F
100
AcDbEntity
  8
0
  6
SLD-Gestrichelt
 62
     7
370
     0
100
AcDbLine
 10
239.5831879692
 20
127.9700572495
 30
0.0
 11
238.7131836729
 21
128.4723521103
 31
0.0
  0
LWPOLYLINE
  5
14F
330
1F
100
AcDbEntity
  8
0
  6
SLD-Gestrichelt
 62
     7
370
     0
100
AcDbPolyline
 90
       10
 70
   128
 43
0.0
 10
238.7131836729
 20
128.4723521103
 10
238.7019332962
 20
128.4797188719
 10
238.6942666488
 20
128.4858739828
 10
238.6861902194
 20
128.4936197926
 10
238.6795815544
 20
128.5011858572
 10
238.6728685813
 20
128.5104180579
 10
238.6650007682
 20
128.524345987
 10
238.6549052315
 20
128.5560407569
 10
238.6672061401
 20
128.6325582196
 10
238.7131836729
 20
128.6801981632
  0
LWPOLYLINE
  5
150
330
1F
100
AcDbEntity
  8
0
  6
SLD-Gestrichelt
 62
     7
370
     0
100
AcDbPolyline
 90
        4
 70
   128
 43
0.0
 10
238.7131836729
 20
128.6801981632
 10
238.9782827811
 20
128.8332526465
 10
239.1162302809
 20
128.9128974904
 10
239.1175564842
 20
128.9136621063
  0
LWPOLYLINE
  5
151
330
1F
100
AcDbEntity
  8
0
  6
SLD-Gestrichelt
 62
     7
370
     0
100
AcDbPolyline
 90
        4
 70
   128
 43
0.0
 10
239.1175564842
 20
98.2388879065
 10
239.1187783795
 20
98.2381828953
 10
238.9809873419
 20
98.317734607
 10
238.7131836729
 20
98.4723518495
  0
ARC
  5
152
330
1F
100
AcDbEntity
  8
0
  6
SLD-Gestrichelt
 62
     7
370
     0
100
AcDbCircle
 10
238.7731886685
 20
98.576274876
 30
0.0
 40
0.1200024788242716
100
AcDbArc
 50
120.0020708546
 51
239.9979291454
  0
LINE
  5
153
330
1F
100
AcDbEntity
  8
0
  6
SLD-Gestrichelt
 62
     7
370
     0
100
AcDbLine
 10
238.7131836729
 20
98.6801979025
 30
0.0
 11
239.5831879692
 21
99.1824927633
 31
0.0
  0
LINE
  5
154
330
1F
100
AcDbEntity
  8
0
  6
SLD-Gestrichelt
 62
     7
370
     0
100
AcDbLine
 10
239.5831879692
 20
99.1824927633
 30
0.0
 11
239.5831879692
 21
99.4700572346
 31
0.0
  0
LINE
  5
155
330
1F
100
AcDbEntity
  8
0
  6
SLD-Gestrichelt
 62
     7
370
     0
100
AcDbLine
 10
239.5831879692
 20
99.4700572346
 30
0.0
 11
238.7131836729
 21
99.9723520954
 31
0.0
  0
LWPOLYLINE
  5
156
330
1F
100
AcDbEntity
  8
0
  6
SLD-Gestrichelt
 62
     7
370
     0
100
AcDbPolyline
 90
       10
 70
   128
 43
0.0
 10
238.7131836729
 20
99.9723520954
 10
238.6605900245
 20
100.034771197
 10
238.6533629613
 20
100.0698205908
 10
238.6570584493
 20
100.1065230821
 10
238.6623483615
 20
100.1222615023
 10
238.6714678722
 20
100.1399361421
 10
238.6804830747
 20
100.1524773319
 10
238.6912119107
 20
100.1639121105
 10
238.7049656825
 20
100.1749976431
 10
238.7131836729
 20
100.1801981483
  0
LINE
  5
157
330
1F
100
AcDbEntity
  8
0
  6
SLD-Gestrichelt
 62
     7
370
     0
100
AcDbLine
 10
238.7131836729
 20
100.1801981483
 30
0.0
 11
239.5831879692
 21
100.6824930091
 31
0.0
  0
LINE
  5
158
330
1F
100
AcDbEntity
  8
0
  6
SLD-Gestrichelt
 62
     7
370
     0
100
AcDbLine
 10
239.5831879692
 20
100.6824930091
 30
0.0
 11
239.5831879692
 21
100.9700574805
 31
0.0
  0
LINE
  5
159
330
1F
100
AcDbEntity
  8
0
  6
SLD-Gestrichelt
 62
     7
370
     0
100
AcDbLine
 10
239.5831879692
 20
100.9700574805
 30
0.0
 11
238.7131836729
 21
101.4723523413
 31
0.0
  0
LWPOLYLINE
  5
15A
330
1F
100
AcDbEntity
  8
0
  6
SLD-Gestrichelt
 62
     7
370
     0
100
AcDbPolyline
 90
        8
 70
   128
 43
0.0
 10
238.7131836729
 20
101.4723523413
 10
238.6606794315
 20
101.5345386122
 10
238.6541080194
 20
101.5911248405
 10
238.6599492746
 20
101.6159837027
 10
238.6684056835
 20
101.6347619598
 10
238.6811536269
 20
101.6532822405
 10
238.6941548901
 20
101.6665731449
 10
238.7131836729
 20
101.6801983942
  0
LINE
  5
15B
330
1F
100
AcDbEntity
  8
0
  6
SLD-Gestrichelt
 62
     7
370
     0
100
AcDbLine
 10
238.7131836729
 20
101.6801983942
 30
0.0
 11
239.5831879692
 21
102.1824923237
 31
0.0
  0
LINE
  5
15C
330
1F
100
AcDbEntity
  8
0
  6
SLD-Gestrichelt
 62
     7
370
     0
100
AcDbLine
 10
239.5831879692
 20
102.1824923237
 30
0.0
 11
239.5831879692
 21
102.470056795
 31
0.0
  0
LINE
  5
15D
330
1F
100
AcDbEntity
  8
0
  6
SLD-Gestrichelt
 62
     7
370
     0
100
AcDbLine
 10
239.5831879692
 20
102.470056795
 30
0.0
 11
238.7131836729
 21
102.9723516558
 31
0.0
  0
ARC
  5
15E
330
1F
100
AcDbEntity
  8
0
  6
SLD-Gestrichelt
 62
     7
370
     0
100
AcDbCircle
 10
238.7731871701
 20
103.0762746823
 30
0.0
 40
0.1200017295927449
100
AcDbArc
 50
120.0014513
 51
239.9985487
  0
LINE
  5
15F
330
1F
100
AcDbEntity
  8
0
  6
SLD-Gestrichelt
 62
     7
370
     0
100
AcDbLine
 10
238.7131836729
 20
103.1801977088
 30
0.0
 11
239.5831879692
 21
103.6824925695
 31
0.0
  0
LINE
  5
160
330
1F
100
AcDbEntity
  8
0
  6
SLD-Gestrichelt
 62
     7
370
     0
100
AcDbLine
 10
239.5831879692
 20
103.6824925695
 30
0.0
 11
239.5831879692
 21
103.9700570409
 31
0.0
  0
LINE
  5
161
330
1F
100
AcDbEntity
  8
0
  6
SLD-Gestrichelt
 62
     7
370
     0
100
AcDbLine
 10
239.5831879692
 20
103.9700570409
 30
0.0
 11
238.7131836729
 21
104.4723519017
 31
0.0
  0
ARC
  5
162
330
1F
100
AcDbEntity
  8
0
  6
SLD-Gestrichelt
 62
     7
370
     0
100
AcDbCircle
 10
238.7731944185
 20
104.5762749282
 30
0.0
 40
0.1200053541357098
100
AcDbArc
 50
120.0044483281
 51
239.9955516719
  0
LINE
  5
163
330
1F
100
AcDbEntity
  8
0
  6
SLD-Gestrichelt
 62
     7
370
     0
100
AcDbLine
 10
238.7131836729
 20
104.6801979546
 30
0.0
 11
239.5831879692
 21
105.1824928154
 31
0.0
  0
LINE
  5
164
330
1F
100
AcDbEntity
  8
0
  6
SLD-Gestrichelt
 62
     7
370
     0
100
AcDbLine
 10
239.5831879692
 20
105.1824928154
 30
0.0
 11
239.5831879692
 21
105.4700572868
 31
0.0
  0
LINE
  5
165
330
1F
100
AcDbEntity
  8
0
  6
SLD-Gestrichelt
 62
     7
370
     0
100
AcDbLine
 10
239.5831879692
 20
105.4700572868
 30
0.0
 11
238.7131836729
 21
105.9723521476
 31
0.0
  0
ARC
  5
166
330
1F
100
AcDbEntity
  8
0
  6
SLD-Gestrichelt
 62
     7
370
     0
100
AcDbCircle
 10
238.7731916415
 20
106.076275174
 30
0.0
 40
0.1200039654414337
100
AcDbArc
 50
120.0033001111
 51
239.9966998889
  0
LINE
  5
167
330
1F
100
AcDbEntity
  8
0
  6
SLD-Gestrichelt
 62
     7
370
     0
100
AcDbLine
 10
238.7131836729
 20
106.1801982005
 30
0.0
 11
239.5831879692
 21
106.6824925956
 31
0.0
  0
LINE
  5
168
330
1F
100
AcDbEntity
  8
0
  6
SLD-Gestrichelt
 62
     7
370
     0
100
AcDbLine
 10
239.5831879692
 20
106.6824925956
 30
0.0
 11
239.5831879692
 21
106.970057067
 31
0.0
  0
LINE
  5
169
330
1F
100
AcDbEntity
  8
0
  6
SLD-Gestrichelt
 62
     7
370
     0
100
AcDbLine
 10
239.5831879692
 20
106.970057067
 30
0.0
 11
238.7131836729
 21
107.4723519278
 31
0.0
  0
ARC
  5
16A
330
1F
100
AcDbEntity
  8
0
  6
SLD-Gestrichelt
 62
     7
370
     0
100
AcDbCircle
 10
238.7731902608
 20
107.5762749542
 30
0.0
 40
0.1200032750521062
100
AcDbArc
 50
120.0027292503
 51
239.9972707497
  0
LINE
  5
16B
330
1F
100
AcDbEntity
  8
0
  6
SLD-Gestrichelt
 62
     7
370
     0
100
AcDbLine
 10
238.7131836729
 20
107.6801979807
 30
0.0
 11
239.5831879692
 21
108.1824928415
 31
0.0
  0
LINE
  5
16C
330
1F
100
AcDbEntity
  8
0
  6
SLD-Gestrichelt
 62
     7
370
     0
100
AcDbLine
 10
239.5831879692
 20
108.1824928415
 30
0.0
 11
239.5831879692
 21
108.4700573129
 31
0.0
  0
LINE
  5
16D
330
1F
100
AcDbEntity
  8
0
  6
SLD-Gestrichelt
 62
     7
370
     0
100
AcDbLine
 10
239.5831879692
 20
108.4700573129
 30
0.0
 11
238.7131836729
 21
108.9723521736
 31
0.0
  0
ARC
  5
16E
330
1F
100
AcDbEntity
  8
0
  6
SLD-Gestrichelt
 62
     7
370
     0
100
AcDbCircle
 10
238.7731847323
 20
109.0762752001
 30
0.0
 40
0.1200005106291798
100
AcDbArc
 50
120.0004432732
 51
239.9995567268
  0
LINE
  5
16F
330
1F
100
AcDbEntity
  8
0
  6
SLD-Gestrichelt
 62
     7
370
     0
100
AcDbLine
 10
238.7131836729
 20
109.1801982266
 30
0.0
 11
239.5831879692
 21
109.6824928545
 31
0.0
  0
LINE
  5
170
330
1F
100
AcDbEntity
  8
0
  6
SLD-Gestrichelt
 62
     7
370
     0
100
AcDbLine
 10
239.5831879692
 20
109.6824928545
 30
0.0
 11
239.5831879692
 21
109.9700573259
 31
0.0
  0
LINE
  5
171
330
1F
100
AcDbEntity
  8
0
  6
SLD-Gestrichelt
 62
     7
370
     0
100
AcDbLine
 10
239.5831879692
 20
109.9700573259
 30
0.0
 11
238.7131836729
 21
110.4723519538
 31
0.0
  0
ARC
  5
172
330
1F
100
AcDbEntity
  8
0
  6
SLD-Gestrichelt
 62
     7
370
     0
100
AcDbCircle
 10
238.7731860972
 20
110.5762749803
 30
0.0
 40
0.1200011931218376
100
AcDbArc
 50
120.0010076695
 51
239.9989923305
  0
LINE
  5
173
330
1F
100
AcDbEntity
  8
0
  6
SLD-Gestrichelt
 62
     7
370
     0
100
AcDbLine
 10
238.7131836729
 20
110.6801980068
 30
0.0
 11
239.5831879692
 21
111.1824928676
 31
0.0
  0
LINE
  5
174
330
1F
100
AcDbEntity
  8
0
  6
SLD-Gestrichelt
 62
     7
370
     0
100
AcDbLine
 10
239.5831879692
 20
111.1824928676
 30
0.0
 11
239.5831879692
 21
111.4700573389
 31
0.0
  0
LINE
  5
175
330
1F
100
AcDbEntity
  8
0
  6
SLD-Gestrichelt
 62
     7
370
     0
100
AcDbLine
 10
239.5831879692
 20
111.4700573389
 30
0.0
 11
238.7131836729
 21
111.9723519669
 31
0.0
  0
ARC
  5
176
330
1F
100
AcDbEntity
  8
0
  6
SLD-Gestrichelt
 62
     7
370
     0
100
AcDbCircle
 10
238.7731884235
 20
112.0762749933
 30
0.0
 40
0.1200023563327383
100
AcDbArc
 50
120.0019695653
 51
239.9980304347
  0
LINE
  5
177
330
1F
100
AcDbEntity
  8
0
  6
SLD-Gestrichelt
 62
     7
370
     0
100
AcDbLine
 10
238.7131836729
 20
112.1801980198
 30
0.0
 11
239.5831879692
 21
112.6824927642
 31
0.0
  0
LINE
  5
178
330
1F
100
AcDbEntity
  8
0
  6
SLD-Gestrichelt
 62
     7
370
     0
100
AcDbLine
 10
239.5831879692
 20
112.6824927642
 30
0.0
 11
239.5831879692
 21
112.9700572356
 31
0.0
  0
LINE
  5
179
330
1F
100
AcDbEntity
  8
0
  6
SLD-Gestrichelt
 62
     7
370
     0
100
AcDbLine
 10
239.5831879692
 20
112.9700572356
 30
0.0
 11
238.7131836729
 21
113.4723519581
 31
0.0
  0
ARC
  5
17A
330
1F
100
AcDbEntity
  8
0
  6
SLD-Gestrichelt
 62
     7
370
     0
100
AcDbCircle
 10
238.7731880567
 20
113.5762750064
 30
0.0
 40
0.1200021918053713
100
AcDbArc
 50
120.0018126727
 51
239.9981873273
  0
LINE
  5
17B
330
1F
100
AcDbEntity
  8
0
  6
SLD-Gestrichelt
 62
     7
370
     0
100
AcDbLine
 10
238.7131836729
 20
113.6801980547
 30
0.0
 11
239.5831879692
 21
114.1824927772
 31
0.0
  0
LINE
  5
17C
330
1F
100
AcDbEntity
  8
0
  6
SLD-Gestrichelt
 62
     7
370
     0
100
AcDbLine
 10
239.5831879692
 20
114.1824927772
 30
0.0
 11
239.5831879692
 21
114.4700572486
 31
0.0
  0
LINE
  5
17D
330
1F
100
AcDbEntity
  8
0
  6
SLD-Gestrichelt
 62
     7
370
     0
100
AcDbLine
 10
161.9831856804
 20
100.4933730592
 30
0.0
 11
161.9831856804
 21
97.1761762057
 31
0.0
  0
LINE
  5
17E
330
1F
100
AcDbEntity
  8
0
  6
SLD-Gestrichelt
 62
     7
370
     0
100
AcDbLine
 10
135.6831856536
 20
101.0655972068
 30
0.0
 11
135.6831856536
 21
98.0434778039
 31
0.0
  0
LINE
  5
17F
330
1F
100
AcDbEntity
  8
0
  6
SLD-Gestrichelt
 62
     7
370
     0
100
AcDbLine
 10
139.6831863092
 20
97.9514109795
 30
0.0
 11
135.6831856536
 21
98.0434778039
 31
0.0
  0
LWPOLYLINE
  5
180
330
1F
100
AcDbEntity
  8
0
  6
SLD-Gestrichelt
 62
     7
370
     0
100
AcDbPolyline
 90
        6
 70
   128
 43
0.0
 10
141.5402696001
 20
97.6921624397
 10
141.5575195568
 20
97.6903538112
 10
141.3507268297
 20
97.7126180087
 10
140.8150729256
 20
97.777831078
 10
140.1518837081
 20
97.8736418192
 10
139.6831863092
 20
97.9514109795
  0
LWPOLYLINE
  5
181
330
1F
100
AcDbEntity
  8
0
  6
SLD-Gestrichelt
 62
     7
370
     0
100
AcDbPolyline
 90
       10
 70
   128
 43
0.0
 10
147.7122448849
 20
97.6214862321
 10
147.8948120492
 20
97.6313806032
 10
148.4477960037
 20
97.6613524263
 10
149.4797982739
 20
97.6841381644
 10
150.6380487697
 20
97.6634311383
 10
151.7796751576
 20
97.5953440075
 10
152.7426356914
 20
97.501608253
 10
153.3812975975
 20
97.4214530443
 10
153.6286252083
 20
97.3866197173
 10
153.6098851355
 20
97.3893019263
  0
LWPOLYLINE
  5
182
330
1F
100
AcDbEntity
  8
0
  6
SLD-Gestrichelt
 62
     7
370
     0
100
AcDbPolyline
 90
        5
 70
   128
 43
0.0
 10
146.9463717656
 20
97.5592794721
 10
146.9455894547
 20
97.5592049663
 10
147.273036884
 20
97.5883777146
 10
147.3697361069
 20
97.5956681077
 10
147.7122448849
 20
97.6214862321
  0
LINE
  5
183
330
1F
100
AcDbEntity
  8
0
  6
SLD-Gestrichelt
 62
     7
370
     0
100
AcDbLine
 10
163.9831856735
 20
99.9905100916
 30
0.0
 11
163.9831856735
 21
97.1482085888
 31
0.0
  0
LINE
  5
184
330
1F
100
AcDbEntity
  8
0
  6
SLD-Gestrichelt
 62
     7
370
     0
100
AcDbLine
 10
139.211225556
 20
102.7875996088
 30
0.0
 11
139.211225556
 21
124.364950404
 31
0.0
  0
LINE
  5
185
330
1F
100
AcDbEntity
  8
0
  6
SLD-Gestrichelt
 62
     7
370
     0
100
AcDbLine
 10
135.2112249004
 20
102.4064018284
 30
0.0
 11
135.2112249004
 21
124.7461481844
 31
0.0
  0
LINE
  5
186
330
1F
100
AcDbEntity
  8
0
  6
SLD-Gestrichelt
 62
     7
370
     0
100
AcDbLine
 10
134.183186339
 20
101.8301152517
 30
0.0
 11
134.183186339
 21
125.3224347611
 31
0.0
  0
LINE
  5
187
330
1F
100
AcDbEntity
  8
0
  6
SLD-Gestrichelt
 62
     7
370
     0
100
AcDbLine
 10
143.8112251925
 20
103.0762751479
 30
0.0
 11
143.8112251925
 21
124.0762748648
 31
0.0
  0
LINE
  5
188
330
1F
100
AcDbEntity
  8
0
  6
SLD-Gestrichelt
 62
     7
370
     0
100
AcDbLine
 10
137.7112262415
 20
103.0762751479
 30
0.0
 11
137.7112262415
 21
124.0762748648
 31
0.0
  0
LINE
  5
189
330
1F
100
AcDbEntity
  8
0
  6
SLD-Gestrichelt
 62
     7
370
     0
100
AcDbLine
 10
238.3831825571
 20
119.254449558
 30
0.0
 11
238.3831825571
 21
123.4544494082
 31
0.0
  0
LINE
  5
18A
330
1F
100
AcDbEntity
  8
0
  6
SLD-Gestrichelt
 62
     7
370
     0
100
AcDbLine
 10
239.5831879692
 20
123.1824929719
 30
0.0
 11
239.5831879692
 21
123.4700574432
 31
0.0
  0
ARC
  5
18B
330
1F
100
AcDbEntity
  8
0
  6
SLD-Gestrichelt
 62
     7
370
     0
100
AcDbCircle
 10
238.773188025
 20
122.5762750846
 30
0.0
 40
0.1200021570628625
100
AcDbArc
 50
120.001804786
 51
239.998195214
  0
LINE
  5
18C
330
1F
100
AcDbEntity
  8
0
  6
SLD-Gestrichelt
 62
     7
370
     0
100
AcDbLine
 10
239.5831879692
 20
121.682492726
 30
0.0
 11
239.5831879692
 21
121.9700571974
 31
0.0
  0
ARC
  5
18D
330
1F
100
AcDbEntity
  8
0
  6
SLD-Gestrichelt
 62
     7
370
     0
100
AcDbCircle
 10
238.7731878655
 20
121.0762748388
 30
0.0
 40
0.1200020772885434
100
AcDbArc
 50
120.0017388191
 51
239.9982611809
  0
LINE
  5
18E
330
1F
100
AcDbEntity
  8
0
  6
SLD-Gestrichelt
 62
     7
370
     0
100
AcDbLine
 10
239.5831879692
 20
120.1824929458
 30
0.0
 11
239.5831879692
 21
120.4700574172
 31
0.0
  0
ARC
  5
18F
330
1F
100
AcDbEntity
  8
0
  6
SLD-Gestrichelt
 62
     7
370
     0
100
AcDbCircle
 10
238.7731865299
 20
119.5762750585
 30
0.0
 40
0.1200014094528669
100
AcDbArc
 50
120.001186564
 51
239.998813436
  0
LINE
  5
190
330
1F
100
AcDbEntity
  8
0
  6
SLD-Gestrichelt
 62
     7
370
     0
100
AcDbLine
 10
239.5831879692
 20
118.6824926999
 30
0.0
 11
239.5831879692
 21
118.9700571713
 31
0.0
  0
LINE
  5
191
330
1F
100
AcDbEntity
  8
0
  6
SLD-Gestrichelt
 62
     7
370
     0
100
AcDbLine
 10
239.5831879692
 20
123.4700574432
 30
0.0
 11
239.5831879692
 21
123.1824929719
 31
0.0
  0
LWPOLYLINE
  5
192
330
1F
100
AcDbEntity
  8
0
  6
SLD-Gestrichelt
 62
     7
370
     0
100
AcDbPolyline
 90
        6
 70
   128
 43
0.0
 10
239.5831879692
 20
123.4700574432
 10
239.1702246385
 20
123.708480679
 10
238.9001857953
 20
123.8643878032
 10
238.8624635058
 20
123.886167713
 10
239.1702246385
 20
123.7084788163
 10
239.5831879692
 20
123.4700574432
  0
LINE
  5
193
330
1F
100
AcDbEntity
  8
0
  6
SLD-Gestrichelt
 62
     7
370
     0
100
AcDbLine
 10
239.5831879692
 20
121.9700571974
 30
0.0
 11
239.5831879692
 21
121.682492726
 31
0.0
  0
ARC
  5
194
330
1F
100
AcDbEntity
  8
0
  6
SLD-Gestrichelt
 62
     7
370
     0
100
AcDbCircle
 10
238.7731897123
 20
122.5762750846
 30
0.0
 40
0.12000300074563
100
AcDbArc
 50
120.0025024305
 51
239.9974975695
  0
LINE
  5
195
330
1F
100
AcDbEntity
  8
0
  6
SLD-Gestrichelt
 62
     7
370
     0
100
AcDbLine
 10
239.5831879692
 20
120.4700574172
 30
0.0
 11
239.5831879692
 21
120.1824929458
 31
0.0
  0
ARC
  5
196
330
1F
100
AcDbEntity
  8
0
  6
SLD-Gestrichelt
 62
     7
370
     0
100
AcDbCircle
 10
238.7731889467
 20
121.0762748388
 30
0.0
 40
0.1200026179507257
100
AcDbArc
 50
120.002185899
 51
239.997814101
  0
LINE
  5
197
330
1F
100
AcDbEntity
  8
0
  6
SLD-Gestrichelt
 62
     7
370
     0
100
AcDbLine
 10
239.5831879692
 20
118.9700571713
 30
0.0
 11
239.5831879692
 21
118.6824926999
 31
0.0
  0
ARC
  5
198
330
1F
100
AcDbEntity
  8
0
  6
SLD-Gestrichelt
 62
     7
370
     0
100
AcDbCircle
 10
238.7731844104
 20
119.5762750585
 30
0.0
 40
0.1200003496841451
100
AcDbArc
 50
120.0003101752
 51
239.9996898248
  0
LWPOLYLINE
  5
199
330
1F
100
AcDbEntity
  8
0
  6
SLD-Gestrichelt
 62
     7
370
     0
100
AcDbPolyline
 90
        6
 70
   128
 43
0.0
 10
239.5831879692
 20
118.6824926999
 10
239.3191617446
 20
118.5300570805
 10
239.1902294474
 20
118.4556187955
 10
239.2204788046
 20
118.4730824907
 10
239.3864553886
 20
118.5689099957
 10
239.5831879692
 20
118.6824926999
  0
LINE
  5
19A
330
1F
100
AcDbEntity
  8
0
  6
SLD-Gestrichelt
 62
     7
370
     0
100
AcDbLine
 10
238.3831825571
 20
103.6981006046
 30
0.0
 11
238.3831825571
 21
107.8981004548
 31
0.0
  0
ARC
  5
19B
330
1F
100
AcDbEntity
  8
0
  6
SLD-Gestrichelt
 62
     7
370
     0
100
AcDbCircle
 10
238.7731844104
 20
107.5762749542
 30
0.0
 40
0.1200003496841451
100
AcDbArc
 50
120.0003101752
 51
239.9996898248
  0
LINE
  5
19C
330
1F
100
AcDbEntity
  8
0
  6
SLD-Gestrichelt
 62
     7
370
     0
100
AcDbLine
 10
239.5831879692
 20
106.6824925956
 30
0.0
 11
239.5831879692
 21
106.970057067
 31
0.0
  0
ARC
  5
19D
330
1F
100
AcDbEntity
  8
0
  6
SLD-Gestrichelt
 62
     7
370
     0
100
AcDbCircle
 10
238.7731889467
 20
106.076275174
 30
0.0
 40
0.1200026179507257
100
AcDbArc
 50
120.002185899
 51
239.997814101
  0
LINE
  5
19E
330
1F
100
AcDbEntity
  8
0
  6
SLD-Gestrichelt
 62
     7
370
     0
100
AcDbLine
 10
239.5831879692
 20
105.1824928154
 30
0.0
 11
239.5831879692
 21
105.4700572868
 31
0.0
  0
ARC
  5
19F
330
1F
100
AcDbEntity
  8
0
  6
SLD-Gestrichelt
 62
     7
370
     0
100
AcDbCircle
 10
238.7731897123
 20
104.5762749282
 30
0.0
 40
0.12000300074563
100
AcDbArc
 50
120.0025024305
 51
239.9974975695
  0
LINE
  5
1A0
330
1F
100
AcDbEntity
  8
0
  6
SLD-Gestrichelt
 62
     7
370
     0
100
AcDbLine
 10
239.5831879692
 20
103.6824925695
 30
0.0
 11
239.5831879692
 21
103.9700570409
 31
0.0
  0
LINE
  5
1A1
330
1F
100
AcDbEntity
  8
0
  6
SLD-Gestrichelt
 62
     7
370
     0
100
AcDbLine
 10
239.5831879692
 20
108.1824928415
 30
0.0
 11
239.5831879692
 21
108.4700573129
 31
0.0
  0
LINE
  5
1A2
330
1F
100
AcDbEntity
  8
0
  6
SLD-Gestrichelt
 62
     7
370
     0
100
AcDbLine
 10
239.5831879692
 20
103.9700570409
 30
0.0
 11
239.5831879692
 21
103.6824925695
 31
0.0
  0
LWPOLYLINE
  5
1A3
330
1F
100
AcDbEntity
  8
0
  6
SLD-Gestrichelt
 62
     7
370
     0
100
AcDbPolyline
 90
        6
 70
   128
 43
0.0
 10
239.5831879692
 20
103.6824925695
 10
239.1702246385
 20
103.4440693338
 10
238.9001857953
 20
103.2881622095
 10
238.8624635058
 20
103.2663822998
 10
239.1702246385
 20
103.4440711965
 10
239.5831879692
 20
103.6824925695
  0
LINE
  5
1A4
330
1F
100
AcDbEntity
  8
0
  6
SLD-Gestrichelt
 62
     7
370
     0
100
AcDbLine
 10
239.5831879692
 20
105.4700572868
 30
0.0
 11
239.5831879692
 21
105.1824928154
 31
0.0
  0
ARC
  5
1A5
330
1F
100
AcDbEntity
  8
0
  6
SLD-Gestrichelt
 62
     7
370
     0
100
AcDbCircle
 10
238.773188025
 20
104.5762749282
 30
0.0
 40
0.1200021570628625
100
AcDbArc
 50
120.001804786
 51
239.998195214
  0
LINE
  5
1A6
330
1F
100
AcDbEntity
  8
0
  6
SLD-Gestrichelt
 62
     7
370
     0
100
AcDbLine
 10
239.5831879692
 20
106.970057067
 30
0.0
 11
239.5831879692
 21
106.6824925956
 31
0.0
  0
ARC
  5
1A7
330
1F
100
AcDbEntity
  8
0
  6
SLD-Gestrichelt
 62
     7
370
     0
100
AcDbCircle
 10
238.7731878655
 20
106.076275174
 30
0.0
 40
0.1200020772885434
100
AcDbArc
 50
120.0017388191
 51
239.9982611809
  0
LINE
  5
1A8
330
1F
100
AcDbEntity
  8
0
  6
SLD-Gestrichelt
 62
     7
370
     0
100
AcDbLine
 10
239.5831879692
 20
108.4700573129
 30
0.0
 11
239.5831879692
 21
108.1824928415
 31
0.0
  0
ARC
  5
1A9
330
1F
100
AcDbEntity
  8
0
  6
SLD-Gestrichelt
 62
     7
370
     0
100
AcDbCircle
 10
238.7731865299
 20
107.5762749542
 30
0.0
 40
0.1200014094528669
100
AcDbArc
 50
120.001186564
 51
239.998813436
  0
LWPOLYLINE
  5
1AA
330
1F
100
AcDbEntity
  8
0
  6
SLD-Gestrichelt
 62
     7
370
     0
100
AcDbPolyline
 90
        6
 70
   128
 43
0.0
 10
239.5831879692
 20
108.4700573129
 10
239.3191617446
 20
108.6224929322
 10
239.1902294474
 20
108.6969312173
 10
239.2204788046
 20
108.6794675221
 10
239.3864553886
 20
108.5836400171
 10
239.5831879692
 20
108.4700573129
  0
LINE
  5
1AB
330
1F
100
AcDbEntity
  8
0
  6
SLD-Gestrichelt
 62
     7
370
     0
100
AcDbLine
 10
138.7112264054
 20
103.0762751479
 30
0.0
 11
138.7112264054
 21
124.0762748648
 31
0.0
  0
LWPOLYLINE
  5
1AC
330
1F
100
AcDbEntity
  8
0
  6
SLD-Gestrichelt
 62
     7
370
     0
100
AcDbPolyline
 90
       24
 70
   128
 43
0.0
 10
149.8650482388
 20
103.5147297089
 10
150.1831852364
 20
103.5290115406
 10
150.4089816006
 20
103.5179688488
 10
151.1683270799
 20
103.4808304985
 10
152.0419197621
 20
103.358526424
 10
152.7324628549
 20
103.210643575
 10
153.146665776
 20
103.1010799934
 10
153.1982331069
 20
103.0863269125
 10
153.2191254663
 20
103.0803506155
 10
152.9679803642
 20
103.1502221604
 10
152.4235068353
 20
103.2822697316
 10
151.6125614287
 20
103.4278456946
 10
150.6259536835
 20
103.5192605932
 10
149.6206151785
 20
103.5132740517
 10
148.7012070136
 20
103.420302913
 10
147.9207475202
 20
103.2774343048
 10
147.3676015156
 20
103.1419557412
 10
147.1377492415
 20
103.0775994887
 10
147.1560255157
 20
103.0828148951
 10
147.2463787066
 20
103.1085948353
 10
147.659779759
 20
103.2169756372
 10
148.3550772535
 20
103.3640528922
 10
149.2792640345
 20
103.4884319533
 10
149.8650482388
 20
103.5147297089
  0
LWPOLYLINE
  5
1AD
330
1F
100
AcDbEntity
  8
0
  6
SLD-Gestrichelt
 62
     7
370
     0
100
AcDbPolyline
 90
       24
 70
   128
 43
0.0
 10
150.5013231652
 20
123.6378203039
 10
150.1831852364
 20
123.6235384722
 10
149.9573898034
 20
123.634581164
 10
149.1980433928
 20
123.6717195143
 10
148.3244516419
 20
123.7940235888
 10
147.6339094805
 20
123.9419064377
 10
147.2197056281
 20
124.0514700194
 10
147.1681382971
 20
124.0662231003
 10
147.1472450065
 20
124.0721993972
 10
147.3983910399
 20
124.0023278524
 10
147.9428645687
 20
123.8702802812
 10
148.7538099753
 20
123.7247043182
 10
149.7404177206
 20
123.6332894196
 10
150.7457562255
 20
123.6392759611
 10
151.6651643904
 20
123.7322470997
 10
152.4456229525
 20
123.875115708
 10
152.9987689572
 20
124.0105942716
 10
153.2286230939
 20
124.0749505241
 10
153.2103458883
 20
124.0697351177
 10
153.1199926974
 20
124.0439551775
 10
152.7065916451
 20
123.9355743755
 10
152.0112950819
 20
123.7884971206
 10
151.0871073695
 20
123.6641180594
 10
150.5013231652
 20
123.6378203039
  0
LINE
  5
1AE
330
1F
100
AcDbEntity
  8
0
  6
SLD-Gestrichelt
 62
     7
370
     0
100
AcDbLine
 10
154.183185892
 20
103.5762752299
 30
0.0
 11
154.183185892
 21
123.5762747829
 31
0.0
  0
LINE
  5
1AF
330
1F
100
AcDbEntity
  8
0
  6
SLD-Gestrichelt
 62
     7
370
     0
100
AcDbLine
 10
225.7831853347
 20
103.6981006046
 30
0.0
 11
225.7831853347
 21
107.8981004548
 31
0.0
  0
LINE
  5
1B0
330
1F
100
AcDbEntity
  8
0
  6
SLD-Gestrichelt
 62
     7
370
     0
100
AcDbLine
 10
225.7831853347
 20
119.254449558
 30
0.0
 11
225.7831853347
 21
123.4544494082
 31
0.0
  0
LINE
  5
1B1
330
1F
100
AcDbEntity
  8
0
  6
SLD-Gestrichelt
 62
     7
370
     0
100
AcDbLine
 10
155.1831860559
 20
106.326275215
 30
0.0
 11
155.1831860559
 21
120.8262747978
 31
0.0
  0
LINE
  5
1B2
330
1F
100
AcDbEntity
  8
0
  6
SLD-Gestrichelt
 62
     7
370
     0
100
AcDbLine
 10
154.183185892
 20
105.3305135001
 30
0.0
 11
154.183185892
 21
121.8220365126
 31
0.0
  0
LINE
  5
1B3
330
1F
100
AcDbEntity
  8
0
  6
SLD-Gestrichelt
 62
     7
370
     0
100
AcDbLine
 10
179.1831853332
 20
106.326275215
 30
0.0
 11
179.1831853332
 21
120.8262747978
 31
0.0
  0
LINE
  5
1B4
330
1F
100
AcDbEntity
  8
0
  6
SLD-Gestrichelt
 62
     7
370
     0
100
AcDbLine
 10
181.4964984076
 20
110.1762749613
 30
0.0
 11
181.4964984076
 21
116.9762750515
 31
0.0
  0
LINE
  5
1B5
330
1F
100
AcDbEntity
  8
0
  6
SLD-Gestrichelt
 62
     7
370
     0
100
AcDbLine
 10
238.5831859427
 20
107.5762749542
 30
0.0
 11
238.5831859427
 21
119.5762750585
 31
0.0
  0
LINE
  5
1B6
330
1F
100
AcDbEntity
  8
0
  6
SLD-Gestrichelt
 62
     7
370
     0
100
AcDbLine
 10
239.5831879692
 20
118.6824926999
 30
0.0
 11
239.5831879692
 21
118.9700571713
 31
0.0
  0
LWPOLYLINE
  5
1B7
330
1F
100
AcDbEntity
  8
0
  6
SLD-Gestrichelt
 62
     7
370
     0
100
AcDbPolyline
 90
        3
 70
   128
 43
0.0
 10
239.5831879692
 20
118.9700571713
 10
239.0701856928
 20
119.2662363765
 10
238.7131836729
 20
119.4723520321
  0
LWPOLYLINE
  5
1B8
330
1F
100
AcDbEntity
  8
0
  6
SLD-Gestrichelt
 62
     7
370
     0
100
AcDbPolyline
 90
       16
 70
   128
 43
0.0
 10
238.7131836729
 20
119.4723520321
 10
238.683977397
 20
119.4960108851
 10
238.6657383757
 20
119.6297041033
 10
238.6700373607
 20
119.6375970621
 10
238.6734646278
 20
119.6430271384
 10
238.6763629036
 20
119.6471682642
 10
238.6788737493
 20
119.6504730624
 10
238.6821073013
 20
119.6544088316
 10
238.6840891557
 20
119.6566565786
 10
238.6861827688
 20
119.6589224865
 10
238.6878591495
 20
119.6606533495
 10
238.6896174865
 20
119.6623949227
 10
238.6916216927
 20
119.6642952864
 10
238.6945050674
 20
119.6668806379
 10
238.7010988312
 20
119.6722073373
 10
238.7131836729
 20
119.680198085
  0
LWPOLYLINE
  5
1B9
330
1F
100
AcDbEntity
  8
0
  6
SLD-Gestrichelt
 62
     7
370
     0
100
AcDbPolyline
 90
        4
 70
   128
 43
0.0
 10
238.7131836729
 20
119.680198085
 10
238.9466327148
 20
119.814980485
 10
239.3048044758
 20
120.0217676242
 10
239.5831879692
 20
120.1824929458
  0
LINE
  5
1BA
330
1F
100
AcDbEntity
  8
0
  6
SLD-Gestrichelt
 62
     7
370
     0
100
AcDbLine
 10
239.5831879692
 20
120.1824929458
 30
0.0
 11
239.5831879692
 21
120.4700574172
 31
0.0
  0
LINE
  5
1BB
330
1F
100
AcDbEntity
  8
0
  6
SLD-Gestrichelt
 62
     7
370
     0
100
AcDbLine
 10
239.5831879692
 20
120.4700574172
 30
0.0
 11
239.5158496218
 21
120.5089331497
 31
0.0
  0
LINE
  5
1BC
330
1F
100
AcDbEntity
  8
0
  6
SLD-Gestrichelt
 62
     7
370
     0
100
AcDbLine
 10
239.5831879692
 20
120.4700574172
 30
0.0
 11
239.5831879692
 21
120.1824929458
 31
0.0
  0
LWPOLYLINE
  5
1BD
330
1F
100
AcDbEntity
  8
0
  6
SLD-Gestrichelt
 62
     7
370
     0
100
AcDbPolyline
 90
        4
 70
   128
 43
0.0
 10
239.5831879692
 20
120.1824929458
 10
239.1885158139
 20
119.9546313737
 10
238.8618153053
 20
119.766011544
 10
238.7131836729
 20
119.680198085
  0
LWPOLYLINE
  5
1BE
330
1F
100
AcDbEntity
  8
0
  6
SLD-Gestrichelt
 62
     7
370
     0
100
AcDbPolyline
 90
       16
 70
   128
 43
0.0
 10
238.7131836729
 20
119.680198085
 10
238.7114551382
 20
119.6791815464
 10
238.7060534673
 20
119.6757412408
 10
238.7019407468
 20
119.672837377
 10
238.6986550408
 20
119.6703265314
 10
238.694743486
 20
119.6670845975
 10
238.6925083118
 20
119.6651078653
 10
238.6902507859
 20
119.6630040076
 10
238.6885297017
 20
119.6613211077
 10
238.6867937165
 20
119.6595581141
 10
238.6848938184
 20
119.657545526
 10
238.6823159175
 20
119.6546472502
 10
238.6769887524
 20
119.6480087829
 10
238.6654254513
 20
119.6290759262
 10
238.6531841474
 20
119.5759383854
 10
238.7131836729
 20
119.4723520321
  0
LWPOLYLINE
  5
1BF
330
1F
100
AcDbEntity
  8
0
  6
SLD-Gestrichelt
 62
     7
370
     0
100
AcDbPolyline
 90
        3
 70
   128
 43
0.0
 10
238.7131836729
 20
119.4723520321
 10
239.0620347576
 20
119.2709428151
 10
239.5831879692
 20
118.9700571713
  0
LINE
  5
1C0
330
1F
100
AcDbEntity
  8
0
  6
SLD-Gestrichelt
 62
     7
370
     0
100
AcDbLine
 10
239.5831879692
 20
118.9700571713
 30
0.0
 11
239.5831879692
 21
118.6824926999
 31
0.0
  0
ARC
  5
1C1
330
1F
100
AcDbEntity
  8
0
  6
SLD-Gestrichelt
 62
     7
370
     0
100
AcDbCircle
 10
238.7731855981
 20
118.0762748127
 30
0.0
 40
0.1200009435729741
100
AcDbArc
 50
120.0008013036
 51
239.9991986964
  0
LINE
  5
1C2
330
1F
100
AcDbEntity
  8
0
  6
SLD-Gestrichelt
 62
     7
370
     0
100
AcDbLine
 10
239.5831879692
 20
117.4700571583
 30
0.0
 11
239.5831879692
 21
117.1824926869
 31
0.0
  0
ARC
  5
1C3
330
1F
100
AcDbEntity
  8
0
  6
SLD-Gestrichelt
 62
     7
370
     0
100
AcDbCircle
 10
238.7731847416
 20
116.5762750325
 30
0.0
 40
0.1200005152910424
100
AcDbArc
 50
120.0004471284
 51
239.9995528716
  0
LINE
  5
1C4
330
1F
100
AcDbEntity
  8
0
  6
SLD-Gestrichelt
 62
     7
370
     0
100
AcDbLine
 10
239.5831879692
 20
115.9700571452
 30
0.0
 11
239.5831879692
 21
115.6824926738
 31
0.0
  0
ARC
  5
1C5
330
1F
100
AcDbEntity
  8
0
  6
SLD-Gestrichelt
 62
     7
370
     0
100
AcDbCircle
 10
238.77319363
 20
115.0762750194
 30
0.0
 40
0.1200049597962692
100
AcDbArc
 50
120.0041222823
 51
239.9958777177
  0
LINE
  5
1C6
330
1F
100
AcDbEntity
  8
0
  6
SLD-Gestrichelt
 62
     7
370
     0
100
AcDbLine
 10
239.5831879692
 20
114.4700572486
 30
0.0
 11
239.5831879692
 21
114.1824927772
 31
0.0
  0
ARC
  5
1C7
330
1F
100
AcDbEntity
  8
0
  6
SLD-Gestrichelt
 62
     7
370
     0
100
AcDbCircle
 10
238.7731816391
 20
113.5762750064
 30
0.0
 40
0.119998982941307
100
AcDbArc
 50
119.9991590284
 51
240.0008409716
  0
LINE
  5
1C8
330
1F
100
AcDbEntity
  8
0
  6
SLD-Gestrichelt
 62
     7
370
     0
100
AcDbLine
 10
239.5831879692
 20
112.9700572356
 30
0.0
 11
239.5831879692
 21
112.6824927642
 31
0.0
  0
ARC
  5
1C9
330
1F
100
AcDbEntity
  8
0
  6
SLD-Gestrichelt
 62
     7
370
     0
100
AcDbCircle
 10
238.7731847338
 20
112.0762749933
 30
0.0
 40
0.1200005113795941
100
AcDbArc
 50
120.0004438937
 51
239.9995561063
  0
LINE
  5
1CA
330
1F
100
AcDbEntity
  8
0
  6
SLD-Gestrichelt
 62
     7
370
     0
100
AcDbLine
 10
239.5831879692
 20
111.4700573389
 30
0.0
 11
239.5831879692
 21
111.1824928676
 31
0.0
  0
ARC
  5
1CB
330
1F
100
AcDbEntity
  8
0
  6
SLD-Gestrichelt
 62
     7
370
     0
100
AcDbCircle
 10
238.7731863479
 20
110.5762749803
 30
0.0
 40
0.1200013184725541
100
AcDbArc
 50
120.0011113282
 51
239.9988886718
  0
LINE
  5
1CC
330
1F
100
AcDbEntity
  8
0
  6
SLD-Gestrichelt
 62
     7
370
     0
100
AcDbLine
 10
239.5831879692
 20
109.9700573259
 30
0.0
 11
239.5831879692
 21
109.6824928545
 31
0.0
  0
ARC
  5
1CD
330
1F
100
AcDbEntity
  8
0
  6
SLD-Gestrichelt
 62
     7
370
     0
100
AcDbCircle
 10
238.7731852972
 20
109.0762752001
 30
0.0
 40
0.1200007931266694
100
AcDbArc
 50
120.0006768902
 51
239.9993231098
  0
LINE
  5
1CE
330
1F
100
AcDbEntity
  8
0
  6
SLD-Gestrichelt
 62
     7
370
     0
100
AcDbLine
 10
239.5831879692
 20
108.4700573129
 30
0.0
 11
239.5831879692
 21
108.1824928415
 31
0.0
  0
LWPOLYLINE
  5
1CF
330
1F
100
AcDbEntity
  8
0
  6
SLD-Gestrichelt
 62
     7
370
     0
100
AcDbPolyline
 90
        3
 70
   128
 43
0.0
 10
239.5831879692
 20
108.1824928415
 10
239.0701856928
 20
107.8863136363
 10
238.7131836729
 20
107.6801979807
  0
LWPOLYLINE
  5
1D0
330
1F
100
AcDbEntity
  8
0
  6
SLD-Gestrichelt
 62
     7
370
     0
100
AcDbPolyline
 90
       16
 70
   128
 43
0.0
 10
238.7131836729
 20
107.6801979807
 10
238.683977397
 20
107.6565391277
 10
238.6657383757
 20
107.5228459095
 10
238.6700373607
 20
107.5149529506
 10
238.6734646278
 20
107.5095228744
 10
238.6763629036
 20
107.5053817485
 10
238.6788737493
 20
107.5020769504
 10
238.6821073013
 20
107.4981411812
 10
238.6840891557
 20
107.4958934341
 10
238.6861827688
 20
107.4936275263
 10
238.6878591495
 20
107.4918966633
 10
238.6896174865
 20
107.4901550901
 10
238.6916216927
 20
107.4882547264
 10
238.6945050674
 20
107.4856693749
 10
238.7010988312
 20
107.4803426755
 10
238.7131836729
 20
107.4723519278
  0
LWPOLYLINE
  5
1D1
330
1F
100
AcDbEntity
  8
0
  6
SLD-Gestrichelt
 62
     7
370
     0
100
AcDbPolyline
 90
        4
 70
   128
 43
0.0
 10
238.7131836729
 20
107.4723519278
 10
238.9466327148
 20
107.3375695278
 10
239.3048044758
 20
107.1307823886
 10
239.5831879692
 20
106.970057067
  0
LINE
  5
1D2
330
1F
100
AcDbEntity
  8
0
  6
SLD-Gestrichelt
 62
     7
370
     0
100
AcDbLine
 10
239.5831879692
 20
106.970057067
 30
0.0
 11
239.5831879692
 21
106.6824925956
 31
0.0
  0
LINE
  5
1D3
330
1F
100
AcDbEntity
  8
0
  6
SLD-Gestrichelt
 62
     7
370
     0
100
AcDbLine
 10
239.5831879692
 20
106.6824925956
 30
0.0
 11
239.5158496218
 21
106.643616863
 31
0.0
  0
LINE
  5
1D4
330
1F
100
AcDbEntity
  8
0
  6
SLD-Gestrichelt
 62
     7
370
     0
100
AcDbLine
 10
239.5831879692
 20
106.6824925956
 30
0.0
 11
239.5831879692
 21
106.970057067
 31
0.0
  0
LWPOLYLINE
  5
1D5
330
1F
100
AcDbEntity
  8
0
  6
SLD-Gestrichelt
 62
     7
370
     0
100
AcDbPolyline
 90
        4
 70
   128
 43
0.0
 10
239.5831879692
 20
106.970057067
 10
239.1885158139
 20
107.197918639
 10
238.8618153053
 20
107.3865384688
 10
238.7131836729
 20
107.4723519278
  0
LWPOLYLINE
  5
1D6
330
1F
100
AcDbEntity
  8
0
  6
SLD-Gestrichelt
 62
     7
370
     0
100
AcDbPolyline
 90
       16
 70
   128
 43
0.0
 10
238.7131836729
 20
107.4723519278
 10
238.7114551382
 20
107.4733684664
 10
238.7060534673
 20
107.4768087719
 10
238.7019407468
 20
107.4797126357
 10
238.6986550408
 20
107.4822234814
 10
238.694743486
 20
107.4854654153
 10
238.6925083118
 20
107.4874421474
 10
238.6902507859
 20
107.4895460051
 10
238.6885297017
 20
107.491228905
 10
238.6867937165
 20
107.4929918987
 10
238.6848938184
 20
107.4950044867
 10
238.6823159175
 20
107.4979027626
 10
238.6769887524
 20
107.5045412299
 10
238.6654254513
 20
107.5234740865
 10
238.6531841474
 20
107.5766116273
 10
238.7131836729
 20
107.6801979807
  0
LWPOLYLINE
  5
1D7
330
1F
100
AcDbEntity
  8
0
  6
SLD-Gestrichelt
 62
     7
370
     0
100
AcDbPolyline
 90
        3
 70
   128
 43
0.0
 10
238.7131836729
 20
107.6801979807
 10
239.0620347576
 20
107.8816071977
 10
239.5831879692
 20
108.1824928415
  0
LINE
  5
1D8
330
1F
100
AcDbEntity
  8
0
  6
SLD-Gestrichelt
 62
     7
370
     0
100
AcDbLine
 10
239.5831879692
 20
108.1824928415
 30
0.0
 11
239.5831879692
 21
108.4700573129
 31
0.0
  0
LINE
  5
1D9
330
1F
100
AcDbEntity
  8
0
  6
SLD-Gestrichelt
 62
     7
370
     0
100
AcDbLine
 10
239.5831879692
 20
109.6824928545
 30
0.0
 11
239.5831879692
 21
109.9700573259
 31
0.0
  0
LINE
  5
1DA
330
1F
100
AcDbEntity
  8
0
  6
SLD-Gestrichelt
 62
     7
370
     0
100
AcDbLine
 10
239.5831879692
 20
117.1824926869
 30
0.0
 11
239.5831879692
 21
117.4700571583
 31
0.0
  0
LINE
  5
1DB
330
1F
100
AcDbEntity
  8
0
  6
SLD-Gestrichelt
 62
     7
370
     0
100
AcDbLine
 10
239.5831879692
 20
111.1824928676
 30
0.0
 11
239.5831879692
 21
111.4700573389
 31
0.0
  0
LINE
  5
1DC
330
1F
100
AcDbEntity
  8
0
  6
SLD-Gestrichelt
 62
     7
370
     0
100
AcDbLine
 10
239.5831879692
 20
115.6824926738
 30
0.0
 11
239.5831879692
 21
115.9700571452
 31
0.0
  0
LINE
  5
1DD
330
1F
100
AcDbEntity
  8
0
  6
SLD-Gestrichelt
 62
     7
370
     0
100
AcDbLine
 10
239.5831879692
 20
112.6824927642
 30
0.0
 11
239.5831879692
 21
112.9700572356
 31
0.0
  0
LINE
  5
1DE
330
1F
100
AcDbEntity
  8
0
  6
SLD-Gestrichelt
 62
     7
370
     0
100
AcDbLine
 10
239.5831879692
 20
114.1824927772
 30
0.0
 11
239.5831879692
 21
114.4700572486
 31
0.0
  0
ARC
  5
1DF
330
1F
100
AcDbEntity
  8
0
  6
SLD-Gestrichelt
 62
     7
370
     0
100
AcDbCircle
 10
238.7731852972
 20
118.0762748127
 30
0.0
 40
0.1200007931266694
100
AcDbArc
 50
120.0006768902
 51
239.9993231098
  0
ARC
  5
1E0
330
1F
100
AcDbEntity
  8
0
  6
SLD-Gestrichelt
 62
     7
370
     0
100
AcDbCircle
 10
238.7731855981
 20
109.0762752001
 30
0.0
 40
0.1200009435729741
100
AcDbArc
 50
120.0008013036
 51
239.9991986964
  0
ARC
  5
1E1
330
1F
100
AcDbEntity
  8
0
  6
SLD-Gestrichelt
 62
     7
370
     0
100
AcDbCircle
 10
238.7731863479
 20
116.5762750325
 30
0.0
 40
0.1200013184725541
100
AcDbArc
 50
120.0011113282
 51
239.9988886718
  0
ARC
  5
1E2
330
1F
100
AcDbEntity
  8
0
  6
SLD-Gestrichelt
 62
     7
370
     0
100
AcDbCircle
 10
238.7731847416
 20
110.5762749803
 30
0.0
 40
0.1200005152910424
100
AcDbArc
 50
120.0004471284
 51
239.9995528716
  0
ARC
  5
1E3
330
1F
100
AcDbEntity
  8
0
  6
SLD-Gestrichelt
 62
     7
370
     0
100
AcDbCircle
 10
238.7731847338
 20
115.0762750194
 30
0.0
 40
0.1200005113795941
100
AcDbArc
 50
120.0004438937
 51
239.9995561063
  0
ARC
  5
1E4
330
1F
100
AcDbEntity
  8
0
  6
SLD-Gestrichelt
 62
     7
370
     0
100
AcDbCircle
 10
238.77319363
 20
112.0762749933
 30
0.0
 40
0.1200049597962692
100
AcDbArc
 50
120.0041222823
 51
239.9958777177
  0
ARC
  5
1E5
330
1F
100
AcDbEntity
  8
0
  6
SLD-Gestrichelt
 62
     7
370
     0
100
AcDbCircle
 10
238.7731816391
 20
113.5762750064
 30
0.0
 40
0.119998982941307
100
AcDbArc
 50
119.9991590284
 51
240.0008409716
  0
LINE
  5
1E6
330
1F
100
AcDbEntity
  8
0
  6
SLD-Gestrichelt
 62
     7
370
     0
100
AcDbLine
 10
161.9831856804
 20
130.8390746717
 30
0.0
 11
161.9831856804
 21
132.2163740997
 31
0.0
  0
LINE
  5
1E7
330
1F
100
AcDbEntity
  8
0
  6
SLD-Gestrichelt
 62
     7
370
     0
100
AcDbLine
 10
135.6831856536
 20
130.2668495928
 30
0.0
 11
135.6831856536
 21
131.55562681
 31
0.0
  0
ARC
  5
1E8
330
1F
100
AcDbEntity
  8
0
  6
SLD-Gestrichelt
 62
     7
370
     0
100
AcDbCircle
 10
271.24470858
 20
180.6407340196
 30
0.0
 40
119.1588804925802
100
AcDbArc
 50
204.0889562052
 51
204.5545820207
  0
LINE
  5
1E9
330
1F
100
AcDbEntity
  8
0
  6
SLD-Gestrichelt
 62
     7
370
     0
100
AcDbLine
 10
134.183186339
 20
129.5168499355
 30
0.0
 11
134.183186339
 21
130.6896011238
 31
0.0
  0
LINE
  5
1EA
330
1F
100
AcDbEntity
  8
0
  6
SLD-Gestrichelt
 62
     7
370
     0
100
AcDbLine
 10
237.1331837492
 20
109.8762750053
 30
0.0
 11
237.1331837492
 21
117.2762750075
 31
0.0
  0
LINE
  5
1EB
330
1F
100
AcDbEntity
  8
0
  6
SLD-Gestrichelt
 62
     7
370
     0
100
AcDbLine
 10
235.63318816
 20
109.8762750053
 30
0.0
 11
235.63318816
 21
117.2762750075
 31
0.0
  0
LINE
  5
1EC
330
1F
100
AcDbEntity
  8
0
  6
SLD-Gestrichelt
 62
     7
370
     0
100
AcDbLine
 10
233.2831856327
 20
110.1762749613
 30
0.0
 11
233.2831856327
 21
116.9762750515
 31
0.0
  0
LINE
  5
1ED
330
1F
100
AcDbEntity
  8
0
  6
SLD-Gestrichelt
 62
     7
370
     0
100
AcDbLine
 10
233.5235264616
 20
110.5762749803
 30
0.0
 11
233.5235264616
 21
116.5762750325
 31
0.0
  0
LINE
  5
1EE
330
1F
100
AcDbEntity
  8
0
  6
SLD-Gestrichelt
 62
     7
370
     0
100
AcDbLine
 10
147.1331857609
 20
97.7859577988
 30
0.0
 11
153.2331856432
 21
97.7859577988
 31
0.0
  0
LINE
  5
1EF
330
1F
100
AcDbEntity
  8
0
  6
SLD-Gestrichelt
 62
     7
370
     0
100
AcDbLine
 10
238.1501730995
 20
110.5762749803
 30
0.0
 11
238.1501730995
 21
116.5762750325
 31
0.0
  0
LINE
  5
1F0
330
1F
100
AcDbEntity
  8
0
  6
SLD-Gestrichelt
 62
     7
370
     0
100
AcDbLine
 10
238.5831859427
 20
116.8084712126
 30
0.0
 11
238.5831859427
 21
110.3440788002
 31
0.0
  0
LINE
  5
1F1
330
1F
100
AcDbEntity
  8
0
  6
SLD-Gestrichelt
 62
     7
370
     0
100
AcDbLine
 10
135.6831856536
 20
98.0434778039
 30
0.0
 11
134.183186339
 21
98.8210064252
 31
0.0
  0
LINE
  5
1F2
330
1F
100
AcDbEntity
  8
0
  6
SLD-Gestrichelt
 62
     7
370
     0
100
AcDbLine
 10
139.6831863092
 20
97.9514109795
 30
0.0
 11
139.6831863092
 21
99.5762745743
 31
0.0
  0
LINE
  5
1F3
330
1F
100
AcDbEntity
  8
0
  6
SLD-Gestrichelt
 62
     7
370
     0
100
AcDbLine
 10
134.183186339
 20
98.8210064252
 30
0.0
 11
134.183186339
 21
99.5762745743
 31
0.0
  0
LINE
  5
1F4
330
1F
100
AcDbEntity
  8
0
  6
SLD-Gestrichelt
 62
     7
370
     0
100
AcDbLine
 10
147.1331857609
 20
127.5762754385
 30
0.0
 11
153.2331856432
 21
127.5762754385
 31
0.0
  0
LINE
  5
1F5
330
1F
100
AcDbEntity
  8
0
  6
SLD-Gestrichelt
 62
     7
370
     0
100
AcDbLine
 10
235.63318816
 20
110.580674781
 30
0.0
 11
235.63318816
 21
116.5718752318
 31
0.0
  0
LINE
  5
1F6
330
1F
100
AcDbEntity
  8
0
  6
SLD-Gestrichelt
 62
     7
370
     0
100
AcDbLine
 10
237.1331837492
 20
110.580674781
 30
0.0
 11
237.1331837492
 21
116.5718752318
 31
0.0
  0
LINE
  5
1F7
330
1F
100
AcDbEntity
  8
0
  6
SLD-Gestrichelt
 62
     7
370
     0
100
AcDbLine
 10
174.183185445
 20
89.0762756471
 30
0.0
 11
178.1831861006
 21
89.0762756471
 31
0.0
  0
LINE
  5
1F8
330
1F
100
AcDbEntity
  8
0
  6
SLD-Gestrichelt
 62
     7
370
     0
100
AcDbLine
 10
134.183186339
 20
101.8155968641
 30
0.0
 11
134.183186339
 21
98.8210064252
 31
0.0
  0
LINE
  5
1F9
330
1F
100
AcDbEntity
  8
0
  6
SLD-Gestrichelt
 62
     7
370
     0
100
AcDbLine
 10
134.183186339
 20
129.5168499355
 30
0.0
 11
134.183186339
 21
109.3963782196
 31
0.0
  0
LINE
  5
1FA
330
1F
100
AcDbEntity
  8
0
  6
SLD-Gestrichelt
 62
     7
370
     0
100
AcDbLine
 10
238.3831825571
 20
119.254449558
 30
0.0
 11
238.3831825571
 21
123.4544494082
 31
0.0
  0
LINE
  5
1FB
330
1F
100
AcDbEntity
  8
0
  6
SLD-Gestrichelt
 62
     7
370
     0
100
AcDbLine
 10
239.5831879692
 20
123.1824929719
 30
0.0
 11
239.5831879692
 21
123.4700574432
 31
0.0
  0
LINE
  5
1FC
330
1F
100
AcDbEntity
  8
0
  6
SLD-Gestrichelt
 62
     7
370
     0
100
AcDbLine
 10
239.5831879692
 20
121.682492726
 30
0.0
 11
239.5831879692
 21
121.9700571974
 31
0.0
  0
LINE
  5
1FD
330
1F
100
AcDbEntity
  8
0
  6
SLD-Gestrichelt
 62
     7
370
     0
100
AcDbLine
 10
239.5831879692
 20
120.1824929458
 30
0.0
 11
239.5831879692
 21
120.4700574172
 31
0.0
  0
LINE
  5
1FE
330
1F
100
AcDbEntity
  8
0
  6
SLD-Gestrichelt
 62
     7
370
     0
100
AcDbLine
 10
239.5831879692
 20
118.6824926999
 30
0.0
 11
239.5831879692
 21
118.9700571713
 31
0.0
  0
LINE
  5
1FF
330
1F
100
AcDbEntity
  8
0
  6
SLD-Gestrichelt
 62
     7
370
     0
100
AcDbLine
 10
239.5831879692
 20
118.9700571713
 30
0.0
 11
239.5831879692
 21
118.6824926999
 31
0.0
  0
LWPOLYLINE
  5
200
330
1F
100
AcDbEntity
  8
0
  6
SLD-Gestrichelt
 62
     7
370
     0
100
AcDbPolyline
 90
        6
 70
   128
 43
0.0
 10
239.5831879692
 20
118.6824926999
 10
239.3191617446
 20
118.5300570805
 10
239.1902294474
 20
118.4556187955
 10
239.2204788046
 20
118.4730824907
 10
239.3864553886
 20
118.5689099957
 10
239.5831879692
 20
118.6824926999
  0
LINE
  5
201
330
1F
100
AcDbEntity
  8
0
  6
SLD-Gestrichelt
 62
     7
370
     0
100
AcDbLine
 10
239.5831879692
 20
120.4700574172
 30
0.0
 11
239.5831879692
 21
120.1824929458
 31
0.0
  0
LINE
  5
202
330
1F
100
AcDbEntity
  8
0
  6
SLD-Gestrichelt
 62
     7
370
     0
100
AcDbLine
 10
239.5831879692
 20
121.9700571974
 30
0.0
 11
239.5831879692
 21
121.682492726
 31
0.0
  0
LINE
  5
203
330
1F
100
AcDbEntity
  8
0
  6
SLD-Gestrichelt
 62
     7
370
     0
100
AcDbLine
 10
239.5831879692
 20
123.4700574432
 30
0.0
 11
239.5831879692
 21
123.1824929719
 31
0.0
  0
LWPOLYLINE
  5
204
330
1F
100
AcDbEntity
  8
0
  6
SLD-Gestrichelt
 62
     7
370
     0
100
AcDbPolyline
 90
        6
 70
   128
 43
0.0
 10
239.5831879692
 20
123.4700574432
 10
239.1702246385
 20
123.708480679
 10
238.9001857953
 20
123.8643878032
 10
238.8624635058
 20
123.886167713
 10
239.1702246385
 20
123.7084788163
 10
239.5831879692
 20
123.4700574432
  0
LINE
  5
205
330
1F
100
AcDbEntity
  8
0
  6
SLD-Gestrichelt
 62
     7
370
     0
100
AcDbLine
 10
238.3831825571
 20
103.6981006046
 30
0.0
 11
238.3831825571
 21
107.8981004548
 31
0.0
  0
LINE
  5
206
330
1F
100
AcDbEntity
  8
0
  6
SLD-Gestrichelt
 62
     7
370
     0
100
AcDbLine
 10
239.5831879692
 20
106.6824925956
 30
0.0
 11
239.5831879692
 21
106.970057067
 31
0.0
  0
LINE
  5
207
330
1F
100
AcDbEntity
  8
0
  6
SLD-Gestrichelt
 62
     7
370
     0
100
AcDbLine
 10
239.5831879692
 20
105.1824928154
 30
0.0
 11
239.5831879692
 21
105.4700572868
 31
0.0
  0
LINE
  5
208
330
1F
100
AcDbEntity
  8
0
  6
SLD-Gestrichelt
 62
     7
370
     0
100
AcDbLine
 10
239.5831879692
 20
103.6824925695
 30
0.0
 11
239.5831879692
 21
103.9700570409
 31
0.0
  0
LINE
  5
209
330
1F
100
AcDbEntity
  8
0
  6
SLD-Gestrichelt
 62
     7
370
     0
100
AcDbLine
 10
239.5831879692
 20
108.1824928415
 30
0.0
 11
239.5831879692
 21
108.4700573129
 31
0.0
  0
LINE
  5
20A
330
1F
100
AcDbEntity
  8
0
  6
SLD-Gestrichelt
 62
     7
370
     0
100
AcDbLine
 10
239.5831879692
 20
108.4700573129
 30
0.0
 11
239.5831879692
 21
108.1824928415
 31
0.0
  0
LWPOLYLINE
  5
20B
330
1F
100
AcDbEntity
  8
0
  6
SLD-Gestrichelt
 62
     7
370
     0
100
AcDbPolyline
 90
        6
 70
   128
 43
0.0
 10
239.5831879692
 20
108.4700573129
 10
239.3191617446
 20
108.6224929322
 10
239.1902294474
 20
108.6969312173
 10
239.2204788046
 20
108.6794675221
 10
239.3864553886
 20
108.5836400171
 10
239.5831879692
 20
108.4700573129
  0
LINE
  5
20C
330
1F
100
AcDbEntity
  8
0
  6
SLD-Gestrichelt
 62
     7
370
     0
100
AcDbLine
 10
239.5831879692
 20
106.970057067
 30
0.0
 11
239.5831879692
 21
106.6824925956
 31
0.0
  0
LINE
  5
20D
330
1F
100
AcDbEntity
  8
0
  6
SLD-Gestrichelt
 62
     7
370
     0
100
AcDbLine
 10
239.5831879692
 20
105.4700572868
 30
0.0
 11
239.5831879692
 21
105.1824928154
 31
0.0
  0
LINE
  5
20E
330
1F
100
AcDbEntity
  8
0
  6
SLD-Gestrichelt
 62
     7
370
     0
100
AcDbLine
 10
239.5831879692
 20
103.9700570409
 30
0.0
 11
239.5831879692
 21
103.6824925695
 31
0.0
  0
LWPOLYLINE
  5
20F
330
1F
100
AcDbEntity
  8
0
  6
SLD-Gestrichelt
 62
     7
370
     0
100
AcDbPolyline
 90
        6
 70
   128
 43
0.0
 10
239.5831879692
 20
103.6824925695
 10
239.1702246385
 20
103.4440693338
 10
238.9001857953
 20
103.2881622095
 10
238.8624635058
 20
103.2663822998
 10
239.1702246385
 20
103.4440711965
 10
239.5831879692
 20
103.6824925695
  0
LINE
  5
210
330
1F
100
AcDbEntity
  8
0
  6
SLD-Gestrichelt
 62
     7
370
     0
100
AcDbLine
 10
135.6831856536
 20
130.2668495928
 30
0.0
 11
135.6831856536
 21
109.3963782196
 31
0.0
  0
LINE
  5
211
330
1F
100
AcDbEntity
  8
0
  6
SLD-Gestrichelt
 62
     7
370
     0
100
AcDbLine
 10
161.9831856804
 20
130.8390746717
 30
0.0
 11
161.9831856804
 21
109.3963782196
 31
0.0
  0
LINE
  5
212
330
1F
100
AcDbEntity
  8
0
  6
SLD-Gestrichelt
 62
     7
370
     0
100
AcDbLine
 10
163.9831856735
 20
130.3823801582
 30
0.0
 11
163.9831856735
 21
110.3559340709
 31
0.0
  0
LINE
  5
213
330
1F
100
AcDbEntity
  8
0
  6
SLD-Gestrichelt
 62
     7
370
     0
100
AcDbLine
 10
225.7831853347
 20
103.6981006046
 30
0.0
 11
225.7831853347
 21
107.8981004548
 31
0.0
  0
LINE
  5
214
330
1F
100
AcDbEntity
  8
0
  6
SLD-Gestrichelt
 62
     7
370
     0
100
AcDbLine
 10
225.7831853347
 20
119.254449558
 30
0.0
 11
225.7831853347
 21
123.4544494082
 31
0.0
  0
LINE
  5
215
330
1F
100
AcDbEntity
  8
0
  6
SLD-Gestrichelt
 62
     7
370
     0
100
AcDbLine
 10
134.183186339
 20
109.3963782196
 30
0.0
 11
134.183186339
 21
101.8155968641
 31
0.0
  0
LINE
  5
216
330
1F
100
AcDbEntity
  8
0
  6
SLD-Gestrichelt
 62
     7
370
     0
100
AcDbLine
 10
135.6831856536
 20
109.3963782196
 30
0.0
 11
135.6831856536
 21
101.0655972068
 31
0.0
  0
LINE
  5
217
330
1F
100
AcDbEntity
  8
0
  6
SLD-Gestrichelt
 62
     7
370
     0
100
AcDbLine
 10
161.9831856804
 20
109.3963782196
 30
0.0
 11
161.9831856804
 21
100.4933730592
 31
0.0
  0
ARC
  5
218
330
1F
100
AcDbEntity
  8
0
  6
SLD-Gestrichelt
 62
     7
370
     0
100
AcDbCircle
 10
178.2065788718
 20
104.8028726955
 30
0.0
 40
15.77028770057043
100
AcDbArc
 50
166.6590430975
 51
193.3409569025
  0
LINE
  5
219
330
1F
100
AcDbEntity
  8
0
  6
SLD-Gestrichelt
 62
     7
370
     0
100
AcDbLine
 10
164.1831856685
 20
94.0262756203
 30
0.0
 11
164.2760788889
 21
94.1191675966
 31
0.0
  0
LINE
  5
21A
330
1F
100
AcDbEntity
  8
0
  6
SLD-Gestrichelt
 62
     7
370
     0
100
AcDbLine
 10
164.2760788889
 20
133.0333824162
 30
0.0
 11
164.1831856685
 21
133.1262743925
 31
0.0
  0
ARC
  5
21B
330
1F
100
AcDbEntity
  8
0
  6
SLD-Gestrichelt
 62
     7
370
     0
100
AcDbCircle
 10
163.5689721061
 20
94.8262750064
 30
0.0
 40
0.999999999999998
100
AcDbArc
 50
315.0
 51
0.0
  0
ARC
  5
21C
330
1F
100
AcDbEntity
  8
0
  6
SLD-Gestrichelt
 62
     7
370
     0
100
AcDbCircle
 10
163.5689721061
 20
94.8262750064
 30
0.0
 40
0.9999999999999927
100
AcDbArc
 50
0.0
 51
52.1052014664
  0
ARC
  5
21D
330
1F
100
AcDbEntity
  8
0
  6
SLD-Gestrichelt
 62
     7
370
     0
100
AcDbCircle
 10
163.5689721061
 20
132.3262750064
 30
0.0
 40
1.000000000000008
100
AcDbArc
 50
343.125
 51
45.0
  0
ARC
  5
21E
330
1F
100
AcDbEntity
  8
0
  6
SLD-Gestrichelt
 62
     7
370
     0
100
AcDbCircle
 10
163.5689721061
 20
132.3262750064
 30
0.0
 40
0.9999999999999815
100
AcDbArc
 50
307.8947985336
 51
343.125
  0
LINE
  5
21F
330
1F
100
AcDbEntity
  8
0
  6
SLD-Gestrichelt
 62
     7
370
     0
100
AcDbLine
 10
164.5689721043
 20
94.8262742613
 30
0.0
 11
164.5689721043
 21
132.3262757514
 31
0.0
  0
LINE
  5
220
330
1F
100
AcDbEntity
  8
0
  6
SLD-Gestrichelt
 62
     7
370
     0
100
AcDbLine
 10
164.5689721043
 20
94.8262742613
 30
0.0
 11
164.5689721043
 21
132.3262757514
 31
0.0
  0
ARC
  5
221
330
1F
100
AcDbEntity
  8
0
  6
SLD-Gestrichelt
 62
     7
370
     0
100
AcDbCircle
 10
141.6899051805
 20
103.0762750064
 30
0.0
 40
1.500000000000014
100
AcDbArc
 50
270.0
 51
315.0
  0
ARC
  5
222
330
1F
100
AcDbEntity
  8
0
  6
SLD-Gestrichelt
 62
     7
370
     0
100
AcDbCircle
 10
141.6899051805
 20
124.0762750064
 30
0.0
 40
1.500000000000014
100
AcDbArc
 50
45.0
 51
90.0
  0
LINE
  5
223
330
1F
100
AcDbEntity
  8
0
  6
SLD-Gestrichelt
 62
     7
370
     0
100
AcDbLine
 10
140.6831864732
 20
101.5762749021
 30
0.0
 11
141.6899051981
 21
101.5762749021
 31
0.0
  0
LINE
  5
224
330
1F
100
AcDbEntity
  8
0
  6
SLD-Gestrichelt
 62
     7
370
     0
100
AcDbLine
 10
141.6899051981
 20
125.5762751107
 30
0.0
 11
140.6831864732
 21
125.5762751107
 31
0.0
  0
ARC
  5
225
330
1F
100
AcDbEntity
  8
0
  6
SLD-Gestrichelt
 62
     7
370
     0
100
AcDbCircle
 10
140.6831856685
 20
103.0762750064
 30
0.0
 40
1.50000000000002
100
AcDbArc
 50
191.0958032831
 51
270.0
  0
ARC
  5
226
330
1F
100
AcDbEntity
  8
0
  6
SLD-Gestrichelt
 62
     7
370
     0
100
AcDbCircle
 10
140.6831856685
 20
124.0762750064
 30
0.0
 40
1.50000000000002
100
AcDbArc
 50
90.0
 51
168.9041967169
  0
LINE
  5
227
330
1F
100
AcDbEntity
  8
0
  6
SLD-Gestrichelt
 62
     7
370
     0
100
AcDbLine
 10
134.183186339
 20
101.812862501
 30
0.0
 11
135.2112249004
 21
102.4064018284
 31
0.0
  0
LINE
  5
228
330
1F
100
AcDbEntity
  8
0
  6
SLD-Gestrichelt
 62
     7
370
     0
100
AcDbLine
 10
135.2112249004
 20
124.7461481844
 30
0.0
 11
134.183186339
 21
125.3396875118
 31
0.0
  0
LINE
  5
229
330
1F
100
AcDbEntity
  8
0
  6
SLD-Gestrichelt
 62
     7
370
     0
100
AcDbLine
 10
142.7505661266
 20
102.0156151508
 30
0.0
 11
143.8112251925
 21
103.0762751479
 31
0.0
  0
LINE
  5
22A
330
1F
100
AcDbEntity
  8
0
  6
SLD-Gestrichelt
 62
     7
370
     0
100
AcDbLine
 10
143.8112251925
 20
124.0762748648
 30
0.0
 11
142.7505661266
 21
125.136934862
 31
0.0
  0
LINE
  5
22B
330
1F
100
AcDbEntity
  8
0
  6
SLD-Gestrichelt
 62
     7
370
     0
100
AcDbLine
 10
135.2112249004
 20
102.4064018284
 30
0.0
 11
137.7112262415
 21
103.0762751479
 31
0.0
  0
LINE
  5
22C
330
1F
100
AcDbEntity
  8
0
  6
SLD-Gestrichelt
 62
     7
370
     0
100
AcDbLine
 10
137.7112262415
 20
124.0762748648
 30
0.0
 11
135.2112249004
 21
124.7461481844
 31
0.0
  0
LINE
  5
22D
330
1F
100
AcDbEntity
  8
0
  6
SLD-Gestrichelt
 62
     7
370
     0
100
AcDbLine
 10
238.8418551998
 20
123.9131211196
 30
0.0
 11
238.3831825571
 21
123.4544494082
 31
0.0
  0
LINE
  5
22E
330
1F
100
AcDbEntity
  8
0
  6
SLD-Gestrichelt
 62
     7
370
     0
100
AcDbLine
 10
238.3831825571
 20
119.254449558
 30
0.0
 11
239.1878899651
 21
118.4497486693
 31
0.0
  0
LINE
  5
22F
330
1F
100
AcDbEntity
  8
0
  6
SLD-Gestrichelt
 62
     7
370
     0
100
AcDbLine
 10
239.1878899651
 20
108.7028013435
 30
0.0
 11
238.3831825571
 21
107.8981004548
 31
0.0
  0
LINE
  5
230
330
1F
100
AcDbEntity
  8
0
  6
SLD-Gestrichelt
 62
     7
370
     0
100
AcDbLine
 10
238.3831825571
 20
103.6981006046
 30
0.0
 11
238.8418551998
 21
103.2394288932
 31
0.0
  0
LINE
  5
231
330
1F
100
AcDbEntity
  8
0
  6
SLD-Gestrichelt
 62
     7
370
     0
100
AcDbLine
 10
139.211225556
 20
124.364950404
 30
0.0
 11
138.7112264054
 21
124.0762748648
 31
0.0
  0
LINE
  5
232
330
1F
100
AcDbEntity
  8
0
  6
SLD-Gestrichelt
 62
     7
370
     0
100
AcDbLine
 10
138.7112264054
 20
103.0762751479
 30
0.0
 11
139.211225556
 21
102.7875996088
 31
0.0
  0
LINE
  5
233
330
1F
100
AcDbEntity
  8
0
  6
SLD-Gestrichelt
 62
     7
370
     0
100
AcDbLine
 10
153.1982331069
 20
103.0762751479
 30
0.0
 11
153.6831858101
 21
103.0762751479
 31
0.0
  0
LINE
  5
234
330
1F
100
AcDbEntity
  8
0
  6
SLD-Gestrichelt
 62
     7
370
     0
100
AcDbLine
 10
143.8112251925
 20
103.0762751479
 30
0.0
 11
147.1560255157
 21
103.0762751479
 31
0.0
  0
LINE
  5
235
330
1F
100
AcDbEntity
  8
0
  6
SLD-Gestrichelt
 62
     7
370
     0
100
AcDbLine
 10
147.1681382971
 20
124.0762748648
 30
0.0
 11
143.8112251925
 21
124.0762748648
 31
0.0
  0
LINE
  5
236
330
1F
100
AcDbEntity
  8
0
  6
SLD-Gestrichelt
 62
     7
370
     0
100
AcDbLine
 10
153.6831858101
 20
124.0762748648
 30
0.0
 11
153.2103458883
 21
124.0762748648
 31
0.0
  0
ARC
  5
237
330
1F
100
AcDbEntity
  8
0
  6
SLD-Gestrichelt
 62
     7
370
     0
100
AcDbCircle
 10
153.6831856685
 20
103.5762750064
 30
0.0
 40
0.5000000000000142
100
AcDbArc
 50
270.0
 51
0.0
  0
ARC
  5
238
330
1F
100
AcDbEntity
  8
0
  6
SLD-Gestrichelt
 62
     7
370
     0
100
AcDbCircle
 10
153.6831856685
 20
123.5762750064
 30
0.0
 40
0.5000000000000142
100
AcDbArc
 50
0.0
 51
90.0
  0
LINE
  5
239
330
1F
100
AcDbEntity
  8
0
  6
SLD-Gestrichelt
 62
     7
370
     0
100
AcDbLine
 10
137.7112262415
 20
103.0762751479
 30
0.0
 11
138.7112264054
 21
103.0762751479
 31
0.0
  0
LINE
  5
23A
330
1F
100
AcDbEntity
  8
0
  6
SLD-Gestrichelt
 62
     7
370
     0
100
AcDbLine
 10
138.7112264054
 20
124.0762748648
 30
0.0
 11
137.7112262415
 21
124.0762748648
 31
0.0
  0
LINE
  5
23B
330
1F
100
AcDbEntity
  8
0
  6
SLD-Gestrichelt
 62
     7
370
     0
100
AcDbLine
 10
238.3831825571
 20
107.8981004548
 30
0.0
 11
225.7831853347
 21
107.8981004548
 31
0.0
  0
LINE
  5
23C
330
1F
100
AcDbEntity
  8
0
  6
SLD-Gestrichelt
 62
     7
370
     0
100
AcDbLine
 10
225.7831853347
 20
103.6981006046
 30
0.0
 11
238.3831825571
 21
103.6981006046
 31
0.0
  0
LINE
  5
23D
330
1F
100
AcDbEntity
  8
0
  6
SLD-Gestrichelt
 62
     7
370
     0
100
AcDbLine
 10
238.3831825571
 20
123.4544494082
 30
0.0
 11
225.7831853347
 21
123.4544494082
 31
0.0
  0
LINE
  5
23E
330
1F
100
AcDbEntity
  8
0
  6
SLD-Gestrichelt
 62
     7
370
     0
100
AcDbLine
 10
225.7831853347
 20
119.254449558
 30
0.0
 11
238.3831825571
 21
119.254449558
 31
0.0
  0
LINE
  5
23F
330
1F
100
AcDbEntity
  8
0
  6
SLD-Gestrichelt
 62
     7
370
     0
100
AcDbLine
 10
225.7831853347
 20
107.8981004548
 30
0.0
 11
224.5213773566
 21
105.7981002969
 31
0.0
  0
LINE
  5
240
330
1F
100
AcDbEntity
  8
0
  6
SLD-Gestrichelt
 62
     7
370
     0
100
AcDbLine
 10
224.5213773566
 20
105.7981002969
 30
0.0
 11
225.7831853347
 21
103.6981006046
 31
0.0
  0
LINE
  5
241
330
1F
100
AcDbEntity
  8
0
  6
SLD-Gestrichelt
 62
     7
370
     0
100
AcDbLine
 10
225.7831853347
 20
123.4544494082
 30
0.0
 11
224.5213773566
 21
121.3544497159
 31
0.0
  0
LINE
  5
242
330
1F
100
AcDbEntity
  8
0
  6
SLD-Gestrichelt
 62
     7
370
     0
100
AcDbLine
 10
224.5213773566
 20
121.3544497159
 30
0.0
 11
225.7831853347
 21
119.254449558
 31
0.0
  0
LINE
  5
243
330
1F
100
AcDbEntity
  8
0
  6
SLD-Gestrichelt
 62
     7
370
     0
100
AcDbLine
 10
154.183185892
 20
105.3262750511
 30
0.0
 11
155.1831860559
 21
106.326275215
 31
0.0
  0
LINE
  5
244
330
1F
100
AcDbEntity
  8
0
  6
SLD-Gestrichelt
 62
     7
370
     0
100
AcDbLine
 10
155.1831860559
 20
120.8262747978
 30
0.0
 11
154.183185892
 21
121.8262749617
 31
0.0
  0
LINE
  5
245
330
1F
100
AcDbEntity
  8
0
  6
SLD-Gestrichelt
 62
     7
370
     0
100
AcDbLine
 10
155.1831860559
 20
106.326275215
 30
0.0
 11
179.1831853332
 21
106.326275215
 31
0.0
  0
LINE
  5
246
330
1F
100
AcDbEntity
  8
0
  6
SLD-Gestrichelt
 62
     7
370
     0
100
AcDbLine
 10
179.1831853332
 20
120.8262747978
 30
0.0
 11
155.1831860559
 21
120.8262747978
 31
0.0
  0
LINE
  5
247
330
1F
100
AcDbEntity
  8
0
  6
SLD-Gestrichelt
 62
     7
370
     0
100
AcDbLine
 10
179.1831853332
 20
106.326275215
 30
0.0
 11
181.4964984076
 21
110.1762749613
 31
0.0
  0
LINE
  5
248
330
1F
100
AcDbEntity
  8
0
  6
SLD-Gestrichelt
 62
     7
370
     0
100
AcDbLine
 10
181.4964984076
 20
116.9762750515
 30
0.0
 11
179.1831853332
 21
120.8262747978
 31
0.0
  0
LINE
  5
249
330
1F
100
AcDbEntity
  8
0
  6
SLD-Gestrichelt
 62
     7
370
     0
100
AcDbLine
 10
239.5159613805
 20
120.5090514277
 30
0.0
 11
238.5831859427
 21
119.5762750585
 31
0.0
  0
LINE
  5
24A
330
1F
100
AcDbEntity
  8
0
  6
SLD-Gestrichelt
 62
     7
370
     0
100
AcDbLine
 10
238.5831859427
 20
107.5762749542
 30
0.0
 11
239.5159613805
 21
106.6434985851
 31
0.0
  0
LINE
  5
24B
330
1F
100
AcDbEntity
  8
0
  6
SLD-Gestrichelt
 62
     7
370
     0
100
AcDbLine
 10
237.1331837492
 20
117.2762750075
 30
0.0
 11
235.63318816
 21
117.2762750075
 31
0.0
  0
LINE
  5
24C
330
1F
100
AcDbEntity
  8
0
  6
SLD-Gestrichelt
 62
     7
370
     0
100
AcDbLine
 10
235.63318816
 20
109.8762750053
 30
0.0
 11
237.1331837492
 21
109.8762750053
 31
0.0
  0
LINE
  5
24D
330
1F
100
AcDbEntity
  8
0
  6
SLD-Gestrichelt
 62
     7
370
     0
100
AcDbLine
 10
233.2831856327
 20
110.1762749613
 30
0.0
 11
233.5235264616
 21
110.5762749803
 31
0.0
  0
LINE
  5
24E
330
1F
100
AcDbEntity
  8
0
  6
SLD-Gestrichelt
 62
     7
370
     0
100
AcDbLine
 10
233.5235264616
 20
116.5762750325
 30
0.0
 11
233.2831856327
 21
116.9762750515
 31
0.0
  0
LINE
  5
24F
330
1F
100
AcDbEntity
  8
0
  6
SLD-Gestrichelt
 62
     7
370
     0
100
AcDbLine
 10
233.2831856327
 20
116.9762750515
 30
0.0
 11
181.4964984076
 21
116.9762750515
 31
0.0
  0
LINE
  5
250
330
1F
100
AcDbEntity
  8
0
  6
SLD-Gestrichelt
 62
     7
370
     0
100
AcDbLine
 10
181.4964984076
 20
110.1762749613
 30
0.0
 11
233.2831856327
 21
110.1762749613
 31
0.0
  0
LINE
  5
251
330
1F
100
AcDbEntity
  8
0
  6
SLD-Gestrichelt
 62
     7
370
     0
100
AcDbLine
 10
153.6199238615
 20
97.3992186491
 30
0.0
 11
153.2331856432
 21
97.7859577988
 31
0.0
  0
LINE
  5
252
330
1F
100
AcDbEntity
  8
0
  6
SLD-Gestrichelt
 62
     7
370
     0
100
AcDbLine
 10
147.1331857609
 20
97.7859577988
 30
0.0
 11
146.9264395999
 21
97.5792116378
 31
0.0
  0
LINE
  5
253
330
1F
100
AcDbEntity
  8
0
  6
SLD-Gestrichelt
 62
     7
370
     0
100
AcDbLine
 10
238.5831859427
 20
116.8262750734
 30
0.0
 11
238.1501730995
 21
116.5762750325
 31
0.0
  0
LINE
  5
254
330
1F
100
AcDbEntity
  8
0
  6
SLD-Gestrichelt
 62
     7
370
     0
100
AcDbLine
 10
238.1501730995
 20
110.5762749803
 30
0.0
 11
238.5831859427
 21
110.3262749393
 31
0.0
  0
LINE
  5
255
330
1F
100
AcDbEntity
  8
0
  6
SLD-Gestrichelt
 62
     7
370
     0
100
AcDbLine
 10
139.6831863092
 20
99.5762745743
 30
0.0
 11
134.183186339
 21
99.5762745743
 31
0.0
  0
LINE
  5
256
330
1F
100
AcDbEntity
  8
0
  6
SLD-Gestrichelt
 62
     7
370
     0
100
AcDbLine
 10
141.5538240688
 20
97.7056368147
 30
0.0
 11
139.6831863092
 21
99.5762745743
 31
0.0
  0
LINE
  5
257
330
1F
100
AcDbEntity
  8
0
  6
SLD-Gestrichelt
 62
     7
370
     0
100
AcDbLine
 10
153.2331856432
 20
97.7859577988
 30
0.0
 11
153.2331856432
 21
103.0862803464
 31
0.0
  0
LINE
  5
258
330
1F
100
AcDbEntity
  8
0
  6
SLD-Gestrichelt
 62
     7
370
     0
100
AcDbLine
 10
147.1331857609
 20
103.0827431832
 30
0.0
 11
147.1331857609
 21
97.7859577988
 31
0.0
  0
LINE
  5
259
330
1F
100
AcDbEntity
  8
0
  6
SLD-Gestrichelt
 62
     7
370
     0
100
AcDbLine
 10
153.2331856432
 20
124.0698068295
 30
0.0
 11
153.2331856432
 21
127.5762754385
 31
0.0
  0
LINE
  5
25A
330
1F
100
AcDbEntity
  8
0
  6
SLD-Gestrichelt
 62
     7
370
     0
100
AcDbLine
 10
147.1331857609
 20
127.5762754385
 30
0.0
 11
147.1331857609
 21
124.0662696664
 31
0.0
  0
LINE
  5
25B
330
1F
100
AcDbEntity
  8
0
  6
SLD-Gestrichelt
 62
     7
370
     0
100
AcDbLine
 10
153.2331856432
 20
127.5762754385
 30
0.0
 11
150.1831852364
 21
129.4089003359
 31
0.0
  0
LINE
  5
25C
330
1F
100
AcDbEntity
  8
0
  6
SLD-Gestrichelt
 62
     7
370
     0
100
AcDbLine
 10
150.1831852364
 20
129.4089003359
 30
0.0
 11
147.1331857609
 21
127.5762754385
 31
0.0
  0
LINE
  5
25D
330
1F
100
AcDbEntity
  8
0
  6
SLD-Gestrichelt
 62
     7
370
     0
100
AcDbLine
 10
235.63318816
 20
116.5762750325
 30
0.0
 11
233.5235264616
 21
116.5762750325
 31
0.0
  0
LINE
  5
25E
330
1F
100
AcDbEntity
  8
0
  6
SLD-Gestrichelt
 62
     7
370
     0
100
AcDbLine
 10
233.5235264616
 20
110.5762749803
 30
0.0
 11
235.63318816
 21
110.5762749803
 31
0.0
  0
LINE
  5
25F
330
1F
100
AcDbEntity
  8
0
  6
SLD-Gestrichelt
 62
     7
370
     0
100
AcDbLine
 10
238.1501730995
 20
116.5762750325
 30
0.0
 11
237.1331837492
 21
116.5762750325
 31
0.0
  0
LINE
  5
260
330
1F
100
AcDbEntity
  8
0
  6
SLD-Gestrichelt
 62
     7
370
     0
100
AcDbLine
 10
237.1331837492
 20
110.5762749803
 30
0.0
 11
238.1501730995
 21
110.5762749803
 31
0.0
  0
LINE
  5
261
330
1F
100
AcDbEntity
  8
0
  6
SLD-Gestrichelt
 62
     7
370
     0
100
AcDbLine
 10
174.183185445
 20
89.0762756471
 30
0.0
 11
174.183185445
 21
88.5762746339
 31
0.0
  0
LINE
  5
262
330
1F
100
AcDbEntity
  8
0
  6
SLD-Gestrichelt
 62
     7
370
     0
100
AcDbLine
 10
178.1831861006
 20
88.5762746339
 30
0.0
 11
178.1831861006
 21
89.0762756471
 31
0.0
  0
LINE
  5
263
330
1F
100
AcDbEntity
  8
0
  6
SLD-Gestrichelt
 62
     7
370
     0
100
AcDbLine
 10
178.1831861006
 20
89.0762756471
 30
0.0
 11
176.1831857728
 21
90.2779965554
 31
0.0
  0
LINE
  5
264
330
1F
100
AcDbEntity
  8
0
  6
SLD-Gestrichelt
 62
     7
370
     0
100
AcDbLine
 10
176.1831857728
 20
90.2779965554
 30
0.0
 11
174.183185445
 21
89.0762756471
 31
0.0
  0
LINE
  5
265
330
1F
100
AcDbEntity
  8
VERMASSUNG
  6
SLD-Punktstrich
100
AcDbLine
 10
131.548996334
 20
113.5762750064
 30
0.0
 11
274.1831856685
 21
113.5762750064
 31
0.0
  0
LINE
  5
266
330
1F
100
AcDbEntity
  8
VERMASSUNG
  6
SLD-Punktstrich
100
AcDbLine
 10
274.1831856685
 20
144.0146326685
 30
0.0
 11
274.1831856685
 21
113.5762750064
 31
0.0
  0
LINE
  5
267
330
1F
100
AcDbEntity
  8
VERMASSUNG
  6
SLD-Punktstrich
100
AcDbLine
 10
239.1831856685
 20
130.847189764
 30
0.0
 11
239.1831856685
 21
95.4909581066
 31
0.0
  0
DIMENSION
  5
268
330
1F
100
AcDbEntity
  8
VERMASSUNG
100
AcDbDimension
  2
_D
 10
239.1831856685
 20
150.1925625654
 30
0.0
 11
201.6831856685
 21
150.1925625654
 31
0.0
 70
   160
  1
<>
 71
     2
 42
-1.0
  3
SLDDIMSTYLE0
100
AcDbAlignedDimension
 13
164.1831856685
 23
138.2762750064
 33
0.0
 14
239.1831856685
 24
130.847189764
 34
0.0
100
AcDbRotatedDimension
  0
DIMENSION
  5
273
330
1F
100
AcDbEntity
  8
VERMASSUNG
100
AcDbDimension
  2
_D_1
 10
274.1831856685
 20
154.5762750064
 30
0.0
 11
219.1831856685
 21
154.5762750064
 31
0.0
 70
   160
  1
<>
 71
     2
 42
-1.0
  3
SLDDIMSTYLE0
100
AcDbAlignedDimension
 13
164.1831856685
 23
138.2762750064
 33
0.0
 14
274.1831856685
 24
144.0146326685
 34
0.0
100
AcDbRotatedDimension
  0
DIMENSION
  5
27D
330
1F
100
AcDbEntity
  8
VERMASSUNG
100
AcDbDimension
  2
_D_2
 10
243.2579875229
 20
123.8544495994
 30
0.0
 11
243.2579875229
 21
133.5762750064
 31
0.0
 70
   160
  1
M<>
 71
     2
 42
-1.0
  3
SLDDIMSTYLE1
100
AcDbAlignedDimension
 13
244.3831856685
 23
118.8544495994
 33
0.0
 14
244.3831856685
 24
123.8544495994
 34
0.0
 50
90.0
100
AcDbRotatedDimension
  0
DIMENSION
  5
289
330
1F
100
AcDbEntity
  8
VERMASSUNG
100
AcDbDimension
  2
_D_3
 10
202.4921556227
 20
129.5762750064
 30
0.0
 11
202.4921556227
 21
138.0588812132
 31
0.0
 70
   160
  1
%%c<>
 71
     2
 42
-1.0
  3
SLDDIMSTYLE1
100
AcDbAlignedDimension
 13
188.1831856685
 23
97.5762750064
 33
0.0
 14
188.1831856685
 24
129.5762750064
 34
0.0
 50
90.0
100
AcDbRotatedDimension
  0
DIMENSION
  5
294
330
1F
100
AcDbEntity
  8
VERMASSUNG
100
AcDbDimension
  2
_D_4
 10
127.919601507
 20
88.5762750064
 30
0.0
 11
127.919601507
 21
113.5762750064
 31
0.0
 70
   160
  1
PSC %%c<>
 71
     2
 42
-1.0
  3
SLDDIMSTYLE0
100
AcDbAlignedDimension
 13
164.4831856685
 23
138.5762750064
 33
0.0
 14
164.4831856685
 24
88.5762750064
 34
0.0
 50
90.0
100
AcDbRotatedDimension
  0
DIMENSION
  5
2A0
330
1F
100
AcDbEntity
  8
VERMASSUNG
100
AcDbDimension
  2
_D_5
 10
188.1831856685
 20
133.5762750064
 30
0.0
 11
189.6932777839
 21
134.8876400326
 31
0.0
 70
   164
  1
<>
 71
     1
 42
-1.0
  3
SLDDIMSTYLE2
100
AcDbRadialDimension
 15
185.1630214377
 25
130.953564954
 35
0.0
 40
0.0
  0
LINE
  5
2A8
330
1F
100
AcDbEntity
  8
VERMASSUNG
  6
SLD-Punktstrich
370
     0
100
AcDbLine
 10
221.2344350336
 20
121.3544495994
 30
0.0
 11
253.5801469307
 21
121.3544495994
 31
0.0
  0
LINE
  5
2A9
330
1F
100
AcDbEntity
  8
VERMASSUNG
  6
SLD-Punktstrich
370
     0
100
AcDbLine
 10
220.6917217468
 20
105.7981004133
 30
0.0
 11
254.9912014766
 21
105.7981004133
 31
0.0
  0
LINE
  5
2AA
330
1F
100
AcDbEntity
  8
0
  6
SLD-Durchgehend
 62
     7
370
    15
100
AcDbLine
 10
72.8287823209
 20
108.0936418739
 30
0.0
 11
71.1101242984
 21
106.4793613632
 31
0.0
  0
LINE
  5
2AB
330
1F
100
AcDbEntity
  8
0
  6
SLD-Durchgehend
 62
     7
370
    15
100
AcDbLine
 10
71.1101242984
 20
106.4793613632
 30
0.0
 11
71.6488031382
 21
104.1838197862
 31
0.0
  0
LINE
  5
2AC
330
1F
100
AcDbEntity
  8
0
  6
SLD-Durchgehend
 62
     7
370
    15
100
AcDbLine
 10
73.9061395349
 20
103.5025591855
 30
0.0
 11
71.6488031382
 21
104.1838197862
 31
0.0
  0
LINE
  5
2AD
330
1F
100
AcDbEntity
  8
0
  6
SLD-Durchgehend
 62
     7
370
    15
100
AcDbLine
 10
75.6247975575
 20
105.1168392305
 30
0.0
 11
75.0861187177
 21
107.4123808076
 31
0.0
  0
LINE
  5
2AE
330
1F
100
AcDbEntity
  8
0
  6
SLD-Durchgehend
 62
     7
370
    15
100
AcDbLine
 10
72.8287823209
 20
108.0936418739
 30
0.0
 11
75.0861187177
 21
107.4123808076
 31
0.0
  0
LINE
  5
2AF
330
1F
100
AcDbEntity
  8
0
  6
SLD-Durchgehend
 62
     7
370
    15
100
AcDbLine
 10
75.6247975575
 20
105.1168392305
 30
0.0
 11
73.9061395349
 21
103.5025591855
 31
0.0
  0
CIRCLE
  5
2B0
330
1F
100
AcDbEntity
  8
0
  6
SLD-Durchgehend
 62
     7
370
    15
100
AcDbCircle
 10
73.3674608116
 20
105.7981004133
 30
0.0
 40
4.249999999999993
  0
ARC
  5
2B1
330
1F
100
AcDbEntity
  8
0
  6
SLD-Durchgehend
 62
     7
370
    15
100
AcDbCircle
 10
73.3674608116
 20
105.7981004133
 30
0.0
 40
2.041999999999997
100
AcDbArc
 50
13.2062589409
 51
73.2062589409
  0
ARC
  5
2B2
330
1F
100
AcDbEntity
  8
0
  6
SLD-Durchgehend
 62
     7
370
    15
100
AcDbCircle
 10
73.3674608116
 20
105.7981004133
 30
0.0
 40
2.041999999999998
100
AcDbArc
 50
313.2062589409
 51
13.2062589409
  0
ARC
  5
2B3
330
1F
100
AcDbEntity
  8
0
  6
SLD-Durchgehend
 62
     7
370
    15
100
AcDbCircle
 10
73.3674608116
 20
105.7981004133
 30
0.0
 40
2.042000000000015
100
AcDbArc
 50
253.2062589409
 51
313.2062589409
  0
ARC
  5
2B4
330
1F
100
AcDbEntity
  8
0
  6
SLD-Durchgehend
 62
     7
370
    15
100
AcDbCircle
 10
73.3674608116
 20
105.7981004133
 30
0.0
 40
2.042000000000015
100
AcDbArc
 50
193.2062589409
 51
253.2062589409
  0
ARC
  5
2B5
330
1F
100
AcDbEntity
  8
0
  6
SLD-Durchgehend
 62
     7
370
    15
100
AcDbCircle
 10
73.3674608116
 20
105.7981004133
 30
0.0
 40
2.042000000000015
100
AcDbArc
 50
133.2062589409
 51
193.2062589409
  0
ARC
  5
2B6
330
1F
100
AcDbEntity
  8
0
  6
SLD-Durchgehend
 62
     7
370
    15
100
AcDbCircle
 10
73.3674608116
 20
105.7981004133
 30
0.0
 40
2.042000000000007
100
AcDbArc
 50
73.2062589409
 51
133.2062589409
  0
CIRCLE
  5
2B7
330
1F
100
AcDbEntity
  8
0
  6
SLD-Durchgehend
 62
     7
370
    15
100
AcDbCircle
 10
73.3674608116
 20
121.3544495994
 30
0.0
 40
4.249999999999997
  0
LINE
  5
2B8
330
1F
100
AcDbEntity
  8
0
  6
SLD-Durchgehend
 62
     7
370
    15
100
AcDbLine
 10
71.3299546102
 20
122.5411479254
 30
0.0
 11
73.3764181556
 21
123.7123307665
 31
0.0
  0
LINE
  5
2B9
330
1F
100
AcDbEntity
  8
0
  6
SLD-Durchgehend
 62
     7
370
    15
100
AcDbLine
 10
71.3209971497
 20
120.1832659435
 30
0.0
 11
71.3299546102
 21
122.5411479254
 31
0.0
  0
LINE
  5
2BA
330
1F
100
AcDbEntity
  8
0
  6
SLD-Durchgehend
 62
     7
370
    15
100
AcDbLine
 10
71.3209971497
 20
120.1832659435
 30
0.0
 11
73.3585037002
 21
118.9965681997
 31
0.0
  0
LINE
  5
2BB
330
1F
100
AcDbEntity
  8
0
  6
SLD-Durchgehend
 62
     7
370
    15
100
AcDbLine
 10
75.4049672456
 20
120.1677515064
 30
0.0
 11
73.3585037002
 21
118.9965681997
 31
0.0
  0
LINE
  5
2BC
330
1F
100
AcDbEntity
  8
0
  6
SLD-Durchgehend
 62
     7
370
    15
100
AcDbLine
 10
75.4139247062
 20
122.5256330226
 30
0.0
 11
73.3764181556
 21
123.7123307665
 31
0.0
  0
LINE
  5
2BD
330
1F
100
AcDbEntity
  8
0
  6
SLD-Durchgehend
 62
     7
370
    15
100
AcDbLine
 10
75.4049672456
 20
120.1677515064
 30
0.0
 11
75.4139247062
 21
122.5256330226
 31
0.0
  0
ARC
  5
2BE
330
1F
100
AcDbEntity
  8
0
  6
SLD-Durchgehend
 62
     7
370
    15
100
AcDbCircle
 10
73.3674608116
 20
121.3544495994
 30
0.0
 40
2.042000000000011
100
AcDbArc
 50
179.7823417911
 51
239.7823417911
  0
ARC
  5
2BF
330
1F
100
AcDbEntity
  8
0
  6
SLD-Durchgehend
 62
     7
370
    15
100
AcDbCircle
 10
73.3674608116
 20
121.3544495994
 30
0.0
 40
2.042000000000011
100
AcDbArc
 50
119.7823417911
 51
179.7823417911
  0
ARC
  5
2C0
330
1F
100
AcDbEntity
  8
0
  6
SLD-Durchgehend
 62
     7
370
    15
100
AcDbCircle
 10
73.3674608116
 20
121.3544495994
 30
0.0
 40
2.042000000000003
100
AcDbArc
 50
59.7823417911
 51
119.7823417911
  0
ARC
  5
2C1
330
1F
100
AcDbEntity
  8
0
  6
SLD-Durchgehend
 62
     7
370
    15
100
AcDbCircle
 10
73.3674608116
 20
121.3544495994
 30
0.0
 40
2.042000000000003
100
AcDbArc
 50
359.7823417911
 51
59.7823417911
  0
ARC
  5
2C2
330
1F
100
AcDbEntity
  8
0
  6
SLD-Durchgehend
 62
     7
370
    15
100
AcDbCircle
 10
73.3674608116
 20
121.3544495994
 30
0.0
 40
2.041999999999997
100
AcDbArc
 50
299.7823417911
 51
359.7823417911
  0
ARC
  5
2C3
330
1F
100
AcDbEntity
  8
0
  6
SLD-Durchgehend
 62
     7
370
    15
100
AcDbCircle
 10
73.3674608116
 20
121.3544495994
 30
0.0
 40
2.041999999999998
100
AcDbArc
 50
239.7823417911
 51
299.7823417911
  0
CIRCLE
  5
2C4
330
1F
100
AcDbEntity
  8
0
  6
SLD-Durchgehend
 62
     7
370
    15
100
AcDbCircle
 10
88.9238099977
 20
121.3544495994
 30
0.0
 40
4.250000000000004
  0
LINE
  5
2C5
330
1F
100
AcDbEntity
  8
0
  6
SLD-Durchgehend
 62
     7
370
    15
100
AcDbLine
 10
89.0525472993
 20
123.7088308562
 30
0.0
 11
86.9492246481
 21
122.6431305413
 31
0.0
  0
LINE
  5
2C6
330
1F
100
AcDbEntity
  8
0
  6
SLD-Durchgehend
 62
     7
370
    15
100
AcDbLine
 10
86.9492246481
 20
122.6431305413
 30
0.0
 11
86.8204869972
 21
120.2887489353
 31
0.0
  0
LINE
  5
2C7
330
1F
100
AcDbEntity
  8
0
  6
SLD-Durchgehend
 62
     7
370
    15
100
AcDbLine
 10
88.7950724633
 20
119.0000681099
 30
0.0
 11
86.8204869972
 21
120.2887489353
 31
0.0
  0
LINE
  5
2C8
330
1F
100
AcDbEntity
  8
0
  6
SLD-Durchgehend
 62
     7
370
    15
100
AcDbLine
 10
90.8983951146
 20
120.0657688905
 30
0.0
 11
88.7950724633
 21
119.0000681099
 31
0.0
  0
LINE
  5
2C9
330
1F
100
AcDbEntity
  8
0
  6
SLD-Durchgehend
 62
     7
370
    15
100
AcDbLine
 10
90.8983951146
 20
120.0657688905
 30
0.0
 11
91.0271327654
 21
122.4201504965
 31
0.0
  0
LINE
  5
2CA
330
1F
100
AcDbEntity
  8
0
  6
SLD-Durchgehend
 62
     7
370
    15
100
AcDbLine
 10
89.0525472993
 20
123.7088308562
 30
0.0
 11
91.0271327654
 21
122.4201504965
 31
0.0
  0
ARC
  5
2CB
330
1F
100
AcDbEntity
  8
0
  6
SLD-Durchgehend
 62
     7
370
    15
100
AcDbCircle
 10
88.9238099977
 20
121.3544495994
 30
0.0
 40
2.042
100
AcDbArc
 50
356.8701833941
 51
56.8701833941
  0
ARC
  5
2CC
330
1F
100
AcDbEntity
  8
0
  6
SLD-Durchgehend
 62
     7
370
    15
100
AcDbCircle
 10
88.9238099977
 20
121.3544495994
 30
0.0
 40
2.042
100
AcDbArc
 50
176.8701833941
 51
236.8701833941
  0
ARC
  5
2CD
330
1F
100
AcDbEntity
  8
0
  6
SLD-Durchgehend
 62
     7
370
    15
100
AcDbCircle
 10
88.9238099977
 20
121.3544495994
 30
0.0
 40
2.042000000000004
100
AcDbArc
 50
296.8701833941
 51
356.8701833941
  0
ARC
  5
2CE
330
1F
100
AcDbEntity
  8
0
  6
SLD-Durchgehend
 62
     7
370
    15
100
AcDbCircle
 10
88.9238099977
 20
121.3544495994
 30
0.0
 40
2.042000000000004
100
AcDbArc
 50
236.8701833941
 51
296.8701833941
  0
ARC
  5
2CF
330
1F
100
AcDbEntity
  8
0
  6
SLD-Durchgehend
 62
     7
370
    15
100
AcDbCircle
 10
88.9238099977
 20
121.3544495994
 30
0.0
 40
2.042
100
AcDbArc
 50
116.8701833941
 51
176.8701833941
  0
ARC
  5
2D0
330
1F
100
AcDbEntity
  8
0
  6
SLD-Durchgehend
 62
     7
370
    15
100
AcDbCircle
 10
88.9238099977
 20
121.3544495994
 30
0.0
 40
2.041999999999997
100
AcDbArc
 50
56.8701833941
 51
116.8701833941
  0
CIRCLE
  5
2D1
330
1F
100
AcDbEntity
  8
0
  6
SLD-Durchgehend
 62
     7
370
    15
100
AcDbCircle
 10
88.9238099977
 20
105.7981004133
 30
0.0
 40
4.250000000000005
  0
LINE
  5
2D2
330
1F
100
AcDbEntity
  8
0
  6
SLD-Durchgehend
 62
     7
370
    15
100
AcDbLine
 10
90.2527101049
 20
103.850356013
 30
0.0
 11
91.2750564227
 21
105.9750897703
 31
0.0
  0
LINE
  5
2D3
330
1F
100
AcDbEntity
  8
0
  6
SLD-Durchgehend
 62
     7
370
    15
100
AcDbLine
 10
91.2750564227
 20
105.9750897703
 30
0.0
 11
89.9461559662
 21
107.9228340541
 31
0.0
  0
LINE
  5
2D4
330
1F
100
AcDbEntity
  8
0
  6
SLD-Durchgehend
 62
     7
370
    15
100
AcDbLine
 10
87.5949096577
 20
107.7458450463
 30
0.0
 11
89.9461559662
 21
107.9228340541
 31
0.0
  0
LINE
  5
2D5
330
1F
100
AcDbEntity
  8
0
  6
SLD-Durchgehend
 62
     7
370
    15
100
AcDbLine
 10
86.5725633399
 20
105.6211112891
 30
0.0
 11
87.5949096577
 21
107.7458450463
 31
0.0
  0
LINE
  5
2D6
330
1F
100
AcDbEntity
  8
0
  6
SLD-Durchgehend
 62
     7
370
    15
100
AcDbLine
 10
86.5725633399
 20
105.6211112891
 30
0.0
 11
87.9014637964
 21
103.6733665396
 31
0.0
  0
LINE
  5
2D7
330
1F
100
AcDbEntity
  8
0
  6
SLD-Durchgehend
 62
     7
370
    15
100
AcDbLine
 10
90.2527101049
 20
103.850356013
 30
0.0
 11
87.9014637964
 21
103.6733665396
 31
0.0
  0
ARC
  5
2D8
330
1F
100
AcDbEntity
  8
0
  6
SLD-Durchgehend
 62
     7
370
    15
100
AcDbCircle
 10
88.9238099977
 20
105.7981004133
 30
0.0
 40
2.042000000000001
100
AcDbArc
 50
274.3048024535
 51
334.3048024535
  0
ARC
  5
2D9
330
1F
100
AcDbEntity
  8
0
  6
SLD-Durchgehend
 62
     7
370
    15
100
AcDbCircle
 10
88.9238099977
 20
105.7981004133
 30
0.0
 40
2.041999999999998
100
AcDbArc
 50
334.3048024535
 51
34.3048024535
  0
ARC
  5
2DA
330
1F
100
AcDbEntity
  8
0
  6
SLD-Durchgehend
 62
     7
370
    15
100
AcDbCircle
 10
88.9238099977
 20
105.7981004133
 30
0.0
 40
2.041999999999994
100
AcDbArc
 50
154.3048024535
 51
214.3048024535
  0
ARC
  5
2DB
330
1F
100
AcDbEntity
  8
0
  6
SLD-Durchgehend
 62
     7
370
    15
100
AcDbCircle
 10
88.9238099977
 20
105.7981004133
 30
0.0
 40
2.042000000000001
100
AcDbArc
 50
94.3048024535
 51
154.3048024535
  0
ARC
  5
2DC
330
1F
100
AcDbEntity
  8
0
  6
SLD-Durchgehend
 62
     7
370
    15
100
AcDbCircle
 10
88.9238099977
 20
105.7981004133
 30
0.0
 40
2.042000000000001
100
AcDbArc
 50
34.3048024535
 51
94.3048024535
  0
ARC
  5
2DD
330
1F
100
AcDbEntity
  8
0
  6
SLD-Durchgehend
 62
     7
370
    15
100
AcDbCircle
 10
88.9238099977
 20
105.7981004133
 30
0.0
 40
2.042000000000001
100
AcDbArc
 50
214.3048024535
 51
274.3048024535
  0
CIRCLE
  5
2DE
330
1F
100
AcDbEntity
  8
0
  6
SLD-Durchgehend
 62
     7
370
    15
100
AcDbCircle
 10
81.1456354046
 20
113.5762750064
 30
0.0
 40
15.99999999999999
  0
LINE
  5
2DF
330
1F
100
AcDbEntity
  8
0
  6
SLD-Durchgehend
 62
     7
370
    15
100
AcDbLine
 10
96.0188047672
 20
114.4700572486
 30
0.0
 11
96.8537186915
 21
114.972351993
 31
0.0
  0
ARC
  5
2E0
330
1F
100
AcDbEntity
  8
0
  6
SLD-Durchgehend
 62
     7
370
    15
100
AcDbCircle
 10
96.782951674
 20
115.0704616125
 30
0.0
 40
0.1209688729089982
100
AcDbArc
 50
305.8031224906
 51
65.1138868821
  0
LINE
  5
2E1
330
1F
100
AcDbEntity
  8
0
  6
SLD-Durchgehend
 62
     7
370
    15
100
AcDbLine
 10
96.8338573063
 20
115.1801980459
 30
0.0
 11
95.8960201302
 21
115.6824926738
 31
0.0
  0
ARC
  5
2E2
330
1F
100
AcDbEntity
  8
0
  6
SLD-Durchgehend
 62
     7
370
    15
100
AcDbCircle
 10
81.1456354046
 20
113.5762750064
 30
0.0
 40
14.89999999999999
100
AcDbArc
 50
8.1263717008
 51
9.2450053025
  0
LINE
  5
2E3
330
1F
100
AcDbEntity
  8
0
  6
SLD-Durchgehend
 62
     7
370
    15
100
AcDbLine
 10
95.8520896444
 20
115.9700571452
 30
0.0
 11
96.6474298099
 21
116.472352006
 31
0.0
  0
LWPOLYLINE
  5
2E4
330
1F
100
AcDbEntity
  8
0
  6
SLD-Durchgehend
 62
     7
370
    15
100
AcDbPolyline
 90
        9
 70
   128
 43
0.0
 10
96.6474298099
 20
116.472352006
 10
96.6700479099
 20
116.4925295752
 10
96.6846035505
 20
116.518190539
 10
96.6905491138
 20
116.5450240378
 10
96.6891251216
 20
116.5743301981
 10
96.6812619651
 20
116.6012149197
 10
96.6625516945
 20
116.6338424091
 10
96.6280685449
 20
116.6674612914
 10
96.6071538338
 20
116.6801980589
  0
LINE
  5
2E5
330
1F
100
AcDbEntity
  8
0
  6
SLD-Durchgehend
 62
     7
370
    15
100
AcDbLine
 10
96.6071538338
 20
116.6801980589
 30
0.0
 11
95.602647
 21
117.1824926869
 31
0.0
  0
ARC
  5
2E6
330
1F
100
AcDbEntity
  8
0
  6
SLD-Durchgehend
 62
     7
370
    15
100
AcDbCircle
 10
81.1456354046
 20
113.5762750064
 30
0.0
 40
14.89999999999998
100
AcDbArc
 50
14.0062678394
 51
15.1488557102
  0
LINE
  5
2E7
330
1F
100
AcDbEntity
  8
0
  6
SLD-Durchgehend
 62
     7
370
    15
100
AcDbLine
 10
95.5278627286
 20
117.4700571583
 30
0.0
 11
96.2905162657
 21
117.9723517862
 31
0.0
  0
LWPOLYLINE
  5
2E8
330
1F
100
AcDbEntity
  8
0
  6
SLD-Durchgehend
 62
     7
370
    15
100
AcDbPolyline
 90
        9
 70
   128
 43
0.0
 10
96.2905162657
 20
117.9723517862
 10
96.3100982541
 20
117.990432017
 10
96.3229039395
 20
118.0145206754
 10
96.3274692828
 20
118.0450806287
 10
96.3235139558
 20
118.072870363
 10
96.3134994441
 20
118.0990675357
 10
96.2903355891
 20
118.133464538
 10
96.2485154802
 20
118.1692743567
 10
96.2286317432
 20
118.1801978391
  0
LINE
  5
2E9
330
1F
100
AcDbEntity
  8
0
  6
SLD-Durchgehend
 62
     7
370
    15
100
AcDbLine
 10
96.2286317432
 20
118.1801978391
 30
0.0
 11
95.1433689976
 21
118.6824926999
 31
0.0
  0
ARC
  5
2EA
330
1F
100
AcDbEntity
  8
0
  6
SLD-Durchgehend
 62
     7
370
    15
100
AcDbCircle
 10
81.1456354046
 20
113.5762750064
 30
0.0
 40
14.89999999999998
100
AcDbArc
 50
20.0414082842
 51
21.2230004203
  0
LINE
  5
2EB
330
1F
100
AcDbEntity
  8
0
  6
SLD-Durchgehend
 62
     7
370
    15
100
AcDbLine
 10
95.035096229
 20
118.9700571713
 30
0.0
 11
95.7719530621
 21
119.4723520321
 31
0.0
  0
LWPOLYLINE
  5
2EC
330
1F
100
AcDbEntity
  8
0
  6
SLD-Durchgehend
 62
     7
370
    15
100
AcDbPolyline
 90
        9
 70
   128
 43
0.0
 10
95.7719530621
 20
119.4723520321
 10
95.788871468
 20
119.4883642611
 10
95.8001590976
 20
119.5107686226
 10
95.8032846162
 20
119.5391450901
 10
95.7984706098
 20
119.565188129
 10
95.7876654053
 20
119.590636984
 10
95.7622989723
 20
119.6260556471
 10
95.7157347062
 20
119.664761879
 10
95.686440886
 20
119.680198085
  0
LINE
  5
2ED
330
1F
100
AcDbEntity
  8
0
  6
SLD-Durchgehend
 62
     7
370
    15
100
AcDbLine
 10
95.686440886
 20
119.680198085
 30
0.0
 11
94.50107959
 21
120.1824929458
 31
0.0
  0
ARC
  5
2EE
330
1F
100
AcDbEntity
  8
0
  6
SLD-Durchgehend
 62
     7
370
    15
100
AcDbCircle
 10
81.1456354046
 20
113.5762750064
 30
0.0
 40
14.89999999999999
100
AcDbArc
 50
26.3191194298
 51
27.5595289824
  0
LINE
  5
2EF
330
1F
100
AcDbEntity
  8
0
  6
SLD-Durchgehend
 62
     7
370
    15
100
AcDbLine
 10
94.3549411082
 20
120.4700574172
 30
0.0
 11
95.0736986184
 21
120.9723518123
 31
0.0
  0
LWPOLYLINE
  5
2F0
330
1F
100
AcDbEntity
  8
0
  6
SLD-Durchgehend
 62
     7
370
    15
100
AcDbPolyline
 90
        9
 70
   128
 43
0.0
 10
95.0736986184
 20
120.9723518123
 10
95.088254259
 20
120.9862951082
 10
95.0982622513
 20
121.0068805967
 10
95.1002319986
 20
121.0329236355
 10
95.0947725857
 20
121.0569880796
 10
95.0797717729
 20
121.0871429075
 10
95.0487959841
 20
121.1243320149
 10
94.9912821585
 20
121.1661623684
 10
94.9613243053
 20
121.1801978652
  0
LINE
  5
2F1
330
1F
100
AcDbEntity
  8
0
  6
SLD-Durchgehend
 62
     7
370
    15
100
AcDbLine
 10
94.9613243053
 20
121.1801978652
 30
0.0
 11
93.6476044068
 21
121.682492726
 31
0.0
  0
ARC
  5
2F2
330
1F
100
AcDbEntity
  8
0
  6
SLD-Durchgehend
 62
     7
370
    15
100
AcDbCircle
 10
81.1456354046
 20
113.5762750064
 30
0.0
 40
14.89999999999999
100
AcDbArc
 50
32.9591848067
 51
34.2871726543
  0
LINE
  5
2F3
330
1F
100
AcDbEntity
  8
0
  6
SLD-Durchgehend
 62
     7
370
    15
100
AcDbLine
 10
93.4563796678
 20
121.9700571974
 30
0.0
 11
94.1668763468
 21
122.4723520581
 31
0.0
  0
LWPOLYLINE
  5
2F4
330
1F
100
AcDbEntity
  8
0
  6
SLD-Durchgehend
 62
     7
370
    15
100
AcDbPolyline
 90
        9
 70
   128
 43
0.0
 10
94.1668763468
 20
122.4723520581
 10
94.1793104345
 20
122.4841928934
 10
94.1883051479
 20
122.5027960618
 10
94.1894394988
 20
122.5263343085
 10
94.1836103508
 20
122.5481253941
 10
94.1677583093
 20
122.5770057072
 10
94.1340863416
 20
122.6145575647
 10
94.0682073766
 20
122.6601141398
 10
94.0224161083
 20
122.6801981111
  0
LINE
  5
2F5
330
1F
100
AcDbEntity
  8
0
  6
SLD-Durchgehend
 62
     7
370
    15
100
AcDbLine
 10
94.0224161083
 20
122.6801981111
 30
0.0
 11
92.7415504763
 21
123.1129064117
 31
0.0
  0
LINE
  5
2F6
330
1F
100
AcDbEntity
  8
0
  6
SLD-Durchgehend
 62
     7
370
    15
100
AcDbLine
 10
92.4852169761
 20
123.609128118
 30
0.0
 11
93.0037336135
 21
123.972352304
 31
0.0
  0
LWPOLYLINE
  5
2F7
330
1F
100
AcDbEntity
  8
0
  6
SLD-Durchgehend
 62
     7
370
    15
100
AcDbPolyline
 90
        9
 70
   128
 43
0.0
 10
93.0037336135
 20
123.972352304
 10
93.0142305503
 20
123.9820147757
 10
93.023223401
 20
124.0016405363
 10
93.0225100079
 20
124.0229799305
 10
93.015696452
 20
124.0420785625
 10
92.9974406669
 20
124.0700079952
 10
92.9572876254
 20
124.1087165554
 10
92.8737600976
 20
124.1589995925
 10
92.818241165
 20
124.180198357
  0
LINE
  5
2F8
330
1F
100
AcDbEntity
  8
0
  6
SLD-Durchgehend
 62
     7
370
    15
100
AcDbLine
 10
92.818241165
 20
124.180198357
 30
0.0
 11
91.7638107845
 21
124.4846318741
 31
0.0
  0
LINE
  5
2F9
330
1F
100
AcDbEntity
  8
0
  6
SLD-Durchgehend
 62
     7
370
    15
100
AcDbLine
 10
90.8765257979
 20
125.0565021192
 30
0.0
 11
91.4982320452
 21
125.4723516186
 31
0.0
  0
LWPOLYLINE
  5
2FA
330
1F
100
AcDbEntity
  8
0
  6
SLD-Durchgehend
 62
     7
370
    15
100
AcDbPolyline
 90
        9
 70
   128
 43
0.0
 10
91.4982320452
 20
125.4723516186
 10
91.5068961391
 20
125.4797072043
 10
91.5154335731
 20
125.495571353
 10
91.5158694321
 20
125.510575891
 10
91.5108710239
 20
125.5265834634
 10
91.4964578757
 20
125.5492295031
 10
91.4626983637
 20
125.5822094981
 10
91.3831960121
 20
125.6321581905
 10
91.2544406662
 20
125.6801976715
  0
LINE
  5
2FB
330
1F
100
AcDbEntity
  8
0
  6
SLD-Durchgehend
 62
     7
370
    15
100
AcDbLine
 10
91.2544406662
 20
125.6801976715
 30
0.0
 11
89.0887627089
 21
126.1824925323
 31
0.0
  0
ARC
  5
2FC
330
1F
100
AcDbEntity
  8
0
  6
SLD-Durchgehend
 62
     7
370
    15
100
AcDbCircle
 10
81.1456354046
 20
113.5762750064
 30
0.0
 40
14.89999999999999
100
AcDbArc
 50
57.7851348081
 51
59.923210481
  0
LINE
  5
2FD
330
1F
100
AcDbEntity
  8
0
  6
SLD-Durchgehend
 62
     7
370
    15
100
AcDbLine
 10
88.6129225315
 20
126.4700570037
 30
0.0
 11
89.4665742004
 21
126.9723518644
 31
0.0
  0
LWPOLYLINE
  5
2FE
330
1F
100
AcDbEntity
  8
0
  6
SLD-Durchgehend
 62
     7
370
    15
100
AcDbPolyline
 90
        9
 70
   128
 43
0.0
 10
89.4665742004
 20
126.9723518644
 10
89.4733905503
 20
126.9772142996
 10
89.4822278702
 20
126.9892050777
 10
89.4838968003
 20
127.0004489352
 10
89.4807694191
 20
127.0127368052
 10
89.4705071756
 20
127.0291830306
 10
89.444965654
 20
127.0537578394
 10
89.3621468628
 20
127.1032958184
 10
89.1222372362
 20
127.1801979174
  0
LINE
  5
2FF
330
1F
100
AcDbEntity
  8
0
  6
SLD-Durchgehend
 62
     7
370
    15
100
AcDbLine
 10
89.1222372362
 20
127.1801979174
 30
0.0
 11
85.9440328264
 21
127.6824927782
 31
0.0
  0
ARC
  5
300
330
1F
100
AcDbEntity
  8
0
  6
SLD-Durchgehend
 62
     7
370
    15
100
AcDbCircle
 10
81.1456354046
 20
113.5762750064
 30
0.0
 40
14.90000000000001
100
AcDbArc
 50
71.2136529668
 51
75.0221147726
  0
LINE
  5
301
330
1F
100
AcDbEntity
  8
0
  6
SLD-Durchgehend
 62
     7
370
    15
100
AcDbLine
 10
84.9964838186
 20
127.9700572495
 30
0.0
 11
86.3224869305
 21
128.4723521103
 31
0.0
  0
LWPOLYLINE
  5
302
330
1F
100
AcDbEntity
  8
0
  6
SLD-Durchgehend
 62
     7
370
    15
100
AcDbPolyline
 90
       10
 70
   128
 43
0.0
 10
86.3224869305
 20
128.4723521103
 10
86.3355571115
 20
128.4797188719
 10
86.3411827655
 20
128.4858739828
 10
86.3435073467
 20
128.4936197926
 10
86.3418766009
 20
128.5011858572
 10
86.3357606055
 20
128.5104180579
 10
86.3196147317
 20
128.524345987
 10
86.2584738703
 20
128.5560407569
 10
85.9885318847
 20
128.6325582196
 10
85.6804350102
 20
128.6801981632
  0
ARC
  5
303
330
1F
100
AcDbEntity
  8
0
  6
SLD-Durchgehend
 62
     7
370
    15
100
AcDbCircle
 10
81.1456354046
 20
86.50752724
 30
0.0
 40
42.41578220734645
100
AcDbArc
 50
83.86260463
 51
96.13739537
  0
LWPOLYLINE
  5
304
330
1F
100
AcDbEntity
  8
0
  6
SLD-Durchgehend
 62
     7
370
    15
100
AcDbPolyline
 90
       11
 70
   128
 43
0.0
 10
76.610835799
 20
128.6801981632
 10
76.4086493933
 20
128.6523776953
 10
76.1370296301
 20
128.5919423108
 10
76.0222152518
 20
128.5515108039
 10
75.9692914495
 20
128.5226463233
 10
75.9556126492
 20
128.5105344732
 10
75.9496959569
 20
128.5018554781
 10
75.9477727758
 20
128.4944877853
 10
75.9491716223
 20
128.4875792344
 10
75.9549020501
 20
128.4803903554
 10
75.9687838787
 20
128.4723521103
  0
LINE
  5
305
330
1F
100
AcDbEntity
  8
0
  6
SLD-Durchgehend
 62
     7
370
    15
100
AcDbLine
 10
75.9687838787
 20
128.4723521103
 30
0.0
 11
77.2947869906
 21
127.9700572495
 31
0.0
  0
ARC
  5
306
330
1F
100
AcDbEntity
  8
0
  6
SLD-Durchgehend
 62
     7
370
    15
100
AcDbCircle
 10
81.1456354046
 20
113.5762750064
 30
0.0
 40
14.89999999999998
100
AcDbArc
 50
104.9778852274
 51
108.7863470332
  0
LINE
  5
307
330
1F
100
AcDbEntity
  8
0
  6
SLD-Durchgehend
 62
     7
370
    15
100
AcDbLine
 10
76.3472379828
 20
127.6824927782
 30
0.0
 11
73.169033573
 21
127.1801979174
 31
0.0
  0
LWPOLYLINE
  5
308
330
1F
100
AcDbEntity
  8
0
  6
SLD-Durchgehend
 62
     7
370
    15
100
AcDbPolyline
 90
       10
 70
   128
 43
0.0
 10
73.169033573
 20
127.1801979174
 10
72.9613728532
 20
127.1177788158
 10
72.8897839496
 20
127.082729422
 10
72.8370841304
 20
127.0460269307
 10
72.8216660851
 20
127.0302885105
 10
72.8104483047
 20
127.0126138707
 10
72.8073516572
 20
127.0000726809
 10
72.809271113
 20
126.9886379023
 10
72.8174928287
 20
126.9775523697
 10
72.8246966088
 20
126.9723518644
  0
LINE
  5
309
330
1F
100
AcDbEntity
  8
0
  6
SLD-Durchgehend
 62
     7
370
    15
100
AcDbLine
 10
72.8246966088
 20
126.9723518644
 30
0.0
 11
73.6783482777
 21
126.4700570037
 31
0.0
  0
ARC
  5
30A
330
1F
100
AcDbEntity
  8
0
  6
SLD-Durchgehend
 62
     7
370
    15
100
AcDbCircle
 10
81.1456354046
 20
113.5762750064
 30
0.0
 40
14.89999999999998
100
AcDbArc
 50
120.076789519
 51
122.2148651919
  0
LINE
  5
30B
330
1F
100
AcDbEntity
  8
0
  6
SLD-Durchgehend
 62
     7
370
    15
100
AcDbLine
 10
73.2025081003
 20
126.1824925323
 30
0.0
 11
71.0368301431
 21
125.6801976715
 31
0.0
  0
LWPOLYLINE
  5
30C
330
1F
100
AcDbEntity
  8
0
  6
SLD-Durchgehend
 62
     7
370
    15
100
AcDbPolyline
 90
        8
 70
   128
 43
0.0
 10
71.0368301431
 20
125.6801976715
 10
70.8817006731
 20
125.6180114006
 10
70.8056218633
 20
125.5614251722
 10
70.7857930744
 20
125.5365663101
 10
70.7770479554
 20
125.517788053
 10
70.7751741344
 20
125.4992677723
 10
70.7797022248
 20
125.4859768678
 10
70.793038764
 20
125.4723516186
  0
LINE
  5
30D
330
1F
100
AcDbEntity
  8
0
  6
SLD-Durchgehend
 62
     7
370
    15
100
AcDbLine
 10
70.793038764
 20
125.4723516186
 30
0.0
 11
71.3685914585
 21
125.0873735999
 31
0.0
  0
LINE
  5
30E
330
1F
100
AcDbEntity
  8
0
  6
SLD-Durchgehend
 62
     7
370
    15
100
AcDbLine
 10
70.6017292747
 20
124.5060755764
 30
0.0
 11
69.4730296442
 21
124.180198357
 31
0.0
  0
LWPOLYLINE
  5
30F
330
1F
100
AcDbEntity
  8
0
  6
SLD-Durchgehend
 62
     7
370
    15
100
AcDbPolyline
 90
        9
 70
   128
 43
0.0
 10
69.4730296442
 20
124.180198357
 10
69.3815411711
 20
124.1405612682
 10
69.3302308852
 20
124.1057121088
 10
69.2856829325
 20
124.0592027907
 10
69.2732209051
 20
124.0368687441
 10
69.2674178341
 20
124.013618276
 10
69.2697461406
 20
123.9950905447
 10
69.2776297862
 20
123.9813032453
 10
69.2875371957
 20
123.972352304
  0
LINE
  5
310
330
1F
100
AcDbEntity
  8
0
  6
SLD-Durchgehend
 62
     7
370
    15
100
AcDbLine
 10
69.2875371957
 20
123.972352304
 30
0.0
 11
69.8329345966
 21
123.5902977069
 31
0.0
  0
LINE
  5
311
330
1F
100
AcDbEntity
  8
0
  6
SLD-Durchgehend
 62
     7
370
    15
100
AcDbLine
 10
69.5251771891
 20
123.1046157782
 30
0.0
 11
68.2688547009
 21
122.6801981111
 31
0.0
  0
LWPOLYLINE
  5
312
330
1F
100
AcDbEntity
  8
0
  6
SLD-Durchgehend
 62
     7
370
    15
100
AcDbPolyline
 90
        9
 70
   128
 43
0.0
 10
68.2688547009
 20
122.6801981111
 10
68.1827259892
 20
122.6351556261
 10
68.1440220857
 20
122.6017965828
 10
68.1169857913
 20
122.5669148271
 10
68.1052539209
 20
122.5413910006
 10
68.1012483025
 20
122.5153372516
 10
68.1052380884
 20
122.4958930989
 10
68.1179003501
 20
122.4776401077
 10
68.1243944624
 20
122.4723520581
  0
LINE
  5
313
330
1F
100
AcDbEntity
  8
0
  6
SLD-Durchgehend
 62
     7
370
    15
100
AcDbLine
 10
68.1243944624
 20
122.4723520581
 30
0.0
 11
68.8348911414
 21
121.9700571974
 31
0.0
  0
ARC
  5
314
330
1F
100
AcDbEntity
  8
0
  6
SLD-Durchgehend
 62
     7
370
    15
100
AcDbCircle
 10
81.1456354046
 20
113.5762750064
 30
0.0
 40
14.89999999999999
100
AcDbArc
 50
145.7128273457
 51
147.0408151933
  0
LINE
  5
315
330
1F
100
AcDbEntity
  8
0
  6
SLD-Durchgehend
 62
     7
370
    15
100
AcDbLine
 10
68.6436664024
 20
121.682492726
 30
0.0
 11
67.329946504
 21
121.1801978652
 31
0.0
  0
LWPOLYLINE
  5
316
330
1F
100
AcDbEntity
  8
0
  6
SLD-Durchgehend
 62
     7
370
    15
100
AcDbPolyline
 90
        9
 70
   128
 43
0.0
 10
67.329946504
 20
121.1801978652
 10
67.2608004594
 20
121.1403055941
 10
67.2254167208
 20
121.1060543437
 10
67.2032624194
 20
121.0727753942
 10
67.1931948224
 20
121.0457921852
 10
67.1909382278
 20
121.0186953549
 10
67.1960996175
 20
120.9981084694
 10
67.2106207991
 20
120.9779229839
 10
67.2175721908
 20
120.9723518123
  0
LINE
  5
317
330
1F
100
AcDbEntity
  8
0
  6
SLD-Durchgehend
 62
     7
370
    15
100
AcDbLine
 10
67.2175721908
 20
120.9723518123
 30
0.0
 11
67.936329701
 21
120.4700574172
 31
0.0
  0
ARC
  5
318
330
1F
100
AcDbEntity
  8
0
  6
SLD-Durchgehend
 62
     7
370
    15
100
AcDbCircle
 10
81.1456354046
 20
113.5762750064
 30
0.0
 40
14.89999999999997
100
AcDbArc
 50
152.4404710176
 51
153.6808805702
  0
LINE
  5
319
330
1F
100
AcDbEntity
  8
0
  6
SLD-Durchgehend
 62
     7
370
    15
100
AcDbLine
 10
67.7901912192
 20
120.1824929458
 30
0.0
 11
66.6048299232
 21
119.680198085
 31
0.0
  0
LWPOLYLINE
  5
31A
330
1F
100
AcDbEntity
  8
0
  6
SLD-Durchgehend
 62
     7
370
    15
100
AcDbPolyline
 90
        9
 70
   128
 43
0.0
 10
66.6048299232
 20
119.680198085
 10
66.5477640638
 20
119.6443347153
 10
66.5163002619
 20
119.6105845165
 10
66.4975611204
 20
119.5781391007
 10
66.4892434785
 20
119.5503051285
 10
66.4885785142
 20
119.5226704595
 10
66.4948276887
 20
119.5009538797
 10
66.5110671604
 20
119.4788712901
 10
66.5193177471
 20
119.4723520321
  0
LINE
  5
31B
330
1F
100
AcDbEntity
  8
0
  6
SLD-Durchgehend
 62
     7
370
    15
100
AcDbLine
 10
66.5193177471
 20
119.4723520321
 30
0.0
 11
67.2561745802
 21
118.9700571713
 31
0.0
  0
ARC
  5
31C
330
1F
100
AcDbEntity
  8
0
  6
SLD-Durchgehend
 62
     7
370
    15
100
AcDbCircle
 10
81.1456354046
 20
113.5762750064
 30
0.0
 40
14.89999999999997
100
AcDbArc
 50
158.7769995797
 51
159.9585917158
  0
LINE
  5
31D
330
1F
100
AcDbEntity
  8
0
  6
SLD-Durchgehend
 62
     7
370
    15
100
AcDbLine
 10
67.1479018116
 20
118.6824926999
 30
0.0
 11
66.062639066
 21
118.1801978391
 31
0.0
  0
LWPOLYLINE
  5
31E
330
1F
100
AcDbEntity
  8
0
  6
SLD-Durchgehend
 62
     7
370
    15
100
AcDbPolyline
 90
        9
 70
   128
 43
0.0
 10
66.062639066
 20
118.1801978391
 10
66.01468061
 20
118.1476839711
 10
65.9869560683
 20
118.1150043276
 10
65.9710071692
 20
118.0832788241
 10
65.9643975729
 20
118.05492238
 10
65.9652227247
 20
118.0269882907
 10
65.9725811044
 20
118.0042169881
 10
65.990590089
 20
117.9802480046
 10
66.0007545436
 20
117.9723517862
  0
LINE
  5
31F
330
1F
100
AcDbEntity
  8
0
  6
SLD-Durchgehend
 62
     7
370
    15
100
AcDbLine
 10
66.0007545436
 20
117.9723517862
 30
0.0
 11
66.7634080807
 21
117.4700571583
 31
0.0
  0
ARC
  5
320
330
1F
100
AcDbEntity
  8
0
  6
SLD-Durchgehend
 62
     7
370
    15
100
AcDbCircle
 10
81.1456354046
 20
113.5762750064
 30
0.0
 40
14.89999999999997
100
AcDbArc
 50
164.8511442898
 51
165.9937321606
  0
LINE
  5
321
330
1F
100
AcDbEntity
  8
0
  6
SLD-Durchgehend
 62
     7
370
    15
100
AcDbLine
 10
66.6886238092
 20
117.1824926869
 30
0.0
 11
65.6841169754
 21
116.6801980589
 31
0.0
  0
LWPOLYLINE
  5
322
330
1F
100
AcDbEntity
  8
0
  6
SLD-Durchgehend
 62
     7
370
    15
100
AcDbPolyline
 90
        9
 70
   128
 43
0.0
 10
65.6841169754
 20
116.6801980589
 10
65.6497968072
 20
116.6567087066
 10
65.6224429319
 20
116.624876101
 10
65.6071394393
 20
116.5935985637
 10
65.6008390421
 20
116.5646286108
 10
65.6019352088
 20
116.5356330466
 10
65.6095254877
 20
116.5113648758
 10
65.6277421573
 20
116.4852515221
 10
65.6438409993
 20
116.472352006
  0
LINE
  5
323
330
1F
100
AcDbEntity
  8
0
  6
SLD-Durchgehend
 62
     7
370
    15
100
AcDbLine
 10
65.6438409993
 20
116.472352006
 30
0.0
 11
66.4391811648
 21
115.9700571452
 31
0.0
  0
ARC
  5
324
330
1F
100
AcDbEntity
  8
0
  6
SLD-Durchgehend
 62
     7
370
    15
100
AcDbCircle
 10
81.1456354046
 20
113.5762750064
 30
0.0
 40
14.89999999999998
100
AcDbArc
 50
170.7549946975
 51
171.8736282992
  0
LINE
  5
325
330
1F
100
AcDbEntity
  8
0
  6
SLD-Durchgehend
 62
     7
370
    15
100
AcDbLine
 10
66.395250679
 20
115.6824926738
 30
0.0
 11
65.457413503
 21
115.1801980459
 31
0.0
  0
ARC
  5
326
330
1F
100
AcDbEntity
  8
0
  6
SLD-Durchgehend
 62
     7
370
    15
100
AcDbCircle
 10
65.5061226893
 20
115.0706715008
 30
0.0
 40
0.1198692993128821
100
AcDbArc
 50
113.9759079556
 51
235.1070826717
  0
LINE
  5
327
330
1F
100
AcDbEntity
  8
0
  6
SLD-Durchgehend
 62
     7
370
    15
100
AcDbLine
 10
65.4375521177
 20
114.972351993
 30
0.0
 11
66.2724660421
 21
114.4700572486
 31
0.0
  0
ARC
  5
328
330
1F
100
AcDbEntity
  8
0
  6
SLD-Durchgehend
 62
     7
370
    15
100
AcDbCircle
 10
81.1456354046
 20
113.5762750064
 30
0.0
 40
14.89999999999998
100
AcDbArc
 50
176.5610261951
 51
177.6682342154
  0
LINE
  5
329
330
1F
100
AcDbEntity
  8
0
  6
SLD-Durchgehend
 62
     7
370
    15
100
AcDbLine
 10
66.2579728002
 20
114.1824927772
 30
0.0
 11
65.375978657
 21
113.6801980547
 31
0.0
  0
ARC
  5
32A
330
1F
100
AcDbEntity
  8
0
  6
SLD-Durchgehend
 62
     7
370
    15
100
AcDbCircle
 10
65.4353841592
 20
113.5762750064
 30
0.0
 40
0.1197038581464632
100
AcDbArc
 50
119.7535682453
 51
240.2464317547
  0
LINE
  5
32B
330
1F
100
AcDbEntity
  8
0
  6
SLD-Durchgehend
 62
     7
370
    15
100
AcDbLine
 10
65.375978657
 20
113.4723519581
 30
0.0
 11
66.2579728002
 21
112.9700572356
 31
0.0
  0
ARC
  5
32C
330
1F
100
AcDbEntity
  8
0
  6
SLD-Durchgehend
 62
     7
370
    15
100
AcDbCircle
 10
81.1456354046
 20
113.5762750064
 30
0.0
 40
14.89999999999998
100
AcDbArc
 50
182.3317657846
 51
183.4389738049
  0
LINE
  5
32D
330
1F
100
AcDbEntity
  8
0
  6
SLD-Durchgehend
 62
     7
370
    15
100
AcDbLine
 10
66.2724660421
 20
112.6824927642
 30
0.0
 11
65.4375521177
 21
112.1801980198
 31
0.0
  0
ARC
  5
32E
330
1F
100
AcDbEntity
  8
0
  6
SLD-Durchgehend
 62
     7
370
    15
100
AcDbCircle
 10
65.5083191352
 20
112.0820884003
 30
0.0
 40
0.1209688729089942
100
AcDbArc
 50
125.8031224906
 51
245.1138868821
  0
LINE
  5
32F
330
1F
100
AcDbEntity
  8
0
  6
SLD-Durchgehend
 62
     7
370
    15
100
AcDbLine
 10
65.457413503
 20
111.9723519669
 30
0.0
 11
66.395250679
 21
111.4700573389
 31
0.0
  0
ARC
  5
330
330
1F
100
AcDbEntity
  8
0
  6
SLD-Durchgehend
 62
     7
370
    15
100
AcDbCircle
 10
81.1456354046
 20
113.5762750064
 30
0.0
 40
14.89999999999998
100
AcDbArc
 50
188.1263717008
 51
189.2450053025
  0
LINE
  5
331
330
1F
100
AcDbEntity
  8
0
  6
SLD-Durchgehend
 62
     7
370
    15
100
AcDbLine
 10
66.4391811648
 20
111.1824928676
 30
0.0
 11
65.6438409993
 21
110.6801980068
 31
0.0
  0
LWPOLYLINE
  5
332
330
1F
100
AcDbEntity
  8
0
  6
SLD-Durchgehend
 62
     7
370
    15
100
AcDbPolyline
 90
        9
 70
   128
 43
0.0
 10
65.6438409993
 20
110.6801980068
 10
65.6212228993
 20
110.6600204375
 10
65.6066672588
 20
110.6343594738
 10
65.6007216954
 20
110.607525975
 10
65.6021456877
 20
110.5782198147
 10
65.6100088442
 20
110.5513350931
 10
65.6287191147
 20
110.5187076037
 10
65.6632022643
 20
110.4850887214
 10
65.6841169754
 20
110.4723519538
  0
LINE
  5
333
330
1F
100
AcDbEntity
  8
0
  6
SLD-Durchgehend
 62
     7
370
    15
100
AcDbLine
 10
65.6841169754
 20
110.4723519538
 30
0.0
 11
66.6886238092
 21
109.9700573259
 31
0.0
  0
ARC
  5
334
330
1F
100
AcDbEntity
  8
0
  6
SLD-Durchgehend
 62
     7
370
    15
100
AcDbCircle
 10
81.1456354046
 20
113.5762750064
 30
0.0
 40
14.89999999999997
100
AcDbArc
 50
194.0062678394
 51
195.1488557102
  0
LINE
  5
335
330
1F
100
AcDbEntity
  8
0
  6
SLD-Durchgehend
 62
     7
370
    15
100
AcDbLine
 10
66.7634080807
 20
109.6824928545
 30
0.0
 11
66.0007545436
 21
109.1801982266
 31
0.0
  0
LWPOLYLINE
  5
336
330
1F
100
AcDbEntity
  8
0
  6
SLD-Durchgehend
 62
     7
370
    15
100
AcDbPolyline
 90
        9
 70
   128
 43
0.0
 10
66.0007545436
 20
109.1801982266
 10
65.9811725551
 20
109.1621179958
 10
65.9683668697
 20
109.1380293374
 10
65.9638015264
 20
109.1074693841
 10
65.9677568534
 20
109.0796796498
 10
65.9777713651
 20
109.0534824771
 10
66.0009352201
 20
109.0190854748
 10
66.042755329
 20
108.9832756561
 10
66.062639066
 20
108.9723521736
  0
LINE
  5
337
330
1F
100
AcDbEntity
  8
0
  6
SLD-Durchgehend
 62
     7
370
    15
100
AcDbLine
 10
66.062639066
 20
108.9723521736
 30
0.0
 11
67.1479018116
 21
108.4700573129
 31
0.0
  0
ARC
  5
338
330
1F
100
AcDbEntity
  8
0
  6
SLD-Durchgehend
 62
     7
370
    15
100
AcDbCircle
 10
81.1456354046
 20
113.5762750064
 30
0.0
 40
14.89999999999998
100
AcDbArc
 50
200.0414082842
 51
201.2230004203
  0
LINE
  5
339
330
1F
100
AcDbEntity
  8
0
  6
SLD-Durchgehend
 62
     7
370
    15
100
AcDbLine
 10
67.2561745802
 20
108.1824928415
 30
0.0
 11
66.5193177471
 21
107.6801979807
 31
0.0
  0
LWPOLYLINE
  5
33A
330
1F
100
AcDbEntity
  8
0
  6
SLD-Durchgehend
 62
     7
370
    15
100
AcDbPolyline
 90
        9
 70
   128
 43
0.0
 10
66.5193177471
 20
107.6801979807
 10
66.5023993412
 20
107.6641857517
 10
66.4911117116
 20
107.6417813902
 10
66.487986193
 20
107.6134049226
 10
66.4928001994
 20
107.5873618838
 10
66.5036054039
 20
107.5619130288
 10
66.5289718369
 20
107.5264943656
 10
66.575536103
 20
107.4877881338
 10
66.6048299232
 20
107.4723519278
  0
LINE
  5
33B
330
1F
100
AcDbEntity
  8
0
  6
SLD-Durchgehend
 62
     7
370
    15
100
AcDbLine
 10
66.6048299232
 20
107.4723519278
 30
0.0
 11
67.7901912192
 21
106.970057067
 31
0.0
  0
ARC
  5
33C
330
1F
100
AcDbEntity
  8
0
  6
SLD-Durchgehend
 62
     7
370
    15
100
AcDbCircle
 10
81.1456354046
 20
113.5762750064
 30
0.0
 40
14.89999999999998
100
AcDbArc
 50
206.3191194298
 51
207.5595289824
  0
LINE
  5
33D
330
1F
100
AcDbEntity
  8
0
  6
SLD-Durchgehend
 62
     7
370
    15
100
AcDbLine
 10
67.936329701
 20
106.6824925956
 30
0.0
 11
67.2175721908
 21
106.1801982005
 31
0.0
  0
LWPOLYLINE
  5
33E
330
1F
100
AcDbEntity
  8
0
  6
SLD-Durchgehend
 62
     7
370
    15
100
AcDbPolyline
 90
        9
 70
   128
 43
0.0
 10
67.2175721908
 20
106.1801982005
 10
67.2030165503
 20
106.1662549046
 10
67.1930085579
 20
106.145669416
 10
67.1910388106
 20
106.1196263772
 10
67.1964982236
 20
106.0955619332
 10
67.2114990363
 20
106.0654071052
 10
67.2424748251
 20
106.0282179979
 10
67.2999886507
 20
105.9863876444
 10
67.329946504
 20
105.9723521476
  0
LINE
  5
33F
330
1F
100
AcDbEntity
  8
0
  6
SLD-Durchgehend
 62
     7
370
    15
100
AcDbLine
 10
67.329946504
 20
105.9723521476
 30
0.0
 11
68.6436664024
 21
105.4700572868
 31
0.0
  0
ARC
  5
340
330
1F
100
AcDbEntity
  8
0
  6
SLD-Durchgehend
 62
     7
370
    15
100
AcDbCircle
 10
81.1456354046
 20
113.5762750064
 30
0.0
 40
14.89999999999998
100
AcDbArc
 50
212.9591848067
 51
214.2871726543
  0
LINE
  5
341
330
1F
100
AcDbEntity
  8
0
  6
SLD-Durchgehend
 62
     7
370
    15
100
AcDbLine
 10
68.8348911414
 20
105.1824928154
 30
0.0
 11
68.1243944624
 21
104.6801979546
 31
0.0
  0
LWPOLYLINE
  5
342
330
1F
100
AcDbEntity
  8
0
  6
SLD-Durchgehend
 62
     7
370
    15
100
AcDbPolyline
 90
        9
 70
   128
 43
0.0
 10
68.1243944624
 20
104.6801979546
 10
68.1119603747
 20
104.6683571194
 10
68.1029656613
 20
104.649753951
 10
68.1018313104
 20
104.6262157042
 10
68.1076604584
 20
104.6044246186
 10
68.1235125
 20
104.5755443056
 10
68.1571844676
 20
104.5379924481
 10
68.2230634326
 20
104.492435873
 10
68.2688547009
 20
104.4723519017
  0
LINE
  5
343
330
1F
100
AcDbEntity
  8
0
  6
SLD-Durchgehend
 62
     7
370
    15
100
AcDbLine
 10
68.2688547009
 20
104.4723519017
 30
0.0
 11
69.550985069
 21
104.039216124
 31
0.0
  0
LINE
  5
344
330
1F
100
AcDbEntity
  8
0
  6
SLD-Durchgehend
 62
     7
370
    15
100
AcDbLine
 10
69.8049427653
 20
103.5426442404
 30
0.0
 11
69.2875371957
 21
103.1801977088
 31
0.0
  0
LWPOLYLINE
  5
345
330
1F
100
AcDbEntity
  8
0
  6
SLD-Durchgehend
 62
     7
370
    15
100
AcDbPolyline
 90
        9
 70
   128
 43
0.0
 10
69.2875371957
 20
103.1801977088
 10
69.277040259
 20
103.170535237
 10
69.2680474082
 20
103.1509094764
 10
69.2687608013
 20
103.1295700823
 10
69.2755743572
 20
103.1104714502
 10
69.2938301423
 20
103.0825420176
 10
69.3339831838
 20
103.0438334574
 10
69.4175107116
 20
102.9935504203
 10
69.4730296442
 20
102.9723516558
  0
LINE
  5
346
330
1F
100
AcDbEntity
  8
0
  6
SLD-Durchgehend
 62
     7
370
    15
100
AcDbLine
 10
69.4730296442
 20
102.9723516558
 30
0.0
 11
70.530091011
 21
102.6671581794
 31
0.0
  0
LINE
  5
347
330
1F
100
AcDbEntity
  8
0
  6
SLD-Durchgehend
 62
     7
370
    15
100
AcDbLine
 10
71.4151166091
 20
102.0962965567
 30
0.0
 11
70.793038764
 21
101.6801983942
 31
0.0
  0
LWPOLYLINE
  5
348
330
1F
100
AcDbEntity
  8
0
  6
SLD-Durchgehend
 62
     7
370
    15
100
AcDbPolyline
 90
        9
 70
   128
 43
0.0
 10
70.793038764
 20
101.6801983942
 10
70.7843746701
 20
101.6728428085
 10
70.7758372361
 20
101.6569786598
 10
70.7754013771
 20
101.6419741218
 10
70.7803997854
 20
101.6259665494
 10
70.7948129335
 20
101.6033205096
 10
70.8285724455
 20
101.5703405146
 10
70.9080747971
 20
101.5203918223
 10
71.0368301431
 20
101.4723523413
  0
LINE
  5
349
330
1F
100
AcDbEntity
  8
0
  6
SLD-Durchgehend
 62
     7
370
    15
100
AcDbLine
 10
71.0368301431
 20
101.4723523413
 30
0.0
 11
73.2025081003
 21
100.9700574805
 31
0.0
  0
ARC
  5
34A
330
1F
100
AcDbEntity
  8
0
  6
SLD-Durchgehend
 62
     7
370
    15
100
AcDbCircle
 10
81.1456354046
 20
113.5762750064
 30
0.0
 40
14.89999999999999
100
AcDbArc
 50
237.7851348081
 51
239.923210481
  0
LINE
  5
34B
330
1F
100
AcDbEntity
  8
0
  6
SLD-Durchgehend
 62
     7
370
    15
100
AcDbLine
 10
73.6783482777
 20
100.6824930091
 30
0.0
 11
72.8246966088
 21
100.1801981483
 31
0.0
  0
LWPOLYLINE
  5
34C
330
1F
100
AcDbEntity
  8
0
  6
SLD-Durchgehend
 62
     7
370
    15
100
AcDbPolyline
 90
        9
 70
   128
 43
0.0
 10
72.8246966088
 20
100.1801981483
 10
72.8178802589
 20
100.1753357132
 10
72.809042939
 20
100.163344935
 10
72.8073740089
 20
100.1521010776
 10
72.8105013901
 20
100.1398132075
 10
72.8207636336
 20
100.1233669822
 10
72.8463051552
 20
100.0987921734
 10
72.9291239465
 20
100.0492541944
 10
73.169033573
 20
99.9723520954
  0
LINE
  5
34D
330
1F
100
AcDbEntity
  8
0
  6
SLD-Durchgehend
 62
     7
370
    15
100
AcDbLine
 10
73.169033573
 20
99.9723520954
 30
0.0
 11
76.3472379828
 21
99.4700572346
 31
0.0
  0
ARC
  5
34E
330
1F
100
AcDbEntity
  8
0
  6
SLD-Durchgehend
 62
     7
370
    15
100
AcDbCircle
 10
81.1456354046
 20
113.5762750064
 30
0.0
 40
14.90000000000003
100
AcDbArc
 50
251.2136529668
 51
255.0221147726
  0
LINE
  5
34F
330
1F
100
AcDbEntity
  8
0
  6
SLD-Durchgehend
 62
     7
370
    15
100
AcDbLine
 10
77.2947869906
 20
99.1824927633
 30
0.0
 11
75.9687838787
 21
98.6801979025
 31
0.0
  0
LWPOLYLINE
  5
350
330
1F
100
AcDbEntity
  8
0
  6
SLD-Durchgehend
 62
     7
370
    15
100
AcDbPolyline
 90
       10
 70
   128
 43
0.0
 10
75.9687838787
 20
98.6801979025
 10
75.9557136977
 20
98.6728311409
 10
75.9500880437
 20
98.66667603
 10
75.9477634625
 20
98.6589302202
 10
75.9493942084
 20
98.6513641556
 10
75.9555102037
 20
98.6421319549
 10
75.9716560775
 20
98.6282040258
 10
76.0327969389
 20
98.5965092559
 10
76.3027389245
 20
98.5199917932
 10
76.610835799
 20
98.4723518495
  0
ARC
  5
351
330
1F
100
AcDbEntity
  8
0
  6
SLD-Durchgehend
 62
     7
370
    15
100
AcDbCircle
 10
81.1456354046
 20
140.6450227727
 30
0.0
 40
42.4157822073465
100
AcDbArc
 50
263.86260463
 51
276.13739537
  0
LWPOLYLINE
  5
352
330
1F
100
AcDbEntity
  8
0
  6
SLD-Durchgehend
 62
     7
370
    15
100
AcDbPolyline
 90
       11
 70
   128
 43
0.0
 10
85.6804350102
 20
98.4723518495
 10
85.8826214159
 20
98.5001723175
 10
86.1542411791
 20
98.560607702
 10
86.2690555574
 20
98.6010392089
 10
86.3219793597
 20
98.6299036895
 10
86.33565816
 20
98.6420155396
 10
86.3415748523
 20
98.6506945346
 10
86.3434980335
 20
98.6580622275
 10
86.3420991869
 20
98.6649707784
 10
86.3363687591
 20
98.6721596573
 10
86.3224869305
 20
98.6801979025
  0
LINE
  5
353
330
1F
100
AcDbEntity
  8
0
  6
SLD-Durchgehend
 62
     7
370
    15
100
AcDbLine
 10
86.3224869305
 20
98.6801979025
 30
0.0
 11
84.9964838186
 21
99.1824927633
 31
0.0
  0
ARC
  5
354
330
1F
100
AcDbEntity
  8
0
  6
SLD-Durchgehend
 62
     7
370
    15
100
AcDbCircle
 10
81.1456354046
 20
113.5762750064
 30
0.0
 40
14.90000000000001
100
AcDbArc
 50
284.9778852274
 51
288.7863470332
  0
LINE
  5
355
330
1F
100
AcDbEntity
  8
0
  6
SLD-Durchgehend
 62
     7
370
    15
100
AcDbLine
 10
85.9440328264
 20
99.4700572346
 30
0.0
 11
89.1222372362
 21
99.9723520954
 31
0.0
  0
LWPOLYLINE
  5
356
330
1F
100
AcDbEntity
  8
0
  6
SLD-Durchgehend
 62
     7
370
    15
100
AcDbPolyline
 90
       10
 70
   128
 43
0.0
 10
89.1222372362
 20
99.9723520954
 10
89.329897956
 20
100.034771197
 10
89.4014868596
 20
100.0698205908
 10
89.4541866788
 20
100.1065230821
 10
89.4696047241
 20
100.1222615023
 10
89.4808225045
 20
100.1399361421
 10
89.483919152
 20
100.1524773319
 10
89.4819996962
 20
100.1639121105
 10
89.4737779805
 20
100.1749976431
 10
89.4665742004
 20
100.1801981483
  0
LINE
  5
357
330
1F
100
AcDbEntity
  8
0
  6
SLD-Durchgehend
 62
     7
370
    15
100
AcDbLine
 10
89.4665742004
 20
100.1801981483
 30
0.0
 11
88.6129225315
 21
100.6824930091
 31
0.0
  0
ARC
  5
358
330
1F
100
AcDbEntity
  8
0
  6
SLD-Durchgehend
 62
     7
370
    15
100
AcDbCircle
 10
81.1456354046
 20
113.5762750064
 30
0.0
 40
14.9
100
AcDbArc
 50
300.076789519
 51
302.2148651919
  0
LINE
  5
359
330
1F
100
AcDbEntity
  8
0
  6
SLD-Durchgehend
 62
     7
370
    15
100
AcDbLine
 10
89.0887627089
 20
100.9700574805
 30
0.0
 11
91.2544406662
 21
101.4723523413
 31
0.0
  0
LWPOLYLINE
  5
35A
330
1F
100
AcDbEntity
  8
0
  6
SLD-Durchgehend
 62
     7
370
    15
100
AcDbPolyline
 90
        8
 70
   128
 43
0.0
 10
91.2544406662
 20
101.4723523413
 10
91.4095701361
 20
101.5345386122
 10
91.4856489459
 20
101.5911248405
 10
91.5054777348
 20
101.6159837027
 10
91.5142228538
 20
101.6347619598
 10
91.5160966748
 20
101.6532822405
 10
91.5115685845
 20
101.6665731449
 10
91.4982320452
 20
101.6801983942
  0
LINE
  5
35B
330
1F
100
AcDbEntity
  8
0
  6
SLD-Durchgehend
 62
     7
370
    15
100
AcDbLine
 10
91.4982320452
 20
101.6801983942
 30
0.0
 11
90.8735474283
 21
102.0980399926
 31
0.0
  0
LINE
  5
35C
330
1F
100
AcDbEntity
  8
0
  6
SLD-Durchgehend
 62
     7
370
    15
100
AcDbLine
 10
91.7277779141
 20
102.6575143342
 30
0.0
 11
92.818241165
 21
102.9723516558
 31
0.0
  0
LWPOLYLINE
  5
35D
330
1F
100
AcDbEntity
  8
0
  6
SLD-Durchgehend
 62
     7
370
    15
100
AcDbPolyline
 90
        9
 70
   128
 43
0.0
 10
92.818241165
 20
102.9723516558
 10
92.9097296381
 20
103.0119887446
 10
92.961039924
 20
103.046837904
 10
93.0055878768
 20
103.0933472221
 10
93.0180499041
 20
103.1156812687
 10
93.0238529751
 20
103.1389317368
 10
93.0215246687
 20
103.1574594681
 10
93.0136410231
 20
103.1712467675
 10
93.0037336135
 20
103.1801977088
  0
LINE
  5
35E
330
1F
100
AcDbEntity
  8
0
  6
SLD-Durchgehend
 62
     7
370
    15
100
AcDbLine
 10
93.0037336135
 20
103.1801977088
 30
0.0
 11
92.5039775381
 21
103.5302809332
 31
0.0
  0
LINE
  5
35F
330
1F
100
AcDbEntity
  8
0
  6
SLD-Durchgehend
 62
     7
370
    15
100
AcDbLine
 10
92.7257375503
 20
104.0343015347
 30
0.0
 11
94.0224161083
 21
104.4723519017
 31
0.0
  0
LWPOLYLINE
  5
360
330
1F
100
AcDbEntity
  8
0
  6
SLD-Durchgehend
 62
     7
370
    15
100
AcDbPolyline
 90
        9
 70
   128
 43
0.0
 10
94.0224161083
 20
104.4723519017
 10
94.10854482
 20
104.5173943867
 10
94.1472487235
 20
104.55075343
 10
94.1742850179
 20
104.5856351857
 10
94.1860168883
 20
104.6111590122
 10
94.1900225067
 20
104.6372127612
 10
94.1860327208
 20
104.6566569139
 10
94.1733704591
 20
104.6749099051
 10
94.1668763468
 20
104.6801979546
  0
LINE
  5
361
330
1F
100
AcDbEntity
  8
0
  6
SLD-Durchgehend
 62
     7
370
    15
100
AcDbLine
 10
94.1668763468
 20
104.6801979546
 30
0.0
 11
93.4563796678
 21
105.1824928154
 31
0.0
  0
ARC
  5
362
330
1F
100
AcDbEntity
  8
0
  6
SLD-Durchgehend
 62
     7
370
    15
100
AcDbCircle
 10
81.1456354046
 20
113.5762750064
 30
0.0
 40
14.89999999999999
100
AcDbArc
 50
325.7128273457
 51
327.0408151933
  0
LINE
  5
363
330
1F
100
AcDbEntity
  8
0
  6
SLD-Durchgehend
 62
     7
370
    15
100
AcDbLine
 10
93.6476044068
 20
105.4700572868
 30
0.0
 11
94.9613243053
 21
105.9723521476
 31
0.0
  0
LWPOLYLINE
  5
364
330
1F
100
AcDbEntity
  8
0
  6
SLD-Durchgehend
 62
     7
370
    15
100
AcDbPolyline
 90
        9
 70
   128
 43
0.0
 10
94.9613243053
 20
105.9723521476
 10
95.0304703498
 20
106.0122444187
 10
95.0658540884
 20
106.046495669
 10
95.0880083898
 20
106.0797746186
 10
95.0980759868
 20
106.1067578276
 10
95.1003325814
 20
106.1338546579
 10
95.0951711917
 20
106.1544415434
 10
95.0806500101
 20
106.1746270289
 10
95.0736986184
 20
106.1801982005
  0
LINE
  5
365
330
1F
100
AcDbEntity
  8
0
  6
SLD-Durchgehend
 62
     7
370
    15
100
AcDbLine
 10
95.0736986184
 20
106.1801982005
 30
0.0
 11
94.3549411082
 21
106.6824925956
 31
0.0
  0
ARC
  5
366
330
1F
100
AcDbEntity
  8
0
  6
SLD-Durchgehend
 62
     7
370
    15
100
AcDbCircle
 10
81.1456354046
 20
113.5762750064
 30
0.0
 40
14.89999999999998
100
AcDbArc
 50
332.4404710176
 51
333.6808805702
  0
LINE
  5
367
330
1F
100
AcDbEntity
  8
0
  6
SLD-Durchgehend
 62
     7
370
    15
100
AcDbLine
 10
94.50107959
 20
106.970057067
 30
0.0
 11
95.686440886
 21
107.4723519278
 31
0.0
  0
LWPOLYLINE
  5
368
330
1F
100
AcDbEntity
  8
0
  6
SLD-Durchgehend
 62
     7
370
    15
100
AcDbPolyline
 90
        9
 70
   128
 43
0.0
 10
95.686440886
 20
107.4723519278
 10
95.7435067454
 20
107.5082152975
 10
95.7749705473
 20
107.5419654962
 10
95.7937096888
 20
107.5744109121
 10
95.8020273307
 20
107.6022448842
 10
95.802692295
 20
107.6298795533
 10
95.7964431206
 20
107.6515961331
 10
95.7802036488
 20
107.6736787227
 10
95.7719530621
 20
107.6801979807
  0
LINE
  5
369
330
1F
100
AcDbEntity
  8
0
  6
SLD-Durchgehend
 62
     7
370
    15
100
AcDbLine
 10
95.7719530621
 20
107.6801979807
 30
0.0
 11
95.035096229
 21
108.1824928415
 31
0.0
  0
ARC
  5
36A
330
1F
100
AcDbEntity
  8
0
  6
SLD-Durchgehend
 62
     7
370
    15
100
AcDbCircle
 10
81.1456354046
 20
113.5762750064
 30
0.0
 40
14.89999999999999
100
AcDbArc
 50
338.7769995797
 51
339.9585917158
  0
LINE
  5
36B
330
1F
100
AcDbEntity
  8
0
  6
SLD-Durchgehend
 62
     7
370
    15
100
AcDbLine
 10
95.1433689976
 20
108.4700573129
 30
0.0
 11
96.2286317432
 21
108.9723521736
 31
0.0
  0
LWPOLYLINE
  5
36C
330
1F
100
AcDbEntity
  8
0
  6
SLD-Durchgehend
 62
     7
370
    15
100
AcDbPolyline
 90
        9
 70
   128
 43
0.0
 10
96.2286317432
 20
108.9723521736
 10
96.2765901992
 20
109.0048660417
 10
96.3043147409
 20
109.0375456852
 10
96.32026364
 20
109.0692711887
 10
96.3268732363
 20
109.0976276328
 10
96.3260480845
 20
109.1255617221
 10
96.3186897049
 20
109.1483330247
 10
96.3006807202
 20
109.1723020081
 10
96.2905162657
 20
109.1801982266
  0
LINE
  5
36D
330
1F
100
AcDbEntity
  8
0
  6
SLD-Durchgehend
 62
     7
370
    15
100
AcDbLine
 10
96.2905162657
 20
109.1801982266
 30
0.0
 11
95.5278627286
 21
109.6824928545
 31
0.0
  0
ARC
  5
36E
330
1F
100
AcDbEntity
  8
0
  6
SLD-Durchgehend
 62
     7
370
    15
100
AcDbCircle
 10
81.1456354046
 20
113.5762750064
 30
0.0
 40
14.89999999999998
100
AcDbArc
 50
344.8511442898
 51
345.9937321606
  0
LINE
  5
36F
330
1F
100
AcDbEntity
  8
0
  6
SLD-Durchgehend
 62
     7
370
    15
100
AcDbLine
 10
95.602647
 20
109.9700573259
 30
0.0
 11
96.6071538338
 21
110.4723519538
 31
0.0
  0
LWPOLYLINE
  5
370
330
1F
100
AcDbEntity
  8
0
  6
SLD-Durchgehend
 62
     7
370
    15
100
AcDbPolyline
 90
        9
 70
   128
 43
0.0
 10
96.6071538338
 20
110.4723519538
 10
96.641474002
 20
110.4958413062
 10
96.6688278774
 20
110.5276739118
 10
96.6841313699
 20
110.5589514491
 10
96.6904317671
 20
110.5879214019
 10
96.6893356005
 20
110.6169169661
 10
96.6817453215
 20
110.641185137
 10
96.6635286519
 20
110.6672984906
 10
96.6474298099
 20
110.6801980068
  0
LINE
  5
371
330
1F
100
AcDbEntity
  8
0
  6
SLD-Durchgehend
 62
     7
370
    15
100
AcDbLine
 10
96.6474298099
 20
110.6801980068
 30
0.0
 11
95.8520896444
 21
111.1824928676
 31
0.0
  0
ARC
  5
372
330
1F
100
AcDbEntity
  8
0
  6
SLD-Durchgehend
 62
     7
370
    15
100
AcDbCircle
 10
81.1456354046
 20
113.5762750064
 30
0.0
 40
14.89999999999998
100
AcDbArc
 50
350.7549946975
 51
351.8736282992
  0
LINE
  5
373
330
1F
100
AcDbEntity
  8
0
  6
SLD-Durchgehend
 62
     7
370
    15
100
AcDbLine
 10
95.8960201302
 20
111.4700573389
 30
0.0
 11
96.8338573063
 21
111.9723519669
 31
0.0
  0
ARC
  5
374
330
1F
100
AcDbEntity
  8
0
  6
SLD-Durchgehend
 62
     7
370
    15
100
AcDbCircle
 10
96.7851481199
 20
112.081878512
 30
0.0
 40
0.1198692993128902
100
AcDbArc
 50
293.9759079556
 51
55.1070826717
  0
LINE
  5
375
330
1F
100
AcDbEntity
  8
0
  6
SLD-Durchgehend
 62
     7
370
    15
100
AcDbLine
 10
96.8537186915
 20
112.1801980198
 30
0.0
 11
96.0188047672
 21
112.6824927642
 31
0.0
  0
ARC
  5
376
330
1F
100
AcDbEntity
  8
0
  6
SLD-Durchgehend
 62
     7
370
    15
100
AcDbCircle
 10
81.1456354046
 20
113.5762750064
 30
0.0
 40
14.89999999999999
100
AcDbArc
 50
356.5610261951
 51
357.6682342154
  0
LINE
  5
377
330
1F
100
AcDbEntity
  8
0
  6
SLD-Durchgehend
 62
     7
370
    15
100
AcDbLine
 10
96.0332980091
 20
112.9700572356
 30
0.0
 11
96.9152921522
 21
113.4723519581
 31
0.0
  0
ARC
  5
378
330
1F
100
AcDbEntity
  8
0
  6
SLD-Durchgehend
 62
     7
370
    15
100
AcDbCircle
 10
96.85588665
 20
113.5762750064
 30
0.0
 40
0.1197038581464632
100
AcDbArc
 50
299.7535682453
 51
60.2464317547
  0
LINE
  5
379
330
1F
100
AcDbEntity
  8
0
  6
SLD-Durchgehend
 62
     7
370
    15
100
AcDbLine
 10
96.9152921522
 20
113.6801980547
 30
0.0
 11
96.0332980091
 21
114.1824927772
 31
0.0
  0
ARC
  5
37A
330
1F
100
AcDbEntity
  8
0
  6
SLD-Durchgehend
 62
     7
370
    15
100
AcDbCircle
 10
81.1456354046
 20
113.5762750064
 30
0.0
 40
14.89999999999999
100
AcDbArc
 50
2.3317657846
 51
3.4389738049
  0
LINE
  5
37B
330
1F
100
AcDbEntity
  8
0
  6
SLD-Durchgehend
 62
     7
370
    15
100
AcDbLine
 10
85.2377950856
 20
123.4700574432
 30
0.0
 11
77.0534757236
 21
123.4700574432
 31
0.0
  0
LINE
  5
37C
330
1F
100
AcDbEntity
  8
0
  6
SLD-Durchgehend
 62
     7
370
    15
100
AcDbLine
 10
85.2377950856
 20
103.6824925695
 30
0.0
 11
77.0534757236
 21
103.6824925695
 31
0.0
  0
LINE
  5
37D
330
1F
100
AcDbEntity
  8
0
  6
SLD-Durchgehend
 62
     7
370
    15
100
AcDbLine
 10
85.7870318638
 20
118.5829822798
 30
0.0
 11
85.1929546976
 21
118.1801978391
 31
0.0
  0
LINE
  5
37E
330
1F
100
AcDbEntity
  8
0
  6
SLD-Durchgehend
 62
     7
370
    15
100
AcDbLine
 10
95.1433689976
 20
118.6824926999
 30
0.0
 11
92.2288285279
 21
118.6824926999
 31
0.0
  0
LINE
  5
37F
330
1F
100
AcDbEntity
  8
0
  6
SLD-Durchgehend
 62
     7
370
    15
100
AcDbLine
 10
95.1433689976
 20
108.4700573129
 30
0.0
 11
92.2288285279
 21
108.4700573129
 31
0.0
  0
LINE
  5
380
330
1F
100
AcDbEntity
  8
0
  6
SLD-Durchgehend
 62
     7
370
    15
100
AcDbLine
 10
85.1929546976
 20
108.9723521736
 30
0.0
 11
85.7809782671
 21
108.5736716059
 31
0.0
  0
LINE
  5
381
330
1F
100
AcDbEntity
  8
0
  6
SLD-Durchgehend
 62
     7
370
    15
100
AcDbLine
 10
70.0624422813
 20
118.6824926999
 30
0.0
 11
67.1479018116
 21
118.6824926999
 31
0.0
  0
LINE
  5
382
330
1F
100
AcDbEntity
  8
0
  6
SLD-Durchgehend
 62
     7
370
    15
100
AcDbLine
 10
77.0983161116
 20
118.1801978391
 30
0.0
 11
76.513651357
 21
118.5766008575
 31
0.0
  0
LINE
  5
383
330
1F
100
AcDbEntity
  8
0
  6
SLD-Durchgehend
 62
     7
370
    15
100
AcDbLine
 10
76.5211270833
 20
108.5810174127
 30
0.0
 11
77.0983161116
 21
108.9723521736
 31
0.0
  0
LINE
  5
384
330
1F
100
AcDbEntity
  8
0
  6
SLD-Durchgehend
 62
     7
370
    15
100
AcDbLine
 10
70.0624422813
 20
108.4700573129
 30
0.0
 11
67.1479018116
 21
108.4700573129
 31
0.0
  0
CIRCLE
  5
385
330
1F
100
AcDbEntity
  8
0
  6
SLD-Durchgehend
 62
     7
370
    15
100
AcDbCircle
 10
81.1456354046
 20
113.5762750064
 30
0.0
 40
5.999999999999986
  0
LINE
  5
386
330
1F
100
AcDbEntity
  8
0
  6
SLD-Durchgehend
 62
     7
370
    15
100
AcDbLine
 10
74.2029301533
 20
114.4700572486
 30
0.0
 11
75.1767270909
 21
114.972351993
 31
0.0
  0
LWPOLYLINE
  5
387
330
1F
100
AcDbEntity
  8
0
  6
SLD-Durchgehend
 62
     7
370
    15
100
AcDbPolyline
 90
        9
 70
   128
 43
0.0
 10
75.1767270909
 20
114.972351993
 10
75.2115450511
 20
114.9953357535
 10
75.2418079125
 20
115.0286580096
 10
75.2589777754
 20
115.06091297
 10
75.2666393006
 20
115.0903127282
 10
75.2667003022
 20
115.1199065507
 10
75.2599300528
 20
115.143954813
 10
75.2431653151
 20
115.1687446409
 10
75.2291894229
 20
115.1801980459
  0
LINE
  5
388
330
1F
100
AcDbEntity
  8
0
  6
SLD-Durchgehend
 62
     7
370
    15
100
AcDbLine
 10
75.2291894229
 20
115.1801980459
 30
0.0
 11
74.4700194979
 21
115.6824926738
 31
0.0
  0
ARC
  5
389
330
1F
100
AcDbEntity
  8
0
  6
SLD-Durchgehend
 62
     7
370
    15
100
AcDbCircle
 10
81.1456354046
 20
113.5762750064
 30
0.0
 40
7.000000000000001
100
AcDbArc
 50
160.0031251428
 51
162.4890384396
  0
LINE
  5
38A
330
1F
100
AcDbEntity
  8
0
  6
SLD-Durchgehend
 62
     7
370
    15
100
AcDbLine
 10
74.5676565626
 20
115.9700571452
 30
0.0
 11
75.7428915882
 21
116.472352006
 31
0.0
  0
LWPOLYLINE
  5
38B
330
1F
100
AcDbEntity
  8
0
  6
SLD-Durchgehend
 62
     7
370
    15
100
AcDbPolyline
 90
        9
 70
   128
 43
0.0
 10
75.7428915882
 20
116.472352006
 10
75.8114322731
 20
116.5119737279
 10
75.8487638729
 20
116.5477674813
 10
75.8715780163
 20
116.5813584239
 10
75.8821578408
 20
116.6084433799
 10
75.884817698
 20
116.6356610493
 10
75.8798160301
 20
116.6559468848
 10
75.8655942688
 20
116.6754029118
 10
75.8595630238
 20
116.6801980589
  0
LINE
  5
38C
330
1F
100
AcDbEntity
  8
0
  6
SLD-Durchgehend
 62
     7
370
    15
100
AcDbLine
 10
75.8595630238
 20
116.6801980589
 30
0.0
 11
75.1460358212
 21
117.1824926869
 31
0.0
  0
ARC
  5
38D
330
1F
100
AcDbEntity
  8
0
  6
SLD-Durchgehend
 62
     7
370
    15
100
AcDbCircle
 10
81.1456354046
 20
113.5762750064
 30
0.0
 40
7.000000000000004
100
AcDbArc
 50
146.2028277715
 51
148.9909159789
  0
LINE
  5
38E
330
1F
100
AcDbEntity
  8
0
  6
SLD-Durchgehend
 62
     7
370
    15
100
AcDbLine
 10
75.3285517627
 20
117.4700571583
 30
0.0
 11
76.873468765
 21
117.9723517862
 31
0.0
  0
LWPOLYLINE
  5
38F
330
1F
100
AcDbEntity
  8
0
  6
SLD-Durchgehend
 62
     7
370
    15
100
AcDbPolyline
 90
        9
 70
   128
 43
0.0
 10
76.873468765
 20
117.9723517862
 10
77.0031046765
 20
118.0272770007
 10
77.0664965445
 20
118.0714612719
 10
77.0928706685
 20
118.0977180493
 10
77.1095576407
 20
118.1223319736
 10
77.1157676997
 20
118.140135136
 10
77.1155451136
 20
118.1569441114
 10
77.1097425083
 20
118.1694578272
 10
77.0983161116
 20
118.1801978391
  0
LWPOLYLINE
  5
390
330
1F
100
AcDbEntity
  8
0
  6
SLD-Durchgehend
 62
     7
370
    15
100
AcDbPolyline
 90
        3
 70
   128
 43
0.0
 10
76.8303247811
 20
119.0022688252
 10
78.0302626723
 20
119.2662363765
 10
79.4683827031
 20
119.4723520321
  0
LWPOLYLINE
  5
391
330
1F
100
AcDbEntity
  8
0
  6
SLD-Durchgehend
 62
     7
370
    15
100
AcDbPolyline
 90
       16
 70
   128
 43
0.0
 10
79.4683827031
 20
119.4723520321
 10
79.6703665461
 20
119.4960108851
 10
80.5511428686
 20
119.6297041033
 10
80.5887360535
 20
119.6375970621
 10
80.610823649
 20
119.6430271384
 10
80.6249669464
 20
119.6471682642
 10
80.6342281345
 20
119.6504730624
 10
80.6424998506
 20
119.6544088316
 10
80.645694287
 20
119.6566565786
 10
80.6476583881
 20
119.6589224865
 10
80.6482408722
 20
119.6606533495
 10
80.6479664813
 20
119.6623949227
 10
80.6466179262
 20
119.6642952864
 10
80.642893509
 20
119.6668806379
 10
80.627533555
 20
119.6722073373
 10
80.5808138163
 20
119.680198085
  0
ARC
  5
392
330
1F
100
AcDbEntity
  8
0
  6
SLD-Durchgehend
 62
     7
370
    15
100
AcDbCircle
 10
81.5858432975
 20
126.480779229
 30
0.0
 40
6.874444570629066
100
AcDbArc
 50
246.375061473
 51
261.5933459011
  0
ARC
  5
393
330
1F
100
AcDbEntity
  8
0
  6
SLD-Durchgehend
 62
     7
370
    15
100
AcDbCircle
 10
81.1456354046
 20
113.5762750064
 30
0.0
 40
7.000000000000004
100
AcDbArc
 50
99.9939673009
 51
109.3096281731
  0
LWPOLYLINE
  5
394
330
1F
100
AcDbEntity
  8
0
  6
SLD-Durchgehend
 62
     7
370
    15
100
AcDbPolyline
 90
        3
 70
   128
 43
0.0
 10
79.930824059
 20
120.4700574172
 10
81.1357024092
 20
120.5089331497
 10
82.3604467502
 20
120.4700574172
  0
ARC
  5
395
330
1F
100
AcDbEntity
  8
0
  6
SLD-Durchgehend
 62
     7
370
    15
100
AcDbCircle
 10
81.1456354046
 20
113.5762750064
 30
0.0
 40
7.000000000000006
100
AcDbArc
 50
70.6903718269
 51
80.0060326991
  0
ARC
  5
396
330
1F
100
AcDbEntity
  8
0
  6
SLD-Durchgehend
 62
     7
370
    15
100
AcDbCircle
 10
80.7642940271
 20
126.2757006999
 30
0.0
 40
6.663023270326915
100
AcDbArc
 50
278.1637128744
 51
293.8678797515
  0
LWPOLYLINE
  5
397
330
1F
100
AcDbEntity
  8
0
  6
SLD-Durchgehend
 62
     7
370
    15
100
AcDbPolyline
 90
       16
 70
   128
 43
0.0
 10
81.710456993
 20
119.680198085
 10
81.7026451756
 20
119.6791815464
 10
81.680468115
 20
119.6757412408
 10
81.6663108477
 20
119.672837377
 10
81.6570482626
 20
119.6703265314
 10
81.6487683975
 20
119.6670845975
 10
81.6455815281
 20
119.6651078653
 10
81.6436140509
 20
119.6630040076
 10
81.6430302863
 20
119.6613211077
 10
81.6433026399
 20
119.6595581141
 10
81.6446497398
 20
119.657545526
 10
81.6483760197
 20
119.6546472502
 10
81.663764961
 20
119.6480087829
 10
81.7433429244
 20
119.6290759262
 10
82.0670186137
 20
119.5759383854
 10
82.8228881061
 20
119.4723520321
  0
LWPOLYLINE
  5
398
330
1F
100
AcDbEntity
  8
0
  6
SLD-Durchgehend
 62
     7
370
    15
100
AcDbPolyline
 90
        3
 70
   128
 43
0.0
 10
82.8228881061
 20
119.4723520321
 10
84.2353385584
 20
119.2709428151
 10
85.3750217417
 20
119.021011692
  0
LWPOLYLINE
  5
399
330
1F
100
AcDbEntity
  8
0
  6
SLD-Durchgehend
 62
     7
370
    15
100
AcDbPolyline
 90
        9
 70
   128
 43
0.0
 10
85.1929546976
 20
118.1801978391
 10
85.1842030594
 20
118.17273422
 10
85.175666091
 20
118.1566889291
 10
85.1752814548
 20
118.1414455068
 10
85.1803483153
 20
118.1251888056
 10
85.19505483
 20
118.1018107463
 10
85.2294145794
 20
118.0675455262
 10
85.3078426504
 20
118.0164489788
 10
85.4178020442
 20
117.9723517862
  0
LINE
  5
39A
330
1F
100
AcDbEntity
  8
0
  6
SLD-Durchgehend
 62
     7
370
    15
100
AcDbLine
 10
85.4178020442
 20
117.9723517862
 30
0.0
 11
86.9627190465
 21
117.4700571583
 31
0.0
  0
ARC
  5
39B
330
1F
100
AcDbEntity
  8
0
  6
SLD-Durchgehend
 62
     7
370
    15
100
AcDbCircle
 10
81.1456354046
 20
113.5762750064
 30
0.0
 40
6.999999999999993
100
AcDbArc
 50
31.0090840211
 51
33.7971722285
  0
LINE
  5
39C
330
1F
100
AcDbEntity
  8
0
  6
SLD-Durchgehend
 62
     7
370
    15
100
AcDbLine
 10
87.1452349881
 20
117.1824926869
 30
0.0
 11
86.4317077854
 21
116.6801980589
 31
0.0
  0
LWPOLYLINE
  5
39D
330
1F
100
AcDbEntity
  8
0
  6
SLD-Durchgehend
 62
     7
370
    15
100
AcDbPolyline
 90
        9
 70
   128
 43
0.0
 10
86.4317077854
 20
116.6801980589
 10
86.4179591359
 20
116.6670086686
 10
86.408345093
 20
116.6470455364
 10
86.4066864075
 20
116.6218036678
 10
86.4122436093
 20
116.5982612301
 10
86.4275168339
 20
116.5679529668
 10
86.4589862237
 20
116.5301340525
 10
86.5166634964
 20
116.4874936812
 10
86.548379221
 20
116.472352006
  0
LINE
  5
39E
330
1F
100
AcDbEntity
  8
0
  6
SLD-Durchgehend
 62
     7
370
    15
100
AcDbLine
 10
86.548379221
 20
116.472352006
 30
0.0
 11
87.7236142466
 21
115.9700571452
 31
0.0
  0
ARC
  5
39F
330
1F
100
AcDbEntity
  8
0
  6
SLD-Durchgehend
 62
     7
370
    15
100
AcDbCircle
 10
81.1456354046
 20
113.5762750064
 30
0.0
 40
7.000000000000001
100
AcDbArc
 50
17.5109615604
 51
19.9968748572
  0
LINE
  5
3A0
330
1F
100
AcDbEntity
  8
0
  6
SLD-Durchgehend
 62
     7
370
    15
100
AcDbLine
 10
87.8212513113
 20
115.6824926738
 30
0.0
 11
87.0620813863
 21
115.1801980459
 31
0.0
  0
LWPOLYLINE
  5
3A1
330
1F
100
AcDbEntity
  8
0
  6
SLD-Durchgehend
 62
     7
370
    15
100
AcDbPolyline
 90
        9
 70
   128
 43
0.0
 10
87.0620813863
 20
115.1801980459
 10
87.0418688925
 20
115.1616220022
 10
87.02861105
 20
115.1369488225
 10
87.0235814424
 20
115.1056497483
 10
87.0271712253
 20
115.0770979593
 10
87.0368621023
 20
115.0503253457
 10
87.0590191977
 20
115.0161361447
 10
87.0983428964
 20
114.981548687
 10
87.1145437183
 20
114.972351993
  0
LINE
  5
3A2
330
1F
100
AcDbEntity
  8
0
  6
SLD-Durchgehend
 62
     7
370
    15
100
AcDbLine
 10
87.1145437183
 20
114.972351993
 30
0.0
 11
88.0883406559
 21
114.4700572486
 31
0.0
  0
ARC
  5
3A3
330
1F
100
AcDbEntity
  8
0
  6
SLD-Durchgehend
 62
     7
370
    15
100
AcDbCircle
 10
81.1456354046
 20
113.5762750064
 30
0.0
 40
7.00000000000001
100
AcDbArc
 50
4.9681835361
 51
7.3357322291
  0
LINE
  5
3A4
330
1F
100
AcDbEntity
  8
0
  6
SLD-Durchgehend
 62
     7
370
    15
100
AcDbLine
 10
88.1193360025
 20
114.1824927772
 30
0.0
 11
87.2747544842
 21
113.6801980547
 31
0.0
  0
ARC
  5
3A5
330
1F
100
AcDbEntity
  8
0
  6
SLD-Durchgehend
 62
     7
370
    15
100
AcDbCircle
 10
87.3362941701
 20
113.5762750064
 30
0.0
 40
0.1207772036096465
100
AcDbArc
 50
120.6325710054
 51
239.3674289946
  0
LINE
  5
3A6
330
1F
100
AcDbEntity
  8
0
  6
SLD-Durchgehend
 62
     7
370
    15
100
AcDbLine
 10
87.2747544842
 20
113.4723519581
 30
0.0
 11
88.1193360025
 21
112.9700572356
 31
0.0
  0
ARC
  5
3A7
330
1F
100
AcDbEntity
  8
0
  6
SLD-Durchgehend
 62
     7
370
    15
100
AcDbCircle
 10
81.1456354046
 20
113.5762750064
 30
0.0
 40
7.000000000000004
100
AcDbArc
 50
352.6642677709
 51
355.0318164639
  0
LINE
  5
3A8
330
1F
100
AcDbEntity
  8
0
  6
SLD-Durchgehend
 62
     7
370
    15
100
AcDbLine
 10
88.0883406559
 20
112.6824927642
 30
0.0
 11
87.1145437183
 21
112.1801980198
 31
0.0
  0
LWPOLYLINE
  5
3A9
330
1F
100
AcDbEntity
  8
0
  6
SLD-Durchgehend
 62
     7
370
    15
100
AcDbPolyline
 90
        9
 70
   128
 43
0.0
 10
87.1145437183
 20
112.1801980198
 10
87.0797257582
 20
112.1572142592
 10
87.0494628968
 20
112.1238920032
 10
87.0322930338
 20
112.0916370428
 10
87.0246315086
 20
112.0622372846
 10
87.024570507
 20
112.0326434621
 10
87.0313407564
 20
112.0085951998
 10
87.0481054941
 20
111.9838053719
 10
87.0620813863
 20
111.9723519669
  0
LINE
  5
3AA
330
1F
100
AcDbEntity
  8
0
  6
SLD-Durchgehend
 62
     7
370
    15
100
AcDbLine
 10
87.0620813863
 20
111.9723519669
 30
0.0
 11
87.8212513113
 21
111.4700573389
 31
0.0
  0
ARC
  5
3AB
330
1F
100
AcDbEntity
  8
0
  6
SLD-Durchgehend
 62
     7
370
    15
100
AcDbCircle
 10
81.1456354046
 20
113.5762750064
 30
0.0
 40
7.000000000000013
100
AcDbArc
 50
340.0031251428
 51
342.4890384396
  0
LINE
  5
3AC
330
1F
100
AcDbEntity
  8
0
  6
SLD-Durchgehend
 62
     7
370
    15
100
AcDbLine
 10
87.7236142466
 20
111.1824928676
 30
0.0
 11
86.548379221
 21
110.6801980068
 31
0.0
  0
LWPOLYLINE
  5
3AD
330
1F
100
AcDbEntity
  8
0
  6
SLD-Durchgehend
 62
     7
370
    15
100
AcDbPolyline
 90
        9
 70
   128
 43
0.0
 10
86.548379221
 20
110.6801980068
 10
86.4798385361
 20
110.6405762848
 10
86.4425069364
 20
110.6047825315
 10
86.4196927929
 20
110.5711915889
 10
86.4091129685
 20
110.5441066329
 10
86.4064531112
 20
110.5168889635
 10
86.4114547791
 20
110.496603128
 10
86.4256765405
 20
110.4771471009
 10
86.4317077854
 20
110.4723519538
  0
LINE
  5
3AE
330
1F
100
AcDbEntity
  8
0
  6
SLD-Durchgehend
 62
     7
370
    15
100
AcDbLine
 10
86.4317077854
 20
110.4723519538
 30
0.0
 11
87.1452349881
 21
109.9700573259
 31
0.0
  0
ARC
  5
3AF
330
1F
100
AcDbEntity
  8
0
  6
SLD-Durchgehend
 62
     7
370
    15
100
AcDbCircle
 10
81.1456354046
 20
113.5762750064
 30
0.0
 40
7.000000000000013
100
AcDbArc
 50
326.2028277715
 51
328.9909159789
  0
LINE
  5
3B0
330
1F
100
AcDbEntity
  8
0
  6
SLD-Durchgehend
 62
     7
370
    15
100
AcDbLine
 10
86.9627190465
 20
109.6824928545
 30
0.0
 11
85.4178020442
 21
109.1801982266
 31
0.0
  0
LWPOLYLINE
  5
3B1
330
1F
100
AcDbEntity
  8
0
  6
SLD-Durchgehend
 62
     7
370
    15
100
AcDbPolyline
 90
        9
 70
   128
 43
0.0
 10
85.4178020442
 20
109.1801982266
 10
85.2881661327
 20
109.1252730121
 10
85.2247742647
 20
109.0810887408
 10
85.1984001407
 20
109.0548319635
 10
85.1817131685
 20
109.0302180392
 10
85.1755031096
 20
109.0124148768
 10
85.1757256957
 20
108.9956059013
 10
85.181528301
 20
108.9830921856
 10
85.1929546976
 20
108.9723521736
  0
LWPOLYLINE
  5
3B2
330
1F
100
AcDbEntity
  8
0
  6
SLD-Durchgehend
 62
     7
370
    15
100
AcDbPolyline
 90
        3
 70
   128
 43
0.0
 10
85.4570628786
 20
108.1494266991
 10
84.2610081369
 20
107.8863136363
 10
82.8228881061
 20
107.6801979807
  0
LWPOLYLINE
  5
3B3
330
1F
100
AcDbEntity
  8
0
  6
SLD-Durchgehend
 62
     7
370
    15
100
AcDbPolyline
 90
       16
 70
   128
 43
0.0
 10
82.8228881061
 20
107.6801979807
 10
82.6209042631
 20
107.6565391277
 10
81.7401279406
 20
107.5228459095
 10
81.7025347557
 20
107.5149529506
 10
81.6804471603
 20
107.5095228744
 10
81.6663038628
 20
107.5053817485
 10
81.6570426747
 20
107.5020769504
 10
81.6487709586
 20
107.4981411812
 10
81.6455765222
 20
107.4958934341
 10
81.6436124211
 20
107.4936275263
 10
81.643029937
 20
107.4918966633
 10
81.643304328
 20
107.4901550901
 10
81.644652883
 20
107.4882547264
 10
81.6483773002
 20
107.4856693749
 10
81.6637372542
 20
107.4803426755
 10
81.710456993
 20
107.4723519278
  0
ARC
  5
3B4
330
1F
100
AcDbEntity
  8
0
  6
SLD-Durchgehend
 62
     7
370
    15
100
AcDbCircle
 10
80.7054275118
 20
100.6717707837
 30
0.0
 40
6.874444570629092
100
AcDbArc
 50
66.375061473
 51
81.5933459011
  0
ARC
  5
3B5
330
1F
100
AcDbEntity
  8
0
  6
SLD-Durchgehend
 62
     7
370
    15
100
AcDbCircle
 10
81.1456354046
 20
113.5762750064
 30
0.0
 40
7.000000000005931
100
AcDbArc
 50
279.9939673009
 51
289.3096281732
  0
LWPOLYLINE
  5
3B6
330
1F
100
AcDbEntity
  8
0
  6
SLD-Durchgehend
 62
     7
370
    15
100
AcDbPolyline
 90
        3
 70
   128
 43
0.0
 10
82.3604467502
 20
106.6824925956
 10
81.1555684001
 20
106.643616863
 10
79.930824059
 20
106.6824925956
  0
ARC
  5
3B7
330
1F
100
AcDbEntity
  8
0
  6
SLD-Durchgehend
 62
     7
370
    15
100
AcDbCircle
 10
81.1456354046
 20
113.5762750064
 30
0.0
 40
7.0
100
AcDbArc
 50
250.6903718269
 51
260.0060326991
  0
ARC
  5
3B8
330
1F
100
AcDbEntity
  8
0
  6
SLD-Durchgehend
 62
     7
370
    15
100
AcDbCircle
 10
81.5269767821
 20
100.8768493129
 30
0.0
 40
6.66302327032693
100
AcDbArc
 50
98.1637128744
 51
113.8678797515
  0
LWPOLYLINE
  5
3B9
330
1F
100
AcDbEntity
  8
0
  6
SLD-Durchgehend
 62
     7
370
    15
100
AcDbPolyline
 90
       16
 70
   128
 43
0.0
 10
80.5808138163
 20
107.4723519278
 10
80.5886256336
 20
107.4733684664
 10
80.6108026942
 20
107.4768087719
 10
80.6249599615
 20
107.4797126357
 10
80.6342225466
 20
107.4822234814
 10
80.6425024117
 20
107.4854654153
 10
80.6456892812
 20
107.4874421474
 10
80.6476567583
 20
107.4895460051
 10
80.6482405229
 20
107.491228905
 10
80.6479681693
 20
107.4929918987
 10
80.6466210694
 20
107.4950044867
 10
80.6428947896
 20
107.4979027626
 10
80.6275058482
 20
107.5045412299
 10
80.5479278848
 20
107.5234740865
 10
80.2242521955
 20
107.5766116273
 10
79.4683827031
 20
107.6801979807
  0
LWPOLYLINE
  5
3BA
330
1F
100
AcDbEntity
  8
0
  6
SLD-Durchgehend
 62
     7
370
    15
100
AcDbPolyline
 90
        3
 70
   128
 43
0.0
 10
79.4683827031
 20
107.6801979807
 10
78.0559322508
 20
107.8816071977
 10
76.8258851664
 20
108.1513550025
  0
LWPOLYLINE
  5
3BB
330
1F
100
AcDbEntity
  8
0
  6
SLD-Durchgehend
 62
     7
370
    15
100
AcDbPolyline
 90
        9
 70
   128
 43
0.0
 10
77.0983161116
 20
108.9723521736
 10
77.1070677498
 20
108.9798157927
 10
77.1156047182
 20
108.9958610837
 10
77.1159893544
 20
109.011104506
 10
77.110922494
 20
109.0273612072
 10
77.0962159792
 20
109.0507392664
 10
77.0618562298
 20
109.0850044866
 10
76.9834281588
 20
109.136101034
 10
76.873468765
 20
109.1801982266
  0
LINE
  5
3BC
330
1F
100
AcDbEntity
  8
0
  6
SLD-Durchgehend
 62
     7
370
    15
100
AcDbLine
 10
76.873468765
 20
109.1801982266
 30
0.0
 11
75.3285517627
 21
109.6824928545
 31
0.0
  0
ARC
  5
3BD
330
1F
100
AcDbEntity
  8
0
  6
SLD-Durchgehend
 62
     7
370
    15
100
AcDbCircle
 10
81.1456354046
 20
113.5762750064
 30
0.0
 40
7.000000000000013
100
AcDbArc
 50
211.0090840211
 51
213.7971722285
  0
LINE
  5
3BE
330
1F
100
AcDbEntity
  8
0
  6
SLD-Durchgehend
 62
     7
370
    15
100
AcDbLine
 10
75.1460358212
 20
109.9700573259
 30
0.0
 11
75.8595630238
 21
110.4723519538
 31
0.0
  0
LWPOLYLINE
  5
3BF
330
1F
100
AcDbEntity
  8
0
  6
SLD-Durchgehend
 62
     7
370
    15
100
AcDbPolyline
 90
        9
 70
   128
 43
0.0
 10
75.8595630238
 20
110.4723519538
 10
75.8733116733
 20
110.4855413441
 10
75.8829257162
 20
110.5055044764
 10
75.8845844017
 20
110.5307463449
 10
75.8790271999
 20
110.5542887826
 10
75.8637539754
 20
110.584597046
 10
75.8322845856
 20
110.6224159603
 10
75.7746073129
 20
110.6650563315
 10
75.7428915882
 20
110.6801980068
  0
LINE
  5
3C0
330
1F
100
AcDbEntity
  8
0
  6
SLD-Durchgehend
 62
     7
370
    15
100
AcDbLine
 10
75.7428915882
 20
110.6801980068
 30
0.0
 11
74.5676565626
 21
111.1824928676
 31
0.0
  0
ARC
  5
3C1
330
1F
100
AcDbEntity
  8
0
  6
SLD-Durchgehend
 62
     7
370
    15
100
AcDbCircle
 10
81.1456354046
 20
113.5762750064
 30
0.0
 40
7.0
100
AcDbArc
 50
197.5109615604
 51
199.9968748572
  0
LINE
  5
3C2
330
1F
100
AcDbEntity
  8
0
  6
SLD-Durchgehend
 62
     7
370
    15
100
AcDbLine
 10
74.4700194979
 20
111.4700573389
 30
0.0
 11
75.2291894229
 21
111.9723519669
 31
0.0
  0
LWPOLYLINE
  5
3C3
330
1F
100
AcDbEntity
  8
0
  6
SLD-Durchgehend
 62
     7
370
    15
100
AcDbPolyline
 90
        9
 70
   128
 43
0.0
 10
75.2291894229
 20
111.9723519669
 10
75.2494019167
 20
111.9909280105
 10
75.2626597592
 20
112.0156011903
 10
75.2676893668
 20
112.0469002644
 10
75.2640995839
 20
112.0754520534
 10
75.2544087069
 20
112.1022246671
 10
75.2322516115
 20
112.136413868
 10
75.1929279128
 20
112.1710013258
 10
75.1767270909
 20
112.1801980198
  0
LINE
  5
3C4
330
1F
100
AcDbEntity
  8
0
  6
SLD-Durchgehend
 62
     7
370
    15
100
AcDbLine
 10
75.1767270909
 20
112.1801980198
 30
0.0
 11
74.2029301533
 21
112.6824927642
 31
0.0
  0
ARC
  5
3C5
330
1F
100
AcDbEntity
  8
0
  6
SLD-Durchgehend
 62
     7
370
    15
100
AcDbCircle
 10
81.1456354046
 20
113.5762750064
 30
0.0
 40
7.000000000000005
100
AcDbArc
 50
184.9681835361
 51
187.3357322291
  0
LINE
  5
3C6
330
1F
100
AcDbEntity
  8
0
  6
SLD-Durchgehend
 62
     7
370
    15
100
AcDbLine
 10
74.1719348067
 20
112.9700572356
 30
0.0
 11
75.016516325
 21
113.4723519581
 31
0.0
  0
ARC
  5
3C7
330
1F
100
AcDbEntity
  8
0
  6
SLD-Durchgehend
 62
     7
370
    15
100
AcDbCircle
 10
74.9549766391
 20
113.5762750064
 30
0.0
 40
0.1207772036096465
100
AcDbArc
 50
300.6325710054
 51
59.3674289946
  0
LINE
  5
3C8
330
1F
100
AcDbEntity
  8
0
  6
SLD-Durchgehend
 62
     7
370
    15
100
AcDbLine
 10
75.016516325
 20
113.6801980547
 30
0.0
 11
74.1719348067
 21
114.1824927772
 31
0.0
  0
ARC
  5
3C9
330
1F
100
AcDbEntity
  8
0
  6
SLD-Durchgehend
 62
     7
370
    15
100
AcDbCircle
 10
81.1456354046
 20
113.5762750064
 30
0.0
 40
6.999999999999998
100
AcDbArc
 50
172.6642677709
 51
175.0318164639
  0
LINE
  5
3CA
330
1F
100
AcDbEntity
  8
0
  6
SLD-Durchgehend
 62
     7
370
    15
100
AcDbLine
 10
78.830924415
 20
120.1824929458
 30
0.0
 11
77.4526801603
 21
120.1824929458
 31
0.0
  0
LINE
  5
3CB
330
1F
100
AcDbEntity
  8
0
  6
SLD-Durchgehend
 62
     7
370
    15
100
AcDbLine
 10
84.8385906489
 20
106.970057067
 30
0.0
 11
83.4603463942
 21
106.970057067
 31
0.0
  0
LINE
  5
3CC
330
1F
100
AcDbEntity
  8
0
  6
SLD-Durchgehend
 62
     7
370
    15
100
AcDbLine
 10
79.930824059
 20
120.4700574172
 30
0.0
 11
77.5244248276
 21
120.4700574172
 31
0.0
  0
LINE
  5
3CD
330
1F
100
AcDbEntity
  8
0
  6
SLD-Durchgehend
 62
     7
370
    15
100
AcDbLine
 10
84.7668459816
 20
120.4700574172
 30
0.0
 11
82.3604467502
 21
120.4700574172
 31
0.0
  0
LINE
  5
3CE
330
1F
100
AcDbEntity
  8
0
  6
SLD-Durchgehend
 62
     7
370
    15
100
AcDbLine
 10
84.7668459816
 20
106.6824925956
 30
0.0
 11
82.3604467502
 21
106.6824925956
 31
0.0
  0
LINE
  5
3CF
330
1F
100
AcDbEntity
  8
0
  6
SLD-Durchgehend
 62
     7
370
    15
100
AcDbLine
 10
79.930824059
 20
106.6824925956
 30
0.0
 11
77.5244248276
 21
106.6824925956
 31
0.0
  0
LINE
  5
3D0
330
1F
100
AcDbEntity
  8
0
  6
SLD-Durchgehend
 62
     7
370
    15
100
AcDbLine
 10
84.8385906489
 20
120.1824929458
 30
0.0
 11
83.4603463942
 21
120.1824929458
 31
0.0
  0
LINE
  5
3D1
330
1F
100
AcDbEntity
  8
0
  6
SLD-Durchgehend
 62
     7
370
    15
100
AcDbLine
 10
78.830924415
 20
106.970057067
 30
0.0
 11
77.4526801603
 21
106.970057067
 31
0.0
  0
LINE
  5
3D2
330
1F
100
AcDbEntity
  8
0
  6
SLD-Durchgehend
 62
     7
370
    15
100
AcDbLine
 10
94.50107959
 20
120.1824929458
 30
0.0
 11
93.0090291137
 21
120.1824929458
 31
0.0
  0
LINE
  5
3D3
330
1F
100
AcDbEntity
  8
0
  6
SLD-Durchgehend
 62
     7
370
    15
100
AcDbLine
 10
95.8520896444
 20
111.1824928676
 30
0.0
 11
87.7236142466
 21
111.1824928676
 31
0.0
  0
LINE
  5
3D4
330
1F
100
AcDbEntity
  8
0
  6
SLD-Durchgehend
 62
     7
370
    15
100
AcDbLine
 10
95.8960201302
 20
111.4700573389
 30
0.0
 11
87.8212513113
 21
111.4700573389
 31
0.0
  0
LINE
  5
3D5
330
1F
100
AcDbEntity
  8
0
  6
SLD-Durchgehend
 62
     7
370
    15
100
AcDbLine
 10
96.0332980091
 20
114.1824927772
 30
0.0
 11
88.1193360025
 21
114.1824927772
 31
0.0
  0
LINE
  5
3D6
330
1F
100
AcDbEntity
  8
0
  6
SLD-Durchgehend
 62
     7
370
    15
100
AcDbLine
 10
94.50107959
 20
106.970057067
 30
0.0
 11
93.0090291137
 21
106.970057067
 31
0.0
  0
LINE
  5
3D7
330
1F
100
AcDbEntity
  8
0
  6
SLD-Durchgehend
 62
     7
370
    15
100
AcDbLine
 10
95.8960201302
 20
115.6824926738
 30
0.0
 11
87.8212513113
 21
115.6824926738
 31
0.0
  0
LINE
  5
3D8
330
1F
100
AcDbEntity
  8
0
  6
SLD-Durchgehend
 62
     7
370
    15
100
AcDbLine
 10
95.5278627286
 20
117.4700571583
 30
0.0
 11
90.6483377972
 21
117.4700571583
 31
0.0
  0
LINE
  5
3D9
330
1F
100
AcDbEntity
  8
0
  6
SLD-Durchgehend
 62
     7
370
    15
100
AcDbLine
 10
87.199282431
 20
117.4700571583
 30
0.0
 11
86.9627190465
 21
117.4700571583
 31
0.0
  0
LINE
  5
3DA
330
1F
100
AcDbEntity
  8
0
  6
SLD-Durchgehend
 62
     7
370
    15
100
AcDbLine
 10
96.0332980091
 20
112.9700572356
 30
0.0
 11
88.1193360025
 21
112.9700572356
 31
0.0
  0
LINE
  5
3DB
330
1F
100
AcDbEntity
  8
0
  6
SLD-Durchgehend
 62
     7
370
    15
100
AcDbLine
 10
94.3549411082
 20
106.6824925956
 30
0.0
 11
93.0807744795
 21
106.6824925956
 31
0.0
  0
LINE
  5
3DC
330
1F
100
AcDbEntity
  8
0
  6
SLD-Durchgehend
 62
     7
370
    15
100
AcDbLine
 10
95.035096229
 20
118.9700571713
 30
0.0
 11
92.4419309655
 21
118.9700571713
 31
0.0
  0
LINE
  5
3DD
330
1F
100
AcDbEntity
  8
0
  6
SLD-Durchgehend
 62
     7
370
    15
100
AcDbLine
 10
95.8520896444
 20
115.9700571452
 30
0.0
 11
87.7236142466
 21
115.9700571452
 31
0.0
  0
LINE
  5
3DE
330
1F
100
AcDbEntity
  8
0
  6
SLD-Durchgehend
 62
     7
370
    15
100
AcDbLine
 10
95.035096229
 20
108.1824928415
 30
0.0
 11
92.4419309655
 21
108.1824928415
 31
0.0
  0
LINE
  5
3DF
330
1F
100
AcDbEntity
  8
0
  6
SLD-Durchgehend
 62
     7
370
    15
100
AcDbLine
 10
95.602647
 20
109.9700573259
 30
0.0
 11
89.7345361942
 21
109.9700573259
 31
0.0
  0
LINE
  5
3E0
330
1F
100
AcDbEntity
  8
0
  6
SLD-Durchgehend
 62
     7
370
    15
100
AcDbLine
 10
88.113084034
 20
109.9700573259
 30
0.0
 11
87.1452349881
 21
109.9700573259
 31
0.0
  0
LINE
  5
3E1
330
1F
100
AcDbEntity
  8
0
  6
SLD-Durchgehend
 62
     7
370
    15
100
AcDbLine
 10
95.5278627286
 20
109.6824928545
 30
0.0
 11
90.6483377972
 21
109.6824928545
 31
0.0
  0
LINE
  5
3E2
330
1F
100
AcDbEntity
  8
0
  6
SLD-Durchgehend
 62
     7
370
    15
100
AcDbLine
 10
87.199282431
 20
109.6824928545
 30
0.0
 11
86.9627190465
 21
109.6824928545
 31
0.0
  0
LINE
  5
3E3
330
1F
100
AcDbEntity
  8
0
  6
SLD-Durchgehend
 62
     7
370
    15
100
AcDbLine
 10
94.3549411082
 20
120.4700574172
 30
0.0
 11
93.0807744795
 21
120.4700574172
 31
0.0
  0
LINE
  5
3E4
330
1F
100
AcDbEntity
  8
0
  6
SLD-Durchgehend
 62
     7
370
    15
100
AcDbLine
 10
96.0188047672
 20
112.6824927642
 30
0.0
 11
88.0883406559
 21
112.6824927642
 31
0.0
  0
LINE
  5
3E5
330
1F
100
AcDbEntity
  8
0
  6
SLD-Durchgehend
 62
     7
370
    15
100
AcDbLine
 10
95.602647
 20
117.1824926869
 30
0.0
 11
89.7345361942
 21
117.1824926869
 31
0.0
  0
LINE
  5
3E6
330
1F
100
AcDbEntity
  8
0
  6
SLD-Durchgehend
 62
     7
370
    15
100
AcDbLine
 10
88.113084034
 20
117.1824926869
 30
0.0
 11
87.1452349881
 21
117.1824926869
 31
0.0
  0
LINE
  5
3E7
330
1F
100
AcDbEntity
  8
0
  6
SLD-Durchgehend
 62
     7
370
    15
100
AcDbLine
 10
96.0188047672
 20
114.4700572486
 30
0.0
 11
88.0883406559
 21
114.4700572486
 31
0.0
  0
LINE
  5
3E8
330
1F
100
AcDbEntity
  8
0
  6
SLD-Durchgehend
 62
     7
370
    15
100
AcDbLine
 10
86.6900059106
 20
102.1824923237
 30
0.0
 11
75.6012648987
 21
102.1824923237
 31
0.0
  0
LINE
  5
3E9
330
1F
100
AcDbEntity
  8
0
  6
SLD-Durchgehend
 62
     7
370
    15
100
AcDbLine
 10
93.6476044068
 20
105.4700572868
 30
0.0
 11
93.1611308539
 21
105.4700572868
 31
0.0
  0
LINE
  5
3EA
330
1F
100
AcDbEntity
  8
0
  6
SLD-Durchgehend
 62
     7
370
    15
100
AcDbLine
 10
86.2805867279
 20
124.6824932177
 30
0.0
 11
76.0106840813
 21
124.6824932177
 31
0.0
  0
LINE
  5
3EB
330
1F
100
AcDbEntity
  8
0
  6
SLD-Durchgehend
 62
     7
370
    15
100
AcDbLine
 10
93.6476044068
 20
121.682492726
 30
0.0
 11
93.1611308539
 21
121.682492726
 31
0.0
  0
LINE
  5
3EC
330
1F
100
AcDbEntity
  8
0
  6
SLD-Durchgehend
 62
     7
370
    15
100
AcDbLine
 10
93.4563796678
 20
105.1824928154
 30
0.0
 11
93.1289890492
 21
105.1824928154
 31
0.0
  0
LINE
  5
3ED
330
1F
100
AcDbEntity
  8
0
  6
SLD-Durchgehend
 62
     7
370
    15
100
AcDbLine
 10
86.2805867279
 20
102.470056795
 30
0.0
 11
76.0106840813
 21
102.470056795
 31
0.0
  0
LINE
  5
3EE
330
1F
100
AcDbEntity
  8
0
  6
SLD-Durchgehend
 62
     7
370
    15
100
AcDbLine
 10
93.4563796678
 20
121.9700571974
 30
0.0
 11
93.1289890492
 21
121.9700571974
 31
0.0
  0
LINE
  5
3EF
330
1F
100
AcDbEntity
  8
0
  6
SLD-Durchgehend
 62
     7
370
    15
100
AcDbLine
 10
89.0887627089
 20
100.9700574805
 30
0.0
 11
73.2025081003
 21
100.9700574805
 31
0.0
  0
LINE
  5
3F0
330
1F
100
AcDbEntity
  8
0
  6
SLD-Durchgehend
 62
     7
370
    15
100
AcDbLine
 10
86.6900059106
 20
124.9700576891
 30
0.0
 11
75.6012648987
 21
124.9700576891
 31
0.0
  0
LINE
  5
3F1
330
1F
100
AcDbEntity
  8
0
  6
SLD-Durchgehend
 62
     7
370
    15
100
AcDbLine
 10
89.0887627089
 20
126.1824925323
 30
0.0
 11
73.2025081003
 21
126.1824925323
 31
0.0
  0
LINE
  5
3F2
330
1F
100
AcDbEntity
  8
0
  6
SLD-Durchgehend
 62
     7
370
    15
100
AcDbLine
 10
88.6129225315
 20
100.6824930091
 30
0.0
 11
73.6783482777
 21
100.6824930091
 31
0.0
  0
LINE
  5
3F3
330
1F
100
AcDbEntity
  8
0
  6
SLD-Durchgehend
 62
     7
370
    15
100
AcDbLine
 10
88.6129225315
 20
126.4700570037
 30
0.0
 11
73.6783482777
 21
126.4700570037
 31
0.0
  0
LINE
  5
3F4
330
1F
100
AcDbEntity
  8
0
  6
SLD-Durchgehend
 62
     7
370
    15
100
AcDbLine
 10
85.9440328264
 20
99.4700572346
 30
0.0
 11
76.3472379828
 21
99.4700572346
 31
0.0
  0
LINE
  5
3F5
330
1F
100
AcDbEntity
  8
0
  6
SLD-Durchgehend
 62
     7
370
    15
100
AcDbLine
 10
85.9440328264
 20
127.6824927782
 30
0.0
 11
76.3472379828
 21
127.6824927782
 31
0.0
  0
LINE
  5
3F6
330
1F
100
AcDbEntity
  8
0
  6
SLD-Durchgehend
 62
     7
370
    15
100
AcDbLine
 10
85.0870460914
 20
123.1824929719
 30
0.0
 11
77.2042247178
 21
123.1824929719
 31
0.0
  0
LINE
  5
3F7
330
1F
100
AcDbEntity
  8
0
  6
SLD-Durchgehend
 62
     7
370
    15
100
AcDbLine
 10
84.6864891415
 20
105.4700572868
 30
0.0
 11
77.6047816677
 21
105.4700572868
 31
0.0
  0
LINE
  5
3F8
330
1F
100
AcDbEntity
  8
0
  6
SLD-Durchgehend
 62
     7
370
    15
100
AcDbLine
 10
84.7186314119
 20
105.1824928154
 30
0.0
 11
77.5726393973
 21
105.1824928154
 31
0.0
  0
LINE
  5
3F9
330
1F
100
AcDbEntity
  8
0
  6
SLD-Durchgehend
 62
     7
370
    15
100
AcDbLine
 10
84.9964838186
 20
99.1824927633
 30
0.0
 11
77.2947869906
 21
99.1824927633
 31
0.0
  0
LINE
  5
3FA
330
1F
100
AcDbEntity
  8
0
  6
SLD-Durchgehend
 62
     7
370
    15
100
AcDbLine
 10
85.0870460914
 20
103.9700570409
 30
0.0
 11
77.2042247178
 21
103.9700570409
 31
0.0
  0
LINE
  5
3FB
330
1F
100
AcDbEntity
  8
0
  6
SLD-Durchgehend
 62
     7
370
    15
100
AcDbLine
 10
84.7186314119
 20
121.9700571974
 30
0.0
 11
77.5726393973
 21
121.9700571974
 31
0.0
  0
LINE
  5
3FC
330
1F
100
AcDbEntity
  8
0
  6
SLD-Durchgehend
 62
     7
370
    15
100
AcDbLine
 10
84.6864891415
 20
121.682492726
 30
0.0
 11
77.6047816677
 21
121.682492726
 31
0.0
  0
LINE
  5
3FD
330
1F
100
AcDbEntity
  8
0
  6
SLD-Durchgehend
 62
     7
370
    15
100
AcDbLine
 10
84.9964838186
 20
127.9700572495
 30
0.0
 11
77.2947869906
 21
127.9700572495
 31
0.0
  0
LINE
  5
3FE
330
1F
100
AcDbEntity
  8
0
  6
SLD-Durchgehend
 62
     7
370
    15
100
AcDbLine
 10
74.5676565626
 20
111.1824928676
 30
0.0
 11
66.4391811648
 21
111.1824928676
 31
0.0
  0
LINE
  5
3FF
330
1F
100
AcDbEntity
  8
0
  6
SLD-Durchgehend
 62
     7
370
    15
100
AcDbLine
 10
74.5676565626
 20
115.9700571452
 30
0.0
 11
66.4391811648
 21
115.9700571452
 31
0.0
  0
LINE
  5
400
330
1F
100
AcDbEntity
  8
0
  6
SLD-Durchgehend
 62
     7
370
    15
100
AcDbLine
 10
75.3285517627
 20
109.6824928545
 30
0.0
 11
75.0919883782
 21
109.6824928545
 31
0.0
  0
LINE
  5
401
330
1F
100
AcDbEntity
  8
0
  6
SLD-Durchgehend
 62
     7
370
    15
100
AcDbLine
 10
71.642933012
 20
109.6824928545
 30
0.0
 11
66.7634080807
 21
109.6824928545
 31
0.0
  0
LINE
  5
402
330
1F
100
AcDbEntity
  8
0
  6
SLD-Durchgehend
 62
     7
370
    15
100
AcDbLine
 10
74.4700194979
 20
111.4700573389
 30
0.0
 11
66.395250679
 21
111.4700573389
 31
0.0
  0
LINE
  5
403
330
1F
100
AcDbEntity
  8
0
  6
SLD-Durchgehend
 62
     7
370
    15
100
AcDbLine
 10
75.1460358212
 20
109.9700573259
 30
0.0
 11
74.1781867752
 21
109.9700573259
 31
0.0
  0
LINE
  5
404
330
1F
100
AcDbEntity
  8
0
  6
SLD-Durchgehend
 62
     7
370
    15
100
AcDbLine
 10
72.556734615
 20
109.9700573259
 30
0.0
 11
66.6886238092
 21
109.9700573259
 31
0.0
  0
LINE
  5
405
330
1F
100
AcDbEntity
  8
0
  6
SLD-Durchgehend
 62
     7
370
    15
100
AcDbLine
 10
75.3285517627
 20
117.4700571583
 30
0.0
 11
75.0919883782
 21
117.4700571583
 31
0.0
  0
LINE
  5
406
330
1F
100
AcDbEntity
  8
0
  6
SLD-Durchgehend
 62
     7
370
    15
100
AcDbLine
 10
71.642933012
 20
117.4700571583
 30
0.0
 11
66.7634080807
 21
117.4700571583
 31
0.0
  0
LINE
  5
407
330
1F
100
AcDbEntity
  8
0
  6
SLD-Durchgehend
 62
     7
370
    15
100
AcDbLine
 10
75.1460358212
 20
117.1824926869
 30
0.0
 11
74.1781867752
 21
117.1824926869
 31
0.0
  0
LINE
  5
408
330
1F
100
AcDbEntity
  8
0
  6
SLD-Durchgehend
 62
     7
370
    15
100
AcDbLine
 10
72.556734615
 20
117.1824926869
 30
0.0
 11
66.6886238092
 21
117.1824926869
 31
0.0
  0
LINE
  5
409
330
1F
100
AcDbEntity
  8
0
  6
SLD-Durchgehend
 62
     7
370
    15
100
AcDbLine
 10
74.4700194979
 20
115.6824926738
 30
0.0
 11
66.395250679
 21
115.6824926738
 31
0.0
  0
LINE
  5
40A
330
1F
100
AcDbEntity
  8
0
  6
SLD-Durchgehend
 62
     7
370
    15
100
AcDbLine
 10
74.1719348067
 20
112.9700572356
 30
0.0
 11
66.2579728002
 21
112.9700572356
 31
0.0
  0
LINE
  5
40B
330
1F
100
AcDbEntity
  8
0
  6
SLD-Durchgehend
 62
     7
370
    15
100
AcDbLine
 10
74.2029301533
 20
112.6824927642
 30
0.0
 11
66.2724660421
 21
112.6824927642
 31
0.0
  0
LINE
  5
40C
330
1F
100
AcDbEntity
  8
0
  6
SLD-Durchgehend
 62
     7
370
    15
100
AcDbLine
 10
69.8493398437
 20
108.1824928415
 30
0.0
 11
67.2561745802
 21
108.1824928415
 31
0.0
  0
LINE
  5
40D
330
1F
100
AcDbEntity
  8
0
  6
SLD-Durchgehend
 62
     7
370
    15
100
AcDbLine
 10
69.8493398437
 20
118.9700571713
 30
0.0
 11
67.2561745802
 21
118.9700571713
 31
0.0
  0
LINE
  5
40E
330
1F
100
AcDbEntity
  8
0
  6
SLD-Durchgehend
 62
     7
370
    15
100
AcDbLine
 10
74.1719348067
 20
114.1824927772
 30
0.0
 11
66.2579728002
 21
114.1824927772
 31
0.0
  0
LINE
  5
40F
330
1F
100
AcDbEntity
  8
0
  6
SLD-Durchgehend
 62
     7
370
    15
100
AcDbLine
 10
69.2822416955
 20
120.1824929458
 30
0.0
 11
67.7901912192
 21
120.1824929458
 31
0.0
  0
LINE
  5
410
330
1F
100
AcDbEntity
  8
0
  6
SLD-Durchgehend
 62
     7
370
    15
100
AcDbLine
 10
74.2029301533
 20
114.4700572486
 30
0.0
 11
66.2724660421
 21
114.4700572486
 31
0.0
  0
LINE
  5
411
330
1F
100
AcDbEntity
  8
0
  6
SLD-Durchgehend
 62
     7
370
    15
100
AcDbLine
 10
69.16228176
 20
105.1824928154
 30
0.0
 11
68.8348911414
 21
105.1824928154
 31
0.0
  0
LINE
  5
412
330
1F
100
AcDbEntity
  8
0
  6
SLD-Durchgehend
 62
     7
370
    15
100
AcDbLine
 10
69.16228176
 20
121.9700571974
 30
0.0
 11
68.8348911414
 21
121.9700571974
 31
0.0
  0
LINE
  5
413
330
1F
100
AcDbEntity
  8
0
  6
SLD-Durchgehend
 62
     7
370
    15
100
AcDbLine
 10
69.2822416955
 20
106.970057067
 30
0.0
 11
67.7901912192
 21
106.970057067
 31
0.0
  0
LINE
  5
414
330
1F
100
AcDbEntity
  8
0
  6
SLD-Durchgehend
 62
     7
370
    15
100
AcDbLine
 10
69.2104963297
 20
120.4700574172
 30
0.0
 11
67.936329701
 21
120.4700574172
 31
0.0
  0
LINE
  5
415
330
1F
100
AcDbEntity
  8
0
  6
SLD-Durchgehend
 62
     7
370
    15
100
AcDbLine
 10
69.1301399553
 20
105.4700572868
 30
0.0
 11
68.6436664024
 21
105.4700572868
 31
0.0
  0
LINE
  5
416
330
1F
100
AcDbEntity
  8
0
  6
SLD-Durchgehend
 62
     7
370
    15
100
AcDbLine
 10
69.1301399553
 20
121.682492726
 30
0.0
 11
68.6436664024
 21
121.682492726
 31
0.0
  0
LINE
  5
417
330
1F
100
AcDbEntity
  8
0
  6
SLD-Durchgehend
 62
     7
370
    15
100
AcDbLine
 10
69.2104963297
 20
106.6824925956
 30
0.0
 11
67.936329701
 21
106.6824925956
 31
0.0
  0
CIRCLE
  5
418
330
1F
100
AcDbEntity
  8
0
  6
SLD-Durchgehend
 62
     7
370
    15
100
AcDbCircle
 10
81.1456354046
 20
113.5762750064
 30
0.0
 40
3.249999999999986
  0
CIRCLE
  5
419
330
1F
100
AcDbEntity
  8
0
  6
SLD-Durchgehend
 62
     7
370
    15
100
AcDbCircle
 10
81.1456354046
 20
113.5762750064
 30
0.0
 40
2.999999999999986
  0
CIRCLE
  5
41A
330
1F
100
AcDbEntity
  8
0
  6
SLD-Durchgehend
 62
     7
370
    15
100
AcDbCircle
 10
81.1456354046
 20
113.5762750064
 30
0.0
 40
25.0
  0
INSERT
  5
426
330
1F
100
AcDbEntity
  8
VERMASSUNG
100
AcDbBlockReference
  2
SW_CENTERMARKSYMBOL_0
 10
81.1456354046
 20
113.5762750064
 30
0.0
  0
OLE2FRAME
  5
427
330
1F
100
AcDbEntity
  8
0
100
AcDbOle2Frame
 70
     2
  3
Paintbrush-Bild
 10
13.8511154363
 20
38.264191557
 30
0.0
 11
51.6290888628
 21
31.9806341108
 31
0.0
 71
     2
 72
     0
 73
     1
 90
    12928
310
80552BED0767C5B32B40DDAF6807D121434000000000000000006FFBDDFB85D0
310
4940DDAF6807D121434000000000000000006FFBDDFB85D04940416F4BD60AFB
310
3F4000000000000000002BED0767C5B32B40416F4BD60AFB3F40000000000000
310
0000000000000100000000010000010000000100000000000100000000320000
310
D0CF11E0A1B11AE1000000000000000000000000000000003E000300FEFF0900
310
0600000000000000000000000100000001000000000000000010000002000000
310
01000000FEFFFFFF0000000000000000FFFFFFFFFFFFFFFFFFFFFFFFFFFFFFFF
310
FFFFFFFFFFFFFFFFFFFFFFFFFFFFFFFFFFFFFFFFFFFFFFFFFFFFFFFFFFFFFFFF
310
FFFFFFFFFFFFFFFFFFFFFFFFFFFFFFFFFFFFFFFFFFFFFFFFFFFFFFFFFFFFFFFF
310
FFFFFFFFFFFFFFFFFFFFFFFFFFFFFFFFFFFFFFFFFFFFFFFFFFFFFFFFFFFFFFFF
310
FFFFFFFFFFFFFFFFFFFFFFFFFFFFFFFFFFFFFFFFFFFFFFFFFFFFFFFFFFFFFFFF
310
FFFFFFFFFFFFFFFFFFFFFFFFFFFFFFFFFFFFFFFFFFFFFFFFFFFFFFFFFFFFFFFF
310
FFFFFFFFFFFFFFFFFFFFFFFFFFFFFFFFFFFFFFFFFFFFFFFFFFFFFFFFFFFFFFFF
310
FFFFFFFFFFFFFFFFFFFFFFFFFFFFFFFFFFFFFFFFFFFFFFFFFFFFFFFFFFFFFFFF
310
FFFFFFFFFFFFFFFFFFFFFFFFFFFFFFFFFFFFFFFFFFFFFFFFFFFFFFFFFFFFFFFF
310
FFFFFFFFFFFFFFFFFFFFFFFFFFFFFFFFFFFFFFFFFFFFFFFFFFFFFFFFFFFFFFFF
310
FFFFFFFFFFFFFFFFFFFFFFFFFFFFFFFFFFFFFFFFFFFFFFFFFFFFFFFFFFFFFFFF
310
FFFFFFFFFFFFFFFFFFFFFFFFFFFFFFFFFFFFFFFFFFFFFFFFFFFFFFFFFFFFFFFF
310
FFFFFFFFFFFFFFFFFFFFFFFFFFFFFFFFFFFFFFFFFFFFFFFFFFFFFFFFFFFFFFFF
310
FFFFFFFFFFFFFFFFFFFFFFFFFFFFFFFFFFFFFFFFFFFFFFFFFFFFFFFFFFFFFFFF
310
FDFFFFFFFEFFFFFFFEFFFFFFFEFFFFFF05000000060000000700000008000000
310
090000000A0000000B0000000C0000000D0000000E0000000F00000010000000
310
11000000120000001300000014000000150000001600000017000000FEFFFFFF
310
FFFFFFFFFFFFFFFFFFFFFFFFFFFFFFFFFFFFFFFFFFFFFFFFFFFFFFFFFFFFFFFF
310
FFFFFFFFFFFFFFFFFFFFFFFFFFFFFFFFFFFFFFFFFFFFFFFFFFFFFFFFFFFFFFFF
310
FFFFFFFFFFFFFFFFFFFFFFFFFFFFFFFFFFFFFFFFFFFFFFFFFFFFFFFFFFFFFFFF
310
FFFFFFFFFFFFFFFFFFFFFFFFFFFFFFFFFFFFFFFFFFFFFFFFFFFFFFFFFFFFFFFF
310
FFFFFFFFFFFFFFFFFFFFFFFFFFFFFFFFFFFFFFFFFFFFFFFFFFFFFFFFFFFFFFFF
310
FFFFFFFFFFFFFFFFFFFFFFFFFFFFFFFFFFFFFFFFFFFFFFFFFFFFFFFFFFFFFFFF
310
FFFFFFFFFFFFFFFFFFFFFFFFFFFFFFFFFFFFFFFFFFFFFFFFFFFFFFFFFFFFFFFF
310
FFFFFFFFFFFFFFFFFFFFFFFFFFFFFFFFFFFFFFFFFFFFFFFFFFFFFFFFFFFFFFFF
310
FFFFFFFFFFFFFFFFFFFFFFFFFFFFFFFFFFFFFFFFFFFFFFFFFFFFFFFFFFFFFFFF
310
FFFFFFFFFFFFFFFFFFFFFFFFFFFFFFFFFFFFFFFFFFFFFFFFFFFFFFFFFFFFFFFF
310
FFFFFFFFFFFFFFFFFFFFFFFFFFFFFFFFFFFFFFFFFFFFFFFFFFFFFFFFFFFFFFFF
310
FFFFFFFFFFFFFFFFFFFFFFFFFFFFFFFFFFFFFFFFFFFFFFFFFFFFFFFFFFFFFFFF
310
FFFFFFFFFFFFFFFFFFFFFFFFFFFFFFFFFFFFFFFFFFFFFFFFFFFFFFFFFFFFFFFF
310
52006F006F007400200045006E00740072007900000000000000000000000000
310
0000000000000000000000000000000000000000000000000000000000000000
310
16000500FFFFFFFFFFFFFFFF020000000A00030000000000C000000000000046
310
000000000000000000000000B09837D3DE87D00103000000C000000000000000
310
01004F006C006500000000000000000000000000000000000000000000000000
310
0000000000000000000000000000000000000000000000000000000000000000
310
0A000200FFFFFFFFFFFFFFFFFFFFFFFF00000000000000000000000000000000
310
0000000000000000000000000000000000000000000000001400000000000000
310
010043006F006D0070004F0062006A0000000000000000000000000000000000
310
0000000000000000000000000000000000000000000000000000000000000000
310
120002010100000003000000FFFFFFFF00000000000000000000000000000000
310
0000000000000000000000000000000000000000010000004D00000000000000
310
01004F006C006500310030004E00610074006900760065000000000000000000
310
0000000000000000000000000000000000000000000000000000000000000000
310
1A000200FFFFFFFFFFFFFFFFFFFFFFFF00000000000000000000000000000000
310
0000000000000000000000000000000000000000040000002426000000000000
310
FEFFFFFF02000000FEFFFFFFFFFFFFFFFFFFFFFFFFFFFFFFFFFFFFFFFFFFFFFF
310
FFFFFFFFFFFFFFFFFFFFFFFFFFFFFFFFFFFFFFFFFFFFFFFFFFFFFFFFFFFFFFFF
310
FFFFFFFFFFFFFFFFFFFFFFFFFFFFFFFFFFFFFFFFFFFFFFFFFFFFFFFFFFFFFFFF
310
FFFFFFFFFFFFFFFFFFFFFFFFFFFFFFFFFFFFFFFFFFFFFFFFFFFFFFFFFFFFFFFF
310
FFFFFFFFFFFFFFFFFFFFFFFFFFFFFFFFFFFFFFFFFFFFFFFFFFFFFFFFFFFFFFFF
310
FFFFFFFFFFFFFFFFFFFFFFFFFFFFFFFFFFFFFFFFFFFFFFFFFFFFFFFFFFFFFFFF
310
FFFFFFFFFFFFFFFFFFFFFFFFFFFFFFFFFFFFFFFFFFFFFFFFFFFFFFFFFFFFFFFF
310
FFFFFFFFFFFFFFFFFFFFFFFFFFFFFFFFFFFFFFFFFFFFFFFFFFFFFFFFFFFFFFFF
310
FFFFFFFFFFFFFFFFFFFFFFFFFFFFFFFFFFFFFFFFFFFFFFFFFFFFFFFFFFFFFFFF
310
FFFFFFFFFFFFFFFFFFFFFFFFFFFFFFFFFFFFFFFFFFFFFFFFFFFFFFFFFFFFFFFF
310
FFFFFFFFFFFFFFFFFFFFFFFFFFFFFFFFFFFFFFFFFFFFFFFFFFFFFFFFFFFFFFFF
310
FFFFFFFFFFFFFFFFFFFFFFFFFFFFFFFFFFFFFFFFFFFFFFFFFFFFFFFFFFFFFFFF
310
FFFFFFFFFFFFFFFFFFFFFFFFFFFFFFFFFFFFFFFFFFFFFFFFFFFFFFFFFFFFFFFF
310
FFFFFFFFFFFFFFFFFFFFFFFFFFFFFFFFFFFFFFFFFFFFFFFFFFFFFFFFFFFFFFFF
310
FFFFFFFFFFFFFFFFFFFFFFFFFFFFFFFFFFFFFFFFFFFFFFFFFFFFFFFFFFFFFFFF
310
FFFFFFFFFFFFFFFFFFFFFFFFFFFFFFFFFFFFFFFFFFFFFFFFFFFFFFFFFFFFFFFF
310
0100000200000000000000000000000000000000000000000000000000000000
310
0000000000000000000000000000000000000000000000000000000000000000
310
0100FEFF030A0000FFFFFFFF0A00030000000000C00000000000004607000000
310
5042727573680007000000504272757368000700000050427275736800F439B2
310
7100000000000000000000000000000000000000000000000000000000000000
310
0000000000000000000000000000000000000000000000000000000000000000
310
0000000000000000000000000000000000000000000000000000000000000000
310
0000000000000000000000000000000000000000000000000000000000000000
310
0000000000000000000000000000000000000000000000000000000000000000
310
0000000000000000000000000000000000000000000000000000000000000000
310
0000000000000000000000000000000000000000000000000000000000000000
310
0000000000000000000000000000000000000000000000000000000000000000
310
0000000000000000000000000000000000000000000000000000000000000000
310
0000000000000000000000000000000000000000000000000000000000000000
310
0000000000000000000000000000000000000000000000000000000000000000
310
0000000000000000000000000000000000000000000000000000000000000000
310
20260000424D0E260000000000003E00000028000000B40200006E0000000100
310
01000000000000000000130B0000130B00000200000002000000000000FFFFFF
310
FFFFFFFFFFFFFFFFFFFFFFFFFFFFFFFFFFFFFFFFFFFFFFFFFFFFFFFFFFFFFFFF
310
FFFFFFFFFFFFFFFFFFFFFFFFFFFFFFFFFFFFFFFFFFFFFFFFFFFFFFFFFFFFFFFF
310
FFFFFFFFFFFFFFFFFFFFFFFFFFFFFFFFFFFFFFFFFFFFFFFFF000FFFFFFFFFFFF
310
FFFFFFFFFFFFFFFFFFFFFFFFFFFFFFFFFFFFFFFFFFFFFFFFFFFFFFFFFFFFFFFF
310
FFFFFFFFFFFFFFFFFFFFFFFFFFFFFFFFFFFFFFFFFFFFFFFFFFFFFFFFFFFFFFFF
310
FFFFFFFFFFFFFFFFFFFFFFFFFFFFFFFFF000FFFFFFFFFFFFFFFFFFFFFFFFFFFF
310
FFFFFFFFFFFFFFFFFFFFFFFFFFFFFFFFFFFFFFFFFFFFFFFFFFFFFFFFFFFFFFFF
310
FFFFFFFFFFFFFFFFFFFFFFFFFFFFFFFFFFFFFFFFFFFFFFFFFFFFFFFFFFFFFFFF
310
FFFFFFFFFFFFFFFFF000FFFFFFFFFFFFFFFFFFFFFFFFFFFFFFFFFFFFFFFFFFFF
310
FFFFFFFFFFFFFFFFFFFFFFFFFFFFFFFFFFFFFFFFFFFFFFFFFFFFFFFFFFFFFFFF
310
FFFFFFFFFFFFFFFFFFFFFFFFFFFFFFFFFFFFFFFFFFFFFFFFFFFFFFFFFFFFFFFF
310
F000FFFFFFFFFFFFFFFFFFFFFFFFFFFFFFFFFFFFFFFFFFFFFFFFFFFFFFFFFFFF
310
FFFFFFFFFFFFFFFFFFFFFFFFFFFFFFFFFFFFFFFFFFFFFFFFFFFFFFFFFFFFFFFF
310
FFFFFFFFFFFFFFFFFFFFFFFFFFFFFFFFFFFFFFFFFFFFFFFFF000FFFFFFFFFFFF
310
FFFFFFFFFFFFFFFFFFFFFFFFFFFFFFFFFFFFFFFFFFFFFFFFFFFFFFFFFFFFFFFF
310
FFFFFFFFFFFFFFFFFFFFFFFFFFFFFFFFFFFFFFFFFFFFFFFFFFFFFFFFFFFFFFFF
310
FFFFFFFFFFFFFFFFFFFFFFFFFFFFFFFFF000FFFFFFFFFFFFFFFFFFFFFFFFFFFF
310
FFFFFFFFFFFFFFFFFFFFFFFFFFFFFFFFFFFFFFFFFFFFFFFFFFFFFFFFFFFFFFFF
310
FFFFFFFFFFFFFFFFFFFFFFFFFFFFFFFFFFFFFFFFFFFFFFFFFFFFFFFFFFFFFFFF
310
FFFFFFFFFFFFFFFFF000FFFFFFFFFFFFFFFFFFFFFFFFFFFFFFFFFFFFFFFFFFFF
310
FFFFFFFFFFFFFFFFFFFFFFFFFFFFFFFFFFFFFFFFFFFFFFFFFFFFFFFFFFFFFFFF
310
FFFFFFFFFFFFFFFFFFFFFFFFFFFFFFFFFFFFFFFFFFFFFFFFFFFFFFFFFFFFFFFF
310
F000FFFFFFFFFFFFFFFFFFFFFFFFFFFFFFFFFFFFFFFFFFFFFFFFFFFFFFFFFFFF
310
FFFFFFFFFFFFFFFFFFFFFFFFFFFFFFFFFFFFFFFFFFFFFFFFFFFFFFFFFFFFFFFF
310
FFFFFFFFFFFFFFFFFFFFFFFFFFFFFFFFFFFFFFFFFFFFFFFFF000FFFFFFFFFFFF
310
FFFFFFFFFFFFFFFFFFFFFFFFFFFFFFFFFFFFFFFFFFFFFFFFFFFFFFFFFFFFFFFF
310
FFFFFFFFFFFFFFFFFFFFFFFFFFFFFFFFFFFFFFFFFFFFFFFFFFFFFFFFFFFFFFFF
310
FFFFFFFFFFFFFFFFFFFFFFFFFFFFFFFFF000FFFFFFFFFFFFFFFFFFFFFFFFFFFF
310
FFFFFFFFFFFFFFFFFFFFFFFFFFFFFFFFFFFFFFFFFFFFFFFFFFFFFFFFFFFFFFFF
310
FFFFFFFFFFFFFFFFFFFFFFFFFFFFFFFFFFFFFFFFFFFFFFFFFFFFFFFFFFFFFFFF
310
FFFFFFFFFFFFFFFFF000FFFFFFFFFFFFFFFFFFFFFFFFFFFFFFFFFFFFFFFFFFFF
310
FFFFFFFFFFFFFFFFFFFFFFFFFFFFFFFFFFFFFFFFFFFFFFFFFFFFFFFFFFFFFFFF
310
FFFFFFFFFFFFFFFFFFFFFFFFFFFFFFFFFFFFFFFFFFFFFFFFFFFFFFFFFFFFFFFF
310
F000FFFFFFFFFFFFFFFFFFFFFFFFFFFFFFFFFFFFFFFFFFFFFFFFFFFFFFFFFFFF
310
FFFFFFFFFFFFFFFFFFFFFFFFFFFFFFFFFFFFFFFFFFFFFFFFFFFFFFFFFFFFFFFF
310
FFFFFFFFFFFFFFFFFFFFFFFFFFFFFFFFFFFFFFFFFFFFFFFFF000FFFFFFFFFFFF
310
FFFFFFFFFFFFFFFFFFFFFFFFFFFFFFFFFFFFFFFFFFFFFFFFFFFFFFFFFFFFFFFF
310
FFFFFFFFFFFFFFFFFFFFFFFFFFFFFFFFFFFFFFFFFFFFFFFFFFFFFFFFFFFFFFFF
310
FFFFFFFFFFFFFFFFFFFFFFFFFFFFFFFFF000FFFFFFFFFFFFFFFFFFFFFFFFFFFF
310
FFFFFFFFFFFFFFFFFFFFFFFFFFFFFFFFFFFFFFFFFFFFFFFFFFFFFFFFFFFFFFFF
310
FFFFFFFFFFFFFFFFFFFFFFFFFFFFFFFFFFFFFFFFFFFFFFFFFFFFFFFFFFFFFFFF
310
FFFFFFFFFFFFFFFFF000FFFFFFFFFFFFFFFFFFFFFFFFFFFFFFFFFFFFFFFFFFFF
310
FFFFFFFFFFFFFFFFFFFFFFFFFFFFFFFFFFFFFFFFFFFFFFFFFFFFFFFFFFFFFFFF
310
FFFFFFFFFFFFFFFFFFFFFFFFFFFFFFFFFFFFFFFFFFFFFFFFFFFFFFFFFFFFFFFF
310
F000FFFFFFFFFFFFFFFFFFFFFFFFFFFFFFFFFFFFFFFFFFFFFFFFFFFFFFFFFFFF
310
FFFFFFFFFFFFFFFFFFFFFFFFFFFFFFFFFFFFFFFFFFFFFFFFFFFFFFFFFFFFFFFF
310
FFFFFFFFFFFFFFFFFFFFFFFFFFFFFFFFFFFFFFFFFFFFFFFFF000FFFFFFFFFFFF
310
FFFFFFFFFFFFFFFFFFFFFFFFFFFFFFFFFFFFFFFFFFFFFFFFFFFFFFFFFFFFFFFF
310
FFFFFFFFFFFFFFFFFFFFFFFFFFFFFFFFFFFFFFFFFFFFFFFFFFFFFFFFFFFFFFFF
310
FFFFFFFFFFFFFFFFFFFFFFFFFFFFFFFFF000FFFFFFFFFFFFFFFFFFFFFFFFFFFF
310
FFFFFFFFFFFFFFFFFFFFFFFFFFFFFFFFFFFFFFFFFFFFFFFFFFFFFFFFFFFFFFFF
310
FFFFFFFFFFFFFFFFFFFFFFFFFFFFFFFFFFFFFFFFFFFFFFFFFFFFFFFFFFFFFFFF
310
FFFFFFFFFFFFFFFFF000FFFFF80003FFFFFFFFFFFFFFFFFFFFFFFFFFFFFFFFFF
310
FFFFF00007FFFFFFFFFF00007FFFFFF800000000000000007FFFFFFFFFFFFFFF
310
FFFFFFFC001FFFFFFFFFFFFFFC001FFFFFFFFFFFFFFFFFFFFFFFFFFE0007FFFF
310
F000FFFF8000007FFFFFFFF8000FFFFFC0007FFFFF80007FFFFF0000007FFFFF
310
FFF8000007FFFFF800000000000000007FFFFFF0001FFFFFFFFFFFC00001FFFF
310
FFFFFFFFC00001FFFFFFFF000000000003FFFFE000007FFFF000FFFE0000000F
310
FFFFFFF0000FFFFF80007FFFFF80007FFFFC0000001FFFFFFFC0000001FFFFF8
310
00000000000000007FFFFFF0001FFFFFFFFFFE0000003FFFFFFFFFFE0000003F
310
FFFFFF000000000003FFFF0000000FFFF000FFF800000003FFFFFFF00007FFFF
310
80007FFFFF80007FFFF000000007FFFFFF000000003FFFF80000000000000000
310
7FFFFFF0001FFFFFFFFFF80000000FFFFFFFFFF80000000FFFFFFF0000000000
310
03FFFC00000003FFF000FFE000000000FFFFFFF00007FFFF80003FFFFF80007F
310
FFC000000001FFFFFC000000001FFFF800000000000000007FFFFFF0001FFFFF
310
FFFFE000000003FFFFFFFFE000000003FFFFFF000000000003FFF000000000FF
310
F000FF80000000007FFFFFF00007FFFF80003FFFFF80007FFF8000000000FFFF
310
F80000000007FFF800000000000000007FFFFFF0001FFFFFFFFFC000000001FF
310
FFFFFFC000000001FFFFFF000000000003FFC0000000007FF000FF0000000000
310
3FFFFFE00007FFFF00003FFFFF80007FFE00000000003FFFF00000000003FFF8
310
00000000000000007FFFFFF0001FFFFFFFFF8000000000FFFFFFFF8000000000
310
FFFFFF000000000003FF80000000003FF000FE00000000001FFFFFE00003FFFF
310
00003FFFFF80007FFC00000000001FFFE00000000001FFF8000001FFFE000000
310
7FFFFFF0001FFFFFFFFE00000000003FFFFFFE00000000003FFFFF0000000000
310
03FF00000000001FF000FC00000000000FFFFFE00003FFFF00001FFFFF80007F
310
F800000000001FFFC00000000000FFF8000001FFFE0000007FFFFFF0001FFFFF
310
FFFC00000000001FFFFFFC00000000001FFFFF000000000003FE00000000000F
310
F000F8000000000007FFFFE00003FFFF00001FFFFF80007FF800000000000FFF
310
800000000000FFF8000001FFFE0000007FFFFFF0001FFFFFFFF800000000000F
310
FFFFF800000000000FFFFF000000000003FC000000000007F000F80000000000
310
03FFFFC00003FFFE00001FFFFF80007FF0000000000007FF0000000000007FF8
310
000001FFFE0000007FFFFFF0001FFFFFFFF0000000000007FFFFF00000000000
310
07FFFF000000000003F8000000000003F000F0000000000003FFFFC00001FFFE
310
00001FFFFF80007FE0000000000007FE0000000000003FF8000001FFFE000000
310
7FFFFFF0001FFFFFFFF0000000000007FFFFF0000000000007FFFF0000000000
310
03F800001F800003F000E00001FFF00001FFFFC00001FFFE00000FFFFF80007F
310
E00001FFE00003FE00001FFF00003FF8000001FFFE0000007FFFFFF0001FFFFF
310
FFE000003E000003FFFFE000003E000003FFFF000000000003F00001FFF80001
310
F000E00007FFFC0001FFFFC00001FFFE00000FFFFF80007FC0000FFFFC0003FC
310
0000FFFFC0001FF8000001FFFE0000007FFFFFF0001FFFFFFFC00003FFE00001
310
FFFFC00003FFE00001FFFF0001FFFFFFFFF00007FFFE0001F000E0000FFFFF00
310
00FFFF800001FFFC00000FFFFF80007FC0001FFFFE0001FC0001FFFFE0001FF8
310
000001FFFE0000007FFFFFF0001FFFFFFF80000FFFF80000FFFF80000FFFF800
310
00FFFF0003FFFFFFFFE0000FFFFF8000F000C0003FFFFF8000FFFF800000FFFC
310
000007FFFF80007F80003FFFFF0001FC0003FFFFF0001FF8000001FFFE000000
310
7FFFFFF0001FFFFFFF80003FFFFE0000FFFF80003FFFFE0000FFFF0003FFFFFF
310
FFE0003FFFFF8000F000C0003FFFFF8000FFFF800000FFFC000007FFFF80007F
310
80007FFFFF8001F80007FFFFF8000FF8000001FFFE0000007FFFFFF0001FFFFF
310
FF00007FFFFF00007FFF00007FFFFF00007FFF0003FFFFFFFFE0003FFFFFC000
310
F000C0007FFFFFC000FFFF000000FFFC000007FFFF80007F8000FFFFFF8000F8
310
000FFFFFF8000FF8000001FFFE0000007FFFFFF0001FFFFFFF0000FFFFFF8000
310
7FFF0000FFFFFF80007FFF0003FFFFFFFFC0007FFFFFC00070008000FFFFFFC0
310
00FFFF000000FFF8000007FFFF80007F8000FFFFFF8000F8000FFFFFF8000FF8
310
000001FFFE0000007FFFFFF0001FFFFFFE0001FFFFFFC0003FFE0001FFFFFFC0
310
003FFF0003FFFFFFFFC0007FFFFFE00070008000FFFFFFC0007FFF0000007FF8
310
000003FFFF80007F0001FFFFFF8000F8000FFFFFF8000FF8000001FFFE000000
310
7FFFFFF0001FFFFFFE0001FFFFFFC0003FFE0001FFFFFFC0003FFF0003FFFFFF
310
FFC000FFFFFFE00070008000FFFFFFC0007FFF0000007FF8000003FFFF80007F
310
0001FFFFFF8000F8001FFFFFF8000FF8000001FFFE0000007FFFFFF0001FFFFF
310
FE0003FFFFFFE0003FFE0003FFFFFFE0003FFF0003FFFFFFFFC000FFFFFFE000
310
70008000FFFFFFC0007FFE0000007FF8000003FFFF80007F0001FFFFFF8000F0
310
001FFFFFF8000FF8000001FFFE0000007FFFFFF0001FFFFFFC0003FFFFFFE000
310
1FFC0003FFFFFFE0001FFF0003FFFFFFFFC000FFFFFFC00070008000FFFFFF80
310
007FFE0000007FF0000003FFFF80007F0001FFFFFF0000F0001FFFFFF8000FF8
310
000001FFFE0000007FFFFFF0001FFFFFFC0007FFFFFFF0001FFC0007FFFFFFF0
310
001FFF0003FFFFFFFFC000FFFFFFC00070008001FFFFFF0000FFFE0000003FF0
310
000001FFFF80007F0001FFFFFF0000F8001FFFFFF0000FF8000001FFFE000000
310
7FFFFFF0001FFFFFFC0007FFFFFFF0001FFC0007FFFFFFF0001FFF0003FFFFFF
310
FFC001FFFFFF80007000FFFFFFFFFE0000FFFE0008003FF0008001FFFF80007F
310
FFFFFFFFFC0000FFFFFFFFFFE0000FF8000001FFFE0000007FFFFFF0001FFFFF
310
F8000FFFFFFFF8000FF8000FFFFFFFF8000FFF0003FFFFFFFFFFFFFFFFFF0000
310
7000FFFFFFFFFC0000FFFC0008003FF0008001FFFF80007FFFFFFFFFF80001FF
310
FFFFFFFF80000FF8000001FFFE0000007FFFFFF0001FFFFFF8000FFFFFFFF800
310
0FF8000FFFFFFFF8000FFF0003FFFFFFFFFFFFFFFFFE0000F000FFFFFFFFE000
310
00FFFC000C003FE000C001FFFF80007FFFFFFFFFC00001FFFFFFFFFE00001FF8
310
000001FFFE0000007FFFFFF0001FFFFFF8000FFFFFFFF8000FF8000FFFFFFFF8
310
000FFF0003FFFFFFFFFFFFFFFFF00000F000FFFFFFFE000001FFFC000C001FE0
310
00C000FFFF80007FFFFFFFFE000001FFFFFFFFE000001FF80FFFFFFFFFFFFFC0
310
7FFFFFF0001FFFFFF8000FFFFFFFF8000FF8000FFFFFFFF8000FFF0003FFFFFF
310
FFFFFFFFFF800000F000FFFFFFC0000001FFFC001C001FE001C000FFFF80007F
310
FFFFFF80000003FFFFFFF80000001FF80FFFFFFFFFFFFFC07FFFFFF0001FFFFF
310
F8001FFFFFFFFC000FF8001FFFFFFFFC000FFF0003FFFFFFFFFFFFFFF0000001
310
F000FFFFF800000001FFF8001C001FE001C000FFFF80007FFFFFF800000003FF
310
FFFF800000003FF80FFFFFFFFFFFFFC07FFFFFF0001FFFFFF8001FFFFFFFFC00
310
0FF8001FFFFFFFFC000FFF0003FFFFFFFFFFFFFE00000001F000FFFFC0000000
310
03FFF8001E001FC001E000FFFF80007FFFFF8000000007FFFFFC000000003FF8
310
0FFFFFFFFFFFFFC07FFFFFF0001FFFFFF8001FFFFFFFFC000FF8001FFFFFFFFC
310
000FFF0003FFFFFFFFFFFFE000000003F000FFFE0000000007FFF8001E000FC0
310
01E0007FFF80007FFFFE0000000007FFFFE0000000007FF80FFFFFFFFFFFFFC0
310
7FFFFFF0001FFFFFF0001FFFFFFFFC0007F0001FFFFFFFFC0007FF0003FFFFFF
310
FFFFFF0000000003F000FFF80000000007FFF8001E000FC003E0007FFF80007F
310
FFF0000000000FFFFF8000000000FFF80FFFFFFFFFFFFFC07FFFFFF0001FFFFF
310
F0001FFFFFFFFC0007F0001FFFFFFFFC0007FF0003FFFFFFFFFFFC0000000007
310
F000FFE0000000000FFFF0003E000FC003E0007FFF80007FFFC0000000001FFF
310
FE0000000001FFF80FFFFFFFFFFFFFC07FFFFFF0001FFFFFF0001FFFFFFFFC00
310
07F0001FFFFFFFFC0007FF0003FFFFFFFFFFF0000000000FF000FFC000000000
310
1FFFF0003F000F8003F0003FFF80007FFF80000000003FFFF80000000003FFF8
310
0FFFFFFFFFFFFFC07FFFFFF0001FFFFFF0001FFFFFFFFC0007F0001FFFFFFFFC
310
0007FF0003FFFFFFFFFFE0000000001FF000FF00000000007FFFF0003F000780
310
03F0003FFF80007FFF00000000007FFFF00000000007FFF80FFFFFFFFFFFFFC0
310
7FFFFFF0001FFFFFF0001FFFFFFFFC0007F0001FFFFFFFFC0007FF0003FFFFFF
310
FFFF80000000007FF000FE0000000000FFFFE0003F00078007F0003FFF80007F
310
FE0000000001FFFFE0000000001FFFF80FFFFFFFFFFFFFC07FFFFFF0001FFFFF
310
F0001FFFFFFFFC0007F0001FFFFFFFFC0007FF0003FFFFFFFFFF0000000000FF
310
F000FC0000000003FFFFE0007F00078007F0003FFF80007FFC0000000007FFFF
310
C0000000007FFFF80FFFFFFFFFFFFFC07FFFFFF0001FFFFFF8001FFFFFFFFC00
310
0FF8001FFFFFFFFC000FFF0003FFFFFFFFFE0000000003FFF000FC000000000F
310
FFFFE0007F80070007F8001FFF80007FF8000000001FFFFF8000000001FFFFF8
310
0FFFFFFFFFFFFFC07FFFFFF0001FFFFFF8001FFFFFFFFC000FF8001FFFFFFFFC
310
000FFF0003FFFFFFFFFC000000000FFFF000F8000000007FFFFFE0007F800700
310
07F8001FFF80007FF000000000FFFFFF800000000FFFFFF80FFFFFFFFFFFFFC0
310
7FFFFFF0001FFFFFF8000FFFFFFFF8000FF8000FFFFFFFF8000FFF0003FFFFFF
310
FFFC000000007FFFF000F800000007FFFFFFC0007F8003000FF8001FFF80007F
310
F000000007FFFFFF000000007FFFFFF80FFFFFFFFFFFFFC07FFFFFF0001FFFFF
310
F8000FFFFFFFF8000FF8000FFFFFFFF8000FFF0003FFFFFFFFF80000000FFFFF
310
F000F0000000FFFFFFFFC000FF8003000FF8001FFF80007FE0000000FFFFFFFF
310
0000000FFFFFFFF8000001FFFE0000007FFFFFF0001FFFFFF8000FFFFFFFF800
310
0FF8000FFFFFFFF8000FFF0003FFFFFFFFF8000000FFFFFFF000F000000FFFFF
310
FFFFC000FFC002000FF8000FFF80007FE000001FFFFFFFFE000001FFFFFFFFF8
310
000001FFFE0000007FFFFFF0001FFFFFF8000FFFFFFFF8000FF8000FFFFFFFF8
310
000FFF0003FFFFFFFFF000001FFFFFFFF000E00000FFFFFFFFFFC000FFC00200
310
0FFC000FFF80007FE00001FFFFFFFFFE00001FFFFFFFFFF8000001FFFE000000
310
7FFFFFF0001FFFFFFC000FFFFFFFF8001FFC000FFFFFFFF8001FFF0003FFFFFF
310
FFF00001FFFFFFFFF000E00007FFFFFFFFFF8000FFC000001FFC000FFF80007F
310
C0000FFFFFFFFFFE0000FFFFFFFFFFF8000001FFFE0000007FFFFFF0001FFFFF
310
FC0007FFFFFFF0001FFC0007FFFFFFF0001FFF0003FFFFFFFFF00007FFFFFFFF
310
F000E0001FFFFFFFFFFF8000FFC000001FFC000FFF80007FC0003FFFFFFFFFFE
310
0001FFFFFFFFFFF8000001FFFE0000007FFFFFF0001FFFFFFC0007FFFFFFF000
310
1FFC0007FFFFFFF0001FFF0003FFFFFFFFF0001FFFFFFFFFF000E0003FFFFF00
310
03FF8001FFE000001FFC0007FF80007FC0007FFFFF0007FC0003FFFFF0003FF8
310
000001FFFE0000007FFFFFF0001FFFFFFC0003FFFFFFE0001FFC0003FFFFFFE0
310
001FFF0003FFFFFFFFF0003FFFFFFFFFF000E0003FFFFF0001FF8001FFE00000
310
1FFE0007FF80007FC0007FFFFE0003FC0007FFFFE0003FF8000001FFFE000000
310
7FFFFFF0001FFFFFFE0003FFFFFFE0003FFE0003FFFFFFE0003FFF0003FFFFFF
310
FFF0003FFFFF8001F000E0003FFFFF0001FF0001FFE000001FFE0007FF80007F
310
C0007FFFFE0003FC0007FFFFE0003FF8000001FFFE0000007FFFFFF0001FFFFF
310
FE0001FFFFFFC0003FFE0001FFFFFFC0003FFF0003FFFFFFFFF0003FFFFF0001
310
F000E0003FFFFF0003FF0001FFE000003FFE0007FF80007FC0007FFFFE0003FC
310
0007FFFFE0003FF8000001FFFE0000007FFFFFF0001FFFFFFF0001FFFFFFC000
310
7FFF0001FFFFFFC0007FFF0003FFFFFFFFF0003FFFFF0001F000E0003FFFFE00
310
03FF0003FFF000003FFE0003FF80007FC0007FFFFC0003FE0007FFFFE0003FF8
310
000001FFFE0000007FFFFFF0001FFFFFFF0000FFFFFF80007FFF0000FFFFFF80
310
007FFF0003FFFFFFFFF0003FFFFF0001F000E0003FFFFE0003FF0003FFF00000
310
3FFF0003FF80007FC0007FFFFC0007FE0007FFFFC0003FF8000001FFFE000000
310
7FFFFFF0001FFFFFFF80007FFFFF0000FFFF80007FFFFF0000FFFF0003FFFFFF
310
FFF0003FFFFF0003F000E0003FFFFC0003FE0003FFF000003FFF0003FF80007F
310
E0003FFFF80007FE0003FFFFC0007FF8000001FFFE0000007FFFFFF0001FFFFF
310
FF80003FFFFE0000FFFF80003FFFFE0000FFFF0003FFFFFFFFF0001FFFFE0003
310
F000F0001FFFF80003FE0003FFF000007FFF0001FF80007FE0003FFFF00007FE
310
0001FFFF80007FF8000001FFFE0000007FFFFFF0001FFFFFFFC0000FFFF80001
310
FFFFC0000FFFF80001FFFF0003FFFFFFFFF0001FFFFC0003F000F0000FFFF000
310
07FE0007FFF800007FFF0001FF80007FE0001FFFE00007FF0000FFFE00007FF8
310
000001FFFE0000007FFFFFF0001FFFFFFFC00003FFE00001FFFFC00003FFE000
310
01FFFF0003FFFFFFFFF8000FFFF80003F000F00003FFC00007FC0007FFF80000
310
7FFF8001FF80007FF00007FF80000FFF00007FF80000FFF8000001FFFE000000
310
7F80000000000001FFE000003E000003FFFFE000003E000003FFFF0003FFFFFF
310
FFF80003FFE00007F000F800000000000FFC0007FFF800007FFF8001FF80007F
310
F000000000000FFF000000000000FFF8000001FFFE0000007F80000000000001
310
FFF0000000000007FFFFF0000000000007FFFF0003FFFFFFFFFC00007E000007
310
F000F800000000000FFC0007FFF80000FFFF8000FF80007FF800000000001FFF
310
800000000001FFF8000001FFFE0000007F80000000000001FFF800000000000F
310
FFFFF800000000000FFFFF0003FFFFFFFFFC00000000000FF000FC0000000000
310
1FFC0007FFFC0000FFFF8000FF80007FF800000000003FFFC00000000001FFF8
310
000001FFFE0000007F80000000000001FFF800000000000FFFFFF80000000000
310
0FFFFF0003FFFFFFFFFE00000000001FF000FE00000000003FF8000FFFFC0000
310
FFFF8000FF80007FFC00000000003FFFC00000000003FFF8000001FFFE000000
310
7F80000000000001FFFC00000000001FFFFFFC00000000001FFFFF0003FFFFFF
310
FFFF00000000001FF000FF00000000003FF8000FFFFC0000FFFFC000FF80007F
310
FE00000000007FFFE00000000007FFF8000001FFFE0000007F80000000000001
310
FFFE00000000003FFFFFFE00000000003FFFFF0003FFFFFFFFFF80000000003F
310
F000FF80000000007FF8000FFFFC0001FFFFC0007F80007FFF0000000000FFFF
310
F0000000000FFFF800000000000000007F80000000000001FFFF8000000000FF
310
FFFFFF8000000000FFFFFF0003FFFFFFFFFFC0000000007FF000FFC000000000
310
FFF8000FFFFE0001FFFFC0007F80007FFF8000000001FFFFF8000000001FFFF8
310
00000000000000007F80000000000001FFFFC000000001FFFFFFFFC000000001
310
FFFFFF0003FFFFFFFFFFE000000000FFF000FFE000000003FFF0001FFFFE0001
310
FFFFC0007F80007FFFC000000007FFFFFE000000003FFFF80000000000000000
310
7F80000000000001FFFFE000000003FFFFFFFFE000000003FFFFFF0003FFFFFF
310
FFFFF000000003FFF000FFF80000000FFFF0001FFFFE0001FFFFE0007F80007F
310
FFF00000000FFFFFFF00000000FFFFF800000000000000007F80000000000001
310
FFFFF80000000FFFFFFFFFF80000000FFFFFFF0003FFFFFFFFFFFC0000000FFF
310
F000FFFE0000003FFFF0001FFFFE0003FFFFE0003F80007FFFFC0000003FFFFF
310
FFC0000003FFFFF800000000000000007F80000000000001FFFFFE0000003FFF
310
FFFFFFFE0000003FFFFFFF0003FFFFFFFFFFFF0000003FFFF000FFFF800000FF
310
FFF0001FFFFF0003FFFFE0003F80007FFFFF000001FFFFFFFFF800001FFFFFF8
310
00000000000000007F80000000000001FFFFFFC00001FFFFFFFFFFFFC00001FF
310
FFFFFF0003FFFFFFFFFFFFC00000FFFFF000FFFFF8000FFFFFFFFFFFFFFFFFFF
310
FFFFFFFFFFFFFFFFFFFFF0001FFFFFFFFFFF0000FFFFFFF80000000000000000
310
7FFFFFFFFFFFFFFFFFFFFFFC001FFFFFFFFFFFFFFC001FFFFFFFFFFFFFFFFFFF
310
FFFFFFFC001FFFFFF000FFFFFFFFFFFFFFFFFFFFFFFFFFFFFFFFFFFFFFFFFFFF
310
FFFFFFFFFFFFFFFFFFFFFFFFFFFFFFFFFFFFFFFFFFFFFFFFFFFFFFFFFFFFFFFF
310
FFFFFFFFFFFFFFFFFFFFFFFFFFFFFFFFFFFFFFFFFFFFFFFFFFFFFFFFFFFFFFFF
310
F000FFFFFFFFFFFFFFFFFFFFFFFFFFFFFFFFFFFFFFFFFFFFFFFFFFFFFFFFFFFF
310
FFFFFFFFFFFFFFFFFFFFFFFFFFFFFFFFFFFFFFFFFFFFFFFFFFFFFFFFFFFFFFFF
310
FFFFFFFFFFFFFFFFFFFFFFFFFFFFFFFFFFFFFFFFFFFFFFFFF000FFFFFFFFFFFF
310
FFFFFFFFFFFFFFFFFFFFFFFFFFFFFFFFFFFFFFFFFFFFFFFFFFFFFFFFFFFFFFFF
310
FFFFFFFFFFFFFFFFFFFFFFFFFFFFFFFFFFFFFFFFFFFFFFFFFFFFFFFFFFFFFFFF
310
FFFFFFFFFFFFFFFFFFFFFFFFFFFFFFFFF000FFFFFFFFFFFFFFFFFFFFFFFFFFFF
310
FFFFFFFFFFFFFFFFFFFFFFFFFFFFFFFFFFFFFFFFFFFFFFFFFFFFFFFFFFFFFFFF
310
FFFFFFFFFFFFFFFFFFFFFFFFFFFFFFFFFFFFFFFFFFFFFFFFFFFFFFFFFFFFFFFF
310
FFFFFFFFFFFFFFFFF000FFFFFFFFFFFFFFFFFFFFFFFFFFFFFFFFFFFFFFFFFFFF
310
FFFFFFFFFFFFFFFFFFFFFFFFFFFFFFFFFFFFFFFFFFFFFFFFFFFFFFFFFFFFFFFF
310
FFFFFFFFFFFFFFFFFFFFFFFFFFFFFFFFFFFFFFFFFFFFFFFFFFFFFFFFFFFFFFFF
310
F000FFFFFFFFFFFFFFFFFFFFFFFFFFFFFFFFFFFFFFFFFFFFFFFFFFFFFFFFFFFF
310
FFFFFFFFFFFFFFFFFFFFFFFFFFFFFFFFFFFFFFFFFFFFFFFFFFFFFFFFFFFFFFFF
310
FFFFFFFFFFFFFFFFFFFFFFFFFFFFFFFFFFFFFFFFFFFFFFFFF000FFFFFFFFFFFF
310
FFFFFFFFFFFFFFFFFFFFFFFFFFFFFFFFFFFFFFFFFFFFFFFFFFFFFFFFFFFFFFFF
310
FFFFFFFFFFFFFFFFFFFFFFFFFFFFFFFFFFFFFFFFFFFFFFFFFFFFFFFFFFFFFFFF
310
FFFFFFFFFFFFFFFFFFFFFFFFFFFFFFFFF000FFFFFFFFFFFFFFFFFFFFFFFFFFFF
310
FFFFFFFFFFFFFFFFFFFFFFFFFFFFFFFFFFFFFFFFFFFFFFFFFFFFFFFFFFFFFFFF
310
FFFFFFFFFFFFFFFFFFFFFFFFFFFFFFFFFFFFFFFFFFFFFFFFFFFFFFFFFFFFFFFF
310
FFFFFFFFFFFFFFFFF000FFFFFFFFFFFFFFFFFFFFFFFFFFFFFFFFFFFFFFFFFFFF
310
FFFFFFFFFFFFFFFFFFFFFFFFFFFFFFFFFFFFFFFFFFFFFFFFFFFFFFFFFFFFFFFF
310
FFFFFFFFFFFFFFFFFFFFFFFFFFFFFFFFFFFFFFFFFFFFFFFFFFFFFFFFFFFFFFFF
310
F000FFFFFFFFFFFFFFFFFFFFFFFFFFFFFFFFFFFFFFFFFFFFFFFFFFFFFFFFFFFF
310
FFFFFFFFFFFFFFFFFFFFFFFFFFFFFFFFFFFFFFFFFFFFFFFFFFFFFFFFFFFFFFFF
310
FFFFFFFFFFFFFFFFFFFFFFFFFFFFFFFFFFFFFFFFFFFFFFFFF000FFFFFFFFFFFF
310
FFFFFFFFFFFFFFFFFFFFFFFFFFFFFFFFFFFFFFFFFFFFFFFFFFFFFFFFFFFFFFFF
310
FFFFFFFFFFFFFFFFFFFFFFFFFFFFFFFFFFFFFFFFFFFFFFFFFFFFFFFFFFFFFFFF
310
FFFFFFFFFFFFFFFFFFFFFFFFFFFFFFFFF000FFFFFFFFFFFFFFFFFFFFFFFFFFFF
310
FFFFFFFFFFFFFFFFFFFFFFFFFFFFFFFFFFFFFFFFFFFFFFFFFFFFFFFFFFFFFFFF
310
FFFFFFFFFFFFFFFFFFFFFFFFFFFFFFFFFFFFFFFFFFFFFFFFFFFFFFFFFFFFFFFF
310
FFFFFFFFFFFFFFFFF000FFFFFFFFFFFFFFFFFFFFFFFFFFFFFFFFFFFFFFFFFFFF
310
FFFFFFFFFFFFFFFFFFFFFFFFFFFFFFFFFFFFFFFFFFFFFFFFFFFFFFFFFFFFFFFF
310
FFFFFFFFFFFFFFFFFFFFFFFFFFFFFFFFFFFFFFFFFFFFFFFFFFFFFFFFFFFFFFFF
310
F000FFFFFFFFFFFFFFFFFFFFFFFFFFFFFFFFFFFFFFFFFFFFFFFFFFFFFFFFFFFF
310
FFFFFFFFFFFFFFFFFFFFFFFFFFFFFFFFFFFFFFFFFFFFFFFFFFFFFFFFFFFFFFFF
310
FFFFFFFFFFFFFFFFFFFFFFFFFFFFFFFFFFFFFFFFFFFFFFFFF000FFFFFFFFFFFF
310
FFFFFFFFFFFFFFFFFFFFFFFFFFFFFFFFFFFFFFFFFFFFFFFFFFFFFFFFFFFFFFFF
310
FFFFFFFFFFFFFFFFFFFFFFFFFFFFFFFFFFFFFFFFFFFFFFFFFFFFFFFFFFFFFFFF
310
FFFFFFFFFFFFFFFFFFFFFFFFFFFFFFFFF000FFFFFFFFFFFFFFFFFFFFFFFFFFFF
310
FFFFFFFFFFFFFFFFFFFFFFFFFFFFFFFFFFFFFFFFFFFFFFFFFFFFFFFFFFFFFFFF
310
FFFFFFFFFFFFFFFFFFFFFFFFFFFFFFFFFFFFFFFFFFFFFFFFFFFFFFFFFFFFFFFF
310
FFFFFFFFFFFFFFFFF000FFFFFFFFFFFFFFFFFFFFFFFFFFFFFFFFFFFFFFFFFFFF
310
FFFFFFFFFFFFFFFFFFFFFFFFFFFFFFFFFFFFFFFFFFFFFFFFFFFFFFFFFFFFFFFF
310
FFFFFFFFFFFFFFFFFFFFFFFFFFFFFFFFFFFFFFFFFFFFFFFFFFFFFFFFFFFFFFFF
310
F000FFFFFFFFFFFFFFFFFFFFFFFFFFFFFFFFFFFFFFFFFFFFFFFFFFFFFFFFFFFF
310
FFFFFFFFFFFFFFFFFFFFFFFFFFFFFFFFFFFFFFFFFFFFFFFFFFFFFFFFFFFFFFFF
310
FFFFFFFFFFFFFFFFFFFFFFFFFFFFFFFFFFFFFFFFFFFFFFFFF000FFFFFFFFFFFF
310
FFFFFFFFFFFFFFFFFFFFFFFFFFFFFFFFFFFFFFFFFFFFFFFFFFFFFFFFFFFFFFFF
310
FFFFFFFFFFFFFFFFFFFFFFFFFFFFFFFFFFFFFFFFFFFFFFFFFFFFFFFFFFFFFFFF
310
FFFFFFFFFFFFFFFFFFFFFFFFFFFFFFFFF000FFFFFFFFFFFFFFFFFFFFFFFFFFFF
310
FFFFFFFFFFFFFFFFFFFFFFFFFFFFFFFFFFFFFFFFFFFFFFFFFFFFFFFFFFFFFFFF
310
FFFFFFFFFFFFFFFFFFFFFFFFFFFFFFFFFFFFFFFFFFFFFFFFFFFFFFFFFFFFFFFF
310
FFFFFFFFFFFFFFFFF000FFFFFFFFFFFFFFFFFFFFFFFFFFFFFFFFFFFFFFFFFFFF
310
FFFFFFFFFFFFFFFFFFFFFFFFFFFFFFFFFFFFFFFFFFFFFFFFFFFFFFFFFFFFFFFF
310
FFFFFFFFFFFFFFFFFFFFFFFFFFFFFFFFFFFFFFFFFFFFFFFFFFFFFFFFFFFFFFFF
310
F000FFFFFFFFFFFFFFFFFFFFFFFFFFFFFFFFFFFFFFFFFFFFFFFFFFFFFFFFFFFF
310
FFFFFFFFFFFFFFFFFFFFFFFFFFFFFFFFFFFFFFFFFFFFFFFFFFFFFFFFFFFFFFFF
310
FFFFFFFFFFFFFFFFFFFFFFFFFFFFFFFFFFFFFFFFFFFFFFFFF000FFFFFFFFFFFF
310
FFFFFFFFFFFFFFFFFFFFFFFFFFFFFFFFFFFFFFFFFFFFFFFFFFFFFFFFFFFFFFFF
310
FFFFFFFFFFFFFFFFFFFFFFFFFFFFFFFFFFFFFFFFFFFFFFFFFFFFFFFFFFFFFFFF
310
FFFFFFFFFFFFFFFFFFFFFFFFFFFFFFFFF0000000000000000000000000000000
310
0000000000000000000000000000000000000000000000000000000000000000
310
0000000000000000000000000000000000000000000000000000000000000000
310
0000000000000000000000000000000000000000000000000000000000000000
310
0000000000000000000000000000000000000000000000000000000000000000
310
0000000000000000000000000000000000000000000000000000000000000000
310
0000000000000000000000000000000000000000000000000000000000000000
310
0000000000000000000000000000000000000000000000000000000000000000
310
0000000000000000000000000000000000000000000000000000000000000000
310
0000000000000000000000000000000000000000000000000000000000000000
310
0000000000000000000000000000000000000000000000000000000000000000
310
0000000000000000000000000000000000000000000000000000000000000000
310
0000000000000000000000000000000000000000000000000000000000000000
310
0000000000000000000000000000000000000000000000000000000000000000
310
0000000000000000000000000000000000000000000000000000000000000000
310
0000000000000000000000000000000000000000000000000000000000000000
  1
OLE
  0
ENDSEC
  0
SECTION
  2
OBJECTS
  0
DICTIONARY
  5
C
330
0
100
AcDbDictionary
281
     1
  3
ACAD_GROUP
350
D
  3
ACAD_LAYOUT
350
1A
  3
ACAD_MLINESTYLE
350
17
  3
ACAD_PLOTSETTINGS
350
19
  3
ACAD_PLOTSTYLENAME
350
E
  0
DICTIONARY
  5
D
102
{ACAD_REACTORS
330
C
102
}
330
C
100
AcDbDictionary
281
     1
  0
DICTIONARY
  5
1A
102
{ACAD_REACTORS
330
C
102
}
330
C
100
AcDbDictionary
281
     1
  3
Layout1
350
1E
  3
Layout2
350
26
  3
Model
350
22
  0
DICTIONARY
  5
17
102
{ACAD_REACTORS
330
C
102
}
330
C
100
AcDbDictionary
281
     1
  3
Standard
350
18
  0
DICTIONARY
  5
19
102
{ACAD_REACTORS
330
C
102
}
330
C
100
AcDbDictionary
281
     1
  0
ACDBDICTIONARYWDFLT
  5
E
102
{ACAD_REACTORS
330
C
102
}
330
C
100
AcDbDictionary
281
     1
  3
Normal
350
F
100
AcDbDictionaryWithDefault
340
F
  0
LAYOUT
  5
1E
102
{ACAD_REACTORS
330
1A
102
}
330
1A
100
AcDbPlotSettings
  1

  2
none_device
  4

  6

 40
0.0
 41
0.0
 42
0.0
 43
0.0
 44
0.0
 45
0.0
 46
0.0
 47
0.0
 48
0.0
 49
0.0
140
0.0
141
0.0
142
1.0
143
1.0
 70
   688
 72
     0
 73
     0
 74
     5
  7

 75
    16
147
1.0
148
0.0
149
0.0
100
AcDbLayout
  1
Layout1
 70
     1
 71
     1
 10
0.0
 20
0.0
 11
420.0
 21
297.0
 12
0.0
 22
0.0
 32
0.0
 14
1.0000000000E+20
 24
1.0000000000E+20
 34
1.0000000000E+20
 15
-1.0000000000E+20
 25
-1.0000000000E+20
 35
-1.0000000000E+20
146
0.0
 13
0.0
 23
0.0
 33
0.0
 16
1.0
 26
0.0
 36
0.0
 17
0.0
 27
1.0
 37
0.0
 76
     0
330
1B
  0
LAYOUT
  5
26
102
{ACAD_REACTORS
330
1A
102
}
330
1A
100
AcDbPlotSettings
  1

  2
none_device
  4

  6

 40
0.0
 41
0.0
 42
0.0
 43
0.0
 44
0.0
 45
0.0
 46
0.0
 47
0.0
 48
0.0
 49
0.0
140
0.0
141
0.0
142
1.0
143
1.0
 70
   688
 72
     0
 73
     0
 74
     5
  7

 75
    16
147
1.0
148
0.0
149
0.0
100
AcDbLayout
  1
Layout2
 70
     1
 71
     2
 10
0.0
 20
0.0
 11
0.0
 21
0.0
 12
0.0
 22
0.0
 32
0.0
 14
0.0
 24
0.0
 34
0.0
 15
0.0
 25
0.0
 35
0.0
146
0.0
 13
0.0
 23
0.0
 33
0.0
 16
1.0
 26
0.0
 36
0.0
 17
0.0
 27
1.0
 37
0.0
 76
     0
330
23
  0
LAYOUT
  5
22
102
{ACAD_REACTORS
330
1A
102
}
330
1A
100
AcDbPlotSettings
  1

  2
none_device
  4

  6

 40
0.0
 41
0.0
 42
0.0
 43
0.0
 44
0.0
 45
0.0
 46
0.0
 47
0.0
 48
0.0
 49
0.0
140
0.0
141
0.0
142
1.0
143
1.0
 70
  1712
 72
     0
 73
     0
 74
     0
  7

 75
     0
147
1.0
148
0.0
149
0.0
100
AcDbLayout
  1
Model
 70
     1
 71
     0
 10
0.0
 20
0.0
 11
297.0
 21
210.0
 12
0.0
 22
0.0
 32
0.0
 14
0.0
 24
0.0
 34
0.0
 15
297.0
 25
210.0
 35
0.0
146
0.0
 13
0.0
 23
0.0
 33
0.0
 16
1.0
 26
0.0
 36
0.0
 17
0.0
 27
1.0
 37
0.0
 76
     0
330
1F
331
29
  0
MLINESTYLE
  5
18
102
{ACAD_REACTORS
330
17
102
}
330
17
100
AcDbMlineStyle
  2
Standard
 70
     0
  3

 62
   256
 51
90.0
 52
90.0
 71
     2
 49
0.5
 62
   256
  6
BYLAYER
 49
-0.5
 62
   256
  6
BYLAYER
  0
ACDBPLACEHOLDER
  5
F
102
{ACAD_REACTORS
330
E
102
}
330
E
  0
ENDSEC
  0
EOF
