  0
SECTION
  2
HEADER
  9
$ACADVER
  1
AC1015
  9
$ACADMAINTVER
 70
     6
  9
$DWGCODEPAGE
  3
ANSI_1252
  9
$INSBASE
 10
0.0
 20
0.0
 30
0.0
  9
$EXTMIN
 10
0.0
 20
0.0
 30
0.0
  9
$EXTMAX
 10
297.0
 20
210.0
 30
0.0
  9
$LIMMIN
 10
0.0
 20
0.0
  9
$LIMMAX
 10
297.0
 20
210.0
  9
$ORTHOMODE
 70
     0
  9
$REGENMODE
 70
     1
  9
$FILLMODE
 70
     1
  9
$QTEXTMODE
 70
     0
  9
$MIRRTEXT
 70
     1
  9
$LTSCALE
 40
1.0
  9
$ATTMODE
 70
     1
  9
$TEXTSIZE
 40
2.0
  9
$TRACEWID
 40
1.0
  9
$TEXTSTYLE
  7
Standard
  9
$CLAYER
  8
0
  9
$CELTYPE
  6
ByLayer
  9
$CECOLOR
 62
   256
  9
$CELTSCALE
 40
1.0
  9
$DISPSILH
 70
     0
  9
$DIMSCALE
 40
1.0
  9
$DIMASZ
 40
3.0
  9
$DIMEXO
 40
0.0
  9
$DIMDLI
 40
3.75
  9
$DIMRND
 40
0.0
  9
$DIMDLE
 40
0.0
  9
$DIMEXE
 40
1.0
  9
$DIMTP
 40
0.0
  9
$DIMTM
 40
0.0
  9
$DIMTXT
 40
2.0
  9
$DIMCEN
 40
2.5
  9
$DIMTSZ
 40
0.0
  9
$DIMTOL
 70
     0
  9
$DIMLIM
 70
     0
  9
$DIMTIH
 70
     1
  9
$DIMTOH
 70
     1
  9
$DIMSE1
 70
     0
  9
$DIMSE2
 70
     0
  9
$DIMTAD
 70
     1
  9
$DIMZIN
 70
     0
  9
$DIMBLK
  1

  9
$DIMASO
 70
     1
  9
$DIMSHO
 70
     1
  9
$DIMPOST
  1

  9
$DIMAPOST
  1

  9
$DIMALT
 70
     0
  9
$DIMALTD
 70
     3
  9
$DIMALTF
 40
0.0393700787
  9
$DIMLFAC
 40
1.0
  9
$DIMTOFL
 70
     1
  9
$DIMTVP
 40
0.0
  9
$DIMTIX
 70
     0
  9
$DIMSOXD
 70
     0
  9
$DIMSAH
 70
     0
  9
$DIMBLK1
  1

  9
$DIMBLK2
  1

  9
$DIMSTYLE
  2
ISO-25
  9
$DIMCLRD
 70
     0
  9
$DIMCLRE
 70
     0
  9
$DIMCLRT
 70
     0
  9
$DIMTFAC
 40
1.0
  9
$DIMGAP
 40
1.524
  9
$DIMJUST
 70
     0
  9
$DIMSD1
 70
     0
  9
$DIMSD2
 70
     0
  9
$DIMTOLJ
 70
     0
  9
$DIMTZIN
 70
     0
  9
$DIMALTZ
 70
     0
  9
$DIMALTTZ
 70
     0
  9
$DIMUPT
 70
     0
  9
$DIMDEC
 70
     2
  9
$DIMTDEC
 70
     3
  9
$DIMALTU
 70
     2
  9
$DIMALTTD
 70
     3
  9
$DIMTXSTY
  7
Standard
  9
$DIMAUNIT
 70
     0
  9
$DIMADEC
 70
     2
  9
$DIMALTRND
 40
0.0
  9
$DIMAZIN
 70
     0
  9
$DIMDSEP
 70
    44
  9
$DIMATFIT
 70
     3
  9
$DIMFRAC
 70
     0
  9
$DIMLDRBLK
  1

  9
$DIMLUNIT
 70
     2
  9
$DIMLWD
 70
    -2
  9
$DIMLWE
 70
    -2
  9
$DIMTMOVE
 70
     0
  9
$LUNITS
 70
     2
  9
$LUPREC
 70
     2
  9
$SKETCHINC
 40
1.0
  9
$FILLETRAD
 40
10.0
  9
$AUNITS
 70
     0
  9
$AUPREC
 70
     2
  9
$MENU
  1
.
  9
$ELEVATION
 40
0.0
  9
$PELEVATION
 40
0.0
  9
$THICKNESS
 40
0.0
  9
$LIMCHECK
 70
     0
  9
$CHAMFERA
 40
0.0
  9
$CHAMFERB
 40
0.0
  9
$CHAMFERC
 40
0.0
  9
$CHAMFERD
 40
0.0
  9
$SKPOLY
 70
     0
  9
$TDCREATE
 40
2457883.480797778
  9
$TDUCREATE
 40
2457883.397464444
  9
$TDUPDATE
 40
2457883.480799236
  9
$TDUUPDATE
 40
2457883.397465903
  9
$TDINDWG
 40
0.0000000116
  9
$TDUSRTIMER
 40
0.0000000116
  9
$USRTIMER
 70
     1
  9
$ANGBASE
 50
0.0
  9
$ANGDIR
 70
     0
  9
$PDMODE
 70
     0
  9
$PDSIZE
 40
-1.0
  9
$PLINEWID
 40
0.0
  9
$SPLFRAME
 70
     0
  9
$SPLINETYPE
 70
     6
  9
$SPLINESEGS
 70
     8
  9
$HANDSEED
  5
31F
  9
$SURFTAB1
 70
     6
  9
$SURFTAB2
 70
     6
  9
$SURFTYPE
 70
     6
  9
$SURFU
 70
     6
  9
$SURFV
 70
     6
  9
$UCSBASE
  2

  9
$UCSNAME
  2

  9
$UCSORG
 10
0.0
 20
0.0
 30
0.0
  9
$UCSXDIR
 10
1.0
 20
0.0
 30
0.0
  9
$UCSYDIR
 10
0.0
 20
1.0
 30
0.0
  9
$UCSORTHOREF
  2

  9
$UCSORTHOVIEW
 70
     0
  9
$UCSORGTOP
 10
0.0
 20
0.0
 30
0.0
  9
$UCSORGBOTTOM
 10
0.0
 20
0.0
 30
0.0
  9
$UCSORGLEFT
 10
0.0
 20
0.0
 30
0.0
  9
$UCSORGRIGHT
 10
0.0
 20
0.0
 30
0.0
  9
$UCSORGFRONT
 10
0.0
 20
0.0
 30
0.0
  9
$UCSORGBACK
 10
0.0
 20
0.0
 30
0.0
  9
$PUCSBASE
  2

  9
$PUCSNAME
  2

  9
$PUCSORG
 10
0.0
 20
0.0
 30
0.0
  9
$PUCSXDIR
 10
1.0
 20
0.0
 30
0.0
  9
$PUCSYDIR
 10
0.0
 20
1.0
 30
0.0
  9
$PUCSORTHOREF
  2

  9
$PUCSORTHOVIEW
 70
     0
  9
$PUCSORGTOP
 10
0.0
 20
0.0
 30
0.0
  9
$PUCSORGBOTTOM
 10
0.0
 20
0.0
 30
0.0
  9
$PUCSORGLEFT
 10
0.0
 20
0.0
 30
0.0
  9
$PUCSORGRIGHT
 10
0.0
 20
0.0
 30
0.0
  9
$PUCSORGFRONT
 10
0.0
 20
0.0
 30
0.0
  9
$PUCSORGBACK
 10
0.0
 20
0.0
 30
0.0
  9
$USERI1
 70
     0
  9
$USERI2
 70
     0
  9
$USERI3
 70
     0
  9
$USERI4
 70
     0
  9
$USERI5
 70
     0
  9
$USERR1
 40
0.0
  9
$USERR2
 40
0.0
  9
$USERR3
 40
0.0
  9
$USERR4
 40
0.0
  9
$USERR5
 40
0.0
  9
$WORLDVIEW
 70
     1
  9
$SHADEDGE
 70
     3
  9
$SHADEDIF
 70
    70
  9
$TILEMODE
 70
     1
  9
$MAXACTVP
 70
    64
  9
$PINSBASE
 10
0.0
 20
0.0
 30
0.0
  9
$PLIMCHECK
 70
     0
  9
$PEXTMIN
 10
1.0000000000E+20
 20
1.0000000000E+20
 30
1.0000000000E+20
  9
$PEXTMAX
 10
-1.0000000000E+20
 20
-1.0000000000E+20
 30
-1.0000000000E+20
  9
$PLIMMIN
 10
0.0
 20
0.0
  9
$PLIMMAX
 10
420.0
 20
297.0
  9
$UNITMODE
 70
     0
  9
$VISRETAIN
 70
     1
  9
$PLINEGEN
 70
     0
  9
$PSLTSCALE
 70
     1
  9
$TREEDEPTH
 70
  3020
  9
$CMLSTYLE
  2
Standard
  9
$CMLJUST
 70
     0
  9
$CMLSCALE
 40
20.0
  9
$PROXYGRAPHICS
 70
     1
  9
$MEASUREMENT
 70
     1
  9
$CELWEIGHT
370
    -1
  9
$ENDCAPS
280
     0
  9
$JOINSTYLE
280
     0
  9
$LWDISPLAY
290
     1
  9
$INSUNITS
 70
     4
  9
$HYPERLINKBASE
  1

  9
$STYLESHEET
  1

  9
$XEDIT
290
     1
  9
$CEPSNTYPE
380
     0
  9
$PSTYLEMODE
290
     1
  9
$FINGERPRINTGUID
  2
{8BD9B547-1392-40FA-840F-90F5C6186C28}
  9
$VERSIONGUID
  2
{FAEB1C32-E019-11D5-929B-00C0DF256EC4}
  9
$EXTNAMES
290
     1
  9
$PSVPSCALE
 40
0.0
  9
$OLESTARTUP
290
     0
  0
ENDSEC
  0
SECTION
  2
CLASSES
  0
CLASS
  1
ACDBDICTIONARYWDFLT
  2
AcDbDictionaryWithDefault
  3
ObjectDBX Classes
 90
        0
280
     0
281
     0
  0
CLASS
  1
VISUALSTYLE
  2
AcDbVisualStyle
  3
ObjectDBX Classes
 90
     4095
280
     0
281
     0
  0
CLASS
  1
MATERIAL
  2
AcDbMaterial
  3
ObjectDBX Classes
 90
     1153
280
     0
281
     0
  0
CLASS
  1
SCALE
  2
AcDbScale
  3
ObjectDBX Classes
 90
     1153
280
     0
281
     0
  0
CLASS
  1
TABLESTYLE
  2
AcDbTableStyle
  3
ObjectDBX Classes
 90
     4095
280
     0
281
     0
  0
CLASS
  1
MLEADERSTYLE
  2
AcDbMLeaderStyle
  3
ACDB_MLEADERSTYLE_CLASS
 90
     4095
280
     0
281
     0
  0
CLASS
  1
SUN
  2
AcDbSun
  3
SCENEOE
 90
     1153
280
     0
281
     0
  0
CLASS
  1
ACDBPLACEHOLDER
  2
AcDbPlaceHolder
  3
ObjectDBX Classes
 90
        0
280
     0
281
     0
  0
CLASS
  1
LAYOUT
  2
AcDbLayout
  3
ObjectDBX Classes
 90
        0
280
     0
281
     0
  0
ENDSEC
  0
SECTION
  2
TABLES
  0
TABLE
  2
VPORT
  5
8
330
0
100
AcDbSymbolTable
 70
     1
  0
VPORT
  5
29
330
8
100
AcDbSymbolTableRecord
100
AcDbViewportTableRecord
  2
*Active
 70
     0
 10
0.0
 20
0.0
 11
1.0
 21
1.0
 12
148.5
 22
105.0
 13
0.0
 23
0.0
 14
10.0
 24
10.0
 15
10.0
 25
10.0
 16
0.0
 26
0.0
 36
1.0
 17
0.0
 27
0.0
 37
0.0
 40
210.0
 41
1.4142857143
 42
50.0
 43
0.0
 44
0.0
 50
0.0
 51
0.0
 71
     0
 72
  2000
 73
     1
 74
     3
 75
     0
 76
     0
 77
     0
 78
     0
281
     0
 65
     1
110
0.0
120
0.0
130
0.0
111
1.0
121
0.0
131
0.0
112
0.0
122
1.0
132
0.0
 79
     0
146
0.0
  0
ENDTAB
  0
TABLE
  2
LTYPE
  5
5
330
0
100
AcDbSymbolTable
 70
     6
  0
LTYPE
  5
14
330
5
100
AcDbSymbolTableRecord
100
AcDbLinetypeTableRecord
  2
ByBlock
 70
     0
  3

 72
    65
 73
     0
 40
0.0
  0
LTYPE
  5
15
330
5
100
AcDbSymbolTableRecord
100
AcDbLinetypeTableRecord
  2
ByLayer
 70
     0
  3

 72
    65
 73
     0
 40
0.0
  0
LTYPE
  5
16
330
5
100
AcDbSymbolTableRecord
100
AcDbLinetypeTableRecord
  2
Continuous
 70
     0
  3
Solid line
 72
    65
 73
     0
 40
0.0
  0
LTYPE
  5
6E
330
5
100
AcDbSymbolTableRecord
100
AcDbLinetypeTableRecord
  2
HIDDEN
 70
     0
  3
Hidden __ __ __ __ __ __ __ __ __ __ __ __ __ __
 72
    65
 73
     2
 40
1.905
 49
1.27
 74
     0
 49
-0.635
 74
     0
  0
LTYPE
  5
6F
330
5
100
AcDbSymbolTableRecord
100
AcDbLinetypeTableRecord
  2
PHANTOM
 70
     0
  3
Phantom ______  __  __  ______  __  __  ______
 72
    65
 73
     6
 40
12.7
 49
6.35
 74
     0
 49
-1.27
 74
     0
 49
1.27
 74
     0
 49
-1.27
 74
     0
 49
1.27
 74
     0
 49
-1.27
 74
     0
  0
LTYPE
  5
70
330
5
100
AcDbSymbolTableRecord
100
AcDbLinetypeTableRecord
  2
CENTER
 70
     0
  3
Center ____ _ ____ _ ____ _ ____ _ ____ _ ____
 72
    65
 73
     4
 40
10.16
 49
6.35
 74
     0
 49
-1.27
 74
     0
 49
1.27
 74
     0
 49
-1.27
 74
     0
  0
LTYPE
  5
71
330
5
100
AcDbSymbolTableRecord
100
AcDbLinetypeTableRecord
  2
CENTERX2
 70
     0
  3
Center (2x) ________  __  ________  __  _____
 72
    65
 73
     4
 40
20.32
 49
12.7
 74
     0
 49
-2.54
 74
     0
 49
2.54
 74
     0
 49
-2.54
 74
     0
  0
LTYPE
  5
72
330
5
100
AcDbSymbolTableRecord
100
AcDbLinetypeTableRecord
  2
DOT2
 70
     0
  3
Dot (.5x) ........................................
 72
    65
 73
     2
 40
0.635
 49
0.0
 74
     0
 49
-0.635
 74
     0
  0
ENDTAB
  0
TABLE
  2
LAYER
  5
2
330
0
100
AcDbSymbolTable
 70
     5
  0
LAYER
  5
10
330
2
100
AcDbSymbolTableRecord
100
AcDbLayerTableRecord
  2
0
 70
     0
 62
     7
  6
Continuous
370
    -3
390
F
  0
LAYER
  5
73
330
2
100
AcDbSymbolTableRecord
100
AcDbLayerTableRecord
  2
FORMAT
 70
     0
 62
     7
  6
Continuous
370
    -3
390
F
  0
LAYER
  5
74
330
2
100
AcDbSymbolTableRecord
100
AcDbLayerTableRecord
  2
VERMASSUNG
 70
     0
 62
     7
  6
Continuous
370
    -3
390
F
  0
LAYER
  5
75
330
2
100
AcDbSymbolTableRecord
100
AcDbLayerTableRecord
  2
KOPF_DÜNN
 70
     0
 62
     7
  6
Continuous
370
    -3
390
F
  0
LAYER
  5
76
330
2
100
AcDbSymbolTableRecord
100
AcDbLayerTableRecord
  2
KOPF_DICK
 70
     0
 62
     7
  6
Continuous
370
    15
390
F
  0
ENDTAB
  0
TABLE
  2
STYLE
  5
3
330
0
100
AcDbSymbolTable
 70
     2
  0
STYLE
  5
11
330
3
100
AcDbSymbolTableRecord
100
AcDbTextStyleTableRecord
  2
Standard
 70
     0
 40
0.0
 41
1.0
 50
0.0
 71
     0
 42
2.0
  3
txt
  4

  0
STYLE
  5
77
330
3
100
AcDbSymbolTableRecord
100
AcDbTextStyleTableRecord
  2
SLDTEXTSTYLE0
 70
     0
 40
0.0
 41
0.7
 50
0.0
 71
     0
 42
2.0
  3
TXT
  4

  0
ENDTAB
  0
TABLE
  2
VIEW
  5
6
330
0
100
AcDbSymbolTable
 70
     0
  0
ENDTAB
  0
TABLE
  2
UCS
  5
7
330
0
100
AcDbSymbolTable
 70
     0
  0
ENDTAB
  0
TABLE
  2
APPID
  5
9
330
0
100
AcDbSymbolTable
 70
     1
  0
APPID
  5
12
330
9
100
AcDbSymbolTableRecord
100
AcDbRegAppTableRecord
  2
ACAD
 70
     0
  0
ENDTAB
  0
TABLE
  2
DIMSTYLE
  5
A
330
0
100
AcDbSymbolTable
 70
     4
100
AcDbDimStyleTable
  0
DIMSTYLE
105
27
330
A
100
AcDbSymbolTableRecord
100
AcDbDimStyleTableRecord
  2
ISO-25
 70
     0
 41
2.5
 42
0.625
 43
3.75
 44
1.25
 73
     0
 74
     0
 77
     1
 78
     8
140
2.5
141
2.5
143
0.0393700787
147
0.625
171
     3
172
     1
178
     0
271
     2
272
     2
274
     3
278
    44
283
     0
284
     8
340
11
  0
DIMSTYLE
105
17E
102
{ACAD_REACTORS
330
17D
330
195
330
19F
330
1A9
330
2B2
330
2BC
102
}
330
A
100
AcDbSymbolTableRecord
100
AcDbDimStyleTableRecord
  2
SLDDIMSTYLE0
 70
     0
 41
3.0
 44
0.0
 45
0.000000001
 73
     0
 74
     0
 77
     1
 78
    12
 79
     3
140
2.0
147
0.5
173
     1
178
     0
271
     2
272
     3
276
     2
284
    12
340
77
  0
DIMSTYLE
105
189
102
{ACAD_REACTORS
330
188
102
}
330
A
100
AcDbSymbolTableRecord
100
AcDbDimStyleTableRecord
  2
SLDDIMSTYLE1
 70
     0
 41
3.0
 44
0.0
 45
0.000000001
 73
     0
 74
     0
 77
     1
 78
    12
 79
     3
140
2.0
147
0.5
172
     1
173
     1
178
     0
271
     2
272
     3
276
     2
284
    12
289
     0
340
77
  0
DIMSTYLE
105
309
102
{ACAD_REACTORS
330
308
102
}
330
A
100
AcDbSymbolTableRecord
100
AcDbDimStyleTableRecord
  2
SLDDIMSTYLE2
 70
     0
 41
3.0
 44
0.0
 45
0.000000001
 73
     0
 74
     0
 77
     1
 78
    12
 79
     3
140
2.0
141
0.0
147
0.5
173
     1
178
     0
271
     2
272
     3
276
     2
284
    12
340
77
  0
ENDTAB
  0
TABLE
  2
BLOCK_RECORD
  5
1
330
0
100
AcDbSymbolTable
 70
    13
  0
BLOCK_RECORD
  5
1F
330
1
100
AcDbSymbolTableRecord
100
AcDbBlockTableRecord
  2
*Model_Space
340
22
  0
BLOCK_RECORD
  5
1B
330
1
100
AcDbSymbolTableRecord
100
AcDbBlockTableRecord
  2
*Paper_Space
340
1E
  0
BLOCK_RECORD
  5
23
330
1
100
AcDbSymbolTableRecord
100
AcDbBlockTableRecord
  2
*Paper_Space0
340
26
  0
BLOCK_RECORD
  5
17F
330
1
100
AcDbSymbolTableRecord
100
AcDbBlockTableRecord
  2
_D
340
0
  0
BLOCK_RECORD
  5
18A
330
1
100
AcDbSymbolTableRecord
100
AcDbBlockTableRecord
  2
_D_1
340
0
  0
BLOCK_RECORD
  5
196
330
1
100
AcDbSymbolTableRecord
100
AcDbBlockTableRecord
  2
_D_2
340
0
  0
BLOCK_RECORD
  5
1A0
330
1
100
AcDbSymbolTableRecord
100
AcDbBlockTableRecord
  2
_D_3
340
0
  0
BLOCK_RECORD
  5
1AA
330
1
100
AcDbSymbolTableRecord
100
AcDbBlockTableRecord
  2
_D_4
340
0
  0
BLOCK_RECORD
  5
2B3
330
1
100
AcDbSymbolTableRecord
100
AcDbBlockTableRecord
  2
_D_5
340
0
  0
BLOCK_RECORD
  5
2BD
330
1
100
AcDbSymbolTableRecord
100
AcDbBlockTableRecord
  2
_D_6
340
0
  0
BLOCK_RECORD
  5
2C6
330
1
100
AcDbSymbolTableRecord
100
AcDbBlockTableRecord
  2
SW_CENTERMARKSYMBOL_0
340
0
102
{BLKREFS
331
2D1
102
}
  0
BLOCK_RECORD
  5
2D2
330
1
100
AcDbSymbolTableRecord
100
AcDbBlockTableRecord
  2
SW_CENTERMARKSYMBOL_1
340
0
102
{BLKREFS
331
2DD
102
}
  0
BLOCK_RECORD
  5
2DE
330
1
100
AcDbSymbolTableRecord
100
AcDbBlockTableRecord
  2
SW_CENTERMARKSYMBOL_2
340
0
102
{BLKREFS
331
2E9
102
}
  0
BLOCK_RECORD
  5
30A
330
1
100
AcDbSymbolTableRecord
100
AcDbBlockTableRecord
  2
_D_7
340
0
  0
BLOCK_RECORD
  5
312
330
1
100
AcDbSymbolTableRecord
100
AcDbBlockTableRecord
  2
SW_CENTERMARKSYMBOL_3
340
0
102
{BLKREFS
331
31D
102
}
  0
ENDTAB
  0
ENDSEC
  0
SECTION
  2
BLOCKS
  0
BLOCK
  5
20
330
1F
100
AcDbEntity
  8
0
100
AcDbBlockBegin
  2
*Model_Space
 70
     0
 10
0.0
 20
0.0
 30
0.0
  3
*Model_Space
  1

  0
ENDBLK
  5
21
330
1F
100
AcDbEntity
  8
0
100
AcDbBlockEnd
  0
BLOCK
  5
1C
330
1B
100
AcDbEntity
 67
     1
  8
0
100
AcDbBlockBegin
  2
*Paper_Space
 70
     0
 10
0.0
 20
0.0
 30
0.0
  3
*Paper_Space
  1

  0
ENDBLK
  5
1D
330
1B
100
AcDbEntity
 67
     1
  8
0
100
AcDbBlockEnd
  0
BLOCK
  5
24
330
23
100
AcDbEntity
  8
0
100
AcDbBlockBegin
  2
*Paper_Space0
 70
     0
 10
0.0
 20
0.0
 30
0.0
  3
*Paper_Space0
  1

  0
ENDBLK
  5
25
330
23
100
AcDbEntity
  8
0
100
AcDbBlockEnd
  0
BLOCK
  5
180
330
17F
100
AcDbEntity
  8
0
100
AcDbBlockBegin
  2
_D
 70
     0
 10
0.0
 20
0.0
 30
0.0
  3
_D
  1

  0
SOLID
  5
182
330
17F
100
AcDbEntity
  8
VERMASSUNG
100
AcDbTrace
 10
266.9864163085
 20
188.3173081997
 30
0.0
 11
266.5364163085
 21
185.3173081997
 31
0.0
 12
267.4364163085
 22
185.3173081997
 32
0.0
 13
267.4364163085
 23
185.3173081997
 33
0.0
  0
SOLID
  5
183
330
17F
100
AcDbEntity
  8
VERMASSUNG
100
AcDbTrace
 10
266.9864163085
 20
168.3173081997
 30
0.0
 11
267.4364163085
 21
171.3173081997
 31
0.0
 12
266.5364163085
 22
171.3173081997
 32
0.0
 13
266.5364163085
 23
171.3173081997
 33
0.0
  0
LINE
  5
184
330
17F
100
AcDbEntity
  8
VERMASSUNG
100
AcDbLine
 10
253.3893234082
 20
188.3173081997
 30
0.0
 11
267.9864163085
 21
188.3173081997
 31
0.0
  0
LINE
  5
185
330
17F
100
AcDbEntity
  8
VERMASSUNG
100
AcDbLine
 10
256.461687406
 20
168.3173081997
 30
0.0
 11
267.9864163085
 21
168.3173081997
 31
0.0
  0
LINE
  5
186
330
17F
100
AcDbEntity
  8
VERMASSUNG
100
AcDbLine
 10
266.9864163085
 20
188.3173081997
 30
0.0
 11
266.9864163085
 21
168.3173081997
 31
0.0
  0
MTEXT
  5
187
330
17F
100
AcDbEntity
  8
VERMASSUNG
100
AcDbMText
 10
264.4082807125
 20
176.9173082497
 30
0.0
 40
2.0
 41
0.0
 71
     1
 72
     1
  1
20
  7
SLDTEXTSTYLE0
 11
-7.044195017643634E-15
 21
1.0
 31
0.0
 73
     1
 44
1.0
  0
ENDBLK
  5
181
330
17F
100
AcDbEntity
  8
0
100
AcDbBlockEnd
  0
BLOCK
  5
18B
330
18A
100
AcDbEntity
  8
0
100
AcDbBlockBegin
  2
_D_1
 70
     0
 10
0.0
 20
0.0
 30
0.0
  3
_D_1
  1

  0
SOLID
  5
18D
330
18A
100
AcDbEntity
  8
VERMASSUNG
100
AcDbTrace
 10
260.7030549445
 20
168.3173081997
 30
0.0
 11
260.2530549445
 21
165.3173081997
 31
0.0
 12
261.1530549445
 22
165.3173081997
 32
0.0
 13
261.1530549445
 23
165.3173081997
 33
0.0
  0
SOLID
  5
18E
330
18A
100
AcDbEntity
  8
VERMASSUNG
100
AcDbTrace
 10
260.7030549445
 20
169.3173081997
 30
0.0
 11
261.1530549445
 21
172.3173081997
 31
0.0
 12
260.2530549445
 22
172.3173081997
 32
0.0
 13
260.2530549445
 23
172.3173081997
 33
0.0
  0
LINE
  5
18F
330
18A
100
AcDbEntity
  8
VERMASSUNG
100
AcDbLine
 10
256.461687406
 20
168.3173081997
 30
0.0
 11
261.7030549445
 21
168.3173081997
 31
0.0
  0
LINE
  5
190
330
18A
100
AcDbEntity
  8
VERMASSUNG
100
AcDbLine
 10
253.3893234082
 20
169.3173081997
 30
0.0
 11
261.7030549445
 21
169.3173081997
 31
0.0
  0
LINE
  5
191
330
18A
100
AcDbEntity
  8
VERMASSUNG
100
AcDbLine
 10
260.7030549445
 20
168.3173081997
 30
0.0
 11
260.7030549445
 21
162.3173081997
 31
0.0
  0
LINE
  5
192
330
18A
100
AcDbEntity
  8
VERMASSUNG
100
AcDbLine
 10
260.7030549445
 20
168.3173081997
 30
0.0
 11
260.7030549445
 21
169.3173081997
 31
0.0
  0
LINE
  5
193
330
18A
100
AcDbEntity
  8
VERMASSUNG
100
AcDbLine
 10
260.7030549445
 20
169.3173081997
 30
0.0
 11
260.7030549445
 21
176.4905613953
 31
0.0
  0
MTEXT
  5
194
330
18A
100
AcDbEntity
  8
VERMASSUNG
100
AcDbMText
 10
258.1249193485
 20
175.4905613478
 30
0.0
 40
2.0
 41
0.0
 71
     1
 72
     1
  1
1
  7
SLDTEXTSTYLE0
 11
6.123233995736766E-17
 21
1.0
 31
0.0
 73
     1
 44
1.0
  0
ENDBLK
  5
18C
330
18A
100
AcDbEntity
  8
0
100
AcDbBlockEnd
  0
BLOCK
  5
197
330
196
100
AcDbEntity
  8
0
100
AcDbBlockBegin
  2
_D_2
 70
     0
 10
0.0
 20
0.0
 30
0.0
  3
_D_2
  1

  0
SOLID
  5
199
330
196
100
AcDbEntity
  8
VERMASSUNG
100
AcDbTrace
 10
260.7030549445
 20
168.3173081997
 30
0.0
 11
260.2530549445
 21
165.3173081997
 31
0.0
 12
261.1530549445
 22
165.3173081997
 32
0.0
 13
261.1530549445
 23
165.3173081997
 33
0.0
  0
SOLID
  5
19A
330
196
100
AcDbEntity
  8
VERMASSUNG
100
AcDbTrace
 10
260.7030549445
 20
143.3173081997
 30
0.0
 11
261.1530549445
 21
146.3173081997
 31
0.0
 12
260.2530549445
 22
146.3173081997
 32
0.0
 13
260.2530549445
 23
146.3173081997
 33
0.0
  0
LINE
  5
19B
330
196
100
AcDbEntity
  8
VERMASSUNG
100
AcDbLine
 10
256.461687406
 20
168.3173081997
 30
0.0
 11
261.7030549445
 21
168.3173081997
 31
0.0
  0
LINE
  5
19C
330
196
100
AcDbEntity
  8
VERMASSUNG
100
AcDbLine
 10
253.3893234082
 20
143.3173081997
 30
0.0
 11
261.7030549445
 21
143.3173081997
 31
0.0
  0
LINE
  5
19D
330
196
100
AcDbEntity
  8
VERMASSUNG
100
AcDbLine
 10
260.7030549445
 20
168.3173081997
 30
0.0
 11
260.7030549445
 21
143.3173081997
 31
0.0
  0
MTEXT
  5
19E
330
196
100
AcDbEntity
  8
VERMASSUNG
100
AcDbMText
 10
258.1249193485
 20
154.4173082497
 30
0.0
 40
2.0
 41
0.0
 71
     1
 72
     1
  1
25
  7
SLDTEXTSTYLE0
 11
-7.044195017643634E-15
 21
1.0
 31
0.0
 73
     1
 44
1.0
  0
ENDBLK
  5
198
330
196
100
AcDbEntity
  8
0
100
AcDbBlockEnd
  0
BLOCK
  5
1A1
330
1A0
100
AcDbEntity
  8
0
100
AcDbBlockBegin
  2
_D_3
 70
     0
 10
0.0
 20
0.0
 30
0.0
  3
_D_3
  1

  0
SOLID
  5
1A3
330
1A0
100
AcDbEntity
  8
VERMASSUNG
100
AcDbTrace
 10
266.9864163085
 20
168.3173081997
 30
0.0
 11
266.5364163085
 21
165.3173081997
 31
0.0
 12
267.4364163085
 22
165.3173081997
 32
0.0
 13
267.4364163085
 23
165.3173081997
 33
0.0
  0
SOLID
  5
1A4
330
1A0
100
AcDbEntity
  8
VERMASSUNG
100
AcDbTrace
 10
266.9864163085
 20
128.3173081997
 30
0.0
 11
267.4364163085
 21
131.3173081997
 31
0.0
 12
266.5364163085
 22
131.3173081997
 32
0.0
 13
266.5364163085
 23
131.3173081997
 33
0.0
  0
LINE
  5
1A5
330
1A0
100
AcDbEntity
  8
VERMASSUNG
100
AcDbLine
 10
256.461687406
 20
168.3173081997
 30
0.0
 11
267.9864163085
 21
168.3173081997
 31
0.0
  0
LINE
  5
1A6
330
1A0
100
AcDbEntity
  8
VERMASSUNG
100
AcDbLine
 10
253.3893234082
 20
128.3173081997
 30
0.0
 11
267.9864163085
 21
128.3173081997
 31
0.0
  0
LINE
  5
1A7
330
1A0
100
AcDbEntity
  8
VERMASSUNG
100
AcDbLine
 10
266.9864163085
 20
168.3173081997
 30
0.0
 11
266.9864163085
 21
128.3173081997
 31
0.0
  0
MTEXT
  5
1A8
330
1A0
100
AcDbEntity
  8
VERMASSUNG
100
AcDbMText
 10
264.4082807125
 20
146.8173081867
 30
0.0
 40
2.0
 41
0.0
 71
     1
 72
     1
  1
40
  7
SLDTEXTSTYLE0
 11
-7.044195017643634E-15
 21
1.0
 31
0.0
 73
     1
 44
1.0
  0
ENDBLK
  5
1A2
330
1A0
100
AcDbEntity
  8
0
100
AcDbBlockEnd
  0
BLOCK
  5
1AB
330
1AA
100
AcDbEntity
  8
0
100
AcDbBlockBegin
  2
_D_4
 70
     0
 10
0.0
 20
0.0
 30
0.0
  3
_D_4
  1

  0
SOLID
  5
1AD
330
1AA
100
AcDbEntity
  8
VERMASSUNG
100
AcDbTrace
 10
155.3893234082
 20
193.3173081997
 30
0.0
 11
154.9393234082
 21
190.3173081997
 31
0.0
 12
155.8393234082
 22
190.3173081997
 32
0.0
 13
155.8393234082
 23
190.3173081997
 33
0.0
  0
SOLID
  5
1AE
330
1AA
100
AcDbEntity
  8
VERMASSUNG
100
AcDbTrace
 10
155.3893234082
 20
143.3173081997
 30
0.0
 11
155.8393234082
 21
146.3173081997
 31
0.0
 12
154.9393234082
 22
146.3173081997
 32
0.0
 13
154.9393234082
 23
146.3173081997
 33
0.0
  0
LINE
  5
1AF
330
1AA
100
AcDbEntity
  8
VERMASSUNG
100
AcDbLine
 10
195.6893234082
 20
193.3173081997
 30
0.0
 11
154.3893234082
 21
193.3173081997
 31
0.0
  0
LINE
  5
1B0
330
1AA
100
AcDbEntity
  8
VERMASSUNG
100
AcDbLine
 10
195.6893234082
 20
143.3173081997
 30
0.0
 11
154.3893234082
 21
143.3173081997
 31
0.0
  0
LINE
  5
1B1
330
1AA
100
AcDbEntity
  8
VERMASSUNG
100
AcDbLine
 10
155.3893234082
 20
193.3173081997
 30
0.0
 11
155.3893234082
 21
143.3173081997
 31
0.0
  0
MTEXT
  5
1B2
330
1AA
100
AcDbEntity
  8
VERMASSUNG
100
AcDbMText
 10
152.611188152
 20
162.81230889
 30
0.0
 40
2.0
 41
0.0
 71
     1
 72
     1
  1
PSC
  7
SLDTEXTSTYLE0
 11
-7.044195017643634E-15
 21
1.0
 31
0.0
 73
     1
 44
1.0
  0
MTEXT
  5
1B3
330
1AA
100
AcDbEntity
  8
VERMASSUNG
100
AcDbMText
 10
152.8111881033
 20
167.4123085264
 30
0.0
 40
2.0
 41
0.0
 71
     1
 72
     1
  1
%%c
  7
SLDTEXTSTYLE0
 11
-7.044195017643634E-15
 21
1.0
 31
0.0
 73
     1
 44
1.0
  0
MTEXT
  5
1B4
330
1AA
100
AcDbEntity
  8
VERMASSUNG
100
AcDbMText
 10
152.611188152
 20
171.0223085407
 30
0.0
 40
2.0
 41
0.0
 71
     1
 72
     1
  1
50
  7
SLDTEXTSTYLE0
 11
-7.044195017643634E-15
 21
1.0
 31
0.0
 73
     1
 44
1.0
  0
ENDBLK
  5
1AC
330
1AA
100
AcDbEntity
  8
0
100
AcDbBlockEnd
  0
BLOCK
  5
2B4
330
2B3
100
AcDbEntity
  8
0
100
AcDbBlockBegin
  2
_D_5
 70
     0
 10
0.0
 20
0.0
 30
0.0
  3
_D_5
  1

  0
SOLID
  5
2B6
330
2B3
100
AcDbEntity
  8
VERMASSUNG
100
AcDbTrace
 10
195.3893234082
 20
26.0633833858
 30
0.0
 11
198.3893234082
 21
25.6133833858
 31
0.0
 12
198.3893234082
 22
26.5133833858
 32
0.0
 13
198.3893234082
 23
26.5133833858
 33
0.0
  0
SOLID
  5
2B7
330
2B3
100
AcDbEntity
  8
VERMASSUNG
100
AcDbTrace
 10
253.3893234082
 20
26.0633833858
 30
0.0
 11
250.3893234082
 21
26.5133833858
 31
0.0
 12
250.3893234082
 22
25.6133833858
 32
0.0
 13
250.3893234082
 23
25.6133833858
 33
0.0
  0
LINE
  5
2B8
330
2B3
100
AcDbEntity
  8
VERMASSUNG
100
AcDbLine
 10
195.3893234082
 20
51.3633833858
 30
0.0
 11
195.3893234082
 21
25.0633833858
 31
0.0
  0
LINE
  5
2B9
330
2B3
100
AcDbEntity
  8
VERMASSUNG
100
AcDbLine
 10
253.3893234082
 20
36.0758853395
 30
0.0
 11
253.3893234082
 21
25.0633833858
 31
0.0
  0
LINE
  5
2BA
330
2B3
100
AcDbEntity
  8
VERMASSUNG
100
AcDbLine
 10
195.3893234082
 20
26.0633833858
 30
0.0
 11
253.3893234082
 21
26.0633833858
 31
0.0
  0
MTEXT
  5
2BB
330
2B3
100
AcDbEntity
  8
VERMASSUNG
100
AcDbMText
 10
222.9893234582
 20
28.6415189817
 30
0.0
 40
2.0
 41
0.0
 71
     1
 72
     1
  1
58
  7
SLDTEXTSTYLE0
 73
     1
 44
1.0
  0
ENDBLK
  5
2B5
330
2B3
100
AcDbEntity
  8
0
100
AcDbBlockEnd
  0
BLOCK
  5
2BE
330
2BD
100
AcDbEntity
  8
0
100
AcDbBlockBegin
  2
_D_6
 70
     0
 10
0.0
 20
0.0
 30
0.0
  3
_D_6
  1

  0
SOLID
  5
2C0
330
2BD
100
AcDbEntity
  8
VERMASSUNG
100
AcDbTrace
 10
165.3893234082
 20
20.0633833858
 30
0.0
 11
168.3893234082
 21
19.6133833858
 31
0.0
 12
168.3893234082
 22
20.5133833858
 32
0.0
 13
168.3893234082
 23
20.5133833858
 33
0.0
  0
SOLID
  5
2C1
330
2BD
100
AcDbEntity
  8
VERMASSUNG
100
AcDbTrace
 10
253.3893234082
 20
20.0633833858
 30
0.0
 11
250.3893234082
 21
20.5133833858
 31
0.0
 12
250.3893234082
 22
19.6133833858
 32
0.0
 13
250.3893234082
 23
19.6133833858
 33
0.0
  0
LINE
  5
2C2
330
2BD
100
AcDbEntity
  8
VERMASSUNG
100
AcDbLine
 10
165.3893234082
 20
60.0700575476
 30
0.0
 11
165.3893234082
 21
19.0633833858
 31
0.0
  0
LINE
  5
2C3
330
2BD
100
AcDbEntity
  8
VERMASSUNG
100
AcDbLine
 10
253.3893234082
 20
36.0758853395
 30
0.0
 11
253.3893234082
 21
19.0633833858
 31
0.0
  0
LINE
  5
2C4
330
2BD
100
AcDbEntity
  8
VERMASSUNG
100
AcDbLine
 10
165.3893234082
 20
20.0633833858
 30
0.0
 11
253.3893234082
 21
20.0633833858
 31
0.0
  0
MTEXT
  5
2C5
330
2BD
100
AcDbEntity
  8
VERMASSUNG
100
AcDbMText
 10
207.9893234582
 20
22.6415189817
 30
0.0
 40
2.0
 41
0.0
 71
     1
 72
     1
  1
88
  7
SLDTEXTSTYLE0
 73
     1
 44
1.0
  0
ENDBLK
  5
2BF
330
2BD
100
AcDbEntity
  8
0
100
AcDbBlockEnd
  0
BLOCK
  5
2C7
330
2C6
100
AcDbEntity
  8
0
100
AcDbBlockBegin
  2
SW_CENTERMARKSYMBOL_0
 70
     0
 10
0.0
 20
0.0
 30
0.0
  3
SW_CENTERMARKSYMBOL_0
  1

  0
LINE
  5
2C9
330
2C6
100
AcDbEntity
  8
VERMASSUNG
 62
     0
100
AcDbLine
 10
0.0
 20
0.0
 30
0.0
 11
0.0
 21
2.5
 31
0.0
  0
LINE
  5
2CA
330
2C6
100
AcDbEntity
  8
VERMASSUNG
 62
     0
100
AcDbLine
 10
0.0
 20
0.0
 30
0.0
 11
-2.5
 21
0.0
 31
0.0
  0
LINE
  5
2CB
330
2C6
100
AcDbEntity
  8
VERMASSUNG
 62
     0
100
AcDbLine
 10
0.0
 20
0.0
 30
0.0
 11
0.0
 21
-2.5
 31
0.0
  0
LINE
  5
2CC
330
2C6
100
AcDbEntity
  8
VERMASSUNG
 62
     0
100
AcDbLine
 10
0.0
 20
0.0
 30
0.0
 11
2.5
 21
0.0
 31
0.0
  0
LINE
  5
2CD
330
2C6
100
AcDbEntity
  8
VERMASSUNG
 62
     0
100
AcDbLine
 10
0.0
 20
5.0
 30
0.0
 11
0.0
 21
7.536
 31
0.0
  0
LINE
  5
2CE
330
2C6
100
AcDbEntity
  8
VERMASSUNG
 62
     0
100
AcDbLine
 10
-5.0
 20
0.0
 30
0.0
 11
-7.536
 21
0.0
 31
0.0
  0
LINE
  5
2CF
330
2C6
100
AcDbEntity
  8
VERMASSUNG
 62
     0
100
AcDbLine
 10
0.0
 20
-5.0
 30
0.0
 11
0.0
 21
-7.536
 31
0.0
  0
LINE
  5
2D0
330
2C6
100
AcDbEntity
  8
VERMASSUNG
 62
     0
100
AcDbLine
 10
5.0
 20
0.0
 30
0.0
 11
7.536
 21
0.0
 31
0.0
  0
ENDBLK
  5
2C8
330
2C6
100
AcDbEntity
  8
0
100
AcDbBlockEnd
  0
BLOCK
  5
2D3
330
2D2
100
AcDbEntity
  8
0
100
AcDbBlockBegin
  2
SW_CENTERMARKSYMBOL_1
 70
     0
 10
0.0
 20
0.0
 30
0.0
  3
SW_CENTERMARKSYMBOL_1
  1

  0
LINE
  5
2D5
330
2D2
100
AcDbEntity
  8
VERMASSUNG
 62
     0
100
AcDbLine
 10
0.0
 20
0.0
 30
0.0
 11
0.0
 21
2.5
 31
0.0
  0
LINE
  5
2D6
330
2D2
100
AcDbEntity
  8
VERMASSUNG
 62
     0
100
AcDbLine
 10
0.0
 20
0.0
 30
0.0
 11
-2.5
 21
0.0
 31
0.0
  0
LINE
  5
2D7
330
2D2
100
AcDbEntity
  8
VERMASSUNG
 62
     0
100
AcDbLine
 10
0.0
 20
0.0
 30
0.0
 11
0.0
 21
-2.5
 31
0.0
  0
LINE
  5
2D8
330
2D2
100
AcDbEntity
  8
VERMASSUNG
 62
     0
100
AcDbLine
 10
0.0
 20
0.0
 30
0.0
 11
2.5
 21
0.0
 31
0.0
  0
LINE
  5
2D9
330
2D2
100
AcDbEntity
  8
VERMASSUNG
 62
     0
100
AcDbLine
 10
0.0
 20
5.0
 30
0.0
 11
0.0
 21
7.536
 31
0.0
  0
LINE
  5
2DA
330
2D2
100
AcDbEntity
  8
VERMASSUNG
 62
     0
100
AcDbLine
 10
-5.0
 20
0.0
 30
0.0
 11
-7.536
 21
0.0
 31
0.0
  0
LINE
  5
2DB
330
2D2
100
AcDbEntity
  8
VERMASSUNG
 62
     0
100
AcDbLine
 10
0.0
 20
-5.0
 30
0.0
 11
0.0
 21
-7.536
 31
0.0
  0
LINE
  5
2DC
330
2D2
100
AcDbEntity
  8
VERMASSUNG
 62
     0
100
AcDbLine
 10
5.0
 20
0.0
 30
0.0
 11
7.536
 21
0.0
 31
0.0
  0
ENDBLK
  5
2D4
330
2D2
100
AcDbEntity
  8
0
100
AcDbBlockEnd
  0
BLOCK
  5
2DF
330
2DE
100
AcDbEntity
  8
0
100
AcDbBlockBegin
  2
SW_CENTERMARKSYMBOL_2
 70
     0
 10
0.0
 20
0.0
 30
0.0
  3
SW_CENTERMARKSYMBOL_2
  1

  0
LINE
  5
2E1
330
2DE
100
AcDbEntity
  8
VERMASSUNG
 62
     0
100
AcDbLine
 10
0.0
 20
0.0
 30
0.0
 11
0.0
 21
2.5
 31
0.0
  0
LINE
  5
2E2
330
2DE
100
AcDbEntity
  8
VERMASSUNG
 62
     0
100
AcDbLine
 10
0.0
 20
0.0
 30
0.0
 11
-2.5
 21
0.0
 31
0.0
  0
LINE
  5
2E3
330
2DE
100
AcDbEntity
  8
VERMASSUNG
 62
     0
100
AcDbLine
 10
0.0
 20
0.0
 30
0.0
 11
0.0
 21
-2.5
 31
0.0
  0
LINE
  5
2E4
330
2DE
100
AcDbEntity
  8
VERMASSUNG
 62
     0
100
AcDbLine
 10
0.0
 20
0.0
 30
0.0
 11
2.5
 21
0.0
 31
0.0
  0
LINE
  5
2E5
330
2DE
100
AcDbEntity
  8
VERMASSUNG
 62
     0
100
AcDbLine
 10
0.0
 20
5.0
 30
0.0
 11
0.0
 21
7.536
 31
0.0
  0
LINE
  5
2E6
330
2DE
100
AcDbEntity
  8
VERMASSUNG
 62
     0
100
AcDbLine
 10
-5.0
 20
0.0
 30
0.0
 11
-7.536
 21
0.0
 31
0.0
  0
LINE
  5
2E7
330
2DE
100
AcDbEntity
  8
VERMASSUNG
 62
     0
100
AcDbLine
 10
0.0
 20
-5.0
 30
0.0
 11
0.0
 21
-7.536
 31
0.0
  0
LINE
  5
2E8
330
2DE
100
AcDbEntity
  8
VERMASSUNG
 62
     0
100
AcDbLine
 10
5.0
 20
0.0
 30
0.0
 11
7.536
 21
0.0
 31
0.0
  0
ENDBLK
  5
2E0
330
2DE
100
AcDbEntity
  8
0
100
AcDbBlockEnd
  0
BLOCK
  5
30B
330
30A
100
AcDbEntity
  8
0
100
AcDbBlockBegin
  2
_D_7
 70
     0
 10
0.0
 20
0.0
 30
0.0
  3
_D_7
  1

  0
ARC
  5
30D
330
30A
100
AcDbEntity
  8
VERMASSUNG
100
AcDbCircle
 10
99.2933118547
 20
76.0633833858
 30
0.0
 40
40.00000000000001
100
AcDbArc
 50
308.6821874535
 51
31.9218896157
  0
SOLID
  5
30E
330
30A
100
AcDbEntity
  8
VERMASSUNG
100
AcDbTrace
 10
133.7620942048
 20
96.3587780185
 30
0.0
 11
136.5755760707
 21
97.4931588145
 31
0.0
 12
136.1189296914
 22
98.2687064174
 32
0.0
 13
136.1189296914
 23
98.2687064174
 33
0.0
  0
LINE
  5
30F
330
30A
100
AcDbEntity
  8
VERMASSUNG
100
AcDbLine
 10
133.7620942048
 20
96.3587780185
 30
0.0
 11
150.4209759483
 21
106.1676124499
 31
0.0
  0
LINE
  5
310
330
30A
100
AcDbEntity
  8
VERMASSUNG
100
AcDbLine
 10
133.7620942048
 20
96.3587780185
 30
0.0
 11
99.2933118547
 21
76.0633833858
 31
0.0
  0
MTEXT
  5
311
330
30A
100
AcDbEntity
  8
VERMASSUNG
100
AcDbMText
 10
145.1494932411
 20
106.0543653118
 30
0.0
 40
2.0
 41
0.0
 71
     1
 72
     1
  1
R40
  7
SLDTEXTSTYLE0
 11
0.861719558753351
 21
0.5073848658187687
 31
0.0
 73
     1
 44
1.0
  0
ENDBLK
  5
30C
330
30A
100
AcDbEntity
  8
0
100
AcDbBlockEnd
  0
BLOCK
  5
313
330
312
100
AcDbEntity
  8
0
100
AcDbBlockBegin
  2
SW_CENTERMARKSYMBOL_3
 70
     0
 10
0.0
 20
0.0
 30
0.0
  3
SW_CENTERMARKSYMBOL_3
  1

  0
LINE
  5
315
330
312
100
AcDbEntity
  8
VERMASSUNG
 62
     0
100
AcDbLine
 10
0.0
 20
0.0
 30
0.0
 11
0.0
 21
2.5
 31
0.0
  0
LINE
  5
316
330
312
100
AcDbEntity
  8
VERMASSUNG
 62
     0
100
AcDbLine
 10
0.0
 20
0.0
 30
0.0
 11
-2.5
 21
0.0
 31
0.0
  0
LINE
  5
317
330
312
100
AcDbEntity
  8
VERMASSUNG
 62
     0
100
AcDbLine
 10
0.0
 20
0.0
 30
0.0
 11
0.0
 21
-2.5
 31
0.0
  0
LINE
  5
318
330
312
100
AcDbEntity
  8
VERMASSUNG
 62
     0
100
AcDbLine
 10
0.0
 20
0.0
 30
0.0
 11
2.5
 21
0.0
 31
0.0
  0
LINE
  5
319
330
312
100
AcDbEntity
  8
VERMASSUNG
 62
     0
100
AcDbLine
 10
0.0
 20
5.0
 30
0.0
 11
0.0
 21
42.5
 31
0.0
  0
LINE
  5
31A
330
312
100
AcDbEntity
  8
VERMASSUNG
 62
     0
100
AcDbLine
 10
-5.0
 20
0.0
 30
0.0
 11
-42.5
 21
0.0
 31
0.0
  0
LINE
  5
31B
330
312
100
AcDbEntity
  8
VERMASSUNG
 62
     0
100
AcDbLine
 10
0.0
 20
-5.0
 30
0.0
 11
0.0
 21
-42.5
 31
0.0
  0
LINE
  5
31C
330
312
100
AcDbEntity
  8
VERMASSUNG
 62
     0
100
AcDbLine
 10
5.0
 20
0.0
 30
0.0
 11
42.5
 21
0.0
 31
0.0
  0
ENDBLK
  5
314
330
312
100
AcDbEntity
  8
0
100
AcDbBlockEnd
  0
ENDSEC
  0
SECTION
  2
ENTITIES
  0
MTEXT
  5
78
330
1F
100
AcDbEntity
  8
KOPF_DÜNN
100
AcDbMText
 10
13.8892156294
 20
23.8442973028
 30
0.0
 40
3.0
 41
0.0
 71
     1
 72
     1
  1
PS5.V25.N11.058
  7
SLDTEXTSTYLE0
 73
     1
 44
1.0
  0
MTEXT
  5
79
330
1F
100
AcDbEntity
  8
VERMASSUNG
100
AcDbMText
 10
13.9329988022
 20
28.8834360957
 30
0.0
 40
3.0
 41
0.0
 71
     1
 72
     1
  1
Werkzeughalter radial / Tool holder radial
  7
SLDTEXTSTYLE0
 73
     1
 44
1.0
  0
MTEXT
  5
7A
330
1F
100
AcDbEntity
  8
VERMASSUNG
100
AcDbMText
 10
98.8601118557
 20
13.8365368761
 30
0.0
 40
2.0
 41
0.0
 71
     1
 72
     1
  1
Datum: 19.03.2014
  7
SLDTEXTSTYLE0
 73
     1
 44
1.0
  0
MTEXT
  5
7B
330
1F
100
AcDbEntity
  8
VERMASSUNG
100
AcDbMText
 10
13.933048693
 20
18.0482802738
 30
0.0
 40
2.0
 41
0.0
 71
     1
 72
     1
  1
PSC ø50 / 25x25
  7
SLDTEXTSTYLE0
 73
     1
 44
1.0
  0
MTEXT
  5
7C
330
1F
100
AcDbEntity
  8
VERMASSUNG
100
AcDbMText
 10
13.9808475933
 20
13.9090974274
 30
0.0
 40
2.0
 41
0.0
 71
     1
 72
     1
  1
Gewicht: 1234g
  7
SLDTEXTSTYLE0
 73
     1
 44
1.0
  0
LINE
  5
7D
330
1F
100
AcDbEntity
  8
0
  6
Continuous
 62
     7
370
    15
100
AcDbLine
 10
235.6393234082
 20
169.3173081997
 30
0.0
 11
236.6393234082
 21
168.3173081997
 31
0.0
  0
LINE
  5
7E
330
1F
100
AcDbEntity
  8
0
  6
Continuous
 62
     7
370
    15
100
AcDbLine
 10
245.1393234082
 20
168.3173081997
 30
0.0
 11
246.1393234082
 21
169.3173081997
 31
0.0
  0
ARC
  5
7F
330
1F
100
AcDbEntity
  8
0
  6
Continuous
 62
     7
370
    15
100
AcDbCircle
 10
218.5343157092
 20
129.3173081997
 30
0.0
 40
1.000000000000008
100
AcDbArc
 50
185.0
 51
270.0
  0
LINE
  5
80
330
1F
100
AcDbEntity
  8
0
  6
Continuous
 62
     7
370
    15
100
AcDbLine
 10
218.5343157092
 20
128.3173081997
 30
0.0
 11
253.3893234082
 21
128.3173081997
 31
0.0
  0
LINE
  5
81
330
1F
100
AcDbEntity
  8
0
  6
Continuous
 62
     7
370
    15
100
AcDbLine
 10
216.4806319093
 20
195.3173081997
 30
0.0
 11
216.3855181063
 21
194.230152457
 31
0.0
  0
LINE
  5
82
330
1F
100
AcDbEntity
  8
0
  6
Continuous
 62
     7
370
    15
100
AcDbLine
 10
216.3855181063
 20
142.4044639425
 30
0.0
 11
217.5381210111
 21
129.230152457
 31
0.0
  0
ARC
  5
83
330
1F
100
AcDbEntity
  8
0
  6
Continuous
 62
     7
370
    15
100
AcDbCircle
 10
215.3893234082
 20
142.3173081997
 30
0.0
 40
1.0
100
AcDbArc
 50
5.0
 51
90.0
  0
ARC
  5
84
330
1F
100
AcDbEntity
  8
0
  6
Continuous
 62
     7
370
    15
100
AcDbCircle
 10
215.3893234082
 20
194.3173081997
 30
0.0
 40
1.000000000000028
100
AcDbArc
 50
270.0
 51
355.0
  0
LINE
  5
85
330
1F
100
AcDbEntity
  8
0
  6
Continuous
 62
     7
370
    15
100
AcDbLine
 10
209.3645901365
 20
143.3173081997
 30
0.0
 11
215.3893234082
 21
143.3173081997
 31
0.0
  0
LINE
  5
86
330
1F
100
AcDbEntity
  8
0
  6
Continuous
 62
     7
370
    15
100
AcDbLine
 10
195.6893234082
 20
143.3173081997
 30
0.0
 11
205.3893234082
 21
143.3173081997
 31
0.0
  0
LINE
  5
87
330
1F
100
AcDbEntity
  8
0
  6
Continuous
 62
     7
370
    15
100
AcDbLine
 10
215.3893234082
 20
193.3173081997
 30
0.0
 11
195.6893234082
 21
193.3173081997
 31
0.0
  0
ARC
  5
88
330
1F
100
AcDbEntity
  8
0
  6
Continuous
 62
     7
370
    15
100
AcDbCircle
 10
195.6893234082
 20
143.6173081997
 30
0.0
 40
0.3000000000000398
100
AcDbArc
 50
180.0
 51
270.0
  0
ARC
  5
89
330
1F
100
AcDbEntity
  8
0
  6
Continuous
 62
     7
370
    15
100
AcDbCircle
 10
195.6893234082
 20
193.0173081997
 30
0.0
 40
0.3000000000000398
100
AcDbArc
 50
90.0
 51
180.0
  0
LWPOLYLINE
  5
8A
330
1F
100
AcDbEntity
  8
0
  6
Continuous
 62
     7
370
    15
100
AcDbPolyline
 90
        3
 70
   128
 43
0.0
 10
195.1893234082
 20
150.4774879209
 10
195.3147783517
 20
150.4091858059
 10
195.3893234082
 20
150.3564480478
  0
ARC
  5
8B
330
1F
100
AcDbEntity
  8
0
  6
Continuous
 62
     7
370
    15
100
AcDbCircle
 10
194.7751098459
 20
187.0673081997
 30
0.0
 40
0.9999999999999989
100
AcDbArc
 50
225.0
 51
307.8947985336
  0
LINE
  5
8C
330
1F
100
AcDbEntity
  8
0
  6
Continuous
 62
     7
370
    15
100
AcDbLine
 10
184.8159536878
 20
152.1275776078
 30
0.0
 11
193.1893234082
 21
151.9172094152
 31
0.0
  0
LINE
  5
8D
330
1F
100
AcDbEntity
  8
0
  6
Continuous
 62
     7
370
    15
100
AcDbLine
 10
172.7463470507
 20
152.4308081373
 30
0.0
 11
178.1523756613
 21
152.2949898818
 31
0.0
  0
ARC
  5
8E
330
1F
100
AcDbEntity
  8
0
  6
Continuous
 62
     7
370
    15
100
AcDbCircle
 10
193.3892603192
 20
151.9121863041
 30
0.0
 40
0.1999999999999775
100
AcDbArc
 50
88.5608333333
 51
178.5608333333
  0
LINE
  5
8F
330
1F
100
AcDbEntity
  8
0
  6
Continuous
 62
     7
370
    15
100
AcDbLine
 10
193.3942834303
 20
152.112123215
 30
0.0
 11
194.9943465194
 21
152.0719240608
 31
0.0
  0
ARC
  5
90
330
1F
100
AcDbEntity
  8
0
  6
Continuous
 62
     7
370
    15
100
AcDbCircle
 10
194.9893234082
 20
151.8719871499
 30
0.0
 40
0.2000000000000171
100
AcDbArc
 50
0.0
 51
88.5608333333
  0
ARC
  5
91
330
1F
100
AcDbEntity
  8
0
  6
Continuous
 62
     7
370
    15
100
AcDbCircle
 10
193.3892603192
 20
186.9624300954
 30
0.0
 40
0.1999999999999775
100
AcDbArc
 50
181.4391666667
 51
271.4391666667
  0
LINE
  5
92
330
1F
100
AcDbEntity
  8
0
  6
Continuous
 62
     7
370
    15
100
AcDbLine
 10
193.1893234082
 20
186.9574069843
 30
0.0
 11
166.8893234082
 21
186.2966594417
 31
0.0
  0
LINE
  5
93
330
1F
100
AcDbEntity
  8
0
  6
Continuous
 62
     7
370
    15
100
AcDbLine
 10
193.6685971258
 20
186.7693848993
 30
0.0
 11
193.3942834303
 21
186.7624931845
 31
0.0
  0
LINE
  5
94
330
1F
100
AcDbEntity
  8
0
  6
Continuous
 62
     7
370
    15
100
AcDbLine
 10
166.8893234082
 20
186.2966594417
 30
0.0
 11
165.3893234082
 21
185.4306340379
 31
0.0
  0
LINE
  5
95
330
1F
100
AcDbEntity
  8
0
  6
Continuous
 62
     7
370
    15
100
AcDbLine
 10
194.0680030647
 20
186.3602014186
 30
0.0
 11
193.6754420424
 21
186.7527624408
 31
0.0
  0
LINE
  5
96
330
1F
100
AcDbEntity
  8
0
  6
Continuous
 62
     7
370
    15
100
AcDbLine
 10
236.6393234082
 20
168.3173081997
 30
0.0
 11
245.1393234082
 21
168.3173081997
 31
0.0
  0
CIRCLE
  5
97
330
1F
100
AcDbEntity
  8
0
  6
Continuous
 62
     7
370
    15
100
AcDbCircle
 10
226.2369451538
 20
179.2612494947
 30
0.0
 40
3.499273492503281
  0
CIRCLE
  5
98
330
1F
100
AcDbEntity
  8
0
  6
Continuous
 62
     7
370
    15
100
AcDbCircle
 10
226.2367575216
 20
179.2610239568
 30
0.0
 40
2.999394872262328
  0
CIRCLE
  5
99
330
1F
100
AcDbEntity
  8
0
  6
Continuous
 62
     7
370
    15
100
AcDbCircle
 10
226.2541670845
 20
179.2673738746
 30
0.0
 40
2.49952124544585
  0
ARC
  5
9A
330
1F
100
AcDbEntity
  8
0
  6
Continuous
 62
     7
370
    15
100
AcDbCircle
 10
226.3898524544
 20
179.3194588746
 30
0.0
 40
2.498182755177361
100
AcDbArc
 50
112.1952156877
 51
177.5398979059
  0
ARC
  5
9B
330
1F
100
AcDbEntity
  8
0
  6
Continuous
 62
     7
370
    15
100
AcDbCircle
 10
226.3913958997
 20
179.3178254889
 30
0.0
 40
2.499795379193421
100
AcDbArc
 50
177.5040133723
 51
288.8018179926
  0
CIRCLE
  5
9C
330
1F
100
AcDbEntity
  8
0
  6
Continuous
 62
     7
370
    15
100
AcDbCircle
 10
226.3893234082
 20
179.3173081997
 30
0.0
 40
5.191338940966943
  0
CIRCLE
  5
9D
330
1F
100
AcDbEntity
  8
0
  6
Continuous
 62
     7
370
    15
100
AcDbCircle
 10
226.3893234082
 20
179.3173081997
 30
0.0
 40
7.0
  0
SPLINE
  5
9E
330
1F
100
AcDbEntity
  8
0
  6
Continuous
 62
     7
370
    15
100
AcDbSpline
210
0.0
220
0.0
230
1.0
 70
    24
 71
     3
 72
    14
 73
    10
 74
     0
 42
0.000000001
 43
0.00000001
 40
0.0
 40
0.0
 40
0.0
 40
0.0
 40
0.25
 40
0.25
 40
0.5
 40
0.5
 40
0.75
 40
0.75
 40
1.0
 40
1.0
 40
1.0
 40
1.0
 10
218.534315709165
 20
195.3173081997459
 30
0.0
 10
218.3887955586644
 20
195.3173081997459
 30
0.0
 10
218.2423384601091
 20
195.3173081997459
 30
0.0
 10
217.993525040946
 20
195.3173081997459
 30
0.0
 10
217.8889643385154
 20
195.3173081997459
 30
0.0
 10
217.7236500737413
 20
195.3173081997459
 30
0.0
 10
217.6609563902835
 20
195.3173081997459
 30
0.0
 10
217.5734256877487
 20
195.3173081997459
 30
0.0
 10
217.5473042650512
 20
195.3173081997459
 30
0.0
 10
217.5381210110733
 20
195.3173081997459
 30
0.0
  0
LINE
  5
9F
330
1F
100
AcDbEntity
  8
0
  6
Continuous
 62
     7
370
    15
100
AcDbLine
 10
228.3893234082
 20
195.3173081997
 30
0.0
 11
218.5343157092
 21
195.3173081997
 31
0.0
  0
LINE
  5
A0
330
1F
100
AcDbEntity
  8
0
  6
Continuous
 62
     7
370
    15
100
AcDbLine
 10
228.3893234082
 20
188.3173081997
 30
0.0
 11
228.3893234082
 21
195.3173081997
 31
0.0
  0
LINE
  5
A1
330
1F
100
AcDbEntity
  8
0
  6
Continuous
 62
     7
370
    15
100
AcDbLine
 10
228.3893234082
 20
188.3173081997
 30
0.0
 11
253.3893234082
 21
188.3173081997
 31
0.0
  0
LINE
  5
A2
330
1F
100
AcDbEntity
  8
0
  6
Continuous
 62
     7
370
    15
100
AcDbLine
 10
253.3893234082
 20
169.3173081997
 30
0.0
 11
253.3893234082
 21
188.3173081997
 31
0.0
  0
LINE
  5
A3
330
1F
100
AcDbEntity
  8
0
  6
Continuous
 62
     7
370
    15
100
AcDbLine
 10
228.3893234082
 20
169.3173081997
 30
0.0
 11
253.3893234082
 21
169.3173081997
 31
0.0
  0
LINE
  5
A4
330
1F
100
AcDbEntity
  8
0
  6
Continuous
 62
     7
370
    15
100
AcDbLine
 10
253.3893234082
 20
143.3173081997
 30
0.0
 11
228.3893234082
 21
143.3173081997
 31
0.0
  0
LINE
  5
A5
330
1F
100
AcDbEntity
  8
0
  6
Continuous
 62
     7
370
    15
100
AcDbLine
 10
253.3893234082
 20
128.3173081997
 30
0.0
 11
253.3893234082
 21
143.3173081997
 31
0.0
  0
LINE
  5
A6
330
1F
100
AcDbEntity
  8
0
  6
Continuous
 62
     7
370
    15
100
AcDbLine
 10
228.3893234082
 20
143.3173081997
 30
0.0
 11
228.3893234082
 21
169.3173081997
 31
0.0
  0
SPLINE
  5
A7
330
1F
100
AcDbEntity
  8
0
  6
Continuous
 62
     7
370
    15
100
AcDbSpline
210
0.0
220
0.0
230
1.0
 70
     8
 71
     3
 72
    33
 73
    29
 74
     0
 42
0.000000001
 43
0.00000001
 40
0.0
 40
0.0
 40
0.0
 40
0.0
 40
0.0394601035915907
 40
0.0789119663545271
 40
0.1184248220528954
 40
0.1579335000146702
 40
0.1964574636739894
 40
0.2349810544754058
 40
0.2730789255057143
 40
0.3111771923947079
 40
0.3493041161600073
 40
0.3874311078583382
 40
0.4256137407955262
 40
0.4637960376116168
 40
0.5019514129775213
 40
0.5401066766041296
 40
0.5781888265217701
 40
0.6162732474001503
 40
0.654521880848746
 40
0.6927768011074579
 40
0.7319483509147966
 40
0.7711280149537381
 40
0.812087357836144
 40
0.8530497621811807
 40
0.8956174150447157
 40
0.9381720149635986
 40
0.9800021322119493
 40
1.0
 40
1.0
 40
1.0
 40
1.0
 10
219.3893234082414
 20
179.3173081997459
 30
0.0
 10
219.4084915156089
 20
178.9272933098216
 30
0.0
 10
219.4468237272857
 20
178.147344980491
 30
0.0
 10
219.751281541359
 20
176.9958377132442
 30
0.0
 10
220.2402917148606
 20
175.9031963607093
 30
0.0
 10
220.9075225280186
 20
174.9089321439452
 30
0.0
 10
221.7326057688043
 20
174.0484699685474
 30
0.0
 10
222.6792297208964
 20
173.3416413608696
 30
0.0
 10
223.7305011261473
 20
172.8080687404818
 30
0.0
 10
224.8518443775571
 20
172.4539154566514
 30
0.0
 10
226.0178873135415
 20
172.2956774009151
 30
0.0
 10
227.1950862935498
 20
172.3300382289617
 30
0.0
 10
228.3495619023806
 20
172.5645711182693
 30
0.0
 10
229.4498188544965
 20
172.9845389748507
 30
0.0
 10
230.4609908732693
 20
173.584921775443
 30
0.0
 10
231.3581650859966
 20
174.3397577143552
 30
0.0
 10
232.1112378981296
 20
175.2319078505338
 30
0.0
 10
232.707787659599
 20
176.2296514821215
 30
0.0
 10
233.1260556928455
 20
177.3072526283511
 30
0.0
 10
233.366615690713
 20
178.4392562735596
 30
0.0
 10
233.4146118983419
 20
179.5942500855702
 30
0.0
 10
233.2734625671266
 20
180.758640620302
 30
0.0
 10
232.9340475762357
 20
181.892182072705
 30
0.0
 10
232.3966407163226
 20
182.9792840572148
 30
0.0
 10
231.6668231716379
 20
183.9732958920967
 30
0.0
 10
230.7564232396187
 20
184.8266989796576
 30
0.0
 10
229.8984313280419
 20
185.4234300097856
 30
0.0
 10
229.3176379025147
 20
185.652885325977
 30
0.0
 10
229.1297839698818
 20
185.7271011858948
 30
0.0
  0
SPLINE
  5
A8
330
1F
100
AcDbEntity
  8
0
  6
Continuous
 62
     7
370
    15
100
AcDbSpline
210
0.0
220
0.0
230
1.0
 70
     8
 71
     3
 72
    15
 73
    11
 74
     0
 42
0.000000001
 43
0.00000001
 40
0.0
 40
0.0
 40
0.0
 40
0.0
 40
0.0623331100781442
 40
0.187991800793858
 40
0.3238222310734539
 40
0.4596891156200936
 40
0.6080075154465893
 40
0.7563247880492799
 40
0.8781696053414926
 40
1.0
 40
1.0
 40
1.0
 40
1.0
 10
223.6448276968804
 20
185.7350886809363
 30
0.0
 10
223.4829840207155
 20
185.6699043863351
 30
0.0
 10
222.994876109989
 20
185.4733136352849
 30
0.0
 10
222.2413455531505
 20
184.9838741871979
 30
0.0
 10
221.4118921344947
 20
184.2816753878976
 30
0.0
 10
220.6731880415545
 20
183.4122013992252
 30
0.0
 10
220.0713660447258
 20
182.4091171285964
 30
0.0
 10
219.6638785551462
 20
181.3535989844689
 30
0.0
 10
219.4311069008149
 20
180.3143157015672
 30
0.0
 10
219.4032506895153
 20
179.6496309199121
 30
0.0
 10
219.3893234082414
 20
179.3173081997459
 30
0.0
  0
SPLINE
  5
A9
330
1F
100
AcDbEntity
  8
0
  6
Continuous
 62
     7
370
    15
100
AcDbSpline
210
0.0
220
0.0
230
1.0
 70
    24
 71
     3
 72
    11
 73
     7
 74
     0
 42
0.000000001
 43
0.00000001
 40
0.0
 40
0.0
 40
0.0
 40
0.0
 40
0.2746171625686438
 40
0.5492736192255693
 40
0.8604311683391848
 40
0.9999999999999999
 40
0.9999999999999999
 40
0.9999999999999999
 40
0.9999999999999999
 10
217.5381210110733
 20
195.3173081997459
 30
0.0
 10
217.3801740107458
 20
195.3173081997459
 30
0.0
 10
217.0642574099616
 20
195.3173081997459
 30
0.0
 10
216.6979152198871
 20
195.3173081997459
 30
0.0
 10
216.4859547227673
 20
195.3173081997459
 30
0.0
 10
216.5065492459087
 20
195.3173081997459
 30
0.0
 10
216.5129264043268
 20
195.3173081997459
 30
0.0
  0
ELLIPSE
  5
AA
330
1F
100
AcDbEntity
  8
0
  6
Continuous
 62
     7
370
    15
100
AcDbEllipse
 10
225.1709894476
 20
177.7805342907
 30
0.0
 11
0.9056736829558361
 21
2.522781696436482
 31
0.0
210
0.0
220
0.0
230
1.0
 40
0.9326882945
 41
4.79849718032878
 42
6.283185307179586
  0
ELLIPSE
  5
AB
330
1F
100
AcDbEntity
  8
0
  6
Continuous
 62
     7
370
    15
100
AcDbEllipse
 10
225.1709894476
 20
177.7805342907
 30
0.0
 11
0.9056736829558361
 21
2.522781696436482
 31
0.0
210
0.0
220
0.0
230
1.0
 40
0.9326882945
 41
0.0
 42
0.8448071522178023
  0
ARC
  5
AC
330
1F
100
AcDbEntity
  8
0
  6
Continuous
 62
     7
370
    15
100
AcDbCircle
 10
207.3892587097
 20
118.3608760087
 30
0.0
 40
25.03643842314004
100
AcDbArc
 50
85.4747594988
 51
94.5817246457
  0
SPLINE
  5
AD
330
1F
100
AcDbEntity
  8
0
  6
Continuous
 62
     7
370
    15
100
AcDbSpline
210
0.0
220
0.0
230
1.0
 70
     8
 71
     3
 72
    12
 73
     8
 74
     0
 42
0.000000001
 43
0.00000001
 40
0.0
 40
0.0
 40
0.0
 40
0.0
 40
0.2499999999999984
 40
0.2499999999999984
 40
0.4999999999999968
 40
0.4999999999999968
 40
1.0
 40
1.0
 40
1.0
 40
1.0
 10
203.9170802218079
 20
144.4905770842439
 30
0.0
 10
203.8534149852774
 20
144.4905770842439
 30
0.0
 10
203.793808753054
 20
144.4988418599097
 30
0.0
 10
203.6951482281231
 20
144.5230606414929
 30
0.0
 10
203.6561812381079
 20
144.538317960802
 30
0.0
 10
203.5567944061834
 20
144.5879513150639
 30
0.0
 10
203.51471815876
 20
144.6255910232381
 30
0.0
 10
203.4840675199157
 20
144.6646667225142
 30
0.0
  0
LINE
  5
AE
330
1F
100
AcDbEntity
  8
0
  6
Continuous
 62
     7
370
    15
100
AcDbLine
 10
206.8615665947
 20
144.4905770842
 30
0.0
 11
203.9170802218
 21
144.4905770842
 31
0.0
  0
SPLINE
  5
AF
330
1F
100
AcDbEntity
  8
0
  6
Continuous
 62
     7
370
    15
100
AcDbSpline
210
0.0
220
0.0
230
1.0
 70
     8
 71
     3
 72
    12
 73
     8
 74
     0
 42
0.000000001
 43
0.00000001
 40
0.0
 40
0.0
 40
0.0
 40
0.0
 40
0.4999999999999982
 40
0.4999999999999982
 40
0.7499999999999991
 40
0.7499999999999991
 40
1.0
 40
1.0
 40
1.0
 40
1.0
 10
207.2945792965672
 20
144.6646667225142
 30
0.0
 10
207.2638799131999
 20
144.6255288801183
 30
0.0
 10
207.2225298450934
 20
144.5883690973928
 30
0.0
 10
207.1227739168739
 20
144.5384325917651
 30
0.0
 10
207.0830769991412
 20
144.5229797216213
 30
0.0
 10
206.9858188474936
 20
144.4990601780223
 30
0.0
 10
206.9250426895029
 20
144.4905770842439
 30
0.0
 10
206.861566594675
 20
144.4905770842439
 30
0.0
  0
ELLIPSE
  5
B0
330
1F
100
AcDbEntity
  8
0
  6
Continuous
 62
     7
370
    15
100
AcDbEllipse
 10
194.3330657533
 20
168.3173081997
 30
0.0
 11
-11.7092723497272
 21
24.67718644093742
 31
0.0
210
0.0
220
0.0
230
1.0
 40
0.3419987131
 41
3.310521928178951
 42
4.221709151398938
  0
SPLINE
  5
B1
330
1F
100
AcDbEntity
  8
0
  6
Continuous
 62
     7
370
    15
100
AcDbSpline
210
0.0
220
0.0
230
1.0
 70
     8
 71
     3
 72
    12
 73
     8
 74
     0
 42
0.000000001
 43
0.00000001
 40
0.0
 40
0.0
 40
0.0
 40
0.0
 40
0.2499999999999993
 40
0.2499999999999993
 40
0.4999999999999987
 40
0.4999999999999987
 40
1.0
 40
1.0
 40
1.0
 40
1.0
 10
206.861566594675
 20
160.748498230565
 30
0.0
 10
206.9252318312055
 20
160.748498230565
 30
0.0
 10
206.9848380634288
 20
160.7224260820853
 30
0.0
 10
207.0834985883597
 20
160.6468873312642
 30
0.0
 10
207.122465578375
 20
160.599636394168
 30
0.0
 10
207.2218524102994
 20
160.4478125762016
 30
0.0
 10
207.2639286577229
 20
160.3350093264365
 30
0.0
 10
207.2945792965672
 20
160.2208552017014
 30
0.0
  0
LINE
  5
B2
330
1F
100
AcDbEntity
  8
0
  6
Continuous
 62
     7
370
    15
100
AcDbLine
 10
203.9170802218
 20
160.7484982306
 30
0.0
 11
206.8615665947
 21
160.7484982306
 31
0.0
  0
SPLINE
  5
B3
330
1F
100
AcDbEntity
  8
0
  6
Continuous
 62
     7
370
    15
100
AcDbSpline
210
0.0
220
0.0
230
1.0
 70
     8
 71
     3
 72
    12
 73
     8
 74
     0
 42
0.000000001
 43
0.00000001
 40
0.0
 40
0.0
 40
0.0
 40
0.0
 40
0.4999999999999968
 40
0.4999999999999968
 40
0.7499999999999983
 40
0.7499999999999983
 40
1.0
 40
1.0
 40
1.0
 40
1.0
 10
203.4840675199157
 20
160.2208552017014
 30
0.0
 10
203.514766903283
 20
160.3351908687652
 30
0.0
 10
203.5561169713895
 20
160.4465442216066
 30
0.0
 10
203.6558728996089
 20
160.5992809938553
 30
0.0
 10
203.6955698173416
 20
160.6471408797075
 30
0.0
 10
203.7928279689892
 20
160.7217439930569
 30
0.0
 10
203.8536041269799
 20
160.748498230565
 30
0.0
 10
203.9170802218079
 20
160.748498230565
 30
0.0
  0
ELLIPSE
  5
B4
330
1F
100
AcDbEntity
  8
0
  6
Continuous
 62
     7
370
    15
100
AcDbEllipse
 10
216.4455810632
 20
168.3173081997
 30
0.0
 11
11.70927234972709
 21
24.67718644093745
 31
0.0
210
0.0
220
0.0
230
1.0
 40
0.3419987131
 41
2.061476155780658
 42
2.972663379000673
  0
SPLINE
  5
B5
330
1F
100
AcDbEntity
  8
0
  6
Continuous
 62
     7
370
    15
100
AcDbSpline
210
0.0
220
0.0
230
1.0
 70
     8
 71
     3
 72
    12
 73
     8
 74
     0
 42
0.000000001
 43
0.00000001
 40
0.0
 40
0.0
 40
0.0
 40
0.0
 40
0.2499999999999989
 40
0.2499999999999989
 40
0.4999999999999978
 40
0.4999999999999978
 40
1.0
 40
1.0
 40
1.0
 40
1.0
 10
203.9170802218079
 20
175.8861181689266
 30
0.0
 10
203.8534436675942
 20
175.8861181689266
 30
0.0
 10
203.793863540728
 20
175.9121650719845
 30
0.0
 10
203.6952267993616
 20
175.9876522308844
 30
0.0
 10
203.6562681749813
 20
176.0348712694151
 30
0.0
 10
203.5568892354734
 20
176.1866109205087
 30
0.0
 10
203.5149313303079
 20
176.2988131446929
 30
0.0
 10
203.4840675199155
 20
176.4137611977901
 30
0.0
  0
LINE
  5
B6
330
1F
100
AcDbEntity
  8
0
  6
Continuous
 62
     7
370
    15
100
AcDbLine
 10
206.8615665947
 20
175.8861181689
 30
0.0
 11
203.9170802218
 21
175.8861181689
 31
0.0
  0
SPLINE
  5
B7
330
1F
100
AcDbEntity
  8
0
  6
Continuous
 62
     7
370
    15
100
AcDbSpline
210
0.0
220
0.0
230
1.0
 70
     8
 71
     3
 72
    12
 73
     8
 74
     0
 42
0.000000001
 43
0.00000001
 40
0.0
 40
0.0
 40
0.0
 40
0.0
 40
0.5000000000000018
 40
0.5000000000000018
 40
0.7500000000000009
 40
0.7500000000000009
 40
1.0
 40
1.0
 40
1.0
 40
1.0
 10
207.2945792965672
 20
176.4137611977902
 30
0.0
 10
207.263727586003
 20
176.2988582088533
 30
0.0
 10
207.2218347225424
 20
176.1867193128045
 30
0.0
 10
207.1223138447492
 20
176.0347770312036
 30
0.0
 10
207.0826996800249
 20
175.9871124216787
 30
0.0
 10
206.9855966462454
 20
175.9127760910633
 30
0.0
 10
206.925097973595
 20
175.8861181689262
 30
0.0
 10
206.8615665946751
 20
175.8861181689261
 30
0.0
  0
ELLIPSE
  5
B8
330
1F
100
AcDbEntity
  8
0
  6
Continuous
 62
     7
370
    15
100
AcDbEllipse
 10
194.3330657533
 20
168.3173081997
 30
0.0
 11
11.70927234972717
 21
24.67718644093742
 31
0.0
210
0.0
220
0.0
230
1.0
 40
0.3419987131
 41
5.20306880937046
 42
6.114256032590506
  0
SPLINE
  5
B9
330
1F
100
AcDbEntity
  8
0
  6
Continuous
 62
     7
370
    15
100
AcDbSpline
210
0.0
220
0.0
230
1.0
 70
     8
 71
     3
 72
    12
 73
     8
 74
     0
 42
0.000000001
 43
0.00000001
 40
0.0
 40
0.0
 40
0.0
 40
0.0
 40
0.2499999999999991
 40
0.2499999999999991
 40
0.4999999999999982
 40
0.4999999999999982
 40
1.0
 40
1.0
 40
1.0
 40
1.0
 10
206.861566594675
 20
192.1440393152478
 30
0.0
 10
206.9252031488887
 20
192.1440393152478
 30
0.0
 10
206.9847832757549
 20
192.1357825443161
 30
0.0
 10
207.0834200171213
 20
192.1115804823083
 30
0.0
 10
207.1223786415016
 20
192.0963336632741
 30
0.0
 10
207.2217575810095
 20
192.046728791214
 30
0.0
 10
207.2637154861749
 20
192.0092971430952
 30
0.0
 10
207.2945792965674
 20
191.9699496769775
 30
0.0
  0
LINE
  5
BA
330
1F
100
AcDbEntity
  8
0
  6
Continuous
 62
     7
370
    15
100
AcDbLine
 10
203.9170802218
 20
192.1440393152
 30
0.0
 11
206.8615665947
 21
192.1440393152
 31
0.0
  0
SPLINE
  5
BB
330
1F
100
AcDbEntity
  8
0
  6
Continuous
 62
     7
370
    15
100
AcDbSpline
210
0.0
220
0.0
230
1.0
 70
     8
 71
     3
 72
    12
 73
     8
 74
     0
 42
0.000000001
 43
0.00000001
 40
0.0
 40
0.0
 40
0.0
 40
0.0
 40
0.5
 40
0.5
 40
0.75
 40
0.75
 40
1.0
 40
1.0
 40
1.0
 40
1.0
 10
203.4840675199157
 20
191.9699496769775
 30
0.0
 10
203.5149192304799
 20
192.00928171734
 30
0.0
 10
203.5568120939405
 20
192.0466934828682
 30
0.0
 10
203.6563329717337
 20
192.0963644074841
 30
0.0
 10
203.695947136458
 20
192.111753490092
 30
0.0
 10
203.7930501702375
 20
192.1355867057592
 30
0.0
 10
203.8535488428879
 20
192.144039315248
 30
0.0
 10
203.9170802218078
 20
192.144039315248
 30
0.0
  0
ELLIPSE
  5
BC
330
1F
100
AcDbEntity
  8
0
  6
Continuous
 62
     7
370
    15
100
AcDbEllipse
 10
216.4455810632
 20
168.3173081997
 30
0.0
 11
-11.70927234972706
 21
24.67718644093742
 31
0.0
210
0.0
220
0.0
230
1.0
 40
0.3419987131
 41
0.1689292745891249
 42
1.080116497809143
  0
LINE
  5
BD
330
1F
100
AcDbEntity
  8
0
  6
Continuous
 62
     7
370
    15
100
AcDbLine
 10
195.3893234082
 20
168.3173081997
 30
0.0
 11
195.3893234082
 21
193.0173081997
 31
0.0
  0
LINE
  5
BE
330
1F
100
AcDbEntity
  8
0
  6
Continuous
 62
     7
370
    15
100
AcDbLine
 10
195.3893234082
 20
143.6173081997
 30
0.0
 11
195.3893234082
 21
168.3173081997
 31
0.0
  0
LINE
  5
BF
330
1F
100
AcDbEntity
  8
0
  6
Continuous
 62
     7
370
    15
100
AcDbLine
 10
195.1893234082
 20
154.7315435124
 30
0.0
 11
195.1893234082
 21
150.4774879209
 31
0.0
  0
SPLINE
  5
C0
330
1F
100
AcDbEntity
  8
0
  6
Continuous
 62
     7
370
    15
100
AcDbSpline
210
0.0
220
0.0
230
1.0
 70
     8
 71
     3
 72
    16
 73
    12
 74
     0
 42
0.000000001
 43
0.00000001
 40
0.0
 40
0.0
 40
0.0
 40
0.0
 40
0.5000000000000017
 40
0.5000000000000017
 40
0.75
 40
0.75
 40
0.8749999999999991
 40
0.8749999999999991
 40
0.9374999999999996
 40
0.9374999999999996
 40
1.0
 40
1.0
 40
1.0
 40
1.0
 10
195.1893234082414
 20
154.7315435123502
 30
0.0
 10
195.1893234082414
 20
154.8103377428068
 30
0.0
 10
195.1852661061264
 20
154.8914090912367
 30
0.0
 10
195.1596088633316
 20
155.0195260330533
 30
0.0
 10
195.1482934175895
 20
155.0641236806745
 30
0.0
 10
195.1142620502808
 20
155.1304429413701
 30
0.0
 10
195.100383069077
 20
155.1533971392057
 30
0.0
 10
195.0644473873097
 20
155.18043554117
 30
0.0
 10
195.0494970680469
 20
155.1872452770736
 30
0.0
 10
195.019598555305
 20
155.1905907386233
 30
0.0
 10
195.0060656949398
 20
155.1876326776498
 30
0.0
 10
194.9943465193658
 20
155.182900336957
 30
0.0
  0
SPLINE
  5
C1
330
1F
100
AcDbEntity
  8
0
  6
Continuous
 62
     7
370
    15
100
AcDbSpline
210
0.0
220
0.0
230
1.0
 70
     8
 71
     3
 72
    14
 73
    10
 74
     0
 42
0.000000001
 43
0.00000001
 40
0.0
 40
0.0
 40
0.0
 40
0.0
 40
0.25
 40
0.25
 40
0.5
 40
0.5
 40
0.75
 40
0.75
 40
1.0
 40
1.0
 40
1.0
 40
1.0
 10
194.9943465193726
 20
155.1829003369519
 30
0.0
 10
194.9378907547638
 20
155.1601028363494
 30
0.0
 10
194.8670251285139
 20
155.1437442422546
 30
0.0
 10
194.7185680473413
 20
155.1491436838866
 30
0.0
 10
194.6493746880338
 20
155.1702349016747
 30
0.0
 10
194.5396592498996
 20
155.2211573020644
 30
0.0
 10
194.4944146705682
 20
155.2516577321979
 30
0.0
 10
194.4147879611445
 20
155.3149181296842
 30
0.0
 10
194.380177812611
 20
155.3481641949337
 30
0.0
 10
194.3484623801118
 20
155.3824457122213
 30
0.0
  0
SPLINE
  5
C2
330
1F
100
AcDbEntity
  8
0
  6
Continuous
 62
     7
370
    15
100
AcDbSpline
210
0.0
220
0.0
230
1.0
 70
     8
 71
     3
 72
    10
 73
     6
 74
     0
 42
0.000000001
 43
0.00000001
 40
0.0
 40
0.0
 40
0.0
 40
0.0
 40
0.5
 40
0.5
 40
1.0
 40
1.0
 40
1.0
 40
1.0
 10
194.3484623801123
 20
155.3824457122207
 30
0.0
 10
194.2766825921889
 20
155.460033178217
 30
0.0
 10
194.2242230778808
 20
155.5429952190491
 30
0.0
 10
194.1348800137797
 20
155.717525267759
 30
0.0
 10
194.0988844042799
 20
155.8091864094098
 30
0.0
 10
194.0680030646818
 20
155.9049858137455
 30
0.0
  0
SPLINE
  5
C3
330
1F
100
AcDbEntity
  8
0
  6
Continuous
 62
     7
370
    15
100
AcDbSpline
210
0.0
220
0.0
230
1.0
 70
     8
 71
     3
 72
    10
 73
     6
 74
     0
 42
0.000000001
 43
0.00000001
 40
0.0
 40
0.0
 40
0.0
 40
0.0
 40
0.5
 40
0.5
 40
1.0
 40
1.0
 40
1.0
 40
1.0
 10
194.0680030646818
 20
163.1828262664228
 30
0.0
 10
194.0988760964941
 20
163.3461702920903
 30
0.0
 10
194.134862959407
 20
163.5082327611492
 30
0.0
 10
194.2241975452981
 20
163.8276644016531
 30
0.0
 10
194.2766534047207
 20
163.9852980432225
 30
0.0
 10
194.348462380113
 20
164.1374112952687
 30
0.0
  0
SPLINE
  5
C4
330
1F
100
AcDbEntity
  8
0
  6
Continuous
 62
     7
370
    15
100
AcDbSpline
210
0.0
220
0.0
230
1.0
 70
     8
 71
     3
 72
    16
 73
    12
 74
     0
 42
0.000000001
 43
0.00000001
 40
0.0
 40
0.0
 40
0.0
 40
0.0
 40
0.2500000000000002
 40
0.2500000000000002
 40
0.5000000000000004
 40
0.5000000000000004
 40
0.6250000000000002
 40
0.6250000000000002
 40
0.75
 40
0.75
 40
1.0
 40
1.0
 40
1.0
 40
1.0
 10
194.3484623801124
 20
164.137411295269
 30
0.0
 10
194.380190341305
 20
164.2046207677821
 30
0.0
 10
194.4148179316556
 20
164.2701223998592
 30
0.0
 10
194.4945116937192
 20
164.394972228293
 30
0.0
 10
194.5395531537229
 20
164.4551070904192
 30
0.0
 10
194.6224058805734
 20
164.5302565461754
 30
0.0
 10
194.6523203417732
 20
164.5523478320942
 30
0.0
 10
194.7183066723312
 20
164.5855092842671
 30
0.0
 10
194.755040297793
 20
164.596350694941
 30
0.0
 10
194.8675370173627
 20
164.5998748259769
 30
0.0
 10
194.937878365461
 20
164.5627407711793
 30
0.0
 10
194.9943465193662
 20
164.5133715354689
 30
0.0
  0
SPLINE
  5
C5
330
1F
100
AcDbEntity
  8
0
  6
Continuous
 62
     7
370
    15
100
AcDbSpline
210
0.0
220
0.0
230
1.0
 70
     8
 71
     3
 72
    16
 73
    12
 74
     0
 42
0.000000001
 43
0.00000001
 40
0.0
 40
0.0
 40
0.0
 40
0.0
 40
0.0624999999999974
 40
0.0624999999999974
 40
0.1249999999999947
 40
0.1249999999999947
 40
0.2499999999999946
 40
0.2499999999999946
 40
0.4999999999999958
 40
0.4999999999999958
 40
1.0
 40
1.0
 40
1.0
 40
1.0
 10
194.9943465193345
 20
164.5133715354206
 30
0.0
 10
195.0060528348365
 20
164.5031368843882
 30
0.0
 10
195.0195487481656
 20
164.4946769663345
 30
0.0
 10
195.049449739847
 20
164.4891820473895
 30
0.0
 10
195.0644258717344
 20
164.4933604960985
 30
0.0
 10
195.1001619133498
 20
164.5177376965358
 30
0.0
 10
195.1141781903795
 20
164.5444673423916
 30
0.0
 10
195.1483448439022
 20
164.6249168771735
 30
0.0
 10
195.1593261044461
 20
164.6823722254093
 30
0.0
 10
195.185216891801
 20
164.8575486163527
 30
0.0
 10
195.1893234082412
 20
164.9770689750178
 30
0.0
 10
195.1893234082415
 20
165.0969673320616
 30
0.0
  0
LINE
  5
C6
330
1F
100
AcDbEntity
  8
0
  6
Continuous
 62
     7
370
    15
100
AcDbLine
 10
195.1893234082
 20
185.1234137548
 30
0.0
 11
195.1893234082
 21
165.0969673321
 31
0.0
  0
LINE
  5
C7
330
1F
100
AcDbEntity
  8
0
  6
Continuous
 62
     7
370
    15
100
AcDbLine
 10
195.1893234082
 20
185.1234137548
 30
0.0
 11
195.1701541885
 21
185.1913098357
 31
0.0
  0
SPLINE
  5
C8
330
1F
100
AcDbEntity
  8
0
  6
Continuous
 62
     7
370
    15
100
AcDbSpline
210
0.0
220
0.0
230
1.0
 70
     8
 71
     3
 72
    12
 73
     8
 74
     0
 42
0.000000001
 43
0.00000001
 40
0.0
 40
0.0
 40
0.0
 40
0.0
 40
0.5
 40
0.5
 40
0.75
 40
0.75
 40
1.0
 40
1.0
 40
1.0
 40
1.0
 10
195.1523372802375
 20
185.2544161207665
 30
0.0
 10
195.1422095099382
 20
185.2646008904026
 30
0.0
 10
195.1297165419787
 20
185.2736806189774
 30
0.0
 10
195.0942753618448
 20
185.2797043329446
 30
0.0
 10
195.0788041923803
 20
185.2804569964303
 30
0.0
 10
195.035428300568
 20
185.2725467166679
 30
0.0
 10
195.012042161314
 20
185.2639780455551
 30
0.0
 10
194.9943465193658
 20
185.2556527268114
 30
0.0
  0
SPLINE
  5
C9
330
1F
100
AcDbEntity
  8
0
  6
Continuous
 62
     7
370
    15
100
AcDbSpline
210
0.0
220
0.0
230
1.0
 70
     8
 71
     3
 72
    14
 73
    10
 74
     0
 42
0.000000001
 43
0.00000001
 40
0.0
 40
0.0
 40
0.0
 40
0.0
 40
0.25
 40
0.25
 40
0.5
 40
0.5
 40
0.75
 40
0.75
 40
1.0
 40
1.0
 40
1.0
 40
1.0
 10
194.9943465193726
 20
185.2556527268065
 30
0.0
 10
194.9378868534889
 20
185.229089988024
 30
0.0
 10
194.8670143786267
 20
185.2084029411444
 30
0.0
 10
194.7185480207447
 20
185.2074914961372
 30
0.0
 10
194.6493528175369
 20
185.2269113055342
 30
0.0
 10
194.5396356314674
 20
185.2756449884947
 30
0.0
 10
194.4943897425354
 20
185.3054514974777
 30
0.0
 10
194.4147726115685
 20
185.3669572959078
 30
0.0
 10
194.3801699921116
 20
185.3991742890514
 30
0.0
 10
194.3484623801128
 20
185.4320675917492
 30
0.0
  0
SPLINE
  5
CA
330
1F
100
AcDbEntity
  8
0
  6
Continuous
 62
     7
370
    15
100
AcDbSpline
210
0.0
220
0.0
230
1.0
 70
     8
 71
     3
 72
    10
 73
     6
 74
     0
 42
0.000000001
 43
0.00000001
 40
0.0
 40
0.0
 40
0.0
 40
0.0
 40
0.5
 40
0.5
 40
1.0
 40
1.0
 40
1.0
 40
1.0
 10
194.0680030646818
 20
185.8641125190693
 30
0.0
 10
194.0988816311656
 20
185.7965300120265
 30
0.0
 10
194.1348743208554
 20
185.7261051808516
 30
0.0
 10
194.2242145548726
 20
185.5811971537813
 30
0.0
 10
194.276672850186
 20
185.5065416561631
 30
0.0
 10
194.3484623801129
 20
185.4320675917491
 30
0.0
  0
SPLINE
  5
CB
330
1F
100
AcDbEntity
  8
0
  6
Continuous
 62
     7
370
    15
100
AcDbSpline
210
0.0
220
0.0
230
1.0
 70
     8
 71
     3
 72
    18
 73
    14
 74
     0
 42
0.000000001
 43
0.00000001
 40
0.0
 40
0.0
 40
0.0
 40
0.0
 40
0.2499999999999994
 40
0.2499999999999994
 40
0.3749999999999995
 40
0.3749999999999995
 40
0.4999999999999997
 40
0.4999999999999997
 40
0.6249999999999998
 40
0.6249999999999998
 40
0.7499999999999999
 40
0.7499999999999999
 40
1.0
 40
1.0
 40
1.0
 40
1.0
 10
194.0680030646818
 20
155.9049858137455
 30
0.0
 10
193.9327174583794
 20
156.3246658103912
 30
0.0
 10
193.8315497121365
 20
156.8009939277777
 30
0.0
 10
193.7286883692676
 20
157.6005266181862
 30
0.0
 10
193.7025855237443
 20
157.8821278502389
 30
0.0
 10
193.6676955401994
 20
158.4719806068639
 30
0.0
 10
193.6591092819095
 20
158.7759465472609
 30
0.0
 10
193.6590095723438
 20
159.4013735078473
 30
0.0
 10
193.6674979434924
 20
159.7228361299814
 30
0.0
 10
193.701641323013
 20
160.3832791494472
 30
0.0
 10
193.7274383048668
 20
160.7236475515395
 30
0.0
 10
193.8308394362547
 20
161.7624353709062
 30
0.0
 10
193.9326974284261
 20
162.4669468718781
 30
0.0
 10
194.0680030646818
 20
163.1828262664228
 30
0.0
  0
LINE
  5
CC
330
1F
100
AcDbEntity
  8
0
  6
Continuous
 62
     7
370
    15
100
AcDbLine
 10
166.8893234082
 20
155.8066301851
 30
0.0
 11
166.8893234082
 21
164.1374112953
 31
0.0
  0
LINE
  5
CD
330
1F
100
AcDbEntity
  8
0
  6
Continuous
 62
     7
370
    15
100
AcDbLine
 10
193.1893234082
 20
155.2344060277
 30
0.0
 11
193.1893234082
 21
164.1374112953
 31
0.0
  0
LINE
  5
CE
330
1F
100
AcDbEntity
  8
0
  6
Continuous
 62
     7
370
    15
100
AcDbLine
 10
166.8893234082
 20
164.1374112953
 30
0.0
 11
166.8893234082
 21
185.0078831188
 31
0.0
  0
LINE
  5
CF
330
1F
100
AcDbEntity
  8
0
  6
Continuous
 62
     7
370
    15
100
AcDbLine
 10
193.1893234082
 20
164.1374112953
 30
0.0
 11
193.1893234082
 21
185.5801072762
 31
0.0
  0
LINE
  5
D0
330
1F
100
AcDbEntity
  8
0
  6
Continuous
 62
     7
370
    15
100
AcDbLine
 10
165.3893234082
 20
156.5566301851
 30
0.0
 11
165.3893234082
 21
164.1374112953
 31
0.0
  0
LINE
  5
D1
330
1F
100
AcDbEntity
  8
0
  6
Continuous
 62
     7
370
    15
100
AcDbLine
 10
165.3893234082
 20
164.1374112953
 30
0.0
 11
165.3893234082
 21
184.2578831188
 31
0.0
  0
SPLINE
  5
D2
330
1F
100
AcDbEntity
  8
0
  6
Continuous
 62
     7
370
    15
100
AcDbSpline
210
0.0
220
0.0
230
1.0
 70
     8
 71
     3
 72
     8
 73
     4
 74
     0
 42
0.000000001
 43
0.00000001
 40
0.0000202085968836
 40
0.0000202085968836
 40
0.0000202085968836
 40
0.0000202085968836
 40
0.0040218806502652
 40
0.0040218806502652
 40
0.0040218806502652
 40
0.0040218806502652
 10
166.8893234082414
 20
152.7845114413354
 30
0.0
 10
168.2226465340321
 20
152.7538865295221
 30
0.0
 10
169.5559804072547
 20
152.7231975180385
 30
0.0
 10
170.8893234082414
 20
152.6924444413085
 30
0.0
  0
LINE
  5
D3
330
1F
100
AcDbEntity
  8
0
  6
Continuous
 62
     7
370
    15
100
AcDbLine
 10
166.8893234082
 20
152.7845114413
 30
0.0
 11
166.8893234082
 21
155.8066301851
 31
0.0
  0
LINE
  5
D4
330
1F
100
AcDbEntity
  8
0
  6
Continuous
 62
     7
370
    15
100
AcDbLine
 10
193.1893234082
 20
151.9172094152
 30
0.0
 11
193.1893234082
 21
155.2344060277
 31
0.0
  0
SPLINE
  5
D5
330
1F
100
AcDbEntity
  8
0
  6
Continuous
 62
     7
370
    15
100
AcDbSpline
210
0.0
220
0.0
230
1.0
 70
     8
 71
     3
 72
    11
 73
     7
 74
     0
 42
0.000000001
 43
0.00000001
 40
0.0
 40
0.0
 40
0.0
 40
0.0
 40
0.4282245558128784
 40
0.6424796353885874
 40
0.8623812267208634
 40
1.0
 40
1.0
 40
1.0
 40
1.0
 10
170.8893234082414
 20
152.6924444413085
 30
0.0
 10
171.2478616766393
 20
152.6341460032048
 30
0.0
 10
171.7857886423543
 20
152.5466789050477
 30
0.0
 10
172.3894053243004
 20
152.4718167653087
 30
0.0
 10
172.7344371533152
 20
152.4342760888453
 30
0.0
 10
172.7430801186538
 20
152.4334955081356
 30
0.0
 10
172.7464070180563
 20
152.4331950425668
 30
0.0
  0
SPLINE
  5
D6
330
1F
100
AcDbEntity
  8
0
  6
Continuous
 62
     7
370
    15
100
AcDbSpline
210
0.0
220
0.0
230
1.0
 70
     8
 71
     3
 72
    17
 73
    13
 74
     0
 42
0.000000001
 43
0.00000001
 40
0.0
 40
0.0
 40
0.0
 40
0.0
 40
0.0814507191776608
 40
0.1778665295133775
 40
0.2783614961280813
 40
0.3856835892562392
 40
0.4991426170704973
 40
0.6155403439216025
 40
0.7313931082054796
 40
0.8436302132351062
 40
0.9496509754041835
 40
0.9999999999999999
 40
0.9999999999999999
 40
0.9999999999999999
 40
0.9999999999999999
 10
184.8160229641757
 20
152.1303350424187
 30
0.0
 10
184.802227051085
 20
152.1323998965947
 30
0.0
 10
184.7721004762961
 20
152.1369089844204
 30
0.0
 10
184.328926213744
 20
152.198639548188
 30
0.0
 10
183.6084444468398
 20
152.2837443803421
 30
0.0
 10
182.6266835833711
 20
152.3699846787326
 30
0.0
 10
181.4762209587253
 20
152.4250559398091
 30
0.0
 10
180.2936853662388
 20
152.4291891897327
 30
0.0
 10
179.2405664899433
 20
152.3873805247831
 30
0.0
 10
178.494488655205
 20
152.3327203511422
 30
0.0
 10
178.1189827517823
 20
152.2971347923858
 30
0.0
 10
178.1443435292373
 20
152.2995380362155
 30
0.0
 10
178.1525093676276
 20
152.3003118492723
 30
0.0
  0
SPLINE
  5
D7
330
1F
100
AcDbEntity
  8
0
  6
Continuous
 62
     7
370
    15
100
AcDbSpline
210
0.0
220
0.0
230
1.0
 70
     8
 71
     3
 72
     8
 73
     4
 74
     0
 42
0.000000001
 43
0.00000001
 40
0.0
 40
0.0
 40
0.0
 40
0.0
 40
1.0
 40
1.0
 40
1.0
 40
1.0
 10
165.3893234082405
 20
153.5620392161019
 30
0.0
 10
165.8635348186785
 20
153.3207283421428
 30
0.0
 10
166.3682711657804
 20
153.0595415679923
 30
0.0
 10
166.8893234082414
 20
152.7845114413354
 30
0.0
  0
LINE
  5
D8
330
1F
100
AcDbEntity
  8
0
  6
Continuous
 62
     7
370
    15
100
AcDbLine
 10
165.3893234082
 20
153.5620392161
 30
0.0
 11
165.3893234082
 21
156.5566301851
 31
0.0
  0
LINE
  5
D9
330
1F
100
AcDbEntity
  8
0
  6
Continuous
 62
     7
370
    15
100
AcDbLine
 10
193.1893234082
 20
186.9574069843
 30
0.0
 11
193.1893234082
 21
185.5801072762
 31
0.0
  0
LINE
  5
DA
330
1F
100
AcDbEntity
  8
0
  6
Continuous
 62
     7
370
    15
100
AcDbLine
 10
166.8893234082
 20
186.2966594417
 30
0.0
 11
166.8893234082
 21
185.0078831188
 31
0.0
  0
SPLINE
  5
DB
330
1F
100
AcDbEntity
  8
0
  6
Continuous
 62
     7
370
    15
100
AcDbSpline
210
0.0
220
0.0
230
1.0
 70
     8
 71
     3
 72
    11
 73
     7
 74
     0
 42
0.000000001
 43
0.00000001
 40
0.0
 40
0.0
 40
0.0
 40
0.0
 40
0.0902262628413833
 40
0.4609960513161525
 40
0.7284424429551084
 40
1.0
 40
1.0
 40
1.0
 40
1.0
 10
193.6691712351143
 20
186.7465333951596
 30
0.0
 10
193.6661258417663
 20
186.7533418918611
 30
0.0
 10
193.6505659120525
 20
186.7881287709357
 30
0.0
 10
193.725440656746
 20
186.6206950927844
 30
0.0
 10
193.8656830018923
 20
186.3085787240995
 30
0.0
 10
194.0002209881781
 20
186.0130193644771
 30
0.0
 10
194.0680030646818
 20
185.8641125190693
 30
0.0
  0
LINE
  5
DC
330
1F
100
AcDbEntity
  8
0
  6
Continuous
 62
     7
370
    15
100
AcDbLine
 10
165.3893234082
 20
185.4306340379
 30
0.0
 11
165.3893234082
 21
184.2578831188
 31
0.0
  0
SPLINE
  5
DD
330
1F
100
AcDbEntity
  8
0
  6
HIDDEN
 62
     7
370
     0
100
AcDbSpline
210
0.0
220
0.0
230
1.0
 70
    24
 71
     3
 72
    14
 73
    10
 74
     0
 42
0.000000001
 43
0.00000001
 40
0.0
 40
0.0
 40
0.0
 40
0.0
 40
0.4999999999999953
 40
0.4999999999999953
 40
0.6249999999999957
 40
0.6249999999999957
 40
0.7499999999999961
 40
0.7499999999999961
 40
1.0
 40
1.0
 40
1.0
 40
1.0
 10
217.5381210110733
 20
195.3173081997459
 30
0.0
 10
217.556454043528
 20
195.3173081997459
 30
0.0
 10
217.6406275121055
 20
195.3173081997459
 30
0.0
 10
217.8484054390848
 20
195.3173081997459
 30
0.0
 10
217.89463562827
 20
195.3173081997459
 30
0.0
 10
217.9980392587294
 20
195.3173081997459
 30
0.0
 10
218.0561095646289
 20
195.3173081997459
 30
0.0
 10
218.2426742870698
 20
195.3173081997459
 30
0.0
 10
218.3868900023484
 20
195.3173081997459
 30
0.0
 10
218.534315709165
 20
195.3173081997459
 30
0.0
  0
LINE
  5
DE
330
1F
100
AcDbEntity
  8
0
  6
HIDDEN
 62
     7
370
     0
100
AcDbLine
 10
253.3893234082
 20
143.3173081997
 30
0.0
 11
253.3893234082
 21
128.3173081997
 31
0.0
  0
LINE
  5
DF
330
1F
100
AcDbEntity
  8
0
  6
HIDDEN
 62
     7
370
     0
100
AcDbLine
 10
228.3893234082
 20
143.3173081997
 30
0.0
 11
253.3893234082
 21
143.3173081997
 31
0.0
  0
LINE
  5
E0
330
1F
100
AcDbEntity
  8
0
  6
HIDDEN
 62
     7
370
     0
100
AcDbLine
 10
253.3893234082
 20
169.3173081997
 30
0.0
 11
228.3893234082
 21
169.3173081997
 31
0.0
  0
LINE
  5
E1
330
1F
100
AcDbEntity
  8
0
  6
HIDDEN
 62
     7
370
     0
100
AcDbLine
 10
253.3893234082
 20
188.3173081997
 30
0.0
 11
253.3893234082
 21
169.3173081997
 31
0.0
  0
LINE
  5
E2
330
1F
100
AcDbEntity
  8
0
  6
HIDDEN
 62
     7
370
     0
100
AcDbLine
 10
253.3893234082
 20
188.3173081997
 30
0.0
 11
228.3893234082
 21
188.3173081997
 31
0.0
  0
LINE
  5
E3
330
1F
100
AcDbEntity
  8
0
  6
HIDDEN
 62
     7
370
     0
100
AcDbLine
 10
228.3893234082
 20
195.3173081997
 30
0.0
 11
228.3893234082
 21
188.3173081997
 31
0.0
  0
LINE
  5
E4
330
1F
100
AcDbEntity
  8
0
  6
HIDDEN
 62
     7
370
     0
100
AcDbLine
 10
218.5343157092
 20
195.3173081997
 30
0.0
 11
228.3893234082
 21
195.3173081997
 31
0.0
  0
SPLINE
  5
E5
330
1F
100
AcDbEntity
  8
0
  6
HIDDEN
 62
     7
370
     0
100
AcDbSpline
210
0.0
220
0.0
230
1.0
 70
    11
 71
     3
 72
    89
 73
    85
 74
     0
 42
0.000000001
 43
0.00000001
 40
0.0
 40
0.0
 40
0.0
 40
0.0
 40
0.0312500000000011
 40
0.0312500000000011
 40
0.0468750000000015
 40
0.0468750000000015
 40
0.0625000000000019
 40
0.0625000000000019
 40
0.0937500000000028
 40
0.0937500000000028
 40
0.1093750000000033
 40
0.1093750000000033
 40
0.1250000000000037
 40
0.1250000000000037
 40
0.1562500000000042
 40
0.1562500000000042
 40
0.1875000000000048
 40
0.1875000000000048
 40
0.2187500000000053
 40
0.2187500000000053
 40
0.2343750000000053
 40
0.2343750000000053
 40
0.2500000000000053
 40
0.2500000000000053
 40
0.2656250000000053
 40
0.2656250000000053
 40
0.2812500000000053
 40
0.2812500000000053
 40
0.3125000000000054
 40
0.3125000000000054
 40
0.3437500000000054
 40
0.3437500000000054
 40
0.3750000000000054
 40
0.3750000000000054
 40
0.4062500000000053
 40
0.4062500000000053
 40
0.4218750000000053
 40
0.4218750000000053
 40
0.4375000000000053
 40
0.4375000000000053
 40
0.4687500000000054
 40
0.4687500000000054
 40
0.5000000000000056
 40
0.5000000000000056
 40
0.5312500000000057
 40
0.5312500000000057
 40
0.5625000000000058
 40
0.5625000000000058
 40
0.5937500000000059
 40
0.5937500000000059
 40
0.6093750000000059
 40
0.6093750000000059
 40
0.6250000000000059
 40
0.6250000000000059
 40
0.6406250000000059
 40
0.6406250000000059
 40
0.6562500000000059
 40
0.6562500000000059
 40
0.6875000000000056
 40
0.6875000000000056
 40
0.7187500000000052
 40
0.7187500000000052
 40
0.7500000000000049
 40
0.7500000000000049
 40
0.7656250000000048
 40
0.7656250000000048
 40
0.7812500000000044
 40
0.7968750000000041
 40
0.7968750000000041
 40
0.8125000000000038
 40
0.8125000000000038
 40
0.8437500000000032
 40
0.8437500000000032
 40
0.8750000000000027
 40
0.8750000000000027
 40
0.9062500000000021
 40
0.9062500000000021
 40
0.9218750000000018
 40
0.9218750000000018
 40
0.9375000000000014
 40
0.9375000000000014
 40
0.9687500000000008
 40
0.9687500000000008
 40
1.0
 40
1.0
 40
1.0
 40
1.0
 10
233.3893234082414
 20
179.3173081997459
 30
0.0
 10
233.3893234082414
 20
179.7718321354311
 30
0.0
 10
233.3454934853274
 20
180.216645359214
 30
0.0
 10
233.2184714260588
 20
180.8703744306836
 30
0.0
 10
233.1658387423214
 20
181.0860221503392
 30
0.0
 10
233.0398292910982
 20
181.5128219469433
 30
0.0
 10
232.9659962971223
 20
181.7250261144672
 30
0.0
 10
232.7161095967095
 20
182.3456252079619
 30
0.0
 10
232.512660413227
 20
182.7378977188112
 30
0.0
 10
232.153166588936
 20
183.2956286961366
 30
0.0
 10
232.0242148618285
 20
183.47639038457
 30
0.0
 10
231.7473806345916
 20
183.8274289379285
 30
0.0
 10
231.5992254304897
 20
183.997793960357
 30
0.0
 10
231.1350876333267
 20
184.4823663859369
 30
0.0
 10
230.7968636495404
 20
184.7741293564233
 30
0.0
 10
230.0603546691861
 20
185.2945013199152
 30
0.0
 10
229.6568832696742
 20
185.5248100491935
 30
0.0
 10
228.8196562683441
 20
185.8978483635962
 30
0.0
 10
228.3838381138969
 20
186.0432768053047
 30
0.0
 10
227.7026213951062
 20
186.196947292475
 30
0.0
 10
227.4692788654646
 20
186.2374873986442
 30
0.0
 10
227.0029037839144
 20
186.2943206733653
 30
0.0
 10
226.7697576453234
 20
186.3108503695296
 30
0.0
 10
226.3035464991832
 20
186.3206648671704
 30
0.0
 10
226.0704814944022
 20
186.3139488010334
 30
0.0
 10
225.604433174087
 20
186.2770917588758
 30
0.0
 10
225.3703082496062
 20
186.2467323703662
 30
0.0
 10
224.6761060127394
 20
186.1206993450037
 30
0.0
 10
224.2310748829052
 20
185.992234384592
 30
0.0
 10
223.3740255454927
 20
185.6513949586373
 30
0.0
 10
222.9607194367798
 20
185.4369841787275
 30
0.0
 10
222.1995879423758
 20
184.9433082003605
 30
0.0
 10
221.8466718660459
 20
184.6622944194152
 30
0.0
 10
221.1966138221467
 20
184.0332734113167
 30
0.0
 10
220.9082495366553
 20
183.6938960858956
 30
0.0
 10
220.5268509042086
 20
183.148833903327
 30
0.0
 10
220.4083154619971
 20
182.9611006203653
 30
0.0
 10
220.1886205503205
 20
182.5732202571228
 30
0.0
 10
220.0873855008585
 20
182.3726325428115
 30
0.0
 10
219.8156133541558
 20
181.7635398004267
 30
0.0
 10
219.6744536443361
 20
181.3441906743711
 30
0.0
 10
219.4719528566312
 20
180.4782186889174
 30
0.0
 10
219.4109603316175
 20
180.0271171860116
 30
0.0
 10
219.3774489254796
 20
179.1302353151121
 30
0.0
 10
219.4034792173656
 20
178.6818188153113
 30
0.0
 10
219.5439708303757
 20
177.7853114955621
 30
0.0
 10
219.6602487525026
 20
177.3352597799474
 30
0.0
 10
219.9751670596599
 20
176.4769631508329
 30
0.0
 10
220.1740969528195
 20
176.0635562209706
 30
0.0
 10
220.5375813968635
 20
175.4687888883529
 30
0.0
 10
220.6699697147423
 20
175.2746606532486
 30
0.0
 10
220.9506897026035
 20
174.9042288584648
 30
0.0
 10
221.099695981479
 20
174.7267187051982
 30
0.0
 10
221.4147939258146
 20
174.3870215295941
 30
0.0
 10
221.5808852637331
 20
174.2248340502529
 30
0.0
 10
221.930435471876
 20
173.9161334456992
 30
0.0
 10
222.1149367048998
 20
173.7688959305349
 30
0.0
 10
222.6877356565918
 20
173.3575020189898
 30
0.0
 10
223.0918498542453
 20
173.1250018016253
 30
0.0
 10
223.943444523725
 20
172.7419248002941
 30
0.0
 10
224.3958585264238
 20
172.590861862963
 30
0.0
 10
225.3089325551178
 20
172.3853720949374
 30
0.0
 10
225.7722588949858
 20
172.3287156432854
 30
0.0
 10
226.4775734730389
 20
172.3139154105688
 30
0.0
 10
226.7151125783448
 20
172.3209534639211
 30
0.0
 10
227.1831537561836
 20
172.3585047969906
 30
0.0
 10
227.6466561104447
 20
172.419328009078
 30
0.0
 10
228.101242980246
 20
172.5258303169415
 30
0.0
 10
228.5513161588341
 20
172.6554295007588
 30
0.0
 10
228.7752320192544
 20
172.7322526998135
 30
0.0
 10
229.4313323719275
 20
172.9952638457386
 30
0.0
 10
229.8444951719443
 20
173.2116447212463
 30
0.0
 10
230.6236554175835
 20
173.7237609474172
 30
0.0
 10
230.9927486823546
 20
174.0234333710585
 30
0.0
 10
231.6531200091815
 20
174.6795199014202
 30
0.0
 10
231.9476079905587
 20
175.0369195056437
 30
0.0
 10
232.3356389812571
 20
175.6165792413153
 30
0.0
 10
232.4562181658972
 20
175.8178319631915
 30
0.0
 10
232.6740859032238
 20
176.2261423497239
 30
0.0
 10
232.772101520639
 20
176.4341501725241
 30
0.0
 10
233.0343252336301
 20
177.0692474112623
 30
0.0
 10
233.167406963827
 20
177.5095186064821
 30
0.0
 10
233.3453886364322
 20
178.4097419811327
 30
0.0
 10
233.3893234082414
 20
178.8627842640606
 30
0.0
 10
233.3893234082414
 20
179.3173081997459
 30
0.0
  0
LINE
  5
E6
330
1F
100
AcDbEntity
  8
0
  6
HIDDEN
 62
     7
370
     0
100
AcDbLine
 10
228.3893234082
 20
169.3173081997
 30
0.0
 11
228.3893234082
 21
143.3173081997
 31
0.0
  0
SPLINE
  5
E7
330
1F
100
AcDbEntity
  8
0
  6
HIDDEN
 62
     7
370
     0
100
AcDbSpline
210
0.0
220
0.0
230
1.0
 70
     8
 71
     3
 72
    13
 73
     9
 74
     0
 42
0.000000001
 43
0.00000001
 40
0.0
 40
0.0
 40
0.0
 40
0.0
 40
0.1177864322176121
 40
0.3235320497222224
 40
0.5292232514728222
 40
0.7171795548764776
 40
0.9051815102416135
 40
1.0
 40
1.0
 40
1.0
 40
1.0
 10
229.1297839698818
 20
185.7271011858948
 30
0.0
 10
228.930204059991
 20
185.8184042770139
 30
0.0
 10
228.3820042706382
 20
186.0691927223345
 30
0.0
 10
227.3929876131048
 20
186.269701841607
 30
0.0
 10
226.2551150676491
 20
186.349597318988
 30
0.0
 10
225.1562930221779
 20
186.2288268717937
 30
0.0
 10
224.2851397508185
 20
186.0259209611994
 30
0.0
 10
223.8055987835468
 20
185.8081115475964
 30
0.0
 10
223.6448276968804
 20
185.7350886809363
 30
0.0
  0
SPLINE
  5
E8
330
1F
100
AcDbEntity
  8
0
  6
HIDDEN
 62
     7
370
     0
100
AcDbSpline
210
0.0
220
0.0
230
1.0
 70
    24
 71
     3
 72
    11
 73
     7
 74
     0
 42
0.000000001
 43
0.00000001
 40
0.0
 40
0.0
 40
0.0
 40
0.0
 40
0.171579100802521
 40
0.4835024843630794
 40
0.795441673703236
 40
1.0
 40
1.0
 40
1.0
 40
1.0
 10
216.5129264043268
 20
195.3173081997459
 30
0.0
 10
216.5077332483917
 20
195.3173081997459
 30
0.0
 10
216.4930991595979
 20
195.3173081997459
 30
0.0
 10
216.7452805078906
 20
195.3173081997459
 30
0.0
 10
217.1200020167844
 20
195.3173081997459
 30
0.0
 10
217.4195036770327
 20
195.3173081997459
 30
0.0
 10
217.5381210110733
 20
195.3173081997459
 30
0.0
  0
LINE
  5
E9
330
1F
100
AcDbEntity
  8
0
  6
HIDDEN
 62
     7
370
     0
100
AcDbLine
 10
235.8067424939
 20
188.3173081997
 30
0.0
 11
245.9719043226
 21
188.3173081997
 31
0.0
  0
LINE
  5
EA
330
1F
100
AcDbEntity
  8
0
  6
HIDDEN
 62
     7
370
     0
100
AcDbLine
 10
235.8067424939
 20
169.3173081997
 30
0.0
 11
245.9719043226
 21
169.3173081997
 31
0.0
  0
ELLIPSE
  5
EB
330
1F
100
AcDbEntity
  8
0
  6
HIDDEN
 62
     7
370
     0
100
AcDbEllipse
 10
225.1709894476
 20
177.7805342907
 30
0.0
 11
0.9056736829558361
 21
2.522781696436482
 31
0.0
210
0.0
220
0.0
230
1.0
 40
0.9326882945
 41
0.8448071522178023
 42
4.79849718032878
  0
CIRCLE
  5
EC
330
1F
100
AcDbEntity
  8
0
  6
HIDDEN
 62
     7
370
     0
100
AcDbCircle
 10
226.3893234082
 20
179.3173081997
 30
0.0
 40
7.0
  0
SPLINE
  5
ED
330
1F
100
AcDbEntity
  8
0
  6
HIDDEN
 62
     7
370
     0
100
AcDbSpline
210
0.0
220
0.0
230
1.0
 70
    11
 71
     3
 72
    66
 73
    62
 74
     0
 42
0.000000001
 43
0.00000001
 40
0.0
 40
0.0
 40
0.0
 40
0.0
 40
0.03125
 40
0.03125
 40
0.0624999999999999
 40
0.0624999999999999
 40
0.0937499999999999
 40
0.0937499999999999
 40
0.1249999999999998
 40
0.1249999999999998
 40
0.1562499999999998
 40
0.1562499999999998
 40
0.1874999999999997
 40
0.1874999999999997
 40
0.2187499999999997
 40
0.2187499999999997
 40
0.2499999999999996
 40
0.2499999999999996
 40
0.2812499999999996
 40
0.2812499999999996
 40
0.3124999999999995
 40
0.3124999999999995
 40
0.3437499999999994
 40
0.3437499999999994
 40
0.3749999999999994
 40
0.3749999999999994
 40
0.4062499999999994
 40
0.4062499999999994
 40
0.4374999999999993
 40
0.4374999999999993
 40
0.4687499999999993
 40
0.4687499999999993
 40
0.4999999999999992
 40
0.4999999999999992
 40
0.5624999999999996
 40
0.5624999999999996
 40
0.5937499999999997
 40
0.5937499999999997
 40
0.6249999999999997
 40
0.6249999999999997
 40
0.6562499999999998
 40
0.6562499999999998
 40
0.6874999999999998
 40
0.6874999999999998
 40
0.7187499999999999
 40
0.7187499999999999
 40
0.7499999999999999
 40
0.7499999999999999
 40
0.78125
 40
0.78125
 40
0.8125000000000001
 40
0.8125000000000001
 40
0.8437500000000001
 40
0.8437500000000001
 40
0.8750000000000002
 40
0.8750000000000002
 40
0.9062500000000002
 40
0.9062500000000002
 40
0.9375000000000003
 40
0.9375000000000003
 40
1.0
 40
1.0
 40
1.0
 40
1.0
 10
224.313332114673
 20
168.3173081997459
 30
0.0
 10
224.4123317222752
 20
168.4550776383541
 30
0.0
 10
224.4982055629356
 20
168.5992457508572
 30
0.0
 10
224.642609849473
 20
168.9006144335765
 30
0.0
 10
224.7014349292083
 20
169.0598339131412
 30
0.0
 10
224.7832984752128
 20
169.3774655975147
 30
0.0
 10
224.8072573561469
 20
169.5369228604054
 30
0.0
 10
224.8187227600014
 20
169.8569660213578
 30
0.0
 10
224.805741597795
 20
170.0131750264907
 30
0.0
 10
224.7448202611737
 20
170.3104309211191
 30
0.0
 10
224.6960251759228
 20
170.4540102974342
 30
0.0
 10
224.5691754046676
 20
170.717475545693
 30
0.0
 10
224.4906818596476
 20
170.8394378743598
 30
0.0
 10
224.3076486030731
 20
171.0630821578301
 30
0.0
 10
224.2048856518553
 20
171.1628991316832
 30
0.0
 10
223.9781259844518
 20
171.3427185031285
 30
0.0
 10
223.8532322266479
 20
171.4229492065303
 30
0.0
 10
223.5895420891116
 20
171.5610923689553
 30
0.0
 10
223.4500066479036
 20
171.6197783992864
 30
0.0
 10
223.1536625842463
 20
171.7181483992677
 30
0.0
 10
222.9966041784548
 20
171.7575783364115
 30
0.0
 10
222.6759283660874
 20
171.8144680800174
 30
0.0
 10
222.5091155207676
 20
171.8325874791411
 30
0.0
 10
222.1717054113595
 20
171.8458129553923
 30
0.0
 10
222.0047204759684
 20
171.8409999806365
 30
0.0
 10
221.6742031575479
 20
171.8078097031481
 30
0.0
 10
221.5101023148404
 20
171.7788774880595
 30
0.0
 10
221.2025545678507
 20
171.6983748839526
 30
0.0
 10
221.0553869465712
 20
171.6460538789129
 30
0.0
 10
220.7821845470028
 20
171.5188033259003
 30
0.0
 10
220.6567623110328
 20
171.4445227858081
 30
0.0
 10
220.4258661845609
 20
171.2722998463498
 30
0.0
 10
220.3212969557792
 20
171.1745885046281
 30
0.0
 10
220.0477625947089
 20
170.8529830399939
 30
0.0
 10
219.9132147553968
 20
170.5918904389588
 30
0.0
 10
219.8046291508454
 20
170.1588109529243
 30
0.0
 10
219.7831557326118
 20
170.0044120913772
 30
0.0
 10
219.7728729036305
 20
169.6901233114826
 30
0.0
 10
219.783544664634
 20
169.5308182859896
 30
0.0
 10
219.8363721971963
 20
169.2080830669087
 30
0.0
 10
219.8788323544293
 20
169.0454614637547
 30
0.0
 10
219.9913226022856
 20
168.7318813750285
 30
0.0
 10
220.0623991688425
 20
168.5776286634441
 30
0.0
 10
220.2301983720986
 20
168.2842923996674
 30
0.0
 10
220.3258976851936
 20
168.1463585707879
 30
0.0
 10
220.5415815506327
 20
167.8883078377525
 30
0.0
 10
220.6623498741562
 20
167.7679739482371
 30
0.0
 10
220.9206334433276
 20
167.5567153205363
 30
0.0
 10
221.0591361569891
 20
167.4643293468572
 30
0.0
 10
221.3581458054254
 20
167.3095172273241
 30
0.0
 10
221.516273832164
 20
167.2488353201698
 30
0.0
 10
221.841357227018
 20
167.1667178127248
 30
0.0
 10
222.0119463516216
 20
167.1448614553001
 30
0.0
 10
222.3483218682635
 20
167.1424053471071
 30
0.0
 10
222.5159037180734
 20
167.16105037964
 30
0.0
 10
222.8469992247859
 20
167.2354520292409
 30
0.0
 10
223.0057525257066
 20
167.2899371250064
 30
0.0
 10
223.3118592213835
 20
167.428821248141
 30
0.0
 10
223.4591052730739
 20
167.513577190435
 30
0.0
 10
223.8712056261287
 20
167.8010043697259
 30
0.0
 10
224.1153328994687
 20
168.0417693225293
 30
0.0
 10
224.313332114673
 20
168.3173081997459
 30
0.0
  0
SPLINE
  5
EE
330
1F
100
AcDbEntity
  8
0
  6
HIDDEN
 62
     7
370
     0
100
AcDbSpline
210
0.0
220
0.0
230
1.0
 70
     8
 71
     3
 72
    17
 73
    13
 74
     0
 42
0.000000001
 43
0.00000001
 40
0.0
 40
0.0
 40
0.0
 40
0.0
 40
0.1071373279366306
 40
0.2142664101574959
 40
0.3216097375823353
 40
0.4290956010880254
 40
0.5363476705217767
 40
0.6433543613523715
 40
0.7504869858601574
 40
0.8579199544451708
 40
0.9653598746021251
 40
1.0
 40
1.0
 40
1.0
 40
1.0
 10
205.3893234082414
 20
143.3173081997459
 30
0.0
 10
205.4113641175902
 20
143.3191214548289
 30
0.0
 10
205.4554438399468
 20
143.3227478254396
 30
0.0
 10
205.7989716177466
 20
143.3479739599325
 30
0.0
 10
206.3054592151535
 20
143.3760923326019
 30
0.0
 10
206.9388992225451
 20
143.3963901980846
 30
0.0
 10
207.6218575086749
 20
143.3994420514671
 30
0.0
 10
208.2768433806901
 20
143.3841997830748
 30
0.0
 10
208.8363759543586
 20
143.3569354840336
 30
0.0
 10
209.21820505952
 20
143.3310058325815
 30
0.0
 10
209.4000376585532
 20
143.3164625243892
 30
0.0
 10
209.3715384469421
 20
143.3187178199499
 30
0.0
 10
209.3645901365013
 20
143.3192676770443
 30
0.0
  0
SPLINE
  5
EF
330
1F
100
AcDbEntity
  8
0
  6
HIDDEN
 62
     7
370
     0
100
AcDbSpline
210
0.0
220
0.0
230
1.0
 70
     8
 71
     3
 72
    12
 73
     8
 74
     0
 42
0.000000001
 43
0.00000001
 40
0.0
 40
0.0
 40
0.0
 40
0.0
 40
0.25
 40
0.25
 40
0.5
 40
0.5
 40
1.0
 40
1.0
 40
1.0
 40
1.0
 10
203.9170802218079
 20
160.7484982305653
 30
0.0
 10
203.8534149852774
 20
160.7484982305653
 30
0.0
 10
203.793808753054
 20
160.7224260820856
 30
0.0
 10
203.6951482281232
 20
160.6468873312646
 30
0.0
 10
203.6561812381079
 20
160.5996363941683
 30
0.0
 10
203.5567944061835
 20
160.4478125762019
 30
0.0
 10
203.51471815876
 20
160.3350093264368
 30
0.0
 10
203.4840675199157
 20
160.2208552017017
 30
0.0
  0
LINE
  5
F0
330
1F
100
AcDbEntity
  8
0
  6
HIDDEN
 62
     7
370
     0
100
AcDbLine
 10
206.8615665947
 20
160.7484982306
 30
0.0
 11
203.9170802218
 21
160.7484982306
 31
0.0
  0
SPLINE
  5
F1
330
1F
100
AcDbEntity
  8
0
  6
HIDDEN
 62
     7
370
     0
100
AcDbSpline
210
0.0
220
0.0
230
1.0
 70
     8
 71
     3
 72
    12
 73
     8
 74
     0
 42
0.000000001
 43
0.00000001
 40
0.0
 40
0.0
 40
0.0
 40
0.0
 40
0.4999999999999969
 40
0.4999999999999969
 40
0.7499999999999984
 40
0.7499999999999984
 40
1.0
 40
1.0
 40
1.0
 40
1.0
 10
207.2945792965672
 20
160.2208552017017
 30
0.0
 10
207.2638799131999
 20
160.3351908687656
 30
0.0
 10
207.2225298450934
 20
160.4465442216069
 30
0.0
 10
207.1227739168739
 20
160.5992809938556
 30
0.0
 10
207.0830769991412
 20
160.6471408797078
 30
0.0
 10
206.9858188474936
 20
160.7217439930573
 30
0.0
 10
206.9250426895029
 20
160.7484982305653
 30
0.0
 10
206.861566594675
 20
160.7484982305653
 30
0.0
  0
ELLIPSE
  5
F2
330
1F
100
AcDbEntity
  8
0
  6
HIDDEN
 62
     7
370
     0
100
AcDbEllipse
 10
194.3330657533
 20
168.3173081997
 30
0.0
 11
-11.70927234972708
 21
24.67718644093742
 31
0.0
210
0.0
220
0.0
230
1.0
 40
0.3419987131
 41
3.310521928178963
 42
4.221709151398951
  0
SPLINE
  5
F3
330
1F
100
AcDbEntity
  8
0
  6
HIDDEN
 62
     7
370
     0
100
AcDbSpline
210
0.0
220
0.0
230
1.0
 70
     8
 71
     3
 72
    12
 73
     8
 74
     0
 42
0.000000001
 43
0.00000001
 40
0.0
 40
0.0
 40
0.0
 40
0.0
 40
0.2500000000000023
 40
0.2500000000000023
 40
0.5000000000000047
 40
0.5000000000000047
 40
1.0
 40
1.0
 40
1.0
 40
1.0
 10
206.861566594675
 20
144.490577084244
 30
0.0
 10
206.9252318312055
 20
144.490577084244
 30
0.0
 10
206.9848380634288
 20
144.4988418599098
 30
0.0
 10
207.0834985883597
 20
144.5230606414929
 30
0.0
 10
207.122465578375
 20
144.5383179608021
 30
0.0
 10
207.2218524102994
 20
144.5879513150641
 30
0.0
 10
207.2639286577229
 20
144.6255910232382
 30
0.0
 10
207.2945792965672
 20
144.6646667225143
 30
0.0
  0
LINE
  5
F4
330
1F
100
AcDbEntity
  8
0
  6
HIDDEN
 62
     7
370
     0
100
AcDbLine
 10
203.9170802218
 20
144.4905770842
 30
0.0
 11
206.8615665947
 21
144.4905770842
 31
0.0
  0
SPLINE
  5
F5
330
1F
100
AcDbEntity
  8
0
  6
HIDDEN
 62
     7
370
     0
100
AcDbSpline
210
0.0
220
0.0
230
1.0
 70
     8
 71
     3
 72
    12
 73
     8
 74
     0
 42
0.000000001
 43
0.00000001
 40
0.0
 40
0.0
 40
0.0
 40
0.0
 40
0.5000000000000023
 40
0.5000000000000023
 40
0.7500000000000011
 40
0.7500000000000011
 40
1.0
 40
1.0
 40
1.0
 40
1.0
 10
203.4840675199157
 20
144.6646667225143
 30
0.0
 10
203.514766903283
 20
144.6255288801184
 30
0.0
 10
203.5561169713895
 20
144.5883690973929
 30
0.0
 10
203.6558728996089
 20
144.5384325917652
 30
0.0
 10
203.6955698173416
 20
144.5229797216214
 30
0.0
 10
203.7928279689892
 20
144.4990601780223
 30
0.0
 10
203.8536041269799
 20
144.490577084244
 30
0.0
 10
203.9170802218079
 20
144.490577084244
 30
0.0
  0
ELLIPSE
  5
F6
330
1F
100
AcDbEntity
  8
0
  6
HIDDEN
 62
     7
370
     0
100
AcDbEllipse
 10
216.4455810632
 20
168.3173081997
 30
0.0
 11
11.709272349727
 21
24.67718644093745
 31
0.0
210
0.0
220
0.0
230
1.0
 40
0.3419987131
 41
2.061476155780645
 42
2.972663379000663
  0
SPLINE
  5
F7
330
1F
100
AcDbEntity
  8
0
  6
HIDDEN
 62
     7
370
     0
100
AcDbSpline
210
0.0
220
0.0
230
1.0
 70
     8
 71
     3
 72
    12
 73
     8
 74
     0
 42
0.000000001
 43
0.00000001
 40
0.0
 40
0.0
 40
0.0
 40
0.0
 40
0.2500000000000007
 40
0.2500000000000007
 40
0.5000000000000013
 40
0.5000000000000013
 40
1.0
 40
1.0
 40
1.0
 40
1.0
 10
203.9170802218079
 20
192.1440393152479
 30
0.0
 10
203.8534149852774
 20
192.1440393152479
 30
0.0
 10
203.793808753054
 20
192.1357745395821
 30
0.0
 10
203.6951482281232
 20
192.1115557579989
 30
0.0
 10
203.6561812381079
 20
192.0962984386898
 30
0.0
 10
203.5567944061835
 20
192.0466650844279
 30
0.0
 10
203.51471815876
 20
192.0090253762538
 30
0.0
 10
203.4840675199157
 20
191.9699496769776
 30
0.0
  0
LINE
  5
F8
330
1F
100
AcDbEntity
  8
0
  6
HIDDEN
 62
     7
370
     0
100
AcDbLine
 10
206.8615665947
 20
192.1440393152
 30
0.0
 11
203.9170802218
 21
192.1440393152
 31
0.0
  0
SPLINE
  5
F9
330
1F
100
AcDbEntity
  8
0
  6
HIDDEN
 62
     7
370
     0
100
AcDbSpline
210
0.0
220
0.0
230
1.0
 70
     8
 71
     3
 72
    12
 73
     8
 74
     0
 42
0.000000001
 43
0.00000001
 40
0.0
 40
0.0
 40
0.0
 40
0.0
 40
0.5000000000000018
 40
0.5000000000000018
 40
0.7500000000000009
 40
0.7500000000000009
 40
1.0
 40
1.0
 40
1.0
 40
1.0
 10
207.2945792965672
 20
191.9699496769776
 30
0.0
 10
207.2638799131999
 20
192.0090875193735
 30
0.0
 10
207.2225298450934
 20
192.046247302099
 30
0.0
 10
207.1227739168739
 20
192.0961838077268
 30
0.0
 10
207.0830769991412
 20
192.1116366778705
 30
0.0
 10
206.9858188474936
 20
192.1355562214696
 30
0.0
 10
206.9250426895029
 20
192.1440393152479
 30
0.0
 10
206.861566594675
 20
192.1440393152479
 30
0.0
  0
ELLIPSE
  5
FA
330
1F
100
AcDbEntity
  8
0
  6
HIDDEN
 62
     7
370
     0
100
AcDbEllipse
 10
194.3330657533
 20
168.3173081997
 30
0.0
 11
11.70927234972729
 21
24.67718644093745
 31
0.0
210
0.0
220
0.0
230
1.0
 40
0.3419987131
 41
5.20306880937047
 42
6.114256032590516
  0
SPLINE
  5
FB
330
1F
100
AcDbEntity
  8
0
  6
HIDDEN
 62
     7
370
     0
100
AcDbSpline
210
0.0
220
0.0
230
1.0
 70
     8
 71
     3
 72
    12
 73
     8
 74
     0
 42
0.000000001
 43
0.00000001
 40
0.0
 40
0.0
 40
0.0
 40
0.0
 40
0.25
 40
0.25
 40
0.5
 40
0.5
 40
1.0
 40
1.0
 40
1.0
 40
1.0
 10
206.861566594675
 20
175.8861181689269
 30
0.0
 10
206.9252318312055
 20
175.8861181689269
 30
0.0
 10
206.9848380634288
 20
175.9121903174066
 30
0.0
 10
207.0834985883597
 20
175.9877290682277
 30
0.0
 10
207.122465578375
 20
176.0349800053239
 30
0.0
 10
207.2218524102994
 20
176.1868038232903
 30
0.0
 10
207.2639286577229
 20
176.2996070730554
 30
0.0
 10
207.2945792965672
 20
176.4137611977905
 30
0.0
  0
LINE
  5
FC
330
1F
100
AcDbEntity
  8
0
  6
HIDDEN
 62
     7
370
     0
100
AcDbLine
 10
203.9170802218
 20
175.8861181689
 30
0.0
 11
206.8615665947
 21
175.8861181689
 31
0.0
  0
SPLINE
  5
FD
330
1F
100
AcDbEntity
  8
0
  6
HIDDEN
 62
     7
370
     0
100
AcDbSpline
210
0.0
220
0.0
230
1.0
 70
     8
 71
     3
 72
    12
 73
     8
 74
     0
 42
0.000000001
 43
0.00000001
 40
0.0
 40
0.0
 40
0.0
 40
0.0
 40
0.4999999999999987
 40
0.4999999999999987
 40
0.7499999999999993
 40
0.7499999999999993
 40
1.0
 40
1.0
 40
1.0
 40
1.0
 10
203.4840675199157
 20
176.4137611977905
 30
0.0
 10
203.514766903283
 20
176.2994255307267
 30
0.0
 10
203.5561169713895
 20
176.1880721778853
 30
0.0
 10
203.6558728996089
 20
176.0353354056366
 30
0.0
 10
203.6955698173416
 20
175.9874755197845
 30
0.0
 10
203.7928279689892
 20
175.912872406435
 30
0.0
 10
203.8536041269799
 20
175.8861181689269
 30
0.0
 10
203.9170802218079
 20
175.8861181689269
 30
0.0
  0
ELLIPSE
  5
FE
330
1F
100
AcDbEntity
  8
0
  6
HIDDEN
 62
     7
370
     0
100
AcDbEllipse
 10
216.4455810632
 20
168.3173081997
 30
0.0
 11
-11.70927234972714
 21
24.67718644093745
 31
0.0
210
0.0
220
0.0
230
1.0
 40
0.3419987131
 41
0.1689292745891119
 42
1.080116497809129
  0
LINE
  5
FF
330
1F
100
AcDbEntity
  8
0
  6
HIDDEN
 62
     7
370
     0
100
AcDbLine
 10
195.3893234082
 20
193.0173081997
 30
0.0
 11
195.3893234082
 21
143.6173081997
 31
0.0
  0
LINE
  5
100
330
1F
100
AcDbEntity
  8
0
  6
HIDDEN
 62
     7
370
     0
100
AcDbLine
 10
195.3893234082
 20
148.7715958378
 30
0.0
 11
195.3893234082
 21
187.8630205617
 31
0.0
  0
SPLINE
  5
101
330
1F
100
AcDbEntity
  8
0
  6
HIDDEN
 62
     7
370
     0
100
AcDbSpline
210
0.0
220
0.0
230
1.0
 70
     8
 71
     3
 72
    14
 73
    10
 74
     0
 42
0.000000001
 43
0.00000001
 40
0.0
 40
0.0
 40
0.0
 40
0.0
 40
0.25
 40
0.25
 40
0.5
 40
0.5
 40
0.75
 40
0.75
 40
1.0
 40
1.0
 40
1.0
 40
1.0
 10
194.3484623801131
 20
155.3824457122199
 30
0.0
 10
194.3801775144438
 20
155.3481645172257
 30
0.0
 10
194.4147920397441
 20
155.3149122488579
 30
0.0
 10
194.4944632351595
 20
155.2516217917531
 30
0.0
 10
194.5395191121899
 20
155.2211878829841
 30
0.0
 10
194.6500735246953
 20
155.1699451855338
 30
0.0
 10
194.7174589388994
 20
155.1491876850837
 30
0.0
 10
194.8680884587975
 20
155.1437019071399
 30
0.0
 10
194.9379156955629
 20
155.1601129077453
 30
0.0
 10
194.9943465193663
 20
155.182900336957
 30
0.0
  0
SPLINE
  5
102
330
1F
100
AcDbEntity
  8
0
  6
HIDDEN
 62
     7
370
     0
100
AcDbSpline
210
0.0
220
0.0
230
1.0
 70
     8
 71
     3
 72
    16
 73
    12
 74
     0
 42
0.000000001
 43
0.00000001
 40
0.0
 40
0.0
 40
0.0
 40
0.0
 40
0.0624999999999992
 40
0.0624999999999992
 40
0.1249999999999984
 40
0.1249999999999984
 40
0.2499999999999987
 40
0.2499999999999987
 40
0.4999999999999991
 40
0.4999999999999991
 40
1.0
 40
1.0
 40
1.0
 40
1.0
 10
194.9943465193346
 20
155.1829003370009
 30
0.0
 10
195.0060807537814
 20
155.1876387586481
 30
0.0
 10
195.0196125092604
 20
155.1906010357948
 30
0.0
 10
195.0495999696902
 20
155.1872218581731
 30
0.0
 10
195.0645946760985
 20
155.1803420504375
 30
0.0
 10
195.1003350984933
 20
155.1533983908851
 30
0.0
 10
195.1143484354945
 20
155.1303239244307
 30
0.0
 10
195.1484925242758
 20
155.0636362021563
 30
0.0
 10
195.1594644283942
 20
155.0201327260737
 30
0.0
 10
195.1853099686605
 20
154.8914175031252
 30
0.0
 10
195.1893234082414
 20
154.8100273224941
 30
0.0
 10
195.1893234082414
 20
154.7315435123502
 30
0.0
  0
LINE
  5
103
330
1F
100
AcDbEntity
  8
0
  6
HIDDEN
 62
     7
370
     0
100
AcDbLine
 10
195.1893234082
 20
150.4774879209
 30
0.0
 11
195.1893234082
 21
154.7315435124
 31
0.0
  0
LINE
  5
104
330
1F
100
AcDbEntity
  8
0
  6
HIDDEN
 62
     7
370
     0
100
AcDbLine
 10
195.1701541885
 20
185.1913098357
 30
0.0
 11
195.1523372802
 21
185.2544161208
 31
0.0
  0
SPLINE
  5
105
330
1F
100
AcDbEntity
  8
0
  6
HIDDEN
 62
     7
370
     0
100
AcDbSpline
210
0.0
220
0.0
230
1.0
 70
     8
 71
     3
 72
    10
 73
     6
 74
     0
 42
0.000000001
 43
0.00000001
 40
0.0
 40
0.0
 40
0.0
 40
0.0
 40
0.5
 40
0.5
 40
1.0
 40
1.0
 40
1.0
 40
1.0
 10
194.3484623801122
 20
185.4320675917498
 30
0.0
 10
194.2766728501856
 20
185.5065416561636
 30
0.0
 10
194.2242145548724
 20
185.5811971537818
 30
0.0
 10
194.1348743208553
 20
185.7261051808519
 30
0.0
 10
194.0988816311655
 20
185.7965300120266
 30
0.0
 10
194.0680030646818
 20
185.8641125190693
 30
0.0
  0
SPLINE
  5
106
330
1F
100
AcDbEntity
  8
0
  6
HIDDEN
 62
     7
370
     0
100
AcDbSpline
210
0.0
220
0.0
230
1.0
 70
     8
 71
     3
 72
    14
 73
    10
 74
     0
 42
0.000000001
 43
0.00000001
 40
0.0
 40
0.0
 40
0.0
 40
0.0
 40
0.25
 40
0.25
 40
0.5
 40
0.5
 40
0.75
 40
0.75
 40
1.0
 40
1.0
 40
1.0
 40
1.0
 10
194.3484623801116
 20
185.4320675917505
 30
0.0
 10
194.3801710795969
 20
185.3991731609
 30
0.0
 10
194.4147788982376
 20
185.3669498512425
 30
0.0
 10
194.4944373087269
 20
185.3054173415001
 30
0.0
 10
194.5394995786218
 20
185.2756678956366
 30
0.0
 10
194.6500814242002
 20
185.2266254021459
 30
0.0
 10
194.7177255450155
 20
185.2074747907069
 30
0.0
 10
194.8679738354126
 20
185.2084204981423
 30
0.0
 10
194.9379262336429
 20
185.2291085153251
 30
0.0
 10
194.9943465193664
 20
185.2556527268114
 30
0.0
  0
SPLINE
  5
107
330
1F
100
AcDbEntity
  8
0
  6
HIDDEN
 62
     7
370
     0
100
AcDbSpline
210
0.0
220
0.0
230
1.0
 70
     8
 71
     3
 72
    16
 73
    12
 74
     0
 42
0.000000001
 43
0.00000001
 40
0.0
 40
0.0
 40
0.0
 40
0.0
 40
0.0625000000000005
 40
0.0625000000000005
 40
0.125000000000001
 40
0.125000000000001
 40
0.2500000000000003
 40
0.2500000000000003
 40
0.499999999999999
 40
0.499999999999999
 40
1.0
 40
1.0
 40
1.0
 40
1.0
 10
194.9943465193346
 20
185.255652726816
 30
0.0
 10
195.0060807537814
 20
185.2611733653041
 30
0.0
 10
195.0196125092604
 20
185.2666874221757
 30
0.0
 10
195.0495999696903
 20
185.2755189853798
 30
0.0
 10
195.0645946760985
 20
185.2781558086594
 30
0.0
 10
195.1003350984933
 20
185.2805715082032
 30
0.0
 10
195.1143484354945
 20
185.27682456521
 30
0.0
 10
195.1484925242758
 20
185.2628376092088
 30
0.0
 10
195.1594644283942
 20
185.2487361833497
 30
0.0
 10
195.1853099686605
 20
185.2018184126343
 30
0.0
 10
195.1893234082414
 20
185.1640359370123
 30
0.0
 10
195.1893234082414
 20
185.1234137548262
 30
0.0
  0
LINE
  5
108
330
1F
100
AcDbEntity
  8
0
  6
HIDDEN
 62
     7
370
     0
100
AcDbLine
 10
195.1893234082
 20
165.0969673321
 30
0.0
 11
195.1893234082
 21
185.1234137548
 31
0.0
  0
SPLINE
  5
109
330
1F
100
AcDbEntity
  8
0
  6
HIDDEN
 62
     7
370
     0
100
AcDbSpline
210
0.0
220
0.0
230
1.0
 70
     8
 71
     3
 72
    16
 73
    12
 74
     0
 42
0.000000001
 43
0.00000001
 40
0.0
 40
0.0
 40
0.0
 40
0.0
 40
0.5000000000000018
 40
0.5000000000000018
 40
0.7500000000000009
 40
0.7500000000000009
 40
0.8750000000000004
 40
0.8750000000000004
 40
0.9375000000000002
 40
0.9375000000000002
 40
1.0
 40
1.0
 40
1.0
 40
1.0
 10
195.1893234082416
 20
165.0969673320616
 30
0.0
 10
195.1893234082413
 20
164.9770135534861
 30
0.0
 10
195.1851988653873
 20
164.8572822318322
 30
0.0
 10
195.1592824197542
 20
164.6821490856192
 30
0.0
 10
195.1480048387344
 20
164.6240573744803
 30
0.0
 10
195.114269460193
 20
164.5447118111401
 30
0.0
 10
195.0998806449487
 20
164.5175714971641
 30
0.0
 10
195.0646339555096
 20
164.4934896430466
 30
0.0
 10
195.0494285310527
 20
164.4892146576015
 30
0.0
 10
195.0197819518833
 20
164.4946056022879
 30
0.0
 10
195.0060766158859
 20
164.5031160930569
 30
0.0
 10
194.9943465193622
 20
164.5133715354644
 30
0.0
  0
SPLINE
  5
10A
330
1F
100
AcDbEntity
  8
0
  6
HIDDEN
 62
     7
370
     0
100
AcDbSpline
210
0.0
220
0.0
230
1.0
 70
     8
 71
     3
 72
    14
 73
    10
 74
     0
 42
0.000000001
 43
0.00000001
 40
0.0
 40
0.0
 40
0.0
 40
0.0
 40
0.25
 40
0.25
 40
0.5
 40
0.5
 40
0.75
 40
0.75
 40
1.0
 40
1.0
 40
1.0
 40
1.0
 10
194.9943465193726
 20
164.5133715354791
 30
0.0
 10
194.9378994373143
 20
164.5627223484003
 30
0.0
 10
194.8670490532715
 20
164.5997643202891
 30
0.0
 10
194.7186126184551
 20
164.5953043884694
 30
0.0
 10
194.6494233667682
 20
164.5548168548399
 30
0.0
 10
194.5397118185273
 20
164.4551959965293
 30
0.0
 10
194.4944701691849
 20
164.3949108386059
 30
0.0
 10
194.4148221510011
 20
164.2701253447811
 30
0.0
 10
194.380195235235
 20
164.2046311346146
 30
0.0
 10
194.3484623801137
 20
164.1374112952723
 30
0.0
  0
SPLINE
  5
10B
330
1F
100
AcDbEntity
  8
0
  6
HIDDEN
 62
     7
370
     0
100
AcDbSpline
210
0.0
220
0.0
230
1.0
 70
     8
 71
     3
 72
    10
 73
     6
 74
     0
 42
0.000000001
 43
0.00000001
 40
0.0
 40
0.0
 40
0.0
 40
0.0
 40
0.5
 40
0.5
 40
1.0
 40
1.0
 40
1.0
 40
1.0
 10
194.3484623801138
 20
164.1374112952704
 30
0.0
 10
194.2766534047213
 20
163.985298043224
 30
0.0
 10
194.2241975452985
 20
163.8276644016543
 30
0.0
 10
194.1348629594071
 20
163.5082327611498
 30
0.0
 10
194.0988760964941
 20
163.3461702920906
 30
0.0
 10
194.0680030646818
 20
163.1828262664228
 30
0.0
  0
SPLINE
  5
10C
330
1F
100
AcDbEntity
  8
0
  6
HIDDEN
 62
     7
370
     0
100
AcDbSpline
210
0.0
220
0.0
230
1.0
 70
     8
 71
     3
 72
    10
 73
     6
 74
     0
 42
0.000000001
 43
0.00000001
 40
0.0
 40
0.0
 40
0.0
 40
0.0
 40
0.5
 40
0.5
 40
1.0
 40
1.0
 40
1.0
 40
1.0
 10
194.0680030646818
 20
155.9049858137455
 30
0.0
 10
194.09888440428
 20
155.8091864094096
 30
0.0
 10
194.1348800137798
 20
155.7175252677588
 30
0.0
 10
194.2242230778811
 20
155.5429952190485
 30
0.0
 10
194.2766825921893
 20
155.4600331782163
 30
0.0
 10
194.3484623801131
 20
155.3824457122199
 30
0.0
  0
LINE
  5
10D
330
1F
100
AcDbEntity
  8
0
  6
HIDDEN
 62
     7
370
     0
100
AcDbLine
 10
195.1893234082
 20
165.0969673321
 30
0.0
 11
195.1893234082
 21
185.1234137548
 31
0.0
  0
LINE
  5
10E
330
1F
100
AcDbEntity
  8
0
  6
HIDDEN
 62
     7
370
     0
100
AcDbLine
 10
193.1893234082
 20
155.2344060277
 30
0.0
 11
193.1893234082
 21
151.9172094152
 31
0.0
  0
LINE
  5
10F
330
1F
100
AcDbEntity
  8
0
  6
HIDDEN
 62
     7
370
     0
100
AcDbLine
 10
166.8893234082
 20
155.8066301851
 30
0.0
 11
166.8893234082
 21
152.7845114413
 31
0.0
  0
SPLINE
  5
110
330
1F
100
AcDbEntity
  8
0
  6
HIDDEN
 62
     7
370
     0
100
AcDbSpline
210
0.0
220
0.0
230
1.0
 70
     8
 71
     3
 72
     8
 73
     4
 74
     0
 42
0.000000001
 43
0.00000001
 40
0.0000202082942178
 40
0.0000202082942178
 40
0.0000202082942178
 40
0.0000202082942178
 40
0.0040218803475995
 40
0.0040218803475995
 40
0.0040218803475995
 40
0.0040218803475995
 10
170.8893234082414
 20
152.6924444413085
 30
0.0
 10
169.5559804072547
 20
152.7231975180385
 30
0.0
 10
168.2226465340321
 20
152.7538865295221
 30
0.0
 10
166.8893234082414
 20
152.7845114413354
 30
0.0
  0
SPLINE
  5
111
330
1F
100
AcDbEntity
  8
0
  6
HIDDEN
 62
     7
370
     0
100
AcDbSpline
210
0.0
220
0.0
230
1.0
 70
     8
 71
     3
 72
    12
 73
     8
 74
     0
 42
0.000000001
 43
0.00000001
 40
0.0
 40
0.0
 40
0.0
 40
0.0
 40
0.0583245770989762
 40
0.2535553095020184
 40
0.5293292566756637
 40
0.811959597243962
 40
1.0
 40
1.0
 40
1.0
 40
1.0
 10
172.7464070180563
 20
152.4331950425668
 30
0.0
 10
172.7550408619628
 20
152.4322926722855
 30
0.0
 10
172.7925749011757
 20
152.4283697844166
 30
0.0
 10
172.5295937051838
 20
152.4556291594619
 30
0.0
 10
172.0364791345232
 20
152.5146532975917
 30
0.0
 10
171.4397976729759
 20
152.5991377805702
 30
0.0
 10
171.0464657354412
 20
152.6658084534868
 30
0.0
 10
170.8893234082414
 20
152.6924444413085
 30
0.0
  0
SPLINE
  5
112
330
1F
100
AcDbEntity
  8
0
  6
HIDDEN
 62
     7
370
     0
100
AcDbSpline
210
0.0
220
0.0
230
1.0
 70
     8
 71
     3
 72
    16
 73
    12
 74
     0
 42
0.000000001
 43
0.00000001
 40
0.0
 40
0.0
 40
0.0
 40
0.0
 40
0.0296582183506441
 40
0.1194912318432777
 40
0.2591629967534788
 40
0.4048882206264453
 40
0.5540164810635375
 40
0.7027433786820263
 40
0.8459042005432978
 40
0.979277851086154
 40
1.0
 40
1.0
 40
1.0
 40
1.0
 10
178.9183819367238
 20
152.3625190887459
 30
0.0
 10
178.9795438385989
 20
152.3657865303351
 30
0.0
 10
179.2259615738289
 20
152.3789508619163
 30
0.0
 10
179.7280689678029
 20
152.410763699787
 30
0.0
 10
180.6943319196888
 20
152.4327001929838
 30
0.0
 10
181.8590095279623
 20
152.4124895406335
 30
0.0
 10
183.0128402651318
 20
152.341459085294
 30
0.0
 10
183.994193652742
 20
152.2411985898316
 30
0.0
 10
184.6161012818851
 20
152.1597216027021
 30
0.0
 10
184.8784334433418
 20
152.1213794313486
 30
0.0
 10
184.8234208272391
 20
152.1292734837633
 30
0.0
 10
184.8160229641757
 20
152.1303350424187
 30
0.0
  0
SPLINE
  5
113
330
1F
100
AcDbEntity
  8
0
  6
HIDDEN
 62
     7
370
     0
100
AcDbSpline
210
0.0
220
0.0
230
1.0
 70
     8
 71
     3
 72
    11
 73
     7
 74
     0
 42
0.000000001
 43
0.00000001
 40
0.0
 40
0.0
 40
0.0
 40
0.0
 40
0.2241121990000345
 40
0.6644882189456122
 40
0.7383574074838243
 40
1.0
 40
1.0
 40
1.0
 40
1.0
 10
178.1525093676276
 20
152.3003118492723
 30
0.0
 10
178.1448550238036
 20
152.2995141679139
 30
0.0
 10
178.1221600463881
 20
152.297149058529
 30
0.0
 10
178.3136212352264
 20
152.3171728862273
 30
0.0
 10
178.6598952912694
 20
152.3429451907188
 30
0.0
 10
178.8051262711191
 20
152.35394280487
 30
0.0
 10
178.9183819367238
 20
152.3625190887459
 30
0.0
  0
LINE
  5
114
330
1F
100
AcDbEntity
  8
0
  6
HIDDEN
 62
     7
370
     0
100
AcDbLine
 10
195.1893234082
 20
154.7315435124
 30
0.0
 11
195.1893234082
 21
151.8892410823
 31
0.0
  0
LINE
  5
115
330
1F
100
AcDbEntity
  8
0
  6
HIDDEN
 62
     7
370
     0
100
AcDbLine
 10
170.4173632639
 20
157.5286330652
 30
0.0
 11
170.4173632639
 21
179.1059833343
 31
0.0
  0
LINE
  5
116
330
1F
100
AcDbEntity
  8
0
  6
HIDDEN
 62
     7
370
     0
100
AcDbLine
 10
166.4173632639
 20
157.1474352187
 30
0.0
 11
166.4173632639
 21
179.4871811808
 31
0.0
  0
LINE
  5
117
330
1F
100
AcDbEntity
  8
0
  6
HIDDEN
 62
     7
370
     0
100
AcDbLine
 10
165.3893234082
 20
156.5711481885
 30
0.0
 11
165.3893234082
 21
180.063468211
 31
0.0
  0
LINE
  5
118
330
1F
100
AcDbEntity
  8
0
  6
HIDDEN
 62
     7
370
     0
100
AcDbLine
 10
175.0173632639
 20
157.8173081997
 30
0.0
 11
175.0173632639
 21
178.8173081997
 31
0.0
  0
LINE
  5
119
330
1F
100
AcDbEntity
  8
0
  6
HIDDEN
 62
     7
370
     0
100
AcDbLine
 10
168.9173632639
 20
157.8173081997
 30
0.0
 11
168.9173632639
 21
178.8173081997
 31
0.0
  0
LINE
  5
11A
330
1F
100
AcDbEntity
  8
0
  6
HIDDEN
 62
     7
370
     0
100
AcDbLine
 10
169.9173632639
 20
157.8173081997
 30
0.0
 11
169.9173632639
 21
178.8173081997
 31
0.0
  0
SPLINE
  5
11B
330
1F
100
AcDbEntity
  8
0
  6
HIDDEN
 62
     7
370
     0
100
AcDbSpline
210
0.0
220
0.0
230
1.0
 70
    11
 71
     3
 72
    30
 73
    26
 74
     0
 42
0.000000001
 43
0.00000001
 40
0.0
 40
0.0
 40
0.0
 40
0.0
 40
0.0167945526400945
 40
0.0287430660906235
 40
0.0689255205360413
 40
0.1210019333740414
 40
0.1744805595246764
 40
0.2289688989689379
 40
0.2666943143075983
 40
0.281978535262658
 40
0.3334170734554368
 40
0.3854467264718107
 40
0.4393592973897054
 40
0.4937057672370927
 40
0.5461381307112441
 40
0.5973368526383553
 40
0.6498510087693141
 40
0.704194516256597
 40
0.7580976266203817
 40
0.810052538667518
 40
0.8615306283889395
 40
0.8694352362645728
 40
0.9145888207406704
 40
0.9690762819341697
 40
1.0
 40
1.0
 40
1.0
 40
1.0
 10
181.0711861763356
 20
158.2557628151517
 30
0.0
 10
181.1773745567905
 20
158.263568710378
 30
0.0
 10
181.3591108437211
 20
158.2769281232301
 30
0.0
 10
181.7919066554306
 20
158.2447965232512
 30
0.0
 10
182.4652345673939
 20
158.2359059529532
 30
0.0
 10
183.291010811784
 20
158.0980854110227
 30
0.0
 10
183.9797721025537
 20
157.947657371326
 30
0.0
 10
184.4042244882588
 20
157.8276059946231
 30
0.0
 10
184.3826665119524
 20
157.833580523308
 30
0.0
 10
184.4636664462
 20
157.8103355809828
 30
0.0
 10
184.2041867609605
 20
157.8857286131528
 30
0.0
 10
183.6673021950707
 20
158.0219674308439
 30
0.0
 10
182.8439787587509
 20
158.1793279213523
 30
0.0
 10
181.8539433079319
 20
158.2770949307064
 30
0.0
 10
180.8231783841816
 20
158.2706012153829
 30
0.0
 10
179.8727840296313
 20
158.1685757128856
 30
0.0
 10
179.0768153175215
 20
158.0146558809199
 30
0.0
 10
178.5217407355781
 20
157.8707475674871
 30
0.0
 10
178.2828643916976
 20
157.8015381591509
 30
0.0
 10
178.4147047875907
 20
157.836381218505
 30
0.0
 10
178.6676102207039
 20
157.9171000266986
 30
0.0
 10
179.1377467194829
 20
158.0147171382861
 30
0.0
 10
179.5554717694458
 20
158.1139568791232
 30
0.0
 10
180.3305828447531
 20
158.232792216156
 30
0.0
 10
180.8743217001461
 20
158.2496568543138
 30
0.0
 10
181.0711861763356
 20
158.2557628151517
 30
0.0
  0
SPLINE
  5
11C
330
1F
100
AcDbEntity
  8
0
  6
HIDDEN
 62
     7
370
     0
100
AcDbSpline
210
0.0
220
0.0
230
1.0
 70
    11
 71
     3
 72
    30
 73
    26
 74
     0
 42
0.000000001
 43
0.00000001
 40
0.0
 40
0.0
 40
0.0
 40
0.0
 40
0.0167945526400943
 40
0.0287430660906233
 40
0.0689255205360411
 40
0.1210019333740412
 40
0.1744805595246762
 40
0.2289688989689376
 40
0.266694314307598
 40
0.2819785352626578
 40
0.3334170734554365
 40
0.3854467264718105
 40
0.4393592973897053
 40
0.4937057672370925
 40
0.5461381307112441
 40
0.5973368526383552
 40
0.649851008769314
 40
0.7041945162565969
 40
0.7580976266203817
 40
0.7668392086999836
 40
0.8100525386675179
 40
0.8615306283889392
 40
0.9145888207406704
 40
0.9690762819341695
 40
1.0
 40
1.0
 40
1.0
 40
1.0
 10
181.7074606401473
 20
178.37885358434
 30
0.0
 10
181.6012722596941
 20
178.3710476891142
 30
0.0
 10
181.4195359727664
 20
178.357688276263
 30
0.0
 10
180.986740161028
 20
178.3898198762333
 30
0.0
 10
180.3134122494943
 20
178.3987104466596
 30
0.0
 10
179.4876360027379
 20
178.536530987883
 30
0.0
 10
178.7988747214429
 20
178.6869590304114
 30
0.0
 10
178.3744223033657
 20
178.8070103974392
 30
0.0
 10
178.3959803512191
 20
178.8010358901376
 30
0.0
 10
178.3149802467476
 20
178.8242807815878
 30
0.0
 10
178.5744619299911
 20
178.7488883465636
 30
0.0
 10
179.1113376689012
 20
178.6126468907428
 30
0.0
 10
179.9346950652633
 20
178.4552965499118
 30
0.0
 10
180.9246034669011
 20
178.3574915692209
 30
0.0
 10
181.9558235022227
 20
178.3641213042697
 30
0.0
 10
182.9045568311726
 20
178.4656503741114
 30
0.0
 10
183.7069235370526
 20
178.6214823819261
 30
0.0
 10
184.2372474860607
 20
178.75799344487
 30
0.0
 10
184.478265062116
 20
178.8284318832625
 30
0.0
 10
184.3847085994479
 20
178.801697171941
 30
0.0
 10
184.385330646549
 20
178.8012854260708
 30
0.0
 10
183.9430597989971
 20
178.6783548139727
 30
0.0
 10
183.2471028508382
 20
178.5268341516847
 30
0.0
 10
182.4510616176975
 20
178.4019571113128
 30
0.0
 10
181.9051219396537
 20
178.3849948796079
 30
0.0
 10
181.7074606401473
 20
178.37885358434
 30
0.0
  0
LINE
  5
11D
330
1F
100
AcDbEntity
  8
0
  6
HIDDEN
 62
     7
370
     0
100
AcDbLine
 10
185.3893234082
 20
158.3173081997
 30
0.0
 11
185.3893234082
 21
178.3173081997
 31
0.0
  0
LINE
  5
11E
330
1F
100
AcDbEntity
  8
0
  6
HIDDEN
 62
     7
370
     0
100
AcDbLine
 10
186.3893234082
 20
161.0673081997
 30
0.0
 11
186.3893234082
 21
175.5673081997
 31
0.0
  0
LINE
  5
11F
330
1F
100
AcDbEntity
  8
0
  6
HIDDEN
 62
     7
370
     0
100
AcDbLine
 10
185.3893234082
 20
160.0673081997
 30
0.0
 11
185.3893234082
 21
176.5673081997
 31
0.0
  0
LINE
  5
120
330
1F
100
AcDbEntity
  8
0
  6
HIDDEN
 62
     7
370
     0
100
AcDbLine
 10
210.3893234082
 20
161.0673081997
 30
0.0
 11
210.3893234082
 21
175.5673081997
 31
0.0
  0
LINE
  5
121
330
1F
100
AcDbEntity
  8
0
  6
HIDDEN
 62
     7
370
     0
100
AcDbLine
 10
212.1919052653
 20
164.0673081997
 30
0.0
 11
212.1919052653
 21
172.5673081997
 31
0.0
  0
LINE
  5
122
330
1F
100
AcDbEntity
  8
0
  6
HIDDEN
 62
     7
370
     0
100
AcDbLine
 10
193.1893234082
 20
185.5801072762
 30
0.0
 11
193.1893234082
 21
186.9574069843
 31
0.0
  0
LINE
  5
123
330
1F
100
AcDbEntity
  8
0
  6
HIDDEN
 62
     7
370
     0
100
AcDbLine
 10
166.8893234082
 20
185.0078831188
 30
0.0
 11
166.8893234082
 21
186.2966594417
 31
0.0
  0
LINE
  5
124
330
1F
100
AcDbEntity
  8
0
  6
HIDDEN
 62
     7
370
     0
100
AcDbLine
 10
235.8067424939
 20
188.3173081997
 30
0.0
 11
245.9719043226
 21
188.3173081997
 31
0.0
  0
LINE
  5
125
330
1F
100
AcDbEntity
  8
0
  6
HIDDEN
 62
     7
370
     0
100
AcDbLine
 10
235.8067424939
 20
169.3173081997
 30
0.0
 11
245.9719043226
 21
169.3173081997
 31
0.0
  0
SPLINE
  5
126
330
1F
100
AcDbEntity
  8
0
  6
HIDDEN
 62
     7
370
     0
100
AcDbSpline
210
0.0
220
0.0
230
1.0
 70
     8
 71
     3
 72
    10
 73
     6
 74
     0
 42
0.000000001
 43
0.00000001
 40
0.0
 40
0.0
 40
0.0
 40
0.0
 40
0.3599412485529658
 40
0.7301023945709298
 40
1.0
 40
1.0
 40
1.0
 40
1.0
 10
194.0680030646818
 20
185.8641125190693
 30
0.0
 10
193.9815395076448
 20
186.0542638249623
 30
0.0
 10
193.8061574132347
 20
186.4399654479951
 30
0.0
 10
193.6761195588323
 20
186.7310580524162
 30
0.0
 10
193.6712321426722
 20
186.7419433311218
 30
0.0
 10
193.6691712351143
 20
186.7465333951596
 30
0.0
  0
LINE
  5
127
330
1F
100
AcDbEntity
  8
0
  6
HIDDEN
 62
     7
370
     0
100
AcDbLine
 10
165.3893234082
 20
184.2578831188
 30
0.0
 11
165.3893234082
 21
185.4306340379
 31
0.0
  0
LINE
  5
128
330
1F
100
AcDbEntity
  8
0
  6
HIDDEN
 62
     7
370
     0
100
AcDbLine
 10
225.3893234082
 20
164.0673081997
 30
0.0
 11
225.3893234082
 21
172.5673081997
 31
0.0
  0
SPLINE
  5
129
330
1F
100
AcDbEntity
  8
0
  6
HIDDEN
 62
     7
370
     0
100
AcDbSpline
210
0.0
220
0.0
230
1.0
 70
    11
 71
     3
 72
    62
 73
    58
 74
     0
 42
0.000000001
 43
0.00000001
 40
0.0
 40
0.0
 40
0.0
 40
0.0
 40
0.0312499999999998
 40
0.0312499999999998
 40
0.0624999999999995
 40
0.0624999999999995
 40
0.1249999999999997
 40
0.1249999999999997
 40
0.1874999999999998
 40
0.1874999999999998
 40
0.2187499999999998
 40
0.2187499999999998
 40
0.2499999999999999
 40
0.2499999999999999
 40
0.2812499999999999
 40
0.2812499999999999
 40
0.3125
 40
0.3125
 40
0.3750000000000003
 40
0.3750000000000003
 40
0.4062500000000002
 40
0.4062500000000002
 40
0.4375000000000002
 40
0.4375000000000002
 40
0.4687500000000001
 40
0.4687500000000001
 40
0.5000000000000001
 40
0.5000000000000001
 40
0.5312500000000001
 40
0.5312500000000001
 40
0.5625000000000001
 40
0.5625000000000001
 40
0.5937500000000001
 40
0.5937500000000001
 40
0.6250000000000001
 40
0.6250000000000001
 40
0.6562500000000001
 40
0.6562500000000001
 40
0.6875000000000001
 40
0.6875000000000001
 40
0.7187500000000001
 40
0.7187500000000001
 40
0.75
 40
0.75
 40
0.78125
 40
0.78125
 40
0.8124999999999999
 40
0.8124999999999999
 40
0.8749999999999999
 40
0.8749999999999999
 40
0.9062499999999999
 40
0.9062499999999999
 40
0.9374999999999999
 40
0.9374999999999999
 40
0.9687499999999999
 40
0.9687499999999999
 40
1.0
 40
1.0
 40
1.0
 40
1.0
 10
222.195711992555
 20
171.8420396487028
 30
0.0
 10
222.3658899066035
 20
171.8420396487028
 30
0.0
 10
222.5321084714453
 20
171.8304165508116
 30
0.0
 10
222.8577577667738
 20
171.7859563563234
 30
0.0
 10
223.0187006091514
 20
171.7525321395578
 30
0.0
 10
223.4753709035805
 20
171.6226996922794
 30
0.0
 10
223.7533690749834
 20
171.4952316197893
 30
0.0
 10
224.2277318985868
 20
171.1612581649693
 30
0.0
 10
224.4293708819653
 20
170.950048567562
 30
0.0
 10
224.6448184126354
 20
170.5735325038586
 30
0.0
 10
224.7033102566484
 20
170.4353896655248
 30
0.0
 10
224.7844285310006
 20
170.1470788872232
 30
0.0
 10
224.8078604018729
 20
169.9965905478389
 30
0.0
 10
224.818480418916
 20
169.6818065361439
 30
0.0
 10
224.8050288007871
 20
169.5193674397334
 30
0.0
 10
224.7432230647719
 20
169.1995978178732
 30
0.0
 10
224.6940683158256
 20
169.0382903632488
 30
0.0
 10
224.5022525317067
 20
168.5747037610244
 30
0.0
 10
224.3138687581572
 20
168.2862423066186
 30
0.0
 10
223.9729935125549
 20
167.9149964157724
 30
0.0
 10
223.8477914388473
 20
167.7995815542862
 30
0.0
 10
223.5829936032951
 20
167.5942196017896
 30
0.0
 10
223.4431619226938
 20
167.5036274690644
 30
0.0
 10
223.1469773026128
 20
167.3483245739693
 30
0.0
 10
222.9892200318485
 20
167.2834617533565
 30
0.0
 10
222.6675860339238
 20
167.1891347873566
 30
0.0
 10
222.5020766430694
 20
167.1587258490512
 30
0.0
 10
222.1626742557663
 20
167.1371367273098
 30
0.0
 10
221.9953269027029
 20
167.146358326545
 30
0.0
 10
221.6652605982004
 20
167.2043788524912
 30
0.0
 10
221.5012083697721
 20
167.2542084515412
 30
0.0
 10
221.1938225199808
 20
167.3876022612411
 30
0.0
 10
221.0474090612609
 20
167.4719197022355
 30
0.0
 10
220.7743085922449
 20
167.6691374517029
 30
0.0
 10
220.6492532630872
 20
167.7804673380811
 30
0.0
 10
220.4194839547414
 20
168.0264298432385
 30
0.0
 10
220.3149928621181
 20
168.1614496560622
 30
0.0
 10
220.1335014675633
 20
168.4436401746005
 30
0.0
 10
220.0552617634725
 20
168.592013107402
 30
0.0
 10
219.9244753988245
 20
168.9036139618941
 30
0.0
 10
219.8738471425573
 20
169.0626805978394
 30
0.0
 10
219.8028288726823
 20
169.382120841105
 30
0.0
 10
219.782118048773
 20
169.5451134818282
 30
0.0
 10
219.7732571335332
 20
169.8646384021869
 30
0.0
 10
219.7847504169531
 20
170.019229128241
 30
0.0
 10
219.8390003985243
 20
170.3184965264549
 30
0.0
 10
219.8823029796484
 20
170.4632010601071
 30
0.0
 10
220.0533470996666
 20
170.8636122258439
 30
0.0
 10
220.2254540798482
 20
171.0947097648036
 30
0.0
 10
220.5505745355351
 20
171.3717276019048
 30
0.0
 10
220.6721141656923
 20
171.4541157561544
 30
0.0
 10
220.9319628288518
 20
171.593800456346
 30
0.0
 10
221.0709877084487
 20
171.6520285051057
 30
0.0
 10
221.3701912552556
 20
171.7468205334632
 30
0.0
 10
221.5297044007382
 20
171.7827410635188
 30
0.0
 10
221.8554705956075
 20
171.8300553643095
 30
0.0
 10
222.0255340785065
 20
171.8420396487028
 30
0.0
 10
222.195711992555
 20
171.8420396487028
 30
0.0
  0
LINE
  5
12A
330
1F
100
AcDbEntity
  8
0
  6
HIDDEN
 62
     7
370
     0
100
AcDbLine
 10
178.3393234082
 20
152.5269904791
 30
0.0
 11
184.4393234082
 21
152.5269904791
 31
0.0
  0
SPLINE
  5
12B
330
1F
100
AcDbEntity
  8
0
  6
HIDDEN
 62
     7
370
     0
100
AcDbSpline
210
0.0
220
0.0
230
1.0
 70
     8
 71
     3
 72
     8
 73
     4
 74
     0
 42
0.000000001
 43
0.00000001
 40
0.0
 40
0.0
 40
0.0
 40
0.0
 40
1.0
 40
1.0
 40
1.0
 40
1.0
 10
166.8893234082414
 20
152.7845114413354
 30
0.0
 10
166.3682711657807
 20
153.0595415679922
 30
0.0
 10
165.8635348186791
 20
153.3207283421425
 30
0.0
 10
165.3893234082414
 20
153.5620392161015
 30
0.0
  0
LINE
  5
12C
330
1F
100
AcDbEntity
  8
0
  6
HIDDEN
 62
     7
370
     0
100
AcDbLine
 10
170.8893234082
 20
152.6924444413
 30
0.0
 11
170.8893234082
 21
154.3173081997
 31
0.0
  0
LINE
  5
12D
330
1F
100
AcDbEntity
  8
0
  6
HIDDEN
 62
     7
370
     0
100
AcDbLine
 10
165.3893234082
 20
153.5620392161
 30
0.0
 11
165.3893234082
 21
154.3173081997
 31
0.0
  0
LINE
  5
12E
330
1F
100
AcDbEntity
  8
0
  6
HIDDEN
 62
     7
370
     0
100
AcDbLine
 10
178.3393234082
 20
182.3173081997
 30
0.0
 11
184.4393234082
 21
182.3173081997
 31
0.0
  0
LINE
  5
12F
330
1F
100
AcDbEntity
  8
0
  6
HIDDEN
 62
     7
370
     0
100
AcDbLine
 10
205.3893234082
 20
143.8173081997
 30
0.0
 11
209.3893234082
 21
143.8173081997
 31
0.0
  0
ELLIPSE
  5
130
330
1F
100
AcDbEntity
  8
0
  6
HIDDEN
 62
     7
370
     0
100
AcDbEllipse
 10
225.1709894476
 20
177.7805342907
 30
0.0
 11
0.9056736829558361
 21
2.522781696436482
 31
0.0
210
0.0
220
0.0
230
1.0
 40
0.9326882945
 41
0.0
 42
6.283185307179586
  0
LINE
  5
131
330
1F
100
AcDbEntity
  8
0
  6
HIDDEN
 62
     7
370
     0
100
AcDbLine
 10
165.3893234082
 20
156.5566301851
 30
0.0
 11
165.3893234082
 21
153.5620392161
 31
0.0
  0
LINE
  5
132
330
1F
100
AcDbEntity
  8
0
  6
HIDDEN
 62
     7
370
     0
100
AcDbLine
 10
165.3893234082
 20
184.2578831188
 30
0.0
 11
165.3893234082
 21
164.1374112953
 31
0.0
  0
LINE
  5
133
330
1F
100
AcDbEntity
  8
0
  6
HIDDEN
 62
     7
370
     0
100
AcDbLine
 10
166.8893234082
 20
185.0078831188
 30
0.0
 11
166.8893234082
 21
164.1374112953
 31
0.0
  0
LINE
  5
134
330
1F
100
AcDbEntity
  8
0
  6
HIDDEN
 62
     7
370
     0
100
AcDbLine
 10
193.1893234082
 20
185.5801072762
 30
0.0
 11
193.1893234082
 21
164.1374112953
 31
0.0
  0
LINE
  5
135
330
1F
100
AcDbEntity
  8
0
  6
HIDDEN
 62
     7
370
     0
100
AcDbLine
 10
195.1893234082
 20
185.1234137548
 30
0.0
 11
195.1893234082
 21
165.0969673321
 31
0.0
  0
LINE
  5
136
330
1F
100
AcDbEntity
  8
0
  6
HIDDEN
 62
     7
370
     0
100
AcDbLine
 10
165.3893234082
 20
164.1374112953
 30
0.0
 11
165.3893234082
 21
156.5566301851
 31
0.0
  0
LINE
  5
137
330
1F
100
AcDbEntity
  8
0
  6
HIDDEN
 62
     7
370
     0
100
AcDbLine
 10
166.8893234082
 20
164.1374112953
 30
0.0
 11
166.8893234082
 21
155.8066301851
 31
0.0
  0
LINE
  5
138
330
1F
100
AcDbEntity
  8
0
  6
HIDDEN
 62
     7
370
     0
100
AcDbLine
 10
193.1893234082
 20
164.1374112953
 30
0.0
 11
193.1893234082
 21
155.2344060277
 31
0.0
  0
SPLINE
  5
139
330
1F
100
AcDbEntity
  8
0
  6
HIDDEN
 62
     7
370
     0
100
AcDbSpline
210
0.0
220
0.0
230
1.0
 70
     8
 71
     3
 72
    18
 73
    14
 74
     0
 42
0.000000001
 43
0.00000001
 40
0.0
 40
0.0
 40
0.0
 40
0.0
 40
0.2500000000000006
 40
0.2500000000000006
 40
0.3750000000000006
 40
0.3750000000000006
 40
0.5000000000000006
 40
0.5000000000000006
 40
0.6250000000000006
 40
0.6250000000000006
 40
0.7500000000000004
 40
0.7500000000000004
 40
1.0
 40
1.0
 40
1.0
 40
1.0
 10
194.0680030646818
 20
163.1828262664228
 30
0.0
 10
193.9327174583794
 20
162.4670528469969
 30
0.0
 10
193.8315497121365
 20
161.7662427000305
 30
0.0
 10
193.7286883692676
 20
160.7378313107118
 30
0.0
 10
193.7025855237443
 20
160.3979483524336
 30
0.0
 10
193.6676955401994
 20
159.7301365978043
 30
0.0
 10
193.6591092819095
 20
159.4069448172491
 30
0.0
 10
193.6590095723438
 20
158.7812947523891
 30
0.0
 10
193.6674979434924
 20
158.4788383753792
 30
0.0
 10
193.701641323013
 20
157.8946884545792
 30
0.0
 10
193.7274383048668
 20
157.6119243578846
 30
0.0
 10
193.8308394362547
 20
156.8032295589588
 30
0.0
 10
193.9326974284261
 20
156.3247279468667
 30
0.0
 10
194.0680030646818
 20
155.9049858137455
 30
0.0
  0
LINE
  5
13A
330
1F
100
AcDbEntity
  8
0
  6
HIDDEN
 62
     7
370
     0
100
AcDbLine
 10
235.8067424939
 20
188.3173081997
 30
0.0
 11
245.9719043226
 21
188.3173081997
 31
0.0
  0
LINE
  5
13B
330
1F
100
AcDbEntity
  8
0
  6
HIDDEN
 62
     7
370
     0
100
AcDbLine
 10
235.8067424939
 20
169.3173081997
 30
0.0
 11
245.9719043226
 21
169.3173081997
 31
0.0
  0
CIRCLE
  5
13C
330
1F
100
AcDbEntity
  8
0
  6
HIDDEN
 62
     7
370
     0
100
AcDbCircle
 10
226.3893234082
 20
179.3173081997
 30
0.0
 40
7.0
  0
LINE
  5
13D
330
1F
100
AcDbEntity
  8
0
  6
HIDDEN
 62
     7
370
     0
100
AcDbLine
 10
235.7893234082
 20
188.3173081997
 30
0.0
 11
235.7893234082
 21
169.3173081997
 31
0.0
  0
LINE
  5
13E
330
1F
100
AcDbEntity
  8
0
  6
HIDDEN
 62
     7
370
     0
100
AcDbLine
 10
245.9893234082
 20
169.3173081997
 30
0.0
 11
245.9893234082
 21
188.3173081997
 31
0.0
  0
LINE
  5
13F
330
1F
100
AcDbEntity
  8
0
  6
HIDDEN
 62
     7
370
     0
100
AcDbLine
 10
222.8180204898
 20
178.6252455334
 30
0.0
 11
219.8962647345
 21
170.4866056682
 31
0.0
  0
LINE
  5
140
330
1F
100
AcDbEntity
  8
0
  6
HIDDEN
 62
     7
370
     0
100
AcDbLine
 10
224.6747565992
 20
168.9992844233
 30
0.0
 11
227.5239584054
 21
176.9358230479
 31
0.0
  0
LINE
  5
141
330
1F
100
AcDbEntity
  8
0
  6
HIDDEN
 62
     7
370
     0
100
AcDbLine
 10
195.3893234082
 20
148.7673081997
 30
0.0
 11
195.4822166271
 21
148.8602014186
 31
0.0
  0
LINE
  5
142
330
1F
100
AcDbEntity
  8
0
  6
HIDDEN
 62
     7
370
     0
100
AcDbLine
 10
195.4822166271
 20
187.7744149809
 30
0.0
 11
195.3893234082
 21
187.8673081997
 31
0.0
  0
ARC
  5
143
330
1F
100
AcDbEntity
  8
0
  6
HIDDEN
 62
     7
370
     0
100
AcDbCircle
 10
194.7751098459
 20
149.5673081997
 30
0.0
 40
1.000000000000008
100
AcDbArc
 50
315.0
 51
0.0
  0
ARC
  5
144
330
1F
100
AcDbEntity
  8
0
  6
HIDDEN
 62
     7
370
     0
100
AcDbCircle
 10
194.7751098459
 20
149.5673081997
 30
0.0
 40
1.0
100
AcDbArc
 50
0.0
 51
52.1052014664
  0
ARC
  5
145
330
1F
100
AcDbEntity
  8
0
  6
HIDDEN
 62
     7
370
     0
100
AcDbCircle
 10
194.7751098459
 20
187.0673081997
 30
0.0
 40
1.000000000000008
100
AcDbArc
 50
343.125
 51
45.0
  0
ARC
  5
146
330
1F
100
AcDbEntity
  8
0
  6
HIDDEN
 62
     7
370
     0
100
AcDbCircle
 10
194.7751098459
 20
187.0673081997
 30
0.0
 40
0.9999999999999998
100
AcDbArc
 50
307.8947985336
 51
343.125
  0
LINE
  5
147
330
1F
100
AcDbEntity
  8
0
  6
HIDDEN
 62
     7
370
     0
100
AcDbLine
 10
195.7751098459
 20
149.5673081997
 30
0.0
 11
195.7751098459
 21
187.0673081997
 31
0.0
  0
LINE
  5
148
330
1F
100
AcDbEntity
  8
0
  6
HIDDEN
 62
     7
370
     0
100
AcDbLine
 10
195.7751098459
 20
149.5673081997
 30
0.0
 11
195.7751098459
 21
187.0673081997
 31
0.0
  0
ARC
  5
149
330
1F
100
AcDbEntity
  8
0
  6
HIDDEN
 62
     7
370
     0
100
AcDbCircle
 10
171.8893234082
 20
157.8173081997
 30
0.0
 40
1.5
100
AcDbArc
 50
191.0958032831
 51
270.0
  0
ARC
  5
14A
330
1F
100
AcDbEntity
  8
0
  6
HIDDEN
 62
     7
370
     0
100
AcDbCircle
 10
171.8893234082
 20
178.8173081997
 30
0.0
 40
1.5
100
AcDbArc
 50
90.0
 51
168.9041967169
  0
LINE
  5
14B
330
1F
100
AcDbEntity
  8
0
  6
HIDDEN
 62
     7
370
     0
100
AcDbLine
 10
171.8893234082
 20
156.3173081997
 30
0.0
 11
172.8960429203
 21
156.3173081997
 31
0.0
  0
LINE
  5
14C
330
1F
100
AcDbEntity
  8
0
  6
HIDDEN
 62
     7
370
     0
100
AcDbLine
 10
172.8960429203
 20
180.3173081997
 30
0.0
 11
171.8893234082
 21
180.3173081997
 31
0.0
  0
ARC
  5
14D
330
1F
100
AcDbEntity
  8
0
  6
HIDDEN
 62
     7
370
     0
100
AcDbCircle
 10
172.8960429203
 20
157.8173081997
 30
0.0
 40
1.500000000000012
100
AcDbArc
 50
270.0
 51
315.0
  0
ARC
  5
14E
330
1F
100
AcDbEntity
  8
0
  6
HIDDEN
 62
     7
370
     0
100
AcDbCircle
 10
172.8960429203
 20
178.8173081997
 30
0.0
 40
1.500000000000012
100
AcDbArc
 50
45.0
 51
90.0
  0
LINE
  5
14F
330
1F
100
AcDbEntity
  8
0
  6
HIDDEN
 62
     7
370
     0
100
AcDbLine
 10
165.3893234082
 20
156.5538961313
 30
0.0
 11
166.4173632639
 21
157.1474352187
 31
0.0
  0
LINE
  5
150
330
1F
100
AcDbEntity
  8
0
  6
HIDDEN
 62
     7
370
     0
100
AcDbLine
 10
166.4173632639
 20
179.4871811808
 30
0.0
 11
165.3893234082
 21
180.0807202682
 31
0.0
  0
LINE
  5
151
330
1F
100
AcDbEntity
  8
0
  6
HIDDEN
 62
     7
370
     0
100
AcDbLine
 10
173.9567030921
 20
156.756648028
 30
0.0
 11
175.0173632639
 21
157.8173081997
 31
0.0
  0
LINE
  5
152
330
1F
100
AcDbEntity
  8
0
  6
HIDDEN
 62
     7
370
     0
100
AcDbLine
 10
175.0173632639
 20
178.8173081997
 30
0.0
 11
173.9567030921
 21
179.8779683715
 31
0.0
  0
LINE
  5
153
330
1F
100
AcDbEntity
  8
0
  6
HIDDEN
 62
     7
370
     0
100
AcDbLine
 10
166.4173632639
 20
157.1474352187
 30
0.0
 11
168.9173632639
 21
157.8173081997
 31
0.0
  0
LINE
  5
154
330
1F
100
AcDbEntity
  8
0
  6
HIDDEN
 62
     7
370
     0
100
AcDbLine
 10
168.9173632639
 20
178.8173081997
 30
0.0
 11
166.4173632639
 21
179.4871811808
 31
0.0
  0
LINE
  5
155
330
1F
100
AcDbEntity
  8
0
  6
HIDDEN
 62
     7
370
     0
100
AcDbLine
 10
170.4173632639
 20
179.1059833343
 30
0.0
 11
169.9173632639
 21
178.8173081997
 31
0.0
  0
LINE
  5
156
330
1F
100
AcDbEntity
  8
0
  6
HIDDEN
 62
     7
370
     0
100
AcDbLine
 10
169.9173632639
 20
157.8173081997
 30
0.0
 11
170.4173632639
 21
157.5286330652
 31
0.0
  0
LINE
  5
157
330
1F
100
AcDbEntity
  8
0
  6
HIDDEN
 62
     7
370
     0
100
AcDbLine
 10
184.4043710649
 20
157.8173081997
 30
0.0
 11
184.8893234082
 21
157.8173081997
 31
0.0
  0
LINE
  5
158
330
1F
100
AcDbEntity
  8
0
  6
HIDDEN
 62
     7
370
     0
100
AcDbLine
 10
175.0173632639
 20
157.8173081997
 30
0.0
 11
178.3621636394
 21
157.8173081997
 31
0.0
  0
LINE
  5
159
330
1F
100
AcDbEntity
  8
0
  6
HIDDEN
 62
     7
370
     0
100
AcDbLine
 10
178.3742757515
 20
178.8173081997
 30
0.0
 11
175.0173632639
 21
178.8173081997
 31
0.0
  0
LINE
  5
15A
330
1F
100
AcDbEntity
  8
0
  6
HIDDEN
 62
     7
370
     0
100
AcDbLine
 10
184.8893234082
 20
178.8173081997
 30
0.0
 11
184.416483177
 21
178.8173081997
 31
0.0
  0
LINE
  5
15B
330
1F
100
AcDbEntity
  8
0
  6
HIDDEN
 62
     7
370
     0
100
AcDbLine
 10
168.9173632639
 20
157.8173081997
 30
0.0
 11
169.9173632639
 21
157.8173081997
 31
0.0
  0
LINE
  5
15C
330
1F
100
AcDbEntity
  8
0
  6
HIDDEN
 62
     7
370
     0
100
AcDbLine
 10
169.9173632639
 20
178.8173081997
 30
0.0
 11
168.9173632639
 21
178.8173081997
 31
0.0
  0
ARC
  5
15D
330
1F
100
AcDbEntity
  8
0
  6
HIDDEN
 62
     7
370
     0
100
AcDbCircle
 10
184.8893234082
 20
158.3173081997
 30
0.0
 40
0.5
100
AcDbArc
 50
270.0
 51
0.0
  0
ARC
  5
15E
330
1F
100
AcDbEntity
  8
0
  6
HIDDEN
 62
     7
370
     0
100
AcDbCircle
 10
184.8893234082
 20
178.3173081997
 30
0.0
 40
0.5
100
AcDbArc
 50
0.0
 51
90.0
  0
LINE
  5
15F
330
1F
100
AcDbEntity
  8
0
  6
HIDDEN
 62
     7
370
     0
100
AcDbLine
 10
185.3893234082
 20
160.0673081997
 30
0.0
 11
186.3893234082
 21
161.0673081997
 31
0.0
  0
LINE
  5
160
330
1F
100
AcDbEntity
  8
0
  6
HIDDEN
 62
     7
370
     0
100
AcDbLine
 10
186.3893234082
 20
175.5673081997
 30
0.0
 11
185.3893234082
 21
176.5673081997
 31
0.0
  0
LINE
  5
161
330
1F
100
AcDbEntity
  8
0
  6
HIDDEN
 62
     7
370
     0
100
AcDbLine
 10
186.3893234082
 20
161.0673081997
 30
0.0
 11
210.3893234082
 21
161.0673081997
 31
0.0
  0
LINE
  5
162
330
1F
100
AcDbEntity
  8
0
  6
HIDDEN
 62
     7
370
     0
100
AcDbLine
 10
210.3893234082
 20
175.5673081997
 30
0.0
 11
186.3893234082
 21
175.5673081997
 31
0.0
  0
LINE
  5
163
330
1F
100
AcDbEntity
  8
0
  6
HIDDEN
 62
     7
370
     0
100
AcDbLine
 10
210.3893234082
 20
161.0673081997
 30
0.0
 11
212.1919052653
 21
164.0673081997
 31
0.0
  0
LINE
  5
164
330
1F
100
AcDbEntity
  8
0
  6
HIDDEN
 62
     7
370
     0
100
AcDbLine
 10
212.1919052653
 20
172.5673081997
 30
0.0
 11
210.3893234082
 21
175.5673081997
 31
0.0
  0
LINE
  5
165
330
1F
100
AcDbEntity
  8
0
  6
HIDDEN
 62
     7
370
     0
100
AcDbLine
 10
235.7893234082
 20
188.3173081997
 30
0.0
 11
235.7893234082
 21
169.3173081997
 31
0.0
  0
LINE
  5
166
330
1F
100
AcDbEntity
  8
0
  6
HIDDEN
 62
     7
370
     0
100
AcDbLine
 10
245.9893234082
 20
169.3173081997
 30
0.0
 11
245.9893234082
 21
188.3173081997
 31
0.0
  0
LINE
  5
167
330
1F
100
AcDbEntity
  8
0
  6
HIDDEN
 62
     7
370
     0
100
AcDbLine
 10
212.1919052653
 20
164.0673081997
 30
0.0
 11
225.3893234082
 21
164.0673081997
 31
0.0
  0
LINE
  5
168
330
1F
100
AcDbEntity
  8
0
  6
HIDDEN
 62
     7
370
     0
100
AcDbLine
 10
225.3893234082
 20
172.5673081997
 30
0.0
 11
212.1919052653
 21
172.5673081997
 31
0.0
  0
LINE
  5
169
330
1F
100
AcDbEntity
  8
0
  6
HIDDEN
 62
     7
370
     0
100
AcDbLine
 10
225.3893234082
 20
164.0673081997
 30
0.0
 11
226.9361969039
 21
168.3173081997
 31
0.0
  0
LINE
  5
16A
330
1F
100
AcDbEntity
  8
0
  6
HIDDEN
 62
     7
370
     0
100
AcDbLine
 10
226.9361969039
 20
168.3173081997
 30
0.0
 11
225.3893234082
 21
172.5673081997
 31
0.0
  0
LINE
  5
16B
330
1F
100
AcDbEntity
  8
0
  6
HIDDEN
 62
     7
370
     0
100
AcDbLine
 10
184.8260620474
 20
152.1402518399
 30
0.0
 11
184.4393234082
 21
152.5269904791
 31
0.0
  0
LINE
  5
16C
330
1F
100
AcDbEntity
  8
0
  6
HIDDEN
 62
     7
370
     0
100
AcDbLine
 10
178.3393234082
 20
152.5269904791
 30
0.0
 11
178.1325770502
 21
152.3202441211
 31
0.0
  0
LINE
  5
16D
330
1F
100
AcDbEntity
  8
0
  6
HIDDEN
 62
     7
370
     0
100
AcDbLine
 10
170.8893234082
 20
154.3173081997
 30
0.0
 11
165.3893234082
 21
154.3173081997
 31
0.0
  0
LINE
  5
16E
330
1F
100
AcDbEntity
  8
0
  6
HIDDEN
 62
     7
370
     0
100
AcDbLine
 10
172.7599615408
 20
152.4466700672
 30
0.0
 11
170.8893234082
 21
154.3173081997
 31
0.0
  0
LINE
  5
16F
330
1F
100
AcDbEntity
  8
0
  6
HIDDEN
 62
     7
370
     0
100
AcDbLine
 10
184.4393234082
 20
178.8108398988
 30
0.0
 11
184.4393234082
 21
182.3173081997
 31
0.0
  0
LINE
  5
170
330
1F
100
AcDbEntity
  8
0
  6
HIDDEN
 62
     7
370
     0
100
AcDbLine
 10
178.3393234082
 20
182.3173081997
 30
0.0
 11
178.3393234082
 21
178.8073024791
 31
0.0
  0
LINE
  5
171
330
1F
100
AcDbEntity
  8
0
  6
HIDDEN
 62
     7
370
     0
100
AcDbLine
 10
184.4393234082
 20
152.5269904791
 30
0.0
 11
184.4393234082
 21
157.8273139203
 31
0.0
  0
LINE
  5
172
330
1F
100
AcDbEntity
  8
0
  6
HIDDEN
 62
     7
370
     0
100
AcDbLine
 10
178.3393234082
 20
157.8237765007
 30
0.0
 11
178.3393234082
 21
152.5269904791
 31
0.0
  0
LINE
  5
173
330
1F
100
AcDbEntity
  8
0
  6
HIDDEN
 62
     7
370
     0
100
AcDbLine
 10
184.4393234082
 20
182.3173081997
 30
0.0
 11
181.3893234082
 21
184.1499330878
 31
0.0
  0
LINE
  5
174
330
1F
100
AcDbEntity
  8
0
  6
HIDDEN
 62
     7
370
     0
100
AcDbLine
 10
181.3893234082
 20
184.1499330878
 30
0.0
 11
178.3393234082
 21
182.3173081997
 31
0.0
  0
LINE
  5
175
330
1F
100
AcDbEntity
  8
0
  6
HIDDEN
 62
     7
370
     0
100
AcDbLine
 10
205.3893234082
 20
143.8173081997
 30
0.0
 11
205.3893234082
 21
143.3173081997
 31
0.0
  0
LINE
  5
176
330
1F
100
AcDbEntity
  8
0
  6
HIDDEN
 62
     7
370
     0
100
AcDbLine
 10
209.3893234082
 20
143.3173081997
 30
0.0
 11
209.3893234082
 21
143.8173081997
 31
0.0
  0
LINE
  5
177
330
1F
100
AcDbEntity
  8
0
  6
HIDDEN
 62
     7
370
     0
100
AcDbLine
 10
209.3893234082
 20
143.8173081997
 30
0.0
 11
207.3893234082
 21
145.0190294378
 31
0.0
  0
LINE
  5
178
330
1F
100
AcDbEntity
  8
0
  6
HIDDEN
 62
     7
370
     0
100
AcDbLine
 10
207.3893234082
 20
145.0190294378
 30
0.0
 11
205.3893234082
 21
143.8173081997
 31
0.0
  0
LINE
  5
179
330
1F
100
AcDbEntity
  8
0
  6
HIDDEN
 62
     7
370
     0
100
AcDbLine
 10
222.8180204898
 20
178.6252455334
 30
0.0
 11
219.8969943069
 21
170.4886379144
 31
0.0
  0
LINE
  5
17A
330
1F
100
AcDbEntity
  8
0
  6
HIDDEN
 62
     7
370
     0
100
AcDbLine
 10
224.6742442498
 20
168.9978572583
 30
0.0
 11
224.6747565992
 21
168.9992844233
 31
0.0
  0
LINE
  5
17B
330
1F
100
AcDbEntity
  8
0
  6
HIDDEN
 62
     7
370
     0
100
AcDbLine
 10
235.7893234082
 20
188.3173081997
 30
0.0
 11
235.7893234082
 21
169.3173081997
 31
0.0
  0
LINE
  5
17C
330
1F
100
AcDbEntity
  8
0
  6
HIDDEN
 62
     7
370
     0
100
AcDbLine
 10
245.9893234082
 20
169.3173081997
 30
0.0
 11
245.9893234082
 21
188.3173081997
 31
0.0
  0
DIMENSION
  5
17D
330
1F
100
AcDbEntity
  8
VERMASSUNG
100
AcDbDimension
  2
_D
 10
266.9864163085
 20
168.3173081997
 30
0.0
 11
266.9864163085
 21
178.3173081997
 31
0.0
 70
   160
  1
<>
 71
     2
 42
-1.0
  3
SLDDIMSTYLE0
100
AcDbAlignedDimension
 13
253.3893234082
 23
188.3173081997
 33
0.0
 14
256.461687406
 24
168.3173081997
 34
0.0
 50
90.0
100
AcDbRotatedDimension
  0
DIMENSION
  5
188
330
1F
100
AcDbEntity
  8
VERMASSUNG
100
AcDbDimension
  2
_D_1
 10
260.7030549445
 20
169.3173081997
 30
0.0
 11
260.7030549445
 21
175.9905613715
 31
0.0
 70
   160
  1
<>
 71
     2
 42
-1.0
  3
SLDDIMSTYLE1
100
AcDbAlignedDimension
 13
256.461687406
 23
168.3173081997
 33
0.0
 14
253.3893234082
 24
169.3173081997
 34
0.0
 50
90.0
100
AcDbRotatedDimension
  0
DIMENSION
  5
195
330
1F
100
AcDbEntity
  8
VERMASSUNG
100
AcDbDimension
  2
_D_2
 10
260.7030549445
 20
143.3173081997
 30
0.0
 11
260.7030549445
 21
155.8173081997
 31
0.0
 70
   160
  1
<>
 71
     2
 42
-1.0
  3
SLDDIMSTYLE0
100
AcDbAlignedDimension
 13
256.461687406
 23
168.3173081997
 33
0.0
 14
253.3893234082
 24
143.3173081997
 34
0.0
 50
90.0
100
AcDbRotatedDimension
  0
DIMENSION
  5
19F
330
1F
100
AcDbEntity
  8
VERMASSUNG
100
AcDbDimension
  2
_D_3
 10
266.9864163085
 20
128.3173081997
 30
0.0
 11
266.9864163085
 21
148.3173081997
 31
0.0
 70
   160
  1
<>
 71
     2
 42
-1.0
  3
SLDDIMSTYLE0
100
AcDbAlignedDimension
 13
256.461687406
 23
168.3173081997
 33
0.0
 14
253.3893234082
 24
128.3173081997
 34
0.0
 50
90.0
100
AcDbRotatedDimension
  0
DIMENSION
  5
1A9
330
1F
100
AcDbEntity
  8
VERMASSUNG
100
AcDbDimension
  2
_D_4
 10
155.3893234082
 20
143.3173081997
 30
0.0
 11
155.3893234082
 21
168.3173081997
 31
0.0
 70
   160
  1
PSC%%c<>
 71
     2
 42
-1.0
  3
SLDDIMSTYLE0
100
AcDbAlignedDimension
 13
195.6893234082
 23
193.3173081997
 33
0.0
 14
195.6893234082
 24
143.3173081997
 34
0.0
 50
90.0
100
AcDbRotatedDimension
  0
LINE
  5
1B5
330
1F
100
AcDbEntity
  8
VERMASSUNG
  6
CENTERX2
370
     0
100
AcDbLine
 10
161.5899385879
 20
168.3173081997
 30
0.0
 11
256.461687406
 21
168.3173081997
 31
0.0
  0
ARC
  5
1B6
330
1F
100
AcDbEntity
  8
0
  6
Continuous
 62
     7
370
    15
100
AcDbCircle
 10
226.3893234082
 20
42.1633833858
 30
0.0
 40
5.600000000000017
100
AcDbArc
 50
306.6594564875
 51
330.3533958967
  0
ARC
  5
1B7
330
1F
100
AcDbEntity
  8
0
  6
Continuous
 62
     7
370
    15
100
AcDbCircle
 10
226.3893234082
 20
42.1633833858
 30
0.0
 40
5.600000000000027
100
AcDbArc
 50
209.5153394713
 51
229.3074788376
  0
ARC
  5
1B8
330
1F
100
AcDbEntity
  8
0
  6
Continuous
 62
     7
370
    15
100
AcDbCircle
 10
226.3893234082
 20
109.9633833858
 30
0.0
 40
5.600000000000036
100
AcDbArc
 50
126.6594564875
 51
150.4700498946
  0
ARC
  5
1B9
330
1F
100
AcDbEntity
  8
0
  6
Continuous
 62
     7
370
    15
100
AcDbCircle
 10
226.3893234082
 20
109.9633833858
 30
0.0
 40
5.600000000000027
100
AcDbArc
 50
29.5904650297
 51
49.3074788376
  0
LINE
  5
1BA
330
1F
100
AcDbEntity
  8
0
  6
Continuous
 62
     7
370
    15
100
AcDbLine
 10
218.5343157092
 20
36.0633833858
 30
0.0
 11
228.3893234082
 21
36.0633833858
 31
0.0
  0
LINE
  5
1BB
330
1F
100
AcDbEntity
  8
0
  6
Continuous
 62
     7
370
    15
100
AcDbLine
 10
228.3893234082
 20
116.0633833858
 30
0.0
 11
218.5343157092
 21
116.0633833858
 31
0.0
  0
ARC
  5
1BC
330
1F
100
AcDbEntity
  8
0
  6
Continuous
 62
     7
370
    15
100
AcDbCircle
 10
218.5343157092
 20
37.0633833858
 30
0.0
 40
1.000000000000009
100
AcDbArc
 50
185.0
 51
270.0
  0
ARC
  5
1BD
330
1F
100
AcDbEntity
  8
0
  6
Continuous
 62
     7
370
    15
100
AcDbCircle
 10
218.5343157092
 20
115.0633833858
 30
0.0
 40
1.000000000000008
100
AcDbArc
 50
90.0
 51
175.0
  0
LINE
  5
1BE
330
1F
100
AcDbEntity
  8
0
  6
Continuous
 62
     7
370
    15
100
AcDbLine
 10
217.5381210111
 20
115.1505391285
 30
0.0
 11
216.3855181063
 21
101.976227643
 31
0.0
  0
LINE
  5
1BF
330
1F
100
AcDbEntity
  8
0
  6
Continuous
 62
     7
370
    15
100
AcDbLine
 10
216.3855181063
 20
50.1505391285
 30
0.0
 11
217.5381210111
 21
36.976227643
 31
0.0
  0
ARC
  5
1C0
330
1F
100
AcDbEntity
  8
0
  6
Continuous
 62
     7
370
    15
100
AcDbCircle
 10
215.3893234082
 20
50.0633833858
 30
0.0
 40
1.0
100
AcDbArc
 50
5.0
 51
90.0
  0
ARC
  5
1C1
330
1F
100
AcDbEntity
  8
0
  6
Continuous
 62
     7
370
    15
100
AcDbCircle
 10
215.3893234082
 20
102.0633833858
 30
0.0
 40
1.0
100
AcDbArc
 50
270.0
 51
355.0
  0
LINE
  5
1C2
330
1F
100
AcDbEntity
  8
0
  6
Continuous
 62
     7
370
    15
100
AcDbLine
 10
195.6893234082
 20
51.0633833858
 30
0.0
 11
215.3893234082
 21
51.0633833858
 31
0.0
  0
LINE
  5
1C3
330
1F
100
AcDbEntity
  8
0
  6
Continuous
 62
     7
370
    15
100
AcDbLine
 10
215.3893234082
 20
101.0633833858
 30
0.0
 11
195.6893234082
 21
101.0633833858
 31
0.0
  0
ARC
  5
1C4
330
1F
100
AcDbEntity
  8
0
  6
Continuous
 62
     7
370
    15
100
AcDbCircle
 10
195.6893234082
 20
51.3633833858
 30
0.0
 40
0.3000000000000398
100
AcDbArc
 50
180.0
 51
270.0
  0
ARC
  5
1C5
330
1F
100
AcDbEntity
  8
0
  6
Continuous
 62
     7
370
    15
100
AcDbCircle
 10
195.6893234082
 20
100.7633833858
 30
0.0
 40
0.3000000000000398
100
AcDbArc
 50
90.0
 51
180.0
  0
LWPOLYLINE
  5
1C6
330
1F
100
AcDbEntity
  8
0
  6
Continuous
 62
     7
370
    15
100
AcDbPolyline
 90
        3
 70
   128
 43
0.0
 10
195.1893234082
 20
58.2235631069
 10
195.3147783517
 20
58.1552609919
 10
195.3893234082
 20
58.1025232338
  0
LWPOLYLINE
  5
1C7
330
1F
100
AcDbEntity
  8
0
  6
Continuous
 62
     7
370
    15
100
AcDbPolyline
 90
        3
 70
   128
 43
0.0
 10
195.3893234082
 20
94.0242435377
 10
195.3147783517
 20
93.9715057796
 10
195.1893234082
 20
93.9032036646
  0
CIRCLE
  5
1C8
330
1F
100
AcDbEntity
  8
0
  6
Continuous
 62
     7
370
    15
100
AcDbCircle
 10
240.8893234082
 20
51.0633833858
 30
0.0
 40
5.036000000000002
  0
LINE
  5
1C9
330
1F
100
AcDbEntity
  8
0
  6
Continuous
 62
     7
370
    15
100
AcDbLine
 10
242.7470312367
 20
48.1395294865
 30
0.0
 11
244.3503090762
 21
51.2102786083
 31
0.0
  0
LINE
  5
1CA
330
1F
100
AcDbEntity
  8
0
  6
Continuous
 62
     7
370
    15
100
AcDbLine
 10
242.4926012477
 20
54.1341325076
 30
0.0
 11
244.3503090762
 21
51.2102786083
 31
0.0
  0
LINE
  5
1CB
330
1F
100
AcDbEntity
  8
0
  6
Continuous
 62
     7
370
    15
100
AcDbLine
 10
239.0316155798
 20
53.987237285
 30
0.0
 11
242.4926012477
 21
54.1341325076
 31
0.0
  0
LINE
  5
1CC
330
1F
100
AcDbEntity
  8
0
  6
Continuous
 62
     7
370
    15
100
AcDbLine
 10
239.0316155798
 20
53.987237285
 30
0.0
 11
237.4283377403
 21
50.9164881632
 31
0.0
  0
LINE
  5
1CD
330
1F
100
AcDbEntity
  8
0
  6
Continuous
 62
     7
370
    15
100
AcDbLine
 10
239.2860455687
 20
47.9926342639
 30
0.0
 11
237.4283377403
 21
50.9164881632
 31
0.0
  0
LINE
  5
1CE
330
1F
100
AcDbEntity
  8
0
  6
Continuous
 62
     7
370
    15
100
AcDbLine
 10
239.2860455687
 20
47.9926342639
 30
0.0
 11
242.7470312367
 21
48.1395294865
 31
0.0
  0
CIRCLE
  5
1CF
330
1F
100
AcDbEntity
  8
0
  6
Continuous
 62
     7
370
    15
100
AcDbCircle
 10
240.8893234082
 20
101.0633833858
 30
0.0
 40
5.036000000000001
  0
LINE
  5
1D0
330
1F
100
AcDbEntity
  8
0
  6
Continuous
 62
     7
370
    15
100
AcDbLine
 10
243.8893234082
 20
102.7954341933
 30
0.0
 11
240.8893234082
 21
104.5274850009
 31
0.0
  0
LINE
  5
1D1
330
1F
100
AcDbEntity
  8
0
  6
Continuous
 62
     7
370
    15
100
AcDbLine
 10
237.8893234082
 20
102.7954341933
 30
0.0
 11
240.8893234082
 21
104.5274850009
 31
0.0
  0
LINE
  5
1D2
330
1F
100
AcDbEntity
  8
0
  6
Continuous
 62
     7
370
    15
100
AcDbLine
 10
237.8893234082
 20
99.3313325782
 30
0.0
 11
237.8893234082
 21
102.7954341933
 31
0.0
  0
LINE
  5
1D3
330
1F
100
AcDbEntity
  8
0
  6
Continuous
 62
     7
370
    15
100
AcDbLine
 10
237.8893234082
 20
99.3313325782
 30
0.0
 11
240.8893234082
 21
97.5992817706
 31
0.0
  0
LINE
  5
1D4
330
1F
100
AcDbEntity
  8
0
  6
Continuous
 62
     7
370
    15
100
AcDbLine
 10
243.8893234082
 20
99.3313325782
 30
0.0
 11
240.8893234082
 21
97.5992817706
 31
0.0
  0
LINE
  5
1D5
330
1F
100
AcDbEntity
  8
0
  6
Continuous
 62
     7
370
    15
100
AcDbLine
 10
243.8893234082
 20
99.3313325782
 30
0.0
 11
243.8893234082
 21
102.7954341933
 31
0.0
  0
CIRCLE
  5
1D6
330
1F
100
AcDbEntity
  8
0
  6
Continuous
 62
     7
370
    15
100
AcDbCircle
 10
240.8893234082
 20
76.0633833858
 30
0.0
 40
5.036000000000001
  0
LINE
  5
1D7
330
1F
100
AcDbEntity
  8
0
  6
Continuous
 62
     7
370
    15
100
AcDbLine
 10
243.8893234082
 20
77.7954341933
 30
0.0
 11
240.8893234082
 21
79.5274850009
 31
0.0
  0
LINE
  5
1D8
330
1F
100
AcDbEntity
  8
0
  6
Continuous
 62
     7
370
    15
100
AcDbLine
 10
237.8893234082
 20
77.7954341933
 30
0.0
 11
240.8893234082
 21
79.5274850009
 31
0.0
  0
LINE
  5
1D9
330
1F
100
AcDbEntity
  8
0
  6
Continuous
 62
     7
370
    15
100
AcDbLine
 10
237.8893234082
 20
74.3313325782
 30
0.0
 11
237.8893234082
 21
77.7954341933
 31
0.0
  0
LINE
  5
1DA
330
1F
100
AcDbEntity
  8
0
  6
Continuous
 62
     7
370
    15
100
AcDbLine
 10
237.8893234082
 20
74.3313325782
 30
0.0
 11
240.8893234082
 21
72.5992817706
 31
0.0
  0
LINE
  5
1DB
330
1F
100
AcDbEntity
  8
0
  6
Continuous
 62
     7
370
    15
100
AcDbLine
 10
243.8893234082
 20
74.3313325782
 30
0.0
 11
240.8893234082
 21
72.5992817706
 31
0.0
  0
LINE
  5
1DC
330
1F
100
AcDbEntity
  8
0
  6
Continuous
 62
     7
370
    15
100
AcDbLine
 10
243.8893234082
 20
74.3313325782
 30
0.0
 11
243.8893234082
 21
77.7954341933
 31
0.0
  0
ARC
  5
1DD
330
1F
100
AcDbEntity
  8
0
  6
Continuous
 62
     7
370
    15
100
AcDbCircle
 10
229.7738710535
 20
138.2889033785
 30
0.0
 40
100.6178390247476
100
AcDbArc
 50
265.9902964839
 51
269.9766388411
  0
ARC
  5
1DE
330
1F
100
AcDbEntity
  8
0
  6
Continuous
 62
     7
370
    15
100
AcDbCircle
 10
223.004775763
 20
13.837863393
 30
0.0
 40
100.6178390247625
100
AcDbArc
 50
85.9902964839
 51
89.9766388411
  0
LINE
  5
1DF
330
1F
100
AcDbEntity
  8
0
  6
Continuous
 62
     7
370
    15
100
AcDbLine
 10
229.0972341486
 20
112.0633833858
 30
0.0
 11
223.6760892602
 21
112.0633833858
 31
0.0
  0
LINE
  5
1E0
330
1F
100
AcDbEntity
  8
0
  6
Continuous
 62
     7
370
    15
100
AcDbLine
 10
223.6688260169
 20
40.0633833858
 30
0.0
 11
229.1430675924
 21
40.0633833858
 31
0.0
  0
SPLINE
  5
1E1
330
1F
100
AcDbEntity
  8
0
  6
Continuous
 62
     7
370
    15
100
AcDbSpline
210
0.0
220
0.0
230
1.0
 70
    11
 71
     3
 72
    89
 73
    85
 74
     0
 42
0.000000001
 43
0.00000001
 40
0.0
 40
0.0
 40
0.0
 40
0.0
 40
0.0312500000000003
 40
0.0312500000000003
 40
0.0468750000000005
 40
0.0468750000000005
 40
0.0625000000000006
 40
0.0625000000000006
 40
0.0937500000000008
 40
0.0937500000000008
 40
0.125000000000001
 40
0.125000000000001
 40
0.1562500000000012
 40
0.1562500000000012
 40
0.1718750000000012
 40
0.1718750000000012
 40
0.1875000000000012
 40
0.2031250000000012
 40
0.2031250000000012
 40
0.2187500000000012
 40
0.2187500000000012
 40
0.2500000000000012
 40
0.2500000000000012
 40
0.2812500000000014
 40
0.2812500000000014
 40
0.3125000000000016
 40
0.3125000000000016
 40
0.3281250000000017
 40
0.3281250000000017
 40
0.3437500000000018
 40
0.3437500000000018
 40
0.3593750000000019
 40
0.3593750000000019
 40
0.3750000000000019
 40
0.3750000000000019
 40
0.4062500000000018
 40
0.4062500000000018
 40
0.4375000000000017
 40
0.4375000000000017
 40
0.4687500000000016
 40
0.4687500000000016
 40
0.4843750000000014
 40
0.4843750000000014
 40
0.5000000000000013
 40
0.5000000000000013
 40
0.5156250000000012
 40
0.5156250000000012
 40
0.5312500000000012
 40
0.5312500000000012
 40
0.5625000000000012
 40
0.5625000000000012
 40
0.5781250000000012
 40
0.5781250000000012
 40
0.5937500000000012
 40
0.5937500000000012
 40
0.6250000000000013
 40
0.6250000000000013
 40
0.6562500000000014
 40
0.6562500000000014
 40
0.6875000000000016
 40
0.6875000000000016
 40
0.7031250000000016
 40
0.7031250000000016
 40
0.7187500000000017
 40
0.7187500000000017
 40
0.7500000000000016
 40
0.7500000000000016
 40
0.7812500000000013
 40
0.7812500000000013
 40
0.8125000000000011
 40
0.8125000000000011
 40
0.8437500000000009
 40
0.8437500000000009
 40
0.8750000000000007
 40
0.8750000000000007
 40
0.8906250000000006
 40
0.8906250000000006
 40
0.9062500000000006
 40
0.9062500000000006
 40
0.9375000000000003
 40
0.9375000000000003
 40
0.9687500000000002
 40
0.9687500000000002
 40
1.0
 40
1.0
 40
1.0
 40
1.0
 10
219.3893234082415
 20
37.60561433969163
 30
0.0
 10
219.3893234082415
 20
37.47558653835976
 30
0.0
 10
219.4332028267276
 20
37.35566983169011
 30
0.0
 10
219.5642136729541
 20
37.18982467202893
 30
0.0
 10
219.6188219618016
 20
37.13688555757278
 30
0.0
 10
219.7507228196837
 20
37.03554431699631
 30
0.0
 10
219.8284287289873
 20
36.98701093740586
 30
0.0
 10
220.0912634026595
 20
36.85092151969629
 30
0.0
 10
220.3068465286044
 20
36.77174759789702
 30
0.0
 10
220.8194006916073
 20
36.63253375797346
 30
0.0
 10
221.1195376084489
 20
36.57231737845181
 30
0.0
 10
221.7775389452427
 20
36.47214752815444
 30
0.0
 10
222.1375371706317
 20
36.43134806192938
 30
0.0
 10
222.7253612479458
 20
36.38079986724401
 30
0.0
 10
222.9290979253655
 20
36.36579376306214
 30
0.0
 10
223.3433716067711
 20
36.3395028132116
 30
0.0
 10
223.7666678775157
 20
36.31672830175716
 30
0.0
 10
224.2077572414941
 20
36.29996193794474
 30
0.0
 10
224.6578881229793
 20
36.28586375237249
 30
0.0
 10
224.8888099924942
 20
36.28012961049019
 30
0.0
 10
225.5826125726512
 20
36.26689615897317
 30
0.0
 10
226.0476744423977
 20
36.26315422239203
 30
0.0
 10
226.9827604664558
 20
36.26484519089885
 30
0.0
 10
227.4564309947878
 20
36.27044881223885
 30
0.0
 10
228.368503178367
 20
36.29175047254868
 30
0.0
 10
228.8114562510493
 20
36.30737987550904
 30
0.0
 10
229.4557981988158
 20
36.34070762668986
 30
0.0
 10
229.6668966304244
 20
36.35350284180702
 30
0.0
 10
230.0727442556239
 20
36.38236837667775
 30
0.0
 10
230.2687513375163
 20
36.39849765324443
 30
0.0
 10
230.6471388276338
 20
36.43465387102747
 30
0.0
 10
230.8295190566132
 20
36.45467987946392
 30
0.0
 10
231.1804564514517
 20
36.49928886595926
 30
0.0
 10
231.349902602019
 20
36.52403724337736
 30
0.0
 10
231.8280545229688
 20
36.60485593179479
 30
0.0
 10
232.1079118101973
 20
36.66740327950806
 30
0.0
 10
232.5921703580385
 20
36.81400795327136
 30
0.0
 10
232.7971546028824
 20
36.89901374366986
 30
0.0
 10
233.1144696269589
 20
37.08758409159333
 30
0.0
 10
233.2296275078944
 20
37.1916496491701
 30
0.0
 10
233.3376516060695
 20
37.3642684547596
 30
0.0
 10
233.362636204894
 20
37.42458204618686
 30
0.0
 10
233.3901269685697
 20
37.54833456873187
 30
0.0
 10
233.3928600664743
 20
37.61207443240492
 30
0.0
 10
233.3769385781993
 20
37.74324539128523
 30
0.0
 10
233.3582829429752
 20
37.81067654251679
 30
0.0
 10
233.2996134088502
 20
37.94919248162323
 30
0.0
 10
233.2593437271581
 20
38.02062006672116
 30
0.0
 10
233.1075947405758
 20
38.23765925082457
 30
0.0
 10
232.9665223343354
 20
38.38516507733323
 30
0.0
 10
232.6972114392103
 20
38.60884714333602
 30
0.0
 10
232.5977524237602
 20
38.68380620975691
 30
0.0
 10
232.3789385062566
 20
38.83412975996422
 30
0.0
 10
232.2594404857682
 20
38.9094999297244
 30
0.0
 10
231.8779750853804
 20
39.13096182257812
 30
0.0
 10
231.5911745260808
 20
39.27401613246732
 30
0.0
 10
230.9508019217485
 20
39.54630581454723
 30
0.0
 10
230.5929718100134
 20
39.67659571296228
 30
0.0
 10
229.8346907374362
 20
39.90655886532954
 30
0.0
 10
229.4324260198813
 20
40.00746577866651
 30
0.0
 10
228.7918136727764
 20
40.13298135743877
 30
0.0
 10
228.5705402600111
 20
40.17068617802821
 30
0.0
 10
228.1223272602662
 20
40.23518394960748
 30
0.0
 10
227.8961674524226
 20
40.26194944835627
 30
0.0
 10
227.2115932362907
 20
40.32551508715405
 30
0.0
 10
226.7471434386527
 20
40.34568683586522
 30
0.0
 10
225.8010801872102
 20
40.33783998070909
 30
0.0
 10
225.335901674125
 20
40.30982683212421
 30
0.0
 10
224.4279957869194
 20
40.21009318197256
 30
0.0
 10
223.9797386168422
 20
40.13714010397055
 30
0.0
 10
223.1383430985889
 20
39.9574170903895
 30
0.0
 10
222.7416894869887
 20
39.85070663822472
 30
0.0
 10
221.9944480715946
 20
39.6092315389059
 30
0.0
 10
221.6520401756331
 20
39.47698342751652
 30
0.0
 10
221.1879608427008
 20
39.26859973101963
 30
0.0
 10
221.0411907848996
 20
39.19731544730932
 30
0.0
 10
220.763466190199
 20
39.05165962233841
 30
0.0
 10
220.6322430384065
 20
38.97706799518561
 30
0.0
 10
220.2694059509362
 20
38.75358848313132
 30
0.0
 10
220.0657474234529
 20
38.60380336185235
 30
0.0
 10
219.7333536334216
 20
38.30595068786692
 30
0.0
 10
219.6044210302576
 20
38.15680041382743
 30
0.0
 10
219.4332273728635
 20
37.87217399172703
 30
0.0
 10
219.3893234082415
 20
37.73564214102349
 30
0.0
 10
219.3893234082415
 20
37.60561433969163
 30
0.0
  0
LINE
  5
1E2
330
1F
100
AcDbEntity
  8
0
  6
Continuous
 62
     7
370
    15
100
AcDbLine
 10
228.3893234082
 20
46.550674259
 30
0.0
 11
218.5343157092
 21
46.550674259
 31
0.0
  0
LINE
  5
1E3
330
1F
100
AcDbEntity
  8
0
  6
Continuous
 62
     7
370
    15
100
AcDbLine
 10
228.3893234082
 20
41.4223672344
 30
0.0
 11
228.3893234082
 21
46.550674259
 31
0.0
  0
LINE
  5
1E4
330
1F
100
AcDbEntity
  8
0
  6
Continuous
 62
     7
370
    15
100
AcDbLine
 10
228.3893234082
 20
41.4223672344
 30
0.0
 11
253.3893234082
 21
41.4223672344
 31
0.0
  0
LINE
  5
1E5
330
1F
100
AcDbEntity
  8
0
  6
Continuous
 62
     7
370
    15
100
AcDbLine
 10
253.3893234082
 20
36.0758853395
 30
0.0
 11
253.3893234082
 21
41.4223672344
 31
0.0
  0
LINE
  5
1E6
330
1F
100
AcDbEntity
  8
0
  6
Continuous
 62
     7
370
    15
100
AcDbLine
 10
228.3893234082
 20
36.0758853395
 30
0.0
 11
253.3893234082
 21
36.0758853395
 31
0.0
  0
LINE
  5
1E7
330
1F
100
AcDbEntity
  8
0
  6
Continuous
 62
     7
370
    15
100
AcDbLine
 10
228.3893234082
 20
36.0633833858
 30
0.0
 11
228.3893234082
 21
36.0758853395
 31
0.0
  0
LINE
  5
1E8
330
1F
100
AcDbEntity
  8
0
  6
Continuous
 62
     7
370
    15
100
AcDbLine
 10
228.3893234082
 20
116.050881432
 30
0.0
 11
228.3893234082
 21
116.0633833858
 31
0.0
  0
LINE
  5
1E9
330
1F
100
AcDbEntity
  8
0
  6
Continuous
 62
     7
370
    15
100
AcDbLine
 10
253.3893234082
 20
116.050881432
 30
0.0
 11
228.3893234082
 21
116.050881432
 31
0.0
  0
LINE
  5
1EA
330
1F
100
AcDbEntity
  8
0
  6
Continuous
 62
     7
370
    15
100
AcDbLine
 10
253.3893234082
 20
110.7043995371
 30
0.0
 11
253.3893234082
 21
116.050881432
 31
0.0
  0
LINE
  5
1EB
330
1F
100
AcDbEntity
  8
0
  6
Continuous
 62
     7
370
    15
100
AcDbLine
 10
253.3893234082
 20
110.7043995371
 30
0.0
 11
228.3893234082
 21
110.7043995371
 31
0.0
  0
LINE
  5
1EC
330
1F
100
AcDbEntity
  8
0
  6
Continuous
 62
     7
370
    15
100
AcDbLine
 10
228.3893234082
 20
105.5760925125
 30
0.0
 11
228.3893234082
 21
110.7043995371
 31
0.0
  0
LINE
  5
1ED
330
1F
100
AcDbEntity
  8
0
  6
Continuous
 62
     7
370
    15
100
AcDbLine
 10
218.5343157092
 20
105.5760925125
 30
0.0
 11
228.3893234082
 21
105.5760925125
 31
0.0
  0
SPLINE
  5
1EE
330
1F
100
AcDbEntity
  8
0
  6
Continuous
 62
     7
370
    15
100
AcDbSpline
210
0.0
220
0.0
230
1.0
 70
    11
 71
     3
 72
    89
 73
    85
 74
     0
 42
0.000000001
 43
0.00000001
 40
0.0
 40
0.0
 40
0.0
 40
0.0
 40
0.0312500000000011
 40
0.0312500000000011
 40
0.0468750000000015
 40
0.0468750000000015
 40
0.0625000000000019
 40
0.0625000000000019
 40
0.0937500000000028
 40
0.0937500000000028
 40
0.1093750000000033
 40
0.1093750000000033
 40
0.1250000000000037
 40
0.1250000000000037
 40
0.1562500000000042
 40
0.1562500000000042
 40
0.1875000000000048
 40
0.1875000000000048
 40
0.2187500000000053
 40
0.2187500000000053
 40
0.2343750000000053
 40
0.2343750000000053
 40
0.2500000000000053
 40
0.2500000000000053
 40
0.2656250000000053
 40
0.2656250000000053
 40
0.2812500000000053
 40
0.2812500000000053
 40
0.3125000000000054
 40
0.3125000000000054
 40
0.3437500000000054
 40
0.3437500000000054
 40
0.3750000000000054
 40
0.3750000000000054
 40
0.4062500000000053
 40
0.4062500000000053
 40
0.4218750000000053
 40
0.4218750000000053
 40
0.4375000000000053
 40
0.4375000000000053
 40
0.4687500000000054
 40
0.4687500000000054
 40
0.5000000000000056
 40
0.5000000000000056
 40
0.5312500000000057
 40
0.5312500000000057
 40
0.5625000000000058
 40
0.5625000000000058
 40
0.5937500000000059
 40
0.5937500000000059
 40
0.6093750000000059
 40
0.6093750000000059
 40
0.6250000000000059
 40
0.6250000000000059
 40
0.6406250000000059
 40
0.6406250000000059
 40
0.6562500000000059
 40
0.6562500000000059
 40
0.6875000000000056
 40
0.6875000000000056
 40
0.7187500000000052
 40
0.7187500000000052
 40
0.7500000000000049
 40
0.7500000000000049
 40
0.7656250000000048
 40
0.7656250000000048
 40
0.7812500000000044
 40
0.7968750000000041
 40
0.7968750000000041
 40
0.8125000000000038
 40
0.8125000000000038
 40
0.8437500000000032
 40
0.8437500000000032
 40
0.8750000000000027
 40
0.8750000000000027
 40
0.9062500000000021
 40
0.9062500000000021
 40
0.9218750000000018
 40
0.9218750000000018
 40
0.9375000000000014
 40
0.9375000000000014
 40
0.9687500000000008
 40
0.9687500000000008
 40
1.0
 40
1.0
 40
1.0
 40
1.0
 10
233.3893234082415
 20
114.5211524318093
 30
0.0
 10
233.3893234082415
 20
114.3911458449334
 30
0.0
 10
233.3454934853274
 20
114.2552107133769
 30
0.0
 10
233.2184714260588
 20
114.0432860062967
 30
0.0
 10
233.1658387423215
 20
113.9713092748857
 30
0.0
 10
233.0398292910982
 20
113.8248626750443
 30
0.0
 10
232.9659962971224
 20
113.750005695998
 30
0.0
 10
232.7161095967095
 20
113.5253631153502
 30
0.0
 10
232.5126604132271
 20
113.3756702493735
 30
0.0
 10
232.153166588936
 20
113.1536779838669
 30
0.0
 10
232.0242148618285
 20
113.0801139554673
 30
0.0
 10
231.7473806345917
 20
112.9344054687394
 30
0.0
 10
231.5992254304898
 20
112.8622055145527
 30
0.0
 10
231.1350876333268
 20
112.6531998496367
 30
0.0
 10
230.7968636495405
 20
112.5223337329433
 30
0.0
 10
230.0603546691862
 20
112.2829490480056
 30
0.0
 10
229.6568832696742
 20
112.1735589881775
 30
0.0
 10
228.8196562683442
 20
111.9934196991764
 30
0.0
 10
228.383838113897
 20
111.9214805780527
 30
0.0
 10
227.7026213951063
 20
111.8449677585562
 30
0.0
 10
227.4692788654647
 20
111.8246499819006
 30
0.0
 10
227.0029037839145
 20
111.7961139503866
 30
0.0
 10
226.7697576453235
 20
111.7877793971405
 30
0.0
 10
226.3035464991833
 20
111.7828343739712
 30
0.0
 10
226.0704814944022
 20
111.7862241553531
 30
0.0
 10
225.6044331740871
 20
111.8047683629936
 30
0.0
 10
225.3703082496062
 20
111.8200324876489
 30
0.0
 10
224.6761060127394
 20
111.8830440216951
 30
0.0
 10
224.2310748829053
 20
111.9469855809467
 30
0.0
 10
223.3740255454928
 20
112.1128682416825
 30
0.0
 10
222.9607194367798
 20
112.2157112663746
 30
0.0
 10
222.1995879423759
 20
112.4453877394559
 30
0.0
 10
221.8466718660459
 20
112.5730981098127
 30
0.0
 10
221.1966138221468
 20
112.848248224734
 30
0.0
 10
220.9082495366553
 20
112.9918850787654
 30
0.0
 10
220.5268509042087
 20
113.2125996410348
 30
0.0
 10
220.4083154619971
 20
113.2870667263908
 30
0.0
 10
220.1886205503206
 20
113.4373345993268
 30
0.0
 10
220.0873855008586
 20
113.5132791999288
 30
0.0
 10
219.8156133541559
 20
113.7381257374533
 30
0.0
 10
219.6744536443362
 20
113.8854462485847
 30
0.0
 10
219.4719528566312
 20
114.1727045851925
 30
0.0
 10
219.4109603316175
 20
114.3138576880435
 30
0.0
 10
219.3774489254796
 20
114.5770045871253
 30
0.0
 10
219.4034792173657
 20
114.7000370765318
 30
0.0
 10
219.5439708303758
 20
114.9294483050595
 30
0.0
 10
219.6602487525026
 20
115.0360612382689
 30
0.0
 10
219.97516705966
 20
115.2247559456881
 30
0.0
 10
220.1740969528196
 20
115.3082347236051
 30
0.0
 10
220.5375813968635
 20
115.4194121830598
 30
0.0
 10
220.6699697147423
 20
115.4541254971594
 30
0.0
 10
220.9506897026035
 20
115.5177594863243
 30
0.0
 10
221.099695981479
 20
115.5469119132441
 30
0.0
 10
221.4147939258147
 20
115.6005576411556
 30
0.0
 10
221.5808852637332
 20
115.6250500037921
 30
0.0
 10
221.9304354718761
 20
115.6699167247938
 30
0.0
 10
222.1149367048998
 20
115.6903859739046
 30
0.0
 10
222.6877356565918
 20
115.7455332506042
 30
0.0
 10
223.0918498542454
 20
115.7738765131615
 30
0.0
 10
223.943444523725
 20
115.8183824441061
 30
0.0
 10
224.3958585264239
 20
115.8345715957309
 30
0.0
 10
225.3089325551179
 20
115.856115494651
 30
0.0
 10
225.7722588949858
 20
115.8617339628815
 30
0.0
 10
226.477573473039
 20
115.8632220209381
 30
0.0
 10
226.7151125783449
 20
115.862518812498
 30
0.0
 10
227.1831537561837
 20
115.8587237274871
 30
0.0
 10
227.6466561104448
 20
115.8525585028966
 30
0.0
 10
228.101242980246
 20
115.8414249294686
 30
0.0
 10
228.5513161588342
 20
115.8274997602204
 30
0.0
 10
228.7752320192544
 20
115.8190880053054
 30
0.0
 10
229.4313323719275
 20
115.7892926883458
 30
0.0
 10
229.8444951719443
 20
115.7636622401703
 30
0.0
 10
230.6236554175836
 20
115.6971687183626
 30
0.0
 10
230.9927486823547
 20
115.6556838225219
 30
0.0
 10
231.6531200091815
 20
115.5555646449483
 30
0.0
 10
231.9476079905587
 20
115.4968847045269
 30
0.0
 10
232.3356389812572
 20
115.3922429274633
 30
0.0
 10
232.4562181658973
 20
115.3544183499397
 30
0.0
 10
232.6740859032239
 20
115.2742699820938
 30
0.0
 10
232.772101520639
 20
115.2317854958922
 30
0.0
 10
233.0343252336302
 20
115.0965865585516
 30
0.0
 10
233.1674069638271
 20
114.995611264437
 30
0.0
 10
233.3453886364323
 20
114.7720113661893
 30
0.0
 10
233.3893234082415
 20
114.6511590186851
 30
0.0
 10
233.3893234082415
 20
114.5211524318093
 30
0.0
  0
SPLINE
  5
1EF
330
1F
100
AcDbEntity
  8
0
  6
Continuous
 62
     7
370
    15
100
AcDbSpline
210
0.0
220
0.0
230
1.0
 70
     8
 71
     3
 72
    14
 73
    10
 74
     0
 42
0.000000001
 43
0.00000001
 40
0.0
 40
0.0
 40
0.0
 40
0.0
 40
0.25
 40
0.25
 40
0.5
 40
0.5
 40
0.75
 40
0.75
 40
1.0
 40
1.0
 40
1.0
 40
1.0
 10
218.5343157091651
 20
46.55067425900303
 30
0.0
 10
218.3887955586645
 20
46.55067425900304
 30
0.0
 10
218.2423384601092
 20
46.59650388849874
 30
0.0
 10
217.9935250409461
 20
46.75124090548001
 30
0.0
 10
217.8889643385154
 20
46.85849705207712
 30
0.0
 10
217.7236500737414
 20
47.0980259376982
 30
0.0
 10
217.6609563902835
 20
47.23278225090663
 30
0.0
 10
217.5734256877487
 20
47.50932735646332
 30
0.0
 10
217.5473042650513
 20
47.65506789685368
 30
0.0
 10
217.5381210110733
 20
47.80023168503222
 30
0.0
  0
SPLINE
  5
1F0
330
1F
100
AcDbEntity
  8
0
  6
Continuous
 62
     7
370
    15
100
AcDbSpline
210
0.0
220
0.0
230
1.0
 70
     8
 71
     3
 72
    14
 73
    10
 74
     0
 42
0.000000001
 43
0.00000001
 40
0.0
 40
0.0
 40
0.0
 40
0.0
 40
0.4999999999999953
 40
0.4999999999999953
 40
0.6249999999999957
 40
0.6249999999999957
 40
0.7499999999999961
 40
0.7499999999999961
 40
1.0
 40
1.0
 40
1.0
 40
1.0
 10
217.5381210110734
 20
104.3265350864687
 30
0.0
 10
217.5564540435281
 20
104.6163335006608
 30
0.0
 10
217.6406275121055
 20
104.9088307665004
 30
0.0
 10
217.8484054390849
 20
105.2094059425928
 30
0.0
 10
217.89463562827
 20
105.2653876696072
 30
0.0
 10
217.9980392587294
 20
105.3676750450469
 30
0.0
 10
218.056109564629
 20
105.414488304544
 30
0.0
 10
218.2426742870699
 20
105.5303890985832
 30
0.0
 10
218.3868900023484
 20
105.5760925124978
 30
0.0
 10
218.5343157091651
 20
105.5760925124979
 30
0.0
  0
SPLINE
  5
1F1
330
1F
100
AcDbEntity
  8
0
  6
Continuous
 62
     7
370
    15
100
AcDbSpline
210
0.0
220
0.0
230
1.0
 70
     8
 71
     3
 72
    14
 73
    10
 74
     0
 42
0.000000001
 43
0.00000001
 40
0.0
 40
0.0
 40
0.0
 40
0.0
 40
0.2500000000000001
 40
0.2500000000000001
 40
0.5000000000000001
 40
0.5000000000000001
 40
0.7500000000000001
 40
0.7500000000000001
 40
1.0
 40
1.0
 40
1.0
 40
1.0
 10
217.5381210110733
 20
104.3265350864687
 30
0.0
 10
217.2403850857424
 20
99.62009062770346
 30
0.0
 10
216.9759923326476
 20
94.91053985539004
 30
0.0
 10
216.5937162509535
 20
85.49091231886649
 30
0.0
 10
216.4806986994723
 20
80.78007433017417
 30
0.0
 10
216.4805651810883
 20
71.35543660715672
 30
0.0
 10
216.5935386587308
 20
66.64048406253924
 30
0.0
 10
216.9760912801961
 20
57.21353523405136
 30
0.0
 10
217.2404520706126
 20
52.50561728410185
 30
0.0
 10
217.5381210110733
 20
47.80023168503222
 30
0.0
  0
LINE
  5
1F2
330
1F
100
AcDbEntity
  8
0
  6
Continuous
 62
     7
370
    15
100
AcDbLine
 10
228.3893234082
 20
105.5760925125
 30
0.0
 11
228.3893234082
 21
46.550674259
 31
0.0
  0
SPLINE
  5
1F3
330
1F
100
AcDbEntity
  8
0
  6
Continuous
 62
     7
370
    15
100
AcDbSpline
210
0.0
220
0.0
230
1.0
 70
     8
 71
     3
 72
    12
 73
     8
 74
     0
 42
0.000000001
 43
0.00000001
 40
0.0
 40
0.0
 40
0.0
 40
0.0
 40
0.2500000000000007
 40
0.2500000000000007
 40
0.5000000000000013
 40
0.5000000000000013
 40
1.0
 40
1.0
 40
1.0
 40
1.0
 10
203.9170802218079
 20
83.63219335493088
 30
0.0
 10
203.8534149852774
 20
83.63219335493088
 30
0.0
 10
203.7938087530541
 20
83.65826550341056
 30
0.0
 10
203.6951482281232
 20
83.73380425423166
 30
0.0
 10
203.656181238108
 20
83.78105519132788
 30
0.0
 10
203.5567944061835
 20
83.93287900929431
 30
0.0
 10
203.51471815876
 20
84.04568225905938
 30
0.0
 10
203.4840675199157
 20
84.15983638379448
 30
0.0
  0
LINE
  5
1F4
330
1F
100
AcDbEntity
  8
0
  6
Continuous
 62
     7
370
    15
100
AcDbLine
 10
206.8615665947
 20
83.6321933549
 30
0.0
 11
203.9170802218
 21
83.6321933549
 31
0.0
  0
SPLINE
  5
1F5
330
1F
100
AcDbEntity
  8
0
  6
Continuous
 62
     7
370
    15
100
AcDbSpline
210
0.0
220
0.0
230
1.0
 70
     8
 71
     3
 72
    12
 73
     8
 74
     0
 42
0.000000001
 43
0.00000001
 40
0.0
 40
0.0
 40
0.0
 40
0.0
 40
0.5000000000000018
 40
0.5000000000000018
 40
0.7500000000000009
 40
0.7500000000000009
 40
1.0
 40
1.0
 40
1.0
 40
1.0
 10
207.2945792965672
 20
84.1598363837945
 30
0.0
 10
207.2638799132
 20
84.04550071673064
 30
0.0
 10
207.2225298450934
 20
83.93414736388928
 30
0.0
 10
207.122773916874
 20
83.78141059164054
 30
0.0
 10
207.0830769991413
 20
83.73355070578842
 30
0.0
 10
206.9858188474937
 20
83.65894759243896
 30
0.0
 10
206.925042689503
 20
83.63219335493088
 30
0.0
 10
206.861566594675
 20
83.63219335493088
 30
0.0
  0
ELLIPSE
  5
1F6
330
1F
100
AcDbEntity
  8
0
  6
Continuous
 62
     7
370
    15
100
AcDbEllipse
 10
194.3330657533
 20
76.0633833858
 30
0.0
 11
11.70927234972708
 21
24.67718644093742
 31
0.0
210
0.0
220
0.0
230
1.0
 40
0.3419987131
 41
5.203068809370451
 42
6.114256032590497
  0
SPLINE
  5
1F7
330
1F
100
AcDbEntity
  8
0
  6
Continuous
 62
     7
370
    15
100
AcDbSpline
210
0.0
220
0.0
230
1.0
 70
     8
 71
     3
 72
    12
 73
     8
 74
     0
 42
0.000000001
 43
0.00000001
 40
0.0
 40
0.0
 40
0.0
 40
0.0
 40
0.25
 40
0.25
 40
0.5
 40
0.5
 40
1.0
 40
1.0
 40
1.0
 40
1.0
 10
206.861566594675
 20
99.89011450125231
 30
0.0
 10
206.9252318312056
 20
99.89011450125231
 30
0.0
 10
206.9848380634289
 20
99.88184972558648
 30
0.0
 10
207.0834985883598
 20
99.8576309440033
 30
0.0
 10
207.122465578375
 20
99.84237362469418
 30
0.0
 10
207.2218524102995
 20
99.79274027043223
 30
0.0
 10
207.2639286577229
 20
99.75510056225812
 30
0.0
 10
207.2945792965673
 20
99.71602486298198
 30
0.0
  0
LINE
  5
1F8
330
1F
100
AcDbEntity
  8
0
  6
Continuous
 62
     7
370
    15
100
AcDbLine
 10
203.9170802218
 20
99.8901145013
 30
0.0
 11
206.8615665947
 21
99.8901145013
 31
0.0
  0
SPLINE
  5
1F9
330
1F
100
AcDbEntity
  8
0
  6
Continuous
 62
     7
370
    15
100
AcDbSpline
210
0.0
220
0.0
230
1.0
 70
     8
 71
     3
 72
    12
 73
     8
 74
     0
 42
0.000000001
 43
0.00000001
 40
0.0
 40
0.0
 40
0.0
 40
0.0
 40
0.4999999999999987
 40
0.4999999999999987
 40
0.7499999999999993
 40
0.7499999999999993
 40
1.0
 40
1.0
 40
1.0
 40
1.0
 10
203.4840675199157
 20
99.71602486298198
 30
0.0
 10
203.514766903283
 20
99.75516270537786
 30
0.0
 10
203.5561169713895
 20
99.79232248810337
 30
0.0
 10
203.655872899609
 20
99.84225899373112
 30
0.0
 10
203.6955698173417
 20
99.85771186387488
 30
0.0
 10
203.7928279689893
 20
99.88163140747393
 30
0.0
 10
203.85360412698
 20
99.89011450125231
 30
0.0
 10
203.9170802218079
 20
99.89011450125231
 30
0.0
  0
ELLIPSE
  5
1FA
330
1F
100
AcDbEntity
  8
0
  6
Continuous
 62
     7
370
    15
100
AcDbEllipse
 10
216.4455810632
 20
76.0633833858
 30
0.0
 11
-11.70927234972697
 21
24.67718644093743
 31
0.0
210
0.0
220
0.0
230
1.0
 40
0.3419987131
 41
0.1689292745891343
 42
1.080116497809153
  0
SPLINE
  5
1FB
330
1F
100
AcDbEntity
  8
0
  6
Continuous
 62
     7
370
    15
100
AcDbSpline
210
0.0
220
0.0
230
1.0
 70
     8
 71
     3
 72
    12
 73
     8
 74
     0
 42
0.000000001
 43
0.00000001
 40
0.0
 40
0.0
 40
0.0
 40
0.0
 40
0.2499999999999989
 40
0.2499999999999989
 40
0.4999999999999978
 40
0.4999999999999978
 40
1.0
 40
1.0
 40
1.0
 40
1.0
 10
203.9170802218079
 20
52.23665227024846
 30
0.0
 10
203.8534436675943
 20
52.23665227024846
 30
0.0
 10
203.793863540728
 20
52.24490904118021
 30
0.0
 10
203.6952267993616
 20
52.26911110318803
 30
0.0
 10
203.6562681749814
 20
52.28435792222216
 30
0.0
 10
203.5568892354735
 20
52.33396279428228
 30
0.0
 10
203.514931330308
 20
52.3713944424011
 30
0.0
 10
203.4840675199155
 20
52.41074190851877
 30
0.0
  0
LINE
  5
1FC
330
1F
100
AcDbEntity
  8
0
  6
Continuous
 62
     7
370
    15
100
AcDbLine
 10
206.8615665947
 20
52.2366522702
 30
0.0
 11
203.9170802218
 21
52.2366522702
 31
0.0
  0
SPLINE
  5
1FD
330
1F
100
AcDbEntity
  8
0
  6
Continuous
 62
     7
370
    15
100
AcDbSpline
210
0.0
220
0.0
230
1.0
 70
     8
 71
     3
 72
    12
 73
     8
 74
     0
 42
0.000000001
 43
0.00000001
 40
0.0
 40
0.0
 40
0.0
 40
0.0
 40
0.5000000000000018
 40
0.5000000000000018
 40
0.7500000000000009
 40
0.7500000000000009
 40
1.0
 40
1.0
 40
1.0
 40
1.0
 10
207.2945792965672
 20
52.4107419085188
 30
0.0
 10
207.2637275860031
 20
52.37140986815632
 30
0.0
 10
207.2218347225424
 20
52.33399810262804
 30
0.0
 10
207.1223138447492
 20
52.28432717801213
 30
0.0
 10
207.0826996800249
 20
52.26893809540431
 30
0.0
 10
206.9855966462454
 20
52.24510487973705
 30
0.0
 10
206.9250979735951
 20
52.23665227024825
 30
0.0
 10
206.8615665946751
 20
52.23665227024825
 30
0.0
  0
ELLIPSE
  5
1FE
330
1F
100
AcDbEntity
  8
0
  6
Continuous
 62
     7
370
    15
100
AcDbEllipse
 10
194.3330657533
 20
76.0633833858
 30
0.0
 11
-11.70927234972717
 21
24.67718644093742
 31
0.0
210
0.0
220
0.0
230
1.0
 40
0.3419987131
 41
3.310521928178951
 42
4.22170915139894
  0
SPLINE
  5
1FF
330
1F
100
AcDbEntity
  8
0
  6
Continuous
 62
     7
370
    15
100
AcDbSpline
210
0.0
220
0.0
230
1.0
 70
     8
 71
     3
 72
    12
 73
     8
 74
     0
 42
0.000000001
 43
0.00000001
 40
0.0
 40
0.0
 40
0.0
 40
0.0
 40
0.2499999999999991
 40
0.2499999999999991
 40
0.4999999999999982
 40
0.4999999999999982
 40
1.0
 40
1.0
 40
1.0
 40
1.0
 10
206.861566594675
 20
68.49457341656965
 30
0.0
 10
206.9252031488887
 20
68.49457341656965
 30
0.0
 10
206.9847832757549
 20
68.46852651351172
 30
0.0
 10
207.0834200171213
 20
68.39303935461179
 30
0.0
 10
207.1223786415016
 20
68.34582031608107
 30
0.0
 10
207.2217575810095
 20
68.19408066498752
 30
0.0
 10
207.263715486175
 20
68.08187844080335
 30
0.0
 10
207.2945792965674
 20
67.9669303877061
 30
0.0
  0
LINE
  5
200
330
1F
100
AcDbEntity
  8
0
  6
Continuous
 62
     7
370
    15
100
AcDbLine
 10
203.9170802218
 20
68.4945734166
 30
0.0
 11
206.8615665947
 21
68.4945734166
 31
0.0
  0
SPLINE
  5
201
330
1F
100
AcDbEntity
  8
0
  6
Continuous
 62
     7
370
    15
100
AcDbSpline
210
0.0
220
0.0
230
1.0
 70
     8
 71
     3
 72
    12
 73
     8
 74
     0
 42
0.000000001
 43
0.00000001
 40
0.0
 40
0.0
 40
0.0
 40
0.0
 40
0.5
 40
0.5
 40
0.75
 40
0.75
 40
1.0
 40
1.0
 40
1.0
 40
1.0
 10
203.4840675199157
 20
67.96693038770604
 30
0.0
 10
203.5149192304799
 20
68.08183337664288
 30
0.0
 10
203.5568120939406
 20
68.19397227269174
 30
0.0
 10
203.6563329717338
 20
68.34591455429262
 30
0.0
 10
203.695947136458
 20
68.39357916381752
 30
0.0
 10
203.7930501702375
 20
68.4679154944329
 30
0.0
 10
203.8535488428879
 20
68.49457341657003
 30
0.0
 10
203.9170802218079
 20
68.49457341657006
 30
0.0
  0
ELLIPSE
  5
202
330
1F
100
AcDbEntity
  8
0
  6
Continuous
 62
     7
370
    15
100
AcDbEllipse
 10
216.4455810632
 20
76.0633833858
 30
0.0
 11
11.70927234972708
 21
24.67718644093743
 31
0.0
210
0.0
220
0.0
230
1.0
 40
0.3419987131
 41
2.061476155780657
 42
2.972663379000674
  0
LINE
  5
203
330
1F
100
AcDbEntity
  8
0
  6
Continuous
 62
     7
370
    15
100
AcDbLine
 10
195.3893234082
 20
51.3633833858
 30
0.0
 11
195.3893234082
 21
100.7633833795
 31
0.0
  0
CIRCLE
  5
204
330
1F
100
AcDbEntity
  8
0
  6
Continuous
 62
     7
370
    15
100
AcDbCircle
 10
240.8893234082
 20
76.0633833858
 30
0.0
 40
5.099999999999994
  0
CIRCLE
  5
205
330
1F
100
AcDbEntity
  8
0
  6
Continuous
 62
     7
370
    15
100
AcDbCircle
 10
240.8893234082
 20
101.0633833858
 30
0.0
 40
5.099999999999994
  0
CIRCLE
  5
206
330
1F
100
AcDbEntity
  8
0
  6
Continuous
 62
     7
370
    15
100
AcDbCircle
 10
240.8893234082
 20
51.0633833858
 30
0.0
 40
5.099999999999994
  0
LINE
  5
207
330
1F
100
AcDbEntity
  8
0
  6
Continuous
 62
     7
370
    15
100
AcDbLine
 10
253.3893234082
 20
41.4223672344
 30
0.0
 11
253.3893234082
 21
110.7043995371
 31
0.0
  0
SPLINE
  5
208
330
1F
100
AcDbEntity
  8
0
  6
Continuous
 62
     7
370
    15
100
AcDbSpline
210
0.0
220
0.0
230
1.0
 70
     8
 71
     3
 72
    16
 73
    12
 74
     0
 42
0.000000001
 43
0.00000001
 40
0.0
 40
0.0
 40
0.0
 40
0.0
 40
0.2500000000000002
 40
0.2500000000000002
 40
0.5000000000000004
 40
0.5000000000000004
 40
0.6250000000000002
 40
0.6250000000000002
 40
0.75
 40
0.75
 40
1.0
 40
1.0
 40
1.0
 40
1.0
 10
194.3484623801124
 20
58.71422610455786
 30
0.0
 10
194.3801903413051
 20
58.71342898773693
 30
0.0
 10
194.4148179316556
 20
58.71283791288166
 30
0.0
 10
194.4945116937193
 20
58.71182638744721
 30
0.0
 10
194.5395531537229
 20
58.71142627927233
 30
0.0
 10
194.6224058805734
 20
58.71046840736849
 30
0.0
 10
194.6523203417733
 20
58.71008672610806
 30
0.0
 10
194.7183066723312
 20
58.70901051204952
 30
0.0
 10
194.755040297793
 20
58.70829294615539
 30
0.0
 10
194.8675370173628
 20
58.70553206847372
 30
0.0
 10
194.9378783654611
 20
58.70304497660214
 30
0.0
 10
194.9943465193662
 20
58.70087169819503
 30
0.0
  0
SPLINE
  5
209
330
1F
100
AcDbEntity
  8
0
  6
Continuous
 62
     7
370
    15
100
AcDbSpline
210
0.0
220
0.0
230
1.0
 70
     8
 71
     3
 72
    14
 73
    10
 74
     0
 42
0.000000001
 43
0.00000001
 40
0.0
 40
0.0
 40
0.0
 40
0.0
 40
0.124999999999996
 40
0.124999999999996
 40
0.249999999999992
 40
0.249999999999992
 40
0.4999999999999956
 40
0.4999999999999956
 40
1.0
 40
1.0
 40
1.0
 40
1.0
 10
194.9943465193346
 20
58.70087169821775
 30
0.0
 10
195.0069383132794
 20
58.70038708039541
 30
0.0
 10
195.0218094215735
 20
58.69867690246306
 30
0.0
 10
195.0539935130067
 20
58.69056135371219
 30
0.0
 10
195.0695976444825
 20
58.68434556545085
 30
0.0
 10
195.1054847841946
 20
58.66612645374928
 30
0.0
 10
195.1193368254633
 20
58.65436142541564
 30
0.0
 10
195.1528265673959
 20
58.62256628899832
 30
0.0
 10
195.1634888279716
 20
58.60477285715518
 30
0.0
 10
195.1716267848666
 20
58.58834172631077
 30
0.0
  0
LINE
  5
20A
330
1F
100
AcDbEntity
  8
0
  6
Continuous
 62
     7
370
    15
100
AcDbLine
 10
195.1893234082
 20
70.0789031532
 30
0.0
 11
195.1893234082
 21
58.2235631069
 31
0.0
  0
SPLINE
  5
20B
330
1F
100
AcDbEntity
  8
0
  6
Continuous
 62
     7
370
    15
100
AcDbSpline
210
0.0
220
0.0
230
1.0
 70
     8
 71
     3
 72
    16
 73
    12
 74
     0
 42
0.000000001
 43
0.00000001
 40
0.0
 40
0.0
 40
0.0
 40
0.0
 40
0.4999999999999979
 40
0.4999999999999979
 40
0.7500000000000003
 40
0.7500000000000003
 40
0.875
 40
0.875
 40
0.9375
 40
0.9375
 40
1.0
 40
1.0
 40
1.0
 40
1.0
 10
195.1893234082415
 20
70.0789031531758
 30
0.0
 10
195.1893234082415
 20
70.19343288387476
 30
0.0
 10
195.1852661061264
 20
70.30874895906427
 30
0.0
 10
195.1596088633316
 20
70.48367204889183
 30
0.0
 10
195.1482934175895
 20
70.54350135188675
 30
0.0
 10
195.1142620502809
 20
70.62809253813494
 30
0.0
 10
195.1003830690771
 20
70.65676212427898
 30
0.0
 10
195.0644473873097
 20
70.68656991122528
 30
0.0
 10
195.0494970680469
 20
70.69290506458488
 30
0.0
 10
195.0195985553051
 20
70.69167960171463
 30
0.0
 10
195.0060656949398
 20
70.68508101567983
 30
0.0
 10
194.9943465193658
 20
70.6764333276234
 30
0.0
  0
SPLINE
  5
20C
330
1F
100
AcDbEntity
  8
0
  6
Continuous
 62
     7
370
    15
100
AcDbSpline
210
0.0
220
0.0
230
1.0
 70
     8
 71
     3
 72
    14
 73
    10
 74
     0
 42
0.000000001
 43
0.00000001
 40
0.0
 40
0.0
 40
0.0
 40
0.0
 40
0.25
 40
0.25
 40
0.5
 40
0.5
 40
0.75
 40
0.75
 40
1.0
 40
1.0
 40
1.0
 40
1.0
 10
194.9943465193727
 20
70.67643332761472
 30
0.0
 10
194.9378868534889
 20
70.63477121791594
 30
0.0
 10
194.8670143786267
 20
70.60393773732771
 30
0.0
 10
194.7185480207447
 20
70.6096522459409
 30
0.0
 10
194.649352817537
 20
70.64522317337381
 30
0.0
 10
194.5396356314674
 20
70.73216708584772
 30
0.0
 10
194.4943897425354
 20
70.78459939921282
 30
0.0
 10
194.4147726115685
 20
70.89315248073135
 30
0.0
 10
194.3801699921117
 20
70.95013556697384
 30
0.0
 10
194.3484623801129
 20
71.00870164963173
 30
0.0
  0
SPLINE
  5
20D
330
1F
100
AcDbEntity
  8
0
  6
Continuous
 62
     7
370
    15
100
AcDbSpline
210
0.0
220
0.0
230
1.0
 70
     8
 71
     3
 72
    10
 73
     6
 74
     0
 42
0.000000001
 43
0.00000001
 40
0.0
 40
0.0
 40
0.0
 40
0.0
 40
0.5
 40
0.5
 40
1.0
 40
1.0
 40
1.0
 40
1.0
 10
194.0680030646818
 20
71.86152024127804
 30
0.0
 10
194.0988816311657
 20
71.71189177241648
 30
0.0
 10
194.1348743208554
 20
71.56539640551499
 30
0.0
 10
194.2242145548727
 20
71.28020478001912
 30
0.0
 10
194.2766728501861
 20
71.14130171878303
 30
0.0
 10
194.348462380113
 20
71.00870164963155
 30
0.0
  0
SPLINE
  5
20E
330
1F
100
AcDbEntity
  8
0
  6
Continuous
 62
     7
370
    15
100
AcDbSpline
210
0.0
220
0.0
230
1.0
 70
     8
 71
     3
 72
    10
 73
     6
 74
     0
 42
0.000000001
 43
0.00000001
 40
0.0
 40
0.0
 40
0.0
 40
0.0
 40
0.5
 40
0.5
 40
1.0
 40
1.0
 40
1.0
 40
1.0
 10
194.3484623801123
 20
81.11806512186804
 30
0.0
 10
194.2766728501857
 20
80.98546505271673
 30
0.0
 10
194.2242145548724
 20
80.84656199148087
 30
0.0
 10
194.1348743208553
 20
80.56137036598543
 30
0.0
 10
194.0988816311656
 20
80.41487499908419
 30
0.0
 10
194.0680030646818
 20
80.26524653022287
 30
0.0
  0
SPLINE
  5
20F
330
1F
100
AcDbEntity
  8
0
  6
Continuous
 62
     7
370
    15
100
AcDbSpline
210
0.0
220
0.0
230
1.0
 70
     8
 71
     3
 72
    14
 73
    10
 74
     0
 42
0.000000001
 43
0.00000001
 40
0.0
 40
0.0
 40
0.0
 40
0.0
 40
0.25
 40
0.25
 40
0.5
 40
0.5
 40
0.75
 40
0.75
 40
1.0
 40
1.0
 40
1.0
 40
1.0
 10
194.3484623801116
 20
81.11806512186686
 30
0.0
 10
194.380171079597
 20
81.17663321318544
 30
0.0
 10
194.4147788982376
 20
81.23362747512546
 30
0.0
 10
194.494437308727
 20
81.3422276098894
 30
0.0
 10
194.5394995786218
 20
81.39455574526802
 30
0.0
 10
194.6500814242002
 20
81.48205675663029
 30
0.0
 10
194.7177255450155
 20
81.5171022128845
 30
0.0
 10
194.8679738354126
 20
81.52284660164052
 30
0.0
 10
194.9379262336429
 20
81.49196649459054
 30
0.0
 10
194.9943465193665
 20
81.4503334438775
 30
0.0
  0
SPLINE
  5
210
330
1F
100
AcDbEntity
  8
0
  6
Continuous
 62
     7
370
    15
100
AcDbSpline
210
0.0
220
0.0
230
1.0
 70
     8
 71
     3
 72
    16
 73
    12
 74
     0
 42
0.000000001
 43
0.00000001
 40
0.0
 40
0.0
 40
0.0
 40
0.0
 40
0.0625000000000005
 40
0.0625000000000005
 40
0.125000000000001
 40
0.125000000000001
 40
0.2500000000000003
 40
0.2500000000000003
 40
0.499999999999999
 40
0.499999999999999
 40
1.0
 40
1.0
 40
1.0
 40
1.0
 10
194.9943465193346
 20
81.45033344382409
 30
0.0
 10
195.0060807537815
 20
81.44167464367985
 30
0.0
 10
195.0196125092605
 20
81.43507055844455
 30
0.0
 10
195.0495999696903
 20
81.43387359127038
 30
0.0
 10
195.0645946760986
 20
81.44029533833631
 30
0.0
 10
195.1003350984933
 20
81.47001249174559
 30
0.0
 10
195.1143484354946
 20
81.49881988912895
 30
0.0
 10
195.1484925242759
 20
81.58389961075487
 30
0.0
 10
195.1594644283943
 20
81.64227456002462
 30
0.0
 10
195.1853099686606
 20
81.81799008481322
 30
0.0
 10
195.1893234082415
 20
81.93378509267767
 30
0.0
 10
195.1893234082415
 20
82.04786361832508
 30
0.0
  0
LINE
  5
211
330
1F
100
AcDbEntity
  8
0
  6
Continuous
 62
     7
370
    15
100
AcDbLine
 10
195.1893234082
 20
93.9032036646
 30
0.0
 11
195.1893234082
 21
82.0478636183
 31
0.0
  0
SPLINE
  5
212
330
1F
100
AcDbEntity
  8
0
  6
Continuous
 62
     7
370
    15
100
AcDbSpline
210
0.0
220
0.0
230
1.0
 70
     8
 71
     3
 72
    16
 73
    12
 74
     0
 42
0.000000001
 43
0.00000001
 40
0.0
 40
0.0
 40
0.0
 40
0.0
 40
0.5000000000000018
 40
0.5000000000000018
 40
0.7500000000000009
 40
0.7500000000000009
 40
0.8750000000000004
 40
0.8750000000000004
 40
0.9375000000000002
 40
0.9375000000000002
 40
1.0
 40
1.0
 40
1.0
 40
1.0
 10
195.1893234082416
 20
93.61013785141803
 30
0.0
 10
195.1893234082414
 20
93.58812283683869
 30
0.0
 10
195.1851988653874
 20
93.56276920213494
 30
0.0
 10
195.1592824197543
 20
93.51560869994641
 30
0.0
 10
195.1480048387345
 20
93.49840971171764
 30
0.0
 10
195.1142694601931
 20
93.46843174614841
 30
0.0
 10
195.0998806449487
 20
93.45708033760653
 30
0.0
 10
195.0646339555097
 20
93.44039247812911
 30
0.0
 10
195.0494285310527
 20
93.43482945124384
 30
0.0
 10
195.0197819518834
 20
93.42785986820869
 30
0.0
 10
195.006076615886
 20
93.42634652715331
 30
0.0
 10
194.9943465193622
 20
93.42589507330344
 30
0.0
  0
SPLINE
  5
213
330
1F
100
AcDbEntity
  8
0
  6
Continuous
 62
     7
370
    15
100
AcDbSpline
210
0.0
220
0.0
230
1.0
 70
     8
 71
     3
 72
    14
 73
    10
 74
     0
 42
0.000000001
 43
0.00000001
 40
0.0
 40
0.0
 40
0.0
 40
0.0
 40
0.25
 40
0.25
 40
0.5
 40
0.5
 40
0.75
 40
0.75
 40
1.0
 40
1.0
 40
1.0
 40
1.0
 10
194.9943465193727
 20
93.42589507330595
 30
0.0
 10
194.9378994373144
 20
93.42372260588672
 30
0.0
 10
194.8670490532716
 20
93.42122450796924
 30
0.0
 10
194.7186126184552
 20
93.41757804918106
 30
0.0
 10
194.6494233667683
 20
93.4166103023298
 30
0.0
 10
194.5397118185273
 20
93.4153427429671
 30
0.0
 10
194.494470169185
 20
93.41493990203878
 30
0.0
 10
194.4148221510011
 20
93.41392886711112
 30
0.0
 10
194.3801952352351
 20
93.41333790671652
 30
0.0
 10
194.3484623801137
 20
93.41254066694307
 30
0.0
  0
SPLINE
  5
214
330
1F
100
AcDbEntity
  8
0
  6
Continuous
 62
     7
370
    15
100
AcDbSpline
210
0.0
220
0.0
230
1.0
 70
     8
 71
     3
 72
    18
 73
    14
 74
     0
 42
0.000000001
 43
0.00000001
 40
0.0
 40
0.0
 40
0.0
 40
0.0
 40
0.2499999999999999
 40
0.2499999999999999
 40
0.375
 40
0.375
 40
0.5000000000000001
 40
0.5000000000000001
 40
0.6250000000000002
 40
0.6250000000000002
 40
0.7500000000000001
 40
0.7500000000000001
 40
1.0
 40
1.0
 40
1.0
 40
1.0
 10
194.0680030646818
 20
80.26524653022287
 30
0.0
 10
193.9327174583795
 20
79.60969219480164
 30
0.0
 10
193.8315497121366
 20
78.93007110100403
 30
0.0
 10
193.7286883692676
 20
77.87470709451
 30
0.0
 10
193.7025855237443
 20
77.51589302992534
 30
0.0
 10
193.6676955401995
 20
76.78978008580243
 30
0.0
 10
193.6591092819095
 20
76.42769040678633
 30
0.0
 10
193.6590095723438
 20
75.70538074936793
 30
0.0
 10
193.6674979434924
 20
75.34516094725959
 30
0.0
 10
193.701641323013
 20
74.62659487816563
 30
0.0
 10
193.7274383048668
 20
74.26682916225023
 30
0.0
 10
193.8308394362548
 20
73.20018457525589
 30
0.0
 10
193.9326974284261
 20
72.51717163597351
 30
0.0
 10
194.0680030646818
 20
71.86152024127804
 30
0.0
  0
LINE
  5
215
330
1F
100
AcDbEntity
  8
0
  6
Continuous
 62
     7
370
    15
100
AcDbLine
 10
193.1893234082
 20
81.2035358736
 30
0.0
 11
193.1893234082
 21
70.9232308979
 31
0.0
  0
LINE
  5
216
330
1F
100
AcDbEntity
  8
0
  6
Continuous
 62
     7
370
    15
100
AcDbLine
 10
166.8893234082
 20
80.8731621022
 30
0.0
 11
166.8893234082
 21
71.2536046693
 31
0.0
  0
LINE
  5
217
330
1F
100
AcDbEntity
  8
0
  6
Continuous
 62
     7
370
    15
100
AcDbLine
 10
165.3893234082
 20
80.4401494004
 30
0.0
 11
165.3893234082
 21
71.6866173711
 31
0.0
  0
LINE
  5
218
330
1F
100
AcDbEntity
  8
0
  6
Continuous
 62
     7
370
    15
100
AcDbLine
 10
193.1893234082
 20
81.2035358736
 30
0.0
 11
193.1893234082
 21
93.5834821703
 31
0.0
  0
ARC
  5
219
330
1F
100
AcDbEntity
  8
0
  6
Continuous
 62
     7
370
    15
100
AcDbCircle
 10
193.3892603192
 20
93.5885052814
 30
0.0
 40
0.2000000000000059
100
AcDbArc
 50
181.4391666667
 51
271.4391666667
  0
LINE
  5
21A
330
1F
100
AcDbEntity
  8
0
  6
Continuous
 62
     7
370
    15
100
AcDbLine
 10
166.8893234082
 20
80.8731621022
 30
0.0
 11
166.8893234082
 21
92.9227346277
 31
0.0
  0
LINE
  5
21B
330
1F
100
AcDbEntity
  8
0
  6
Continuous
 62
     7
370
    15
100
AcDbLine
 10
166.8893234082
 20
92.9227346277
 30
0.0
 11
193.1893234082
 21
93.5834821703
 31
0.0
  0
LINE
  5
21C
330
1F
100
AcDbEntity
  8
0
  6
Continuous
 62
     7
370
    15
100
AcDbLine
 10
193.1893234082
 20
58.5432846012
 30
0.0
 11
193.1893234082
 21
70.9232308979
 31
0.0
  0
ARC
  5
21D
330
1F
100
AcDbEntity
  8
0
  6
Continuous
 62
     7
370
    15
100
AcDbCircle
 10
193.3892603192
 20
58.5382614901
 30
0.0
 40
0.1999999999999917
100
AcDbArc
 50
88.5608333333
 51
178.5608333333
  0
LINE
  5
21E
330
1F
100
AcDbEntity
  8
0
  6
Continuous
 62
     7
370
    15
100
AcDbLine
 10
166.8893234082
 20
59.2040321438
 30
0.0
 11
166.8893234082
 21
71.2536046693
 31
0.0
  0
LINE
  5
21F
330
1F
100
AcDbEntity
  8
0
  6
Continuous
 62
     7
370
    15
100
AcDbLine
 10
166.8893234082
 20
59.2040321438
 30
0.0
 11
193.1893234082
 21
58.5432846012
 31
0.0
  0
LINE
  5
220
330
1F
100
AcDbEntity
  8
0
  6
Continuous
 62
     7
370
    15
100
AcDbLine
 10
193.3942834303
 20
58.738198401
 30
0.0
 11
194.3484623801
 21
58.7142261046
 31
0.0
  0
LINE
  5
221
330
1F
100
AcDbEntity
  8
0
  6
Continuous
 62
     7
370
    15
100
AcDbLine
 10
193.3942834303
 20
93.3885683705
 30
0.0
 11
194.3484623801
 21
93.4125406669
 31
0.0
  0
LINE
  5
222
330
1F
100
AcDbEntity
  8
0
  6
Continuous
 62
     7
370
    15
100
AcDbLine
 10
165.3893234082
 20
92.0567092239
 30
0.0
 11
166.8893234082
 21
92.9227346277
 31
0.0
  0
LINE
  5
223
330
1F
100
AcDbEntity
  8
0
  6
Continuous
 62
     7
370
    15
100
AcDbLine
 10
165.3893234082
 20
80.4401494004
 30
0.0
 11
165.3893234082
 21
92.0567092239
 31
0.0
  0
LINE
  5
224
330
1F
100
AcDbEntity
  8
0
  6
Continuous
 62
     7
370
    15
100
AcDbLine
 10
165.3893234082
 20
60.0700575476
 30
0.0
 11
166.8893234082
 21
59.2040321438
 31
0.0
  0
LINE
  5
225
330
1F
100
AcDbEntity
  8
0
  6
Continuous
 62
     7
370
    15
100
AcDbLine
 10
165.3893234082
 20
60.0700575476
 30
0.0
 11
165.3893234082
 21
71.6866173711
 31
0.0
  0
LINE
  5
226
330
1F
100
AcDbEntity
  8
0
  6
HIDDEN
 62
     7
370
     0
100
AcDbLine
 10
228.3893234082
 20
44.8383933938
 30
0.0
 11
228.3893234082
 21
36.0633833858
 31
0.0
  0
LINE
  5
227
330
1F
100
AcDbEntity
  8
0
  6
HIDDEN
 62
     7
370
     0
100
AcDbLine
 10
253.3893234082
 20
44.8383933938
 30
0.0
 11
228.3893234082
 21
44.8383933938
 31
0.0
  0
LINE
  5
228
330
1F
100
AcDbEntity
  8
0
  6
HIDDEN
 62
     7
370
     0
100
AcDbLine
 10
253.3893234082
 20
107.2883733777
 30
0.0
 11
253.3893234082
 21
44.8383933938
 31
0.0
  0
LINE
  5
229
330
1F
100
AcDbEntity
  8
0
  6
HIDDEN
 62
     7
370
     0
100
AcDbLine
 10
228.3893234082
 20
107.2883733777
 30
0.0
 11
253.3893234082
 21
107.2883733777
 31
0.0
  0
LINE
  5
22A
330
1F
100
AcDbEntity
  8
0
  6
HIDDEN
 62
     7
370
     0
100
AcDbLine
 10
228.3893234082
 20
116.0633833858
 30
0.0
 11
228.3893234082
 21
107.2883733777
 31
0.0
  0
SPLINE
  5
22B
330
1F
100
AcDbEntity
  8
0
  6
HIDDEN
 62
     7
370
     0
100
AcDbSpline
210
0.0
220
0.0
230
1.0
 70
    11
 71
     3
 72
    58
 73
    54
 74
     0
 42
0.000000001
 43
0.00000001
 40
0.0
 40
0.0
 40
0.0
 40
0.0
 40
0.03125
 40
0.03125
 40
0.0625000000000001
 40
0.0625000000000001
 40
0.0937500000000001
 40
0.0937500000000001
 40
0.1250000000000002
 40
0.1250000000000002
 40
0.1875000000000003
 40
0.1875000000000003
 40
0.2500000000000004
 40
0.2500000000000004
 40
0.2812500000000004
 40
0.2812500000000004
 40
0.3125000000000005
 40
0.3125000000000005
 40
0.3437500000000005
 40
0.3437500000000005
 40
0.3750000000000006
 40
0.3750000000000006
 40
0.4062500000000006
 40
0.4062500000000006
 40
0.4375000000000007
 40
0.4375000000000007
 40
0.4687500000000007
 40
0.4687500000000007
 40
0.5000000000000007
 40
0.5000000000000007
 40
0.5625000000000008
 40
0.5625000000000008
 40
0.6250000000000009
 40
0.6250000000000009
 40
0.6562500000000008
 40
0.6562500000000008
 40
0.6875000000000007
 40
0.6875000000000007
 40
0.7187500000000007
 40
0.7187500000000007
 40
0.7500000000000006
 40
0.7500000000000006
 40
0.7812500000000004
 40
0.7812500000000004
 40
0.8125000000000004
 40
0.8125000000000004
 40
0.8437500000000003
 40
0.8437500000000003
 40
0.8750000000000002
 40
0.8750000000000002
 40
0.9375000000000001
 40
0.9375000000000001
 40
1.0
 40
1.0
 40
1.0
 40
1.0
 10
205.3893234082415
 20
76.06338338575043
 30
0.0
 10
205.3893234082415
 20
76.19556957102216
 30
0.0
 10
205.402299300252
 20
76.32553631056692
 30
0.0
 10
205.4531316023579
 20
76.58121564869904
 30
0.0
 10
205.4916086736793
 20
76.7082567405405
 30
0.0
 10
205.5920136348357
 20
76.95043492648104
 30
0.0
 10
205.653447877155
 20
77.06528858507055
 30
0.0
 10
205.7985821433367
 20
77.28265370687639
 30
0.0
 10
205.883024064484
 20
77.38552917896064
 30
0.0
 10
206.1596960940939
 20
77.66214713137778
 30
0.0
 10
206.382742249062
 20
77.81113925121068
 30
0.0
 10
206.8640062476065
 20
78.01066304620194
 30
0.0
 10
207.1272641029263
 20
78.06324191070418
 30
0.0
 10
207.5187301342111
 20
78.06345368429172
 30
0.0
 10
207.6512788778246
 20
78.0504627127023
 30
0.0
 10
207.9078231868399
 20
77.9994264894125
 30
0.0
 10
208.0325190732116
 20
77.96166494800967
 30
0.0
 10
208.2747220436453
 20
77.86150540871625
 30
0.0
 10
208.391785406896
 20
77.79890759896574
 30
0.0
 10
208.6084717261421
 20
77.65418561493013
 30
0.0
 10
208.7094856942098
 20
77.57156150976184
 30
0.0
 10
208.8962788884953
 20
77.38494113915083
 30
0.0
 10
208.9790792524496
 20
77.28389277125964
 30
0.0
 10
209.1239576913442
 20
77.06738075038577
 30
0.0
 10
209.1866084746715
 20
76.95049139518684
 30
0.0
 10
209.2870488690454
 20
76.70823399312789
 30
0.0
 10
209.3249078808154
 20
76.58357132831252
 30
0.0
 10
209.3761455852789
 20
76.32724013265772
 30
0.0
 10
209.389275960052
 20
76.19465219330732
 30
0.0
 10
209.3894179104909
 20
75.80302052473797
 30
0.0
 10
209.3370769942428
 20
75.53980769170374
 30
0.0
 10
209.1379467675047
 20
75.05830036101241
 30
0.0
 10
208.9891096798624
 20
74.83509987973682
 30
0.0
 10
208.712797643323
 20
74.5582537997751
 30
0.0
 10
208.6100321060717
 20
74.47374170555634
 30
0.0
 10
208.3927151737179
 20
74.32836310882487
 30
0.0
 10
208.2779282631811
 20
74.26684767722304
 30
0.0
 10
208.0360087730752
 20
74.16629161697746
 30
0.0
 10
207.9088818705752
 20
74.12765289114282
 30
0.0
 10
207.653213034939
 20
74.07658802425549
 30
0.0
 10
207.523317829561
 20
74.0635135438792
 30
0.0
 10
207.2592430471366
 20
74.06325514260557
 30
0.0
 10
207.1289139076513
 20
74.07613121056853
 30
0.0
 10
206.8732245935075
 20
74.1267300018965
 30
0.0
 10
206.7462967271198
 20
74.16503534773412
 30
0.0
 10
206.5038444382777
 20
74.26529118015402
 30
0.0
 10
206.3889277442961
 20
74.3266421990661
 30
0.0
 10
206.1715369525256
 20
74.47151103463635
 30
0.0
 10
206.0685516728441
 20
74.55587498790568
 30
0.0
 10
205.7915873051868
 20
74.83240104169178
 30
0.0
 10
205.6424550268283
 20
75.05526088368748
 30
0.0
 10
205.4425029081139
 20
75.53636340374821
 30
0.0
 10
205.3893234082415
 20
75.79901101520699
 30
0.0
 10
205.3893234082415
 20
76.06338338575043
 30
0.0
  0
SPLINE
  5
22C
330
1F
100
AcDbEntity
  8
0
  6
HIDDEN
 62
     7
370
     0
100
AcDbSpline
210
0.0
220
0.0
230
1.0
 70
     8
 71
     3
 72
    12
 73
     8
 74
     0
 42
0.000000001
 43
0.00000001
 40
0.0
 40
0.0
 40
0.0
 40
0.0
 40
0.2499999999999984
 40
0.2499999999999984
 40
0.4999999999999968
 40
0.4999999999999968
 40
1.0
 40
1.0
 40
1.0
 40
1.0
 10
203.9170802218079
 20
68.49457341656984
 30
0.0
 10
203.8534149852774
 20
68.49457341656984
 30
0.0
 10
203.7938087530541
 20
68.46850126809017
 30
0.0
 10
203.6951482281232
 20
68.39296251726905
 30
0.0
 10
203.656181238108
 20
68.34571158017283
 30
0.0
 10
203.5567944061835
 20
68.19388776220637
 30
0.0
 10
203.51471815876
 20
68.0810845124413
 30
0.0
 10
203.4840675199157
 20
67.9669303877062
 30
0.0
  0
LINE
  5
22D
330
1F
100
AcDbEntity
  8
0
  6
HIDDEN
 62
     7
370
     0
100
AcDbLine
 10
206.8615665947
 20
68.4945734166
 30
0.0
 11
203.9170802218
 21
68.4945734166
 31
0.0
  0
SPLINE
  5
22E
330
1F
100
AcDbEntity
  8
0
  6
HIDDEN
 62
     7
370
     0
100
AcDbSpline
210
0.0
220
0.0
230
1.0
 70
     8
 71
     3
 72
    12
 73
     8
 74
     0
 42
0.000000001
 43
0.00000001
 40
0.0
 40
0.0
 40
0.0
 40
0.0
 40
0.4999999999999982
 40
0.4999999999999982
 40
0.7499999999999991
 40
0.7499999999999991
 40
1.0
 40
1.0
 40
1.0
 40
1.0
 10
207.2945792965672
 20
67.96693038770621
 30
0.0
 10
207.2638799132
 20
68.08126605477008
 30
0.0
 10
207.2225298450934
 20
68.1926194076114
 30
0.0
 10
207.122773916874
 20
68.34535617986016
 30
0.0
 10
207.0830769991413
 20
68.39321606571231
 30
0.0
 10
206.9858188474937
 20
68.46781917906176
 30
0.0
 10
206.925042689503
 20
68.49457341656984
 30
0.0
 10
206.861566594675
 20
68.49457341656984
 30
0.0
  0
ELLIPSE
  5
22F
330
1F
100
AcDbEntity
  8
0
  6
HIDDEN
 62
     7
370
     0
100
AcDbEllipse
 10
194.3330657533
 20
76.0633833858
 30
0.0
 11
-11.70927234972714
 21
24.67718644093743
 31
0.0
210
0.0
220
0.0
230
1.0
 40
0.3419987131
 41
3.310521928178956
 42
4.221709151398947
  0
SPLINE
  5
230
330
1F
100
AcDbEntity
  8
0
  6
HIDDEN
 62
     7
370
     0
100
AcDbSpline
210
0.0
220
0.0
230
1.0
 70
     8
 71
     3
 72
    12
 73
     8
 74
     0
 42
0.000000001
 43
0.00000001
 40
0.0
 40
0.0
 40
0.0
 40
0.0
 40
0.2499999999999993
 40
0.2499999999999993
 40
0.4999999999999987
 40
0.4999999999999987
 40
1.0
 40
1.0
 40
1.0
 40
1.0
 10
206.861566594675
 20
52.23665227024851
 30
0.0
 10
206.9252318312056
 20
52.23665227024851
 30
0.0
 10
206.9848380634289
 20
52.24491704591436
 30
0.0
 10
207.0834985883598
 20
52.26913582749751
 30
0.0
 10
207.122465578375
 20
52.28439314680666
 30
0.0
 10
207.2218524102995
 20
52.33402650106859
 30
0.0
 10
207.2639286577229
 20
52.3716662092427
 30
0.0
 10
207.2945792965673
 20
52.41074190851885
 30
0.0
  0
LINE
  5
231
330
1F
100
AcDbEntity
  8
0
  6
HIDDEN
 62
     7
370
     0
100
AcDbLine
 10
203.9170802218
 20
52.2366522702
 30
0.0
 11
206.8615665947
 21
52.2366522702
 31
0.0
  0
SPLINE
  5
232
330
1F
100
AcDbEntity
  8
0
  6
HIDDEN
 62
     7
370
     0
100
AcDbSpline
210
0.0
220
0.0
230
1.0
 70
     8
 71
     3
 72
    12
 73
     8
 74
     0
 42
0.000000001
 43
0.00000001
 40
0.0
 40
0.0
 40
0.0
 40
0.0
 40
0.4999999999999968
 40
0.4999999999999968
 40
0.7499999999999983
 40
0.7499999999999983
 40
1.0
 40
1.0
 40
1.0
 40
1.0
 10
203.4840675199157
 20
52.41074190851884
 30
0.0
 10
203.514766903283
 20
52.37160406612294
 30
0.0
 10
203.5561169713895
 20
52.33444428339745
 30
0.0
 10
203.655872899609
 20
52.2845077777697
 30
0.0
 10
203.6955698173417
 20
52.26905490762595
 30
0.0
 10
203.7928279689893
 20
52.2451353640269
 30
0.0
 10
203.85360412698
 20
52.23665227024851
 30
0.0
 10
203.9170802218079
 20
52.23665227024851
 30
0.0
  0
ELLIPSE
  5
233
330
1F
100
AcDbEntity
  8
0
  6
HIDDEN
 62
     7
370
     0
100
AcDbEllipse
 10
216.4455810632
 20
76.0633833858
 30
0.0
 11
11.70927234972703
 21
24.67718644093743
 31
0.0
210
0.0
220
0.0
230
1.0
 40
0.3419987131
 41
2.061476155780649
 42
2.972663379000666
  0
SPLINE
  5
234
330
1F
100
AcDbEntity
  8
0
  6
HIDDEN
 62
     7
370
     0
100
AcDbSpline
210
0.0
220
0.0
230
1.0
 70
     8
 71
     3
 72
    12
 73
     8
 74
     0
 42
0.000000001
 43
0.00000001
 40
0.0
 40
0.0
 40
0.0
 40
0.0
 40
0.25
 40
0.25
 40
0.5
 40
0.5
 40
1.0
 40
1.0
 40
1.0
 40
1.0
 10
203.9170802218079
 20
99.89011450125248
 30
0.0
 10
203.8534149852774
 20
99.89011450125248
 30
0.0
 10
203.7938087530541
 20
99.88184972558663
 30
0.0
 10
203.6951482281232
 20
99.85763094400347
 30
0.0
 10
203.656181238108
 20
99.84237362469433
 30
0.0
 10
203.5567944061835
 20
99.7927402704324
 30
0.0
 10
203.51471815876
 20
99.75510056225829
 30
0.0
 10
203.4840675199157
 20
99.71602486298215
 30
0.0
  0
LINE
  5
235
330
1F
100
AcDbEntity
  8
0
  6
HIDDEN
 62
     7
370
     0
100
AcDbLine
 10
206.8615665947
 20
99.8901145013
 30
0.0
 11
203.9170802218
 21
99.8901145013
 31
0.0
  0
SPLINE
  5
236
330
1F
100
AcDbEntity
  8
0
  6
HIDDEN
 62
     7
370
     0
100
AcDbSpline
210
0.0
220
0.0
230
1.0
 70
     8
 71
     3
 72
    12
 73
     8
 74
     0
 42
0.000000001
 43
0.00000001
 40
0.0
 40
0.0
 40
0.0
 40
0.0
 40
0.4999999999999969
 40
0.4999999999999969
 40
0.7499999999999984
 40
0.7499999999999984
 40
1.0
 40
1.0
 40
1.0
 40
1.0
 10
207.2945792965672
 20
99.71602486298214
 30
0.0
 10
207.2638799132
 20
99.75516270537804
 30
0.0
 10
207.2225298450934
 20
99.79232248810355
 30
0.0
 10
207.122773916874
 20
99.84225899373128
 30
0.0
 10
207.0830769991413
 20
99.85771186387504
 30
0.0
 10
206.9858188474937
 20
99.8816314074741
 30
0.0
 10
206.925042689503
 20
99.89011450125247
 30
0.0
 10
206.861566594675
 20
99.89011450125248
 30
0.0
  0
ELLIPSE
  5
237
330
1F
100
AcDbEntity
  8
0
  6
HIDDEN
 62
     7
370
     0
100
AcDbEllipse
 10
194.3330657533
 20
76.0633833858
 30
0.0
 11
11.70927234972723
 21
24.67718644093742
 31
0.0
210
0.0
220
0.0
230
1.0
 40
0.3419987131
 41
5.203068809370469
 42
6.114256032590515
  0
SPLINE
  5
238
330
1F
100
AcDbEntity
  8
0
  6
HIDDEN
 62
     7
370
     0
100
AcDbSpline
210
0.0
220
0.0
230
1.0
 70
     8
 71
     3
 72
    12
 73
     8
 74
     0
 42
0.000000001
 43
0.00000001
 40
0.0
 40
0.0
 40
0.0
 40
0.0
 40
0.2500000000000023
 40
0.2500000000000023
 40
0.5000000000000047
 40
0.5000000000000047
 40
1.0
 40
1.0
 40
1.0
 40
1.0
 10
206.861566594675
 20
83.6321933549314
 30
0.0
 10
206.9252318312056
 20
83.6321933549314
 30
0.0
 10
206.9848380634289
 20
83.65826550341109
 30
0.0
 10
207.0834985883598
 20
83.73380425423218
 30
0.0
 10
207.122465578375
 20
83.7810551913284
 30
0.0
 10
207.2218524102995
 20
83.93287900929485
 30
0.0
 10
207.2639286577229
 20
84.04568225905992
 30
0.0
 10
207.2945792965672
 20
84.15983638379501
 30
0.0
  0
LINE
  5
239
330
1F
100
AcDbEntity
  8
0
  6
HIDDEN
 62
     7
370
     0
100
AcDbLine
 10
203.9170802218
 20
83.6321933549
 30
0.0
 11
206.8615665947
 21
83.6321933549
 31
0.0
  0
SPLINE
  5
23A
330
1F
100
AcDbEntity
  8
0
  6
HIDDEN
 62
     7
370
     0
100
AcDbSpline
210
0.0
220
0.0
230
1.0
 70
     8
 71
     3
 72
    12
 73
     8
 74
     0
 42
0.000000001
 43
0.00000001
 40
0.0
 40
0.0
 40
0.0
 40
0.0
 40
0.5000000000000023
 40
0.5000000000000023
 40
0.7500000000000011
 40
0.7500000000000011
 40
1.0
 40
1.0
 40
1.0
 40
1.0
 10
203.4840675199157
 20
84.15983638379501
 30
0.0
 10
203.514766903283
 20
84.04550071673115
 30
0.0
 10
203.5561169713895
 20
83.93414736388982
 30
0.0
 10
203.655872899609
 20
83.78141059164108
 30
0.0
 10
203.6955698173417
 20
83.73355070578894
 30
0.0
 10
203.7928279689893
 20
83.65894759243947
 30
0.0
 10
203.85360412698
 20
83.63219335493139
 30
0.0
 10
203.9170802218079
 20
83.6321933549314
 30
0.0
  0
ELLIPSE
  5
23B
330
1F
100
AcDbEntity
  8
0
  6
HIDDEN
 62
     7
370
     0
100
AcDbEllipse
 10
216.4455810632
 20
76.0633833858
 30
0.0
 11
-11.70927234972711
 21
24.67718644093743
 31
0.0
210
0.0
220
0.0
230
1.0
 40
0.3419987131
 41
0.1689292745891144
 42
1.080116497809131
  0
LINE
  5
23C
330
1F
100
AcDbEntity
  8
0
  6
HIDDEN
 62
     7
370
     0
100
AcDbLine
 10
195.3893234082
 20
51.3633833858
 30
0.0
 11
195.3893234082
 21
100.7633833858
 31
0.0
  0
LINE
  5
23D
330
1F
100
AcDbEntity
  8
0
  6
HIDDEN
 62
     7
370
     0
100
AcDbLine
 10
228.3893234082
 20
110.7043995371
 30
0.0
 11
228.3893234082
 21
41.4223672344
 31
0.0
  0
LINE
  5
23E
330
1F
100
AcDbEntity
  8
0
  6
HIDDEN
 62
     7
370
     0
100
AcDbLine
 10
195.3893234082
 20
56.5133833858
 30
0.0
 11
195.3893234082
 21
95.5962347142
 31
0.0
  0
SPLINE
  5
23F
330
1F
100
AcDbEntity
  8
0
  6
HIDDEN
 62
     7
370
     0
100
AcDbSpline
210
0.0
220
0.0
230
1.0
 70
     8
 71
     3
 72
    14
 73
    10
 74
     0
 42
0.000000001
 43
0.00000001
 40
0.0
 40
0.0
 40
0.0
 40
0.0
 40
0.25
 40
0.25
 40
0.5
 40
0.5
 40
0.75
 40
0.75
 40
1.0
 40
1.0
 40
1.0
 40
1.0
 10
194.3484623801131
 20
88.35785893082385
 30
0.0
 10
194.3801775144438
 20
88.30007574848068
 30
0.0
 10
194.4147920397442
 20
88.24366308740574
 30
0.0
 10
194.4944632351595
 20
88.13606363739034
 30
0.0
 10
194.5395191121899
 20
88.08415101046927
 30
0.0
 10
194.6500735246953
 20
87.99795238577198
 30
0.0
 10
194.7174589388995
 20
87.96386296580027
 30
0.0
 10
194.8680884587976
 20
87.96176057378344
 30
0.0
 10
194.937915695563
 20
87.99513234662815
 30
0.0
 10
194.9943465193664
 20
88.03894501517887
 30
0.0
  0
SPLINE
  5
240
330
1F
100
AcDbEntity
  8
0
  6
HIDDEN
 62
     7
370
     0
100
AcDbSpline
210
0.0
220
0.0
230
1.0
 70
     8
 71
     3
 72
    16
 73
    12
 74
     0
 42
0.000000001
 43
0.00000001
 40
0.0
 40
0.0
 40
0.0
 40
0.0
 40
0.0624999999999992
 40
0.0624999999999992
 40
0.1249999999999984
 40
0.1249999999999984
 40
0.2499999999999987
 40
0.2499999999999987
 40
0.4999999999999991
 40
0.4999999999999991
 40
1.0
 40
1.0
 40
1.0
 40
1.0
 10
194.9943465193346
 20
88.0389450152095
 30
0.0
 10
195.0060807537815
 20
88.04805542845743
 30
0.0
 10
195.0196125092604
 20
88.05613278440383
 30
0.0
 10
195.0495999696903
 20
88.06437962608078
 30
0.0
 10
195.0645946760986
 20
88.06345230849318
 30
0.0
 10
195.1003350984933
 20
88.05068578896139
 30
0.0
 10
195.1143484354946
 20
88.03303714245106
 30
0.0
 10
195.1484925242759
 20
87.9783842224195
 30
0.0
 10
195.1594644283943
 20
87.93698455476104
 30
0.0
 10
195.1853099686606
 20
87.80849481103826
 30
0.0
 10
195.1893234082415
 20
87.71787672339954
 30
0.0
 10
195.1893234082415
 20
87.62565761884545
 30
0.0
  0
LINE
  5
241
330
1F
100
AcDbEntity
  8
0
  6
HIDDEN
 62
     7
370
     0
100
AcDbLine
 10
195.1893234082
 20
64.5011091527
 30
0.0
 11
195.1893234082
 21
87.6256576188
 31
0.0
  0
SPLINE
  5
242
330
1F
100
AcDbEntity
  8
0
  6
HIDDEN
 62
     7
370
     0
100
AcDbSpline
210
0.0
220
0.0
230
1.0
 70
     8
 71
     3
 72
    16
 73
    12
 74
     0
 42
0.000000001
 43
0.00000001
 40
0.0
 40
0.0
 40
0.0
 40
0.0
 40
0.5000000000000017
 40
0.5000000000000017
 40
0.75
 40
0.75
 40
0.8749999999999991
 40
0.8749999999999991
 40
0.9374999999999996
 40
0.9374999999999996
 40
1.0
 40
1.0
 40
1.0
 40
1.0
 10
195.1893234082415
 20
64.50110915265542
 30
0.0
 10
195.1893234082415
 20
64.40852530175152
 30
0.0
 10
195.1852661061264
 20
64.31831284589124
 30
0.0
 10
195.1596088633316
 20
64.19037171877285
 30
0.0
 10
195.1482934175895
 20
64.14795850436096
 30
0.0
 10
195.1142620502809
 20
64.09364446090981
 30
0.0
 10
195.1003830690771
 20
64.07606312551992
 30
0.0
 10
195.0644473873097
 20
64.06327943758495
 30
0.0
 10
195.0494970680469
 20
64.06240393943685
 30
0.0
 10
195.0195985553051
 20
64.07064937455624
 30
0.0
 10
195.0060656949398
 20
64.07872303472797
 30
0.0
 10
194.9943465193658
 20
64.0878217563221
 30
0.0
  0
SPLINE
  5
243
330
1F
100
AcDbEntity
  8
0
  6
HIDDEN
 62
     7
370
     0
100
AcDbSpline
210
0.0
220
0.0
230
1.0
 70
     8
 71
     3
 72
    14
 73
    10
 74
     0
 42
0.000000001
 43
0.00000001
 40
0.0
 40
0.0
 40
0.0
 40
0.0
 40
0.25
 40
0.25
 40
0.5
 40
0.5
 40
0.75
 40
0.75
 40
1.0
 40
1.0
 40
1.0
 40
1.0
 10
194.9943465193727
 20
64.08782175633063
 30
0.0
 10
194.9378907547639
 20
64.13165378882536
 30
0.0
 10
194.867025128514
 20
64.16498482524723
 30
0.0
 10
194.7185680473414
 20
64.1629258150998
 30
0.0
 10
194.6493746880338
 20
64.1283297906981
 30
0.0
 10
194.5396592498997
 20
64.04266443403523
 30
0.0
 10
194.4944146705683
 20
63.99064198932722
 30
0.0
 10
194.4147879611445
 20
63.88309372899728
 30
0.0
 10
194.3801778126111
 20
63.82669156626425
 30
0.0
 10
194.3484623801119
 20
63.76890784067476
 30
0.0
  0
SPLINE
  5
244
330
1F
100
AcDbEntity
  8
0
  6
HIDDEN
 62
     7
370
     0
100
AcDbSpline
210
0.0
220
0.0
230
1.0
 70
     8
 71
     3
 72
    10
 73
     6
 74
     0
 42
0.000000001
 43
0.00000001
 40
0.0
 40
0.0
 40
0.0
 40
0.0
 40
0.5
 40
0.5
 40
1.0
 40
1.0
 40
1.0
 40
1.0
 10
194.3484623801124
 20
63.76890784067577
 30
0.0
 10
194.2766825921889
 20
63.63812912377389
 30
0.0
 10
194.2242230778809
 20
63.5040289742707
 30
0.0
 10
194.1348800137797
 20
63.23593641128198
 30
0.0
 10
194.09888440428
 20
63.10169103969309
 30
0.0
 10
194.0680030646818
 20
62.96833666221804
 30
0.0
  0
SPLINE
  5
245
330
1F
100
AcDbEntity
  8
0
  6
HIDDEN
 62
     7
370
     0
100
AcDbSpline
210
0.0
220
0.0
230
1.0
 70
     8
 71
     3
 72
    10
 73
     6
 74
     0
 42
0.000000001
 43
0.00000001
 40
0.0
 40
0.0
 40
0.0
 40
0.0
 40
0.5
 40
0.5
 40
1.0
 40
1.0
 40
1.0
 40
1.0
 10
194.0680030646818
 20
58.76647351774561
 30
0.0
 10
194.0988760964941
 20
58.75019037037848
 30
0.0
 10
194.1348629594071
 20
58.7379327806529
 30
0.0
 10
194.2241975452982
 20
58.72082979182418
 30
0.0
 10
194.2766534047208
 20
58.71603019596582
 30
0.0
 10
194.3484623801131
 20
58.71422610455789
 30
0.0
  0
SPLINE
  5
246
330
1F
100
AcDbEntity
  8
0
  6
HIDDEN
 62
     7
370
     0
100
AcDbSpline
210
0.0
220
0.0
230
1.0
 70
     8
 71
     3
 72
     8
 73
     4
 74
     0
 42
0.000000001
 43
0.00000001
 40
0.0
 40
0.0
 40
0.0
 40
0.0
 40
1.0
 40
1.0
 40
1.0
 40
1.0
 10
195.1716267848666
 20
58.58834172631077
 30
0.0
 10
195.1856135934086
 20
58.5601013357291
 30
0.0
 10
195.1893234082413
 20
58.53696929291835
 30
0.0
 10
195.1893234082416
 20
58.51662892008321
 30
0.0
  0
LINE
  5
247
330
1F
100
AcDbEntity
  8
0
  6
HIDDEN
 62
     7
370
     0
100
AcDbLine
 10
195.1893234082
 20
58.2235631069
 30
0.0
 11
195.1893234082
 21
58.5166289201
 31
0.0
  0
LINE
  5
248
330
1F
100
AcDbEntity
  8
0
  6
HIDDEN
 62
     7
370
     0
100
AcDbLine
 10
195.1893234082
 20
93.6101378514
 30
0.0
 11
195.1893234082
 21
93.9032036646
 31
0.0
  0
SPLINE
  5
249
330
1F
100
AcDbEntity
  8
0
  6
HIDDEN
 62
     7
370
     0
100
AcDbSpline
210
0.0
220
0.0
230
1.0
 70
     8
 71
     3
 72
    10
 73
     6
 74
     0
 42
0.000000001
 43
0.00000001
 40
0.0
 40
0.0
 40
0.0
 40
0.0
 40
0.5
 40
0.5
 40
1.0
 40
1.0
 40
1.0
 40
1.0
 10
194.3484623801139
 20
93.41254066694302
 30
0.0
 10
194.2766534047213
 20
93.41073657553511
 30
0.0
 10
194.2241975452986
 20
93.40593697967675
 30
0.0
 10
194.1348629594072
 20
93.38883399084801
 30
0.0
 10
194.0988760964942
 20
93.37657640112243
 30
0.0
 10
194.0680030646818
 20
93.36029325375527
 30
0.0
  0
SPLINE
  5
24A
330
1F
100
AcDbEntity
  8
0
  6
HIDDEN
 62
     7
370
     0
100
AcDbSpline
210
0.0
220
0.0
230
1.0
 70
     8
 71
     3
 72
    10
 73
     6
 74
     0
 42
0.000000001
 43
0.00000001
 40
0.0
 40
0.0
 40
0.0
 40
0.0
 40
0.5
 40
0.5
 40
1.0
 40
1.0
 40
1.0
 40
1.0
 10
194.0680030646818
 20
89.15843010928286
 30
0.0
 10
194.09888440428
 20
89.02507573180759
 30
0.0
 10
194.1348800137798
 20
88.8908303602185
 30
0.0
 10
194.2242230778812
 20
88.62273779722932
 30
0.0
 10
194.2766825921894
 20
88.4886376477259
 30
0.0
 10
194.3484623801131
 20
88.35785893082385
 30
0.0
  0
LINE
  5
24B
330
1F
100
AcDbEntity
  8
0
  6
HIDDEN
 62
     7
370
     0
100
AcDbLine
 10
219.3893234082
 20
102.0633833858
 30
0.0
 11
233.3893234082
 21
102.0633833858
 31
0.0
  0
LINE
  5
24C
330
1F
100
AcDbEntity
  8
0
  6
HIDDEN
 62
     7
370
     0
100
AcDbLine
 10
219.3893234082
 20
50.0633833858
 30
0.0
 11
233.3893234082
 21
50.0633833858
 31
0.0
  0
LINE
  5
24D
330
1F
100
AcDbEntity
  8
0
  6
HIDDEN
 62
     7
370
     0
100
AcDbLine
 10
195.1893234082
 20
58.5166289201
 30
0.0
 11
195.1893234082
 21
70.0789031532
 31
0.0
  0
LINE
  5
24E
330
1F
100
AcDbEntity
  8
0
  6
HIDDEN
 62
     7
370
     0
100
AcDbLine
 10
195.1893234082
 20
82.0478636183
 30
0.0
 11
195.1893234082
 21
93.6101378514
 31
0.0
  0
CIRCLE
  5
24F
330
1F
100
AcDbEntity
  8
0
  6
HIDDEN
 62
     7
370
     0
100
AcDbCircle
 10
181.3893234082
 20
76.0633833858
 30
0.0
 40
3.049999999999997
  0
SPLINE
  5
250
330
1F
100
AcDbEntity
  8
0
  6
HIDDEN
 62
     7
370
     0
100
AcDbSpline
210
0.0
220
0.0
230
1.0
 70
    11
 71
     3
 72
    62
 73
    58
 74
     0
 42
0.000000001
 43
0.00000001
 40
0.0
 40
0.0
 40
0.0
 40
0.0
 40
0.0312499999999998
 40
0.0312499999999998
 40
0.0624999999999995
 40
0.0624999999999995
 40
0.1249999999999997
 40
0.1249999999999997
 40
0.1874999999999998
 40
0.1874999999999998
 40
0.2187499999999998
 40
0.2187499999999998
 40
0.2499999999999999
 40
0.2499999999999999
 40
0.2812499999999999
 40
0.2812499999999999
 40
0.3125
 40
0.3125
 40
0.3750000000000003
 40
0.3750000000000003
 40
0.4062500000000002
 40
0.4062500000000002
 40
0.4375000000000002
 40
0.4375000000000002
 40
0.4687500000000001
 40
0.4687500000000001
 40
0.5000000000000001
 40
0.5000000000000001
 40
0.5312500000000001
 40
0.5312500000000001
 40
0.5625000000000001
 40
0.5625000000000001
 40
0.5937500000000001
 40
0.5937500000000001
 40
0.6250000000000001
 40
0.6250000000000001
 40
0.6562500000000001
 40
0.6562500000000001
 40
0.6875000000000001
 40
0.6875000000000001
 40
0.7187500000000001
 40
0.7187500000000001
 40
0.75
 40
0.75
 40
0.78125
 40
0.78125
 40
0.8124999999999999
 40
0.8124999999999999
 40
0.8749999999999999
 40
0.8749999999999999
 40
0.9062499999999999
 40
0.9062499999999999
 40
0.9374999999999999
 40
0.9374999999999999
 40
0.9687499999999999
 40
0.9687499999999999
 40
1.0
 40
1.0
 40
1.0
 40
1.0
 10
222.1957119925551
 20
78.43799245099342
 30
0.0
 10
222.3658899066035
 20
78.4379924509934
 30
0.0
 10
222.5321084714454
 20
78.4554721628791
 30
0.0
 10
222.8577577667739
 20
78.51949799420501
 30
0.0
 10
223.0187006091515
 20
78.56676024438423
 30
0.0
 10
223.4753709035806
 20
78.73873830296932
 30
0.0
 10
223.7533690749834
 20
78.89521771456182
 30
0.0
 10
224.2277318985869
 20
79.2304690373868
 30
0.0
 10
224.4293708819654
 20
79.41346274014661
 30
0.0
 10
224.6448184126355
 20
79.66822946718042
 30
0.0
 10
224.7033102566485
 20
79.75157093849673
 30
0.0
 10
224.7844285310006
 20
79.90277601364845
 30
0.0
 10
224.807860401873
 20
79.97118670974939
 30
0.0
 10
224.818480418916
 20
80.09191417421926
 30
0.0
 10
224.8050288007871
 20
80.14318144883715
 30
0.0
 10
224.7432230647719
 20
80.22406406104265
 30
0.0
 10
224.6940683158257
 20
80.25468339429872
 30
0.0
 10
224.5022525317067
 20
80.3170279045154
 30
0.0
 10
224.3138687581573
 20
80.32050143601087
 30
0.0
 10
223.9729935125549
 20
80.29611595754946
 30
0.0
 10
223.8477914388474
 20
80.28300802205544
 30
0.0
 10
223.5829936032951
 20
80.25270502895674
 30
0.0
 10
223.4431619226939
 20
80.23552082768799
 30
0.0
 10
223.1469773026129
 20
80.20220905239508
 30
0.0
 10
222.9892200318486
 20
80.1860087367536
 30
0.0
 10
222.6675860339239
 20
80.161200244887
 30
0.0
 10
222.5020766430694
 20
80.15243131934301
 30
0.0
 10
222.1626742557663
 20
80.14625264182597
 30
0.0
 10
221.9953269027029
 20
80.14900249144485
 30
0.0
 10
221.6652605982005
 20
80.16518729993058
 30
0.0
 10
221.5012083697721
 20
80.17884522348989
 30
0.0
 10
221.1938225199808
 20
80.21101573209351
 30
0.0
 10
221.047409061261
 20
80.22965891464405
 30
0.0
 10
220.7743085922449
 20
80.26486028985951
 30
0.0
 10
220.6492532630873
 20
80.28115187981538
 30
0.0
 10
220.4194839547415
 20
80.3052177721917
 30
0.0
 10
220.3149928621182
 20
80.31286761642762
 30
0.0
 10
220.1335014675633
 20
80.31384787149109
 30
0.0
 10
220.0552617634726
 20
80.307386523842
 30
0.0
 10
219.9244753988246
 20
80.27565960837559
 30
0.0
 10
219.8738471425574
 20
80.2507026302366
 30
0.0
 10
219.8028288726824
 20
80.18107649061943
 30
0.0
 10
219.782118048773
 20
80.13567555829314
 30
0.0
 10
219.7732571335333
 20
80.0253069834332
 30
0.0
 10
219.7847504169532
 20
79.9612803303833
 30
0.0
 10
219.8390003985244
 20
79.81643290832154
 30
0.0
 10
219.8823029796485
 20
79.73525638644585
 30
0.0
 10
220.0533470996666
 20
79.48081894655009
 30
0.0
 10
220.2254540798482
 20
79.29059009245579
 30
0.0
 10
220.5505745355351
 20
79.0213561309025
 30
0.0
 10
220.6721141656923
 20
78.9329240190216
 30
0.0
 10
220.9319628288518
 20
78.77233587414429
 30
0.0
 10
221.0709877084488
 20
78.69933979183793
 30
0.0
 10
221.3701912552557
 20
78.57477161592388
 30
0.0
 10
221.5297044007382
 20
78.52407266071309
 30
0.0
 10
221.8554705956076
 20
78.45604382949998
 30
0.0
 10
222.0255340785066
 20
78.4379924509934
 30
0.0
 10
222.195711992555
 20
78.4379924509934
 30
0.0
  0
LINE
  5
251
330
1F
100
AcDbEntity
  8
0
  6
HIDDEN
 62
     7
370
     0
100
AcDbLine
 10
227.691815657
 20
102.0633833858
 30
0.0
 11
222.6501632381
 21
102.0633833858
 31
0.0
  0
SPLINE
  5
252
330
1F
100
AcDbEntity
  8
0
  6
HIDDEN
 62
     7
370
     0
100
AcDbSpline
210
0.0
220
0.0
230
1.0
 70
    11
 71
     3
 72
    66
 73
    62
 74
     0
 42
0.000000001
 43
0.00000001
 40
0.0
 40
0.0
 40
0.0
 40
0.0
 40
0.03125
 40
0.03125
 40
0.0624999999999999
 40
0.0624999999999999
 40
0.0937499999999999
 40
0.0937499999999999
 40
0.1249999999999998
 40
0.1249999999999998
 40
0.1562499999999998
 40
0.1562499999999998
 40
0.1874999999999997
 40
0.1874999999999997
 40
0.2187499999999997
 40
0.2187499999999997
 40
0.2499999999999996
 40
0.2499999999999996
 40
0.2812499999999996
 40
0.2812499999999996
 40
0.3124999999999995
 40
0.3124999999999995
 40
0.3437499999999994
 40
0.3437499999999994
 40
0.3749999999999994
 40
0.3749999999999994
 40
0.4062499999999994
 40
0.4062499999999994
 40
0.4374999999999993
 40
0.4374999999999993
 40
0.4687499999999993
 40
0.4687499999999993
 40
0.4999999999999992
 40
0.4999999999999992
 40
0.5624999999999996
 40
0.5624999999999996
 40
0.5937499999999997
 40
0.5937499999999997
 40
0.6249999999999997
 40
0.6249999999999997
 40
0.6562499999999998
 40
0.6562499999999998
 40
0.6874999999999998
 40
0.6874999999999998
 40
0.7187499999999999
 40
0.7187499999999999
 40
0.7499999999999999
 40
0.7499999999999999
 40
0.78125
 40
0.78125
 40
0.8125000000000001
 40
0.8125000000000001
 40
0.8437500000000001
 40
0.8437500000000001
 40
0.8750000000000002
 40
0.8750000000000002
 40
0.9062500000000002
 40
0.9062500000000002
 40
0.9375000000000003
 40
0.9375000000000003
 40
1.0
 40
1.0
 40
1.0
 40
1.0
 10
224.3133321146731
 20
71.81338338575044
 30
0.0
 10
224.4123317222752
 20
71.81338338575044
 30
0.0
 10
224.4982055629357
 20
71.82004098544841
 30
0.0
 10
224.6426098494731
 20
71.85087850783017
 30
0.0
 10
224.7014349292083
 20
71.87559567337051
 30
0.0
 10
224.7832984752129
 20
71.94452715483273
 30
0.0
 10
224.807257356147
 20
71.98862409869102
 30
0.0
 10
224.8187227600015
 20
72.09846510660242
 30
0.0
 10
224.8057415977951
 20
72.16290234303628
 30
0.0
 10
224.7448202611737
 20
72.3060999952977
 30
0.0
 10
224.6960251759228
 20
72.38625529929054
 30
0.0
 10
224.5691754046677
 20
72.55254822443237
 30
0.0
 10
224.4906818596476
 20
72.63969180759904
 30
0.0
 10
224.3076486030731
 20
72.81630354549714
 30
0.0
 10
224.2048856518553
 20
72.90417921959079
 30
0.0
 10
223.9781259844518
 20
73.07593443864015
 30
0.0
 10
223.853232226648
 20
73.16023204810152
 30
0.0
 10
223.5895420891116
 20
73.3154463384548
 30
0.0
 10
223.4500066479037
 20
73.38708196688113
 30
0.0
 10
223.1536625842463
 20
73.51324914598759
 30
0.0
 10
222.9966041784548
 20
73.56749380054582
 30
0.0
 10
222.6759283660875
 20
73.64785110350181
 30
0.0
 10
222.5091155207677
 20
73.67477476017527
 30
0.0
 10
222.1717054113596
 20
73.6943553640298
 30
0.0
 10
222.0047204759685
 20
73.68705019642583
 30
0.0
 10
221.674203157548
 20
73.63856123801499
 30
0.0
 10
221.5101023148405
 20
73.59667678097725
 30
0.0
 10
221.2025545678508
 20
73.4874386097944
 30
0.0
 10
221.0553869465713
 20
73.41917626059518
 30
0.0
 10
220.7821845470029
 20
73.2664550572972
 30
0.0
 10
220.6567623110328
 20
73.18271948386062
 30
0.0
 10
220.425866184561
 20
73.00630635835437
 30
0.0
 10
220.3212969557792
 20
72.91406291223862
 30
0.0
 10
220.047762594709
 20
72.64111310905867
 30
0.0
 10
219.9132147553969
 20
72.45846752462606
 30
0.0
 10
219.8046291508455
 20
72.22958262251058
 30
0.0
 10
219.7831557326119
 20
72.15895621752568
 30
0.0
 10
219.7728729036305
 20
72.03768472314336
 30
0.0
 10
219.7835446646341
 20
71.98691029449466
 30
0.0
 10
219.8363721971964
 20
71.90444605402992
 30
0.0
 10
219.8788323544293
 20
71.87323679789351
 30
0.0
 10
219.9913226022857
 20
71.83069337986151
 30
0.0
 10
220.0623991688426
 20
71.81882684926391
 30
0.0
 10
220.2301983720986
 20
71.81097972520787
 30
0.0
 10
220.3258976851937
 20
71.81485339048292
 30
0.0
 10
220.5415815506327
 20
71.8331127577955
 30
0.0
 10
220.6623498741562
 20
71.84767930861413
 30
0.0
 10
220.9206334433277
 20
71.88062981209109
 30
0.0
 10
221.0591361569892
 20
71.89910429201211
 30
0.0
 10
221.3581458054255
 20
71.93383732717129
 30
0.0
 10
221.516273832164
 20
71.94966550180027
 30
0.0
 10
221.8413572270181
 20
71.97187377627671
 30
0.0
 10
222.0119463516217
 20
71.97830440682414
 30
0.0
 10
222.3483218682635
 20
71.97901012667037
 30
0.0
 10
222.5159037180735
 20
71.97351115675373
 30
0.0
 10
222.8469992247859
 20
71.95320404387071
 30
0.0
 10
223.0057525257066
 20
71.93881201789527
 30
0.0
 10
223.3118592213836
 20
71.90668142018087
 30
0.0
 10
223.4591052730739
 20
71.8889423698481
 30
0.0
 10
223.8712056261288
 20
71.84038733112178
 30
0.0
 10
224.1153328994688
 20
71.81338338575044
 30
0.0
 10
224.3133321146731
 20
71.81338338575046
 30
0.0
  0
LINE
  5
253
330
1F
100
AcDbEntity
  8
0
  6
HIDDEN
 62
     7
370
     0
100
AcDbLine
 10
222.6501632381
 20
50.0633833858
 30
0.0
 11
227.691815657
 21
50.0633833858
 31
0.0
  0
LINE
  5
254
330
1F
100
AcDbEntity
  8
0
  6
HIDDEN
 62
     7
370
     0
100
AcDbLine
 10
170.4173632639
 20
86.8520585203
 30
0.0
 11
170.4173632639
 21
65.2747082512
 31
0.0
  0
LINE
  5
255
330
1F
100
AcDbEntity
  8
0
  6
HIDDEN
 62
     7
370
     0
100
AcDbLine
 10
166.4173632639
 20
87.2332563668
 30
0.0
 11
166.4173632639
 21
64.8935104047
 31
0.0
  0
LINE
  5
256
330
1F
100
AcDbEntity
  8
0
  6
HIDDEN
 62
     7
370
     0
100
AcDbLine
 10
165.3893234082
 20
64.2999713173
 30
0.0
 11
165.3893234082
 21
87.8267954542
 31
0.0
  0
LINE
  5
257
330
1F
100
AcDbEntity
  8
0
  6
HIDDEN
 62
     7
370
     0
100
AcDbLine
 10
175.0173632639
 20
86.5633833858
 30
0.0
 11
175.0173632639
 21
65.5633833858
 31
0.0
  0
LINE
  5
258
330
1F
100
AcDbEntity
  8
0
  6
HIDDEN
 62
     7
370
     0
100
AcDbLine
 10
168.9173632639
 20
86.5633833858
 30
0.0
 11
168.9173632639
 21
65.5633833858
 31
0.0
  0
LINE
  5
259
330
1F
100
AcDbEntity
  8
0
  6
HIDDEN
 62
     7
370
     0
100
AcDbLine
 10
169.9173632639
 20
86.5633833858
 30
0.0
 11
169.9173632639
 21
65.5633833858
 31
0.0
  0
SPLINE
  5
25A
330
1F
100
AcDbEntity
  8
0
  6
HIDDEN
 62
     7
370
     0
100
AcDbSpline
210
0.0
220
0.0
230
1.0
 70
    11
 71
     3
 72
    66
 73
    62
 74
     0
 42
0.000000001
 43
0.00000001
 40
0.0
 40
0.0
 40
0.0
 40
0.0
 40
0.0312499999999998
 40
0.0312499999999998
 40
0.0624999999999996
 40
0.0624999999999996
 40
0.0937499999999995
 40
0.0937499999999995
 40
0.1249999999999993
 40
0.1249999999999993
 40
0.1874999999999991
 40
0.1874999999999991
 40
0.218749999999999
 40
0.218749999999999
 40
0.249999999999999
 40
0.249999999999999
 40
0.281249999999999
 40
0.281249999999999
 40
0.3124999999999989
 40
0.3124999999999989
 40
0.3437499999999989
 40
0.3437499999999989
 40
0.3749999999999989
 40
0.3749999999999989
 40
0.4062499999999989
 40
0.4062499999999989
 40
0.4374999999999989
 40
0.4374999999999989
 40
0.4687499999999989
 40
0.4687499999999989
 40
0.4999999999999989
 40
0.4999999999999989
 40
0.5312499999999988
 40
0.5312499999999988
 40
0.5624999999999988
 40
0.5624999999999988
 40
0.5937499999999987
 40
0.5937499999999987
 40
0.6249999999999988
 40
0.6249999999999988
 40
0.656249999999999
 40
0.656249999999999
 40
0.6874999999999991
 40
0.6874999999999991
 40
0.7187499999999993
 40
0.7187499999999993
 40
0.7499999999999994
 40
0.7499999999999994
 40
0.7812499999999996
 40
0.7812499999999996
 40
0.8124999999999998
 40
0.8124999999999998
 40
0.875
 40
0.875
 40
0.9062500000000002
 40
0.9062500000000002
 40
0.9375000000000001
 40
0.9375000000000001
 40
0.9687500000000001
 40
0.9687500000000001
 40
1.0
 40
1.0
 40
1.0
 40
1.0
 10
181.3893234082415
 20
79.11338338575044
 30
0.0
 10
181.5920020551893
 20
79.11338338575044
 30
0.0
 10
181.7910619465251
 20
79.09338382613385
 30
0.0
 10
182.1823159311049
 20
79.01524032343369
 30
0.0
 10
182.3765886898525
 20
78.95607922191293
 30
0.0
 10
182.7453521164038
 20
78.80264753501864
 30
0.0
 10
182.9200772747821
 20
78.70892072517638
 30
0.0
 10
183.2507545783158
 20
78.48766662277151
 30
0.0
 10
183.4064021223187
 20
78.35968525577694
 30
0.0
 10
183.8258694919873
 20
77.94013015877688
 30
0.0
 10
184.0527576335176
 20
77.6016516000735
 30
0.0
 10
184.2815542569024
 20
77.05177271235529
 30
0.0
 10
184.3407465117513
 20
76.8583728666119
 30
0.0
 10
184.4195539220118
 20
76.46414471625398
 30
0.0
 10
184.4391933382922
 20
76.26550588882162
 30
0.0
 10
184.4394522027138
 20
75.86520560292321
 30
0.0
 10
184.4193815180808
 20
75.66186627620212
 30
0.0
 10
184.3410438354509
 20
75.26977475559453
 30
0.0
 10
184.2830940674124
 20
75.07906888727932
 30
0.0
 10
184.1291509255325
 20
74.70834507069274
 30
0.0
 10
184.0342123118097
 20
74.53161841088394
 30
0.0
 10
183.8138548959326
 20
74.20236529995957
 30
0.0
 10
183.6865748700043
 20
74.04724407636311
 30
0.0
 10
183.4048192786738
 20
73.76556738143272
 30
0.0
 10
183.2520309492162
 20
73.64013419652835
 30
0.0
 10
182.9226038670593
 20
73.41935860317425
 30
0.0
 10
182.7440578639076
 20
73.32352735047404
 30
0.0
 10
182.3764855383575
 20
73.17069821997896
 30
0.0
 10
182.1863315116465
 20
73.11252646203475
 30
0.0
 10
181.792791088944
 20
73.03353316968983
 30
0.0
 10
181.5903570176828
 20
73.0134700440476
 30
0.0
 10
181.1909279423175
 20
73.01329729792884
 30
0.0
 10
180.9909089637615
 20
73.03278067201813
 30
0.0
 10
180.5947930163122
 20
73.11177224361933
 30
0.0
 10
180.4040601881203
 20
73.17005246347131
 30
0.0
 10
180.0364287475406
 20
73.32262008407932
 30
0.0
 10
179.8579423153728
 20
73.4182288708526
 30
0.0
 10
179.5277370564088
 20
73.63924091593759
 30
0.0
 10
179.3748484783469
 20
73.76469081470776
 30
0.0
 10
179.0932520838088
 20
74.04592130371309
 30
0.0
 10
178.9656211609333
 20
74.20130418162701
 30
0.0
 10
178.7452957259335
 20
74.53015503966995
 30
0.0
 10
178.6510692689681
 20
74.70504314608397
 30
0.0
 10
178.496134748365
 20
75.07718699744476
 30
0.0
 10
178.4381224627628
 20
75.2679930392537
 30
0.0
 10
178.3597032084846
 20
75.65886605717242
 30
0.0
 10
178.3393891285181
 20
75.86132361855472
 30
0.0
 10
178.3392580122141
 20
76.26345422347416
 30
0.0
 10
178.3588827055734
 20
76.46217826864928
 30
0.0
 10
178.4370491559871
 20
76.85501773978595
 30
0.0
 10
178.496336601327
 20
77.04966201718854
 30
0.0
 10
178.7254174444099
 20
77.60110177060275
 30
0.0
 10
178.9522482953041
 20
77.93944133630191
 30
0.0
 10
179.3715869966248
 20
78.35910699895342
 30
0.0
 10
179.5269399923747
 20
78.48695300472667
 30
0.0
 10
179.8579078255119
 20
78.7085540794285
 30
0.0
 10
180.0324691257083
 20
78.8021948134054
 30
0.0
 10
180.4000424332831
 20
78.95534893410463
 30
0.0
 10
180.5947292949212
 20
79.01485267975072
 30
0.0
 10
180.9872052448576
 20
79.09337542881367
 30
0.0
 10
181.1866447612937
 20
79.11338338575044
 30
0.0
 10
181.3893234082415
 20
79.11338338575044
 30
0.0
  0
SPLINE
  5
25B
330
1F
100
AcDbEntity
  8
0
  6
HIDDEN
 62
     7
370
     0
100
AcDbSpline
210
0.0
220
0.0
230
1.0
 70
    11
 71
     3
 72
    66
 73
    62
 74
     0
 42
0.000000001
 43
0.00000001
 40
0.0
 40
0.0
 40
0.0
 40
0.0
 40
0.0312499999999999
 40
0.0312499999999999
 40
0.0624999999999997
 40
0.0624999999999997
 40
0.0937499999999996
 40
0.0937499999999996
 40
0.1249999999999995
 40
0.1249999999999995
 40
0.1874999999999992
 40
0.1874999999999992
 40
0.2187499999999991
 40
0.2187499999999991
 40
0.2499999999999989
 40
0.2499999999999989
 40
0.2812499999999988
 40
0.2812499999999988
 40
0.3124999999999987
 40
0.3124999999999987
 40
0.3437499999999986
 40
0.3437499999999986
 40
0.3749999999999984
 40
0.3749999999999984
 40
0.4062499999999983
 40
0.4062499999999983
 40
0.4374999999999984
 40
0.4374999999999984
 40
0.4687499999999984
 40
0.4687499999999984
 40
0.4999999999999986
 40
0.4999999999999986
 40
0.5312499999999987
 40
0.5312499999999987
 40
0.5624999999999988
 40
0.5624999999999988
 40
0.5937499999999988
 40
0.5937499999999988
 40
0.6249999999999989
 40
0.6249999999999989
 40
0.656249999999999
 40
0.656249999999999
 40
0.6874999999999991
 40
0.6874999999999991
 40
0.7187499999999992
 40
0.7187499999999992
 40
0.7499999999999992
 40
0.7499999999999992
 40
0.7812499999999993
 40
0.7812499999999993
 40
0.8124999999999994
 40
0.8124999999999994
 40
0.8749999999999996
 40
0.8749999999999996
 40
0.9062499999999997
 40
0.9062499999999997
 40
0.9374999999999997
 40
0.9374999999999997
 40
0.9687499999999998
 40
0.9687499999999998
 40
1.0
 40
1.0
 40
1.0
 40
1.0
 10
181.3893234082415
 20
79.11338338575044
 30
0.0
 10
181.1866447612937
 20
79.11338338575044
 30
0.0
 10
180.9875848699578
 20
79.09338382613385
 30
0.0
 10
180.5963308853781
 20
79.0152403234337
 30
0.0
 10
180.4020581266305
 20
78.95607922191293
 30
0.0
 10
180.0332947000792
 20
78.80264753501864
 30
0.0
 10
179.8585695417009
 20
78.70892072517638
 30
0.0
 10
179.5278922381671
 20
78.48766662277151
 30
0.0
 10
179.3722446941643
 20
78.35968525577694
 30
0.0
 10
178.9527773244956
 20
77.94013015877688
 30
0.0
 10
178.7258891829653
 20
77.6016516000735
 30
0.0
 10
178.4970925595806
 20
77.05177271235529
 30
0.0
 10
178.4379003047317
 20
76.8583728666119
 30
0.0
 10
178.3590928944712
 20
76.46414471625398
 30
0.0
 10
178.3394534781908
 20
76.26550588882162
 30
0.0
 10
178.3391946137692
 20
75.86520560292321
 30
0.0
 10
178.3592652984022
 20
75.66186627620212
 30
0.0
 10
178.4376029810321
 20
75.26977475559453
 30
0.0
 10
178.4955527490705
 20
75.07906888727932
 30
0.0
 10
178.6494958909506
 20
74.70834507069274
 30
0.0
 10
178.7444345046732
 20
74.53161841088392
 30
0.0
 10
178.9647919205504
 20
74.20236529995957
 30
0.0
 10
179.0920719464787
 20
74.04724407636311
 30
0.0
 10
179.3738275378092
 20
73.76556738143272
 30
0.0
 10
179.5266158672667
 20
73.64013419652835
 30
0.0
 10
179.8560429494237
 20
73.41935860317425
 30
0.0
 10
180.0345889525753
 20
73.32352735047405
 30
0.0
 10
180.4021612781255
 20
73.17069821997896
 30
0.0
 10
180.5923153048365
 20
73.11252646203475
 30
0.0
 10
180.985855727539
 20
73.03353316968982
 30
0.0
 10
181.1882897988001
 20
73.0134700440476
 30
0.0
 10
181.5877188741655
 20
73.01329729792884
 30
0.0
 10
181.7877378527214
 20
73.03278067201813
 30
0.0
 10
182.1838538001708
 20
73.11177224361933
 30
0.0
 10
182.3745866283626
 20
73.17005246347131
 30
0.0
 10
182.7422180689423
 20
73.32262008407932
 30
0.0
 10
182.9207045011102
 20
73.4182288708526
 30
0.0
 10
183.2509097600742
 20
73.63924091593759
 30
0.0
 10
183.4037983381361
 20
73.76469081470776
 30
0.0
 10
183.6853947326742
 20
74.04592130371309
 30
0.0
 10
183.8130256555497
 20
74.20130418162701
 30
0.0
 10
184.0333510905495
 20
74.53015503966995
 30
0.0
 10
184.1275775475148
 20
74.70504314608397
 30
0.0
 10
184.282512068118
 20
75.07718699744476
 30
0.0
 10
184.3405243537202
 20
75.2679930392537
 30
0.0
 10
184.4189436079984
 20
75.65886605717242
 30
0.0
 10
184.4392576879649
 20
75.86132361855472
 30
0.0
 10
184.4393888042688
 20
76.26345422347417
 30
0.0
 10
184.4197641109095
 20
76.46217826864928
 30
0.0
 10
184.3415976604958
 20
76.85501773978595
 30
0.0
 10
184.2823102151559
 20
77.04966201718854
 30
0.0
 10
184.0532293720731
 20
77.60110177060275
 30
0.0
 10
183.8263985211789
 20
77.93944133630191
 30
0.0
 10
183.4070598198582
 20
78.35910699895342
 30
0.0
 10
183.2517068241083
 20
78.48695300472667
 30
0.0
 10
182.920738990971
 20
78.7085540794285
 30
0.0
 10
182.7461776907747
 20
78.8021948134054
 30
0.0
 10
182.3786043831999
 20
78.95534893410463
 30
0.0
 10
182.1839175215618
 20
79.01485267975072
 30
0.0
 10
181.7914415716254
 20
79.09337542881367
 30
0.0
 10
181.5920020551893
 20
79.11338338575044
 30
0.0
 10
181.3893234082415
 20
79.11338338575044
 30
0.0
  0
LINE
  5
25C
330
1F
100
AcDbEntity
  8
0
  6
HIDDEN
 62
     7
370
     0
100
AcDbLine
 10
185.3893234082
 20
86.0633833803
 30
0.0
 11
185.3893234082
 21
66.0633833858
 31
0.0
  0
LINE
  5
25D
330
1F
100
AcDbEntity
  8
0
  6
HIDDEN
 62
     7
370
     0
100
AcDbLine
 10
186.3893234082
 20
83.3133833858
 30
0.0
 11
186.3893234082
 21
68.8133833858
 31
0.0
  0
LINE
  5
25E
330
1F
100
AcDbEntity
  8
0
  6
HIDDEN
 62
     7
370
     0
100
AcDbLine
 10
185.3893234082
 20
67.8133833858
 30
0.0
 11
185.3893234082
 21
84.3133833858
 31
0.0
  0
LINE
  5
25F
330
1F
100
AcDbEntity
  8
0
  6
HIDDEN
 62
     7
370
     0
100
AcDbLine
 10
210.3893234082
 20
83.3133833858
 30
0.0
 11
210.3893234082
 21
68.8133833858
 31
0.0
  0
LINE
  5
260
330
1F
100
AcDbEntity
  8
0
  6
HIDDEN
 62
     7
370
     0
100
AcDbLine
 10
212.1919052653
 20
80.3133833858
 30
0.0
 11
212.1919052653
 21
71.8133833858
 31
0.0
  0
LINE
  5
261
330
1F
100
AcDbEntity
  8
0
  6
HIDDEN
 62
     7
370
     0
100
AcDbLine
 10
225.3893234082
 20
80.3133833858
 30
0.0
 11
225.3893234082
 21
71.8133833858
 31
0.0
  0
LINE
  5
262
330
1F
100
AcDbEntity
  8
0
  6
HIDDEN
 62
     7
370
     0
100
AcDbLine
 10
228.3893234082
 20
116.050881432
 30
0.0
 11
228.3893234082
 21
36.0758853395
 31
0.0
  0
CIRCLE
  5
263
330
1F
100
AcDbEntity
  8
0
  6
HIDDEN
 62
     7
370
     0
100
AcDbCircle
 10
240.8893234082
 20
51.0633833858
 30
0.0
 40
5.099999999999994
  0
CIRCLE
  5
264
330
1F
100
AcDbEntity
  8
0
  6
HIDDEN
 62
     7
370
     0
100
AcDbCircle
 10
240.8893234082
 20
76.0633833858
 30
0.0
 40
5.099999999999994
  0
CIRCLE
  5
265
330
1F
100
AcDbEntity
  8
0
  6
HIDDEN
 62
     7
370
     0
100
AcDbCircle
 10
240.8893234082
 20
101.0633833858
 30
0.0
 40
5.099999999999994
  0
LINE
  5
266
330
1F
100
AcDbEntity
  8
0
  6
HIDDEN
 62
     7
370
     0
100
AcDbLine
 10
253.3893234082
 20
116.050881432
 30
0.0
 11
253.3893234082
 21
36.0758853395
 31
0.0
  0
SPLINE
  5
267
330
1F
100
AcDbEntity
  8
0
  6
HIDDEN
 62
     7
370
     0
100
AcDbSpline
210
0.0
220
0.0
230
1.0
 70
     8
 71
     3
 72
    18
 73
    14
 74
     0
 42
0.000000001
 43
0.00000001
 40
0.0
 40
0.0
 40
0.0
 40
0.0
 40
0.2500000000000006
 40
0.2500000000000006
 40
0.3750000000000006
 40
0.3750000000000006
 40
0.5000000000000006
 40
0.5000000000000006
 40
0.6250000000000006
 40
0.6250000000000006
 40
0.7500000000000004
 40
0.7500000000000004
 40
1.0
 40
1.0
 40
1.0
 40
1.0
 10
194.0680030646818
 20
93.36029325375527
 30
0.0
 10
193.9327174583795
 20
93.28894051206572
 30
0.0
 10
193.8315497121366
 20
93.14353710547631
 30
0.0
 10
193.7286883692676
 20
92.81406986987065
 30
0.0
 10
193.7025855237443
 20
92.68513629306594
 30
0.0
 10
193.6676955401995
 20
92.38959429372983
 30
0.0
 10
193.6591092819095
 20
92.22519952020785
 30
0.0
 10
193.6590095723438
 20
91.86423790546728
 30
0.0
 10
193.6674979434924
 20
91.66766811330507
 30
0.0
 10
193.701641323013
 20
91.24231331718006
 30
0.0
 10
193.7274383048668
 20
91.01254366738048
 30
0.0
 10
193.8308394362548
 20
90.27995497294806
 30
0.0
 10
193.9326974284261
 20
89.74271819803047
 30
0.0
 10
194.0680030646818
 20
89.15843010928286
 30
0.0
  0
LINE
  5
268
330
1F
100
AcDbEntity
  8
0
  6
HIDDEN
 62
     7
370
     0
100
AcDbLine
 10
166.8893234082
 20
92.9227346277
 30
0.0
 11
166.8893234082
 21
88.1129559112
 31
0.0
  0
LINE
  5
269
330
1F
100
AcDbEntity
  8
0
  6
HIDDEN
 62
     7
370
     0
100
AcDbLine
 10
193.1893234082
 20
93.5834821703
 30
0.0
 11
193.1893234082
 21
88.4433296825
 31
0.0
  0
LINE
  5
26A
330
1F
100
AcDbEntity
  8
0
  6
HIDDEN
 62
     7
370
     0
100
AcDbLine
 10
165.3893234082
 20
92.0567092239
 30
0.0
 11
165.3893234082
 21
87.6799432093
 31
0.0
  0
LINE
  5
26B
330
1F
100
AcDbEntity
  8
0
  6
HIDDEN
 62
     7
370
     0
100
AcDbLine
 10
193.1893234082
 20
63.683437089
 30
0.0
 11
193.1893234082
 21
58.5432846012
 31
0.0
  0
SPLINE
  5
26C
330
1F
100
AcDbEntity
  8
0
  6
HIDDEN
 62
     7
370
     0
100
AcDbSpline
210
0.0
220
0.0
230
1.0
 70
     8
 71
     3
 72
    18
 73
    14
 74
     0
 42
0.000000001
 43
0.00000001
 40
0.0
 40
0.0
 40
0.0
 40
0.0
 40
0.2499999999999994
 40
0.2499999999999994
 40
0.3749999999999995
 40
0.3749999999999995
 40
0.4999999999999997
 40
0.4999999999999997
 40
0.6249999999999998
 40
0.6249999999999998
 40
0.7499999999999999
 40
0.7499999999999999
 40
1.0
 40
1.0
 40
1.0
 40
1.0
 10
194.0680030646818
 20
62.96833666221804
 30
0.0
 10
193.9327174583795
 20
62.38413506848637
 30
0.0
 10
193.8315497121366
 20
61.84991738127818
 30
0.0
 10
193.7286883692676
 20
61.12402061038979
 30
0.0
 10
193.7025855237443
 20
60.89414012260985
 30
0.0
 10
193.6676955401995
 20
60.46356917782307
 30
0.0
 10
193.6591092819095
 20
60.26587427232889
 30
0.0
 10
193.6590095723438
 20
59.90452622965109
 30
0.0
 10
193.6674979434924
 20
59.74087621970496
 30
0.0
 10
193.701641323013
 20
59.44766494673598
 30
0.0
 10
193.7274383048668
 20
59.31766888062018
 30
0.0
 10
193.8308394362548
 20
58.98361298805824
 30
0.0
 10
193.9326974284261
 20
58.83783682369345
 30
0.0
 10
194.0680030646818
 20
58.76647351774561
 30
0.0
  0
LINE
  5
26D
330
1F
100
AcDbEntity
  8
0
  6
HIDDEN
 62
     7
370
     0
100
AcDbLine
 10
166.8893234082
 20
64.0138108603
 30
0.0
 11
166.8893234082
 21
59.2040321438
 31
0.0
  0
LINE
  5
26E
330
1F
100
AcDbEntity
  8
0
  6
HIDDEN
 62
     7
370
     0
100
AcDbLine
 10
165.3893234082
 20
64.4468235622
 30
0.0
 11
165.3893234082
 21
60.0700575476
 31
0.0
  0
LINE
  5
26F
330
1F
100
AcDbEntity
  8
0
  6
HIDDEN
 62
     7
370
     0
100
AcDbLine
 10
165.3893234082
 20
87.6799432093
 30
0.0
 11
165.3893234082
 21
78.402554314
 31
0.0
  0
LINE
  5
270
330
1F
100
AcDbEntity
  8
0
  6
HIDDEN
 62
     7
370
     0
100
AcDbLine
 10
165.3893234082
 20
73.7242124575
 30
0.0
 11
165.3893234082
 21
64.4468235622
 31
0.0
  0
LINE
  5
271
330
1F
100
AcDbEntity
  8
0
  6
HIDDEN
 62
     7
370
     0
100
AcDbLine
 10
166.8893234082
 20
72.9149062674
 30
0.0
 11
166.8893234082
 21
64.0138108603
 31
0.0
  0
LINE
  5
272
330
1F
100
AcDbEntity
  8
0
  6
HIDDEN
 62
     7
370
     0
100
AcDbLine
 10
166.8893234082
 20
88.1129559112
 30
0.0
 11
166.8893234082
 21
79.2118605041
 31
0.0
  0
LINE
  5
273
330
1F
100
AcDbEntity
  8
0
  6
HIDDEN
 62
     7
370
     0
100
AcDbLine
 10
193.1893234082
 20
88.4433296825
 30
0.0
 11
193.1893234082
 21
63.683437089
 31
0.0
  0
LINE
  5
274
330
1F
100
AcDbEntity
  8
0
  6
HIDDEN
 62
     7
370
     0
100
AcDbLine
 10
195.1893234082
 20
87.6256576188
 30
0.0
 11
195.1893234082
 21
64.5011091527
 31
0.0
  0
SPLINE
  5
275
330
1F
100
AcDbEntity
  8
0
  6
HIDDEN
 62
     7
370
     0
100
AcDbSpline
210
0.0
220
0.0
230
1.0
 70
     8
 71
     3
 72
    26
 73
    22
 74
     0
 42
0.000000001
 43
0.00000001
 40
0.0
 40
0.0
 40
0.0
 40
0.0
 40
0.1249999999999997
 40
0.1249999999999997
 40
0.2499999999999994
 40
0.2499999999999994
 40
0.3749999999999993
 40
0.3749999999999993
 40
0.4374999999999992
 40
0.4374999999999992
 40
0.4999999999999991
 40
0.4999999999999991
 40
0.562499999999999
 40
0.562499999999999
 40
0.6249999999999988
 40
0.6249999999999988
 40
0.7499999999999992
 40
0.7499999999999992
 40
0.8749999999999996
 40
0.8749999999999996
 40
1.0
 40
1.0
 40
1.0
 40
1.0
 10
170.8893234082415
 20
72.84488562530136
 30
0.0
 10
171.0999667702415
 20
73.07950265624643
 30
0.0
 10
171.3071632079985
 20
73.31738579220587
 30
0.0
 10
171.7086623426308
 20
73.80470009847473
 30
0.0
 10
171.9039387616768
 20
74.05482532326377
 30
0.0
 10
172.2637192543723
 20
74.57341546871471
 30
0.0
 10
172.4289781145216
 20
74.84084645260154
 30
0.0
 10
172.6216360239478
 20
75.27226158500005
 30
0.0
 10
172.6766007641578
 20
75.42228046692443
 30
0.0
 10
172.754336549122
 20
75.73501764565445
 30
0.0
 10
172.7756026874303
 20
75.8927718924617
 30
0.0
 10
172.7774966167161
 20
76.2114771723075
 30
0.0
 10
172.757270879649
 20
76.37391397248803
 30
0.0
 10
172.6828064693632
 20
76.6848659720707
 30
0.0
 10
172.6291673436172
 20
76.83553721039836
 30
0.0
 10
172.4344230382166
 20
77.27762096836693
 30
0.0
 10
172.2673729250383
 20
77.5476649815347
 30
0.0
 10
171.9071168063347
 20
78.06777260981607
 30
0.0
 10
171.7123644313142
 20
78.31743382262573
 30
0.0
 10
171.309355206842
 20
78.80685793446851
 30
0.0
 10
171.1009186884785
 20
79.04620385763246
 30
0.0
 10
170.8893234082424
 20
79.28188114620035
 30
0.0
  0
LINE
  5
276
330
1F
100
AcDbEntity
  8
0
  6
HIDDEN
 62
     7
370
     0
100
AcDbLine
 10
170.8893234082
 20
72.8448856253
 30
0.0
 11
170.8893234082
 21
79.2818811462
 31
0.0
  0
SPLINE
  5
277
330
1F
100
AcDbEntity
  8
0
  6
HIDDEN
 62
     7
370
     0
100
AcDbSpline
210
0.0
220
0.0
230
1.0
 70
     8
 71
     3
 72
     8
 73
     4
 74
     0
 42
0.000000001
 43
0.00000001
 40
0.0000202085968836
 40
0.0000202085968836
 40
0.0000202085968836
 40
0.0000202085968836
 40
0.0040218806502652
 40
0.0040218806502652
 40
0.0040218806502652
 40
0.0040218806502652
 10
166.8893234082415
 20
72.91490626741371
 30
0.0
 10
168.2226465340321
 20
72.8909080362501
 30
0.0
 10
169.5559804072547
 20
72.86758029608177
 30
0.0
 10
170.8893234082415
 20
72.84488562530136
 30
0.0
  0
SPLINE
  5
278
330
1F
100
AcDbEntity
  8
0
  6
HIDDEN
 62
     7
370
     0
100
AcDbSpline
210
0.0
220
0.0
230
1.0
 70
     8
 71
     3
 72
     8
 73
     4
 74
     0
 42
0.000000001
 43
0.00000001
 40
0.0000202082942178
 40
0.0000202082942178
 40
0.0000202082942178
 40
0.0000202082942178
 40
0.0040218803475995
 40
0.0040218803475995
 40
0.0040218803475995
 40
0.0040218803475995
 10
170.8893234082415
 20
79.28188114619952
 30
0.0
 10
169.5559804072547
 20
79.25918647541911
 30
0.0
 10
168.2226465340321
 20
79.2358587352508
 30
0.0
 10
166.8893234082415
 20
79.21186050408717
 30
0.0
  0
SPLINE
  5
279
330
1F
100
AcDbEntity
  8
0
  6
HIDDEN
 62
     7
370
     0
100
AcDbSpline
210
0.0
220
0.0
230
1.0
 70
     8
 71
     3
 72
     8
 73
     4
 74
     0
 42
0.000000001
 43
0.00000001
 40
0.0
 40
0.0
 40
0.0
 40
0.0
 40
1.0
 40
1.0
 40
1.0
 40
1.0
 10
165.3893234082406
 20
73.72421245751602
 30
0.0
 10
165.8635348186785
 20
73.38948323022093
 30
0.0
 10
166.3682711657804
 20
73.13042481638801
 30
0.0
 10
166.8893234082415
 20
72.91490626741371
 30
0.0
  0
SPLINE
  5
27A
330
1F
100
AcDbEntity
  8
0
  6
HIDDEN
 62
     7
370
     0
100
AcDbSpline
210
0.0
220
0.0
230
1.0
 70
     8
 71
     3
 72
     8
 73
     4
 74
     0
 42
0.000000001
 43
0.00000001
 40
0.0
 40
0.0
 40
0.0
 40
0.0
 40
1.0
 40
1.0
 40
1.0
 40
1.0
 10
166.8893234082415
 20
79.21186050408717
 30
0.0
 10
166.3682711657808
 20
78.996341955113
 30
0.0
 10
165.8635348186792
 20
78.73728354128028
 30
0.0
 10
165.3893234082415
 20
78.4025543139855
 30
0.0
  0
LINE
  5
27B
330
1F
100
AcDbEntity
  8
0
  6
HIDDEN
 62
     7
370
     0
100
AcDbLine
 10
165.3893234082
 20
73.7242124575
 30
0.0
 11
165.3893234082
 21
78.402554314
 31
0.0
  0
SPLINE
  5
27C
330
1F
100
AcDbEntity
  8
0
  6
HIDDEN
 62
     7
370
     0
100
AcDbSpline
210
0.0
220
0.0
230
1.0
 70
    11
 71
     3
 72
    68
 73
    64
 74
     0
 42
0.000000001
 43
0.00000001
 40
0.0
 40
0.0
 40
0.0
 40
0.0
 40
0.03125
 40
0.03125
 40
0.0624999999999999
 40
0.0624999999999999
 40
0.0937499999999999
 40
0.0937499999999999
 40
0.1249999999999998
 40
0.1249999999999998
 40
0.1874999999999997
 40
0.1874999999999997
 40
0.2187499999999995
 40
0.2187499999999995
 40
0.2499999999999993
 40
0.2499999999999993
 40
0.2812499999999991
 40
0.2812499999999991
 40
0.3124999999999989
 40
0.3124999999999989
 40
0.3437499999999987
 40
0.3437499999999987
 40
0.3749999999999985
 40
0.3749999999999985
 40
0.4062499999999983
 40
0.4062499999999983
 40
0.4374999999999981
 40
0.4374999999999981
 40
0.4687499999999978
 40
0.4687499999999978
 40
0.4999999999999976
 40
0.4999999999999976
 40
0.5312499999999974
 40
0.5312499999999974
 40
0.5624999999999972
 40
0.5624999999999972
 40
0.5937499999999971
 40
0.5937499999999971
 40
0.6249999999999969
 40
0.6249999999999969
 40
0.6562499999999968
 40
0.6562499999999968
 40
0.6874999999999966
 40
0.6874999999999966
 40
0.7187499999999964
 40
0.7187499999999964
 40
0.7499999999999966
 40
0.7499999999999966
 40
0.7812499999999969
 40
0.7812499999999969
 40
0.8124999999999974
 40
0.8124999999999974
 40
0.8437499999999979
 40
0.8437499999999979
 40
0.8749999999999983
 40
0.8749999999999983
 40
0.9062499999999987
 40
0.9062499999999987
 40
0.9374999999999991
 40
0.9374999999999991
 40
0.9687499999999994
 40
0.9687499999999994
 40
1.0
 40
1.0
 40
1.0
 40
1.0
 10
178.9183819367239
 20
78.11941708286733
 30
0.0
 10
179.0636141778698
 20
78.27863320336758
 30
0.0
 10
179.2225304762513
 20
78.42115072907124
 30
0.0
 10
179.5661111618891
 20
78.67486526616095
 30
0.0
 10
179.7522825147948
 20
78.78642909266992
 30
0.0
 10
180.1368125873805
 20
78.97067812933899
 30
0.0
 10
180.3364230895452
 20
79.04459239542776
 30
0.0
 10
180.7502626745188
 20
79.15623428498792
 30
0.0
 10
180.96307248419
 20
79.19315833927676
 30
0.0
 10
181.5990039585307
 20
79.24576015985222
 30
0.0
 10
182.0340701791584
 20
79.20355176919205
 30
0.0
 10
182.6463130461461
 20
79.02971716399665
 30
0.0
 10
182.8461581342582
 20
78.95309893618459
 30
0.0
 10
183.2305354429863
 20
78.76292406784165
 30
0.0
 10
183.4110838338488
 20
78.65156463362312
 30
0.0
 10
183.7491437615584
 20
78.39645936490076
 30
0.0
 10
183.9081755779696
 20
78.25095357670807
 30
0.0
 10
184.192972258192
 20
77.93271492253518
 30
0.0
 10
184.3179177870669
 20
77.76166260401608
 30
0.0
 10
184.5322199274806
 20
77.39510201790297
 30
0.0
 10
184.6221187066554
 20
77.1970332841003
 30
0.0
 10
184.7557709957844
 20
76.79245053089089
 30
0.0
 10
184.8007789310984
 20
76.58483535087379
 30
0.0
 10
184.8455584117158
 20
76.15854559444493
 30
0.0
 10
184.8444847507
 20
75.94190729649661
 30
0.0
 10
184.7964649569845
 20
75.51894726953924
 30
0.0
 10
184.7490519797596
 20
75.3079505842799
 30
0.0
 10
184.6107367309429
 20
74.9021618688481
 30
0.0
 10
184.5210558727208
 20
74.70921521018556
 30
0.0
 10
184.3023731623936
 20
74.3423085872021
 30
0.0
 10
184.1729254445649
 20
74.16880343898004
 30
0.0
 10
183.8864198405354
 20
73.85480134098941
 30
0.0
 10
183.7275610222974
 20
73.71169841453504
 30
0.0
 10
183.3825632003445
 20
73.45636749868204
 30
0.0
 10
183.2003460962242
 20
73.34683532108156
 30
0.0
 10
182.8175060195852
 20
73.16190849429333
 30
0.0
 10
182.614761794512
 20
73.08609266745185
 30
0.0
 10
182.2029332200487
 20
72.97351217520978
 30
0.0
 10
181.9937144434492
 20
72.93617195562507
 30
0.0
 10
181.5687216092147
 20
72.89894093609497
 30
0.0
 10
181.3515643321415
 20
72.89950690002661
 30
0.0
 10
180.9271864929884
 20
72.93890460391601
 30
0.0
 10
180.7180698451387
 20
72.97733383855022
 30
0.0
 10
180.3061288562447
 20
73.09253887308762
 30
0.0
 10
180.1035607513516
 20
73.16980380359209
 30
0.0
 10
179.7219603088843
 20
73.35748607372396
 30
0.0
 10
179.5406493730051
 20
73.46839942553598
 30
0.0
 10
179.198057476071
 20
73.72635286426677
 30
0.0
 10
179.0392338591168
 20
73.8720685598762
 30
0.0
 10
178.7561890800165
 20
74.18838971758565
 30
0.0
 10
178.6301791480307
 20
74.3604234289848
 30
0.0
 10
178.4130721042158
 20
74.73296600697384
 30
0.0
 10
178.3256368079419
 20
74.92708779224787
 30
0.0
 10
178.1924435273943
 20
75.3308625213274
 30
0.0
 10
178.1465429452898
 20
75.54335944793498
 30
0.0
 10
178.1022264043559
 20
75.9689553087931
 30
0.0
 10
178.1030685918383
 20
76.18178914706232
 30
0.0
 10
178.1509072862594
 20
76.60752887689218
 30
0.0
 10
178.1984431417285
 20
76.81929104230532
 30
0.0
 10
178.3351817369564
 20
77.22278057676264
 30
0.0
 10
178.425465282232
 20
77.41853919771569
 30
0.0
 10
178.645176174497
 20
77.78813942446385
 30
0.0
 10
178.773149695578
 20
77.96020096236704
 30
0.0
 10
178.9183819367239
 20
78.1194170828673
 30
0.0
  0
CIRCLE
  5
27D
330
1F
100
AcDbEntity
  8
0
  6
HIDDEN
 62
     7
370
     0
100
AcDbCircle
 10
181.3893234082
 20
76.0633833858
 30
0.0
 40
3.049999999999997
  0
CIRCLE
  5
27E
330
1F
100
AcDbEntity
  8
0
  6
HIDDEN
 62
     7
370
     0
100
AcDbCircle
 10
207.3893234082
 20
76.0633833858
 30
0.0
 40
2.0
  0
LINE
  5
27F
330
1F
100
AcDbEntity
  8
0
  6
HIDDEN
 62
     7
370
     0
100
AcDbLine
 10
253.3893234082
 20
44.8383933938
 30
0.0
 11
253.3893234082
 21
107.2883733777
 31
0.0
  0
LINE
  5
280
330
1F
100
AcDbEntity
  8
0
  6
HIDDEN
 62
     7
370
     0
100
AcDbLine
 10
228.3893234082
 20
44.8383933938
 30
0.0
 11
228.3893234082
 21
107.2883733777
 31
0.0
  0
LINE
  5
281
330
1F
100
AcDbEntity
  8
0
  6
HIDDEN
 62
     7
370
     0
100
AcDbLine
 10
195.3893234082
 20
56.5133833858
 30
0.0
 11
195.4822166271
 21
56.6062766046
 31
0.0
  0
LINE
  5
282
330
1F
100
AcDbEntity
  8
0
  6
HIDDEN
 62
     7
370
     0
100
AcDbLine
 10
195.4822166271
 20
95.5204901669
 30
0.0
 11
195.3893234082
 21
95.6133833858
 31
0.0
  0
ARC
  5
283
330
1F
100
AcDbEntity
  8
0
  6
HIDDEN
 62
     7
370
     0
100
AcDbCircle
 10
194.7751098459
 20
57.3133833858
 30
0.0
 40
1.000000000000008
100
AcDbArc
 50
315.0
 51
0.0
  0
ARC
  5
284
330
1F
100
AcDbEntity
  8
0
  6
HIDDEN
 62
     7
370
     0
100
AcDbCircle
 10
194.7751098459
 20
57.3133833858
 30
0.0
 40
1.000000000000004
100
AcDbArc
 50
0.0
 51
52.1052014664
  0
ARC
  5
285
330
1F
100
AcDbEntity
  8
0
  6
HIDDEN
 62
     7
370
     0
100
AcDbCircle
 10
194.7751098459
 20
94.8133833858
 30
0.0
 40
1.000000000000008
100
AcDbArc
 50
351.8087250651
 51
45.0
  0
ARC
  5
286
330
1F
100
AcDbEntity
  8
0
  6
HIDDEN
 62
     7
370
     0
100
AcDbCircle
 10
194.7751098459
 20
94.8133833858
 30
0.0
 40
0.9999999999999989
100
AcDbArc
 50
307.8947985336
 51
351.8087250651
  0
LINE
  5
287
330
1F
100
AcDbEntity
  8
0
  6
HIDDEN
 62
     7
370
     0
100
AcDbLine
 10
195.7751098459
 20
57.3133833858
 30
0.0
 11
195.7751098459
 21
94.8133833858
 31
0.0
  0
LINE
  5
288
330
1F
100
AcDbEntity
  8
0
  6
HIDDEN
 62
     7
370
     0
100
AcDbLine
 10
195.7751098459
 20
57.3133833858
 30
0.0
 11
195.7751098459
 21
94.8133833858
 31
0.0
  0
LINE
  5
289
330
1F
100
AcDbEntity
  8
0
  6
HIDDEN
 62
     7
370
     0
100
AcDbLine
 10
233.3893234082
 20
102.0633833858
 30
0.0
 11
233.3893234082
 21
114.5211524318
 31
0.0
  0
LINE
  5
28A
330
1F
100
AcDbEntity
  8
0
  6
HIDDEN
 62
     7
370
     0
100
AcDbLine
 10
219.3893234082
 20
114.5164780784
 30
0.0
 11
219.3893234082
 21
102.0633833858
 31
0.0
  0
LINE
  5
28B
330
1F
100
AcDbEntity
  8
0
  6
HIDDEN
 62
     7
370
     0
100
AcDbLine
 10
219.3893234082
 20
50.0633833858
 30
0.0
 11
219.3893234082
 21
37.6056143397
 31
0.0
  0
LINE
  5
28C
330
1F
100
AcDbEntity
  8
0
  6
HIDDEN
 62
     7
370
     0
100
AcDbLine
 10
233.3893234082
 20
37.6094043168
 30
0.0
 11
233.3893234082
 21
50.0633833858
 31
0.0
  0
LINE
  5
28D
330
1F
100
AcDbEntity
  8
0
  6
HIDDEN
 62
     7
370
     0
100
AcDbLine
 10
222.6497382232
 20
102.0633833858
 30
0.0
 11
219.7785438246
 21
80.089609408
 31
0.0
  0
LINE
  5
28E
330
1F
100
AcDbEntity
  8
0
  6
HIDDEN
 62
     7
370
     0
100
AcDbLine
 10
224.8100048509
 20
80.0051073896
 30
0.0
 11
227.692240672
 21
102.0633833858
 31
0.0
  0
LINE
  5
28F
330
1F
100
AcDbEntity
  8
0
  6
HIDDEN
 62
     7
370
     0
100
AcDbLine
 10
227.692240672
 20
50.0633833858
 30
0.0
 11
224.8103685112
 21
72.1188762233
 31
0.0
  0
LINE
  5
290
330
1F
100
AcDbEntity
  8
0
  6
HIDDEN
 62
     7
370
     0
100
AcDbLine
 10
219.7773105433
 20
72.0465958898
 30
0.0
 11
222.6497382232
 21
50.0633833858
 31
0.0
  0
ARC
  5
291
330
1F
100
AcDbEntity
  8
0
  6
HIDDEN
 62
     7
370
     0
100
AcDbCircle
 10
171.8893234082
 20
65.5633833858
 30
0.0
 40
1.5
100
AcDbArc
 50
191.0958032831
 51
270.0
  0
ARC
  5
292
330
1F
100
AcDbEntity
  8
0
  6
HIDDEN
 62
     7
370
     0
100
AcDbCircle
 10
171.8893234082
 20
86.5633833858
 30
0.0
 40
1.5
100
AcDbArc
 50
90.0
 51
168.9041967169
  0
LINE
  5
293
330
1F
100
AcDbEntity
  8
0
  6
HIDDEN
 62
     7
370
     0
100
AcDbLine
 10
171.8893234082
 20
64.0633833858
 30
0.0
 11
172.8960429203
 21
64.0633833858
 31
0.0
  0
LINE
  5
294
330
1F
100
AcDbEntity
  8
0
  6
HIDDEN
 62
     7
370
     0
100
AcDbLine
 10
172.8960429203
 20
88.0633833858
 30
0.0
 11
171.8893234082
 21
88.0633833858
 31
0.0
  0
ARC
  5
295
330
1F
100
AcDbEntity
  8
0
  6
HIDDEN
 62
     7
370
     0
100
AcDbCircle
 10
172.8960429203
 20
65.5633833858
 30
0.0
 40
1.500000000000022
100
AcDbArc
 50
270.0
 51
315.0
  0
ARC
  5
296
330
1F
100
AcDbEntity
  8
0
  6
HIDDEN
 62
     7
370
     0
100
AcDbCircle
 10
172.8960429203
 20
86.5633833858
 30
0.0
 40
1.500000000000022
100
AcDbArc
 50
45.0
 51
90.0
  0
LINE
  5
297
330
1F
100
AcDbEntity
  8
0
  6
HIDDEN
 62
     7
370
     0
100
AcDbLine
 10
165.3893234082
 20
64.2999713173
 30
0.0
 11
166.4173632639
 21
64.8935104047
 31
0.0
  0
LINE
  5
298
330
1F
100
AcDbEntity
  8
0
  6
HIDDEN
 62
     7
370
     0
100
AcDbLine
 10
166.4173632639
 20
87.2332563668
 30
0.0
 11
165.3893234082
 21
87.8267954542
 31
0.0
  0
LINE
  5
299
330
1F
100
AcDbEntity
  8
0
  6
HIDDEN
 62
     7
370
     0
100
AcDbLine
 10
173.9567030921
 20
64.502723214
 30
0.0
 11
175.0173632639
 21
65.5633833858
 31
0.0
  0
LINE
  5
29A
330
1F
100
AcDbEntity
  8
0
  6
HIDDEN
 62
     7
370
     0
100
AcDbLine
 10
175.0173632639
 20
86.5633833858
 30
0.0
 11
173.9567030921
 21
87.6240435575
 31
0.0
  0
LINE
  5
29B
330
1F
100
AcDbEntity
  8
0
  6
HIDDEN
 62
     7
370
     0
100
AcDbLine
 10
166.4173632639
 20
64.8935104047
 30
0.0
 11
168.9173632639
 21
65.5633833858
 31
0.0
  0
LINE
  5
29C
330
1F
100
AcDbEntity
  8
0
  6
HIDDEN
 62
     7
370
     0
100
AcDbLine
 10
168.9173632639
 20
86.5633833858
 30
0.0
 11
166.4173632639
 21
87.2332563668
 31
0.0
  0
LINE
  5
29D
330
1F
100
AcDbEntity
  8
0
  6
HIDDEN
 62
     7
370
     0
100
AcDbLine
 10
170.4173632639
 20
86.8520585203
 30
0.0
 11
169.9173632639
 21
86.5633833858
 31
0.0
  0
LINE
  5
29E
330
1F
100
AcDbEntity
  8
0
  6
HIDDEN
 62
     7
370
     0
100
AcDbLine
 10
169.9173632639
 20
65.5633833858
 30
0.0
 11
170.4173632639
 21
65.2747082512
 31
0.0
  0
LINE
  5
29F
330
1F
100
AcDbEntity
  8
0
  6
HIDDEN
 62
     7
370
     0
100
AcDbLine
 10
168.9173632639
 20
65.5633833858
 30
0.0
 11
169.9173632639
 21
65.5633833858
 31
0.0
  0
LINE
  5
2A0
330
1F
100
AcDbEntity
  8
0
  6
HIDDEN
 62
     7
370
     0
100
AcDbLine
 10
169.9173632639
 20
86.5633833858
 30
0.0
 11
168.9173632639
 21
86.5633833858
 31
0.0
  0
LINE
  5
2A1
330
1F
100
AcDbEntity
  8
0
  6
HIDDEN
 62
     7
370
     0
100
AcDbLine
 10
175.0173632639
 20
65.5633833858
 30
0.0
 11
184.8893234082
 21
65.5633833858
 31
0.0
  0
LINE
  5
2A2
330
1F
100
AcDbEntity
  8
0
  6
HIDDEN
 62
     7
370
     0
100
AcDbLine
 10
184.8893234082
 20
86.5633833858
 30
0.0
 11
175.0173632639
 21
86.5633833858
 31
0.0
  0
ARC
  5
2A3
330
1F
100
AcDbEntity
  8
0
  6
HIDDEN
 62
     7
370
     0
100
AcDbCircle
 10
184.8893234082
 20
66.0633833858
 30
0.0
 40
0.5000000000000142
100
AcDbArc
 50
270.0
 51
0.0
  0
ARC
  5
2A4
330
1F
100
AcDbEntity
  8
0
  6
HIDDEN
 62
     7
370
     0
100
AcDbCircle
 10
184.8893234082
 20
86.0633833858
 30
0.0
 40
0.5
100
AcDbArc
 50
0.0
 51
90.0
  0
LINE
  5
2A5
330
1F
100
AcDbEntity
  8
0
  6
HIDDEN
 62
     7
370
     0
100
AcDbLine
 10
185.3893234082
 20
67.8133833858
 30
0.0
 11
186.3893234082
 21
68.8133833858
 31
0.0
  0
LINE
  5
2A6
330
1F
100
AcDbEntity
  8
0
  6
HIDDEN
 62
     7
370
     0
100
AcDbLine
 10
186.3893234082
 20
83.3133833858
 30
0.0
 11
185.3893234082
 21
84.3133833858
 31
0.0
  0
LINE
  5
2A7
330
1F
100
AcDbEntity
  8
0
  6
HIDDEN
 62
     7
370
     0
100
AcDbLine
 10
186.3893234082
 20
68.8133833858
 30
0.0
 11
210.3893234082
 21
68.8133833858
 31
0.0
  0
LINE
  5
2A8
330
1F
100
AcDbEntity
  8
0
  6
HIDDEN
 62
     7
370
     0
100
AcDbLine
 10
210.3893234082
 20
83.3133833858
 30
0.0
 11
186.3893234082
 21
83.3133833858
 31
0.0
  0
LINE
  5
2A9
330
1F
100
AcDbEntity
  8
0
  6
HIDDEN
 62
     7
370
     0
100
AcDbLine
 10
210.3893234082
 20
68.8133833858
 30
0.0
 11
212.1919052653
 21
71.8133833858
 31
0.0
  0
LINE
  5
2AA
330
1F
100
AcDbEntity
  8
0
  6
HIDDEN
 62
     7
370
     0
100
AcDbLine
 10
212.1919052653
 20
80.3133833858
 30
0.0
 11
210.3893234082
 21
83.3133833858
 31
0.0
  0
LINE
  5
2AB
330
1F
100
AcDbEntity
  8
0
  6
HIDDEN
 62
     7
370
     0
100
AcDbLine
 10
225.3893234082
 20
71.8133833858
 30
0.0
 11
226.9361969039
 21
76.0633833858
 31
0.0
  0
LINE
  5
2AC
330
1F
100
AcDbEntity
  8
0
  6
HIDDEN
 62
     7
370
     0
100
AcDbLine
 10
226.9361969039
 20
76.0633833858
 30
0.0
 11
225.3893234082
 21
80.3133833858
 31
0.0
  0
LINE
  5
2AD
330
1F
100
AcDbEntity
  8
0
  6
HIDDEN
 62
     7
370
     0
100
AcDbLine
 10
224.3133321147
 20
71.8133833858
 30
0.0
 11
225.3893234082
 21
71.8133833858
 31
0.0
  0
LINE
  5
2AE
330
1F
100
AcDbEntity
  8
0
  6
HIDDEN
 62
     7
370
     0
100
AcDbLine
 10
212.1919052653
 20
71.8133833858
 30
0.0
 11
220.2442633566
 21
71.8133833858
 31
0.0
  0
LINE
  5
2AF
330
1F
100
AcDbEntity
  8
0
  6
HIDDEN
 62
     7
370
     0
100
AcDbLine
 10
220.2516410887
 20
80.3133833858
 30
0.0
 11
212.1919052653
 21
80.3133833858
 31
0.0
  0
LINE
  5
2B0
330
1F
100
AcDbEntity
  8
0
  6
HIDDEN
 62
     7
370
     0
100
AcDbLine
 10
225.3893234082
 20
80.3133833858
 30
0.0
 11
224.2929078428
 21
80.3133833858
 31
0.0
  0
LINE
  5
2B1
330
1F
100
AcDbEntity
  8
0
  6
HIDDEN
 62
     7
370
     0
100
AcDbLine
 10
195.1893234082
 20
64.2914388505
 30
0.0
 11
195.1893234082
 21
64.5011091527
 31
0.0
  0
DIMENSION
  5
2B2
330
1F
100
AcDbEntity
  8
VERMASSUNG
100
AcDbDimension
  2
_D_5
 10
253.3893234082
 20
26.0633833858
 30
0.0
 11
224.3893234082
 21
26.0633833858
 31
0.0
 70
   160
  1
<>
 71
     2
 42
-1.0
  3
SLDDIMSTYLE0
100
AcDbAlignedDimension
 13
195.3893234082
 23
51.3633833858
 33
0.0
 14
253.3893234082
 24
36.0758853395
 34
0.0
100
AcDbRotatedDimension
  0
DIMENSION
  5
2BC
330
1F
100
AcDbEntity
  8
VERMASSUNG
100
AcDbDimension
  2
_D_6
 10
253.3893234082
 20
20.0633833858
 30
0.0
 11
209.3893234082
 21
20.0633833858
 31
0.0
 70
   160
  1
<>
 71
     2
 42
-1.0
  3
SLDDIMSTYLE0
100
AcDbAlignedDimension
 13
165.3893234082
 23
60.0700575476
 33
0.0
 14
253.3893234082
 24
36.0758853395
 34
0.0
100
AcDbRotatedDimension
  0
INSERT
  5
2D1
330
1F
100
AcDbEntity
  8
VERMASSUNG
100
AcDbBlockReference
  2
SW_CENTERMARKSYMBOL_0
 10
240.8893234082
 20
101.0633833858
 30
0.0
  0
INSERT
  5
2DD
330
1F
100
AcDbEntity
  8
VERMASSUNG
100
AcDbBlockReference
  2
SW_CENTERMARKSYMBOL_1
 10
240.8893234082
 20
76.0633833858
 30
0.0
  0
INSERT
  5
2E9
330
1F
100
AcDbEntity
  8
VERMASSUNG
100
AcDbBlockReference
  2
SW_CENTERMARKSYMBOL_2
 10
240.8893234082
 20
51.0633833858
 30
0.0
  0
LINE
  5
2EA
330
1F
100
AcDbEntity
  8
VERMASSUNG
  6
CENTERX2
370
     0
100
AcDbLine
 10
162.8715507935
 20
76.0633833858
 30
0.0
 11
256.0885500809
 21
76.0633833858
 31
0.0
  0
LINE
  5
2EB
330
1F
100
AcDbEntity
  8
0
  6
Continuous
 62
     7
370
    15
100
AcDbLine
 10
98.2933118547
 20
45.8133833858
 30
0.0
 11
99.2933118547
 21
46.8133833858
 31
0.0
  0
LINE
  5
2EC
330
1F
100
AcDbEntity
  8
0
  6
Continuous
 62
     7
370
    15
100
AcDbLine
 10
99.2933118547
 20
55.3133833858
 30
0.0
 11
98.2933118547
 21
56.3133833858
 31
0.0
  0
LINE
  5
2ED
330
1F
100
AcDbEntity
  8
0
  6
Continuous
 62
     7
370
    15
100
AcDbLine
 10
98.2933118547
 20
95.8133833858
 30
0.0
 11
99.2933118547
 21
96.8133833858
 31
0.0
  0
LINE
  5
2EE
330
1F
100
AcDbEntity
  8
0
  6
Continuous
 62
     7
370
    15
100
AcDbLine
 10
99.2933118547
 20
105.3133833858
 30
0.0
 11
98.2933118547
 21
106.3133833858
 31
0.0
  0
LINE
  5
2EF
330
1F
100
AcDbEntity
  8
0
  6
Continuous
 62
     7
370
    15
100
AcDbLine
 10
98.2933118547
 20
70.8133833858
 30
0.0
 11
99.2933118547
 21
71.8133833858
 31
0.0
  0
LINE
  5
2F0
330
1F
100
AcDbEntity
  8
0
  6
Continuous
 62
     7
370
    15
100
AcDbLine
 10
99.2933118547
 20
80.3133833858
 30
0.0
 11
98.2933118547
 21
81.3133833858
 31
0.0
  0
ARC
  5
2F1
330
1F
100
AcDbEntity
  8
0
  6
Continuous
 62
     7
370
    15
100
AcDbCircle
 10
88.2933118547
 20
42.1633833858
 30
0.0
 40
5.600000000000018
100
AcDbArc
 50
210.4080863142
 51
232.1167101605
  0
ARC
  5
2F2
330
1F
100
AcDbEntity
  8
0
  6
Continuous
 62
     7
370
    15
100
AcDbCircle
 10
88.2933118547
 20
109.9633833858
 30
0.0
 40
5.600000000000024
100
AcDbArc
 50
127.8832898395
 51
149.5919136858
  0
LINE
  5
2F3
330
1F
100
AcDbEntity
  8
0
  6
Continuous
 62
     7
370
    15
100
AcDbLine
 10
81.2933118547
 20
112.0633833858
 30
0.0
 11
81.2933118547
 21
111.7845255847
 31
0.0
  0
LINE
  5
2F4
330
1F
100
AcDbEntity
  8
0
  6
Continuous
 62
     7
370
    15
100
AcDbLine
 10
81.2933118547
 20
40.3422411868
 30
0.0
 11
81.2933118547
 21
40.0633833858
 31
0.0
  0
LINE
  5
2F5
330
1F
100
AcDbEntity
  8
0
  6
Continuous
 62
     7
370
    15
100
AcDbLine
 10
99.2933118547
 20
46.8133833858
 30
0.0
 11
99.2933118547
 21
55.3133833858
 31
0.0
  0
LINE
  5
2F6
330
1F
100
AcDbEntity
  8
0
  6
Continuous
 62
     7
370
    15
100
AcDbLine
 10
99.2933118547
 20
96.8133833858
 30
0.0
 11
99.2933118547
 21
105.3133833858
 31
0.0
  0
LINE
  5
2F7
330
1F
100
AcDbEntity
  8
0
  6
Continuous
 62
     7
370
    15
100
AcDbLine
 10
99.2933118547
 20
71.8133833858
 30
0.0
 11
99.2933118547
 21
80.3133833858
 31
0.0
  0
ARC
  5
2F8
330
1F
100
AcDbEntity
  8
0
  6
Continuous
 62
     7
370
    15
100
AcDbCircle
 10
86.9915927524
 20
60.3372377525
 30
0.0
 40
22.69456502975187
100
AcDbArc
 50
264.5968506963
 51
272.7376102747
  0
LWPOLYLINE
  5
2F9
330
1F
100
AcDbEntity
  8
0
  6
Continuous
 62
     7
370
    15
100
AcDbPolyline
 90
       15
 70
   128
 43
0.0
 10
87.3150501824
 20
114.2277810269
 10
86.8316791528
 20
114.2408297927
 10
86.2281267242
 20
114.261801418
 10
85.7114785753
 20
114.285638647
 10
85.302886342
 20
114.3113655808
 10
85.0190778384
 20
114.3379289557
 10
84.8716722178
 20
114.364241264
 10
84.8667042837
 20
114.3892252767
 10
85.004377424
 20
114.4118581453
 10
85.2790552841
 20
114.4312132777
 10
85.6794925201
 20
114.4464982723
 10
86.1892951845
 20
114.4570873597
 10
86.7875918964
 20
114.4625470215
 10
87.449888318
 20
114.4626537384
 10
88.0755336295
 20
114.4581936039
  0
LWPOLYLINE
  5
2FA
330
1F
100
AcDbEntity
  8
0
  6
Continuous
 62
     7
370
    15
100
AcDbPolyline
 90
       14
 70
   128
 43
0.0
 10
87.3698606131
 20
114.2449405893
 10
86.9736726129
 20
114.256129995
 10
86.4329893644
 20
114.275852809
 10
85.9819828499
 20
114.2981914842
 10
85.6417416328
 20
114.322101489
 10
85.4281750143
 20
114.3464648181
 10
85.3512691321
 20
114.3701422694
 10
85.4146200198
 20
114.3920267115
 10
85.6152654603
 20
114.4110948523
 10
85.9438234957
 20
114.4264550867
 10
86.3849311176
 20
114.4373891871
 10
86.9179626237
 20
114.4433858872
 10
87.5179940533
 20
114.4441647881
 10
88.0171718018
 20
114.4410939155
  0
LINE
  5
2FB
330
1F
100
AcDbEntity
  8
0
  6
Continuous
 62
     7
370
    15
100
AcDbLine
 10
81.8577160805
 20
112.0633833858
 30
0.0
 11
81.2933118547
 21
112.0633833858
 31
0.0
  0
LINE
  5
2FC
330
1F
100
AcDbEntity
  8
0
  6
Continuous
 62
     7
370
    15
100
AcDbLine
 10
81.2933118547
 20
40.0633833858
 30
0.0
 11
81.8577160805
 21
40.0633833858
 31
0.0
  0
LINE
  5
2FD
330
1F
100
AcDbEntity
  8
0
  6
Continuous
 62
     7
370
    15
100
AcDbLine
 10
124.2933118547
 20
44.8383933938
 30
0.0
 11
124.2933118547
 21
107.2883733777
 31
0.0
  0
ARC
  5
2FE
330
1F
100
AcDbEntity
  8
0
  6
Continuous
 62
     7
370
    15
100
AcDbCircle
 10
99.2933118547
 20
76.0633833858
 30
0.0
 40
40.00000000000001
100
AcDbArc
 50
308.6821874535
 51
51.3178125465
  0
LINE
  5
2FF
330
1F
100
AcDbEntity
  8
0
  6
Continuous
 62
     7
370
    15
100
AcDbLine
 10
79.2933118547
 20
41.4223672344
 30
0.0
 11
79.2933118547
 21
110.7043995371
 31
0.0
  0
LINE
  5
300
330
1F
100
AcDbEntity
  8
0
  6
Continuous
 62
     7
370
    15
100
AcDbLine
 10
98.2933118547
 20
116.050881432
 30
0.0
 11
98.2933118547
 21
36.0758853395
 31
0.0
  0
ARC
  5
301
330
1F
100
AcDbEntity
  8
0
  6
Continuous
 62
     7
370
    15
100
AcDbCircle
 10
99.2933118547
 20
76.0633833858
 30
0.0
 40
40.0
100
AcDbArc
 50
240.0
 51
268.5674562624
  0
ARC
  5
302
330
1F
100
AcDbEntity
  8
0
  6
Continuous
 62
     7
370
    15
100
AcDbCircle
 10
99.2933118547
 20
76.0633833858
 30
0.0
 40
40.00000000000001
100
AcDbArc
 50
91.4325437376
 51
120.0
  0
ARC
  5
303
330
1F
100
AcDbEntity
  8
0
  6
Continuous
 62
     7
370
    15
100
AcDbCircle
 10
99.2933118547
 20
76.0633833858
 30
0.0
 40
40.0
100
AcDbArc
 50
268.5674562624
 51
308.6821874535
  0
ARC
  5
304
330
1F
100
AcDbEntity
  8
0
  6
Continuous
 62
     7
370
    15
100
AcDbCircle
 10
99.2933118547
 20
76.0633833858
 30
0.0
 40
40.00000000000001
100
AcDbArc
 50
51.3178125465
 51
91.4325437376
  0
LINE
  5
305
330
1F
100
AcDbEntity
  8
0
  6
Continuous
 62
     7
370
    15
100
AcDbLine
 10
72.2933118547
 20
105.5760925125
 30
0.0
 11
72.2933118547
 21
46.550674259
 31
0.0
  0
ARC
  5
306
330
1F
100
AcDbEntity
  8
0
  6
Continuous
 62
     7
370
    15
100
AcDbCircle
 10
99.2933118547
 20
76.0633833858
 30
0.0
 40
40.0
100
AcDbArc
 50
227.5458497956
 51
240.0
  0
ARC
  5
307
330
1F
100
AcDbEntity
  8
0
  6
Continuous
 62
     7
370
    15
100
AcDbCircle
 10
99.2933118547
 20
76.0633833858
 30
0.0
 40
40.00000000000001
100
AcDbArc
 50
120.0
 51
132.4541502044
  0
DIMENSION
  5
308
330
1F
100
AcDbEntity
  8
VERMASSUNG
100
AcDbDimension
  2
_D_7
 10
99.2933118547
 20
76.0633833858
 30
0.0
 11
148.4662657819
 21
105.0166732585
 31
0.0
 70
   164
  1
<>
 71
     1
 42
-1.0
  3
SLDDIMSTYLE2
100
AcDbRadialDimension
 15
133.7620942048
 25
96.3587780185
 35
0.0
 40
0.0
  0
INSERT
  5
31D
330
1F
100
AcDbEntity
  8
VERMASSUNG
100
AcDbBlockReference
  2
SW_CENTERMARKSYMBOL_3
 10
99.2933118547
 20
76.0633833858
 30
0.0
  0
OLE2FRAME
  5
31E
330
1F
100
AcDbEntity
  8
0
100
AcDbOle2Frame
 70
     2
  3
Paintbrush-Bild
 10
13.8511154363
 20
38.264191557
 30
0.0
 11
51.6290888628
 21
31.9806341108
 31
0.0
 71
     2
 72
     0
 73
     1
 90
    12928
310
80552BED0767C5B32B40DDAF6807D121434000000000000000006FFBDDFB85D0
310
4940DDAF6807D121434000000000000000006FFBDDFB85D04940416F4BD60AFB
310
3F4000000000000000002BED0767C5B32B40416F4BD60AFB3F40000000000000
310
0000000000000100000000010000010000000100000000000100000000320000
310
D0CF11E0A1B11AE1000000000000000000000000000000003E000300FEFF0900
310
0600000000000000000000000100000001000000000000000010000002000000
310
01000000FEFFFFFF0000000000000000FFFFFFFFFFFFFFFFFFFFFFFFFFFFFFFF
310
FFFFFFFFFFFFFFFFFFFFFFFFFFFFFFFFFFFFFFFFFFFFFFFFFFFFFFFFFFFFFFFF
310
FFFFFFFFFFFFFFFFFFFFFFFFFFFFFFFFFFFFFFFFFFFFFFFFFFFFFFFFFFFFFFFF
310
FFFFFFFFFFFFFFFFFFFFFFFFFFFFFFFFFFFFFFFFFFFFFFFFFFFFFFFFFFFFFFFF
310
FFFFFFFFFFFFFFFFFFFFFFFFFFFFFFFFFFFFFFFFFFFFFFFFFFFFFFFFFFFFFFFF
310
FFFFFFFFFFFFFFFFFFFFFFFFFFFFFFFFFFFFFFFFFFFFFFFFFFFFFFFFFFFFFFFF
310
FFFFFFFFFFFFFFFFFFFFFFFFFFFFFFFFFFFFFFFFFFFFFFFFFFFFFFFFFFFFFFFF
310
FFFFFFFFFFFFFFFFFFFFFFFFFFFFFFFFFFFFFFFFFFFFFFFFFFFFFFFFFFFFFFFF
310
FFFFFFFFFFFFFFFFFFFFFFFFFFFFFFFFFFFFFFFFFFFFFFFFFFFFFFFFFFFFFFFF
310
FFFFFFFFFFFFFFFFFFFFFFFFFFFFFFFFFFFFFFFFFFFFFFFFFFFFFFFFFFFFFFFF
310
FFFFFFFFFFFFFFFFFFFFFFFFFFFFFFFFFFFFFFFFFFFFFFFFFFFFFFFFFFFFFFFF
310
FFFFFFFFFFFFFFFFFFFFFFFFFFFFFFFFFFFFFFFFFFFFFFFFFFFFFFFFFFFFFFFF
310
FFFFFFFFFFFFFFFFFFFFFFFFFFFFFFFFFFFFFFFFFFFFFFFFFFFFFFFFFFFFFFFF
310
FFFFFFFFFFFFFFFFFFFFFFFFFFFFFFFFFFFFFFFFFFFFFFFFFFFFFFFFFFFFFFFF
310
FDFFFFFFFEFFFFFFFEFFFFFFFEFFFFFF05000000060000000700000008000000
310
090000000A0000000B0000000C0000000D0000000E0000000F00000010000000
310
11000000120000001300000014000000150000001600000017000000FEFFFFFF
310
FFFFFFFFFFFFFFFFFFFFFFFFFFFFFFFFFFFFFFFFFFFFFFFFFFFFFFFFFFFFFFFF
310
FFFFFFFFFFFFFFFFFFFFFFFFFFFFFFFFFFFFFFFFFFFFFFFFFFFFFFFFFFFFFFFF
310
FFFFFFFFFFFFFFFFFFFFFFFFFFFFFFFFFFFFFFFFFFFFFFFFFFFFFFFFFFFFFFFF
310
FFFFFFFFFFFFFFFFFFFFFFFFFFFFFFFFFFFFFFFFFFFFFFFFFFFFFFFFFFFFFFFF
310
FFFFFFFFFFFFFFFFFFFFFFFFFFFFFFFFFFFFFFFFFFFFFFFFFFFFFFFFFFFFFFFF
310
FFFFFFFFFFFFFFFFFFFFFFFFFFFFFFFFFFFFFFFFFFFFFFFFFFFFFFFFFFFFFFFF
310
FFFFFFFFFFFFFFFFFFFFFFFFFFFFFFFFFFFFFFFFFFFFFFFFFFFFFFFFFFFFFFFF
310
FFFFFFFFFFFFFFFFFFFFFFFFFFFFFFFFFFFFFFFFFFFFFFFFFFFFFFFFFFFFFFFF
310
FFFFFFFFFFFFFFFFFFFFFFFFFFFFFFFFFFFFFFFFFFFFFFFFFFFFFFFFFFFFFFFF
310
FFFFFFFFFFFFFFFFFFFFFFFFFFFFFFFFFFFFFFFFFFFFFFFFFFFFFFFFFFFFFFFF
310
FFFFFFFFFFFFFFFFFFFFFFFFFFFFFFFFFFFFFFFFFFFFFFFFFFFFFFFFFFFFFFFF
310
FFFFFFFFFFFFFFFFFFFFFFFFFFFFFFFFFFFFFFFFFFFFFFFFFFFFFFFFFFFFFFFF
310
FFFFFFFFFFFFFFFFFFFFFFFFFFFFFFFFFFFFFFFFFFFFFFFFFFFFFFFFFFFFFFFF
310
52006F006F007400200045006E00740072007900000000000000000000000000
310
0000000000000000000000000000000000000000000000000000000000000000
310
16000500FFFFFFFFFFFFFFFF020000000A00030000000000C000000000000046
310
000000000000000000000000D0966D28A7C8D20103000000C000000000000000
310
01004F006C006500000000000000000000000000000000000000000000000000
310
0000000000000000000000000000000000000000000000000000000000000000
310
0A000200FFFFFFFFFFFFFFFFFFFFFFFF00000000000000000000000000000000
310
0000000000000000000000000000000000000000000000001400000000000000
310
010043006F006D0070004F0062006A0000000000000000000000000000000000
310
0000000000000000000000000000000000000000000000000000000000000000
310
120002010100000003000000FFFFFFFF00000000000000000000000000000000
310
0000000000000000000000000000000000000000010000004D00000000000000
310
01004F006C006500310030004E00610074006900760065000000000000000000
310
0000000000000000000000000000000000000000000000000000000000000000
310
1A000200FFFFFFFFFFFFFFFFFFFFFFFF00000000000000000000000000000000
310
0000000000000000000000000000000000000000040000002426000000000000
310
FEFFFFFF02000000FEFFFFFFFFFFFFFFFFFFFFFFFFFFFFFFFFFFFFFFFFFFFFFF
310
FFFFFFFFFFFFFFFFFFFFFFFFFFFFFFFFFFFFFFFFFFFFFFFFFFFFFFFFFFFFFFFF
310
FFFFFFFFFFFFFFFFFFFFFFFFFFFFFFFFFFFFFFFFFFFFFFFFFFFFFFFFFFFFFFFF
310
FFFFFFFFFFFFFFFFFFFFFFFFFFFFFFFFFFFFFFFFFFFFFFFFFFFFFFFFFFFFFFFF
310
FFFFFFFFFFFFFFFFFFFFFFFFFFFFFFFFFFFFFFFFFFFFFFFFFFFFFFFFFFFFFFFF
310
FFFFFFFFFFFFFFFFFFFFFFFFFFFFFFFFFFFFFFFFFFFFFFFFFFFFFFFFFFFFFFFF
310
FFFFFFFFFFFFFFFFFFFFFFFFFFFFFFFFFFFFFFFFFFFFFFFFFFFFFFFFFFFFFFFF
310
FFFFFFFFFFFFFFFFFFFFFFFFFFFFFFFFFFFFFFFFFFFFFFFFFFFFFFFFFFFFFFFF
310
FFFFFFFFFFFFFFFFFFFFFFFFFFFFFFFFFFFFFFFFFFFFFFFFFFFFFFFFFFFFFFFF
310
FFFFFFFFFFFFFFFFFFFFFFFFFFFFFFFFFFFFFFFFFFFFFFFFFFFFFFFFFFFFFFFF
310
FFFFFFFFFFFFFFFFFFFFFFFFFFFFFFFFFFFFFFFFFFFFFFFFFFFFFFFFFFFFFFFF
310
FFFFFFFFFFFFFFFFFFFFFFFFFFFFFFFFFFFFFFFFFFFFFFFFFFFFFFFFFFFFFFFF
310
FFFFFFFFFFFFFFFFFFFFFFFFFFFFFFFFFFFFFFFFFFFFFFFFFFFFFFFFFFFFFFFF
310
FFFFFFFFFFFFFFFFFFFFFFFFFFFFFFFFFFFFFFFFFFFFFFFFFFFFFFFFFFFFFFFF
310
FFFFFFFFFFFFFFFFFFFFFFFFFFFFFFFFFFFFFFFFFFFFFFFFFFFFFFFFFFFFFFFF
310
FFFFFFFFFFFFFFFFFFFFFFFFFFFFFFFFFFFFFFFFFFFFFFFFFFFFFFFFFFFFFFFF
310
0100000200000000000000000000000000000000000000000000000000000000
310
0000000000000000000000000000000000000000000000000000000000000000
310
0100FEFF030A0000FFFFFFFF0A00030000000000C00000000000004607000000
310
5042727573680007000000504272757368000700000050427275736800F439B2
310
7100000000000000000000000000000000000000000000000000000000000000
310
0000000000000000000000000000000000000000000000000000000000000000
310
0000000000000000000000000000000000000000000000000000000000000000
310
0000000000000000000000000000000000000000000000000000000000000000
310
0000000000000000000000000000000000000000000000000000000000000000
310
0000000000000000000000000000000000000000000000000000000000000000
310
0000000000000000000000000000000000000000000000000000000000000000
310
0000000000000000000000000000000000000000000000000000000000000000
310
0000000000000000000000000000000000000000000000000000000000000000
310
0000000000000000000000000000000000000000000000000000000000000000
310
0000000000000000000000000000000000000000000000000000000000000000
310
0000000000000000000000000000000000000000000000000000000000000000
310
20260000424D0E260000000000003E00000028000000B40200006E0000000100
310
01000000000000000000130B0000130B00000200000002000000000000FFFFFF
310
FFFFFFFFFFFFFFFFFFFFFFFFFFFFFFFFFFFFFFFFFFFFFFFFFFFFFFFFFFFFFFFF
310
FFFFFFFFFFFFFFFFFFFFFFFFFFFFFFFFFFFFFFFFFFFFFFFFFFFFFFFFFFFFFFFF
310
FFFFFFFFFFFFFFFFFFFFFFFFFFFFFFFFFFFFFFFFFFFFFFFFF000FFFFFFFFFFFF
310
FFFFFFFFFFFFFFFFFFFFFFFFFFFFFFFFFFFFFFFFFFFFFFFFFFFFFFFFFFFFFFFF
310
FFFFFFFFFFFFFFFFFFFFFFFFFFFFFFFFFFFFFFFFFFFFFFFFFFFFFFFFFFFFFFFF
310
FFFFFFFFFFFFFFFFFFFFFFFFFFFFFFFFF000FFFFFFFFFFFFFFFFFFFFFFFFFFFF
310
FFFFFFFFFFFFFFFFFFFFFFFFFFFFFFFFFFFFFFFFFFFFFFFFFFFFFFFFFFFFFFFF
310
FFFFFFFFFFFFFFFFFFFFFFFFFFFFFFFFFFFFFFFFFFFFFFFFFFFFFFFFFFFFFFFF
310
FFFFFFFFFFFFFFFFF000FFFFFFFFFFFFFFFFFFFFFFFFFFFFFFFFFFFFFFFFFFFF
310
FFFFFFFFFFFFFFFFFFFFFFFFFFFFFFFFFFFFFFFFFFFFFFFFFFFFFFFFFFFFFFFF
310
FFFFFFFFFFFFFFFFFFFFFFFFFFFFFFFFFFFFFFFFFFFFFFFFFFFFFFFFFFFFFFFF
310
F000FFFFFFFFFFFFFFFFFFFFFFFFFFFFFFFFFFFFFFFFFFFFFFFFFFFFFFFFFFFF
310
FFFFFFFFFFFFFFFFFFFFFFFFFFFFFFFFFFFFFFFFFFFFFFFFFFFFFFFFFFFFFFFF
310
FFFFFFFFFFFFFFFFFFFFFFFFFFFFFFFFFFFFFFFFFFFFFFFFF000FFFFFFFFFFFF
310
FFFFFFFFFFFFFFFFFFFFFFFFFFFFFFFFFFFFFFFFFFFFFFFFFFFFFFFFFFFFFFFF
310
FFFFFFFFFFFFFFFFFFFFFFFFFFFFFFFFFFFFFFFFFFFFFFFFFFFFFFFFFFFFFFFF
310
FFFFFFFFFFFFFFFFFFFFFFFFFFFFFFFFF000FFFFFFFFFFFFFFFFFFFFFFFFFFFF
310
FFFFFFFFFFFFFFFFFFFFFFFFFFFFFFFFFFFFFFFFFFFFFFFFFFFFFFFFFFFFFFFF
310
FFFFFFFFFFFFFFFFFFFFFFFFFFFFFFFFFFFFFFFFFFFFFFFFFFFFFFFFFFFFFFFF
310
FFFFFFFFFFFFFFFFF000FFFFFFFFFFFFFFFFFFFFFFFFFFFFFFFFFFFFFFFFFFFF
310
FFFFFFFFFFFFFFFFFFFFFFFFFFFFFFFFFFFFFFFFFFFFFFFFFFFFFFFFFFFFFFFF
310
FFFFFFFFFFFFFFFFFFFFFFFFFFFFFFFFFFFFFFFFFFFFFFFFFFFFFFFFFFFFFFFF
310
F000FFFFFFFFFFFFFFFFFFFFFFFFFFFFFFFFFFFFFFFFFFFFFFFFFFFFFFFFFFFF
310
FFFFFFFFFFFFFFFFFFFFFFFFFFFFFFFFFFFFFFFFFFFFFFFFFFFFFFFFFFFFFFFF
310
FFFFFFFFFFFFFFFFFFFFFFFFFFFFFFFFFFFFFFFFFFFFFFFFF000FFFFFFFFFFFF
310
FFFFFFFFFFFFFFFFFFFFFFFFFFFFFFFFFFFFFFFFFFFFFFFFFFFFFFFFFFFFFFFF
310
FFFFFFFFFFFFFFFFFFFFFFFFFFFFFFFFFFFFFFFFFFFFFFFFFFFFFFFFFFFFFFFF
310
FFFFFFFFFFFFFFFFFFFFFFFFFFFFFFFFF000FFFFFFFFFFFFFFFFFFFFFFFFFFFF
310
FFFFFFFFFFFFFFFFFFFFFFFFFFFFFFFFFFFFFFFFFFFFFFFFFFFFFFFFFFFFFFFF
310
FFFFFFFFFFFFFFFFFFFFFFFFFFFFFFFFFFFFFFFFFFFFFFFFFFFFFFFFFFFFFFFF
310
FFFFFFFFFFFFFFFFF000FFFFFFFFFFFFFFFFFFFFFFFFFFFFFFFFFFFFFFFFFFFF
310
FFFFFFFFFFFFFFFFFFFFFFFFFFFFFFFFFFFFFFFFFFFFFFFFFFFFFFFFFFFFFFFF
310
FFFFFFFFFFFFFFFFFFFFFFFFFFFFFFFFFFFFFFFFFFFFFFFFFFFFFFFFFFFFFFFF
310
F000FFFFFFFFFFFFFFFFFFFFFFFFFFFFFFFFFFFFFFFFFFFFFFFFFFFFFFFFFFFF
310
FFFFFFFFFFFFFFFFFFFFFFFFFFFFFFFFFFFFFFFFFFFFFFFFFFFFFFFFFFFFFFFF
310
FFFFFFFFFFFFFFFFFFFFFFFFFFFFFFFFFFFFFFFFFFFFFFFFF000FFFFFFFFFFFF
310
FFFFFFFFFFFFFFFFFFFFFFFFFFFFFFFFFFFFFFFFFFFFFFFFFFFFFFFFFFFFFFFF
310
FFFFFFFFFFFFFFFFFFFFFFFFFFFFFFFFFFFFFFFFFFFFFFFFFFFFFFFFFFFFFFFF
310
FFFFFFFFFFFFFFFFFFFFFFFFFFFFFFFFF000FFFFFFFFFFFFFFFFFFFFFFFFFFFF
310
FFFFFFFFFFFFFFFFFFFFFFFFFFFFFFFFFFFFFFFFFFFFFFFFFFFFFFFFFFFFFFFF
310
FFFFFFFFFFFFFFFFFFFFFFFFFFFFFFFFFFFFFFFFFFFFFFFFFFFFFFFFFFFFFFFF
310
FFFFFFFFFFFFFFFFF000FFFFFFFFFFFFFFFFFFFFFFFFFFFFFFFFFFFFFFFFFFFF
310
FFFFFFFFFFFFFFFFFFFFFFFFFFFFFFFFFFFFFFFFFFFFFFFFFFFFFFFFFFFFFFFF
310
FFFFFFFFFFFFFFFFFFFFFFFFFFFFFFFFFFFFFFFFFFFFFFFFFFFFFFFFFFFFFFFF
310
F000FFFFFFFFFFFFFFFFFFFFFFFFFFFFFFFFFFFFFFFFFFFFFFFFFFFFFFFFFFFF
310
FFFFFFFFFFFFFFFFFFFFFFFFFFFFFFFFFFFFFFFFFFFFFFFFFFFFFFFFFFFFFFFF
310
FFFFFFFFFFFFFFFFFFFFFFFFFFFFFFFFFFFFFFFFFFFFFFFFF000FFFFFFFFFFFF
310
FFFFFFFFFFFFFFFFFFFFFFFFFFFFFFFFFFFFFFFFFFFFFFFFFFFFFFFFFFFFFFFF
310
FFFFFFFFFFFFFFFFFFFFFFFFFFFFFFFFFFFFFFFFFFFFFFFFFFFFFFFFFFFFFFFF
310
FFFFFFFFFFFFFFFFFFFFFFFFFFFFFFFFF000FFFFFFFFFFFFFFFFFFFFFFFFFFFF
310
FFFFFFFFFFFFFFFFFFFFFFFFFFFFFFFFFFFFFFFFFFFFFFFFFFFFFFFFFFFFFFFF
310
FFFFFFFFFFFFFFFFFFFFFFFFFFFFFFFFFFFFFFFFFFFFFFFFFFFFFFFFFFFFFFFF
310
FFFFFFFFFFFFFFFFF000FFFFF80003FFFFFFFFFFFFFFFFFFFFFFFFFFFFFFFFFF
310
FFFFF00007FFFFFFFFFF00007FFFFFF800000000000000007FFFFFFFFFFFFFFF
310
FFFFFFFC001FFFFFFFFFFFFFFC001FFFFFFFFFFFFFFFFFFFFFFFFFFE0007FFFF
310
F000FFFF8000007FFFFFFFF8000FFFFFC0007FFFFF80007FFFFF0000007FFFFF
310
FFF8000007FFFFF800000000000000007FFFFFF0001FFFFFFFFFFFC00001FFFF
310
FFFFFFFFC00001FFFFFFFF000000000003FFFFE000007FFFF000FFFE0000000F
310
FFFFFFF0000FFFFF80007FFFFF80007FFFFC0000001FFFFFFFC0000001FFFFF8
310
00000000000000007FFFFFF0001FFFFFFFFFFE0000003FFFFFFFFFFE0000003F
310
FFFFFF000000000003FFFF0000000FFFF000FFF800000003FFFFFFF00007FFFF
310
80007FFFFF80007FFFF000000007FFFFFF000000003FFFF80000000000000000
310
7FFFFFF0001FFFFFFFFFF80000000FFFFFFFFFF80000000FFFFFFF0000000000
310
03FFFC00000003FFF000FFE000000000FFFFFFF00007FFFF80003FFFFF80007F
310
FFC000000001FFFFFC000000001FFFF800000000000000007FFFFFF0001FFFFF
310
FFFFE000000003FFFFFFFFE000000003FFFFFF000000000003FFF000000000FF
310
F000FF80000000007FFFFFF00007FFFF80003FFFFF80007FFF8000000000FFFF
310
F80000000007FFF800000000000000007FFFFFF0001FFFFFFFFFC000000001FF
310
FFFFFFC000000001FFFFFF000000000003FFC0000000007FF000FF0000000000
310
3FFFFFE00007FFFF00003FFFFF80007FFE00000000003FFFF00000000003FFF8
310
00000000000000007FFFFFF0001FFFFFFFFF8000000000FFFFFFFF8000000000
310
FFFFFF000000000003FF80000000003FF000FE00000000001FFFFFE00003FFFF
310
00003FFFFF80007FFC00000000001FFFE00000000001FFF8000001FFFE000000
310
7FFFFFF0001FFFFFFFFE00000000003FFFFFFE00000000003FFFFF0000000000
310
03FF00000000001FF000FC00000000000FFFFFE00003FFFF00001FFFFF80007F
310
F800000000001FFFC00000000000FFF8000001FFFE0000007FFFFFF0001FFFFF
310
FFFC00000000001FFFFFFC00000000001FFFFF000000000003FE00000000000F
310
F000F8000000000007FFFFE00003FFFF00001FFFFF80007FF800000000000FFF
310
800000000000FFF8000001FFFE0000007FFFFFF0001FFFFFFFF800000000000F
310
FFFFF800000000000FFFFF000000000003FC000000000007F000F80000000000
310
03FFFFC00003FFFE00001FFFFF80007FF0000000000007FF0000000000007FF8
310
000001FFFE0000007FFFFFF0001FFFFFFFF0000000000007FFFFF00000000000
310
07FFFF000000000003F8000000000003F000F0000000000003FFFFC00001FFFE
310
00001FFFFF80007FE0000000000007FE0000000000003FF8000001FFFE000000
310
7FFFFFF0001FFFFFFFF0000000000007FFFFF0000000000007FFFF0000000000
310
03F800001F800003F000E00001FFF00001FFFFC00001FFFE00000FFFFF80007F
310
E00001FFE00003FE00001FFF00003FF8000001FFFE0000007FFFFFF0001FFFFF
310
FFE000003E000003FFFFE000003E000003FFFF000000000003F00001FFF80001
310
F000E00007FFFC0001FFFFC00001FFFE00000FFFFF80007FC0000FFFFC0003FC
310
0000FFFFC0001FF8000001FFFE0000007FFFFFF0001FFFFFFFC00003FFE00001
310
FFFFC00003FFE00001FFFF0001FFFFFFFFF00007FFFE0001F000E0000FFFFF00
310
00FFFF800001FFFC00000FFFFF80007FC0001FFFFE0001FC0001FFFFE0001FF8
310
000001FFFE0000007FFFFFF0001FFFFFFF80000FFFF80000FFFF80000FFFF800
310
00FFFF0003FFFFFFFFE0000FFFFF8000F000C0003FFFFF8000FFFF800000FFFC
310
000007FFFF80007F80003FFFFF0001FC0003FFFFF0001FF8000001FFFE000000
310
7FFFFFF0001FFFFFFF80003FFFFE0000FFFF80003FFFFE0000FFFF0003FFFFFF
310
FFE0003FFFFF8000F000C0003FFFFF8000FFFF800000FFFC000007FFFF80007F
310
80007FFFFF8001F80007FFFFF8000FF8000001FFFE0000007FFFFFF0001FFFFF
310
FF00007FFFFF00007FFF00007FFFFF00007FFF0003FFFFFFFFE0003FFFFFC000
310
F000C0007FFFFFC000FFFF000000FFFC000007FFFF80007F8000FFFFFF8000F8
310
000FFFFFF8000FF8000001FFFE0000007FFFFFF0001FFFFFFF0000FFFFFF8000
310
7FFF0000FFFFFF80007FFF0003FFFFFFFFC0007FFFFFC00070008000FFFFFFC0
310
00FFFF000000FFF8000007FFFF80007F8000FFFFFF8000F8000FFFFFF8000FF8
310
000001FFFE0000007FFFFFF0001FFFFFFE0001FFFFFFC0003FFE0001FFFFFFC0
310
003FFF0003FFFFFFFFC0007FFFFFE00070008000FFFFFFC0007FFF0000007FF8
310
000003FFFF80007F0001FFFFFF8000F8000FFFFFF8000FF8000001FFFE000000
310
7FFFFFF0001FFFFFFE0001FFFFFFC0003FFE0001FFFFFFC0003FFF0003FFFFFF
310
FFC000FFFFFFE00070008000FFFFFFC0007FFF0000007FF8000003FFFF80007F
310
0001FFFFFF8000F8001FFFFFF8000FF8000001FFFE0000007FFFFFF0001FFFFF
310
FE0003FFFFFFE0003FFE0003FFFFFFE0003FFF0003FFFFFFFFC000FFFFFFE000
310
70008000FFFFFFC0007FFE0000007FF8000003FFFF80007F0001FFFFFF8000F0
310
001FFFFFF8000FF8000001FFFE0000007FFFFFF0001FFFFFFC0003FFFFFFE000
310
1FFC0003FFFFFFE0001FFF0003FFFFFFFFC000FFFFFFC00070008000FFFFFF80
310
007FFE0000007FF0000003FFFF80007F0001FFFFFF0000F0001FFFFFF8000FF8
310
000001FFFE0000007FFFFFF0001FFFFFFC0007FFFFFFF0001FFC0007FFFFFFF0
310
001FFF0003FFFFFFFFC000FFFFFFC00070008001FFFFFF0000FFFE0000003FF0
310
000001FFFF80007F0001FFFFFF0000F8001FFFFFF0000FF8000001FFFE000000
310
7FFFFFF0001FFFFFFC0007FFFFFFF0001FFC0007FFFFFFF0001FFF0003FFFFFF
310
FFC001FFFFFF80007000FFFFFFFFFE0000FFFE0008003FF0008001FFFF80007F
310
FFFFFFFFFC0000FFFFFFFFFFE0000FF8000001FFFE0000007FFFFFF0001FFFFF
310
F8000FFFFFFFF8000FF8000FFFFFFFF8000FFF0003FFFFFFFFFFFFFFFFFF0000
310
7000FFFFFFFFFC0000FFFC0008003FF0008001FFFF80007FFFFFFFFFF80001FF
310
FFFFFFFF80000FF8000001FFFE0000007FFFFFF0001FFFFFF8000FFFFFFFF800
310
0FF8000FFFFFFFF8000FFF0003FFFFFFFFFFFFFFFFFE0000F000FFFFFFFFE000
310
00FFFC000C003FE000C001FFFF80007FFFFFFFFFC00001FFFFFFFFFE00001FF8
310
000001FFFE0000007FFFFFF0001FFFFFF8000FFFFFFFF8000FF8000FFFFFFFF8
310
000FFF0003FFFFFFFFFFFFFFFFF00000F000FFFFFFFE000001FFFC000C001FE0
310
00C000FFFF80007FFFFFFFFE000001FFFFFFFFE000001FF80FFFFFFFFFFFFFC0
310
7FFFFFF0001FFFFFF8000FFFFFFFF8000FF8000FFFFFFFF8000FFF0003FFFFFF
310
FFFFFFFFFF800000F000FFFFFFC0000001FFFC001C001FE001C000FFFF80007F
310
FFFFFF80000003FFFFFFF80000001FF80FFFFFFFFFFFFFC07FFFFFF0001FFFFF
310
F8001FFFFFFFFC000FF8001FFFFFFFFC000FFF0003FFFFFFFFFFFFFFF0000001
310
F000FFFFF800000001FFF8001C001FE001C000FFFF80007FFFFFF800000003FF
310
FFFF800000003FF80FFFFFFFFFFFFFC07FFFFFF0001FFFFFF8001FFFFFFFFC00
310
0FF8001FFFFFFFFC000FFF0003FFFFFFFFFFFFFE00000001F000FFFFC0000000
310
03FFF8001E001FC001E000FFFF80007FFFFF8000000007FFFFFC000000003FF8
310
0FFFFFFFFFFFFFC07FFFFFF0001FFFFFF8001FFFFFFFFC000FF8001FFFFFFFFC
310
000FFF0003FFFFFFFFFFFFE000000003F000FFFE0000000007FFF8001E000FC0
310
01E0007FFF80007FFFFE0000000007FFFFE0000000007FF80FFFFFFFFFFFFFC0
310
7FFFFFF0001FFFFFF0001FFFFFFFFC0007F0001FFFFFFFFC0007FF0003FFFFFF
310
FFFFFF0000000003F000FFF80000000007FFF8001E000FC003E0007FFF80007F
310
FFF0000000000FFFFF8000000000FFF80FFFFFFFFFFFFFC07FFFFFF0001FFFFF
310
F0001FFFFFFFFC0007F0001FFFFFFFFC0007FF0003FFFFFFFFFFFC0000000007
310
F000FFE0000000000FFFF0003E000FC003E0007FFF80007FFFC0000000001FFF
310
FE0000000001FFF80FFFFFFFFFFFFFC07FFFFFF0001FFFFFF0001FFFFFFFFC00
310
07F0001FFFFFFFFC0007FF0003FFFFFFFFFFF0000000000FF000FFC000000000
310
1FFFF0003F000F8003F0003FFF80007FFF80000000003FFFF80000000003FFF8
310
0FFFFFFFFFFFFFC07FFFFFF0001FFFFFF0001FFFFFFFFC0007F0001FFFFFFFFC
310
0007FF0003FFFFFFFFFFE0000000001FF000FF00000000007FFFF0003F000780
310
03F0003FFF80007FFF00000000007FFFF00000000007FFF80FFFFFFFFFFFFFC0
310
7FFFFFF0001FFFFFF0001FFFFFFFFC0007F0001FFFFFFFFC0007FF0003FFFFFF
310
FFFF80000000007FF000FE0000000000FFFFE0003F00078007F0003FFF80007F
310
FE0000000001FFFFE0000000001FFFF80FFFFFFFFFFFFFC07FFFFFF0001FFFFF
310
F0001FFFFFFFFC0007F0001FFFFFFFFC0007FF0003FFFFFFFFFF0000000000FF
310
F000FC0000000003FFFFE0007F00078007F0003FFF80007FFC0000000007FFFF
310
C0000000007FFFF80FFFFFFFFFFFFFC07FFFFFF0001FFFFFF8001FFFFFFFFC00
310
0FF8001FFFFFFFFC000FFF0003FFFFFFFFFE0000000003FFF000FC000000000F
310
FFFFE0007F80070007F8001FFF80007FF8000000001FFFFF8000000001FFFFF8
310
0FFFFFFFFFFFFFC07FFFFFF0001FFFFFF8001FFFFFFFFC000FF8001FFFFFFFFC
310
000FFF0003FFFFFFFFFC000000000FFFF000F8000000007FFFFFE0007F800700
310
07F8001FFF80007FF000000000FFFFFF800000000FFFFFF80FFFFFFFFFFFFFC0
310
7FFFFFF0001FFFFFF8000FFFFFFFF8000FF8000FFFFFFFF8000FFF0003FFFFFF
310
FFFC000000007FFFF000F800000007FFFFFFC0007F8003000FF8001FFF80007F
310
F000000007FFFFFF000000007FFFFFF80FFFFFFFFFFFFFC07FFFFFF0001FFFFF
310
F8000FFFFFFFF8000FF8000FFFFFFFF8000FFF0003FFFFFFFFF80000000FFFFF
310
F000F0000000FFFFFFFFC000FF8003000FF8001FFF80007FE0000000FFFFFFFF
310
0000000FFFFFFFF8000001FFFE0000007FFFFFF0001FFFFFF8000FFFFFFFF800
310
0FF8000FFFFFFFF8000FFF0003FFFFFFFFF8000000FFFFFFF000F000000FFFFF
310
FFFFC000FFC002000FF8000FFF80007FE000001FFFFFFFFE000001FFFFFFFFF8
310
000001FFFE0000007FFFFFF0001FFFFFF8000FFFFFFFF8000FF8000FFFFFFFF8
310
000FFF0003FFFFFFFFF000001FFFFFFFF000E00000FFFFFFFFFFC000FFC00200
310
0FFC000FFF80007FE00001FFFFFFFFFE00001FFFFFFFFFF8000001FFFE000000
310
7FFFFFF0001FFFFFFC000FFFFFFFF8001FFC000FFFFFFFF8001FFF0003FFFFFF
310
FFF00001FFFFFFFFF000E00007FFFFFFFFFF8000FFC000001FFC000FFF80007F
310
C0000FFFFFFFFFFE0000FFFFFFFFFFF8000001FFFE0000007FFFFFF0001FFFFF
310
FC0007FFFFFFF0001FFC0007FFFFFFF0001FFF0003FFFFFFFFF00007FFFFFFFF
310
F000E0001FFFFFFFFFFF8000FFC000001FFC000FFF80007FC0003FFFFFFFFFFE
310
0001FFFFFFFFFFF8000001FFFE0000007FFFFFF0001FFFFFFC0007FFFFFFF000
310
1FFC0007FFFFFFF0001FFF0003FFFFFFFFF0001FFFFFFFFFF000E0003FFFFF00
310
03FF8001FFE000001FFC0007FF80007FC0007FFFFF0007FC0003FFFFF0003FF8
310
000001FFFE0000007FFFFFF0001FFFFFFC0003FFFFFFE0001FFC0003FFFFFFE0
310
001FFF0003FFFFFFFFF0003FFFFFFFFFF000E0003FFFFF0001FF8001FFE00000
310
1FFE0007FF80007FC0007FFFFE0003FC0007FFFFE0003FF8000001FFFE000000
310
7FFFFFF0001FFFFFFE0003FFFFFFE0003FFE0003FFFFFFE0003FFF0003FFFFFF
310
FFF0003FFFFF8001F000E0003FFFFF0001FF0001FFE000001FFE0007FF80007F
310
C0007FFFFE0003FC0007FFFFE0003FF8000001FFFE0000007FFFFFF0001FFFFF
310
FE0001FFFFFFC0003FFE0001FFFFFFC0003FFF0003FFFFFFFFF0003FFFFF0001
310
F000E0003FFFFF0003FF0001FFE000003FFE0007FF80007FC0007FFFFE0003FC
310
0007FFFFE0003FF8000001FFFE0000007FFFFFF0001FFFFFFF0001FFFFFFC000
310
7FFF0001FFFFFFC0007FFF0003FFFFFFFFF0003FFFFF0001F000E0003FFFFE00
310
03FF0003FFF000003FFE0003FF80007FC0007FFFFC0003FE0007FFFFE0003FF8
310
000001FFFE0000007FFFFFF0001FFFFFFF0000FFFFFF80007FFF0000FFFFFF80
310
007FFF0003FFFFFFFFF0003FFFFF0001F000E0003FFFFE0003FF0003FFF00000
310
3FFF0003FF80007FC0007FFFFC0007FE0007FFFFC0003FF8000001FFFE000000
310
7FFFFFF0001FFFFFFF80007FFFFF0000FFFF80007FFFFF0000FFFF0003FFFFFF
310
FFF0003FFFFF0003F000E0003FFFFC0003FE0003FFF000003FFF0003FF80007F
310
E0003FFFF80007FE0003FFFFC0007FF8000001FFFE0000007FFFFFF0001FFFFF
310
FF80003FFFFE0000FFFF80003FFFFE0000FFFF0003FFFFFFFFF0001FFFFE0003
310
F000F0001FFFF80003FE0003FFF000007FFF0001FF80007FE0003FFFF00007FE
310
0001FFFF80007FF8000001FFFE0000007FFFFFF0001FFFFFFFC0000FFFF80001
310
FFFFC0000FFFF80001FFFF0003FFFFFFFFF0001FFFFC0003F000F0000FFFF000
310
07FE0007FFF800007FFF0001FF80007FE0001FFFE00007FF0000FFFE00007FF8
310
000001FFFE0000007FFFFFF0001FFFFFFFC00003FFE00001FFFFC00003FFE000
310
01FFFF0003FFFFFFFFF8000FFFF80003F000F00003FFC00007FC0007FFF80000
310
7FFF8001FF80007FF00007FF80000FFF00007FF80000FFF8000001FFFE000000
310
7F80000000000001FFE000003E000003FFFFE000003E000003FFFF0003FFFFFF
310
FFF80003FFE00007F000F800000000000FFC0007FFF800007FFF8001FF80007F
310
F000000000000FFF000000000000FFF8000001FFFE0000007F80000000000001
310
FFF0000000000007FFFFF0000000000007FFFF0003FFFFFFFFFC00007E000007
310
F000F800000000000FFC0007FFF80000FFFF8000FF80007FF800000000001FFF
310
800000000001FFF8000001FFFE0000007F80000000000001FFF800000000000F
310
FFFFF800000000000FFFFF0003FFFFFFFFFC00000000000FF000FC0000000000
310
1FFC0007FFFC0000FFFF8000FF80007FF800000000003FFFC00000000001FFF8
310
000001FFFE0000007F80000000000001FFF800000000000FFFFFF80000000000
310
0FFFFF0003FFFFFFFFFE00000000001FF000FE00000000003FF8000FFFFC0000
310
FFFF8000FF80007FFC00000000003FFFC00000000003FFF8000001FFFE000000
310
7F80000000000001FFFC00000000001FFFFFFC00000000001FFFFF0003FFFFFF
310
FFFF00000000001FF000FF00000000003FF8000FFFFC0000FFFFC000FF80007F
310
FE00000000007FFFE00000000007FFF8000001FFFE0000007F80000000000001
310
FFFE00000000003FFFFFFE00000000003FFFFF0003FFFFFFFFFF80000000003F
310
F000FF80000000007FF8000FFFFC0001FFFFC0007F80007FFF0000000000FFFF
310
F0000000000FFFF800000000000000007F80000000000001FFFF8000000000FF
310
FFFFFF8000000000FFFFFF0003FFFFFFFFFFC0000000007FF000FFC000000000
310
FFF8000FFFFE0001FFFFC0007F80007FFF8000000001FFFFF8000000001FFFF8
310
00000000000000007F80000000000001FFFFC000000001FFFFFFFFC000000001
310
FFFFFF0003FFFFFFFFFFE000000000FFF000FFE000000003FFF0001FFFFE0001
310
FFFFC0007F80007FFFC000000007FFFFFE000000003FFFF80000000000000000
310
7F80000000000001FFFFE000000003FFFFFFFFE000000003FFFFFF0003FFFFFF
310
FFFFF000000003FFF000FFF80000000FFFF0001FFFFE0001FFFFE0007F80007F
310
FFF00000000FFFFFFF00000000FFFFF800000000000000007F80000000000001
310
FFFFF80000000FFFFFFFFFF80000000FFFFFFF0003FFFFFFFFFFFC0000000FFF
310
F000FFFE0000003FFFF0001FFFFE0003FFFFE0003F80007FFFFC0000003FFFFF
310
FFC0000003FFFFF800000000000000007F80000000000001FFFFFE0000003FFF
310
FFFFFFFE0000003FFFFFFF0003FFFFFFFFFFFF0000003FFFF000FFFF800000FF
310
FFF0001FFFFF0003FFFFE0003F80007FFFFF000001FFFFFFFFF800001FFFFFF8
310
00000000000000007F80000000000001FFFFFFC00001FFFFFFFFFFFFC00001FF
310
FFFFFF0003FFFFFFFFFFFFC00000FFFFF000FFFFF8000FFFFFFFFFFFFFFFFFFF
310
FFFFFFFFFFFFFFFFFFFFF0001FFFFFFFFFFF0000FFFFFFF80000000000000000
310
7FFFFFFFFFFFFFFFFFFFFFFC001FFFFFFFFFFFFFFC001FFFFFFFFFFFFFFFFFFF
310
FFFFFFFC001FFFFFF000FFFFFFFFFFFFFFFFFFFFFFFFFFFFFFFFFFFFFFFFFFFF
310
FFFFFFFFFFFFFFFFFFFFFFFFFFFFFFFFFFFFFFFFFFFFFFFFFFFFFFFFFFFFFFFF
310
FFFFFFFFFFFFFFFFFFFFFFFFFFFFFFFFFFFFFFFFFFFFFFFFFFFFFFFFFFFFFFFF
310
F000FFFFFFFFFFFFFFFFFFFFFFFFFFFFFFFFFFFFFFFFFFFFFFFFFFFFFFFFFFFF
310
FFFFFFFFFFFFFFFFFFFFFFFFFFFFFFFFFFFFFFFFFFFFFFFFFFFFFFFFFFFFFFFF
310
FFFFFFFFFFFFFFFFFFFFFFFFFFFFFFFFFFFFFFFFFFFFFFFFF000FFFFFFFFFFFF
310
FFFFFFFFFFFFFFFFFFFFFFFFFFFFFFFFFFFFFFFFFFFFFFFFFFFFFFFFFFFFFFFF
310
FFFFFFFFFFFFFFFFFFFFFFFFFFFFFFFFFFFFFFFFFFFFFFFFFFFFFFFFFFFFFFFF
310
FFFFFFFFFFFFFFFFFFFFFFFFFFFFFFFFF000FFFFFFFFFFFFFFFFFFFFFFFFFFFF
310
FFFFFFFFFFFFFFFFFFFFFFFFFFFFFFFFFFFFFFFFFFFFFFFFFFFFFFFFFFFFFFFF
310
FFFFFFFFFFFFFFFFFFFFFFFFFFFFFFFFFFFFFFFFFFFFFFFFFFFFFFFFFFFFFFFF
310
FFFFFFFFFFFFFFFFF000FFFFFFFFFFFFFFFFFFFFFFFFFFFFFFFFFFFFFFFFFFFF
310
FFFFFFFFFFFFFFFFFFFFFFFFFFFFFFFFFFFFFFFFFFFFFFFFFFFFFFFFFFFFFFFF
310
FFFFFFFFFFFFFFFFFFFFFFFFFFFFFFFFFFFFFFFFFFFFFFFFFFFFFFFFFFFFFFFF
310
F000FFFFFFFFFFFFFFFFFFFFFFFFFFFFFFFFFFFFFFFFFFFFFFFFFFFFFFFFFFFF
310
FFFFFFFFFFFFFFFFFFFFFFFFFFFFFFFFFFFFFFFFFFFFFFFFFFFFFFFFFFFFFFFF
310
FFFFFFFFFFFFFFFFFFFFFFFFFFFFFFFFFFFFFFFFFFFFFFFFF000FFFFFFFFFFFF
310
FFFFFFFFFFFFFFFFFFFFFFFFFFFFFFFFFFFFFFFFFFFFFFFFFFFFFFFFFFFFFFFF
310
FFFFFFFFFFFFFFFFFFFFFFFFFFFFFFFFFFFFFFFFFFFFFFFFFFFFFFFFFFFFFFFF
310
FFFFFFFFFFFFFFFFFFFFFFFFFFFFFFFFF000FFFFFFFFFFFFFFFFFFFFFFFFFFFF
310
FFFFFFFFFFFFFFFFFFFFFFFFFFFFFFFFFFFFFFFFFFFFFFFFFFFFFFFFFFFFFFFF
310
FFFFFFFFFFFFFFFFFFFFFFFFFFFFFFFFFFFFFFFFFFFFFFFFFFFFFFFFFFFFFFFF
310
FFFFFFFFFFFFFFFFF000FFFFFFFFFFFFFFFFFFFFFFFFFFFFFFFFFFFFFFFFFFFF
310
FFFFFFFFFFFFFFFFFFFFFFFFFFFFFFFFFFFFFFFFFFFFFFFFFFFFFFFFFFFFFFFF
310
FFFFFFFFFFFFFFFFFFFFFFFFFFFFFFFFFFFFFFFFFFFFFFFFFFFFFFFFFFFFFFFF
310
F000FFFFFFFFFFFFFFFFFFFFFFFFFFFFFFFFFFFFFFFFFFFFFFFFFFFFFFFFFFFF
310
FFFFFFFFFFFFFFFFFFFFFFFFFFFFFFFFFFFFFFFFFFFFFFFFFFFFFFFFFFFFFFFF
310
FFFFFFFFFFFFFFFFFFFFFFFFFFFFFFFFFFFFFFFFFFFFFFFFF000FFFFFFFFFFFF
310
FFFFFFFFFFFFFFFFFFFFFFFFFFFFFFFFFFFFFFFFFFFFFFFFFFFFFFFFFFFFFFFF
310
FFFFFFFFFFFFFFFFFFFFFFFFFFFFFFFFFFFFFFFFFFFFFFFFFFFFFFFFFFFFFFFF
310
FFFFFFFFFFFFFFFFFFFFFFFFFFFFFFFFF000FFFFFFFFFFFFFFFFFFFFFFFFFFFF
310
FFFFFFFFFFFFFFFFFFFFFFFFFFFFFFFFFFFFFFFFFFFFFFFFFFFFFFFFFFFFFFFF
310
FFFFFFFFFFFFFFFFFFFFFFFFFFFFFFFFFFFFFFFFFFFFFFFFFFFFFFFFFFFFFFFF
310
FFFFFFFFFFFFFFFFF000FFFFFFFFFFFFFFFFFFFFFFFFFFFFFFFFFFFFFFFFFFFF
310
FFFFFFFFFFFFFFFFFFFFFFFFFFFFFFFFFFFFFFFFFFFFFFFFFFFFFFFFFFFFFFFF
310
FFFFFFFFFFFFFFFFFFFFFFFFFFFFFFFFFFFFFFFFFFFFFFFFFFFFFFFFFFFFFFFF
310
F000FFFFFFFFFFFFFFFFFFFFFFFFFFFFFFFFFFFFFFFFFFFFFFFFFFFFFFFFFFFF
310
FFFFFFFFFFFFFFFFFFFFFFFFFFFFFFFFFFFFFFFFFFFFFFFFFFFFFFFFFFFFFFFF
310
FFFFFFFFFFFFFFFFFFFFFFFFFFFFFFFFFFFFFFFFFFFFFFFFF000FFFFFFFFFFFF
310
FFFFFFFFFFFFFFFFFFFFFFFFFFFFFFFFFFFFFFFFFFFFFFFFFFFFFFFFFFFFFFFF
310
FFFFFFFFFFFFFFFFFFFFFFFFFFFFFFFFFFFFFFFFFFFFFFFFFFFFFFFFFFFFFFFF
310
FFFFFFFFFFFFFFFFFFFFFFFFFFFFFFFFF000FFFFFFFFFFFFFFFFFFFFFFFFFFFF
310
FFFFFFFFFFFFFFFFFFFFFFFFFFFFFFFFFFFFFFFFFFFFFFFFFFFFFFFFFFFFFFFF
310
FFFFFFFFFFFFFFFFFFFFFFFFFFFFFFFFFFFFFFFFFFFFFFFFFFFFFFFFFFFFFFFF
310
FFFFFFFFFFFFFFFFF000FFFFFFFFFFFFFFFFFFFFFFFFFFFFFFFFFFFFFFFFFFFF
310
FFFFFFFFFFFFFFFFFFFFFFFFFFFFFFFFFFFFFFFFFFFFFFFFFFFFFFFFFFFFFFFF
310
FFFFFFFFFFFFFFFFFFFFFFFFFFFFFFFFFFFFFFFFFFFFFFFFFFFFFFFFFFFFFFFF
310
F000FFFFFFFFFFFFFFFFFFFFFFFFFFFFFFFFFFFFFFFFFFFFFFFFFFFFFFFFFFFF
310
FFFFFFFFFFFFFFFFFFFFFFFFFFFFFFFFFFFFFFFFFFFFFFFFFFFFFFFFFFFFFFFF
310
FFFFFFFFFFFFFFFFFFFFFFFFFFFFFFFFFFFFFFFFFFFFFFFFF000FFFFFFFFFFFF
310
FFFFFFFFFFFFFFFFFFFFFFFFFFFFFFFFFFFFFFFFFFFFFFFFFFFFFFFFFFFFFFFF
310
FFFFFFFFFFFFFFFFFFFFFFFFFFFFFFFFFFFFFFFFFFFFFFFFFFFFFFFFFFFFFFFF
310
FFFFFFFFFFFFFFFFFFFFFFFFFFFFFFFFF000FFFFFFFFFFFFFFFFFFFFFFFFFFFF
310
FFFFFFFFFFFFFFFFFFFFFFFFFFFFFFFFFFFFFFFFFFFFFFFFFFFFFFFFFFFFFFFF
310
FFFFFFFFFFFFFFFFFFFFFFFFFFFFFFFFFFFFFFFFFFFFFFFFFFFFFFFFFFFFFFFF
310
FFFFFFFFFFFFFFFFF000FFFFFFFFFFFFFFFFFFFFFFFFFFFFFFFFFFFFFFFFFFFF
310
FFFFFFFFFFFFFFFFFFFFFFFFFFFFFFFFFFFFFFFFFFFFFFFFFFFFFFFFFFFFFFFF
310
FFFFFFFFFFFFFFFFFFFFFFFFFFFFFFFFFFFFFFFFFFFFFFFFFFFFFFFFFFFFFFFF
310
F000FFFFFFFFFFFFFFFFFFFFFFFFFFFFFFFFFFFFFFFFFFFFFFFFFFFFFFFFFFFF
310
FFFFFFFFFFFFFFFFFFFFFFFFFFFFFFFFFFFFFFFFFFFFFFFFFFFFFFFFFFFFFFFF
310
FFFFFFFFFFFFFFFFFFFFFFFFFFFFFFFFFFFFFFFFFFFFFFFFF000FFFFFFFFFFFF
310
FFFFFFFFFFFFFFFFFFFFFFFFFFFFFFFFFFFFFFFFFFFFFFFFFFFFFFFFFFFFFFFF
310
FFFFFFFFFFFFFFFFFFFFFFFFFFFFFFFFFFFFFFFFFFFFFFFFFFFFFFFFFFFFFFFF
310
FFFFFFFFFFFFFFFFFFFFFFFFFFFFFFFFF0000000000000000000000000000000
310
0000000000000000000000000000000000000000000000000000000000000000
310
0000000000000000000000000000000000000000000000000000000000000000
310
0000000000000000000000000000000000000000000000000000000000000000
310
0000000000000000000000000000000000000000000000000000000000000000
310
0000000000000000000000000000000000000000000000000000000000000000
310
0000000000000000000000000000000000000000000000000000000000000000
310
0000000000000000000000000000000000000000000000000000000000000000
310
0000000000000000000000000000000000000000000000000000000000000000
310
0000000000000000000000000000000000000000000000000000000000000000
310
0000000000000000000000000000000000000000000000000000000000000000
310
0000000000000000000000000000000000000000000000000000000000000000
310
0000000000000000000000000000000000000000000000000000000000000000
310
0000000000000000000000000000000000000000000000000000000000000000
310
0000000000000000000000000000000000000000000000000000000000000000
310
0000000000000000000000000000000000000000000000000000000000000000
  1
OLE
  0
ENDSEC
  0
SECTION
  2
OBJECTS
  0
DICTIONARY
  5
C
330
0
100
AcDbDictionary
281
     1
  3
ACAD_GROUP
350
D
  3
ACAD_LAYOUT
350
1A
  3
ACAD_MLINESTYLE
350
17
  3
ACAD_PLOTSETTINGS
350
19
  3
ACAD_PLOTSTYLENAME
350
E
  3
ACAD_SCALELIST
350
47
  0
DICTIONARY
  5
D
102
{ACAD_REACTORS
330
C
102
}
330
C
100
AcDbDictionary
281
     1
  0
DICTIONARY
  5
1A
102
{ACAD_REACTORS
330
C
102
}
330
C
100
AcDbDictionary
281
     1
  3
Layout1
350
1E
  3
Layout2
350
26
  3
Model
350
22
  0
DICTIONARY
  5
17
102
{ACAD_REACTORS
330
C
102
}
330
C
100
AcDbDictionary
281
     1
  3
Standard
350
18
  0
DICTIONARY
  5
19
102
{ACAD_REACTORS
330
C
102
}
330
C
100
AcDbDictionary
281
     1
  0
ACDBDICTIONARYWDFLT
  5
E
102
{ACAD_REACTORS
330
C
102
}
330
C
100
AcDbDictionary
281
     1
  3
Normal
350
F
100
AcDbDictionaryWithDefault
340
F
  0
DICTIONARY
  5
47
102
{ACAD_REACTORS
330
C
102
}
330
C
100
AcDbDictionary
281
     1
  3
A0
350
48
  3
A1
350
49
  3
A2
350
4A
  3
A3
350
4B
  3
A4
350
4C
  3
A5
350
4D
  3
A6
350
4E
  3
A7
350
4F
  3
A8
350
50
  3
A9
350
51
  3
B0
350
52
  3
B1
350
53
  3
B2
350
54
  3
B3
350
55
  3
B4
350
56
  3
B5
350
57
  3
B6
350
58
  3
B7
350
59
  3
B8
350
5A
  3
B9
350
5B
  3
C0
350
5C
  3
C1
350
5D
  3
C2
350
5E
  3
C3
350
5F
  3
C4
350
60
  3
C5
350
61
  3
C6
350
62
  3
C7
350
63
  3
C8
350
64
  3
C9
350
65
  3
D0
350
66
  3
D1
350
67
  3
D2
350
68
  0
LAYOUT
  5
1E
102
{ACAD_REACTORS
330
1A
102
}
330
1A
100
AcDbPlotSettings
  1

  2
none_device
  4

  6

 40
0.0
 41
0.0
 42
0.0
 43
0.0
 44
0.0
 45
0.0
 46
0.0
 47
0.0
 48
0.0
 49
0.0
140
0.0
141
0.0
142
1.0
143
1.0
 70
   688
 72
     1
 73
     0
 74
     5
  7

 75
    16
147
1.0
148
0.0
149
0.0
100
AcDbLayout
  1
Layout1
 70
     1
 71
     1
 10
0.0
 20
0.0
 11
420.0
 21
297.0
 12
0.0
 22
0.0
 32
0.0
 14
1.0000000000E+20
 24
1.0000000000E+20
 34
1.0000000000E+20
 15
-1.0000000000E+20
 25
-1.0000000000E+20
 35
-1.0000000000E+20
146
0.0
 13
0.0
 23
0.0
 33
0.0
 16
1.0
 26
0.0
 36
0.0
 17
0.0
 27
1.0
 37
0.0
 76
     0
330
1B
  0
LAYOUT
  5
26
102
{ACAD_REACTORS
330
1A
102
}
330
1A
100
AcDbPlotSettings
  1

  2
none_device
  4

  6

 40
0.0
 41
0.0
 42
0.0
 43
0.0
 44
0.0
 45
0.0
 46
0.0
 47
0.0
 48
0.0
 49
0.0
140
0.0
141
0.0
142
1.0
143
1.0
 70
   688
 72
     1
 73
     0
 74
     5
  7

 75
    16
147
1.0
148
0.0
149
0.0
100
AcDbLayout
  1
Layout2
 70
     1
 71
     2
 10
0.0
 20
0.0
 11
0.0
 21
0.0
 12
0.0
 22
0.0
 32
0.0
 14
0.0
 24
0.0
 34
0.0
 15
0.0
 25
0.0
 35
0.0
146
0.0
 13
0.0
 23
0.0
 33
0.0
 16
1.0
 26
0.0
 36
0.0
 17
0.0
 27
1.0
 37
0.0
 76
     0
330
23
  0
LAYOUT
  5
22
102
{ACAD_REACTORS
330
1A
102
}
330
1A
100
AcDbPlotSettings
  1

  2
none_device
  4
Letter_(8.50_x_11.00_Inches)
  6

 40
6.35
 41
6.35
 42
6.35000508
 43
6.35000508
 44
215.9
 45
279.4
 46
0.0
 47
0.0
 48
0.0
 49
0.0
140
0.0
141
0.0
142
1.0
143
1.0
 70
  1712
 72
     1
 73
     0
 74
     0
  7

 75
     0
147
1.0
148
0.0
149
0.0
100
AcDbLayout
  1
Model
 70
     1
 71
     0
 10
0.0
 20
0.0
 11
297.0
 21
210.0
 12
0.0
 22
0.0
 32
0.0
 14
0.0
 24
0.0
 34
0.0
 15
297.0
 25
210.0
 35
0.0
146
0.0
 13
0.0
 23
0.0
 33
0.0
 16
1.0
 26
0.0
 36
0.0
 17
0.0
 27
1.0
 37
0.0
 76
     0
330
1F
331
29
  0
MLINESTYLE
  5
18
102
{ACAD_REACTORS
330
17
102
}
330
17
100
AcDbMlineStyle
  2
Standard
 70
     0
  3

 62
   256
 51
90.0
 52
90.0
 71
     2
 49
0.5
 62
   256
  6
BYLAYER
 49
-0.5
 62
   256
  6
BYLAYER
  0
ACDBPLACEHOLDER
  5
F
102
{ACAD_REACTORS
330
E
102
}
330
E
  0
SCALE
  5
48
102
{ACAD_REACTORS
330
47
102
}
330
47
100
AcDbScale
 70
     0
300
1:1
140
1.0
141
1.0
290
     1
  0
SCALE
  5
49
102
{ACAD_REACTORS
330
47
102
}
330
47
100
AcDbScale
 70
     0
300
1:2
140
1.0
141
2.0
290
     0
  0
SCALE
  5
4A
102
{ACAD_REACTORS
330
47
102
}
330
47
100
AcDbScale
 70
     0
300
1:4
140
1.0
141
4.0
290
     0
  0
SCALE
  5
4B
102
{ACAD_REACTORS
330
47
102
}
330
47
100
AcDbScale
 70
     0
300
1:5
140
1.0
141
5.0
290
     0
  0
SCALE
  5
4C
102
{ACAD_REACTORS
330
47
102
}
330
47
100
AcDbScale
 70
     0
300
1:8
140
1.0
141
8.0
290
     0
  0
SCALE
  5
4D
102
{ACAD_REACTORS
330
47
102
}
330
47
100
AcDbScale
 70
     0
300
1:10
140
1.0
141
10.0
290
     0
  0
SCALE
  5
4E
102
{ACAD_REACTORS
330
47
102
}
330
47
100
AcDbScale
 70
     0
300
1:16
140
1.0
141
16.0
290
     0
  0
SCALE
  5
4F
102
{ACAD_REACTORS
330
47
102
}
330
47
100
AcDbScale
 70
     0
300
1:20
140
1.0
141
20.0
290
     0
  0
SCALE
  5
50
102
{ACAD_REACTORS
330
47
102
}
330
47
100
AcDbScale
 70
     0
300
1:30
140
1.0
141
30.0
290
     0
  0
SCALE
  5
51
102
{ACAD_REACTORS
330
47
102
}
330
47
100
AcDbScale
 70
     0
300
1:40
140
1.0
141
40.0
290
     0
  0
SCALE
  5
52
102
{ACAD_REACTORS
330
47
102
}
330
47
100
AcDbScale
 70
     0
300
1:50
140
1.0
141
50.0
290
     0
  0
SCALE
  5
53
102
{ACAD_REACTORS
330
47
102
}
330
47
100
AcDbScale
 70
     0
300
1:100
140
1.0
141
100.0
290
     0
  0
SCALE
  5
54
102
{ACAD_REACTORS
330
47
102
}
330
47
100
AcDbScale
 70
     0
300
2:1
140
2.0
141
1.0
290
     0
  0
SCALE
  5
55
102
{ACAD_REACTORS
330
47
102
}
330
47
100
AcDbScale
 70
     0
300
4:1
140
4.0
141
1.0
290
     0
  0
SCALE
  5
56
102
{ACAD_REACTORS
330
47
102
}
330
47
100
AcDbScale
 70
     0
300
8:1
140
8.0
141
1.0
290
     0
  0
SCALE
  5
57
102
{ACAD_REACTORS
330
47
102
}
330
47
100
AcDbScale
 70
     0
300
10:1
140
10.0
141
1.0
290
     0
  0
SCALE
  5
58
102
{ACAD_REACTORS
330
47
102
}
330
47
100
AcDbScale
 70
     0
300
100:1
140
100.0
141
1.0
290
     0
  0
SCALE
  5
59
102
{ACAD_REACTORS
330
47
102
}
330
47
100
AcDbScale
 70
     0
300
1/128" = 1'-0"
140
0.0078125
141
12.0
290
     0
  0
SCALE
  5
5A
102
{ACAD_REACTORS
330
47
102
}
330
47
100
AcDbScale
 70
     0
300
1/64" = 1'-0"
140
0.015625
141
12.0
290
     0
  0
SCALE
  5
5B
102
{ACAD_REACTORS
330
47
102
}
330
47
100
AcDbScale
 70
     0
300
1/32" = 1'-0"
140
0.03125
141
12.0
290
     0
  0
SCALE
  5
5C
102
{ACAD_REACTORS
330
47
102
}
330
47
100
AcDbScale
 70
     0
300
1/16" = 1'-0"
140
0.0625
141
12.0
290
     0
  0
SCALE
  5
5D
102
{ACAD_REACTORS
330
47
102
}
330
47
100
AcDbScale
 70
     0
300
3/32" = 1'-0"
140
0.09375
141
12.0
290
     0
  0
SCALE
  5
5E
102
{ACAD_REACTORS
330
47
102
}
330
47
100
AcDbScale
 70
     0
300
1/8" = 1'-0"
140
0.125
141
12.0
290
     0
  0
SCALE
  5
5F
102
{ACAD_REACTORS
330
47
102
}
330
47
100
AcDbScale
 70
     0
300
3/16" = 1'-0"
140
0.1875
141
12.0
290
     0
  0
SCALE
  5
60
102
{ACAD_REACTORS
330
47
102
}
330
47
100
AcDbScale
 70
     0
300
1/4" = 1'-0"
140
0.25
141
12.0
290
     0
  0
SCALE
  5
61
102
{ACAD_REACTORS
330
47
102
}
330
47
100
AcDbScale
 70
     0
300
3/8" = 1'-0"
140
0.375
141
12.0
290
     0
  0
SCALE
  5
62
102
{ACAD_REACTORS
330
47
102
}
330
47
100
AcDbScale
 70
     0
300
1/2" = 1'-0"
140
0.5
141
12.0
290
     0
  0
SCALE
  5
63
102
{ACAD_REACTORS
330
47
102
}
330
47
100
AcDbScale
 70
     0
300
3/4" = 1'-0"
140
0.75
141
12.0
290
     0
  0
SCALE
  5
64
102
{ACAD_REACTORS
330
47
102
}
330
47
100
AcDbScale
 70
     0
300
1" = 1'-0"
140
1.0
141
12.0
290
     0
  0
SCALE
  5
65
102
{ACAD_REACTORS
330
47
102
}
330
47
100
AcDbScale
 70
     0
300
1-1/2" = 1'-0"
140
1.5
141
12.0
290
     0
  0
SCALE
  5
66
102
{ACAD_REACTORS
330
47
102
}
330
47
100
AcDbScale
 70
     0
300
3" = 1'-0"
140
3.0
141
12.0
290
     0
  0
SCALE
  5
67
102
{ACAD_REACTORS
330
47
102
}
330
47
100
AcDbScale
 70
     0
300
6" = 1'-0"
140
6.0
141
12.0
290
     0
  0
SCALE
  5
68
102
{ACAD_REACTORS
330
47
102
}
330
47
100
AcDbScale
 70
     0
300
1'-0" = 1'-0"
140
12.0
141
12.0
290
     0
  0
ENDSEC
  0
EOF
