  0
SECTION
  2
HEADER
  9
$ACADVER
  1
AC1015
  9
$ACADMAINTVER
 70
     6
  9
$DWGCODEPAGE
  3
ANSI_1252
  9
$INSBASE
 10
0.0
 20
0.0
 30
0.0
  9
$EXTMIN
 10
0.0
 20
0.0
 30
0.0
  9
$EXTMAX
 10
297.0
 20
210.0
 30
0.0
  9
$LIMMIN
 10
0.0
 20
0.0
  9
$LIMMAX
 10
297.0
 20
210.0
  9
$ORTHOMODE
 70
     0
  9
$REGENMODE
 70
     1
  9
$FILLMODE
 70
     1
  9
$QTEXTMODE
 70
     0
  9
$MIRRTEXT
 70
     1
  9
$LTSCALE
 40
1.0
  9
$ATTMODE
 70
     1
  9
$TEXTSIZE
 40
2.0
  9
$TRACEWID
 40
1.0
  9
$TEXTSTYLE
  7
Standard
  9
$CLAYER
  8
0
  9
$CELTYPE
  6
ByLayer
  9
$CECOLOR
 62
   256
  9
$CELTSCALE
 40
1.0
  9
$DISPSILH
 70
     0
  9
$DIMSCALE
 40
1.0
  9
$DIMASZ
 40
3.0
  9
$DIMEXO
 40
0.0
  9
$DIMDLI
 40
3.75
  9
$DIMRND
 40
0.0
  9
$DIMDLE
 40
0.0
  9
$DIMEXE
 40
1.0
  9
$DIMTP
 40
0.0
  9
$DIMTM
 40
0.0
  9
$DIMTXT
 40
2.0
  9
$DIMCEN
 40
2.5
  9
$DIMTSZ
 40
0.0
  9
$DIMTOL
 70
     0
  9
$DIMLIM
 70
     0
  9
$DIMTIH
 70
     1
  9
$DIMTOH
 70
     1
  9
$DIMSE1
 70
     0
  9
$DIMSE2
 70
     0
  9
$DIMTAD
 70
     1
  9
$DIMZIN
 70
     0
  9
$DIMBLK
  1

  9
$DIMASO
 70
     1
  9
$DIMSHO
 70
     1
  9
$DIMPOST
  1

  9
$DIMAPOST
  1

  9
$DIMALT
 70
     0
  9
$DIMALTD
 70
     3
  9
$DIMALTF
 40
0.0393700787
  9
$DIMLFAC
 40
1.0
  9
$DIMTOFL
 70
     1
  9
$DIMTVP
 40
0.0
  9
$DIMTIX
 70
     0
  9
$DIMSOXD
 70
     0
  9
$DIMSAH
 70
     0
  9
$DIMBLK1
  1

  9
$DIMBLK2
  1

  9
$DIMSTYLE
  2
ISO-25
  9
$DIMCLRD
 70
     0
  9
$DIMCLRE
 70
     0
  9
$DIMCLRT
 70
     0
  9
$DIMTFAC
 40
1.0
  9
$DIMGAP
 40
1.524
  9
$DIMJUST
 70
     0
  9
$DIMSD1
 70
     0
  9
$DIMSD2
 70
     0
  9
$DIMTOLJ
 70
     0
  9
$DIMTZIN
 70
     0
  9
$DIMALTZ
 70
     0
  9
$DIMALTTZ
 70
     0
  9
$DIMUPT
 70
     0
  9
$DIMDEC
 70
     2
  9
$DIMTDEC
 70
     3
  9
$DIMALTU
 70
     2
  9
$DIMALTTD
 70
     3
  9
$DIMTXSTY
  7
Standard
  9
$DIMAUNIT
 70
     0
  9
$DIMADEC
 70
     2
  9
$DIMALTRND
 40
0.0
  9
$DIMAZIN
 70
     0
  9
$DIMDSEP
 70
    44
  9
$DIMATFIT
 70
     3
  9
$DIMFRAC
 70
     0
  9
$DIMLDRBLK
  1

  9
$DIMLUNIT
 70
     2
  9
$DIMLWD
 70
    -2
  9
$DIMLWE
 70
    -2
  9
$DIMTMOVE
 70
     0
  9
$LUNITS
 70
     2
  9
$LUPREC
 70
     2
  9
$SKETCHINC
 40
1.0
  9
$FILLETRAD
 40
10.0
  9
$AUNITS
 70
     0
  9
$AUPREC
 70
     2
  9
$MENU
  1
.
  9
$ELEVATION
 40
0.0
  9
$PELEVATION
 40
0.0
  9
$THICKNESS
 40
0.0
  9
$LIMCHECK
 70
     0
  9
$CHAMFERA
 40
10.0
  9
$CHAMFERB
 40
10.0
  9
$CHAMFERC
 40
20.0
  9
$CHAMFERD
 40
0.0
  9
$SKPOLY
 70
     0
  9
$TDCREATE
 40
2456056.502851921
  9
$TDUCREATE
 40
2456056.419518588
  9
$TDUPDATE
 40
2456056.502853183
  9
$TDUUPDATE
 40
2456056.41951985
  9
$TDINDWG
 40
0.0000000116
  9
$TDUSRTIMER
 40
0.0000000116
  9
$USRTIMER
 70
     1
  9
$ANGBASE
 50
0.0
  9
$ANGDIR
 70
     0
  9
$PDMODE
 70
     0
  9
$PDSIZE
 40
-1.0
  9
$PLINEWID
 40
0.0
  9
$SPLFRAME
 70
     0
  9
$SPLINETYPE
 70
     6
  9
$SPLINESEGS
 70
     8
  9
$HANDSEED
  5
2A8
  9
$SURFTAB1
 70
     6
  9
$SURFTAB2
 70
     6
  9
$SURFTYPE
 70
     6
  9
$SURFU
 70
     6
  9
$SURFV
 70
     6
  9
$UCSBASE
  2

  9
$UCSNAME
  2

  9
$UCSORG
 10
0.0
 20
0.0
 30
0.0
  9
$UCSXDIR
 10
1.0
 20
0.0
 30
0.0
  9
$UCSYDIR
 10
0.0
 20
1.0
 30
0.0
  9
$UCSORTHOREF
  2

  9
$UCSORTHOVIEW
 70
     0
  9
$UCSORGTOP
 10
0.0
 20
0.0
 30
0.0
  9
$UCSORGBOTTOM
 10
0.0
 20
0.0
 30
0.0
  9
$UCSORGLEFT
 10
0.0
 20
0.0
 30
0.0
  9
$UCSORGRIGHT
 10
0.0
 20
0.0
 30
0.0
  9
$UCSORGFRONT
 10
0.0
 20
0.0
 30
0.0
  9
$UCSORGBACK
 10
0.0
 20
0.0
 30
0.0
  9
$PUCSBASE
  2

  9
$PUCSNAME
  2

  9
$PUCSORG
 10
0.0
 20
0.0
 30
0.0
  9
$PUCSXDIR
 10
1.0
 20
0.0
 30
0.0
  9
$PUCSYDIR
 10
0.0
 20
1.0
 30
0.0
  9
$PUCSORTHOREF
  2

  9
$PUCSORTHOVIEW
 70
     0
  9
$PUCSORGTOP
 10
0.0
 20
0.0
 30
0.0
  9
$PUCSORGBOTTOM
 10
0.0
 20
0.0
 30
0.0
  9
$PUCSORGLEFT
 10
0.0
 20
0.0
 30
0.0
  9
$PUCSORGRIGHT
 10
0.0
 20
0.0
 30
0.0
  9
$PUCSORGFRONT
 10
0.0
 20
0.0
 30
0.0
  9
$PUCSORGBACK
 10
0.0
 20
0.0
 30
0.0
  9
$USERI1
 70
     0
  9
$USERI2
 70
     0
  9
$USERI3
 70
     0
  9
$USERI4
 70
     0
  9
$USERI5
 70
     0
  9
$USERR1
 40
0.0
  9
$USERR2
 40
0.0
  9
$USERR3
 40
0.0
  9
$USERR4
 40
0.0
  9
$USERR5
 40
0.0
  9
$WORLDVIEW
 70
     1
  9
$SHADEDGE
 70
     3
  9
$SHADEDIF
 70
    70
  9
$TILEMODE
 70
     1
  9
$MAXACTVP
 70
    64
  9
$PINSBASE
 10
0.0
 20
0.0
 30
0.0
  9
$PLIMCHECK
 70
     0
  9
$PEXTMIN
 10
1.0000000000E+20
 20
1.0000000000E+20
 30
1.0000000000E+20
  9
$PEXTMAX
 10
-1.0000000000E+20
 20
-1.0000000000E+20
 30
-1.0000000000E+20
  9
$PLIMMIN
 10
0.0
 20
0.0
  9
$PLIMMAX
 10
420.0
 20
297.0
  9
$UNITMODE
 70
     0
  9
$VISRETAIN
 70
     1
  9
$PLINEGEN
 70
     0
  9
$PSLTSCALE
 70
     1
  9
$TREEDEPTH
 70
  3020
  9
$CMLSTYLE
  2
Standard
  9
$CMLJUST
 70
     0
  9
$CMLSCALE
 40
20.0
  9
$PROXYGRAPHICS
 70
     1
  9
$MEASUREMENT
 70
     1
  9
$CELWEIGHT
370
    -1
  9
$ENDCAPS
280
     0
  9
$JOINSTYLE
280
     0
  9
$LWDISPLAY
290
     1
  9
$INSUNITS
 70
     4
  9
$HYPERLINKBASE
  1

  9
$STYLESHEET
  1

  9
$XEDIT
290
     1
  9
$CEPSNTYPE
380
     0
  9
$PSTYLEMODE
290
     1
  9
$FINGERPRINTGUID
  2
{0C547B61-97C1-454E-AD7D-4CD0815BFEA5}
  9
$VERSIONGUID
  2
{FAEB1C32-E019-11D5-929B-00C0DF256EC4}
  9
$EXTNAMES
290
     1
  9
$PSVPSCALE
 40
0.0
  9
$OLESTARTUP
290
     0
  0
ENDSEC
  0
SECTION
  2
CLASSES
  0
CLASS
  1
ACDBDICTIONARYWDFLT
  2
AcDbDictionaryWithDefault
  3
ObjectDBX Classes
 90
        0
280
     0
281
     0
  0
CLASS
  1
VISUALSTYLE
  2
AcDbVisualStyle
  3
ObjectDBX Classes
 90
     4095
280
     0
281
     0
  0
CLASS
  1
MATERIAL
  2
AcDbMaterial
  3
ObjectDBX Classes
 90
     1153
280
     0
281
     0
  0
CLASS
  1
ACDBPLACEHOLDER
  2
AcDbPlaceHolder
  3
ObjectDBX Classes
 90
        0
280
     0
281
     0
  0
CLASS
  1
LAYOUT
  2
AcDbLayout
  3
ObjectDBX Classes
 90
        0
280
     0
281
     0
  0
ENDSEC
  0
SECTION
  2
TABLES
  0
TABLE
  2
VPORT
  5
8
330
0
100
AcDbSymbolTable
 70
     1
  0
VPORT
  5
29
330
8
100
AcDbSymbolTableRecord
100
AcDbViewportTableRecord
  2
*Active
 70
     0
 10
0.0
 20
0.0
 11
1.0
 21
1.0
 12
148.5
 22
105.0
 13
0.0
 23
0.0
 14
10.0
 24
10.0
 15
10.0
 25
10.0
 16
0.0
 26
0.0
 36
1.0
 17
0.0
 27
0.0
 37
0.0
 40
210.0
 41
1.4142857143
 42
50.0
 43
0.0
 44
0.0
 50
0.0
 51
0.0
 71
     0
 72
  2000
 73
     1
 74
     3
 75
     0
 76
     0
 77
     0
 78
     0
281
     0
 65
     1
110
0.0
120
0.0
130
0.0
111
1.0
121
0.0
131
0.0
112
0.0
122
1.0
132
0.0
 79
     0
146
0.0
  0
ENDTAB
  0
TABLE
  2
LTYPE
  5
5
330
0
100
AcDbSymbolTable
 70
     6
  0
LTYPE
  5
14
330
5
100
AcDbSymbolTableRecord
100
AcDbLinetypeTableRecord
  2
ByBlock
 70
     0
  3

 72
    65
 73
     0
 40
0.0
  0
LTYPE
  5
15
330
5
100
AcDbSymbolTableRecord
100
AcDbLinetypeTableRecord
  2
ByLayer
 70
     0
  3

 72
    65
 73
     0
 40
0.0
  0
LTYPE
  5
16
330
5
100
AcDbSymbolTableRecord
100
AcDbLinetypeTableRecord
  2
Continuous
 70
     0
  3
Solid line
 72
    65
 73
     0
 40
0.0
  0
LTYPE
  5
3F
330
5
100
AcDbSymbolTableRecord
100
AcDbLinetypeTableRecord
  2
HIDDEN
 70
     0
  3
Hidden __ __ __ __ __ __ __ __ __ __ __ __ __ __
 72
    65
 73
     2
 40
1.905
 49
1.27
 74
     0
 49
-0.635
 74
     0
  0
LTYPE
  5
40
330
5
100
AcDbSymbolTableRecord
100
AcDbLinetypeTableRecord
  2
PHANTOM
 70
     0
  3
Phantom ______  __  __  ______  __  __  ______
 72
    65
 73
     6
 40
12.7
 49
6.35
 74
     0
 49
-1.27
 74
     0
 49
1.27
 74
     0
 49
-1.27
 74
     0
 49
1.27
 74
     0
 49
-1.27
 74
     0
  0
LTYPE
  5
41
330
5
100
AcDbSymbolTableRecord
100
AcDbLinetypeTableRecord
  2
CENTER
 70
     0
  3
Center ____ _ ____ _ ____ _ ____ _ ____ _ ____
 72
    65
 73
     4
 40
10.16
 49
6.35
 74
     0
 49
-1.27
 74
     0
 49
1.27
 74
     0
 49
-1.27
 74
     0
  0
LTYPE
  5
42
330
5
100
AcDbSymbolTableRecord
100
AcDbLinetypeTableRecord
  2
CENTERX2
 70
     0
  3
Center (2x) ________  __  ________  __  _____
 72
    65
 73
     4
 40
20.32
 49
12.7
 74
     0
 49
-2.54
 74
     0
 49
2.54
 74
     0
 49
-2.54
 74
     0
  0
LTYPE
  5
43
330
5
100
AcDbSymbolTableRecord
100
AcDbLinetypeTableRecord
  2
DOT2
 70
     0
  3
Dot (.5x) ........................................
 72
    65
 73
     2
 40
0.635
 49
0.0
 74
     0
 49
-0.635
 74
     0
  0
ENDTAB
  0
TABLE
  2
LAYER
  5
2
330
0
100
AcDbSymbolTable
 70
     5
  0
LAYER
  5
10
330
2
100
AcDbSymbolTableRecord
100
AcDbLayerTableRecord
  2
0
 70
     0
 62
     7
  6
Continuous
370
    -3
390
F
  0
LAYER
  5
44
330
2
100
AcDbSymbolTableRecord
100
AcDbLayerTableRecord
  2
FORMAT
 70
     0
 62
     7
  6
Continuous
370
    -3
390
F
  0
LAYER
  5
45
330
2
100
AcDbSymbolTableRecord
100
AcDbLayerTableRecord
  2
VERMASSUNG
 70
     0
 62
     7
  6
Continuous
370
    -3
390
F
  0
LAYER
  5
46
330
2
100
AcDbSymbolTableRecord
100
AcDbLayerTableRecord
  2
KOPF_DÜNN
 70
     0
 62
     7
  6
Continuous
370
    -3
390
F
  0
LAYER
  5
47
330
2
100
AcDbSymbolTableRecord
100
AcDbLayerTableRecord
  2
KOPF_DICK
 70
     0
 62
     7
  6
Continuous
370
    15
390
F
  0
ENDTAB
  0
TABLE
  2
STYLE
  5
3
330
0
100
AcDbSymbolTable
 70
     2
  0
STYLE
  5
11
330
3
100
AcDbSymbolTableRecord
100
AcDbTextStyleTableRecord
  2
Standard
 70
     0
 40
0.0
 41
1.0
 50
0.0
 71
     0
 42
2.0
  3
txt
  4

  0
STYLE
  5
48
330
3
100
AcDbSymbolTableRecord
100
AcDbTextStyleTableRecord
  2
SLDTEXTSTYLE0
 70
     0
 40
0.0
 41
0.7
 50
0.0
 71
     0
 42
0.2
  3
TXT
  4

  0
ENDTAB
  0
TABLE
  2
VIEW
  5
6
330
0
100
AcDbSymbolTable
 70
     0
  0
ENDTAB
  0
TABLE
  2
UCS
  5
7
330
0
100
AcDbSymbolTable
 70
     0
  0
ENDTAB
  0
TABLE
  2
APPID
  5
9
330
0
100
AcDbSymbolTable
 70
     1
  0
APPID
  5
12
330
9
100
AcDbSymbolTableRecord
100
AcDbRegAppTableRecord
  2
ACAD
 70
     0
  0
ENDTAB
  0
TABLE
  2
DIMSTYLE
  5
A
330
0
100
AcDbSymbolTable
 70
     4
100
AcDbDimStyleTable
  0
DIMSTYLE
105
27
330
A
100
AcDbSymbolTableRecord
100
AcDbDimStyleTableRecord
  2
ISO-25
 70
     0
 41
2.5
 42
0.625
 43
3.75
 44
1.25
 73
     0
 74
     0
 77
     1
 78
     8
140
2.5
141
2.5
143
0.0393700787
147
0.625
171
     3
172
     1
178
     0
271
     2
272
     2
274
     3
278
    44
283
     0
284
     8
340
11
  0
DIMSTYLE
105
CE
102
{ACAD_REACTORS
330
CD
330
D8
330
E2
330
26F
330
279
330
283
330
29A
102
}
330
A
100
AcDbSymbolTableRecord
100
AcDbDimStyleTableRecord
  2
SLDDIMSTYLE0
 70
     0
 41
3.0
 44
0.0
 45
0.000000001
 73
     0
 74
     0
 77
     1
 78
    12
 79
     3
140
2.0
147
0.5
173
     1
178
     0
271
     2
272
     3
276
     2
284
    12
340
48
  0
DIMSTYLE
105
12C
102
{ACAD_REACTORS
330
12B
102
}
330
A
100
AcDbSymbolTableRecord
100
AcDbDimStyleTableRecord
  2
SLDDIMSTYLE1
 70
     0
 41
3.0
 44
0.0
 45
0.000000001
 73
     0
 74
     0
 77
     1
 78
    12
 79
     3
140
2.0
141
0.0
147
0.5
173
     1
178
     0
271
     2
272
     3
276
     2
284
    12
340
48
  0
DIMSTYLE
105
28E
102
{ACAD_REACTORS
330
28D
102
}
330
A
100
AcDbSymbolTableRecord
100
AcDbDimStyleTableRecord
  2
SLDDIMSTYLE2
 70
     0
 41
3.0
 44
0.0
 45
0.000000001
 73
     0
 74
     0
 77
     1
 78
    12
 79
     3
140
2.0
147
0.5
172
     1
173
     1
178
     0
271
     2
272
     3
276
     2
284
    12
289
     0
340
48
  0
ENDTAB
  0
TABLE
  2
BLOCK_RECORD
  5
1
330
0
100
AcDbSymbolTable
 70
    11
  0
BLOCK_RECORD
  5
1F
330
1
100
AcDbSymbolTableRecord
100
AcDbBlockTableRecord
  2
*Model_Space
340
22
  0
BLOCK_RECORD
  5
1B
330
1
100
AcDbSymbolTableRecord
100
AcDbBlockTableRecord
  2
*Paper_Space
340
1E
  0
BLOCK_RECORD
  5
23
330
1
100
AcDbSymbolTableRecord
100
AcDbBlockTableRecord
  2
*Paper_Space0
340
26
  0
BLOCK_RECORD
  5
CF
330
1
100
AcDbSymbolTableRecord
100
AcDbBlockTableRecord
  2
_D
340
0
  0
BLOCK_RECORD
  5
D9
330
1
100
AcDbSymbolTableRecord
100
AcDbBlockTableRecord
  2
_D_1
340
0
  0
BLOCK_RECORD
  5
E3
330
1
100
AcDbSymbolTableRecord
100
AcDbBlockTableRecord
  2
_D_2
340
0
  0
BLOCK_RECORD
  5
12D
330
1
100
AcDbSymbolTableRecord
100
AcDbBlockTableRecord
  2
_D_3
340
0
  0
BLOCK_RECORD
  5
134
330
1
100
AcDbSymbolTableRecord
100
AcDbBlockTableRecord
  2
SW_CENTERMARKSYMBOL_0
340
0
102
{BLKREFS
331
13F
102
}
  0
BLOCK_RECORD
  5
270
330
1
100
AcDbSymbolTableRecord
100
AcDbBlockTableRecord
  2
_D_4
340
0
  0
BLOCK_RECORD
  5
27A
330
1
100
AcDbSymbolTableRecord
100
AcDbBlockTableRecord
  2
_D_5
340
0
  0
BLOCK_RECORD
  5
284
330
1
100
AcDbSymbolTableRecord
100
AcDbBlockTableRecord
  2
_D_6
340
0
  0
BLOCK_RECORD
  5
28F
330
1
100
AcDbSymbolTableRecord
100
AcDbBlockTableRecord
  2
_D_7
340
0
  0
BLOCK_RECORD
  5
29B
330
1
100
AcDbSymbolTableRecord
100
AcDbBlockTableRecord
  2
_D_8
340
0
  0
ENDTAB
  0
ENDSEC
  0
SECTION
  2
BLOCKS
  0
BLOCK
  5
20
330
1F
100
AcDbEntity
  8
0
100
AcDbBlockBegin
  2
*Model_Space
 70
     0
 10
0.0
 20
0.0
 30
0.0
  3
*Model_Space
  1

  0
ENDBLK
  5
21
330
1F
100
AcDbEntity
  8
0
100
AcDbBlockEnd
  0
BLOCK
  5
1C
330
1B
100
AcDbEntity
 67
     1
  8
0
100
AcDbBlockBegin
  2
*Paper_Space
 70
     0
 10
0.0
 20
0.0
 30
0.0
  3
*Paper_Space
  1

  0
ENDBLK
  5
1D
330
1B
100
AcDbEntity
 67
     1
  8
0
100
AcDbBlockEnd
  0
BLOCK
  5
24
330
23
100
AcDbEntity
  8
0
100
AcDbBlockBegin
  2
*Paper_Space0
 70
     0
 10
0.0
 20
0.0
 30
0.0
  3
*Paper_Space0
  1

  0
ENDBLK
  5
25
330
23
100
AcDbEntity
  8
0
100
AcDbBlockEnd
  0
BLOCK
  5
D0
330
CF
100
AcDbEntity
  8
0
100
AcDbBlockBegin
  2
_D
 70
     0
 10
0.0
 20
0.0
 30
0.0
  3
_D
  1

  0
SOLID
  5
D2
330
CF
100
AcDbEntity
  8
VERMASSUNG
100
AcDbTrace
 10
249.78557757
 20
123.8798563838
 30
0.0
 11
249.33557757
 21
120.8798563838
 31
0.0
 12
250.23557757
 22
120.8798563838
 32
0.0
 13
250.23557757
 23
120.8798563838
 33
0.0
  0
SOLID
  5
D3
330
CF
100
AcDbEntity
  8
VERMASSUNG
100
AcDbTrace
 10
249.78557757
 20
63.8798563838
 30
0.0
 11
250.23557757
 21
66.8798563838
 31
0.0
 12
249.33557757
 22
66.8798563838
 32
0.0
 13
249.33557757
 23
66.8798563838
 33
0.0
  0
LINE
  5
D4
330
CF
100
AcDbEntity
  8
VERMASSUNG
100
AcDbLine
 10
238.78557757
 20
123.8798563838
 30
0.0
 11
250.78557757
 21
123.8798563838
 31
0.0
  0
LINE
  5
D5
330
CF
100
AcDbEntity
  8
VERMASSUNG
100
AcDbLine
 10
238.78557757
 20
63.8798563838
 30
0.0
 11
250.78557757
 21
63.8798563838
 31
0.0
  0
LINE
  5
D6
330
CF
100
AcDbEntity
  8
VERMASSUNG
100
AcDbLine
 10
249.78557757
 20
123.8798563838
 30
0.0
 11
249.78557757
 21
63.8798563838
 31
0.0
  0
MTEXT
  5
D7
330
CF
100
AcDbEntity
  8
VERMASSUNG
100
AcDbMText
 10
247.2074422069
 20
91.5798563327
 30
4.6
 40
2.0
 41
0.0
 71
     1
 72
     1
  1
60
  7
SLDTEXTSTYLE0
 11
-7.044195017643634E-15
 21
1.0
 31
0.0
 73
     1
 44
1.0
  0
ENDBLK
  5
D1
330
CF
100
AcDbEntity
  8
0
100
AcDbBlockEnd
  0
BLOCK
  5
DA
330
D9
100
AcDbEntity
  8
0
100
AcDbBlockBegin
  2
_D_1
 70
     0
 10
0.0
 20
0.0
 30
0.0
  3
_D_1
  1

  0
SOLID
  5
DC
330
D9
100
AcDbEntity
  8
VERMASSUNG
100
AcDbTrace
 10
181.78557757
 20
51.3886685642
 30
0.0
 11
184.78557757
 21
50.9386685642
 31
0.0
 12
184.78557757
 22
51.8386685642
 32
0.0
 13
184.78557757
 23
51.8386685642
 33
0.0
  0
SOLID
  5
DD
330
D9
100
AcDbEntity
  8
VERMASSUNG
100
AcDbTrace
 10
239.78557757
 20
51.3886685642
 30
0.0
 11
236.78557757
 21
51.8386685642
 31
0.0
 12
236.78557757
 22
50.9386685642
 32
0.0
 13
236.78557757
 23
50.9386685642
 33
0.0
  0
LINE
  5
DE
330
D9
100
AcDbEntity
  8
VERMASSUNG
100
AcDbLine
 10
181.78557757
 20
69.1798563838
 30
0.0
 11
181.78557757
 21
50.3886685642
 31
0.0
  0
LINE
  5
DF
330
D9
100
AcDbEntity
  8
VERMASSUNG
100
AcDbLine
 10
239.78557757
 20
64.8798563838
 30
0.0
 11
239.78557757
 21
50.3886685642
 31
0.0
  0
LINE
  5
E0
330
D9
100
AcDbEntity
  8
VERMASSUNG
100
AcDbLine
 10
181.78557757
 20
51.3886685642
 30
0.0
 11
239.78557757
 21
51.3886685642
 31
0.0
  0
MTEXT
  5
E1
330
D9
100
AcDbEntity
  8
VERMASSUNG
100
AcDbMText
 10
208.485577519
 20
53.9668039273
 30
4.6
 40
2.0
 41
0.0
 71
     1
 72
     1
  1
58
  7
SLDTEXTSTYLE0
 73
     1
 44
1.0
  0
ENDBLK
  5
DB
330
D9
100
AcDbEntity
  8
0
100
AcDbBlockEnd
  0
BLOCK
  5
E4
330
E3
100
AcDbEntity
  8
0
100
AcDbBlockBegin
  2
_D_2
 70
     0
 10
0.0
 20
0.0
 30
0.0
  3
_D_2
  1

  0
SOLID
  5
E6
330
E3
100
AcDbEntity
  8
VERMASSUNG
100
AcDbTrace
 10
151.78557757
 20
45.3886685642
 30
0.0
 11
154.78557757
 21
44.9386685642
 31
0.0
 12
154.78557757
 22
45.8386685642
 32
0.0
 13
154.78557757
 23
45.8386685642
 33
0.0
  0
SOLID
  5
E7
330
E3
100
AcDbEntity
  8
VERMASSUNG
100
AcDbTrace
 10
239.78557757
 20
45.3886685642
 30
0.0
 11
236.78557757
 21
45.8386685642
 31
0.0
 12
236.78557757
 22
44.9386685642
 32
0.0
 13
236.78557757
 23
44.9386685642
 33
0.0
  0
LINE
  5
E8
330
E3
100
AcDbEntity
  8
VERMASSUNG
100
AcDbLine
 10
151.78557757
 20
77.8865305456
 30
0.0
 11
151.78557757
 21
44.3886685642
 31
0.0
  0
LINE
  5
E9
330
E3
100
AcDbEntity
  8
VERMASSUNG
100
AcDbLine
 10
239.78557757
 20
64.8798563838
 30
0.0
 11
239.78557757
 21
44.3886685642
 31
0.0
  0
LINE
  5
EA
330
E3
100
AcDbEntity
  8
VERMASSUNG
100
AcDbLine
 10
151.78557757
 20
45.3886685642
 30
0.0
 11
239.78557757
 21
45.3886685642
 31
0.0
  0
MTEXT
  5
EB
330
E3
100
AcDbEntity
  8
VERMASSUNG
100
AcDbMText
 10
193.485577519
 20
47.9668039273
 30
4.6
 40
2.0
 41
0.0
 71
     1
 72
     1
  1
88
  7
SLDTEXTSTYLE0
 73
     1
 44
1.0
  0
ENDBLK
  5
E5
330
E3
100
AcDbEntity
  8
0
100
AcDbBlockEnd
  0
BLOCK
  5
12E
330
12D
100
AcDbEntity
  8
0
100
AcDbBlockBegin
  2
_D_3
 70
     0
 10
0.0
 20
0.0
 30
0.0
  3
_D_3
  1

  0
SOLID
  5
130
330
12D
100
AcDbEntity
  8
VERMASSUNG
100
AcDbTrace
 10
97.8403018888
 20
119.3679608853
 30
0.0
 11
100.4391320495
 21
120.9327553751
 31
0.0
 12
99.8656496982
 22
121.6263820707
 32
0.0
 13
99.8656496982
 23
121.6263820707
 33
0.0
  0
LINE
  5
131
330
12D
100
AcDbEntity
  8
VERMASSUNG
100
AcDbLine
 10
97.8403018888
 20
119.3679608853
 30
0.0
 11
107.1305476413
 21
127.0490262371
 31
0.0
  0
LINE
  5
132
330
12D
100
AcDbEntity
  8
VERMASSUNG
100
AcDbLine
 10
97.8403018888
 20
119.3679608853
 30
0.0
 11
67.0124487537
 21
93.8798563838
 31
0.0
  0
MTEXT
  5
133
330
12D
100
AcDbEntity
  8
VERMASSUNG
100
AcDbMText
 10
100.5562094934
 20
124.9567842945
 30
-13.9
 40
2.0
 41
0.0
 71
     1
 72
     1
  1
R40
  7
SLDTEXTSTYLE0
 11
0.7706963283775885
 21
0.6372026125380406
 31
0.0
 73
     1
 44
1.0
  0
ENDBLK
  5
12F
330
12D
100
AcDbEntity
  8
0
100
AcDbBlockEnd
  0
BLOCK
  5
135
330
134
100
AcDbEntity
  8
0
100
AcDbBlockBegin
  2
SW_CENTERMARKSYMBOL_0
 70
     0
 10
0.0
 20
0.0
 30
0.0
  3
SW_CENTERMARKSYMBOL_0
  1

  0
LINE
  5
137
330
134
100
AcDbEntity
  8
VERMASSUNG
 62
     0
100
AcDbLine
 10
0.0
 20
0.0
 30
0.0
 11
0.0
 21
2.5
 31
0.0
  0
LINE
  5
138
330
134
100
AcDbEntity
  8
VERMASSUNG
 62
     0
100
AcDbLine
 10
0.0
 20
0.0
 30
0.0
 11
-2.5
 21
0.0
 31
0.0
  0
LINE
  5
139
330
134
100
AcDbEntity
  8
VERMASSUNG
 62
     0
100
AcDbLine
 10
0.0
 20
0.0
 30
0.0
 11
0.0
 21
-2.5
 31
0.0
  0
LINE
  5
13A
330
134
100
AcDbEntity
  8
VERMASSUNG
 62
     0
100
AcDbLine
 10
0.0
 20
0.0
 30
0.0
 11
2.5
 21
0.0
 31
0.0
  0
LINE
  5
13B
330
134
100
AcDbEntity
  8
VERMASSUNG
 62
     0
100
AcDbLine
 10
0.0
 20
5.0
 30
0.0
 11
0.0
 21
42.5
 31
0.0
  0
LINE
  5
13C
330
134
100
AcDbEntity
  8
VERMASSUNG
 62
     0
100
AcDbLine
 10
-5.0
 20
0.0
 30
0.0
 11
-42.5
 21
0.0
 31
0.0
  0
LINE
  5
13D
330
134
100
AcDbEntity
  8
VERMASSUNG
 62
     0
100
AcDbLine
 10
0.0
 20
-5.0
 30
0.0
 11
0.0
 21
-42.5
 31
0.0
  0
LINE
  5
13E
330
134
100
AcDbEntity
  8
VERMASSUNG
 62
     0
100
AcDbLine
 10
5.0
 20
0.0
 30
0.0
 11
42.5
 21
0.0
 31
0.0
  0
ENDBLK
  5
136
330
134
100
AcDbEntity
  8
0
100
AcDbBlockEnd
  0
BLOCK
  5
271
330
270
100
AcDbEntity
  8
0
100
AcDbBlockBegin
  2
_D_4
 70
     0
 10
0.0
 20
0.0
 30
0.0
  3
_D_4
  1

  0
SOLID
  5
273
330
270
100
AcDbEntity
  8
VERMASSUNG
100
AcDbTrace
 10
248.3184150488
 20
152.0240870492
 30
0.0
 11
248.7684150488
 21
155.0240870492
 31
0.0
 12
247.8684150488
 22
155.0240870492
 32
0.0
 13
247.8684150488
 23
155.0240870492
 33
0.0
  0
SOLID
  5
274
330
270
100
AcDbEntity
  8
VERMASSUNG
100
AcDbTrace
 10
248.3184150488
 20
172.0240870492
 30
0.0
 11
247.8684150488
 21
169.0240870492
 31
0.0
 12
248.7684150488
 22
169.0240870492
 32
0.0
 13
248.7684150488
 23
169.0240870492
 33
0.0
  0
LINE
  5
275
330
270
100
AcDbEntity
  8
VERMASSUNG
100
AcDbLine
 10
239.78557757
 20
152.0240870492
 30
0.0
 11
249.3184150488
 21
152.0240870492
 31
0.0
  0
LINE
  5
276
330
270
100
AcDbEntity
  8
VERMASSUNG
100
AcDbLine
 10
244.599272729
 20
172.0240870492
 30
0.0
 11
249.3184150488
 21
172.0240870492
 31
0.0
  0
LINE
  5
277
330
270
100
AcDbEntity
  8
VERMASSUNG
100
AcDbLine
 10
248.3184150488
 20
152.0240870492
 30
0.0
 11
248.3184150488
 21
172.0240870492
 31
0.0
  0
MTEXT
  5
278
330
270
100
AcDbEntity
  8
VERMASSUNG
100
AcDbMText
 10
245.7402796857
 20
159.7240869982
 30
0.1
 40
2.0
 41
0.0
 71
     1
 72
     1
  1
20
  7
SLDTEXTSTYLE0
 11
6.123233995736766E-17
 21
1.0
 31
0.0
 73
     1
 44
1.0
  0
ENDBLK
  5
272
330
270
100
AcDbEntity
  8
0
100
AcDbBlockEnd
  0
BLOCK
  5
27B
330
27A
100
AcDbEntity
  8
0
100
AcDbBlockBegin
  2
_D_5
 70
     0
 10
0.0
 20
0.0
 30
0.0
  3
_D_5
  1

  0
SOLID
  5
27D
330
27A
100
AcDbEntity
  8
VERMASSUNG
100
AcDbTrace
 10
255.78557757
 20
172.0240870492
 30
0.0
 11
256.23557757
 21
175.0240870492
 31
0.0
 12
255.33557757
 22
175.0240870492
 32
0.0
 13
255.33557757
 23
175.0240870492
 33
0.0
  0
SOLID
  5
27E
330
27A
100
AcDbEntity
  8
VERMASSUNG
100
AcDbTrace
 10
255.78557757
 20
192.0240870492
 30
0.0
 11
255.33557757
 21
189.0240870492
 31
0.0
 12
256.23557757
 22
189.0240870492
 32
0.0
 13
256.23557757
 23
189.0240870492
 33
0.0
  0
LINE
  5
27F
330
27A
100
AcDbEntity
  8
VERMASSUNG
100
AcDbLine
 10
244.599272729
 20
172.0240870492
 30
0.0
 11
256.78557757
 21
172.0240870492
 31
0.0
  0
LINE
  5
280
330
27A
100
AcDbEntity
  8
VERMASSUNG
100
AcDbLine
 10
238.78557757
 20
192.0240870492
 30
0.0
 11
256.78557757
 21
192.0240870492
 31
0.0
  0
LINE
  5
281
330
27A
100
AcDbEntity
  8
VERMASSUNG
100
AcDbLine
 10
255.78557757
 20
172.0240870492
 30
0.0
 11
255.78557757
 21
192.0240870492
 31
0.0
  0
MTEXT
  5
282
330
27A
100
AcDbEntity
  8
VERMASSUNG
100
AcDbMText
 10
253.2074422069
 20
179.7240869982
 30
0.1
 40
2.0
 41
0.0
 71
     1
 72
     1
  1
20
  7
SLDTEXTSTYLE0
 11
6.123233995736766E-17
 21
1.0
 31
0.0
 73
     1
 44
1.0
  0
ENDBLK
  5
27C
330
27A
100
AcDbEntity
  8
0
100
AcDbBlockEnd
  0
BLOCK
  5
285
330
284
100
AcDbEntity
  8
0
100
AcDbBlockBegin
  2
_D_6
 70
     0
 10
0.0
 20
0.0
 30
0.0
  3
_D_6
  1

  0
SOLID
  5
287
330
284
100
AcDbEntity
  8
VERMASSUNG
100
AcDbTrace
 10
255.78557757
 20
172.0240870492
 30
0.0
 11
255.33557757
 21
169.0240870492
 31
0.0
 12
256.23557757
 22
169.0240870492
 32
0.0
 13
256.23557757
 23
169.0240870492
 33
0.0
  0
SOLID
  5
288
330
284
100
AcDbEntity
  8
VERMASSUNG
100
AcDbTrace
 10
255.78557757
 20
137.0240870492
 30
0.0
 11
256.23557757
 21
140.0240870492
 31
0.0
 12
255.33557757
 22
140.0240870492
 32
0.0
 13
255.33557757
 23
140.0240870492
 33
0.0
  0
LINE
  5
289
330
284
100
AcDbEntity
  8
VERMASSUNG
100
AcDbLine
 10
244.599272729
 20
172.0240870492
 30
0.0
 11
256.78557757
 21
172.0240870492
 31
0.0
  0
LINE
  5
28A
330
284
100
AcDbEntity
  8
VERMASSUNG
100
AcDbLine
 10
239.78557757
 20
137.0240870492
 30
0.0
 11
256.78557757
 21
137.0240870492
 31
0.0
  0
LINE
  5
28B
330
284
100
AcDbEntity
  8
VERMASSUNG
100
AcDbLine
 10
255.78557757
 20
172.0240870492
 30
0.0
 11
255.78557757
 21
137.0240870492
 31
0.0
  0
MTEXT
  5
28C
330
284
100
AcDbEntity
  8
VERMASSUNG
100
AcDbMText
 10
253.2074422069
 20
152.2240869982
 30
0.1
 40
2.0
 41
0.0
 71
     1
 72
     1
  1
35
  7
SLDTEXTSTYLE0
 11
-7.044195017643634E-15
 21
1.0
 31
0.0
 73
     1
 44
1.0
  0
ENDBLK
  5
286
330
284
100
AcDbEntity
  8
0
100
AcDbBlockEnd
  0
BLOCK
  5
290
330
28F
100
AcDbEntity
  8
0
100
AcDbBlockBegin
  2
_D_7
 70
     0
 10
0.0
 20
0.0
 30
0.0
  3
_D_7
  1

  0
SOLID
  5
292
330
28F
100
AcDbEntity
  8
VERMASSUNG
100
AcDbTrace
 10
248.3184150488
 20
172.0240870492
 30
0.0
 11
247.8684150488
 21
169.0240870492
 31
0.0
 12
248.7684150488
 22
169.0240870492
 32
0.0
 13
248.7684150488
 23
169.0240870492
 33
0.0
  0
SOLID
  5
293
330
28F
100
AcDbEntity
  8
VERMASSUNG
100
AcDbTrace
 10
248.3184150488
 20
173.0240870492
 30
0.0
 11
248.7684150488
 21
176.0240870492
 31
0.0
 12
247.8684150488
 22
176.0240870492
 32
0.0
 13
247.8684150488
 23
176.0240870492
 33
0.0
  0
LINE
  5
294
330
28F
100
AcDbEntity
  8
VERMASSUNG
100
AcDbLine
 10
244.599272729
 20
172.0240870492
 30
0.0
 11
249.3184150488
 21
172.0240870492
 31
0.0
  0
LINE
  5
295
330
28F
100
AcDbEntity
  8
VERMASSUNG
100
AcDbLine
 10
239.78557757
 20
173.0240870492
 30
0.0
 11
249.3184150488
 21
173.0240870492
 31
0.0
  0
LINE
  5
296
330
28F
100
AcDbEntity
  8
VERMASSUNG
100
AcDbLine
 10
248.3184150488
 20
172.0240870492
 30
0.0
 11
248.3184150488
 21
166.0240870492
 31
0.0
  0
LINE
  5
297
330
28F
100
AcDbEntity
  8
VERMASSUNG
100
AcDbLine
 10
248.3184150488
 20
172.0240870492
 30
0.0
 11
248.3184150488
 21
173.0240870492
 31
0.0
  0
LINE
  5
298
330
28F
100
AcDbEntity
  8
VERMASSUNG
100
AcDbLine
 10
248.3184150488
 20
173.0240870492
 30
0.0
 11
248.3184150488
 21
182.763097027
 31
0.0
  0
MTEXT
  5
299
330
28F
100
AcDbEntity
  8
VERMASSUNG
100
AcDbMText
 10
245.7402796857
 20
179.9630968941
 30
0.1
 40
2.0
 41
0.0
 71
     1
 72
     1
  1
1
  7
SLDTEXTSTYLE0
 11
6.123233995736766E-17
 21
1.0
 31
0.0
 73
     1
 44
1.0
  0
ENDBLK
  5
291
330
28F
100
AcDbEntity
  8
0
100
AcDbBlockEnd
  0
BLOCK
  5
29C
330
29B
100
AcDbEntity
  8
0
100
AcDbBlockBegin
  2
_D_8
 70
     0
 10
0.0
 20
0.0
 30
0.0
  3
_D_8
  1

  0
SOLID
  5
29E
330
29B
100
AcDbEntity
  8
VERMASSUNG
100
AcDbTrace
 10
141.78557757
 20
197.0240870492
 30
0.0
 11
141.33557757
 21
194.0240870492
 31
0.0
 12
142.23557757
 22
194.0240870492
 32
0.0
 13
142.23557757
 23
194.0240870492
 33
0.0
  0
SOLID
  5
29F
330
29B
100
AcDbEntity
  8
VERMASSUNG
100
AcDbTrace
 10
141.78557757
 20
147.0240870492
 30
0.0
 11
142.23557757
 21
150.0240870492
 31
0.0
 12
141.33557757
 22
150.0240870492
 32
0.0
 13
141.33557757
 23
150.0240870492
 33
0.0
  0
LINE
  5
2A0
330
29B
100
AcDbEntity
  8
VERMASSUNG
100
AcDbLine
 10
182.08557757
 20
197.0240870492
 30
0.0
 11
140.78557757
 21
197.0240870492
 31
0.0
  0
LINE
  5
2A1
330
29B
100
AcDbEntity
  8
VERMASSUNG
100
AcDbLine
 10
182.08557757
 20
147.0240870492
 30
0.0
 11
140.78557757
 21
147.0240870492
 31
0.0
  0
LINE
  5
2A2
330
29B
100
AcDbEntity
  8
VERMASSUNG
100
AcDbLine
 10
141.78557757
 20
197.0240870492
 30
0.0
 11
141.78557757
 21
147.0240870492
 31
0.0
  0
MTEXT
  5
2A3
330
29B
100
AcDbEntity
  8
VERMASSUNG
100
AcDbMText
 10
139.007442081
 20
165.61908694
 30
0.1
 40
2.0
 41
0.0
 71
     1
 72
     1
  1
PSC
  7
SLDTEXTSTYLE0
 11
-7.044195017643634E-15
 21
1.0
 31
0.0
 73
     1
 44
1.0
  0
MTEXT
  5
2A4
330
29B
100
AcDbEntity
  8
VERMASSUNG
100
AcDbMText
 10
139.2074420905
 20
170.2190870421
 30
0.1
 40
2.0
 41
0.0
 71
     1
 72
     1
  1
%%c
  7
SLDTEXTSTYLE0
 11
-7.044195017643634E-15
 21
1.0
 31
0.0
 73
     1
 44
1.0
  0
MTEXT
  5
2A5
330
29B
100
AcDbEntity
  8
VERMASSUNG
100
AcDbMText
 10
139.007442081
 20
173.8290875221
 30
0.1
 40
2.0
 41
0.0
 71
     1
 72
     1
  1
50
  7
SLDTEXTSTYLE0
 11
-7.044195017643634E-15
 21
1.0
 31
0.0
 73
     1
 44
1.0
  0
ENDBLK
  5
29D
330
29B
100
AcDbEntity
  8
0
100
AcDbBlockEnd
  0
ENDSEC
  0
SECTION
  2
ENTITIES
  0
MTEXT
  5
49
330
1F
100
AcDbEntity
  8
KOPF_DÜNN
100
AcDbMText
 10
13.8892156294
 20
23.8442973028
 30
0.0
 40
3.0
 41
0.0
 71
     1
 72
     1
  1
PS5.V20.N11.058
  7
SLDTEXTSTYLE0
 73
     1
 44
1.0
  0
MTEXT
  5
4A
330
1F
100
AcDbEntity
  8
VERMASSUNG
100
AcDbMText
 10
13.9329988022
 20
28.8834360957
 30
0.0
 40
3.0
 41
0.0
 71
     1
 72
     1
  1
Werkzeughalter radial / Tool holder radial
  7
SLDTEXTSTYLE0
 73
     1
 44
1.0
  0
MTEXT
  5
4B
330
1F
100
AcDbEntity
  8
VERMASSUNG
100
AcDbMText
 10
98.8601118557
 20
13.8365368179
 30
0.0
 40
2.0
 41
0.0
 71
     1
 72
     1
  1
Datum: 08.05.2012
  7
SLDTEXTSTYLE0
 73
     1
 44
1.0
  0
MTEXT
  5
4C
330
1F
100
AcDbEntity
  8
VERMASSUNG
100
AcDbMText
 10
13.933048693
 20
18.0482802738
 30
0.0
 40
2.0
 41
0.0
 71
     1
 72
     1
  1
PSC ø50 / 20x20
  7
SLDTEXTSTYLE0
 73
     1
 44
1.0
  0
MTEXT
  5
4D
330
1F
100
AcDbEntity
  8
VERMASSUNG
100
AcDbMText
 10
13.9808475933
 20
13.9090973692
 30
0.0
 40
2.0
 41
0.0
 71
     1
 72
     1
  1
Gewicht: 1205g
  7
SLDTEXTSTYLE0
 73
     1
 44
1.0
  0
ARC
  5
4E
330
1F
100
AcDbEntity
  8
0
  6
Continuous
 62
     7
370
    15
100
AcDbCircle
 10
212.78557757
 20
121.8798563838
 30
0.0
 40
4.999999999999998
100
AcDbArc
 50
124.6978938945
 51
156.4218215218
  0
ARC
  5
4F
330
1F
100
AcDbEntity
  8
0
  6
Continuous
 62
     7
370
    15
100
AcDbCircle
 10
212.78557757
 20
121.8798563838
 30
0.0
 40
5.000000000000021
100
AcDbArc
 50
23.5781784782
 51
44.1354012933
  0
ARC
  5
50
330
1F
100
AcDbEntity
  8
0
  6
Continuous
 62
     7
370
    15
100
AcDbCircle
 10
212.78557757
 20
65.8798563838
 30
0.0
 40
4.999999999999994
100
AcDbArc
 50
304.6978938945
 51
336.4218215218
  0
ARC
  5
51
330
1F
100
AcDbEntity
  8
0
  6
Continuous
 62
     7
370
    15
100
AcDbCircle
 10
212.78557757
 20
65.8798563838
 30
0.0
 40
5.000000000000027
100
AcDbArc
 50
203.5781784782
 51
224.1354012933
  0
LINE
  5
52
330
1F
100
AcDbEntity
  8
0
  6
Continuous
 62
     7
370
    15
100
AcDbLine
 10
203.1393520617
 20
123.8798563838
 30
0.0
 11
202.7817722681
 21
119.792700641
 31
0.0
  0
LINE
  5
53
330
1F
100
AcDbEntity
  8
0
  6
Continuous
 62
     7
370
    15
100
AcDbLine
 10
202.7817722681
 20
67.9670121265
 30
0.0
 11
203.1393520617
 21
63.8798563838
 31
0.0
  0
ARC
  5
54
330
1F
100
AcDbEntity
  8
0
  6
Continuous
 62
     7
370
    15
100
AcDbCircle
 10
201.78557757
 20
67.8798563838
 30
0.0
 40
1.000000000000009
100
AcDbArc
 50
5.0
 51
90.0
  0
ARC
  5
55
330
1F
100
AcDbEntity
  8
0
  6
Continuous
 62
     7
370
    15
100
AcDbCircle
 10
201.78557757
 20
119.8798563838
 30
0.0
 40
1.000000000000009
100
AcDbArc
 50
270.0
 51
355.0
  0
LINE
  5
56
330
1F
100
AcDbEntity
  8
0
  6
Continuous
 62
     7
370
    15
100
AcDbLine
 10
182.08557757
 20
68.8798563838
 30
0.0
 11
201.78557757
 21
68.8798563838
 31
0.0
  0
LINE
  5
57
330
1F
100
AcDbEntity
  8
0
  6
Continuous
 62
     7
370
    15
100
AcDbLine
 10
201.78557757
 20
118.8798563838
 30
0.0
 11
182.08557757
 21
118.8798563838
 31
0.0
  0
ARC
  5
58
330
1F
100
AcDbEntity
  8
0
  6
Continuous
 62
     7
370
    15
100
AcDbCircle
 10
182.08557757
 20
69.1798563838
 30
0.0
 40
0.2999999999999972
100
AcDbArc
 50
180.0
 51
270.0
  0
ARC
  5
59
330
1F
100
AcDbEntity
  8
0
  6
Continuous
 62
     7
370
    15
100
AcDbCircle
 10
182.08557757
 20
118.5798563838
 30
0.0
 40
0.2999999999999972
100
AcDbArc
 50
90.0
 51
180.0
  0
LWPOLYLINE
  5
5A
330
1F
100
AcDbEntity
  8
0
  6
Continuous
 62
     7
370
    15
100
AcDbPolyline
 90
        3
 70
   128
 43
0.0
 10
181.58557757
 20
76.0400361049
 10
181.7110325135
 20
75.9717339899
 10
181.78557757
 20
75.9189962318
  0
LWPOLYLINE
  5
5B
330
1F
100
AcDbEntity
  8
0
  6
Continuous
 62
     7
370
    15
100
AcDbPolyline
 90
        3
 70
   128
 43
0.0
 10
181.78557757
 20
111.8407165357
 10
181.7110325135
 20
111.7879787776
 10
181.58557757
 20
111.7196766626
  0
CIRCLE
  5
5C
330
1F
100
AcDbEntity
  8
0
  6
Continuous
 62
     7
370
    15
100
AcDbCircle
 10
229.78557757
 20
93.8798563838
 30
0.0
 40
4.172000000000034
  0
CIRCLE
  5
5D
330
1F
100
AcDbEntity
  8
0
  6
Continuous
 62
     7
370
    15
100
AcDbCircle
 10
229.78557757
 20
93.8798563838
 30
0.0
 40
5.000000000000031
  0
LINE
  5
5E
330
1F
100
AcDbEntity
  8
0
  6
Continuous
 62
     7
370
    15
100
AcDbLine
 10
231.1216424363
 20
96.4388139853
 30
0.0
 11
232.6697322933
 21
94.0022690693
 31
0.0
  0
LINE
  5
5F
330
1F
100
AcDbEntity
  8
0
  6
Continuous
 62
     7
370
    15
100
AcDbLine
 10
228.4495127038
 20
91.3208987822
 30
0.0
 11
226.9014228467
 21
93.7574436983
 31
0.0
  0
LINE
  5
60
330
1F
100
AcDbEntity
  8
0
  6
Continuous
 62
     7
370
    15
100
AcDbLine
 10
228.4495127038
 20
91.3208987822
 30
0.0
 11
231.333667427
 21
91.4433114677
 31
0.0
  0
LINE
  5
61
330
1F
100
AcDbEntity
  8
0
  6
Continuous
 62
     7
370
    15
100
AcDbLine
 10
228.237487713
 20
96.3164012998
 30
0.0
 11
226.9014228467
 21
93.7574436983
 31
0.0
  0
LINE
  5
62
330
1F
100
AcDbEntity
  8
0
  6
Continuous
 62
     7
370
    15
100
AcDbLine
 10
231.333667427
 20
91.4433114677
 30
0.0
 11
232.6697322933
 21
94.0022690693
 31
0.0
  0
LINE
  5
63
330
1F
100
AcDbEntity
  8
0
  6
Continuous
 62
     7
370
    15
100
AcDbLine
 10
228.237487713
 20
96.3164012998
 30
0.0
 11
231.1216424363
 21
96.4388139853
 31
0.0
  0
LINE
  5
64
330
1F
100
AcDbEntity
  8
0
  6
Continuous
 62
     7
370
    15
100
AcDbLine
 10
232.28557757
 20
115.3232320567
 30
0.0
 11
229.78557757
 21
116.7666077297
 31
0.0
  0
LINE
  5
65
330
1F
100
AcDbEntity
  8
0
  6
Continuous
 62
     7
370
    15
100
AcDbLine
 10
227.28557757
 20
115.3232320567
 30
0.0
 11
229.78557757
 21
116.7666077297
 31
0.0
  0
LINE
  5
66
330
1F
100
AcDbEntity
  8
0
  6
Continuous
 62
     7
370
    15
100
AcDbLine
 10
227.28557757
 20
112.4364807108
 30
0.0
 11
227.28557757
 21
115.3232320567
 31
0.0
  0
LINE
  5
67
330
1F
100
AcDbEntity
  8
0
  6
Continuous
 62
     7
370
    15
100
AcDbLine
 10
227.28557757
 20
112.4364807108
 30
0.0
 11
229.78557757
 21
110.9931050378
 31
0.0
  0
LINE
  5
68
330
1F
100
AcDbEntity
  8
0
  6
Continuous
 62
     7
370
    15
100
AcDbLine
 10
232.28557757
 20
112.4364807108
 30
0.0
 11
229.78557757
 21
110.9931050378
 31
0.0
  0
LINE
  5
69
330
1F
100
AcDbEntity
  8
0
  6
Continuous
 62
     7
370
    15
100
AcDbLine
 10
232.28557757
 20
112.4364807108
 30
0.0
 11
232.28557757
 21
115.3232320567
 31
0.0
  0
CIRCLE
  5
6A
330
1F
100
AcDbEntity
  8
0
  6
Continuous
 62
     7
370
    15
100
AcDbCircle
 10
229.78557757
 20
113.8798563838
 30
0.0
 40
4.172000000000011
  0
CIRCLE
  5
6B
330
1F
100
AcDbEntity
  8
0
  6
Continuous
 62
     7
370
    15
100
AcDbCircle
 10
229.78557757
 20
113.8798563838
 30
0.0
 40
5.000000000000028
  0
LINE
  5
6C
330
1F
100
AcDbEntity
  8
0
  6
Continuous
 62
     7
370
    15
100
AcDbLine
 10
231.333667427
 20
71.4433114677
 30
0.0
 11
232.6697322933
 21
74.0022690693
 31
0.0
  0
LINE
  5
6D
330
1F
100
AcDbEntity
  8
0
  6
Continuous
 62
     7
370
    15
100
AcDbLine
 10
231.1216424363
 20
76.4388139853
 30
0.0
 11
232.6697322933
 21
74.0022690693
 31
0.0
  0
LINE
  5
6E
330
1F
100
AcDbEntity
  8
0
  6
Continuous
 62
     7
370
    15
100
AcDbLine
 10
228.237487713
 20
76.3164012998
 30
0.0
 11
231.1216424363
 21
76.4388139853
 31
0.0
  0
LINE
  5
6F
330
1F
100
AcDbEntity
  8
0
  6
Continuous
 62
     7
370
    15
100
AcDbLine
 10
228.4495127038
 20
71.3208987822
 30
0.0
 11
226.9014228467
 21
73.7574436983
 31
0.0
  0
CIRCLE
  5
70
330
1F
100
AcDbEntity
  8
0
  6
Continuous
 62
     7
370
    15
100
AcDbCircle
 10
229.78557757
 20
73.8798563838
 30
0.0
 40
4.172000000000063
  0
LINE
  5
71
330
1F
100
AcDbEntity
  8
0
  6
Continuous
 62
     7
370
    15
100
AcDbLine
 10
228.4495127038
 20
71.3208987822
 30
0.0
 11
231.333667427
 21
71.4433114677
 31
0.0
  0
LINE
  5
72
330
1F
100
AcDbEntity
  8
0
  6
Continuous
 62
     7
370
    15
100
AcDbLine
 10
228.237487713
 20
76.3164012998
 30
0.0
 11
226.9014228467
 21
73.7574436983
 31
0.0
  0
CIRCLE
  5
73
330
1F
100
AcDbEntity
  8
0
  6
Continuous
 62
     7
370
    15
100
AcDbCircle
 10
229.78557757
 20
73.8798563838
 30
0.0
 40
5.000000000000031
  0
LWPOLYLINE
  5
74
330
1F
100
AcDbEntity
  8
0
  6
Continuous
 62
     7
370
    15
100
AcDbPolyline
 90
       32
 70
   128
 43
0.0
 10
215.5938248287
 20
125.5984363661
 10
215.9713581853
 20
125.5144335072
 10
216.2335417801
 20
125.4358537702
 10
216.3696417858
 20
125.365914219
 10
216.3740862523
 20
125.3074781868
 10
216.2466932227
 20
125.2629380517
 10
215.9926781823
 20
125.2341172921
 10
215.622440537
 20
125.2221958333
 10
215.1511378594
 20
125.2276617411
 10
214.5980653364
 20
125.2502912407
 10
213.9858658222
 20
125.2891578778
 10
213.3396028368
 20
125.3426704475
 10
212.6857344628
 20
125.4086381391
 10
212.0510301481
 20
125.4843602274
 10
211.4614747621
 20
125.5667366413
 10
210.9412047715
 20
125.6523948808
 10
210.5115200909
 20
125.7378280874
 10
210.1900120614
 20
125.8195386156
 10
209.9898432598
 20
125.8941812268
 10
209.9192086202
 20
125.9587000437
 10
209.980999933
 20
126.0104536584
 10
210.1726874547
 20
126.0473232718
 10
210.4864234756
 20
126.0677994376
 10
210.9093636061
 20
126.0710438592
 10
211.4241926276
 20
126.0569237095
 10
212.0098333795
 20
126.0260170692
 10
212.6423096605
 20
125.9795892597
 10
213.2957278175
 20
125.9195410411
 10
213.9433368343
 20
125.8483307944
 10
214.5586235216
 20
125.7688738755
 10
215.1163979703
 20
125.68442326
 10
215.5938248287
 20
125.5984363661
  0
LWPOLYLINE
  5
75
330
1F
100
AcDbEntity
  8
0
  6
Continuous
 62
     7
370
    15
100
AcDbPolyline
 90
       29
 70
   128
 43
0.0
 10
215.0307500748
 20
125.6096198769
 10
215.3471905656
 20
125.5382809236
 10
215.553647011
 20
125.4723884965
 10
215.6397668227
 20
125.4152467169
 10
215.6012315938
 20
125.3697209122
 10
215.4399736415
 20
125.3380939365
 10
215.164079113
 20
125.3219516983
 10
214.787382512
 20
125.3221036369
 10
214.3287729789
 20
125.3385421335
 10
213.8112471108
 20
125.3704428931
 10
213.2607558156
 20
125.4162062784
 10
212.7049030256
 20
125.4735375224
 10
212.1715615207
 20
125.5395617969
 10
211.687475271
 20
125.6109683692
 10
211.2769183824
 20
125.6841766155
 10
210.9604778916
 20
125.7555155688
 10
210.7540214462
 20
125.8214079959
 10
210.6679016345
 20
125.8785497755
 10
210.7064368634
 20
125.9240755802
 10
210.8676948157
 20
125.9557025559
 10
211.1435893442
 20
125.971844794
 10
211.5202859452
 20
125.9716928554
 10
211.9788954783
 20
125.9552543589
 10
212.4964213464
 20
125.9233535993
 10
213.0469126416
 20
125.8775902139
 10
213.6027654316
 20
125.82025897
 10
214.1361069365
 20
125.7542346955
 10
214.6201931862
 20
125.6828281232
 10
215.0307500748
 20
125.6096198769
  0
ARC
  5
76
330
1F
100
AcDbEntity
  8
0
  6
Continuous
 62
     7
370
    15
100
AcDbCircle
 10
210.8339404016
 20
101.9157939766
 30
0.0
 40
23.63015381549285
100
AcDbArc
 50
83.511255914
 51
85.3220392737
  0
LWPOLYLINE
  5
77
330
1F
100
AcDbEntity
  8
0
  6
Continuous
 62
     7
370
    15
100
AcDbPolyline
 90
       32
 70
   128
 43
0.0
 10
209.9773303113
 20
62.1612764015
 10
209.5997969547
 20
62.2452792604
 10
209.33761336
 20
62.3238589973
 10
209.2015133542
 20
62.3937985485
 10
209.1970688877
 20
62.4522345807
 10
209.3244619174
 20
62.4967747158
 10
209.5784769577
 20
62.5255954754
 10
209.948714603
 20
62.5375169342
 10
210.4200172806
 20
62.5320510264
 10
210.9730898036
 20
62.5094215268
 10
211.5852893178
 20
62.4705548898
 10
212.2315523032
 20
62.41704232
 10
212.8854206773
 20
62.3510746284
 10
213.5201249919
 20
62.2753525401
 10
214.1096803779
 20
62.1929761262
 10
214.6299503685
 20
62.1073178867
 10
215.0596350492
 20
62.0218846801
 10
215.3811430786
 20
61.9401741519
 10
215.5813118802
 20
61.8655315407
 10
215.6519465199
 20
61.8010127238
 10
215.590155207
 20
61.7492591091
 10
215.3984676854
 20
61.7123894957
 10
215.0847316645
 20
61.6919133299
 10
214.661791534
 20
61.6886689084
 10
214.1469625124
 20
61.702789058
 10
213.5613217606
 20
61.7336956983
 10
212.9288454795
 20
61.7801235078
 10
212.2754273225
 20
61.8401717264
 10
211.6278183057
 20
61.9113819731
 10
211.0125316184
 20
61.990838892
 10
210.4547571698
 20
62.0752895075
 10
209.9773303113
 20
62.1612764015
  0
LWPOLYLINE
  5
78
330
1F
100
AcDbEntity
  8
0
  6
Continuous
 62
     7
370
    15
100
AcDbPolyline
 90
       29
 70
   128
 43
0.0
 10
210.5404050652
 20
62.1500928907
 10
210.2239645744
 20
62.2214318439
 10
210.0175081291
 20
62.2873242711
 10
209.9313883174
 20
62.3444660507
 10
209.9699235463
 20
62.3899918553
 10
210.1311814985
 20
62.421618831
 10
210.407076027
 20
62.4377610692
 10
210.783772628
 20
62.4376091306
 10
211.2423821611
 20
62.4211706341
 10
211.7599080293
 20
62.3892698745
 10
212.3103993244
 20
62.3435064891
 10
212.8662521144
 20
62.2861752451
 10
213.3995936193
 20
62.2201509706
 10
213.8836798691
 20
62.1487443983
 10
214.2942367577
 20
62.075536152
 10
214.6106772484
 20
62.0041971988
 10
214.8171336938
 20
61.9383047716
 10
214.9032535055
 20
61.881162992
 10
214.8647182766
 20
61.8356371874
 10
214.7034603244
 20
61.8040102117
 10
214.4275657959
 20
61.7878679735
 10
214.0508691948
 20
61.7880199121
 10
213.5922596617
 20
61.8044584086
 10
213.0747337936
 20
61.8363591682
 10
212.5242424984
 20
61.8821225536
 10
211.9683897084
 20
61.9394537975
 10
211.4350482035
 20
62.005478072
 10
210.9509619538
 20
62.0768846443
 10
210.5404050652
 20
62.1500928907
  0
ARC
  5
79
330
1F
100
AcDbEntity
  8
0
  6
Continuous
 62
     7
370
    15
100
AcDbCircle
 10
214.7372147385
 20
85.843918791
 30
0.0
 40
23.63015381553352
100
AcDbArc
 50
263.5112559146
 51
265.3220392733
  0
LINE
  5
7A
330
1F
100
AcDbEntity
  8
0
  6
Continuous
 62
     7
370
    15
100
AcDbLine
 10
218.78557757
 20
64.8798563838
 30
0.0
 11
218.78557757
 21
122.8798563838
 31
0.0
  0
LINE
  5
7B
330
1F
100
AcDbEntity
  8
0
  6
Continuous
 62
     7
370
    15
100
AcDbLine
 10
218.78557757
 20
122.8798563838
 30
0.0
 11
219.78557757
 21
122.8798563838
 31
0.0
  0
LINE
  5
7C
330
1F
100
AcDbEntity
  8
0
  6
Continuous
 62
     7
370
    15
100
AcDbLine
 10
219.78557757
 20
122.8798563838
 30
0.0
 11
219.78557757
 21
64.8798563838
 31
0.0
  0
LINE
  5
7D
330
1F
100
AcDbEntity
  8
0
  6
Continuous
 62
     7
370
    15
100
AcDbLine
 10
218.78557757
 20
64.8798563838
 30
0.0
 11
219.78557757
 21
64.8798563838
 31
0.0
  0
LINE
  5
7E
330
1F
100
AcDbEntity
  8
0
  6
Continuous
 62
     7
370
    15
100
AcDbLine
 10
203.9312336856
 20
123.8798563838
 30
0.0
 11
218.78557757
 21
123.8798563838
 31
0.0
  0
LINE
  5
7F
330
1F
100
AcDbEntity
  8
0
  6
Continuous
 62
     7
370
    15
100
AcDbLine
 10
218.78557757
 20
123.8798563838
 30
0.0
 11
218.78557757
 21
122.8798563838
 31
0.0
  0
LINE
  5
80
330
1F
100
AcDbEntity
  8
0
  6
Continuous
 62
     7
370
    15
100
AcDbLine
 10
218.78557757
 20
122.8798563838
 30
0.0
 11
203.9222604816
 21
122.8798563838
 31
0.0
  0
SPLINE
  5
81
330
1F
100
AcDbEntity
  8
0
  6
Continuous
 62
     7
370
    15
100
AcDbSpline
210
0.0
220
0.0
230
1.0
 70
     8
 71
     3
 72
     8
 73
     4
 74
     0
 42
0.00000001
 43
0.00000001
 12
1.0
 22
0.0
 32
0.0
 13
1.0
 23
0.0
 33
0.0
 40
0.0000000000000001
 40
0.0000000000000001
 40
0.0000000000000001
 40
0.0000000000000001
 40
0.0014142420296365
 40
0.0014142420296365
 40
0.0014142420296365
 40
0.0014142420296365
 10
203.9222604816125
 20
122.8798563837589
 30
0.0
 10
203.9245067559914
 20
123.2131926426338
 30
0.0
 10
203.9274998024296
 20
123.5465267969936
 30
0.0
 10
203.9312336856305
 20
123.8798563837589
 30
0.0
  0
LINE
  5
82
330
1F
100
AcDbEntity
  8
0
  6
Continuous
 62
     7
370
    15
100
AcDbLine
 10
219.78557757
 20
64.8798563838
 30
0.0
 11
218.78557757
 21
63.8798563838
 31
0.0
  0
LINE
  5
83
330
1F
100
AcDbEntity
  8
0
  6
Continuous
 62
     7
370
    15
100
AcDbLine
 10
218.78557757
 20
64.8798563838
 30
0.0
 11
218.78557757
 21
63.8798563838
 31
0.0
  0
LINE
  5
84
330
1F
100
AcDbEntity
  8
0
  6
Continuous
 62
     7
370
    15
100
AcDbLine
 10
218.78557757
 20
123.8798563838
 30
0.0
 11
219.78557757
 21
122.8798563838
 31
0.0
  0
LINE
  5
85
330
1F
100
AcDbEntity
  8
0
  6
Continuous
 62
     7
370
    15
100
AcDbLine
 10
203.9222604816
 20
64.8798563838
 30
0.0
 11
218.78557757
 21
64.8798563838
 31
0.0
  0
SPLINE
  5
86
330
1F
100
AcDbEntity
  8
0
  6
Continuous
 62
     7
370
    15
100
AcDbSpline
210
0.0
220
0.0
230
1.0
 70
     8
 71
     3
 72
    16
 73
    12
 74
     0
 42
0.00000001
 43
0.00000001
 12
1.0
 22
0.0
 32
0.0
 13
1.0
 23
0.0
 33
0.0
 40
0.0
 40
0.0
 40
0.0
 40
0.0
 40
0.2499999999999999
 40
0.2499999999999999
 40
0.4999999999999997
 40
0.4999999999999997
 40
0.6249999999999998
 40
0.6249999999999998
 40
0.7499999999999998
 40
0.7499999999999998
 40
1.0
 40
1.0
 40
1.0
 40
1.0
 10
203.922260481614
 20
122.8798563837588
 30
0.0
 10
203.6077047235928
 20
118.0510404667436
 30
0.0
 10
203.3255051707903
 20
113.2189679844346
 30
0.0
 10
202.9135033583588
 20
103.5538304201902
 30
0.0
 10
202.7894728574588
 20
98.72006530700928
 30
0.0
 10
202.7893597368221
 20
91.46670401175186
 30
0.0
 10
202.8193410585536
 20
89.04847879550053
 30
0.0
 10
202.9330129832255
 20
84.21124449373424
 30
0.0
 10
203.0164192708976
 20
81.79162385273072
 30
0.0
 10
203.3256313348815
 20
74.53769978869042
 30
0.0
 10
203.607778132333
 20
69.70754538675703
 30
0.0
 10
203.922260481614
 20
64.87985638375895
 30
0.0
  0
SPLINE
  5
87
330
1F
100
AcDbEntity
  8
0
  6
Continuous
 62
     7
370
    15
100
AcDbSpline
210
0.0
220
0.0
230
1.0
 70
     8
 71
     3
 72
     8
 73
     4
 74
     0
 42
0.00000001
 43
0.00000001
 12
1.0
 22
0.0
 32
0.0
 13
1.0
 23
0.0
 33
0.0
 40
0.0
 40
0.0
 40
0.0
 40
0.0
 40
0.0014142420296365
 40
0.0014142420296365
 40
0.0014142420296365
 40
0.0014142420296365
 10
203.9312336856305
 20
63.87985638375896
 30
0.0
 10
203.9274998024296
 20
64.21318597052428
 30
0.0
 10
203.9245067559928
 20
64.54652012488404
 30
0.0
 10
203.922260481614
 20
64.87985638375895
 30
0.0
  0
SPLINE
  5
88
330
1F
100
AcDbEntity
  8
0
  6
Continuous
 62
     7
370
    15
100
AcDbSpline
210
0.0
220
0.0
230
1.0
 70
    24
 71
     3
 72
    11
 73
     7
 74
     0
 42
0.00000001
 43
0.00000001
 12
1.0
 22
0.0
 32
0.0
 13
1.0
 23
0.0
 33
0.0
 40
0.0
 40
0.0
 40
0.0
 40
0.0
 40
0.2329162189941335
 40
0.465854450457717
 40
0.8493598878235508
 40
1.0
 40
1.0
 40
1.0
 40
1.0
 10
203.9312336856305
 20
63.87985638375896
 30
0.0
 10
203.8265078214236
 20
63.87985638375894
 30
0.0
 10
203.6170461955673
 20
63.87985638375894
 30
0.0
 10
203.3294028505785
 20
63.87985638375896
 30
0.0
 10
203.1343902283554
 20
63.87985638375894
 30
0.0
 10
203.163075920445
 20
63.87985638375894
 30
0.0
 10
203.1711658799662
 20
63.87985638375896
 30
0.0
  0
SPLINE
  5
89
330
1F
100
AcDbEntity
  8
0
  6
Continuous
 62
     7
370
    15
100
AcDbSpline
210
0.0
220
0.0
230
1.0
 70
    24
 71
     3
 72
    10
 73
     6
 74
     0
 42
0.00000001
 43
0.00000001
 12
1.0
 22
0.0
 32
0.0
 13
1.0
 23
0.0
 33
0.0
 40
0.0
 40
0.0
 40
0.0
 40
0.0
 40
0.1495067990471809
 40
0.5341487061181227
 40
1.0
 40
1.0
 40
1.0
 40
1.0
 10
203.1711581718501
 20
123.8798563837589
 30
0.0
 10
203.1632259469515
 20
123.8798563837589
 30
0.0
 10
203.1348861811803
 20
123.8798563837589
 30
0.0
 10
203.375958864385
 20
123.8798563837589
 30
0.0
 10
203.7347232015192
 20
123.8798563837589
 30
0.0
 10
203.9312336856305
 20
123.8798563837589
 30
0.0
  0
LINE
  5
8A
330
1F
100
AcDbEntity
  8
0
  6
Continuous
 62
     7
370
    15
100
AcDbLine
 10
218.78557757
 20
63.8798563838
 30
0.0
 11
203.9312336856
 21
63.8798563838
 31
0.0
  0
SPLINE
  5
8B
330
1F
100
AcDbEntity
  8
0
  6
Continuous
 62
     7
370
    15
100
AcDbSpline
210
0.0
220
0.0
230
1.0
 70
     8
 71
     3
 72
    12
 73
     8
 74
     0
 42
0.00000001
 43
0.00000001
 12
1.0
 22
0.0
 32
0.0
 13
1.0
 23
0.0
 33
0.0
 40
0.0
 40
0.0
 40
0.0
 40
0.0
 40
0.2500000000000009
 40
0.2500000000000009
 40
0.5000000000000019
 40
0.5000000000000019
 40
1.0
 40
1.0
 40
1.0
 40
1.0
 10
190.3133343835834
 20
101.4486663529394
 30
0.0
 10
190.2496691470529
 20
101.4486663529394
 30
0.0
 10
190.1900629148295
 20
101.474738501419
 30
0.0
 10
190.0914023898987
 20
101.5502772522401
 30
0.0
 10
190.0524353998834
 20
101.5975281893364
 30
0.0
 10
189.953048567959
 20
101.7493520073028
 30
0.0
 10
189.9109723205355
 20
101.8621552570679
 30
0.0
 10
189.8803216816912
 20
101.976309381803
 30
0.0
  0
LINE
  5
8C
330
1F
100
AcDbEntity
  8
0
  6
Continuous
 62
     7
370
    15
100
AcDbLine
 10
193.2578207565
 20
101.4486663529
 30
0.0
 11
190.3133343836
 21
101.4486663529
 31
0.0
  0
SPLINE
  5
8D
330
1F
100
AcDbEntity
  8
0
  6
Continuous
 62
     7
370
    15
100
AcDbSpline
210
0.0
220
0.0
230
1.0
 70
     8
 71
     3
 72
    12
 73
     8
 74
     0
 42
0.00000001
 43
0.00000001
 12
1.0
 22
0.0
 32
0.0
 13
1.0
 23
0.0
 33
0.0
 40
0.0
 40
0.0
 40
0.0
 40
0.0
 40
0.4999999999999953
 40
0.4999999999999953
 40
0.7499999999999977
 40
0.7499999999999977
 40
1.0
 40
1.0
 40
1.0
 40
1.0
 10
193.6908334583428
 20
101.976309381803
 30
0.0
 10
193.6601340749754
 20
101.8619737147391
 30
0.0
 10
193.6187840068689
 20
101.7506203618977
 30
0.0
 10
193.5190280786495
 20
101.597883589649
 30
0.0
 10
193.4793311609168
 20
101.5500237037969
 30
0.0
 10
193.3820730092692
 20
101.4754205904475
 30
0.0
 10
193.3212968512785
 20
101.4486663529394
 30
0.0
 10
193.2578207564505
 20
101.4486663529394
 30
0.0
  0
ELLIPSE
  5
8E
330
1F
100
AcDbEntity
  8
0
  6
Continuous
 62
     7
370
    15
100
AcDbEllipse
 10
180.729319915
 20
93.8798563838
 30
0.0
 11
11.70927234972706
 21
24.67718644093743
 31
0.0
210
0.0
220
0.0
230
1.0
 40
0.3419987131
 41
5.203068809370449
 42
6.114256032590492
  0
SPLINE
  5
8F
330
1F
100
AcDbEntity
  8
0
  6
Continuous
 62
     7
370
    15
100
AcDbSpline
210
0.0
220
0.0
230
1.0
 70
     8
 71
     3
 72
    12
 73
     8
 74
     0
 42
0.00000001
 43
0.00000001
 12
1.0
 22
0.0
 32
0.0
 13
1.0
 23
0.0
 33
0.0
 40
0.0
 40
0.0
 40
0.0
 40
0.0
 40
0.25
 40
0.25
 40
0.5
 40
0.5
 40
1.0
 40
1.0
 40
1.0
 40
1.0
 10
193.2578207564505
 20
117.7065874992608
 30
0.0
 10
193.3214859929811
 20
117.7065874992608
 30
0.0
 10
193.3810922252044
 20
117.698322723595
 30
0.0
 10
193.4797527501352
 20
117.6741039420118
 30
0.0
 10
193.5187197401505
 20
117.6588466227027
 30
0.0
 10
193.618106572075
 20
117.6092132684407
 30
0.0
 10
193.6601828194984
 20
117.5715735602666
 30
0.0
 10
193.6908334583427
 20
117.5324978609905
 30
0.0
  0
LINE
  5
90
330
1F
100
AcDbEntity
  8
0
  6
Continuous
 62
     7
370
    15
100
AcDbLine
 10
190.3133343836
 20
117.7065874993
 30
0.0
 11
193.2578207565
 21
117.7065874993
 31
0.0
  0
SPLINE
  5
91
330
1F
100
AcDbEntity
  8
0
  6
Continuous
 62
     7
370
    15
100
AcDbSpline
210
0.0
220
0.0
230
1.0
 70
     8
 71
     3
 72
    12
 73
     8
 74
     0
 42
0.00000001
 43
0.00000001
 12
1.0
 22
0.0
 32
0.0
 13
1.0
 23
0.0
 33
0.0
 40
0.0
 40
0.0
 40
0.0
 40
0.0
 40
0.5000000000000032
 40
0.5000000000000032
 40
0.7500000000000016
 40
0.7500000000000016
 40
1.0
 40
1.0
 40
1.0
 40
1.0
 10
189.8803216816912
 20
117.5324978609905
 30
0.0
 10
189.9110210650585
 20
117.5716357033864
 30
0.0
 10
189.952371133165
 20
117.6087954861119
 30
0.0
 10
190.0521270613845
 20
117.6587319917396
 30
0.0
 10
190.0918239791172
 20
117.6741848618834
 30
0.0
 10
190.1890821307648
 20
117.6981044054825
 30
0.0
 10
190.2498582887555
 20
117.7065874992609
 30
0.0
 10
190.3133343835834
 20
117.7065874992608
 30
0.0
  0
ELLIPSE
  5
92
330
1F
100
AcDbEntity
  8
0
  6
Continuous
 62
     7
370
    15
100
AcDbEllipse
 10
202.841835225
 20
93.8798563838
 30
0.0
 11
-11.709272349727
 21
24.67718644093745
 31
0.0
210
0.0
220
0.0
230
1.0
 40
0.3419987131
 41
0.1689292745891321
 42
1.080116497809153
  0
SPLINE
  5
93
330
1F
100
AcDbEntity
  8
0
  6
Continuous
 62
     7
370
    15
100
AcDbSpline
210
0.0
220
0.0
230
1.0
 70
     8
 71
     3
 72
    12
 73
     8
 74
     0
 42
0.00000001
 43
0.00000001
 12
1.0
 22
0.0
 32
0.0
 13
1.0
 23
0.0
 33
0.0
 40
0.0
 40
0.0
 40
0.0
 40
0.0
 40
0.2500000000000016
 40
0.2500000000000016
 40
0.5000000000000032
 40
0.5000000000000032
 40
1.0
 40
1.0
 40
1.0
 40
1.0
 10
190.3133343835834
 20
70.05312526825692
 30
0.0
 10
190.2496978293697
 20
70.0531252682569
 30
0.0
 10
190.1901177025035
 20
70.06138203918869
 30
0.0
 10
190.0914809611371
 20
70.08558410119652
 30
0.0
 10
190.0525223367569
 20
70.10083092023065
 30
0.0
 10
189.9531433972489
 20
70.15043579229078
 30
0.0
 10
189.9111854920835
 20
70.18786744040959
 30
0.0
 10
189.880321681691
 20
70.22721490652724
 30
0.0
  0
LINE
  5
94
330
1F
100
AcDbEntity
  8
0
  6
Continuous
 62
     7
370
    15
100
AcDbLine
 10
193.2578207565
 20
70.0531252683
 30
0.0
 11
190.3133343836
 21
70.0531252683
 31
0.0
  0
SPLINE
  5
95
330
1F
100
AcDbEntity
  8
0
  6
Continuous
 62
     7
370
    15
100
AcDbSpline
210
0.0
220
0.0
230
1.0
 70
     8
 71
     3
 72
    12
 73
     8
 74
     0
 42
0.00000001
 43
0.00000001
 12
1.0
 22
0.0
 32
0.0
 13
1.0
 23
0.0
 33
0.0
 40
0.0
 40
0.0
 40
0.0
 40
0.0
 40
0.5000000000000014
 40
0.5000000000000014
 40
0.7500000000000007
 40
0.7500000000000007
 40
1.0
 40
1.0
 40
1.0
 40
1.0
 10
193.6908334583428
 20
70.22721490652727
 30
0.0
 10
193.6599817477785
 20
70.18788286616477
 30
0.0
 10
193.6180888843179
 20
70.15047110063652
 30
0.0
 10
193.5185680065247
 20
70.10080017602061
 30
0.0
 10
193.4789538418004
 20
70.08541109341277
 30
0.0
 10
193.3818508080209
 20
70.06157787774552
 30
0.0
 10
193.3213521353705
 20
70.05312526825672
 30
0.0
 10
193.2578207564506
 20
70.05312526825672
 30
0.0
  0
ELLIPSE
  5
96
330
1F
100
AcDbEntity
  8
0
  6
Continuous
 62
     7
370
    15
100
AcDbEllipse
 10
180.729319915
 20
93.8798563838
 30
0.0
 11
-11.7092723497272
 21
24.67718644093745
 31
0.0
210
0.0
220
0.0
230
1.0
 40
0.3419987131
 41
3.310521928178952
 42
4.221709151398944
  0
SPLINE
  5
97
330
1F
100
AcDbEntity
  8
0
  6
Continuous
 62
     7
370
    15
100
AcDbSpline
210
0.0
220
0.0
230
1.0
 70
     8
 71
     3
 72
    12
 73
     8
 74
     0
 42
0.00000001
 43
0.00000001
 12
1.0
 22
0.0
 32
0.0
 13
1.0
 23
0.0
 33
0.0
 40
0.0
 40
0.0
 40
0.0
 40
0.0
 40
0.2499999999999991
 40
0.2499999999999991
 40
0.4999999999999982
 40
0.4999999999999982
 40
1.0
 40
1.0
 40
1.0
 40
1.0
 10
193.2578207564505
 20
86.31104641457819
 30
0.0
 10
193.3214573106642
 20
86.3110464145782
 30
0.0
 10
193.3810374375304
 20
86.28499951152024
 30
0.0
 10
193.4796741788968
 20
86.20951235262031
 30
0.0
 10
193.5186328032771
 20
86.16229331408961
 30
0.0
 10
193.618011742785
 20
86.01055366299605
 30
0.0
 10
193.6599696479504
 20
85.89835143881186
 30
0.0
 10
193.6908334583429
 20
85.7834033857146
 30
0.0
  0
LINE
  5
98
330
1F
100
AcDbEntity
  8
0
  6
Continuous
 62
     7
370
    15
100
AcDbLine
 10
190.3133343836
 20
86.3110464146
 30
0.0
 11
193.2578207565
 21
86.3110464146
 31
0.0
  0
SPLINE
  5
99
330
1F
100
AcDbEntity
  8
0
  6
Continuous
 62
     7
370
    15
100
AcDbSpline
210
0.0
220
0.0
230
1.0
 70
     8
 71
     3
 72
    12
 73
     8
 74
     0
 42
0.00000001
 43
0.00000001
 12
1.0
 22
0.0
 32
0.0
 13
1.0
 23
0.0
 33
0.0
 40
0.0
 40
0.0
 40
0.0
 40
0.0
 40
0.4999999999999968
 40
0.4999999999999968
 40
0.7499999999999983
 40
0.7499999999999983
 40
1.0
 40
1.0
 40
1.0
 40
1.0
 10
189.8803216816912
 20
85.78340338571456
 30
0.0
 10
189.9111733922554
 20
85.8983063746514
 30
0.0
 10
189.953066255716
 20
86.01044527070027
 30
0.0
 10
190.0525871335092
 20
86.16238755230114
 30
0.0
 10
190.0922012982336
 20
86.21005216182604
 30
0.0
 10
190.189304332013
 20
86.28438849244142
 30
0.0
 10
190.2498030046634
 20
86.31104641457857
 30
0.0
 10
190.3133343835833
 20
86.3110464145786
 30
0.0
  0
ELLIPSE
  5
9A
330
1F
100
AcDbEntity
  8
0
  6
Continuous
 62
     7
370
    15
100
AcDbEllipse
 10
202.841835225
 20
93.8798563838
 30
0.0
 11
11.70927234972709
 21
24.67718644093745
 31
0.0
210
0.0
220
0.0
230
1.0
 40
0.3419987131
 41
2.061476155780654
 42
2.972663379000673
  0
LINE
  5
9B
330
1F
100
AcDbEntity
  8
0
  6
Continuous
 62
     7
370
    15
100
AcDbLine
 10
181.78557757
 20
69.1798563838
 30
0.0
 11
181.78557757
 21
118.5798563823
 31
0.0
  0
LINE
  5
9C
330
1F
100
AcDbEntity
  8
0
  6
Continuous
 62
     7
370
    15
100
AcDbLine
 10
219.78557757
 20
64.8798563838
 30
0.0
 11
220.58557757
 21
64.8798563838
 31
0.0
  0
LINE
  5
9D
330
1F
100
AcDbEntity
  8
0
  6
Continuous
 62
     7
370
    15
100
AcDbLine
 10
220.58557757
 20
122.8798563838
 30
0.0
 11
219.78557757
 21
122.8798563838
 31
0.0
  0
LINE
  5
9E
330
1F
100
AcDbEntity
  8
0
  6
Continuous
 62
     7
370
    15
100
AcDbLine
 10
218.78557757
 20
123.8798563838
 30
0.0
 11
220.58557757
 21
123.8798563838
 31
0.0
  0
LINE
  5
9F
330
1F
100
AcDbEntity
  8
0
  6
Continuous
 62
     7
370
    15
100
AcDbLine
 10
220.58557757
 20
63.8798563838
 30
0.0
 11
218.78557757
 21
63.8798563838
 31
0.0
  0
CIRCLE
  5
A0
330
1F
100
AcDbEntity
  8
0
  6
Continuous
 62
     7
370
    15
100
AcDbCircle
 10
229.78557757
 20
113.8798563838
 30
0.0
 40
5.5
  0
LINE
  5
A1
330
1F
100
AcDbEntity
  8
0
  6
Continuous
 62
     7
370
    15
100
AcDbLine
 10
238.78557757
 20
64.8798563838
 30
0.0
 11
238.78557757
 21
122.8798563838
 31
0.0
  0
LINE
  5
A2
330
1F
100
AcDbEntity
  8
0
  6
Continuous
 62
     7
370
    15
100
AcDbLine
 10
238.78557757
 20
122.8798563838
 30
0.0
 11
239.78557757
 21
122.8798563838
 31
0.0
  0
LINE
  5
A3
330
1F
100
AcDbEntity
  8
0
  6
Continuous
 62
     7
370
    15
100
AcDbLine
 10
239.78557757
 20
122.8798563838
 30
0.0
 11
239.78557757
 21
64.8798563838
 31
0.0
  0
LINE
  5
A4
330
1F
100
AcDbEntity
  8
0
  6
Continuous
 62
     7
370
    15
100
AcDbLine
 10
238.78557757
 20
64.8798563838
 30
0.0
 11
239.78557757
 21
64.8798563838
 31
0.0
  0
LINE
  5
A5
330
1F
100
AcDbEntity
  8
0
  6
Continuous
 62
     7
370
    15
100
AcDbLine
 10
238.78557757
 20
123.8798563838
 30
0.0
 11
239.78557757
 21
122.8798563838
 31
0.0
  0
LINE
  5
A6
330
1F
100
AcDbEntity
  8
0
  6
Continuous
 62
     7
370
    15
100
AcDbLine
 10
238.78557757
 20
123.8798563838
 30
0.0
 11
238.78557757
 21
122.8798563838
 31
0.0
  0
LINE
  5
A7
330
1F
100
AcDbEntity
  8
0
  6
Continuous
 62
     7
370
    15
100
AcDbLine
 10
220.58557757
 20
64.8798563838
 30
0.0
 11
238.78557757
 21
64.8798563838
 31
0.0
  0
LINE
  5
A8
330
1F
100
AcDbEntity
  8
0
  6
Continuous
 62
     7
370
    15
100
AcDbLine
 10
238.78557757
 20
122.8798563838
 30
0.0
 11
220.58557757
 21
122.8798563838
 31
0.0
  0
CIRCLE
  5
A9
330
1F
100
AcDbEntity
  8
0
  6
Continuous
 62
     7
370
    15
100
AcDbCircle
 10
229.78557757
 20
93.8798563838
 30
0.0
 40
5.499999999999986
  0
CIRCLE
  5
AA
330
1F
100
AcDbEntity
  8
0
  6
Continuous
 62
     7
370
    15
100
AcDbCircle
 10
229.78557757
 20
73.8798563838
 30
0.0
 40
5.499999999999986
  0
LINE
  5
AB
330
1F
100
AcDbEntity
  8
0
  6
Continuous
 62
     7
370
    15
100
AcDbLine
 10
220.58557757
 20
123.8798563838
 30
0.0
 11
238.78557757
 21
123.8798563838
 31
0.0
  0
LINE
  5
AC
330
1F
100
AcDbEntity
  8
0
  6
Continuous
 62
     7
370
    15
100
AcDbLine
 10
238.78557757
 20
63.8798563838
 30
0.0
 11
239.78557757
 21
64.8798563838
 31
0.0
  0
LINE
  5
AD
330
1F
100
AcDbEntity
  8
0
  6
Continuous
 62
     7
370
    15
100
AcDbLine
 10
238.78557757
 20
64.8798563838
 30
0.0
 11
238.78557757
 21
63.8798563838
 31
0.0
  0
LINE
  5
AE
330
1F
100
AcDbEntity
  8
0
  6
Continuous
 62
     7
370
    15
100
AcDbLine
 10
238.78557757
 20
63.8798563838
 30
0.0
 11
220.58557757
 21
63.8798563838
 31
0.0
  0
SPLINE
  5
AF
330
1F
100
AcDbEntity
  8
0
  6
Continuous
 62
     7
370
    15
100
AcDbSpline
210
0.0
220
0.0
230
1.0
 70
     8
 71
     3
 72
    16
 73
    12
 74
     0
 42
0.00000001
 43
0.00000001
 12
1.0
 22
0.0
 32
0.0
 13
1.0
 23
0.0
 33
0.0
 40
0.0
 40
0.0
 40
0.0
 40
0.0
 40
0.2499999999999997
 40
0.2499999999999997
 40
0.4999999999999994
 40
0.4999999999999994
 40
0.6249999999999997
 40
0.6249999999999997
 40
0.7499999999999998
 40
0.7499999999999998
 40
1.0
 40
1.0
 40
1.0
 40
1.0
 10
180.7447165418879
 20
76.53069910256635
 30
0.0
 10
180.7764445030806
 20
76.52990198574543
 30
0.0
 10
180.8110720934311
 20
76.52931091089016
 30
0.0
 10
180.8907658554948
 20
76.5282993854557
 30
0.0
 10
180.9358073154985
 20
76.52789927728082
 30
0.0
 10
181.0186600423489
 20
76.52694140537699
 30
0.0
 10
181.0485745035487
 20
76.52655972411655
 30
0.0
 10
181.1145608341067
 20
76.52548351005802
 30
0.0
 10
181.1512944595685
 20
76.52476594416387
 30
0.0
 10
181.2637911791383
 20
76.52200506648222
 30
0.0
 10
181.3341325272366
 20
76.51951797461064
 30
0.0
 10
181.3906006811417
 20
76.51734469620352
 30
0.0
  0
SPLINE
  5
B0
330
1F
100
AcDbEntity
  8
0
  6
Continuous
 62
     7
370
    15
100
AcDbSpline
210
0.0
220
0.0
230
1.0
 70
     8
 71
     3
 72
    14
 73
    10
 74
     0
 42
0.00000001
 43
0.00000001
 12
1.0
 22
0.0
 32
0.0
 13
1.0
 23
0.0
 33
0.0
 40
0.0
 40
0.0
 40
0.0
 40
0.0
 40
0.1249999999999989
 40
0.1249999999999989
 40
0.2499999999999978
 40
0.2499999999999978
 40
0.4999999999999976
 40
0.4999999999999976
 40
1.0
 40
1.0
 40
1.0
 40
1.0
 10
181.3906006811101
 20
76.51734469622623
 30
0.0
 10
181.4031924750549
 20
76.5168600784039
 30
0.0
 10
181.418063583349
 20
76.51514990047154
 30
0.0
 10
181.4502476747821
 20
76.50703435172068
 30
0.0
 10
181.465851806258
 20
76.50081856345935
 30
0.0
 10
181.5017389459701
 20
76.48259945175776
 30
0.0
 10
181.5155909872388
 20
76.47083442342414
 30
0.0
 10
181.5490807291714
 20
76.4390392870068
 30
0.0
 10
181.5597429897471
 20
76.42124585516368
 30
0.0
 10
181.567880946642
 20
76.40481472431927
 30
0.0
  0
LINE
  5
B1
330
1F
100
AcDbEntity
  8
0
  6
Continuous
 62
     7
370
    15
100
AcDbLine
 10
181.58557757
 20
87.8953761512
 30
0.0
 11
181.58557757
 21
76.0400361049
 31
0.0
  0
SPLINE
  5
B2
330
1F
100
AcDbEntity
  8
0
  6
Continuous
 62
     7
370
    15
100
AcDbSpline
210
0.0
220
0.0
230
1.0
 70
     8
 71
     3
 72
    16
 73
    12
 74
     0
 42
0.00000001
 43
0.00000001
 12
1.0
 22
0.0
 32
0.0
 13
1.0
 23
0.0
 33
0.0
 40
0.0
 40
0.0
 40
0.0
 40
0.0
 40
0.4999999999999988
 40
0.4999999999999988
 40
0.7499999999999999
 40
0.7499999999999999
 40
0.875
 40
0.875
 40
0.9374999999999999
 40
0.9374999999999999
 40
1.0
 40
1.0
 40
1.0
 40
1.0
 10
181.585577570017
 20
87.89537615118434
 30
0.0
 10
181.585577570017
 20
88.0099058818833
 30
0.0
 10
181.5815202679019
 20
88.1252219570728
 30
0.0
 10
181.5558630251071
 20
88.30014504690034
 30
0.0
 10
181.544547579365
 20
88.35997434989527
 30
0.0
 10
181.5105162120564
 20
88.44456553614347
 30
0.0
 10
181.4966372308526
 20
88.4732351222875
 30
0.0
 10
181.4607015490852
 20
88.50304290923381
 30
0.0
 10
181.4457512298224
 20
88.50937806259341
 30
0.0
 10
181.4158527170806
 20
88.50815259972316
 30
0.0
 10
181.4023198567153
 20
88.50155401368835
 30
0.0
 10
181.3906006811413
 20
88.49290632563192
 30
0.0
  0
SPLINE
  5
B3
330
1F
100
AcDbEntity
  8
0
  6
Continuous
 62
     7
370
    15
100
AcDbSpline
210
0.0
220
0.0
230
1.0
 70
     8
 71
     3
 72
    14
 73
    10
 74
     0
 42
0.00000001
 43
0.00000001
 12
1.0
 22
0.0
 32
0.0
 13
1.0
 23
0.0
 33
0.0
 40
0.0
 40
0.0
 40
0.0
 40
0.0
 40
0.25
 40
0.25
 40
0.5
 40
0.5
 40
0.75
 40
0.75
 40
1.0
 40
1.0
 40
1.0
 40
1.0
 10
181.3906006811482
 20
88.49290632562328
 30
0.0
 10
181.3341410152644
 20
88.45124421592449
 30
0.0
 10
181.2632685404022
 20
88.42041073533628
 30
0.0
 10
181.1148021825202
 20
88.42612524394943
 30
0.0
 10
181.0456069793125
 20
88.46169617138234
 30
0.0
 10
180.9358897932429
 20
88.54864008385624
 30
0.0
 10
180.890643904311
 20
88.60107239722134
 30
0.0
 10
180.8110267733441
 20
88.70962547873985
 30
0.0
 10
180.7764241538872
 20
88.76660856498233
 30
0.0
 10
180.7447165418884
 20
88.82517464764024
 30
0.0
  0
SPLINE
  5
B4
330
1F
100
AcDbEntity
  8
0
  6
Continuous
 62
     7
370
    15
100
AcDbSpline
210
0.0
220
0.0
230
1.0
 70
     8
 71
     3
 72
    10
 73
     6
 74
     0
 42
0.00000001
 43
0.00000001
 12
1.0
 22
0.0
 32
0.0
 13
1.0
 23
0.0
 33
0.0
 40
0.0
 40
0.0
 40
0.0
 40
0.0
 40
0.5
 40
0.5
 40
1.0
 40
1.0
 40
1.0
 40
1.0
 10
180.4642572264573
 20
89.67799323928658
 30
0.0
 10
180.4951358100693
 20
89.52836468742686
 30
0.0
 10
180.5311285177927
 20
89.38186926990326
 30
0.0
 10
180.6204687692897
 20
89.09667763136251
 30
0.0
 10
180.6729270721353
 20
88.95777460564656
 30
0.0
 10
180.7447165418885
 20
88.82517464764005
 30
0.0
  0
SPLINE
  5
B5
330
1F
100
AcDbEntity
  8
0
  6
Continuous
 62
     7
370
    15
100
AcDbSpline
210
0.0
220
0.0
230
1.0
 70
     8
 71
     3
 72
    10
 73
     6
 74
     0
 42
0.00000001
 43
0.00000001
 12
1.0
 22
0.0
 32
0.0
 13
1.0
 23
0.0
 33
0.0
 40
0.0
 40
0.0
 40
0.0
 40
0.0
 40
0.5
 40
0.5
 40
1.0
 40
1.0
 40
1.0
 40
1.0
 10
180.7447165418878
 20
98.93453811987652
 30
0.0
 10
180.6729270721349
 20
98.80193816187018
 30
0.0
 10
180.6204687692894
 20
98.66303513615443
 30
0.0
 10
180.5311285177926
 20
98.37784349761411
 30
0.0
 10
180.4951358100693
 20
98.23134808009075
 30
0.0
 10
180.4642572264573
 20
98.0817195282313
 30
0.0
  0
SPLINE
  5
B6
330
1F
100
AcDbEntity
  8
0
  6
Continuous
 62
     7
370
    15
100
AcDbSpline
210
0.0
220
0.0
230
1.0
 70
     8
 71
     3
 72
    14
 73
    10
 74
     0
 42
0.00000001
 43
0.00000001
 12
1.0
 22
0.0
 32
0.0
 13
1.0
 23
0.0
 33
0.0
 40
0.0
 40
0.0
 40
0.0
 40
0.0
 40
0.25
 40
0.25
 40
0.5
 40
0.5
 40
0.75
 40
0.75
 40
1.0
 40
1.0
 40
1.0
 40
1.0
 10
180.7447165418871
 20
98.93453811987533
 30
0.0
 10
180.7764252413725
 20
98.9931062111939
 30
0.0
 10
180.8110330600131
 20
99.05010047313391
 30
0.0
 10
180.8906914705024
 20
99.15870060789786
 30
0.0
 10
180.9357537403973
 20
99.21102874327647
 30
0.0
 10
181.0463355859757
 20
99.29852975463874
 30
0.0
 10
181.113979706791
 20
99.33357521089296
 30
0.0
 10
181.2642279971881
 20
99.339319599649
 30
0.0
 10
181.3341803954184
 20
99.308439492599
 30
0.0
 10
181.390600681142
 20
99.26680644188596
 30
0.0
  0
SPLINE
  5
B7
330
1F
100
AcDbEntity
  8
0
  6
Continuous
 62
     7
370
    15
100
AcDbSpline
210
0.0
220
0.0
230
1.0
 70
     8
 71
     3
 72
    16
 73
    12
 74
     0
 42
0.00000001
 43
0.00000001
 12
1.0
 22
0.0
 32
0.0
 13
1.0
 23
0.0
 33
0.0
 40
0.0
 40
0.0
 40
0.0
 40
0.0
 40
0.062499999999998
 40
0.062499999999998
 40
0.124999999999996
 40
0.124999999999996
 40
0.2499999999999942
 40
0.2499999999999942
 40
0.4999999999999938
 40
0.4999999999999938
 40
1.0
 40
1.0
 40
1.0
 40
1.0
 10
181.3906006811101
 20
99.26680644183253
 30
0.0
 10
181.402334915557
 20
99.2581476416883
 30
0.0
 10
181.415866671036
 20
99.25154355645302
 30
0.0
 10
181.4458541314658
 20
99.25034658927886
 30
0.0
 10
181.4608488378741
 20
99.25676833634476
 30
0.0
 10
181.4965892602688
 20
99.28648548975406
 30
0.0
 10
181.5106025972701
 20
99.3152928871374
 30
0.0
 10
181.5447466860514
 20
99.40037260876332
 30
0.0
 10
181.5557185901698
 20
99.45874755803307
 30
0.0
 10
181.5815641304361
 20
99.63446308282165
 30
0.0
 10
181.585577570017
 20
99.7502580906861
 30
0.0
 10
181.585577570017
 20
99.8643366163335
 30
0.0
  0
LINE
  5
B8
330
1F
100
AcDbEntity
  8
0
  6
Continuous
 62
     7
370
    15
100
AcDbLine
 10
181.58557757
 20
111.7196766626
 30
0.0
 11
181.58557757
 21
99.8643366163
 31
0.0
  0
SPLINE
  5
B9
330
1F
100
AcDbEntity
  8
0
  6
Continuous
 62
     7
370
    15
100
AcDbSpline
210
0.0
220
0.0
230
1.0
 70
     8
 71
     3
 72
    16
 73
    12
 74
     0
 42
0.00000001
 43
0.00000001
 12
1.0
 22
0.0
 32
0.0
 13
1.0
 23
0.0
 33
0.0
 40
0.0
 40
0.0
 40
0.0
 40
0.0
 40
0.4999999999999986
 40
0.4999999999999986
 40
0.7499999999999996
 40
0.7499999999999996
 40
0.8749999999999993
 40
0.8749999999999993
 40
0.9374999999999998
 40
0.9374999999999998
 40
1.0
 40
1.0
 40
1.0
 40
1.0
 10
181.5855775700171
 20
111.4266108494265
 30
0.0
 10
181.5855775700168
 20
111.4045958348472
 30
0.0
 10
181.5814530271629
 20
111.3792422001435
 30
0.0
 10
181.5555365815298
 20
111.3320816979549
 30
0.0
 10
181.54425900051
 20
111.3148827097261
 30
0.0
 10
181.5105236219686
 20
111.2849047441569
 30
0.0
 10
181.4961348067242
 20
111.273553335615
 30
0.0
 10
181.4608881172852
 20
111.2568654761376
 30
0.0
 10
181.4456826928282
 20
111.2513024492523
 30
0.0
 10
181.4160361136589
 20
111.2443328662172
 30
0.0
 10
181.4023307776614
 20
111.2428195251618
 30
0.0
 10
181.3906006811377
 20
111.2423680713119
 30
0.0
  0
SPLINE
  5
BA
330
1F
100
AcDbEntity
  8
0
  6
Continuous
 62
     7
370
    15
100
AcDbSpline
210
0.0
220
0.0
230
1.0
 70
     8
 71
     3
 72
    14
 73
    10
 74
     0
 42
0.00000001
 43
0.00000001
 12
1.0
 22
0.0
 32
0.0
 13
1.0
 23
0.0
 33
0.0
 40
0.0
 40
0.0
 40
0.0
 40
0.0
 40
0.25
 40
0.25
 40
0.5
 40
0.5
 40
0.75
 40
0.75
 40
1.0
 40
1.0
 40
1.0
 40
1.0
 10
181.3906006811482
 20
111.2423680713145
 30
0.0
 10
181.3341535990899
 20
111.2401956038952
 30
0.0
 10
181.2633032150471
 20
111.2376975059777
 30
0.0
 10
181.1148667802307
 20
111.2340510471896
 30
0.0
 10
181.0456775285438
 20
111.2330833003383
 30
0.0
 10
180.9359659803029
 20
111.2318157409756
 30
0.0
 10
180.8907243309605
 20
111.2314129000473
 30
0.0
 10
180.8110763127766
 20
111.2304018651196
 30
0.0
 10
180.7764493970106
 20
111.229810904725
 30
0.0
 10
180.7447165418892
 20
111.2290136649516
 30
0.0
  0
SPLINE
  5
BB
330
1F
100
AcDbEntity
  8
0
  6
Continuous
 62
     7
370
    15
100
AcDbSpline
210
0.0
220
0.0
230
1.0
 70
     8
 71
     3
 72
    18
 73
    14
 74
     0
 42
0.00000001
 43
0.00000001
 12
1.0
 22
0.0
 32
0.0
 13
1.0
 23
0.0
 33
0.0
 40
0.0
 40
0.0
 40
0.0
 40
0.0
 40
0.2500000000000002
 40
0.2500000000000002
 40
0.3750000000000002
 40
0.3750000000000002
 40
0.5000000000000002
 40
0.5000000000000002
 40
0.6250000000000002
 40
0.6250000000000002
 40
0.7500000000000002
 40
0.7500000000000002
 40
1.0
 40
1.0
 40
1.0
 40
1.0
 10
180.4642572264573
 20
98.0817195282313
 30
0.0
 10
180.328971620155
 20
97.42616519281009
 30
0.0
 10
180.2278038739121
 20
96.74654409901248
 30
0.0
 10
180.1249425310431
 20
95.69118009251845
 30
0.0
 10
180.0988396855198
 20
95.33236602793382
 30
0.0
 10
180.063949701975
 20
94.60625308381091
 30
0.0
 10
180.055363443685
 20
94.24416340479479
 30
0.0
 10
180.0552637341194
 20
93.52185374737641
 30
0.0
 10
180.0637521052679
 20
93.16163394526808
 30
0.0
 10
180.0978954847885
 20
92.44306787617413
 30
0.0
 10
180.1236924666423
 20
92.08330216025874
 30
0.0
 10
180.2270935980303
 20
91.0166575732644
 30
0.0
 10
180.3289515902016
 20
90.33364463398203
 30
0.0
 10
180.4642572264573
 20
89.67799323928658
 30
0.0
  0
LINE
  5
BC
330
1F
100
AcDbEntity
  8
0
  6
Continuous
 62
     7
370
    15
100
AcDbLine
 10
179.58557757
 20
99.0200088716
 30
0.0
 11
179.58557757
 21
88.739703896
 31
0.0
  0
LINE
  5
BD
330
1F
100
AcDbEntity
  8
0
  6
Continuous
 62
     7
370
    15
100
AcDbLine
 10
153.28557757
 20
98.6896351003
 30
0.0
 11
153.28557757
 21
89.0700776673
 31
0.0
  0
LINE
  5
BE
330
1F
100
AcDbEntity
  8
0
  6
Continuous
 62
     7
370
    15
100
AcDbLine
 10
151.78557757
 20
98.2566223984
 30
0.0
 11
151.78557757
 21
89.5030903692
 31
0.0
  0
LINE
  5
BF
330
1F
100
AcDbEntity
  8
0
  6
Continuous
 62
     7
370
    15
100
AcDbLine
 10
153.28557757
 20
77.0205051418
 30
0.0
 11
153.28557757
 21
89.0700776673
 31
0.0
  0
LINE
  5
C0
330
1F
100
AcDbEntity
  8
0
  6
Continuous
 62
     7
370
    15
100
AcDbLine
 10
179.58557757
 20
76.3597575992
 30
0.0
 11
179.58557757
 21
88.739703896
 31
0.0
  0
LINE
  5
C1
330
1F
100
AcDbEntity
  8
0
  6
Continuous
 62
     7
370
    15
100
AcDbLine
 10
153.28557757
 20
77.0205051418
 30
0.0
 11
179.58557757
 21
76.3597575992
 31
0.0
  0
LINE
  5
C2
330
1F
100
AcDbEntity
  8
0
  6
Continuous
 62
     7
370
    15
100
AcDbLine
 10
179.58557757
 20
99.0200088716
 30
0.0
 11
179.58557757
 21
111.3999551683
 31
0.0
  0
ARC
  5
C3
330
1F
100
AcDbEntity
  8
0
  6
Continuous
 62
     7
370
    15
100
AcDbCircle
 10
179.785514481
 20
111.4049782794
 30
0.0
 40
0.2000000000000055
100
AcDbArc
 50
181.4391666667
 51
271.4391666667
  0
LINE
  5
C4
330
1F
100
AcDbEntity
  8
0
  6
Continuous
 62
     7
370
    15
100
AcDbLine
 10
153.28557757
 20
98.6896351003
 30
0.0
 11
153.28557757
 21
110.7392076257
 31
0.0
  0
LINE
  5
C5
330
1F
100
AcDbEntity
  8
0
  6
Continuous
 62
     7
370
    15
100
AcDbLine
 10
153.28557757
 20
110.7392076257
 30
0.0
 11
179.58557757
 21
111.3999551683
 31
0.0
  0
ARC
  5
C6
330
1F
100
AcDbEntity
  8
0
  6
Continuous
 62
     7
370
    15
100
AcDbCircle
 10
179.785514481
 20
76.3547344881
 30
0.0
 40
0.2000000000000059
100
AcDbArc
 50
88.5608333333
 51
178.5608333333
  0
LINE
  5
C7
330
1F
100
AcDbEntity
  8
0
  6
Continuous
 62
     7
370
    15
100
AcDbLine
 10
179.7905375921
 20
76.554671399
 30
0.0
 11
180.7447165419
 21
76.5306991026
 31
0.0
  0
LINE
  5
C8
330
1F
100
AcDbEntity
  8
0
  6
Continuous
 62
     7
370
    15
100
AcDbLine
 10
179.7905375921
 20
111.2050413685
 30
0.0
 11
180.7447165419
 21
111.229013665
 31
0.0
  0
LINE
  5
C9
330
1F
100
AcDbEntity
  8
0
  6
Continuous
 62
     7
370
    15
100
AcDbLine
 10
151.78557757
 20
109.8731822219
 30
0.0
 11
153.28557757
 21
110.7392076257
 31
0.0
  0
LINE
  5
CA
330
1F
100
AcDbEntity
  8
0
  6
Continuous
 62
     7
370
    15
100
AcDbLine
 10
151.78557757
 20
98.2566223984
 30
0.0
 11
151.78557757
 21
109.8731822219
 31
0.0
  0
LINE
  5
CB
330
1F
100
AcDbEntity
  8
0
  6
Continuous
 62
     7
370
    15
100
AcDbLine
 10
151.78557757
 20
77.8865305456
 30
0.0
 11
153.28557757
 21
77.0205051418
 31
0.0
  0
LINE
  5
CC
330
1F
100
AcDbEntity
  8
0
  6
Continuous
 62
     7
370
    15
100
AcDbLine
 10
151.78557757
 20
77.8865305456
 30
0.0
 11
151.78557757
 21
89.5030903692
 31
0.0
  0
DIMENSION
  5
CD
330
1F
100
AcDbEntity
  8
VERMASSUNG
100
AcDbDimension
  2
_D
 10
249.78557757
 20
63.8798563838
 30
0.0
 11
249.78557757
 21
93.8798563838
 31
0.0
 70
   160
  1
<>
 71
     2
 42
-1.0
  3
SLDDIMSTYLE0
100
AcDbAlignedDimension
 13
238.78557757
 23
123.8798563838
 33
0.0
 14
238.78557757
 24
63.8798563838
 34
0.0
 50
90.0
100
AcDbRotatedDimension
  0
DIMENSION
  5
D8
330
1F
100
AcDbEntity
  8
VERMASSUNG
100
AcDbDimension
  2
_D_1
 10
239.78557757
 20
51.3886685642
 30
0.0
 11
210.78557757
 21
51.3886685642
 31
0.0
 70
   160
  1
<>
 71
     2
 42
-1.0
  3
SLDDIMSTYLE0
100
AcDbAlignedDimension
 13
181.78557757
 23
69.1798563838
 33
0.0
 14
239.78557757
 24
64.8798563838
 34
0.0
100
AcDbRotatedDimension
  0
DIMENSION
  5
E2
330
1F
100
AcDbEntity
  8
VERMASSUNG
100
AcDbDimension
  2
_D_2
 10
239.78557757
 20
45.3886685642
 30
0.0
 11
195.78557757
 21
45.3886685642
 31
0.0
 70
   160
  1
<>
 71
     2
 42
-1.0
  3
SLDDIMSTYLE0
100
AcDbAlignedDimension
 13
151.78557757
 23
77.8865305456
 33
0.0
 14
239.78557757
 24
64.8798563838
 34
0.0
100
AcDbRotatedDimension
  0
LINE
  5
EC
330
1F
100
AcDbEntity
  8
VERMASSUNG
  6
CENTERX2
370
     0
100
AcDbLine
 10
148.0497984686
 20
93.8798563838
 30
0.0
 11
243.4118575336
 21
93.8798563838
 31
0.0
  0
LINE
  5
ED
330
1F
100
AcDbEntity
  8
0
  6
Continuous
 62
     7
370
    15
100
AcDbLine
 10
66.0124487537
 20
89.3798563838
 30
0.0
 11
67.0124487537
 21
90.3798563838
 31
0.0
  0
LINE
  5
EE
330
1F
100
AcDbEntity
  8
0
  6
Continuous
 62
     7
370
    15
100
AcDbLine
 10
67.0124487537
 20
97.3798563838
 30
0.0
 11
66.0124487537
 21
98.3798563838
 31
0.0
  0
LINE
  5
EF
330
1F
100
AcDbEntity
  8
0
  6
Continuous
 62
     7
370
    15
100
AcDbLine
 10
66.0124487537
 20
109.3798563838
 30
0.0
 11
67.0124487537
 21
110.3798563838
 31
0.0
  0
LINE
  5
F0
330
1F
100
AcDbEntity
  8
0
  6
Continuous
 62
     7
370
    15
100
AcDbLine
 10
67.0124487537
 20
117.3798563838
 30
0.0
 11
66.0124487537
 21
118.3798563838
 31
0.0
  0
LINE
  5
F1
330
1F
100
AcDbEntity
  8
0
  6
Continuous
 62
     7
370
    15
100
AcDbLine
 10
66.0124487537
 20
69.3798563838
 30
0.0
 11
67.0124487537
 21
70.3798563838
 31
0.0
  0
LINE
  5
F2
330
1F
100
AcDbEntity
  8
0
  6
Continuous
 62
     7
370
    15
100
AcDbLine
 10
67.0124487537
 20
77.3798563838
 30
0.0
 11
66.0124487537
 21
78.3798563838
 31
0.0
  0
ARC
  5
F3
330
1F
100
AcDbEntity
  8
0
  6
Continuous
 62
     7
370
    15
100
AcDbCircle
 10
58.0124487537
 20
121.8798563838
 30
0.0
 40
5.000000000000009
100
AcDbArc
 50
135.2843602423
 51
156.4218215218
  0
ARC
  5
F4
330
1F
100
AcDbEntity
  8
0
  6
Continuous
 62
     7
370
    15
100
AcDbCircle
 10
58.0124487537
 20
121.8798563838
 30
0.0
 40
5.000000000000019
100
AcDbArc
 50
23.5781784782
 51
54.8368975403
  0
ARC
  5
F5
330
1F
100
AcDbEntity
  8
0
  6
Continuous
 62
     7
370
    15
100
AcDbCircle
 10
58.0124487537
 20
65.8798563838
 30
0.0
 40
5.000000000000012
100
AcDbArc
 50
305.1631024597
 51
336.4218215218
  0
ARC
  5
F6
330
1F
100
AcDbEntity
  8
0
  6
Continuous
 62
     7
370
    15
100
AcDbCircle
 10
58.0124487537
 20
65.8798563838
 30
0.0
 40
5.000000000000004
100
AcDbArc
 50
203.5781784782
 51
224.7156397577
  0
LINE
  5
F7
330
1F
100
AcDbEntity
  8
0
  6
Continuous
 62
     7
370
    15
100
AcDbLine
 10
67.0124487537
 20
90.3798563838
 30
0.0
 11
67.0124487537
 21
97.3798563838
 31
0.0
  0
LINE
  5
F8
330
1F
100
AcDbEntity
  8
0
  6
Continuous
 62
     7
370
    15
100
AcDbLine
 10
67.0124487537
 20
110.3798563838
 30
0.0
 11
67.0124487537
 21
117.3798563838
 31
0.0
  0
LINE
  5
F9
330
1F
100
AcDbEntity
  8
0
  6
Continuous
 62
     7
370
    15
100
AcDbLine
 10
67.0124487537
 20
70.3798563838
 30
0.0
 11
67.0124487537
 21
77.3798563838
 31
0.0
  0
LWPOLYLINE
  5
FA
330
1F
100
AcDbEntity
  8
0
  6
Continuous
 62
     7
370
    15
100
AcDbPolyline
 90
       32
 70
   128
 43
0.0
 10
59.8251567415
 20
125.5984363661
 10
59.2933277508
 20
125.5144335072
 10
58.695402188
 20
125.4358537702
 10
58.055859196
 20
125.365914219
 10
57.4008817399
 20
125.3074781868
 10
56.7572846739
 20
125.2629380517
 10
56.1514169374
 20
125.2341172921
 10
55.6080828267
 20
125.2221958333
 10
55.1495265042
 20
125.2276617411
 10
54.7945213195
 20
125.2502912407
 10
54.5576012267
 20
125.2891578778
 10
54.4484657622
 20
125.3426704475
 10
54.4715829447
 20
125.4086381391
 10
54.626006354
 20
125.4843602274
 10
54.9054138777
 20
125.5667366413
 10
55.2983665389
 20
125.6523948808
 10
55.7887768094
 20
125.7378280874
 10
56.3565672352
 20
125.8195386156
 10
56.9784924096
 20
125.8941812268
 10
57.6290906427
 20
125.9587000437
 10
58.2817263666
 20
126.0104536584
 10
58.909680598
 20
126.0473232718
 10
59.4872448168
 20
126.0677994376
 10
59.9907734761
 20
126.0710438592
 10
60.3996520535
 20
126.0569237095
 10
60.6971410119
 20
126.0260170692
 10
60.8710611184
 20
125.9795892597
 10
60.9142920634
 20
125.9195410411
 10
60.8250639669
 20
125.8483307944
 10
60.6070298378
 20
125.7688738755
 10
60.2691160189
 20
125.68442326
 10
59.8251567415
 20
125.5984363661
  0
LWPOLYLINE
  5
FB
330
1F
100
AcDbEntity
  8
0
  6
Continuous
 62
     7
370
    15
100
AcDbPolyline
 90
       29
 70
   128
 43
0.0
 10
59.3298570841
 20
125.6096198769
 10
58.8735926133
 20
125.5382809236
 10
58.3574191716
 20
125.4723884965
 10
57.8072198506
 20
125.4152467169
 10
57.2505839418
 20
125.3697209122
 10
56.715423494
 20
125.3380939365
 10
56.2285736865
 20
125.3219516983
 10
55.8144472017
 20
125.3221036369
 10
55.4938100708
 20
125.3385421335
 10
55.2827403783
 20
125.3704428931
 10
55.1918220401
 20
125.4162062784
 10
55.2256140812
 20
125.4735375224
 10
55.3824220275
 20
125.5395617969
 10
55.6543828739
 20
125.6109683692
 10
56.027859368
 20
125.6841766155
 10
56.4841238387
 20
125.7555155688
 10
57.0002972805
 20
125.8214079959
 10
57.5504966014
 20
125.8785497755
 10
58.1071325102
 20
125.9240755802
 10
58.6422929581
 20
125.9557025559
 10
59.1291427656
 20
125.971844794
 10
59.5432692504
 20
125.9716928554
 10
59.8639063813
 20
125.9552543589
 10
60.0749760737
 20
125.9233535993
 10
60.165894412
 20
125.8775902139
 10
60.1321023709
 20
125.82025897
 10
59.9752944246
 20
125.7542346955
 10
59.7033335782
 20
125.6828281232
 10
59.3298570841
 20
125.6096198769
  0
ARC
  5
FC
330
1F
100
AcDbEntity
  8
0
  6
Continuous
 62
     7
370
    15
100
AcDbCircle
 10
59.4366378009
 20
105.7973261056
 30
0.0
 40
19.73339723216646
100
AcDbArc
 50
92.0679702519
 51
98.0532875308
  0
ARC
  5
FD
330
1F
100
AcDbEntity
  8
0
  6
Continuous
 62
     7
370
    15
100
AcDbCircle
 10
59.0069299939
 20
77.1099488278
 30
0.0
 40
15.43322676654318
100
AcDbArc
 50
252.8629897681
 51
277.0157524492
  0
LINE
  5
FE
330
1F
100
AcDbEntity
  8
0
  6
Continuous
 62
     7
370
    15
100
AcDbLine
 10
102.0124487537
 20
74.5149396527
 30
0.0
 11
102.0124487537
 21
113.2447731148
 31
0.0
  0
ARC
  5
FF
330
1F
100
AcDbEntity
  8
0
  6
Continuous
 62
     7
370
    15
100
AcDbCircle
 10
67.0124487537
 20
93.8798563838
 30
0.0
 40
40.00000000000001
100
AcDbArc
 50
313.5311521674
 51
331.0449756281
  0
LINE
  5
100
330
1F
100
AcDbEntity
  8
0
  6
Continuous
 62
     7
370
    15
100
AcDbLine
 10
87.0124487537
 20
64.8798563838
 30
0.0
 11
94.5624033816
 21
64.8798563838
 31
0.0
  0
LINE
  5
101
330
1F
100
AcDbEntity
  8
0
  6
Continuous
 62
     7
370
    15
100
AcDbLine
 10
87.0124487537
 20
64.8798563838
 30
0.0
 11
87.0124487537
 21
122.8798563838
 31
0.0
  0
LINE
  5
102
330
1F
100
AcDbEntity
  8
0
  6
Continuous
 62
     7
370
    15
100
AcDbLine
 10
94.5624033816
 20
122.8798563838
 30
0.0
 11
87.0124487537
 21
122.8798563838
 31
0.0
  0
ARC
  5
103
330
1F
100
AcDbEntity
  8
0
  6
Continuous
 62
     7
370
    15
100
AcDbCircle
 10
67.0124487537
 20
93.8798563838
 30
0.0
 40
40.00000000000001
100
AcDbArc
 50
28.9550243719
 51
46.4688478326
  0
LINE
  5
104
330
1F
100
AcDbEntity
  8
0
  6
Continuous
 62
     7
370
    15
100
AcDbLine
 10
87.0124487537
 20
122.8798563838
 30
0.0
 11
87.0124487537
 21
123.8798563838
 31
0.0
  0
LINE
  5
105
330
1F
100
AcDbEntity
  8
0
  6
Continuous
 62
     7
370
    15
100
AcDbLine
 10
87.0124487537
 20
123.8798563838
 30
0.0
 11
93.4699618643
 21
123.8798563838
 31
0.0
  0
ARC
  5
106
330
1F
100
AcDbEntity
  8
0
  6
Continuous
 62
     7
370
    15
100
AcDbCircle
 10
67.0124487537
 20
93.8798563838
 30
0.0
 40
40.00000000000002
100
AcDbArc
 50
46.4688478326
 51
48.5903778907
  0
LINE
  5
107
330
1F
100
AcDbEntity
  8
0
  6
Continuous
 62
     7
370
    15
100
AcDbLine
 10
93.4699618643
 20
63.8798563838
 30
0.0
 11
87.0124487537
 21
63.8798563838
 31
0.0
  0
LINE
  5
108
330
1F
100
AcDbEntity
  8
0
  6
Continuous
 62
     7
370
    15
100
AcDbLine
 10
87.0124487537
 20
63.8798563838
 30
0.0
 11
87.0124487537
 21
64.8798563838
 31
0.0
  0
ARC
  5
109
330
1F
100
AcDbEntity
  8
0
  6
Continuous
 62
     7
370
    15
100
AcDbCircle
 10
67.0124487537
 20
93.8798563838
 30
0.0
 40
40.00000000000001
100
AcDbArc
 50
311.4096221093
 51
313.5311521674
  0
LINE
  5
10A
330
1F
100
AcDbEntity
  8
0
  6
Continuous
 62
     7
370
    15
100
AcDbLine
 10
66.0124487537
 20
63.8798563838
 30
0.0
 11
48.0124487537
 21
63.8798563838
 31
0.0
  0
LINE
  5
10B
330
1F
100
AcDbEntity
  8
0
  6
Continuous
 62
     7
370
    15
100
AcDbLine
 10
48.0124487537
 20
63.8798563838
 30
0.0
 11
48.0124487537
 21
64.8798563838
 31
0.0
  0
LINE
  5
10C
330
1F
100
AcDbEntity
  8
0
  6
Continuous
 62
     7
370
    15
100
AcDbLine
 10
48.0124487537
 20
64.8798563838
 30
0.0
 11
66.0124487537
 21
64.8798563838
 31
0.0
  0
LINE
  5
10D
330
1F
100
AcDbEntity
  8
0
  6
Continuous
 62
     7
370
    15
100
AcDbLine
 10
66.0124487537
 20
64.8798563838
 30
0.0
 11
66.0124487537
 21
63.8798563838
 31
0.0
  0
LINE
  5
10E
330
1F
100
AcDbEntity
  8
0
  6
Continuous
 62
     7
370
    15
100
AcDbLine
 10
66.0124487537
 20
122.8798563838
 30
0.0
 11
48.0124487537
 21
122.8798563838
 31
0.0
  0
LINE
  5
10F
330
1F
100
AcDbEntity
  8
0
  6
Continuous
 62
     7
370
    15
100
AcDbLine
 10
48.0124487537
 20
123.8798563838
 30
0.0
 11
48.0124487537
 21
122.8798563838
 31
0.0
  0
LINE
  5
110
330
1F
100
AcDbEntity
  8
0
  6
Continuous
 62
     7
370
    15
100
AcDbLine
 10
48.0124487537
 20
123.8798563838
 30
0.0
 11
66.0124487537
 21
123.8798563838
 31
0.0
  0
LINE
  5
111
330
1F
100
AcDbEntity
  8
0
  6
Continuous
 62
     7
370
    15
100
AcDbLine
 10
66.0124487537
 20
123.8798563838
 30
0.0
 11
66.0124487537
 21
122.8798563838
 31
0.0
  0
LINE
  5
112
330
1F
100
AcDbEntity
  8
0
  6
Continuous
 62
     7
370
    15
100
AcDbLine
 10
48.0124487537
 20
122.8798563838
 30
0.0
 11
48.0124487537
 21
64.8798563838
 31
0.0
  0
LINE
  5
113
330
1F
100
AcDbEntity
  8
0
  6
Continuous
 62
     7
370
    15
100
AcDbLine
 10
66.0124487537
 20
122.8798563838
 30
0.0
 11
66.0124487537
 21
64.8798563838
 31
0.0
  0
LINE
  5
114
330
1F
100
AcDbEntity
  8
0
  6
Continuous
 62
     7
370
    15
100
AcDbLine
 10
47.0124487537
 20
64.8798563838
 30
0.0
 11
47.0124487537
 21
122.8798563838
 31
0.0
  0
LINE
  5
115
330
1F
100
AcDbEntity
  8
0
  6
Continuous
 62
     7
370
    15
100
AcDbLine
 10
47.0124487537
 20
122.8798563838
 30
0.0
 11
48.0124487537
 21
122.8798563838
 31
0.0
  0
LINE
  5
116
330
1F
100
AcDbEntity
  8
0
  6
Continuous
 62
     7
370
    15
100
AcDbLine
 10
47.0124487537
 20
64.8798563838
 30
0.0
 11
48.0124487537
 21
64.8798563838
 31
0.0
  0
LINE
  5
117
330
1F
100
AcDbEntity
  8
0
  6
Continuous
 62
     7
370
    15
100
AcDbLine
 10
47.0124487537
 20
64.8798563838
 30
0.0
 11
48.0124487537
 21
63.8798563838
 31
0.0
  0
LINE
  5
118
330
1F
100
AcDbEntity
  8
0
  6
Continuous
 62
     7
370
    15
100
AcDbLine
 10
48.0124487537
 20
123.8798563838
 30
0.0
 11
47.0124487537
 21
122.8798563838
 31
0.0
  0
LINE
  5
119
330
1F
100
AcDbEntity
  8
0
  6
Continuous
 62
     7
370
    15
100
AcDbLine
 10
46.2124487537
 20
64.8798563838
 30
0.0
 11
47.0124487537
 21
64.8798563838
 31
0.0
  0
LINE
  5
11A
330
1F
100
AcDbEntity
  8
0
  6
Continuous
 62
     7
370
    15
100
AcDbLine
 10
48.0124487537
 20
63.8798563838
 30
0.0
 11
46.2124487537
 21
63.8798563838
 31
0.0
  0
LINE
  5
11B
330
1F
100
AcDbEntity
  8
0
  6
Continuous
 62
     7
370
    15
100
AcDbLine
 10
47.0124487537
 20
122.8798563838
 30
0.0
 11
46.2124487537
 21
122.8798563838
 31
0.0
  0
LINE
  5
11C
330
1F
100
AcDbEntity
  8
0
  6
Continuous
 62
     7
370
    15
100
AcDbLine
 10
46.2124487537
 20
123.8798563838
 30
0.0
 11
48.0124487537
 21
123.8798563838
 31
0.0
  0
LINE
  5
11D
330
1F
100
AcDbEntity
  8
0
  6
Continuous
 62
     7
370
    15
100
AcDbLine
 10
66.0124487537
 20
63.8798563838
 30
0.0
 11
87.0124487537
 21
63.8798563838
 31
0.0
  0
LINE
  5
11E
330
1F
100
AcDbEntity
  8
0
  6
Continuous
 62
     7
370
    15
100
AcDbLine
 10
87.0124487537
 20
123.8798563838
 30
0.0
 11
66.0124487537
 21
123.8798563838
 31
0.0
  0
LINE
  5
11F
330
1F
100
AcDbEntity
  8
0
  6
Continuous
 62
     7
370
    15
100
AcDbLine
 10
42.0124487537
 20
64.8798563838
 30
0.0
 11
46.2124487537
 21
64.8798563838
 31
0.0
  0
LINE
  5
120
330
1F
100
AcDbEntity
  8
0
  6
Continuous
 62
     7
370
    15
100
AcDbLine
 10
42.0124487537
 20
122.8798563838
 30
0.0
 11
42.0124487537
 21
64.8798563838
 31
0.0
  0
LINE
  5
121
330
1F
100
AcDbEntity
  8
0
  6
Continuous
 62
     7
370
    15
100
AcDbLine
 10
46.2124487537
 20
122.8798563838
 30
0.0
 11
42.0124487537
 21
122.8798563838
 31
0.0
  0
LINE
  5
122
330
1F
100
AcDbEntity
  8
0
  6
Continuous
 62
     7
370
    15
100
AcDbLine
 10
42.0124487537
 20
64.8798563838
 30
0.0
 11
42.0124487537
 21
63.8798563838
 31
0.0
  0
LINE
  5
123
330
1F
100
AcDbEntity
  8
0
  6
Continuous
 62
     7
370
    15
100
AcDbLine
 10
46.2124487537
 20
63.8798563838
 30
0.0
 11
42.0124487537
 21
63.8798563838
 31
0.0
  0
LINE
  5
124
330
1F
100
AcDbEntity
  8
0
  6
Continuous
 62
     7
370
    15
100
AcDbLine
 10
42.0124487537
 20
123.8798563838
 30
0.0
 11
42.0124487537
 21
122.8798563838
 31
0.0
  0
LINE
  5
125
330
1F
100
AcDbEntity
  8
0
  6
Continuous
 62
     7
370
    15
100
AcDbLine
 10
42.0124487537
 20
123.8798563838
 30
0.0
 11
46.2124487537
 21
123.8798563838
 31
0.0
  0
LINE
  5
126
330
1F
100
AcDbEntity
  8
0
  6
Continuous
 62
     7
370
    15
100
AcDbLine
 10
41.0124487537
 20
64.8798563838
 30
0.0
 11
42.0124487537
 21
63.8798563838
 31
0.0
  0
LINE
  5
127
330
1F
100
AcDbEntity
  8
0
  6
Continuous
 62
     7
370
    15
100
AcDbLine
 10
41.0124487537
 20
64.8798563838
 30
0.0
 11
42.0124487537
 21
64.8798563838
 31
0.0
  0
LINE
  5
128
330
1F
100
AcDbEntity
  8
0
  6
Continuous
 62
     7
370
    15
100
AcDbLine
 10
41.0124487537
 20
64.8798563838
 30
0.0
 11
41.0124487537
 21
122.8798563838
 31
0.0
  0
LINE
  5
129
330
1F
100
AcDbEntity
  8
0
  6
Continuous
 62
     7
370
    15
100
AcDbLine
 10
41.0124487537
 20
122.8798563838
 30
0.0
 11
42.0124487537
 21
122.8798563838
 31
0.0
  0
LINE
  5
12A
330
1F
100
AcDbEntity
  8
0
  6
Continuous
 62
     7
370
    15
100
AcDbLine
 10
42.0124487537
 20
123.8798563838
 30
0.0
 11
41.0124487537
 21
122.8798563838
 31
0.0
  0
DIMENSION
  5
12B
330
1F
100
AcDbEntity
  8
VERMASSUNG
100
AcDbDimension
  2
_D_3
 10
67.0124487537
 20
93.8798563838
 30
0.0
 11
104.6927501829
 21
125.0334858521
 31
0.0
 70
   164
  1
<>
 71
     1
 42
-1.0
  3
SLDDIMSTYLE1
100
AcDbRadialDimension
 15
97.8403018888
 25
119.3679608853
 35
0.0
 40
0.0
  0
INSERT
  5
13F
330
1F
100
AcDbEntity
  8
VERMASSUNG
100
AcDbBlockReference
  2
SW_CENTERMARKSYMBOL_0
 10
67.0124487537
 20
93.8798563838
 30
0.0
  0
LINE
  5
140
330
1F
100
AcDbEntity
  8
0
  6
Continuous
 62
     7
370
    15
100
AcDbLine
 10
225.28557757
 20
173.0240870492
 30
0.0
 11
226.28557757
 21
172.0240870492
 31
0.0
  0
LINE
  5
141
330
1F
100
AcDbEntity
  8
0
  6
Continuous
 62
     7
370
    15
100
AcDbLine
 10
233.28557757
 20
172.0240870492
 30
0.0
 11
234.28557757
 21
173.0240870492
 31
0.0
  0
LINE
  5
142
330
1F
100
AcDbEntity
  8
0
  6
Continuous
 62
     7
370
    15
100
AcDbLine
 10
202.7893974076
 20
198.0240870492
 30
0.0
 11
202.7817722681
 21
197.9369313065
 31
0.0
  0
LINE
  5
143
330
1F
100
AcDbEntity
  8
0
  6
Continuous
 62
     7
370
    15
100
AcDbLine
 10
202.7817722681
 20
146.111242792
 30
0.0
 11
203.5767953793
 21
137.0240870492
 31
0.0
  0
ARC
  5
144
330
1F
100
AcDbEntity
  8
0
  6
Continuous
 62
     7
370
    15
100
AcDbCircle
 10
201.78557757
 20
146.0240870492
 30
0.0
 40
1.000000000000008
100
AcDbArc
 50
5.0
 51
90.0
  0
ARC
  5
145
330
1F
100
AcDbEntity
  8
0
  6
Continuous
 62
     7
370
    15
100
AcDbCircle
 10
201.78557757
 20
198.0240870492
 30
0.0
 40
1.000000000000008
100
AcDbArc
 50
270.0
 51
355.0
  0
LINE
  5
146
330
1F
100
AcDbEntity
  8
0
  6
Continuous
 62
     7
370
    15
100
AcDbLine
 10
195.7608442983
 20
147.0240870492
 30
0.0
 11
201.78557757
 21
147.0240870492
 31
0.0
  0
LINE
  5
147
330
1F
100
AcDbEntity
  8
0
  6
Continuous
 62
     7
370
    15
100
AcDbLine
 10
182.08557757
 20
147.0240870492
 30
0.0
 11
191.78557757
 21
147.0240870492
 31
0.0
  0
LINE
  5
148
330
1F
100
AcDbEntity
  8
0
  6
Continuous
 62
     7
370
    15
100
AcDbLine
 10
201.78557757
 20
197.0240870492
 30
0.0
 11
182.08557757
 21
197.0240870492
 31
0.0
  0
ARC
  5
149
330
1F
100
AcDbEntity
  8
0
  6
Continuous
 62
     7
370
    15
100
AcDbCircle
 10
182.08557757
 20
147.3240870492
 30
0.0
 40
0.3000000000000398
100
AcDbArc
 50
180.0
 51
270.0
  0
ARC
  5
14A
330
1F
100
AcDbEntity
  8
0
  6
Continuous
 62
     7
370
    15
100
AcDbCircle
 10
182.08557757
 20
196.7240870492
 30
0.0
 40
0.3000000000000398
100
AcDbArc
 50
90.0
 51
180.0
  0
LWPOLYLINE
  5
14B
330
1F
100
AcDbEntity
  8
0
  6
Continuous
 62
     7
370
    15
100
AcDbPolyline
 90
        3
 70
   128
 43
0.0
 10
181.58557757
 20
154.1842667704
 10
181.7110325135
 20
154.1159646554
 10
181.78557757
 20
154.0632268973
  0
ARC
  5
14C
330
1F
100
AcDbEntity
  8
0
  6
Continuous
 62
     7
370
    15
100
AcDbCircle
 10
181.1713640076
 20
190.7740870492
 30
0.0
 40
1.000000000000008
100
AcDbArc
 50
225.0
 51
307.8947985336
  0
LINE
  5
14D
330
1F
100
AcDbEntity
  8
0
  6
Continuous
 62
     7
370
    15
100
AcDbLine
 10
171.2263948071
 20
155.8340000316
 30
0.0
 11
179.58557757
 21
155.6239882647
 31
0.0
  0
LINE
  5
14E
330
1F
100
AcDbEntity
  8
0
  6
Continuous
 62
     7
370
    15
100
AcDbLine
 10
159.1634886631
 20
156.1370622213
 30
0.0
 11
164.505735712
 21
156.0028463807
 31
0.0
  0
ARC
  5
14F
330
1F
100
AcDbEntity
  8
0
  6
Continuous
 62
     7
370
    15
100
AcDbCircle
 10
179.785514481
 20
155.6189651535
 30
0.0
 40
0.2000000000000059
100
AcDbArc
 50
88.5608333333
 51
178.5608333333
  0
LINE
  5
150
330
1F
100
AcDbEntity
  8
0
  6
Continuous
 62
     7
370
    15
100
AcDbLine
 10
179.7905375921
 20
155.8189020645
 30
0.0
 11
181.3906006811
 21
155.7787029103
 31
0.0
  0
ARC
  5
151
330
1F
100
AcDbEntity
  8
0
  6
Continuous
 62
     7
370
    15
100
AcDbCircle
 10
181.38557757
 20
155.5787659994
 30
0.0
 40
0.1999999999999886
100
AcDbArc
 50
0.0
 51
88.5608333333
  0
ARC
  5
152
330
1F
100
AcDbEntity
  8
0
  6
Continuous
 62
     7
370
    15
100
AcDbCircle
 10
179.785514481
 20
190.6692089449
 30
0.0
 40
0.2000000000000045
100
AcDbArc
 50
181.4391666666
 51
271.4391666667
  0
LINE
  5
153
330
1F
100
AcDbEntity
  8
0
  6
Continuous
 62
     7
370
    15
100
AcDbLine
 10
179.58557757
 20
190.6641858338
 30
0.0
 11
153.28557757
 21
190.0034382912
 31
0.0
  0
LINE
  5
154
330
1F
100
AcDbEntity
  8
0
  6
Continuous
 62
     7
370
    15
100
AcDbLine
 10
180.0648512876
 20
190.4761637488
 30
0.0
 11
179.7905375921
 21
190.469272034
 31
0.0
  0
LINE
  5
155
330
1F
100
AcDbEntity
  8
0
  6
Continuous
 62
     7
370
    15
100
AcDbLine
 10
153.28557757
 20
190.0034382912
 30
0.0
 11
151.78557757
 21
189.1374128874
 31
0.0
  0
LINE
  5
156
330
1F
100
AcDbEntity
  8
0
  6
Continuous
 62
     7
370
    15
100
AcDbLine
 10
180.4642572265
 20
190.0669802681
 30
0.0
 11
180.0716962042
 21
190.4595412903
 31
0.0
  0
LINE
  5
157
330
1F
100
AcDbEntity
  8
0
  6
Continuous
 62
     7
370
    15
100
AcDbLine
 10
226.28557757
 20
172.0240870492
 30
0.0
 11
233.28557757
 21
172.0240870492
 31
0.0
  0
CIRCLE
  5
158
330
1F
100
AcDbEntity
  8
0
  6
Continuous
 62
     7
370
    15
100
AcDbCircle
 10
212.4045504046
 20
181.342885237
 30
0.0
 40
3.230281095829583
  0
CIRCLE
  5
159
330
1F
100
AcDbEntity
  8
0
  6
Continuous
 62
     7
370
    15
100
AcDbCircle
 10
212.4078552916
 20
181.3471400039
 30
0.0
 40
2.485655562696659
  0
CIRCLE
  5
15A
330
1F
100
AcDbEntity
  8
0
  6
Continuous
 62
     7
370
    15
100
AcDbCircle
 10
212.4473456858
 20
181.3133005615
 30
0.0
 40
2.087087153940105
  0
ARC
  5
15B
330
1F
100
AcDbEntity
  8
0
  6
Continuous
 62
     7
370
    15
100
AcDbCircle
 10
213.0092902655
 20
180.8214337248
 30
0.0
 40
2.10264563478772
100
AcDbArc
 50
58.3008956107
 51
217.3544954015
  0
CIRCLE
  5
15C
330
1F
100
AcDbEntity
  8
0
  6
Continuous
 62
     7
370
    15
100
AcDbCircle
 10
212.78557757
 20
181.0240870492
 30
0.0
 40
4.582575694955835
  0
CIRCLE
  5
15D
330
1F
100
AcDbEntity
  8
0
  6
Continuous
 62
     7
370
    15
100
AcDbCircle
 10
212.78557757
 20
181.0240870492
 30
0.0
 40
6.0
  0
SPLINE
  5
15E
330
1F
100
AcDbEntity
  8
0
  6
Continuous
 62
     7
370
    15
100
AcDbSpline
210
0.0
220
0.0
230
1.0
 70
     8
 71
     3
 72
    14
 73
    10
 74
     0
 42
0.00000001
 43
0.00000001
 12
1.0
 22
0.0
 32
0.0
 13
1.0
 23
0.0
 33
0.0
 40
0.0
 40
0.0
 40
0.0
 40
0.0
 40
0.25
 40
0.25
 40
0.5
 40
0.5
 40
0.75
 40
0.75
 40
1.0
 40
1.0
 40
1.0
 40
1.0
 10
203.9343751728488
 20
146.9680350047151
 30
0.0
 10
203.9430902629284
 20
146.8126384002741
 30
0.0
 10
203.9670832472673
 20
146.6559397277412
 30
0.0
 10
204.0483240870364
 20
146.3554737280673
 30
0.0
 10
204.106334990962
 20
146.2079914850382
 30
0.0
 10
204.264517760971
 20
145.9378402220548
 30
0.0
 10
204.3659808776859
 20
145.8133232997104
 30
0.0
 10
204.6175571341317
 20
145.6269794615148
 30
0.0
 10
204.7715805413913
 20
145.5665739385915
 30
0.0
 10
204.9305698709407
 20
145.5665739385915
 30
0.0
  0
SPLINE
  5
15F
330
1F
100
AcDbEntity
  8
0
  6
Continuous
 62
     7
370
    15
100
AcDbSpline
210
0.0
220
0.0
230
1.0
 70
    24
 71
     3
 72
    18
 73
    14
 74
     0
 42
0.00000001
 43
0.00000001
 12
1.0
 22
0.0
 32
0.0
 13
1.0
 23
0.0
 33
0.0
 40
0.0
 40
0.0
 40
0.0
 40
0.0
 40
0.1249999999999986
 40
0.1249999999999986
 40
0.2499999999999972
 40
0.2499999999999972
 40
0.3749999999999958
 40
0.3749999999999958
 40
0.4999999999999944
 40
0.4999999999999944
 40
0.7499999999999972
 40
0.7499999999999972
 40
1.0
 40
1.0
 40
1.0
 40
1.0
 10
204.9305698709406
 20
137.0240870492374
 30
0.0
 10
204.8285119562164
 20
137.0240870492374
 30
0.0
 10
204.7319565341293
 20
137.0240870492374
 30
0.0
 10
204.5624078630845
 20
137.0240870492374
 30
0.0
 10
204.4889909293903
 20
137.0240870492374
 30
0.0
 10
204.3632606841664
 20
137.0240870492374
 30
0.0
 10
204.309400072994
 20
137.0240870492374
 30
0.0
 10
204.2169557654034
 20
137.0240870492374
 30
0.0
 10
204.177772123939
 20
137.0240870492374
 30
0.0
 10
204.0753777094478
 20
137.0240870492374
 30
0.0
 10
204.0277191901628
 20
137.0240870492374
 30
0.0
 10
203.9611909132211
 20
137.0240870492374
 30
0.0
 10
203.9420512804738
 20
137.0240870492374
 30
0.0
 10
203.9343751728489
 20
137.0240870492374
 30
0.0
  0
SPLINE
  5
160
330
1F
100
AcDbEntity
  8
0
  6
Continuous
 62
     7
370
    15
100
AcDbSpline
210
0.0
220
0.0
230
1.0
 70
     8
 71
     3
 72
    14
 73
    10
 74
     0
 42
0.00000001
 43
0.00000001
 12
1.0
 22
0.0
 32
0.0
 13
1.0
 23
0.0
 33
0.0
 40
0.0
 40
0.0
 40
0.0
 40
0.0
 40
0.2500000000000002
 40
0.2500000000000002
 40
0.5000000000000002
 40
0.5000000000000002
 40
0.7500000000000001
 40
0.7500000000000001
 40
1.0
 40
1.0
 40
1.0
 40
1.0
 10
203.9343751728489
 20
146.9680350047151
 30
0.0
 10
203.7005975298436
 20
151.1364660347437
 30
0.0
 10
203.5004960651914
 20
155.3054577952193
 30
0.0
 10
203.2189308826863
 20
163.6454167124315
 30
0.0
 10
203.1397839886832
 20
167.8164224458041
 30
0.0
 10
203.1389237785291
 20
176.1610552848311
 30
0.0
 10
203.2172438933925
 20
180.3346829471339
 30
0.0
 10
203.4979117990602
 20
188.6840034138541
 30
0.0
 10
203.6977636918321
 20
192.855640830242
 30
0.0
 10
203.9312336856305
 20
197.0240870492375
 30
0.0
  0
LINE
  5
161
330
1F
100
AcDbEntity
  8
0
  6
Continuous
 62
     7
370
    15
100
AcDbLine
 10
218.78557757
 20
197.0240870492
 30
0.0
 11
203.9312336856
 21
197.0240870492
 31
0.0
  0
LINE
  5
162
330
1F
100
AcDbEntity
  8
0
  6
Continuous
 62
     7
370
    15
100
AcDbLine
 10
218.78557757
 20
192.8240870492
 30
0.0
 11
218.78557757
 21
197.0240870492
 31
0.0
  0
ARC
  5
163
330
1F
100
AcDbEntity
  8
0
  6
Continuous
 62
     7
370
    15
100
AcDbCircle
 10
220.58557757
 20
192.8240870492
 30
0.0
 40
1.800000000000011
100
AcDbArc
 50
180.0
 51
270.0
  0
LINE
  5
164
330
1F
100
AcDbEntity
  8
0
  6
Continuous
 62
     7
370
    15
100
AcDbLine
 10
238.78557757
 20
191.0240870492
 30
0.0
 11
220.58557757
 21
191.0240870492
 31
0.0
  0
LINE
  5
165
330
1F
100
AcDbEntity
  8
0
  6
Continuous
 62
     7
370
    15
100
AcDbLine
 10
238.78557757
 20
173.0240870492
 30
0.0
 11
238.78557757
 21
191.0240870492
 31
0.0
  0
LINE
  5
166
330
1F
100
AcDbEntity
  8
0
  6
Continuous
 62
     7
370
    15
100
AcDbLine
 10
219.78557757
 20
173.0240870492
 30
0.0
 11
238.78557757
 21
173.0240870492
 31
0.0
  0
LINE
  5
167
330
1F
100
AcDbEntity
  8
0
  6
Continuous
 62
     7
370
    15
100
AcDbLine
 10
219.78557757
 20
173.0240870492
 30
0.0
 11
219.78557757
 21
152.0240870492
 31
0.0
  0
LINE
  5
168
330
1F
100
AcDbEntity
  8
0
  6
Continuous
 62
     7
370
    15
100
AcDbLine
 10
219.78557757
 20
152.0240870492
 30
0.0
 11
238.78557757
 21
152.0240870492
 31
0.0
  0
LINE
  5
169
330
1F
100
AcDbEntity
  8
0
  6
Continuous
 62
     7
370
    15
100
AcDbLine
 10
238.78557757
 20
145.5665739386
 30
0.0
 11
238.78557757
 21
152.0240870492
 31
0.0
  0
LINE
  5
16A
330
1F
100
AcDbEntity
  8
0
  6
Continuous
 62
     7
370
    15
100
AcDbLine
 10
204.9305698709
 20
145.5665739386
 30
0.0
 11
238.78557757
 21
145.5665739386
 31
0.0
  0
LINE
  5
16B
330
1F
100
AcDbEntity
  8
0
  6
Continuous
 62
     7
370
    15
100
AcDbLine
 10
239.78557757
 20
137.0240870492
 30
0.0
 11
204.9305698709
 21
137.0240870492
 31
0.0
  0
ARC
  5
16C
330
1F
100
AcDbEntity
  8
0
  6
Continuous
 62
     7
370
    15
100
AcDbCircle
 10
268.78557757
 20
172.0240870492
 30
0.0
 40
40.00000000000001
100
AcDbArc
 50
221.4096221093
 51
223.5311521674
  0
LINE
  5
16D
330
1F
100
AcDbEntity
  8
0
  6
Continuous
 62
     7
370
    15
100
AcDbLine
 10
239.78557757
 20
137.0240870492
 30
0.0
 11
239.78557757
 21
144.4741324213
 31
0.0
  0
LINE
  5
16E
330
1F
100
AcDbEntity
  8
0
  6
Continuous
 62
     7
370
    15
100
AcDbLine
 10
239.78557757
 20
152.0240870492
 30
0.0
 11
239.78557757
 21
144.4741324213
 31
0.0
  0
LINE
  5
16F
330
1F
100
AcDbEntity
  8
0
  6
Continuous
 62
     7
370
    15
100
AcDbLine
 10
238.78557757
 20
152.0240870492
 30
0.0
 11
239.78557757
 21
152.0240870492
 31
0.0
  0
SPLINE
  5
170
330
1F
100
AcDbEntity
  8
0
  6
Continuous
 62
     7
370
    15
100
AcDbSpline
210
0.0
220
0.0
230
1.0
 70
     8
 71
     3
 72
     8
 73
     4
 74
     0
 42
0.00000001
 43
0.00000001
 12
1.0
 22
0.0
 32
0.0
 13
1.0
 23
0.0
 33
0.0
 40
0.0
 40
0.0
 40
0.0
 40
0.0
 40
0.0014142420296365
 40
0.0014142420296365
 40
0.0014142420296365
 40
0.0014142420296365
 10
203.9312336856305
 20
197.0240870492374
 30
0.0
 10
203.9274998024296
 20
197.3574166360028
 30
0.0
 10
203.9245067559928
 20
197.6907507903625
 30
0.0
 10
203.922260481614
 20
198.0240870492374
 30
0.0
  0
SPLINE
  5
171
330
1F
100
AcDbEntity
  8
0
  6
Continuous
 62
     7
370
    15
100
AcDbSpline
210
0.0
220
0.0
230
1.0
 70
    24
 71
     3
 72
    10
 73
     6
 74
     0
 42
0.00000001
 43
0.00000001
 12
1.0
 22
0.0
 32
0.0
 13
1.0
 23
0.0
 33
0.0
 40
0.0
 40
0.0
 40
0.0
 40
0.0
 40
0.4995106482159776
 40
0.9992015972812514
 40
1.0
 40
1.0
 40
1.0
 40
1.0
 10
203.9343751728489
 20
137.0240870492374
 30
0.0
 10
203.8389136380202
 20
137.024087049237
 30
0.0
 10
203.6479561110479
 20
137.0240870492361
 30
0.0
 10
203.5458227240204
 20
137.0240870492404
 30
0.0
 10
203.5768945468651
 20
137.0240870492374
 30
0.0
 10
203.5769441140092
 20
137.0240870492374
 30
0.0
  0
SPLINE
  5
172
330
1F
100
AcDbEntity
  8
0
  6
Continuous
 62
     7
370
    15
100
AcDbSpline
210
0.0
220
0.0
230
1.0
 70
    24
 71
     3
 72
    11
 73
     7
 74
     0
 42
0.00000001
 43
0.00000001
 12
1.0
 22
0.0
 32
0.0
 13
1.0
 23
0.0
 33
0.0
 40
0.0
 40
0.0
 40
0.0
 40
0.0
 40
0.1153385644412402
 40
0.4128151696396061
 40
0.7063737778343832
 40
1.0
 40
1.0
 40
1.0
 40
1.0
 10
202.818908007356
 20
198.0240870492374
 30
0.0
 10
202.8113942545739
 20
198.0240870492374
 30
0.0
 10
202.7845013316004
 20
198.0240870492375
 30
0.0
 10
202.9974055143611
 20
198.0240870492374
 30
0.0
 10
203.3862084065516
 20
198.0240870492375
 30
0.0
 10
203.7435627402162
 20
198.0240870492374
 30
0.0
 10
203.922260481614
 20
198.0240870492374
 30
0.0
  0
LINE
  5
173
330
1F
100
AcDbEntity
  8
0
  6
Continuous
 62
     7
370
    15
100
AcDbLine
 10
238.78557757
 20
192.0240870492
 30
0.0
 11
239.78557757
 21
191.0240870492
 31
0.0
  0
LINE
  5
174
330
1F
100
AcDbEntity
  8
0
  6
Continuous
 62
     7
370
    15
100
AcDbLine
 10
238.78557757
 20
191.0240870492
 30
0.0
 11
239.78557757
 21
191.0240870492
 31
0.0
  0
LINE
  5
175
330
1F
100
AcDbEntity
  8
0
  6
Continuous
 62
     7
370
    15
100
AcDbLine
 10
238.78557757
 20
192.0240870492
 30
0.0
 11
238.78557757
 21
191.0240870492
 31
0.0
  0
LINE
  5
176
330
1F
100
AcDbEntity
  8
0
  6
Continuous
 62
     7
370
    15
100
AcDbLine
 10
220.58557757
 20
192.0240870492
 30
0.0
 11
238.78557757
 21
192.0240870492
 31
0.0
  0
LINE
  5
177
330
1F
100
AcDbEntity
  8
0
  6
Continuous
 62
     7
370
    15
100
AcDbLine
 10
219.78557757
 20
197.0240870492
 30
0.0
 11
219.78557757
 21
192.8240870492
 31
0.0
  0
LINE
  5
178
330
1F
100
AcDbEntity
  8
0
  6
Continuous
 62
     7
370
    15
100
AcDbLine
 10
219.78557757
 20
197.0240870492
 30
0.0
 11
218.78557757
 21
197.0240870492
 31
0.0
  0
LINE
  5
179
330
1F
100
AcDbEntity
  8
0
  6
Continuous
 62
     7
370
    15
100
AcDbLine
 10
239.78557757
 20
191.0240870492
 30
0.0
 11
239.78557757
 21
173.0240870492
 31
0.0
  0
LINE
  5
17A
330
1F
100
AcDbEntity
  8
0
  6
Continuous
 62
     7
370
    15
100
AcDbLine
 10
239.78557757
 20
173.0240870492
 30
0.0
 11
238.78557757
 21
173.0240870492
 31
0.0
  0
LINE
  5
17B
330
1F
100
AcDbEntity
  8
0
  6
Continuous
 62
     7
370
    15
100
AcDbLine
 10
203.9222604816
 20
198.0240870492
 30
0.0
 11
218.78557757
 21
198.0240870492
 31
0.0
  0
LINE
  5
17C
330
1F
100
AcDbEntity
  8
0
  6
Continuous
 62
     7
370
    15
100
AcDbLine
 10
218.78557757
 20
198.0240870492
 30
0.0
 11
218.78557757
 21
197.0240870492
 31
0.0
  0
LINE
  5
17D
330
1F
100
AcDbEntity
  8
0
  6
Continuous
 62
     7
370
    15
100
AcDbLine
 10
218.78557757
 20
198.0240870492
 30
0.0
 11
219.78557757
 21
197.0240870492
 31
0.0
  0
ARC
  5
17E
330
1F
100
AcDbEntity
  8
0
  6
Continuous
 62
     7
370
    15
100
AcDbCircle
 10
220.58557757
 20
192.8240870492
 30
0.0
 40
0.8000000000000114
100
AcDbArc
 50
180.0
 51
270.0
  0
ARC
  5
17F
330
1F
100
AcDbEntity
  8
0
  6
Continuous
 62
     7
370
    15
100
AcDbCircle
 10
193.7855128715
 20
122.0676548583
 30
0.0
 40
25.03643842308259
100
AcDbArc
 50
85.4747594988
 51
94.5817246457
  0
SPLINE
  5
180
330
1F
100
AcDbEntity
  8
0
  6
Continuous
 62
     7
370
    15
100
AcDbSpline
210
0.0
220
0.0
230
1.0
 70
     8
 71
     3
 72
    12
 73
     8
 74
     0
 42
0.00000001
 43
0.00000001
 12
1.0
 22
0.0
 32
0.0
 13
1.0
 23
0.0
 33
0.0
 40
0.0
 40
0.0
 40
0.0
 40
0.0
 40
0.2500000000000009
 40
0.2500000000000009
 40
0.5000000000000018
 40
0.5000000000000018
 40
1.0
 40
1.0
 40
1.0
 40
1.0
 10
190.3133343835834
 20
148.1973559337354
 30
0.0
 10
190.2496691470529
 20
148.1973559337354
 30
0.0
 10
190.1900629148295
 20
148.2056207094012
 30
0.0
 10
190.0914023898987
 20
148.2298394909844
 30
0.0
 10
190.0524353998834
 20
148.2450968102935
 30
0.0
 10
189.953048567959
 20
148.2947301645555
 30
0.0
 10
189.9109723205355
 20
148.3323698727296
 30
0.0
 10
189.8803216816912
 20
148.3714455720057
 30
0.0
  0
LINE
  5
181
330
1F
100
AcDbEntity
  8
0
  6
Continuous
 62
     7
370
    15
100
AcDbLine
 10
193.2578207565
 20
148.1973559337
 30
0.0
 11
190.3133343836
 21
148.1973559337
 31
0.0
  0
SPLINE
  5
182
330
1F
100
AcDbEntity
  8
0
  6
Continuous
 62
     7
370
    15
100
AcDbSpline
210
0.0
220
0.0
230
1.0
 70
     8
 71
     3
 72
    12
 73
     8
 74
     0
 42
0.00000001
 43
0.00000001
 12
1.0
 22
0.0
 32
0.0
 13
1.0
 23
0.0
 33
0.0
 40
0.0
 40
0.0
 40
0.0
 40
0.0
 40
0.4999999999999982
 40
0.4999999999999982
 40
0.7499999999999991
 40
0.7499999999999991
 40
1.0
 40
1.0
 40
1.0
 40
1.0
 10
193.6908334583428
 20
148.3714455720057
 30
0.0
 10
193.6601340749754
 20
148.3323077296099
 30
0.0
 10
193.6187840068689
 20
148.2951479468843
 30
0.0
 10
193.5190280786495
 20
148.2452114412566
 30
0.0
 10
193.4793311609168
 20
148.2297585711129
 30
0.0
 10
193.3820730092692
 20
148.2058390275138
 30
0.0
 10
193.3212968512785
 20
148.1973559337354
 30
0.0
 10
193.2578207564505
 20
148.1973559337354
 30
0.0
  0
ELLIPSE
  5
183
330
1F
100
AcDbEntity
  8
0
  6
Continuous
 62
     7
370
    15
100
AcDbEllipse
 10
180.729319915
 20
172.0240870492
 30
0.0
 11
-11.70927234972726
 21
24.67718644093745
 31
0.0
210
0.0
220
0.0
230
1.0
 40
0.3419987131
 41
3.310521928178946
 42
4.22170915139894
  0
SPLINE
  5
184
330
1F
100
AcDbEntity
  8
0
  6
Continuous
 62
     7
370
    15
100
AcDbSpline
210
0.0
220
0.0
230
1.0
 70
     8
 71
     3
 72
    12
 73
     8
 74
     0
 42
0.00000001
 43
0.00000001
 12
1.0
 22
0.0
 32
0.0
 13
1.0
 23
0.0
 33
0.0
 40
0.0
 40
0.0
 40
0.0
 40
0.0
 40
0.2500000000000014
 40
0.2500000000000014
 40
0.5000000000000028
 40
0.5000000000000028
 40
1.0
 40
1.0
 40
1.0
 40
1.0
 10
193.2578207564505
 20
164.4552770800566
 30
0.0
 10
193.3214859929811
 20
164.4552770800566
 30
0.0
 10
193.3810922252044
 20
164.4292049315769
 30
0.0
 10
193.4797527501352
 20
164.3536661807558
 30
0.0
 10
193.5187197401505
 20
164.3064152436596
 30
0.0
 10
193.618106572075
 20
164.1545914256932
 30
0.0
 10
193.6601828194984
 20
164.0417881759281
 30
0.0
 10
193.6908334583428
 20
163.927634051193
 30
0.0
  0
LINE
  5
185
330
1F
100
AcDbEntity
  8
0
  6
Continuous
 62
     7
370
    15
100
AcDbLine
 10
190.3133343836
 20
164.4552770801
 30
0.0
 11
193.2578207565
 21
164.4552770801
 31
0.0
  0
SPLINE
  5
186
330
1F
100
AcDbEntity
  8
0
  6
Continuous
 62
     7
370
    15
100
AcDbSpline
210
0.0
220
0.0
230
1.0
 70
     8
 71
     3
 72
    12
 73
     8
 74
     0
 42
0.00000001
 43
0.00000001
 12
1.0
 22
0.0
 32
0.0
 13
1.0
 23
0.0
 33
0.0
 40
0.0
 40
0.0
 40
0.0
 40
0.0
 40
0.5000000000000018
 40
0.5000000000000018
 40
0.7500000000000009
 40
0.7500000000000009
 40
1.0
 40
1.0
 40
1.0
 40
1.0
 10
189.8803216816912
 20
163.927634051193
 30
0.0
 10
189.9110210650585
 20
164.0419697182569
 30
0.0
 10
189.952371133165
 20
164.1533230710982
 30
0.0
 10
190.0521270613845
 20
164.3060598433469
 30
0.0
 10
190.0918239791172
 20
164.353919729199
 30
0.0
 10
190.1890821307648
 20
164.4285228425485
 30
0.0
 10
190.2498582887555
 20
164.4552770800566
 30
0.0
 10
190.3133343835834
 20
164.4552770800566
 30
0.0
  0
ELLIPSE
  5
187
330
1F
100
AcDbEntity
  8
0
  6
Continuous
 62
     7
370
    15
100
AcDbEllipse
 10
202.841835225
 20
172.0240870492
 30
0.0
 11
11.70927234972711
 21
24.67718644093745
 31
0.0
210
0.0
220
0.0
230
1.0
 40
0.3419987131
 41
2.061476155780657
 42
2.972663379000677
  0
SPLINE
  5
188
330
1F
100
AcDbEntity
  8
0
  6
Continuous
 62
     7
370
    15
100
AcDbSpline
210
0.0
220
0.0
230
1.0
 70
     8
 71
     3
 72
    12
 73
     8
 74
     0
 42
0.00000001
 43
0.00000001
 12
1.0
 22
0.0
 32
0.0
 13
1.0
 23
0.0
 33
0.0
 40
0.0
 40
0.0
 40
0.0
 40
0.0
 40
0.2500000000000016
 40
0.2500000000000016
 40
0.5000000000000032
 40
0.5000000000000032
 40
1.0
 40
1.0
 40
1.0
 40
1.0
 10
190.3133343835834
 20
179.5928970184181
 30
0.0
 10
190.2496978293697
 20
179.5928970184181
 30
0.0
 10
190.1901177025035
 20
179.618943921476
 30
0.0
 10
190.0914809611371
 20
179.694431080376
 30
0.0
 10
190.0525223367569
 20
179.7416501189067
 30
0.0
 10
189.9531433972489
 20
179.8933897700003
 30
0.0
 10
189.9111854920835
 20
180.0055919941844
 30
0.0
 10
189.880321681691
 20
180.1205400472817
 30
0.0
  0
LINE
  5
189
330
1F
100
AcDbEntity
  8
0
  6
Continuous
 62
     7
370
    15
100
AcDbLine
 10
193.2578207565
 20
179.5928970184
 30
0.0
 11
190.3133343836
 21
179.5928970184
 31
0.0
  0
SPLINE
  5
18A
330
1F
100
AcDbEntity
  8
0
  6
Continuous
 62
     7
370
    15
100
AcDbSpline
210
0.0
220
0.0
230
1.0
 70
     8
 71
     3
 72
    12
 73
     8
 74
     0
 42
0.00000001
 43
0.00000001
 12
1.0
 22
0.0
 32
0.0
 13
1.0
 23
0.0
 33
0.0
 40
0.0
 40
0.0
 40
0.0
 40
0.0
 40
0.5000000000000014
 40
0.5000000000000014
 40
0.7500000000000007
 40
0.7500000000000007
 40
1.0
 40
1.0
 40
1.0
 40
1.0
 10
193.6908334583428
 20
180.1205400472817
 30
0.0
 10
193.6599817477785
 20
180.0056370583449
 30
0.0
 10
193.6180888843179
 20
179.8934981622961
 30
0.0
 10
193.5185680065247
 20
179.7415558806952
 30
0.0
 10
193.4789538418004
 20
179.6938912711703
 30
0.0
 10
193.3818508080209
 20
179.6195549405549
 30
0.0
 10
193.3213521353705
 20
179.5928970184177
 30
0.0
 10
193.2578207564506
 20
179.5928970184177
 30
0.0
  0
ELLIPSE
  5
18B
330
1F
100
AcDbEntity
  8
0
  6
Continuous
 62
     7
370
    15
100
AcDbEllipse
 10
180.729319915
 20
172.0240870492
 30
0.0
 11
11.70927234972717
 21
24.67718644093745
 31
0.0
210
0.0
220
0.0
230
1.0
 40
0.3419987131
 41
5.203068809370457
 42
6.114256032590505
  0
SPLINE
  5
18C
330
1F
100
AcDbEntity
  8
0
  6
Continuous
 62
     7
370
    15
100
AcDbSpline
210
0.0
220
0.0
230
1.0
 70
     8
 71
     3
 72
    12
 73
     8
 74
     0
 42
0.00000001
 43
0.00000001
 12
1.0
 22
0.0
 32
0.0
 13
1.0
 23
0.0
 33
0.0
 40
0.0
 40
0.0
 40
0.0
 40
0.0
 40
0.2499999999999991
 40
0.2499999999999991
 40
0.4999999999999982
 40
0.4999999999999982
 40
1.0
 40
1.0
 40
1.0
 40
1.0
 10
193.2578207564505
 20
195.8508181647394
 30
0.0
 10
193.3214573106642
 20
195.8508181647394
 30
0.0
 10
193.3810374375304
 20
195.8425613938076
 30
0.0
 10
193.4796741788968
 20
195.8183593317999
 30
0.0
 10
193.5186328032771
 20
195.8031125127657
 30
0.0
 10
193.618011742785
 20
195.7535076407056
 30
0.0
 10
193.6599696479504
 20
195.7160759925868
 30
0.0
 10
193.6908334583429
 20
195.6767285264691
 30
0.0
  0
LINE
  5
18D
330
1F
100
AcDbEntity
  8
0
  6
Continuous
 62
     7
370
    15
100
AcDbLine
 10
190.3133343836
 20
195.8508181647
 30
0.0
 11
193.2578207565
 21
195.8508181647
 31
0.0
  0
SPLINE
  5
18E
330
1F
100
AcDbEntity
  8
0
  6
Continuous
 62
     7
370
    15
100
AcDbSpline
210
0.0
220
0.0
230
1.0
 70
     8
 71
     3
 72
    12
 73
     8
 74
     0
 42
0.00000001
 43
0.00000001
 12
1.0
 22
0.0
 32
0.0
 13
1.0
 23
0.0
 33
0.0
 40
0.0
 40
0.0
 40
0.0
 40
0.0
 40
0.4999999999999968
 40
0.4999999999999968
 40
0.7499999999999983
 40
0.7499999999999983
 40
1.0
 40
1.0
 40
1.0
 40
1.0
 10
189.8803216816912
 20
195.6767285264691
 30
0.0
 10
189.9111733922554
 20
195.7160605668316
 30
0.0
 10
189.953066255716
 20
195.7534723323598
 30
0.0
 10
190.0525871335092
 20
195.8031432569758
 30
0.0
 10
190.0922012982336
 20
195.8185323395836
 30
0.0
 10
190.189304332013
 20
195.8423655552508
 30
0.0
 10
190.2498030046634
 20
195.8508181647396
 30
0.0
 10
190.3133343835833
 20
195.8508181647396
 30
0.0
  0
ELLIPSE
  5
18F
330
1F
100
AcDbEntity
  8
0
  6
Continuous
 62
     7
370
    15
100
AcDbEllipse
 10
202.841835225
 20
172.0240870492
 30
0.0
 11
-11.70927234972706
 21
24.67718644093745
 31
0.0
210
0.0
220
0.0
230
1.0
 40
0.3419987131
 41
0.1689292745891215
 42
1.080116497809142
  0
LINE
  5
190
330
1F
100
AcDbEntity
  8
0
  6
Continuous
 62
     7
370
    15
100
AcDbLine
 10
181.78557757
 20
172.0240870492
 30
0.0
 11
181.78557757
 21
196.7240870492
 31
0.0
  0
LINE
  5
191
330
1F
100
AcDbEntity
  8
0
  6
Continuous
 62
     7
370
    15
100
AcDbLine
 10
181.78557757
 20
147.3240870492
 30
0.0
 11
181.78557757
 21
172.0240870492
 31
0.0
  0
ELLIPSE
  5
192
330
1F
100
AcDbEntity
  8
0
  6
Continuous
 62
     7
370
    15
100
AcDbEllipse
 10
211.869701667
 20
180.9126640176
 30
0.0
 11
0.7107426670596623
 21
2.168423190543422
 31
0.0
210
0.0
220
0.0
230
1.0
 40
0.9202727667
 41
4.327456577097828
 42
6.098324663072425
  0
LINE
  5
193
330
1F
100
AcDbEntity
  8
0
  6
Continuous
 62
     7
370
    15
100
AcDbLine
 10
181.58557757
 20
158.4383223618
 30
0.0
 11
181.58557757
 21
154.1842667704
 31
0.0
  0
SPLINE
  5
194
330
1F
100
AcDbEntity
  8
0
  6
Continuous
 62
     7
370
    15
100
AcDbSpline
210
0.0
220
0.0
230
1.0
 70
     8
 71
     3
 72
    16
 73
    12
 74
     0
 42
0.00000001
 43
0.00000001
 12
1.0
 22
0.0
 32
0.0
 13
1.0
 23
0.0
 33
0.0
 40
0.0
 40
0.0
 40
0.0
 40
0.0
 40
0.4999999999999971
 40
0.4999999999999971
 40
0.7500000000000007
 40
0.7500000000000007
 40
0.8750000000000003
 40
0.8750000000000003
 40
0.9375000000000002
 40
0.9375000000000002
 40
1.0
 40
1.0
 40
1.0
 40
1.0
 10
181.585577570017
 20
158.4383223618418
 30
0.0
 10
181.585577570017
 20
158.5171165922984
 30
0.0
 10
181.5815202679019
 20
158.5981879407283
 30
0.0
 10
181.5558630251071
 20
158.7263048825449
 30
0.0
 10
181.544547579365
 20
158.7709025301661
 30
0.0
 10
181.5105162120564
 20
158.8372217908617
 30
0.0
 10
181.4966372308526
 20
158.8601759886973
 30
0.0
 10
181.4607015490852
 20
158.8872143906616
 30
0.0
 10
181.4457512298225
 20
158.8940241265652
 30
0.0
 10
181.4158527170806
 20
158.8973695881149
 30
0.0
 10
181.4023198567153
 20
158.8944115271414
 30
0.0
 10
181.3906006811413
 20
158.8896791864486
 30
0.0
  0
SPLINE
  5
195
330
1F
100
AcDbEntity
  8
0
  6
Continuous
 62
     7
370
    15
100
AcDbSpline
210
0.0
220
0.0
230
1.0
 70
     8
 71
     3
 72
    14
 73
    10
 74
     0
 42
0.00000001
 43
0.00000001
 12
1.0
 22
0.0
 32
0.0
 13
1.0
 23
0.0
 33
0.0
 40
0.0
 40
0.0
 40
0.0
 40
0.0
 40
0.25
 40
0.25
 40
0.5
 40
0.5
 40
0.75
 40
0.75
 40
1.0
 40
1.0
 40
1.0
 40
1.0
 10
181.3906006811482
 20
158.8896791864435
 30
0.0
 10
181.3341449165394
 20
158.866881685841
 30
0.0
 10
181.2632792902895
 20
158.8505230917463
 30
0.0
 10
181.1148222091169
 20
158.8559225333782
 30
0.0
 10
181.0456288498094
 20
158.8770137511663
 30
0.0
 10
180.9359134116752
 20
158.927936151556
 30
0.0
 10
180.8906688323438
 20
158.9584365816895
 30
0.0
 10
180.81104212292
 20
159.0216969791758
 30
0.0
 10
180.7764319743866
 20
159.0549430444253
 30
0.0
 10
180.7447165418874
 20
159.0892245617129
 30
0.0
  0
SPLINE
  5
196
330
1F
100
AcDbEntity
  8
0
  6
Continuous
 62
     7
370
    15
100
AcDbSpline
210
0.0
220
0.0
230
1.0
 70
     8
 71
     3
 72
    10
 73
     6
 74
     0
 42
0.00000001
 43
0.00000001
 12
1.0
 22
0.0
 32
0.0
 13
1.0
 23
0.0
 33
0.0
 40
0.0
 40
0.0
 40
0.0
 40
0.0
 40
0.5
 40
0.5
 40
1.0
 40
1.0
 40
1.0
 40
1.0
 10
180.7447165418879
 20
159.0892245617123
 30
0.0
 10
180.6729367539644
 20
159.1668120277086
 30
0.0
 10
180.6204772396564
 20
159.2497740685407
 30
0.0
 10
180.5311341755552
 20
159.4243041172506
 30
0.0
 10
180.4951385660555
 20
159.5159652589014
 30
0.0
 10
180.4642572264573
 20
159.6117646632371
 30
0.0
  0
SPLINE
  5
197
330
1F
100
AcDbEntity
  8
0
  6
Continuous
 62
     7
370
    15
100
AcDbSpline
210
0.0
220
0.0
230
1.0
 70
     8
 71
     3
 72
    10
 73
     6
 74
     0
 42
0.00000001
 43
0.00000001
 12
1.0
 22
0.0
 32
0.0
 13
1.0
 23
0.0
 33
0.0
 40
0.0
 40
0.0
 40
0.0
 40
0.0
 40
0.5
 40
0.5
 40
1.0
 40
1.0
 40
1.0
 40
1.0
 10
180.4642572264573
 20
166.8896051159143
 30
0.0
 10
180.4951302582696
 20
167.0529491415818
 30
0.0
 10
180.5311171211825
 20
167.2150116106407
 30
0.0
 10
180.6204517070737
 20
167.5344432511447
 30
0.0
 10
180.6729075664963
 20
167.6920768927141
 30
0.0
 10
180.7447165418886
 20
167.8441901447603
 30
0.0
  0
SPLINE
  5
198
330
1F
100
AcDbEntity
  8
0
  6
Continuous
 62
     7
370
    15
100
AcDbSpline
210
0.0
220
0.0
230
1.0
 70
     8
 71
     3
 72
    16
 73
    12
 74
     0
 42
0.00000001
 43
0.00000001
 12
1.0
 22
0.0
 32
0.0
 13
1.0
 23
0.0
 33
0.0
 40
0.0
 40
0.0
 40
0.0
 40
0.0
 40
0.2499999999999997
 40
0.2499999999999997
 40
0.4999999999999994
 40
0.4999999999999994
 40
0.6249999999999997
 40
0.6249999999999997
 40
0.7499999999999998
 40
0.7499999999999998
 40
1.0
 40
1.0
 40
1.0
 40
1.0
 10
180.7447165418879
 20
167.8441901447606
 30
0.0
 10
180.7764445030806
 20
167.9113996172737
 30
0.0
 10
180.8110720934311
 20
167.9769012493508
 30
0.0
 10
180.8907658554948
 20
168.1017510777846
 30
0.0
 10
180.9358073154985
 20
168.1618859399108
 30
0.0
 10
181.0186600423489
 20
168.2370353956669
 30
0.0
 10
181.0485745035487
 20
168.2591266815858
 30
0.0
 10
181.1145608341067
 20
168.2922881337587
 30
0.0
 10
181.1512944595685
 20
168.3031295444326
 30
0.0
 10
181.2637911791383
 20
168.3066536754684
 30
0.0
 10
181.3341325272366
 20
168.2695196206708
 30
0.0
 10
181.3906006811417
 20
168.2201503849604
 30
0.0
  0
SPLINE
  5
199
330
1F
100
AcDbEntity
  8
0
  6
Continuous
 62
     7
370
    15
100
AcDbSpline
210
0.0
220
0.0
230
1.0
 70
     8
 71
     3
 72
    16
 73
    12
 74
     0
 42
0.00000001
 43
0.00000001
 12
1.0
 22
0.0
 32
0.0
 13
1.0
 23
0.0
 33
0.0
 40
0.0
 40
0.0
 40
0.0
 40
0.0
 40
0.0624999999999978
 40
0.0624999999999978
 40
0.1249999999999956
 40
0.1249999999999956
 40
0.2499999999999961
 40
0.2499999999999961
 40
0.4999999999999956
 40
0.4999999999999956
 40
1.0
 40
1.0
 40
1.0
 40
1.0
 10
181.3906006811101
 20
168.2201503849121
 30
0.0
 10
181.402306996612
 20
168.2099157338797
 30
0.0
 10
181.4158029099412
 20
168.2014558158261
 30
0.0
 10
181.4457039016225
 20
168.195960896881
 30
0.0
 10
181.4606800335099
 20
168.20013934559
 30
0.0
 10
181.4964160751254
 20
168.2245165460274
 30
0.0
 10
181.510432352155
 20
168.2512461918832
 30
0.0
 10
181.5445990056778
 20
168.331695726665
 30
0.0
 10
181.5555802662217
 20
168.3891510749008
 30
0.0
 10
181.5814710535765
 20
168.5643274658442
 30
0.0
 10
181.5855775700167
 20
168.6838478245094
 30
0.0
 10
181.5855775700171
 20
168.8037461815532
 30
0.0
  0
LINE
  5
19A
330
1F
100
AcDbEntity
  8
0
  6
Continuous
 62
     7
370
    15
100
AcDbLine
 10
181.58557757
 20
188.8301926043
 30
0.0
 11
181.58557757
 21
168.8037461816
 31
0.0
  0
SPLINE
  5
19B
330
1F
100
AcDbEntity
  8
0
  6
Continuous
 62
     7
370
    15
100
AcDbSpline
210
0.0
220
0.0
230
1.0
 70
     8
 71
     3
 72
    16
 73
    12
 74
     0
 42
0.00000001
 43
0.00000001
 12
1.0
 22
0.0
 32
0.0
 13
1.0
 23
0.0
 33
0.0
 40
0.0
 40
0.0
 40
0.0
 40
0.0
 40
0.4999999999999988
 40
0.4999999999999988
 40
0.7499999999999999
 40
0.7499999999999999
 40
0.875
 40
0.875
 40
0.9374999999999999
 40
0.9374999999999999
 40
1.0
 40
1.0
 40
1.0
 40
1.0
 10
181.585577570017
 20
188.8301926043178
 30
0.0
 10
181.585577570017
 20
188.8709754559525
 30
0.0
 10
181.5815202679019
 20
188.9085660602503
 30
0.0
 10
181.5558630251071
 20
188.9553078556154
 30
0.0
 10
181.544547579365
 20
188.9697399529416
 30
0.0
 10
181.5105162120564
 20
188.9836176640048
 30
0.0
 10
181.4966372308526
 20
188.9873664481671
 30
0.0
 10
181.4607015490852
 20
188.9849182456906
 30
0.0
 10
181.4457512298224
 20
188.9822715813761
 30
0.0
 10
181.4158527170806
 20
188.9734580943226
 30
0.0
 10
181.4023198567153
 20
188.9679451299991
 30
0.0
 10
181.3906006811413
 20
188.962431576303
 30
0.0
  0
SPLINE
  5
19C
330
1F
100
AcDbEntity
  8
0
  6
Continuous
 62
     7
370
    15
100
AcDbSpline
210
0.0
220
0.0
230
1.0
 70
     8
 71
     3
 72
    14
 73
    10
 74
     0
 42
0.00000001
 43
0.00000001
 12
1.0
 22
0.0
 32
0.0
 13
1.0
 23
0.0
 33
0.0
 40
0.0
 40
0.0
 40
0.0
 40
0.0
 40
0.25
 40
0.25
 40
0.5
 40
0.5
 40
0.75
 40
0.75
 40
1.0
 40
1.0
 40
1.0
 40
1.0
 10
181.3906006811482
 20
188.9624315762982
 30
0.0
 10
181.3341410152644
 20
188.9358688375156
 30
0.0
 10
181.2632685404022
 20
188.915181790636
 30
0.0
 10
181.1148021825202
 20
188.9142703456289
 30
0.0
 10
181.0456069793125
 20
188.9336901550258
 30
0.0
 10
180.9358897932429
 20
188.9824238379863
 30
0.0
 10
180.890643904311
 20
189.0122303469693
 30
0.0
 10
180.8110267733441
 20
189.0737361453994
 30
0.0
 10
180.7764241538872
 20
189.105953138543
 30
0.0
 10
180.7447165418884
 20
189.1388464412408
 30
0.0
  0
SPLINE
  5
19D
330
1F
100
AcDbEntity
  8
0
  6
Continuous
 62
     7
370
    15
100
AcDbSpline
210
0.0
220
0.0
230
1.0
 70
     8
 71
     3
 72
    10
 73
     6
 74
     0
 42
0.00000001
 43
0.00000001
 12
1.0
 22
0.0
 32
0.0
 13
1.0
 23
0.0
 33
0.0
 40
0.0
 40
0.0
 40
0.0
 40
0.0
 40
0.5
 40
0.5
 40
1.0
 40
1.0
 40
1.0
 40
1.0
 10
180.4642572264573
 20
189.5708913685609
 30
0.0
 10
180.4951358100693
 20
189.5033088240304
 30
0.0
 10
180.5311285177927
 20
189.4328839650612
 30
0.0
 10
180.6204687692897
 20
189.2879759261398
 30
0.0
 10
180.6729270721353
 20
189.2133204432307
 30
0.0
 10
180.7447165418885
 20
189.1388464412406
 30
0.0
  0
SPLINE
  5
19E
330
1F
100
AcDbEntity
  8
0
  6
Continuous
 62
     7
370
    15
100
AcDbSpline
210
0.0
220
0.0
230
1.0
 70
     8
 71
     3
 72
    18
 73
    14
 74
     0
 42
0.00000001
 43
0.00000001
 12
1.0
 22
0.0
 32
0.0
 13
1.0
 23
0.0
 33
0.0
 40
0.0
 40
0.0
 40
0.0
 40
0.0
 40
0.25
 40
0.25
 40
0.375
 40
0.375
 40
0.5
 40
0.5
 40
0.625
 40
0.625
 40
0.75
 40
0.75
 40
1.0
 40
1.0
 40
1.0
 40
1.0
 10
180.4642572264573
 20
159.6117646632371
 30
0.0
 10
180.328971620155
 20
160.0314446598828
 30
0.0
 10
180.2278038739121
 20
160.5077727772693
 30
0.0
 10
180.1249425310431
 20
161.3073054676777
 30
0.0
 10
180.0988396855198
 20
161.5889066997305
 30
0.0
 10
180.063949701975
 20
162.1787594563555
 30
0.0
 10
180.055363443685
 20
162.4827253967525
 30
0.0
 10
180.0552637341193
 20
163.1081523573389
 30
0.0
 10
180.0637521052679
 20
163.4296149794729
 30
0.0
 10
180.0978954847885
 20
164.0900579989387
 30
0.0
 10
180.1236924666423
 20
164.4304264010311
 30
0.0
 10
180.2270935980303
 20
165.4692142203977
 30
0.0
 10
180.3289515902016
 20
166.1737257213696
 30
0.0
 10
180.4642572264573
 20
166.8896051159143
 30
0.0
  0
LINE
  5
19F
330
1F
100
AcDbEntity
  8
0
  6
Continuous
 62
     7
370
    15
100
AcDbLine
 10
179.58557757
 20
158.9411848772
 30
0.0
 11
179.58557757
 21
167.8441901448
 31
0.0
  0
LINE
  5
1A0
330
1F
100
AcDbEntity
  8
0
  6
Continuous
 62
     7
370
    15
100
AcDbLine
 10
153.28557757
 20
167.8441901448
 30
0.0
 11
153.28557757
 21
188.7146619683
 31
0.0
  0
LINE
  5
1A1
330
1F
100
AcDbEntity
  8
0
  6
Continuous
 62
     7
370
    15
100
AcDbLine
 10
179.58557757
 20
167.8441901448
 30
0.0
 11
179.58557757
 21
189.2868861257
 31
0.0
  0
LINE
  5
1A2
330
1F
100
AcDbEntity
  8
0
  6
Continuous
 62
     7
370
    15
100
AcDbLine
 10
153.28557757
 20
159.5134090346
 30
0.0
 11
153.28557757
 21
167.8441901448
 31
0.0
  0
LINE
  5
1A3
330
1F
100
AcDbEntity
  8
0
  6
Continuous
 62
     7
370
    15
100
AcDbLine
 10
151.78557757
 20
160.2634090346
 30
0.0
 11
151.78557757
 21
167.8441901448
 31
0.0
  0
LINE
  5
1A4
330
1F
100
AcDbEntity
  8
0
  6
Continuous
 62
     7
370
    15
100
AcDbLine
 10
151.78557757
 20
167.8441901448
 30
0.0
 11
151.78557757
 21
187.9646619683
 31
0.0
  0
SPLINE
  5
1A5
330
1F
100
AcDbEntity
  8
0
  6
Continuous
 62
     7
370
    15
100
AcDbSpline
210
0.0
220
0.0
230
1.0
 70
     8
 71
     3
 72
     8
 73
     4
 74
     0
 42
0.00000001
 43
0.00000001
 12
1.0
 22
0.0
 32
0.0
 13
1.0
 23
0.0
 33
0.0
 40
0.0000202085968836
 40
0.0000202085968836
 40
0.0000202085968836
 40
0.0000202085968836
 40
0.0040218806502652
 40
0.0040218806502652
 40
0.0040218806502652
 40
0.0040218806502652
 10
153.285577570017
 20
156.491290290827
 30
0.0
 10
154.6189006958076
 20
156.4606653790137
 30
0.0
 10
155.9522345690302
 20
156.42997636753
 30
0.0
 10
157.285577570017
 20
156.3992232908001
 30
0.0
  0
LINE
  5
1A6
330
1F
100
AcDbEntity
  8
0
  6
Continuous
 62
     7
370
    15
100
AcDbLine
 10
153.28557757
 20
156.4912902908
 30
0.0
 11
153.28557757
 21
159.5134090346
 31
0.0
  0
LINE
  5
1A7
330
1F
100
AcDbEntity
  8
0
  6
Continuous
 62
     7
370
    15
100
AcDbLine
 10
179.58557757
 20
155.6239882647
 30
0.0
 11
179.58557757
 21
158.9411848772
 31
0.0
  0
SPLINE
  5
1A8
330
1F
100
AcDbEntity
  8
0
  6
Continuous
 62
     7
370
    15
100
AcDbSpline
210
0.0
220
0.0
230
1.0
 70
     8
 71
     3
 72
    14
 73
    10
 74
     0
 42
0.00000001
 43
0.00000001
 12
1.0
 22
0.0
 32
0.0
 13
1.0
 23
0.0
 33
0.0
 40
0.0
 40
0.0
 40
0.0
 40
0.0
 40
0.2135993514132924
 40
0.4276425866404022
 40
0.6415423297114233
 40
0.7507295435246288
 40
0.8615366196958594
 40
0.9580788398222824
 40
1.0
 40
1.0
 40
1.0
 40
1.0
 10
157.285577570017
 20
156.3992232908001
 30
0.0
 10
157.4643943804048
 20
156.3690366581645
 30
0.0
 10
157.822399602907
 20
156.3086006616279
 30
0.0
 10
158.3298736786171
 20
156.2359666861474
 30
0.0
 10
158.7146674746326
 20
156.1874845070279
 30
0.0
 10
158.9698054581223
 20
156.1583988757106
 30
0.0
 10
159.1049939436255
 20
156.1438477596988
 30
0.0
 10
159.1731839991632
 20
156.1367905399693
 30
0.0
 10
159.1657559337093
 20
156.1375597380136
 30
0.0
 10
159.1635070133015
 20
156.1377926203422
 30
0.0
  0
SPLINE
  5
1A9
330
1F
100
AcDbEntity
  8
0
  6
Continuous
 62
     7
370
    15
100
AcDbSpline
210
0.0
220
0.0
230
1.0
 70
     8
 71
     3
 72
    27
 73
    23
 74
     0
 42
0.00000001
 43
0.00000001
 12
1.0
 22
0.0
 32
0.0
 13
1.0
 23
0.0
 33
0.0
 40
0.0
 40
0.0
 40
0.0
 40
0.0
 40
0.0320810902760302
 40
0.0815988622369026
 40
0.1291461474141401
 40
0.177968802116346
 40
0.2275514337607543
 40
0.2783998682970517
 40
0.3313424135569594
 40
0.3856608624317489
 40
0.4415994253710314
 40
0.4990785125072048
 40
0.5564309975837918
 40
0.615459289015746
 40
0.6725108653379189
 40
0.7313192029656288
 40
0.7865588185553958
 40
0.8435861919728771
 40
0.8957602431773305
 40
0.9496380814985496
 40
0.9987917732476101
 40
1.0
 40
1.0
 40
1.0
 40
1.0
 10
171.2264223638912
 20
155.835096887311
 30
0.0
 10
171.2264732521051
 20
155.8350910441317
 30
0.0
 10
171.2266026872434
 20
155.8350761818943
 30
0.0
 10
171.1309390416154
 20
155.8488922057975
 30
0.0
 10
170.9555637777718
 20
155.8733434006333
 30
0.0
 10
170.7044187870276
 20
155.9065381333905
 30
0.0
 10
170.3817165430999
 20
155.9459386477205
 30
0.0
 10
169.9902539646736
 20
155.9888360993829
 30
0.0
 10
169.534985106901
 20
156.0318753339044
 30
0.0
 10
169.0228813887554
 20
156.071371911914
 30
0.0
 10
168.4660966829539
 20
156.1035251400371
 30
0.0
 10
167.8825792354378
 20
156.1249891198801
 30
0.0
 10
167.2877482559764
 20
156.1339835802071
 30
0.0
 10
166.7101263190436
 20
156.1301565343416
 30
0.0
 10
166.1611001541342
 20
156.1151359513019
 30
0.0
 10
165.6729425441565
 20
156.0924189464975
 30
0.0
 10
165.2497118594548
 20
156.065700671763
 30
0.0
 10
164.9195616150895
 20
156.040314649281
 30
0.0
 10
164.6756020925434
 20
156.0190420684297
 30
0.0
 10
164.5441295413298
 20
156.0066946089342
 30
0.0
 10
164.4907231331237
 20
156.0015370119948
 30
0.0
 10
164.5053871193851
 20
156.002940451356
 30
0.0
 10
164.5057389213224
 20
156.0029741211016
 30
0.0
  0
SPLINE
  5
1AA
330
1F
100
AcDbEntity
  8
0
  6
Continuous
 62
     7
370
    15
100
AcDbSpline
210
0.0
220
0.0
230
1.0
 70
     8
 71
     3
 72
     8
 73
     4
 74
     0
 42
0.00000001
 43
0.00000001
 12
1.0
 22
0.0
 32
0.0
 13
1.0
 23
0.0
 33
0.0
 40
0.0
 40
0.0
 40
0.0
 40
0.0
 40
1.0
 40
1.0
 40
1.0
 40
1.0
 10
151.7855775700161
 20
157.2688180655935
 30
0.0
 10
152.259788980454
 20
157.0275071916344
 30
0.0
 10
152.7645253275559
 20
156.7663204174839
 30
0.0
 10
153.285577570017
 20
156.491290290827
 30
0.0
  0
LINE
  5
1AB
330
1F
100
AcDbEntity
  8
0
  6
Continuous
 62
     7
370
    15
100
AcDbLine
 10
151.78557757
 20
157.2688180656
 30
0.0
 11
151.78557757
 21
160.2634090346
 31
0.0
  0
LINE
  5
1AC
330
1F
100
AcDbEntity
  8
0
  6
Continuous
 62
     7
370
    15
100
AcDbLine
 10
179.58557757
 20
190.6641858338
 30
0.0
 11
179.58557757
 21
189.2868861257
 31
0.0
  0
LINE
  5
1AD
330
1F
100
AcDbEntity
  8
0
  6
Continuous
 62
     7
370
    15
100
AcDbLine
 10
153.28557757
 20
190.0034382912
 30
0.0
 11
153.28557757
 21
188.7146619683
 31
0.0
  0
SPLINE
  5
1AE
330
1F
100
AcDbEntity
  8
0
  6
Continuous
 62
     7
370
    15
100
AcDbSpline
210
0.0
220
0.0
230
1.0
 70
     8
 71
     3
 72
    11
 73
     7
 74
     0
 42
0.00000001
 43
0.00000001
 12
1.0
 22
0.0
 32
0.0
 13
1.0
 23
0.0
 33
0.0
 40
0.0
 40
0.0
 40
0.0
 40
0.0
 40
0.0902262628413946
 40
0.4609960513161658
 40
0.7284424429551154
 40
1.0
 40
1.0
 40
1.0
 40
1.0
 10
180.0654253968899
 20
190.4533122446512
 30
0.0
 10
180.0623800035418
 20
190.4601207413527
 30
0.0
 10
180.0468200738281
 20
190.4949076204273
 30
0.0
 10
180.1216948185216
 20
190.327473942276
 30
0.0
 10
180.2619371636679
 20
190.0153575735911
 30
0.0
 10
180.3964751499536
 20
189.7197982139686
 30
0.0
 10
180.4642572264573
 20
189.5708913685609
 30
0.0
  0
LINE
  5
1AF
330
1F
100
AcDbEntity
  8
0
  6
Continuous
 62
     7
370
    15
100
AcDbLine
 10
151.78557757
 20
189.1374128874
 30
0.0
 11
151.78557757
 21
187.9646619683
 31
0.0
  0
SPLINE
  5
1B0
330
1F
100
AcDbEntity
  8
0
  6
HIDDEN
 62
     7
370
     0
100
AcDbSpline
210
0.0
220
0.0
230
1.0
 70
    24
 71
     3
 72
     9
 73
     5
 74
     0
 42
0.00000001
 43
0.00000001
 12
1.0
 22
0.0
 32
0.0
 13
1.0
 23
0.0
 33
0.0
 40
0.0
 40
0.0
 40
0.0
 40
0.0
 40
0.4994995120317612
 40
1.0
 40
1.0
 40
1.0
 40
1.0
 10
203.5769441140092
 20
137.0240870492374
 30
0.0
 10
203.5936668422358
 20
137.0240870492374
 30
0.0
 10
203.6271458103305
 20
137.0240870492374
 30
0.0
 10
203.8318970683153
 20
137.0240870492374
 30
0.0
 10
203.9343751728489
 20
137.0240870492374
 30
0.0
  0
SPLINE
  5
1B1
330
1F
100
AcDbEntity
  8
0
  6
HIDDEN
 62
     7
370
     0
100
AcDbSpline
210
0.0
220
0.0
230
1.0
 70
     8
 71
     3
 72
    14
 73
    10
 74
     0
 42
0.00000001
 43
0.00000001
 12
1.0
 22
0.0
 32
0.0
 13
1.0
 23
0.0
 33
0.0
 40
0.0
 40
0.0
 40
0.0
 40
0.0
 40
0.2500000000000001
 40
0.2500000000000001
 40
0.5000000000000001
 40
0.5000000000000001
 40
0.75
 40
0.75
 40
1.0
 40
1.0
 40
1.0
 40
1.0
 10
203.9343751728489
 20
146.9680350047151
 30
0.0
 10
203.7005975298436
 20
151.1364660347437
 30
0.0
 10
203.5004960651914
 20
155.3054577952193
 30
0.0
 10
203.2189308826863
 20
163.6454167124316
 30
0.0
 10
203.1397839886832
 20
167.8164224458042
 30
0.0
 10
203.1389237785291
 20
176.1610552848312
 30
0.0
 10
203.2172438933925
 20
180.3346829471339
 30
0.0
 10
203.4979117990602
 20
188.6840034138541
 30
0.0
 10
203.6977636918321
 20
192.855640830242
 30
0.0
 10
203.9312336856305
 20
197.0240870492374
 30
0.0
  0
SPLINE
  5
1B2
330
1F
100
AcDbEntity
  8
0
  6
HIDDEN
 62
     7
370
     0
100
AcDbSpline
210
0.0
220
0.0
230
1.0
 70
     8
 71
     3
 72
     8
 73
     4
 74
     0
 42
0.00000001
 43
0.00000001
 12
1.0
 22
0.0
 32
0.0
 13
1.0
 23
0.0
 33
0.0
 40
0.0000000000000001
 40
0.0000000000000001
 40
0.0000000000000001
 40
0.0000000000000001
 40
0.0014142420296365
 40
0.0014142420296365
 40
0.0014142420296365
 40
0.0014142420296365
 10
203.9222604816125
 20
198.0240870492374
 30
0.0
 10
203.9245067559914
 20
197.6907507903625
 30
0.0
 10
203.9274998024296
 20
197.3574166360028
 30
0.0
 10
203.9312336856305
 20
197.0240870492374
 30
0.0
  0
SPLINE
  5
1B3
330
1F
100
AcDbEntity
  8
0
  6
HIDDEN
 62
     7
370
     0
100
AcDbSpline
210
0.0
220
0.0
230
1.0
 70
    24
 71
     3
 72
    11
 73
     7
 74
     0
 42
0.00000001
 43
0.00000001
 12
1.0
 22
0.0
 32
0.0
 13
1.0
 23
0.0
 33
0.0
 40
0.0
 40
0.0
 40
0.0
 40
0.0
 40
0.2246767939091757
 40
0.5213338712083142
 40
0.8180929705719794
 40
1.0
 40
1.0
 40
1.0
 40
1.0
 10
203.922260481614
 20
198.0240870492374
 30
0.0
 10
203.7846930748917
 20
198.0240870492374
 30
0.0
 10
203.4654854368852
 20
198.0240870492374
 30
0.0
 10
203.0726682285294
 20
198.0240870492374
 30
0.0
 10
202.809886740975
 20
198.0240870492374
 30
0.0
 10
202.8164237529648
 20
198.0240870492374
 30
0.0
 10
202.818908007356
 20
198.0240870492374
 30
0.0
  0
LINE
  5
1B4
330
1F
100
AcDbEntity
  8
0
  6
HIDDEN
 62
     7
370
     0
100
AcDbLine
 10
225.53557757
 20
190.7740870492
 30
0.0
 11
234.03557757
 21
190.7740870492
 31
0.0
  0
LINE
  5
1B5
330
1F
100
AcDbEntity
  8
0
  6
HIDDEN
 62
     7
370
     0
100
AcDbLine
 10
224.2896135742
 20
192.0240870492
 30
0.0
 11
235.2815415658
 21
192.0240870492
 31
0.0
  0
SPLINE
  5
1B6
330
1F
100
AcDbEntity
  8
0
  6
HIDDEN
 62
     7
370
     0
100
AcDbSpline
210
0.0
220
0.0
230
1.0
 70
     8
 71
     3
 72
    17
 73
    13
 74
     0
 42
0.00000001
 43
0.00000001
 12
1.0
 22
0.0
 32
0.0
 13
1.0
 23
0.0
 33
0.0
 40
0.0
 40
0.0
 40
0.0
 40
0.0
 40
0.1071373279366307
 40
0.2142664101574961
 40
0.3216097375823354
 40
0.4290956010880257
 40
0.5363476705217768
 40
0.6433543613523717
 40
0.7504869858601572
 40
0.8579199544451711
 40
0.9653598746021252
 40
1.0
 40
1.0
 40
1.0
 40
1.0
 10
191.785577570017
 20
147.0240870492374
 30
0.0
 10
191.8076182793657
 20
147.0259003043205
 30
0.0
 10
191.8516980017223
 20
147.0295266749311
 30
0.0
 10
192.1952257795221
 20
147.054752809424
 30
0.0
 10
192.7017133769291
 20
147.0828711820935
 30
0.0
 10
193.3351533843206
 20
147.1031690475762
 30
0.0
 10
194.0181116704504
 20
147.1062209009587
 30
0.0
 10
194.6730975424656
 20
147.0909786325664
 30
0.0
 10
195.2326301161342
 20
147.0637143335252
 30
0.0
 10
195.6144592212956
 20
147.037784682073
 30
0.0
 10
195.7962918203287
 20
147.0232413738807
 30
0.0
 10
195.7677926087176
 20
147.0254966694415
 30
0.0
 10
195.7608442982769
 20
147.0260465265359
 30
0.0
  0
SPLINE
  5
1B7
330
1F
100
AcDbEntity
  8
0
  6
HIDDEN
 62
     7
370
     0
100
AcDbSpline
210
0.0
220
0.0
230
1.0
 70
     8
 71
     3
 72
    12
 73
     8
 74
     0
 42
0.00000001
 43
0.00000001
 12
1.0
 22
0.0
 32
0.0
 13
1.0
 23
0.0
 33
0.0
 40
0.0
 40
0.0
 40
0.0
 40
0.0
 40
0.2500000000000026
 40
0.2500000000000026
 40
0.5000000000000051
 40
0.5000000000000051
 40
1.0
 40
1.0
 40
1.0
 40
1.0
 10
190.3133343835834
 20
164.4552770800569
 30
0.0
 10
190.2496691470529
 20
164.4552770800569
 30
0.0
 10
190.1900629148296
 20
164.4292049315773
 30
0.0
 10
190.0914023898987
 20
164.3536661807561
 30
0.0
 10
190.0524353998834
 20
164.3064152436599
 30
0.0
 10
189.953048567959
 20
164.1545914256935
 30
0.0
 10
189.9109723205356
 20
164.0417881759284
 30
0.0
 10
189.8803216816912
 20
163.9276340511933
 30
0.0
  0
LINE
  5
1B8
330
1F
100
AcDbEntity
  8
0
  6
HIDDEN
 62
     7
370
     0
100
AcDbLine
 10
193.2578207565
 20
164.4552770801
 30
0.0
 11
190.3133343836
 21
164.4552770801
 31
0.0
  0
SPLINE
  5
1B9
330
1F
100
AcDbEntity
  8
0
  6
HIDDEN
 62
     7
370
     0
100
AcDbSpline
210
0.0
220
0.0
230
1.0
 70
     8
 71
     3
 72
    12
 73
     8
 74
     0
 42
0.00000001
 43
0.00000001
 12
1.0
 22
0.0
 32
0.0
 13
1.0
 23
0.0
 33
0.0
 40
0.0
 40
0.0
 40
0.0
 40
0.0
 40
0.5
 40
0.5
 40
0.75
 40
0.75
 40
1.0
 40
1.0
 40
1.0
 40
1.0
 10
193.6908334583428
 20
163.9276340511933
 30
0.0
 10
193.6601340749754
 20
164.0419697182571
 30
0.0
 10
193.6187840068689
 20
164.1533230710985
 30
0.0
 10
193.5190280786495
 20
164.3060598433473
 30
0.0
 10
193.4793311609168
 20
164.3539197291994
 30
0.0
 10
193.3820730092692
 20
164.4285228425489
 30
0.0
 10
193.3212968512785
 20
164.4552770800569
 30
0.0
 10
193.2578207564505
 20
164.4552770800569
 30
0.0
  0
ELLIPSE
  5
1BA
330
1F
100
AcDbEntity
  8
0
  6
HIDDEN
 62
     7
370
     0
100
AcDbEllipse
 10
180.729319915
 20
172.0240870492
 30
0.0
 11
-11.70927234972715
 21
24.67718644093742
 31
0.0
210
0.0
220
0.0
230
1.0
 40
0.3419987131
 41
3.310521928178958
 42
4.221709151398951
  0
SPLINE
  5
1BB
330
1F
100
AcDbEntity
  8
0
  6
HIDDEN
 62
     7
370
     0
100
AcDbSpline
210
0.0
220
0.0
230
1.0
 70
     8
 71
     3
 72
    12
 73
     8
 74
     0
 42
0.00000001
 43
0.00000001
 12
1.0
 22
0.0
 32
0.0
 13
1.0
 23
0.0
 33
0.0
 40
0.0
 40
0.0
 40
0.0
 40
0.0
 40
0.2500000000000002
 40
0.2500000000000002
 40
0.5000000000000004
 40
0.5000000000000004
 40
1.0
 40
1.0
 40
1.0
 40
1.0
 10
193.2578207564505
 20
148.1973559337355
 30
0.0
 10
193.3214859929811
 20
148.1973559337355
 30
0.0
 10
193.3810922252044
 20
148.2056207094014
 30
0.0
 10
193.4797527501352
 20
148.2298394909845
 30
0.0
 10
193.5187197401505
 20
148.2450968102937
 30
0.0
 10
193.618106572075
 20
148.2947301645556
 30
0.0
 10
193.6601828194984
 20
148.3323698727297
 30
0.0
 10
193.6908334583428
 20
148.3714455720059
 30
0.0
  0
LINE
  5
1BC
330
1F
100
AcDbEntity
  8
0
  6
HIDDEN
 62
     7
370
     0
100
AcDbLine
 10
190.3133343836
 20
148.1973559337
 30
0.0
 11
193.2578207565
 21
148.1973559337
 31
0.0
  0
SPLINE
  5
1BD
330
1F
100
AcDbEntity
  8
0
  6
HIDDEN
 62
     7
370
     0
100
AcDbSpline
210
0.0
220
0.0
230
1.0
 70
     8
 71
     3
 72
    12
 73
     8
 74
     0
 42
0.00000001
 43
0.00000001
 12
1.0
 22
0.0
 32
0.0
 13
1.0
 23
0.0
 33
0.0
 40
0.0
 40
0.0
 40
0.0
 40
0.0
 40
0.5
 40
0.5
 40
0.75
 40
0.75
 40
1.0
 40
1.0
 40
1.0
 40
1.0
 10
189.8803216816912
 20
148.3714455720059
 30
0.0
 10
189.9110210650585
 20
148.33230772961
 30
0.0
 10
189.952371133165
 20
148.2951479468845
 30
0.0
 10
190.0521270613845
 20
148.2452114412567
 30
0.0
 10
190.0918239791172
 20
148.2297585711129
 30
0.0
 10
190.1890821307648
 20
148.2058390275139
 30
0.0
 10
190.2498582887555
 20
148.1973559337355
 30
0.0
 10
190.3133343835834
 20
148.1973559337355
 30
0.0
  0
ELLIPSE
  5
1BE
330
1F
100
AcDbEntity
  8
0
  6
HIDDEN
 62
     7
370
     0
100
AcDbEllipse
 10
202.841835225
 20
172.0240870492
 30
0.0
 11
11.70927234972697
 21
24.67718644093745
 31
0.0
210
0.0
220
0.0
230
1.0
 40
0.3419987131
 41
2.061476155780645
 42
2.972663379000659
  0
SPLINE
  5
1BF
330
1F
100
AcDbEntity
  8
0
  6
HIDDEN
 62
     7
370
     0
100
AcDbSpline
210
0.0
220
0.0
230
1.0
 70
     8
 71
     3
 72
    12
 73
     8
 74
     0
 42
0.00000001
 43
0.00000001
 12
1.0
 22
0.0
 32
0.0
 13
1.0
 23
0.0
 33
0.0
 40
0.0
 40
0.0
 40
0.0
 40
0.0
 40
0.2500000000000009
 40
0.2500000000000009
 40
0.5000000000000019
 40
0.5000000000000019
 40
1.0
 40
1.0
 40
1.0
 40
1.0
 10
190.3133343835834
 20
195.8508181647395
 30
0.0
 10
190.2496691470529
 20
195.8508181647395
 30
0.0
 10
190.1900629148295
 20
195.8425533890737
 30
0.0
 10
190.0914023898987
 20
195.8183346074905
 30
0.0
 10
190.0524353998834
 20
195.8030772881814
 30
0.0
 10
189.953048567959
 20
195.7534439339194
 30
0.0
 10
189.9109723205355
 20
195.7158042257453
 30
0.0
 10
189.8803216816912
 20
195.6767285264692
 30
0.0
  0
LINE
  5
1C0
330
1F
100
AcDbEntity
  8
0
  6
HIDDEN
 62
     7
370
     0
100
AcDbLine
 10
193.2578207565
 20
195.8508181647
 30
0.0
 11
190.3133343836
 21
195.8508181647
 31
0.0
  0
SPLINE
  5
1C1
330
1F
100
AcDbEntity
  8
0
  6
HIDDEN
 62
     7
370
     0
100
AcDbSpline
210
0.0
220
0.0
230
1.0
 70
     8
 71
     3
 72
    12
 73
     8
 74
     0
 42
0.00000001
 43
0.00000001
 12
1.0
 22
0.0
 32
0.0
 13
1.0
 23
0.0
 33
0.0
 40
0.0
 40
0.0
 40
0.0
 40
0.0
 40
0.4999999999999953
 40
0.4999999999999953
 40
0.7499999999999977
 40
0.7499999999999977
 40
1.0
 40
1.0
 40
1.0
 40
1.0
 10
193.6908334583428
 20
195.6767285264692
 30
0.0
 10
193.6601340749754
 20
195.7158663688651
 30
0.0
 10
193.6187840068689
 20
195.7530261515906
 30
0.0
 10
193.5190280786495
 20
195.8029626572183
 30
0.0
 10
193.4793311609168
 20
195.8184155273621
 30
0.0
 10
193.3820730092692
 20
195.8423350709611
 30
0.0
 10
193.3212968512785
 20
195.8508181647395
 30
0.0
 10
193.2578207564505
 20
195.8508181647395
 30
0.0
  0
ELLIPSE
  5
1C2
330
1F
100
AcDbEntity
  8
0
  6
HIDDEN
 62
     7
370
     0
100
AcDbEllipse
 10
180.729319915
 20
172.0240870492
 30
0.0
 11
11.70927234972726
 21
24.67718644093745
 31
0.0
210
0.0
220
0.0
230
1.0
 40
0.3419987131
 41
5.203068809370473
 42
6.114256032590515
  0
SPLINE
  5
1C3
330
1F
100
AcDbEntity
  8
0
  6
HIDDEN
 62
     7
370
     0
100
AcDbSpline
210
0.0
220
0.0
230
1.0
 70
     8
 71
     3
 72
    12
 73
     8
 74
     0
 42
0.00000001
 43
0.00000001
 12
1.0
 22
0.0
 32
0.0
 13
1.0
 23
0.0
 33
0.0
 40
0.0
 40
0.0
 40
0.0
 40
0.0
 40
0.25
 40
0.25
 40
0.5
 40
0.5
 40
1.0
 40
1.0
 40
1.0
 40
1.0
 10
193.2578207564505
 20
179.5928970184184
 30
0.0
 10
193.3214859929811
 20
179.5928970184184
 30
0.0
 10
193.3810922252044
 20
179.6189691668982
 30
0.0
 10
193.4797527501352
 20
179.6945079177192
 30
0.0
 10
193.5187197401505
 20
179.7417588548155
 30
0.0
 10
193.618106572075
 20
179.8935826727819
 30
0.0
 10
193.6601828194984
 20
180.006385922547
 30
0.0
 10
193.6908334583427
 20
180.1205400472821
 30
0.0
  0
LINE
  5
1C4
330
1F
100
AcDbEntity
  8
0
  6
HIDDEN
 62
     7
370
     0
100
AcDbLine
 10
190.3133343836
 20
179.5928970184
 30
0.0
 11
193.2578207565
 21
179.5928970184
 31
0.0
  0
SPLINE
  5
1C5
330
1F
100
AcDbEntity
  8
0
  6
HIDDEN
 62
     7
370
     0
100
AcDbSpline
210
0.0
220
0.0
230
1.0
 70
     8
 71
     3
 72
    12
 73
     8
 74
     0
 42
0.00000001
 43
0.00000001
 12
1.0
 22
0.0
 32
0.0
 13
1.0
 23
0.0
 33
0.0
 40
0.0
 40
0.0
 40
0.0
 40
0.0
 40
0.5000000000000032
 40
0.5000000000000032
 40
0.7500000000000016
 40
0.7500000000000016
 40
1.0
 40
1.0
 40
1.0
 40
1.0
 10
189.8803216816912
 20
180.1205400472821
 30
0.0
 10
189.9110210650585
 20
180.0062043802182
 30
0.0
 10
189.952371133165
 20
179.8948510273769
 30
0.0
 10
190.0521270613845
 20
179.7421142551281
 30
0.0
 10
190.0918239791172
 20
179.694254369276
 30
0.0
 10
190.1890821307648
 20
179.6196512559265
 30
0.0
 10
190.2498582887555
 20
179.5928970184184
 30
0.0
 10
190.3133343835834
 20
179.5928970184184
 30
0.0
  0
ELLIPSE
  5
1C6
330
1F
100
AcDbEntity
  8
0
  6
HIDDEN
 62
     7
370
     0
100
AcDbEllipse
 10
202.841835225
 20
172.0240870492
 30
0.0
 11
-11.70927234972717
 21
24.67718644093745
 31
0.0
210
0.0
220
0.0
230
1.0
 40
0.3419987131
 41
0.1689292745891128
 42
1.080116497809128
  0
LINE
  5
1C7
330
1F
100
AcDbEntity
  8
0
  6
HIDDEN
 62
     7
370
     0
100
AcDbLine
 10
181.78557757
 20
196.7240870492
 30
0.0
 11
181.78557757
 21
147.3240870492
 31
0.0
  0
LINE
  5
1C8
330
1F
100
AcDbEntity
  8
0
  6
HIDDEN
 62
     7
370
     0
100
AcDbLine
 10
225.53557757
 20
173.0240870492
 30
0.0
 11
234.03557757
 21
173.0240870492
 31
0.0
  0
SPLINE
  5
1C9
330
1F
100
AcDbEntity
  8
0
  6
HIDDEN
 62
     7
370
     0
100
AcDbSpline
210
0.0
220
0.0
230
1.0
 70
     8
 71
     3
 72
    60
 73
    56
 74
     0
 42
0.00000001
 43
0.00000001
 12
1.0
 22
0.0
 32
0.0
 13
1.0
 23
0.0
 33
0.0
 40
-0.0625000000000006
 40
-0.0625000000000006
 40
0.0
 40
0.0
 40
0.0312500000000001
 40
0.0312500000000001
 40
0.0625000000000003
 40
0.0625000000000003
 40
0.0937500000000004
 40
0.0937500000000004
 40
0.1250000000000006
 40
0.1250000000000006
 40
0.1562500000000007
 40
0.1562500000000007
 40
0.1875000000000009
 40
0.1875000000000009
 40
0.2187500000000011
 40
0.2187500000000011
 40
0.2500000000000012
 40
0.2500000000000012
 40
0.3125000000000011
 40
0.3125000000000011
 40
0.343750000000001
 40
0.343750000000001
 40
0.3750000000000009
 40
0.3750000000000009
 40
0.4062500000000008
 40
0.4062500000000008
 40
0.4375000000000008
 40
0.4375000000000008
 40
0.5000000000000006
 40
0.5000000000000006
 40
0.5312500000000006
 40
0.5312500000000006
 40
0.5625000000000004
 40
0.5625000000000004
 40
0.6250000000000003
 40
0.6250000000000003
 40
0.6562500000000002
 40
0.6562500000000002
 40
0.6875000000000001
 40
0.6875000000000001
 40
0.75
 40
0.75
 40
0.7812499999999999
 40
0.7812499999999999
 40
0.8124999999999998
 40
0.8124999999999998
 40
0.8437499999999998
 40
0.8437499999999998
 40
0.8749999999999997
 40
0.8749999999999997
 40
0.9062499999999996
 40
0.9062499999999996
 40
0.9374999999999994
 40
0.9374999999999994
 40
1.0
 40
1.0
 40
1.03125
 40
1.03125
 10
210.6080271477537
 20
171.8369875351307
 30
0.0
 10
210.9257320165485
 20
172.1176368062908
 30
0.0
 10
211.0221050280668
 20
172.2189351163531
 30
0.0
 10
211.1963843209811
 20
172.4363162793001
 30
0.0
 10
211.2749944171497
 20
172.5537560775987
 30
0.0
 10
211.4080211521141
 20
172.7980287774512
 30
0.0
 10
211.4621577202417
 20
172.9237288493157
 30
0.0
 10
211.5445994922482
 20
173.182108910451
 30
0.0
 10
211.5728462654372
 20
173.3165679612803
 30
0.0
 10
211.5984187347296
 20
173.5787849420041
 30
0.0
 10
211.5964778983639
 20
173.7076841844542
 30
0.0
 10
211.5624279418581
 20
173.9609872449817
 30
0.0
 10
211.5304585391023
 20
174.0824720385754
 30
0.0
 10
211.4402493853548
 20
174.3102339817062
 30
0.0
 10
211.3810477929939
 20
174.418420044328
 30
0.0
 10
211.2413633518616
 20
174.6154311410324
 30
0.0
 10
211.1608186510761
 20
174.7051263370587
 30
0.0
 10
210.8878489507054
 20
174.9511950774882
 30
0.0
 10
210.6709864572765
 20
175.078780704382
 30
0.0
 10
210.3050557062864
 20
175.2198198242768
 30
0.0
 10
210.1783817036343
 20
175.257568162412
 30
0.0
 10
209.9149548285753
 20
175.3156827922682
 30
0.0
 10
209.7762065310082
 20
175.3361565618431
 30
0.0
 10
209.4977323895188
 20
175.3572726675186
 30
0.0
 10
209.3586132491484
 20
175.3581920224999
 30
0.0
 10
209.0806185735702
 20
175.3401900707868
 30
0.0
 10
208.9407767189892
 20
175.3207862882117
 30
0.0
 10
208.5437046478569
 20
175.2333038791491
 30
0.0
 10
208.2988471188191
 20
175.134180869333
 30
0.0
 10
207.9896358260011
 20
174.9301830245211
 30
0.0
 10
207.8945867956591
 20
174.8518783445051
 30
0.0
 10
207.7279031595423
 20
174.6799876946549
 30
0.0
 10
207.6552158551553
 20
174.5859032672632
 30
0.0
 10
207.4691704636998
 20
174.2758397370285
 30
0.0
 10
207.3931076588195
 20
174.0400176782486
 30
0.0
 10
207.3582739188745
 20
173.6558435735659
 30
0.0
 10
207.3601086911615
 20
173.5259136097469
 30
0.0
 10
207.389974043033
 20
173.2624369579702
 30
0.0
 10
207.4185994079389
 20
173.1277036133885
 30
0.0
 10
207.5408949161695
 20
172.7361771225525
 30
0.0
 10
207.6734328918412
 20
172.4828090959217
 30
0.0
 10
207.9315300238707
 20
172.152410206782
 30
0.0
 10
208.0289126588509
 20
172.0486505156449
 30
0.0
 10
208.2402485732886
 20
171.8633400703852
 30
0.0
 10
208.3535335807168
 20
171.7819257051836
 30
0.0
 10
208.5965239181921
 20
171.6431241054976
 30
0.0
 10
208.7275571523547
 20
171.585681024683
 30
0.0
 10
208.9942986919335
 20
171.5029918564867
 30
0.0
 10
209.1313194234235
 20
171.47671874685
 30
0.0
 10
209.4130649032245
 20
171.4557808642526
 30
0.0
 10
209.5544263911972
 20
171.4616200826866
 30
0.0
 10
209.8313581172367
 20
171.5032311495524
 30
0.0
 10
209.9693675212723
 20
171.5395573864081
 30
0.0
 10
210.3641597192334
 20
171.6868211910851
 30
0.0
 10
210.6080271477537
 20
171.8369875351307
 30
0.0
 10
210.9257320165485
 20
172.1176368062908
 30
0.0
  0
ELLIPSE
  5
1CA
330
1F
100
AcDbEntity
  8
0
  6
HIDDEN
 62
     7
370
     0
100
AcDbEllipse
 10
211.869701667
 20
180.9126640176
 30
0.0
 11
0.7107426670596623
 21
2.168423190543422
 31
0.0
210
0.0
220
0.0
230
1.0
 40
0.9202727667
 41
0.0
 42
4.327456577097828
  0
ELLIPSE
  5
1CB
330
1F
100
AcDbEntity
  8
0
  6
HIDDEN
 62
     7
370
     0
100
AcDbEllipse
 10
211.869701667
 20
180.9126640176
 30
0.0
 11
0.7107426670596623
 21
2.168423190543422
 31
0.0
210
0.0
220
0.0
230
1.0
 40
0.9202727667
 41
6.098324663072425
 42
6.283185307179586
  0
CIRCLE
  5
1CC
330
1F
100
AcDbEntity
  8
0
  6
HIDDEN
 62
     7
370
     0
100
AcDbCircle
 10
212.78557757
 20
181.0240870492
 30
0.0
 40
6.000000000000028
  0
LINE
  5
1CD
330
1F
100
AcDbEntity
  8
0
  6
HIDDEN
 62
     7
370
     0
100
AcDbLine
 10
181.78557757
 20
152.489942135
 30
0.0
 11
181.78557757
 21
191.5582319635
 31
0.0
  0
SPLINE
  5
1CE
330
1F
100
AcDbEntity
  8
0
  6
HIDDEN
 62
     7
370
     0
100
AcDbSpline
210
0.0
220
0.0
230
1.0
 70
     8
 71
     3
 72
    14
 73
    10
 74
     0
 42
0.00000001
 43
0.00000001
 12
1.0
 22
0.0
 32
0.0
 13
1.0
 23
0.0
 33
0.0
 40
0.0
 40
0.0
 40
0.0
 40
0.0
 40
0.25
 40
0.25
 40
0.5
 40
0.5
 40
0.75
 40
0.75
 40
1.0
 40
1.0
 40
1.0
 40
1.0
 10
180.7447165418886
 20
159.0892245617115
 30
0.0
 10
180.7764316762193
 20
159.0549433667173
 30
0.0
 10
180.8110462015197
 20
159.0216910983495
 30
0.0
 10
180.890717396935
 20
158.9584006412447
 30
0.0
 10
180.9357732739654
 20
158.9279667324757
 30
0.0
 10
181.0463276864708
 20
158.8767240350254
 30
0.0
 10
181.113713100675
 20
158.8559665345753
 30
0.0
 10
181.264342620573
 20
158.8504807566315
 30
0.0
 10
181.3341698573385
 20
158.8668917572369
 30
0.0
 10
181.3906006811419
 20
158.8896791864486
 30
0.0
  0
SPLINE
  5
1CF
330
1F
100
AcDbEntity
  8
0
  6
HIDDEN
 62
     7
370
     0
100
AcDbSpline
210
0.0
220
0.0
230
1.0
 70
     8
 71
     3
 72
    16
 73
    12
 74
     0
 42
0.00000001
 43
0.00000001
 12
1.0
 22
0.0
 32
0.0
 13
1.0
 23
0.0
 33
0.0
 40
0.0
 40
0.0
 40
0.0
 40
0.0
 40
0.0624999999999998
 40
0.0624999999999998
 40
0.1249999999999997
 40
0.1249999999999997
 40
0.2499999999999993
 40
0.2499999999999993
 40
0.4999999999999996
 40
0.4999999999999996
 40
1.0
 40
1.0
 40
1.0
 40
1.0
 10
181.3906006811101
 20
158.8896791864925
 30
0.0
 10
181.402334915557
 20
158.8944176081397
 30
0.0
 10
181.4158666710359
 20
158.8973798852864
 30
0.0
 10
181.4458541314658
 20
158.8940007076647
 30
0.0
 10
181.4608488378741
 20
158.8871208999292
 30
0.0
 10
181.4965892602688
 20
158.8601772403766
 30
0.0
 10
181.5106025972701
 20
158.8371027739223
 30
0.0
 10
181.5447466860514
 20
158.770415051648
 30
0.0
 10
181.5557185901698
 20
158.7269115755653
 30
0.0
 10
181.5815641304361
 20
158.5981963526168
 30
0.0
 10
181.585577570017
 20
158.5168061719857
 30
0.0
 10
181.585577570017
 20
158.4383223618418
 30
0.0
  0
LINE
  5
1D0
330
1F
100
AcDbEntity
  8
0
  6
HIDDEN
 62
     7
370
     0
100
AcDbLine
 10
181.58557757
 20
154.1842667704
 30
0.0
 11
181.58557757
 21
158.4383223618
 31
0.0
  0
SPLINE
  5
1D1
330
1F
100
AcDbEntity
  8
0
  6
HIDDEN
 62
     7
370
     0
100
AcDbSpline
210
0.0
220
0.0
230
1.0
 70
     8
 71
     3
 72
    10
 73
     6
 74
     0
 42
0.00000001
 43
0.00000001
 12
1.0
 22
0.0
 32
0.0
 13
1.0
 23
0.0
 33
0.0
 40
0.0
 40
0.0
 40
0.0
 40
0.0
 40
0.5
 40
0.5
 40
1.0
 40
1.0
 40
1.0
 40
1.0
 10
180.7447165418878
 20
189.1388464412414
 30
0.0
 10
180.6729270721349
 20
189.2133204432313
 30
0.0
 10
180.6204687692894
 20
189.2879759261403
 30
0.0
 10
180.5311285177926
 20
189.4328839650615
 30
0.0
 10
180.4951358100693
 20
189.5033088240305
 30
0.0
 10
180.4642572264573
 20
189.5708913685609
 30
0.0
  0
SPLINE
  5
1D2
330
1F
100
AcDbEntity
  8
0
  6
HIDDEN
 62
     7
370
     0
100
AcDbSpline
210
0.0
220
0.0
230
1.0
 70
     8
 71
     3
 72
    14
 73
    10
 74
     0
 42
0.00000001
 43
0.00000001
 12
1.0
 22
0.0
 32
0.0
 13
1.0
 23
0.0
 33
0.0
 40
0.0
 40
0.0
 40
0.0
 40
0.0
 40
0.25
 40
0.25
 40
0.5
 40
0.5
 40
0.75
 40
0.75
 40
1.0
 40
1.0
 40
1.0
 40
1.0
 10
180.7447165418871
 20
189.138846441242
 30
0.0
 10
180.7764252413725
 20
189.1059520103917
 30
0.0
 10
180.8110330600131
 20
189.0737287007341
 30
0.0
 10
180.8906914705024
 20
189.0121961909917
 30
0.0
 10
180.9357537403973
 20
188.9824467451282
 30
0.0
 10
181.0463355859757
 20
188.9334042516375
 30
0.0
 10
181.113979706791
 20
188.9142536401985
 30
0.0
 10
181.2642279971881
 20
188.9151993476339
 30
0.0
 10
181.3341803954184
 20
188.9358873648167
 30
0.0
 10
181.390600681142
 20
188.962431576303
 30
0.0
  0
SPLINE
  5
1D3
330
1F
100
AcDbEntity
  8
0
  6
HIDDEN
 62
     7
370
     0
100
AcDbSpline
210
0.0
220
0.0
230
1.0
 70
     8
 71
     3
 72
    16
 73
    12
 74
     0
 42
0.00000001
 43
0.00000001
 12
1.0
 22
0.0
 32
0.0
 13
1.0
 23
0.0
 33
0.0
 40
0.0
 40
0.0
 40
0.0
 40
0.0
 40
0.062499999999998
 40
0.062499999999998
 40
0.124999999999996
 40
0.124999999999996
 40
0.2499999999999942
 40
0.2499999999999942
 40
0.4999999999999938
 40
0.4999999999999938
 40
1.0
 40
1.0
 40
1.0
 40
1.0
 10
181.3906006811101
 20
188.9624315763076
 30
0.0
 10
181.402334915557
 20
188.9679522147958
 30
0.0
 10
181.415866671036
 20
188.9734662716673
 30
0.0
 10
181.4458541314658
 20
188.9822978348714
 30
0.0
 10
181.4608488378741
 20
188.984934658151
 30
0.0
 10
181.4965892602688
 20
188.9873503576948
 30
0.0
 10
181.5106025972701
 20
188.9836034147016
 30
0.0
 10
181.5447466860514
 20
188.9696164587004
 30
0.0
 10
181.5557185901698
 20
188.9555150328413
 30
0.0
 10
181.5815641304361
 20
188.9085972621259
 30
0.0
 10
181.585577570017
 20
188.870814786504
 30
0.0
 10
181.585577570017
 20
188.8301926043178
 30
0.0
  0
LINE
  5
1D4
330
1F
100
AcDbEntity
  8
0
  6
HIDDEN
 62
     7
370
     0
100
AcDbLine
 10
181.58557757
 20
168.8037461816
 30
0.0
 11
181.58557757
 21
188.8301926043
 31
0.0
  0
SPLINE
  5
1D5
330
1F
100
AcDbEntity
  8
0
  6
HIDDEN
 62
     7
370
     0
100
AcDbSpline
210
0.0
220
0.0
230
1.0
 70
     8
 71
     3
 72
    16
 73
    12
 74
     0
 42
0.00000001
 43
0.00000001
 12
1.0
 22
0.0
 32
0.0
 13
1.0
 23
0.0
 33
0.0
 40
0.0
 40
0.0
 40
0.0
 40
0.0
 40
0.4999999999999986
 40
0.4999999999999986
 40
0.7499999999999996
 40
0.7499999999999996
 40
0.8749999999999993
 40
0.8749999999999993
 40
0.9374999999999998
 40
0.9374999999999998
 40
1.0
 40
1.0
 40
1.0
 40
1.0
 10
181.5855775700171
 20
168.8037461815531
 30
0.0
 10
181.5855775700168
 20
168.6837924029776
 30
0.0
 10
181.5814530271629
 20
168.5640610813237
 30
0.0
 10
181.5555365815298
 20
168.3889279351107
 30
0.0
 10
181.54425900051
 20
168.3308362239718
 30
0.0
 10
181.5105236219686
 20
168.2514906606316
 30
0.0
 10
181.4961348067242
 20
168.2243503466557
 30
0.0
 10
181.4608881172852
 20
168.2002684925381
 30
0.0
 10
181.4456826928282
 20
168.195993507093
 30
0.0
 10
181.4160361136589
 20
168.2013844517795
 30
0.0
 10
181.4023307776614
 20
168.2098949425485
 30
0.0
 10
181.3906006811377
 20
168.2201503849559
 30
0.0
  0
SPLINE
  5
1D6
330
1F
100
AcDbEntity
  8
0
  6
HIDDEN
 62
     7
370
     0
100
AcDbSpline
210
0.0
220
0.0
230
1.0
 70
     8
 71
     3
 72
    14
 73
    10
 74
     0
 42
0.00000001
 43
0.00000001
 12
1.0
 22
0.0
 32
0.0
 13
1.0
 23
0.0
 33
0.0
 40
0.0
 40
0.0
 40
0.0
 40
0.0
 40
0.25
 40
0.25
 40
0.5
 40
0.5
 40
0.75
 40
0.75
 40
1.0
 40
1.0
 40
1.0
 40
1.0
 10
181.3906006811482
 20
168.2201503849706
 30
0.0
 10
181.3341535990899
 20
168.2695011978919
 30
0.0
 10
181.2633032150471
 20
168.3065431697806
 30
0.0
 10
181.1148667802307
 20
168.302083237961
 30
0.0
 10
181.0456775285438
 20
168.2615957043314
 30
0.0
 10
180.9359659803029
 20
168.1619748460208
 30
0.0
 10
180.8907243309605
 20
168.1016896880975
 30
0.0
 10
180.8110763127766
 20
167.9769041942727
 30
0.0
 10
180.7764493970106
 20
167.9114099841062
 30
0.0
 10
180.7447165418892
 20
167.8441901447639
 30
0.0
  0
SPLINE
  5
1D7
330
1F
100
AcDbEntity
  8
0
  6
HIDDEN
 62
     7
370
     0
100
AcDbSpline
210
0.0
220
0.0
230
1.0
 70
     8
 71
     3
 72
    10
 73
     6
 74
     0
 42
0.00000001
 43
0.00000001
 12
1.0
 22
0.0
 32
0.0
 13
1.0
 23
0.0
 33
0.0
 40
0.0
 40
0.0
 40
0.0
 40
0.0
 40
0.5
 40
0.5
 40
1.0
 40
1.0
 40
1.0
 40
1.0
 10
180.7447165418894
 20
167.844190144762
 30
0.0
 10
180.6729075664968
 20
167.6920768927156
 30
0.0
 10
180.6204517070741
 20
167.5344432511459
 30
0.0
 10
180.5311171211827
 20
167.2150116106413
 30
0.0
 10
180.4951302582697
 20
167.0529491415822
 30
0.0
 10
180.4642572264573
 20
166.8896051159143
 30
0.0
  0
SPLINE
  5
1D8
330
1F
100
AcDbEntity
  8
0
  6
HIDDEN
 62
     7
370
     0
100
AcDbSpline
210
0.0
220
0.0
230
1.0
 70
     8
 71
     3
 72
    10
 73
     6
 74
     0
 42
0.00000001
 43
0.00000001
 12
1.0
 22
0.0
 32
0.0
 13
1.0
 23
0.0
 33
0.0
 40
0.0
 40
0.0
 40
0.0
 40
0.0
 40
0.5
 40
0.5
 40
1.0
 40
1.0
 40
1.0
 40
1.0
 10
180.4642572264573
 20
159.6117646632371
 30
0.0
 10
180.4951385660555
 20
159.5159652589013
 30
0.0
 10
180.5311341755553
 20
159.4243041172503
 30
0.0
 10
180.6204772396567
 20
159.2497740685401
 30
0.0
 10
180.6729367539649
 20
159.1668120277079
 30
0.0
 10
180.7447165418886
 20
159.0892245617115
 30
0.0
  0
LINE
  5
1D9
330
1F
100
AcDbEntity
  8
0
  6
HIDDEN
 62
     7
370
     0
100
AcDbLine
 10
181.58557757
 20
168.8037461816
 30
0.0
 11
181.58557757
 21
188.8301926043
 31
0.0
  0
LINE
  5
1DA
330
1F
100
AcDbEntity
  8
0
  6
HIDDEN
 62
     7
370
     0
100
AcDbLine
 10
179.58557757
 20
158.9411848772
 30
0.0
 11
179.58557757
 21
155.6239882647
 31
0.0
  0
LINE
  5
1DB
330
1F
100
AcDbEntity
  8
0
  6
HIDDEN
 62
     7
370
     0
100
AcDbLine
 10
153.28557757
 20
159.5134090346
 30
0.0
 11
153.28557757
 21
156.4912902908
 31
0.0
  0
SPLINE
  5
1DC
330
1F
100
AcDbEntity
  8
0
  6
HIDDEN
 62
     7
370
     0
100
AcDbSpline
210
0.0
220
0.0
230
1.0
 70
     8
 71
     3
 72
     8
 73
     4
 74
     0
 42
0.00000001
 43
0.00000001
 12
1.0
 22
0.0
 32
0.0
 13
1.0
 23
0.0
 33
0.0
 40
0.0000202082942178
 40
0.0000202082942178
 40
0.0000202082942178
 40
0.0000202082942178
 40
0.0040218803475995
 40
0.0040218803475995
 40
0.0040218803475995
 40
0.0040218803475995
 10
157.285577570017
 20
156.3992232908001
 30
0.0
 10
155.9522345690302
 20
156.42997636753
 30
0.0
 10
154.6189006958076
 20
156.4606653790137
 30
0.0
 10
153.285577570017
 20
156.491290290827
 30
0.0
  0
SPLINE
  5
1DD
330
1F
100
AcDbEntity
  8
0
  6
HIDDEN
 62
     7
370
     0
100
AcDbSpline
210
0.0
220
0.0
230
1.0
 70
     8
 71
     3
 72
    14
 73
    10
 74
     0
 42
0.00000001
 43
0.00000001
 12
1.0
 22
0.0
 32
0.0
 13
1.0
 23
0.0
 33
0.0
 40
0.0
 40
0.0
 40
0.0
 40
0.0
 40
0.0581152347112793
 40
0.1546846201114077
 40
0.2537782824752681
 40
0.3909362575850993
 40
0.5296807414982136
 40
0.8121000209871696
 40
0.9999999999999999
 40
0.9999999999999999
 40
0.9999999999999999
 40
0.9999999999999999
 10
159.1635070133015
 20
156.1377926203422
 30
0.0
 10
159.1646374672521
 20
156.1376747193774
 30
0.0
 10
159.1676463829138
 20
156.1373609037998
 30
0.0
 10
159.091370842735
 20
156.1452883879315
 30
0.0
 10
158.9429454739276
 20
156.1613613602559
 30
0.0
 10
158.7143400568489
 20
156.1876590517862
 30
0.0
 10
158.3199542320483
 20
156.2373659957989
 30
0.0
 10
157.8367138795229
 20
156.3058297802774
 30
0.0
 10
157.4429088892601
 20
156.3725625102167
 30
0.0
 10
157.285577570017
 20
156.3992232908001
 30
0.0
  0
SPLINE
  5
1DE
330
1F
100
AcDbEntity
  8
0
  6
HIDDEN
 62
     7
370
     0
100
AcDbSpline
210
0.0
220
0.0
230
1.0
 70
     8
 71
     3
 72
    23
 73
    19
 74
     0
 42
0.00000001
 43
0.00000001
 12
1.0
 22
0.0
 32
0.0
 13
1.0
 23
0.0
 33
0.0
 40
0.0
 40
0.0
 40
0.0
 40
0.0
 40
0.0590732554725928
 40
0.0604349916274817
 40
0.1193975166078266
 40
0.1883060884322866
 40
0.2590531445822599
 40
0.3309221188202062
 40
0.4047811275823849
 40
0.4782910730341913
 40
0.5539400782635651
 40
0.627197993008668
 40
0.7027383041671492
 40
0.7732007814857461
 40
0.8460064499098954
 40
0.9116591108115569
 40
0.9794716210683169
 40
1.0
 40
1.0
 40
1.0
 40
1.0
 10
165.3146360984994
 20
156.0692979382374
 30
0.0
 10
165.4216511414444
 20
156.0766979370192
 30
0.0
 10
165.5311330579676
 20
156.0842685180012
 30
0.0
 10
165.7910765743439
 20
156.0967021187045
 30
0.0
 10
166.0624168249856
 20
156.1112836422992
 30
0.0
 10
166.5426598394895
 20
156.1264083299405
 30
0.0
 10
167.0814213656945
 20
156.1338729901315
 30
0.0
 10
167.6551601928352
 20
156.129893457226
 30
0.0
 10
168.2412800001901
 20
156.113309390997
 30
0.0
 10
168.8268254501813
 20
156.0841533685278
 30
0.0
 10
169.3836768384704
 20
156.0447599413977
 30
0.0
 10
169.9012489838379
 20
155.9981097958352
 30
0.0
 10
170.3480209053834
 20
155.9500511200083
 30
0.0
 10
170.7191874245465
 20
155.9047949631699
 30
0.0
 10
170.9924974718936
 20
155.8683272276055
 30
0.0
 10
171.164465667415
 20
155.8441035195123
 30
0.0
 10
171.2396913434112
 20
155.8331728503151
 30
0.0
 10
171.2289243614184
 20
155.8347340910765
 30
0.0
 10
171.2264223638912
 20
155.835096887311
 30
0.0
  0
SPLINE
  5
1DF
330
1F
100
AcDbEntity
  8
0
  6
HIDDEN
 62
     7
370
     0
100
AcDbSpline
210
0.0
220
0.0
230
1.0
 70
     8
 71
     3
 72
    12
 73
     8
 74
     0
 42
0.00000001
 43
0.00000001
 12
1.0
 22
0.0
 32
0.0
 13
1.0
 23
0.0
 33
0.0
 40
0.0
 40
0.0
 40
0.0
 40
0.0
 40
0.2242535478257594
 40
0.4415254162113254
 40
0.6648557241215749
 40
0.831214230299901
 40
1.0
 40
1.0
 40
1.0
 40
1.0
 10
164.5057389213224
 20
156.0029741211016
 30
0.0
 10
164.513681289315
 20
156.0037458149569
 30
0.0
 10
164.5293187557794
 20
156.0052651775443
 30
0.0
 10
164.6603645320649
 20
156.0176359198315
 30
0.0
 10
164.8462358707392
 20
156.0339676402015
 30
0.0
 10
165.0685152684498
 20
156.0520051187192
 30
0.0
 10
165.2322006610738
 20
156.0635059004769
 30
0.0
 10
165.3146360984994
 20
156.0692979382375
 30
0.0
  0
LINE
  5
1E0
330
1F
100
AcDbEntity
  8
0
  6
HIDDEN
 62
     7
370
     0
100
AcDbLine
 10
181.58557757
 20
158.4383223618
 30
0.0
 11
181.58557757
 21
155.5960199318
 31
0.0
  0
LINE
  5
1E1
330
1F
100
AcDbEntity
  8
0
  6
HIDDEN
 62
     7
370
     0
100
AcDbLine
 10
156.8136174256
 20
161.2354119146
 30
0.0
 11
156.8136174256
 21
182.8127621838
 31
0.0
  0
LINE
  5
1E2
330
1F
100
AcDbEntity
  8
0
  6
HIDDEN
 62
     7
370
     0
100
AcDbLine
 10
152.8136174256
 20
160.8542140682
 30
0.0
 11
152.8136174256
 21
183.1939600303
 31
0.0
  0
LINE
  5
1E3
330
1F
100
AcDbEntity
  8
0
  6
HIDDEN
 62
     7
370
     0
100
AcDbLine
 10
151.78557757
 20
160.2606749808
 30
0.0
 11
151.78557757
 21
183.7874991177
 31
0.0
  0
LINE
  5
1E4
330
1F
100
AcDbEntity
  8
0
  6
HIDDEN
 62
     7
370
     0
100
AcDbLine
 10
161.4136174256
 20
161.5240870492
 30
0.0
 11
161.4136174256
 21
182.5240870492
 31
0.0
  0
LINE
  5
1E5
330
1F
100
AcDbEntity
  8
0
  6
HIDDEN
 62
     7
370
     0
100
AcDbLine
 10
155.3136174256
 20
161.5240870492
 30
0.0
 11
155.3136174256
 21
182.5240870492
 31
0.0
  0
LINE
  5
1E6
330
1F
100
AcDbEntity
  8
0
  6
HIDDEN
 62
     7
370
     0
100
AcDbLine
 10
156.3136174256
 20
161.5240870492
 30
0.0
 11
156.3136174256
 21
182.5240870492
 31
0.0
  0
LINE
  5
1E7
330
1F
100
AcDbEntity
  8
0
  6
HIDDEN
 62
     7
370
     0
100
AcDbLine
 10
171.78557757
 20
162.0240870492
 30
0.0
 11
171.78557757
 21
182.0240870492
 31
0.0
  0
SPLINE
  5
1E8
330
1F
100
AcDbEntity
  8
0
  6
HIDDEN
 62
     7
370
     0
100
AcDbSpline
210
0.0
220
0.0
230
1.0
 70
     8
 71
     3
 72
    66
 73
    62
 74
     0
 42
0.00000001
 43
0.00000001
 12
1.0
 22
0.0
 32
0.0
 13
1.0
 23
0.0
 33
0.0
 40
-0.0312500000000007
 40
-0.0312500000000007
 40
0.0
 40
0.0
 40
0.0312499999999998
 40
0.0312499999999998
 40
0.0624999999999996
 40
0.0624999999999996
 40
0.0937499999999994
 40
0.0937499999999994
 40
0.1249999999999992
 40
0.1249999999999992
 40
0.1874999999999988
 40
0.1874999999999988
 40
0.2187499999999987
 40
0.2187499999999987
 40
0.2499999999999986
 40
0.2499999999999986
 40
0.2812499999999984
 40
0.2812499999999984
 40
0.3124999999999983
 40
0.3124999999999983
 40
0.3437499999999981
 40
0.3437499999999981
 40
0.374999999999998
 40
0.374999999999998
 40
0.4062499999999978
 40
0.4062499999999978
 40
0.4374999999999977
 40
0.4374999999999977
 40
0.4687499999999976
 40
0.4687499999999976
 40
0.4999999999999974
 40
0.4999999999999974
 40
0.5312499999999973
 40
0.5312499999999973
 40
0.5624999999999971
 40
0.5624999999999971
 40
0.593749999999997
 40
0.593749999999997
 40
0.624999999999997
 40
0.624999999999997
 40
0.656249999999997
 40
0.656249999999997
 40
0.687499999999997
 40
0.687499999999997
 40
0.7187499999999971
 40
0.7187499999999971
 40
0.7499999999999971
 40
0.7499999999999971
 40
0.7812499999999972
 40
0.7812499999999972
 40
0.8124999999999973
 40
0.8124999999999973
 40
0.8749999999999978
 40
0.8749999999999978
 40
0.9062499999999981
 40
0.9062499999999981
 40
0.9374999999999987
 40
0.9374999999999987
 40
0.9687499999999993
 40
0.9687499999999993
 40
1.0
 40
1.0
 40
1.03125
 40
1.03125
 10
167.5828989230692
 20
161.9768237402562
 30
0.0
 10
167.9882562169647
 20
161.9768237402562
 30
0.0
 10
168.1873161083006
 20
161.9706916656266
 30
0.0
 10
168.5785700928803
 20
161.9474704530091
 30
0.0
 10
168.772842851628
 20
161.9300961522716
 30
0.0
 10
169.1416062781793
 20
161.8873827845805
 30
0.0
 10
169.3163314365576
 20
161.8621911645247
 30
0.0
 10
169.6470087400913
 20
161.807147851379
 30
0.0
 10
169.8026562840942
 20
161.77726229648
 30
0.0
 10
170.2221236537628
 20
161.6892188489182
 30
0.0
 10
170.4490117952931
 20
161.6308291089289
 30
0.0
 10
170.6778084186779
 20
161.5690831531454
 30
0.0
 10
170.7370006735267
 20
161.5523645516307
 30
0.0
 10
170.8158080837873
 20
161.529880519083
 30
0.0
 10
170.8354475000677
 20
161.5241248314536
 30
0.0
 10
170.8357063644893
 20
161.524049637517
 30
0.0
 10
170.8156356798563
 20
161.5299294919827
 30
0.0
 10
170.7372979972263
 20
161.5522799383378
 30
0.0
 10
170.6793482291879
 20
161.5686618670742
 30
0.0
 10
170.5254050873079
 20
161.6102183187204
 30
0.0
 10
170.4304664735852
 20
161.6350772630318
 30
0.0
 10
170.2101090577081
 20
161.6889798915703
 30
0.0
 10
170.0828290317798
 20
161.718462775986
 30
0.0
 10
169.8010734404492
 20
161.7775875988599
 30
0.0
 10
169.6482851109917
 20
161.8069053342454
 30
0.0
 10
169.3188580288348
 20
161.8618003095633
 30
0.0
 10
169.1403120256831
 20
161.887545196864
 30
0.0
 10
168.7727397001329
 20
161.930095551783
 30
0.0
 10
168.5825856734219
 20
161.9471757616824
 30
0.0
 10
168.1890452507195
 20
161.9706445865915
 30
0.0
 10
167.9866111794583
 20
161.9767974338113
 30
0.0
 10
167.587182104093
 20
161.9768498735247
 30
0.0
 10
167.387163125537
 20
161.9708714007713
 30
0.0
 10
166.9910471780877
 20
161.9473966526492
 30
0.0
 10
166.8003143498958
 20
161.9302816841903
 30
0.0
 10
166.4326829093161
 20
161.8877915179556
 30
0.0
 10
166.2541964771483
 20
161.8620929145835
 30
0.0
 10
165.9239912181843
 20
161.807115849979
 30
0.0
 10
165.7711026401223
 20
161.7777873655438
 30
0.0
 10
165.4895062455843
 20
161.7187247804102
 30
0.0
 10
165.3618753227087
 20
161.6891742549011
 30
0.0
 10
165.1415498877089
 20
161.6352963463818
 30
0.0
 10
165.0473234307436
 20
161.6106355773257
 30
0.0
 10
164.8923889101405
 20
161.5688263423851
 30
0.0
 10
164.8343766245383
 20
161.5524264963562
 30
0.0
 10
164.7559573702601
 20
161.5300560663906
 30
0.0
 10
164.7356432902936
 20
161.5241061394121
 30
0.0
 10
164.7355121739896
 20
161.5240680532495
 30
0.0
 10
164.7551368673489
 20
161.5298187217211
 30
0.0
 10
164.8333033177626
 20
161.5521235209373
 30
0.0
 10
164.8925907631025
 20
161.5688746349138
 30
0.0
 10
165.1216716061854
 20
161.6307107528302
 30
0.0
 10
165.3485024570795
 20
161.689091803128
 30
0.0
 10
165.7678411584003
 20
161.7771322267297
 30
0.0
 10
165.9231941541502
 20
161.8069765704205
 30
0.0
 10
166.2541619872874
 20
161.8620937292395
 30
0.0
 10
166.4287232874838
 20
161.8872615962951
 30
0.0
 10
166.7962965950586
 20
161.929888043531
 30
0.0
 10
166.9909834566966
 20
161.9473561031257
 30
0.0
 10
167.3834594066331
 20
161.9706883317525
 30
0.0
 10
167.5828989230692
 20
161.9768237402562
 30
0.0
 10
167.9882562169647
 20
161.9768237402562
 30
0.0
  0
SPLINE
  5
1E9
330
1F
100
AcDbEntity
  8
0
  6
HIDDEN
 62
     7
370
     0
100
AcDbSpline
210
0.0
220
0.0
230
1.0
 70
     8
 71
     3
 72
    66
 73
    62
 74
     0
 42
0.00000001
 43
0.00000001
 12
1.0
 22
0.0
 32
0.0
 13
1.0
 23
0.0
 33
0.0
 40
-0.03125
 40
-0.03125
 40
0.0
 40
0.0
 40
0.0312499999999999
 40
0.0312499999999999
 40
0.0624999999999998
 40
0.0624999999999998
 40
0.0937499999999998
 40
0.0937499999999998
 40
0.1249999999999997
 40
0.1249999999999997
 40
0.1874999999999996
 40
0.1874999999999996
 40
0.2187499999999996
 40
0.2187499999999996
 40
0.2499999999999996
 40
0.2499999999999996
 40
0.2812499999999996
 40
0.2812499999999996
 40
0.3124999999999996
 40
0.3124999999999996
 40
0.3437499999999996
 40
0.3437499999999996
 40
0.3749999999999995
 40
0.3749999999999995
 40
0.4062499999999995
 40
0.4062499999999995
 40
0.4374999999999995
 40
0.4374999999999995
 40
0.4687499999999994
 40
0.4687499999999994
 40
0.4999999999999994
 40
0.4999999999999994
 40
0.5312499999999994
 40
0.5312499999999994
 40
0.5624999999999996
 40
0.5624999999999996
 40
0.5937499999999996
 40
0.5937499999999996
 40
0.6249999999999996
 40
0.6249999999999996
 40
0.6562499999999997
 40
0.6562499999999997
 40
0.6874999999999997
 40
0.6874999999999997
 40
0.7187499999999997
 40
0.7187499999999997
 40
0.7499999999999997
 40
0.7499999999999997
 40
0.7812499999999998
 40
0.7812499999999998
 40
0.8124999999999998
 40
0.8124999999999998
 40
0.8749999999999999
 40
0.8749999999999999
 40
0.9062499999999999
 40
0.9062499999999999
 40
0.9374999999999999
 40
0.9374999999999999
 40
0.96875
 40
0.96875
 40
1.0
 40
1.0
 40
1.03125
 40
1.03125
 10
167.9882562169647
 20
182.0713503582186
 30
0.0
 10
167.5828989230692
 20
182.0713503582186
 30
0.0
 10
167.3838390317333
 20
182.0774824328483
 30
0.0
 10
166.9925850471536
 20
182.1007036454657
 30
0.0
 10
166.798312288406
 20
182.1180779462033
 30
0.0
 10
166.4295488618547
 20
182.1607913138944
 30
0.0
 10
166.2548237034764
 20
182.1859829339502
 30
0.0
 10
165.9241463999426
 20
182.2410262470959
 30
0.0
 10
165.7684988559398
 20
182.2709118019948
 30
0.0
 10
165.3490314862711
 20
182.3589552495566
 30
0.0
 10
165.1221433447408
 20
182.417344989546
 30
0.0
 10
164.8933467213561
 20
182.4790909453295
 30
0.0
 10
164.8341544665072
 20
182.4958095468442
 30
0.0
 10
164.7553470562466
 20
182.5182935793919
 30
0.0
 10
164.7357076399663
 20
182.5240492670213
 30
0.0
 10
164.7354487755447
 20
182.5241244609579
 30
0.0
 10
164.7555194601776
 20
182.5182446064921
 30
0.0
 10
164.8338571428076
 20
182.4958941601371
 30
0.0
 10
164.891806910846
 20
182.4795122314007
 30
0.0
 10
165.045750052726
 20
182.4379557797544
 30
0.0
 10
165.1406886664487
 20
182.4130968354431
 30
0.0
 10
165.3610460823259
 20
182.3591942069046
 30
0.0
 10
165.4883261082541
 20
182.3297113224889
 30
0.0
 10
165.7700816995847
 20
182.270586499615
 30
0.0
 10
165.9228700290422
 20
182.2412687642295
 30
0.0
 10
166.2522971111991
 20
182.1863737889116
 30
0.0
 10
166.4308431143508
 20
182.1606289016108
 30
0.0
 10
166.798415439901
 20
182.1180785466919
 30
0.0
 10
166.988569466612
 20
182.1009983367924
 30
0.0
 10
167.3821098893144
 20
182.0775295118834
 30
0.0
 10
167.5845439605756
 20
182.0713766646636
 30
0.0
 10
167.983973035941
 20
182.0713242249502
 30
0.0
 10
168.1839920144969
 20
182.0773026977035
 30
0.0
 10
168.5801079619463
 20
182.1007774458257
 30
0.0
 10
168.7708407901381
 20
182.1178924142846
 30
0.0
 10
169.1384722307178
 20
182.1603825805192
 30
0.0
 10
169.3169586628856
 20
182.1860811838914
 30
0.0
 10
169.6471639218497
 20
182.2410582484958
 30
0.0
 10
169.8000524999116
 20
182.2703867329311
 30
0.0
 10
170.0816488944496
 20
182.3294493180647
 30
0.0
 10
170.2092798173252
 20
182.3589998435738
 30
0.0
 10
170.429605252325
 20
182.4128777520932
 30
0.0
 10
170.5238317092903
 20
182.4375385211492
 30
0.0
 10
170.6787662298934
 20
182.4793477560898
 30
0.0
 10
170.7367785154957
 20
182.4957476021187
 30
0.0
 10
170.8151977697738
 20
182.5181180320842
 30
0.0
 10
170.8355118497404
 20
182.5240679590628
 30
0.0
 10
170.8356429660443
 20
182.5241060452254
 30
0.0
 10
170.816018272685
 20
182.5183553767537
 30
0.0
 10
170.7378518222713
 20
182.4960505775376
 30
0.0
 10
170.6785643769314
 20
182.4792994635611
 30
0.0
 10
170.4494835338485
 20
182.4174633456447
 30
0.0
 10
170.2226526829544
 20
182.3590822953469
 30
0.0
 10
169.8033139816337
 20
182.2710418717452
 30
0.0
 10
169.6479609858837
 20
182.2411975280544
 30
0.0
 10
169.3169931527465
 20
182.1860803692354
 30
0.0
 10
169.1424318525502
 20
182.1609125021798
 30
0.0
 10
168.7748585449753
 20
182.1182860549439
 30
0.0
 10
168.5801716833373
 20
182.1008179953492
 30
0.0
 10
168.1876957334008
 20
182.0774857667223
 30
0.0
 10
167.9882562169647
 20
182.0713503582186
 30
0.0
 10
167.5828989230692
 20
182.0713503582186
 30
0.0
  0
LINE
  5
1EA
330
1F
100
AcDbEntity
  8
0
  6
HIDDEN
 62
     7
370
     0
100
AcDbLine
 10
172.78557757
 20
164.7740870492
 30
0.0
 11
172.78557757
 21
179.2740870492
 31
0.0
  0
LINE
  5
1EB
330
1F
100
AcDbEntity
  8
0
  6
HIDDEN
 62
     7
370
     0
100
AcDbLine
 10
171.78557757
 20
163.7903665397
 30
0.0
 11
171.78557757
 21
180.2578075588
 31
0.0
  0
LINE
  5
1EC
330
1F
100
AcDbEntity
  8
0
  6
HIDDEN
 62
     7
370
     0
100
AcDbLine
 10
196.78557757
 20
164.7740870492
 30
0.0
 11
196.78557757
 21
179.2740870492
 31
0.0
  0
LINE
  5
1ED
330
1F
100
AcDbEntity
  8
0
  6
HIDDEN
 62
     7
370
     0
100
AcDbLine
 10
198.5881594271
 20
167.7740870492
 30
0.0
 11
198.5881594271
 21
176.2740870492
 31
0.0
  0
LINE
  5
1EE
330
1F
100
AcDbEntity
  8
0
  6
HIDDEN
 62
     7
370
     0
100
AcDbLine
 10
225.53557757
 20
190.7740870492
 30
0.0
 11
234.03557757
 21
190.7740870492
 31
0.0
  0
LINE
  5
1EF
330
1F
100
AcDbEntity
  8
0
  6
HIDDEN
 62
     7
370
     0
100
AcDbLine
 10
224.2896135742
 20
192.0240870492
 30
0.0
 11
235.2815415658
 21
192.0240870492
 31
0.0
  0
LINE
  5
1F0
330
1F
100
AcDbEntity
  8
0
  6
HIDDEN
 62
     7
370
     0
100
AcDbLine
 10
179.58557757
 20
189.2868861257
 30
0.0
 11
179.58557757
 21
190.6641858338
 31
0.0
  0
LINE
  5
1F1
330
1F
100
AcDbEntity
  8
0
  6
HIDDEN
 62
     7
370
     0
100
AcDbLine
 10
153.28557757
 20
188.7146619683
 30
0.0
 11
153.28557757
 21
190.0034382912
 31
0.0
  0
SPLINE
  5
1F2
330
1F
100
AcDbEntity
  8
0
  6
HIDDEN
 62
     7
370
     0
100
AcDbSpline
210
0.0
220
0.0
230
1.0
 70
     8
 71
     3
 72
    10
 73
     6
 74
     0
 42
0.00000001
 43
0.00000001
 12
1.0
 22
0.0
 32
0.0
 13
1.0
 23
0.0
 33
0.0
 40
0.0
 40
0.0
 40
0.0
 40
0.0
 40
0.3599412485529693
 40
0.730102394570937
 40
1.0
 40
1.0
 40
1.0
 40
1.0
 10
180.4642572264573
 20
189.5708913685609
 30
0.0
 10
180.3777936694204
 20
189.761042674454
 30
0.0
 10
180.2024115750103
 20
190.1467442974867
 30
0.0
 10
180.0723737206078
 20
190.4378369019078
 30
0.0
 10
180.0674863044478
 20
190.4487221806134
 30
0.0
 10
180.0654253968899
 20
190.4533122446512
 30
0.0
  0
LINE
  5
1F3
330
1F
100
AcDbEntity
  8
0
  6
HIDDEN
 62
     7
370
     0
100
AcDbLine
 10
151.78557757
 20
187.9646619683
 30
0.0
 11
151.78557757
 21
189.1374128874
 31
0.0
  0
LINE
  5
1F4
330
1F
100
AcDbEntity
  8
0
  6
HIDDEN
 62
     7
370
     0
100
AcDbLine
 10
211.78557757
 20
167.7740870492
 30
0.0
 11
211.78557757
 21
176.2740870492
 31
0.0
  0
SPLINE
  5
1F5
330
1F
100
AcDbEntity
  8
0
  6
HIDDEN
 62
     7
370
     0
100
AcDbSpline
210
0.0
220
0.0
230
1.0
 70
     8
 71
     3
 72
    62
 73
    58
 74
     0
 42
0.00000001
 43
0.00000001
 12
1.0
 22
0.0
 32
0.0
 13
1.0
 23
0.0
 33
0.0
 40
-0.0312499999999998
 40
-0.0312499999999998
 40
0.0
 40
0.0
 40
0.0312500000000003
 40
0.0312500000000003
 40
0.0625000000000006
 40
0.0625000000000006
 40
0.093750000000001
 40
0.093750000000001
 40
0.1250000000000013
 40
0.1250000000000013
 40
0.1875000000000014
 40
0.1875000000000014
 40
0.2500000000000014
 40
0.2500000000000014
 40
0.2812500000000014
 40
0.2812500000000014
 40
0.3125000000000014
 40
0.3125000000000014
 40
0.3437500000000014
 40
0.3437500000000014
 40
0.3750000000000014
 40
0.3750000000000014
 40
0.4062500000000014
 40
0.4062500000000014
 40
0.4375000000000013
 40
0.4375000000000013
 40
0.4687500000000013
 40
0.4687500000000013
 40
0.5000000000000013
 40
0.5000000000000013
 40
0.5312500000000013
 40
0.5312500000000013
 40
0.5625000000000013
 40
0.5625000000000013
 40
0.5937500000000013
 40
0.5937500000000013
 40
0.6250000000000012
 40
0.6250000000000012
 40
0.6562500000000012
 40
0.6562500000000012
 40
0.6875000000000012
 40
0.6875000000000012
 40
0.7187500000000012
 40
0.7187500000000012
 40
0.7500000000000012
 40
0.7500000000000012
 40
0.812500000000001
 40
0.812500000000001
 40
0.8437500000000009
 40
0.8437500000000009
 40
0.8750000000000007
 40
0.8750000000000007
 40
0.9375000000000003
 40
0.9375000000000003
 40
0.9687500000000002
 40
0.9687500000000002
 40
1.0
 40
1.0
 40
1.03125
 40
1.03125
 10
209.268299715937
 20
175.3553178934613
 30
0.0
 10
209.5516578262275
 20
175.3553178934613
 30
0.0
 10
209.6904002470862
 20
175.3453793852712
 30
0.0
 10
209.9626709758863
 20
175.3071122473222
 30
0.0
 10
210.0975518214345
 20
175.2782932653164
 30
0.0
 10
210.3536677850431
 20
175.2033641802193
 30
0.0
 10
210.4752683455148
 20
175.1574529978986
 30
0.0
 10
210.7065678607471
 20
175.0475591966017
 30
0.0
 10
210.8157912312954
 20
174.9835222451165
 30
0.0
 10
211.1143634326562
 20
174.7681231428709
 30
0.0
 10
211.2820129309938
 20
174.5872901976128
 30
0.0
 10
211.5165184174923
 20
174.1678170595678
 30
0.0
 10
211.5858537448667
 20
173.9213305578942
 30
0.0
 10
211.5968995858299
 20
173.5356252266688
 30
0.0
 10
211.5853856673078
 20
173.4015057516378
 30
0.0
 10
211.5333155095136
 20
173.1379365020393
 30
0.0
 10
211.4932232935582
 20
173.0078739695918
 30
0.0
 10
211.3857889700803
 20
172.7514987830715
 30
0.0
 10
211.3198421467237
 20
172.6286671725369
 30
0.0
 10
211.1666916906269
 20
172.3953447256119
 30
0.0
 10
211.0784341900387
 20
172.2837318275223
 30
0.0
 10
210.8863257812767
 20
172.0795310661261
 30
0.0
 10
210.7821514633856
 20
171.9861120039822
 30
0.0
 10
210.5570390152519
 20
171.8172502771847
 30
0.0
 10
210.4366344977079
 20
171.742547102061
 30
0.0
 10
210.1872347497034
 20
171.618221659032
 30
0.0
 10
210.0572384597798
 20
171.5677770255432
 30
0.0
 10
209.7850912128416
 20
171.4935273881519
 30
0.0
 10
209.6457770653577
 20
171.4708189418456
 30
0.0
 10
209.3679572261513
 20
171.4564792837325
 30
0.0
 10
209.2273098078808
 20
171.4647010394185
 30
0.0
 10
208.9488229486054
 20
171.5138549078989
 30
0.0
 10
208.8148018111847
 20
171.5538625756078
 30
0.0
 10
208.5564586177412
 20
171.6627984438589
 30
0.0
 10
208.4317303927473
 20
171.7324158288844
 30
0.0
 10
208.2021009519118
 20
171.8931800609845
 30
0.0
 10
208.0952490515992
 20
171.985248490304
 30
0.0
 10
207.8994200158776
 20
172.1892498497796
 30
0.0
 10
207.8124544898072
 20
172.2989018816342
 30
0.0
 10
207.6589174876561
 20
172.5321568304805
 30
0.0
 10
207.5918776200012
 20
172.6572322927531
 30
0.0
 10
207.4835696010167
 20
172.9116373583815
 30
0.0
 10
207.4416603752287
 20
173.0414441394977
 30
0.0
 10
207.3826474202264
 20
173.3058630449469
 30
0.0
 10
207.3660038137197
 20
173.4403478869963
 30
0.0
 10
207.3567132346494
 20
173.8307682661091
 30
0.0
 10
207.4047799575484
 20
174.0838330869871
 30
0.0
 10
207.5504859499547
 20
174.4165637816535
 30
0.0
 10
207.6121207435872
 20
174.5218398492538
 30
0.0
 10
207.7558757861985
 20
174.7127474419047
 30
0.0
 10
207.8381383251553
 20
174.7993175973368
 30
0.0
 10
208.1177300288097
 20
175.0348054013748
 30
0.0
 10
208.3411986850353
 20
175.1537918185975
 30
0.0
 10
208.7226384253392
 20
175.2750365746905
 30
0.0
 10
208.8541522304868
 20
175.30486018714
 30
0.0
 10
209.1261674060393
 20
175.3450463638235
 30
0.0
 10
209.268299715937
 20
175.3553178934613
 30
0.0
 10
209.5516578262275
 20
175.3553178934613
 30
0.0
  0
LINE
  5
1F6
330
1F
100
AcDbEntity
  8
0
  6
HIDDEN
 62
     7
370
     0
100
AcDbLine
 10
225.53557757
 20
173.0240870492
 30
0.0
 11
234.03557757
 21
173.0240870492
 31
0.0
  0
LINE
  5
1F7
330
1F
100
AcDbEntity
  8
0
  6
HIDDEN
 62
     7
370
     0
100
AcDbLine
 10
164.73557757
 20
156.2337693286
 30
0.0
 11
170.83557757
 21
156.2337693286
 31
0.0
  0
LINE
  5
1F8
330
1F
100
AcDbEntity
  8
0
  6
HIDDEN
 62
     7
370
     0
100
AcDbLine
 10
157.28557757
 20
156.3992232908
 30
0.0
 11
157.28557757
 21
158.0240870492
 31
0.0
  0
SPLINE
  5
1F9
330
1F
100
AcDbEntity
  8
0
  6
HIDDEN
 62
     7
370
     0
100
AcDbSpline
210
0.0
220
0.0
230
1.0
 70
     8
 71
     3
 72
     8
 73
     4
 74
     0
 42
0.00000001
 43
0.00000001
 12
1.0
 22
0.0
 32
0.0
 13
1.0
 23
0.0
 33
0.0
 40
0.0
 40
0.0
 40
0.0
 40
0.0
 40
1.0
 40
1.0
 40
1.0
 40
1.0
 10
153.285577570017
 20
156.491290290827
 30
0.0
 10
152.7645253275562
 20
156.7663204174838
 30
0.0
 10
152.2597889804547
 20
157.027507191634
 30
0.0
 10
151.785577570017
 20
157.268818065593
 30
0.0
  0
LINE
  5
1FA
330
1F
100
AcDbEntity
  8
0
  6
HIDDEN
 62
     7
370
     0
100
AcDbLine
 10
151.78557757
 20
157.2688180656
 30
0.0
 11
151.78557757
 21
158.0240870492
 31
0.0
  0
LINE
  5
1FB
330
1F
100
AcDbEntity
  8
0
  6
HIDDEN
 62
     7
370
     0
100
AcDbLine
 10
164.73557757
 20
186.0240870492
 30
0.0
 11
170.83557757
 21
186.0240870492
 31
0.0
  0
LINE
  5
1FC
330
1F
100
AcDbEntity
  8
0
  6
HIDDEN
 62
     7
370
     0
100
AcDbLine
 10
191.78557757
 20
147.5240870492
 30
0.0
 11
195.78557757
 21
147.5240870492
 31
0.0
  0
LINE
  5
1FD
330
1F
100
AcDbEntity
  8
0
  6
HIDDEN
 62
     7
370
     0
100
AcDbLine
 10
151.78557757
 20
160.2634090346
 30
0.0
 11
151.78557757
 21
157.2688180656
 31
0.0
  0
ELLIPSE
  5
1FE
330
1F
100
AcDbEntity
  8
0
  6
HIDDEN
 62
     7
370
     0
100
AcDbEllipse
 10
211.869701667
 20
180.9126640176
 30
0.0
 11
0.7107426670596623
 21
2.168423190543422
 31
0.0
210
0.0
220
0.0
230
1.0
 40
0.9202727667
 41
0.0
 42
6.283185307179586
  0
LINE
  5
1FF
330
1F
100
AcDbEntity
  8
0
  6
HIDDEN
 62
     7
370
     0
100
AcDbLine
 10
151.78557757
 20
187.9646619683
 30
0.0
 11
151.78557757
 21
167.8441901448
 31
0.0
  0
LINE
  5
200
330
1F
100
AcDbEntity
  8
0
  6
HIDDEN
 62
     7
370
     0
100
AcDbLine
 10
153.28557757
 20
188.7146619683
 30
0.0
 11
153.28557757
 21
167.8441901448
 31
0.0
  0
LINE
  5
201
330
1F
100
AcDbEntity
  8
0
  6
HIDDEN
 62
     7
370
     0
100
AcDbLine
 10
179.58557757
 20
189.2868861257
 30
0.0
 11
179.58557757
 21
167.8441901448
 31
0.0
  0
LINE
  5
202
330
1F
100
AcDbEntity
  8
0
  6
HIDDEN
 62
     7
370
     0
100
AcDbLine
 10
181.58557757
 20
188.8301926043
 30
0.0
 11
181.58557757
 21
168.8037461816
 31
0.0
  0
LINE
  5
203
330
1F
100
AcDbEntity
  8
0
  6
HIDDEN
 62
     7
370
     0
100
AcDbLine
 10
151.78557757
 20
167.8441901448
 30
0.0
 11
151.78557757
 21
160.2634090346
 31
0.0
  0
LINE
  5
204
330
1F
100
AcDbEntity
  8
0
  6
HIDDEN
 62
     7
370
     0
100
AcDbLine
 10
153.28557757
 20
167.8441901448
 30
0.0
 11
153.28557757
 21
159.5134090346
 31
0.0
  0
LINE
  5
205
330
1F
100
AcDbEntity
  8
0
  6
HIDDEN
 62
     7
370
     0
100
AcDbLine
 10
179.58557757
 20
167.8441901448
 30
0.0
 11
179.58557757
 21
158.9411848772
 31
0.0
  0
SPLINE
  5
206
330
1F
100
AcDbEntity
  8
0
  6
HIDDEN
 62
     7
370
     0
100
AcDbSpline
210
0.0
220
0.0
230
1.0
 70
     8
 71
     3
 72
    18
 73
    14
 74
     0
 42
0.00000001
 43
0.00000001
 12
1.0
 22
0.0
 32
0.0
 13
1.0
 23
0.0
 33
0.0
 40
0.0
 40
0.0
 40
0.0
 40
0.0
 40
0.2500000000000002
 40
0.2500000000000002
 40
0.3750000000000003
 40
0.3750000000000003
 40
0.5000000000000004
 40
0.5000000000000004
 40
0.6250000000000006
 40
0.6250000000000006
 40
0.7500000000000007
 40
0.7500000000000007
 40
1.0
 40
1.0
 40
1.0
 40
1.0
 10
180.4642572264573
 20
166.8896051159143
 30
0.0
 10
180.328971620155
 20
166.1738316964885
 30
0.0
 10
180.2278038739121
 20
165.473021549522
 30
0.0
 10
180.1249425310431
 20
164.4446101602034
 30
0.0
 10
180.0988396855198
 20
164.1047272019252
 30
0.0
 10
180.063949701975
 20
163.4369154472959
 30
0.0
 10
180.055363443685
 20
163.1137236667406
 30
0.0
 10
180.0552637341193
 20
162.4880736018807
 30
0.0
 10
180.0637521052679
 20
162.1856172248708
 30
0.0
 10
180.0978954847885
 20
161.6014673040708
 30
0.0
 10
180.1236924666423
 20
161.3187032073763
 30
0.0
 10
180.2270935980303
 20
160.5100084084504
 30
0.0
 10
180.3289515902016
 20
160.0315067963583
 30
0.0
 10
180.4642572264573
 20
159.6117646632371
 30
0.0
  0
LINE
  5
207
330
1F
100
AcDbEntity
  8
0
  6
HIDDEN
 62
     7
370
     0
100
AcDbLine
 10
225.53557757
 20
190.7740870492
 30
0.0
 11
234.03557757
 21
190.7740870492
 31
0.0
  0
LINE
  5
208
330
1F
100
AcDbEntity
  8
0
  6
HIDDEN
 62
     7
370
     0
100
AcDbLine
 10
224.2896135742
 20
192.0240870492
 30
0.0
 11
235.2815415658
 21
192.0240870492
 31
0.0
  0
LINE
  5
209
330
1F
100
AcDbEntity
  8
0
  6
HIDDEN
 62
     7
370
     0
100
AcDbLine
 10
225.53557757
 20
173.0240870492
 30
0.0
 11
234.03557757
 21
173.0240870492
 31
0.0
  0
SPLINE
  5
20A
330
1F
100
AcDbEntity
  8
0
  6
HIDDEN
 62
     7
370
     0
100
AcDbSpline
210
0.0
220
0.0
230
1.0
 70
     8
 71
     3
 72
    18
 73
    14
 74
     0
 42
0.00000001
 43
0.00000001
 12
1.0
 22
0.0
 32
0.0
 13
1.0
 23
0.0
 33
0.0
 40
0.0
 40
0.0
 40
0.0
 40
0.0
 40
0.1249999999999995
 40
0.1249999999999995
 40
0.249999999999999
 40
0.249999999999999
 40
0.3749999999999985
 40
0.3749999999999985
 40
0.499999999999998
 40
0.499999999999998
 40
0.749999999999999
 40
0.749999999999999
 40
1.0
 40
1.0
 40
1.0
 40
1.0
 10
204.9305698709407
 20
145.5665739385915
 30
0.0
 10
204.8518179150737
 20
145.5665739385915
 30
0.0
 10
204.7735597611916
 20
145.5807893525715
 30
0.0
 10
204.6237707966274
 20
145.6348256142737
 30
0.0
 10
204.5555876121529
 20
145.672979319633
 30
0.0
 10
204.429431357872
 20
145.7662276404243
 30
0.0
 10
204.3717541116726
 20
145.8215807422299
 30
0.0
 10
204.2701832317038
 20
145.940471668598
 30
0.0
 10
204.2253585704212
 20
146.0047187067282
 30
0.0
 10
204.1055728358907
 20
146.209291619186
 30
0.0
 10
204.0485977179046
 20
146.3545020416829
 30
0.0
 10
203.9668818334283
 20
146.6566443579548
 30
0.0
 10
203.9430733439754
 20
146.8129400779196
 30
0.0
 10
203.9343751728489
 20
146.9680350047151
 30
0.0
  0
SPLINE
  5
20B
330
1F
100
AcDbEntity
  8
0
  6
HIDDEN
 62
     7
370
     0
100
AcDbSpline
210
0.0
220
0.0
230
1.0
 70
    24
 71
     3
 72
    18
 73
    14
 74
     0
 42
0.00000001
 43
0.00000001
 12
1.0
 22
0.0
 32
0.0
 13
1.0
 23
0.0
 33
0.0
 40
0.0
 40
0.0
 40
0.0
 40
0.0
 40
0.25
 40
0.25
 40
0.5
 40
0.5
 40
0.625
 40
0.625
 40
0.75
 40
0.75
 40
0.875
 40
0.875
 40
1.0
 40
1.0
 40
1.0
 40
1.0
 10
203.9343751728489
 20
137.0240870492374
 30
0.0
 10
203.9420099689284
 20
137.0240870492374
 30
0.0
 10
203.9609957380195
 20
137.0240870492374
 30
0.0
 10
204.027712207891
 20
137.0240870492374
 30
0.0
 10
204.075579322135
 20
137.0240870492374
 30
0.0
 10
204.1773734297637
 20
137.0240870492374
 30
0.0
 10
204.2164047898906
 20
137.0240870492374
 30
0.0
 10
204.3090333136614
 20
137.0240870492374
 30
0.0
 10
204.3627552534179
 20
137.0240870492374
 30
0.0
 10
204.4890334733498
 20
137.0240870492374
 30
0.0
 10
204.5617589242039
 20
137.0240870492374
 30
0.0
 10
204.7312424565868
 20
137.0240870492374
 30
0.0
 10
204.8304088106934
 20
137.0240870492374
 30
0.0
 10
204.9305698709406
 20
137.0240870492374
 30
0.0
  0
LINE
  5
20C
330
1F
100
AcDbEntity
  8
0
  6
HIDDEN
 62
     7
370
     0
100
AcDbLine
 10
204.9305698709
 20
137.0240870492
 30
0.0
 11
239.78557757
 21
137.0240870492
 31
0.0
  0
LINE
  5
20D
330
1F
100
AcDbEntity
  8
0
  6
HIDDEN
 62
     7
370
     0
100
AcDbLine
 10
239.78557757
 20
144.4741324213
 30
0.0
 11
239.78557757
 21
137.0240870492
 31
0.0
  0
CIRCLE
  5
20E
330
1F
100
AcDbEntity
  8
0
  6
HIDDEN
 62
     7
370
     0
100
AcDbCircle
 10
212.78557757
 20
181.0240870492
 30
0.0
 40
6.000000000000028
  0
LINE
  5
20F
330
1F
100
AcDbEntity
  8
0
  6
HIDDEN
 62
     7
370
     0
100
AcDbLine
 10
218.78557757
 20
198.0240870492
 30
0.0
 11
203.9222604816
 21
198.0240870492
 31
0.0
  0
LINE
  5
210
330
1F
100
AcDbEntity
  8
0
  6
HIDDEN
 62
     7
370
     0
100
AcDbLine
 10
218.78557757
 20
197.0240870492
 30
0.0
 11
218.78557757
 21
198.0240870492
 31
0.0
  0
LINE
  5
211
330
1F
100
AcDbEntity
  8
0
  6
HIDDEN
 62
     7
370
     0
100
AcDbLine
 10
218.78557757
 20
198.0240870492
 30
0.0
 11
219.78557757
 21
197.0240870492
 31
0.0
  0
LINE
  5
212
330
1F
100
AcDbEntity
  8
0
  6
HIDDEN
 62
     7
370
     0
100
AcDbLine
 10
218.78557757
 20
197.0240870492
 30
0.0
 11
219.78557757
 21
197.0240870492
 31
0.0
  0
LINE
  5
213
330
1F
100
AcDbEntity
  8
0
  6
HIDDEN
 62
     7
370
     0
100
AcDbLine
 10
219.78557757
 20
192.8240870492
 30
0.0
 11
219.78557757
 21
197.0240870492
 31
0.0
  0
LINE
  5
214
330
1F
100
AcDbEntity
  8
0
  6
HIDDEN
 62
     7
370
     0
100
AcDbLine
 10
239.78557757
 20
173.0240870492
 30
0.0
 11
239.78557757
 21
191.0240870492
 31
0.0
  0
LINE
  5
215
330
1F
100
AcDbEntity
  8
0
  6
HIDDEN
 62
     7
370
     0
100
AcDbLine
 10
238.78557757
 20
173.0240870492
 30
0.0
 11
239.78557757
 21
173.0240870492
 31
0.0
  0
ARC
  5
216
330
1F
100
AcDbEntity
  8
0
  6
HIDDEN
 62
     7
370
     0
100
AcDbCircle
 10
220.58557757
 20
192.8240870492
 30
0.0
 40
0.8000000000000114
100
AcDbArc
 50
180.0
 51
270.0
  0
LINE
  5
217
330
1F
100
AcDbEntity
  8
0
  6
HIDDEN
 62
     7
370
     0
100
AcDbLine
 10
238.78557757
 20
191.0240870492
 30
0.0
 11
239.78557757
 21
191.0240870492
 31
0.0
  0
LINE
  5
218
330
1F
100
AcDbEntity
  8
0
  6
HIDDEN
 62
     7
370
     0
100
AcDbLine
 10
238.78557757
 20
192.0240870492
 30
0.0
 11
239.78557757
 21
191.0240870492
 31
0.0
  0
LINE
  5
219
330
1F
100
AcDbEntity
  8
0
  6
HIDDEN
 62
     7
370
     0
100
AcDbLine
 10
238.78557757
 20
191.0240870492
 30
0.0
 11
238.78557757
 21
192.0240870492
 31
0.0
  0
LINE
  5
21A
330
1F
100
AcDbEntity
  8
0
  6
HIDDEN
 62
     7
370
     0
100
AcDbLine
 10
238.78557757
 20
192.0240870492
 30
0.0
 11
220.58557757
 21
192.0240870492
 31
0.0
  0
ARC
  5
21B
330
1F
100
AcDbEntity
  8
0
  6
HIDDEN
 62
     7
370
     0
100
AcDbCircle
 10
268.78557757
 20
172.0240870492
 30
0.0
 40
40.00000000000034
100
AcDbArc
 50
221.4096221093
 51
223.5311521674
  0
LINE
  5
21C
330
1F
100
AcDbEntity
  8
0
  6
HIDDEN
 62
     7
370
     0
100
AcDbLine
 10
239.78557757
 20
144.4741324213
 30
0.0
 11
239.78557757
 21
152.0240870492
 31
0.0
  0
LINE
  5
21D
330
1F
100
AcDbEntity
  8
0
  6
HIDDEN
 62
     7
370
     0
100
AcDbLine
 10
239.78557757
 20
152.0240870492
 30
0.0
 11
238.78557757
 21
152.0240870492
 31
0.0
  0
LINE
  5
21E
330
1F
100
AcDbEntity
  8
0
  6
HIDDEN
 62
     7
370
     0
100
AcDbLine
 10
238.78557757
 20
152.0240870492
 30
0.0
 11
238.78557757
 21
145.5665739386
 31
0.0
  0
LINE
  5
21F
330
1F
100
AcDbEntity
  8
0
  6
HIDDEN
 62
     7
370
     0
100
AcDbLine
 10
220.58557757
 20
191.0240870492
 30
0.0
 11
238.78557757
 21
191.0240870492
 31
0.0
  0
ARC
  5
220
330
1F
100
AcDbEntity
  8
0
  6
HIDDEN
 62
     7
370
     0
100
AcDbCircle
 10
220.58557757
 20
192.8240870492
 30
0.0
 40
1.800000000000011
100
AcDbArc
 50
180.0
 51
270.0
  0
LINE
  5
221
330
1F
100
AcDbEntity
  8
0
  6
HIDDEN
 62
     7
370
     0
100
AcDbLine
 10
238.78557757
 20
191.0240870492
 30
0.0
 11
238.78557757
 21
173.0240870492
 31
0.0
  0
LINE
  5
222
330
1F
100
AcDbEntity
  8
0
  6
HIDDEN
 62
     7
370
     0
100
AcDbLine
 10
218.78557757
 20
197.0240870492
 30
0.0
 11
218.78557757
 21
192.8240870492
 31
0.0
  0
LINE
  5
223
330
1F
100
AcDbEntity
  8
0
  6
HIDDEN
 62
     7
370
     0
100
AcDbLine
 10
203.9312336856
 20
197.0240870492
 30
0.0
 11
218.78557757
 21
197.0240870492
 31
0.0
  0
CIRCLE
  5
224
330
1F
100
AcDbEntity
  8
0
  6
HIDDEN
 62
     7
370
     0
100
AcDbCircle
 10
212.78557757
 20
181.0240870492
 30
0.0
 40
6.000000000000028
  0
LINE
  5
225
330
1F
100
AcDbEntity
  8
0
  6
HIDDEN
 62
     7
370
     0
100
AcDbLine
 10
238.78557757
 20
145.5665739386
 30
0.0
 11
204.9305698709
 21
145.5665739386
 31
0.0
  0
LINE
  5
226
330
1F
100
AcDbEntity
  8
0
  6
HIDDEN
 62
     7
370
     0
100
AcDbLine
 10
219.78557757
 20
152.0240870492
 30
0.0
 11
238.78557757
 21
152.0240870492
 31
0.0
  0
LINE
  5
227
330
1F
100
AcDbEntity
  8
0
  6
HIDDEN
 62
     7
370
     0
100
AcDbLine
 10
219.78557757
 20
173.0240870492
 30
0.0
 11
238.78557757
 21
173.0240870492
 31
0.0
  0
LINE
  5
228
330
1F
100
AcDbEntity
  8
0
  6
HIDDEN
 62
     7
370
     0
100
AcDbLine
 10
219.78557757
 20
152.0240870492
 30
0.0
 11
219.78557757
 21
173.0240870492
 31
0.0
  0
LINE
  5
229
330
1F
100
AcDbEntity
  8
0
  6
HIDDEN
 62
     7
370
     0
100
AcDbLine
 10
224.28557757
 20
192.0240870492
 30
0.0
 11
225.53557757
 21
190.7740870492
 31
0.0
  0
LINE
  5
22A
330
1F
100
AcDbEntity
  8
0
  6
HIDDEN
 62
     7
370
     0
100
AcDbLine
 10
234.03557757
 20
190.7740870492
 30
0.0
 11
235.28557757
 21
192.0240870492
 31
0.0
  0
LINE
  5
22B
330
1F
100
AcDbEntity
  8
0
  6
HIDDEN
 62
     7
370
     0
100
AcDbLine
 10
225.53557757
 20
190.7740870492
 30
0.0
 11
225.53557757
 21
173.0240870492
 31
0.0
  0
LINE
  5
22C
330
1F
100
AcDbEntity
  8
0
  6
HIDDEN
 62
     7
370
     0
100
AcDbLine
 10
234.03557757
 20
173.0240870492
 30
0.0
 11
234.03557757
 21
190.7740870492
 31
0.0
  0
LINE
  5
22D
330
1F
100
AcDbEntity
  8
0
  6
HIDDEN
 62
     7
370
     0
100
AcDbLine
 10
209.8741608581
 20
181.5667411382
 30
0.0
 11
207.4471385037
 21
174.1620758478
 31
0.0
  0
LINE
  5
22E
330
1F
100
AcDbEntity
  8
0
  6
HIDDEN
 62
     7
370
     0
100
AcDbLine
 10
211.4983076044
 20
173.0372440622
 30
0.0
 11
213.865242476
 21
180.258586897
 31
0.0
  0
LINE
  5
22F
330
1F
100
AcDbEntity
  8
0
  6
HIDDEN
 62
     7
370
     0
100
AcDbLine
 10
181.78557757
 20
152.4740870492
 30
0.0
 11
181.8784707888
 21
152.5669802681
 31
0.0
  0
LINE
  5
230
330
1F
100
AcDbEntity
  8
0
  6
HIDDEN
 62
     7
370
     0
100
AcDbLine
 10
181.8784707888
 20
191.4811938304
 30
0.0
 11
181.78557757
 21
191.5740870492
 31
0.0
  0
ARC
  5
231
330
1F
100
AcDbEntity
  8
0
  6
HIDDEN
 62
     7
370
     0
100
AcDbCircle
 10
181.1713640076
 20
153.2740870492
 30
0.0
 40
1.0
100
AcDbArc
 50
315.0
 51
0.0
  0
ARC
  5
232
330
1F
100
AcDbEntity
  8
0
  6
HIDDEN
 62
     7
370
     0
100
AcDbCircle
 10
181.1713640076
 20
153.2740870492
 30
0.0
 40
1.000000000000004
100
AcDbArc
 50
0.0
 51
52.1052014664
  0
ARC
  5
233
330
1F
100
AcDbEntity
  8
0
  6
HIDDEN
 62
     7
370
     0
100
AcDbCircle
 10
181.1713640076
 20
190.7740870492
 30
0.0
 40
0.9999999999999998
100
AcDbArc
 50
343.125
 51
45.0
  0
ARC
  5
234
330
1F
100
AcDbEntity
  8
0
  6
HIDDEN
 62
     7
370
     0
100
AcDbCircle
 10
181.1713640076
 20
190.7740870492
 30
0.0
 40
0.9999999999999998
100
AcDbArc
 50
307.8947985336
 51
343.125
  0
LINE
  5
235
330
1F
100
AcDbEntity
  8
0
  6
HIDDEN
 62
     7
370
     0
100
AcDbLine
 10
182.1713640076
 20
153.2740870492
 30
0.0
 11
182.1713640076
 21
190.7740870492
 31
0.0
  0
LINE
  5
236
330
1F
100
AcDbEntity
  8
0
  6
HIDDEN
 62
     7
370
     0
100
AcDbLine
 10
182.1713640076
 20
153.2740870492
 30
0.0
 11
182.1713640076
 21
190.7740870492
 31
0.0
  0
ARC
  5
237
330
1F
100
AcDbEntity
  8
0
  6
HIDDEN
 62
     7
370
     0
100
AcDbCircle
 10
159.2922970821
 20
161.5240870492
 30
0.0
 40
1.5
100
AcDbArc
 50
270.0
 51
315.0
  0
ARC
  5
238
330
1F
100
AcDbEntity
  8
0
  6
HIDDEN
 62
     7
370
     0
100
AcDbCircle
 10
159.2922970821
 20
182.5240870492
 30
0.0
 40
1.500000000000012
100
AcDbArc
 50
45.0
 51
90.0
  0
LINE
  5
239
330
1F
100
AcDbEntity
  8
0
  6
HIDDEN
 62
     7
370
     0
100
AcDbLine
 10
158.28557757
 20
160.0240870492
 30
0.0
 11
159.2922970821
 21
160.0240870492
 31
0.0
  0
LINE
  5
23A
330
1F
100
AcDbEntity
  8
0
  6
HIDDEN
 62
     7
370
     0
100
AcDbLine
 10
159.2922970821
 20
184.0240870492
 30
0.0
 11
158.28557757
 21
184.0240870492
 31
0.0
  0
ARC
  5
23B
330
1F
100
AcDbEntity
  8
0
  6
HIDDEN
 62
     7
370
     0
100
AcDbCircle
 10
158.28557757
 20
161.5240870492
 30
0.0
 40
1.5
100
AcDbArc
 50
191.0958032831
 51
270.0
  0
ARC
  5
23C
330
1F
100
AcDbEntity
  8
0
  6
HIDDEN
 62
     7
370
     0
100
AcDbCircle
 10
158.28557757
 20
182.5240870492
 30
0.0
 40
1.5
100
AcDbArc
 50
90.0
 51
168.9041967169
  0
LINE
  5
23D
330
1F
100
AcDbEntity
  8
0
  6
HIDDEN
 62
     7
370
     0
100
AcDbLine
 10
151.78557757
 20
160.2606749808
 30
0.0
 11
152.8136174256
 21
160.8542140682
 31
0.0
  0
LINE
  5
23E
330
1F
100
AcDbEntity
  8
0
  6
HIDDEN
 62
     7
370
     0
100
AcDbLine
 10
152.8136174256
 20
183.1939600303
 30
0.0
 11
151.78557757
 21
183.7874991177
 31
0.0
  0
LINE
  5
23F
330
1F
100
AcDbEntity
  8
0
  6
HIDDEN
 62
     7
370
     0
100
AcDbLine
 10
160.3529572538
 20
160.4634268775
 30
0.0
 11
161.4136174256
 21
161.5240870492
 31
0.0
  0
LINE
  5
240
330
1F
100
AcDbEntity
  8
0
  6
HIDDEN
 62
     7
370
     0
100
AcDbLine
 10
161.4136174256
 20
182.5240870492
 30
0.0
 11
160.3529572538
 21
183.584747221
 31
0.0
  0
LINE
  5
241
330
1F
100
AcDbEntity
  8
0
  6
HIDDEN
 62
     7
370
     0
100
AcDbLine
 10
152.8136174256
 20
160.8542140682
 30
0.0
 11
155.3136174256
 21
161.5240870492
 31
0.0
  0
LINE
  5
242
330
1F
100
AcDbEntity
  8
0
  6
HIDDEN
 62
     7
370
     0
100
AcDbLine
 10
155.3136174256
 20
182.5240870492
 30
0.0
 11
152.8136174256
 21
183.1939600303
 31
0.0
  0
LINE
  5
243
330
1F
100
AcDbEntity
  8
0
  6
HIDDEN
 62
     7
370
     0
100
AcDbLine
 10
156.8136174256
 20
182.8127621838
 30
0.0
 11
156.3136174256
 21
182.5240870492
 31
0.0
  0
LINE
  5
244
330
1F
100
AcDbEntity
  8
0
  6
HIDDEN
 62
     7
370
     0
100
AcDbLine
 10
156.3136174256
 20
161.5240870492
 30
0.0
 11
156.8136174256
 21
161.2354119146
 31
0.0
  0
LINE
  5
245
330
1F
100
AcDbEntity
  8
0
  6
HIDDEN
 62
     7
370
     0
100
AcDbLine
 10
155.3136174256
 20
161.5240870492
 30
0.0
 11
156.3136174256
 21
161.5240870492
 31
0.0
  0
LINE
  5
246
330
1F
100
AcDbEntity
  8
0
  6
HIDDEN
 62
     7
370
     0
100
AcDbLine
 10
156.3136174256
 20
182.5240870492
 30
0.0
 11
155.3136174256
 21
182.5240870492
 31
0.0
  0
ARC
  5
247
330
1F
100
AcDbEntity
  8
0
  6
HIDDEN
 62
     7
370
     0
100
AcDbCircle
 10
171.28557757
 20
162.0240870492
 30
0.0
 40
0.5
100
AcDbArc
 50
270.0
 51
0.0
  0
ARC
  5
248
330
1F
100
AcDbEntity
  8
0
  6
HIDDEN
 62
     7
370
     0
100
AcDbCircle
 10
171.28557757
 20
182.0240870492
 30
0.0
 40
0.5
100
AcDbArc
 50
0.0
 51
90.0
  0
LINE
  5
249
330
1F
100
AcDbEntity
  8
0
  6
HIDDEN
 62
     7
370
     0
100
AcDbLine
 10
170.8330153966
 20
161.5240870492
 30
0.0
 11
171.28557757
 21
161.5240870492
 31
0.0
  0
LINE
  5
24A
330
1F
100
AcDbEntity
  8
0
  6
HIDDEN
 62
     7
370
     0
100
AcDbLine
 10
161.4136174256
 20
161.5240870492
 30
0.0
 11
164.737735888
 21
161.5240870492
 31
0.0
  0
LINE
  5
24B
330
1F
100
AcDbEntity
  8
0
  6
HIDDEN
 62
     7
370
     0
100
AcDbLine
 10
164.7464083952
 20
182.5240870492
 30
0.0
 11
161.4136174256
 21
182.5240870492
 31
0.0
  0
LINE
  5
24C
330
1F
100
AcDbEntity
  8
0
  6
HIDDEN
 62
     7
370
     0
100
AcDbLine
 10
171.28557757
 20
182.5240870492
 30
0.0
 11
170.8266527835
 21
182.5240870492
 31
0.0
  0
LINE
  5
24D
330
1F
100
AcDbEntity
  8
0
  6
HIDDEN
 62
     7
370
     0
100
AcDbLine
 10
171.78557757
 20
163.7740870492
 30
0.0
 11
172.78557757
 21
164.7740870492
 31
0.0
  0
LINE
  5
24E
330
1F
100
AcDbEntity
  8
0
  6
HIDDEN
 62
     7
370
     0
100
AcDbLine
 10
172.78557757
 20
179.2740870492
 30
0.0
 11
171.78557757
 21
180.2740870492
 31
0.0
  0
LINE
  5
24F
330
1F
100
AcDbEntity
  8
0
  6
HIDDEN
 62
     7
370
     0
100
AcDbLine
 10
172.78557757
 20
164.7740870492
 30
0.0
 11
196.78557757
 21
164.7740870492
 31
0.0
  0
LINE
  5
250
330
1F
100
AcDbEntity
  8
0
  6
HIDDEN
 62
     7
370
     0
100
AcDbLine
 10
196.78557757
 20
179.2740870492
 30
0.0
 11
172.78557757
 21
179.2740870492
 31
0.0
  0
LINE
  5
251
330
1F
100
AcDbEntity
  8
0
  6
HIDDEN
 62
     7
370
     0
100
AcDbLine
 10
196.78557757
 20
164.7740870492
 30
0.0
 11
198.5881594271
 21
167.7740870492
 31
0.0
  0
LINE
  5
252
330
1F
100
AcDbEntity
  8
0
  6
HIDDEN
 62
     7
370
     0
100
AcDbLine
 10
198.5881594271
 20
176.2740870492
 30
0.0
 11
196.78557757
 21
179.2740870492
 31
0.0
  0
LINE
  5
253
330
1F
100
AcDbEntity
  8
0
  6
HIDDEN
 62
     7
370
     0
100
AcDbLine
 10
224.28557757
 20
192.0240870492
 30
0.0
 11
225.53557757
 21
190.7740870492
 31
0.0
  0
LINE
  5
254
330
1F
100
AcDbEntity
  8
0
  6
HIDDEN
 62
     7
370
     0
100
AcDbLine
 10
234.03557757
 20
190.7740870492
 30
0.0
 11
235.28557757
 21
192.0240870492
 31
0.0
  0
LINE
  5
255
330
1F
100
AcDbEntity
  8
0
  6
HIDDEN
 62
     7
370
     0
100
AcDbLine
 10
198.5881594271
 20
167.7740870492
 30
0.0
 11
211.78557757
 21
167.7740870492
 31
0.0
  0
LINE
  5
256
330
1F
100
AcDbEntity
  8
0
  6
HIDDEN
 62
     7
370
     0
100
AcDbLine
 10
211.78557757
 20
176.2740870492
 30
0.0
 11
198.5881594271
 21
176.2740870492
 31
0.0
  0
LINE
  5
257
330
1F
100
AcDbEntity
  8
0
  6
HIDDEN
 62
     7
370
     0
100
AcDbLine
 10
211.78557757
 20
167.7740870492
 30
0.0
 11
214.3392352009
 21
172.0240870492
 31
0.0
  0
LINE
  5
258
330
1F
100
AcDbEntity
  8
0
  6
HIDDEN
 62
     7
370
     0
100
AcDbLine
 10
214.3392352009
 20
172.0240870492
 30
0.0
 11
211.78557757
 21
176.2740870492
 31
0.0
  0
LINE
  5
259
330
1F
100
AcDbEntity
  8
0
  6
HIDDEN
 62
     7
370
     0
100
AcDbLine
 10
225.53557757
 20
190.7740870492
 30
0.0
 11
225.53557757
 21
173.0240870492
 31
0.0
  0
LINE
  5
25A
330
1F
100
AcDbEntity
  8
0
  6
HIDDEN
 62
     7
370
     0
100
AcDbLine
 10
234.03557757
 20
173.0240870492
 30
0.0
 11
234.03557757
 21
190.7740870492
 31
0.0
  0
LINE
  5
25B
330
1F
100
AcDbEntity
  8
0
  6
HIDDEN
 62
     7
370
     0
100
AcDbLine
 10
171.2303376325
 20
155.8390092661
 30
0.0
 11
170.83557757
 21
156.2337693286
 31
0.0
  0
LINE
  5
25C
330
1F
100
AcDbEntity
  8
0
  6
HIDDEN
 62
     7
370
     0
100
AcDbLine
 10
164.73557757
 20
156.2337693286
 30
0.0
 11
164.505259048
 21
156.0034508066
 31
0.0
  0
LINE
  5
25D
330
1F
100
AcDbEntity
  8
0
  6
HIDDEN
 62
     7
370
     0
100
AcDbLine
 10
159.1676900422
 20
156.1419745771
 30
0.0
 11
157.28557757
 21
158.0240870492
 31
0.0
  0
LINE
  5
25E
330
1F
100
AcDbEntity
  8
0
  6
HIDDEN
 62
     7
370
     0
100
AcDbLine
 10
157.28557757
 20
158.0240870492
 30
0.0
 11
151.78557757
 21
158.0240870492
 31
0.0
  0
LINE
  5
25F
330
1F
100
AcDbEntity
  8
0
  6
HIDDEN
 62
     7
370
     0
100
AcDbLine
 10
170.83557757
 20
182.5215013256
 30
0.0
 11
170.83557757
 21
186.0240870492
 31
0.0
  0
LINE
  5
260
330
1F
100
AcDbEntity
  8
0
  6
HIDDEN
 62
     7
370
     0
100
AcDbLine
 10
164.73557757
 20
186.0240870492
 30
0.0
 11
164.73557757
 21
182.5209467693
 31
0.0
  0
LINE
  5
261
330
1F
100
AcDbEntity
  8
0
  6
HIDDEN
 62
     7
370
     0
100
AcDbLine
 10
170.83557757
 20
186.0240870492
 30
0.0
 11
167.78557757
 21
187.8567119373
 31
0.0
  0
LINE
  5
262
330
1F
100
AcDbEntity
  8
0
  6
HIDDEN
 62
     7
370
     0
100
AcDbLine
 10
167.78557757
 20
187.8567119373
 30
0.0
 11
164.73557757
 21
186.0240870492
 31
0.0
  0
LINE
  5
263
330
1F
100
AcDbEntity
  8
0
  6
HIDDEN
 62
     7
370
     0
100
AcDbLine
 10
170.83557757
 20
156.2337693286
 30
0.0
 11
170.83557757
 21
161.5248237775
 31
0.0
  0
LINE
  5
264
330
1F
100
AcDbEntity
  8
0
  6
HIDDEN
 62
     7
370
     0
100
AcDbLine
 10
164.73557757
 20
161.5247135476
 30
0.0
 11
164.73557757
 21
156.2337693286
 31
0.0
  0
LINE
  5
265
330
1F
100
AcDbEntity
  8
0
  6
HIDDEN
 62
     7
370
     0
100
AcDbLine
 10
191.78557757
 20
147.5240870492
 30
0.0
 11
191.78557757
 21
147.0240870492
 31
0.0
  0
LINE
  5
266
330
1F
100
AcDbEntity
  8
0
  6
HIDDEN
 62
     7
370
     0
100
AcDbLine
 10
195.78557757
 20
147.0240870492
 30
0.0
 11
195.78557757
 21
147.5240870492
 31
0.0
  0
LINE
  5
267
330
1F
100
AcDbEntity
  8
0
  6
HIDDEN
 62
     7
370
     0
100
AcDbLine
 10
195.78557757
 20
147.5240870492
 30
0.0
 11
193.78557757
 21
148.7258082873
 31
0.0
  0
LINE
  5
268
330
1F
100
AcDbEntity
  8
0
  6
HIDDEN
 62
     7
370
     0
100
AcDbLine
 10
193.78557757
 20
148.7258082873
 30
0.0
 11
191.78557757
 21
147.5240870492
 31
0.0
  0
LINE
  5
269
330
1F
100
AcDbEntity
  8
0
  6
HIDDEN
 62
     7
370
     0
100
AcDbLine
 10
207.4471385037
 20
174.1620758478
 30
0.0
 11
207.4470055933
 21
174.1616703481
 31
0.0
  0
LINE
  5
26A
330
1F
100
AcDbEntity
  8
0
  6
HIDDEN
 62
     7
370
     0
100
AcDbLine
 10
211.4980832759
 20
173.0365596527
 30
0.0
 11
211.4983076044
 21
173.0372440622
 31
0.0
  0
LINE
  5
26B
330
1F
100
AcDbEntity
  8
0
  6
HIDDEN
 62
     7
370
     0
100
AcDbLine
 10
224.28557757
 20
192.0240870492
 30
0.0
 11
225.53557757
 21
190.7740870492
 31
0.0
  0
LINE
  5
26C
330
1F
100
AcDbEntity
  8
0
  6
HIDDEN
 62
     7
370
     0
100
AcDbLine
 10
234.03557757
 20
190.7740870492
 30
0.0
 11
235.28557757
 21
192.0240870492
 31
0.0
  0
LINE
  5
26D
330
1F
100
AcDbEntity
  8
0
  6
HIDDEN
 62
     7
370
     0
100
AcDbLine
 10
225.53557757
 20
190.7740870492
 30
0.0
 11
225.53557757
 21
173.0240870492
 31
0.0
  0
LINE
  5
26E
330
1F
100
AcDbEntity
  8
0
  6
HIDDEN
 62
     7
370
     0
100
AcDbLine
 10
234.03557757
 20
173.0240870492
 30
0.0
 11
234.03557757
 21
190.7740870492
 31
0.0
  0
DIMENSION
  5
26F
330
1F
100
AcDbEntity
  8
VERMASSUNG
100
AcDbDimension
  2
_D_4
 10
248.3184150488
 20
172.0240870492
 30
0.0
 11
248.3184150488
 21
162.0240870492
 31
0.0
 70
   160
  1
<>
 71
     2
 42
-1.0
  3
SLDDIMSTYLE0
100
AcDbAlignedDimension
 13
239.78557757
 23
152.0240870492
 33
0.0
 14
244.599272729
 24
172.0240870492
 34
0.0
 50
90.0
100
AcDbRotatedDimension
  0
DIMENSION
  5
279
330
1F
100
AcDbEntity
  8
VERMASSUNG
100
AcDbDimension
  2
_D_5
 10
255.78557757
 20
192.0240870492
 30
0.0
 11
255.78557757
 21
182.0240870492
 31
0.0
 70
   160
  1
<>
 71
     2
 42
-1.0
  3
SLDDIMSTYLE0
100
AcDbAlignedDimension
 13
244.599272729
 23
172.0240870492
 33
0.0
 14
238.78557757
 24
192.0240870492
 34
0.0
 50
90.0
100
AcDbRotatedDimension
  0
DIMENSION
  5
283
330
1F
100
AcDbEntity
  8
VERMASSUNG
100
AcDbDimension
  2
_D_6
 10
255.78557757
 20
137.0240870492
 30
0.0
 11
255.78557757
 21
154.5240870492
 31
0.0
 70
   160
  1
<>
 71
     2
 42
-1.0
  3
SLDDIMSTYLE0
100
AcDbAlignedDimension
 13
244.599272729
 23
172.0240870492
 33
0.0
 14
239.78557757
 24
137.0240870492
 34
0.0
 50
90.0
100
AcDbRotatedDimension
  0
DIMENSION
  5
28D
330
1F
100
AcDbEntity
  8
VERMASSUNG
100
AcDbDimension
  2
_D_7
 10
248.3184150488
 20
173.0240870492
 30
0.0
 11
248.3184150488
 21
181.3630969605
 31
0.0
 70
   160
  1
<>
 71
     2
 42
-1.0
  3
SLDDIMSTYLE2
100
AcDbAlignedDimension
 13
244.599272729
 23
172.0240870492
 33
0.0
 14
239.78557757
 24
173.0240870492
 34
0.0
 50
90.0
100
AcDbRotatedDimension
  0
DIMENSION
  5
29A
330
1F
100
AcDbEntity
  8
VERMASSUNG
100
AcDbDimension
  2
_D_8
 10
141.78557757
 20
147.0240870492
 30
0.0
 11
141.78557757
 21
172.0240870492
 31
0.0
 70
   160
  1
PSC%%c<>
 71
     2
 42
-1.0
  3
SLDDIMSTYLE0
100
AcDbAlignedDimension
 13
182.08557757
 23
197.0240870492
 33
0.0
 14
182.08557757
 24
147.0240870492
 34
0.0
 50
90.0
100
AcDbRotatedDimension
  0
LINE
  5
2A6
330
1F
100
AcDbEntity
  8
VERMASSUNG
  6
CENTERX2
370
     0
100
AcDbLine
 10
149.78557757
 20
172.0240870492
 30
0.0
 11
244.599272729
 21
172.0240870492
 31
0.0
  0
OLE2FRAME
  5
2A7
330
1F
100
AcDbEntity
  8
0
100
AcDbOle2Frame
 70
     2
  3
Paintbrush-Bild
 10
13.8511154363
 20
38.264191557
 30
0.0
 11
51.6290888628
 21
31.9806341108
 31
0.0
 71
     2
 72
     0
 73
     1
 90
    12928
310
80552BED0767C5B32B40DDAF6807D121434000000000000000006FFBDDFB85D0
310
4940DDAF6807D121434000000000000000006FFBDDFB85D04940416F4BD60AFB
310
3F4000000000000000002BED0767C5B32B40416F4BD60AFB3F40000000000000
310
0000000000000100000000010000010000000100000000000100000000320000
310
D0CF11E0A1B11AE1000000000000000000000000000000003E000300FEFF0900
310
0600000000000000000000000100000001000000000000000010000002000000
310
01000000FEFFFFFF0000000000000000FFFFFFFFFFFFFFFFFFFFFFFFFFFFFFFF
310
FFFFFFFFFFFFFFFFFFFFFFFFFFFFFFFFFFFFFFFFFFFFFFFFFFFFFFFFFFFFFFFF
310
FFFFFFFFFFFFFFFFFFFFFFFFFFFFFFFFFFFFFFFFFFFFFFFFFFFFFFFFFFFFFFFF
310
FFFFFFFFFFFFFFFFFFFFFFFFFFFFFFFFFFFFFFFFFFFFFFFFFFFFFFFFFFFFFFFF
310
FFFFFFFFFFFFFFFFFFFFFFFFFFFFFFFFFFFFFFFFFFFFFFFFFFFFFFFFFFFFFFFF
310
FFFFFFFFFFFFFFFFFFFFFFFFFFFFFFFFFFFFFFFFFFFFFFFFFFFFFFFFFFFFFFFF
310
FFFFFFFFFFFFFFFFFFFFFFFFFFFFFFFFFFFFFFFFFFFFFFFFFFFFFFFFFFFFFFFF
310
FFFFFFFFFFFFFFFFFFFFFFFFFFFFFFFFFFFFFFFFFFFFFFFFFFFFFFFFFFFFFFFF
310
FFFFFFFFFFFFFFFFFFFFFFFFFFFFFFFFFFFFFFFFFFFFFFFFFFFFFFFFFFFFFFFF
310
FFFFFFFFFFFFFFFFFFFFFFFFFFFFFFFFFFFFFFFFFFFFFFFFFFFFFFFFFFFFFFFF
310
FFFFFFFFFFFFFFFFFFFFFFFFFFFFFFFFFFFFFFFFFFFFFFFFFFFFFFFFFFFFFFFF
310
FFFFFFFFFFFFFFFFFFFFFFFFFFFFFFFFFFFFFFFFFFFFFFFFFFFFFFFFFFFFFFFF
310
FFFFFFFFFFFFFFFFFFFFFFFFFFFFFFFFFFFFFFFFFFFFFFFFFFFFFFFFFFFFFFFF
310
FFFFFFFFFFFFFFFFFFFFFFFFFFFFFFFFFFFFFFFFFFFFFFFFFFFFFFFFFFFFFFFF
310
FDFFFFFFFEFFFFFFFEFFFFFFFEFFFFFF05000000060000000700000008000000
310
090000000A0000000B0000000C0000000D0000000E0000000F00000010000000
310
11000000120000001300000014000000150000001600000017000000FEFFFFFF
310
FFFFFFFFFFFFFFFFFFFFFFFFFFFFFFFFFFFFFFFFFFFFFFFFFFFFFFFFFFFFFFFF
310
FFFFFFFFFFFFFFFFFFFFFFFFFFFFFFFFFFFFFFFFFFFFFFFFFFFFFFFFFFFFFFFF
310
FFFFFFFFFFFFFFFFFFFFFFFFFFFFFFFFFFFFFFFFFFFFFFFFFFFFFFFFFFFFFFFF
310
FFFFFFFFFFFFFFFFFFFFFFFFFFFFFFFFFFFFFFFFFFFFFFFFFFFFFFFFFFFFFFFF
310
FFFFFFFFFFFFFFFFFFFFFFFFFFFFFFFFFFFFFFFFFFFFFFFFFFFFFFFFFFFFFFFF
310
FFFFFFFFFFFFFFFFFFFFFFFFFFFFFFFFFFFFFFFFFFFFFFFFFFFFFFFFFFFFFFFF
310
FFFFFFFFFFFFFFFFFFFFFFFFFFFFFFFFFFFFFFFFFFFFFFFFFFFFFFFFFFFFFFFF
310
FFFFFFFFFFFFFFFFFFFFFFFFFFFFFFFFFFFFFFFFFFFFFFFFFFFFFFFFFFFFFFFF
310
FFFFFFFFFFFFFFFFFFFFFFFFFFFFFFFFFFFFFFFFFFFFFFFFFFFFFFFFFFFFFFFF
310
FFFFFFFFFFFFFFFFFFFFFFFFFFFFFFFFFFFFFFFFFFFFFFFFFFFFFFFFFFFFFFFF
310
FFFFFFFFFFFFFFFFFFFFFFFFFFFFFFFFFFFFFFFFFFFFFFFFFFFFFFFFFFFFFFFF
310
FFFFFFFFFFFFFFFFFFFFFFFFFFFFFFFFFFFFFFFFFFFFFFFFFFFFFFFFFFFFFFFF
310
FFFFFFFFFFFFFFFFFFFFFFFFFFFFFFFFFFFFFFFFFFFFFFFFFFFFFFFFFFFFFFFF
310
52006F006F007400200045006E00740072007900000000000000000000000000
310
0000000000000000000000000000000000000000000000000000000000000000
310
16000500FFFFFFFFFFFFFFFF020000000A00030000000000C000000000000046
310
00000000000000000000000030C476E7012DCD0103000000C000000000000000
310
01004F006C006500000000000000000000000000000000000000000000000000
310
0000000000000000000000000000000000000000000000000000000000000000
310
0A000200FFFFFFFFFFFFFFFFFFFFFFFF00000000000000000000000000000000
310
0000000000000000000000000000000000000000000000001400000000000000
310
010043006F006D0070004F0062006A0000000000000000000000000000000000
310
0000000000000000000000000000000000000000000000000000000000000000
310
120002010100000003000000FFFFFFFF00000000000000000000000000000000
310
0000000000000000000000000000000000000000010000004D00000000000000
310
01004F006C006500310030004E00610074006900760065000000000000000000
310
0000000000000000000000000000000000000000000000000000000000000000
310
1A000200FFFFFFFFFFFFFFFFFFFFFFFF00000000000000000000000000000000
310
0000000000000000000000000000000000000000040000002426000000000000
310
FEFFFFFF02000000FEFFFFFFFFFFFFFFFFFFFFFFFFFFFFFFFFFFFFFFFFFFFFFF
310
FFFFFFFFFFFFFFFFFFFFFFFFFFFFFFFFFFFFFFFFFFFFFFFFFFFFFFFFFFFFFFFF
310
FFFFFFFFFFFFFFFFFFFFFFFFFFFFFFFFFFFFFFFFFFFFFFFFFFFFFFFFFFFFFFFF
310
FFFFFFFFFFFFFFFFFFFFFFFFFFFFFFFFFFFFFFFFFFFFFFFFFFFFFFFFFFFFFFFF
310
FFFFFFFFFFFFFFFFFFFFFFFFFFFFFFFFFFFFFFFFFFFFFFFFFFFFFFFFFFFFFFFF
310
FFFFFFFFFFFFFFFFFFFFFFFFFFFFFFFFFFFFFFFFFFFFFFFFFFFFFFFFFFFFFFFF
310
FFFFFFFFFFFFFFFFFFFFFFFFFFFFFFFFFFFFFFFFFFFFFFFFFFFFFFFFFFFFFFFF
310
FFFFFFFFFFFFFFFFFFFFFFFFFFFFFFFFFFFFFFFFFFFFFFFFFFFFFFFFFFFFFFFF
310
FFFFFFFFFFFFFFFFFFFFFFFFFFFFFFFFFFFFFFFFFFFFFFFFFFFFFFFFFFFFFFFF
310
FFFFFFFFFFFFFFFFFFFFFFFFFFFFFFFFFFFFFFFFFFFFFFFFFFFFFFFFFFFFFFFF
310
FFFFFFFFFFFFFFFFFFFFFFFFFFFFFFFFFFFFFFFFFFFFFFFFFFFFFFFFFFFFFFFF
310
FFFFFFFFFFFFFFFFFFFFFFFFFFFFFFFFFFFFFFFFFFFFFFFFFFFFFFFFFFFFFFFF
310
FFFFFFFFFFFFFFFFFFFFFFFFFFFFFFFFFFFFFFFFFFFFFFFFFFFFFFFFFFFFFFFF
310
FFFFFFFFFFFFFFFFFFFFFFFFFFFFFFFFFFFFFFFFFFFFFFFFFFFFFFFFFFFFFFFF
310
FFFFFFFFFFFFFFFFFFFFFFFFFFFFFFFFFFFFFFFFFFFFFFFFFFFFFFFFFFFFFFFF
310
FFFFFFFFFFFFFFFFFFFFFFFFFFFFFFFFFFFFFFFFFFFFFFFFFFFFFFFFFFFFFFFF
310
0100000200000000000000000000000000000000000000000000000000000000
310
0000000000000000000000000000000000000000000000000000000000000000
310
0100FEFF030A0000FFFFFFFF0A00030000000000C00000000000004607000000
310
5042727573680007000000504272757368000700000050427275736800F439B2
310
7100000000000000000000000000000000000000000000000000000000000000
310
0000000000000000000000000000000000000000000000000000000000000000
310
0000000000000000000000000000000000000000000000000000000000000000
310
0000000000000000000000000000000000000000000000000000000000000000
310
0000000000000000000000000000000000000000000000000000000000000000
310
0000000000000000000000000000000000000000000000000000000000000000
310
0000000000000000000000000000000000000000000000000000000000000000
310
0000000000000000000000000000000000000000000000000000000000000000
310
0000000000000000000000000000000000000000000000000000000000000000
310
0000000000000000000000000000000000000000000000000000000000000000
310
0000000000000000000000000000000000000000000000000000000000000000
310
0000000000000000000000000000000000000000000000000000000000000000
310
20260000424D0E260000000000003E00000028000000B40200006E0000000100
310
01000000000000000000130B0000130B00000200000002000000000000FFFFFF
310
FFFFFFFFFFFFFFFFFFFFFFFFFFFFFFFFFFFFFFFFFFFFFFFFFFFFFFFFFFFFFFFF
310
FFFFFFFFFFFFFFFFFFFFFFFFFFFFFFFFFFFFFFFFFFFFFFFFFFFFFFFFFFFFFFFF
310
FFFFFFFFFFFFFFFFFFFFFFFFFFFFFFFFFFFFFFFFFFFFFFFFF000FFFFFFFFFFFF
310
FFFFFFFFFFFFFFFFFFFFFFFFFFFFFFFFFFFFFFFFFFFFFFFFFFFFFFFFFFFFFFFF
310
FFFFFFFFFFFFFFFFFFFFFFFFFFFFFFFFFFFFFFFFFFFFFFFFFFFFFFFFFFFFFFFF
310
FFFFFFFFFFFFFFFFFFFFFFFFFFFFFFFFF000FFFFFFFFFFFFFFFFFFFFFFFFFFFF
310
FFFFFFFFFFFFFFFFFFFFFFFFFFFFFFFFFFFFFFFFFFFFFFFFFFFFFFFFFFFFFFFF
310
FFFFFFFFFFFFFFFFFFFFFFFFFFFFFFFFFFFFFFFFFFFFFFFFFFFFFFFFFFFFFFFF
310
FFFFFFFFFFFFFFFFF000FFFFFFFFFFFFFFFFFFFFFFFFFFFFFFFFFFFFFFFFFFFF
310
FFFFFFFFFFFFFFFFFFFFFFFFFFFFFFFFFFFFFFFFFFFFFFFFFFFFFFFFFFFFFFFF
310
FFFFFFFFFFFFFFFFFFFFFFFFFFFFFFFFFFFFFFFFFFFFFFFFFFFFFFFFFFFFFFFF
310
F000FFFFFFFFFFFFFFFFFFFFFFFFFFFFFFFFFFFFFFFFFFFFFFFFFFFFFFFFFFFF
310
FFFFFFFFFFFFFFFFFFFFFFFFFFFFFFFFFFFFFFFFFFFFFFFFFFFFFFFFFFFFFFFF
310
FFFFFFFFFFFFFFFFFFFFFFFFFFFFFFFFFFFFFFFFFFFFFFFFF000FFFFFFFFFFFF
310
FFFFFFFFFFFFFFFFFFFFFFFFFFFFFFFFFFFFFFFFFFFFFFFFFFFFFFFFFFFFFFFF
310
FFFFFFFFFFFFFFFFFFFFFFFFFFFFFFFFFFFFFFFFFFFFFFFFFFFFFFFFFFFFFFFF
310
FFFFFFFFFFFFFFFFFFFFFFFFFFFFFFFFF000FFFFFFFFFFFFFFFFFFFFFFFFFFFF
310
FFFFFFFFFFFFFFFFFFFFFFFFFFFFFFFFFFFFFFFFFFFFFFFFFFFFFFFFFFFFFFFF
310
FFFFFFFFFFFFFFFFFFFFFFFFFFFFFFFFFFFFFFFFFFFFFFFFFFFFFFFFFFFFFFFF
310
FFFFFFFFFFFFFFFFF000FFFFFFFFFFFFFFFFFFFFFFFFFFFFFFFFFFFFFFFFFFFF
310
FFFFFFFFFFFFFFFFFFFFFFFFFFFFFFFFFFFFFFFFFFFFFFFFFFFFFFFFFFFFFFFF
310
FFFFFFFFFFFFFFFFFFFFFFFFFFFFFFFFFFFFFFFFFFFFFFFFFFFFFFFFFFFFFFFF
310
F000FFFFFFFFFFFFFFFFFFFFFFFFFFFFFFFFFFFFFFFFFFFFFFFFFFFFFFFFFFFF
310
FFFFFFFFFFFFFFFFFFFFFFFFFFFFFFFFFFFFFFFFFFFFFFFFFFFFFFFFFFFFFFFF
310
FFFFFFFFFFFFFFFFFFFFFFFFFFFFFFFFFFFFFFFFFFFFFFFFF000FFFFFFFFFFFF
310
FFFFFFFFFFFFFFFFFFFFFFFFFFFFFFFFFFFFFFFFFFFFFFFFFFFFFFFFFFFFFFFF
310
FFFFFFFFFFFFFFFFFFFFFFFFFFFFFFFFFFFFFFFFFFFFFFFFFFFFFFFFFFFFFFFF
310
FFFFFFFFFFFFFFFFFFFFFFFFFFFFFFFFF000FFFFFFFFFFFFFFFFFFFFFFFFFFFF
310
FFFFFFFFFFFFFFFFFFFFFFFFFFFFFFFFFFFFFFFFFFFFFFFFFFFFFFFFFFFFFFFF
310
FFFFFFFFFFFFFFFFFFFFFFFFFFFFFFFFFFFFFFFFFFFFFFFFFFFFFFFFFFFFFFFF
310
FFFFFFFFFFFFFFFFF000FFFFFFFFFFFFFFFFFFFFFFFFFFFFFFFFFFFFFFFFFFFF
310
FFFFFFFFFFFFFFFFFFFFFFFFFFFFFFFFFFFFFFFFFFFFFFFFFFFFFFFFFFFFFFFF
310
FFFFFFFFFFFFFFFFFFFFFFFFFFFFFFFFFFFFFFFFFFFFFFFFFFFFFFFFFFFFFFFF
310
F000FFFFFFFFFFFFFFFFFFFFFFFFFFFFFFFFFFFFFFFFFFFFFFFFFFFFFFFFFFFF
310
FFFFFFFFFFFFFFFFFFFFFFFFFFFFFFFFFFFFFFFFFFFFFFFFFFFFFFFFFFFFFFFF
310
FFFFFFFFFFFFFFFFFFFFFFFFFFFFFFFFFFFFFFFFFFFFFFFFF000FFFFFFFFFFFF
310
FFFFFFFFFFFFFFFFFFFFFFFFFFFFFFFFFFFFFFFFFFFFFFFFFFFFFFFFFFFFFFFF
310
FFFFFFFFFFFFFFFFFFFFFFFFFFFFFFFFFFFFFFFFFFFFFFFFFFFFFFFFFFFFFFFF
310
FFFFFFFFFFFFFFFFFFFFFFFFFFFFFFFFF000FFFFFFFFFFFFFFFFFFFFFFFFFFFF
310
FFFFFFFFFFFFFFFFFFFFFFFFFFFFFFFFFFFFFFFFFFFFFFFFFFFFFFFFFFFFFFFF
310
FFFFFFFFFFFFFFFFFFFFFFFFFFFFFFFFFFFFFFFFFFFFFFFFFFFFFFFFFFFFFFFF
310
FFFFFFFFFFFFFFFFF000FFFFFFFFFFFFFFFFFFFFFFFFFFFFFFFFFFFFFFFFFFFF
310
FFFFFFFFFFFFFFFFFFFFFFFFFFFFFFFFFFFFFFFFFFFFFFFFFFFFFFFFFFFFFFFF
310
FFFFFFFFFFFFFFFFFFFFFFFFFFFFFFFFFFFFFFFFFFFFFFFFFFFFFFFFFFFFFFFF
310
F000FFFFFFFFFFFFFFFFFFFFFFFFFFFFFFFFFFFFFFFFFFFFFFFFFFFFFFFFFFFF
310
FFFFFFFFFFFFFFFFFFFFFFFFFFFFFFFFFFFFFFFFFFFFFFFFFFFFFFFFFFFFFFFF
310
FFFFFFFFFFFFFFFFFFFFFFFFFFFFFFFFFFFFFFFFFFFFFFFFF000FFFFFFFFFFFF
310
FFFFFFFFFFFFFFFFFFFFFFFFFFFFFFFFFFFFFFFFFFFFFFFFFFFFFFFFFFFFFFFF
310
FFFFFFFFFFFFFFFFFFFFFFFFFFFFFFFFFFFFFFFFFFFFFFFFFFFFFFFFFFFFFFFF
310
FFFFFFFFFFFFFFFFFFFFFFFFFFFFFFFFF000FFFFFFFFFFFFFFFFFFFFFFFFFFFF
310
FFFFFFFFFFFFFFFFFFFFFFFFFFFFFFFFFFFFFFFFFFFFFFFFFFFFFFFFFFFFFFFF
310
FFFFFFFFFFFFFFFFFFFFFFFFFFFFFFFFFFFFFFFFFFFFFFFFFFFFFFFFFFFFFFFF
310
FFFFFFFFFFFFFFFFF000FFFFF80003FFFFFFFFFFFFFFFFFFFFFFFFFFFFFFFFFF
310
FFFFF00007FFFFFFFFFF00007FFFFFF800000000000000007FFFFFFFFFFFFFFF
310
FFFFFFFC001FFFFFFFFFFFFFFC001FFFFFFFFFFFFFFFFFFFFFFFFFFE0007FFFF
310
F000FFFF8000007FFFFFFFF8000FFFFFC0007FFFFF80007FFFFF0000007FFFFF
310
FFF8000007FFFFF800000000000000007FFFFFF0001FFFFFFFFFFFC00001FFFF
310
FFFFFFFFC00001FFFFFFFF000000000003FFFFE000007FFFF000FFFE0000000F
310
FFFFFFF0000FFFFF80007FFFFF80007FFFFC0000001FFFFFFFC0000001FFFFF8
310
00000000000000007FFFFFF0001FFFFFFFFFFE0000003FFFFFFFFFFE0000003F
310
FFFFFF000000000003FFFF0000000FFFF000FFF800000003FFFFFFF00007FFFF
310
80007FFFFF80007FFFF000000007FFFFFF000000003FFFF80000000000000000
310
7FFFFFF0001FFFFFFFFFF80000000FFFFFFFFFF80000000FFFFFFF0000000000
310
03FFFC00000003FFF000FFE000000000FFFFFFF00007FFFF80003FFFFF80007F
310
FFC000000001FFFFFC000000001FFFF800000000000000007FFFFFF0001FFFFF
310
FFFFE000000003FFFFFFFFE000000003FFFFFF000000000003FFF000000000FF
310
F000FF80000000007FFFFFF00007FFFF80003FFFFF80007FFF8000000000FFFF
310
F80000000007FFF800000000000000007FFFFFF0001FFFFFFFFFC000000001FF
310
FFFFFFC000000001FFFFFF000000000003FFC0000000007FF000FF0000000000
310
3FFFFFE00007FFFF00003FFFFF80007FFE00000000003FFFF00000000003FFF8
310
00000000000000007FFFFFF0001FFFFFFFFF8000000000FFFFFFFF8000000000
310
FFFFFF000000000003FF80000000003FF000FE00000000001FFFFFE00003FFFF
310
00003FFFFF80007FFC00000000001FFFE00000000001FFF8000001FFFE000000
310
7FFFFFF0001FFFFFFFFE00000000003FFFFFFE00000000003FFFFF0000000000
310
03FF00000000001FF000FC00000000000FFFFFE00003FFFF00001FFFFF80007F
310
F800000000001FFFC00000000000FFF8000001FFFE0000007FFFFFF0001FFFFF
310
FFFC00000000001FFFFFFC00000000001FFFFF000000000003FE00000000000F
310
F000F8000000000007FFFFE00003FFFF00001FFFFF80007FF800000000000FFF
310
800000000000FFF8000001FFFE0000007FFFFFF0001FFFFFFFF800000000000F
310
FFFFF800000000000FFFFF000000000003FC000000000007F000F80000000000
310
03FFFFC00003FFFE00001FFFFF80007FF0000000000007FF0000000000007FF8
310
000001FFFE0000007FFFFFF0001FFFFFFFF0000000000007FFFFF00000000000
310
07FFFF000000000003F8000000000003F000F0000000000003FFFFC00001FFFE
310
00001FFFFF80007FE0000000000007FE0000000000003FF8000001FFFE000000
310
7FFFFFF0001FFFFFFFF0000000000007FFFFF0000000000007FFFF0000000000
310
03F800001F800003F000E00001FFF00001FFFFC00001FFFE00000FFFFF80007F
310
E00001FFE00003FE00001FFF00003FF8000001FFFE0000007FFFFFF0001FFFFF
310
FFE000003E000003FFFFE000003E000003FFFF000000000003F00001FFF80001
310
F000E00007FFFC0001FFFFC00001FFFE00000FFFFF80007FC0000FFFFC0003FC
310
0000FFFFC0001FF8000001FFFE0000007FFFFFF0001FFFFFFFC00003FFE00001
310
FFFFC00003FFE00001FFFF0001FFFFFFFFF00007FFFE0001F000E0000FFFFF00
310
00FFFF800001FFFC00000FFFFF80007FC0001FFFFE0001FC0001FFFFE0001FF8
310
000001FFFE0000007FFFFFF0001FFFFFFF80000FFFF80000FFFF80000FFFF800
310
00FFFF0003FFFFFFFFE0000FFFFF8000F000C0003FFFFF8000FFFF800000FFFC
310
000007FFFF80007F80003FFFFF0001FC0003FFFFF0001FF8000001FFFE000000
310
7FFFFFF0001FFFFFFF80003FFFFE0000FFFF80003FFFFE0000FFFF0003FFFFFF
310
FFE0003FFFFF8000F000C0003FFFFF8000FFFF800000FFFC000007FFFF80007F
310
80007FFFFF8001F80007FFFFF8000FF8000001FFFE0000007FFFFFF0001FFFFF
310
FF00007FFFFF00007FFF00007FFFFF00007FFF0003FFFFFFFFE0003FFFFFC000
310
F000C0007FFFFFC000FFFF000000FFFC000007FFFF80007F8000FFFFFF8000F8
310
000FFFFFF8000FF8000001FFFE0000007FFFFFF0001FFFFFFF0000FFFFFF8000
310
7FFF0000FFFFFF80007FFF0003FFFFFFFFC0007FFFFFC00070008000FFFFFFC0
310
00FFFF000000FFF8000007FFFF80007F8000FFFFFF8000F8000FFFFFF8000FF8
310
000001FFFE0000007FFFFFF0001FFFFFFE0001FFFFFFC0003FFE0001FFFFFFC0
310
003FFF0003FFFFFFFFC0007FFFFFE00070008000FFFFFFC0007FFF0000007FF8
310
000003FFFF80007F0001FFFFFF8000F8000FFFFFF8000FF8000001FFFE000000
310
7FFFFFF0001FFFFFFE0001FFFFFFC0003FFE0001FFFFFFC0003FFF0003FFFFFF
310
FFC000FFFFFFE00070008000FFFFFFC0007FFF0000007FF8000003FFFF80007F
310
0001FFFFFF8000F8001FFFFFF8000FF8000001FFFE0000007FFFFFF0001FFFFF
310
FE0003FFFFFFE0003FFE0003FFFFFFE0003FFF0003FFFFFFFFC000FFFFFFE000
310
70008000FFFFFFC0007FFE0000007FF8000003FFFF80007F0001FFFFFF8000F0
310
001FFFFFF8000FF8000001FFFE0000007FFFFFF0001FFFFFFC0003FFFFFFE000
310
1FFC0003FFFFFFE0001FFF0003FFFFFFFFC000FFFFFFC00070008000FFFFFF80
310
007FFE0000007FF0000003FFFF80007F0001FFFFFF0000F0001FFFFFF8000FF8
310
000001FFFE0000007FFFFFF0001FFFFFFC0007FFFFFFF0001FFC0007FFFFFFF0
310
001FFF0003FFFFFFFFC000FFFFFFC00070008001FFFFFF0000FFFE0000003FF0
310
000001FFFF80007F0001FFFFFF0000F8001FFFFFF0000FF8000001FFFE000000
310
7FFFFFF0001FFFFFFC0007FFFFFFF0001FFC0007FFFFFFF0001FFF0003FFFFFF
310
FFC001FFFFFF80007000FFFFFFFFFE0000FFFE0008003FF0008001FFFF80007F
310
FFFFFFFFFC0000FFFFFFFFFFE0000FF8000001FFFE0000007FFFFFF0001FFFFF
310
F8000FFFFFFFF8000FF8000FFFFFFFF8000FFF0003FFFFFFFFFFFFFFFFFF0000
310
7000FFFFFFFFFC0000FFFC0008003FF0008001FFFF80007FFFFFFFFFF80001FF
310
FFFFFFFF80000FF8000001FFFE0000007FFFFFF0001FFFFFF8000FFFFFFFF800
310
0FF8000FFFFFFFF8000FFF0003FFFFFFFFFFFFFFFFFE0000F000FFFFFFFFE000
310
00FFFC000C003FE000C001FFFF80007FFFFFFFFFC00001FFFFFFFFFE00001FF8
310
000001FFFE0000007FFFFFF0001FFFFFF8000FFFFFFFF8000FF8000FFFFFFFF8
310
000FFF0003FFFFFFFFFFFFFFFFF00000F000FFFFFFFE000001FFFC000C001FE0
310
00C000FFFF80007FFFFFFFFE000001FFFFFFFFE000001FF80FFFFFFFFFFFFFC0
310
7FFFFFF0001FFFFFF8000FFFFFFFF8000FF8000FFFFFFFF8000FFF0003FFFFFF
310
FFFFFFFFFF800000F000FFFFFFC0000001FFFC001C001FE001C000FFFF80007F
310
FFFFFF80000003FFFFFFF80000001FF80FFFFFFFFFFFFFC07FFFFFF0001FFFFF
310
F8001FFFFFFFFC000FF8001FFFFFFFFC000FFF0003FFFFFFFFFFFFFFF0000001
310
F000FFFFF800000001FFF8001C001FE001C000FFFF80007FFFFFF800000003FF
310
FFFF800000003FF80FFFFFFFFFFFFFC07FFFFFF0001FFFFFF8001FFFFFFFFC00
310
0FF8001FFFFFFFFC000FFF0003FFFFFFFFFFFFFE00000001F000FFFFC0000000
310
03FFF8001E001FC001E000FFFF80007FFFFF8000000007FFFFFC000000003FF8
310
0FFFFFFFFFFFFFC07FFFFFF0001FFFFFF8001FFFFFFFFC000FF8001FFFFFFFFC
310
000FFF0003FFFFFFFFFFFFE000000003F000FFFE0000000007FFF8001E000FC0
310
01E0007FFF80007FFFFE0000000007FFFFE0000000007FF80FFFFFFFFFFFFFC0
310
7FFFFFF0001FFFFFF0001FFFFFFFFC0007F0001FFFFFFFFC0007FF0003FFFFFF
310
FFFFFF0000000003F000FFF80000000007FFF8001E000FC003E0007FFF80007F
310
FFF0000000000FFFFF8000000000FFF80FFFFFFFFFFFFFC07FFFFFF0001FFFFF
310
F0001FFFFFFFFC0007F0001FFFFFFFFC0007FF0003FFFFFFFFFFFC0000000007
310
F000FFE0000000000FFFF0003E000FC003E0007FFF80007FFFC0000000001FFF
310
FE0000000001FFF80FFFFFFFFFFFFFC07FFFFFF0001FFFFFF0001FFFFFFFFC00
310
07F0001FFFFFFFFC0007FF0003FFFFFFFFFFF0000000000FF000FFC000000000
310
1FFFF0003F000F8003F0003FFF80007FFF80000000003FFFF80000000003FFF8
310
0FFFFFFFFFFFFFC07FFFFFF0001FFFFFF0001FFFFFFFFC0007F0001FFFFFFFFC
310
0007FF0003FFFFFFFFFFE0000000001FF000FF00000000007FFFF0003F000780
310
03F0003FFF80007FFF00000000007FFFF00000000007FFF80FFFFFFFFFFFFFC0
310
7FFFFFF0001FFFFFF0001FFFFFFFFC0007F0001FFFFFFFFC0007FF0003FFFFFF
310
FFFF80000000007FF000FE0000000000FFFFE0003F00078007F0003FFF80007F
310
FE0000000001FFFFE0000000001FFFF80FFFFFFFFFFFFFC07FFFFFF0001FFFFF
310
F0001FFFFFFFFC0007F0001FFFFFFFFC0007FF0003FFFFFFFFFF0000000000FF
310
F000FC0000000003FFFFE0007F00078007F0003FFF80007FFC0000000007FFFF
310
C0000000007FFFF80FFFFFFFFFFFFFC07FFFFFF0001FFFFFF8001FFFFFFFFC00
310
0FF8001FFFFFFFFC000FFF0003FFFFFFFFFE0000000003FFF000FC000000000F
310
FFFFE0007F80070007F8001FFF80007FF8000000001FFFFF8000000001FFFFF8
310
0FFFFFFFFFFFFFC07FFFFFF0001FFFFFF8001FFFFFFFFC000FF8001FFFFFFFFC
310
000FFF0003FFFFFFFFFC000000000FFFF000F8000000007FFFFFE0007F800700
310
07F8001FFF80007FF000000000FFFFFF800000000FFFFFF80FFFFFFFFFFFFFC0
310
7FFFFFF0001FFFFFF8000FFFFFFFF8000FF8000FFFFFFFF8000FFF0003FFFFFF
310
FFFC000000007FFFF000F800000007FFFFFFC0007F8003000FF8001FFF80007F
310
F000000007FFFFFF000000007FFFFFF80FFFFFFFFFFFFFC07FFFFFF0001FFFFF
310
F8000FFFFFFFF8000FF8000FFFFFFFF8000FFF0003FFFFFFFFF80000000FFFFF
310
F000F0000000FFFFFFFFC000FF8003000FF8001FFF80007FE0000000FFFFFFFF
310
0000000FFFFFFFF8000001FFFE0000007FFFFFF0001FFFFFF8000FFFFFFFF800
310
0FF8000FFFFFFFF8000FFF0003FFFFFFFFF8000000FFFFFFF000F000000FFFFF
310
FFFFC000FFC002000FF8000FFF80007FE000001FFFFFFFFE000001FFFFFFFFF8
310
000001FFFE0000007FFFFFF0001FFFFFF8000FFFFFFFF8000FF8000FFFFFFFF8
310
000FFF0003FFFFFFFFF000001FFFFFFFF000E00000FFFFFFFFFFC000FFC00200
310
0FFC000FFF80007FE00001FFFFFFFFFE00001FFFFFFFFFF8000001FFFE000000
310
7FFFFFF0001FFFFFFC000FFFFFFFF8001FFC000FFFFFFFF8001FFF0003FFFFFF
310
FFF00001FFFFFFFFF000E00007FFFFFFFFFF8000FFC000001FFC000FFF80007F
310
C0000FFFFFFFFFFE0000FFFFFFFFFFF8000001FFFE0000007FFFFFF0001FFFFF
310
FC0007FFFFFFF0001FFC0007FFFFFFF0001FFF0003FFFFFFFFF00007FFFFFFFF
310
F000E0001FFFFFFFFFFF8000FFC000001FFC000FFF80007FC0003FFFFFFFFFFE
310
0001FFFFFFFFFFF8000001FFFE0000007FFFFFF0001FFFFFFC0007FFFFFFF000
310
1FFC0007FFFFFFF0001FFF0003FFFFFFFFF0001FFFFFFFFFF000E0003FFFFF00
310
03FF8001FFE000001FFC0007FF80007FC0007FFFFF0007FC0003FFFFF0003FF8
310
000001FFFE0000007FFFFFF0001FFFFFFC0003FFFFFFE0001FFC0003FFFFFFE0
310
001FFF0003FFFFFFFFF0003FFFFFFFFFF000E0003FFFFF0001FF8001FFE00000
310
1FFE0007FF80007FC0007FFFFE0003FC0007FFFFE0003FF8000001FFFE000000
310
7FFFFFF0001FFFFFFE0003FFFFFFE0003FFE0003FFFFFFE0003FFF0003FFFFFF
310
FFF0003FFFFF8001F000E0003FFFFF0001FF0001FFE000001FFE0007FF80007F
310
C0007FFFFE0003FC0007FFFFE0003FF8000001FFFE0000007FFFFFF0001FFFFF
310
FE0001FFFFFFC0003FFE0001FFFFFFC0003FFF0003FFFFFFFFF0003FFFFF0001
310
F000E0003FFFFF0003FF0001FFE000003FFE0007FF80007FC0007FFFFE0003FC
310
0007FFFFE0003FF8000001FFFE0000007FFFFFF0001FFFFFFF0001FFFFFFC000
310
7FFF0001FFFFFFC0007FFF0003FFFFFFFFF0003FFFFF0001F000E0003FFFFE00
310
03FF0003FFF000003FFE0003FF80007FC0007FFFFC0003FE0007FFFFE0003FF8
310
000001FFFE0000007FFFFFF0001FFFFFFF0000FFFFFF80007FFF0000FFFFFF80
310
007FFF0003FFFFFFFFF0003FFFFF0001F000E0003FFFFE0003FF0003FFF00000
310
3FFF0003FF80007FC0007FFFFC0007FE0007FFFFC0003FF8000001FFFE000000
310
7FFFFFF0001FFFFFFF80007FFFFF0000FFFF80007FFFFF0000FFFF0003FFFFFF
310
FFF0003FFFFF0003F000E0003FFFFC0003FE0003FFF000003FFF0003FF80007F
310
E0003FFFF80007FE0003FFFFC0007FF8000001FFFE0000007FFFFFF0001FFFFF
310
FF80003FFFFE0000FFFF80003FFFFE0000FFFF0003FFFFFFFFF0001FFFFE0003
310
F000F0001FFFF80003FE0003FFF000007FFF0001FF80007FE0003FFFF00007FE
310
0001FFFF80007FF8000001FFFE0000007FFFFFF0001FFFFFFFC0000FFFF80001
310
FFFFC0000FFFF80001FFFF0003FFFFFFFFF0001FFFFC0003F000F0000FFFF000
310
07FE0007FFF800007FFF0001FF80007FE0001FFFE00007FF0000FFFE00007FF8
310
000001FFFE0000007FFFFFF0001FFFFFFFC00003FFE00001FFFFC00003FFE000
310
01FFFF0003FFFFFFFFF8000FFFF80003F000F00003FFC00007FC0007FFF80000
310
7FFF8001FF80007FF00007FF80000FFF00007FF80000FFF8000001FFFE000000
310
7F80000000000001FFE000003E000003FFFFE000003E000003FFFF0003FFFFFF
310
FFF80003FFE00007F000F800000000000FFC0007FFF800007FFF8001FF80007F
310
F000000000000FFF000000000000FFF8000001FFFE0000007F80000000000001
310
FFF0000000000007FFFFF0000000000007FFFF0003FFFFFFFFFC00007E000007
310
F000F800000000000FFC0007FFF80000FFFF8000FF80007FF800000000001FFF
310
800000000001FFF8000001FFFE0000007F80000000000001FFF800000000000F
310
FFFFF800000000000FFFFF0003FFFFFFFFFC00000000000FF000FC0000000000
310
1FFC0007FFFC0000FFFF8000FF80007FF800000000003FFFC00000000001FFF8
310
000001FFFE0000007F80000000000001FFF800000000000FFFFFF80000000000
310
0FFFFF0003FFFFFFFFFE00000000001FF000FE00000000003FF8000FFFFC0000
310
FFFF8000FF80007FFC00000000003FFFC00000000003FFF8000001FFFE000000
310
7F80000000000001FFFC00000000001FFFFFFC00000000001FFFFF0003FFFFFF
310
FFFF00000000001FF000FF00000000003FF8000FFFFC0000FFFFC000FF80007F
310
FE00000000007FFFE00000000007FFF8000001FFFE0000007F80000000000001
310
FFFE00000000003FFFFFFE00000000003FFFFF0003FFFFFFFFFF80000000003F
310
F000FF80000000007FF8000FFFFC0001FFFFC0007F80007FFF0000000000FFFF
310
F0000000000FFFF800000000000000007F80000000000001FFFF8000000000FF
310
FFFFFF8000000000FFFFFF0003FFFFFFFFFFC0000000007FF000FFC000000000
310
FFF8000FFFFE0001FFFFC0007F80007FFF8000000001FFFFF8000000001FFFF8
310
00000000000000007F80000000000001FFFFC000000001FFFFFFFFC000000001
310
FFFFFF0003FFFFFFFFFFE000000000FFF000FFE000000003FFF0001FFFFE0001
310
FFFFC0007F80007FFFC000000007FFFFFE000000003FFFF80000000000000000
310
7F80000000000001FFFFE000000003FFFFFFFFE000000003FFFFFF0003FFFFFF
310
FFFFF000000003FFF000FFF80000000FFFF0001FFFFE0001FFFFE0007F80007F
310
FFF00000000FFFFFFF00000000FFFFF800000000000000007F80000000000001
310
FFFFF80000000FFFFFFFFFF80000000FFFFFFF0003FFFFFFFFFFFC0000000FFF
310
F000FFFE0000003FFFF0001FFFFE0003FFFFE0003F80007FFFFC0000003FFFFF
310
FFC0000003FFFFF800000000000000007F80000000000001FFFFFE0000003FFF
310
FFFFFFFE0000003FFFFFFF0003FFFFFFFFFFFF0000003FFFF000FFFF800000FF
310
FFF0001FFFFF0003FFFFE0003F80007FFFFF000001FFFFFFFFF800001FFFFFF8
310
00000000000000007F80000000000001FFFFFFC00001FFFFFFFFFFFFC00001FF
310
FFFFFF0003FFFFFFFFFFFFC00000FFFFF000FFFFF8000FFFFFFFFFFFFFFFFFFF
310
FFFFFFFFFFFFFFFFFFFFF0001FFFFFFFFFFF0000FFFFFFF80000000000000000
310
7FFFFFFFFFFFFFFFFFFFFFFC001FFFFFFFFFFFFFFC001FFFFFFFFFFFFFFFFFFF
310
FFFFFFFC001FFFFFF000FFFFFFFFFFFFFFFFFFFFFFFFFFFFFFFFFFFFFFFFFFFF
310
FFFFFFFFFFFFFFFFFFFFFFFFFFFFFFFFFFFFFFFFFFFFFFFFFFFFFFFFFFFFFFFF
310
FFFFFFFFFFFFFFFFFFFFFFFFFFFFFFFFFFFFFFFFFFFFFFFFFFFFFFFFFFFFFFFF
310
F000FFFFFFFFFFFFFFFFFFFFFFFFFFFFFFFFFFFFFFFFFFFFFFFFFFFFFFFFFFFF
310
FFFFFFFFFFFFFFFFFFFFFFFFFFFFFFFFFFFFFFFFFFFFFFFFFFFFFFFFFFFFFFFF
310
FFFFFFFFFFFFFFFFFFFFFFFFFFFFFFFFFFFFFFFFFFFFFFFFF000FFFFFFFFFFFF
310
FFFFFFFFFFFFFFFFFFFFFFFFFFFFFFFFFFFFFFFFFFFFFFFFFFFFFFFFFFFFFFFF
310
FFFFFFFFFFFFFFFFFFFFFFFFFFFFFFFFFFFFFFFFFFFFFFFFFFFFFFFFFFFFFFFF
310
FFFFFFFFFFFFFFFFFFFFFFFFFFFFFFFFF000FFFFFFFFFFFFFFFFFFFFFFFFFFFF
310
FFFFFFFFFFFFFFFFFFFFFFFFFFFFFFFFFFFFFFFFFFFFFFFFFFFFFFFFFFFFFFFF
310
FFFFFFFFFFFFFFFFFFFFFFFFFFFFFFFFFFFFFFFFFFFFFFFFFFFFFFFFFFFFFFFF
310
FFFFFFFFFFFFFFFFF000FFFFFFFFFFFFFFFFFFFFFFFFFFFFFFFFFFFFFFFFFFFF
310
FFFFFFFFFFFFFFFFFFFFFFFFFFFFFFFFFFFFFFFFFFFFFFFFFFFFFFFFFFFFFFFF
310
FFFFFFFFFFFFFFFFFFFFFFFFFFFFFFFFFFFFFFFFFFFFFFFFFFFFFFFFFFFFFFFF
310
F000FFFFFFFFFFFFFFFFFFFFFFFFFFFFFFFFFFFFFFFFFFFFFFFFFFFFFFFFFFFF
310
FFFFFFFFFFFFFFFFFFFFFFFFFFFFFFFFFFFFFFFFFFFFFFFFFFFFFFFFFFFFFFFF
310
FFFFFFFFFFFFFFFFFFFFFFFFFFFFFFFFFFFFFFFFFFFFFFFFF000FFFFFFFFFFFF
310
FFFFFFFFFFFFFFFFFFFFFFFFFFFFFFFFFFFFFFFFFFFFFFFFFFFFFFFFFFFFFFFF
310
FFFFFFFFFFFFFFFFFFFFFFFFFFFFFFFFFFFFFFFFFFFFFFFFFFFFFFFFFFFFFFFF
310
FFFFFFFFFFFFFFFFFFFFFFFFFFFFFFFFF000FFFFFFFFFFFFFFFFFFFFFFFFFFFF
310
FFFFFFFFFFFFFFFFFFFFFFFFFFFFFFFFFFFFFFFFFFFFFFFFFFFFFFFFFFFFFFFF
310
FFFFFFFFFFFFFFFFFFFFFFFFFFFFFFFFFFFFFFFFFFFFFFFFFFFFFFFFFFFFFFFF
310
FFFFFFFFFFFFFFFFF000FFFFFFFFFFFFFFFFFFFFFFFFFFFFFFFFFFFFFFFFFFFF
310
FFFFFFFFFFFFFFFFFFFFFFFFFFFFFFFFFFFFFFFFFFFFFFFFFFFFFFFFFFFFFFFF
310
FFFFFFFFFFFFFFFFFFFFFFFFFFFFFFFFFFFFFFFFFFFFFFFFFFFFFFFFFFFFFFFF
310
F000FFFFFFFFFFFFFFFFFFFFFFFFFFFFFFFFFFFFFFFFFFFFFFFFFFFFFFFFFFFF
310
FFFFFFFFFFFFFFFFFFFFFFFFFFFFFFFFFFFFFFFFFFFFFFFFFFFFFFFFFFFFFFFF
310
FFFFFFFFFFFFFFFFFFFFFFFFFFFFFFFFFFFFFFFFFFFFFFFFF000FFFFFFFFFFFF
310
FFFFFFFFFFFFFFFFFFFFFFFFFFFFFFFFFFFFFFFFFFFFFFFFFFFFFFFFFFFFFFFF
310
FFFFFFFFFFFFFFFFFFFFFFFFFFFFFFFFFFFFFFFFFFFFFFFFFFFFFFFFFFFFFFFF
310
FFFFFFFFFFFFFFFFFFFFFFFFFFFFFFFFF000FFFFFFFFFFFFFFFFFFFFFFFFFFFF
310
FFFFFFFFFFFFFFFFFFFFFFFFFFFFFFFFFFFFFFFFFFFFFFFFFFFFFFFFFFFFFFFF
310
FFFFFFFFFFFFFFFFFFFFFFFFFFFFFFFFFFFFFFFFFFFFFFFFFFFFFFFFFFFFFFFF
310
FFFFFFFFFFFFFFFFF000FFFFFFFFFFFFFFFFFFFFFFFFFFFFFFFFFFFFFFFFFFFF
310
FFFFFFFFFFFFFFFFFFFFFFFFFFFFFFFFFFFFFFFFFFFFFFFFFFFFFFFFFFFFFFFF
310
FFFFFFFFFFFFFFFFFFFFFFFFFFFFFFFFFFFFFFFFFFFFFFFFFFFFFFFFFFFFFFFF
310
F000FFFFFFFFFFFFFFFFFFFFFFFFFFFFFFFFFFFFFFFFFFFFFFFFFFFFFFFFFFFF
310
FFFFFFFFFFFFFFFFFFFFFFFFFFFFFFFFFFFFFFFFFFFFFFFFFFFFFFFFFFFFFFFF
310
FFFFFFFFFFFFFFFFFFFFFFFFFFFFFFFFFFFFFFFFFFFFFFFFF000FFFFFFFFFFFF
310
FFFFFFFFFFFFFFFFFFFFFFFFFFFFFFFFFFFFFFFFFFFFFFFFFFFFFFFFFFFFFFFF
310
FFFFFFFFFFFFFFFFFFFFFFFFFFFFFFFFFFFFFFFFFFFFFFFFFFFFFFFFFFFFFFFF
310
FFFFFFFFFFFFFFFFFFFFFFFFFFFFFFFFF000FFFFFFFFFFFFFFFFFFFFFFFFFFFF
310
FFFFFFFFFFFFFFFFFFFFFFFFFFFFFFFFFFFFFFFFFFFFFFFFFFFFFFFFFFFFFFFF
310
FFFFFFFFFFFFFFFFFFFFFFFFFFFFFFFFFFFFFFFFFFFFFFFFFFFFFFFFFFFFFFFF
310
FFFFFFFFFFFFFFFFF000FFFFFFFFFFFFFFFFFFFFFFFFFFFFFFFFFFFFFFFFFFFF
310
FFFFFFFFFFFFFFFFFFFFFFFFFFFFFFFFFFFFFFFFFFFFFFFFFFFFFFFFFFFFFFFF
310
FFFFFFFFFFFFFFFFFFFFFFFFFFFFFFFFFFFFFFFFFFFFFFFFFFFFFFFFFFFFFFFF
310
F000FFFFFFFFFFFFFFFFFFFFFFFFFFFFFFFFFFFFFFFFFFFFFFFFFFFFFFFFFFFF
310
FFFFFFFFFFFFFFFFFFFFFFFFFFFFFFFFFFFFFFFFFFFFFFFFFFFFFFFFFFFFFFFF
310
FFFFFFFFFFFFFFFFFFFFFFFFFFFFFFFFFFFFFFFFFFFFFFFFF000FFFFFFFFFFFF
310
FFFFFFFFFFFFFFFFFFFFFFFFFFFFFFFFFFFFFFFFFFFFFFFFFFFFFFFFFFFFFFFF
310
FFFFFFFFFFFFFFFFFFFFFFFFFFFFFFFFFFFFFFFFFFFFFFFFFFFFFFFFFFFFFFFF
310
FFFFFFFFFFFFFFFFFFFFFFFFFFFFFFFFF000FFFFFFFFFFFFFFFFFFFFFFFFFFFF
310
FFFFFFFFFFFFFFFFFFFFFFFFFFFFFFFFFFFFFFFFFFFFFFFFFFFFFFFFFFFFFFFF
310
FFFFFFFFFFFFFFFFFFFFFFFFFFFFFFFFFFFFFFFFFFFFFFFFFFFFFFFFFFFFFFFF
310
FFFFFFFFFFFFFFFFF000FFFFFFFFFFFFFFFFFFFFFFFFFFFFFFFFFFFFFFFFFFFF
310
FFFFFFFFFFFFFFFFFFFFFFFFFFFFFFFFFFFFFFFFFFFFFFFFFFFFFFFFFFFFFFFF
310
FFFFFFFFFFFFFFFFFFFFFFFFFFFFFFFFFFFFFFFFFFFFFFFFFFFFFFFFFFFFFFFF
310
F000FFFFFFFFFFFFFFFFFFFFFFFFFFFFFFFFFFFFFFFFFFFFFFFFFFFFFFFFFFFF
310
FFFFFFFFFFFFFFFFFFFFFFFFFFFFFFFFFFFFFFFFFFFFFFFFFFFFFFFFFFFFFFFF
310
FFFFFFFFFFFFFFFFFFFFFFFFFFFFFFFFFFFFFFFFFFFFFFFFF000FFFFFFFFFFFF
310
FFFFFFFFFFFFFFFFFFFFFFFFFFFFFFFFFFFFFFFFFFFFFFFFFFFFFFFFFFFFFFFF
310
FFFFFFFFFFFFFFFFFFFFFFFFFFFFFFFFFFFFFFFFFFFFFFFFFFFFFFFFFFFFFFFF
310
FFFFFFFFFFFFFFFFFFFFFFFFFFFFFFFFF0000000000000000000000000000000
310
0000000000000000000000000000000000000000000000000000000000000000
310
0000000000000000000000000000000000000000000000000000000000000000
310
0000000000000000000000000000000000000000000000000000000000000000
310
0000000000000000000000000000000000000000000000000000000000000000
310
0000000000000000000000000000000000000000000000000000000000000000
310
0000000000000000000000000000000000000000000000000000000000000000
310
0000000000000000000000000000000000000000000000000000000000000000
310
0000000000000000000000000000000000000000000000000000000000000000
310
0000000000000000000000000000000000000000000000000000000000000000
310
0000000000000000000000000000000000000000000000000000000000000000
310
0000000000000000000000000000000000000000000000000000000000000000
310
0000000000000000000000000000000000000000000000000000000000000000
310
0000000000000000000000000000000000000000000000000000000000000000
310
0000000000000000000000000000000000000000000000000000000000000000
310
0000000000000000000000000000000000000000000000000000000000000000
  1
OLE
  0
ENDSEC
  0
SECTION
  2
OBJECTS
  0
DICTIONARY
  5
C
330
0
100
AcDbDictionary
281
     1
  3
ACAD_GROUP
350
D
  3
ACAD_LAYOUT
350
1A
  3
ACAD_MLINESTYLE
350
17
  3
ACAD_PLOTSETTINGS
350
19
  3
ACAD_PLOTSTYLENAME
350
E
  0
DICTIONARY
  5
D
102
{ACAD_REACTORS
330
C
102
}
330
C
100
AcDbDictionary
281
     1
  0
DICTIONARY
  5
1A
102
{ACAD_REACTORS
330
C
102
}
330
C
100
AcDbDictionary
281
     1
  3
Layout1
350
1E
  3
Layout2
350
26
  3
Model
350
22
  0
DICTIONARY
  5
17
102
{ACAD_REACTORS
330
C
102
}
330
C
100
AcDbDictionary
281
     1
  3
Standard
350
18
  0
DICTIONARY
  5
19
102
{ACAD_REACTORS
330
C
102
}
330
C
100
AcDbDictionary
281
     1
  0
ACDBDICTIONARYWDFLT
  5
E
102
{ACAD_REACTORS
330
C
102
}
330
C
100
AcDbDictionary
281
     1
  3
Normal
350
F
100
AcDbDictionaryWithDefault
340
F
  0
LAYOUT
  5
1E
102
{ACAD_REACTORS
330
1A
102
}
330
1A
100
AcDbPlotSettings
  1

  2
none_device
  4

  6

 40
0.0
 41
0.0
 42
0.0
 43
0.0
 44
0.0
 45
0.0
 46
0.0
 47
0.0
 48
0.0
 49
0.0
140
0.0
141
0.0
142
1.0
143
1.0
 70
   688
 72
     0
 73
     0
 74
     5
  7

 75
    16
147
1.0
148
0.0
149
0.0
100
AcDbLayout
  1
Layout1
 70
     1
 71
     1
 10
0.0
 20
0.0
 11
420.0
 21
297.0
 12
0.0
 22
0.0
 32
0.0
 14
1.0000000000E+20
 24
1.0000000000E+20
 34
1.0000000000E+20
 15
-1.0000000000E+20
 25
-1.0000000000E+20
 35
-1.0000000000E+20
146
0.0
 13
0.0
 23
0.0
 33
0.0
 16
1.0
 26
0.0
 36
0.0
 17
0.0
 27
1.0
 37
0.0
 76
     0
330
1B
  0
LAYOUT
  5
26
102
{ACAD_REACTORS
330
1A
102
}
330
1A
100
AcDbPlotSettings
  1

  2
none_device
  4

  6

 40
0.0
 41
0.0
 42
0.0
 43
0.0
 44
0.0
 45
0.0
 46
0.0
 47
0.0
 48
0.0
 49
0.0
140
0.0
141
0.0
142
1.0
143
1.0
 70
   688
 72
     0
 73
     0
 74
     5
  7

 75
    16
147
1.0
148
0.0
149
0.0
100
AcDbLayout
  1
Layout2
 70
     1
 71
     2
 10
0.0
 20
0.0
 11
0.0
 21
0.0
 12
0.0
 22
0.0
 32
0.0
 14
0.0
 24
0.0
 34
0.0
 15
0.0
 25
0.0
 35
0.0
146
0.0
 13
0.0
 23
0.0
 33
0.0
 16
1.0
 26
0.0
 36
0.0
 17
0.0
 27
1.0
 37
0.0
 76
     0
330
23
  0
LAYOUT
  5
22
102
{ACAD_REACTORS
330
1A
102
}
330
1A
100
AcDbPlotSettings
  1

  2
none_device
  4

  6

 40
0.0
 41
0.0
 42
0.0
 43
0.0
 44
0.0
 45
0.0
 46
0.0
 47
0.0
 48
0.0
 49
0.0
140
0.0
141
0.0
142
1.0
143
1.0
 70
  1712
 72
     0
 73
     0
 74
     0
  7

 75
     0
147
1.0
148
0.0
149
0.0
100
AcDbLayout
  1
Model
 70
     1
 71
     0
 10
0.0
 20
0.0
 11
297.0
 21
210.0
 12
0.0
 22
0.0
 32
0.0
 14
0.0
 24
0.0
 34
0.0
 15
297.0
 25
210.0
 35
0.0
146
0.0
 13
0.0
 23
0.0
 33
0.0
 16
1.0
 26
0.0
 36
0.0
 17
0.0
 27
1.0
 37
0.0
 76
     0
330
1F
331
29
  0
MLINESTYLE
  5
18
102
{ACAD_REACTORS
330
17
102
}
330
17
100
AcDbMlineStyle
  2
Standard
 70
     0
  3

 62
   256
 51
90.0
 52
90.0
 71
     2
 49
0.5
 62
   256
  6
BYLAYER
 49
-0.5
 62
   256
  6
BYLAYER
  0
ACDBPLACEHOLDER
  5
F
102
{ACAD_REACTORS
330
E
102
}
330
E
  0
ENDSEC
  0
EOF
